  0
SECTION
  2
HEADER
  9
$ACADVER
  1
AC1015
  9
$ACADMAINTVER
 70
    20
  9
$DWGCODEPAGE
  3
ANSI_1252
  9
$INSBASE
 10
0.0
 20
0.0
 30
0.0
  9
$EXTMIN
 10
19758.19799543176
 20
-1801.749047437142
 30
0.0
  9
$EXTMAX
 10
20744.59759714891
 20
-714.363443802031
 30
0.0
  9
$LIMMIN
 10
0.0
 20
0.0
  9
$LIMMAX
 10
420.0
 20
297.0
  9
$ORTHOMODE
 70
     0
  9
$REGENMODE
 70
     1
  9
$FILLMODE
 70
     1
  9
$QTEXTMODE
 70
     0
  9
$MIRRTEXT
 70
     1
  9
$LTSCALE
 40
8.0
  9
$ATTMODE
 70
     1
  9
$TEXTSIZE
 40
2.5
  9
$TRACEWID
 40
1.0
  9
$TEXTSTYLE
  7
STANDARD
  9
$CLAYER
  8
0
  9
$CELTYPE
  6
ByLayer
  9
$CECOLOR
 62
   256
  9
$CELTSCALE
 40
1.0
  9
$DISPSILH
 70
     0
  9
$DIMSCALE
 40
1.0
  9
$DIMASZ
 40
65.0
  9
$DIMEXO
 40
1.0
  9
$DIMDLI
 40
10.0
  9
$DIMRND
 40
0.0
  9
$DIMDLE
 40
0.0
  9
$DIMEXE
 40
25.0
  9
$DIMTP
 40
0.1
  9
$DIMTM
 40
0.1
  9
$DIMTXT
 40
50.0
  9
$DIMCEN
 40
0.0
  9
$DIMTSZ
 40
0.0
  9
$DIMTOL
 70
     0
  9
$DIMLIM
 70
     0
  9
$DIMTIH
 70
     0
  9
$DIMTOH
 70
     0
  9
$DIMSE1
 70
     0
  9
$DIMSE2
 70
     0
  9
$DIMTAD
 70
     1
  9
$DIMZIN
 70
     8
  9
$DIMBLK
  1

  9
$DIMASO
 70
     1
  9
$DIMSHO
 70
     1
  9
$DIMPOST
  1

  9
$DIMAPOST
  1
"
  9
$DIMALT
 70
     0
  9
$DIMALTD
 70
     2
  9
$DIMALTF
 40
0.0393701
  9
$DIMLFAC
 40
1.0
  9
$DIMTOFL
 70
     1
  9
$DIMTVP
 40
0.0
  9
$DIMTIX
 70
     0
  9
$DIMSOXD
 70
     0
  9
$DIMSAH
 70
     0
  9
$DIMBLK1
  1

  9
$DIMBLK2
  1

  9
$DIMSTYLE
  2
AM_DIN
  9
$DIMCLRD
 70
   256
  9
$DIMCLRE
 70
   256
  9
$DIMCLRT
 70
     2
  9
$DIMTFAC
 40
0.71
  9
$DIMGAP
 40
15.0
  9
$DIMJUST
 70
     0
  9
$DIMSD1
 70
     0
  9
$DIMSD2
 70
     0
  9
$DIMTOLJ
 70
     0
  9
$DIMTZIN
 70
     8
  9
$DIMALTZ
 70
     0
  9
$DIMALTTZ
 70
     0
  9
$DIMUPT
 70
     0
  9
$DIMDEC
 70
     0
  9
$DIMTDEC
 70
     0
  9
$DIMALTU
 70
     2
  9
$DIMALTTD
 70
     2
  9
$DIMTXSTY
  7
STANDARD
  9
$DIMAUNIT
 70
     0
  9
$DIMADEC
 70
     0
  9
$DIMALTRND
 40
0.0
  9
$DIMAZIN
 70
     2
  9
$DIMDSEP
 70
    46
  9
$DIMATFIT
 70
     3
  9
$DIMFRAC
 70
     0
  9
$DIMLDRBLK
  1

  9
$DIMLUNIT
 70
     2
  9
$DIMLWD
 70
    -1
  9
$DIMLWE
 70
    -1
  9
$DIMTMOVE
 70
     0
  9
$LUNITS
 70
     2
  9
$LUPREC
 70
     2
  9
$SKETCHINC
 40
1.0
  9
$FILLETRAD
 40
2.5
  9
$AUNITS
 70
     0
  9
$AUPREC
 70
     0
  9
$MENU
  1
.
  9
$ELEVATION
 40
0.0
  9
$PELEVATION
 40
0.0
  9
$THICKNESS
 40
0.0
  9
$LIMCHECK
 70
     0
  9
$CHAMFERA
 40
2.5
  9
$CHAMFERB
 40
2.5
  9
$CHAMFERC
 40
20.0
  9
$CHAMFERD
 40
0.0
  9
$SKPOLY
 70
     0
  9
$TDCREATE
 40
2454167.418644826
  9
$TDUCREATE
 40
2454167.335311493
  9
$TDUPDATE
 40
2454666.432256945
  9
$TDUUPDATE
 40
2454666.348923611
  9
$TDINDWG
 40
0.8106540278
  9
$TDUSRTIMER
 40
0.8104942361
  9
$USRTIMER
 70
     1
  9
$ANGBASE
 50
0.0
  9
$ANGDIR
 70
     0
  9
$PDMODE
 70
     0
  9
$PDSIZE
 40
0.0
  9
$PLINEWID
 40
0.0
  9
$SPLFRAME
 70
     0
  9
$SPLINETYPE
 70
     6
  9
$SPLINESEGS
 70
     8
  9
$HANDSEED
  5
199B5
  9
$SURFTAB1
 70
     6
  9
$SURFTAB2
 70
     6
  9
$SURFTYPE
 70
     6
  9
$SURFU
 70
     6
  9
$SURFV
 70
     6
  9
$UCSBASE
  2

  9
$UCSNAME
  2

  9
$UCSORG
 10
0.0
 20
0.0
 30
0.0
  9
$UCSXDIR
 10
1.0
 20
0.0
 30
0.0
  9
$UCSYDIR
 10
0.0
 20
1.0
 30
0.0
  9
$UCSORTHOREF
  2

  9
$UCSORTHOVIEW
 70
     0
  9
$UCSORGTOP
 10
0.0
 20
0.0
 30
0.0
  9
$UCSORGBOTTOM
 10
0.0
 20
0.0
 30
0.0
  9
$UCSORGLEFT
 10
0.0
 20
0.0
 30
0.0
  9
$UCSORGRIGHT
 10
0.0
 20
0.0
 30
0.0
  9
$UCSORGFRONT
 10
0.0
 20
0.0
 30
0.0
  9
$UCSORGBACK
 10
0.0
 20
0.0
 30
0.0
  9
$PUCSBASE
  2

  9
$PUCSNAME
  2

  9
$PUCSORG
 10
0.0
 20
0.0
 30
0.0
  9
$PUCSXDIR
 10
1.0
 20
0.0
 30
0.0
  9
$PUCSYDIR
 10
0.0
 20
1.0
 30
0.0
  9
$PUCSORTHOREF
  2

  9
$PUCSORTHOVIEW
 70
     0
  9
$PUCSORGTOP
 10
0.0
 20
0.0
 30
0.0
  9
$PUCSORGBOTTOM
 10
0.0
 20
0.0
 30
0.0
  9
$PUCSORGLEFT
 10
0.0
 20
0.0
 30
0.0
  9
$PUCSORGRIGHT
 10
0.0
 20
0.0
 30
0.0
  9
$PUCSORGFRONT
 10
0.0
 20
0.0
 30
0.0
  9
$PUCSORGBACK
 10
0.0
 20
0.0
 30
0.0
  9
$USERI1
 70
     0
  9
$USERI2
 70
     0
  9
$USERI3
 70
     0
  9
$USERI4
 70
     0
  9
$USERI5
 70
     0
  9
$USERR1
 40
0.0
  9
$USERR2
 40
0.0
  9
$USERR3
 40
0.0
  9
$USERR4
 40
0.0
  9
$USERR5
 40
0.0
  9
$WORLDVIEW
 70
     1
  9
$SHADEDGE
 70
     3
  9
$SHADEDIF
 70
    70
  9
$TILEMODE
 70
     1
  9
$MAXACTVP
 70
    64
  9
$PINSBASE
 10
0.0
 20
0.0
 30
0.0
  9
$PLIMCHECK
 70
     0
  9
$PEXTMIN
 10
1.000000000000000E+20
 20
1.000000000000000E+20
 30
1.000000000000000E+20
  9
$PEXTMAX
 10
-1.000000000000000E+20
 20
-1.000000000000000E+20
 30
-1.000000000000000E+20
  9
$PLIMMIN
 10
0.0
 20
0.0
  9
$PLIMMAX
 10
420.0
 20
297.0
  9
$UNITMODE
 70
     0
  9
$VISRETAIN
 70
     1
  9
$PLINEGEN
 70
     0
  9
$PSLTSCALE
 70
     1
  9
$TREEDEPTH
 70
  3020
  9
$CMLSTYLE
  2
Standard
  9
$CMLJUST
 70
     0
  9
$CMLSCALE
 40
20.0
  9
$PROXYGRAPHICS
 70
     1
  9
$MEASUREMENT
 70
     1
  9
$CELWEIGHT
370
    -1
  9
$ENDCAPS
280
     0
  9
$JOINSTYLE
280
     0
  9
$LWDISPLAY
290
     0
  9
$INSUNITS
 70
     4
  9
$HYPERLINKBASE
  1

  9
$STYLESHEET
  1
monochrome uw.ctb
  9
$XEDIT
290
     1
  9
$CEPSNTYPE
380
     0
  9
$PSTYLEMODE
290
     1
  9
$FINGERPRINTGUID
  2
{1344C3A2-CD10-4B1D-A761-DD320F23370E}
  9
$VERSIONGUID
  2
{A085A4DD-0D18-4926-9628-A7FCD7DB7671}
  9
$EXTNAMES
290
     1
  9
$PSVPSCALE
 40
0.0
  9
$OLESTARTUP
290
     0
  0
ENDSEC
  0
SECTION
  2
CLASSES
  0
CLASS
  1
ACDBDICTIONARYWDFLT
  2
AcDbDictionaryWithDefault
  3
ObjectDBX Classes
 90
        0
280
     0
281
     0
  0
CLASS
  1
ACDBPLACEHOLDER
  2
AcDbPlaceHolder
  3
ObjectDBX Classes
 90
        0
280
     0
281
     0
  0
CLASS
  1
LAYOUT
  2
AcDbLayout
  3
ObjectDBX Classes
 90
        0
280
     0
281
     0
  0
CLASS
  1
ACME_DOCUMENT
  2
AcMeDbDoc
  3
AcMeServices
 90
        0
280
     0
281
     0
  0
CLASS
  1
AMGSETTINGSOBJ
  2
AmgSettingsObj
  3
"AcadM|Product Description: AutoCAD Mechanical 2000|Company: Autodesk"
 90
        0
280
     0
281
     0
  0
CLASS
  1
ACMESCOPE
  2
AcMeScope
  3
AcMeServices
 90
        0
280
     0
281
     0
  0
CLASS
  1
ACMECOMMANDHISTORY
  2
AcMeCommandHistory
  3
AcMeServices
 90
        0
280
     0
281
     0
  0
CLASS
  1
ACIMSYSVARMAN
  2
AcImSysVarManager
  3
AcMeServices
 90
        0
280
     0
281
     0
  0
CLASS
  1
ACIMREALSYSVAR
  2
AcImRealSysVar
  3
AcMeServices
 90
        0
280
     0
281
     0
  0
CLASS
  1
ACIMINTSYSVAR
  2
AcImIntSysVar
  3
AcMeServices
 90
        0
280
     0
281
     0
  0
CLASS
  1
ACMEDRAWINGMAN
  2
AcMeDrawingMan
  3
AcMeServices
 90
        0
280
     0
281
     0
  0
CLASS
  1
ACMEVIEW
  2
AcMeView
  3
AcMeServices
 90
        0
280
     0
281
     0
  0
CLASS
  1
ACDBENTITYCACHE
  2
AcMeEntityCache
  3
AcMeServices
 90
        0
280
     0
281
     0
  0
CLASS
  1
GSMANAGER
  2
AcMeGSManager
  3
AcMeServices
 90
        0
280
     0
281
     0
  0
CLASS
  1
AMDTINTERNALREACTOR
  2
AmdtInternalReactor
  3
AcMeServices
 90
        0
280
     0
281
     0
  0
CLASS
  1
ACMESTATEMGR
  2
AcMeStateMgr
  3
AcMeServices
 90
        0
280
     0
281
     0
  0
CLASS
  1
ACGREFMASTER
  2
AcGrefMaster
  3
AcAttribServices
 90
        0
280
     0
281
     0
  0
CLASS
  1
ACME_DATABASE
  2
AcMeDbDatabase
  3
AcMeServices
 90
        0
280
     0
281
     0
  0
CLASS
  1
ACRFINSADJUSTERMGR
  2
AcRfInsAdjusterMgr
  3
AcMeServices
 90
        0
280
     0
281
     0
  0
CLASS
  1
ACGREFACADMASTER
  2
AcGrefacadMaster
  3
AcGrefServices
 90
        0
280
     0
281
     0
  0
CLASS
  1
AMIMASTER
  2
AmiMaster
  3
AmiServices
 90
        0
280
     0
281
     0
  0
CLASS
  1
ACMDATADICTIONARY
  2
AcmDataDictionary
  3
"AcmSymBB|Product Description: AutoCAD Mechanical 2004 DX|Company: Autodesk"
 90
        0
280
     0
281
     0
  0
CLASS
  1
ACMDATAENTRYBLOCK
  2
AcmDataEntryBlock
  3
"AcmSymBB|Product Description: AutoCAD Mechanical 2004 DX|Company: Autodesk"
 90
    32768
280
     0
281
     0
  0
CLASS
  1
ACIMSTRSYSVAR
  2
AcImStrSysVar
  3
AcMeServices
 90
        0
280
     0
281
     0
  0
CLASS
  1
ACMSTANDARDISO
  2
AcmStandardISO
  3
"Amdt_StdImp|Product Description: AutoCAD Mechanical 2004 DX|Company: Autodesk"
 90
        0
280
     0
281
     0
  0
CLASS
  1
AMGOBJPROPCFG
  2
AmgObjPropCfg
  3
"AmgLay|Product Description: AutoCAD Mechanical 2000|Company: Autodesk"
 90
        1
280
     0
281
     0
  0
CLASS
  1
AMDTEDGESTANDARDISO
  2
AmdtEdgeStdISO
  3
"Amdt_StdImp|Product Description: AutoCAD Mechanical 2004 DX|Company: Autodesk"
 90
        0
280
     0
281
     0
  0
CLASS
  1
ACMSURFSTANDARDISO
  2
AcmSurfTextStdISO
  3
"Amdt_StdImp|Product Description: AutoCAD Mechanical 2004 DX|Company: Autodesk"
 90
        0
280
     0
281
     0
  0
CLASS
  1
ACMFCFSTANDARDISO
  2
AcmFCFStdISO
  3
"Amdt_StdImp|Product Description: AutoCAD Mechanical 2004 DX|Company: Autodesk"
 90
        0
280
     0
281
     0
  0
CLASS
  1
ACMWELDSTANDARDISO
  2
AcmWeldingStdISO
  3
"Amdt_StdImp|Product Description: AutoCAD Mechanical 2004 DX|Company: Autodesk"
 90
        0
280
     0
281
     0
  0
CLASS
  1
ACMIDSTANDARDISO
  2
AcmIdStdISO
  3
"Amdt_StdImp|Product Description: AutoCAD Mechanical 2004 DX|Company: Autodesk"
 90
        0
280
     0
281
     0
  0
CLASS
  1
ACMDATUMSTANDARDISO
  2
AcmDatumStdISO
  3
"Amdt_StdImp|Product Description: AutoCAD Mechanical 2004 DX|Company: Autodesk"
 90
        0
280
     0
281
     0
  0
CLASS
  1
ACMBOMSTANDARDISO
  2
AcmBOMStdISO
  3
"Amdt_StdImp|Product Description: AutoCAD Mechanical 2004 DX|Company: Autodesk"
 90
        0
280
     0
281
     0
  0
CLASS
  1
ACMDETAILSTANDARDISO
  2
AmdtDetailSymStdISO
  3
"Amdt_StdImp|Product Description: AutoCAD Mechanical 2004 DX|Company: Autodesk"
 90
        0
280
     0
281
     0
  0
CLASS
  1
ACMSECTIONSTANDARDISO
  2
AmdtSectionSymStdISO
  3
"Amdt_StdImp|Product Description: AutoCAD Mechanical 2004 DX|Company: Autodesk"
 90
        0
280
     0
281
     0
  0
CLASS
  1
ACMCENTERLINESTANDARDISO
  2
AmdtCenterLineStdISO
  3
"Amdt_StdImp|Product Description: AutoCAD Mechanical 2004 DX|Company: Autodesk"
 90
        0
280
     0
281
     0
  0
CLASS
  1
ACMNOTESTANDARDISO
  2
AmdtNoteStdISO
  3
"Amdt_StdImp|Product Description: AutoCAD Mechanical 2004 DX|Company: Autodesk"
 90
        0
280
     0
281
     0
  0
CLASS
  1
ACAMGLAYSTD
  2
AcAmgLayStd
  3
"AcAmgLayStd|Product Description: AutoCAD Mechanical 2000|Company: Autodesk"
 90
        0
280
     0
281
     0
  0
CLASS
  1
ACAMGDIMSTD
  2
AcAmgDimStd
  3
"AcAmgDimStd|Product Description: AutoCAD Mechanical 2000|Company: Autodesk"
 90
        0
280
     0
281
     0
  0
CLASS
  1
ACAMGHOLECHARTSTDISO
  2
AcAmgHoleChartStdISO
  3
ACMSYMBB_MODULE_NAME
 90
        0
280
     0
281
     0
  0
CLASS
  1
ACAMGTITLESTD
  2
AcAmgTitleStd
  3
"TITLEAPP"
 90
        0
280
     0
281
     0
  0
CLASS
  1
LAYER_INDEX
  2
AcDbLayerIndex
  3
ObjectDBX Classes
 90
    32768
280
     0
281
     0
  0
CLASS
  1
IDBUFFER
  2
AcDbIdBuffer
  3
ObjectDBX Classes
 90
    32768
280
     0
281
     0
  0
CLASS
  1
DICTIONARYVAR
  2
AcDbDictionaryVar
  3
ObjectDBX Classes
 90
        0
280
     0
281
     0
  0
CLASS
  1
AM_DRAWING_MGR
  2
AcDmDwgMgr
  3
AcMechDwgViewMgmt
 90
        0
280
     0
281
     0
  0
CLASS
  1
AM_DWG_DOCUMENT
  2
AcDmDwgDocument
  3
AcMechDwgViewMgmt
 90
        0
280
     0
281
     0
  0
CLASS
  1
AM_DWG_SHEET
  2
AcDmSheet
  3
AcMechDwgViewMgmt
 90
        0
280
     0
281
     0
  0
CLASS
  1
AM_VIEWDIMPARMAP
  2
AcDmViewDimParMap
  3
AcMechDwgViewMgmt
 90
        0
280
     0
281
     0
  0
CLASS
  1
AM_DWGMGR_NAME
  2
AcDmDwgMgrName
  3
AcMechDwgViewMgmt
 90
        0
280
     0
281
     0
  0
CLASS
  1
AMDTMENUSTATEMGR
  2
AmdtMenuStateMgr
  3
McadcomServices
 90
        0
280
     0
281
     0
  0
CLASS
  1
AMDTMCOMMENUSTATE
  2
AmdtMcomMenuState
  3
McadcomServices
 90
        0
280
     0
281
     0
  0
CLASS
  1
MAPIAMMOUDLE
  2
MApiAmModule
  3
MApiAmServices
 90
        0
280
     0
281
     0
  0
CLASS
  1
AMDTADMENUSTATE
  2
AmdtAdMenuState
  3
DesignerServices
 90
        0
280
     0
281
     0
  0
CLASS
  1
ADAPPL
  2
AcAdAppl
  3
DesignerServices
 90
        0
280
     0
281
     0
  0
CLASS
  1
DEPMGR
  2
AcAdDepMgr
  3
DesignerServices
 90
        0
280
     0
281
     0
  0
CLASS
  1
PARAMMGR
  2
AcAdParamMgr
  3
DesignerServices
 90
        0
280
     0
281
     0
  0
CLASS
  1
PARAMSCOPE
  2
AcAdParamScope
  3
DesignerServices
 90
        0
280
     0
281
     0
  0
CLASS
  1
NAMEDAPPL
  2
AcAdNamedAppl
  3
DesignerServices
 90
        0
280
     0
281
     0
  0
CLASS
  1
AMDTDMMENUSTATE
  2
AmdtDmMenuState
  3
AcMechDwgViewMgmt
 90
        0
280
     0
281
     0
  0
CLASS
  1
AMDTAMMENUSTATE
  2
AmdtAmMenuState
  3
DesignerAssemblies
 90
        0
280
     0
281
     0
  0
CLASS
  1
ACAMPROJECT
  2
AcAmProject
  3
DesignerAssemblies
 90
        0
280
     0
281
     0
  0
CLASS
  1
ACAMGRCOMPDEF
  2
AcAmGrCompDef
  3
DesignerAssemblies
 90
        0
280
     0
281
     0
  0
CLASS
  1
ACCMCONTEXT
  2
AcCmContext
  3
DesignerAssemblies
 90
        0
280
     0
281
     0
  0
CLASS
  1
ACAMCOMPDEF
  2
AcAmCompDef
  3
DesignerAssemblies
 90
        0
280
     0
281
     0
  0
CLASS
  1
ACAMCOMPDEFMGR
  2
AcAmCompDefMgr
  3
DesignerAssemblies
 90
        0
280
     0
281
     0
  0
CLASS
  1
AMCONTEXTMGR
  2
AcAmContextMgr
  3
DesignerAssemblies
 90
        0
280
     0
281
     0
  0
CLASS
  1
ACAMCONTEXTMODELER
  2
AcAmContextModeler
  3
DesignerAssemblies
 90
        0
280
     0
281
     0
  0
CLASS
  1
ACMTHREADLINESTANDARDISO
  2
AmdtThreadLineStdISO
  3
"Amdt_StdImp|Product Description: AutoCAD Mechanical 2004 DX|Company: Autodesk"
 90
        0
280
     0
281
     0
  0
CLASS
  1
CATALOGSTATE
  2
AcAmCatalogState
  3
DesignerAssemblies
 90
        0
280
     0
281
     0
  0
CLASS
  1
ACAMGRCOMPDEFSET
  2
AcAmGrCompDefSet
  3
DesignerAssemblies
 90
        0
280
     0
281
     0
  0
CLASS
  1
AMDTBROWSERDBTAB
  2
AmdtBrowserDbTab
  3
McadcomServices
 90
        0
280
     0
281
     0
  0
CLASS
  1
CBROWSERAPPOBJECT
  2
CBrowserAppObject
  3
McadcomServices
 90
        0
280
     0
281
     0
  0
CLASS
  1
DM_PLACEHOLDER
  2
AcDmSelsetPlaceholder
  3
AcMechDwgViewMgmt
 90
        0
280
     0
281
     0
  0
CLASS
  1
TABLESTYLE
  2
AcDbTableStyle
  3
ObjectDBX Classes
 90
     2047
280
     0
281
     0
  0
CLASS
  1
VAACXREFPANELOBJECT
  2
VaAcXREFPanelObject
  3
VAAC_ADDIN
 90
    32768
280
     0
281
     0
  0
CLASS
  1
VAACIMAGEINVENTORY
  2
VaAcImageInventory
  3
VAAC_ADDIN
 90
    32768
280
     0
281
     0
  0
CLASS
  1
AMDTNOTETEMPLATEDB
  2
AmdtNoteTemplateDB
  3
AMDT_STDIMP_MODULE_NAME
 90
        0
280
     0
281
     0
  0
CLASS
  1
ACAMGFILTERDAT
  2
AcAmgFilterDat
  3
"AcadM|Product Description: AutoCAD Mechanical 2000|Company: Autodesk"
 90
    32768
280
     0
281
     0
  0
CLASS
  1
ACMBOM
  2
AcmBom
  3
"AcmSymBB|Product Description: AutoCAD Mechanical 2004 DX|Company: Autodesk"
 90
    32768
280
     0
281
     0
  0
CLASS
  1
AMDTFORMULAUPDATEDISPATCHER
  2
AmdtFormulaUpdateDispatcher
  3
AcMeServices
 90
    32768
280
     0
281
     0
  0
CLASS
  1
ACMSTANDARDDIN
  2
AcmStandardDIN
  3
"Amdt_StdImp|Product Description: AutoCAD Mechanical 2004 DX|Company: Autodesk"
 90
        0
280
     0
281
     0
  0
CLASS
  1
AMDTEDGESTANDARDDIN13715
  2
AmdtEdgeStdDIN13715
  3
"Amdt_StdImp|Product Description: AutoCAD Mechanical 2004 DX|Company: Autodesk"
 90
        0
280
     0
281
     0
  0
CLASS
  1
ACMSURFSTANDARDDIN
  2
AcmSurfTextStdDIN
  3
"Amdt_StdImp|Product Description: AutoCAD Mechanical 2004 DX|Company: Autodesk"
 90
        0
280
     0
281
     0
  0
CLASS
  1
ACMFCFSTANDARDDIN
  2
AcmFCFStdDIN
  3
"Amdt_StdImp|Product Description: AutoCAD Mechanical 2004 DX|Company: Autodesk"
 90
        0
280
     0
281
     0
  0
CLASS
  1
ACMWELDSTANDARDDIN
  2
AcmWeldingStdDIN
  3
"Amdt_StdImp|Product Description: AutoCAD Mechanical 2004 DX|Company: Autodesk"
 90
        0
280
     0
281
     0
  0
CLASS
  1
ACMIDSTANDARDDIN
  2
AcmIdStdDIN
  3
"Amdt_StdImp|Product Description: AutoCAD Mechanical 2004 DX|Company: Autodesk"
 90
        0
280
     0
281
     0
  0
CLASS
  1
ACMDATUMSTANDARDDIN
  2
AcmDatumStdDIN
  3
"Amdt_StdImp|Product Description: AutoCAD Mechanical 2004 DX|Company: Autodesk"
 90
        0
280
     0
281
     0
  0
CLASS
  1
ACMBOMSTANDARDDIN
  2
AcmBOMStdDIN
  3
"Amdt_StdImp|Product Description: AutoCAD Mechanical 2004 DX|Company: Autodesk"
 90
        0
280
     0
281
     0
  0
CLASS
  1
ACMDETAILSTANDARDDIN
  2
AmdtDetailSymStdDIN
  3
"Amdt_StdImp|Product Description: AutoCAD Mechanical 2004 DX|Company: Autodesk"
 90
        0
280
     0
281
     0
  0
CLASS
  1
ACMSECTIONSTANDARDDIN
  2
AmdtSectionSymStdDIN
  3
"Amdt_StdImp|Product Description: AutoCAD Mechanical 2004 DX|Company: Autodesk"
 90
        0
280
     0
281
     0
  0
CLASS
  1
ACMCENTERLINESTANDARDDIN
  2
AmdtCenterLineStdDIN
  3
"Amdt_StdImp|Product Description: AutoCAD Mechanical 2004 DX|Company: Autodesk"
 90
        0
280
     0
281
     0
  0
CLASS
  1
ACMTHREADLINESTANDARDDIN
  2
AmdtThreadLineStdDIN
  3
"Amdt_StdImp|Product Description: AutoCAD Mechanical 2004 DX|Company: Autodesk"
 90
        0
280
     0
281
     0
  0
CLASS
  1
ACMNOTESTANDARDDIN
  2
AmdtNoteStdDIN
  3
"Amdt_StdImp|Product Description: AutoCAD Mechanical 2004 DX|Company: Autodesk"
 90
        0
280
     0
281
     0
  0
CLASS
  1
ACAMGHOLECHARTSTDDIN
  2
AcAmgHoleChartStdDIN
  3
ACMSYMBB_MODULE_NAME
 90
        0
280
     0
281
     0
  0
CLASS
  1
ACRFATTGENMGR
  2
AcRfAttGeneralMgr
  3
AcAttribServices
 90
    32768
280
     0
281
     0
  0
CLASS
  1
SORTENTSTABLE
  2
AcDbSortentsTable
  3
ObjectDBX Classes
 90
        0
280
     0
281
     0
  0
CLASS
  1
DIMASSOC
  2
AcDbDimAssoc
  3
"AcDbDimAssoc|Product Desc:     AcDim ARX App For Dimension|Company:          Autodesk, Inc.|WEB Address:      www.autodesk.com"
 90
    32768
280
     0
281
     0
  0
CLASS
  1
AC_AM_MVD_DEP_MGR
  2
AcAmMVDdepMgr
  3
DesignerAssemblies
 90
    32768
280
     0
281
     0
  0
CLASS
  1
AC_AM_MASTER_VIEW_DEF
  2
AcAmMasterViewDef
  3
DesignerAssemblies
 90
    32768
280
     0
281
     0
  0
CLASS
  1
AC_AM_DIRTY_NODES
  2
AcAmDirtyNodes
  3
DesignerAssemblies
 90
    32768
280
     0
281
     0
  0
CLASS
  1
AC_AM_MAPPER_CACHE
  2
AcAmMapperCache
  3
DesignerAssemblies
 90
    32768
280
     0
281
     0
  0
CLASS
  1
ACAMMVDBACKUPOBJECT
  2
AcAmMVDBackupObject
  3
DesignerAssemblies
 90
    32768
280
     0
281
     0
  0
CLASS
  1
AC_AM_2D_XREF_MGR
  2
AcAmXrefMgr2d
  3
DesignerAssemblies
 90
    32768
280
     0
281
     0
  0
CLASS
  1
AC_AM_HIDE_SITUATION
  2
AcAmHideSituation
  3
DesignerAssemblies
 90
    32768
280
     0
281
     0
  0
CLASS
  1
ACAMWBLOCKTEMPENTS
  2
AcAmStructInOutTempObjsHolder
  3
DesignerAssemblies
 90
    32768
280
     0
281
     0
  0
CLASS
  1
STDPART2D
  2
AmgStdPart
  3
"AmgStdPart|Product Description: AutoCAD Mechanical 2000|Company: Autodesk"
 90
    33791
280
     0
281
     1
  0
CLASS
  1
ACMDATAENTRYPART
  2
AcmDataEntryPart
  3
"AcmSymBB|Product Description: AutoCAD Mechanical 2004 DX|Company: Autodesk"
 90
    32768
280
     0
281
     0
  0
CLASS
  1
ACMPARTREF
  2
AcmPartRef
  3
"AcmSymBB|Product Description: AutoCAD Mechanical 2004 DX|Company: Autodesk"
 90
    33791
280
     0
281
     1
  0
CLASS
  1
ACDBSTDPARTRES_LINE
  2
AcDbStdPartRes_Line
  3
"AcDbStdPartRes_Line|Product Description: AutoCAD Mechanical 2000|Company: Autodesk"
 90
    32768
280
     0
281
     0
  0
CLASS
  1
ACAD_EVALUATION_GRAPH
  2
AcDbEvalGraph
  3
ObjectDBX Classes
 90
    33921
280
     0
281
     0
  0
CLASS
  1
ACAECUSTOBJ
  2
AcAeEditorObj
  3
AcAeEditorObj
 90
    33792
280
     0
281
     0
  0
CLASS
  1
ACDB_DYNAMICBLOCKPURGEPREVENTER_VERSION
  2
AcDbDynamicBlockPurgePreventer
  3
ObjectDBX Classes
 90
    33921
280
     0
281
     0
  0
ENDSEC
  0
SECTION
  2
TABLES
  0
TABLE
  2
VPORT
  5
8
330
0
100
AcDbSymbolTable
 70
     3
  0
VPORT
  5
199AC
330
8
100
AcDbSymbolTableRecord
100
AcDbViewportTableRecord
  2
*Active
 70
     0
 10
0.0
 20
0.0
 11
1.0
 21
1.0
 12
20251.24692376335
 22
-1257.968836426209
 13
0.0
 23
0.0
 14
2.5
 24
2.5
 15
10.0
 25
10.0
 16
0.0
 26
0.0
 36
1.0
 17
0.0
 27
0.0
 37
0.0
 40
1094.988504916882
 41
1.391353811149032
 42
50.0
 43
0.0
 44
0.0
 50
0.0
 51
0.0
 71
     0
 72
   100
 73
     1
 74
     3
 75
     0
 76
     0
 77
     0
 78
     0
281
     0
 65
     0
110
0.0
120
0.0
130
0.0
111
1.0
121
0.0
131
0.0
112
0.0
122
1.0
132
0.0
 79
     0
146
0.0
  0
ENDTAB
  0
TABLE
  2
LTYPE
  5
5
330
0
100
AcDbSymbolTable
 70
    18
  0
LTYPE
  5
14
330
5
100
AcDbSymbolTableRecord
100
AcDbLinetypeTableRecord
  2
ByBlock
 70
     0
  3

 72
    65
 73
     0
 40
0.0
  0
LTYPE
  5
15
330
5
100
AcDbSymbolTableRecord
100
AcDbLinetypeTableRecord
  2
ByLayer
 70
     0
  3

 72
    65
 73
     0
 40
0.0
  0
LTYPE
  5
16
330
5
100
AcDbSymbolTableRecord
100
AcDbLinetypeTableRecord
  2
Continuous
 70
     0
  3
Solid line
 72
    65
 73
     0
 40
0.0
  0
LTYPE
  5
67
330
5
100
AcDbSymbolTableRecord
100
AcDbLinetypeTableRecord
  2
Amconstr
 70
     0
  3
_______________________
 72
    65
 73
     2
 40
9999.0
 49
9999.0
 74
     0
 49
0.0
 74
     0
  0
LTYPE
  5
6C
330
5
100
AcDbSymbolTableRecord
100
AcDbLinetypeTableRecord
  2
Amzigzag
 70
     0
  3
/\/-/\/-/\/-/\/-/\/-/\/
 72
    65
 73
     2
 40
11.0001
 49
0.0001
 74
     4
 75
   136
340
22C
 46
0.04
 50
0.0
 44
0.0
 45
0.0
 49
-11.0
 74
     0
  0
LTYPE
  5
7E
330
5
100
AcDbSymbolTableRecord
100
AcDbLinetypeTableRecord
  2
CENTER
 70
     0
  3
__ . __
 72
    65
 73
     4
 40
7.0
 49
4.0
 74
     0
 49
-1.0
 74
     0
 49
1.0
 74
     0
 49
-1.0
 74
     0
  0
LTYPE
  5
D8
330
5
100
AcDbSymbolTableRecord
100
AcDbLinetypeTableRecord
  2
HIDDEN
 70
     0
  3
Hidden __ __ __ __ __ __ __ __ __ __ __ __ __ _
 72
    65
 73
     2
 40
9.524999999999996
 49
6.349999999999997
 74
     0
 49
-3.174999999999998
 74
     0
  0
LTYPE
  5
D9
330
5
100
AcDbSymbolTableRecord
100
AcDbLinetypeTableRecord
  2
PHANTOM2
 70
     0
  3
Phantom (.5x) ___ _ _ ___ _ _ ___ _ _ ___ _ _
 72
    65
 73
     6
 40
31.75
 49
15.875
 74
     0
 49
-3.174999999999998
 74
     0
 49
3.174999999999998
 74
     0
 49
-3.174999999999998
 74
     0
 49
3.174999999999998
 74
     0
 49
-3.174999999999998
 74
     0
  0
LTYPE
  5
2E3
330
5
100
AcDbSymbolTableRecord
100
AcDbLinetypeTableRecord
  2
ACDINWELD
 70
     0
  3
_ _ _ _ _
 72
    65
 73
     2
 40
2.0
 49
2.0
 74
     0
 49
-1.0
 74
     0
  0
LTYPE
  5
2E4
330
5
100
AcDbSymbolTableRecord
100
AcDbLinetypeTableRecord
  2
ACDINTGB
 70
     0
  3
__ . . __ . .
 72
    65
 73
     6
 40
9.0
 49
4.0
 74
     0
 49
-1.0
 74
     0
 49
1.0
 74
     0
 49
-1.0
 74
     0
 49
1.0
 74
     0
 49
-1.0
 74
     0
  0
LTYPE
  5
2E5
330
5
100
AcDbSymbolTableRecord
100
AcDbLinetypeTableRecord
  2
ACDINTGL
 70
     0
  3
_ _ _ _ _
 72
    65
 73
     2
 40
3.0
 49
2.0
 74
     0
 49
-1.0
 74
     0
  0
LTYPE
  5
31F
330
5
100
AcDbSymbolTableRecord
100
AcDbLinetypeTableRecord
  2
AM_DIN_F_W050
 70
     0
  3
__ __ __ __ __ __ __ __ __ __ __ __ __ __ __
 72
    65
 73
     2
 40
6.25
 49
4.75
 74
     0
 49
-1.5
 74
     0
  0
LTYPE
  5
320
330
5
100
AcDbSymbolTableRecord
100
AcDbLinetypeTableRecord
  2
AM_DIN_G_W050
 70
     0
  3
____ . ____ . ____ . ____ . ____ . ____ . ____
 72
    65
 73
     4
 40
13.75
 49
9.75
 74
     0
 49
-1.5
 74
     0
 49
1.0
 74
     0
 49
-1.5
 74
     0
  0
LTYPE
  5
321
330
5
100
AcDbSymbolTableRecord
100
AcDbLinetypeTableRecord
  2
AM_DIN_K_W050
 70
     0
  3
_____ . . _____ . . _____ . . ____ .. ____
 72
    65
 73
     6
 40
16.25
 49
9.75
 74
     0
 49
-1.5
 74
     0
 49
1.0
 74
     0
 49
-1.5
 74
     0
 49
1.0
 74
     0
 49
-1.5
 74
     0
  0
LTYPE
  5
322
330
5
100
AcDbSymbolTableRecord
100
AcDbLinetypeTableRecord
  2
AM_DIN_G_W050x2
 70
     0
  3
__ . __ . __ . __ . __ . __
 72
    65
 73
     4
 40
6.875
 49
4.75
 74
     0
 49
-0.875
 74
     0
 49
0.375
 74
     0
 49
-0.875
 74
     0
  0
LTYPE
  5
323
330
5
100
AcDbSymbolTableRecord
100
AcDbLinetypeTableRecord
  2
AM_DIN_F_W050x2
 70
     0
  3
 _ _ _ _ _ _ _ _ _ _ _ _
 72
    65
 73
     2
 40
3.125
 49
2.25
 74
     0
 49
-0.875
 74
     0
  0
LTYPE
  5
1669E
330
5
100
AcDbSymbolTableRecord
100
AcDbLinetypeTableRecord
  2
ACISOWELD
 70
     0
  3
_ _ _ _ _
 72
    65
 73
     2
 40
2.0
 49
2.0
 74
     0
 49
-1.0
 74
     0
  0
LTYPE
  5
1669F
330
5
100
AcDbSymbolTableRecord
100
AcDbLinetypeTableRecord
  2
ACISOTGB
 70
     0
  3
__ . . __ . .
 72
    65
 73
     6
 40
9.0
 49
4.0
 74
     0
 49
-1.0
 74
     0
 49
1.0
 74
     0
 49
-1.0
 74
     0
 49
1.0
 74
     0
 49
-1.0
 74
     0
  0
LTYPE
  5
166A0
330
5
100
AcDbSymbolTableRecord
100
AcDbLinetypeTableRecord
  2
ACISOTGL
 70
     0
  3
_ _ _ _ _
 72
    65
 73
     2
 40
3.0
 49
2.0
 74
     0
 49
-1.0
 74
     0
  0
LTYPE
  5
17C79
330
5
100
AcDbSymbolTableRecord
100
AcDbLinetypeTableRecord
  2
gen7a
 70
     0
  3
__ . __ . __
 72
    65
 73
     4
 40
6.875
 49
4.75
 74
     0
 49
-0.875
 74
     0
 49
0.375
 74
     0
 49
-0.875
 74
     0
  0
ENDTAB
  0
TABLE
  2
LAYER
  5
2
102
{ACAD_XDICTIONARY
360
5E1
102
}
330
0
100
AcDbSymbolTable
 70
     7
  0
LAYER
  5
10
330
2
100
AcDbSymbolTableRecord
100
AcDbLayerTableRecord
  2
0
 70
     0
 62
     7
  6
Continuous
370
    -3
390
F
  0
LAYER
  5
1080A
330
2
100
AcDbSymbolTableRecord
100
AcDbLayerTableRecord
  2
AM_5
 70
     0
 62
     3
  6
Continuous
370
    25
390
F
1001
AcAecLayerStandard
1000

1000

  0
LAYER
  5
1081A
330
2
100
AcDbSymbolTableRecord
100
AcDbLayerTableRecord
  2
Defpoints
 70
     0
 62
     7
  6
Continuous
290
     0
370
    -3
390
F
  0
LAYER
  5
10B76
330
2
100
AcDbSymbolTableRecord
100
AcDbLayerTableRecord
  2
Beschriftung
 70
     0
 62
     2
  6
Continuous
370
    50
390
F
1001
AcAecLayerStandard
1000

1000

  0
LAYER
  5
10B7B
330
2
100
AcDbSymbolTableRecord
100
AcDbLayerTableRecord
  2
bezugslinien
 70
     0
 62
     3
  6
Continuous
370
    25
390
F
1001
AcAecLayerStandard
1000

1000

  0
LAYER
  5
17C7A
330
2
100
AcDbSymbolTableRecord
100
AcDbLayerTableRecord
  2
7A
 70
     0
 62
     4
  6
gen7a
370
    -3
390
F
  0
LAYER
  5
1867A
330
2
100
AcDbSymbolTableRecord
100
AcDbLayerTableRecord
  2
AM_4
 70
     0
 62
     3
  6
Continuous
370
    25
390
F
1001
AcAecLayerStandard
1000

1000

  0
ENDTAB
  0
TABLE
  2
STYLE
  5
3
330
0
100
AcDbSymbolTable
 70
     6
  0
STYLE
  5
11
330
3
100
AcDbSymbolTableRecord
100
AcDbTextStyleTableRecord
  2
STANDARD
 70
     0
 40
0.0
 41
1.0
 50
0.0
 71
     0
 42
2.5
  3
ARIAL.TTF
  4

1001
ACAD
1000
Arial
1071
       34
  0
STYLE
  5
22C
330
3
100
AcDbSymbolTableRecord
100
AcDbTextStyleTableRecord
  2

 70
     1
 40
0.0
 41
1.0
 50
0.0
 71
     0
 42
2.5
  3
genltshp.shx
  4

  0
STYLE
  5
2D5
330
3
100
AcDbSymbolTableRecord
100
AcDbTextStyleTableRecord
  2
ACDINTS
 70
     0
 40
1.0
 41
1.0
 50
0.0
 71
     0
 42
2.5
  3
isocp.shx
  4

  0
STYLE
  5
2E2
330
3
100
AcDbSymbolTableRecord
100
AcDbTextStyleTableRecord
  2
ACDINGDT
 70
     0
 40
0.0
 41
1.0
 50
0.0
 71
     0
 42
2.5
  3
AMGDT
  4

  0
STYLE
  5
166A3
330
3
100
AcDbSymbolTableRecord
100
AcDbTextStyleTableRecord
  2
ACISOTS
 70
     0
 40
1.0
 41
1.0
 50
0.0
 71
     0
 42
2.5
  3
isocp.shx
  4
bigfont.shx
  0
STYLE
  5
166A4
330
3
100
AcDbSymbolTableRecord
100
AcDbTextStyleTableRecord
  2
ACISOGDT
 70
     0
 40
0.0
 41
1.0
 50
0.0
 71
     0
 42
2.5
  3
AMGDT
  4
bigfont.shx
  0
ENDTAB
  0
TABLE
  2
VIEW
  5
6
330
0
100
AcDbSymbolTable
 70
     0
  0
ENDTAB
  0
TABLE
  2
UCS
  5
7
330
0
100
AcDbSymbolTable
 70
     0
  0
ENDTAB
  0
TABLE
  2
APPID
  5
9
330
0
100
AcDbSymbolTable
 70
    74
  0
APPID
  5
12
330
9
100
AcDbSymbolTableRecord
100
AcDbRegAppTableRecord
  2
ACAD
 70
     0
  0
APPID
  5
46
330
9
100
AcDbSymbolTableRecord
100
AcDbRegAppTableRecord
  2
MCAD_NO_VIS
 70
     0
  0
APPID
  5
47
330
9
100
AcDbSymbolTableRecord
100
AcDbRegAppTableRecord
  2
ACAD_TEMP_GRAPHIC
 70
     0
  0
APPID
  5
58
330
9
100
AcDbSymbolTableRecord
100
AcDbRegAppTableRecord
  2
ACATTRIBSERVICES
 70
     0
  0
APPID
  5
EE
330
9
100
AcDbSymbolTableRecord
100
AcDbRegAppTableRecord
  2
AD_DRAW
 70
     0
  0
APPID
  5
10C
330
9
100
AcDbSymbolTableRecord
100
AcDbRegAppTableRecord
  2
DESIGNERASSEMBLIES
 70
     0
  0
APPID
  5
111
330
9
100
AcDbSymbolTableRecord
100
AcDbRegAppTableRecord
  2
ACADM_DIM_EDIT
 70
     0
  0
APPID
  5
112
330
9
100
AcDbSymbolTableRecord
100
AcDbRegAppTableRecord
  2
AMDT_DM_ADJ
 70
     0
  0
APPID
  5
1A3
330
9
100
AcDbSymbolTableRecord
100
AcDbRegAppTableRecord
  2
ACAD_DSTYLE_DIMARC_LENGTH_SYMBOL
 70
     0
  0
APPID
  5
1A4
330
9
100
AcDbSymbolTableRecord
100
AcDbRegAppTableRecord
  2
ACAD_DSTYLE_DIMJOGGED_JOGANGLE_SYMBOL
 70
     0
  0
APPID
  5
5D4
330
9
100
AcDbSymbolTableRecord
100
AcDbRegAppTableRecord
  2
ACAD_PSEXT
 70
     0
  0
APPID
  5
5D5
330
9
100
AcDbSymbolTableRecord
100
AcDbRegAppTableRecord
  2
GENIUS_GENOENT_13
 70
     0
  0
APPID
  5
5D6
330
9
100
AcDbSymbolTableRecord
100
AcDbRegAppTableRecord
  2
GENIUS_VERSION2
 70
     0
  0
APPID
  5
5D7
330
9
100
AcDbSymbolTableRecord
100
AcDbRegAppTableRecord
  2
GENIUS_GENREC_14
 70
     0
  0
APPID
  5
5D8
330
9
100
AcDbSymbolTableRecord
100
AcDbRegAppTableRecord
  2
GENIUS_GENODEF_13
 70
     0
  0
APPID
  5
5D9
330
9
100
AcDbSymbolTableRecord
100
AcDbRegAppTableRecord
  2
GENIUS_GENOBJ-N-REC_13
 70
     0
  0
APPID
  5
5DA
330
9
100
AcDbSymbolTableRecord
100
AcDbRegAppTableRecord
  2
GENIUS_GENTRA_14
 70
     0
  0
APPID
  5
5DB
330
9
100
AcDbSymbolTableRecord
100
AcDbRegAppTableRecord
  2
GENIUS_GENOBJ-N-TIT_13
 70
     0
  0
APPID
  5
5DC
330
9
100
AcDbSymbolTableRecord
100
AcDbRegAppTableRecord
  2
GENIUS_GENTITLE_13
 70
     0
  0
APPID
  5
5DD
330
9
100
AcDbSymbolTableRecord
100
AcDbRegAppTableRecord
  2
GENIUS_GENOREF_13
 70
     0
  0
APPID
  5
5DE
330
9
100
AcDbSymbolTableRecord
100
AcDbRegAppTableRecord
  2
GENIUS_GENOLIS_13
 70
     0
  0
APPID
  5
5DF
330
9
100
AcDbSymbolTableRecord
100
AcDbRegAppTableRecord
  2
GENIUS_GENOBJ-N-SDF_13
 70
     0
  0
APPID
  5
5E0
330
9
100
AcDbSymbolTableRecord
100
AcDbRegAppTableRecord
  2
GENIUS_GENSCREG_15
 70
     0
  0
APPID
  5
2FBB
330
9
100
AcDbSymbolTableRecord
100
AcDbRegAppTableRecord
  2
GENIUS_GENOBJ-N-CRS_13
 70
     0
  0
APPID
  5
2FBC
330
9
100
AcDbSymbolTableRecord
100
AcDbRegAppTableRecord
  2
GENIUS_GENOBJ-N-CEN_13
 70
     0
  0
APPID
  5
2FBD
330
9
100
AcDbSymbolTableRecord
100
AcDbRegAppTableRecord
  2
GENIUS_GENOBJ-N-HTC_13
 70
     0
  0
APPID
  5
2FBE
330
9
100
AcDbSymbolTableRecord
100
AcDbRegAppTableRecord
  2
GENIUS_GENHATCH_13
 70
     0
  0
APPID
  5
2FBF
330
9
100
AcDbSymbolTableRecord
100
AcDbRegAppTableRecord
  2
GENIUS_GENBH_13
 70
     0
  0
APPID
  5
2FC0
330
9
100
AcDbSymbolTableRecord
100
AcDbRegAppTableRecord
  2
GENIUS_GENOBJ-NBEHI-BHF_13
 70
     0
  0
APPID
  5
2FC1
330
9
100
AcDbSymbolTableRecord
100
AcDbRegAppTableRecord
  2
GENIUS_GENOBJ-F-PART_13
 70
     0
  0
APPID
  5
2FC2
330
9
100
AcDbSymbolTableRecord
100
AcDbRegAppTableRecord
  2
GENIUS_GEFSTDP_13
 70
     0
  0
APPID
  5
2FC3
330
9
100
AcDbSymbolTableRecord
100
AcDbRegAppTableRecord
  2
GEVPT
 70
     0
  0
APPID
  5
2FC4
330
9
100
AcDbSymbolTableRecord
100
AcDbRegAppTableRecord
  2
GEVIT
 70
     0
  0
APPID
  5
2FC5
330
9
100
AcDbSymbolTableRecord
100
AcDbRegAppTableRecord
  2
VCC
 70
     0
  0
APPID
  5
2FC6
330
9
100
AcDbSymbolTableRecord
100
AcDbRegAppTableRecord
  2
GENBH
 70
     0
  0
APPID
  5
2FC7
330
9
100
AcDbSymbolTableRecord
100
AcDbRegAppTableRecord
  2
GEVMK
 70
     0
  0
APPID
  5
2FC8
330
9
100
AcDbSymbolTableRecord
100
AcDbRegAppTableRecord
  2
GENIUS_GEFPARTINS_13
 70
     0
  0
APPID
  5
2FC9
330
9
100
AcDbSymbolTableRecord
100
AcDbRegAppTableRecord
  2
GENIUS_GENOBJ-N-CRC_13
 70
     0
  0
APPID
  5
2FCA
330
9
100
AcDbSymbolTableRecord
100
AcDbRegAppTableRecord
  2
GENIUS_GENCRC_14
 70
     0
  0
APPID
  5
2FCB
330
9
100
AcDbSymbolTableRecord
100
AcDbRegAppTableRecord
  2
GEVID978597865
 70
     0
  0
APPID
  5
2FCC
330
9
100
AcDbSymbolTableRecord
100
AcDbRegAppTableRecord
  2
GEVID978597866
 70
     0
  0
APPID
  5
2FCD
330
9
100
AcDbSymbolTableRecord
100
AcDbRegAppTableRecord
  2
GEVID978597868
 70
     0
  0
APPID
  5
2FCE
330
9
100
AcDbSymbolTableRecord
100
AcDbRegAppTableRecord
  2
GENIUS_GENCEN_19
 70
     0
  0
APPID
  5
2FCF
330
9
100
AcDbSymbolTableRecord
100
AcDbRegAppTableRecord
  2
AcAecLayerStandard
 70
     0
  0
APPID
  5
5580
330
9
100
AcDbSymbolTableRecord
100
AcDbRegAppTableRecord
  2
GENIUS_FIRSTVISTXT_14
 70
     0
  0
APPID
  5
5581
330
9
100
AcDbSymbolTableRecord
100
AcDbRegAppTableRecord
  2
GENIUS_SECONDVISTXT_14
 70
     0
  0
APPID
  5
5582
330
9
100
AcDbSymbolTableRecord
100
AcDbRegAppTableRecord
  2
GENIUS_GENOBJ-N-FIL_13
 70
     0
  0
APPID
  5
5583
330
9
100
AcDbSymbolTableRecord
100
AcDbRegAppTableRecord
  2
GENIUS_GEFWELD_13
 70
     0
  0
APPID
  5
5584
330
9
100
AcDbSymbolTableRecord
100
AcDbRegAppTableRecord
  2
GENIUS_GENOBJ-NBEHI-BHB_13
 70
     0
  0
APPID
  5
5585
330
9
100
AcDbSymbolTableRecord
100
AcDbRegAppTableRecord
  2
GENIUS_GENOBJ-F-WELS_13
 70
     0
  0
APPID
  5
5586
330
9
100
AcDbSymbolTableRecord
100
AcDbRegAppTableRecord
  2
AMG_2DHIDE
 70
     0
  0
APPID
  5
5587
330
9
100
AcDbSymbolTableRecord
100
AcDbRegAppTableRecord
  2
GEVID992928022
 70
     0
  0
APPID
  5
5588
330
9
100
AcDbSymbolTableRecord
100
AcDbRegAppTableRecord
  2
GENIUS_GENOBJ-F-DESC_13
 70
     0
  0
APPID
  5
5589
330
9
100
AcDbSymbolTableRecord
100
AcDbRegAppTableRecord
  2
GENIUS_GEFDESC_14
 70
     0
  0
APPID
  5
558A
330
9
100
AcDbSymbolTableRecord
100
AcDbRegAppTableRecord
  2
GEVID992928023
 70
     0
  0
APPID
  5
558B
330
9
100
AcDbSymbolTableRecord
100
AcDbRegAppTableRecord
  2
GENIUS_GENOBJ-F-FEAT_13
 70
     0
  0
APPID
  5
558C
330
9
100
AcDbSymbolTableRecord
100
AcDbRegAppTableRecord
  2
GENIUS_GEFFEAT_14
 70
     0
  0
APPID
  5
7580
330
9
100
AcDbSymbolTableRecord
100
AcDbRegAppTableRecord
  2
ACAD_EXEMPT_FROM_CAD_STANDARDS
 70
     0
  0
APPID
  5
9403
330
9
100
AcDbSymbolTableRecord
100
AcDbRegAppTableRecord
  2
AMG_2DSTRUCT_BTR
 70
     0
  0
APPID
  5
B4E8
330
9
100
AcDbSymbolTableRecord
100
AcDbRegAppTableRecord
  2
ACAD_DSTYLE_DIMEXT_LENGTH
 70
     0
  0
APPID
  5
B4E9
330
9
100
AcDbSymbolTableRecord
100
AcDbRegAppTableRecord
  2
ACAD_DSTYLE_DIMEXT_ENABLED
 70
     0
  0
APPID
  5
DE63
330
9
100
AcDbSymbolTableRecord
100
AcDbRegAppTableRecord
  2
GENIUS_GENDIMSH_14
 70
     0
  0
APPID
  5
E2FA
330
9
100
AcDbSymbolTableRecord
100
AcDbRegAppTableRecord
  2
GEVID1210230727
 70
     0
  0
APPID
  5
E2FB
330
9
100
AcDbSymbolTableRecord
100
AcDbRegAppTableRecord
  2
GEVDC
 70
     0
  0
APPID
  5
10068
330
9
100
AcDbSymbolTableRecord
100
AcDbRegAppTableRecord
  2
ACAUTHENVIRON
 70
     0
  0
APPID
  5
1011A
330
9
100
AcDbSymbolTableRecord
100
AcDbRegAppTableRecord
  2
AcDbDynamicBlockTrueName
 70
     0
  0
APPID
  5
1011B
330
9
100
AcDbSymbolTableRecord
100
AcDbRegAppTableRecord
  2
AcDbDynamicBlockGUID
 70
     0
  0
APPID
  5
1011D
330
9
100
AcDbSymbolTableRecord
100
AcDbRegAppTableRecord
  2
ACDBBLOCKREPETAG
 70
     0
  0
APPID
  5
107E4
330
9
100
AcDbSymbolTableRecord
100
AcDbRegAppTableRecord
  2
ACAD_DSTYLE_DIMTEXT_FILL
 70
     0
  0
APPID
  5
107E7
330
9
100
AcDbSymbolTableRecord
100
AcDbRegAppTableRecord
  2
ACAD_DSTYLE_DIM_LINETYPE
 70
     0
  0
APPID
  5
107E8
330
9
100
AcDbSymbolTableRecord
100
AcDbRegAppTableRecord
  2
ACAD_DSTYLE_DIM_EXT1_LINETYPE
 70
     0
  0
APPID
  5
107E9
330
9
100
AcDbSymbolTableRecord
100
AcDbRegAppTableRecord
  2
ACAD_DSTYLE_DIM_EXT2_LINETYPE
 70
     0
  0
APPID
  5
10B47
330
9
100
AcDbSymbolTableRecord
100
AcDbRegAppTableRecord
  2
GEVID1210230728
 70
     0
  0
APPID
  5
11657
330
9
100
AcDbSymbolTableRecord
100
AcDbRegAppTableRecord
  2
GENIUS_GENDTOL_13
 70
     0
  0
ENDTAB
  0
TABLE
  2
DIMSTYLE
  5
A
330
0
100
AcDbSymbolTable
 70
    15
100
AcDbDimStyleTable
 71
     1
340
2EE
  0
DIMSTYLE
105
2EE
330
A
100
AcDbSymbolTableRecord
100
AcDbDimStyleTableRecord
  2
AM_DIN
 70
     0
  4
"
 41
65.0
 42
1.0
 43
10.0
 44
25.0
 47
0.1
 48
0.1
 73
     0
 74
     0
 77
     1
 78
     8
 79
     2
140
50.0
141
0.0
143
0.0393701
146
0.71
147
15.0
172
     1
176
   256
177
   256
178
     2
271
     0
272
     0
283
     0
284
     8
340
11
371
    -1
372
    -1
1001
ACAD_DSTYLE_DIMEXT_LENGTH
1070
   378
1040
1.0
1001
ACAD_DSTYLE_DIMEXT_ENABLED
1070
   383
1070
     0
1001
ACAD_DSTYLE_DIMARC_LENGTH_SYMBOL
1070
   379
1070
     0
1001
ACAD_DSTYLE_DIMJOGGED_JOGANGLE_SYMBOL
1070
   384
1040
1.570796326794896
  0
DIMSTYLE
105
2FF
330
A
100
AcDbSymbolTableRecord
100
AcDbDimStyleTableRecord
  2
AM_DIN$3
 70
     0
  4
"
 41
65.0
 42
1.0
 43
10.0
 44
25.0
 47
0.1
 48
0.1
 73
     0
 77
     1
 78
     8
 79
     2
140
50.0
141
0.0
143
0.0393701
146
0.71
147
15.0
176
   256
177
   256
178
     2
271
     0
272
     0
283
     0
284
     8
288
     1
289
     0
340
11
371
    -1
372
    -1
1001
ACAD_DSTYLE_DIMARC_LENGTH_SYMBOL
1070
   379
1070
     0
1001
ACAD_DSTYLE_DIMJOGGED_JOGANGLE_SYMBOL
1070
   384
1040
1.570796326794896
  0
DIMSTYLE
105
304
330
A
100
AcDbSymbolTableRecord
100
AcDbDimStyleTableRecord
  2
AM_DIN$4
 70
     0
  4
"
 41
65.0
 42
1.0
 43
10.0
 44
25.0
 47
0.1
 48
0.1
 73
     0
 77
     1
 78
     8
 79
     2
140
50.0
141
0.0
143
0.0393701
146
0.71
147
15.0
176
   256
177
   256
178
     2
271
     0
272
     0
283
     0
284
     8
288
     1
289
     0
340
11
371
    -1
372
    -1
1001
ACAD_DSTYLE_DIMARC_LENGTH_SYMBOL
1070
   379
1070
     0
1001
ACAD_DSTYLE_DIMJOGGED_JOGANGLE_SYMBOL
1070
   384
1040
1.570796326794896
  0
DIMSTYLE
105
309
330
A
100
AcDbSymbolTableRecord
100
AcDbDimStyleTableRecord
  2
AM_DIN$6
 70
     0
  4
"
 41
65.0
 42
1.0
 43
10.0
 44
25.0
 47
0.1
 48
0.1
 73
     0
 74
     0
 78
     8
 79
     2
140
50.0
141
0.0
143
0.0393701
146
0.71
147
15.0
172
     1
176
   256
177
   256
178
     2
271
     0
272
     0
283
     0
284
     8
340
11
371
    -1
372
    -1
1001
ACAD_DSTYLE_DIMARC_LENGTH_SYMBOL
1070
   379
1070
     0
1001
ACAD_DSTYLE_DIMJOGGED_JOGANGLE_SYMBOL
1070
   384
1040
1.570796326794896
  0
DIMSTYLE
105
30E
330
A
100
AcDbSymbolTableRecord
100
AcDbDimStyleTableRecord
  2
AM_DIN$7
 70
     0
  4
"
 41
65.0
 42
1.0
 43
10.0
 44
25.0
 47
0.1
 48
0.1
 73
     0
 74
     0
 77
     1
 78
     8
 79
     2
140
5.0
141
0.0
143
0.0393701
146
0.71
147
15.0
172
     1
176
   256
177
   256
178
     2
271
     0
272
     0
283
     0
284
     8
340
11
371
    -1
372
    -1
1001
ACAD_DSTYLE_DIMARC_LENGTH_SYMBOL
1070
   379
1070
     0
1001
ACAD_DSTYLE_DIMJOGGED_JOGANGLE_SYMBOL
1070
   384
1040
1.570796326794896
  0
DIMSTYLE
105
313
330
A
100
AcDbSymbolTableRecord
100
AcDbDimStyleTableRecord
  2
AM_DIN$SF
 70
     0
  4
"
 41
2.5
 42
1.0
 43
10.0
 44
1.0
 47
0.1
 48
0.1
 73
     0
 74
     0
 75
     1
 76
     1
 77
     1
 78
     8
 79
     2
140
3.5
141
0.0
143
0.0393701
146
0.71
147
1.5
172
     1
176
   256
177
   256
178
     2
271
     2
272
     3
274
     4
283
     0
284
     8
340
11
371
    -1
372
    -1
1001
ACAD_DSTYLE_DIMARC_LENGTH_SYMBOL
1070
   379
1070
     0
1001
ACAD_DSTYLE_DIMJOGGED_JOGANGLE_SYMBOL
1070
   384
1040
1.570796326794896
  0
DIMSTYLE
105
318
330
A
100
AcDbSymbolTableRecord
100
AcDbDimStyleTableRecord
  2
AM_DIN$SH
 70
     0
  4
"
 41
2.5
 42
1.0
 43
10.0
 44
1.0
 47
0.1
 48
0.1
 73
     0
 74
     0
 75
     1
 76
     1
 77
     1
 78
     8
 79
     2
140
3.5
141
0.0
143
0.0393701
144
2.0
146
0.71
147
1.5
172
     1
173
     1
176
   256
177
   256
178
     2
271
     2
272
     3
274
     4
283
     0
284
     8
340
11
343
87
371
    -1
372
    -1
1001
ACAD_DSTYLE_DIMARC_LENGTH_SYMBOL
1070
   379
1070
     0
1001
ACAD_DSTYLE_DIMJOGGED_JOGANGLE_SYMBOL
1070
   384
1040
1.570796326794896
  0
DIMSTYLE
105
7C7E
102
{ACAD_REACTORS
330
18881
330
18882
330
18883
330
18884
330
188E7
330
188E8
102
}
330
A
100
AcDbSymbolTableRecord
100
AcDbDimStyleTableRecord
  2
AM_DIN$0
 70
     0
  4
"
 41
65.0
 42
1.0
 43
10.0
 44
25.0
 47
0.1
 48
0.1
 73
     0
 74
     0
 77
     1
 78
     8
 79
     2
140
50.0
141
0.0
143
0.0393701
146
0.71
147
15.0
172
     1
176
   256
177
   256
178
     2
271
     0
272
     0
283
     0
284
     8
340
11
371
    -1
372
    -1
1001
ACAD_DSTYLE_DIMARC_LENGTH_SYMBOL
1070
   379
1070
     0
1001
ACAD_DSTYLE_DIMJOGGED_JOGANGLE_SYMBOL
1070
   384
1040
1.570796326794896
  0
DIMSTYLE
105
166A5
330
A
100
AcDbSymbolTableRecord
100
AcDbDimStyleTableRecord
  2
AM_ISO
 70
     0
  4
"
 41
2.5
 42
1.0
 43
10.0
 44
1.0
 47
0.1
 48
0.1
 73
     0
 74
     0
 77
     1
 78
     8
 79
     2
140
3.5
141
0.0
143
0.0393701
146
0.71
147
1.5
172
     1
176
   256
177
   256
178
     2
271
     2
272
     3
274
     4
283
     0
284
     8
340
11
371
    -1
372
    -1
1001
ACAD_DSTYLE_DIMARC_LENGTH_SYMBOL
1070
   379
1070
     1
1001
ACAD_DSTYLE_DIMJOGGED_JOGANGLE_SYMBOL
1070
   384
1040
0.7853981633974483
  0
DIMSTYLE
105
166A6
330
A
100
AcDbSymbolTableRecord
100
AcDbDimStyleTableRecord
  2
AM_ISO$3
 70
     0
  4
"
 41
2.5
 42
1.0
 43
10.0
 44
1.0
 47
0.1
 48
0.1
 73
     0
 77
     1
 78
     8
 79
     2
140
3.5
141
0.0
143
0.0393701
146
0.71
147
1.5
176
   256
177
   256
178
     2
271
     2
272
     3
274
     4
283
     0
284
     8
288
     1
289
     0
340
11
371
    -1
372
    -1
1001
ACAD_DSTYLE_DIMARC_LENGTH_SYMBOL
1070
   379
1070
     1
1001
ACAD_DSTYLE_DIMJOGGED_JOGANGLE_SYMBOL
1070
   384
1040
0.7853981633974483
  0
DIMSTYLE
105
166A7
330
A
100
AcDbSymbolTableRecord
100
AcDbDimStyleTableRecord
  2
AM_ISO$4
 70
     0
  4
"
 41
2.5
 42
1.0
 43
10.0
 44
1.0
 47
0.1
 48
0.1
 73
     0
 77
     1
 78
     8
 79
     2
140
3.5
141
0.0
143
0.0393701
146
0.71
147
1.5
176
   256
177
   256
178
     2
271
     2
272
     3
274
     4
283
     0
284
     8
288
     1
289
     0
340
11
371
    -1
372
    -1
1001
ACAD_DSTYLE_DIMARC_LENGTH_SYMBOL
1070
   379
1070
     1
1001
ACAD_DSTYLE_DIMJOGGED_JOGANGLE_SYMBOL
1070
   384
1040
0.7853981633974483
  0
DIMSTYLE
105
166A8
330
A
100
AcDbSymbolTableRecord
100
AcDbDimStyleTableRecord
  2
AM_ISO$6
 70
     0
  4
"
 41
2.5
 42
1.0
 43
10.0
 44
1.0
 47
0.1
 48
0.1
 73
     0
 74
     0
 78
     8
 79
     2
140
3.5
141
0.0
143
0.0393701
146
0.71
147
1.5
172
     1
176
   256
177
   256
178
     2
271
     2
272
     3
274
     4
283
     0
284
     8
340
11
371
    -1
372
    -1
1001
ACAD_DSTYLE_DIMARC_LENGTH_SYMBOL
1070
   379
1070
     1
1001
ACAD_DSTYLE_DIMJOGGED_JOGANGLE_SYMBOL
1070
   384
1040
0.7853981633974483
  0
DIMSTYLE
105
166A9
330
A
100
AcDbSymbolTableRecord
100
AcDbDimStyleTableRecord
  2
AM_ISO$7
 70
     0
  4
"
 41
2.5
 42
1.0
 43
10.0
 44
1.0
 47
0.1
 48
0.1
 73
     0
 74
     0
 77
     1
 78
     8
 79
     2
140
5.0
141
0.0
143
0.0393701
146
0.71
147
1.5
172
     1
176
   256
177
   256
178
     2
271
     2
272
     3
274
     4
283
     0
284
     8
340
11
371
    -1
372
    -1
1001
ACAD_DSTYLE_DIMARC_LENGTH_SYMBOL
1070
   379
1070
     1
1001
ACAD_DSTYLE_DIMJOGGED_JOGANGLE_SYMBOL
1070
   384
1040
0.7853981633974483
  0
DIMSTYLE
105
166AA
330
A
100
AcDbSymbolTableRecord
100
AcDbDimStyleTableRecord
  2
AM_ISO$SF
 70
     0
  4
"
 41
2.5
 42
1.0
 43
10.0
 44
1.0
 47
0.1
 48
0.1
 73
     0
 74
     0
 75
     1
 76
     1
 77
     1
 78
     8
 79
     2
140
3.5
141
0.0
143
0.0393701
146
0.71
147
1.5
172
     1
176
   256
177
   256
178
     2
271
     2
272
     3
274
     4
283
     0
284
     8
340
11
371
    -1
372
    -1
1001
ACAD_DSTYLE_DIMARC_LENGTH_SYMBOL
1070
   379
1070
     1
1001
ACAD_DSTYLE_DIMJOGGED_JOGANGLE_SYMBOL
1070
   384
1040
0.7853981633974483
  0
DIMSTYLE
105
166AB
330
A
100
AcDbSymbolTableRecord
100
AcDbDimStyleTableRecord
  2
AM_ISO$SH
 70
     0
  4
"
 41
2.5
 42
1.0
 43
10.0
 44
1.0
 47
0.1
 48
0.1
 73
     0
 74
     0
 75
     1
 76
     1
 77
     1
 78
     8
 79
     2
140
3.5
141
0.0
143
0.0393701
144
2.0
146
0.71
147
1.5
172
     1
173
     1
176
   256
177
   256
178
     2
271
     2
272
     3
274
     4
283
     0
284
     8
340
11
343
87
371
    -1
372
    -1
1001
ACAD_DSTYLE_DIMARC_LENGTH_SYMBOL
1070
   379
1070
     1
1001
ACAD_DSTYLE_DIMJOGGED_JOGANGLE_SYMBOL
1070
   384
1040
0.7853981633974483
  0
ENDTAB
  0
TABLE
  2
BLOCK_RECORD
  5
1
330
0
100
AcDbSymbolTable
 70
     9
  0
BLOCK_RECORD
  5
1F
102
{ACAD_XDICTIONARY
360
8F
102
}
330
1
100
AcDbSymbolTableRecord
100
AcDbBlockTableRecord
  2
*Model_Space
340
22
  0
BLOCK_RECORD
  5
1B
330
1
100
AcDbSymbolTableRecord
100
AcDbBlockTableRecord
  2
*Paper_Space
340
1E
  0
BLOCK_RECORD
  5
23
330
1
100
AcDbSymbolTableRecord
100
AcDbBlockTableRecord
  2
*Paper_Space0
340
26
  0
BLOCK_RECORD
  5
87
102
{ACAD_XDICTIONARY
360
10117
102
}
330
1
100
AcDbSymbolTableRecord
100
AcDbBlockTableRecord
  2
GENAXEH
340
0
1001
AcDbDynamicBlockGUID
1000
{D68C792B-0B99-4E0B-8B7B-1EAC83B216F4}
1001
ACDBBLOCKREPETAG
1070
     1
1071
        0
  0
BLOCK_RECORD
  5
188EA
330
1
100
AcDbSymbolTableRecord
100
AcDbBlockTableRecord
  2
*D3
340
0
  0
BLOCK_RECORD
  5
188F6
330
1
100
AcDbSymbolTableRecord
100
AcDbBlockTableRecord
  2
*D4
340
0
  0
BLOCK_RECORD
  5
18902
330
1
100
AcDbSymbolTableRecord
100
AcDbBlockTableRecord
  2
*D5
340
0
  0
BLOCK_RECORD
  5
1890E
330
1
100
AcDbSymbolTableRecord
100
AcDbBlockTableRecord
  2
*D6
340
0
  0
BLOCK_RECORD
  5
1891A
330
1
100
AcDbSymbolTableRecord
100
AcDbBlockTableRecord
  2
*D7
340
0
  0
BLOCK_RECORD
  5
18926
330
1
100
AcDbSymbolTableRecord
100
AcDbBlockTableRecord
  2
*D8
340
0
  0
ENDTAB
  0
ENDSEC
  0
SECTION
  2
BLOCKS
  0
BLOCK
  5
20
330
1F
100
AcDbEntity
  8
0
100
AcDbBlockBegin
  2
*Model_Space
 70
     0
 10
0.0
 20
0.0
 30
0.0
  3
*Model_Space
  1

  0
ENDBLK
  5
21
330
1F
100
AcDbEntity
  8
0
100
AcDbBlockEnd
  0
BLOCK
  5
1C
330
1B
100
AcDbEntity
 67
     1
  8
0
100
AcDbBlockBegin
  2
*Paper_Space
 70
     0
 10
0.0
 20
0.0
 30
0.0
  3
*Paper_Space
  1

  0
ENDBLK
  5
1D
330
1B
100
AcDbEntity
 67
     1
  8
0
100
AcDbBlockEnd
  0
BLOCK
  5
24
330
23
100
AcDbEntity
 67
     1
  8
0
100
AcDbBlockBegin
  2
*Paper_Space0
 70
     0
 10
0.0
 20
0.0
 30
0.0
  3
*Paper_Space0
  1

  0
ENDBLK
  5
25
330
23
100
AcDbEntity
 67
     1
  8
0
100
AcDbBlockEnd
  0
BLOCK
  5
2ADE
330
87
100
AcDbEntity
  8
0
100
AcDbBlockBegin
  2
GENAXEH
 70
     0
 10
0.0
 20
0.0
 30
0.0
  3
GENAXEH
  1

  0
ENDBLK
  5
2AE0
330
87
100
AcDbEntity
  8
0
100
AcDbBlockEnd
  0
BLOCK
  5
188F4
330
188EA
100
AcDbEntity
  8
0
100
AcDbBlockBegin
  2
*D3
 70
     1
 10
0.0
 20
0.0
 30
0.0
  3
*D3
  1

  0
LINE
  5
19923
330
188EA
100
AcDbEntity
  8
AM_5
100
AcDbLine
 10
20250.5852572227
 20
-946.4464128220111
 30
0.0
 11
20250.5852572227
 21
-756.5598967351824
 31
0.0
  0
LINE
  5
19924
330
188EA
100
AcDbEntity
  8
AM_5
100
AcDbLine
 10
20704.60525726951
 20
-946.4464128220111
 30
0.0
 11
20704.60525726951
 21
-756.5598967351824
 31
0.0
  0
LINE
  5
19925
330
188EA
100
AcDbEntity
  8
AM_5
100
AcDbLine
 10
20290.5852572227
 20
-781.5598967351825
 30
0.0
 11
20664.60525726951
 21
-781.5598967351825
 31
0.0
  0
SOLID
  5
19926
330
188EA
100
AcDbEntity
  8
AM_5
100
AcDbTrace
 10
20290.5852572227
 20
-774.8932300685159
 30
0.0
 11
20290.5852572227
 21
-788.2265634018491
 31
0.0
 12
20250.5852572227
 22
-781.5598967351825
 32
0.0
 13
20250.5852572227
 23
-781.5598967351825
 33
0.0
  0
SOLID
  5
19927
330
188EA
100
AcDbEntity
  8
AM_5
100
AcDbTrace
 10
20664.60525726951
 20
-774.8932300685159
 30
0.0
 11
20664.60525726951
 21
-788.2265634018491
 31
0.0
 12
20704.60525726951
 22
-781.5598967351825
 32
0.0
 13
20704.60525726951
 23
-781.5598967351825
 33
0.0
  0
MTEXT
  5
19928
330
188EA
100
AcDbEntity
  8
AM_5
 62
     2
100
AcDbMText
 10
20477.5952572461
 20
-745.0182869125358
 30
0.0
 40
40.0
 41
0.0
 71
     5
 72
     1
  1
li. %%c 455
 73
     1
 44
1.0
1001
ACAD
1000
MTEXTBEGIN
1070
    73
1070
     1
1070
    44
1040
1.0
1070
    74
1070
     0
1000
MTEXTEND
  0
POINT
  5
19929
330
188EA
100
AcDbEntity
  8
Defpoints
 62
     0
100
AcDbPoint
 10
20250.5852572227
 20
-947.4464128220111
 30
0.0
  0
POINT
  5
1992A
330
188EA
100
AcDbEntity
  8
Defpoints
 62
     0
100
AcDbPoint
 10
20704.60525726951
 20
-947.4464128220111
 30
0.0
  0
POINT
  5
1992B
330
188EA
100
AcDbEntity
  8
Defpoints
 62
     0
100
AcDbPoint
 10
20704.60525726951
 20
-781.5598967351825
 30
0.0
  0
ENDBLK
  5
188F5
330
188EA
100
AcDbEntity
  8
0
100
AcDbBlockEnd
  0
BLOCK
  5
18900
330
188F6
100
AcDbEntity
  8
0
100
AcDbBlockBegin
  2
*D4
 70
     1
 10
0.0
 20
0.0
 30
0.0
  3
*D4
  1

  0
LINE
  5
1992C
330
188F6
100
AcDbEntity
  8
AM_5
100
AcDbLine
 10
20258.6208350873
 20
-1363.360134033676
 30
0.0
 11
19799.46675395836
 21
-1363.360134033675
 31
0.0
  0
LINE
  5
1992D
330
188F6
100
AcDbEntity
  8
AM_5
100
AcDbLine
 10
20476.59550917396
 20
-838.3392309407792
 30
0.0
 11
19799.46675395836
 21
-838.3392309407792
 31
0.0
  0
LINE
  5
1992E
330
188F6
100
AcDbEntity
  8
AM_5
100
AcDbLine
 10
19824.46675395836
 20
-1323.360134033675
 30
0.0
 11
19824.46675395836
 21
-878.3392309407792
 31
0.0
  0
SOLID
  5
1992F
330
188F6
100
AcDbEntity
  8
AM_5
100
AcDbTrace
 10
19817.80008729169
 20
-1323.360134033675
 30
0.0
 11
19831.13342062503
 21
-1323.360134033675
 31
0.0
 12
19824.46675395836
 22
-1363.360134033675
 32
0.0
 13
19824.46675395836
 23
-1363.360134033675
 33
0.0
  0
SOLID
  5
19930
330
188F6
100
AcDbEntity
  8
AM_5
100
AcDbTrace
 10
19817.80008729169
 20
-878.3392309407792
 30
0.0
 11
19831.13342062503
 21
-878.3392309407792
 31
0.0
 12
19824.46675395836
 22
-838.3392309407792
 32
0.0
 13
19824.46675395836
 23
-838.3392309407792
 33
0.0
  0
MTEXT
  5
19931
330
188F6
100
AcDbEntity
  8
AM_5
 62
     2
100
AcDbMText
 10
19789.0438344495
 20
-1088.871583000019
 30
0.0
 40
40.0
 41
0.0
 71
     5
 72
     1
  1
525
 11
0.0000000000000001
 21
1.0
 31
0.0
 73
     1
 44
1.0
1001
ACAD
1000
MTEXTBEGIN
1070
    73
1070
     1
1070
    44
1040
1.0
1070
    74
1070
     0
1000
MTEXTEND
  0
POINT
  5
19932
330
188F6
100
AcDbEntity
  8
Defpoints
 62
     0
100
AcDbPoint
 10
20259.6208350873
 20
-1363.360134033676
 30
0.0
  0
POINT
  5
19933
330
188F6
100
AcDbEntity
  8
Defpoints
 62
     0
100
AcDbPoint
 10
20477.59550917396
 20
-838.3392309407792
 30
0.0
  0
POINT
  5
19934
330
188F6
100
AcDbEntity
  8
Defpoints
 62
     0
100
AcDbPoint
 10
19824.46675395836
 20
-838.3392309407792
 30
0.0
  0
ENDBLK
  5
18901
330
188F6
100
AcDbEntity
  8
0
100
AcDbBlockEnd
  0
BLOCK
  5
1890C
330
18902
100
AcDbEntity
  8
0
100
AcDbBlockBegin
  2
*D5
 70
     1
 10
0.0
 20
0.0
 30
0.0
  3
*D5
  1

  0
LINE
  5
19949
330
18902
100
AcDbEntity
  8
AM_5
100
AcDbLine
 10
20258.62083508728
 20
-1363.360134033676
 30
0.0
 11
20056.10107731357
 21
-1363.360134033676
 31
0.0
  0
LINE
  5
1994A
330
18902
100
AcDbEntity
  8
AM_5
100
AcDbLine
 10
20169.09039873045
 20
-1098.163564488283
 30
0.0
 11
20056.10107731357
 21
-1098.163564488283
 31
0.0
  0
LINE
  5
1994B
330
18902
100
AcDbEntity
  8
AM_5
100
AcDbLine
 10
20081.10107731357
 20
-1323.360134033676
 30
0.0
 11
20081.10107731357
 21
-1138.163564488283
 31
0.0
  0
SOLID
  5
1994C
330
18902
100
AcDbEntity
  8
AM_5
100
AcDbTrace
 10
20074.43441064691
 20
-1323.360134033676
 30
0.0
 11
20087.76774398024
 21
-1323.360134033676
 31
0.0
 12
20081.10107731357
 22
-1363.360134033676
 32
0.0
 13
20081.10107731357
 23
-1363.360134033676
 33
0.0
  0
SOLID
  5
1994D
330
18902
100
AcDbEntity
  8
AM_5
100
AcDbTrace
 10
20074.43441064691
 20
-1138.163564488283
 30
0.0
 11
20087.76774398024
 21
-1138.163564488283
 31
0.0
 12
20081.10107731357
 22
-1098.163564488283
 32
0.0
 13
20081.10107731357
 23
-1098.163564488283
 33
0.0
  0
MTEXT
  5
1994E
330
18902
100
AcDbEntity
  8
AM_5
 62
     2
100
AcDbMText
 10
20045.67815780471
 20
-1232.402042599621
 30
0.0
 40
40.0
 41
0.0
 71
     5
 72
     1
  1
265
 11
0.0000000000000001
 21
1.0
 31
0.0
 73
     1
 44
1.0
1001
ACAD
1000
MTEXTBEGIN
1070
    73
1070
     1
1070
    44
1040
1.0
1070
    74
1070
     0
1000
MTEXTEND
  0
POINT
  5
1994F
330
18902
100
AcDbEntity
  8
Defpoints
 62
     0
100
AcDbPoint
 10
20259.62083508728
 20
-1363.360134033676
 30
0.0
  0
POINT
  5
19950
330
18902
100
AcDbEntity
  8
Defpoints
 62
     0
100
AcDbPoint
 10
20170.09039873045
 20
-1098.163564488283
 30
0.0
  0
POINT
  5
19951
330
18902
100
AcDbEntity
  8
Defpoints
 62
     0
100
AcDbPoint
 10
20081.10107731357
 20
-1098.163564488283
 30
0.0
  0
ENDBLK
  5
1890D
330
18902
100
AcDbEntity
  8
0
100
AcDbBlockEnd
  0
BLOCK
  5
18918
330
1890E
100
AcDbEntity
  8
0
100
AcDbBlockBegin
  2
*D6
 70
     1
 10
0.0
 20
0.0
 30
0.0
  3
*D6
  1

  0
LINE
  5
1995D
330
1890E
100
AcDbEntity
  8
AM_5
100
AcDbLine
 10
20189.98043609081
 20
-1206.032083055741
 30
0.0
 11
20189.98043609081
 21
-1801.749047437142
 31
0.0
  0
LINE
  5
1995E
330
1890E
100
AcDbEntity
  8
AM_5
100
AcDbLine
 10
20744.45045262483
 20
-1356.254184791599
 30
0.0
 11
20744.45045262483
 21
-1801.749047437142
 31
0.0
  0
LINE
  5
1995F
330
1890E
100
AcDbEntity
  8
AM_5
100
AcDbLine
 10
20229.98043609081
 20
-1776.749047437142
 30
0.0
 11
20704.45045262483
 21
-1776.749047437142
 31
0.0
  0
SOLID
  5
19960
330
1890E
100
AcDbEntity
  8
AM_5
100
AcDbTrace
 10
20229.98043609081
 20
-1770.082380770476
 30
0.0
 11
20229.98043609081
 21
-1783.415714103809
 31
0.0
 12
20189.98043609081
 22
-1776.749047437142
 32
0.0
 13
20189.98043609081
 23
-1776.749047437142
 33
0.0
  0
SOLID
  5
19961
330
1890E
100
AcDbEntity
  8
AM_5
100
AcDbTrace
 10
20704.45045262483
 20
-1770.082380770476
 30
0.0
 11
20704.45045262483
 21
-1783.415714103809
 31
0.0
 12
20744.45045262483
 22
-1776.749047437142
 32
0.0
 13
20744.45045262483
 23
-1776.749047437142
 33
0.0
  0
MTEXT
  5
19962
330
1890E
100
AcDbEntity
  8
AM_5
 62
     2
100
AcDbMText
 10
20344.22788234961
 20
-1741.407983317088
 30
0.0
 40
40.0
 41
0.0
 71
     5
 72
     1
  1
555
 73
     1
 44
1.0
1001
ACAD
1000
MTEXTBEGIN
1070
    73
1070
     1
1070
    44
1040
1.0
1070
    74
1070
     0
1000
MTEXTEND
  0
POINT
  5
19963
330
1890E
100
AcDbEntity
  8
Defpoints
 62
     0
100
AcDbPoint
 10
20189.98043609081
 20
-1205.032083055741
 30
0.0
  0
POINT
  5
19964
330
1890E
100
AcDbEntity
  8
Defpoints
 62
     0
100
AcDbPoint
 10
20744.45045262483
 20
-1355.254184791599
 30
0.0
  0
POINT
  5
19965
330
1890E
100
AcDbEntity
  8
Defpoints
 62
     0
100
AcDbPoint
 10
20744.45045262483
 20
-1776.749047437142
 30
0.0
  0
ENDBLK
  5
18919
330
1890E
100
AcDbEntity
  8
0
100
AcDbBlockEnd
  0
BLOCK
  5
18924
330
1891A
100
AcDbEntity
  8
0
100
AcDbBlockBegin
  2
*D7
 70
     1
 10
0.0
 20
0.0
 30
0.0
  3
*D7
  1

  0
LINE
  5
19985
330
1891A
100
AcDbEntity
  8
AM_5
100
AcDbLine
 10
20189.98043609081
 20
-1206.032083055741
 30
0.0
 11
20189.98043609081
 21
-1561.579884908137
 31
0.0
  0
LINE
  5
19986
330
1891A
100
AcDbEntity
  8
AM_5
100
AcDbLine
 10
20592.59759714902
 20
-1479.948995676627
 30
0.0
 11
20592.59759714902
 21
-1561.579884908137
 31
0.0
  0
LINE
  5
19987
330
1891A
100
AcDbEntity
  8
AM_5
100
AcDbLine
 10
20229.98043609081
 20
-1536.579884908137
 30
0.0
 11
20552.59759714902
 21
-1536.579884908137
 31
0.0
  0
SOLID
  5
19988
330
1891A
100
AcDbEntity
  8
AM_5
100
AcDbTrace
 10
20229.98043609081
 20
-1529.91321824147
 30
0.0
 11
20229.98043609081
 21
-1543.246551574804
 31
0.0
 12
20189.98043609081
 22
-1536.579884908137
 32
0.0
 13
20189.98043609081
 23
-1536.579884908137
 33
0.0
  0
SOLID
  5
19989
330
1891A
100
AcDbEntity
  8
AM_5
100
AcDbTrace
 10
20552.59759714902
 20
-1529.91321824147
 30
0.0
 11
20552.59759714902
 21
-1543.246551574804
 31
0.0
 12
20592.59759714902
 22
-1536.579884908137
 32
0.0
 13
20592.59759714902
 23
-1536.579884908137
 33
0.0
  0
MTEXT
  5
1998A
330
1891A
100
AcDbEntity
  8
AM_5
 62
     2
100
AcDbMText
 10
20397.46544435785
 20
-1501.143322834467
 30
0.0
 40
40.0
 41
0.0
 71
     5
 72
     1
  1
403
 73
     1
 44
1.0
1001
ACAD
1000
MTEXTBEGIN
1070
    73
1070
     1
1070
    44
1040
1.0
1070
    74
1070
     0
1000
MTEXTEND
  0
POINT
  5
1998B
330
1891A
100
AcDbEntity
  8
Defpoints
 62
     0
100
AcDbPoint
 10
20189.98043609081
 20
-1205.032083055741
 30
0.0
  0
POINT
  5
1998C
330
1891A
100
AcDbEntity
  8
Defpoints
 62
     0
100
AcDbPoint
 10
20592.59759714902
 20
-1478.948995676628
 30
0.0
  0
POINT
  5
1998D
330
1891A
100
AcDbEntity
  8
Defpoints
 62
     0
100
AcDbPoint
 10
20592.59759714902
 20
-1536.579884908137
 30
0.0
  0
ENDBLK
  5
18925
330
1891A
100
AcDbEntity
  8
0
100
AcDbBlockEnd
  0
BLOCK
  5
18932
330
18926
100
AcDbEntity
  8
0
100
AcDbBlockBegin
  2
*D8
 70
     1
 10
0.0
 20
0.0
 30
0.0
  3
*D8
  1

  0
LINE
  5
19952
330
18926
100
AcDbEntity
  8
AM_5
100
AcDbLine
 10
20491.59759714943
 20
-1463.360134026239
 30
0.0
 11
20056.10107731358
 21
-1463.360134026239
 31
0.0
  0
LINE
  5
19953
330
18926
100
AcDbEntity
  8
AM_5
100
AcDbLine
 10
20258.62083508728
 20
-1363.360134033676
 30
0.0
 11
20056.10107731358
 21
-1363.360134033676
 31
0.0
  0
LINE
  5
19954
330
18926
100
AcDbEntity
  8
AM_5
100
AcDbLine
 10
20081.10107731358
 20
-1323.360134033676
 30
0.0
 11
20081.10107731358
 21
-1283.360134033675
 31
0.0
  0
LINE
  5
19955
330
18926
100
AcDbEntity
  8
AM_5
100
AcDbLine
 10
20081.10107731358
 20
-1503.360134026239
 30
0.0
 11
20081.10107731358
 21
-1657.834895281355
 31
0.0
  0
LINE
  5
19956
330
18926
100
AcDbEntity
  8
AM_5
100
AcDbLine
 10
20081.10107731358
 20
-1363.360134033676
 30
0.0
 11
20081.10107731358
 21
-1463.360134026239
 31
0.0
  0
SOLID
  5
19957
330
18926
100
AcDbEntity
  8
AM_5
100
AcDbTrace
 10
20074.43441064691
 20
-1323.360134033676
 30
0.0
 11
20087.76774398025
 21
-1323.360134033676
 31
0.0
 12
20081.10107731358
 22
-1363.360134033676
 32
0.0
 13
20081.10107731358
 23
-1363.360134033676
 33
0.0
  0
SOLID
  5
19958
330
18926
100
AcDbEntity
  8
AM_5
100
AcDbTrace
 10
20074.43441064691
 20
-1503.360134026239
 30
0.0
 11
20087.76774398025
 21
-1503.360134026239
 31
0.0
 12
20081.10107731358
 22
-1463.360134026239
 32
0.0
 13
20081.10107731358
 23
-1463.360134026239
 33
0.0
  0
MTEXT
  5
19959
330
18926
100
AcDbEntity
  8
AM_5
 62
     2
100
AcDbMText
 10
20045.67815780471
 20
-1600.597514653794
 30
0.0
 40
40.0
 41
0.0
 71
     5
 72
     1
  1
100
 11
0.0000000000000001
 21
1.0
 31
0.0
 73
     1
 44
1.0
1001
ACAD
1000
MTEXTBEGIN
1070
    73
1070
     1
1070
    44
1040
1.0
1070
    74
1070
     0
1000
MTEXTEND
  0
POINT
  5
1995A
330
18926
100
AcDbEntity
  8
Defpoints
 62
     0
100
AcDbPoint
 10
20492.59759714943
 20
-1463.360134026239
 30
0.0
  0
POINT
  5
1995B
330
18926
100
AcDbEntity
  8
Defpoints
 62
     0
100
AcDbPoint
 10
20259.62083508728
 20
-1363.360134033676
 30
0.0
  0
POINT
  5
1995C
330
18926
100
AcDbEntity
  8
Defpoints
 62
     0
100
AcDbPoint
 10
20081.10107731358
 20
-1363.360134033676
 30
0.0
  0
ENDBLK
  5
18933
330
18926
100
AcDbEntity
  8
0
100
AcDbBlockEnd
  0
ENDSEC
  0
SECTION
  2
ENTITIES
  0
LINE
  5
1887D
330
1F
100
AcDbEntity
  8
bezugslinien
100
AcDbLine
 10
19960.05716781817
 20
-1098.163564488283
 30
0.0
 11
19885.05716781817
 21
-1098.163564488283
 31
0.0
  0
SOLID
  5
1887E
330
1F
100
AcDbEntity
  8
bezugslinien
100
AcDbTrace
 10
19960.05716781817
 20
-1087.330231154948
 30
0.0
 11
19960.05716781817
 21
-1108.996897821616
 31
0.0
 12
20025.05716781817
 22
-1098.163564488283
 32
0.0
 13
20025.05716781817
 23
-1098.163564488283
 33
0.0
  0
LINE
  5
1887F
330
1F
100
AcDbEntity
  8
bezugslinien
100
AcDbLine
 10
20592.59759714902
 20
-1671.10451585303
 30
0.0
 11
20592.59759714902
 21
-1596.10451585303
 31
0.0
  0
SOLID
  5
18880
330
1F
100
AcDbEntity
  8
bezugslinien
100
AcDbTrace
 10
20603.43093048235
 20
-1671.10451585303
 30
0.0
 11
20581.76426381569
 21
-1671.10451585303
 31
0.0
 12
20592.59759714902
 22
-1736.10451585303
 32
0.0
 13
20592.59759714902
 23
-1736.10451585303
 33
0.0
  0
DIMENSION
  5
18881
330
1F
100
AcDbEntity
  8
AM_5
100
AcDbDimension
  2
*D3
 10
20704.60525726951
 20
-781.5598967351825
 30
0.0
 11
20477.5952572461
 21
-781.5598967351825
 31
0.0
 70
   160
  1
li. %%c 455
 71
     5
 42
454.0200000468103
  3
AM_DIN$0
100
AcDbAlignedDimension
 13
20250.5852572227
 23
-947.4464128220111
 33
0.0
 14
20704.60525726951
 24
-947.4464128220111
 34
0.0
100
AcDbRotatedDimension
1001
ACAD
1000
DSTYLE
1002
{
1070
    41
1040
40.0
1070
   140
1040
40.0
1002
}
  0
DIMENSION
  5
18882
330
1F
100
AcDbEntity
  8
AM_5
100
AcDbDimension
  2
*D4
 10
19824.46675395836
 20
-838.3392309407792
 30
0.0
 11
19824.46675395836
 21
-1088.871583000019
 31
0.0
 70
   160
  1
<>
 71
     5
 42
525.0209030928963
  3
AM_DIN$0
100
AcDbAlignedDimension
 13
20259.6208350873
 23
-1363.360134033676
 33
0.0
 14
20477.59550917396
 24
-838.3392309407792
 34
0.0
 50
90.0
100
AcDbRotatedDimension
1001
ACAD
1000
DSTYLE
1002
{
1070
    41
1040
40.0
1070
   140
1040
40.0
1002
}
  0
DIMENSION
  5
18883
330
1F
100
AcDbEntity
  8
AM_5
100
AcDbDimension
  2
*D5
 10
20081.10107731357
 20
-1098.163564488283
 30
0.0
 11
20081.10107731357
 21
-1232.402042599621
 31
0.0
 70
   160
  1
<>
 71
     5
 42
265.196569545393
  3
AM_DIN$0
100
AcDbAlignedDimension
 13
20259.62083508728
 23
-1363.360134033676
 33
0.0
 14
20170.09039873045
 24
-1098.163564488283
 34
0.0
 50
90.0
100
AcDbRotatedDimension
1001
ACAD
1000
DSTYLE
1002
{
1070
   140
1040
40.0
1070
    41
1040
40.0
1002
}
  0
DIMENSION
  5
18884
330
1F
100
AcDbEntity
  8
AM_5
100
AcDbDimension
  2
*D6
 10
20744.45045262483
 20
-1776.749047437142
 30
0.0
 11
20344.22788234961
 21
-1776.749047437142
 31
0.0
 70
   160
  1
555
 71
     5
 42
554.4700165340145
  3
AM_DIN$0
100
AcDbAlignedDimension
 13
20189.98043609081
 23
-1205.032083055741
 33
0.0
 14
20744.45045262483
 24
-1355.254184791599
 34
0.0
100
AcDbRotatedDimension
1001
ACAD
1000
DSTYLE
1002
{
1070
    41
1040
40.0
1070
   140
1040
40.0
1002
}
  0
DIMENSION
  5
188E7
330
1F
100
AcDbEntity
  8
AM_5
100
AcDbDimension
  2
*D7
 10
20592.59759714902
 20
-1536.579884908137
 30
0.0
 11
20397.46544435785
 21
-1536.579884908137
 31
0.0
 70
   160
  1
403
 71
     5
 42
402.6171610582023
  3
AM_DIN$0
100
AcDbAlignedDimension
 13
20189.98043609081
 23
-1205.032083055741
 33
0.0
 14
20592.59759714902
 24
-1478.948995676628
 34
0.0
100
AcDbRotatedDimension
1001
ACAD
1000
DSTYLE
1002
{
1070
    41
1040
40.0
1070
   140
1040
40.0
1002
}
  0
DIMENSION
  5
188E8
330
1F
100
AcDbEntity
  8
AM_5
100
AcDbDimension
  2
*D8
 10
20081.10107731358
 20
-1363.360134033676
 30
0.0
 11
20081.10107731358
 21
-1600.597514653794
 31
0.0
 70
   160
  1
<>
 71
     5
 42
99.99999999256397
  3
AM_DIN$0
100
AcDbAlignedDimension
 13
20492.59759714943
 23
-1463.360134026239
 33
0.0
 14
20259.62083508728
 24
-1363.360134033676
 34
0.0
 50
90.0
100
AcDbRotatedDimension
1001
ACAD
1000
DSTYLE
1002
{
1070
   140
1040
40.0
1070
    41
1040
40.0
1002
}
  0
MTEXT
  5
188E9
330
1F
100
AcDbEntity
  8
Beschriftung
100
AcDbMText
 10
19884.79235299436
 20
-976.4916952184169
 30
0.0
 40
30.0
 41
1190.293354815057
 71
     1
 72
     5
  1
Zulauf DN 200\P/ %%C OD 200
 73
     1
 44
1.0
1001
ACAD
1000
ACAD_MTEXT_DEFINED_HEIGHT_BEGIN
1070
    46
1040
0.0
1000
ACAD_MTEXT_DEFINED_HEIGHT_END
1000
MTEXTBEGIN
1070
    73
1070
     1
1070
    44
1040
1.0
1070
    74
1070
     0
1000
MTEXTEND
  0
MTEXT
  5
18EE3
330
1F
100
AcDbEntity
  8
Beschriftung
100
AcDbMText
 10
20292.82528792434
 20
-1598.183004794916
 30
0.0
 40
30.0
 41
1190.293354815057
 71
     1
 72
     5
  1
Ablauf DN 200\P/ %%C OD 200
 73
     1
 44
1.0
1001
ACAD
1000
ACAD_MTEXT_DEFINED_HEIGHT_BEGIN
1070
    46
1040
0.0
1000
ACAD_MTEXT_DEFINED_HEIGHT_END
1000
MTEXTBEGIN
1070
    73
1070
     1
1070
    44
1040
1.0
1070
    74
1070
     0
1000
MTEXTEND
  0
LINE
  5
19690
330
1F
100
AcDbEntity
  8
0
  6
Continuous
 62
     7
100
AcDbLine
 10
20492.59759714943
 20
-1463.360134026239
 30
0.0
 11
20692.59759714861
 21
-1463.360134026239
 31
0.0
  0
LINE
  5
19691
330
1F
100
AcDbEntity
  8
0
  6
Continuous
 62
     7
100
AcDbLine
 10
20241.3601053912
 20
-891.0406633766388
 30
0.0
 11
20231.36010538872
 21
-898.5762038681405
 31
0.0
  0
LINE
  5
19692
330
1F
100
AcDbEntity
  8
0
  6
Continuous
 62
     2
100
AcDbLine
 10
20201.91374905422
 20
-970.3601340236406
 30
0.0
 11
20195.1997349867
 21
-977.0741480911418
 31
0.0
  0
LINE
  5
19693
330
1F
100
AcDbEntity
  8
0
  6
Continuous
 62
     7
100
AcDbLine
 10
20500.59759715141
 20
-1369.36013401544
 30
0.0
 11
20679.58570582422
 21
-1369.36013401544
 31
0.0
  0
LINE
  5
19694
330
1F
100
AcDbEntity
  8
0
  6
Continuous
 62
     7
100
AcDbLine
 10
20486.59759714792
 20
-1363.360134026639
 30
0.0
 11
20259.62317480861
 21
-1363.360134026639
 31
0.0
  0
LINE
  5
19695
330
1F
100
AcDbEntity
  8
0
  6
Continuous
 62
     7
100
AcDbLine
 10
20736.59759714691
 20
-1360.360134019539
 30
0.0
 11
20707.69637515522
 21
-1360.360134019539
 31
0.0
  0
LINE
  5
19696
330
1F
100
AcDbEntity
  8
0
  6
Continuous
 62
     7
100
AcDbLine
 10
20189.27919741202
 20
-993.6516533028388
 30
0.0
 11
20197.59759715821
 21
-970.3601340236406
 31
0.0
  0
LINE
  5
19697
330
1F
100
AcDbEntity
  8
0
  6
Continuous
 62
     2
100
AcDbLine
 10
20207.59759714802
 20
-979.5255283293423
 30
0.0
 11
20191.01225832232
 21
-996.1108671550389
 31
0.0
  0
LINE
  5
19698
330
1F
100
AcDbEntity
  8
0
  6
Continuous
 62
     2
100
AcDbLine
 10
20216.61223386851
 20
-985.3601340210396
 30
0.0
 11
20203.61223385891
 21
-998.3601340179401
 31
0.0
  0
LINE
  5
19699
330
1F
100
AcDbEntity
  8
0
  6
Continuous
 62
     2
100
AcDbLine
 10
20231.461476268
 20
-985.3601340210396
 30
0.0
 11
20223.46147626602
 21
-993.3601340230406
 31
0.0
  0
LINE
  5
1969A
330
1F
100
AcDbEntity
  8
0
  6
Continuous
 62
     2
100
AcDbLine
 10
20221.01187506922
 20
-995.8097352198418
 30
0.0
 11
20219.74392587791
 21
-997.0776844111389
 31
0.0
  0
LINE
  5
1969B
330
1F
100
AcDbEntity
  8
0
  6
Continuous
 62
     7
100
AcDbLine
 10
20692.82290864872
 20
-1355.36013402464
 30
0.0
 11
20259.62317480861
 21
-1355.36013402464
 31
0.0
  0
LINE
  5
1969C
330
1F
100
AcDbEntity
  8
0
  6
Continuous
 62
     7
100
AcDbLine
 10
20732.59759715861
 20
-1352.360134017541
 30
0.0
 11
20707.69682286832
 21
-1352.360134017541
 31
0.0
  0
LINE
  5
1969D
330
1F
100
AcDbEntity
  8
0
  6
Continuous
 62
     7
100
AcDbLine
 10
20247.76361163421
 20
-1345.19064250184
 30
0.0
 11
20698.29914922021
 21
-1345.18888374234
 31
0.0
  0
LINE
  5
1969E
330
1F
100
AcDbEntity
  8
0
  6
Continuous
 62
     2
100
AcDbLine
 10
20267.92831611042
 20
-1363.360134026639
 30
0.0
 11
20254.99948149061
 21
-1354.307266559642
 31
0.0
  0
LINE
  5
1969F
330
1F
100
AcDbEntity
  8
0
  6
Continuous
 62
     2
100
AcDbLine
 10
20250.54814972781
 20
-1351.19041049974
 30
0.0
 11
20239.46082232162
 21
-1343.426980281138
 31
0.0
  0
LINE
  5
196A0
330
1F
100
AcDbEntity
  8
0
  6
Continuous
 62
     2
100
AcDbLine
 10
20283.63110714571
 20
-1363.360134026639
 30
0.0
 11
20272.20592310003
 21
-1355.36013402464
 31
0.0
  0
LINE
  5
196A1
330
1F
100
AcDbEntity
  8
0
  6
Continuous
 62
     2
100
AcDbLine
 10
20246.74634017372
 20
-1337.533142145041
 30
0.0
 11
20237.85034065561
 21
-1331.304096221141
 31
0.0
  0
LINE
  5
196A2
330
1F
100
AcDbEntity
  8
0
  6
Continuous
 62
     2
100
AcDbLine
 10
20299.33389819373
 20
-1363.360134026639
 30
0.0
 11
20287.9087141353
 21
-1355.36013402464
 31
0.0
  0
LINE
  5
196A3
330
1F
100
AcDbEntity
  8
0
  6
Continuous
 62
     2
100
AcDbLine
 10
20245.13585850772
 20
-1325.41025808504
 30
0.0
 11
20236.23985900231
 21
-1319.18121216114
 31
0.0
  0
LINE
  5
196A4
330
1F
100
AcDbEntity
  8
0
  6
Continuous
 62
     2
100
AcDbLine
 10
20315.036689229
 20
-1363.360134026639
 30
0.0
 11
20303.61150518332
 21
-1355.36013402464
 31
0.0
  0
LINE
  5
196A5
330
1F
100
AcDbEntity
  8
0
  6
Continuous
 62
     2
100
AcDbLine
 10
20243.52537684172
 20
-1313.287374025038
 30
0.0
 11
20234.62937733631
 21
-1307.058328101138
 31
0.0
  0
LINE
  5
196A6
330
1F
100
AcDbEntity
  8
0
  6
Continuous
 62
     2
100
AcDbLine
 10
20246.31071868021
 20
-985.3601340210396
 30
0.0
 11
20238.31071867822
 21
-993.3601340230406
 31
0.0
  0
LINE
  5
196A7
330
1F
100
AcDbEntity
  8
0
  6
Continuous
 62
     2
100
AcDbLine
 10
20237.85861774092
 20
-993.8122349476389
 30
0.0
 11
20236.59066854961
 21
-995.0801841389406
 31
0.0
  0
LINE
  5
196A8
330
1F
100
AcDbEntity
  8
0
  6
Continuous
 62
     2
100
AcDbLine
 10
20234.05477016702
 20
-997.6160825215377
 30
0.0
 11
20233.31071867061
 21
-998.3601340179401
 31
0.0
  0
LINE
  5
196A9
330
1F
100
AcDbEntity
  8
0
  6
Continuous
 62
     2
100
AcDbLine
 10
20257.59759714782
 20
-988.9224979529418
 30
0.0
 11
20249.63356366012
 21
-996.8865314406412
 31
0.0
  0
LINE
  5
196AA
330
1F
100
AcDbEntity
  8
0
  6
Continuous
 62
     7
100
AcDbLine
 10
20466.31895986681
 20
-885.5389367880393
 30
0.0
 11
20465.66770814673
 21
-885.9041146835407
 31
0.0
  0
LINE
  5
196AB
330
1F
100
AcDbEntity
  8
0
  6
Continuous
 62
     2
100
AcDbLine
 10
20330.73948027702
 20
-1363.360134026639
 30
0.0
 11
20319.31429621861
 21
-1355.36013402464
 31
0.0
  0
LINE
  5
196AC
330
1F
100
AcDbEntity
  8
0
  6
Continuous
 62
     2
100
AcDbLine
 10
20241.91489518841
 20
-1301.164489965042
 30
0.0
 11
20233.08071309811
 21
-1294.978729070142
 31
0.0
  0
LINE
  5
196AD
330
1F
100
AcDbEntity
  8
0
  6
Continuous
 62
     2
100
AcDbLine
 10
20346.44227132501
 20
-1363.360134026639
 30
0.0
 11
20335.01708726661
 21
-1355.36013402464
 31
0.0
  0
LINE
  5
196AE
330
1F
100
AcDbEntity
  8
0
  6
Continuous
 62
     2
100
AcDbLine
 10
20240.59411441621
 20
-1289.244456642338
 30
0.0
 11
20232.02191237092
 21
-1283.242136160339
 31
0.0
  0
LINE
  5
196AF
330
1F
100
AcDbEntity
  8
0
  6
Continuous
 62
     2
100
AcDbLine
 10
20500.59759715141
 20
-1460.305642560939
 30
0.0
 11
20492.59759714943
 21
-1454.703982263139
 31
0.0
  0
LINE
  5
196B0
330
1F
100
AcDbEntity
  8
0
  6
Continuous
 62
     2
100
AcDbLine
 10
20362.14506236031
 20
-1363.360134026639
 30
0.0
 11
20350.71987831462
 21
-1355.36013402464
 31
0.0
  0
LINE
  5
196B1
330
1F
100
AcDbEntity
  8
0
  6
Continuous
 62
     2
100
AcDbLine
 10
20239.53531368901
 20
-1277.507863745239
 30
0.0
 11
20230.96311164372
 21
-1271.505543250539
 31
0.0
  0
LINE
  5
196B2
330
1F
100
AcDbEntity
  8
0
  6
Continuous
 62
     2
100
AcDbLine
 10
20500.59759715141
 20
-1449.310429905742
 30
0.0
 11
20492.59759714943
 21
-1443.708769595242
 31
0.0
  0
LINE
  5
196B3
330
1F
100
AcDbEntity
  8
0
  6
Continuous
 62
     2
100
AcDbLine
 10
20377.84785340832
 20
-1363.360134026639
 30
0.0
 11
20366.42266934991
 21
-1355.36013402464
 31
0.0
  0
LINE
  5
196B4
330
1F
100
AcDbEntity
  8
0
  6
Continuous
 62
     2
100
AcDbLine
 10
20238.47651296182
 20
-1265.771270835441
 30
0.0
 11
20229.90431092921
 21
-1259.76895034074
 31
0.0
  0
LINE
  5
196B5
330
1F
100
AcDbEntity
  8
0
  6
Continuous
 62
     7
100
AcDbLine
 10
20189.27919741202
 20
-1203.068614744939
 30
0.0
 11
20197.59759715821
 21
-1226.360134024139
 31
0.0
  0
LINE
  5
196B6
330
1F
100
AcDbEntity
  8
0
  6
Continuous
 62
     7
100
AcDbLine
 10
20189.27919741202
 20
-1203.068614744939
 30
0.0
 11
20189.27919741202
 21
-993.6516533028388
 31
0.0
  0
LINE
  5
196B7
330
1F
100
AcDbEntity
  8
0
  6
Continuous
 62
     7
100
AcDbLine
 10
20192.59736508352
 20
-1198.360134017139
 30
0.0
 11
20192.59736508352
 21
-998.3601340179401
 31
0.0
  0
LINE
  5
196B8
330
1F
100
AcDbEntity
  8
0
  6
Continuous
 62
     7
100
AcDbLine
 10
20207.59759714802
 20
-1239.360134021039
 30
0.0
 11
20207.59759714802
 21
-1211.360134026741
 31
0.0
  0
LINE
  5
196B9
330
1F
100
AcDbEntity
  8
0
  6
Continuous
 62
     7
100
AcDbLine
 10
20207.59759714802
 20
-985.3601340210396
 30
0.0
 11
20207.59759714802
 21
-957.3601340267405
 31
0.0
  0
LINE
  5
196BA
330
1F
100
AcDbEntity
  8
0
  6
Continuous
 62
     7
100
AcDbLine
 10
20215.59759715002
 20
-967.3601340165388
 30
0.0
 11
20215.59759715002
 21
-973.3601340180392
 31
0.0
  0
LINE
  5
196BB
330
1F
100
AcDbEntity
  8
0
  6
Continuous
 62
     7
100
AcDbLine
 10
20215.59759715002
 20
-1223.36013401704
 30
0.0
 11
20215.59759715002
 21
-1229.36013401854
 31
0.0
  0
LINE
  5
196BC
330
1F
100
AcDbEntity
  8
AM_4
100
AcDbLine
 10
20216.48434850072
 20
-1198.360134017139
 30
0.0
 11
20216.48434850072
 21
-998.3601340179401
 31
0.0
  0
LINE
  5
196BD
330
1F
100
AcDbEntity
  8
AM_4
100
AcDbLine
 10
20217.59759715052
 20
-1203.360134024739
 30
0.0
 11
20217.59759715052
 21
-993.3601340230406
 31
0.0
  0
LINE
  5
196BE
330
1F
100
AcDbEntity
  8
0
  6
Continuous
 62
     7
100
AcDbLine
 10
20219.59759715101
 20
-963.3601340155395
 30
0.0
 11
20219.59759715101
 21
-977.360134019041
 31
0.0
  0
LINE
  5
196BF
330
1F
100
AcDbEntity
  8
0
  6
Continuous
 62
     7
100
AcDbLine
 10
20219.59759715101
 20
-1219.36013401604
 30
0.0
 11
20219.59759715101
 21
-1233.360134019539
 31
0.0
  0
LINE
  5
196C0
330
1F
100
AcDbEntity
  8
AM_4
100
AcDbLine
 10
20220.48434850172
 20
-1198.360134017139
 30
0.0
 11
20220.48434850172
 21
-998.3601340179401
 31
0.0
  0
LINE
  5
196C1
330
1F
100
AcDbEntity
  8
0
  6
Continuous
 62
     2
100
AcDbLine
 10
20500.59759715141
 20
-1438.315217250541
 30
0.0
 11
20492.59759714943
 21
-1432.71355694004
 31
0.0
  0
LINE
  5
196C2
330
1F
100
AcDbEntity
  8
0
  6
Continuous
 62
     2
100
AcDbLine
 10
20393.55064445631
 20
-1363.360134026639
 30
0.0
 11
20382.12546039793
 21
-1355.36013402464
 31
0.0
  0
LINE
  5
196C3
330
1F
100
AcDbEntity
  8
0
  6
Continuous
 62
     2
100
AcDbLine
 10
20237.4177122473
 20
-1254.034677925641
 30
0.0
 11
20228.84551020201
 21
-1248.032357443641
 31
0.0
  0
LINE
  5
196C4
330
1F
100
AcDbEntity
  8
0
  6
Continuous
 62
     2
100
AcDbLine
 10
20219.31658762921
 20
-1241.36013402154
 30
0.0
 11
20207.59759714802
 21
-1233.154408548338
 31
0.0
  0
LINE
  5
196C5
330
1F
100
AcDbEntity
  8
0
  6
Continuous
 62
     2
100
AcDbLine
 10
20500.59759715141
 20
-1427.320004582638
 30
0.0
 11
20492.59759714943
 21
-1421.718344284839
 31
0.0
  0
LINE
  5
196C6
330
1F
100
AcDbEntity
  8
0
  6
Continuous
 62
     2
100
AcDbLine
 10
20409.25343549161
 20
-1363.360134026639
 30
0.0
 11
20397.82825144592
 21
-1355.36013402464
 31
0.0
  0
LINE
  5
196C7
330
1F
100
AcDbEntity
  8
0
  6
Continuous
 62
     2
100
AcDbLine
 10
20235.82770497521
 20
-1241.926130197138
 30
0.0
 11
20223.59419461881
 21
-1233.360134019539
 31
0.0
  0
LINE
  5
196C8
330
1F
100
AcDbEntity
  8
0
  6
Continuous
 62
     2
100
AcDbLine
 10
20215.59759715002
 20
-1227.760856190938
 30
0.0
 11
20207.59759714802
 21
-1222.159195893141
 31
0.0
  0
LINE
  5
196C9
330
1F
100
AcDbEntity
  8
0
  6
Continuous
 62
     2
100
AcDbLine
 10
20500.59759715141
 20
-1416.324791927442
 30
0.0
 11
20492.59759714943
 21
-1410.723131616941
 31
0.0
  0
LINE
  5
196CA
330
1F
100
AcDbEntity
  8
0
  6
Continuous
 62
     2
100
AcDbLine
 10
20424.95622653962
 20
-1363.360134026639
 30
0.0
 11
20413.5310424812
 21
-1355.36013402464
 31
0.0
  0
LINE
  5
196CB
330
1F
100
AcDbEntity
  8
0
  6
Continuous
 62
     2
100
AcDbLine
 10
20219.36810647461
 20
-1219.40578259124
 30
0.0
 11
20208.4550651943
 21
-1211.764388818939
 31
0.0
  0
LINE
  5
196CC
330
1F
100
AcDbEntity
  8
0
  6
Continuous
 62
     2
100
AcDbLine
 10
20500.59759715141
 20
-1405.329579272241
 30
0.0
 11
20492.59759714943
 21
-1399.72791896174
 31
0.0
  0
LINE
  5
196CD
330
1F
100
AcDbEntity
  8
0
  6
Continuous
 62
     2
100
AcDbLine
 10
20440.6590175749
 20
-1363.360134026639
 30
0.0
 11
20429.23383352923
 21
-1355.36013402464
 31
0.0
  0
LINE
  5
196CE
330
1F
100
AcDbEntity
  8
0
  6
Continuous
 62
     2
100
AcDbLine
 10
20235.00570461261
 20
-1219.36013401604
 30
0.0
 11
20223.5805205542
 21
-1211.360134026741
 31
0.0
  0
LINE
  5
196CF
330
1F
100
AcDbEntity
  8
0
  6
Continuous
 62
     7
100
AcDbLine
 10
20228.66358342592
 20
-1246.015735683141
 30
0.0
 11
20239.85723617191
 21
-1346.41098147594
 31
0.0
  0
LINE
  5
196D0
330
1F
100
AcDbEntity
  8
AM_4
100
AcDbLine
 10
20222.48434850221
 20
-1198.360134017139
 30
0.0
 11
20222.48434850221
 21
-998.3601340179401
 31
0.0
  0
LINE
  5
196D1
330
1F
100
AcDbEntity
  8
AM_4
100
AcDbLine
 10
20223.59759715201
 20
-1203.360134024739
 30
0.0
 11
20223.59759715201
 21
-993.3601340230406
 31
0.0
  0
LINE
  5
196D2
330
1F
100
AcDbEntity
  8
AM_4
100
AcDbLine
 10
20226.4843485032
 20
-1198.360134017139
 30
0.0
 11
20226.4843485032
 21
-998.3601340179401
 31
0.0
  0
LINE
  5
196D3
330
1F
100
AcDbEntity
  8
AM_4
100
AcDbLine
 10
20228.48434850372
 20
-1198.360134017139
 30
0.0
 11
20228.48434850372
 21
-998.3601340179401
 31
0.0
  0
LINE
  5
196D4
330
1F
100
AcDbEntity
  8
AM_4
100
AcDbLine
 10
20229.59759715352
 20
-1203.360134024739
 30
0.0
 11
20229.59759715352
 21
-993.3601340230406
 31
0.0
  0
LINE
  5
196D5
330
1F
100
AcDbEntity
  8
0
  6
Continuous
 62
     7
100
AcDbLine
 10
20230.541331169
 20
-900.2184109088382
 30
0.0
 11
20230.541331169
 21
-930.2184109036383
 31
0.0
  0
LINE
  5
196D6
330
1F
100
AcDbEntity
  8
AM_4
100
AcDbLine
 10
20232.48434850471
 20
-1198.360134017139
 30
0.0
 11
20232.48434850471
 21
-998.3601340179401
 31
0.0
  0
LINE
  5
196D7
330
1F
100
AcDbEntity
  8
AM_4
100
AcDbLine
 10
20234.48434850521
 20
-1198.360134017139
 30
0.0
 11
20234.48434850521
 21
-998.3601340179401
 31
0.0
  0
LINE
  5
196D8
330
1F
100
AcDbEntity
  8
AM_4
100
AcDbLine
 10
20235.597597155
 20
-1203.360134024739
 30
0.0
 11
20235.597597155
 21
-993.3601340230406
 31
0.0
  0
LINE
  5
196D9
330
1F
100
AcDbEntity
  8
AM_4
100
AcDbLine
 10
20238.48434849352
 20
-1198.360134017139
 30
0.0
 11
20238.48434849352
 21
-998.3601340179401
 31
0.0
  0
LINE
  5
196DA
330
1F
100
AcDbEntity
  8
AM_4
100
AcDbLine
 10
20240.48434849402
 20
-1198.360134017139
 30
0.0
 11
20240.48434849402
 21
-998.3601340179401
 31
0.0
  0
LINE
  5
196DB
330
1F
100
AcDbEntity
  8
AM_4
100
AcDbLine
 10
20241.59759715651
 20
-1203.360134024739
 30
0.0
 11
20241.59759715651
 21
-993.3601340230406
 31
0.0
  0
LINE
  5
196DC
330
1F
100
AcDbEntity
  8
0
  6
Continuous
 62
     7
100
AcDbLine
 10
20242.59759715042
 20
-939.3961584358377
 30
0.0
 11
20242.59759715042
 21
-950.3601340186392
 31
0.0
  0
LINE
  5
196DD
330
1F
100
AcDbEntity
  8
AM_4
100
AcDbLine
 10
20244.48434849501
 20
-1198.360134017139
 30
0.0
 11
20244.48434849501
 21
-998.3601340179401
 31
0.0
  0
LINE
  5
196DE
330
1F
100
AcDbEntity
  8
AM_4
100
AcDbLine
 10
20246.48434849551
 20
-1198.360134017139
 30
0.0
 11
20246.48434849551
 21
-998.3601340179401
 31
0.0
  0
LINE
  5
196DF
330
1F
100
AcDbEntity
  8
AM_4
100
AcDbLine
 10
20247.597597158
 20
-1203.360134024739
 30
0.0
 11
20247.597597158
 21
-993.3601340230406
 31
0.0
  0
LINE
  5
196E0
330
1F
100
AcDbEntity
  8
AM_4
100
AcDbLine
 10
20250.48434849652
 20
-1198.360134017139
 30
0.0
 11
20250.48434849652
 21
-998.3601340179401
 31
0.0
  0
LINE
  5
196E1
330
1F
100
AcDbEntity
  8
0
  6
Continuous
 62
     7
100
AcDbLine
 10
20213.59759714951
 20
-1203.360134024739
 30
0.0
 11
20216.48434850072
 21
-1198.360134017139
 31
0.0
  0
LINE
  5
196E2
330
1F
100
AcDbEntity
  8
0
  6
Continuous
 62
     7
100
AcDbLine
 10
20192.59736508352
 20
-1198.360134017139
 30
0.0
 11
20189.27919741202
 21
-1203.068614744939
 31
0.0
  0
LINE
  5
196E3
330
1F
100
AcDbEntity
  8
0
  6
Continuous
 62
     7
100
AcDbLine
 10
20209.59759714851
 20
-1241.36013402154
 30
0.0
 11
20223.67545854062
 21
-1241.36013402154
 31
0.0
  0
LINE
  5
196E4
330
1F
100
AcDbEntity
  8
0
  6
Continuous
 62
     7
100
AcDbLine
 10
20219.59759715101
 20
-1233.360134019539
 30
0.0
 11
20223.67545854062
 21
-1233.360134019539
 31
0.0
  0
LINE
  5
196E5
330
1F
100
AcDbEntity
  8
0
  6
Continuous
 62
     7
100
AcDbLine
 10
20197.59759715821
 20
-1226.360134024139
 30
0.0
 11
20207.59759714802
 21
-1226.360134024139
 31
0.0
  0
LINE
  5
196E6
330
1F
100
AcDbEntity
  8
0
  6
Continuous
 62
     7
100
AcDbLine
 10
20305.5975971471
 20
-1219.36013401604
 30
0.0
 11
20219.59759715101
 21
-1219.36013401604
 31
0.0
  0
LINE
  5
196E7
330
1F
100
AcDbEntity
  8
0
  6
Continuous
 62
     2
100
AcDbLine
 10
20500.59759715141
 20
-1394.33436660434
 30
0.0
 11
20492.59759714943
 21
-1388.732706306541
 31
0.0
  0
LINE
  5
196E8
330
1F
100
AcDbEntity
  8
0
  6
Continuous
 62
     2
100
AcDbLine
 10
20456.36180862291
 20
-1363.360134026639
 30
0.0
 11
20444.93662456451
 21
-1355.36013402464
 31
0.0
  0
LINE
  5
196E9
330
1F
100
AcDbEntity
  8
0
  6
Continuous
 62
     2
100
AcDbLine
 10
20250.70849564791
 20
-1219.36013401604
 30
0.0
 11
20239.28331160222
 21
-1211.360134026741
 31
0.0
  0
LINE
  5
196EA
330
1F
100
AcDbEntity
  8
0
  6
Continuous
 62
     2
100
AcDbLine
 10
20500.59759715141
 20
-1383.339153949141
 30
0.0
 11
20492.59759714943
 21
-1377.737493638641
 31
0.0
  0
LINE
  5
196EB
330
1F
100
AcDbEntity
  8
0
  6
Continuous
 62
     2
100
AcDbLine
 10
20472.06459967093
 20
-1363.360134026639
 30
0.0
 11
20460.63941561252
 21
-1355.36013402464
 31
0.0
  0
LINE
  5
196EC
330
1F
100
AcDbEntity
  8
0
  6
Continuous
 62
     2
100
AcDbLine
 10
20266.41128669591
 20
-1219.36013401604
 30
0.0
 11
20254.98610263752
 21
-1211.360134026741
 31
0.0
  0
LINE
  5
196ED
330
1F
100
AcDbEntity
  8
0
  6
Continuous
 62
     2
100
AcDbLine
 10
20500.59759715141
 20
-1372.34394129394
 30
0.0
 11
20491.5360557241
 21
-1365.998981682638
 31
0.0
  0
LINE
  5
196EE
330
1F
100
AcDbEntity
  8
0
  6
Continuous
 62
     2
100
AcDbLine
 10
20488.10934197811
 20
-1363.59957088584
 30
0.0
 11
20476.34220666051
 21
-1355.36013402464
 31
0.0
  0
LINE
  5
196EF
330
1F
100
AcDbEntity
  8
0
  6
Continuous
 62
     2
100
AcDbLine
 10
20282.11407774391
 20
-1219.36013401604
 30
0.0
 11
20270.68889368551
 21
-1211.360134026741
 31
0.0
  0
LINE
  5
196F0
330
1F
100
AcDbEntity
  8
0
  6
Continuous
 62
     2
100
AcDbLine
 10
20297.81686877921
 20
-1219.36013401604
 30
0.0
 11
20286.39168473352
 21
-1211.360134026741
 31
0.0
  0
LINE
  5
196F1
330
1F
100
AcDbEntity
  8
0
  6
Continuous
 62
     7
100
AcDbLine
 10
20257.59759714782
 20
-1211.360134026741
 30
0.0
 11
20257.59759714782
 21
-985.3601340210396
 31
0.0
  0
LINE
  5
196F2
330
1F
100
AcDbEntity
  8
0
  6
Continuous
 62
     7
100
AcDbLine
 10
20217.59759715052
 20
-1203.360134024739
 30
0.0
 11
20220.48434850172
 21
-1198.360134017139
 31
0.0
  0
LINE
  5
196F3
330
1F
100
AcDbEntity
  8
0
  6
Continuous
 62
     7
100
AcDbLine
 10
20219.59759715101
 20
-1203.360134024739
 30
0.0
 11
20222.48434850221
 21
-1198.360134017139
 31
0.0
  0
LINE
  5
196F4
330
1F
100
AcDbEntity
  8
0
  6
Continuous
 62
     7
100
AcDbLine
 10
20223.59759715201
 20
-1203.360134024739
 30
0.0
 11
20226.4843485032
 21
-1198.360134017139
 31
0.0
  0
LINE
  5
196F5
330
1F
100
AcDbEntity
  8
0
  6
Continuous
 62
     7
100
AcDbLine
 10
20225.5975971525
 20
-1203.360134024739
 30
0.0
 11
20228.48434850372
 21
-1198.360134017139
 31
0.0
  0
LINE
  5
196F6
330
1F
100
AcDbEntity
  8
0
  6
Continuous
 62
     7
100
AcDbLine
 10
20229.59759715352
 20
-1203.360134024739
 30
0.0
 11
20232.48434850471
 21
-1198.360134017139
 31
0.0
  0
LINE
  5
196F7
330
1F
100
AcDbEntity
  8
0
  6
Continuous
 62
     7
100
AcDbLine
 10
20231.59759715401
 20
-1203.360134024739
 30
0.0
 11
20234.48434850521
 21
-1198.360134017139
 31
0.0
  0
LINE
  5
196F8
330
1F
100
AcDbEntity
  8
0
  6
Continuous
 62
     7
100
AcDbLine
 10
20235.597597155
 20
-1203.360134024739
 30
0.0
 11
20238.48434849352
 21
-1198.360134017139
 31
0.0
  0
LINE
  5
196F9
330
1F
100
AcDbEntity
  8
0
  6
Continuous
 62
     7
100
AcDbLine
 10
20237.59759715552
 20
-1203.360134024739
 30
0.0
 11
20240.48434849402
 21
-1198.360134017139
 31
0.0
  0
LINE
  5
196FA
330
1F
100
AcDbEntity
  8
0
  6
Continuous
 62
     7
100
AcDbLine
 10
20241.59759715651
 20
-1203.360134024739
 30
0.0
 11
20244.48434849501
 21
-1198.360134017139
 31
0.0
  0
LINE
  5
196FB
330
1F
100
AcDbEntity
  8
0
  6
Continuous
 62
     7
100
AcDbLine
 10
20243.59759715701
 20
-1203.360134024739
 30
0.0
 11
20246.48434849551
 21
-1198.360134017139
 31
0.0
  0
LINE
  5
196FC
330
1F
100
AcDbEntity
  8
0
  6
Continuous
 62
     7
100
AcDbLine
 10
20247.597597158
 20
-1203.360134024739
 30
0.0
 11
20250.48434849652
 21
-1198.360134017139
 31
0.0
  0
LWPOLYLINE
  5
196FD
330
1F
100
AcDbEntity
  8
0
  6
Continuous
 62
     7
100
AcDbPolyline
 90
        3
 70
     0
 43
0.0
 10
20465.66770814673
 20
-885.9041146835407
 10
20465.18302839472
 20
-886.5066045885424
 10
20465.02596416732
 20
-886.9048002488394
  0
LINE
  5
196FE
330
1F
100
AcDbEntity
  8
0
  6
Continuous
 62
     2
100
AcDbLine
 10
20196.65238512942
 20
-1198.360134017139
 30
0.0
 11
20189.98043609081
 21
-1205.032083055741
 31
0.0
  0
LINE
  5
196FF
330
1F
100
AcDbEntity
  8
0
  6
Continuous
 62
     2
100
AcDbLine
 10
20211.50162752892
 20
-1198.360134017139
 30
0.0
 11
20193.88813146313
 21
-1215.973630095641
 31
0.0
  0
LINE
  5
19700
330
1F
100
AcDbEntity
  8
0
  6
Continuous
 62
     2
100
AcDbLine
 10
20221.35086993351
 20
-1203.360134024739
 30
0.0
 11
20213.35086994422
 21
-1211.360134026741
 31
0.0
  0
LINE
  5
19701
330
1F
100
AcDbEntity
  8
0
  6
Continuous
 62
     2
100
AcDbLine
 10
20207.59759714802
 20
-1217.11340681024
 30
0.0
 11
20198.35086993412
 21
-1226.360134024139
 31
0.0
  0
LINE
  5
19702
330
1F
100
AcDbEntity
  8
0
  6
Continuous
 62
     7
100
AcDbLine
 10
20207.59759714802
 20
-1211.360134026741
 30
0.0
 11
20305.5975971471
 21
-1211.360134026741
 31
0.0
  0
LINE
  5
19703
330
1F
100
AcDbEntity
  8
0
  6
Continuous
 62
     7
100
AcDbLine
 10
20213.59759714951
 20
-1203.360134024739
 30
0.0
 11
20217.59759715052
 21
-1203.360134024739
 31
0.0
  0
LINE
  5
19704
330
1F
100
AcDbEntity
  8
0
  6
Continuous
 62
     7
100
AcDbLine
 10
20219.59759715101
 20
-1203.360134024739
 30
0.0
 11
20223.59759715201
 21
-1203.360134024739
 31
0.0
  0
LINE
  5
19705
330
1F
100
AcDbEntity
  8
0
  6
Continuous
 62
     7
100
AcDbLine
 10
20225.5975971525
 20
-1203.360134024739
 30
0.0
 11
20229.59759715352
 21
-1203.360134024739
 31
0.0
  0
LINE
  5
19706
330
1F
100
AcDbEntity
  8
0
  6
Continuous
 62
     7
100
AcDbLine
 10
20231.59759715401
 20
-1203.360134024739
 30
0.0
 11
20235.597597155
 21
-1203.360134024739
 31
0.0
  0
LINE
  5
19707
330
1F
100
AcDbEntity
  8
0
  6
Continuous
 62
     7
100
AcDbLine
 10
20237.59759715552
 20
-1203.360134024739
 30
0.0
 11
20241.59759715651
 21
-1203.360134024739
 31
0.0
  0
LINE
  5
19708
330
1F
100
AcDbEntity
  8
0
  6
Continuous
 62
     7
100
AcDbLine
 10
20243.59759715701
 20
-1203.360134024739
 30
0.0
 11
20247.597597158
 21
-1203.360134024739
 31
0.0
  0
LINE
  5
19709
330
1F
100
AcDbEntity
  8
0
  6
Continuous
 62
     7
100
AcDbLine
 10
20192.59736508352
 20
-1198.360134017139
 30
0.0
 11
20216.48434850072
 21
-1198.360134017139
 31
0.0
  0
LINE
  5
1970A
330
1F
100
AcDbEntity
  8
0
  6
Continuous
 62
     7
100
AcDbLine
 10
20220.48434850172
 20
-1198.360134017139
 30
0.0
 11
20222.48434850221
 21
-1198.360134017139
 31
0.0
  0
LINE
  5
1970B
330
1F
100
AcDbEntity
  8
0
  6
Continuous
 62
     7
100
AcDbLine
 10
20226.4843485032
 20
-1198.360134017139
 30
0.0
 11
20228.48434850372
 21
-1198.360134017139
 31
0.0
  0
LINE
  5
1970C
330
1F
100
AcDbEntity
  8
0
  6
Continuous
 62
     7
100
AcDbLine
 10
20232.48434850471
 20
-1198.360134017139
 30
0.0
 11
20234.48434850521
 21
-1198.360134017139
 31
0.0
  0
LINE
  5
1970D
330
1F
100
AcDbEntity
  8
0
  6
Continuous
 62
     7
100
AcDbLine
 10
20238.48434849352
 20
-1198.360134017139
 30
0.0
 11
20240.48434849402
 21
-1198.360134017139
 31
0.0
  0
LINE
  5
1970E
330
1F
100
AcDbEntity
  8
0
  6
Continuous
 62
     7
100
AcDbLine
 10
20244.48434849501
 20
-1198.360134017139
 30
0.0
 11
20246.48434849551
 21
-1198.360134017139
 31
0.0
  0
LINE
  5
1970F
330
1F
100
AcDbEntity
  8
0
  6
Continuous
 62
     7
100
AcDbLine
 10
20250.48434849652
 20
-1198.360134017139
 30
0.0
 11
20257.59759714782
 21
-1198.360134017139
 31
0.0
  0
LINE
  5
19710
330
1F
100
AcDbEntity
  8
0
  6
Continuous
 62
     2
100
AcDbLine
 10
20305.5975971471
 20
-1213.813046024642
 30
0.0
 11
20302.09447576882
 21
-1211.360134026741
 31
0.0
  0
LINE
  5
19711
330
1F
100
AcDbEntity
  8
0
  6
Continuous
 62
     2
100
AcDbLine
 10
20692.59759714861
 20
-1462.802937985439
 30
0.0
 11
20684.59759715931
 21
-1457.20127768764
 31
0.0
  0
LINE
  5
19712
330
1F
100
AcDbEntity
  8
0
  6
Continuous
 62
     2
100
AcDbLine
 10
20692.59759714861
 20
-1451.807725330241
 30
0.0
 11
20684.59759715931
 21
-1446.20606501974
 31
0.0
  0
LINE
  5
19713
330
1F
100
AcDbEntity
  8
0
  6
Continuous
 62
     7
100
AcDbLine
 10
20297.5975971578
 20
-1005.360134026041
 30
0.0
 11
20297.5975971578
 21
-985.3601340210396
 31
0.0
  0
LINE
  5
19714
330
1F
100
AcDbEntity
  8
0
  6
Continuous
 62
     7
100
AcDbLine
 10
20305.5975971471
 20
-1219.36013401604
 30
0.0
 11
20305.5975971471
 21
-977.360134019041
 31
0.0
  0
LINE
  5
19715
330
1F
100
AcDbEntity
  8
0
  6
Continuous
 62
     2
100
AcDbLine
 10
20239.50659690621
 20
-1200.053649464239
 30
0.0
 11
20228.20011234373
 21
-1211.360134026741
 31
0.0
  0
LINE
  5
19716
330
1F
100
AcDbEntity
  8
0
  6
Continuous
 62
     2
100
AcDbLine
 10
20256.04935475282
 20
-1198.360134017139
 30
0.0
 11
20243.04935474322
 21
-1211.360134026741
 31
0.0
  0
LINE
  5
19717
330
1F
100
AcDbEntity
  8
0
  6
Continuous
 62
     2
100
AcDbLine
 10
20692.59759714861
 20
-1440.812512675039
 30
0.0
 11
20684.59759715931
 21
-1435.210852364539
 31
0.0
  0
LINE
  5
19718
330
1F
100
AcDbEntity
  8
0
  6
Continuous
 62
     2
100
AcDbLine
 10
20692.59759714861
 20
-1429.817300007139
 30
0.0
 11
20684.59759715931
 21
-1424.21563970934
 31
0.0
  0
LINE
  5
19719
330
1F
100
AcDbEntity
  8
0
  6
Continuous
 62
     2
100
AcDbLine
 10
20692.59759714861
 20
-1418.82208735194
 30
0.0
 11
20684.59759715931
 21
-1413.220427041439
 31
0.0
  0
LINE
  5
1971A
330
1F
100
AcDbEntity
  8
0
  6
Continuous
 62
     2
100
AcDbLine
 10
20692.59759714861
 20
-1407.826874696739
 30
0.0
 11
20684.59759715931
 21
-1402.225214386238
 31
0.0
  0
LINE
  5
1971B
330
1F
100
AcDbEntity
  8
0
  6
Continuous
 62
     7
100
AcDbLine
 10
20192.59736508352
 20
-998.3601340179401
 30
0.0
 11
20189.27919741202
 21
-993.6516533028388
 31
0.0
  0
LINE
  5
1971C
330
1F
100
AcDbEntity
  8
0
  6
Continuous
 62
     7
100
AcDbLine
 10
20213.59759714951
 20
-993.3601340230406
 30
0.0
 11
20216.48434850072
 21
-998.3601340179401
 31
0.0
  0
LINE
  5
1971D
330
1F
100
AcDbEntity
  8
0
  6
Continuous
 62
     7
100
AcDbLine
 10
20217.59759715052
 20
-993.3601340230406
 30
0.0
 11
20220.48434850172
 21
-998.3601340179401
 31
0.0
  0
LINE
  5
1971E
330
1F
100
AcDbEntity
  8
0
  6
Continuous
 62
     7
100
AcDbLine
 10
20219.59759715101
 20
-993.3601340230406
 30
0.0
 11
20222.48434850221
 21
-998.3601340179401
 31
0.0
  0
LINE
  5
1971F
330
1F
100
AcDbEntity
  8
0
  6
Continuous
 62
     7
100
AcDbLine
 10
20223.59759715201
 20
-993.3601340230406
 30
0.0
 11
20226.4843485032
 21
-998.3601340179401
 31
0.0
  0
LINE
  5
19720
330
1F
100
AcDbEntity
  8
0
  6
Continuous
 62
     7
100
AcDbLine
 10
20225.5975971525
 20
-993.3601340230406
 30
0.0
 11
20228.48434850372
 21
-998.3601340179401
 31
0.0
  0
LINE
  5
19721
330
1F
100
AcDbEntity
  8
0
  6
Continuous
 62
     7
100
AcDbLine
 10
20229.59759715352
 20
-993.3601340230406
 30
0.0
 11
20232.48434850471
 21
-998.3601340179401
 31
0.0
  0
LINE
  5
19722
330
1F
100
AcDbEntity
  8
0
  6
Continuous
 62
     7
100
AcDbLine
 10
20231.59759715401
 20
-993.3601340230406
 30
0.0
 11
20234.48434850521
 21
-998.3601340179401
 31
0.0
  0
LINE
  5
19723
330
1F
100
AcDbEntity
  8
0
  6
Continuous
 62
     7
100
AcDbLine
 10
20313.3385738546
 20
-891.0406633766388
 30
0.0
 11
20313.27488419281
 21
-889.8784931584406
 31
0.0
  0
LINE
  5
19724
330
1F
100
AcDbEntity
  8
0
  6
Continuous
 62
     2
100
AcDbLine
 10
20692.59759714861
 20
-1396.831662028841
 30
0.0
 11
20684.59759715931
 21
-1391.230001731039
 31
0.0
  0
LINE
  5
19725
330
1F
100
AcDbEntity
  8
0
  6
Continuous
 62
     2
100
AcDbLine
 10
20692.59759714861
 20
-1385.83644937364
 30
0.0
 11
20684.59759715931
 21
-1380.234789063139
 31
0.0
  0
LINE
  5
19726
330
1F
100
AcDbEntity
  8
0
  6
Continuous
 62
     2
100
AcDbLine
 10
20692.59759714861
 20
-1374.841236718438
 30
0.0
 11
20684.59759715931
 21
-1369.23957640794
 31
0.0
  0
LINE
  5
19727
330
1F
100
AcDbEntity
  8
0
  6
Continuous
 62
     2
100
AcDbLine
 10
20694.32421576801
 20
-1365.05501542224
 30
0.0
 11
20687.73679663401
 21
-1360.44245488614
 31
0.0
  0
LINE
  5
19728
330
1F
100
AcDbEntity
  8
0
  6
Continuous
 62
     7
100
AcDbLine
 10
20235.597597155
 20
-993.3601340230406
 30
0.0
 11
20238.48434849352
 21
-998.3601340179401
 31
0.0
  0
LINE
  5
19729
330
1F
100
AcDbEntity
  8
0
  6
Continuous
 62
     7
100
AcDbLine
 10
20237.59759715552
 20
-993.3601340230406
 30
0.0
 11
20240.48434849402
 21
-998.3601340179401
 31
0.0
  0
LINE
  5
1972A
330
1F
100
AcDbEntity
  8
0
  6
Continuous
 62
     7
100
AcDbLine
 10
20241.59759715651
 20
-993.3601340230406
 30
0.0
 11
20244.48434849501
 21
-998.3601340179401
 31
0.0
  0
LINE
  5
1972B
330
1F
100
AcDbEntity
  8
0
  6
Continuous
 62
     7
100
AcDbLine
 10
20243.59759715701
 20
-993.3601340230406
 30
0.0
 11
20246.48434849551
 21
-998.3601340179401
 31
0.0
  0
LINE
  5
1972C
330
1F
100
AcDbEntity
  8
0
  6
Continuous
 62
     7
100
AcDbLine
 10
20247.597597158
 20
-993.3601340230406
 30
0.0
 11
20250.48434849652
 21
-998.3601340179401
 31
0.0
  0
LINE
  5
1972D
330
1F
100
AcDbEntity
  8
0
  6
Continuous
 62
     7
100
AcDbLine
 10
20420.96328358571
 20
-888.8888671595413
 30
0.0
 11
20420.96567123651
 21
-888.8738077408403
 31
0.0
  0
LINE
  5
1972E
330
1F
100
AcDbEntity
  8
0
  6
Continuous
 62
     7
100
AcDbLine
 10
20723.83508891531
 20
-931.8606179443408
 30
0.0
 11
20713.83508891281
 21
-939.3961584358377
 31
0.0
  0
LINE
  5
1972F
330
1F
100
AcDbEntity
  8
0
  6
Continuous
 62
     7
100
AcDbLine
 10
20736.59759714691
 20
-1110.360134020541
 30
0.0
 11
20733.93757530162
 21
-1110.360134020541
 31
0.0
  0
LINE
  5
19730
330
1F
100
AcDbEntity
  8
0
  6
Continuous
 62
     2
100
AcDbLine
 10
20704.52919068442
 20
-1361.205403131639
 30
0.0
 11
20696.2836855092
 21
-1355.431838250039
 31
0.0
  0
LINE
  5
19731
330
1F
100
AcDbEntity
  8
0
  6
Continuous
 62
     2
100
AcDbLine
 10
20719.02481234081
 20
-1360.360134019539
 30
0.0
 11
20707.60957852922
 21
-1352.367101262938
 31
0.0
  0
LINE
  5
19732
330
1F
100
AcDbEntity
  8
0
  6
Continuous
 62
     2
100
AcDbLine
 10
20734.72760337611
 20
-1360.360134019539
 30
0.0
 11
20723.30241933042
 21
-1352.360134017541
 31
0.0
  0
LINE
  5
19733
330
1F
100
AcDbEntity
  8
0
  6
Continuous
 62
     2
100
AcDbLine
 10
20743.76684133012
 20
-1355.694263912641
 30
0.0
 11
20736.03354043912
 21
-1350.279348339141
 31
0.0
  0
LINE
  5
19734
330
1F
100
AcDbEntity
  8
0
  6
Continuous
 62
     2
100
AcDbLine
 10
20214.87489188982
 20
-985.3601340210396
 30
0.0
 11
20207.59759714802
 21
-980.2645173898392
 31
0.0
  0
LINE
  5
19735
330
1F
100
AcDbEntity
  8
0
  6
Continuous
 62
     7
100
AcDbLine
 10
20414.88996828761
 20
-889.034647690938
 30
0.0
 11
20414.82726066603
 21
-886.0353431104394
 31
0.0
  0
LINE
  5
19736
330
1F
100
AcDbEntity
  8
0
  6
Continuous
 62
     7
100
AcDbLine
 10
20650.2105557735
 20
-968.8721111805373
 30
0.0
 11
20712.59759715361
 21
-953.5312265461403
 31
0.0
  0
LINE
  5
19737
330
1F
100
AcDbEntity
  8
0
  6
Continuous
 62
     2
100
AcDbLine
 10
20744.59759714891
 20
-1345.28075274834
 30
0.0
 11
20736.59759714691
 21
-1339.679092437839
 31
0.0
  0
LINE
  5
19738
330
1F
100
AcDbEntity
  8
0
  6
Continuous
 62
     2
100
AcDbLine
 10
20230.57768293782
 20
-985.3601340210396
 30
0.0
 11
20218.97588509751
 21
-977.2364677182377
 31
0.0
  0
LINE
  5
19739
330
1F
100
AcDbEntity
  8
0
  6
Continuous
 62
     2
100
AcDbLine
 10
20216.14479474752
 20
-975.2541169077401
 30
0.0
 11
20207.59759714802
 21
-969.2693047219393
 31
0.0
  0
LINE
  5
1973A
330
1F
100
AcDbEntity
  8
0
  6
Continuous
 62
     2
100
AcDbLine
 10
20744.59759714891
 20
-1334.28554008044
 30
0.0
 11
20736.59759714691
 21
-1328.683879782638
 31
0.0
  0
LINE
  5
1973B
330
1F
100
AcDbEntity
  8
0
  6
Continuous
 62
     2
100
AcDbLine
 10
20246.28047398581
 20
-985.3601340210396
 30
0.0
 11
20234.85528992742
 21
-977.360134019041
 31
0.0
  0
LINE
  5
1973C
330
1F
100
AcDbEntity
  8
0
  6
Continuous
 62
     2
100
AcDbLine
 10
20216.69433873351
 20
-964.6436990887396
 30
0.0
 11
20207.59759714802
 21
-958.2740920667379
 31
0.0
  0
LINE
  5
1973D
330
1F
100
AcDbEntity
  8
0
  6
Continuous
 62
     2
100
AcDbLine
 10
20744.59759714891
 20
-1323.29032742524
 30
0.0
 11
20736.59759714691
 21
-1317.68866711474
 31
0.0
  0
LINE
  5
1973E
330
1F
100
AcDbEntity
  8
0
  6
Continuous
 62
     2
100
AcDbLine
 10
20261.98326502112
 20
-985.3601340210396
 30
0.0
 11
20250.55808097541
 21
-977.360134019041
 31
0.0
  0
LINE
  5
1973F
330
1F
100
AcDbEntity
  8
0
  6
Continuous
 62
     2
100
AcDbLine
 10
20230.56400887321
 20
-963.3601340155395
 30
0.0
 11
20219.13882482752
 21
-955.3601340262396
 31
0.0
  0
LINE
  5
19740
330
1F
100
AcDbEntity
  8
0
  6
Continuous
 62
     7
100
AcDbLine
 10
20463.10725737481
 20
-888.3742261390377
 30
0.0
 11
20463.10725737481
 21
-891.0406633766388
 31
0.0
  0
LINE
  5
19741
330
1F
100
AcDbEntity
  8
0
  6
Continuous
 62
     7
100
AcDbLine
 10
20465.09759715841
 20
-887.4353509276414
 30
0.0
 11
20465.09759715841
 21
-891.0406633766388
 31
0.0
  0
LINE
  5
19742
330
1F
100
AcDbEntity
  8
0
  6
Continuous
 62
     2
100
AcDbLine
 10
20744.59759714891
 20
-1312.295114770039
 30
0.0
 11
20736.59759714691
 21
-1306.693454459539
 31
0.0
  0
LINE
  5
19743
330
1F
100
AcDbEntity
  8
0
  6
Continuous
 62
     2
100
AcDbLine
 10
20305.5975971471
 20
-1004.904005486939
 30
0.0
 11
20297.5975971578
 21
-999.3023451891398
 31
0.0
  0
LINE
  5
19744
330
1F
100
AcDbEntity
  8
0
  6
Continuous
 62
     2
100
AcDbLine
 10
20277.68605606912
 20
-985.3601340210396
 30
0.0
 11
20266.26087201071
 21
-977.360134019041
 31
0.0
  0
LINE
  5
19745
330
1F
100
AcDbEntity
  8
0
  6
Continuous
 62
     2
100
AcDbLine
 10
20243.89573505451
 20
-961.6998965308416
 30
0.0
 11
20234.84161586281
 21
-955.3601340262396
 31
0.0
  0
LINE
  5
19746
330
1F
100
AcDbEntity
  8
0
  6
Continuous
 62
     2
100
AcDbLine
 10
20744.59759714891
 20
-1301.299902102139
 30
0.0
 11
20736.59759714691
 21
-1295.69824180434
 31
0.0
  0
LINE
  5
19747
330
1F
100
AcDbEntity
  8
0
  6
Continuous
 62
     2
100
AcDbLine
 10
20305.5975971471
 20
-993.9087928317402
 30
0.0
 11
20297.5975971578
 21
-988.3071325339383
 31
0.0
  0
LINE
  5
19748
330
1F
100
AcDbEntity
  8
0
  6
Continuous
 62
     2
100
AcDbLine
 10
20293.38884710441
 20
-985.3601340210396
 30
0.0
 11
20281.9636630587
 21
-977.360134019041
 31
0.0
  0
LINE
  5
19749
330
1F
100
AcDbEntity
  8
0
  6
Continuous
 62
     2
100
AcDbLine
 10
20744.59759714891
 20
-1290.30468944694
 30
0.0
 11
20736.59759714691
 21
-1284.70302913644
 31
0.0
  0
LINE
  5
1974A
330
1F
100
AcDbEntity
  8
0
  6
Continuous
 62
     2
100
AcDbLine
 10
20305.5975971471
 20
-982.9135801765389
 30
0.0
 11
20297.66645409402
 21
-977.360134019041
 31
0.0
  0
LINE
  5
1974B
330
1F
100
AcDbEntity
  8
0
  6
Continuous
 62
     2
100
AcDbLine
 10
20744.59759714891
 20
-1279.309476791739
 30
0.0
 11
20736.59759714691
 21
-1273.707816481238
 31
0.0
  0
LINE
  5
1974C
330
1F
100
AcDbEntity
  8
0
  6
Continuous
 62
     7
100
AcDbLine
 10
20231.36010538872
 20
-931.8606179443408
 30
0.0
 11
20241.3601053912
 21
-939.3961584358377
 31
0.0
  0
LINE
  5
1974D
330
1F
100
AcDbEntity
  8
0
  6
Continuous
 62
     7
100
AcDbLine
 10
20467.09759715891
 20
-885.4353509271405
 30
0.0
 11
20467.09762219061
 21
-891.0406633766388
 31
0.0
  0
LINE
  5
1974E
330
1F
100
AcDbEntity
  8
0
  6
Continuous
 62
     7
100
AcDbLine
 10
20473.59759715101
 20
-939.3512224322398
 30
0.0
 11
20473.59759715101
 21
-939.3961584358377
 31
0.0
  0
LINE
  5
19750
330
1F
100
AcDbEntity
  8
0
  6
Continuous
 62
     7
100
AcDbLine
 10
20481.59759715302
 20
-939.3961584358377
 30
0.0
 11
20481.59759715302
 21
-939.3512224322398
 31
0.0
  0
LINE
  5
19751
330
1F
100
AcDbEntity
  8
0
  6
Continuous
 62
     7
100
AcDbLine
 10
20490.09759715831
 20
-887.4353509276414
 30
0.0
 11
20490.09759715831
 21
-891.0406633766388
 31
0.0
  0
LINE
  5
19752
330
1F
100
AcDbEntity
  8
0
  6
Continuous
 62
     7
100
AcDbLine
 10
20492.08793692922
 20
-891.0406633766388
 30
0.0
 11
20492.08793692922
 21
-888.3742261390377
 31
0.0
  0
LINE
  5
19753
330
1F
100
AcDbEntity
  8
0
  6
Continuous
 62
     7
100
AcDbLine
 10
20492.59759714943
 20
-1369.36013401544
 30
0.0
 11
20492.59759714943
 21
-1463.360134026239
 31
0.0
  0
LINE
  5
19754
330
1F
100
AcDbEntity
  8
0
  6
Continuous
 62
     7
100
AcDbLine
 10
20500.59759715141
 20
-1369.36013401544
 30
0.0
 11
20500.59759715141
 21
-1463.360134026239
 31
0.0
  0
LINE
  5
19755
330
1F
100
AcDbEntity
  8
0
  6
Continuous
 62
     7
100
AcDbLine
 10
20488.0975971578
 20
-885.4353509271405
 30
0.0
 11
20488.09734127821
 21
-891.0406633766388
 31
0.0
  0
LINE
  5
19756
330
1F
100
AcDbEntity
  8
0
  6
Continuous
 62
     7
100
AcDbLine
 10
20511.49943911452
 20
-857.338662518139
 30
0.0
 11
20511.14680321831
 21
-860.3178650814404
 31
0.0
  0
LINE
  5
19757
330
1F
100
AcDbEntity
  8
0
  6
Continuous
 62
     7
100
AcDbLine
 10
20305.5975971471
 20
-1005.360134026041
 30
0.0
 11
20297.5975971578
 21
-1005.360134026041
 31
0.0
  0
LINE
  5
19758
330
1F
100
AcDbEntity
  8
0
  6
Continuous
 62
     7
100
AcDbLine
 10
20192.59736508352
 20
-998.3601340179401
 30
0.0
 11
20216.48434850072
 21
-998.3601340179401
 31
0.0
  0
LINE
  5
19759
330
1F
100
AcDbEntity
  8
0
  6
Continuous
 62
     7
100
AcDbLine
 10
20220.48434850172
 20
-998.3601340179401
 30
0.0
 11
20222.48434850221
 21
-998.3601340179401
 31
0.0
  0
LINE
  5
1975A
330
1F
100
AcDbEntity
  8
0
  6
Continuous
 62
     7
100
AcDbLine
 10
20226.4843485032
 20
-998.3601340179401
 30
0.0
 11
20228.48434850372
 21
-998.3601340179401
 31
0.0
  0
LINE
  5
1975B
330
1F
100
AcDbEntity
  8
0
  6
Continuous
 62
     7
100
AcDbLine
 10
20232.48434850471
 20
-998.3601340179401
 30
0.0
 11
20234.48434850521
 21
-998.3601340179401
 31
0.0
  0
LINE
  5
1975C
330
1F
100
AcDbEntity
  8
0
  6
Continuous
 62
     7
100
AcDbLine
 10
20238.48434849352
 20
-998.3601340179401
 30
0.0
 11
20240.48434849402
 21
-998.3601340179401
 31
0.0
  0
LINE
  5
1975D
330
1F
100
AcDbEntity
  8
0
  6
Continuous
 62
     7
100
AcDbLine
 10
20244.48434849501
 20
-998.3601340179401
 30
0.0
 11
20246.48434849551
 21
-998.3601340179401
 31
0.0
  0
LINE
  5
1975E
330
1F
100
AcDbEntity
  8
0
  6
Continuous
 62
     7
100
AcDbLine
 10
20250.48434849652
 20
-998.3601340179401
 30
0.0
 11
20257.59759714782
 21
-998.3601340179401
 31
0.0
  0
LINE
  5
1975F
330
1F
100
AcDbEntity
  8
0
  6
Continuous
 62
     7
100
AcDbLine
 10
20213.59759714951
 20
-993.3601340230406
 30
0.0
 11
20217.59759715052
 21
-993.3601340230406
 31
0.0
  0
LINE
  5
19760
330
1F
100
AcDbEntity
  8
0
  6
Continuous
 62
     7
100
AcDbLine
 10
20219.59759715101
 20
-993.3601340230406
 30
0.0
 11
20223.59759715201
 21
-993.3601340230406
 31
0.0
  0
LINE
  5
19761
330
1F
100
AcDbEntity
  8
0
  6
Continuous
 62
     7
100
AcDbLine
 10
20225.5975971525
 20
-993.3601340230406
 30
0.0
 11
20229.59759715352
 21
-993.3601340230406
 31
0.0
  0
LINE
  5
19762
330
1F
100
AcDbEntity
  8
0
  6
Continuous
 62
     7
100
AcDbLine
 10
20231.59759715401
 20
-993.3601340230406
 30
0.0
 11
20235.597597155
 21
-993.3601340230406
 31
0.0
  0
LINE
  5
19763
330
1F
100
AcDbEntity
  8
0
  6
Continuous
 62
     7
100
AcDbLine
 10
20237.59759715552
 20
-993.3601340230406
 30
0.0
 11
20241.59759715651
 21
-993.3601340230406
 31
0.0
  0
LINE
  5
19764
330
1F
100
AcDbEntity
  8
0
  6
Continuous
 62
     7
100
AcDbLine
 10
20243.59759715701
 20
-993.3601340230406
 30
0.0
 11
20247.597597158
 21
-993.3601340230406
 31
0.0
  0
LINE
  5
19765
330
1F
100
AcDbEntity
  8
0
  6
Continuous
 62
     7
100
AcDbLine
 10
20207.59759714802
 20
-985.3601340210396
 30
0.0
 11
20297.5975971578
 21
-985.3601340210396
 31
0.0
  0
LINE
  5
19766
330
1F
100
AcDbEntity
  8
0
  6
Continuous
 62
     7
100
AcDbLine
 10
20305.5975971471
 20
-977.360134019041
 30
0.0
 11
20219.59759715101
 21
-977.360134019041
 31
0.0
  0
LINE
  5
19767
330
1F
100
AcDbEntity
  8
0
  6
Continuous
 62
     7
100
AcDbLine
 10
20260.82419527931
 20
-973.876593640441
 30
0.0
 11
20317.93729126372
 21
-973.8782721232389
 31
0.0
  0
LINE
  5
19768
330
1F
100
AcDbEntity
  8
0
  6
Continuous
 62
     7
100
AcDbLine
 10
20574.47407096281
 20
-973.8782721232389
 30
0.0
 11
20706.22514075961
 21
-973.8782721232389
 31
0.0
  0
LINE
  5
19769
330
1F
100
AcDbEntity
  8
0
  6
Continuous
 62
     7
100
AcDbLine
 10
20581.62009482161
 20
-972.6065817786395
 30
0.0
 11
20313.18556568972
 21
-972.6065817786395
 31
0.0
  0
LWPOLYLINE
  5
1976A
330
1F
100
AcDbEntity
  8
0
  6
Continuous
 62
     2
100
AcDbPolyline
 90
        3
 70
     0
 43
0.0
 10
20337.43721318581
 20
-979.0958790743403
 10
20344.42147536662
 20
-980.8903641950417
 10
20351.4133788961
 20
-982.6332279178393
  0
LINE
  5
1976B
330
1F
100
AcDbEntity
  8
0
  6
Continuous
 62
     7
100
AcDbLine
 10
20242.59759715042
 20
-953.5312265461403
 30
0.0
 11
20300.62670178031
 21
-969.1995132308379
 31
0.0
  0
LINE
  5
1976C
330
1F
100
AcDbEntity
  8
0
  6
Continuous
 62
     2
100
AcDbLine
 10
20744.59759714891
 20
-1268.314264123839
 30
0.0
 11
20736.59759714691
 21
-1262.712603826039
 31
0.0
  0
LINE
  5
1976D
330
1F
100
AcDbEntity
  8
0
  6
Continuous
 62
     2
100
AcDbLine
 10
20744.59759714891
 20
-1257.31905146864
 30
0.0
 11
20736.59759714691
 21
-1251.717391170841
 31
0.0
  0
LINE
  5
1976E
330
1F
100
AcDbEntity
  8
0
  6
Continuous
 62
     2
100
AcDbLine
 10
20744.59759714891
 20
-1246.323838813439
 30
0.0
 11
20736.59759714691
 21
-1240.722178502938
 31
0.0
  0
LINE
  5
1976F
330
1F
100
AcDbEntity
  8
0
  6
Continuous
 62
     2
100
AcDbLine
 10
20744.59759714891
 20
-1235.328626145539
 30
0.0
 11
20736.59759714691
 21
-1229.726965847739
 31
0.0
  0
LINE
  5
19770
330
1F
100
AcDbEntity
  8
0
  6
Continuous
 62
     7
100
AcDbLine
 10
20421.53389703681
 20
-939.3512224322398
 30
0.0
 11
20419.65478902211
 21
-933.3601340207396
 31
0.0
  0
LINE
  5
19771
330
1F
100
AcDbEntity
  8
0
  6
Continuous
 62
     7
100
AcDbLine
 10
20443.69575518951
 20
-857.338662518139
 30
0.0
 11
20444.04839108572
 21
-860.3178650814404
 31
0.0
  0
LINE
  5
19772
330
1F
100
AcDbEntity
  8
0
  6
Continuous
 62
     7
100
AcDbLine
 10
20540.30522601642
 20
-889.034647690938
 30
0.0
 11
20540.36793365072
 21
-886.0353431104394
 31
0.0
  0
LINE
  5
19773
330
1F
100
AcDbEntity
  8
0
  6
Continuous
 62
     7
100
AcDbLine
 10
20197.59759715821
 20
-970.3601340236406
 30
0.0
 11
20207.59759714802
 21
-970.3601340236406
 31
0.0
  0
LINE
  5
19774
330
1F
100
AcDbEntity
  8
0
  6
Continuous
 62
     7
100
AcDbLine
 10
20219.59759715101
 20
-963.3601340155395
 30
0.0
 11
20237.59759715552
 21
-963.3601340155395
 31
0.0
  0
LINE
  5
19775
330
1F
100
AcDbEntity
  8
0
  6
Continuous
 62
     7
100
AcDbLine
 10
20209.59759714851
 20
-955.3601340262396
 30
0.0
 11
20237.59759715552
 21
-955.3601340262396
 31
0.0
  0
LINE
  5
19776
330
1F
100
AcDbEntity
  8
0
  6
Continuous
 62
     7
100
AcDbLine
 10
20712.59759715361
 20
-953.5312265461403
 30
0.0
 11
20244.4995479185
 21
-953.5312265461403
 31
0.0
  0
LINE
  5
19777
330
1F
100
AcDbEntity
  8
0
  6
Continuous
 62
     7
100
AcDbLine
 10
20241.46339593902
 20
-953.5312265461403
 30
0.0
 11
20242.59759715042
 21
-953.5312265461403
 31
0.0
  0
LINE
  5
19778
330
1F
100
AcDbEntity
  8
0
  6
Continuous
 62
     7
100
AcDbLine
 10
20241.3601053912
 20
-939.3961584358377
 30
0.0
 11
20473.59759715101
 21
-939.3961584358377
 31
0.0
  0
LINE
  5
19779
330
1F
100
AcDbEntity
  8
0
  6
Continuous
 62
     7
100
AcDbLine
 10
20481.59759715302
 20
-939.3961584358377
 30
0.0
 11
20713.83508891281
 21
-939.3961584358377
 31
0.0
  0
LINE
  5
1977A
330
1F
100
AcDbEntity
  8
0
  6
Continuous
 62
     7
100
AcDbLine
 10
20502.55203027581
 20
-939.3512224322398
 30
0.0
 11
20421.53389703681
 21
-939.3512224322398
 31
0.0
  0
LWPOLYLINE
  5
1977B
330
1F
100
AcDbEntity
  8
0
  6
Continuous
 62
     2
100
AcDbPolyline
 90
        3
 70
     0
 43
0.0
 10
20601.27934112661
 20
-971.2119217917395
 10
20608.46354251893
 20
-971.275790701339
 10
20615.67352972452
 20
-971.4311696768405
  0
LINE
  5
1977C
330
1F
100
AcDbEntity
  8
0
  6
Continuous
 62
     2
100
AcDbLine
 10
20744.59759714891
 20
-1224.333413490339
 30
0.0
 11
20736.59759714691
 21
-1218.73175319254
 31
0.0
  0
LINE
  5
1977D
330
1F
100
AcDbEntity
  8
0
  6
Continuous
 62
     2
100
AcDbLine
 10
20744.59759714891
 20
-1213.338200835138
 30
0.0
 11
20736.59759714691
 21
-1207.736540524638
 31
0.0
  0
LINE
  5
1977E
330
1F
100
AcDbEntity
  8
0
  6
Continuous
 62
     2
100
AcDbLine
 10
20744.59759714891
 20
-1202.342988167238
 30
0.0
 11
20736.59759714691
 21
-1196.741327869441
 31
0.0
  0
LINE
  5
1977F
330
1F
100
AcDbEntity
  8
0
  6
Continuous
 62
     2
100
AcDbLine
 10
20744.59759714891
 20
-1191.347775512039
 30
0.0
 11
20736.59759714691
 21
-1185.746115214242
 31
0.0
  0
LINE
  5
19780
330
1F
100
AcDbEntity
  8
0
  6
Continuous
 62
     7
100
AcDbLine
 10
20466.95433064331
 20
-885.435330149941
 30
0.0
 11
20466.31895986681
 21
-885.5389367880393
 31
0.0
  0
LINE
  5
19781
330
1F
100
AcDbEntity
  8
0
  6
Continuous
 62
     7
100
AcDbLine
 10
20723.83508891531
 20
-931.8606179443408
 30
0.0
 11
20481.59759715302
 21
-931.8606179443408
 31
0.0
  0
LINE
  5
19782
330
1F
100
AcDbEntity
  8
0
  6
Continuous
 62
     7
100
AcDbLine
 10
20419.18446501991
 20
-931.8606179443408
 30
0.0
 11
20231.36010538872
 21
-931.8606179443408
 31
0.0
  0
LINE
  5
19783
330
1F
100
AcDbEntity
  8
0
  6
Continuous
 62
     7
100
AcDbLine
 10
20230.541331169
 20
-930.2184109036383
 30
0.0
 11
20473.59759715101
 21
-930.2184109036383
 31
0.0
  0
LINE
  5
19784
330
1F
100
AcDbEntity
  8
0
  6
Continuous
 62
     7
100
AcDbLine
 10
20481.59759715302
 20
-930.2184109036383
 30
0.0
 11
20724.65386313501
 21
-930.2184109036383
 31
0.0
  0
LINE
  5
19785
330
1F
100
AcDbEntity
  8
0
  6
Continuous
 62
     2
100
AcDbLine
 10
20744.59759714891
 20
-1180.352562856838
 30
0.0
 11
20736.59759714691
 21
-1174.750902546337
 31
0.0
  0
LINE
  5
19786
330
1F
100
AcDbEntity
  8
0
  6
Continuous
 62
     2
100
AcDbLine
 10
20744.59759714891
 20
-1169.357350201641
 30
0.0
 11
20736.59759714691
 21
-1163.75568989114
 31
0.0
  0
LINE
  5
19787
330
1F
100
AcDbEntity
  8
0
  6
Continuous
 62
     2
100
AcDbLine
 10
20744.59759714891
 20
-1158.362137533739
 30
0.0
 11
20736.59759714691
 21
-1152.760477235941
 31
0.0
  0
LINE
  5
19788
330
1F
100
AcDbEntity
  8
0
  6
Continuous
 62
     2
100
AcDbLine
 10
20744.59759714891
 20
-1147.366924878542
 30
0.0
 11
20736.59759714691
 21
-1141.765264568039
 31
0.0
  0
LINE
  5
19789
330
1F
100
AcDbEntity
  8
0
  6
Continuous
 62
     7
100
AcDbLine
 10
20463.10725737481
 20
-888.3742261390377
 30
0.0
 11
20420.96567123651
 21
-888.8738077408403
 31
0.0
  0
LINE
  5
1978A
330
1F
100
AcDbEntity
  8
0
  6
Continuous
 62
     7
100
AcDbLine
 10
20466.95431186001
 20
-885.4353294133371
 30
0.0
 11
20466.92177442191
 21
-885.4355943607419
 31
0.0
  0
LINE
  5
1978B
330
1F
100
AcDbEntity
  8
0
  6
Continuous
 62
     7
100
AcDbLine
 10
20466.97598691192
 20
-885.4353318390403
 30
0.0
 11
20466.9465886471
 21
-885.4353435103403
 31
0.0
  0
LINE
  5
1978C
330
1F
100
AcDbEntity
  8
0
  6
Continuous
 62
     7
100
AcDbLine
 10
20724.65386313501
 20
-900.2184109088382
 30
0.0
 11
20481.59759715302
 21
-900.2184109088382
 31
0.0
  0
LINE
  5
1978D
330
1F
100
AcDbEntity
  8
0
  6
Continuous
 62
     7
100
AcDbLine
 10
20473.59759715101
 20
-900.2184109088382
 30
0.0
 11
20230.541331169
 21
-900.2184109088382
 31
0.0
  0
LINE
  5
1978E
330
1F
100
AcDbEntity
  8
0
  6
Continuous
 62
     7
100
AcDbLine
 10
20231.36010538872
 20
-898.5762038681405
 30
0.0
 11
20473.59759715101
 21
-898.5762038681405
 31
0.0
  0
LINE
  5
1978F
330
1F
100
AcDbEntity
  8
0
  6
Continuous
 62
     7
100
AcDbLine
 10
20481.59759715302
 20
-898.5762038681405
 30
0.0
 11
20723.83508891531
 21
-898.5762038681405
 31
0.0
  0
LINE
  5
19790
330
1F
100
AcDbEntity
  8
0
  6
Continuous
 62
     7
100
AcDbLine
 10
20241.3601053912
 20
-891.0406633766388
 30
0.0
 11
20473.59759715101
 21
-891.0406633766388
 31
0.0
  0
LINE
  5
19791
330
1F
100
AcDbEntity
  8
0
  6
Continuous
 62
     7
100
AcDbLine
 10
20481.59759715302
 20
-891.0406633766388
 30
0.0
 11
20713.83508891281
 21
-891.0406633766388
 31
0.0
  0
LINE
  5
19792
330
1F
100
AcDbEntity
  8
0
  6
Continuous
 62
     7
100
AcDbLine
 10
20490.09759715831
 20
-887.4353509276414
 30
0.0
 11
20465.09759715841
 21
-887.4353509276414
 31
0.0
  0
LINE
  5
19793
330
1F
100
AcDbEntity
  8
0
  6
Continuous
 62
     7
100
AcDbLine
 10
20467.04345234722
 20
-885.4353509144418
 30
0.0
 11
20466.99750461082
 21
-885.4353467107412
 31
0.0
  0
LINE
  5
19794
330
1F
100
AcDbEntity
  8
0
  6
Continuous
 62
     7
100
AcDbLine
 10
20466.96357596391
 20
-885.4353470536411
 30
0.0
 11
20466.95548434942
 21
-885.4353279909428
 31
0.0
  0
LINE
  5
19795
330
1F
100
AcDbEntity
  8
0
  6
Continuous
 62
     7
100
AcDbLine
 10
20492.08793692922
 20
-888.3742261390377
 30
0.0
 11
20534.2295230675
 21
-888.8738077408403
 31
0.0
  0
LINE
  5
19796
330
1F
100
AcDbEntity
  8
0
  6
Continuous
 62
     7
100
AcDbLine
 10
20488.2408731857
 20
-885.4353298451394
 30
0.0
 11
20488.30620900882
 21
-885.4363974833404
 31
0.0
  0
LWPOLYLINE
  5
19797
330
1F
100
AcDbEntity
  8
0
  6
Continuous
 62
     7
100
AcDbPolyline
 90
        4
 70
     0
 43
0.0
 10
20488.30620900882
 20
-885.4363974833404
 10
20488.26551218902
 20
-885.4354810894397
 10
20488.25141297921
 20
-885.4353565151392
 10
20467.09759715891
 20
-885.4353509271405
  0
LINE
  5
19798
330
1F
100
AcDbEntity
  8
0
  6
Continuous
 62
     2
100
AcDbLine
 10
20744.59759714891
 20
-1136.37171222334
 30
0.0
 11
20736.59759714691
 21
-1130.77005191284
 31
0.0
  0
LINE
  5
19799
330
1F
100
AcDbEntity
  8
0
  6
Continuous
 62
     2
100
AcDbLine
 10
20744.59759714891
 20
-1125.376499555438
 30
0.0
 11
20720.66158421331
 21
-1108.616322865038
 31
0.0
  0
LINE
  5
1979A
330
1F
100
AcDbEntity
  8
0
  6
Continuous
 62
     2
100
AcDbLine
 10
20741.91431046572
 20
-1112.502429329541
 30
0.0
 11
20740.33386400762
 21
-1111.395788807241
 31
0.0
  0
LINE
  5
1979B
330
1F
100
AcDbEntity
  8
0
  6
Continuous
 62
     2
100
AcDbLine
 10
20727.78798089522
 20
-1102.611066879642
 30
0.0
 11
20719.31198528691
 21
-1096.676110855239
 31
0.0
  0
LINE
  5
1979C
330
1F
100
AcDbEntity
  8
0
  6
Continuous
 62
     2
100
AcDbLine
 10
20726.89611574983
 20
-1090.99136352524
 30
0.0
 11
20718.42012014152
 21
-1085.05640750084
 31
0.0
  0
LWPOLYLINE
  5
1979D
330
1F
100
AcDbEntity
  8
0
  6
Continuous
 62
     7
100
AcDbPolyline
 90
        3
 70
     0
 43
0.0
 10
20490.16923013671
 20
-886.9048002488394
 10
20490.01216590931
 20
-886.5066045885424
 10
20489.52748615731
 20
-885.9041146835407
  0
LINE
  5
1979E
330
1F
100
AcDbEntity
  8
0
  6
Continuous
 62
     7
100
AcDbLine
 10
20534.2295230675
 20
-888.8738077408403
 30
0.0
 11
20534.23191073101
 21
-888.8888671595413
 31
0.0
  0
LINE
  5
1979F
330
1F
100
AcDbEntity
  8
0
  6
Continuous
 62
     7
100
AcDbLine
 10
20641.85662034782
 20
-891.0406633766388
 30
0.0
 11
20641.92031012392
 21
-889.8784931584406
 31
0.0
  0
LWPOLYLINE
  5
197A0
330
1F
100
AcDbEntity
  8
0
  6
Continuous
 62
     7
100
AcDbPolyline
 90
        3
 70
     0
 43
0.0
 10
20489.52748615731
 20
-885.9041146835407
 10
20488.87623443722
 20
-885.5389367880393
 10
20488.2408636607
 20
-885.435330149941
  0
LINE
  5
197A1
330
1F
100
AcDbEntity
  8
0
  6
Continuous
 62
     2
100
AcDbLine
 10
20726.00425061711
 20
-1079.371660170841
 30
0.0
 11
20717.5282549961
 21
-1073.436704146438
 31
0.0
  0
LINE
  5
197A2
330
1F
100
AcDbEntity
  8
0
  6
Continuous
 62
     2
100
AcDbLine
 10
20725.11238547173
 20
-1067.751956816439
 30
0.0
 11
20716.63638985072
 21
-1061.817000792039
 31
0.0
  0
LINE
  5
197A3
330
1F
100
AcDbEntity
  8
0
  6
Continuous
 62
     2
100
AcDbLine
 10
20724.22052032633
 20
-1056.13225346204
 30
0.0
 11
20715.74452470532
 21
-1050.197297424941
 31
0.0
  0
LINE
  5
197A4
330
1F
100
AcDbEntity
  8
0
  6
Continuous
 62
     2
100
AcDbLine
 10
20723.32865518091
 20
-1044.512550094942
 30
0.0
 11
20714.80815827733
 21
-1038.54643394744
 31
0.0
  0
LINE
  5
197A5
330
1F
100
AcDbEntity
  8
0
  6
Continuous
 62
     2
100
AcDbLine
 10
20722.09289416502
 20
-1032.652048263537
 30
0.0
 11
20713.19931257452
 21
-1026.42469538934
 31
0.0
  0
LINE
  5
197A6
330
1F
100
AcDbEntity
  8
0
  6
Continuous
 62
     2
100
AcDbLine
 10
20720.48404844951
 20
-1020.530309705442
 30
0.0
 11
20711.59046687171
 21
-1014.30295684394
 31
0.0
  0
LINE
  5
197A7
330
1F
100
AcDbEntity
  8
0
  6
Continuous
 62
     2
100
AcDbLine
 10
20718.87520274671
 20
-1008.408571160038
 30
0.0
 11
20709.98162116891
 21
-1002.181218298539
 31
0.0
  0
LINE
  5
197A8
330
1F
100
AcDbEntity
  8
0
  6
Continuous
 62
     2
100
AcDbLine
 10
20717.2663570439
 20
-996.2868326146388
 30
0.0
 11
20708.37277545343
 21
-990.0594797404414
 31
0.0
  0
LINE
  5
197A9
330
1F
100
AcDbEntity
  8
0
  6
Continuous
 62
     7
100
AcDbLine
 10
20684.59759715931
 20
-1369.183493207941
 30
0.0
 11
20684.59759715931
 21
-1463.360134026239
 31
0.0
  0
LINE
  5
197AA
330
1F
100
AcDbEntity
  8
0
  6
Continuous
 62
     7
100
AcDbLine
 10
20692.59759714861
 20
-1369.183493207941
 30
0.0
 11
20692.59759714861
 21
-1463.360134026239
 31
0.0
  0
LINE
  5
197AB
330
1F
100
AcDbEntity
  8
0
  6
Continuous
 62
     2
100
AcDbLine
 10
20715.65751134112
 20
-984.1650940565386
 30
0.0
 11
20706.76392975061
 21
-977.9377411950376
 31
0.0
  0
LINE
  5
197AC
330
1F
100
AcDbEntity
  8
0
  6
Continuous
 62
     2
100
AcDbLine
 10
20714.0479830006
 20
-972.0428775212413
 30
0.0
 11
20705.22514368672
 21
-965.8650589269395
 31
0.0
  0
LINE
  5
197AD
330
1F
100
AcDbEntity
  8
0
  6
Continuous
 62
     2
100
AcDbLine
 10
20712.787558953
 20
-960.1651064457385
 30
0.0
 11
20705.72641523942
 21
-955.2208404008403
 31
0.0
  0
LINE
  5
197AE
330
1F
100
AcDbEntity
  8
0
  6
Continuous
 62
     7
100
AcDbLine
 10
20714.12341927343
 20
-972.6065817786395
 30
0.0
 11
20712.59759715361
 21
-953.5312265461403
 31
0.0
  0
LINE
  5
197AF
330
1F
100
AcDbEntity
  8
0
  6
Continuous
 62
     7
100
AcDbLine
 10
20712.59759715361
 20
-939.3961584358377
 30
0.0
 11
20712.59759715361
 21
-953.5312265461403
 31
0.0
  0
LINE
  5
197B0
330
1F
100
AcDbEntity
  8
0
  6
Continuous
 62
     7
100
AcDbLine
 10
20724.65386313501
 20
-900.2184109088382
 30
0.0
 11
20724.65386313501
 21
-930.2184109036383
 31
0.0
  0
LINE
  5
197B1
330
1F
100
AcDbEntity
  8
0
  6
Continuous
 62
     7
100
AcDbLine
 10
20732.59759343751
 20
-1120.968389842342
 30
0.0
 11
20732.59759715861
 21
-1352.360134017541
 31
0.0
  0
LINE
  5
197B2
330
1F
100
AcDbEntity
  8
0
  6
Continuous
 62
     7
100
AcDbLine
 10
20736.59759714691
 20
-1348.360134016539
 30
0.0
 11
20736.59759714691
 21
-1122.310320546841
 31
0.0
  0
LINE
  5
197B3
330
1F
100
AcDbEntity
  8
0
  6
Continuous
 62
     7
100
AcDbLine
 10
20744.59759714891
 20
-1118.36013402254
 30
0.0
 11
20744.59759714891
 21
-1352.360134017541
 31
0.0
  0
LINE
  5
197B4
330
1F
100
AcDbEntity
  8
0
  6
Continuous
 62
     7
100
AcDbLine
 10
20713.83508891281
 20
-891.0406633766388
 30
0.0
 11
20723.83508891531
 21
-898.5762038681405
 31
0.0
  0
ARC
  5
197B5
330
1F
100
AcDbEntity
  8
0
  6
Continuous
 62
     7
100
AcDbCircle
 10
20722.59759715612
 20
-900.2184109088382
 30
0.0
 40
2.056265978899999
100
AcDbArc
 50
0.0
 51
53.00000000007952
  0
ARC
  5
197B6
330
1F
100
AcDbEntity
  8
0
  6
Continuous
 62
     7
100
AcDbCircle
 10
20232.59759714792
 20
-900.2184109088382
 30
0.0
 40
2.056265978899999
100
AcDbArc
 50
126.9999999999205
 51
180.0
  0
ARC
  5
197B7
330
1F
100
AcDbEntity
  8
0
  6
Continuous
 62
     7
100
AcDbCircle
 10
20722.59759715612
 20
-930.2184109036383
 30
0.0
 40
2.056265978899999
100
AcDbArc
 50
306.9999999999205
 51
0.0
  0
ARC
  5
197B8
330
1F
100
AcDbEntity
  8
0
  6
Continuous
 62
     7
100
AcDbCircle
 10
20232.59759714792
 20
-930.2184109036383
 30
0.0
 40
2.056265978899999
100
AcDbArc
 50
180.0
 51
233.0000000000795
  0
ARC
  5
197B9
330
1F
100
AcDbEntity
  8
0
  6
Continuous
 62
     7
100
AcDbCircle
 10
20477.59759715201
 20
-3888.33923093414
 30
0.0
 40
2999.960038028301
100
AcDbArc
 50
87.58954645552021
 51
88.80226932307607
  0
ARC
  5
197BA
330
1F
100
AcDbEntity
  8
0
  6
Continuous
 62
     7
100
AcDbCircle
 10
20477.59759715201
 20
-3888.33923093414
 30
0.0
 40
2999.960038028301
100
AcDbArc
 50
91.1977306769239
 51
92.41204636697288
  0
ARC
  5
197BB
330
1F
100
AcDbEntity
  8
0
  6
Continuous
 62
     7
100
AcDbCircle
 10
20463.09759715792
 20
-886.3742494684409
 30
0.0
 40
2.0000000005
100
AcDbArc
 50
270.276746180204
 51
344.8374887100994
  0
ARC
  5
197BC
330
1F
100
AcDbEntity
  8
0
  6
Continuous
 62
     7
100
AcDbCircle
 10
20492.09759715881
 20
-886.3742494684409
 30
0.0
 40
2.0000000005
100
AcDbArc
 50
195.162511289888
 51
269.723253819796
  0
ARC
  5
197BD
330
1F
100
AcDbEntity
  8
0
  6
Continuous
 62
     7
100
AcDbCircle
 10
20447.57475006041
 20
-890.109890739839
 30
0.0
 40
29.9999999948
100
AcDbArc
 50
96.7504558893677
 51
171.0069981298859
  0
ARC
  5
197BE
330
1F
100
AcDbEntity
  8
0
  6
Continuous
 62
     7
100
AcDbCircle
 10
20477.59759715201
 20
-1143.754354595442
 30
0.0
 40
285.4151236568
100
AcDbArc
 50
83.24954411063229
 51
96.7504558893677
  0
ARC
  5
197BF
330
1F
100
AcDbEntity
  8
0
  6
Continuous
 62
     7
100
AcDbCircle
 10
20507.62044425632
 20
-890.109890739839
 30
0.0
 40
29.9999999948
100
AcDbArc
 50
8.993002014106403
 51
83.24954411063229
  0
ARC
  5
197C0
330
1F
100
AcDbEntity
  8
0
  6
Continuous
 62
     7
100
AcDbCircle
 10
20534.28615499642
 20
-885.8743423148391
 30
0.0
 40
2.999999994399999
100
AcDbArc
 50
268.9183456167905
 51
9.019202123807351
  0
ARC
  5
197C1
330
1F
100
AcDbEntity
  8
0
  6
Continuous
 62
     7
100
AcDbCircle
 10
20420.90903930761
 20
-885.8743423148391
 30
0.0
 40
2.999999994399999
100
AcDbArc
 50
170.9808010278873
 51
271.0816543863368
  0
ARC
  5
197C2
330
1F
100
AcDbEntity
  8
0
  6
Continuous
 62
     7
100
AcDbCircle
 10
20477.59759715201
 20
-1143.754354595442
 30
0.0
 40
305.4151236618
100
AcDbArc
 50
55.82435877184561
 51
124.1764246361799
  0
ARC
  5
197C3
330
1F
100
AcDbEntity
  8
0
  6
Continuous
 62
     7
100
AcDbCircle
 10
20467.09761006211
 20
-887.4353509276414
 30
0.0
 40
2.0000064521
100
AcDbArc
 50
90.0
 51
180.0
  0
ARC
  5
197C4
330
1F
100
AcDbEntity
  8
0
  6
Continuous
 62
     7
100
AcDbCircle
 10
20488.0975971578
 20
-887.4353509276414
 30
0.0
 40
2.0000000005
100
AcDbArc
 50
0.0
 51
90.0
  0
ARC
  5
197C5
330
1F
100
AcDbEntity
  8
0
  6
Continuous
 62
     7
100
AcDbCircle
 10
20477.59759715201
 20
-3888.33923093414
 30
0.0
 40
3002.9599980685
100
AcDbArc
 50
91.19771888514257
 51
93.13680596554595
  0
ARC
  5
197C6
330
1F
100
AcDbEntity
  8
0
  6
Continuous
 62
     7
100
AcDbCircle
 10
20477.59759715201
 20
-1143.754354595442
 30
0.0
 40
302.4151236547
100
AcDbArc
 50
57.08678841292553
 51
122.9132115870744
  0
ARC
  5
197C7
330
1F
100
AcDbEntity
  8
0
  6
Continuous
 62
     7
100
AcDbCircle
 10
20477.59759715201
 20
-3888.33923093414
 30
0.0
 40
3002.9599980685
100
AcDbArc
 50
86.86319403445406
 51
88.8022798407972
  0
ARC
  5
197C8
330
1F
100
AcDbEntity
  8
0
  6
Continuous
 62
     7
100
AcDbCircle
 10
20507.62044425632
 20
-890.109890739839
 30
0.0
 40
33.0000000019
100
AcDbArc
 50
7.092613655587864
 51
83.24954411063229
  0
ARC
  5
197C9
330
1F
100
AcDbEntity
  8
0
  6
Continuous
 62
     7
100
AcDbCircle
 10
20477.59759715201
 20
-1143.754354595442
 30
0.0
 40
288.4151266103
100
AcDbArc
 50
83.24954411063229
 51
96.7504558893677
  0
ARC
  5
197CA
330
1F
100
AcDbEntity
  8
0
  6
Continuous
 62
     7
100
AcDbCircle
 10
20447.57475006041
 20
-890.109890739839
 30
0.0
 40
33.0000000019
100
AcDbArc
 50
96.7504558893677
 51
172.9073696100052
  0
ARC
  5
197CB
330
1F
100
AcDbEntity
  8
0
  6
Continuous
 62
     7
100
AcDbCircle
 10
20209.59759714851
 20
-1213.360134027239
 30
0.0
 40
2.0000000005
100
AcDbArc
 50
90.0
 51
179.9999999816963
  0
ARC
  5
197CC
330
1F
100
AcDbEntity
  8
0
  6
Continuous
 62
     7
100
AcDbCircle
 10
20209.59759714851
 20
-983.3601340205412
 30
0.0
 40
2.0000000005
100
AcDbArc
 50
180.0000000186033
 51
270.0
  0
ARC
  5
197CD
330
1F
100
AcDbEntity
  8
0
  6
Continuous
 62
     7
100
AcDbCircle
 10
20219.59759715101
 20
-1223.36013401704
 30
0.0
 40
4.000000001
100
AcDbArc
 50
90.0
 51
179.9999999918968
  0
ARC
  5
197CE
330
1F
100
AcDbEntity
  8
0
  6
Continuous
 62
     7
100
AcDbCircle
 10
20219.59759715101
 20
-973.3601340180392
 30
0.0
 40
4.000000001
100
AcDbArc
 50
180.0000000079989
 51
270.0
  0
ARC
  5
197CF
330
1F
100
AcDbEntity
  8
0
  6
Continuous
 62
     7
100
AcDbCircle
 10
20219.59759715101
 20
-967.3601340165388
 30
0.0
 40
4.000000001
100
AcDbArc
 50
90.0
 51
179.9999999893955
  0
ARC
  5
197D0
330
1F
100
AcDbEntity
  8
0
  6
Continuous
 62
     7
100
AcDbCircle
 10
20219.59759715101
 20
-1229.36013401854
 30
0.0
 40
4.000000001
100
AcDbArc
 50
180.0000000105914
 51
270.0
  0
ARC
  5
197D1
330
1F
100
AcDbEntity
  8
0
  6
Continuous
 62
     7
100
AcDbCircle
 10
19529.38164052702
 20
-1163.360134027437
 30
0.0
 40
1199.9999999952
100
AcDbArc
 50
2.804146675095509
 51
9.146611136582661
  0
ARC
  5
197D2
330
1F
100
AcDbEntity
  8
0
  6
Continuous
 62
     7
100
AcDbCircle
 10
20732.59759715861
 20
-1348.360134016539
 30
0.0
 40
4.000000001
100
AcDbArc
 50
270.0
 51
0.0
  0
ARC
  5
197D3
330
1F
100
AcDbEntity
  8
0
  6
Continuous
 62
     7
100
AcDbCircle
 10
21425.81355377701
 20
-1163.360134027437
 30
0.0
 40
1199.9999999952
100
AcDbArc
 50
183.9496416010924
 51
188.774289647806
  0
ARC
  5
197D4
330
1F
100
AcDbEntity
  8
0
  6
Continuous
 62
     7
100
AcDbCircle
 10
20698.59756202192
 20
-1369.183546217741
 30
0.0
 40
5.9999980076
100
AcDbArc
 50
96.68216095568821
 51
179.9994385473064
  0
ARC
  5
197D5
330
1F
100
AcDbEntity
  8
0
  6
Continuous
 62
     7
100
AcDbCircle
 10
20707.69666802991
 20
-1366.36011733324
 30
0.0
 40
5.999999239500001
100
AcDbArc
 50
90.00279605929211
 51
117.7983191232248
  0
ARC
  5
197D6
330
1F
100
AcDbEntity
  8
0
  6
Continuous
 62
     7
100
AcDbCircle
 10
20733.93752121231
 20
-1104.360220569539
 30
0.0
 40
5.9999960391
100
AcDbArc
 50
182.8033464201972
 51
270.000516559528
  0
ARC
  5
197D7
330
1F
100
AcDbEntity
  8
0
  6
Continuous
 62
     7
100
AcDbCircle
 10
20832.59759715822
 20
-953.5312265461403
 30
0.0
 40
120.0000000046
100
AcDbArc
 50
180.0
 51
189.1466111365826
  0
ARC
  5
197D8
330
1F
100
AcDbEntity
  8
0
  6
Continuous
 62
     7
100
AcDbCircle
 10
20223.67551219812
 20
-1246.360054577938
 30
0.0
 40
4.999997315199999
100
AcDbArc
 50
3.948781649702891
 51
90.00060453302316
  0
ARC
  5
197D9
330
1F
100
AcDbEntity
  8
0
  6
Continuous
 62
     7
100
AcDbCircle
 10
20736.59759714691
 20
-1352.360134017541
 30
0.0
 40
8.000000002
100
AcDbArc
 50
270.0
 51
359.9999999994007
  0
ARC
  5
197DA
330
1F
100
AcDbEntity
  8
0
  6
Continuous
 62
     7
100
AcDbCircle
 10
19529.38164052702
 20
-1163.360134027437
 30
0.0
 40
1192.0000000059
100
AcDbArc
 50
2.804146675095509
 51
9.146611136582661
  0
ARC
  5
197DB
330
1F
100
AcDbEntity
  8
0
  6
Continuous
 62
     7
100
AcDbCircle
 10
20736.59759714691
 20
-1118.36013402254
 30
0.0
 40
8.000000002
100
AcDbArc
 50
0.0000000005992674
 51
90.0
  0
ARC
  5
197DC
330
1F
100
AcDbEntity
  8
0
  6
Continuous
 62
     7
100
AcDbCircle
 10
21425.81355377701
 20
-1163.360134027437
 30
0.0
 40
1192.0000000059
100
AcDbArc
 50
183.9496416010924
 51
188.774289647806
  0
ARC
  5
197DD
330
1F
100
AcDbEntity
  8
0
  6
Continuous
 62
     7
100
AcDbCircle
 10
20209.59759714851
 20
-957.3601340267405
 30
0.0
 40
2.0000000005
100
AcDbArc
 50
90.0
 51
179.9999999787911
  0
ARC
  5
197DE
330
1F
100
AcDbEntity
  8
0
  6
Continuous
 62
     7
100
AcDbCircle
 10
20209.59759714851
 20
-1239.360134021039
 30
0.0
 40
2.0000000005
100
AcDbArc
 50
180.0000000211958
 51
270.0
  0
ARC
  5
197DF
330
1F
100
AcDbEntity
  8
0
  6
Continuous
 62
     7
100
AcDbCircle
 10
20259.62317480861
 20
-1343.360134021639
 30
0.0
 40
12.000000003
100
AcDbArc
 50
188.7742894940894
 51
270.0
  0
ARC
  5
197E0
330
1F
100
AcDbEntity
  8
0
  6
Continuous
 62
     7
100
AcDbCircle
 10
20237.5976133734
 20
-950.3601526368388
 30
0.0
 40
4.9999993726
100
AcDbArc
 50
269.9998113001827
 51
0.0002007961989682
  0
ARC
  5
197E1
330
1F
100
AcDbEntity
  8
0
  6
Continuous
 62
     7
100
AcDbCircle
 10
20695.57201950812
 20
-1343.360134021639
 30
0.0
 40
12.000000003
100
AcDbArc
 50
276.6825671561849
 51
297.7957810664364
  0
ARC
  5
197E2
330
1F
100
AcDbEntity
  8
0
  6
Continuous
 62
     7
100
AcDbCircle
 10
20698.59756202192
 20
-1369.183546217741
 30
0.0
 40
13.9999958887
100
AcDbArc
 50
96.68216422414747
 51
179.9994913706034
  0
ARC
  5
197E3
330
1F
100
AcDbEntity
  8
0
  6
Continuous
 62
     7
100
AcDbCircle
 10
20486.59759714792
 20
-1369.36013401544
 30
0.0
 40
14.0000000035
100
AcDbArc
 50
0.0
 51
90.0
  0
ARC
  5
197E4
330
1F
100
AcDbEntity
  8
0
  6
Continuous
 62
     7
100
AcDbCircle
 10
20707.69666804262
 20
-1366.36011733324
 30
0.0
 40
13.9999982001
100
AcDbArc
 50
90.00364501337079
 51
117.7990933714451
  0
ARC
  5
197E5
330
1F
100
AcDbEntity
  8
0
  6
Continuous
 62
     7
100
AcDbCircle
 10
20733.93752121231
 20
-1104.360220569539
 30
0.0
 40
13.999993209
100
AcDbArc
 50
182.8033482881026
 51
265.7309259665225
  0
ARC
  5
197E6
330
1F
100
AcDbEntity
  8
0
  6
Continuous
 62
     7
100
AcDbCircle
 10
20832.59759715822
 20
-953.5312265461403
 30
0.0
 40
127.9999999939
100
AcDbArc
 50
180.8789361702916
 51
189.1466111365826
  0
ARC
  5
197E7
330
1F
100
AcDbEntity
  8
0
  6
Continuous
 62
     7
100
AcDbCircle
 10
20486.59759714792
 20
-1369.36013401544
 30
0.0
 40
6.000000001499999
100
AcDbArc
 50
0.0
 51
90.0
  0
ARC
  5
197E8
330
1F
100
AcDbEntity
  8
0
  6
Continuous
 62
     7
100
AcDbCircle
 10
20237.59761597691
 20
-950.3601555451391
 30
0.0
 40
12.999998257
100
AcDbArc
 50
270.0000183640542
 51
337.11770124309
  0
ARC
  5
197E9
330
1F
100
AcDbEntity
  8
0
  6
Continuous
 62
     7
100
AcDbCircle
 10
20695.57201950812
 20
-1343.360134021639
 30
0.0
 40
20.000000005
100
AcDbArc
 50
276.6825568934968
 51
297.7957724987013
  0
ARC
  5
197EA
330
1F
100
AcDbEntity
  8
0
  6
Continuous
 62
     7
100
AcDbCircle
 10
20223.67551219812
 20
-1246.360054577938
 30
0.0
 40
12.9999949804
100
AcDbArc
 50
3.948777413787869
 51
90.00060611488063
  0
ARC
  5
197EB
330
1F
100
AcDbEntity
  8
0
  6
Continuous
 62
     7
100
AcDbCircle
 10
20259.62317480861
 20
-1343.360134021639
 30
0.0
 40
20.000000005
100
AcDbArc
 50
188.7742896479089
 51
270.0
  0
ARC
  5
197EC
330
1F
100
AcDbEntity
  8
0
  6
Continuous
 62
     7
100
AcDbCircle
 10
20732.59759715861
 20
-1122.310320521439
 30
0.0
 40
4.000000001
100
AcDbArc
 50
0.0006183506961652
 51
85.73101390970634
  0
SPLINE
  5
197ED
330
1F
100
AcDbEntity
  8
0
  6
Continuous
 62
     7
100
AcDbSpline
210
0.0
220
0.0
230
1.0
 70
     8
 71
     3
 72
    10
 73
     6
 74
     4
 42
0.0000000001
 43
0.0000000001
 44
0.0000000001
 12
-0.9842170747931916
 22
-0.1769653912083745
 32
0.0
 13
-0.9831596071253454
 23
-0.1827489724106166
 33
0.0
 40
0.0
 40
0.0
 40
0.0
 40
0.0
 40
10.58448604913535
 40
21.96930026052568
 40
33.31626940146411
 40
33.31626940146411
 40
33.31626940146411
 40
33.31626940146411
 10
20535.32502167661
 20
-933.3593940679381
 30
0.0
 10
20531.85254437745
 20
-933.9837566394132
 30
0.0
 10
20524.64622486289
 20
-935.2863796275828
 30
0.0
 10
20513.72172510528
 20
-937.2828462958212
 30
0.0
 10
20506.2706575167
 20
-938.6600067820793
 30
0.0
 10
20502.55203027581
 20
-939.3512224322398
 30
0.0
 11
20535.32502167661
 21
-933.3593940679381
 31
0.0
 11
20524.90933237342
 21
-935.2421477065401
 31
0.0
 11
20513.71000514041
 21
-937.2888680479389
 31
0.0
 11
20502.55203027581
 21
-939.3512224322398
 31
0.0
  0
SPLINE
  5
197EE
330
1F
100
AcDbEntity
  8
0
  6
Continuous
 62
     7
100
AcDbSpline
210
0.0
220
0.0
230
1.0
 70
     8
 71
     3
 72
    11
 73
     7
 74
     5
 42
0.0000000001
 43
0.0000000001
 44
0.0000000001
 12
-0.9998218244600815
 22
-0.0188764226831788
 32
0.0
 13
0.1563138508922483
 23
0.9877074364503064
 33
0.0
 40
0.0
 40
0.0
 40
0.0
 40
0.0
 40
1.29959175899537
 40
2.599182106924286
 40
3.898769655755237
 40
5.19835502481202
 40
5.19835502481202
 40
5.19835502481202
 40
5.19835502481202
 10
20420.96328358571
 20
-888.8888671595413
 30
0.0
 10
20420.53016351787
 20
-888.8970443739941
 30
0.0
 10
20419.64857385106
 20
-888.7200550831851
 30
0.0
 10
20418.57148236624
 20
-887.9225118122315
 30
0.0
 10
20417.92977590244
 20
-886.74590255447
 30
0.0
 10
20417.87581255276
 20
-885.8483452964811
 30
0.0
 10
20417.94352695063
 20
-885.4204752520413
 30
0.0
 11
20420.96328358571
 21
-888.8888671595413
 31
0.0
 11
20419.68945542471
 21
-888.6313782155403
 31
0.0
 11
20418.64404569181
 21
-887.8593331632385
 31
0.0
 11
20418.02323583362
 21
-886.7176138820413
 31
0.0
 11
20417.94352695063
 21
-885.4204752520413
 31
0.0
  0
SPLINE
  5
197EF
330
1F
100
AcDbEntity
  8
0
  6
Continuous
 62
     7
100
AcDbSpline
210
0.0
220
0.0
230
1.0
 70
     8
 71
     3
 72
    11
 73
     7
 74
     5
 42
0.0000000001
 43
0.0000000001
 44
0.0000000001
 12
0.9998217855983806
 22
-0.018878480946982
 32
0.0
 13
-0.1563145714312391
 23
0.9877073224180673
 33
0.0
 40
0.0
 40
0.0
 40
0.0
 40
0.0
 40
1.29959216975052
 40
2.599181274752923
 40
3.898764291799915
 40
5.198342592203998
 40
5.198342592203998
 40
5.198342592203998
 40
5.198342592203998
 10
20534.23191116282
 20
-888.8888440836371
 30
0.0
 10
20534.66503135072
 20
-888.897022192309
 30
0.0
 10
20535.54662098165
 20
-888.7200355952304
 30
0.0
 10
20536.62371457527
 20
-887.9224985201494
 30
0.0
 10
20537.26542408148
 20
-886.7458955800369
 30
0.0
 10
20537.31938836261
 20
-885.8483418657257
 30
0.0
 10
20537.25167402092
 20
-885.4204741979375
 30
0.0
 11
20534.23191116282
 21
-888.8888440836371
 31
0.0
 11
20535.50574046682
 21
-888.6313587210397
 31
0.0
 11
20536.55115239683
 21
-887.8593187360408
 31
0.0
 11
20537.17196423622
 21
-886.7176056905414
 31
0.0
 11
20537.25167402092
 21
-885.4204741979375
 31
0.0
  0
SPLINE
  5
197F0
330
1F
100
AcDbEntity
  8
0
  6
Continuous
 62
     7
100
AcDbSpline
210
0.0
220
0.0
230
1.0
 70
     8
 71
     3
 72
    10
 73
     6
 74
     4
 42
0.0000000001
 43
0.0000000001
 44
0.0000000001
 12
0.9553424400131989
 22
0.2955009683734177
 32
0.0
 13
0.9565757903385859
 23
0.2914837171063071
 33
0.0
 40
0.0
 40
0.0
 40
0.0
 40
0.0
 40
0.4639487010638459
 40
2.123560235040735
 40
3.958897336464588
 40
3.958897336464588
 40
3.958897336464588
 40
3.958897336464588
 10
20309.4903532935
 20
-891.0404636310397
 30
0.0
 10
20309.63809658821
 20
-890.9947645342263
 30
0.0
 10
20310.3143848617
 20
-890.7857414251227
 30
0.0
 10
20311.5756330507
 20
-890.3975602971435
 30
0.0
 10
20312.68967118003
 20
-890.0568167852627
 30
0.0
 10
20313.27488419281
 20
-889.8784931584406
 30
0.0
 11
20309.4903532935
 21
-891.0404636310397
 31
0.0
 11
20309.9336150435
 21
-890.9034694041409
 31
0.0
 11
20311.51978409621
 21
-890.4152295246376
 31
0.0
 11
20313.27488419281
 21
-889.8784931584406
 31
0.0
  0
SPLINE
  5
197F1
330
1F
100
AcDbEntity
  8
0
  6
Continuous
 62
     7
100
AcDbSpline
210
0.0
220
0.0
230
1.0
 70
     8
 71
     3
 72
    13
 73
     9
 74
     7
 42
0.0000000001
 43
0.0000000001
 44
0.0000000001
 12
0.9997854440821051
 22
0.0207139035806408
 32
0.0
 13
0.1369721440932055
 23
0.9905748996125989
 33
0.0
 40
0.0
 40
0.0
 40
0.0
 40
0.0
 40
1.668083506814174
 40
3.166439763107679
 40
4.398723864562368
 40
5.314184307846086
 40
5.880880071878091
 40
6.075123624163597
 40
6.075123624163597
 40
6.075123624163597
 40
6.075123624163597
 10
20414.88996828761
 20
-889.034647690938
 30
0.0
 10
20415.44587682415
 20
-889.0231301839632
 30
0.0
 10
20416.49839110641
 20
-888.9975669938181
 30
0.0
 10
20417.97484984688
 20
-888.9763786281859
 30
0.0
 10
20419.16098487341
 20
-888.9171848532676
 30
0.0
 10
20420.13445433083
 20
-888.9684863286746
 30
0.0
 10
20420.56739027843
 20
-888.8187775837399
 30
0.0
 10
20420.95441493377
 20
-888.9530047553099
 30
0.0
 10
20420.96328358571
 20
-888.8888671595413
 30
0.0
 11
20414.88996828761
 21
-889.034647690938
 31
0.0
 11
20416.55767208962
 21
-888.9990581634393
 31
0.0
 11
20418.05565718102
 21
-888.9657094493422
 31
0.0
 11
20419.28760405672
 21
-888.9368823416379
 31
0.0
 11
20420.20277586111
 21
-888.9138955702387
 31
0.0
 11
20420.76923876173
 21
-888.8976514574396
 31
0.0
 11
20420.96328358571
 21
-888.8888671595413
 31
0.0
  0
SPLINE
  5
197F2
330
1F
100
AcDbEntity
  8
0
  6
Continuous
 62
     7
100
AcDbSpline
210
0.0
220
0.0
230
1.0
 70
     8
 71
     3
 72
    10
 73
     6
 74
     4
 42
0.0000000001
 43
0.0000000001
 44
0.0000000001
 12
-0.0000450168462047
 22
0.9999999989867419
 32
0.0
 13
-0.966554700648623
 23
0.2564605440492766
 33
0.0
 40
0.0
 40
0.0
 40
0.0
 40
0.0
 40
0.1835655705313229
 40
0.3401877161326123
 40
0.5253967461541503
 40
0.5253967461541503
 40
0.5253967461541503
 40
0.5253967461541503
 10
20490.09759715831
 20
-887.4353509276414
 30
0.0
 10
20490.0975944038
 20
-887.374162404193
 30
0.0
 10
20490.11208772945
 20
-887.2553244544496
 30
0.0
 10
20490.096224929
 20
-887.1039662590288
 30
0.0
 10
20490.22592957205
 20
-886.9316438564393
 30
0.0
 10
20490.1662580192
 20
-886.9158109202386
 30
0.0
 11
20490.09759715831
 21
-887.4353509276414
 31
0.0
 11
20490.10602503072
 21
-887.2519789296394
 31
0.0
 11
20490.12648409572
 21
-887.0966987855394
 31
0.0
 11
20490.1662580192
 21
-886.9158109202386
 31
0.0
  0
SPLINE
  5
197F3
330
1F
100
AcDbEntity
  8
0
  6
Continuous
 62
     7
100
AcDbSpline
210
0.0
220
0.0
230
1.0
 70
     8
 71
     3
 72
    10
 73
     6
 74
     4
 42
0.0000000001
 43
0.0000000001
 44
0.0000000001
 12
0.0000450168462047
 22
0.9999999989867419
 32
0.0
 13
0.9665739471554372
 23
0.2563879963655833
 33
0.0
 40
0.0
 40
0.0
 40
0.0
 40
0.0
 40
0.1835655711140809
 40
0.3401877167153703
 40
0.5253967467415959
 40
0.5253967467415959
 40
0.5253967467415959
 40
0.5253967467415959
 10
20465.09759715841
 20
-887.4353509276414
 30
0.0
 10
20465.09759991292
 20
-887.3741624039986
 30
0.0
 10
20465.08310642405
 20
-887.2553239062769
 30
0.0
 10
20465.09896983942
 20
-887.1039680033813
 30
0.0
 10
20464.96926354375
 20
-886.9316393776109
 30
0.0
 10
20465.02893628481
 20
-886.9158109202386
 30
0.0
 11
20465.09759715841
 21
-887.4353509276414
 31
0.0
 11
20465.08916927332
 21
-887.2519789296394
 31
0.0
 11
20465.06871020831
 21
-887.0966987855394
 31
0.0
 11
20465.02893628481
 21
-886.9158109202386
 31
0.0
  0
SPLINE
  5
197F4
330
1F
100
AcDbEntity
  8
0
  6
Continuous
 62
     7
100
AcDbSpline
210
0.0
220
0.0
230
1.0
 70
     8
 71
     3
 72
    10
 73
     6
 74
     4
 42
0.0000000001
 43
0.0000000001
 44
0.0000000001
 12
0.95657575817198
 22
-0.2914838226689459
 32
0.0
 13
0.9553426758945608
 23
-0.2955002057776279
 33
0.0
 40
0.0
 40
0.0
 40
0.0
 40
0.0
 40
1.832861080077995
 40
3.48839169466605
 40
3.958895762281149
 40
3.958895762281149
 40
3.958895762281149
 40
3.958895762281149
 10
20641.92031012392
 20
-889.8784931584406
 30
0.0
 10
20642.50473361635
 20
-890.0565762764548
 30
0.0
 10
20643.61668224386
 20
-890.396678653628
 30
0.0
 10
20644.87793169572
 20
-890.7848538812508
 30
0.0
 10
20645.55500871645
 20
-890.994118249608
 30
0.0
 10
20645.70483958811
 20
-891.0404629325412
 30
0.0
 11
20641.92031012392
 21
-889.8784931584406
 31
0.0
 11
20643.67304320721
 21
-890.4145029322403
 31
0.0
 11
20645.25531424891
 21
-890.9015347242414
 31
0.0
 11
20645.70483958811
 21
-891.0404629325412
 31
0.0
  0
SPLINE
  5
197F5
330
1F
100
AcDbEntity
  8
0
  6
Continuous
 62
     7
100
AcDbSpline
210
0.0
220
0.0
230
1.0
 70
     8
 71
     3
 72
    12
 73
     8
 74
     6
 42
0.0000000001
 43
0.0000000001
 44
0.0000000001
 12
0.1515538527406607
 22
-0.9884490020832952
 32
0.0
 13
0.9874235141912757
 23
-0.1580974497648572
 33
0.0
 40
0.0
 40
0.0
 40
0.0
 40
0.0
 40
0.4059671493095229
 40
0.8895532667900837
 40
1.536305508069785
 40
2.316416524075679
 40
3.176695817831032
 40
3.176695817831032
 40
3.176695817831032
 40
3.176695817831032
 10
20537.2516691695
 20
-885.4204866947416
 30
0.0
 10
20537.27217779802
 20
-885.5542459692795
 30
0.0
 10
20537.73142602856
 20
-885.4706766938395
 30
0.0
 10
20538.1472747849
 20
-885.6548570193538
 30
0.0
 10
20538.80424584687
 20
-885.7518374540621
 30
0.0
 10
20539.54206304656
 20
-885.9012038222648
 30
0.0
 10
20540.08421867143
 20
-885.9899099806661
 30
0.0
 10
20540.36737200591
 20
-886.035245968142
 30
0.0
 11
20537.2516691695
 21
-885.4204866947416
 31
0.0
 11
20537.64585334432
 21
-885.5175854210385
 31
0.0
 11
20538.11825355521
 21
-885.62099515834
 31
0.0
 11
20538.75214494682
 21
-885.7493312999412
 31
0.0
 11
20539.51913605953
 21
-885.8918017541405
 31
0.0
 11
20540.36737200591
 21
-886.035245968142
 31
0.0
  0
SPLINE
  5
197F6
330
1F
100
AcDbEntity
  8
0
  6
Continuous
 62
     7
100
AcDbSpline
210
0.0
220
0.0
230
1.0
 70
     8
 71
     3
 72
    12
 73
     8
 74
     6
 42
0.0000000001
 43
0.0000000001
 44
0.0000000001
 12
0.9874125322324005
 22
0.1581660241341317
 32
0.0
 13
0.1509502849636399
 23
0.9885413554674361
 33
0.0
 40
0.0
 40
0.0
 40
0.0
 40
0.0
 40
0.8609715858123177
 40
1.641462490020863
 40
2.287893431446596
 40
2.77133097951204
 40
3.176626547210102
 40
3.176626547210102
 40
3.176626547210102
 40
3.176626547210102
 10
20414.82789035741
 20
-886.0352341952385
 30
0.0
 10
20415.11126840199
 20
-885.989842044365
 30
0.0
 10
20415.65378864732
 20
-885.9011103886619
 30
0.0
 10
20416.39182383979
 20
-885.7516552061722
 30
0.0
 10
20417.04879668863
 20
-885.6546812881774
 30
0.0
 10
20417.46422493203
 20
-885.4705831067425
 30
0.0
 10
20417.92313175813
 20
-885.5540385810583
 30
0.0
 10
20417.94352491861
 20
-885.4204881044394
 30
0.0
 11
20414.82789035741
 21
-886.0352341952385
 31
0.0
 11
20415.67680837002
 21
-885.891671388641
 31
0.0
 11
20416.44416982741
 21
-885.7491145744406
 31
0.0
 11
20417.07774375711
 21
-885.6208295884389
 31
0.0
 11
20417.54999676232
 21
-885.5174421523393
 31
0.0
 11
20417.94352491861
 21
-885.4204881044394
 31
0.0
  0
SPLINE
  5
197F7
330
1F
100
AcDbEntity
  8
0
  6
Continuous
 62
     7
100
AcDbSpline
210
0.0
220
0.0
230
1.0
 70
     8
 71
     3
 72
    13
 73
     9
 74
     7
 42
0.0000000001
 43
0.0000000001
 44
0.0000000001
 12
0.1404515231033551
 22
-0.9900875565615134
 32
0.0
 13
0.9997850242717149
 23
-0.0207341564093302
 33
0.0
 40
0.0
 40
0.0
 40
0.0
 40
0.0
 40
0.1948391980467331
 40
0.7621266939630999
 40
1.677860792905629
 40
2.910788436361283
 40
4.408543143885545
 40
6.075123566992065
 40
6.075123566992065
 40
6.075123566992065
 40
6.075123566992065
 10
20534.23191073101
 20
-888.8888671595413
 30
0.0
 10
20534.24103255172
 20
-888.9531697813803
 30
0.0
 10
20534.62816053535
 20
-888.8187498895186
 30
0.0
 10
20535.06202375653
 20
-888.9684817635401
 30
0.0
 10
20536.03570523661
 20
-888.9172361788583
 30
0.0
 10
20537.22207374633
 20
-888.9764032845548
 30
0.0
 10
20538.69798911179
 20
-888.9976044300079
 30
0.0
 10
20539.74981863349
 20
-889.0231293112176
 30
0.0
 10
20540.30522601642
 20
-889.034647690938
 30
0.0
 11
20534.23191073101
 21
-888.8888671595413
 31
0.0
 11
20534.42655093101
 21
-888.8976708884397
 31
0.0
 11
20534.99360546112
 21
-888.9139270535396
 31
0.0
 11
20535.90905091242
 21
-888.9369176095403
 31
0.0
 11
20537.14164120821
 21
-888.9657574553384
 31
0.0
 11
20538.63902494192
 21
-888.9990908913407
 31
0.0
 11
20540.30522601642
 21
-889.034647690938
 31
0.0
  0
SPLINE
  5
197F8
330
1F
100
AcDbEntity
  8
0
  6
Continuous
 62
     7
100
AcDbSpline
210
0.0
220
0.0
230
1.0
 70
     8
 71
     3
 72
    10
 73
     6
 74
     4
 42
0.0000000001
 43
0.0000000001
 44
0.0000000001
 12
0.9650149735476942
 22
-0.2621947765092647
 32
0.0
 13
0.9897972991829991
 23
0.1424826534355687
 33
0.0
 40
0.0
 40
0.0
 40
0.0
 40
0.0
 40
100.6604738993033
 40
211.0817352716428
 40
272.6677323627492
 40
272.6677323627492
 40
272.6677323627492
 40
272.6677323627492
 10
20313.18556568972
 20
-972.6065817786395
 30
0.0
 10
20345.5651872088
 20
-981.4041319310877
 30
0.0
 10
20413.90606453444
 20
-999.7822819510773
 30
0.0
 10
20506.89703049273
 20
-994.7509247162798
 30
0.0
 10
20561.30087695885
 20
-975.5315605386449
 30
0.0
 10
20581.62009482161
 20
-972.6065817786395
 30
0.0
 11
20313.18556568972
 21
-972.6065817786395
 31
0.0
 11
20411.57517692381
 21
-993.8672357393395
 31
0.0
 11
20521.79722291312
 21
-987.2373382295416
 31
0.0
 11
20581.62009482161
 21
-972.6065817786395
 31
0.0
  0
SPLINE
  5
197F9
330
1F
100
AcDbEntity
  8
0
  6
Continuous
 62
     7
100
AcDbSpline
210
0.0
220
0.0
230
1.0
 70
     8
 71
     3
 72
     9
 73
     5
 74
     3
 42
0.0000000001
 43
0.0000000001
 44
0.0000000001
 12
0.9897972991855615
 22
0.1424826534177682
 32
0.0
 13
0.9710723828912197
 23
0.2387853161020759
 33
0.0
 40
0.0
 40
0.0
 40
0.0
 40
0.0
 40
10.67818816602427
 40
68.70800046542676
 40
68.70800046542676
 40
68.70800046542676
 40
68.70800046542676
 10
20581.62009482161
 20
-972.6065817786395
 30
0.0
 10
20585.14317542392
 20
-972.0994295841098
 30
0.0
 10
20607.91771146808
 20
-969.655018776633
 30
0.0
 10
20631.4268397374
 20
-973.4910002049563
 30
0.0
 10
20650.2105557735
 20
-968.8721111805373
 30
0.0
 11
20581.62009482161
 21
-972.6065817786395
 31
0.0
 11
20592.23988388171
 21
-971.4913316596394
 31
0.0
 11
20650.2105557735
 21
-968.8721111805373
 31
0.0
  0
SPLINE
  5
197FA
330
1F
100
AcDbEntity
  8
0
  6
Continuous
 62
     7
100
AcDbSpline
210
0.0
220
0.0
230
1.0
 70
     8
 71
     3
 72
     9
 73
     5
 74
     3
 42
0.0000000001
 43
0.0000000001
 44
0.0000000001
 12
0.9654272887300592
 22
-0.2606724960085492
 32
0.0
 13
0.9650149735979384
 23
-0.2621947763243387
 33
0.0
 40
0.0
 40
0.0
 40
0.0
 40
0.0
 40
6.348674794430079
 40
13.01280929511928
 40
13.01280929511928
 40
13.01280929511928
 40
13.01280929511928
 10
20300.62670178031
 20
-969.1995132308379
 30
0.0
 10
20302.66976307825
 20
-969.7511548658415
 30
0.0
 10
20306.85629854497
 20
-970.8859397021281
 30
0.0
 10
20311.04190249664
 20
-972.0241480270384
 30
0.0
 10
20313.18556568972
 20
-972.6065817786395
 30
0.0
 11
20300.62670178031
 21
-969.1995132308379
 31
0.0
 11
20306.75458580341
 21
-970.8592448491401
 31
0.0
 11
20313.18556568972
 21
-972.6065817786395
 31
0.0
  0
SPLINE
  5
197FB
330
1F
100
AcDbEntity
  8
0
  6
Continuous
 62
     7
100
AcDbSpline
210
0.0
220
0.0
230
1.0
 70
     8
 71
     3
 72
    10
 73
     6
 74
     4
 42
0.0000000001
 43
0.0000000001
 44
0.0000000001
 12
0.9999999903846337
 22
0.0001386749165174
 32
0.0
 13
0.9992287085421567
 23
0.0392681553574131
 33
0.0
 40
0.0
 40
0.0
 40
0.0
 40
0.0
 40
2.291474151834159
 40
3.682205755038052
 40
4.146425435758954
 40
4.146425435758954
 40
4.146425435758954
 40
4.146425435758954
 10
20692.82302670792
 20
-1355.36013402464
 30
0.0
 10
20693.58685141786
 20
-1355.360028101311
 30
0.0
 10
20694.81430332819
 20
-1355.346744330961
 30
0.0
 10
20696.19592545787
 20
-1355.307610257105
 30
0.0
 10
20696.81381941229
 20
-1355.284683842422
 30
0.0
 10
20696.96843995631
 20
-1355.278607492241
 30
0.0
 11
20692.82302670792
 21
-1355.36013402464
 31
0.0
 11
20695.11436498783
 21
-1355.335180556639
 31
0.0
 11
20696.50453947442
 21
-1355.295819548238
 31
0.0
 11
20696.96843995631
 21
-1355.278607492241
 31
0.0
  0
SPLINE
  5
197FC
330
1F
100
AcDbEntity
  8
0
  6
Continuous
 62
     7
100
AcDbSpline
210
0.0
220
0.0
230
1.0
 70
     8
 71
     3
 72
    12
 73
     8
 74
     6
 42
0.0000000001
 43
0.0000000001
 44
0.0000000001
 12
-1.0
 22
0.0
 32
0.0
 13
0.0000012116829755
 23
-0.999999999999266
 33
0.0
 40
0.0
 40
0.0
 40
0.0
 40
0.0
 40
4.147496374592771
 40
8.339386439324151
 40
12.60190473802859
 40
16.93389424711562
 40
21.30846145631311
 40
21.30846145631311
 40
21.30846145631311
 40
21.30846145631311
 10
20692.82302670792
 20
-1355.36013402464
 30
0.0
 10
20691.44052791639
 20
-1355.36013402464
 30
0.0
 10
20688.63934405987
 20
-1355.830763506069
 30
0.0
 10
20684.88453627328
 20
-1357.868073647811
 30
0.0
 10
20681.91599779055
 20
-1361.02553593454
 30
0.0
 10
20680.01964186949
 20
-1364.981114664874
 30
0.0
 10
20679.58570405735
 20
-1367.901944945709
 30
0.0
 10
20679.58570582422
 20
-1369.36013401544
 30
0.0
 11
20692.82302670792
 21
-1355.36013402464
 31
0.0
 11
20688.73252014421
 21
-1356.045321757641
 31
0.0
 11
20685.04232434961
 21
-1358.03388840534
 31
0.0
 11
20682.11381147412
 21
-1361.131125009938
 31
0.0
 11
20680.23360752561
 21
-1365.03381206104
 31
0.0
 11
20679.58570582422
 21
-1369.36013401544
 31
0.0
  0
SPLINE
  5
197FD
330
1F
100
AcDbEntity
  8
0
  6
Continuous
 62
     7
100
AcDbSpline
210
0.0
220
0.0
230
1.0
 70
     8
 71
     3
 72
    12
 73
     8
 74
     6
 42
0.0000000001
 43
0.0000000001
 44
0.0000000001
 12
0.5751437919108462
 22
0.8180523324497116
 32
0.0
 13
-0.6267554532247313
 23
0.779216017451555
 33
0.0
 40
0.0
 40
0.0
 40
0.0
 40
0.0
 40
0.2608728299308923
 40
1.083935467213291
 40
2.625487591318657
 40
5.448616580798498
 40
9.737665470826964
 40
9.737665470826964
 40
9.737665470826964
 40
9.737665470826964
 10
20701.16787595672
 20
-1353.975518632839
 30
0.0
 10
20701.21788908626
 20
-1353.904382757173
 30
0.0
 10
20701.40859354552
 20
-1353.596694971312
 30
0.0
 10
20701.7014102999
 20
-1352.755612003393
 30
0.0
 10
20701.62690418294
 20
-1350.986495093007
 30
0.0
 10
20700.54700903207
 20
-1348.270220880507
 30
0.0
 10
20699.19468320507
 20
-1346.303612075255
 30
0.0
 10
20698.29862161141
 20
-1345.189580210341
 30
0.0
 11
20701.16787595672
 21
-1353.975518632839
 31
0.0
 11
20701.30563962581
 21
-1353.753988037042
 31
0.0
 11
20701.58521220612
 21
-1352.979861899239
 31
0.0
 11
20701.58518699661
 21
-1351.438309775339
 31
0.0
 11
20700.65670486832
 21
-1348.772230588839
 31
0.0
 11
20698.29862161141
 21
-1345.189580210341
 31
0.0
  0
SPLINE
  5
197FE
330
1F
100
AcDbEntity
  8
0
  6
Continuous
 62
     7
100
AcDbSpline
210
0.0
220
0.0
230
1.0
 70
     8
 71
     3
 72
     9
 73
     5
 74
     3
 42
0.0000000001
 43
0.0000000001
 44
0.0000000001
 12
0.1117630568556463
 22
0.9937348837201406
 32
0.0
 13
0.1118011208633559
 23
0.9937306020112782
 33
0.0
 40
0.0
 40
0.0
 40
0.0
 40
0.0
 40
2.050302214266923
 40
2.663846237974127
 40
2.663846237974127
 40
2.663846237974127
 40
2.663846237974127
 10
20732.59759004661
 20
-1120.968521985841
 30
0.0
 10
20732.67397272759
 20
-1120.289369708346
 30
0.0
 10
20732.77322156225
 20
-1119.406985073046
 30
0.0
 10
20732.87249014037
 20
-1118.524602658821
 30
0.0
 10
20732.89535511022
 20
-1118.321370168141
 30
0.0
 11
20732.59759004661
 21
-1120.968521985841
 31
0.0
 11
20732.82676359131
 21
-1118.93106802164
 31
0.0
 11
20732.89535511022
 21
-1118.321370168141
 31
0.0
  0
SPLINE
  5
197FF
330
1F
100
AcDbEntity
  8
0
  6
Continuous
 62
     7
100
AcDbSpline
210
0.0
220
0.0
230
1.0
 70
     8
 71
     3
 72
    11
 73
     7
 74
     5
 42
0.0000000001
 43
0.0000000001
 44
0.0000000001
 12
0.3041867857389355
 22
0.9526124077408477
 32
0.0
 13
0.9963541062981878
 23
0.0853140953344736
 33
0.0
 40
0.0
 40
0.0
 40
0.0
 40
0.0
 40
4.110238249654623
 40
8.439073996345623
 40
12.91543979969177
 40
17.41728414065265
 40
17.41728414065265
 40
17.41728414065265
 40
17.41728414065265
 10
20698.29939431751
 20
-1345.190773896039
 30
0.0
 10
20698.71615437144
 20
-1343.885619244241
 30
0.0
 10
20700.05894088673
 20
-1341.34536312385
 30
0.0
 10
20703.17851242771
 20
-1338.293564958674
 30
0.0
 10
20707.13017132657
 20
-1336.162858041883
 30
0.0
 10
20710.09088485358
 20
-1335.48828409137
 30
0.0
 10
20711.58602855193
 20
-1335.360260498942
 30
0.0
 11
20698.29939431751
 21
-1345.190773896039
 31
0.0
 11
20700.18915960071
 21
-1341.540726547941
 31
0.0
 11
20703.26082423461
 21
-1338.490530603642
 31
0.0
 11
20707.19582418782
 21
-1336.356607883939
 31
0.0
 11
20711.58602855193
 21
-1335.360260498942
 31
0.0
  0
SPLINE
  5
19800
330
1F
100
AcDbEntity
  8
0
  6
Continuous
 62
     7
100
AcDbSpline
210
0.0
220
0.0
230
1.0
 70
     8
 71
     3
 72
     8
 73
     4
 74
     2
 42
0.0000000001
 43
0.0000000001
 44
0.0000000001
 12
0.4374369824208952
 22
-0.8992490680620701
 32
0.0
 13
0.4253559459950137
 23
-0.9050261428305189
 33
0.0
 40
0.0
 40
0.0
 40
0.0
 40
0.0
 40
1.807314568527596
 40
1.807314568527596
 40
1.807314568527596
 40
1.807314568527596
 10
20253.97314477011
 20
-956.597135501938
 30
0.0
 10
20254.23667351383
 20
-957.1388774824191
 30
0.0
 10
20254.4966319274
 20
-957.6823716775946
 30
0.0
 10
20254.7528825934
 20
-958.2275939885398
 30
0.0
 11
20253.97314477011
 21
-956.597135501938
 31
0.0
 11
20254.7528825934
 21
-958.2275939885398
 31
0.0
  0
SPLINE
  5
19801
330
1F
100
AcDbEntity
  8
0
  6
Continuous
 62
     7
100
AcDbSpline
210
0.0
220
0.0
230
1.0
 70
     8
 71
     3
 72
    10
 73
     6
 74
     4
 42
0.0000000001
 43
0.0000000001
 44
0.0000000001
 12
0.4253559474620479
 22
-0.9050261421410233
 32
0.0
 13
0.2899231709856398
 23
-0.9570499229014291
 33
0.0
 40
0.0
 40
0.0
 40
0.0
 40
0.0
 40
4.135744245073669
 40
9.632202408072505
 40
16.79803241538767
 40
16.79803241538767
 40
16.79803241538767
 40
16.79803241538767
 10
20254.7528825934
 20
-958.2275939885398
 30
0.0
 10
20255.33927039735
 20
-959.4752462082068
 30
0.0
 10
20256.65993392132
 20
-962.4025017602759
 30
0.0
 10
20258.76426197068
 20
-967.5931284301334
 30
0.0
 10
20260.13153932296
 20
-971.5904506824657
 30
0.0
 10
20260.82405270912
 20
-973.8764697011408
 30
0.0
 11
20254.7528825934
 21
-958.2275939885398
 31
0.0
 11
20256.4523481556
 21
-961.9980312660407
 31
0.0
 11
20258.51387876711
 21
-967.0932391985397
 31
0.0
 11
20260.82405270912
 21
-973.8764697011408
 31
0.0
  0
SPLINE
  5
19802
330
1F
100
AcDbEntity
  8
0
  6
Continuous
 62
     7
100
AcDbSpline
210
0.0
220
0.0
230
1.0
 70
     8
 71
     3
 72
     8
 73
     4
 74
     2
 42
0.0000000001
 43
0.0000000001
 44
0.0000000001
 12
-0.4914740262835855
 22
0.8708922329936131
 32
0.0
 13
-0.4936834336429114
 23
0.869641689057364
 33
0.0
 40
0.0
 40
0.0
 40
0.0
 40
0.0
 40
0.3605275343053098
 40
0.3605275343053098
 40
0.3605275343053098
 40
0.3605275343053098
 10
20244.84377890392
 20
-954.1377123918389
 30
0.0
 10
20244.78471559763
 20
-954.0330521820365
 30
0.0
 10
20244.7255267518
 20
-953.9284626950674
 30
0.0
 10
20244.66619792811
 20
-953.8239527704391
 30
0.0
 11
20244.84377890392
 21
-954.1377123918389
 31
0.0
 11
20244.66619792811
 21
-953.8239527704391
 31
0.0
  0
SPLINE
  5
19803
330
1F
100
AcDbEntity
  8
0
  6
Continuous
 62
     7
100
AcDbSpline
210
0.0
220
0.0
230
1.0
 70
     8
 71
     3
 72
     8
 73
     4
 74
     2
 42
0.0000000001
 43
0.0000000001
 44
0.0000000001
 12
-0.4936834323682022
 22
0.8696416897809987
 32
0.0
 13
-0.4957822500452531
 23
0.8684468668491277
 33
0.0
 40
0.0
 40
0.0
 40
0.0
 40
0.0
 40
0.3368395286991767
 40
0.3368395286991767
 40
0.3368395286991767
 40
0.3368395286991767
 10
20244.66619792811
 20
-953.8239527704391
 30
0.0
 10
20244.61076722988
 20
-953.7263095381314
 30
0.0
 10
20244.55521427165
 20
-953.6287356239169
 30
0.0
 10
20244.4995479185
 20
-953.5312265461403
 30
0.0
 11
20244.66619792811
 21
-953.8239527704391
 31
0.0
 11
20244.4995479185
 21
-953.5312265461403
 31
0.0
  0
SPLINE
  5
19804
330
1F
100
AcDbEntity
  8
0
  6
Continuous
 62
     7
100
AcDbSpline
210
0.0
220
0.0
230
1.0
 70
     8
 71
     3
 72
     8
 73
     4
 74
     2
 42
0.0000000001
 43
0.0000000001
 44
0.0000000001
 12
-0.0000004740163805
 22
0.9999999999998877
 32
0.0
 13
-0.3894598762350966
 23
0.9210434326365632
 33
0.0
 40
0.0
 40
0.0
 40
0.0
 40
0.0
 40
1.52716225769936
 40
1.52716225769936
 40
1.52716225769936
 40
1.52716225769936
 10
20736.59759714691
 20
-1124.879212361039
 30
0.0
 10
20736.59759690561
 20
-1124.370158275139
 30
0.0
 10
20736.491415035
 20
-1123.851563373513
 30
0.0
 10
20736.29315889371
 20
-1123.382702450838
 30
0.0
 11
20736.59759714691
 21
-1124.879212361039
 31
0.0
 11
20736.29315889371
 21
-1123.382702450838
 31
0.0
  0
SPLINE
  5
19805
330
1F
100
AcDbEntity
  8
0
  6
Continuous
 62
     7
100
AcDbSpline
210
0.0
220
0.0
230
1.0
 70
     8
 71
     3
 72
     8
 73
     4
 74
     2
 42
0.0000000001
 43
0.0000000001
 44
0.0000000001
 12
-0.3894598755092859
 22
0.9210434329434695
 32
0.0
 13
-0.7149669371784019
 23
0.6991582644449935
 33
0.0
 40
0.0
 40
0.0
 40
0.0
 40
0.0
 40
1.536754364007422
 40
1.536754364007422
 40
1.536754364007422
 40
1.536754364007422
 10
20736.29315889371
 20
-1123.382702450838
 30
0.0
 10
20736.09365750594
 20
-1122.9108966125
 30
0.0
 10
20735.79234499782
 20
-1122.472057878245
 30
0.0
 10
20735.42610214421
 20
-1122.113913040239
 30
0.0
 11
20736.29315889371
 21
-1123.382702450838
 31
0.0
 11
20735.42610214421
 21
-1122.113913040239
 31
0.0
  0
SPLINE
  5
19806
330
1F
100
AcDbEntity
  8
0
  6
Continuous
 62
     7
100
AcDbSpline
210
0.0
220
0.0
230
1.0
 70
     8
 71
     3
 72
     9
 73
     5
 74
     3
 42
0.0000000001
 43
0.0000000001
 44
0.0000000001
 12
-0.714966937720917
 22
0.6991582638902113
 32
0.0
 13
-0.9999999999996894
 23
-0.0000007882409545
 33
0.0
 40
0.0
 40
0.0
 40
0.0
 40
0.0
 40
1.550107773275316
 40
3.10958214448166
 40
3.10958214448166
 40
3.10958214448166
 40
3.10958214448166
 10
20735.42610214421
 20
-1122.113913040239
 30
0.0
 10
20735.05667687495
 20
-1121.752656153703
 30
0.0
 10
20734.1638894982
 20
-1121.169324572899
 30
0.0
 10
20733.11742194901
 20
-1120.968390588291
 30
0.0
 10
20732.59759715861
 20
-1120.968390998038
 30
0.0
 11
20735.42610214421
 21
-1122.113913040239
 31
0.0
 11
20734.12838979171
 21
-1121.266106010937
 31
0.0
 11
20732.59759715861
 21
-1120.968390998038
 31
0.0
  0
SPLINE
  5
19807
330
1F
100
AcDbEntity
  8
0
  6
Continuous
 62
     7
100
AcDbSpline
210
0.0
220
0.0
230
1.0
 70
     8
 71
     3
 72
    10
 73
     6
 74
     4
 42
0.0000000001
 43
0.0000000001
 44
0.0000000001
 12
0.5601076913968881
 22
-0.8284198054356551
 32
0.0
 13
0.5548784884329329
 23
-0.8319314052699199
 33
0.0
 40
0.0
 40
0.0
 40
0.0
 40
0.0
 40
0.382604698200876
 40
1.543559698088602
 40
3.48423130173943
 40
3.48423130173943
 40
3.48423130173943
 40
3.48423130173943
 10
20237.59759715552
 20
-963.3601340155395
 30
0.0
 10
20237.66903043359
 20
-963.4657864520871
 30
0.0
 10
20237.95706893449
 20
-963.8921250421773
 30
0.0
 10
20238.60590098739
 20
-964.8553969989864
 30
0.0
 10
20239.18106932032
 20
-965.7145160797767
 30
0.0
 10
20239.54001496232
 20
-966.252684631241
 30
0.0
 11
20237.59759715552
 21
-963.3601340155395
 31
0.0
 11
20237.81178688461
 21
-963.6771657411388
 31
0.0
 11
20238.46036411172
 21
-964.6400593449399
 31
0.0
 11
20239.54001496232
 21
-966.252684631241
 31
0.0
  0
SPLINE
  5
19808
330
1F
100
AcDbEntity
  8
0
  6
Continuous
 62
     7
100
AcDbSpline
210
0.0
220
0.0
230
1.0
 70
     8
 71
     3
 72
    11
 73
     7
 74
     5
 42
0.0000000001
 43
0.0000000001
 44
0.0000000001
 12
0.5548662343790108
 22
-0.8319395783024489
 32
0.0
 13
0.4522774399824737
 23
-0.8918772994548634
 33
0.0
 40
0.0
 40
0.0
 40
0.0
 40
0.0
 40
2.535145062578845
 40
6.287718488866754
 40
11.64310220009084
 40
12.87185779487763
 40
12.87185779487763
 40
12.87185779487763
 40
12.87185779487763
 10
20239.54001496232
 20
-966.252684631241
 30
0.0
 10
20240.00890376048
 20
-966.9557138026734
 30
0.0
 10
20241.15445600723
 20
-968.7110649962376
 30
0.0
 10
20243.18956478698
 20
-972.0163745910831
 30
0.0
 10
20244.87327956098
 20
-975.0247440195028
 30
0.0
 10
20245.87883880199
 20
-976.9755808245173
 30
0.0
 10
20246.06408494691
 20
-977.3408805650401
 30
0.0
 11
20239.54001496232
 21
-966.252684631241
 31
0.0
 11
20240.92509238012
 21
-968.3760124521393
 31
0.0
 11
20242.89100319301
 21
-971.5724169940379
 31
0.0
 11
20245.5011863013
 21
-976.2486418427391
 31
0.0
 11
20246.06408494691
 21
-977.3408805650401
 31
0.0
  0
SPLINE
  5
19809
330
1F
100
AcDbEntity
  8
0
  6
Continuous
 62
     7
100
AcDbSpline
210
0.0
220
0.0
230
1.0
 70
     8
 71
     3
 72
    11
 73
     7
 74
     5
 42
0.0000000001
 43
0.0000000001
 44
0.0000000001
 12
-0.4660130548531517
 22
-0.8847778437022672
 32
0.0
 13
-0.4907839959412747
 23
-0.8712812802579399
 33
0.0
 40
0.0
 40
0.0
 40
0.0
 40
0.0
 40
2.72277797527367
 40
10.11470225595785
 40
14.49733688203175
 40
15.9357090854317
 40
15.9357090854317
 40
15.9357090854317
 40
15.9357090854317
 10
20231.30409704252
 20
-1219.36956503604
 30
0.0
 10
20230.8811470152
 20
-1220.172582911321
 30
0.0
 10
20229.30226138579
 20
-1223.151619965713
 30
0.0
 10
20226.99932898104
 20
-1227.400227625101
 30
0.0
 10
20224.86104390807
 20
-1231.250680670653
 30
0.0
 10
20223.91076855983
 20
-1232.94239176125
 30
0.0
 10
20223.67545854062
 20
-1233.360134019539
 30
0.0
 11
20231.30409704252
 21
-1219.36956503604
 31
0.0
 11
20230.02908762911
 21
-1221.775364466241
 31
0.0
 11
20226.50746508132
 21
-1228.274496654641
 31
0.0
 11
20224.37989162503
 21
-1232.106065191641
 31
0.0
 11
20223.67545854062
 21
-1233.360134019539
 31
0.0
  0
SPLINE
  5
1980A
330
1F
100
AcDbEntity
  8
0
  6
Continuous
 62
     7
100
AcDbSpline
210
0.0
220
0.0
230
1.0
 70
     8
 71
     3
 72
     8
 73
     4
 74
     2
 42
0.0000000001
 43
0.0000000001
 44
0.0000000001
 12
-0.2282316873698079
 22
-0.9736068492365543
 32
0.0
 13
-0.3298717405797907
 23
-0.9440257595886139
 33
0.0
 40
0.0
 40
0.0
 40
0.0
 40
0.0
 40
1.361750931462575
 40
1.361750931462575
 40
1.361750931462575
 40
1.361750931462575
 10
20252.10229012981
 20
-956.0928044303386
 30
0.0
 10
20251.99869189219
 20
-956.5347411082807
 30
0.0
 10
20251.87157692505
 20
-956.9718214902925
 30
0.0
 10
20251.72184254171
 20
-957.4003308094406
 30
0.0
 11
20252.10229012981
 21
-956.0928044303386
 31
0.0
 11
20251.72184254171
 21
-957.4003308094406
 31
0.0
  0
SPLINE
  5
1980B
330
1F
100
AcDbEntity
  8
0
  6
Continuous
 62
     7
100
AcDbSpline
210
0.0
220
0.0
230
1.0
 70
     8
 71
     3
 72
    11
 73
     7
 74
     5
 42
0.0000000001
 43
0.0000000001
 44
0.0000000001
 12
-0.3298717372035234
 22
-0.9440257607683859
 32
0.0
 13
-0.9996675757383707
 23
-0.0257825137907232
 33
0.0
 40
0.0
 40
0.0
 40
0.0
 40
0.0
 40
3.969033963638441
 40
7.96280183993959
 40
11.96240861334954
 40
15.94681634239483
 40
15.94681634239483
 40
15.94681634239483
 40
15.94681634239483
 10
20251.72184254171
 20
-957.4003308094406
 30
0.0
 10
20251.28541849884
 20
-958.6492875784538
 30
0.0
 10
20250.01189629091
 20
-961.0335611737243
 30
0.0
 10
20247.1289606003
 20
-963.8717939154281
 30
0.0
 10
20243.53428404498
 20
-965.7389316142632
 30
0.0
 10
20240.8677085927
 20
-966.2184420377338
 30
0.0
 10
20239.54001418762
 20
-966.252684720141
 30
0.0
 11
20251.72184254171
 21
-957.4003308094406
 31
0.0
 11
20249.85547559881
 21
-960.9031732322401
 31
0.0
 11
20247.01241333981
 21
-963.7080223977376
 31
0.0
 11
20243.46184576481
 21
-965.5493057103408
 31
0.0
 11
20239.54001418762
 21
-966.252684720141
 31
0.0
  0
SPLINE
  5
1980C
330
1F
100
AcDbEntity
  8
0
  6
Continuous
 62
     7
100
AcDbSpline
210
0.0
220
0.0
230
1.0
 70
     8
 71
     3
 72
     9
 73
     5
 74
     3
 42
0.0000000001
 43
0.0000000001
 44
0.0000000001
 12
-0.3270894176307738
 22
-0.9449933930319097
 32
0.0
 13
-0.6157214158397452
 23
-0.7879639192731478
 33
0.0
 40
0.0
 40
0.0
 40
0.0
 40
0.0
 40
3.77748639138028
 40
3.998963449021822
 40
3.998963449021822
 40
3.998963449021822
 40
3.998963449021822
 10
20260.82479797051
 20
-973.8781653035402
 30
0.0
 10
20260.41293936255
 20
-975.0680651975811
 30
0.0
 10
20259.75454001938
 20
-976.2639461629399
 30
0.0
 10
20258.94288532586
 20
-977.3207742093491
 30
0.0
 10
20258.89742927002
 20
-977.3789461861385
 30
0.0
 11
20260.82479797051
 21
-973.8781653035402
 31
0.0
 11
20259.03231998321
 21
-977.2032857678409
 31
0.0
 11
20258.89742927002
 21
-977.3789461861385
 31
0.0
  0
SPLINE
  5
1980D
330
1F
100
AcDbEntity
  8
0
  6
Continuous
 62
     7
100
AcDbSpline
210
0.0
220
0.0
230
1.0
 70
     8
 71
     3
 72
     9
 73
     5
 74
     3
 42
0.0000000001
 43
0.0000000001
 44
0.0000000001
 12
-0.0264713213011518
 22
-0.9996495731748057
 32
0.0
 13
-0.1300262135092438
 23
-0.9915105565753945
 33
0.0
 40
0.0
 40
0.0
 40
0.0
 40
0.0
 40
0.252116254331757
 40
0.5045951835554174
 40
0.5045951835554174
 40
0.5045951835554174
 40
0.5045951835554174
 10
20244.49961734942
 20
-953.5312265461403
 30
0.0
 10
20244.49739273263
 20
-953.6152358481514
 30
0.0
 10
20244.48855471713
 20
-953.7832875019214
 30
0.0
 10
20244.47099879312
 20
-953.9506524892956
 30
0.0
 10
20244.4600558334
 20
-954.0340976638416
 30
0.0
 11
20244.49961734942
 21
-953.5312265461403
 31
0.0
 11
20244.48638472412
 21
-953.7829952958409
 31
0.0
 11
20244.4600558334
 21
-954.0340976638416
 31
0.0
  0
SPLINE
  5
1980E
330
1F
100
AcDbEntity
  8
0
  6
Continuous
 62
     7
100
AcDbSpline
210
0.0
220
0.0
230
1.0
 70
     8
 71
     3
 72
     8
 73
     4
 74
     2
 42
0.0000000001
 43
0.0000000001
 44
0.0000000001
 12
-0.5117782407402568
 22
0.8591175893350154
 32
0.0
 13
-0.5131488317911903
 23
0.858299642567406
 33
0.0
 40
0.0
 40
0.0
 40
0.0
 40
0.0
 40
0.9761278690679048
 40
0.9761278690679048
 40
0.9761278690679048
 40
0.9761278690679048
 10
20244.4995479185
 20
-953.5312265461403
 30
0.0
 10
20244.33302758398
 20
-953.2516903388881
 30
0.0
 10
20244.1662838545
 20
-952.9722870881775
 30
0.0
 10
20243.9993175626
 20
-952.6930170211372
 30
0.0
 11
20244.4995479185
 21
-953.5312265461403
 31
0.0
 11
20243.9993175626
 21
-952.6930170211372
 31
0.0
  0
SPLINE
  5
1980F
330
1F
100
AcDbEntity
  8
0
  6
Continuous
 62
     7
100
AcDbSpline
210
0.0
220
0.0
230
1.0
 70
     8
 71
     3
 72
    10
 73
     6
 74
     4
 42
0.0000000001
 43
0.0000000001
 44
0.0000000001
 12
-0.5131488313506657
 22
0.858299642830781
 32
0.0
 13
-0.5168588665513483
 23
0.8560706232941623
 33
0.0
 40
0.0
 40
0.0
 40
0.0
 40
0.0
 40
1.084802172327449
 40
2.316245132509034
 40
2.72161220748974
 40
2.72161220748974
 40
2.72161220748974
 40
2.72161220748974
 10
20243.9993175626
 20
-952.6930170211372
 30
0.0
 10
20243.81376257361
 20
-952.382655248787
 30
0.0
 10
20243.41698260927
 20
-951.720328646023
 30
0.0
 10
20242.94929452593
 20
-950.9429688677126
 30
0.0
 10
20242.66743633939
 20
-950.4758083001531
 30
0.0
 10
20242.59759715042
 20
-950.3601340186392
 30
0.0
 11
20243.9993175626
 21
-952.6930170211372
 31
0.0
 11
20243.44182868521
 21
-951.7624247878412
 31
0.0
 11
20242.80700863152
 21
-950.7072208911411
 31
0.0
 11
20242.59759715042
 21
-950.3601340186392
 31
0.0
  0
SPLINE
  5
19810
330
1F
100
AcDbEntity
  8
0
  6
Continuous
 62
     7
100
AcDbSpline
210
0.0
220
0.0
230
1.0
 70
     8
 71
     3
 72
     8
 73
     4
 74
     2
 42
0.0000000001
 43
0.0000000001
 44
0.0000000001
 12
0.3387127903745025
 22
-0.9408898158853238
 32
0.0
 13
0.3306005321375933
 23
-0.9437707815726973
 33
0.0
 40
0.0
 40
0.0
 40
0.0
 40
0.0
 40
3.682897921043077
 40
3.682897921043077
 40
3.682897921043077
 40
3.682897921043077
 10
20260.82419527931
 20
-973.876593640441
 30
0.0
 10
20261.24001015648
 20
-975.0316606893926
 30
0.0
 10
20261.65092177315
 20
-976.1885052730756
 30
0.0
 10
20262.05677777731
 20
-977.3471090895407
 30
0.0
 11
20260.82419527931
 21
-973.876593640441
 31
0.0
 11
20262.05677777731
 21
-977.3471090895407
 31
0.0
  0
SPLINE
  5
19811
330
1F
100
AcDbEntity
  8
0
  6
Continuous
 62
     7
100
AcDbSpline
210
0.0
220
0.0
230
1.0
 70
     8
 71
     3
 72
    12
 73
     8
 74
     6
 42
0.0000000001
 43
0.0000000001
 44
0.0000000001
 12
-0.3984007134499652
 22
-0.9172114649973355
 32
0.0
 13
-0.4400429733171966
 23
-0.8979767155300638
 33
0.0
 40
0.0
 40
0.0
 40
0.0
 40
0.0
 40
6.367882181449781
 40
16.27016551895362
 40
23.25413235466453
 40
27.39389024825261
 40
28.75253357038047
 40
28.75253357038047
 40
28.75253357038047
 40
28.75253357038047
 10
20248.72276648502
 20
-1219.374640629141
 30
0.0
 10
20247.87711021693
 20
-1221.321538810667
 30
0.0
 10
20245.68822675069
 20
-1226.283715864372
 30
0.0
 10
20242.46218803548
 20
-1233.332277619066
 30
0.0
 10
20239.46143633079
 20
-1239.666206185559
 30
0.0
 10
20237.64880437425
 20
-1243.411436797877
 30
0.0
 10
20236.84387037366
 20
-1245.058021652915
 30
0.0
 10
20236.64458322461
 20
-1245.464698342243
 30
0.0
 11
20248.72276648502
 21
-1219.374640629141
 31
0.0
 11
20246.15326441042
 21
-1225.201096032339
 31
0.0
 11
20242.03418208471
 21
-1234.20600447664
 31
0.0
 11
20239.04456305761
 21
-1240.517737268442
 31
0.0
 11
20237.24126961061
 21
-1244.24409315074
 31
0.0
 11
20236.64458322461
 21
-1245.464698342243
 31
0.0
  0
SPLINE
  5
19812
330
1F
100
AcDbEntity
  8
0
  6
Continuous
 62
     7
100
AcDbSpline
210
0.0
220
0.0
230
1.0
 70
     8
 71
     3
 72
    26
 73
    22
 74
    20
 42
0.0000000001
 43
0.0000000001
 44
0.0000000001
 12
-0.2842460305490388
 22
0.9587513724199382
 32
0.0
 13
0.4025497883878117
 23
0.9153980925635185
 33
0.0
 40
0.0
 40
0.0
 40
0.0
 40
0.0
 40
10.88249545644921
 40
23.60560334396314
 40
37.78120484742795
 40
53.02869017937535
 40
69.04144939839172
 40
85.59981701901078
 40
102.5366582542201
 40
119.7176133658184
 40
137.0514965035746
 40
154.4447168382058
 40
171.5869516266502
 40
187.9624634996698
 40
203.0479455405074
 40
216.3301515810752
 40
227.3549185033569
 40
235.9220685790446
 40
242.000286954382
 40
245.6140194217701
 40
246.8023356698361
 40
246.8023356698361
 40
246.8023356698361
 40
246.8023356698361
 10
20698.29914922021
 20
-1345.18888374234
 30
0.0
 10
20697.26804717488
 20
-1341.711014590931
 30
0.0
 10
20695.13538488735
 20
-1334.135758142958
 30
0.0
 10
20692.11059954648
 20
-1321.908001320813
 30
0.0
 10
20689.27003234801
 20
-1308.145113376084
 30
0.0
 10
20686.88521487217
 20
-1293.182741346171
 30
0.0
 10
20685.1836249041
 20
-1277.326602549045
 30
0.0
 10
20684.33462272996
 20
-1260.836789664484
 30
0.0
 10
20684.44916274897
 20
-1243.935307279668
 30
0.0
 10
20685.57822304979
 20
-1226.812028809348
 30
0.0
 10
20687.71610298907
 20
-1209.632521645833
 30
0.0
 10
20690.79737063146
 20
-1192.611128363706
 30
0.0
 10
20694.66968957335
 20
-1176.081667389094
 30
0.0
 10
20699.07627746946
 20
-1160.486421269886
 30
0.0
 10
20703.68196992191
 20
-1146.297763193591
 30
0.0
 10
20708.1276267025
 20
-1133.940592886681
 30
0.0
 10
20712.09024305794
 20
-1123.723223234462
 30
0.0
 10
20715.33080540556
 20
-1115.803508539075
 30
0.0
 10
20717.70790120808
 20
-1110.200418447126
 30
0.0
 10
20719.15190534302
 20
-1106.873502903231
 30
0.0
 10
20719.79488676573
 20
-1105.407636951522
 30
0.0
 10
20719.95433891713
 20
-1105.045042809241
 30
0.0
 11
20698.29914922021
 21
-1345.18888374234
 31
0.0
 11
20695.3532757495
 21
-1334.712694699837
 31
0.0
 11
20692.30309124792
 21
-1322.360615975039
 31
0.0
 11
20689.44410689732
 21
-1308.47631237464
 31
0.0
 11
20687.05109403033
 21
-1293.417783284241
 31
0.0
 11
20685.34816877221
 21
-1277.495832920939
 31
0.0
 11
20684.49998835021
 21
-1260.959203027539
 31
0.0
 11
20684.61410948342
 21
-1244.02274627314
 31
0.0
 11
20685.73943109611
 21
-1226.878684041137
 31
0.0
 11
20687.87128816082
 21
-1209.67639669064
 31
0.0
 11
20690.95818539062
 21
-1192.55929474254
 31
0.0
 11
20694.85604208561
 21
-1175.86609472794
 31
0.0
 11
20699.29783451012
 21
-1160.104499974839
 31
0.0
 11
20703.94716775652
 21
-1145.753351283239
 31
0.0
 11
20708.43815735212
 21
-1133.253430893241
 31
0.0
 11
20712.42184106623
 21
-1122.973559796939
 31
0.0
 11
20715.66479175581
 21
-1115.043910924241
 31
0.0
 11
20718.03839217751
 21
-1109.44830911064
 31
0.0
 11
20719.47700893452
 21
-1106.133276053139
 31
0.0
 11
20719.95433891713
 21
-1105.045042809241
 31
0.0
  0
SPLINE
  5
19813
330
1F
100
AcDbEntity
  8
0
  6
Continuous
 62
     7
100
AcDbSpline
210
0.0
220
0.0
230
1.0
 70
     8
 71
     3
 72
    10
 73
     6
 74
     4
 42
0.0000000001
 43
0.0000000001
 44
0.0000000001
 12
0.9999999705819584
 22
0.0002425615019525
 32
0.0
 13
0.9975239635094039
 23
0.0703273931301976
 33
0.0
 40
0.0
 40
0.0
 40
0.0
 40
0.0
 40
2.768458290325413
 40
4.452771503763262
 40
5.015830184016997
 40
5.015830184016997
 40
5.015830184016997
 40
5.015830184016997
 10
20679.58570582422
 20
-1369.36013401544
 30
0.0
 10
20680.50852522718
 20
-1369.359910174973
 30
0.0
 10
20681.99298808095
 20
-1369.331619094498
 30
0.0
 10
20683.66290122715
 20
-1369.24648956341
 30
0.0
 10
20684.41037565051
 20
-1369.196692690995
 30
0.0
 10
20684.59759715931
 20
-1369.183493207941
 30
0.0
 11
20679.58570582422
 21
-1369.36013401544
 31
0.0
 11
20682.3536436335
 21
-1369.30645357924
 31
0.0
 11
20684.03578330961
 21
-1369.22091346584
 31
0.0
 11
20684.59759715931
 21
-1369.183493207941
 31
0.0
  0
SPLINE
  5
19814
330
1F
100
AcDbEntity
  8
0
  6
Continuous
 62
     7
100
AcDbSpline
210
0.0
220
0.0
230
1.0
 70
     8
 71
     3
 72
    13
 73
     9
 74
     7
 42
0.0000000001
 43
0.0000000001
 44
0.0000000001
 12
0.8299103637804101
 22
0.5578967539696455
 32
0.0
 13
-0.3351622148101252
 23
0.9421604373797338
 33
0.0
 40
0.0
 40
0.0
 40
0.0
 40
0.0
 40
0.5164082194667655
 40
2.073660973534688
 40
4.563954651013888
 40
8.050072957617473
 40
12.85582508407513
 40
18.80852941234094
 40
18.80852941234094
 40
18.80852941234094
 40
18.80852941234094
 10
20707.69637515522
 20
-1352.360134017541
 30
0.0
 10
20707.83923266631
 20
-1352.264099861086
 30
0.0
 10
20708.40479491414
 20
-1351.866415591313
 30
0.0
 10
20709.57306468326
 20
-1350.885096847991
 30
0.0
 10
20711.19272965762
 20
-1348.937579526428
 30
0.0
 10
20712.67709457182
 20
-1345.59925819897
 30
0.0
 10
20713.07480101255
 20
-1340.776779456756
 30
0.0
 10
20712.25098418737
 20
-1337.229860286642
 30
0.0
 10
20711.58594366511
 20
-1335.360392782138
 30
0.0
 11
20707.69637515522
 21
-1352.360134017541
 31
0.0
 11
20708.11876382022
 21
-1352.063039310739
 31
0.0
 11
20709.30967022681
 21
-1351.059655998739
 31
0.0
 11
20710.89840227922
 21
-1349.14197691564
 31
0.0
 11
20712.33456877441
 21
-1345.965430576339
 31
0.0
 11
20712.81846083431
 21
-1341.18410210244
 31
0.0
 11
20711.58594366511
 21
-1335.360392782138
 31
0.0
  0
SPLINE
  5
19815
330
1F
100
AcDbEntity
  8
0
  6
Continuous
 62
     7
100
AcDbSpline
210
0.0
220
0.0
230
1.0
 70
     8
 71
     3
 72
    24
 73
    20
 74
    18
 42
0.0000000001
 43
0.0000000001
 44
0.0000000001
 12
-0.3352573460842346
 22
0.942126590165332
 32
0.0
 13
0.4543636783065332
 23
0.8908162817527289
 33
0.0
 40
0.0
 40
0.0
 40
0.0
 40
0.0
 40
10.25431346817154
 40
22.23292361303682
 40
35.53048460474559
 40
49.76943265615834
 40
64.66478198080169
 40
80.02081124686538
 40
95.6993045771866
 40
111.5994115751321
 40
127.6496808301279
 40
143.7948902523467
 40
159.6555029977704
 40
174.7181509147231
 40
188.4662522125165
 40
200.3890344892123
 40
210.098265946342
 40
217.4208196076833
 40
222.3398802084544
 40
222.3398802084544
 40
222.3398802084544
 40
222.3398802084544
 10
20711.58594366511
 20
-1335.360392782138
 30
0.0
 10
20710.43999902535
 20
-1332.14010565472
 30
0.0
 10
20708.07018122113
 20
-1325.116545187829
 30
0.0
 10
20704.71366757788
 20
-1313.754978331338
 30
0.0
 10
20701.57733003209
 20
-1300.956140383074
 30
0.0
 10
20698.97161378602
 20
-1287.045943204191
 30
0.0
 10
20697.15086176875
 20
-1272.317418433399
 30
0.0
 10
20696.3011509238
 20
-1257.018694321527
 30
0.0
 10
20696.53849762113
 20
-1241.36230358093
 30
0.0
 10
20697.9096617596
 20
-1225.53205793549
 30
0.0
 10
20700.39699311036
 20
-1209.68199489826
 30
0.0
 10
20703.90833952108
 20
-1194.042127649853
 30
0.0
 10
20708.2468738046
 20
-1178.955985654893
 30
0.0
 10
20713.09425529609
 20
-1164.870755371468
 30
0.0
 10
20718.05947859118
 20
-1152.229721714063
 30
0.0
 10
20722.74500984636
 20
-1141.405147285487
 30
0.0
 10
20726.80991487722
 20
-1132.650488365619
 30
0.0
 10
20730.01713307279
 20
-1126.073573054979
 30
0.0
 10
20731.85257928138
 20
-1122.429049600374
 30
0.0
 10
20732.59759343751
 20
-1120.968389842342
 30
0.0
 11
20711.58594366511
 21
-1335.360392782138
 31
0.0
 11
20708.31130558651
 21
-1325.643001663238
 31
0.0
 11
20704.92397481991
 21
-1314.153306659437
 31
0.0
 11
20701.76738555271
 21
-1301.235835059841
 31
0.0
 11
20699.15447790072
 21
-1287.23867980554
 31
0.0
 11
20697.3341819731
 21
-1272.454974105038
 31
0.0
 11
20696.48610929791
 21
-1257.122381122838
 31
0.0
 11
20696.72210878783
 21
-1241.44566407654
 31
0.0
 11
20698.08676022411
 21
-1225.60422698884
 31
0.0
 11
20700.5629245123
 21
-1209.74611381054
 31
0.0
 11
20704.08475151741
 21
-1193.989701724238
 31
0.0
 11
20708.45332760371
 21
-1178.742584631539
 31
0.0
 11
20713.3422913462
 21
-1164.495430677338
 31
0.0
 11
20718.35957163421
 21
-1151.695540529139
 31
0.0
 11
20723.09043514682
 21
-1140.751516239941
 31
0.0
 11
20727.17663807421
 21
-1131.94401255704
 31
0.0
 11
20730.38506312801
 21
-1125.361778833039
 31
0.0
 11
20732.59759343751
 21
-1120.968389842342
 31
0.0
  0
LINE
  5
1981E
330
1F
100
AcDbEntity
  8
7A
100
AcDbLine
 10
20592.59759714902
 20
-1478.948995676628
 30
0.0
 11
20592.59759714902
 21
-1327.803524240329
 31
0.0
  0
LINE
  5
19820
330
1F
100
AcDbEntity
  8
7A
100
AcDbLine
 10
20325.81600404308
 20
-1098.163564488283
 30
0.0
 11
20170.09039873045
 21
-1098.163564488283
 31
0.0
  0
ENDSEC
  0
SECTION
  2
OBJECTS
  0
DICTIONARY
  5
C
330
0
100
AcDbDictionary
281
     1
  3
ACAD_COLOR
350
BE
  3
ACAD_GROUP
350
D
  3
ACAD_LAYOUT
350
1A
  3
ACAD_MATERIAL
350
BD
  3
ACAD_MLINESTYLE
350
17
  3
ACAD_PLOTSETTINGS
350
19
  3
ACAD_PLOTSTYLENAME
350
E
  3
ACAD_TABLESTYLE
350
11A
  3
ACDBHEADERROUNDTRIPXREC
350
199AE
  3
AcDbVariableDictionary
350
94
  3
AcmDictionary
350
5B
  3
AMG
350
41
  3
AMGSNAPSETTINGS
350
26B
  3
DWGPROPS
350
199AD
  0
DICTIONARY
  5
5E1
330
2
100
AcDbDictionary
280
     1
281
     1
  3
ACAD_LAYERFILTERS
360
10B7F
  3
ACAD_LAYERSTATES
360
5E2
  3
ACLYDICTIONARY
360
10B7E
  0
DICTIONARY
  5
8F
330
1F
100
AcDbDictionary
280
     1
281
     1
  3
ACAD_SORTENTS
360
9429
  0
DICTIONARY
  5
10117
330
87
100
AcDbDictionary
280
     1
281
     1
  0
DICTIONARY
  5
BE
102
{ACAD_REACTORS
330
C
102
}
330
C
100
AcDbDictionary
281
     1
  0
DICTIONARY
  5
D
102
{ACAD_REACTORS
330
C
102
}
330
C
100
AcDbDictionary
281
     1
  0
DICTIONARY
  5
1A
102
{ACAD_REACTORS
330
C
102
}
330
C
100
AcDbDictionary
281
     1
  3
Layout1
350
1E
  3
Layout2
350
26
  3
Model
350
22
  0
DICTIONARY
  5
BD
102
{ACAD_REACTORS
330
C
102
}
330
C
100
AcDbDictionary
281
     1
  0
DICTIONARY
  5
17
102
{ACAD_REACTORS
330
C
102
}
330
C
100
AcDbDictionary
281
     1
  3
Standard
350
18
  0
DICTIONARY
  5
19
102
{ACAD_REACTORS
330
C
102
}
330
C
100
AcDbDictionary
281
     1
  0
ACDBDICTIONARYWDFLT
  5
E
102
{ACAD_REACTORS
330
C
102
}
330
C
100
AcDbDictionary
281
     1
  3
Normal
350
F
100
AcDbDictionaryWithDefault
340
F
  0
DICTIONARY
  5
11A
102
{ACAD_REACTORS
330
C
102
}
330
C
100
AcDbDictionary
281
     1
  3
Standard
350
11B
  0
DICTIONARY
  5
199AE
102
{ACAD_REACTORS
330
C
102
}
330
C
100
AcDbDictionary
281
     1
  0
DICTIONARY
  5
94
102
{ACAD_REACTORS
330
C
102
}
330
C
100
AcDbDictionary
281
     1
  3
CTABLESTYLE
350
138
  3
DIMASSOC
350
96
  3
INDEXCTL
350
95
  3
PROJECTNAME
350
B168
  0
DICTIONARY
  5
5B
102
{ACAD_REACTORS
330
C
102
}
330
C
100
AcDbDictionary
281
     1
  3
AcmBOM
350
272
  3
AcmStdDictionary
350
61
  3
AMDTSECTSYM_ARROWCOLOR
350
123
  0
DICTIONARY
  5
41
102
{ACAD_REACTORS
330
C
102
}
330
C
100
AcDbDictionary
281
     1
  0
DICTIONARY
  5
26B
102
{ACAD_REACTORS
330
C
102
}
330
C
100
AcDbDictionary
281
     1
  0
XRECORD
  5
199AD
102
{ACAD_REACTORS
330
C
102
}
330
C
100
AcDbXrecord
280
     1
  1
DWGPROPS COOKIE
  2

  3

  4

  6

  7

  8

  9

300
AmdtFileType=84
301
=
302
=
303
=
304
=
305
=
306
=
307
=
308
=
309
=
 40
0.8106540277777776
 41
2454167.418644826
 42
2454666.432256945
  1

 90
        1
  0
DICTIONARY
  5
10B7F
102
{ACAD_REACTORS
330
5E1
102
}
330
5E1
100
AcDbDictionary
281
     1
  0
DICTIONARY
  5
5E2
102
{ACAD_REACTORS
330
5E1
102
}
330
5E1
100
AcDbDictionary
281
     1
  0
DICTIONARY
  5
10B7E
102
{ACAD_REACTORS
330
5E1
102
}
330
5E1
100
AcDbDictionary
281
     1
1001
ACAD
1000
<All
  0
SORTENTSTABLE
  5
9429
102
{ACAD_REACTORS
330
8F
102
}
330
8F
100
AcDbSortentsTable
330
1F
  0
LAYOUT
  5
1E
102
{ACAD_XDICTIONARY
360
199AF
102
}
102
{ACAD_REACTORS
330
1A
102
}
330
1A
100
AcDbPlotSettings
  1

  2

  4

  6

 40
0.0
 41
0.0
 42
0.0
 43
0.0
 44
0.0
 45
0.0
 46
0.0
 47
0.0
 48
0.0
 49
0.0
140
0.0
141
0.0
142
1.0
143
1.0
 70
   688
 72
     0
 73
     0
 74
     5
  7
monochrome uw.ctb
 75
    16
147
1.0
148
0.0
149
0.0
100
AcDbLayout
  1
Layout1
 70
     1
 71
     1
 10
0.0
 20
0.0
 11
420.0
 21
297.0
 12
0.0
 22
0.0
 32
0.0
 14
1.000000000000000E+20
 24
1.000000000000000E+20
 34
1.000000000000000E+20
 15
-1.000000000000000E+20
 25
-1.000000000000000E+20
 35
-1.000000000000000E+20
146
0.0
 13
0.0
 23
0.0
 33
0.0
 16
1.0
 26
0.0
 36
0.0
 17
0.0
 27
1.0
 37
0.0
 76
     0
330
1B
  0
LAYOUT
  5
26
102
{ACAD_XDICTIONARY
360
199B3
102
}
102
{ACAD_REACTORS
330
1A
102
}
330
1A
100
AcDbPlotSettings
  1

  2

  4

  6

 40
0.0
 41
0.0
 42
0.0
 43
0.0
 44
0.0
 45
0.0
 46
0.0
 47
0.0
 48
0.0
 49
0.0
140
0.0
141
0.0
142
1.0
143
1.0
 70
   688
 72
     0
 73
     0
 74
     5
  7
monochrome uw.ctb
 75
    16
147
1.0
148
0.0
149
0.0
100
AcDbLayout
  1
Layout2
 70
     1
 71
     2
 10
0.0
 20
0.0
 11
12.0
 21
9.0
 12
0.0
 22
0.0
 32
0.0
 14
0.0
 24
0.0
 34
0.0
 15
0.0
 25
0.0
 35
0.0
146
0.0
 13
0.0
 23
0.0
 33
0.0
 16
1.0
 26
0.0
 36
0.0
 17
0.0
 27
1.0
 37
0.0
 76
     0
330
23
  0
LAYOUT
  5
22
102
{ACAD_XDICTIONARY
360
199B1
102
}
102
{ACAD_REACTORS
330
1A
102
}
330
1A
100
AcDbPlotSettings
  1

  2
Adobe PDF
  4
A4
  6

 40
3.174999952316284
 41
3.174999952316284
 42
3.175003051757812
 43
3.17498779296875
 44
209.9733276367187
 45
297.0318298339844
 46
-0.0000000000000142
 47
78.97617299601188
 48
10891.18827994032
 49
2118.525542180123
140
12323.87549195795
141
3052.406039703264
142
1.0
143
7.035968077833545
 70
 11956
 72
     1
 73
     0
 74
     4
  7
monochrome uw.ctb
 75
     0
147
0.1421268528989562
148
-10891.18827994032
149
-2118.525542180123
100
AcDbLayout
  1
Model
 70
     1
 71
     0
 10
0.0
 20
0.0
 11
12.0
 21
9.0
 12
0.0
 22
0.0
 32
0.0
 14
0.0
 24
0.0
 34
0.0
 15
0.0
 25
0.0
 35
0.0
146
0.0
 13
0.0
 23
0.0
 33
0.0
 16
1.0
 26
0.0
 36
0.0
 17
0.0
 27
1.0
 37
0.0
 76
     0
330
1F
1001
ACAD_PSEXT
1000
Adobe PDF
1000
Adobe PDF Converter
1000
Eigene Dateien
1000

1070
     0
  0
MLINESTYLE
  5
18
102
{ACAD_REACTORS
330
17
102
}
330
17
100
AcDbMlineStyle
  2
STANDARD
 70
     0
  3

 62
   256
 51
90.0
 52
90.0
 71
     2
 49
0.5
 62
   256
  6
BYLAYER
 49
-0.5
 62
   256
  6
BYLAYER
  0
ACDBPLACEHOLDER
  5
F
102
{ACAD_REACTORS
330
E
102
}
330
E
  0
TABLESTYLE
  5
11B
102
{ACAD_REACTORS
330
11A
102
}
330
11A
100
AcDbTableStyle
  3
Standard
 70
     0
 71
     0
 40
1.5
 41
1.5
280
     0
281
     0
  7
STANDARD
140
4.5
170
     2
 62
     0
 63
     7
283
     0
274
    -2
284
     1
 64
     0
275
    -2
285
     1
 65
     0
276
    -2
286
     1
 66
     0
277
    -2
287
     1
 67
     0
278
    -2
288
     1
 68
     0
279
    -2
289
     1
 69
     0
  7
STANDARD
140
6.0
170
     5
 62
     0
 63
     7
283
     0
274
    -2
284
     1
 64
     0
275
    -2
285
     1
 65
     0
276
    -2
286
     1
 66
     0
277
    -2
287
     1
 67
     0
278
    -2
288
     1
 68
     0
279
    -2
289
     1
 69
     0
  7
STANDARD
140
4.5
170
     5
 62
     0
 63
     7
283
     0
274
    -2
284
     1
 64
     0
275
    -2
285
     1
 65
     0
276
    -2
286
     1
 66
     0
277
    -2
287
     1
 67
     0
278
    -2
288
     1
 68
     0
279
    -2
289
     1
 69
     0
  0
DICTIONARYVAR
  5
138
102
{ACAD_REACTORS
330
94
102
}
330
94
100
DictionaryVariables
280
     0
  1
STANDARD
  0
DICTIONARYVAR
  5
96
102
{ACAD_REACTORS
330
94
102
}
330
94
100
DictionaryVariables
280
     0
  1
2
  0
DICTIONARYVAR
  5
95
102
{ACAD_REACTORS
330
94
102
}
330
94
100
DictionaryVariables
280
     0
  1
0
  0
DICTIONARYVAR
  5
B168
102
{ACAD_REACTORS
330
94
102
}
330
94
100
DictionaryVariables
280
     0
  1

  0
DICTIONARY
  5
272
102
{ACAD_REACTORS
330
5B
102
}
330
5B
100
AcDbDictionary
281
     1
  0
DICTIONARY
  5
61
102
{ACAD_REACTORS
330
5B
102
}
330
5B
100
AcDbDictionary
281
     1
  0
XRECORD
  5
123
102
{ACAD_REACTORS
330
5B
102
}
330
5B
100
AcDbXrecord
280
     1
 90
-1023410169
  0
DICTIONARY
  5
199AF
330
1E
100
AcDbDictionary
280
     1
281
     1
  3
ACAD_XREC_ROUNDTRIP
360
199B0
  0
DICTIONARY
  5
199B3
330
26
100
AcDbDictionary
280
     1
281
     1
  3
ACAD_XREC_ROUNDTRIP
360
199B4
  0
DICTIONARY
  5
199B1
330
22
100
AcDbDictionary
280
     1
281
     1
  3
ACAD_XREC_ROUNDTRIP
360
199B2
  0
XRECORD
  5
199B0
102
{ACAD_REACTORS
330
199AF
102
}
330
199AF
100
AcDbXrecord
280
     1
102
SHADEPLOT
 70
     0
102
SHADEPLOTRESLEVEL
 70
     2
102
SHADEPLOTCUSTOMDPI
 70
   300
  0
XRECORD
  5
199B4
102
{ACAD_REACTORS
330
199B3
102
}
330
199B3
100
AcDbXrecord
280
     1
102
SHADEPLOT
 70
     0
102
SHADEPLOTRESLEVEL
 70
     2
102
SHADEPLOTCUSTOMDPI
 70
   300
  0
XRECORD
  5
199B2
102
{ACAD_REACTORS
330
199B1
102
}
330
199B1
100
AcDbXrecord
280
     1
102
SHADEPLOT
 70
     0
102
SHADEPLOTRESLEVEL
 70
     2
102
SHADEPLOTCUSTOMDPI
 70
   300
  0
ENDSEC
  0
EOF
