  0
SECTION
  2
HEADER
  9
$ACADVER
  1
AC1015
  9
$ACADMAINTVER
 70
     6
  9
$DWGCODEPAGE
  3
ANSI_1252
  9
$INSBASE
 10
0.0
 20
0.0
 30
0.0
  9
$EXTMIN
 10
0.0
 20
0.0
 30
0.0
  9
$EXTMAX
 10
420.0
 20
297.0
 30
0.0
  9
$LIMMIN
 10
0.0
 20
0.0
  9
$LIMMAX
 10
420.0
 20
297.0
  9
$ORTHOMODE
 70
     0
  9
$REGENMODE
 70
     1
  9
$FILLMODE
 70
     1
  9
$QTEXTMODE
 70
     0
  9
$MIRRTEXT
 70
     1
  9
$LTSCALE
 40
1.0
  9
$ATTMODE
 70
     1
  9
$TEXTSIZE
 40
3.5
  9
$TRACEWID
 40
1.0
  9
$TEXTSTYLE
  7
Standard
  9
$CLAYER
  8
0
  9
$CELTYPE
  6
ByLayer
  9
$CECOLOR
 62
   256
  9
$CELTSCALE
 40
1.0
  9
$DISPSILH
 70
     0
  9
$DIMSCALE
 40
1.0
  9
$DIMASZ
 40
3.5
  9
$DIMEXO
 40
0.1
  9
$DIMDLI
 40
3.75
  9
$DIMRND
 40
0.0
  9
$DIMDLE
 40
0.0
  9
$DIMEXE
 40
1.0
  9
$DIMTP
 40
0.0
  9
$DIMTM
 40
0.0
  9
$DIMTXT
 40
3.5
  9
$DIMCEN
 40
2.5
  9
$DIMTSZ
 40
0.0
  9
$DIMTOL
 70
     0
  9
$DIMLIM
 70
     0
  9
$DIMTIH
 70
     1
  9
$DIMTOH
 70
     1
  9
$DIMSE1
 70
     0
  9
$DIMSE2
 70
     0
  9
$DIMTAD
 70
     1
  9
$DIMZIN
 70
     0
  9
$DIMBLK
  1

  9
$DIMASO
 70
     1
  9
$DIMSHO
 70
     1
  9
$DIMPOST
  1

  9
$DIMAPOST
  1

  9
$DIMALT
 70
     0
  9
$DIMALTD
 70
     3
  9
$DIMALTF
 40
0.0393700787
  9
$DIMLFAC
 40
1.0
  9
$DIMTOFL
 70
     1
  9
$DIMTVP
 40
0.0
  9
$DIMTIX
 70
     0
  9
$DIMSOXD
 70
     0
  9
$DIMSAH
 70
     0
  9
$DIMBLK1
  1

  9
$DIMBLK2
  1

  9
$DIMSTYLE
  2
ISO-25
  9
$DIMCLRD
 70
     0
  9
$DIMCLRE
 70
     0
  9
$DIMCLRT
 70
     0
  9
$DIMTFAC
 40
1.0
  9
$DIMGAP
 40
2.0
  9
$DIMJUST
 70
     0
  9
$DIMSD1
 70
     0
  9
$DIMSD2
 70
     0
  9
$DIMTOLJ
 70
     0
  9
$DIMTZIN
 70
     0
  9
$DIMALTZ
 70
     0
  9
$DIMALTTZ
 70
     0
  9
$DIMUPT
 70
     0
  9
$DIMDEC
 70
     2
  9
$DIMTDEC
 70
     3
  9
$DIMALTU
 70
     2
  9
$DIMALTTD
 70
     3
  9
$DIMTXSTY
  7
Standard
  9
$DIMAUNIT
 70
     0
  9
$DIMADEC
 70
     2
  9
$DIMALTRND
 40
0.0
  9
$DIMAZIN
 70
     0
  9
$DIMDSEP
 70
    44
  9
$DIMATFIT
 70
     3
  9
$DIMFRAC
 70
     0
  9
$DIMLDRBLK
  1

  9
$DIMLUNIT
 70
     2
  9
$DIMLWD
 70
    -2
  9
$DIMLWE
 70
    -2
  9
$DIMTMOVE
 70
     0
  9
$LUNITS
 70
     2
  9
$LUPREC
 70
     2
  9
$SKETCHINC
 40
1.0
  9
$FILLETRAD
 40
0.0
  9
$AUNITS
 70
     0
  9
$AUPREC
 70
     2
  9
$MENU
  1
.
  9
$ELEVATION
 40
0.0
  9
$PELEVATION
 40
0.0
  9
$THICKNESS
 40
0.0
  9
$LIMCHECK
 70
     0
  9
$CHAMFERA
 40
0.0
  9
$CHAMFERB
 40
0.0
  9
$CHAMFERC
 40
0.0
  9
$CHAMFERD
 40
0.0
  9
$SKPOLY
 70
     0
  9
$TDCREATE
 40
2460824.292998982
  9
$TDUCREATE
 40
2460824.209665648
  9
$TDUPDATE
 40
2460824.293003843
  9
$TDUUPDATE
 40
2460824.209670509
  9
$TDINDWG
 40
0.0000000116
  9
$TDUSRTIMER
 40
0.0000000116
  9
$USRTIMER
 70
     1
  9
$ANGBASE
 50
0.0
  9
$ANGDIR
 70
     0
  9
$PDMODE
 70
     0
  9
$PDSIZE
 40
-1.0
  9
$PLINEWID
 40
0.0
  9
$SPLFRAME
 70
     0
  9
$SPLINETYPE
 70
     6
  9
$SPLINESEGS
 70
     8
  9
$HANDSEED
  5
343
  9
$SURFTAB1
 70
     6
  9
$SURFTAB2
 70
     6
  9
$SURFTYPE
 70
     6
  9
$SURFU
 70
     6
  9
$SURFV
 70
     6
  9
$UCSBASE
  2

  9
$UCSNAME
  2

  9
$UCSORG
 10
0.0
 20
0.0
 30
0.0
  9
$UCSXDIR
 10
1.0
 20
0.0
 30
0.0
  9
$UCSYDIR
 10
0.0
 20
1.0
 30
0.0
  9
$UCSORTHOREF
  2

  9
$UCSORTHOVIEW
 70
     0
  9
$UCSORGTOP
 10
0.0
 20
0.0
 30
0.0
  9
$UCSORGBOTTOM
 10
0.0
 20
0.0
 30
0.0
  9
$UCSORGLEFT
 10
0.0
 20
0.0
 30
0.0
  9
$UCSORGRIGHT
 10
0.0
 20
0.0
 30
0.0
  9
$UCSORGFRONT
 10
0.0
 20
0.0
 30
0.0
  9
$UCSORGBACK
 10
0.0
 20
0.0
 30
0.0
  9
$PUCSBASE
  2

  9
$PUCSNAME
  2

  9
$PUCSORG
 10
0.0
 20
0.0
 30
0.0
  9
$PUCSXDIR
 10
1.0
 20
0.0
 30
0.0
  9
$PUCSYDIR
 10
0.0
 20
1.0
 30
0.0
  9
$PUCSORTHOREF
  2

  9
$PUCSORTHOVIEW
 70
     0
  9
$PUCSORGTOP
 10
0.0
 20
0.0
 30
0.0
  9
$PUCSORGBOTTOM
 10
0.0
 20
0.0
 30
0.0
  9
$PUCSORGLEFT
 10
0.0
 20
0.0
 30
0.0
  9
$PUCSORGRIGHT
 10
0.0
 20
0.0
 30
0.0
  9
$PUCSORGFRONT
 10
0.0
 20
0.0
 30
0.0
  9
$PUCSORGBACK
 10
0.0
 20
0.0
 30
0.0
  9
$USERI1
 70
     0
  9
$USERI2
 70
     0
  9
$USERI3
 70
     0
  9
$USERI4
 70
     0
  9
$USERI5
 70
     0
  9
$USERR1
 40
0.0
  9
$USERR2
 40
0.0
  9
$USERR3
 40
0.0
  9
$USERR4
 40
0.0
  9
$USERR5
 40
0.0
  9
$WORLDVIEW
 70
     1
  9
$SHADEDGE
 70
     3
  9
$SHADEDIF
 70
    70
  9
$TILEMODE
 70
     1
  9
$MAXACTVP
 70
    64
  9
$PINSBASE
 10
0.0
 20
0.0
 30
0.0
  9
$PLIMCHECK
 70
     0
  9
$PEXTMIN
 10
1.0000000000E+20
 20
1.0000000000E+20
 30
1.0000000000E+20
  9
$PEXTMAX
 10
-1.0000000000E+20
 20
-1.0000000000E+20
 30
-1.0000000000E+20
  9
$PLIMMIN
 10
0.0
 20
0.0
  9
$PLIMMAX
 10
420.0
 20
297.0
  9
$UNITMODE
 70
     0
  9
$VISRETAIN
 70
     1
  9
$PLINEGEN
 70
     0
  9
$PSLTSCALE
 70
     1
  9
$TREEDEPTH
 70
  3020
  9
$CMLSTYLE
  2
Standard
  9
$CMLJUST
 70
     0
  9
$CMLSCALE
 40
20.0
  9
$PROXYGRAPHICS
 70
     1
  9
$MEASUREMENT
 70
     1
  9
$CELWEIGHT
370
    -1
  9
$ENDCAPS
280
     0
  9
$JOINSTYLE
280
     0
  9
$LWDISPLAY
290
     1
  9
$INSUNITS
 70
     4
  9
$HYPERLINKBASE
  1

  9
$STYLESHEET
  1

  9
$XEDIT
290
     1
  9
$CEPSNTYPE
380
     0
  9
$PSTYLEMODE
290
     1
  9
$FINGERPRINTGUID
  2
{b2f4b14e-cd21-40d8-bc20-7429452d93a3}
  9
$VERSIONGUID
  2
{FAEB1C32-E019-11D5-929B-00C0DF256EC4}
  9
$EXTNAMES
290
     1
  9
$PSVPSCALE
 40
0.0
  9
$OLESTARTUP
290
     0
  0
ENDSEC
  0
SECTION
  2
CLASSES
  0
CLASS
  1
ACDBDICTIONARYWDFLT
  2
AcDbDictionaryWithDefault
  3
ObjectDBX Classes
 90
        0
280
     0
281
     0
  0
CLASS
  1
VISUALSTYLE
  2
AcDbVisualStyle
  3
ObjectDBX Classes
 90
     4095
280
     0
281
     0
  0
CLASS
  1
MATERIAL
  2
AcDbMaterial
  3
ObjectDBX Classes
 90
     1153
280
     0
281
     0
  0
CLASS
  1
SCALE
  2
AcDbScale
  3
ObjectDBX Classes
 90
     1153
280
     0
281
     0
  0
CLASS
  1
TABLESTYLE
  2
AcDbTableStyle
  3
ObjectDBX Classes
 90
     4095
280
     0
281
     0
  0
CLASS
  1
MLEADERSTYLE
  2
AcDbMLeaderStyle
  3
ACDB_MLEADERSTYLE_CLASS
 90
     4095
280
     0
281
     0
  0
CLASS
  1
SUN
  2
AcDbSun
  3
SCENEOE
 90
     1153
280
     0
281
     0
  0
CLASS
  1
ACDBPLACEHOLDER
  2
AcDbPlaceHolder
  3
ObjectDBX Classes
 90
        0
280
     0
281
     0
  0
CLASS
  1
LAYOUT
  2
AcDbLayout
  3
ObjectDBX Classes
 90
        0
280
     0
281
     0
  0
ENDSEC
  0
SECTION
  2
TABLES
  0
TABLE
  2
VPORT
  5
8
330
0
100
AcDbSymbolTable
 70
     1
  0
VPORT
  5
29
330
8
100
AcDbSymbolTableRecord
100
AcDbViewportTableRecord
  2
*Active
 70
     0
 10
0.0
 20
0.0
 11
1.0
 21
1.0
 12
210.0
 22
148.5
 13
0.0
 23
0.0
 14
10.0
 24
10.0
 15
10.0
 25
10.0
 16
0.0
 26
0.0
 36
1.0
 17
0.0
 27
0.0
 37
0.0
 40
297.0
 41
1.4141414141
 42
50.0
 43
0.0
 44
0.0
 50
0.0
 51
0.0
 71
     0
 72
  2000
 73
     1
 74
     3
 75
     0
 76
     0
 77
     0
 78
     0
281
     0
 65
     1
110
0.0
120
0.0
130
0.0
111
1.0
121
0.0
131
0.0
112
0.0
122
1.0
132
0.0
 79
     0
146
0.0
  0
ENDTAB
  0
TABLE
  2
LTYPE
  5
5
330
0
100
AcDbSymbolTable
 70
     6
  0
LTYPE
  5
14
330
5
100
AcDbSymbolTableRecord
100
AcDbLinetypeTableRecord
  2
ByBlock
 70
     0
  3

 72
    65
 73
     0
 40
0.0
  0
LTYPE
  5
15
330
5
100
AcDbSymbolTableRecord
100
AcDbLinetypeTableRecord
  2
ByLayer
 70
     0
  3

 72
    65
 73
     0
 40
0.0
  0
LTYPE
  5
16
330
5
100
AcDbSymbolTableRecord
100
AcDbLinetypeTableRecord
  2
Continuous
 70
     0
  3
Solid line
 72
    65
 73
     0
 40
0.0
  0
LTYPE
  5
5E
330
5
100
AcDbSymbolTableRecord
100
AcDbLinetypeTableRecord
  2
HIDDEN
 70
     0
  3
Hidden __ __ __ __ __ __ __ __ __ __ __ __ __ __
 72
    65
 73
     2
 40
1.905
 49
1.27
 74
     0
 49
-0.635
 74
     0
  0
LTYPE
  5
5F
330
5
100
AcDbSymbolTableRecord
100
AcDbLinetypeTableRecord
  2
PHANTOM
 70
     0
  3
Phantom ______  __  __  ______  __  __  ______
 72
    65
 73
     6
 40
12.7
 49
6.35
 74
     0
 49
-1.27
 74
     0
 49
1.27
 74
     0
 49
-1.27
 74
     0
 49
1.27
 74
     0
 49
-1.27
 74
     0
  0
LTYPE
  5
60
330
5
100
AcDbSymbolTableRecord
100
AcDbLinetypeTableRecord
  2
CENTER
 70
     0
  3
Center ____ _ ____ _ ____ _ ____ _ ____ _ ____
 72
    65
 73
     4
 40
10.16
 49
6.35
 74
     0
 49
-1.27
 74
     0
 49
1.27
 74
     0
 49
-1.27
 74
     0
  0
LTYPE
  5
61
330
5
100
AcDbSymbolTableRecord
100
AcDbLinetypeTableRecord
  2
CENTERX2
 70
     0
  3
Center (2x) ________  __  ________  __  _____
 72
    65
 73
     4
 40
20.32
 49
12.7
 74
     0
 49
-2.54
 74
     0
 49
2.54
 74
     0
 49
-2.54
 74
     0
  0
LTYPE
  5
62
330
5
100
AcDbSymbolTableRecord
100
AcDbLinetypeTableRecord
  2
DOT2
 70
     0
  3
Dot (.5x) ........................................
 72
    65
 73
     2
 40
0.635
 49
0.0
 74
     0
 49
-0.635
 74
     0
  0
ENDTAB
  0
TABLE
  2
LAYER
  5
2
330
0
100
AcDbSymbolTable
 70
     1
  0
LAYER
  5
10
330
2
100
AcDbSymbolTableRecord
100
AcDbLayerTableRecord
  2
0
 70
     0
 62
     7
  6
Continuous
370
    -3
390
F
  0
ENDTAB
  0
TABLE
  2
STYLE
  5
3
330
0
100
AcDbSymbolTable
 70
     3
  0
STYLE
  5
11
330
3
100
AcDbSymbolTableRecord
100
AcDbTextStyleTableRecord
  2
Standard
 70
     0
 40
0.0
 41
1.0
 50
0.0
 71
     0
 42
3.5
  3
txt
  4

  0
STYLE
  5
D9
330
3
100
AcDbSymbolTableRecord
100
AcDbTextStyleTableRecord
  2
SLDTEXTSTYLE0
 70
     0
 40
0.0
 41
0.605
 50
0.0
 71
     0
 42
3.5
  3
TXT
  4

  0
STYLE
  5
17F
330
3
100
AcDbSymbolTableRecord
100
AcDbTextStyleTableRecord
  2
SLDTEXTSTYLE1
 70
     0
 40
0.0
 41
0.563
 50
0.0
 71
     0
 42
3.5
  3
TXT
  4

  0
ENDTAB
  0
TABLE
  2
VIEW
  5
6
330
0
100
AcDbSymbolTable
 70
     0
  0
ENDTAB
  0
TABLE
  2
UCS
  5
7
330
0
100
AcDbSymbolTable
 70
     0
  0
ENDTAB
  0
TABLE
  2
APPID
  5
9
330
0
100
AcDbSymbolTable
 70
     1
  0
APPID
  5
12
330
9
100
AcDbSymbolTableRecord
100
AcDbRegAppTableRecord
  2
ACAD
 70
     0
  0
ENDTAB
  0
TABLE
  2
DIMSTYLE
  5
A
330
0
100
AcDbSymbolTable
 70
     3
100
AcDbDimStyleTable
  0
DIMSTYLE
105
27
330
A
100
AcDbSymbolTableRecord
100
AcDbDimStyleTableRecord
  2
ISO-25
 70
     0
 41
2.5
 42
0.625
 43
3.75
 44
1.25
 73
     0
 74
     0
 77
     1
 78
     8
140
2.5
141
2.5
143
0.0393700787
147
0.625
171
     3
172
     1
178
     0
271
     2
272
     2
274
     3
278
    44
283
     0
284
     8
340
11
  0
DIMSTYLE
105
29D
102
{ACAD_REACTORS
330
29C
330
2A8
330
2BD
102
}
330
A
100
AcDbSymbolTableRecord
100
AcDbDimStyleTableRecord
  2
SLDDIMSTYLE0
 70
     0
 41
3.5
 44
0.0
 45
0.000000001
 73
     0
 74
     0
 77
     1
 78
    12
 79
     3
140
3.5
147
0.875
173
     1
178
     0
271
     2
272
     3
276
     2
284
    12
340
D9
  0
DIMSTYLE
105
2B3
102
{ACAD_REACTORS
330
2B2
102
}
330
A
100
AcDbSymbolTableRecord
100
AcDbDimStyleTableRecord
  2
SLDDIMSTYLE1
 70
     0
 41
3.5
 44
0.0
 45
0.000000001
 73
     0
 74
     0
 77
     1
 78
    12
 79
     3
140
3.5
147
0.875
173
     1
178
     0
271
     1
272
     3
276
     2
284
    12
340
D9
  0
ENDTAB
  0
TABLE
  2
BLOCK_RECORD
  5
1
330
0
100
AcDbSymbolTable
 70
     9
  0
BLOCK_RECORD
  5
1F
330
1
100
AcDbSymbolTableRecord
100
AcDbBlockTableRecord
  2
*Model_Space
340
22
  0
BLOCK_RECORD
  5
1B
330
1
100
AcDbSymbolTableRecord
100
AcDbBlockTableRecord
  2
*Paper_Space
340
1E
  0
BLOCK_RECORD
  5
23
330
1
100
AcDbSymbolTableRecord
100
AcDbBlockTableRecord
  2
*Paper_Space0
340
26
  0
BLOCK_RECORD
  5
63
330
1
100
AcDbSymbolTableRecord
100
AcDbBlockTableRecord
  2
ACO-Logo
340
0
102
{BLKREFS
331
139
102
}
  0
BLOCK_RECORD
  5
D6
330
1
100
AcDbSymbolTableRecord
100
AcDbBlockTableRecord
  2
SW_NOTE_0
340
0
102
{BLKREFS
331
DB
102
}
  0
BLOCK_RECORD
  5
DC
330
1
100
AcDbSymbolTableRecord
100
AcDbBlockTableRecord
  2
SW_NOTE_0_1
340
0
102
{BLKREFS
331
E0
102
}
  0
BLOCK_RECORD
  5
E1
330
1
100
AcDbSymbolTableRecord
100
AcDbBlockTableRecord
  2
SW_NOTE_0_2
340
0
102
{BLKREFS
331
E8
102
}
  0
BLOCK_RECORD
  5
29E
330
1
100
AcDbSymbolTableRecord
100
AcDbBlockTableRecord
  2
_D
340
0
  0
BLOCK_RECORD
  5
2A9
330
1
100
AcDbSymbolTableRecord
100
AcDbBlockTableRecord
  2
_D_1
340
0
  0
BLOCK_RECORD
  5
2B4
330
1
100
AcDbSymbolTableRecord
100
AcDbBlockTableRecord
  2
_D_2
340
0
  0
BLOCK_RECORD
  5
2BE
330
1
100
AcDbSymbolTableRecord
100
AcDbBlockTableRecord
  2
_D_3
340
0
  0
ENDTAB
  0
ENDSEC
  0
SECTION
  2
BLOCKS
  0
BLOCK
  5
20
330
1F
100
AcDbEntity
  8
0
100
AcDbBlockBegin
  2
*Model_Space
 70
     0
 10
0.0
 20
0.0
 30
0.0
  3
*Model_Space
  1

  0
ENDBLK
  5
21
330
1F
100
AcDbEntity
  8
0
100
AcDbBlockEnd
  0
BLOCK
  5
1C
330
1B
100
AcDbEntity
 67
     1
  8
0
100
AcDbBlockBegin
  2
*Paper_Space
 70
     0
 10
0.0
 20
0.0
 30
0.0
  3
*Paper_Space
  1

  0
ENDBLK
  5
1D
330
1B
100
AcDbEntity
 67
     1
  8
0
100
AcDbBlockEnd
  0
BLOCK
  5
24
330
23
100
AcDbEntity
  8
0
100
AcDbBlockBegin
  2
*Paper_Space0
 70
     0
 10
0.0
 20
0.0
 30
0.0
  3
*Paper_Space0
  1

  0
ENDBLK
  5
25
330
23
100
AcDbEntity
  8
0
100
AcDbBlockEnd
  0
BLOCK
  5
64
330
63
100
AcDbEntity
  8
0
100
AcDbBlockBegin
  2
ACO-Logo
 70
     0
 10
0.0
 20
0.0
 30
0.0
  3
ACO-Logo
  1

  0
ARC
  5
66
330
63
100
AcDbEntity
  8
0
  6
Continuous
 62
     7
370
    18
100
AcDbCircle
 10
80.3853261169
 20
4.9940995715
 30
0.0
 40
0.3000000000000441
100
AcDbArc
 50
181.9349323096
 51
274.6062978506
  0
ARC
  5
67
330
63
100
AcDbEntity
  8
0
  6
Continuous
 62
     7
370
    18
100
AcDbCircle
 10
81.2359083165
 20
2.1946665956
 30
0.0
 40
1.000000000000021
100
AcDbArc
 50
221.4087409628
 51
276.0561297228
  0
ARC
  5
68
330
63
100
AcDbEntity
  8
0
  6
Continuous
 62
     7
370
    18
100
AcDbCircle
 10
79.1360017163
 20
3.654242048
 30
0.0
 40
0.300000000000004
100
AcDbArc
 50
181.2730300201
 51
274.4996077095
  0
ARC
  5
69
330
63
100
AcDbEntity
  8
0
  6
Continuous
 62
     7
370
    18
100
AcDbCircle
 10
78.7699033484
 20
3.2873137407
 30
0.0
 40
0.4000000000000358
100
AcDbArc
 50
221.0090869016
 51
274.5606296317
  0
ARC
  5
6A
330
63
100
AcDbEntity
  8
0
  6
Continuous
 62
     7
370
    18
100
AcDbCircle
 10
91.2333953062
 20
4.6062442307
 30
0.0
 40
0.3000000000000493
100
AcDbArc
 50
274.4996077095
 51
3.7249371334
  0
ARC
  5
6B
330
63
100
AcDbEntity
  8
0
  6
Continuous
 62
     7
370
    18
100
AcDbCircle
 10
81.5287571045
 20
9.7648973508
 30
0.0
 40
1.00000000000002
100
AcDbArc
 50
93.1134387481
 51
181.9414863909
  0
ARC
  5
6C
330
63
100
AcDbEntity
  8
0
  6
Continuous
 62
     7
370
    18
100
AcDbCircle
 10
81.6051675115
 20
7.5107903456
 30
0.0
 40
1.0
100
AcDbArc
 50
181.9414863909
 51
274.398705355
  0
ARC
  5
6D
330
63
100
AcDbEntity
  8
0
  6
Continuous
 62
     7
370
    18
100
AcDbCircle
 10
80.1506905656
 20
11.9393118923
 30
0.0
 40
0.300000000000045
100
AcDbArc
 50
93.0418421566
 51
181.9349323096
  0
ARC
  5
6E
330
63
100
AcDbEntity
  8
0
  6
Continuous
 62
     7
370
    18
100
AcDbCircle
 10
78.1879722102
 20
12.3499352608
 30
0.0
 40
0.7999999999953393
100
AcDbArc
 50
92.6995697565
 51
148.2554209065
  0
ARC
  5
6F
330
63
100
AcDbEntity
  8
0
  6
Continuous
 62
     7
370
    18
100
AcDbCircle
 10
78.930862229
 20
12.8855189761
 30
0.0
 40
0.3000000000000031
100
AcDbArc
 50
92.6995697565
 51
181.2730300201
  0
ARC
  5
70
330
63
100
AcDbEntity
  8
0
  6
Continuous
 62
     7
370
    18
100
AcDbCircle
 10
82.327743407
 20
9.8083568568
 30
0.0
 40
1.000000000000034
100
AcDbArc
 50
1.9414863909
 51
93.1134387481
  0
ARC
  5
71
330
63
100
AcDbEntity
  8
0
  6
Continuous
 62
     7
370
    18
100
AcDbCircle
 10
81.5287571045
 20
9.7648973508
 30
0.0
 40
0.3625000000000009
100
AcDbArc
 50
93.1134387481
 51
181.9414863909
  0
ARC
  5
72
330
63
100
AcDbEntity
  8
0
  6
Continuous
 62
     7
370
    18
100
AcDbCircle
 10
82.327743407
 20
9.8083568568
 30
0.0
 40
0.3625000000000146
100
AcDbArc
 50
1.9414863909
 51
93.1134387481
  0
ARC
  5
73
330
63
100
AcDbEntity
  8
0
  6
Continuous
 62
     7
370
    18
100
AcDbCircle
 10
82.4035451983
 20
7.5722040138
 30
0.0
 40
1.000000000000008
100
AcDbArc
 50
274.398705355
 51
1.9414863909
  0
ARC
  5
74
330
63
100
AcDbEntity
  8
0
  6
Continuous
 62
     7
370
    18
100
AcDbCircle
 10
82.4035451983
 20
7.5722040138
 30
0.0
 40
0.3625000000000068
100
AcDbArc
 50
274.398705355
 51
1.9414863909
  0
ARC
  5
75
330
63
100
AcDbEntity
  8
0
  6
Continuous
 62
     7
370
    18
100
AcDbCircle
 10
81.6051675115
 20
7.5107903456
 30
0.0
 40
0.3625000000000111
100
AcDbArc
 50
181.9414863909
 51
274.398705355
  0
ARC
  5
76
330
63
100
AcDbEntity
  8
0
  6
Continuous
 62
     7
370
    18
100
AcDbCircle
 10
88.825822761
 20
8.0662148274
 30
0.0
 40
0.9999999999999997
100
AcDbArc
 50
274.398705355
 51
2.6541955134
  0
ARC
  5
77
330
63
100
AcDbEntity
  8
0
  6
Continuous
 62
     7
370
    18
100
AcDbCircle
 10
90.1578295581
 20
5.7814576687
 30
0.0
 40
0.3000000000000043
100
AcDbArc
 50
274.6062978507
 51
2.5147526475
  0
ARC
  5
78
330
63
100
AcDbEntity
  8
0
  6
Continuous
 62
     7
370
    18
100
AcDbCircle
 10
88.825822761
 20
8.0662148274
 30
0.0
 40
0.3625000000000083
100
AcDbArc
 50
274.398705355
 51
2.6541955134
  0
ARC
  5
79
330
63
100
AcDbEntity
  8
0
  6
Continuous
 62
     7
370
    18
100
AcDbCircle
 10
88.728529747
 20
10.16496413
 30
0.0
 40
1.000000000000001
100
AcDbArc
 50
2.6541955134
 51
93.1134387481
  0
ARC
  5
7A
330
63
100
AcDbEntity
  8
0
  6
Continuous
 62
     7
370
    18
100
AcDbCircle
 10
88.728529747
 20
10.16496413
 30
0.0
 40
0.3625000000000085
100
AcDbArc
 50
2.6541955134
 51
93.1134387481
  0
ARC
  5
7B
330
63
100
AcDbEntity
  8
0
  6
Continuous
 62
     7
370
    18
100
AcDbCircle
 10
89.8647121341
 20
12.455515937
 30
0.0
 40
0.2999999999999984
100
AcDbArc
 50
2.5147526475
 51
93.0418421566
  0
ARC
  5
7C
330
63
100
AcDbEntity
  8
0
  6
Continuous
 62
     7
370
    18
100
AcDbCircle
 10
90.6583795404
 20
13.4384863935
 30
0.0
 40
0.2999999999999911
100
AcDbArc
 50
3.7249371334
 51
92.6995697565
  0
CIRCLE
  5
7D
330
63
100
AcDbEntity
  8
0
  6
Continuous
 62
     7
370
    18
100
AcDbCircle
 10
15.7233972286
 20
6.4054930194
 30
0.0
 40
1.579500000000014
  0
CIRCLE
  5
7E
330
63
100
AcDbEntity
  8
0
  6
Continuous
 62
     7
370
    18
100
AcDbCircle
 10
15.7233972286
 20
6.4054930194
 30
0.0
 40
2.281499999999994
  0
ARC
  5
7F
330
63
100
AcDbEntity
  8
0
  6
Continuous
 62
     7
370
    18
100
AcDbCircle
 10
89.7681336026
 20
2.3106616691
 30
0.0
 40
0.098384530246548
100
AcDbArc
 50
332.3802627259
 51
4.9765441602
  0
ARC
  5
80
330
63
100
AcDbEntity
  8
0
  6
Continuous
 62
     7
370
    18
100
AcDbCircle
 10
89.6886560089
 20
2.3522464185
 30
0.0
 40
0.1880839130754018
100
AcDbArc
 50
303.690067526
 51
332.3802627258
  0
ARC
  5
81
330
63
100
AcDbEntity
  8
0
  6
Continuous
 62
     7
370
    18
100
AcDbCircle
 10
89.4849700869
 20
2.6577753016
 30
0.0
 40
0.5552839311631531
100
AcDbArc
 50
287.108652213
 51
303.690067526
  0
ARC
  5
82
330
63
100
AcDbEntity
  8
0
  6
Continuous
 62
     7
370
    18
100
AcDbCircle
 10
88.0513010646
 20
7.3154864882
 30
0.0
 40
5.428648309393203
100
AcDbArc
 50
285.2551187031
 51
287.108652213
  0
ARC
  5
83
330
63
100
AcDbEntity
  8
0
  6
Continuous
 62
     7
370
    18
100
AcDbCircle
 10
89.1317168954
 20
3.3539617753
 30
0.0
 40
1.322436378825653
100
AcDbArc
 50
281.4991866428
 51
285.255118703
  0
ARC
  5
84
330
63
100
AcDbEntity
  8
0
  6
Continuous
 62
     7
370
    18
100
AcDbCircle
 10
89.3198255509
 20
2.4293110075
 30
0.0
 40
0.3788454141584939
100
AcDbArc
 50
279.1917900003
 51
281.499186643
  0
ARC
  5
85
330
63
100
AcDbEntity
  8
0
  6
Continuous
 62
     7
370
    18
100
AcDbCircle
 10
89.0487250788
 20
4.1046569124
 30
0.0
 40
2.07598399629105
100
AcDbArc
 50
277.7634675038
 51
279.1917900002
  0
ARC
  5
86
330
63
100
AcDbEntity
  8
0
  6
Continuous
 62
     7
370
    18
100
AcDbCircle
 10
9.2588909915
 20
6.4054930194
 30
0.0
 40
1.579500000000074
100
AcDbArc
 50
31.0558004991
 51
330.0
  0
ARC
  5
87
330
63
100
AcDbEntity
  8
0
  6
Continuous
 62
     7
370
    18
100
AcDbCircle
 10
9.2588909915
 20
6.4054930194
 30
0.0
 40
2.281500000000107
100
AcDbArc
 50
30.7309172659
 51
330.0
  0
ARC
  5
88
330
63
100
AcDbEntity
  8
0
  6
Continuous
 62
     7
370
    18
100
AcDbCircle
 10
6.1288847544
 20
4.0685261312
 30
0.0
 40
4.914000000000307
100
AcDbArc
 50
172.3058370354
 51
179.7113029221
  0
ARC
  5
89
330
63
100
AcDbEntity
  8
0
  6
Continuous
 62
     7
370
    18
100
AcDbCircle
 10
-0.5401152456
 20
4.0685261312
 30
0.0
 40
4.91400000000019
100
AcDbArc
 50
0.2886970779
 51
7.6941629646
  0
ARC
  5
8A
330
63
100
AcDbEntity
  8
0
  6
Continuous
 62
     7
370
    18
100
AcDbCircle
 10
-0.5401152456
 20
4.0685261312
 30
0.0
 40
5.616000000000127
100
AcDbArc
 50
0.2526096926
 51
53.5764263577
  0
ARC
  5
8B
330
63
100
AcDbEntity
  8
0
  6
Continuous
 62
     7
370
    18
100
AcDbCircle
 10
6.1288847544
 20
4.0685261312
 30
0.0
 40
5.61600000000074
100
AcDbArc
 50
126.4235736423
 51
179.7473903073
  0
ARC
  5
8C
330
63
100
AcDbEntity
  8
0
  6
Continuous
 62
     7
370
    18
100
AcDbCircle
 10
-0.5401152456
 20
4.0685261312
 30
0.0
 40
4.914000000000161
100
AcDbArc
 50
16.0658750272
 51
47.2678899574
  0
ARC
  5
8D
330
63
100
AcDbEntity
  8
0
  6
Continuous
 62
     7
370
    18
100
AcDbCircle
 10
6.1288847544
 20
4.0685261312
 30
0.0
 40
4.914000000000584
100
AcDbArc
 50
132.7321100426
 51
163.9341249728
  0
LINE
  5
8E
330
63
100
AcDbEntity
  8
0
  6
Continuous
 62
     7
370
    18
100
AcDbLine
 10
78.8017089389
 20
2.8885802402
 30
0.0
 11
90.7982178739
 21
3.8455002136
 31
0.0
  0
LINE
  5
8F
330
63
100
AcDbEntity
  8
0
  6
Continuous
 62
     7
370
    18
100
AcDbLine
 10
76.6545490427
 20
5.8693097374
 30
0.0
 11
78.0344191726
 21
3.5235305166
 31
0.0
  0
LINE
  5
90
330
63
100
AcDbEntity
  8
0
  6
Continuous
 62
     7
370
    18
100
AcDbLine
 10
91.5327615373
 20
4.6257342197
 30
0.0
 11
90.9577457715
 21
13.4579763825
 31
0.0
  0
LINE
  5
91
330
63
100
AcDbEntity
  8
0
  6
Continuous
 62
     7
370
    18
100
AcDbLine
 10
78.6309362756
 20
12.8788539549
 30
0.0
 11
78.8360757629
 21
3.6475770268
 31
0.0
  0
LINE
  5
92
330
63
100
AcDbEntity
  8
0
  6
Continuous
 62
     7
370
    18
100
AcDbLine
 10
80.4094186633
 20
4.6950685544
 30
0.0
 11
90.1819221045
 21
5.4824266516
 31
0.0
  0
LINE
  5
93
330
63
100
AcDbEntity
  8
0
  6
Continuous
 62
     7
370
    18
100
AcDbLine
 10
79.1595373973
 20
3.3551666867
 30
0.0
 11
91.2569309872
 21
4.3071688694
 31
0.0
  0
LINE
  5
94
330
63
100
AcDbEntity
  8
0
  6
Continuous
 62
     7
370
    18
100
AcDbLine
 10
79.2585043218
 20
2.925017226
 30
0.0
 11
80.4858981444
 21
1.533240302
 31
0.0
  0
LINE
  5
95
330
63
100
AcDbEntity
  8
0
  6
Continuous
 62
     7
370
    18
100
AcDbLine
 10
78.0344191726
 20
3.5235305166
 30
0.0
 11
78.3638740472
 21
3.1446574108
 31
0.0
  0
LINE
  5
96
330
63
100
AcDbEntity
  8
0
  6
Continuous
 62
     7
370
    18
100
AcDbLine
 10
78.3638740472
 20
3.1446574108
 30
0.0
 11
78.4680611395
 21
3.0248422547
 31
0.0
  0
LINE
  5
97
330
63
100
AcDbEntity
  8
0
  6
Continuous
 62
     7
370
    18
100
AcDbLine
 10
81.3414110113
 20
1.2002475785
 30
0.0
 11
89.3291569519
 21
2.0477010263
 31
0.0
  0
LINE
  5
98
330
63
100
AcDbEntity
  8
0
  6
Continuous
 62
     7
370
    18
100
AcDbLine
 10
89.8661472522
 20
2.5197759309
 30
0.0
 11
89.8661472522
 21
2.3090867337
 31
0.0
  0
LINE
  5
99
330
63
100
AcDbEntity
  8
0
  6
Continuous
 62
     7
370
    18
100
AcDbLine
 10
88.676842368
 20
3.6762854359
 30
0.0
 11
89.6713239345
 21
2.7875997807
 31
0.0
  0
LINE
  5
9A
330
63
100
AcDbEntity
  8
0
  6
Continuous
 62
     7
370
    18
100
AcDbLine
 10
89.6713239345
 20
2.7875997807
 30
0.0
 11
89.7459749087
 21
2.7242700694
 31
0.0
  0
LINE
  5
9B
330
63
100
AcDbEntity
  8
0
  6
Continuous
 62
     7
370
    18
100
AcDbLine
 10
90.7982178739
 20
3.8455002136
 30
0.0
 11
91.3961615969
 21
4.3514525945
 31
0.0
  0
LINE
  5
9C
330
63
100
AcDbEntity
  8
0
  6
Continuous
 62
     7
370
    18
100
AcDbLine
 10
90.6442498554
 20
13.7381534621
 30
0.0
 11
78.1502930503
 21
13.1490474438
 31
0.0
  0
LINE
  5
9D
330
63
100
AcDbEntity
  8
0
  6
Continuous
 62
     7
370
    18
100
AcDbLine
 10
80.1347709981
 20
12.2388892068
 30
0.0
 11
89.8487925667
 21
12.7550932515
 31
0.0
  0
LINE
  5
9E
330
63
100
AcDbEntity
  8
0
  6
Continuous
 62
     7
370
    18
100
AcDbLine
 10
76.4935641943
 20
11.7567556248
 30
0.0
 11
76.6545490427
 21
5.8693097374
 31
0.0
  0
LINE
  5
9F
330
63
100
AcDbEntity
  8
0
  6
Continuous
 62
     7
370
    18
100
AcDbLine
 10
79.8508616208
 20
11.929182536
 30
0.0
 11
80.0854971721
 21
4.9839702153
 31
0.0
  0
LINE
  5
A0
330
63
100
AcDbEntity
  8
0
  6
Continuous
 62
     7
370
    18
100
AcDbLine
 10
80.5293311574
 20
9.7310185051
 30
0.0
 11
80.6057415643
 21
7.4769115
 31
0.0
  0
LINE
  5
A1
330
63
100
AcDbEntity
  8
0
  6
Continuous
 62
     7
370
    18
100
AcDbLine
 10
77.507650604
 20
12.7708420346
 30
0.0
 11
76.4935641943
 21
11.7567556248
 31
0.0
  0
LINE
  5
A2
330
63
100
AcDbEntity
  8
0
  6
Continuous
 62
     7
370
    18
100
AcDbLine
 10
86.8848195129
 20
11.0661568594
 30
0.0
 11
88.6742167283
 21
11.1634880887
 31
0.0
  0
LINE
  5
A3
330
63
100
AcDbEntity
  8
0
  6
Continuous
 62
     7
370
    18
100
AcDbLine
 10
87.0766213517
 20
6.9287171941
 30
0.0
 11
88.90708891
 21
7.0695223909
 31
0.0
  0
LINE
  5
A4
330
63
100
AcDbEntity
  8
0
  6
Continuous
 62
     7
370
    18
100
AcDbLine
 10
87.6830038473
 20
7.6147347768
 30
0.0
 11
88.8536252418
 21
7.7047825764
 31
0.0
  0
LINE
  5
A5
330
63
100
AcDbEntity
  8
0
  6
Continuous
 62
     7
370
    18
100
AcDbLine
 10
87.5509212094
 20
10.4639459651
 30
0.0
 11
88.7088412777
 21
10.5269290651
 31
0.0
  0
LINE
  5
A6
330
63
100
AcDbEntity
  8
0
  6
Continuous
 62
     7
370
    18
100
AcDbLine
 10
87.0766218384
 20
6.9287066941
 30
0.0
 11
86.8848195129
 21
11.0661568594
 31
0.0
  0
LINE
  5
A7
330
63
100
AcDbEntity
  8
0
  6
Continuous
 62
     7
370
    18
100
AcDbLine
 10
83.7004598825
 20
6.6667911093
 30
0.0
 11
84.5054929504
 21
10.9267193262
 31
0.0
  0
LINE
  5
A8
330
63
100
AcDbEntity
  8
0
  6
Continuous
 62
     7
370
    18
100
AcDbLine
 10
85.3543248406
 20
10.9728900984
 30
0.0
 11
86.4940946704
 21
6.8816860929
 31
0.0
  0
LINE
  5
A9
330
63
100
AcDbEntity
  8
0
  6
Continuous
 62
     7
370
    18
100
AcDbLine
 10
84.9728575427
 20
9.9667192298
 30
0.0
 11
85.4540299774
 21
8.2395506903
 31
0.0
  0
LINE
  5
AA
330
63
100
AcDbEntity
  8
0
  6
Continuous
 62
     7
370
    18
100
AcDbLine
 10
84.6363094629
 20
8.1858350416
 30
0.0
 11
84.9728575427
 21
9.9667192298
 31
0.0
  0
LINE
  5
AB
330
63
100
AcDbEntity
  8
0
  6
Continuous
 62
     7
370
    18
100
AcDbLine
 10
87.6830038473
 20
7.6147347768
 30
0.0
 11
87.5509212094
 21
10.4639459651
 31
0.0
  0
LINE
  5
AC
330
63
100
AcDbEntity
  8
0
  6
Continuous
 62
     7
370
    18
100
AcDbLine
 10
84.6363094629
 20
8.1858350416
 30
0.0
 11
85.4540299774
 21
8.2395506903
 31
0.0
  0
LINE
  5
AD
330
63
100
AcDbEntity
  8
0
  6
Continuous
 62
     7
370
    18
100
AcDbLine
 10
84.5140586807
 20
7.5389304886
 30
0.0
 11
85.6288154243
 21
7.6121582976
 31
0.0
  0
LINE
  5
AE
330
63
100
AcDbEntity
  8
0
  6
Continuous
 62
     7
370
    18
100
AcDbLine
 10
84.3588137958
 20
6.717433718
 30
0.0
 11
84.5140586807
 21
7.5389304886
 31
0.0
  0
LINE
  5
AF
330
63
100
AcDbEntity
  8
0
  6
Continuous
 62
     7
370
    18
100
AcDbLine
 10
81.6818640104
 20
6.5137358601
 30
0.0
 11
82.4802416972
 21
6.5751495283
 31
0.0
  0
LINE
  5
B0
330
63
100
AcDbEntity
  8
0
  6
Continuous
 62
     7
370
    18
100
AcDbLine
 10
81.6329699923
 20
7.1493580946
 30
0.0
 11
82.4313476791
 21
7.2107717628
 31
0.0
  0
LINE
  5
B1
330
63
100
AcDbEntity
  8
0
  6
Continuous
 62
     7
370
    18
100
AcDbLine
 10
83.7004598825
 20
6.6667911093
 30
0.0
 11
84.3588137958
 21
6.717433718
 31
0.0
  0
LINE
  5
B2
330
63
100
AcDbEntity
  8
0
  6
Continuous
 62
     7
370
    18
100
AcDbLine
 10
82.7059483815
 20
9.3512024135
 30
0.0
 11
83.3423973297
 21
9.3930104243
 31
0.0
  0
LINE
  5
B3
330
63
100
AcDbEntity
  8
0
  6
Continuous
 62
     7
370
    18
100
AcDbLine
 10
82.7491656358
 20
8.0762934118
 30
0.0
 11
83.385614584
 21
8.1181014226
 31
0.0
  0
LINE
  5
B4
330
63
100
AcDbEntity
  8
0
  6
Continuous
 62
     7
370
    18
100
AcDbLine
 10
81.1664651987
 20
9.7526162692
 30
0.0
 11
81.2428756056
 21
7.4985092641
 31
0.0
  0
LINE
  5
B5
330
63
100
AcDbEntity
  8
0
  6
Continuous
 62
     7
370
    18
100
AcDbLine
 10
82.6900353128
 20
9.8206379383
 30
0.0
 11
82.7052632884
 21
9.3714126602
 31
0.0
  0
LINE
  5
B6
330
63
100
AcDbEntity
  8
0
  6
Continuous
 62
     7
370
    18
100
AcDbLine
 10
82.7491656358
 20
8.0762934118
 30
0.0
 11
82.7658371041
 21
7.5844850954
 31
0.0
  0
LINE
  5
B7
330
63
100
AcDbEntity
  8
0
  6
Continuous
 62
     7
370
    18
100
AcDbLine
 10
83.3271693541
 20
9.8422357024
 30
0.0
 11
83.3423973297
 21
9.3930104243
 31
0.0
  0
LINE
  5
B8
330
63
100
AcDbEntity
  8
0
  6
Continuous
 62
     7
370
    18
100
AcDbLine
 10
83.385614584
 20
8.1181014226
 30
0.0
 11
83.4029711454
 21
7.6060828595
 31
0.0
  0
LINE
  5
B9
330
63
100
AcDbEntity
  8
0
  6
Continuous
 62
     7
370
    18
100
AcDbLine
 10
85.6288154243
 20
7.6121582976
 30
0.0
 11
85.8462022593
 21
6.8318482152
 31
0.0
  0
LINE
  5
BA
330
63
100
AcDbEntity
  8
0
  6
Continuous
 62
     7
370
    18
100
AcDbLine
 10
85.8462022593
 20
6.8318482152
 30
0.0
 11
86.4940946704
 21
6.8816860929
 31
0.0
  0
LINE
  5
BB
330
63
100
AcDbEntity
  8
0
  6
Continuous
 62
     7
370
    18
100
AcDbLine
 10
84.5054929504
 20
10.9267193262
 30
0.0
 11
85.3543248406
 21
10.9728900984
 31
0.0
  0
LINE
  5
BC
330
63
100
AcDbEntity
  8
0
  6
Continuous
 62
     7
370
    18
100
AcDbLine
 10
81.4744440858
 20
10.7634213094
 30
0.0
 11
82.2734303883
 21
10.8068808154
 31
0.0
  0
LINE
  5
BD
330
63
100
AcDbEntity
  8
0
  6
Continuous
 62
     7
370
    18
100
AcDbLine
 10
81.5090686352
 20
10.1268622858
 30
0.0
 11
82.3080549377
 21
10.1703217918
 31
0.0
  0
LINE
  5
BE
330
63
100
AcDbEntity
  8
0
  6
Continuous
 62
     7
370
    18
100
AcDbLine
 10
90.4575406452
 20
5.7946206556
 30
0.0
 11
90.1644232213
 21
12.4686789239
 31
0.0
  0
LINE
  5
BF
330
63
100
AcDbEntity
  8
0
  6
Continuous
 62
     7
370
    18
100
AcDbLine
 10
89.8247499755
 20
8.1125227115
 30
0.0
 11
89.7274569615
 21
10.2112720142
 31
0.0
  0
LINE
  5
C0
330
63
100
AcDbEntity
  8
0
  6
Continuous
 62
     7
370
    18
100
AcDbLine
 10
89.1879338763
 20
8.0830014354
 30
0.0
 11
89.0906408622
 21
10.181750738
 31
0.0
  0
LINE
  5
C1
330
63
100
AcDbEntity
  8
0
  6
Continuous
 62
     7
370
    18
100
AcDbLine
 10
89.7459749087
 20
2.7242700694
 30
0.0
 11
89.7974962577
 21
2.6659765769
 31
0.0
  0
LINE
  5
C2
330
63
100
AcDbEntity
  8
0
  6
Continuous
 62
     7
370
    18
100
AcDbLine
 10
89.7974962577
 20
2.6659765769
 30
0.0
 11
89.8351851379
 21
2.60192886
 31
0.0
  0
LINE
  5
C3
330
63
100
AcDbEntity
  8
0
  6
Continuous
 62
     7
370
    18
100
AcDbLine
 10
89.8351851379
 20
2.60192886
 30
0.0
 11
89.8661472522
 21
2.5197759309
 31
0.0
  0
LINE
  5
C4
330
63
100
AcDbEntity
  8
0
  6
Continuous
 62
     7
370
    18
100
AcDbLine
 10
10.6119938288
 20
7.2203138351
 30
0.0
 11
11.2200151261
 21
7.5713550947
 31
0.0
  0
LINE
  5
C5
330
63
100
AcDbEntity
  8
0
  6
Continuous
 62
     7
370
    18
100
AcDbLine
 10
11.2347279503
 20
5.2647430194
 30
0.0
 11
10.6267781168
 21
5.6157430194
 31
0.0
  0
LINE
  5
C6
330
63
100
AcDbEntity
  8
0
  6
Continuous
 62
     7
370
    18
100
AcDbLine
 10
6.4645062371
 20
16.1712617198
 30
0.0
 11
6.4645062371
 21
2.9364593988
 31
0.0
  0
LINE
  5
C7
330
63
100
AcDbEntity
  8
0
  6
Continuous
 62
     7
370
    18
100
AcDbLine
 10
6.4645062371
 20
2.9364593988
 30
0.0
 11
12.0532757459
 21
2.9364593988
 31
0.0
  0
LINE
  5
C8
330
63
100
AcDbEntity
  8
0
  6
Continuous
 62
     7
370
    18
100
AcDbLine
 10
12.0532757459
 20
2.9364593988
 30
0.0
 11
12.0532757459
 21
16.1712617198
 31
0.0
  0
LINE
  5
C9
330
63
100
AcDbEntity
  8
0
  6
Continuous
 62
     7
370
    18
100
AcDbLine
 10
12.0532757459
 20
16.1712617198
 30
0.0
 11
6.4645062371
 21
16.1712617198
 31
0.0
  0
LINE
  5
CA
330
63
100
AcDbEntity
  8
0
  6
Continuous
 62
     7
370
    18
100
AcDbLine
 10
0.0
 20
16.1712617198
 30
0.0
 11
0.0
 21
2.9364593988
 31
0.0
  0
LINE
  5
CB
330
63
100
AcDbEntity
  8
0
  6
Continuous
 62
     7
370
    18
100
AcDbLine
 10
0.0
 20
2.9364593988
 30
0.0
 11
5.5887695089
 21
2.9364593988
 31
0.0
  0
LINE
  5
CC
330
63
100
AcDbEntity
  8
0
  6
Continuous
 62
     7
370
    18
100
AcDbLine
 10
5.5887695089
 20
2.9364593988
 30
0.0
 11
5.5887695089
 21
16.1712617198
 31
0.0
  0
LINE
  5
CD
330
63
100
AcDbEntity
  8
0
  6
Continuous
 62
     7
370
    18
100
AcDbLine
 10
5.5887695089
 20
16.1712617198
 30
0.0
 11
0.0
 21
16.1712617198
 31
0.0
  0
LINE
  5
CE
330
63
100
AcDbEntity
  8
0
  6
Continuous
 62
     7
370
    18
100
AcDbLine
 10
1.2591262606
 20
4.7264381407
 30
0.0
 11
4.3296432482
 21
4.7264381407
 31
0.0
  0
LINE
  5
CF
330
63
100
AcDbEntity
  8
0
  6
Continuous
 62
     7
370
    18
100
AcDbLine
 10
4.3738223747
 20
4.0932862697
 30
0.0
 11
5.0758301722
 21
4.0932862697
 31
0.0
  0
LINE
  5
D0
330
63
100
AcDbEntity
  8
0
  6
Continuous
 62
     7
370
    18
100
AcDbLine
 10
0.5129393366
 20
4.0932862697
 30
0.0
 11
1.2149471342
 21
4.0932862697
 31
0.0
  0
LINE
  5
D1
330
63
100
AcDbEntity
  8
0
  6
Continuous
 62
     7
370
    18
100
AcDbLine
 10
4.1819643097
 20
5.4284381407
 30
0.0
 11
1.4068051992
 21
5.4284381407
 31
0.0
  0
LINE
  5
D2
330
63
100
AcDbEntity
  8
0
  6
Continuous
 62
     7
370
    18
100
AcDbLine
 10
18.517781983
 20
16.1712617198
 30
0.0
 11
18.517781983
 21
2.9364593988
 31
0.0
  0
LINE
  5
D3
330
63
100
AcDbEntity
  8
0
  6
Continuous
 62
     7
370
    18
100
AcDbLine
 10
18.517781983
 20
2.9364593988
 30
0.0
 11
12.9290124742
 21
2.9364593988
 31
0.0
  0
LINE
  5
D4
330
63
100
AcDbEntity
  8
0
  6
Continuous
 62
     7
370
    18
100
AcDbLine
 10
12.9290124742
 20
2.9364593988
 30
0.0
 11
12.9290124742
 21
16.1712617198
 31
0.0
  0
LINE
  5
D5
330
63
100
AcDbEntity
  8
0
  6
Continuous
 62
     7
370
    18
100
AcDbLine
 10
12.9290124742
 20
16.1712617198
 30
0.0
 11
18.517781983
 21
16.1712617198
 31
0.0
  0
INSERT
  5
DB
330
63
100
AcDbEntity
  8
0
  6
Continuous
 62
     7
370
     0
100
AcDbBlockReference
  2
SW_NOTE_0
 10
1.8998941161
 20
-0.3226565443
 30
0.0
  0
INSERT
  5
E0
330
63
100
AcDbEntity
  8
0
  6
Continuous
 62
     7
370
     0
100
AcDbBlockReference
  2
SW_NOTE_0_1
 10
29.1164837035
 20
12.7459167441
 30
0.0
  0
INSERT
  5
E8
330
63
100
AcDbEntity
  8
0
  6
Continuous
 62
     7
370
     0
100
AcDbBlockReference
  2
SW_NOTE_0_2
 10
28.8863479825
 20
8.6365742194
 30
0.0
  0
ENDBLK
  5
65
330
63
100
AcDbEntity
  8
0
100
AcDbBlockEnd
  0
BLOCK
  5
D7
330
D6
100
AcDbEntity
  8
0
100
AcDbBlockBegin
  2
SW_NOTE_0
 70
     0
 10
0.0
 20
0.0
 30
0.0
  3
SW_NOTE_0
  1

  0
MTEXT
  5
DA
330
D6
100
AcDbEntity
  8
0
  6
Continuous
 62
     0
370
     0
100
AcDbMText
 10
7.46875
 20
2.5781354795
 30
0.0
 40
2.0
 41
0.0
 71
     2
 72
     1
  1
www.aco.ch
  7
SLDTEXTSTYLE0
 73
     1
 44
1.0
  0
ENDBLK
  5
D8
330
D6
100
AcDbEntity
  8
0
100
AcDbBlockEnd
  0
BLOCK
  5
DD
330
DC
100
AcDbEntity
  8
0
100
AcDbBlockBegin
  2
SW_NOTE_0_1
 70
     0
 10
0.0
 20
0.0
 30
0.0
  3
SW_NOTE_0_1
  1

  0
MTEXT
  5
DF
330
DC
100
AcDbEntity
  8
0
  6
Continuous
 62
     0
370
     0
100
AcDbMText
 10
0.0
 20
3.8672032193
 30
0.0
 40
3.0
 41
0.0
 71
     1
 72
     1
  1
ACO AG
  7
SLDTEXTSTYLE0
 73
     1
 44
1.0
  0
ENDBLK
  5
DE
330
DC
100
AcDbEntity
  8
0
100
AcDbBlockEnd
  0
BLOCK
  5
E2
330
E1
100
AcDbEntity
  8
0
100
AcDbBlockBegin
  2
SW_NOTE_0_2
 70
     0
 10
0.0
 20
0.0
 30
0.0
  3
SW_NOTE_0_2
  1

  0
MTEXT
  5
E4
330
E1
100
AcDbEntity
  8
0
  6
Continuous
 62
     0
370
     0
100
AcDbMText
 10
0.0
 20
2.5781354795
 30
0.0
 40
2.0
 41
0.0
 71
     1
 72
     1
  1
Industrie Kleinzaun
  7
SLDTEXTSTYLE0
 73
     1
 44
1.0
  0
MTEXT
  5
E5
330
E1
100
AcDbEntity
  8
0
  6
Continuous
 62
     0
370
     0
100
AcDbMText
 10
0.0
 20
-0.4218645465
 30
0.0
 40
2.0
 41
0.0
 71
     1
 72
     1
  1
CH-8754 Netstal
  7
SLDTEXTSTYLE0
 73
     1
 44
1.0
  0
MTEXT
  5
E6
330
E1
100
AcDbEntity
  8
0
  6
Continuous
 62
     0
370
     0
100
AcDbMText
 10
0.0
 20
-3.4218645726
 30
0.0
 40
2.0
 41
0.0
 71
     1
 72
     1
  1
Tel. 055 / 645 53 00
  7
SLDTEXTSTYLE0
 73
     1
 44
1.0
  0
MTEXT
  5
E7
330
E1
100
AcDbEntity
  8
0
  6
Continuous
 62
     0
370
     0
100
AcDbMText
 10
0.0
 20
-6.4218645987
 30
0.0
 40
2.0
 41
0.0
 71
     1
 72
     1
  1
E-Mail: aco@aco.ch
  7
SLDTEXTSTYLE0
 73
     1
 44
1.0
  0
ENDBLK
  5
E3
330
E1
100
AcDbEntity
  8
0
100
AcDbBlockEnd
  0
BLOCK
  5
29F
330
29E
100
AcDbEntity
  8
0
100
AcDbBlockBegin
  2
_D
 70
     0
 10
0.0
 20
0.0
 30
0.0
  3
_D
  1

  0
SOLID
  5
2A1
330
29E
100
AcDbEntity
  8
0
  6
Continuous
 62
     7
370
    18
100
AcDbTrace
 10
85.958609341
 20
262.2518281799
 30
0.0
 11
89.458609341
 21
261.7133666414
 31
0.0
 12
89.458609341
 22
262.7902897183
 32
0.0
 13
89.458609341
 23
262.7902897183
 33
0.0
  0
SOLID
  5
2A2
330
29E
100
AcDbEntity
  8
0
  6
Continuous
 62
     7
370
    18
100
AcDbTrace
 10
193.958609341
 20
262.2518281799
 30
0.0
 11
190.458609341
 21
262.7902897183
 31
0.0
 12
190.458609341
 22
261.7133666414
 32
0.0
 13
190.458609341
 23
261.7133666414
 33
0.0
  0
LINE
  5
2A3
330
29E
100
AcDbEntity
  8
0
  6
Continuous
 62
     7
370
     0
100
AcDbLine
 10
85.958609341
 20
250.8518281799
 30
0.0
 11
85.958609341
 21
263.2518281799
 31
0.0
  0
LINE
  5
2A4
330
29E
100
AcDbEntity
  8
0
  6
Continuous
 62
     7
370
     0
100
AcDbLine
 10
193.958609341
 20
250.8518281799
 30
0.0
 11
193.958609341
 21
263.2518281799
 31
0.0
  0
LINE
  5
2A5
330
29E
100
AcDbEntity
  8
0
  6
Continuous
 62
     7
370
     0
100
AcDbLine
 10
85.958609341
 20
262.2518281799
 30
0.0
 11
193.958609341
 21
262.2518281799
 31
0.0
  0
MTEXT
  5
2A6
330
29E
100
AcDbEntity
  8
0
  6
Continuous
 62
     7
370
    18
100
AcDbMText
 10
133.3967172339
 20
266.7635652691
 30
0.0
 40
3.5
 41
0.0
 71
     1
 72
     1
  1
%%c
  7
SLDTEXTSTYLE0
 73
     1
 44
1.0
  0
MTEXT
  5
2A7
330
29E
100
AcDbEntity
  8
0
  6
Continuous
 62
     7
370
    18
100
AcDbMText
 10
138.4996687791
 20
266.7732875782
 30
0.0
 40
3.5
 41
0.0
 71
     1
 72
     1
  1
108
  7
SLDTEXTSTYLE0
 73
     1
 44
1.0
  0
ENDBLK
  5
2A0
330
29E
100
AcDbEntity
  8
0
100
AcDbBlockEnd
  0
BLOCK
  5
2AA
330
2A9
100
AcDbEntity
  8
0
100
AcDbBlockBegin
  2
_D_1
 70
     0
 10
0.0
 20
0.0
 30
0.0
  3
_D_1
  1

  0
SOLID
  5
2AC
330
2A9
100
AcDbEntity
  8
0
  6
Continuous
 62
     7
370
    18
100
AcDbTrace
 10
78.4911627907
 20
225.8268281799
 30
0.0
 11
77.9527012522
 21
222.3268281799
 31
0.0
 12
79.0296243292
 22
222.3268281799
 32
0.0
 13
79.0296243292
 23
222.3268281799
 33
0.0
  0
SOLID
  5
2AD
330
2A9
100
AcDbEntity
  8
0
  6
Continuous
 62
     7
370
    18
100
AcDbTrace
 10
78.4911627907
 20
175.8268281799
 30
0.0
 11
79.0296243292
 21
179.3268281799
 31
0.0
 12
77.9527012522
 22
179.3268281799
 32
0.0
 13
77.9527012522
 23
179.3268281799
 33
0.0
  0
LINE
  5
2AE
330
2A9
100
AcDbEntity
  8
0
  6
Continuous
 62
     7
370
     0
100
AcDbLine
 10
93.858609341
 20
225.8268281799
 30
0.0
 11
77.4911627907
 21
225.8268281799
 31
0.0
  0
LINE
  5
2AF
330
2A9
100
AcDbEntity
  8
0
  6
Continuous
 62
     7
370
     0
100
AcDbLine
 10
105.858609341
 20
175.8268281799
 30
0.0
 11
77.4911627907
 21
175.8268281799
 31
0.0
  0
LINE
  5
2B0
330
2A9
100
AcDbEntity
  8
0
  6
Continuous
 62
     7
370
     0
100
AcDbLine
 10
78.4911627907
 20
225.8268281799
 30
0.0
 11
78.4911627907
 21
175.8268281799
 31
0.0
  0
MTEXT
  5
2B1
330
2A9
100
AcDbEntity
  8
0
  6
Continuous
 62
     7
370
    18
100
AcDbMText
 10
73.9794254687
 20
198.153217135
 30
0.0
 40
3.5
 41
0.0
 71
     1
 72
     1
  1
50
  7
SLDTEXTSTYLE0
 11
-4.379659758543259E-15
 21
1.0
 31
0.0
 73
     1
 44
1.0
  0
ENDBLK
  5
2AB
330
2A9
100
AcDbEntity
  8
0
100
AcDbBlockEnd
  0
BLOCK
  5
2B5
330
2B4
100
AcDbEntity
  8
0
100
AcDbBlockBegin
  2
_D_2
 70
     0
 10
0.0
 20
0.0
 30
0.0
  3
_D_2
  1

  0
SOLID
  5
2B7
330
2B4
100
AcDbEntity
  8
0
  6
Continuous
 62
     7
370
    18
100
AcDbTrace
 10
65.2904240847
 20
252.2518281799
 30
0.0
 11
64.7519625463
 21
248.7518281799
 31
0.0
 12
65.8288856232
 22
248.7518281799
 32
0.0
 13
65.8288856232
 23
248.7518281799
 33
0.0
  0
SOLID
  5
2B8
330
2B4
100
AcDbEntity
  8
0
  6
Continuous
 62
     7
370
    18
100
AcDbTrace
 10
65.2904240847
 20
160.8268281799
 30
0.0
 11
65.8288856232
 21
164.3268281799
 31
0.0
 12
64.7519625463
 22
164.3268281799
 32
0.0
 13
64.7519625463
 23
164.3268281799
 33
0.0
  0
LINE
  5
2B9
330
2B4
100
AcDbEntity
  8
0
  6
Continuous
 62
     7
370
     0
100
AcDbLine
 10
87.108609341
 20
252.2518281799
 30
0.0
 11
64.2904240847
 21
252.2518281799
 31
0.0
  0
LINE
  5
2BA
330
2B4
100
AcDbEntity
  8
0
  6
Continuous
 62
     7
370
     0
100
AcDbLine
 10
109.8585831219
 20
160.8268281799
 30
0.0
 11
64.2904240847
 21
160.8268281799
 31
0.0
  0
LINE
  5
2BB
330
2B4
100
AcDbEntity
  8
0
  6
Continuous
 62
     7
370
     0
100
AcDbLine
 10
65.2904240847
 20
252.2518281799
 30
0.0
 11
65.2904240847
 21
160.8268281799
 31
0.0
  0
MTEXT
  5
2BC
330
2B4
100
AcDbEntity
  8
0
  6
Continuous
 62
     7
370
    18
100
AcDbMText
 10
60.7786867627
 20
201.8605088513
 30
0.0
 40
3.5
 41
0.0
 71
     1
 72
     1
  1
91.4
  7
SLDTEXTSTYLE0
 11
-7.044195017643634E-15
 21
1.0
 31
0.0
 73
     1
 44
1.0
  0
ENDBLK
  5
2B6
330
2B4
100
AcDbEntity
  8
0
100
AcDbBlockEnd
  0
BLOCK
  5
2BF
330
2BE
100
AcDbEntity
  8
0
100
AcDbBlockBegin
  2
_D_3
 70
     0
 10
0.0
 20
0.0
 30
0.0
  3
_D_3
  1

  0
SOLID
  5
2C1
330
2BE
100
AcDbEntity
  8
0
  6
Continuous
 62
     7
370
    18
100
AcDbTrace
 10
185.958609341
 20
150.824849561
 30
0.0
 11
182.458609341
 21
151.3633110995
 31
0.0
 12
182.458609341
 22
150.2863880225
 32
0.0
 13
182.458609341
 23
150.2863880225
 33
0.0
  0
SOLID
  5
2C2
330
2BE
100
AcDbEntity
  8
0
  6
Continuous
 62
     7
370
    18
100
AcDbTrace
 10
93.958609341
 20
150.824849561
 30
0.0
 11
97.458609341
 21
150.2863880225
 31
0.0
 12
97.458609341
 22
151.3633110995
 32
0.0
 13
97.458609341
 23
151.3633110995
 33
0.0
  0
LINE
  5
2C3
330
2BE
100
AcDbEntity
  8
0
  6
Continuous
 62
     7
370
     0
100
AcDbLine
 10
185.958609341
 20
176.7268281799
 30
0.0
 11
185.958609341
 21
149.824849561
 31
0.0
  0
LINE
  5
2C4
330
2BE
100
AcDbEntity
  8
0
  6
Continuous
 62
     7
370
     0
100
AcDbLine
 10
93.958609341
 20
176.7268281799
 30
0.0
 11
93.958609341
 21
149.824849561
 31
0.0
  0
LINE
  5
2C5
330
2BE
100
AcDbEntity
  8
0
  6
Continuous
 62
     7
370
     0
100
AcDbLine
 10
185.958609341
 20
150.824849561
 30
0.0
 11
93.958609341
 21
150.824849561
 31
0.0
  0
MTEXT
  5
2C6
330
2BE
100
AcDbEntity
  8
0
  6
Continuous
 62
     7
370
    18
100
AcDbMText
 10
134.7335227563
 20
155.3365866502
 30
0.0
 40
3.5
 41
0.0
 71
     1
 72
     1
  1
%%c
  7
SLDTEXTSTYLE0
 73
     1
 44
1.0
  0
MTEXT
  5
2C7
330
2BE
100
AcDbEntity
  8
0
  6
Continuous
 62
     7
370
    18
100
AcDbMText
 10
139.8364743016
 20
155.3463089594
 30
0.0
 40
3.5
 41
0.0
 71
     1
 72
     1
  1
92
  7
SLDTEXTSTYLE0
 73
     1
 44
1.0
  0
ENDBLK
  5
2C0
330
2BE
100
AcDbEntity
  8
0
100
AcDbBlockEnd
  0
ENDSEC
  0
SECTION
  2
ENTITIES
  0
LINE
  5
E9
330
1F
100
AcDbEntity
  8
0
  6
CENTERX2
 62
     7
370
    18
100
AcDbLine
 10
352.6174545849
 20
46.9080238789
 30
0.0
 11
352.6174545849
 21
39.4621586124
 31
0.0
  0
LINE
  5
EA
330
1F
100
AcDbEntity
  8
0
  6
Continuous
 62
     7
370
    18
100
AcDbLine
 10
357.7661698132
 20
46.3720107039
 30
0.0
 11
357.7661698132
 21
39.9353173413
 31
0.0
  0
LINE
  5
EB
330
1F
100
AcDbEntity
  8
0
  6
Continuous
 62
     7
370
    18
100
AcDbLine
 10
364.6059427486
 20
44.7376225767
 30
0.0
 11
364.6059427486
 21
41.5697054685
 31
0.0
  0
LINE
  5
EC
330
1F
100
AcDbEntity
  8
0
  6
Continuous
 62
     7
370
    18
100
AcDbLine
 10
364.6059427486
 20
44.7376225767
 30
0.0
 11
357.7661698132
 21
46.3720107039
 31
0.0
  0
LINE
  5
ED
330
1F
100
AcDbEntity
  8
0
  6
Continuous
 62
     7
370
    18
100
AcDbLine
 10
15.0
 20
198.5
 30
0.0
 11
20.0
 21
198.5
 31
0.0
  0
LINE
  5
EE
330
1F
100
AcDbEntity
  8
0
  6
Continuous
 62
     7
370
    18
100
AcDbLine
 10
12.0
 20
148.5
 30
0.0
 11
0.0
 21
148.5
 31
0.0
  0
LINE
  5
EF
330
1F
100
AcDbEntity
  8
0
  6
Continuous
 62
     7
370
    18
100
AcDbLine
 10
357.7661698132
 20
39.9353173413
 30
0.0
 11
364.6059427486
 21
41.5697054685
 31
0.0
  0
LINE
  5
F0
330
1F
100
AcDbEntity
  8
0
  6
CENTERX2
 62
     7
370
    18
100
AcDbLine
 10
348.6240467841
 20
43.1536640226
 30
0.0
 11
356.6108623857
 21
43.1536640226
 31
0.0
  0
LINE
  5
F1
330
1F
100
AcDbEntity
  8
0
  6
CENTERX2
 62
     7
370
    18
100
AcDbLine
 10
357.1289238876
 20
43.1536640226
 30
0.0
 11
365.6255362296
 21
43.1536640226
 31
0.0
  0
LINE
  5
F2
330
1F
100
AcDbEntity
  8
0
  6
Continuous
 62
     7
370
    18
100
AcDbLine
 10
0.0
 20
0.0
 30
0.0
 11
420.0
 21
0.0
 31
0.0
  0
LINE
  5
F3
330
1F
100
AcDbEntity
  8
0
  6
Continuous
 62
     7
370
    18
100
AcDbLine
 10
0.0
 20
0.0
 30
0.0
 11
0.0
 21
297.0
 31
0.0
  0
LINE
  5
F4
330
1F
100
AcDbEntity
  8
0
  6
Continuous
 62
     7
370
    18
100
AcDbLine
 10
0.0
 20
297.0
 30
0.0
 11
420.0
 21
297.0
 31
0.0
  0
LINE
  5
F5
330
1F
100
AcDbEntity
  8
0
  6
Continuous
 62
     7
370
    18
100
AcDbLine
 10
420.0
 20
0.0
 30
0.0
 11
420.0
 21
297.0
 31
0.0
  0
LINE
  5
F6
330
1F
100
AcDbEntity
  8
0
  6
Continuous
 62
     7
370
    25
100
AcDbLine
 10
228.0
 20
35.0
 30
0.0
 11
410.0
 21
35.0
 31
0.0
  0
LINE
  5
F7
330
1F
100
AcDbEntity
  8
0
  6
Continuous
 62
     7
370
    18
100
AcDbLine
 10
410.0
 20
198.5
 30
0.0
 11
415.0
 21
198.5
 31
0.0
  0
LINE
  5
F8
330
1F
100
AcDbEntity
  8
0
  6
Continuous
 62
     7
370
    18
100
AcDbLine
 10
15.0
 20
148.5
 30
0.0
 11
20.0
 21
148.5
 31
0.0
  0
LINE
  5
F9
330
1F
100
AcDbEntity
  8
0
  6
Continuous
 62
     7
370
    18
100
AcDbLine
 10
228.0
 20
40.0
 30
0.0
 11
296.6
 21
40.0
 31
0.0
  0
LINE
  5
FA
330
1F
100
AcDbEntity
  8
0
  6
Continuous
 62
     7
370
    18
100
AcDbLine
 10
15.0
 20
248.5
 30
0.0
 11
20.0
 21
248.5
 31
0.0
  0
LINE
  5
FB
330
1F
100
AcDbEntity
  8
0
  6
Continuous
 62
     7
370
    35
100
AcDbLine
 10
20.0
 20
287.0
 30
0.0
 11
20.0
 21
10.0
 31
0.0
  0
LINE
  5
FC
330
1F
100
AcDbEntity
  8
0
  6
Continuous
 62
     7
370
    35
100
AcDbLine
 10
410.0
 20
287.0
 30
0.0
 11
20.0
 21
287.0
 31
0.0
  0
LINE
  5
FD
330
1F
100
AcDbEntity
  8
0
  6
Continuous
 62
     7
370
    35
100
AcDbLine
 10
410.0
 20
5.0
 30
0.0
 11
410.0
 21
287.0
 31
0.0
  0
LINE
  5
FE
330
1F
100
AcDbEntity
  8
0
  6
Continuous
 62
     7
370
    35
100
AcDbLine
 10
20.0
 20
10.0
 30
0.0
 11
415.0
 21
10.0
 31
0.0
  0
LINE
  5
FF
330
1F
100
AcDbEntity
  8
0
  6
Continuous
 62
     7
370
    18
100
AcDbLine
 10
410.0
 20
148.5
 30
0.0
 11
415.0
 21
148.5
 31
0.0
  0
LINE
  5
100
330
1F
100
AcDbEntity
  8
0
  6
Continuous
 62
     7
370
    18
100
AcDbLine
 10
228.0
 20
50.0
 30
0.0
 11
296.6
 21
50.0
 31
0.0
  0
LINE
  5
101
330
1F
100
AcDbEntity
  8
0
  6
Continuous
 62
     7
370
    18
100
AcDbLine
 10
15.0
 20
98.5
 30
0.0
 11
20.0
 21
98.5
 31
0.0
  0
LINE
  5
102
330
1F
100
AcDbEntity
  8
0
  6
Continuous
 62
     7
370
    18
100
AcDbLine
 10
296.6
 20
45.0
 30
0.0
 11
228.0
 21
45.0
 31
0.0
  0
LINE
  5
103
330
1F
100
AcDbEntity
  8
0
  6
Continuous
 62
     7
370
    18
100
AcDbLine
 10
65.0
 20
292.0
 30
0.0
 11
65.0
 21
287.0
 31
0.0
  0
LINE
  5
104
330
1F
100
AcDbEntity
  8
0
  6
Continuous
 62
     7
370
    18
100
AcDbLine
 10
230.0
 20
292.0
 30
0.0
 11
230.0
 21
297.0
 31
0.0
  0
LINE
  5
105
330
1F
100
AcDbEntity
  8
0
  6
Continuous
 62
     7
370
    25
100
AcDbLine
 10
296.6
 20
55.0
 30
0.0
 11
296.6
 21
35.0
 31
0.0
  0
LINE
  5
106
330
1F
100
AcDbEntity
  8
0
  6
Continuous
 62
     7
370
    18
100
AcDbLine
 10
410.0
 20
98.5
 30
0.0
 11
415.0
 21
98.5
 31
0.0
  0
LINE
  5
107
330
1F
100
AcDbEntity
  8
0
100
AcDbLine
 10
230.0
 20
5.0
 30
0.0
 11
230.0
 21
0.0
 31
0.0
  0
LINE
  5
108
330
1F
100
AcDbEntity
  8
0
  6
Continuous
 62
     7
370
    18
100
AcDbLine
 10
125.0
 20
292.0
 30
0.0
 11
125.0
 21
297.0
 31
0.0
  0
LINE
  5
109
330
1F
100
AcDbEntity
  8
0
  6
Continuous
 62
     7
370
    18
100
AcDbLine
 10
125.0
 20
5.0
 30
0.0
 11
125.0
 21
0.0
 31
0.0
  0
LINE
  5
10A
330
1F
100
AcDbEntity
  8
0
  6
Continuous
 62
     7
370
    25
100
AcDbLine
 10
410.0
 20
55.0
 30
0.0
 11
228.0
 21
55.0
 31
0.0
  0
LINE
  5
10B
330
1F
100
AcDbEntity
  8
0
  6
Continuous
 62
     7
370
    18
100
AcDbLine
 10
228.0
 20
55.0
 30
0.0
 11
410.0
 21
55.0
 31
0.0
  0
LINE
  5
10C
330
1F
100
AcDbEntity
  8
0
  6
Continuous
 62
     7
370
    18
100
AcDbLine
 10
410.0
 20
55.0
 30
0.0
 11
228.0
 21
55.0
 31
0.0
  0
LINE
  5
10D
330
1F
100
AcDbEntity
  8
0
  6
Continuous
 62
     7
370
    18
100
AcDbLine
 10
268.0
 20
76.5
 30
0.0
 11
268.0
 21
55.0
 31
0.0
  0
LINE
  5
10E
330
1F
100
AcDbEntity
  8
0
  6
Continuous
 62
     7
370
    18
100
AcDbLine
 10
271.6
 20
55.0
 30
0.0
 11
271.6
 21
40.0
 31
0.0
  0
LINE
  5
10F
330
1F
100
AcDbEntity
  8
0
  6
Continuous
 62
     7
370
    18
100
AcDbLine
 10
247.0
 20
55.0
 30
0.0
 11
247.0
 21
35.0
 31
0.0
  0
LINE
  5
110
330
1F
100
AcDbEntity
  8
0
  6
Continuous
 62
     7
370
    35
100
AcDbLine
 10
228.0
 20
76.5
 30
0.0
 11
228.0
 21
10.0
 31
0.0
  0
LINE
  5
111
330
1F
100
AcDbEntity
  8
0
  6
Continuous
 62
     7
370
    18
100
AcDbLine
 10
15.0
 20
292.0
 30
0.0
 11
415.0
 21
292.0
 31
0.0
  0
LINE
  5
112
330
1F
100
AcDbEntity
  8
0
  6
Continuous
 62
     7
370
    18
100
AcDbLine
 10
228.0
 20
65.75
 30
0.0
 11
310.0
 21
65.75
 31
0.0
  0
LINE
  5
113
330
1F
100
AcDbEntity
  8
0
  6
Continuous
 62
     7
370
    35
100
AcDbLine
 10
228.0
 20
76.5
 30
0.0
 11
410.0
 21
76.5
 31
0.0
  0
LINE
  5
114
330
1F
100
AcDbEntity
  8
0
  6
Continuous
 62
     7
370
    18
100
AcDbLine
 10
15.0
 20
48.5
 30
0.0
 11
20.0
 21
48.5
 31
0.0
  0
LINE
  5
115
330
1F
100
AcDbEntity
  8
0
  6
Continuous
 62
     7
370
    18
100
AcDbLine
 10
410.0
 20
48.5
 30
0.0
 11
415.0
 21
48.5
 31
0.0
  0
LINE
  5
116
330
1F
100
AcDbEntity
  8
0
  6
Continuous
 62
     7
370
    18
100
AcDbLine
 10
332.6610845472
 20
20.0
 30
0.0
 11
332.6610845472
 21
10.0
 31
0.0
  0
LINE
  5
117
330
1F
100
AcDbEntity
  8
0
  6
Continuous
 62
     7
370
    18
100
AcDbLine
 10
410.0
 20
248.5
 30
0.0
 11
415.0
 21
248.5
 31
0.0
  0
LINE
  5
118
330
1F
100
AcDbEntity
  8
0
  6
Continuous
 62
     7
370
    18
100
AcDbLine
 10
65.0
 20
10.0
 30
0.0
 11
65.0
 21
5.0
 31
0.0
  0
LINE
  5
119
330
1F
100
AcDbEntity
  8
0
  6
Continuous
 62
     7
370
    18
100
AcDbLine
 10
115.0
 20
10.0
 30
0.0
 11
115.0
 21
5.0
 31
0.0
  0
LINE
  5
11A
330
1F
100
AcDbEntity
  8
0
  6
Continuous
 62
     7
370
    18
100
AcDbLine
 10
115.0
 20
292.0
 30
0.0
 11
115.0
 21
287.0
 31
0.0
  0
LINE
  5
11B
330
1F
100
AcDbEntity
  8
0
  6
Continuous
 62
     7
370
    18
100
AcDbLine
 10
165.0
 20
10.0
 30
0.0
 11
165.0
 21
5.0
 31
0.0
  0
LINE
  5
11C
330
1F
100
AcDbEntity
  8
0
  6
Continuous
 62
     7
370
    18
100
AcDbLine
 10
165.0
 20
292.0
 30
0.0
 11
165.0
 21
287.0
 31
0.0
  0
LINE
  5
11D
330
1F
100
AcDbEntity
  8
0
  6
Continuous
 62
     7
370
    18
100
AcDbLine
 10
215.0
 20
10.0
 30
0.0
 11
215.0
 21
5.0
 31
0.0
  0
LINE
  5
11E
330
1F
100
AcDbEntity
  8
0
  6
Continuous
 62
     7
370
    18
100
AcDbLine
 10
215.0
 20
292.0
 30
0.0
 11
215.0
 21
287.0
 31
0.0
  0
LINE
  5
11F
330
1F
100
AcDbEntity
  8
0
  6
Continuous
 62
     7
370
    18
100
AcDbLine
 10
265.0
 20
10.0
 30
0.0
 11
265.0
 21
5.0
 31
0.0
  0
LINE
  5
120
330
1F
100
AcDbEntity
  8
0
  6
Continuous
 62
     7
370
    18
100
AcDbLine
 10
265.0
 20
292.0
 30
0.0
 11
265.0
 21
287.0
 31
0.0
  0
LINE
  5
121
330
1F
100
AcDbEntity
  8
0
  6
Continuous
 62
     7
370
    18
100
AcDbLine
 10
347.6610845472
 20
20.0
 30
0.0
 11
347.6610845472
 21
10.0
 31
0.0
  0
LINE
  5
122
330
1F
100
AcDbEntity
  8
0
  6
Continuous
 62
     7
370
    18
100
AcDbLine
 10
362.6610845472
 20
20.0
 30
0.0
 11
362.6610845472
 21
10.0
 31
0.0
  0
LINE
  5
123
330
1F
100
AcDbEntity
  8
0
  6
Continuous
 62
     7
370
    25
100
AcDbLine
 10
327.6610845472
 20
10.0
 30
0.0
 11
327.6610845472
 21
55.0
 31
0.0
  0
LINE
  5
124
330
1F
100
AcDbEntity
  8
0
  6
Continuous
 62
     7
370
    18
100
AcDbLine
 10
20.0
 20
292.0
 30
0.0
 11
20.0
 21
297.0
 31
0.0
  0
LINE
  5
125
330
1F
100
AcDbEntity
  8
0
  6
Continuous
 62
     7
370
    18
100
AcDbLine
 10
20.0
 20
5.0
 30
0.0
 11
20.0
 21
0.0
 31
0.0
  0
LINE
  5
126
330
1F
100
AcDbEntity
  8
0
  6
Continuous
 62
     7
370
    18
100
AcDbLine
 10
315.0
 20
10.0
 30
0.0
 11
315.0
 21
5.0
 31
0.0
  0
LINE
  5
127
330
1F
100
AcDbEntity
  8
0
  6
Continuous
 62
     7
370
    18
100
AcDbLine
 10
315.0
 20
292.0
 30
0.0
 11
315.0
 21
287.0
 31
0.0
  0
LINE
  5
128
330
1F
100
AcDbEntity
  8
0
  6
Continuous
 62
     7
370
    18
100
AcDbLine
 10
365.0
 20
10.0
 30
0.0
 11
365.0
 21
5.0
 31
0.0
  0
LINE
  5
129
330
1F
100
AcDbEntity
  8
0
  6
Continuous
 62
     7
370
    18
100
AcDbLine
 10
365.0
 20
292.0
 30
0.0
 11
365.0
 21
287.0
 31
0.0
  0
LINE
  5
12A
330
1F
100
AcDbEntity
  8
0
  6
Continuous
 62
     7
370
    18
100
AcDbLine
 10
15.0
 20
292.0
 30
0.0
 11
15.0
 21
5.0
 31
0.0
  0
LINE
  5
12B
330
1F
100
AcDbEntity
  8
0
  6
Continuous
 62
     7
370
    18
100
AcDbLine
 10
15.0
 20
5.0
 30
0.0
 11
415.0
 21
5.0
 31
0.0
  0
LINE
  5
12C
330
1F
100
AcDbEntity
  8
0
  6
Continuous
 62
     7
370
    18
100
AcDbLine
 10
415.0
 20
292.0
 30
0.0
 11
415.0
 21
5.0
 31
0.0
  0
LINE
  5
12D
330
1F
100
AcDbEntity
  8
0
  6
Continuous
 62
     7
370
    18
100
AcDbLine
 10
347.6610845472
 20
44.213444
 30
0.0
 11
327.6610845472
 21
44.213444
 31
0.0
  0
LINE
  5
12E
330
1F
100
AcDbEntity
  8
0
  6
Continuous
 62
     7
370
    18
100
AcDbLine
 10
347.6610845472
 20
35.0
 30
0.0
 11
347.6610845472
 21
55.0
 31
0.0
  0
LINE
  5
12F
330
1F
100
AcDbEntity
  8
0
  6
Continuous
 62
     7
370
    18
100
AcDbLine
 10
370.057188
 20
55.012032
 30
0.0
 11
370.057188
 21
35.0
 31
0.0
  0
LINE
  5
130
330
1F
100
AcDbEntity
  8
0
  6
Continuous
 62
     7
370
    18
100
AcDbLine
 10
398.0
 20
35.0
 30
0.0
 11
398.0
 21
20.0
 31
0.0
  0
LINE
  5
131
330
1F
100
AcDbEntity
  8
0
  6
Continuous
 62
     7
370
    18
100
AcDbLine
 10
410.0
 20
15.0
 30
0.0
 11
327.6610845472
 21
15.0
 31
0.0
  0
LINE
  5
132
330
1F
100
AcDbEntity
  8
0
  6
Continuous
 62
     7
370
    18
100
AcDbLine
 10
327.6610845472
 20
20.0
 30
0.0
 11
410.0
 21
20.0
 31
0.0
  0
LINE
  5
133
330
1F
100
AcDbEntity
  8
0
  6
Continuous
 62
     7
370
    18
100
AcDbLine
 10
341.485486
 20
20.0
 30
0.0
 11
341.485486
 21
27.564675
 31
0.0
  0
LINE
  5
134
330
1F
100
AcDbEntity
  8
0
  6
Continuous
 62
     7
370
    25
100
AcDbLine
 10
310.0
 20
76.5
 30
0.0
 11
310.0
 21
55.0
 31
0.0
  0
CIRCLE
  5
135
330
1F
100
AcDbEntity
  8
0
  6
Continuous
 62
     7
370
    18
100
AcDbCircle
 10
11.0
 20
108.5
 30
0.0
 40
2.750000000000001
  0
CIRCLE
  5
136
330
1F
100
AcDbEntity
  8
0
  6
Continuous
 62
     7
370
    18
100
AcDbCircle
 10
11.0
 20
188.5
 30
0.0
 40
2.750000000000001
  0
CIRCLE
  5
137
330
1F
100
AcDbEntity
  8
0
  6
Continuous
 62
     7
370
    18
100
AcDbCircle
 10
352.6174545849
 20
43.1536640226
 30
0.0
 40
3.218346681300138
  0
CIRCLE
  5
138
330
1F
100
AcDbEntity
  8
0
  6
Continuous
 62
     7
370
    18
100
AcDbCircle
 10
352.6174545849
 20
43.1536640226
 30
0.0
 40
1.583958554121555
  0
INSERT
  5
139
330
1F
100
AcDbEntity
  8
0
  6
Continuous
 62
     7
100
AcDbBlockReference
  2
ACO-Logo
 10
314.3510726297
 20
57.6366106772
 30
0.0
  0
POINT
  5
13A
330
1F
100
AcDbEntity
  8
0
100
AcDbPoint
 10
0.0
 20
0.0
 30
0.0
  0
POINT
  5
13B
330
1F
100
AcDbEntity
  8
0
100
AcDbPoint
 10
410.0
 20
10.0
 30
0.0
  0
MTEXT
  5
13C
330
1F
100
AcDbEntity
  8
0
  6
Continuous
 62
     7
370
    18
100
AcDbMText
 10
17.7359443114
 20
124.8017866468
 30
0.0
 40
2.0
 41
0.0
 71
     2
 72
     1
  1
D
  7
SLDTEXTSTYLE0
 73
     1
 44
1.0
  0
MTEXT
  5
13D
330
1F
100
AcDbEntity
  8
0
  6
Continuous
 62
     7
370
    18
100
AcDbMText
 10
17.6274822413
 20
174.7261854936
 30
0.0
 40
2.0
 41
0.0
 71
     2
 72
     1
  1
C
  7
SLDTEXTSTYLE0
 73
     1
 44
1.0
  0
MTEXT
  5
13E
330
1F
100
AcDbEntity
  8
0
  6
Continuous
 62
     7
370
    18
100
AcDbMText
 10
17.5516905072
 20
224.4926420442
 30
0.0
 40
2.0
 41
0.0
 71
     2
 72
     1
  1
B
  7
SLDTEXTSTYLE0
 73
     1
 44
1.0
  0
MTEXT
  5
13F
330
1F
100
AcDbEntity
  8
0
  6
Continuous
 62
     7
370
    18
100
AcDbMText
 10
290.0344258799
 20
290.5428789914
 30
0.0
 40
2.0
 41
0.0
 71
     2
 72
     1
  1
6
  7
SLDTEXTSTYLE0
 73
     1
 44
1.0
  0
MTEXT
  5
140
330
1F
100
AcDbEntity
  8
0
  6
Continuous
 62
     7
370
    18
100
AcDbMText
 10
240.0417859812
 20
290.6369260235
 30
0.0
 40
2.0
 41
0.0
 71
     2
 72
     1
  1
5
  7
SLDTEXTSTYLE0
 73
     1
 44
1.0
  0
MTEXT
  5
141
330
1F
100
AcDbEntity
  8
0
  6
Continuous
 62
     7
370
    18
100
AcDbMText
 10
190.0300404524
 20
290.6343268032
 30
0.0
 40
2.0
 41
0.0
 71
     2
 72
     1
  1
4
  7
SLDTEXTSTYLE0
 73
     1
 44
1.0
  0
MTEXT
  5
142
330
1F
100
AcDbEntity
  8
0
  6
Continuous
 62
     7
370
    18
100
AcDbMText
 10
140.0165868337
 20
290.6378887952
 30
0.0
 40
2.0
 41
0.0
 71
     2
 72
     1
  1
3
  7
SLDTEXTSTYLE0
 73
     1
 44
1.0
  0
MTEXT
  5
143
330
1F
100
AcDbEntity
  8
0
  6
Continuous
 62
     7
370
    18
100
AcDbMText
 10
90.033223
 20
290.5566702875
 30
0.0
 40
2.0
 41
0.0
 71
     2
 72
     1
  1
2
  7
SLDTEXTSTYLE0
 73
     1
 44
1.0
  0
MTEXT
  5
144
330
1F
100
AcDbEntity
  8
0
  6
Continuous
 62
     7
370
    18
100
AcDbMText
 10
40.0509551097
 20
290.5530165805
 30
0.0
 40
2.0
 41
0.0
 71
     2
 72
     1
  1
1
  7
SLDTEXTSTYLE0
 73
     1
 44
1.0
  0
MTEXT
  5
145
330
1F
100
AcDbEntity
  8
0
  6
Continuous
 62
     7
370
    18
100
AcDbMText
 10
17.5609786315
 20
271.2966048816
 30
0.0
 40
2.0
 41
0.0
 71
     2
 72
     1
  1
A
  7
SLDTEXTSTYLE0
 73
     1
 44
1.0
  0
MTEXT
  5
146
330
1F
100
AcDbEntity
  8
0
  6
Continuous
 62
     7
370
    18
100
AcDbMText
 10
89.9333968896
 20
8.5904490253
 30
0.0
 40
2.0
 41
0.0
 71
     2
 72
     1
  1
2
  7
SLDTEXTSTYLE0
 73
     1
 44
1.0
  0
MTEXT
  5
147
330
1F
100
AcDbEntity
  8
0
  6
Continuous
 62
     7
370
    18
100
AcDbMText
 10
39.9009486579
 20
8.6623118453
 30
0.0
 40
2.0
 41
0.0
 71
     2
 72
     1
  1
1
  7
SLDTEXTSTYLE0
 73
     1
 44
1.0
  0
MTEXT
  5
148
330
1F
100
AcDbEntity
  8
0
  6
Continuous
 62
     7
370
    18
100
AcDbMText
 10
190.0227230239
 20
8.7073169286
 30
0.0
 40
2.0
 41
0.0
 71
     2
 72
     1
  1
4
  7
SLDTEXTSTYLE0
 73
     1
 44
1.0
  0
MTEXT
  5
149
330
1F
100
AcDbEntity
  8
0
  6
Continuous
 62
     7
370
    18
100
AcDbMText
 10
140.0453427777
 20
8.5647154541
 30
0.0
 40
2.0
 41
0.0
 71
     2
 72
     1
  1
3
  7
SLDTEXTSTYLE0
 73
     1
 44
1.0
  0
MTEXT
  5
14A
330
1F
100
AcDbEntity
  8
0
  6
Continuous
 62
     7
370
    18
100
AcDbMText
 10
239.8749782531
 20
8.5637526825
 30
0.0
 40
2.0
 41
0.0
 71
     2
 72
     1
  1
5
  7
SLDTEXTSTYLE0
 73
     1
 44
1.0
  0
MTEXT
  5
14B
330
1F
100
AcDbEntity
  8
0
  6
Continuous
 62
     7
370
    18
100
AcDbMText
 10
412.6717254925
 20
224.51208263
 30
0.0
 40
2.0
 41
0.0
 71
     2
 72
     1
  1
B
  7
SLDTEXTSTYLE0
 73
     1
 44
1.0
  0
MTEXT
  5
14C
330
1F
100
AcDbEntity
  8
0
  6
Continuous
 62
     7
370
    18
100
AcDbMText
 10
412.5951211154
 20
271.2798202564
 30
0.0
 40
2.0
 41
0.0
 71
     2
 72
     1
  1
A
  7
SLDTEXTSTYLE0
 73
     1
 44
1.0
  0
MTEXT
  5
14D
330
1F
100
AcDbEntity
  8
0
  6
Continuous
 62
     7
370
    18
100
AcDbMText
 10
412.6491448679
 20
174.7279841048
 30
0.0
 40
2.0
 41
0.0
 71
     2
 72
     1
  1
C
  7
SLDTEXTSTYLE0
 73
     1
 44
1.0
  0
MTEXT
  5
14E
330
1F
100
AcDbEntity
  8
0
  6
Continuous
 62
     7
370
    18
100
AcDbMText
 10
340.0216466634
 20
290.5954278102
 30
0.0
 40
2.0
 41
0.0
 71
     2
 72
     1
  1
7
  7
SLDTEXTSTYLE0
 73
     1
 44
1.0
  0
MTEXT
  5
14F
330
1F
100
AcDbEntity
  8
0
  6
Continuous
 62
     7
370
    18
100
AcDbMText
 10
390.037657264
 20
290.6215496941
 30
0.0
 40
2.0
 41
0.0
 71
     2
 72
     1
  1
8
  7
SLDTEXTSTYLE0
 73
     1
 44
1.0
  0
MTEXT
  5
150
330
1F
100
AcDbEntity
  8
0
  6
Continuous
 62
     7
370
    18
100
AcDbMText
 10
17.6897935208
 20
74.7267628143
 30
0.0
 40
2.0
 41
0.0
 71
     2
 72
     1
  1
E
  7
SLDTEXTSTYLE0
 73
     1
 44
1.0
  0
MTEXT
  5
151
330
1F
100
AcDbEntity
  8
0
  6
Continuous
 62
     7
370
    18
100
AcDbMText
 10
17.5936930126
 20
27.773321616
 30
0.0
 40
2.0
 41
0.0
 71
     2
 72
     1
  1
F
  7
SLDTEXTSTYLE0
 73
     1
 44
1.0
  0
MTEXT
  5
152
330
1F
100
AcDbEntity
  8
0
  6
Continuous
 62
     7
370
    18
100
AcDbMText
 10
339.8003474583
 20
8.7205095051
 30
0.0
 40
2.0
 41
0.0
 71
     2
 72
     1
  1
7
  7
SLDTEXTSTYLE0
 73
     1
 44
1.0
  0
MTEXT
  5
153
330
1F
100
AcDbEntity
  8
0
  6
Continuous
 62
     7
370
    18
100
AcDbMText
 10
289.7886477179
 20
8.6884673623
 30
0.0
 40
2.0
 41
0.0
 71
     2
 72
     1
  1
6
  7
SLDTEXTSTYLE0
 73
     1
 44
1.0
  0
MTEXT
  5
154
330
1F
100
AcDbEntity
  8
0
  6
Continuous
 62
     7
370
    18
100
AcDbMText
 10
412.5160699095
 20
74.5096307526
 30
0.0
 40
2.0
 41
0.0
 71
     2
 72
     1
  1
E
  7
SLDTEXTSTYLE0
 73
     1
 44
1.0
  0
MTEXT
  5
155
330
1F
100
AcDbEntity
  8
0
  6
Continuous
 62
     7
370
    18
100
AcDbMText
 10
412.6234021365
 20
124.4517683275
 30
0.0
 40
2.0
 41
0.0
 71
     2
 72
     1
  1
D
  7
SLDTEXTSTYLE0
 73
     1
 44
1.0
  0
MTEXT
  5
156
330
1F
100
AcDbEntity
  8
0
  6
Continuous
 62
     7
370
    18
100
AcDbMText
 10
411.7952690469
 20
41.7867259114
 30
0.0
 40
1.8
 41
0.0
 71
     3
 72
     1
  1
Plotdatum: 28.05.2025
  7
SLDTEXTSTYLE0
 11
-3.269436733918102E-15
 21
1.0
 31
0.0
 73
     1
 44
1.0
  0
MTEXT
  5
157
330
1F
100
AcDbEntity
  8
0
  6
Continuous
 62
     7
370
    18
100
AcDbMText
 10
412.557933251
 20
8.2549718046
 30
0.0
 40
1.8
 41
0.0
 71
     2
 72
     1
  1
A3
  7
SLDTEXTSTYLE0
 73
     1
 44
1.0
  0
MTEXT
  5
158
330
1F
100
AcDbEntity
  8
0
  6
Continuous
 62
     7
370
    18
100
AcDbMText
 10
390.594604279
 20
8.3847467643
 30
0.0
 40
1.8
 41
0.0
 71
     2
 72
     1
  1
CAD-System: SolidWorks
  7
SLDTEXTSTYLE0
 73
     1
 44
1.0
  0
MTEXT
  5
159
330
1F
100
AcDbEntity
  8
0
  6
Continuous
 62
     7
370
    18
100
AcDbMText
 10
403.9986368527
 20
28.4394692021
 30
0.0
 40
5.0
 41
0.0
 71
     2
 72
     1
  1
B
  7
SLDTEXTSTYLE0
 73
     1
 44
1.0
  0
MTEXT
  5
15A
330
1F
100
AcDbEntity
  8
0
  6
Continuous
 62
     7
370
    18
100
AcDbMText
 10
249.556836311
 20
38.5581729516
 30
0.0
 40
2.0
 41
0.0
 71
     1
 72
     1
  1
Freigegeben
  7
SLDTEXTSTYLE0
 73
     1
 44
1.0
  0
MTEXT
  5
15B
330
1F
100
AcDbEntity
  8
0
  6
Continuous
 62
     7
370
    18
100
AcDbMText
 10
284.1136255556
 20
43.5473338598
 30
0.0
 40
2.0
 41
0.0
 71
     2
 72
     1
  1
bae
  7
SLDTEXTSTYLE0
 73
     1
 44
1.0
  0
MTEXT
  5
15C
330
1F
100
AcDbEntity
  8
0
  6
Continuous
 62
     7
370
    18
100
AcDbMText
 10
249.5284668163
 20
43.5603133928
 30
0.0
 40
2.0
 41
0.0
 71
     1
 72
     1
  1
28.05.2025
  7
SLDTEXTSTYLE0
 73
     1
 44
1.0
  0
MTEXT
  5
15D
330
1F
100
AcDbEntity
  8
0
  6
Continuous
 62
     7
370
    18
100
AcDbMText
 10
284.1309088133
 20
48.5138972561
 30
0.0
 40
2.0
 41
0.0
 71
     2
 72
     1
  1
AB
  7
SLDTEXTSTYLE0
 73
     1
 44
1.0
  0
MTEXT
  5
15E
330
1F
100
AcDbEntity
  8
0
  6
Continuous
 62
     7
370
    18
100
AcDbMText
 10
249.5284668163
 20
48.4989062069
 30
0.0
 40
2.0
 41
0.0
 71
     1
 72
     1
  1
25.01.2021
  7
SLDTEXTSTYLE0
 73
     1
 44
1.0
  0
MTEXT
  5
15F
330
1F
100
AcDbEntity
  8
0
  6
Continuous
 62
     7
370
     0
100
AcDbMText
 10
372.2007348103
 20
38.8723054925
 30
0.0
 40
1.5
 41
0.0
 71
     1
 72
     1
  1
Copyright reserved! © ACO AG
  7
SLDTEXTSTYLE0
 73
     1
 44
1.0
  0
MTEXT
  5
160
330
1F
100
AcDbEntity
  8
0
  6
Continuous
 62
     7
370
     0
100
AcDbMText
 10
372.2203831445
 20
53.1538938951
 30
0.0
 40
1.5
 41
0.0
 71
     1
 72
     1
  1
Diese Zeichnung darf weder kopiert^Jnoch dritten Personen, insbesondere^Jzum Zweck anderweitiger Benutzung^Jmitgeteilt werden und bleibt unser^JEigentum.
  7
SLDTEXTSTYLE0
 73
     1
 44
1.0
  0
MTEXT
  5
161
330
1F
100
AcDbEntity
  8
0
  6
Continuous
 62
     7
370
    18
100
AcDbMText
 10
340.2239265434
 20
13.606872109
 30
0.0
 40
2.0
 41
0.0
 71
     2
 72
     1
  1
26.04.2023
  7
SLDTEXTSTYLE0
 73
     1
 44
1.0
  0
MTEXT
  5
162
330
1F
100
AcDbEntity
  8
0
  6
Continuous
 62
     7
370
    18
100
AcDbMText
 10
364.9468572407
 20
13.5417229519
 30
0.0
 40
2.0
 41
0.0
 71
     1
 72
     1
  1
SAP-Nr.
  7
SLDTEXTSTYLE0
 73
     1
 44
1.0
  0
MTEXT
  5
163
330
1F
100
AcDbEntity
  8
0
  6
Continuous
 62
     7
370
    18
100
AcDbMText
 10
354.2334651348
 20
13.606872109
 30
0.0
 40
2.0
 41
0.0
 71
     2
 72
     1
  1
AB
  7
SLDTEXTSTYLE0
 73
     1
 44
1.0
  0
MTEXT
  5
164
330
1F
100
AcDbEntity
  8
0
  6
Continuous
 62
     7
370
    18
100
AcDbMText
 10
330.227417144
 20
13.524501801
 30
0.0
 40
2.0
 41
0.0
 71
     2
 72
     1
  1
A
  7
SLDTEXTSTYLE0
 73
     1
 44
1.0
  0
MTEXT
  5
165
330
1F
100
AcDbEntity
  8
0
  6
Continuous
 62
     7
370
    18
100
AcDbMText
 10
364.9468572407
 20
18.4594173137
 30
0.0
 40
2.0
 41
0.0
 71
     1
 72
     1
  1
Dateiname
  7
SLDTEXTSTYLE0
 73
     1
 44
1.0
  0
MTEXT
  5
166
330
1F
100
AcDbEntity
  8
0
  6
Continuous
 62
     7
370
    18
100
AcDbMText
 10
354.2676663079
 20
18.5245664709
 30
0.0
 40
2.0
 41
0.0
 71
     2
 72
     1
  1
bae
  7
SLDTEXTSTYLE0
 73
     1
 44
1.0
  0
MTEXT
  5
167
330
1F
100
AcDbEntity
  8
0
  6
Continuous
 62
     7
370
    18
100
AcDbMText
 10
340.2702290981
 20
18.5245664709
 30
0.0
 40
2.0
 41
0.0
 71
     2
 72
     1
  1
28.05.2025
  7
SLDTEXTSTYLE0
 73
     1
 44
1.0
  0
MTEXT
  5
168
330
1F
100
AcDbEntity
  8
0
  6
Continuous
 62
     7
370
    18
100
AcDbMText
 10
330.2494657985
 20
18.524501801
 30
0.0
 40
2.0
 41
0.0
 71
     2
 72
     1
  1
B
  7
SLDTEXTSTYLE0
 73
     1
 44
1.0
  0
MTEXT
  5
169
330
1F
100
AcDbEntity
  8
0
  6
Continuous
 62
     7
370
    18
100
AcDbMText
 10
311.764909851
 20
46.3490312465
 30
0.0
 40
5.0
 41
0.0
 71
     2
 72
     1
  1
1:1
  7
SLDTEXTSTYLE0
 73
     1
 44
1.0
  0
MTEXT
  5
16A
330
1F
100
AcDbEntity
  8
0
  6
Continuous
 62
     7
370
    18
100
AcDbMText
 10
230.1851195342
 20
38.7793829468
 30
0.0
 40
2.0
 41
0.0
 71
     1
 72
     1
  1
Status:
  7
SLDTEXTSTYLE0
 73
     1
 44
1.0
  0
MTEXT
  5
16B
330
1F
100
AcDbEntity
  8
0
  6
Continuous
 62
     7
370
    18
100
AcDbMText
 10
344.926838705
 20
28.2772828851
 30
0.0
 40
5.0
 41
0.0
 71
     1
 72
     1
  1
97217
  7
SLDTEXTSTYLE0
 73
     1
 44
1.0
  0
MTEXT
  5
16C
330
1F
100
AcDbEntity
  8
0
  6
Continuous
 62
     7
370
    18
100
AcDbMText
 10
231.1132118803
 20
14.9211049657
 30
0.0
 40
2.5
 41
0.0
 71
     1
 72
     1
  1
Art. Nr.: 2021371
  7
SLDTEXTSTYLE0
 73
     1
 44
1.0
  0
MTEXT
  5
16D
330
1F
100
AcDbEntity
  8
0
  6
Continuous
 62
     7
370
    18
100
AcDbMText
 10
231.1159560181
 20
33.0904969858
 30
0.0
 40
2.5
 41
0.0
 71
     1
 72
     1
  1
Haustechnik
  7
SLDTEXTSTYLE0
 73
     1
 44
1.0
  0
MTEXT
  5
16E
330
1F
100
AcDbEntity
  8
0
  6
Continuous
 62
     7
370
    18
100
AcDbMText
 10
231.1475981734
 20
28.0307932366
 30
0.0
 40
3.5
 41
0.0
 71
     1
 72
     1
  1
Geruchsverschluss zu EG150
  7
SLDTEXTSTYLE0
 73
     1
 44
1.0
  0
MTEXT
  5
16F
330
1F
100
AcDbEntity
  8
0
  6
Continuous
 62
     7
370
    18
100
AcDbMText
 10
348.2746465368
 20
53.819119072
 30
0.0
 40
2.0
 41
0.0
 71
     1
 72
     1
  1
Projektion: ISO-E
  7
SLDTEXTSTYLE0
 73
     1
 44
1.0
  0
MTEXT
  5
170
330
1F
100
AcDbEntity
  8
0
  6
Continuous
 62
     7
370
    18
100
AcDbMText
 10
337.7677091855
 20
49.3670227094
 30
0.0
 40
2.5
 41
0.0
 71
     2
 72
     1
  1
Millimeter
  7
SLDTEXTSTYLE0
 73
     1
 44
1.0
  0
MTEXT
  5
171
330
1F
100
AcDbEntity
  8
0
  6
Continuous
 62
     7
370
    18
100
AcDbMText
 10
337.6323777421
 20
53.855374072
 30
0.0
 40
2.0
 41
0.0
 71
     2
 72
     1
  1
Masseinheit:
  7
SLDTEXTSTYLE0
 73
     1
 44
1.0
  0
MTEXT
  5
172
330
1F
100
AcDbEntity
  8
0
  6
Continuous
 62
     7
370
    18
100
AcDbMText
 10
337.6114490186
 20
43.5452078816
 30
0.0
 40
2.0
 41
0.0
 71
     2
 72
     1
  1
Blatt / Anz.:
  7
SLDTEXTSTYLE0
 73
     1
 44
1.0
  0
MTEXT
  5
173
330
1F
100
AcDbEntity
  8
0
  6
Continuous
 62
     7
370
    18
100
AcDbMText
 10
329.2895578243
 20
28.4139191092
 30
0.0
 40
5.0
 41
0.0
 71
     1
 72
     1
  1
CH
  7
SLDTEXTSTYLE0
 73
     1
 44
1.0
  0
MTEXT
  5
174
330
1F
100
AcDbEntity
  8
0
  6
Continuous
 62
     7
370
    18
100
AcDbMText
 10
330.40704
 20
33.692638072
 30
0.0
 40
2.0
 41
0.0
 71
     1
 72
     1
  1
Zeichnung Nr.:
  7
SLDTEXTSTYLE0
 73
     1
 44
1.0
  0
MTEXT
  5
175
330
1F
100
AcDbEntity
  8
0
  6
Continuous
 62
     7
370
    18
100
AcDbMText
 10
269.897953
 20
75.161075072
 30
0.0
 40
2.0
 41
0.0
 71
     1
 72
     1
  1
Gewicht:
  7
SLDTEXTSTYLE0
 73
     1
 44
1.0
  0
MTEXT
  5
176
330
1F
100
AcDbEntity
  8
0
  6
Continuous
 62
     7
370
    18
100
AcDbMText
 10
230.0
 20
64.542328072
 30
0.0
 40
2.0
 41
0.0
 71
     1
 72
     1
  1
zul. Abweichung:
  7
SLDTEXTSTYLE0
 73
     1
 44
1.0
  0
MTEXT
  5
177
330
1F
100
AcDbEntity
  8
0
  6
Continuous
 62
     7
370
    18
100
AcDbMText
 10
269.612607
 20
64.542328072
 30
0.0
 40
2.0
 41
0.0
 71
     1
 72
     1
  1
Oberfläche:
  7
SLDTEXTSTYLE0
 73
     1
 44
1.0
  0
MTEXT
  5
178
330
1F
100
AcDbEntity
  8
0
  6
Continuous
 62
     7
370
    18
100
AcDbMText
 10
230.261411
 20
43.4433838912
 30
0.0
 40
2.0
 41
0.0
 71
     1
 72
     1
  1
Freigegeben:
  7
SLDTEXTSTYLE0
 73
     1
 44
1.0
  0
MTEXT
  5
179
330
1F
100
AcDbEntity
  8
0
  6
Continuous
 62
     7
370
    18
100
AcDbMText
 10
230.0
 20
75.161075072
 30
0.0
 40
2.0
 41
0.0
 71
     1
 72
     1
  1
Werkstoff:
  7
SLDTEXTSTYLE0
 73
     1
 44
1.0
  0
MTEXT
  5
17A
330
1F
100
AcDbEntity
  8
0
  6
Continuous
 62
     7
370
    18
100
AcDbMText
 10
254.035545
 20
53.129475072
 30
0.0
 40
2.0
 41
0.0
 71
     1
 72
     1
  1
Datum:
  7
SLDTEXTSTYLE0
 73
     1
 44
1.0
  0
MTEXT
  5
17B
330
1F
100
AcDbEntity
  8
0
  6
Continuous
 62
     7
370
    18
100
AcDbMText
 10
279.934928
 20
53.136060072
 30
0.0
 40
2.0
 41
0.0
 71
     1
 72
     1
  1
Name:
  7
SLDTEXTSTYLE0
 73
     1
 44
1.0
  0
MTEXT
  5
17C
330
1F
100
AcDbEntity
  8
0
  6
Continuous
 62
     7
370
    18
100
AcDbMText
 10
312.162455406
 20
53.881591072
 30
0.0
 40
2.0
 41
0.0
 71
     2
 72
     1
  1
Massstab:
  7
SLDTEXTSTYLE0
 73
     1
 44
1.0
  0
MTEXT
  5
17D
330
1F
100
AcDbEntity
  8
0
  6
Continuous
 62
     7
370
    18
100
AcDbMText
 10
403.9552944035
 20
33.324874072
 30
0.0
 40
2.0
 41
0.0
 71
     2
 72
     1
  1
Index:
  7
SLDTEXTSTYLE0
 73
     1
 44
1.0
  0
MTEXT
  5
17E
330
1F
100
AcDbEntity
  8
0
  6
Continuous
 62
     7
370
    18
100
AcDbMText
 10
230.261411
 20
48.4499477886
 30
0.0
 40
2.0
 41
0.0
 71
     1
 72
     1
  1
Erstellt:
  7
SLDTEXTSTYLE0
 73
     1
 44
1.0
  0
MTEXT
  5
180
330
1F
100
AcDbEntity
  8
0
  6
Continuous
 62
     7
370
    18
100
AcDbMText
 10
337.6348165843
 20
39.869706576
 30
0.0
 40
2.5
 41
0.0
 71
     2
 72
     1
  1
1 / 1
  7
SLDTEXTSTYLE1
 73
     1
 44
1.0
  0
MTEXT
  5
181
330
1F
100
AcDbEntity
  8
0
  6
Continuous
 62
     7
370
    18
100
AcDbMText
 10
269.612607
 20
60.8119428599
 30
0.0
 40
3.0
 41
0.0
 71
     1
 72
     1
  1
DIN ISO 1302
  7
SLDTEXTSTYLE0
 73
     1
 44
1.0
  0
MTEXT
  5
182
330
1F
100
AcDbEntity
  8
0
  6
Continuous
 62
     7
370
    18
100
AcDbMText
 10
230.0
 20
60.8119428599
 30
0.0
 40
3.0
 41
0.0
 71
     1
 72
     1
  1
Norm
  7
SLDTEXTSTYLE0
 73
     1
 44
1.0
  0
MTEXT
  5
183
330
1F
100
AcDbEntity
  8
0
  6
Continuous
 62
     7
370
    18
100
AcDbMText
 10
269.612607
 20
71.2121947186
 30
0.0
 40
3.0
 41
0.0
 71
     1
 72
     1
  1
0.39 kg
  7
SLDTEXTSTYLE0
 73
     1
 44
1.0
  0
MTEXT
  5
184
330
1F
100
AcDbEntity
  8
0
  6
Continuous
 62
     7
370
    18
100
AcDbMText
 10
230.0
 20
71.2121947186
 30
0.0
 40
3.0
 41
0.0
 71
     1
 72
     1
  1
1.4301 / TPE
  7
SLDTEXTSTYLE0
 73
     1
 44
1.0
  0
CIRCLE
  5
185
330
1F
100
AcDbEntity
  8
0
  6
Continuous
 62
     7
370
    25
100
AcDbCircle
 10
139.958609341
 20
78.65274047
 30
0.0
 40
54.00000000000015
  0
LINE
  5
186
330
1F
100
AcDbEntity
  8
0
  6
Continuous
 62
     7
370
    25
100
AcDbLine
 10
142.458609341
 20
42.35274047
 30
0.0
 11
142.458609341
 21
122.3312534941
 31
0.0
  0
LINE
  5
187
330
1F
100
AcDbEntity
  8
0
  6
Continuous
 62
     7
370
    25
100
AcDbLine
 10
137.458609341
 20
122.3312534941
 30
0.0
 11
137.458609341
 21
42.35274047
 31
0.0
  0
CIRCLE
  5
188
330
1F
100
AcDbEntity
  8
0
  6
Continuous
 62
     7
370
    25
100
AcDbCircle
 10
139.958609341
 20
78.65274047
 30
0.0
 40
49.75000000000014
  0
CIRCLE
  5
189
330
1F
100
AcDbEntity
  8
0
  6
Continuous
 62
     7
370
    25
100
AcDbCircle
 10
139.958609341
 20
78.65274047
 30
0.0
 40
46.00000000000013
  0
LINE
  5
18A
330
1F
100
AcDbEntity
  8
0
  6
Continuous
 62
     7
370
    25
100
AcDbLine
 10
142.0496617076
 20
122.35274047
 30
0.0
 11
137.8675569744
 21
122.35274047
 31
0.0
  0
LINE
  5
18B
330
1F
100
AcDbEntity
  8
0
  6
Continuous
 62
     7
370
    25
100
AcDbLine
 10
137.458609341
 20
42.35274047
 30
0.0
 11
142.458609341
 21
42.35274047
 31
0.0
  0
ARC
  5
18C
330
1F
100
AcDbEntity
  8
0
  6
Continuous
 62
     7
370
    25
100
AcDbCircle
 10
136.1801727948
 20
117.4692758289
 30
0.0
 40
4.750000000000004
100
AcDbArc
 50
95.5597071084
 51
122.5993414365
  0
ARC
  5
18D
330
1F
100
AcDbEntity
  8
0
  6
Continuous
 62
     7
370
    25
100
AcDbCircle
 10
143.7370458872
 20
117.4692758289
 30
0.0
 40
4.750000000000015
100
AcDbArc
 50
57.4006585635
 51
84.4402928909
  0
ARC
  5
18E
330
1F
100
AcDbEntity
  8
0
  6
Continuous
 62
     7
370
    25
100
AcDbCircle
 10
139.958609341
 20
78.65274047
 30
0.0
 40
43.75000000000001
100
AcDbArc
 50
84.4402928916
 51
95.5597071084
  0
SPLINE
  5
18F
330
1F
100
AcDbEntity
  8
0
  6
Continuous
 62
     7
370
    25
100
AcDbSpline
210
0.0
220
0.0
230
1.0
 70
     8
 71
     3
 72
    18
 73
    14
 74
     0
 42
0.00000001
 43
0.00000001
 40
0.0
 40
0.0
 40
0.0
 40
0.0
 40
0.0956790666277876
 40
0.1877108685826252
 40
0.2761125316775397
 40
0.3609033814223057
 40
0.442105321469424
 40
0.5197432931562957
 40
0.6261134328311896
 40
0.7271973524952905
 40
0.8231115270676818
 40
0.9139923106371243
 40
1.0
 40
1.0
 40
1.0
 40
1.0
 10
132.0665521268437
 20
119.8442758288575
 30
0.0
 10
132.0971988683139
 20
119.8960612900812
 30
0.0
 10
132.1573241043069
 20
119.9976581623005
 30
0.0
 10
132.2560397511301
 20
120.1476349634784
 30
0.0
 10
132.3584831911515
 20
120.2919823248247
 30
0.0
 10
132.4649889150703
 20
120.4306839053455
 30
0.0
 10
132.5750525624283
 20
120.5636934158513
 30
0.0
 10
132.7040644856324
 20
120.7086124103859
 30
0.0
 10
132.8554019617011
 20
120.8645584799084
 30
0.0
 10
133.0333302910876
 20
121.0301961063878
 30
0.0
 10
133.2198175713772
 20
121.186341081587
 30
0.0
 10
133.4124352281728
 20
121.3329525763246
 30
0.0
 10
133.5528058051008
 20
121.4258062863772
 30
0.0
 10
133.6210575615662
 20
121.4709541296369
 30
0.0
  0
SPLINE
  5
190
330
1F
100
AcDbEntity
  8
0
  6
Continuous
 62
     7
370
    25
100
AcDbSpline
210
0.0
220
0.0
230
1.0
 70
     8
 71
     3
 72
    18
 73
    14
 74
     0
 42
0.00000001
 43
0.00000001
 40
0.0
 40
0.0
 40
0.0
 40
0.0
 40
0.0531963900135486
 40
0.1082708405075179
 40
0.1652662198593886
 40
0.2242212062577149
 40
0.2851707473429649
 40
0.3481464702787863
 40
0.4131770460380992
 40
0.4802885120584282
 40
0.6391102966533951
 40
0.8122923500740328
 40
1.0
 40
1.0
 40
1.0
 40
1.0
 10
146.2961611204132
 20
121.4709541296369
 30
0.0
 10
146.3388056544034
 20
121.4431086600848
 30
0.0
 10
146.4256002571386
 20
121.3864346566052
 30
0.0
 10
146.5489109943836
 20
121.2984963577016
 30
0.0
 10
146.6699530214775
 20
121.2067127694372
 30
0.0
 10
146.7878894125884
 20
121.1110461083289
 30
0.0
 10
146.9027969517831
 20
121.0116244112674
 30
0.0
 10
147.0144997922624
 20
120.9085349098743
 30
0.0
 10
147.1228905988793
 20
120.8018787679992
 30
0.0
 10
147.2745879905663
 20
120.6427692090246
 30
0.0
 10
147.4607148042434
 20
120.4247436340856
 30
0.0
 10
147.6707155195102
 20
120.1414746368428
 30
0.0
 10
147.7890946467087
 20
119.9459651452111
 30
0.0
 10
147.8506665551358
 20
119.8442758288575
 30
0.0
  0
SPLINE
  5
191
330
1F
100
AcDbEntity
  8
0
  6
Continuous
 62
     7
370
    25
100
AcDbSpline
210
0.0
220
0.0
230
1.0
 70
    24
 71
     3
 72
     9
 73
     5
 74
     0
 42
0.00000001
 43
0.00000001
 40
0.0
 40
0.0
 40
0.0
 40
0.0
 40
0.77109539593723
 40
1.79922259052019
 40
1.79922259052019
 40
1.79922259052019
 40
1.79922259052019
 10
126.0344945345708
 20
109.3964456048594
 30
0.0
 10
126.973429252441
 20
111.0227282412007
 30
0.0
 10
129.0620210196764
 20
114.6402752983225
 30
0.0
 10
130.9935489066976
 20
117.9857797348796
 30
0.0
 10
132.0665521268438
 20
119.8442758288578
 30
0.0
  0
SPLINE
  5
192
330
1F
100
AcDbEntity
  8
0
  6
Continuous
 62
     7
370
    25
100
AcDbSpline
210
0.0
220
0.0
230
1.0
 70
    24
 71
     3
 72
     9
 73
     5
 74
     0
 42
0.00000001
 43
0.00000001
 40
0.0000000000000002
 40
0.0000000000000002
 40
0.0000000000000002
 40
0.0000000000000002
 40
0.7710953959372201
 40
1.79922259052019
 40
1.79922259052019
 40
1.79922259052019
 40
1.79922259052019
 10
147.8506665551357
 20
119.8442758288578
 30
0.0
 10
148.6554189702453
 20
118.450403758374
 30
0.0
 10
150.5746417039115
 20
115.126212472623
 30
0.0
 10
152.6308111902484
 20
111.5648224533146
 30
0.0
 10
153.8827241474086
 20
109.3964456048593
 30
0.0
  0
SPLINE
  5
193
330
1F
100
AcDbEntity
  8
0
  6
Continuous
 62
     7
370
    25
100
AcDbSpline
210
0.0
220
0.0
230
1.0
 70
     8
 71
     3
 72
    19
 73
    15
 74
     0
 42
0.00000001
 43
0.00000001
 40
0.0
 40
0.0
 40
0.0
 40
0.0
 40
0.0646801178899811
 40
0.1297213690128695
 40
0.1951908890529533
 40
0.2611545060643737
 40
0.3276765812838037
 40
0.394819870003562
 40
0.4626454032049558
 40
0.531212390103545
 40
0.6430112185411369
 40
0.7582563958213221
 40
0.8771817269771117
 40
0.9999999999999999
 40
0.9999999999999999
 40
0.9999999999999999
 40
0.9999999999999999
 10
156.1965410011781
 20
107.0937684999115
 30
0.0
 10
156.1329690456886
 20
107.1309297097327
 30
0.0
 10
156.0054701887607
 20
107.2054596142758
 30
0.0
 10
155.8190085603504
 20
107.3260020690775
 30
0.0
 10
155.6358413631057
 20
107.4531895316355
 30
0.0
 10
155.4566199149562
 20
107.5875723639853
 30
0.0
 10
155.2815422172559
 20
107.7288940232203
 30
0.0
 10
155.1109295349163
 20
107.8771016636076
 30
0.0
 10
154.9450671201876
 20
108.0320669162793
 30
0.0
 10
154.7510922717523
 20
108.2270107287797
 30
0.0
 10
154.5334078636079
 20
108.4677030315978
 30
0.0
 10
154.2996130015673
 20
108.7599150356657
 30
0.0
 10
154.0787870700336
 20
109.0702132999904
 30
0.0
 10
153.948776335162
 20
109.2865402889337
 30
0.0
 10
153.8827241474087
 20
109.3964456048593
 30
0.0
  0
SPLINE
  5
194
330
1F
100
AcDbEntity
  8
0
  6
Continuous
 62
     7
370
    25
100
AcDbSpline
210
0.0
220
0.0
230
1.0
 70
     8
 71
     3
 72
    19
 73
    15
 74
     0
 42
0.00000001
 43
0.00000001
 40
0.0
 40
0.0
 40
0.0
 40
0.0
 40
0.0706816065621141
 40
0.1400628109407084
 40
0.2081809072899441
 40
0.2750753024307357
 40
0.3407876047901544
 40
0.4053617079420584
 40
0.468843866521734
 40
0.5781723523895315
 40
0.6856975009330798
 40
0.7916686034037466
 40
0.8963460547334159
 40
1.0
 40
1.0
 40
1.0
 40
1.0
 10
126.0344945345709
 20
109.3964456048593
 30
0.0
 10
125.9970388534495
 20
109.3330619965014
 30
0.0
 10
125.9228166018806
 20
109.2074609131931
 30
0.0
 10
125.8028063769649
 20
109.0236090457626
 30
0.0
 10
125.6781162419941
 20
108.8455211653879
 30
0.0
 10
125.5483818304559
 20
108.6734718165469
 30
0.0
 10
125.4140977272517
 20
108.5074954660954
 30
0.0
 10
125.2755318562082
 20
108.3476737685743
 30
0.0
 10
125.0979192824572
 20
108.156228405122
 30
0.0
 10
124.8758747119962
 20
107.9378449631968
 30
0.0
 10
124.603481053916
 20
107.6992901130749
 30
0.0
 10
124.319563959965
 20
107.4787295989574
 30
0.0
 10
124.0262729713778
 20
107.2749450895293
 30
0.0
 10
123.822208596754
 20
107.1539625724654
 30
0.0
 10
123.7206776808013
 20
107.0937684999115
 30
0.0
  0
ARC
  5
195
330
1F
100
AcDbEntity
  8
0
  6
Continuous
 62
     7
370
    25
100
AcDbCircle
 10
139.958609341
 20
78.65274047
 30
0.0
 40
32.75000000000001
100
AcDbArc
 50
274.37798254
 51
60.2765125913
  0
ARC
  5
196
330
1F
100
AcDbEntity
  8
0
  6
Continuous
 62
     7
370
    25
100
AcDbCircle
 10
139.958609341
 20
78.65274047
 30
0.0
 40
32.75
100
AcDbArc
 50
119.7234874087
 51
265.62201746
  0
SPLINE
  5
197
330
1F
100
AcDbEntity
  8
0
  6
Continuous
 62
     7
370
    25
100
AcDbSpline
210
0.0
220
0.0
230
1.0
 70
     8
 71
     3
 72
    20
 73
    16
 74
     0
 42
0.00000001
 43
0.00000001
 40
0.0
 40
0.0
 40
0.0
 40
0.0
 40
0.0390941924792449
 40
0.0819082185764382
 40
0.1282283111855256
 40
0.1778135833923239
 40
0.2303953004364929
 40
0.3757797604728841
 40
0.4665908247839519
 40
0.6075609438914682
 40
0.7136361110676178
 40
0.7850695749899911
 40
0.8470113894375558
 40
0.9293078254976205
 40
1.0
 40
1.0
 40
1.0
 40
1.0
 10
150.4532067736177
 20
110.5389348121053
 30
0.0
 10
150.5347077574027
 20
110.4981452125783
 30
0.0
 10
150.7054645877834
 20
110.4126848610063
 30
0.0
 10
150.9715575511101
 20
110.2756406974124
 30
0.0
 10
151.258082488101
 20
110.1247249795563
 30
0.0
 10
151.5629332086498
 20
109.9600468770938
 30
0.0
 10
152.0675266091811
 20
109.680757884571
 30
0.0
 10
152.6472428173708
 20
109.3443466379771
 30
0.0
 10
153.3857880948975
 20
108.8960474766157
 30
0.0
 10
154.0295219957899
 20
108.4873952285132
 30
0.0
 10
154.6154237774657
 20
108.1042863697103
 30
0.0
 10
155.0458200272222
 20
107.8197809266316
 30
0.0
 10
155.4280002058165
 20
107.5686925682478
 30
0.0
 10
155.8044174662244
 20
107.3249743224454
 30
0.0
 10
156.0726141053055
 20
107.1668388905926
 30
0.0
 10
156.1965410011781
 20
107.0937684999115
 30
0.0
  0
SPLINE
  5
198
330
1F
100
AcDbEntity
  8
0
  6
Continuous
 62
     7
370
    25
100
AcDbSpline
210
0.0
220
0.0
230
1.0
 70
     8
 71
     3
 72
    12
 73
     8
 74
     0
 42
0.00000001
 43
0.00000001
 40
-0.822043127861726
 40
-0.822043127861726
 40
-0.822043127861726
 40
-0.822043127861726
 40
-0.8206122607487863
 40
-0.8206122607487863
 40
-0.6562036351764414
 40
-0.4917950096040954
 40
0.0014308671129396
 40
0.0014308671129396
 40
0.0014308671129396
 40
0.0014308671129396
 10
123.7206776808013
 20
107.0937684999115
 30
0.0
 10
123.7224826050514
 20
107.0947989913759
 30
0.0
 10
123.7242923129789
 20
107.0958319292517
 30
0.0
 10
123.9347962309003
 20
107.2159709551524
 30
0.0
 10
124.497177639609
 20
107.529483363859
 30
0.0
 10
126.2967388377514
 20
108.4572427074463
 30
0.0
 10
128.1158241049085
 20
109.2227750378734
 30
0.0
 10
129.5269362657946
 20
109.6969459977847
 30
0.0
  0
SPLINE
  5
199
330
1F
100
AcDbEntity
  8
0
  6
Continuous
 62
     7
370
    25
100
AcDbSpline
210
0.0
220
0.0
230
1.0
 70
     8
 71
     3
 72
    16
 73
    12
 74
     0
 42
0.00000001
 43
0.00000001
 40
0.0
 40
0.0
 40
0.0
 40
0.0
 40
0.1305026531761186
 40
0.2598151336594705
 40
0.3924691845965327
 40
0.5225794231280518
 40
0.6141799768289172
 40
0.7030758553731243
 40
0.7898882397963194
 40
0.9318857735505638
 40
1.0
 40
1.0
 40
1.0
 40
1.0
 10
150.390282416165
 20
109.6969459977913
 30
0.0
 10
150.6855513644059
 20
109.5949836148422
 30
0.0
 10
151.2733964341085
 20
109.3919887368884
 30
0.0
 10
152.1312236207759
 20
109.0606996078969
 30
0.0
 10
152.9557639860563
 20
108.7176849685197
 30
0.0
 10
153.6613559314906
 20
108.4010681077768
 30
0.0
 10
154.2438100651841
 20
108.1246959572474
 30
0.0
 10
154.7165039843158
 20
107.8905822738369
 30
0.0
 10
155.2333689324448
 20
107.624580760638
 30
0.0
 10
155.6819100098999
 20
107.3834685843221
 30
0.0
 10
155.9065934826999
 20
107.2566133522495
 30
0.0
 10
155.9794315805337
 20
107.2154893047649
 30
0.0
  0
ARC
  5
19A
330
1F
100
AcDbEntity
  8
0
  6
Continuous
 62
     7
370
    25
100
AcDbCircle
 10
139.958609341
 20
78.65274047
 30
0.0
 40
32.75
100
AcDbArc
 50
94.37798254
 51
106.6051701957
  0
ARC
  5
19B
330
1F
100
AcDbEntity
  8
0
  6
Continuous
 62
     7
370
    25
100
AcDbCircle
 10
139.958609341
 20
78.65274047
 30
0.0
 40
32.75
100
AcDbArc
 50
73.3948298044
 51
85.62201746
  0
SPLINE
  5
19C
330
1F
100
AcDbEntity
  8
0
  6
Continuous
 62
     7
370
    25
100
AcDbSpline
210
0.0
220
0.0
230
1.0
 70
     8
 71
     3
 72
    11
 73
     7
 74
     0
 42
0.00000001
 43
0.00000001
 40
0.0
 40
0.0
 40
0.0
 40
0.0
 40
0.2537799273315899
 40
0.504922746937519
 40
0.7536028855387475
 40
1.0
 40
1.0
 40
1.0
 40
1.0
 10
149.317735427434
 20
110.0369603726376
 30
0.0
 10
149.4090511548322
 20
110.0094806927648
 30
0.0
 10
149.5907337189392
 20
109.9548068830895
 30
0.0
 10
149.8607762528075
 20
109.8702392861864
 30
0.0
 10
150.1272358251935
 20
109.784631885561
 30
0.0
 10
150.3028701955636
 20
109.7260846311301
 30
0.0
 10
150.390282416165
 20
109.6969459977913
 30
0.0
  0
SPLINE
  5
19D
330
1F
100
AcDbEntity
  8
0
  6
Continuous
 62
     7
370
    25
100
AcDbSpline
210
0.0
220
0.0
230
1.0
 70
     8
 71
     3
 72
    11
 73
     7
 74
     0
 42
0.00000001
 43
0.00000001
 40
0.0
 40
0.0
 40
0.0
 40
0.0
 40
0.2463971144749628
 40
0.4950772530807341
 40
0.7462200726820898
 40
1.0
 40
1.0
 40
1.0
 40
1.0
 10
129.5269362657946
 20
109.6969459977846
 30
0.0
 10
129.6143484863958
 20
109.7260846311234
 30
0.0
 10
129.789982856762
 20
109.7846318855531
 30
0.0
 10
130.0564424291372
 20
109.8702392861754
 30
0.0
 10
130.3264849629846
 20
109.9548068830723
 30
0.0
 10
130.5081675270743
 20
110.0094806927428
 30
0.0
 10
130.5994832544622
 20
110.0369603726127
 30
0.0
  0
CIRCLE
  5
19E
330
1F
100
AcDbEntity
  8
0
  6
Continuous
 62
     8
370
    18
100
AcDbCircle
 10
139.958609341
 20
78.65274047
 30
0.0
 40
52.34661478305749
  0
CIRCLE
  5
19F
330
1F
100
AcDbEntity
  8
0
  6
Continuous
 62
     8
370
    18
100
AcDbCircle
 10
139.958609341
 20
78.65274047
 30
0.0
 40
53.19597047432303
  0
CIRCLE
  5
1A0
330
1F
100
AcDbEntity
  8
0
  6
Continuous
 62
     8
370
    18
100
AcDbCircle
 10
139.958609341
 20
78.65274047
 30
0.0
 40
53.54395571148455
  0
SPLINE
  5
1A1
330
1F
100
AcDbEntity
  8
0
  6
Continuous
 62
     8
370
    18
100
AcDbSpline
210
0.0
220
0.0
230
1.0
 70
     8
 71
     3
 72
    23
 73
    19
 74
     0
 42
0.00000001
 43
0.00000001
 40
0.0
 40
0.0
 40
0.0
 40
0.0
 40
0.0527055027243244
 40
0.1054177429626293
 40
0.1606451534997099
 40
0.2158858294964929
 40
0.2923134953531146
 40
0.3698463234228829
 40
0.4483871325200993
 40
0.5281689451437712
 40
0.6081702941179857
 40
0.6882840184759957
 40
0.7479049379454354
 40
0.8075396588167572
 40
0.8659981486662326
 40
0.92447017081942
 40
0.9811597714215836
 40
1.0
 40
1.0
 40
1.0
 40
1.0
 10
110.5327578506854
 20
72.81157071808164
 30
0.0
 10
110.6783437141623
 20
72.14665406996558
 30
0.0
 10
110.9695340518255
 20
70.81673577529912
 30
0.0
 10
111.5869632929923
 20
68.83441102551053
 30
0.0
 10
112.3425190695512
 20
66.86643086001946
 30
0.0
 10
113.3697912852724
 20
64.6810343871973
 30
0.0
 10
114.723082870999
 20
62.33866559649153
 30
0.0
 10
116.4785067317169
 20
59.8978789614719
 30
0.0
 10
118.4995304988165
 20
57.61359480144377
 30
0.0
 10
120.7665112469833
 20
55.52548684559308
 30
0.0
 10
123.2528447698159
 20
53.66989649677051
 30
0.0
 10
125.6939366757409
 20
52.21466348377398
 30
0.0
 10
128.0162689202172
 20
51.09945439939995
 30
0.0
 10
130.1571499524895
 20
50.26896586142052
 30
0.0
 10
132.3403130745465
 20
49.60444582904304
 30
0.0
 10
134.5311286754976
 20
49.1270943388699
 30
0.0
 10
136.242516641932
 20
48.85178739319948
 30
0.0
 10
137.2158261429408
 20
48.79026325299343
 30
0.0
 10
137.4586093409897
 20
48.77491661607994
 30
0.0
  0
SPLINE
  5
1A2
330
1F
100
AcDbEntity
  8
0
  6
Continuous
 62
     8
370
    18
100
AcDbSpline
210
0.0
220
0.0
230
1.0
 70
     8
 71
     3
 72
    43
 73
    39
 74
     0
 42
0.00000001
 43
0.00000001
 40
0.0
 40
0.0
 40
0.0
 40
0.0
 40
0.0075684303885975
 40
0.0301879535835803
 40
0.0528131834433549
 40
0.0760740154261822
 40
0.0993406461149626
 40
0.131734985956456
 40
0.1647148836719595
 40
0.1982404170996288
 40
0.2325557856752217
 40
0.2671025899867787
 40
0.3018351012250434
 40
0.3365622489860317
 40
0.3711091171244129
 40
0.4054297855981175
 40
0.4305788843985287
 40
0.4557338048496515
 40
0.4800374306586632
 40
0.504346894587247
 40
0.5276077269076946
 40
0.5508743579316597
 40
0.5734938810040379
 40
0.5961191107657116
 40
0.6197460037445367
 40
0.6433787867090884
 40
0.6679888134037374
 40
0.6926047520895213
 40
0.7264298741284604
 40
0.7606158135834378
 40
0.7951183142456212
 40
0.8298918244359403
 40
0.8646219425453967
 40
0.8992620835496462
 40
0.9248394964504383
 40
0.9504228301563108
 40
0.9753153938961162
 40
1.0
 40
1.0
 40
1.0
 40
1.0
 10
142.4586093409897
 20
48.77324702703559
 30
0.0
 10
142.683264203307
 20
48.78748510391447
 30
0.0
 10
143.5793377889446
 20
48.84427606080654
 30
0.0
 10
145.1340223394059
 20
49.08566262506878
 30
0.0
 10
147.1297932245954
 20
49.49679185746113
 30
0.0
 10
149.1103680142205
 20
50.05789286072804
 30
0.0
 10
151.3211385942947
 20
50.8503107529578
 30
0.0
 10
153.724220529518
 20
51.94407211840736
 30
0.0
 10
156.2741508041337
 20
53.41878351581568
 30
0.0
 10
158.7124530178378
 20
55.17190402613887
 30
0.0
 10
160.997133716358
 20
57.1925172679374
 30
0.0
 10
163.0875201963171
 20
59.4627795442252
 30
0.0
 10
164.9404215696023
 20
61.94605707849669
 30
0.0
 10
166.5276850258763
 20
64.60699777638278
 30
0.0
 10
167.8274703109167
 20
67.40592370927217
 30
0.0
 10
168.7408669826437
 20
70.05368250804696
 30
0.0
 10
169.3492613216179
 20
72.49780216715519
 30
0.0
 10
169.7225303649254
 20
74.68695570607629
 30
0.0
 10
169.9321350276816
 20
76.87247330201797
 30
0.0
 10
169.9814158921828
 20
79.01112561046958
 30
0.0
 10
169.8814384278963
 20
81.11691435366467
 30
0.0
 10
169.6414487038637
 20
83.16077022691846
 30
0.0
 10
169.2666340462356
 20
85.16489641558132
 30
0.0
 10
168.7547897551864
 20
87.14954627230055
 30
0.0
 10
168.0986560516921
 20
89.12325959776807
 30
0.0
 10
167.2825244303127
 20
91.10038240493147
 30
0.0
 10
166.3140203528619
 20
93.04070374282543
 30
0.0
 10
165.0507917076378
 20
95.16530252791065
 30
0.0
 10
163.4404808400043
 20
97.40602477746965
 30
0.0
 10
161.4168558792605
 20
99.69293375969154
 30
0.0
 10
159.1494881684418
 20
101.7805987750601
 30
0.0
 10
156.6665693084374
 20
103.6339934812482
 30
0.0
 10
154.0021117904941
 20
105.2232996777403
 30
0.0
 10
151.4362033907908
 20
106.4137539189843
 30
0.0
 10
149.0330931390172
 20
107.2785781856669
 30
0.0
 10
146.8503133279123
 20
107.8771709507306
 30
0.0
 10
144.6559951496552
 20
108.3179797226453
 30
0.0
 10
143.1890201405303
 20
108.4713350415617
 30
0.0
 10
142.4586093409897
 20
108.5476910669927
 30
0.0
  0
SPLINE
  5
1A3
330
1F
100
AcDbEntity
  8
0
  6
Continuous
 62
     8
370
    18
100
AcDbSpline
210
0.0
220
0.0
230
1.0
 70
     8
 71
     3
 72
     9
 73
     5
 74
     0
 42
0.00000001
 43
0.00000001
 40
0.0
 40
0.0
 40
0.0
 40
0.0
 40
0.1933169272219865
 40
1.0
 40
1.0
 40
1.0
 40
1.0
 10
137.4586093409897
 20
108.5251665423068
 30
0.0
 10
137.2414235205721
 20
108.5143236949361
 30
0.0
 10
136.117953250593
 20
108.4582352420183
 30
0.0
 10
135.0106679211131
 20
108.2481024924238
 30
0.0
 10
134.1174395890861
 20
108.0785919602896
 30
0.0
  0
SPLINE
  5
1A4
330
1F
100
AcDbEntity
  8
0
  6
Continuous
 62
     8
370
    18
100
AcDbSpline
210
0.0
220
0.0
230
1.0
 70
     8
 71
     3
 72
    27
 73
    23
 74
     0
 42
0.00000001
 43
0.00000001
 40
0.0
 40
0.0
 40
0.0
 40
0.0
 40
0.0466115643343185
 40
0.0931641111022141
 40
0.1412288778713054
 40
0.1905682012706382
 40
0.2399892940220372
 40
0.2829009184482422
 40
0.3257198216219074
 40
0.3686413712738242
 40
0.4343148969762689
 40
0.4999998375175192
 40
0.5438264285161882
 40
0.587554010250052
 40
0.6313907372384989
 40
0.6743023627293809
 40
0.7171212659030461
 40
0.7600428166208941
 40
0.8217748816520645
 40
0.8835180788022304
 40
0.9417562243794562
 40
1.0
 40
1.0
 40
1.0
 40
1.0
 10
134.1174395890861
 20
108.0785919602896
 30
0.0
 10
133.4023015831745
 20
107.9209654093266
 30
0.0
 10
131.9729310484656
 20
107.6059118873884
 30
0.0
 10
129.8579536364717
 20
106.928505739848
 30
0.0
 10
127.7561041080474
 20
106.0916592746409
 30
0.0
 10
125.6844194365435
 20
105.0738588453152
 30
0.0
 10
123.7678724344448
 20
103.9396835577334
 30
0.0
 10
122.0225368672781
 20
102.7293560618732
 30
0.0
 10
120.4427050031083
 20
101.4675184099535
 30
0.0
 10
118.6881143614795
 20
99.86040547716114
 30
0.0
 10
116.8298251273237
 20
97.84422007977813
 30
0.0
 10
115.1825609454634
 20
95.63448138456035
 30
0.0
 10
113.9129202632947
 20
93.58823370073713
 30
0.0
 10
112.9479078029841
 20
91.76258069068584
 30
0.0
 10
112.1170576326716
 20
89.88788791257203
 30
0.0
 10
111.419454429152
 20
87.97492393820743
 30
0.0
 10
110.8567272368643
 20
86.03289350592806
 30
0.0
 10
110.3637639860056
 20
83.7685556087372
 30
0.0
 10
110.0159741046827
 20
81.17405604140444
 30
0.0
 10
109.9194517620235
 20
78.31858737761112
 30
0.0
 10
110.0690344842304
 20
75.51791240059514
 30
0.0
 10
110.378178414474
 20
73.71371368033148
 30
0.0
 10
110.5327578506854
 20
72.81157071808164
 30
0.0
  0
ARC
  5
1A5
330
1F
100
AcDbEntity
  8
0
  6
Continuous
 62
     8
370
    18
100
AcDbCircle
 10
139.958609341
 20
78.65274047
 30
0.0
 40
10.57375804457691
100
AcDbArc
 50
103.6761900584
 51
191.2275294926
  0
ARC
  5
1A6
330
1F
100
AcDbEntity
  8
0
  6
Continuous
 62
     8
370
    18
100
AcDbCircle
 10
139.958609341
 20
78.65274047
 30
0.0
 40
10.5737580445769
100
AcDbArc
 50
283.6761900584
 51
76.3238099416
  0
ARC
  5
1A7
330
1F
100
AcDbEntity
  8
0
  6
Continuous
 62
     8
370
    18
100
AcDbCircle
 10
139.958609341
 20
78.65274047
 30
0.0
 40
10.57375804457691
100
AcDbArc
 50
191.2275294926
 51
256.3238099416
  0
ARC
  5
1A8
330
1F
100
AcDbEntity
  8
0
  6
Continuous
 62
     8
370
    18
100
AcDbCircle
 10
139.958609341
 20
78.65274047
 30
0.0
 40
10.81364471217325
100
AcDbArc
 50
103.3671066262
 51
256.6328933738
  0
ARC
  5
1A9
330
1F
100
AcDbEntity
  8
0
  6
Continuous
 62
     8
370
    18
100
AcDbCircle
 10
139.958609341
 20
78.65274047
 30
0.0
 40
10.81364471217325
100
AcDbArc
 50
283.3671066262
 51
76.6328933738
  0
SPLINE
  5
1AA
330
1F
100
AcDbEntity
  8
0
  6
Continuous
 62
     8
370
    18
100
AcDbSpline
210
0.0
220
0.0
230
1.0
 70
     8
 71
     3
 72
    24
 73
    20
 74
     0
 42
0.00000001
 43
0.00000001
 40
0.0
 40
0.0
 40
0.0
 40
0.0
 40
0.0582423981339999
 40
0.1164929340041316
 40
0.1782283902205647
 40
0.239979933139241
 40
0.3042887858920858
 40
0.3686137904727009
 40
0.4342910180852519
 40
0.4999847412203655
 40
0.5656619693048992
 40
0.6313556929113664
 40
0.674269188709107
 40
0.7170921615056361
 40
0.7600200001949339
 40
0.8217554553443188
 40
0.8835069975047337
 40
0.941749430942644
 40
1.0
 40
1.0
 40
1.0
 40
1.0
 10
119.5940979245125
 20
74.6102892893485
 30
0.0
 10
119.4871417552605
 20
75.2345559077224
 30
0.0
 10
119.2732144726419
 20
76.48317636816253
 30
0.0
 10
119.1696425909237
 20
78.42125158325406
 30
0.0
 10
119.2364640530291
 20
80.39754350706404
 30
0.0
 10
119.5079484612881
 20
82.42360660781583
 30
0.0
 10
119.9824930419219
 20
84.44090717619832
 30
0.0
 10
120.6738096821319
 20
86.43990260718817
 30
0.0
 10
121.5701102356076
 20
88.37256684885013
 30
0.0
 10
122.6697841274023
 20
90.21437509831455
 30
0.0
 10
123.9519383009668
 20
91.93426709108648
 30
0.0
 10
125.2379206845735
 20
93.32956083307316
 30
0.0
 10
126.4521752935344
 20
94.44181626811434
 30
0.0
 10
127.5455454074456
 20
95.31510581697906
 30
0.0
 10
128.863469868755
 20
96.22895179779431
 30
0.0
 10
130.4309717596123
 20
97.13723792332678
 30
0.0
 10
132.2317705887975
 20
97.95378029375149
 30
0.0
 10
134.0626157452807
 20
98.59845448644062
 30
0.0
 10
135.298281923244
 20
98.87764625373875
 30
0.0
 10
135.9161581603529
 20
99.01725188646255
 30
0.0
  0
LINE
  5
1AB
330
1F
100
AcDbEntity
  8
0
  6
Continuous
 62
     8
370
    18
100
AcDbLine
 10
135.9161581604
 20
99.0172518865
 30
0.0
 11
137.458609341
 21
99.2513393193
 31
0.0
  0
SPLINE
  5
1AC
330
1F
100
AcDbEntity
  8
0
  6
Continuous
 62
     8
370
    18
100
AcDbSpline
210
0.0
220
0.0
230
1.0
 70
     8
 71
     3
 72
    37
 73
    33
 74
     0
 42
0.00000001
 43
0.00000001
 40
0.0
 40
0.0
 40
0.0
 40
0.0
 40
0.0209117952797579
 40
0.0554404632321959
 40
0.0904192623429956
 40
0.1259483111606777
 40
0.1615763449071924
 40
0.1972556549107814
 40
0.2326435315712878
 40
0.267713474593252
 40
0.302419692143306
 40
0.3360690325421752
 40
0.3690696327101055
 40
0.401383448500302
 40
0.4323129728151368
 40
0.4637007180765652
 40
0.4955142197330982
 40
0.528744926197496
 40
0.5625775181297318
 40
0.5969710312646395
 40
0.6321724095534623
 40
0.6676124023477147
 40
0.7032441421784759
 40
0.7388679316384286
 40
0.774308019044039
 40
0.8095172534594208
 40
0.8439030931204039
 40
0.8777356632523626
 40
0.9109740646057358
 40
0.9427799235546026
 40
0.9741677903615075
 40
1.0
 40
1.0
 40
1.0
 40
1.0
 10
142.4586093409897
 20
99.23942514229451
 30
0.0
 10
142.8755526060784
 20
99.1908291867016
 30
0.0
 10
143.9809348771279
 20
99.06199365377681
 30
0.0
 10
145.746575031614
 20
98.62249943283324
 30
0.0
 10
147.7426965764601
 20
97.94073702632748
 30
0.0
 10
149.6772352547828
 20
97.04085837838242
 30
0.0
 10
151.5213679244164
 20
95.94161179161246
 30
0.0
 10
153.2396734056474
 20
94.65878653971878
 30
0.0
 10
154.8088384872257
 20
93.21404684072024
 30
0.0
 10
156.2093800121764
 20
91.63136242018916
 30
0.0
 10
157.4223437191783
 20
89.94366274537346
 30
0.0
 10
158.4416471363889
 20
88.18054052270624
 30
0.0
 10
159.2660053558956
 20
86.37109066506517
 30
0.0
 10
159.8975727350283
 20
84.543517456526
 30
0.0
 10
160.3515137283357
 20
82.69756653905624
 30
0.0
 10
160.6355124444128
 20
80.82799808332356
 30
0.0
 10
160.7498364097479
 20
78.89409061293689
 30
0.0
 10
160.6800035176433
 20
76.90863387179843
 30
0.0
 10
160.4108209924139
 20
74.88784826425778
 30
0.0
 10
159.934091378001
 20
72.86493190246627
 30
0.0
 10
159.2456565328105
 20
70.8695449166903
 30
0.0
 10
158.346206951999
 20
68.93243201444956
 30
0.0
 10
157.2477194480163
 20
67.09090678282712
 30
0.0
 10
155.9653984688704
 20
65.37232476511997
 30
0.0
 10
154.5187842059167
 20
63.80110195612143
 30
0.0
 10
152.9376310908557
 20
62.40272638658814
 30
0.0
 10
151.2501968425323
 20
61.18938900168401
 30
0.0
 10
149.4854504618886
 20
60.16898289224267
 30
0.0
 10
147.6773418152919
 20
59.34499804864306
 30
0.0
 10
145.8459016584181
 20
58.71581766504951
 30
0.0
 10
144.1109168898037
 20
58.27541646726741
 30
0.0
 10
142.9725356517611
 20
58.12254556180761
 30
0.0
 10
142.4586093409897
 20
58.05353144084201
 30
0.0
  0
SPLINE
  5
1AD
330
1F
100
AcDbEntity
  8
0
  6
Continuous
 62
     8
370
    18
100
AcDbSpline
210
0.0
220
0.0
230
1.0
 70
     8
 71
     3
 72
    20
 73
    16
 74
     0
 42
0.00000001
 43
0.00000001
 40
0.0
 40
0.0
 40
0.0
 40
0.0
 40
0.0479681724138695
 40
0.1282119144379655
 40
0.2093143596762503
 40
0.2911706797300705
 40
0.3736642942525622
 40
0.4560578117136162
 40
0.5382406801247787
 40
0.6191146545985469
 40
0.69896618794576
 40
0.7776939648444514
 40
0.8535057829112999
 40
0.9276389760407697
 40
1.0
 40
1.0
 40
1.0
 40
1.0
 10
137.4586093409897
 20
58.0654606868039
 30
0.0
 10
137.0450722313928
 20
58.11379802575421
 30
0.0
 10
135.9397479748191
 20
58.24299666839136
 30
0.0
 10
134.1721622738266
 20
58.6822704920116
 30
0.0
 10
132.1736214091153
 20
59.36500494403104
 30
0.0
 10
130.2392738118784
 20
60.26525063103663
 30
0.0
 10
128.3974546771952
 20
61.36283862105183
 30
0.0
 10
126.6766683174658
 20
62.64707927867865
 30
0.0
 10
125.1078009688769
 20
64.09215750539607
 30
0.0
 10
123.709053553876
 20
65.67300769263574
 30
0.0
 10
122.494382810762
 20
67.36222901817148
 30
0.0
 10
121.4745896972846
 20
69.12541783782488
 30
0.0
 10
120.6541458465459
 20
70.93406065316314
 30
0.0
 10
120.0127275784678
 20
72.7571618903664
 30
0.0
 10
119.7325111983955
 20
73.99758202460504
 30
0.0
 10
119.5940979245125
 20
74.6102892893485
 30
0.0
  0
LINE
  5
1AE
330
1F
100
AcDbEntity
  8
0
  6
Continuous
 62
     8
370
    18
100
AcDbLine
 10
133.6210575616
 20
121.4709541296
 30
0.0
 11
132.0268870723
 21
123.9637521763
 31
0.0
  0
SPLINE
  5
1AF
330
1F
100
AcDbEntity
  8
0
  6
Continuous
 62
     8
370
    18
100
AcDbSpline
210
0.0
220
0.0
230
1.0
 70
     8
 71
     3
 72
    17
 73
    13
 74
     0
 42
0.00000001
 43
0.00000001
 40
0.0
 40
0.0
 40
0.0
 40
0.0
 40
0.0811424854420619
 40
0.1590598069191554
 40
0.2337374769309533
 40
0.3051711003602949
 40
0.3733655517855803
 40
0.4383342282215991
 40
0.5000984028931357
 40
0.6777678918637009
 40
0.8443060744640406
 40
1.0
 40
1.0
 40
1.0
 40
1.0
 10
132.3621191098299
 20
121.4377035907345
 30
0.0
 10
132.4013457287137
 20
121.4233016459725
 30
0.0
 10
132.4782398291564
 20
121.3950701894102
 30
0.0
 10
132.5892475682875
 20
121.3626993413818
 30
0.0
 10
132.6940770831675
 20
121.3379289260989
 30
0.0
 10
132.7926194729707
 20
121.320605378611
 30
0.0
 10
132.8849497442082
 20
121.3097710104004
 30
0.0
 10
132.9711284219656
 20
121.304683096402
 30
0.0
 10
133.1027127613731
 20
121.3043622403321
 30
0.0
 10
133.269765578231
 20
121.3237326908808
 30
0.0
 10
133.4604424705489
 20
121.3797506777391
 30
0.0
 10
133.5687339962884
 20
121.4412427884503
 30
0.0
 10
133.6210575615662
 20
121.4709541296369
 30
0.0
  0
LINE
  5
1B0
330
1F
100
AcDbEntity
  8
0
  6
Continuous
 62
     8
370
    18
100
AcDbLine
 10
132.3621191098
 20
121.4377035907
 30
0.0
 11
131.9170559565
 21
123.9443889183
 31
0.0
  0
LINE
  5
1B1
330
1F
100
AcDbEntity
  8
0
  6
Continuous
 62
     8
370
    18
100
AcDbLine
 10
135.7199786001
 20
122.1969307764
 30
0.0
 11
135.5019918763
 21
124.4363462779
 31
0.0
  0
LINE
  5
1B2
330
1F
100
AcDbEntity
  8
0
  6
Continuous
 62
     8
370
    18
100
AcDbLine
 10
147.8903316097
 20
123.9637521763
 30
0.0
 11
146.2961611204
 21
121.4709541296
 31
0.0
  0
LINE
  5
1B3
330
1F
100
AcDbEntity
  8
0
  6
Continuous
 62
     8
370
    18
100
AcDbLine
 10
148.0001627255
 20
123.9443889183
 30
0.0
 11
147.5550995721
 21
121.4377035907
 31
0.0
  0
SPLINE
  5
1B4
330
1F
100
AcDbEntity
  8
0
  6
Continuous
 62
     8
370
    18
100
AcDbSpline
210
0.0
220
0.0
230
1.0
 70
     8
 71
     3
 72
    16
 73
    12
 74
     0
 42
0.00000001
 43
0.00000001
 40
0.0
 40
0.0
 40
0.0
 40
0.0
 40
0.076538251797045
 40
0.1557373540965382
 40
0.2376561823340927
 40
0.3223383143612598
 40
0.4098123690562414
 40
0.5000922798826875
 40
0.649140722808993
 40
0.8157590651228249
 40
1.0
 40
1.0
 40
1.0
 40
1.0
 10
146.2961611204132
 20
121.4709541296369
 30
0.0
 10
146.3214391963675
 20
121.4556915933038
 30
0.0
 10
146.3728741399852
 20
121.4246359189251
 30
0.0
 10
146.4568690875056
 20
121.3861642791487
 30
0.0
 10
146.5477084683263
 20
121.3536014657996
 30
0.0
 10
146.6460170996082
 20
121.328463938091
 30
0.0
 10
146.7518706470925
 20
121.311480918787
 30
0.0
 10
146.8888619125699
 20
121.3018815506147
 30
0.0
 10
147.0675242016516
 20
121.3096687508323
 30
0.0
 10
147.2974766691059
 20
121.348654760604
 30
0.0
 10
147.4663971507488
 20
121.4070430913683
 30
0.0
 10
147.5550995721496
 20
121.4377035907345
 30
0.0
  0
LINE
  5
1B5
330
1F
100
AcDbEntity
  8
0
  6
Continuous
 62
     8
370
    18
100
AcDbLine
 10
144.4152268057
 20
124.4363462779
 30
0.0
 11
144.1972400819
 21
122.1969307764
 31
0.0
  0
ARC
  5
1B6
330
1F
100
AcDbEntity
  8
0
  6
Continuous
 62
     8
370
    18
100
AcDbCircle
 10
139.958609341
 20
78.65274047
 30
0.0
 40
43.45411065798014
100
AcDbArc
 50
100.0679726183
 51
79.9320273817
  0
SPLINE
  5
1B7
330
1F
100
AcDbEntity
  8
0
  6
Continuous
 62
     8
370
    18
100
AcDbSpline
210
0.0
220
0.0
230
1.0
 70
     8
 71
     3
 72
     8
 73
     4
 74
     0
 42
0.00000001
 43
0.00000001
 40
0.0
 40
0.0
 40
0.0
 40
0.0
 40
0.534007842378915
 40
0.534007842378915
 40
0.534007842378915
 40
0.534007842378915
 10
132.3621191098298
 20
121.4377035907346
 30
0.0
 10
131.1947205592865
 20
120.6532366182828
 30
0.0
 10
130.4441355875297
 20
119.6920804371262
 30
0.0
 10
129.9347565132503
 20
118.7387672713401
 30
0.0
  0
SPLINE
  5
1B8
330
1F
100
AcDbEntity
  8
0
  6
Continuous
 62
     8
370
    18
100
AcDbSpline
210
0.0
220
0.0
230
1.0
 70
     8
 71
     3
 72
     9
 73
     5
 74
     0
 42
0.00000001
 43
0.00000001
 40
0.0
 40
0.0
 40
0.0
 40
0.0
 40
1.02812719458296
 40
1.79922259052019
 40
1.79922259052019
 40
1.79922259052019
 40
1.79922259052019
 10
129.9347565132502
 20
118.7387672713401
 30
0.0
 10
128.9540471733182
 20
116.9033500491282
 30
0.0
 10
127.2035015811869
 20
113.611118550625
 30
0.0
 10
125.3432325148285
 20
110.091555827444
 30
0.0
 10
124.5127680300687
 20
108.5213659633644
 30
0.0
  0
SPLINE
  5
1B9
330
1F
100
AcDbEntity
  8
0
  6
Continuous
 62
     8
370
    18
100
AcDbSpline
210
0.0
220
0.0
230
1.0
 70
     8
 71
     3
 72
     9
 73
     5
 74
     0
 42
0.00000001
 43
0.00000001
 40
0.0
 40
0.0
 40
0.0
 40
0.0
 40
0.102991576943205
 40
0.180235259650608
 40
0.180235259650608
 40
0.180235259650608
 40
0.180235259650608
 10
124.5127680300687
 20
108.5213659633644
 30
0.0
 10
124.4018468038087
 20
108.3116431053967
 30
0.0
 10
124.1438584682119
 20
107.9331673774219
 30
0.0
 10
123.7109114789494
 20
107.5895782206996
 30
0.0
 10
123.5047913114262
 20
107.471897341144
 30
0.0
  0
ARC
  5
1BA
330
1F
100
AcDbEntity
  8
0
  6
Continuous
 62
     8
370
    18
100
AcDbCircle
 10
139.958609341
 20
78.65274047
 30
0.0
 40
33.18541743770059
100
AcDbArc
 50
119.7234874087
 51
265.6795697088
  0
ARC
  5
1BB
330
1F
100
AcDbEntity
  8
0
  6
Continuous
 62
     8
370
    18
100
AcDbCircle
 10
139.958609341
 20
78.65274047
 30
0.0
 40
33.18541743770058
100
AcDbArc
 50
274.3204302912
 51
60.2765125913
  0
SPLINE
  5
1BC
330
1F
100
AcDbEntity
  8
0
  6
Continuous
 62
     8
370
    18
100
AcDbSpline
210
0.0
220
0.0
230
1.0
 70
     8
 71
     3
 72
     9
 73
     5
 74
     0
 42
0.00000001
 43
0.00000001
 40
0.0
 40
0.0
 40
0.0
 40
0.0
 40
0.0772375188617349
 40
0.180220877344048
 40
0.180220877344048
 40
0.180220877344048
 40
0.180220877344048
 10
156.4124273705532
 20
107.471897341144
 30
0.0
 10
156.2063236508851
 20
107.5895688300704
 30
0.0
 10
155.7734037101201
 20
107.9331377059658
 30
0.0
 10
155.5153630269444
 20
108.3116598407371
 30
0.0
 10
155.4044506519108
 20
108.5213659633644
 30
0.0
  0
SPLINE
  5
1BD
330
1F
100
AcDbEntity
  8
0
  6
Continuous
 62
     8
370
    18
100
AcDbSpline
210
0.0
220
0.0
230
1.0
 70
     8
 71
     3
 72
     9
 73
     5
 74
     0
 42
0.00000001
 43
0.00000001
 40
0.0000000000000002
 40
0.0000000000000002
 40
0.0000000000000002
 40
0.0000000000000002
 40
1.02812719458297
 40
1.79922259052019
 40
1.79922259052019
 40
1.79922259052019
 40
1.79922259052019
 10
155.4044506519108
 20
108.5213659633644
 30
0.0
 10
154.2971646722309
 20
110.6149524488038
 30
0.0
 10
152.4610737035199
 20
114.0885790279304
 30
0.0
 10
150.7179941736782
 20
117.3622043546811
 30
0.0
 10
149.9824621687292
 20
118.7387672713401
 30
0.0
  0
SPLINE
  5
1BE
330
1F
100
AcDbEntity
  8
0
  6
Continuous
 62
     8
370
    18
100
AcDbSpline
210
0.0
220
0.0
230
1.0
 70
     8
 71
     3
 72
     8
 73
     4
 74
     0
 42
0.00000001
 43
0.00000001
 40
0.0
 40
0.0
 40
0.0
 40
0.0
 40
0.534007917536861
 40
0.534007917536861
 40
0.534007917536861
 40
0.534007917536861
 10
149.9824621687291
 20
118.7387672713401
 30
0.0
 10
149.4730830227582
 20
119.6920805712985
 30
0.0
 10
148.7224982869964
 20
120.6532365078743
 30
0.0
 10
147.5550995721496
 20
121.4377035907346
 30
0.0
  0
SPLINE
  5
1BF
330
1F
100
AcDbEntity
  8
0
  6
Continuous
 62
     8
370
    18
100
AcDbSpline
210
0.0
220
0.0
230
1.0
 70
     8
 71
     3
 72
     8
 73
     4
 74
     0
 42
0.00000001
 43
0.00000001
 40
0.0
 40
0.0
 40
0.0
 40
0.0
 40
1.0
 40
1.0
 40
1.0
 40
1.0
 10
132.0665521268438
 20
119.8442758288576
 30
0.0
 10
131.676002390684
 20
119.1678238429464
 30
0.0
 10
130.8626467594334
 20
118.746033121116
 30
0.0
 10
129.9347565132503
 20
118.7387672713401
 30
0.0
  0
SPLINE
  5
1C0
330
1F
100
AcDbEntity
  8
0
  6
Continuous
 62
     8
370
    18
100
AcDbSpline
210
0.0
220
0.0
230
1.0
 70
     8
 71
     3
 72
     8
 73
     4
 74
     0
 42
0.00000001
 43
0.00000001
 40
0.0
 40
0.0
 40
0.0
 40
0.0
 40
1.0
 40
1.0
 40
1.0
 40
1.0
 10
147.8506665551357
 20
119.8442758288575
 30
0.0
 10
148.2412162912955
 20
119.1678238429464
 30
0.0
 10
149.0545719225461
 20
118.746033121116
 30
0.0
 10
149.9824621687291
 20
118.7387672713401
 30
0.0
  0
SPLINE
  5
1C1
330
1F
100
AcDbEntity
  8
0
  6
Continuous
 62
     8
370
    18
100
AcDbSpline
210
0.0
220
0.0
230
1.0
 70
     8
 71
     3
 72
     8
 73
     4
 74
     0
 42
0.00000001
 43
0.00000001
 40
0.0
 40
0.0
 40
0.0
 40
0.0
 40
1.0
 40
1.0
 40
1.0
 40
1.0
 10
124.5127680300687
 20
108.5213659633644
 30
0.0
 10
125.1999878416659
 20
108.5940167827563
 30
0.0
 10
125.7557204865461
 20
108.9135947898489
 30
0.0
 10
126.0344945345708
 20
109.3964456048594
 30
0.0
  0
SPLINE
  5
1C2
330
1F
100
AcDbEntity
  8
0
  6
Continuous
 62
     8
370
    18
100
AcDbSpline
210
0.0
220
0.0
230
1.0
 70
     8
 71
     3
 72
     8
 73
     4
 74
     0
 42
0.00000001
 43
0.00000001
 40
0.0
 40
0.0
 40
0.0
 40
0.0
 40
1.0
 40
1.0
 40
1.0
 40
1.0
 10
155.4044506519108
 20
108.5213659633644
 30
0.0
 10
154.7172308403136
 20
108.5940167827563
 30
0.0
 10
154.1614981954334
 20
108.9135947898489
 30
0.0
 10
153.8827241474086
 20
109.3964456048593
 30
0.0
  0
SPLINE
  5
1C3
330
1F
100
AcDbEntity
  8
0
  6
Continuous
 62
     8
370
    18
100
AcDbSpline
210
0.0
220
0.0
230
1.0
 70
    24
 71
     3
 72
     8
 73
     4
 74
     0
 42
0.00000001
 43
0.00000001
 40
0.0
 40
0.0
 40
0.0
 40
0.0
 40
1.0
 40
1.0
 40
1.0
 40
1.0
 10
156.4124273705532
 20
107.4718973411439
 30
0.0
 10
156.2710020371585
 20
107.2241883375962
 30
0.0
 10
156.196541001178
 20
107.0937684999115
 30
0.0
 10
156.196541001178
 20
107.0937684999115
 30
0.0
  0
SPLINE
  5
1C4
330
1F
100
AcDbEntity
  8
0
  6
Continuous
 62
     8
370
    18
100
AcDbSpline
210
0.0
220
0.0
230
1.0
 70
    24
 71
     3
 72
     8
 73
     4
 74
     0
 42
0.00000001
 43
0.00000001
 40
0.0
 40
0.0
 40
0.0
 40
0.0
 40
1.0
 40
1.0
 40
1.0
 40
1.0
 10
123.7206776808013
 20
107.0937684999115
 30
0.0
 10
123.7206776808013
 20
107.0937684999115
 30
0.0
 10
123.6462166448209
 20
107.2241883375962
 30
0.0
 10
123.5047913114262
 20
107.4718973411439
 30
0.0
  0
SPLINE
  5
1C5
330
1F
100
AcDbEntity
  8
0
  6
Continuous
 62
     8
370
    18
100
AcDbSpline
210
0.0
220
0.0
230
1.0
 70
     8
 71
     3
 72
     9
 73
     5
 74
     0
 42
0.00000001
 43
0.00000001
 40
0.0
 40
0.0
 40
0.0
 40
0.0
 40
0.4106276127966977
 40
1.0
 40
1.0
 40
1.0
 40
1.0
 10
147.7633219495146
 20
119.9492528392035
 30
0.0
 10
147.6829869906429
 20
120.0612643994206
 30
0.0
 10
147.4873475441756
 20
120.3340457631828
 30
0.0
 10
147.1284698434331
 20
120.5279675442299
 30
0.0
 10
146.9169572362324
 20
120.6422596872564
 30
0.0
  0
SPLINE
  5
1C6
330
1F
100
AcDbEntity
  8
0
  6
Continuous
 62
     8
370
    18
100
AcDbSpline
210
0.0
220
0.0
230
1.0
 70
     8
 71
     3
 72
     9
 73
     5
 74
     0
 42
0.00000001
 43
0.00000001
 40
0.0981890504785341
 40
0.0981890504785341
 40
0.0981890504785341
 40
0.0981890504785341
 40
0.4846794574163051
 40
1.0
 40
1.0
 40
1.0
 40
1.0
 10
153.8827241474036
 20
109.396445604868
 30
0.0
 10
153.659154837263
 20
109.7836790090461
 30
0.0
 10
152.8149916546582
 20
110.5013549518498
 30
0.0
 10
151.3675192204483
 20
110.6513526073842
 30
0.0
 10
150.4532067736177
 20
110.5389348121053
 30
0.0
  0
SPLINE
  5
1C7
330
1F
100
AcDbEntity
  8
0
  6
Continuous
 62
     8
370
    18
100
AcDbSpline
210
0.0
220
0.0
230
1.0
 70
     8
 71
     3
 72
    10
 73
     6
 74
     0
 42
0.00000001
 43
0.00000001
 40
0.0
 40
0.0
 40
0.0
 40
0.0
 40
0.3453066830357023
 40
0.6785986588674993
 40
0.9999999999999999
 40
0.9999999999999999
 40
0.9999999999999999
 40
0.9999999999999999
 10
149.5898046874854
 20
110.9492976680986
 30
0.0
 10
149.6892395096191
 20
110.9031233283236
 30
0.0
 10
149.8846493880245
 20
110.8123812529894
 30
0.0
 10
150.1725168051597
 20
110.6752428100126
 30
0.0
 10
150.3606535380023
 20
110.5835200868164
 30
0.0
 10
150.4530134211492
 20
110.5384916658997
 30
0.0
  0
SPLINE
  5
1C8
330
1F
100
AcDbEntity
  8
0
  6
Continuous
 62
     8
370
    18
100
AcDbSpline
210
0.0
220
0.0
230
1.0
 70
     8
 71
     3
 72
     8
 73
     4
 74
     0
 42
0.00000001
 43
0.00000001
 40
0.0668259205362096
 40
0.0668259205362096
 40
0.0668259205362096
 40
0.0668259205362096
 40
1.430855712941494
 40
1.430855712941494
 40
1.430855712941494
 40
1.430855712941494
 10
143.2885219870006
 20
120.4986388407128
 30
0.0
 10
145.2674710084673
 20
117.4434424214428
 30
0.0
 10
147.3360681513715
 20
114.3095734575832
 30
0.0
 10
149.5897999217516
 20
110.9492964254587
 30
0.0
  0
SPLINE
  5
1C9
330
1F
100
AcDbEntity
  8
0
  6
Continuous
 62
     8
370
    18
100
AcDbSpline
210
0.0
220
0.0
230
1.0
 70
     8
 71
     3
 72
    22
 73
    18
 74
     0
 42
0.00000001
 43
0.00000001
 40
0.0
 40
0.0
 40
0.0
 40
0.0
 40
0.0517457323813062
 40
0.1047047091479869
 40
0.1588765563545158
 40
0.2142646726784635
 40
0.2708764554341136
 40
0.328717510174776
 40
0.3877903816290949
 40
0.4480946220334684
 40
0.5096270458913627
 40
0.5693923361817558
 40
0.6379717173991685
 40
0.7153439891518594
 40
0.8014836261781165
 40
0.8963687262773452
 40
1.0
 40
1.0
 40
1.0
 40
1.0
 10
146.9169900348656
 20
120.6422911991806
 30
0.0
 10
146.8690937153646
 20
120.6639466520269
 30
0.0
 10
146.7721780863487
 20
120.7077652973023
 30
0.0
 10
146.6167095854942
 20
120.7643487581105
 30
0.0
 10
146.4514803500873
 20
120.8144125113953
 30
0.0
 10
146.2756409977817
 20
120.8564954225724
 30
0.0
 10
146.0893492077585
 20
120.8902246250992
 30
0.0
 10
145.8925882407963
 20
120.9149775042026
 30
0.0
 10
145.6854492300384
 20
120.9301892253201
 30
0.0
 10
145.4680675013406
 20
120.9352578165757
 30
0.0
 10
145.2442985931621
 20
120.9296959127695
 30
0.0
 10
145.0051896854184
 20
120.9127448308252
 30
0.0
 10
144.7407432902256
 20
120.8817545813544
 30
0.0
 10
144.4362555317829
 20
120.8309478880328
 30
0.0
 10
144.0907749463993
 20
120.7541885665149
 30
0.0
 10
143.7041901827157
 20
120.6474951449772
 30
0.0
 10
143.4310887914025
 20
120.5496939077899
 30
0.0
 10
143.2885219870006
 20
120.4986388407128
 30
0.0
  0
SPLINE
  5
1CA
330
1F
100
AcDbEntity
  8
0
  6
Continuous
 62
     8
370
    18
100
AcDbSpline
210
0.0
220
0.0
230
1.0
 70
     8
 71
     3
 72
    16
 73
    12
 74
     0
 42
0.00000001
 43
0.00000001
 40
0.0
 40
0.0
 40
0.0
 40
0.0
 40
0.1072706050175232
 40
0.2154828584149172
 40
0.3246463326670626
 40
0.4347685797076427
 40
0.5458559803732305
 40
0.6579146941674473
 40
0.7709517163612923
 40
0.8849760499340137
 40
1.0
 40
1.0
 40
1.0
 40
1.0
 10
133.0002286471138
 20
120.6422911991806
 30
0.0
 10
132.9548448429823
 20
120.6199953516863
 30
0.0
 10
132.8636788442597
 20
120.5752079381347
 30
0.0
 10
132.7364262316876
 20
120.501774208548
 30
0.0
 10
132.6157853145539
 20
120.4234400746006
 30
0.0
 10
132.5028328177542
 20
120.3397919165089
 30
0.0
 10
132.3977667993668
 20
120.250973673501
 30
0.0
 10
132.3009631634877
 20
120.1570138320286
 30
0.0
 10
132.2130568819708
 20
120.0578705030428
 30
0.0
 10
132.1335309271339
 20
119.9539409681123
 30
0.0
 10
132.0889432570348
 20
119.8809370768918
 30
0.0
 10
132.0665521268436
 20
119.8442758288573
 30
0.0
  0
SPLINE
  5
1CB
330
1F
100
AcDbEntity
  8
0
  6
Continuous
 62
     8
370
    18
100
AcDbSpline
210
0.0
220
0.0
230
1.0
 70
     8
 71
     3
 72
    24
 73
    20
 74
     0
 42
0.00000001
 43
0.00000001
 40
0.0
 40
0.0
 40
0.0
 40
0.0
 40
0.0529220180243734
 40
0.1036525830107237
 40
0.1521963493886614
 40
0.1985544192924183
 40
0.2427256453110794
 40
0.2847075857318567
 40
0.3244971818990257
 40
0.3620912178581583
 40
0.3974866133852279
 40
0.4306805930923782
 40
0.4616707666956426
 40
0.4904551487791386
 40
0.6003072499066092
 40
0.7061756330503877
 40
0.8080611508557527
 40
0.9059943601385183
 40
1.0
 40
1.0
 40
1.0
 40
1.0
 10
136.6286966949789
 20
120.4986388407128
 30
0.0
 10
136.5558586059787
 20
120.525412959029
 30
0.0
 10
136.4131985875539
 20
120.5778525035686
 30
0.0
 10
136.2047633949145
 20
120.6455565316242
 30
0.0
 10
136.0064244938068
 20
120.7041314286718
 30
0.0
 10
135.8183414919617
 20
120.753807317445
 30
0.0
 10
135.6405523826308
 20
120.7955845453015
 30
0.0
 10
135.473053266457
 20
120.8302214469016
 30
0.0
 10
135.3157880447194
 20
120.8584876310679
 30
0.0
 10
135.1686602004987
 20
120.8811006977411
 30
0.0
 10
135.0315387028581
 20
120.8987422507855
 30
0.0
 10
134.9042648057649
 20
120.9120527140827
 30
0.0
 10
134.7866586773591
 20
120.9216364437785
 30
0.0
 10
134.5742418458967
 20
120.934229633883
 30
0.0
 10
134.2755571527838
 20
120.9360186720276
 30
0.0
 10
133.9060350250213
 20
120.9053681702542
 30
0.0
 10
133.5707090401991
 20
120.8443904184604
 30
0.0
 10
133.2677983434473
 20
120.7587295080631
 30
0.0
 10
133.0881934846206
 20
120.6805708588759
 30
0.0
 10
133.0002286471138
 20
120.6422911991806
 30
0.0
  0
SPLINE
  5
1CC
330
1F
100
AcDbEntity
  8
0
  6
Continuous
 62
     8
370
    18
100
AcDbSpline
210
0.0
220
0.0
230
1.0
 70
     8
 71
     3
 72
     8
 73
     4
 74
     0
 42
0.00000001
 43
0.00000001
 40
2.239066642457651
 40
2.239066642457651
 40
2.239066642457651
 40
2.239066642457651
 40
3.603096426460965
 40
3.603096426460965
 40
3.603096426460965
 40
3.603096426460965
 10
130.3274139944238
 20
110.9492976680199
 30
0.0
 10
132.5811453770368
 20
114.3095748232972
 30
0.0
 10
134.6497422508133
 20
117.4434439389844
 30
0.0
 10
136.6286910611795
 20
120.498640499936
 30
0.0
  0
SPLINE
  5
1CD
330
1F
100
AcDbEntity
  8
0
  6
Continuous
 62
     8
370
    18
100
AcDbSpline
210
0.0
220
0.0
230
1.0
 70
     8
 71
     3
 72
    10
 73
     6
 74
     0
 42
0.00000001
 43
0.00000001
 40
0.0
 40
0.0
 40
0.0
 40
0.0
 40
0.3214013408828634
 40
0.654693316714298
 40
0.9999999999999999
 40
0.9999999999999999
 40
0.9999999999999999
 40
0.9999999999999999
 10
129.4642052608169
 20
110.5384916658959
 30
0.0
 10
129.5565651438835
 20
110.5835200867735
 30
0.0
 10
129.7447018766367
 20
110.6752428099265
 30
0.0
 10
130.0325692937493
 20
110.8123812528854
 30
0.0
 10
130.227979172221
 20
110.9031233282254
 30
0.0
 10
130.3274139944238
 20
110.9492976680199
 30
0.0
  0
SPLINE
  5
1CE
330
1F
100
AcDbEntity
  8
0
  6
Continuous
 62
     8
370
    18
100
AcDbSpline
210
0.0
220
0.0
230
1.0
 70
     8
 71
     3
 72
     9
 73
     5
 74
     0
 42
0.00000001
 43
0.00000001
 40
0.0981890504804714
 40
0.0981890504804714
 40
0.0981890504804714
 40
0.0981890504804714
 40
0.613509593063059
 40
1.0
 40
1.0
 40
1.0
 40
1.0
 10
129.4640119083457
 20
110.5389348120974
 30
0.0
 10
128.5496994615187
 20
110.6513526073752
 30
0.0
 10
127.102227027315
 20
110.5013549518405
 30
0.0
 10
126.2580638447133
 20
109.7836790090398
 30
0.0
 10
126.0344945345732
 20
109.3964456048634
 30
0.0
  0
SPLINE
  5
1CF
330
1F
100
AcDbEntity
  8
0
  6
Continuous
 62
     8
370
    18
100
AcDbSpline
210
0.0
220
0.0
230
1.0
 70
     8
 71
     3
 72
     8
 73
     4
 74
     0
 42
0.00000001
 43
0.00000001
 40
0.0
 40
0.0
 40
0.0
 40
0.0
 40
1.0
 40
1.0
 40
1.0
 40
1.0
 10
135.8406779007371
 20
122.2085109333048
 30
0.0
 10
134.7527922018238
 20
122.1056580007239
 30
0.0
 10
133.7150776899175
 20
121.5334455547424
 30
0.0
 10
133.0002614457477
 20
120.6422596872566
 30
0.0
  0
SPLINE
  5
1D0
330
1F
100
AcDbEntity
  8
0
  6
Continuous
 62
     8
370
    18
100
AcDbSpline
210
0.0
220
0.0
230
1.0
 70
     8
 71
     3
 72
    10
 73
     6
 74
     0
 42
0.00000001
 43
0.00000001
 40
0.0
 40
0.0
 40
0.0
 40
0.0
 40
0.3475388467484639
 40
0.6951920691774173
 40
1.0
 40
1.0
 40
1.0
 40
1.0
 10
146.9169572362318
 20
120.6422596872566
 30
0.0
 10
146.7263358496539
 20
120.8527729173466
 30
0.0
 10
146.3450303426454
 20
121.2738686578219
 30
0.0
 10
145.6783758919233
 20
121.7339315401854
 30
0.0
 10
145.197047331099
 20
121.9191643338377
 30
0.0
 10
144.9721867981163
 20
122.0056988719819
 30
0.0
  0
LINE
  5
1D1
330
1F
100
AcDbEntity
  8
0
  6
Continuous
 62
     8
370
    18
100
AcDbLine
 10
144.4917531223
 20
122.1242544383
 30
0.0
 11
144.0765407812
 21
122.2085109333
 31
0.0
  0
SPLINE
  5
1D2
330
1F
100
AcDbEntity
  8
0
  6
Continuous
 62
     8
370
    18
100
AcDbSpline
210
0.0
220
0.0
230
1.0
 70
     8
 71
     3
 72
    12
 73
     8
 74
     0
 42
0.00000001
 43
0.00000001
 40
-0.116794664643656
 40
-0.116794664643656
 40
-0.116794664643656
 40
-0.116794664643656
 40
-0.116192170614889
 40
-0.116192170614889
 40
-0.0464768682459556
 40
-0.0232384341229778
 40
0.0
 40
0.0
 40
0.0
 40
0.0
 10
136.6287111895695
 20
120.498456244423
 30
0.0
 10
136.6271081582082
 20
120.5039391397109
 30
0.0
 10
136.6255071796376
 20
120.5094066049819
 30
0.0
 10
136.4382657670011
 20
121.1475128003593
 30
0.0
 10
136.197842560696
 20
121.7992548424844
 30
0.0
 10
135.956696460218
 20
122.1644026579514
 30
0.0
 10
135.8758451507918
 20
122.2118357814964
 30
0.0
 10
135.8406779007371
 20
122.2085109333048
 30
0.0
  0
SPLINE
  5
1D3
330
1F
100
AcDbEntity
  8
0
  6
Continuous
 62
     8
370
    18
100
AcDbSpline
210
0.0
220
0.0
230
1.0
 70
     8
 71
     3
 72
    12
 73
     8
 74
     0
 42
0.00000001
 43
0.00000001
 40
-0.0006024940290514
 40
-0.0006024940290514
 40
-0.0006024940290514
 40
-0.0006024940290514
 40
0.0226359400938707
 40
0.0458743742167925
 40
0.1155896765855576
 40
0.1155896765855576
 40
0.116192170614609
 40
0.116192170614609
 40
0.116192170614609
 40
0.116192170614609
 10
144.0765407812423
 20
122.2085109333048
 30
0.0
 10
144.0413735311878
 20
122.2118357814964
 30
0.0
 10
143.9605222217657
 20
122.1644026579499
 30
0.0
 10
143.7193761212833
 20
121.7992548424875
 30
0.0
 10
143.4789529150011
 20
121.1475128003547
 30
0.0
 10
143.2917115023426
 20
120.5094066049888
 30
0.0
 10
143.2901105237705
 20
120.5039391397165
 30
0.0
 10
143.2885074924099
 20
120.498456244423
 30
0.0
  0
LINE
  5
1D4
330
1F
100
AcDbEntity
  8
0
  6
Continuous
 62
     8
370
    18
100
AcDbLine
 10
136.6287111896
 20
120.4984562444
 30
0.0
 11
137.458609341
 21
120.5562266063
 31
0.0
  0
LINE
  5
1D5
330
1F
100
AcDbEntity
  8
0
  6
Continuous
 62
     8
370
    18
100
AcDbLine
 10
142.458609341
 20
120.5562266063
 30
0.0
 11
143.2885074924
 21
120.4984562444
 31
0.0
  0
ARC
  5
1D6
330
1F
100
AcDbEntity
  8
0
  6
Continuous
 62
     8
370
    18
100
AcDbCircle
 10
139.958609341
 20
78.65274047
 30
0.0
 40
33.70190296125623
100
AcDbArc
 50
73.3948298044
 51
85.7459036904
  0
ARC
  5
1D7
330
1F
100
AcDbEntity
  8
0
  6
Continuous
 62
     8
370
    18
100
AcDbCircle
 10
139.958609341
 20
78.65274047
 30
0.0
 40
33.70190296125624
100
AcDbArc
 50
94.2540963096
 51
106.6051701957
  0
SPLINE
  5
1D8
330
1F
100
AcDbEntity
  8
0
  6
Continuous
 62
     8
370
    18
100
AcDbSpline
210
0.0
220
0.0
230
1.0
 70
     8
 71
     3
 72
    19
 73
    15
 74
     0
 42
0.00000001
 43
0.00000001
 40
0.0
 40
0.0
 40
0.0
 40
0.0
 40
0.0459785764895136
 40
0.0966186210530912
 40
0.1530894852917634
 40
0.2149403632759739
 40
0.2865047810833207
 40
0.3905963533994374
 40
0.5336351125750386
 40
0.6090083077632568
 40
0.7698348971096188
 40
0.8440175703918991
 40
0.9207420070776522
 40
1.0
 40
1.0
 40
1.0
 40
1.0
 10
123.7206776808007
 20
107.0937684999113
 30
0.0
 10
123.8013455445973
 20
107.1408109526171
 30
0.0
 10
123.9708596609184
 20
107.2396651855756
 30
0.0
 10
124.238250677467
 20
107.4071131629799
 30
0.0
 10
124.5347351905872
 20
107.5984374169419
 30
0.0
 10
124.8710584332099
 20
107.8197906186752
 30
0.0
 10
125.298304262958
 20
108.1023966737326
 30
0.0
 10
125.8847495467156
 20
108.485396928435
 30
0.0
 10
126.4994334552207
 20
108.874869438975
 30
0.0
 10
127.2409715117639
 20
109.3249686501489
 30
0.0
 10
127.8634163839649
 20
109.687858153563
 30
0.0
 10
128.4997453659014
 20
110.0388595221381
 30
0.0
 10
128.9740896230824
 20
110.2918659873151
 30
0.0
 10
129.2989456471981
 20
110.4556915541773
 30
0.0
 10
129.4640119083457
 20
110.5389348120974
 30
0.0
  0
SPLINE
  5
1D9
330
1F
100
AcDbEntity
  8
0
  6
Continuous
 62
     8
370
    18
100
AcDbSpline
210
0.0
220
0.0
230
1.0
 70
     8
 71
     3
 72
     8
 73
     4
 74
     0
 42
0.00000001
 43
0.00000001
 40
0.0
 40
0.0
 40
0.0
 40
0.0
 40
1.0
 40
1.0
 40
1.0
 40
1.0
 10
129.4640119083454
 20
110.5389348120971
 30
0.0
 10
129.576154818363
 20
110.0266502985459
 30
0.0
 10
129.5989852983673
 20
109.7211563758699
 30
0.0
 10
129.5269362657946
 20
109.6969459977847
 30
0.0
  0
SPLINE
  5
1DA
330
1F
100
AcDbEntity
  8
0
  6
Continuous
 62
     8
370
    18
100
AcDbSpline
210
0.0
220
0.0
230
1.0
 70
     8
 71
     3
 72
     8
 73
     4
 74
     0
 42
0.00000001
 43
0.00000001
 40
0.0
 40
0.0
 40
0.0
 40
0.0
 40
1.0
 40
1.0
 40
1.0
 40
1.0
 10
150.4532067736179
 20
110.5389348121049
 30
0.0
 10
150.3410638635992
 20
110.0266502985526
 30
0.0
 10
150.3182333835935
 20
109.721156375876
 30
0.0
 10
150.390282416165
 20
109.6969459977913
 30
0.0
  0
SPLINE
  5
1DB
330
1F
100
AcDbEntity
  8
0
  6
Continuous
 62
     8
370
    18
100
AcDbSpline
210
0.0
220
0.0
230
1.0
 70
    24
 71
     3
 72
     8
 73
     4
 74
     0
 42
0.00000001
 43
0.00000001
 40
0.0
 40
0.0
 40
0.0
 40
0.0
 40
0.9999999999999999
 40
0.9999999999999999
 40
0.9999999999999999
 40
0.9999999999999999
 10
130.3274533357896
 20
110.9491659256519
 30
0.0
 10
130.501626238133
 20
110.365107049034
 30
0.0
 10
130.5994832544625
 20
110.0369603726129
 30
0.0
 10
130.5994832544625
 20
110.0369603726129
 30
0.0
  0
SPLINE
  5
1DC
330
1F
100
AcDbEntity
  8
0
  6
Continuous
 62
     8
370
    18
100
AcDbSpline
210
0.0
220
0.0
230
1.0
 70
    24
 71
     3
 72
     8
 73
     4
 74
     0
 42
0.00000001
 43
0.00000001
 40
0.0
 40
0.0
 40
0.0
 40
0.0
 40
1.0
 40
1.0
 40
1.0
 40
1.0
 10
149.317735427434
 20
110.0369603726376
 30
0.0
 10
149.317735427434
 20
110.0369603726376
 30
0.0
 10
149.4155924437626
 20
110.365107049059
 30
0.0
 10
149.5897653461044
 20
110.9491659256773
 30
0.0
  0
LINE
  5
1DD
330
1F
100
AcDbEntity
  8
0
  6
CENTER
 62
     7
370
    18
100
AcDbLine
 10
200.0335288429
 20
78.65274047
 30
0.0
 11
80.4497620438
 21
78.65274047
 31
0.0
  0
LINE
  5
1DE
330
1F
100
AcDbEntity
  8
0
  6
Continuous
 62
     7
370
    18
100
AcDbLine
 10
198.0335288429
 20
71.05274047
 30
0.0
 11
198.0335288429
 21
78.65274047
 31
0.0
  0
SOLID
  5
1DF
330
1F
100
AcDbEntity
  8
0
  6
Continuous
 62
     7
370
    18
100
AcDbTrace
 10
198.0335288429
 20
78.65274047
 30
0.0
 11
197.2335288429
 21
73.65274047
 31
0.0
 12
198.8335288429
 22
73.65274047
 32
0.0
 13
198.8335288429
 23
73.65274047
 33
0.0
  0
LINE
  5
1E0
330
1F
100
AcDbEntity
  8
0
  6
Continuous
 62
     7
370
    18
100
AcDbLine
 10
82.4497620438
 20
71.05274047
 30
0.0
 11
82.4497620438
 21
78.65274047
 31
0.0
  0
SOLID
  5
1E1
330
1F
100
AcDbEntity
  8
0
  6
Continuous
 62
     7
370
    18
100
AcDbTrace
 10
82.4497620438
 20
78.65274047
 30
0.0
 11
81.6497620438
 21
73.65274047
 31
0.0
 12
83.2497620438
 22
73.65274047
 32
0.0
 13
83.2497620438
 23
73.65274047
 33
0.0
  0
MTEXT
  5
1E2
330
1F
100
AcDbEntity
  8
0
  6
Continuous
 62
     7
100
AcDbMText
 10
195.7457796728
 20
69.3454191537
 30
0.0
 40
5.0
 41
0.0
 71
     1
 72
     1
  1
A
  7
SLDTEXTSTYLE0
 73
     1
 44
1.0
  0
MTEXT
  5
1E3
330
1F
100
AcDbEntity
  8
0
  6
Continuous
 62
     7
100
AcDbMText
 10
80.229890553
 20
69.938809796
 30
0.0
 40
5.0
 41
0.0
 71
     1
 72
     1
  1
A
  7
SLDTEXTSTYLE0
 73
     1
 44
1.0
  0
LINE
  5
1E4
330
1F
100
AcDbEntity
  8
0
  6
Continuous
 62
     7
370
    25
100
AcDbLine
 10
192.708609341
 20
252.2518281799
 30
0.0
 11
87.208609341
 21
252.2518281799
 31
0.0
  0
SPLINE
  5
1E5
330
1F
100
AcDbEntity
  8
0
  6
Continuous
 62
     7
370
    25
100
AcDbSpline
210
0.0
220
0.0
230
1.0
 70
     8
 71
     3
 72
    14
 73
    10
 74
     0
 42
0.00000001
 43
0.00000001
 40
0.0
 40
0.0
 40
0.0
 40
0.0
 40
0.160427596549172
 40
0.32085519309836
 40
0.4812827896475436
 40
0.6417103861967324
 40
0.8021379827459142
 40
0.9625655792951179
 40
1.0
 40
1.0
 40
1.0
 40
1.0
 10
86.41465362950517
 20
251.5909421077219
 30
0.0
 10
86.32631113473624
 20
251.5204986076863
 30
0.0
 10
86.14962614519838
 20
251.3796116076149
 30
0.0
 10
85.99223579771656
 20
251.0721386275744
 30
0.0
 10
85.93940194370842
 20
250.7354079869699
 30
0.0
 10
86.00262474544252
 20
250.3984736087466
 30
0.0
 10
86.17342733866454
 20
250.1027423245609
 30
0.0
 10
86.36622280466518
 20
249.934529292954
 30
0.0
 10
86.48813610842714
 20
249.8697534113254
 30
0.0
 10
86.51120144439146
 20
249.8574981657858
 30
0.0
  0
SPLINE
  5
1E6
330
1F
100
AcDbEntity
  8
0
  6
Continuous
 62
     7
370
    25
100
AcDbSpline
210
0.0
220
0.0
230
1.0
 70
     8
 71
     3
 72
    14
 73
    10
 74
     0
 42
0.00000001
 43
0.00000001
 40
0.0
 40
0.0
 40
0.0
 40
0.0
 40
0.1604275965491776
 40
0.3208551930983592
 40
0.4812827896475428
 40
0.6417103861967305
 40
0.8021379827459134
 40
0.9625655792950996
 40
1.0
 40
1.0
 40
1.0
 40
1.0
 10
193.406017237588
 20
249.8574981657858
 30
0.0
 10
193.5016360519892
 20
249.91769555287
 30
0.0
 10
193.6928736807917
 20
250.0380903270386
 30
0.0
 10
193.8834353344649
 20
250.3261833868035
 30
0.0
 10
193.9733362471507
 20
250.6549641136559
 30
0.0
 10
193.9479209567347
 20
250.9968353772931
 30
0.0
 10
193.8110156796793
 20
251.3097051000402
 30
0.0
 10
193.6380926925749
 20
251.4982875919203
 30
0.0
 10
193.5241267843078
 20
251.5762012635561
 30
0.0
 10
193.5025650524742
 20
251.5909421077219
 30
0.0
  0
ARC
  5
1E7
330
1F
100
AcDbEntity
  8
0
  6
Continuous
 62
     7
370
    25
100
AcDbCircle
 10
194.046520764
 20
252.4300560356
 30
0.0
 40
0.9999999999999846
100
AcDbArc
 50
206.8818319097
 51
237.0466705376
  0
ARC
  5
1E8
330
1F
100
AcDbEntity
  8
0
  6
Continuous
 62
     7
370
    25
100
AcDbCircle
 10
85.870697918
 20
252.4300560356
 30
0.0
 40
0.9999999999999846
100
AcDbArc
 50
302.9533294624
 51
333.1181680903
  0
ARC
  5
1E9
330
1F
100
AcDbEntity
  8
0
  6
Continuous
 62
     7
370
    25
100
AcDbCircle
 10
193.8534251342
 20
248.9631681517
 30
0.0
 40
1.000000000000041
100
AcDbArc
 50
116.5774985152
 51
172.4784170159
  0
ARC
  5
1EA
330
1F
100
AcDbEntity
  8
0
  6
Continuous
 62
     7
370
    25
100
AcDbCircle
 10
86.0637935478
 20
248.9631681517
 30
0.0
 40
1.000000000000006
100
AcDbArc
 50
7.5215829841
 51
63.4225014848
  0
ARC
  5
1EB
330
1F
100
AcDbEntity
  8
0
  6
Continuous
 62
     7
370
    25
100
AcDbCircle
 10
192.708609341
 20
251.7518281799
 30
0.0
 40
0.5000000000000752
100
AcDbArc
 50
26.8818319097
 51
143.7815835926
  0
ARC
  5
1EC
330
1F
100
AcDbEntity
  8
0
  6
Continuous
 62
     7
370
    25
100
AcDbCircle
 10
87.208609341
 20
251.7518281799
 30
0.0
 40
0.5000000000000752
100
AcDbArc
 50
36.2184164074
 51
153.1181680903
  0
LINE
  5
1ED
330
1F
100
AcDbEntity
  8
0
  6
Continuous
 62
     7
370
    25
100
AcDbLine
 10
192.0159854945
 20
242.6863783527
 30
0.0
 11
192.8620295116
 21
249.0940678061
 31
0.0
  0
LINE
  5
1EE
330
1F
100
AcDbEntity
  8
0
  6
Continuous
 62
     7
370
    25
100
AcDbLine
 10
87.0551891704
 20
249.0940678061
 30
0.0
 11
87.9012331875
 21
242.6863783527
 31
0.0
  0
LINE
  5
1EF
330
1F
100
AcDbEntity
  8
0
  6
Continuous
 62
     7
370
    25
100
AcDbLine
 10
189.708609341
 20
248.5018281799
 30
0.0
 11
192.305224124
 21
252.0472606878
 31
0.0
  0
LINE
  5
1F0
330
1F
100
AcDbEntity
  8
0
  6
Continuous
 62
     7
370
    25
100
AcDbLine
 10
87.6119945579
 20
252.0472606878
 30
0.0
 11
90.208609341
 21
248.5018281799
 31
0.0
  0
ARC
  5
1F1
330
1F
100
AcDbEntity
  8
0
  6
Continuous
 62
     7
370
    25
100
AcDbCircle
 10
191.5202876832
 20
242.7518281799
 30
0.0
 40
0.49999999999967
100
AcDbArc
 50
270.0
 51
352.4784170159
  0
ARC
  5
1F2
330
1F
100
AcDbEntity
  8
0
  6
Continuous
 62
     7
370
    25
100
AcDbCircle
 10
88.3969309988
 20
242.7518281799
 30
0.0
 40
0.49999999999967
100
AcDbArc
 50
187.5215829841
 51
270.0
  0
LINE
  5
1F3
330
1F
100
AcDbEntity
  8
0
  6
Continuous
 62
     7
370
    25
100
AcDbLine
 10
190.958609341
 20
244.5768281799
 30
0.0
 11
190.958609341
 21
246.1768281799
 31
0.0
  0
LINE
  5
1F4
330
1F
100
AcDbEntity
  8
0
  6
Continuous
 62
     7
370
    25
100
AcDbLine
 10
88.958609341
 20
246.1768281799
 30
0.0
 11
88.958609341
 21
244.5768281799
 31
0.0
  0
LINE
  5
1F5
330
1F
100
AcDbEntity
  8
0
  6
Continuous
 62
     7
370
    25
100
AcDbLine
 10
185.958609341
 20
242.2518281799
 30
0.0
 11
185.958609341
 21
244.5768281799
 31
0.0
  0
LINE
  5
1F6
330
1F
100
AcDbEntity
  8
0
  6
Continuous
 62
     7
370
    25
100
AcDbLine
 10
93.958609341
 20
244.5768281799
 30
0.0
 11
93.958609341
 21
242.2518281799
 31
0.0
  0
LINE
  5
1F7
330
1F
100
AcDbEntity
  8
0
  6
Continuous
 62
     7
370
    25
100
AcDbLine
 10
185.958609341
 20
242.2518281799
 30
0.0
 11
183.730262647
 21
242.2518281799
 31
0.0
  0
LINE
  5
1F8
330
1F
100
AcDbEntity
  8
0
  6
Continuous
 62
     7
370
    25
100
AcDbLine
 10
96.186956035
 20
242.2518281799
 30
0.0
 11
93.958609341
 21
242.2518281799
 31
0.0
  0
LINE
  5
1F9
330
1F
100
AcDbEntity
  8
0
  6
Continuous
 62
     7
370
    25
100
AcDbLine
 10
185.958609341
 20
246.1768281799
 30
0.0
 11
185.958609341
 21
248.5018281799
 31
0.0
  0
LINE
  5
1FA
330
1F
100
AcDbEntity
  8
0
  6
Continuous
 62
     7
370
    25
100
AcDbLine
 10
93.958609341
 20
248.5018281799
 30
0.0
 11
93.958609341
 21
246.1768281799
 31
0.0
  0
LINE
  5
1FB
330
1F
100
AcDbEntity
  8
0
  6
Continuous
 62
     7
370
    25
100
AcDbLine
 10
93.958609341
 20
248.5018281799
 30
0.0
 11
185.958609341
 21
248.5018281799
 31
0.0
  0
LINE
  5
1FC
330
1F
100
AcDbEntity
  8
0
  6
Continuous
 62
     7
370
    25
100
AcDbLine
 10
185.958609341
 20
246.1768281799
 30
0.0
 11
93.958609341
 21
246.1768281799
 31
0.0
  0
LINE
  5
1FD
330
1F
100
AcDbEntity
  8
0
  6
Continuous
 62
     7
370
    25
100
AcDbLine
 10
93.958609341
 20
248.5018281799
 30
0.0
 11
90.208609341
 21
248.5018281799
 31
0.0
  0
LINE
  5
1FE
330
1F
100
AcDbEntity
  8
0
  6
Continuous
 62
     7
370
    25
100
AcDbLine
 10
93.958609341
 20
244.5768281799
 30
0.0
 11
88.958609341
 21
244.5768281799
 31
0.0
  0
LINE
  5
1FF
330
1F
100
AcDbEntity
  8
0
  6
Continuous
 62
     7
370
    25
100
AcDbLine
 10
88.958609341
 20
246.1768281799
 30
0.0
 11
93.958609341
 21
246.1768281799
 31
0.0
  0
LINE
  5
200
330
1F
100
AcDbEntity
  8
0
  6
Continuous
 62
     7
370
    25
100
AcDbLine
 10
88.3968165158
 20
242.2518281799
 30
0.0
 11
93.958609341
 21
242.2518281799
 31
0.0
  0
LINE
  5
201
330
1F
100
AcDbEntity
  8
0
  6
Continuous
 62
     7
370
    25
100
AcDbLine
 10
189.708609341
 20
248.5018281799
 30
0.0
 11
185.958609341
 21
248.5018281799
 31
0.0
  0
LINE
  5
202
330
1F
100
AcDbEntity
  8
0
  6
Continuous
 62
     7
370
    25
100
AcDbLine
 10
190.958609341
 20
244.5768281799
 30
0.0
 11
185.958609341
 21
244.5768281799
 31
0.0
  0
LINE
  5
203
330
1F
100
AcDbEntity
  8
0
  6
Continuous
 62
     7
370
    25
100
AcDbLine
 10
185.958609341
 20
246.1768281799
 30
0.0
 11
190.958609341
 21
246.1768281799
 31
0.0
  0
LINE
  5
204
330
1F
100
AcDbEntity
  8
0
  6
Continuous
 62
     7
370
    25
100
AcDbLine
 10
185.958609341
 20
242.2518281799
 30
0.0
 11
191.5203484166
 21
242.2518281799
 31
0.0
  0
CIRCLE
  5
205
330
1F
100
AcDbEntity
  8
0
  6
Continuous
 62
     7
370
    25
100
AcDbCircle
 10
139.958609341
 20
234.4268281799
 30
0.0
 40
2.5
  0
ARC
  5
206
330
1F
100
AcDbEntity
  8
0
  6
Continuous
 62
     7
370
    25
100
AcDbCircle
 10
169.958609341
 20
176.8268281799
 30
0.0
 40
16.0
100
AcDbArc
 50
270.0
 51
0.0
  0
ARC
  5
207
330
1F
100
AcDbEntity
  8
0
  6
Continuous
 62
     7
370
    25
100
AcDbCircle
 10
109.958609341
 20
176.8268281799
 30
0.0
 40
16.00000000000001
100
AcDbArc
 50
180.0
 51
270.0
  0
ARC
  5
208
330
1F
100
AcDbEntity
  8
0
  6
Continuous
 62
     7
370
    25
100
AcDbCircle
 10
109.958609341
 20
176.8268281799
 30
0.0
 40
15.00000000000001
100
AcDbArc
 50
180.0
 51
270.0
  0
LINE
  5
209
330
1F
100
AcDbEntity
  8
0
  6
Continuous
 62
     7
370
    25
100
AcDbLine
 10
119.1967317419
 20
161.8268281799
 30
0.0
 11
109.9585942609
 21
161.8268281799
 31
0.0
  0
ARC
  5
20A
330
1F
100
AcDbEntity
  8
0
  6
Continuous
 62
     7
370
    25
100
AcDbCircle
 10
119.1967516019
 20
176.8268281799
 30
0.0
 40
15.00000000000023
100
AcDbArc
 50
270.0
 51
311.5454692449
  0
LINE
  5
20B
330
1F
100
AcDbEntity
  8
0
  6
Continuous
 62
     7
370
    25
100
AcDbLine
 10
129.3848512964
 20
165.8126109815
 30
0.0
 11
129.1449646288
 21
165.6003836149
 31
0.0
  0
ARC
  5
20C
330
1F
100
AcDbEntity
  8
0
  6
Continuous
 62
     7
370
    25
100
AcDbCircle
 10
139.9839560623
 20
153.8268281799
 30
0.0
 40
16.00000035020049
100
AcDbArc
 50
90.0907662977
 51
131.486536107
  0
ARC
  5
20D
330
1F
100
AcDbEntity
  8
0
  6
Continuous
 62
     7
370
    25
100
AcDbCircle
 10
139.9332626197
 20
153.8268281799
 30
0.0
 40
16.00000035020051
100
AcDbArc
 50
48.513463893
 51
89.9092337023
  0
LINE
  5
20E
330
1F
100
AcDbEntity
  8
0
  6
Continuous
 62
     7
370
    25
100
AcDbLine
 10
150.7722540532
 20
165.6003836149
 30
0.0
 11
150.5323673856
 21
165.8126109815
 31
0.0
  0
ARC
  5
20F
330
1F
100
AcDbEntity
  8
0
  6
Continuous
 62
     7
370
    25
100
AcDbCircle
 10
160.7204670801
 20
176.8268281799
 30
0.0
 40
15.00000000000023
100
AcDbArc
 50
228.4545307551
 51
270.0
  0
LINE
  5
210
330
1F
100
AcDbEntity
  8
0
  6
Continuous
 62
     7
370
    25
100
AcDbLine
 10
169.958615117
 20
161.8268281799
 30
0.0
 11
160.7204797964
 21
161.8268281799
 31
0.0
  0
ARC
  5
211
330
1F
100
AcDbEntity
  8
0
  6
Continuous
 62
     7
370
    25
100
AcDbCircle
 10
169.958609341
 20
176.8268281799
 30
0.0
 40
15.0
100
AcDbArc
 50
270.0
 51
0.0
  0
LINE
  5
212
330
1F
100
AcDbEntity
  8
0
  6
Continuous
 62
     7
370
    25
100
AcDbLine
 10
184.958609341
 20
176.8268281799
 30
0.0
 11
184.958609341
 21
225.8268281799
 31
0.0
  0
LINE
  5
213
330
1F
100
AcDbEntity
  8
0
  6
Continuous
 62
     7
370
    25
100
AcDbLine
 10
185.958609341
 20
225.8268281799
 30
0.0
 11
184.958609341
 21
225.8268281799
 31
0.0
  0
LINE
  5
214
330
1F
100
AcDbEntity
  8
0
  6
Continuous
 62
     7
370
    25
100
AcDbLine
 10
185.958609341
 20
176.8268281799
 30
0.0
 11
185.958609341
 21
225.8268281799
 31
0.0
  0
LINE
  5
215
330
1F
100
AcDbEntity
  8
0
  6
Continuous
 62
     7
370
    25
100
AcDbLine
 10
160.7204694901
 20
160.8268281799
 30
0.0
 11
169.9586254232
 21
160.8268281799
 31
0.0
  0
ARC
  5
216
330
1F
100
AcDbEntity
  8
0
  6
Continuous
 62
     7
370
    25
100
AcDbCircle
 10
160.7204670801
 20
176.8268281799
 30
0.0
 40
16.0
100
AcDbArc
 50
228.5
 51
270.0
  0
LINE
  5
217
330
1F
100
AcDbEntity
  8
0
  6
Continuous
 62
     7
370
    25
100
AcDbLine
 10
150.1185463087
 20
164.8435366472
 30
0.0
 11
149.8725633429
 21
165.0611639917
 31
0.0
  0
ARC
  5
218
330
1F
100
AcDbEntity
  8
0
  6
Continuous
 62
     7
370
    25
100
AcDbCircle
 10
139.9332626197
 20
153.8268281799
 30
0.0
 40
15.00000000000004
100
AcDbArc
 50
48.5
 51
89.9031826102
  0
ARC
  5
219
330
1F
100
AcDbEntity
  8
0
  6
Continuous
 62
     7
370
    25
100
AcDbCircle
 10
139.9839560623
 20
153.8268281799
 30
0.0
 40
15.00000000000004
100
AcDbArc
 50
90.0968173898
 51
131.5
  0
LINE
  5
21A
330
1F
100
AcDbEntity
  8
0
  6
Continuous
 62
     7
370
    25
100
AcDbLine
 10
130.0446553391
 20
165.0611639917
 30
0.0
 11
129.7986723733
 21
164.8435366472
 31
0.0
  0
ARC
  5
21B
330
1F
100
AcDbEntity
  8
0
  6
Continuous
 62
     7
370
    25
100
AcDbCircle
 10
119.1967516019
 20
176.8268281799
 30
0.0
 40
16.00000000000001
100
AcDbArc
 50
270.0
 51
311.5
  0
LINE
  5
21C
330
1F
100
AcDbEntity
  8
0
  6
Continuous
 62
     7
370
    25
100
AcDbLine
 10
109.9585831219
 20
160.8268281799
 30
0.0
 11
119.1967428808
 21
160.8268281799
 31
0.0
  0
LINE
  5
21D
330
1F
100
AcDbEntity
  8
0
  6
Continuous
 62
     7
370
    25
100
AcDbLine
 10
93.958609341
 20
225.8268281799
 30
0.0
 11
93.958609341
 21
176.8268281799
 31
0.0
  0
LINE
  5
21E
330
1F
100
AcDbEntity
  8
0
  6
Continuous
 62
     7
370
    25
100
AcDbLine
 10
94.958609341
 20
225.8268281799
 30
0.0
 11
93.958609341
 21
225.8268281799
 31
0.0
  0
LINE
  5
21F
330
1F
100
AcDbEntity
  8
0
  6
Continuous
 62
     7
370
    25
100
AcDbLine
 10
94.958609341
 20
225.8268281799
 30
0.0
 11
94.958609341
 21
176.8268281799
 31
0.0
  0
LINE
  5
220
330
1F
100
AcDbEntity
  8
0
  6
Continuous
 62
     7
370
    25
100
AcDbLine
 10
94.958609341
 20
225.8268281799
 30
0.0
 11
105.6699342064
 21
225.8268281799
 31
0.0
  0
LINE
  5
221
330
1F
100
AcDbEntity
  8
0
  6
Continuous
 62
     7
370
    25
100
AcDbLine
 10
174.2472844756
 20
225.8268281799
 30
0.0
 11
184.958609341
 21
225.8268281799
 31
0.0
  0
SPLINE
  5
222
330
1F
100
AcDbEntity
  8
0
  6
Continuous
 62
     7
370
    25
100
AcDbSpline
210
0.0
220
0.0
230
1.0
 70
    24
 71
     3
 72
    22
 73
    18
 74
     0
 42
0.00000001
 43
0.00000001
 40
0.0
 40
0.0
 40
0.0
 40
0.0
 40
0.0665435053273013
 40
0.1330963082368891
 40
0.2036307263109877
 40
0.2741835238748102
 40
0.3476581166607374
 40
0.4211511633433757
 40
0.4961891611863735
 40
0.571246005606204
 40
0.6462840039874552
 40
0.7213408489468115
 40
0.7703706713394081
 40
0.819297068770042
 40
0.8683432783018317
 40
0.9341829892664893
 40
1.0
 40
1.0
 40
1.0
 40
1.0
 10
135.9161581603529
 20
160.8268281798608
 30
0.0
 10
135.2983709691075
 20
160.8268281798608
 30
0.0
 10
134.0627102682415
 20
160.8268281798608
 30
0.0
 10
132.2320208756791
 20
160.8268281798608
 30
0.0
 10
130.4310956057344
 20
160.8268281798608
 30
0.0
 10
128.6623455984291
 20
160.8268281798608
 30
0.0
 10
126.9792544235659
 20
160.8268281798608
 30
0.0
 10
125.3958780985679
 20
160.8268281798608
 30
0.0
 10
123.9521003849987
 20
160.8268281798608
 30
0.0
 10
122.6699651792088
 20
160.8268281798608
 30
0.0
 10
121.570220825048
 20
160.8268281798608
 30
0.0
 10
120.7718631790137
 20
160.8268281798608
 30
0.0
 10
120.2078560661043
 20
160.8268281798608
 30
0.0
 10
119.8179962954497
 20
160.8268281798608
 30
0.0
 10
119.4880331119025
 20
160.8268281798608
 30
0.0
 10
119.2453892990203
 20
160.8268281798608
 30
0.0
 10
119.2129564895435
 20
160.8268281798608
 30
0.0
 10
119.196742880835
 20
160.8268281798608
 30
0.0
  0
SPLINE
  5
223
330
1F
100
AcDbEntity
  8
0
  6
Continuous
 62
     7
370
    25
100
AcDbSpline
210
0.0
220
0.0
230
1.0
 70
    24
 71
     3
 72
    26
 73
    22
 74
     0
 42
0.00000001
 43
0.00000001
 40
0.0
 40
0.0
 40
0.0
 40
0.0
 40
0.0073467559155025
 40
0.0595523928814179
 40
0.1110719441150567
 40
0.1618515248137907
 40
0.214878170954648
 40
0.2690447898318493
 40
0.3242890795310058
 40
0.3812426090379616
 40
0.4388056088631809
 40
0.4969036763514388
 40
0.5554540678260848
 40
0.6139334147465915
 40
0.672263252102472
 40
0.7296640932826203
 40
0.7863392500741394
 40
0.8422168132533622
 40
0.896024755261749
 40
0.9486412820572296
 40
1.0
 40
1.0
 40
1.0
 40
1.0
 10
160.7204694901479
 20
160.8268281798608
 30
0.0
 10
160.7200939597175
 20
160.8268281798608
 30
0.0
 10
160.7170499310354
 20
160.8268281798608
 30
0.0
 10
160.6349748711604
 20
160.8268281798608
 30
0.0
 10
160.3517411724841
 20
160.8268281798608
 30
0.0
 10
159.8976197552132
 20
160.8268281798608
 30
0.0
 10
159.2661039329388
 20
160.8268281798608
 30
0.0
 10
158.4418160960655
 20
160.8268281798608
 30
0.0
 10
157.4225125174993
 20
160.8268281798608
 30
0.0
 10
156.2095516704434
 20
160.8268281798608
 30
0.0
 10
154.8090811797512
 20
160.8268281798608
 30
0.0
 10
153.2399208138227
 20
160.8268281798608
 30
0.0
 10
151.5216019876995
 20
160.8268281798608
 30
0.0
 10
149.6775851669413
 20
160.8268281798608
 30
0.0
 10
147.7427988834767
 20
160.8268281798608
 30
0.0
 10
145.7475544940725
 20
160.8268281798608
 30
0.0
 10
143.7224546920502
 20
160.8268281798608
 30
0.0
 10
141.7034336618675
 20
160.8268281798608
 30
0.0
 10
139.7185474296457
 20
160.8268281798608
 30
0.0
 10
137.788679578326
 20
160.8268281798608
 30
0.0
 10
136.5352777507349
 20
160.8268281798608
 30
0.0
 10
135.9161581603529
 20
160.8268281798608
 30
0.0
  0
SPLINE
  5
224
330
1F
100
AcDbEntity
  8
0
  6
Continuous
 62
     7
370
    25
100
AcDbSpline
210
0.0
220
0.0
230
1.0
 70
    24
 71
     3
 72
    10
 73
     6
 74
     0
 42
0.00000001
 43
0.00000001
 40
0.0
 40
0.0
 40
0.0
 40
0.0
 40
0.5000000000000003
 40
0.5000000000000003
 40
1.0
 40
1.0
 40
1.0
 40
1.0
 10
131.8700839809192
 20
245.8268281798608
 30
0.0
 10
121.1694637475167
 20
245.8268281798608
 30
0.0
 10
111.477959184815
 20
245.8268281798608
 30
0.0
 10
97.51623825953511
 20
245.8268281798608
 30
0.0
 10
93.68991612104679
 20
245.8268281798608
 30
0.0
 10
93.68991612071018
 20
245.8268281798608
 30
0.0
  0
ARC
  5
225
330
1F
100
AcDbEntity
  8
0
  6
Continuous
 62
     7
370
    25
100
AcDbCircle
 10
93.6899161207
 20
242.5768281799
 30
0.0
 40
3.250000000000022
100
AcDbArc
 50
30.0
 51
90.0
  0
ARC
  5
226
330
1F
100
AcDbEntity
  8
0
  6
Continuous
 62
     7
370
    25
100
AcDbCircle
 10
93.6899161207
 20
242.5768281799
 30
0.0
 40
2.0
100
AcDbArc
 50
30.0
 51
90.0
  0
ARC
  5
227
330
1F
100
AcDbEntity
  8
0
  6
Continuous
 62
     7
370
    25
100
AcDbCircle
 10
103.958609341
 20
224.790929795
 30
0.0
 40
3.250000000000014
100
AcDbArc
 50
0.0
 51
30.0
  0
ARC
  5
228
330
1F
100
AcDbEntity
  8
0
  6
Continuous
 62
     7
370
    25
100
AcDbCircle
 10
103.958609341
 20
224.790929795
 30
0.0
 40
2.000000000000014
100
AcDbArc
 50
0.0
 51
30.0
  0
LINE
  5
229
330
1F
100
AcDbEntity
  8
0
  6
Continuous
 62
     7
370
    25
100
AcDbLine
 10
186.2276356403
 20
244.5768281799
 30
0.0
 11
190.958609341
 21
244.5768281799
 31
0.0
  0
ARC
  5
22A
330
1F
100
AcDbEntity
  8
0
  6
Continuous
 62
     7
370
    25
100
AcDbCircle
 10
186.2273025613
 20
242.5768281799
 30
0.0
 40
2.000000000000002
100
AcDbArc
 50
90.0
 51
150.0
  0
LINE
  5
22B
330
1F
100
AcDbEntity
  8
0
  6
Continuous
 62
     7
370
    25
100
AcDbLine
 10
174.2265585334
 20
225.790929795
 30
0.0
 11
184.4952517537
 21
243.5768281799
 31
0.0
  0
ARC
  5
22C
330
1F
100
AcDbEntity
  8
0
  6
Continuous
 62
     7
370
    25
100
AcDbCircle
 10
175.958609341
 20
224.790929795
 30
0.0
 40
2.000000000000006
100
AcDbArc
 50
150.0
 51
180.0
  0
LINE
  5
22D
330
1F
100
AcDbEntity
  8
0
  6
Continuous
 62
     7
370
    25
100
AcDbLine
 10
173.958609341
 20
175.8268281799
 30
0.0
 11
173.958609341
 21
224.790929795
 31
0.0
  0
LINE
  5
22E
330
1F
100
AcDbEntity
  8
0
  6
Continuous
 62
     7
370
    25
100
AcDbLine
 10
172.708609341
 20
175.8268281799
 30
0.0
 11
173.958609341
 21
175.8268281799
 31
0.0
  0
LINE
  5
22F
330
1F
100
AcDbEntity
  8
0
  6
Continuous
 62
     7
370
    25
100
AcDbLine
 10
172.708609341
 20
175.8268281799
 30
0.0
 11
172.708609341
 21
224.790929795
 31
0.0
  0
ARC
  5
230
330
1F
100
AcDbEntity
  8
0
  6
Continuous
 62
     7
370
    25
100
AcDbCircle
 10
175.958609341
 20
224.790929795
 30
0.0
 40
3.25000000000001
100
AcDbArc
 50
150.0
 51
180.0
  0
LINE
  5
231
330
1F
100
AcDbEntity
  8
0
  6
Continuous
 62
     7
370
    25
100
AcDbLine
 10
173.1440267787
 20
226.415929795
 30
0.0
 11
183.412719999
 21
244.2018281799
 31
0.0
  0
ARC
  5
232
330
1F
100
AcDbEntity
  8
0
  6
Continuous
 62
     7
370
    25
100
AcDbCircle
 10
186.2273025613
 20
242.5768281799
 30
0.0
 40
3.25000000000001
100
AcDbArc
 50
90.0
 51
150.0
  0
LINE
  5
233
330
1F
100
AcDbEntity
  8
0
  6
Continuous
 62
     7
370
    25
100
AcDbLine
 10
190.958609341
 20
244.5768281799
 30
0.0
 11
190.958609341
 21
245.8268281799
 31
0.0
  0
LINE
  5
234
330
1F
100
AcDbEntity
  8
0
  6
Continuous
 62
     7
370
    25
100
AcDbLine
 10
190.958609341
 20
245.8268281799
 30
0.0
 11
186.2276357144
 21
245.8268281799
 31
0.0
  0
LINE
  5
235
330
1F
100
AcDbEntity
  8
0
  6
Continuous
 62
     7
370
    25
100
AcDbLine
 10
96.504498683
 20
244.2018281799
 30
0.0
 11
106.7731919033
 21
226.415929795
 31
0.0
  0
LINE
  5
236
330
1F
100
AcDbEntity
  8
0
  6
Continuous
 62
     7
370
    25
100
AcDbLine
 10
107.208609341
 20
224.790929795
 30
0.0
 11
107.208609341
 21
175.8268281799
 31
0.0
  0
LINE
  5
237
330
1F
100
AcDbEntity
  8
0
  6
Continuous
 62
     7
370
    25
100
AcDbLine
 10
105.958609341
 20
175.8268281799
 30
0.0
 11
107.208609341
 21
175.8268281799
 31
0.0
  0
LINE
  5
238
330
1F
100
AcDbEntity
  8
0
  6
Continuous
 62
     7
370
    25
100
AcDbLine
 10
105.958609341
 20
224.790929795
 30
0.0
 11
105.958609341
 21
175.8268281799
 31
0.0
  0
LINE
  5
239
330
1F
100
AcDbEntity
  8
0
  6
Continuous
 62
     7
370
    25
100
AcDbLine
 10
95.4219669283
 20
243.5768281799
 30
0.0
 11
105.6906601486
 21
225.790929795
 31
0.0
  0
LINE
  5
23A
330
1F
100
AcDbEntity
  8
0
  6
Continuous
 62
     7
370
    25
100
AcDbLine
 10
88.958609341
 20
244.5768281799
 30
0.0
 11
93.6895829675
 21
244.5768281799
 31
0.0
  0
LINE
  5
23B
330
1F
100
AcDbEntity
  8
0
  6
Continuous
 62
     7
370
    25
100
AcDbLine
 10
88.958609341
 20
245.8268281799
 30
0.0
 11
88.958609341
 21
244.5768281799
 31
0.0
  0
LINE
  5
23C
330
1F
100
AcDbEntity
  8
0
  6
Continuous
 62
     7
370
    25
100
AcDbLine
 10
93.6895830417
 20
245.8268281799
 30
0.0
 11
88.958609341
 21
245.8268281799
 31
0.0
  0
SPLINE
  5
23D
330
1F
100
AcDbEntity
  8
0
  6
Continuous
 62
     7
370
    25
100
AcDbSpline
210
0.0
220
0.0
230
1.0
 70
    24
 71
     3
 72
    10
 73
     6
 74
     0
 42
0.00000001
 43
0.00000001
 40
0.0
 40
0.0
 40
0.0
 40
0.0
 40
0.5
 40
0.5
 40
1.0
 40
1.0
 40
1.0
 40
1.0
 10
186.2273025612693
 20
245.8268281798608
 30
0.0
 10
186.2273025613691
 20
245.8268281798608
 30
0.0
 10
182.400980423079
 20
245.8268281798608
 30
0.0
 10
168.4392594977235
 20
245.8268281798608
 30
0.0
 10
158.7477549347772
 20
245.8268281798608
 30
0.0
 10
148.0471347010603
 20
245.8268281798608
 30
0.0
  0
LINE
  5
23E
330
1F
100
AcDbEntity
  8
0
  6
Continuous
 62
     7
370
    25
100
AcDbLine
 10
172.708609341
 20
175.8268281799
 30
0.0
 11
107.208609341
 21
175.8268281799
 31
0.0
  0
SPLINE
  5
23F
330
1F
100
AcDbEntity
  8
0
  6
Continuous
 62
     7
370
    25
100
AcDbSpline
210
0.0
220
0.0
230
1.0
 70
     8
 71
     3
 72
    20
 73
    16
 74
     0
 42
0.00000001
 43
0.00000001
 40
0.0
 40
0.0
 40
0.0
 40
0.0
 40
0.0390941924792449
 40
0.0819082185764382
 40
0.1282283111855256
 40
0.1778135833923239
 40
0.2303953004364929
 40
0.3757797604728841
 40
0.4665908247839519
 40
0.6075609438914682
 40
0.7136361110676178
 40
0.7850695749899911
 40
0.8470113894375558
 40
0.9293078254976205
 40
1.0
 40
1.0
 40
1.0
 40
1.0
 10
150.4532067736177
 20
201.2031317858862
 30
0.0
 10
150.5347077574027
 20
201.1984065040209
 30
0.0
 10
150.7054645877834
 20
201.1885063271578
 30
0.0
 10
150.9715575511101
 20
201.1823190002845
 30
0.0
 10
151.258082488101
 20
201.1836616594579
 30
0.0
 10
151.5629332086498
 20
201.1951341815129
 30
0.0
 10
152.0675266091811
 20
201.2319434147373
 30
0.0
 10
152.6472428173708
 20
201.3139542088123
 30
0.0
 10
153.3857880948975
 20
201.4850426452023
 30
0.0
 10
154.0295219957899
 20
201.6912197041587
 30
0.0
 10
154.6154237774657
 20
201.9429805305013
 30
0.0
 10
155.0458200272222
 20
202.1583643039391
 30
0.0
 10
155.4280002058165
 20
202.3690460110466
 30
0.0
 10
155.8044174662244
 20
202.5946762366808
 30
0.0
 10
156.0726141053055
 20
202.7697089755365
 30
0.0
 10
156.1965410011781
 20
202.8505871851844
 30
0.0
  0
SPLINE
  5
240
330
1F
100
AcDbEntity
  8
0
  6
Continuous
 62
     7
370
    25
100
AcDbSpline
210
0.0
220
0.0
230
1.0
 70
    24
 71
     3
 72
    18
 73
    14
 74
     0
 42
0.00000001
 43
0.00000001
 40
0.0
 40
0.0
 40
0.0
 40
0.0
 40
0.071617960638014
 40
0.1430382839191073
 40
0.2143421229946956
 40
0.2856110289353143
 40
0.3569266726521171
 40
0.428370564771911
 40
0.500023778247801
 40
0.6252095159883216
 40
0.7499758476272285
 40
0.8747602473495665
 40
1.0
 40
1.0
 40
1.0
 40
1.0
 10
131.870083980919
 20
245.8268281798608
 30
0.0
 10
131.946479496521
 20
245.8268281798608
 30
0.0
 10
132.0990597061985
 20
245.8268281798608
 30
0.0
 10
132.3336311117227
 20
245.8268281798609
 30
0.0
 10
132.5718511240524
 20
245.8268281798608
 30
0.0
 10
132.8141594868524
 20
245.8268281798609
 30
0.0
 10
133.0604366422511
 20
245.8268281798609
 30
0.0
 10
133.3107161881588
 20
245.8268281798608
 30
0.0
 10
133.6279309576893
 20
245.8268281798609
 30
0.0
 10
134.0143174262278
 20
245.8268281798609
 30
0.0
 10
134.4721335507957
 20
245.8268281798608
 30
0.0
 10
134.9358077199968
 20
245.8268281798608
 30
0.0
 10
135.248485345383
 20
245.8268281798608
 30
0.0
 10
135.405108887913
 20
245.8268281798608
 30
0.0
  0
SPLINE
  5
241
330
1F
100
AcDbEntity
  8
0
  6
Continuous
 62
     7
370
    25
100
AcDbSpline
210
0.0
220
0.0
230
1.0
 70
    24
 71
     3
 72
    18
 73
    14
 74
     0
 42
0.00000001
 43
0.00000001
 40
0.0
 40
0.0
 40
0.0
 40
0.0
 40
0.0716179606358408
 40
0.1430382839154879
 40
0.2143421229903542
 40
0.2856110289309736
 40
0.356926672648492
 40
0.4283705647697106
 40
0.5000237782477235
 40
0.6252095159849894
 40
0.7499758476228002
 40
0.8747602473462426
 40
1.0
 40
1.0
 40
1.0
 40
1.0
 10
144.5121097940664
 20
245.8268281798608
 30
0.0
 10
144.6017284242007
 20
245.8268281798609
 30
0.0
 10
144.7807183723567
 20
245.8268281798609
 30
0.0
 10
145.0475197390655
 20
245.8268281798608
 30
0.0
 10
145.3124609314494
 20
245.8268281798608
 30
0.0
 10
145.5754621943443
 20
245.8268281798608
 30
0.0
 10
145.8365422082136
 20
245.8268281798608
 30
0.0
 10
146.0956996904077
 20
245.8268281798609
 30
0.0
 10
146.4166003632065
 20
245.8268281798608
 30
0.0
 10
146.7953476710012
 20
245.8268281798609
 30
0.0
 10
147.2256945913227
 20
245.8268281798609
 30
0.0
 10
147.6449648053783
 20
245.8268281798608
 30
0.0
 10
147.9129154020956
 20
245.8268281798608
 30
0.0
 10
148.0471347010603
 20
245.8268281798608
 30
0.0
  0
SPLINE
  5
242
330
1F
100
AcDbEntity
  8
0
  6
Continuous
 62
     7
370
    25
100
AcDbSpline
210
0.0
220
0.0
230
1.0
 70
    24
 71
     3
 72
    20
 73
    16
 74
     0
 42
0.00000001
 43
0.00000001
 40
0.0
 40
0.0
 40
0.0
 40
0.0
 40
0.077112088870612
 40
0.1541297666800304
 40
0.2310701129072476
 40
0.3079502585705803
 40
0.3847873749539334
 40
0.461598662199007
 40
0.5384013378009932
 40
0.6152126250460667
 40
0.6920497414294198
 40
0.7689298870927525
 40
0.8458702333199696
 40
0.9228879111293877
 40
1.0
 40
1.0
 40
1.0
 40
1.0
 10
135.405108887913
 20
245.8268281798608
 30
0.0
 10
135.6385589236177
 20
245.8268281798608
 30
0.0
 10
136.1051731738811
 20
245.8268281798609
 30
0.0
 10
136.805846076957
 20
245.8268281798608
 30
0.0
 10
137.5064470418434
 20
245.8268281798608
 30
0.0
 10
138.2070677479753
 20
245.8268281798608
 30
0.0
 10
138.9076835249745
 20
245.8268281798609
 30
0.0
 10
139.6083008751719
 20
245.8268281798608
 30
0.0
 10
140.3089178068076
 20
245.8268281798609
 30
0.0
 10
141.0095351570049
 20
245.8268281798608
 30
0.0
 10
141.7101509340041
 20
245.8268281798608
 30
0.0
 10
142.4107716401361
 20
245.8268281798608
 30
0.0
 10
143.1113726050225
 20
245.8268281798608
 30
0.0
 10
143.8120455080983
 20
245.8268281798608
 30
0.0
 10
144.2786597583618
 20
245.8268281798609
 30
0.0
 10
144.5121097940664
 20
245.8268281798609
 30
0.0
  0
LINE
  5
243
330
1F
100
AcDbEntity
  8
0
  6
Continuous
 62
     8
370
    18
100
AcDbLine
 10
87.6119945579
 20
252.0472606878
 30
0.0
 11
192.305224124
 21
252.0472606878
 31
0.0
  0
LINE
  5
244
330
1F
100
AcDbEntity
  8
0
  6
Continuous
 62
     8
370
    18
100
AcDbLine
 10
184.958609341
 20
176.8268281799
 30
0.0
 11
173.958609341
 21
176.8268281799
 31
0.0
  0
LINE
  5
245
330
1F
100
AcDbEntity
  8
0
  6
Continuous
 62
     8
370
    18
100
AcDbLine
 10
105.958609341
 20
176.8268281799
 30
0.0
 11
94.958609341
 21
176.8268281799
 31
0.0
  0
LINE
  5
246
330
1F
100
AcDbEntity
  8
0
  6
Continuous
 62
     8
370
    18
100
AcDbLine
 10
150.1185463087
 20
164.8435366472
 30
0.0
 11
129.7986723733
 21
164.8435366472
 31
0.0
  0
LINE
  5
247
330
1F
100
AcDbEntity
  8
0
  6
Continuous
 62
     8
370
    18
100
AcDbLine
 10
130.0446553391
 20
165.0611639917
 30
0.0
 11
149.8725633429
 21
165.0611639917
 31
0.0
  0
ARC
  5
248
330
1F
100
AcDbEntity
  8
0
  6
Continuous
 62
     8
370
    18
100
AcDbCircle
 10
130.1697089936
 20
244.4249783275
 30
0.0
 40
2.203737304247433
100
AcDbArc
 50
354.1882761361
 51
39.5033880448
  0
LINE
  5
249
330
1F
100
AcDbEntity
  8
0
  6
Continuous
 62
     8
370
    18
100
AcDbLine
 10
96.504498683
 20
244.2018281799
 30
0.0
 11
132.3621191098
 21
244.2018281799
 31
0.0
  0
LINE
  5
24A
330
1F
100
AcDbEntity
  8
0
  6
Continuous
 62
     8
370
    18
100
AcDbLine
 10
123.5047913114
 20
226.415929795
 30
0.0
 11
106.7731919033
 21
226.415929795
 31
0.0
  0
SPLINE
  5
24B
330
1F
100
AcDbEntity
  8
0
  6
Continuous
 62
     8
370
    18
100
AcDbSpline
210
0.0
220
0.0
230
1.0
 70
     8
 71
     3
 72
     8
 73
     4
 74
     0
 42
0.00000001
 43
0.00000001
 40
0.0
 40
0.0
 40
0.0
 40
0.0
 40
1.0
 40
1.0
 40
1.0
 40
1.0
 10
123.7206776808013
 20
224.7909297949985
 30
0.0
 10
123.7206776808013
 20
225.3614063514473
 30
0.0
 10
123.6462166448209
 20
225.9218826048504
 30
0.0
 10
123.5047913114262
 20
226.4159297949985
 30
0.0
  0
LINE
  5
24C
330
1F
100
AcDbEntity
  8
0
  6
Continuous
 62
     8
370
    18
100
AcDbLine
 10
107.208609341
 20
224.790929795
 30
0.0
 11
123.7206776808
 21
224.790929795
 31
0.0
  0
LINE
  5
24D
330
1F
100
AcDbEntity
  8
0
  6
Continuous
 62
     8
370
    18
100
AcDbLine
 10
156.1965410012
 20
224.790929795
 30
0.0
 11
172.708609341
 21
224.790929795
 31
0.0
  0
SPLINE
  5
24E
330
1F
100
AcDbEntity
  8
0
  6
Continuous
 62
     8
370
    18
100
AcDbSpline
210
0.0
220
0.0
230
1.0
 70
     8
 71
     3
 72
     8
 73
     4
 74
     0
 42
0.00000001
 43
0.00000001
 40
0.0
 40
0.0
 40
0.0
 40
0.0
 40
1.0
 40
1.0
 40
1.0
 40
1.0
 10
156.4124273705532
 20
226.4159297949985
 30
0.0
 10
156.2710020371585
 20
225.9218826048504
 30
0.0
 10
156.196541001178
 20
225.3614063514473
 30
0.0
 10
156.196541001178
 20
224.7909297949985
 30
0.0
  0
LINE
  5
24F
330
1F
100
AcDbEntity
  8
0
  6
Continuous
 62
     8
370
    18
100
AcDbLine
 10
173.1440267787
 20
226.415929795
 30
0.0
 11
156.4124273706
 21
226.415929795
 31
0.0
  0
LINE
  5
250
330
1F
100
AcDbEntity
  8
0
  6
Continuous
 62
     8
370
    18
100
AcDbLine
 10
147.5550995721
 20
244.2018281799
 30
0.0
 11
183.412719999
 21
244.2018281799
 31
0.0
  0
ARC
  5
251
330
1F
100
AcDbEntity
  8
0
  6
Continuous
 62
     8
370
    18
100
AcDbCircle
 10
149.7475096884
 20
244.4249783275
 30
0.0
 40
2.203737304247513
100
AcDbArc
 50
140.4966119552
 51
185.8117238639
  0
SPLINE
  5
252
330
1F
100
AcDbEntity
  8
0
  6
Continuous
 62
     8
370
    18
100
AcDbSpline
210
0.0
220
0.0
230
1.0
 70
     8
 71
     3
 72
     9
 73
     5
 74
     0
 42
0.00000001
 43
0.00000001
 40
0.0
 40
0.0
 40
0.0
 40
0.0
 40
0.0772375188617349
 40
0.180220877344048
 40
0.180220877344048
 40
0.180220877344048
 40
0.180220877344048
 10
156.4124273705532
 20
226.4159297949985
 30
0.0
 10
156.2063236508851
 20
226.4159297949985
 30
0.0
 10
155.7734037101201
 20
226.5721825520777
 30
0.0
 10
155.5153630269444
 20
226.9446722610419
 30
0.0
 10
155.4044506519108
 20
227.1790650437684
 30
0.0
  0
SPLINE
  5
253
330
1F
100
AcDbEntity
  8
0
  6
Continuous
 62
     8
370
    18
100
AcDbSpline
210
0.0
220
0.0
230
1.0
 70
     8
 71
     3
 72
     9
 73
     5
 74
     0
 42
0.00000001
 43
0.00000001
 40
0.0000000000000002
 40
0.0000000000000002
 40
0.0000000000000002
 40
0.0000000000000002
 40
1.02812719458297
 40
1.79922259052019
 40
1.79922259052019
 40
1.79922259052019
 40
1.79922259052019
 10
155.4044506519108
 20
227.1790650437684
 30
0.0
 10
154.2971646722309
 20
229.5191090827914
 30
0.0
 10
152.4610737035199
 20
233.8946886980648
 30
0.0
 10
150.7179941736782
 20
238.5019560664851
 30
0.0
 10
149.9824621687292
 20
240.5059592483706
 30
0.0
  0
SPLINE
  5
254
330
1F
100
AcDbEntity
  8
0
  6
Continuous
 62
     8
370
    18
100
AcDbSpline
210
0.0
220
0.0
230
1.0
 70
     8
 71
     3
 72
     8
 73
     4
 74
     0
 42
0.00000001
 43
0.00000001
 40
0.0
 40
0.0
 40
0.0
 40
0.0
 40
0.534007917536861
 40
0.534007917536861
 40
0.534007917536861
 40
0.534007917536861
 10
149.9824621687291
 20
240.5059592483706
 30
0.0
 10
149.4730830227582
 20
241.8937947503519
 30
0.0
 10
148.7224982869964
 20
243.2174920993079
 30
0.0
 10
147.5550995721496
 20
244.2018281798608
 30
0.0
  0
SPLINE
  5
255
330
1F
100
AcDbEntity
  8
0
  6
Continuous
 62
     8
370
    18
100
AcDbSpline
210
0.0
220
0.0
230
1.0
 70
     8
 71
     3
 72
     8
 73
     4
 74
     0
 42
0.00000001
 43
0.00000001
 40
0.0
 40
0.0
 40
0.0
 40
0.0
 40
0.534007842378915
 40
0.534007842378915
 40
0.534007842378915
 40
0.534007842378915
 10
132.3621191098298
 20
244.2018281798608
 30
0.0
 10
131.1947205592865
 20
243.2174922378465
 30
0.0
 10
130.4441355875296
 20
241.8937945550236
 30
0.0
 10
129.9347565132503
 20
240.5059592483707
 30
0.0
  0
SPLINE
  5
256
330
1F
100
AcDbEntity
  8
0
  6
Continuous
 62
     8
370
    18
100
AcDbSpline
210
0.0
220
0.0
230
1.0
 70
     8
 71
     3
 72
     9
 73
     5
 74
     0
 42
0.00000001
 43
0.00000001
 40
0.0
 40
0.0
 40
0.0
 40
0.0
 40
1.02812719458296
 40
1.79922259052019
 40
1.79922259052019
 40
1.79922259052019
 40
1.79922259052019
 10
129.9347565132502
 20
240.5059592483705
 30
0.0
 10
128.9540471733182
 20
237.8339550058565
 30
0.0
 10
127.2035015811869
 20
233.2441104668387
 30
0.0
 10
125.3432325148285
 20
228.9340980730356
 30
0.0
 10
124.5127680300687
 20
227.1790650437684
 30
0.0
  0
SPLINE
  5
257
330
1F
100
AcDbEntity
  8
0
  6
Continuous
 62
     8
370
    18
100
AcDbSpline
210
0.0
220
0.0
230
1.0
 70
     8
 71
     3
 72
     9
 73
     5
 74
     0
 42
0.00000001
 43
0.00000001
 40
0.0
 40
0.0
 40
0.0
 40
0.0
 40
0.102991576943205
 40
0.180235259650608
 40
0.180235259650608
 40
0.180235259650608
 40
0.180235259650608
 10
124.5127680300687
 20
227.1790650437684
 30
0.0
 10
124.4018468038087
 20
226.9446535556127
 30
0.0
 10
124.1438584682119
 20
226.5721905688218
 30
0.0
 10
123.7109114789494
 20
226.4159297949985
 30
0.0
 10
123.5047913114262
 20
226.4159297949985
 30
0.0
  0
LINE
  5
258
330
1F
100
AcDbEntity
  8
0
  6
Continuous
 62
     8
370
    18
100
AcDbLine
 10
123.7206776808
 20
224.790929795
 30
0.0
 11
123.7206776808
 21
202.8505871852
 31
0.0
  0
SPLINE
  5
259
330
1F
100
AcDbEntity
  8
0
  6
Continuous
 62
     8
370
    18
100
AcDbSpline
210
0.0
220
0.0
230
1.0
 70
     8
 71
     3
 72
    12
 73
     8
 74
     0
 42
0.00000001
 43
0.00000001
 40
-0.822043127861726
 40
-0.822043127861726
 40
-0.822043127861726
 40
-0.822043127861726
 40
-0.8206122607487863
 40
-0.8206122607487863
 40
-0.6562036351764414
 40
-0.4917950096040954
 40
0.0014308671129396
 40
0.0014308671129396
 40
0.0014308671129396
 40
0.0014308671129396
 10
123.7206776808013
 20
202.8505871851844
 30
0.0
 10
123.7224826050514
 20
202.8464004246513
 30
0.0
 10
123.7242923129789
 20
202.8422182841424
 30
0.0
 10
123.9347962309003
 20
202.3576227634186
 30
0.0
 10
124.497177639609
 20
201.4927705696875
 30
0.0
 10
126.2967388377514
 20
199.8534421750407
 30
0.0
 10
128.1158241049085
 20
199.2161723741689
 30
0.0
 10
129.5269362657946
 20
199.0571488961611
 30
0.0
  0
SPLINE
  5
25A
330
1F
100
AcDbEntity
  8
0
  6
Continuous
 62
     8
370
    18
100
AcDbSpline
210
0.0
220
0.0
230
1.0
 70
     8
 71
     3
 72
    11
 73
     7
 74
     0
 42
0.00000001
 43
0.00000001
 40
0.0
 40
0.0
 40
0.0
 40
0.0
 40
0.2463971144749628
 40
0.4950772530807341
 40
0.7462200726820898
 40
1.0
 40
1.0
 40
1.0
 40
1.0
 10
129.5269362657946
 20
199.0571488961611
 30
0.0
 10
129.6143484863957
 20
199.0480455303991
 30
0.0
 10
129.789982856762
 20
199.0297544504696
 30
0.0
 10
130.0564424291371
 20
199.0119690263598
 30
0.0
 10
130.3264849629846
 20
199.000465708258
 30
0.0
 10
130.5081675270743
 20
198.9990916649443
 30
0.0
 10
130.5994832544622
 20
198.9984010551146
 30
0.0
  0
LINE
  5
25B
330
1F
100
AcDbEntity
  8
0
  6
Continuous
 62
     8
370
    18
100
AcDbLine
 10
130.5994832545
 20
198.9984010551
 30
0.0
 11
149.3177354274
 21
198.9984010551
 31
0.0
  0
SPLINE
  5
25C
330
1F
100
AcDbEntity
  8
0
  6
Continuous
 62
     8
370
    18
100
AcDbSpline
210
0.0
220
0.0
230
1.0
 70
     8
 71
     3
 72
    11
 73
     7
 74
     0
 42
0.00000001
 43
0.00000001
 40
0.0
 40
0.0
 40
0.0
 40
0.0
 40
0.2537799273315899
 40
0.504922746937519
 40
0.7536028855387475
 40
1.0
 40
1.0
 40
1.0
 40
1.0
 10
149.317735427434
 20
198.9984010551146
 30
0.0
 10
149.4090511548322
 20
198.9990916649443
 30
0.0
 10
149.5907337189392
 20
199.0004657082578
 30
0.0
 10
149.8607762528075
 20
199.011969026359
 30
0.0
 10
150.1272358251935
 20
199.0297544504678
 30
0.0
 10
150.3028701955636
 20
199.0480455303971
 30
0.0
 10
150.390282416165
 20
199.0571488961588
 30
0.0
  0
SPLINE
  5
25D
330
1F
100
AcDbEntity
  8
0
  6
Continuous
 62
     8
370
    18
100
AcDbSpline
210
0.0
220
0.0
230
1.0
 70
     8
 71
     3
 72
    16
 73
    12
 74
     0
 42
0.00000001
 43
0.00000001
 40
-0.823473994976953
 40
-0.823473994976953
 40
-0.823473994976953
 40
-0.823473994976953
 40
-0.659065369404117
 40
-0.4946567438312819
 40
-0.412452431044864
 40
-0.330248118258446
 40
-0.248043805472028
 40
-0.1658394926856099
 40
-0.001430867112775
 40
-0.001430867112775
 40
0.0
 40
0.0
 40
0.0
 40
0.0
 10
150.390282416165
 20
199.0571488961588
 30
0.0
 10
150.8606531364619
 20
199.1101567221606
 30
0.0
 10
151.7879386807575
 20
199.2879212286834
 30
0.0
 10
152.8958458270429
 20
199.6981728918035
 30
0.0
 10
153.7290758000549
 20
200.1441015069099
 30
0.0
 10
154.3228269140606
 20
200.5395925134888
 30
0.0
 10
154.8813244184902
 20
201.0028518343331
 30
0.0
 10
155.5587642259973
 20
201.707031545676
 30
0.0
 10
155.9826425156643
 20
202.3576588755625
 30
0.0
 10
156.1929250276158
 20
202.842218072192
 30
0.0
 10
156.1947360769233
 20
202.8464004246429
 30
0.0
 10
156.1965410011781
 20
202.8505871851844
 30
0.0
  0
LINE
  5
25E
330
1F
100
AcDbEntity
  8
0
  6
Continuous
 62
     8
370
    18
100
AcDbLine
 10
156.1965410012
 20
202.8505871852
 30
0.0
 11
156.1965410012
 21
224.790929795
 31
0.0
  0
SPLINE
  5
25F
330
1F
100
AcDbEntity
  8
0
  6
Continuous
 62
     8
370
    18
100
AcDbSpline
210
0.0
220
0.0
230
1.0
 70
     8
 71
     3
 72
    19
 73
    15
 74
     0
 42
0.00000001
 43
0.00000001
 40
0.0
 40
0.0
 40
0.0
 40
0.0
 40
0.0459785764895136
 40
0.0966186210530912
 40
0.1530894852917634
 40
0.2149403632759739
 40
0.2865047810833207
 40
0.3905963533994374
 40
0.5336351125750386
 40
0.6090083077632568
 40
0.7698348971096188
 40
0.8440175703918991
 40
0.9207420070776522
 40
1.0
 40
1.0
 40
1.0
 40
1.0
 10
123.7206776808007
 20
202.8505871851844
 30
0.0
 10
123.8013455445973
 20
202.7976555523992
 30
0.0
 10
123.9708596609184
 20
202.6864258937131
 30
0.0
 10
124.238250677467
 20
202.5183793416739
 30
0.0
 10
124.5347351905872
 20
202.3420225955194
 30
0.0
 10
124.8710584332099
 20
202.1563646929614
 30
0.0
 10
125.298304262958
 20
201.94388581403
 30
0.0
 10
125.8847495467156
 20
201.6917440017651
 30
0.0
 10
126.4994334552207
 20
201.4940256722884
 30
0.0
 10
127.2409715117638
 20
201.3162886593309
 30
0.0
 10
127.8634163839649
 20
201.2253236169318
 30
0.0
 10
128.4997453659014
 20
201.1852081790686
 30
0.0
 10
128.9740896230824
 20
201.178235290988
 30
0.0
 10
129.298945647198
 20
201.1947435752404
 30
0.0
 10
129.4640119083457
 20
201.2031317858852
 30
0.0
  0
SPLINE
  5
260
330
1F
100
AcDbEntity
  8
0
  6
Continuous
 62
     8
370
    18
100
AcDbSpline
210
0.0
220
0.0
230
1.0
 70
     8
 71
     3
 72
    23
 73
    19
 74
     0
 42
0.00000001
 43
0.00000001
 40
0.0
 40
0.0
 40
0.0
 40
0.0
 40
0.0335882556290653
 40
0.0675041260884731
 40
0.1018941769873682
 40
0.1368990182448663
 40
0.1726520069416524
 40
0.2092783290137329
 40
0.2468944520810772
 40
0.2856079114828167
 40
0.3255173732813986
 40
0.3667129109165734
 40
0.4092764337814812
 40
0.4532822131034997
 40
0.5779935620862447
 40
0.7154640071742547
 40
0.8502904408885966
 40
1.0
 40
1.0
 40
1.0
 40
1.0
 10
123.7206776808014
 20
202.8505871851844
 30
0.0
 10
123.7612922880821
 20
202.8515068879954
 30
0.0
 10
123.8429176514588
 20
202.8533552642614
 30
0.0
 10
123.9634935788442
 20
202.8681981202772
 30
0.0
 10
124.0830653977497
 20
202.8918492459361
 30
0.0
 10
124.2013930650767
 20
202.9251923070175
 30
0.0
 10
124.3184246504153
 20
202.9679767012175
 30
0.0
 10
124.4340574084693
 20
203.0202629653532
 30
0.0
 10
124.5482030920831
 20
203.0820264032383
 30
0.0
 10
124.6607696012919
 20
203.1532666064304
 30
0.0
 10
124.7716653679843
 20
203.2339787349471
 30
0.0
 10
124.8807990348397
 20
203.3241559140563
 30
0.0
 10
124.9880744889521
 20
203.4238106426623
 30
0.0
 10
125.15656933842
 20
203.598279466395
 30
0.0
 10
125.3767144200797
 20
203.8761029580382
 30
0.0
 10
125.6203907097922
 20
204.2712313862509
 30
0.0
 10
125.8441963101894
 20
204.7166703351621
 30
0.0
 10
125.9688877295179
 20
205.0320325791879
 30
0.0
 10
126.0344945345736
 20
205.1979614729093
 30
0.0
  0
SPLINE
  5
261
330
1F
100
AcDbEntity
  8
0
  6
Continuous
 62
     8
370
    18
100
AcDbSpline
210
0.0
220
0.0
230
1.0
 70
     8
 71
     3
 72
     9
 73
     5
 74
     0
 42
0.00000001
 43
0.00000001
 40
0.0981890504804714
 40
0.0981890504804714
 40
0.0981890504804714
 40
0.0981890504804714
 40
0.613509593063059
 40
1.0
 40
1.0
 40
1.0
 40
1.0
 10
129.4640119083457
 20
201.2031317858852
 30
0.0
 10
128.5496994615187
 20
201.7346556353145
 30
0.0
 10
127.102227027315
 20
202.9957159831889
 30
0.0
 10
126.2580638447133
 20
204.5374135757664
 30
0.0
 10
126.0344945345732
 20
205.1979614729097
 30
0.0
  0
SPLINE
  5
262
330
1F
100
AcDbEntity
  8
0
  6
Continuous
 62
     8
370
    18
100
AcDbSpline
210
0.0
220
0.0
230
1.0
 70
     8
 71
     3
 72
     9
 73
     5
 74
     0
 42
0.00000001
 43
0.00000001
 40
0.0981890504785341
 40
0.0981890504785341
 40
0.0981890504785341
 40
0.0981890504785341
 40
0.4846794574163051
 40
1.0
 40
1.0
 40
1.0
 40
1.0
 10
153.8827241474036
 20
205.1979614729168
 30
0.0
 10
153.659154837263
 20
204.537413575772
 30
0.0
 10
152.8149916546582
 20
202.9957159831907
 30
0.0
 10
151.3675192204483
 20
201.7346556353149
 30
0.0
 10
150.4532067736177
 20
201.2031317858862
 30
0.0
  0
SPLINE
  5
263
330
1F
100
AcDbEntity
  8
0
  6
Continuous
 62
     8
370
    18
100
AcDbSpline
210
0.0
220
0.0
230
1.0
 70
     8
 71
     3
 72
    21
 73
    17
 74
     0
 42
0.00000001
 43
0.00000001
 40
0.0
 40
0.0
 40
0.0
 40
0.0
 40
0.0802724332218934
 40
0.1570154533483481
 40
0.2302814966060787
 40
0.300130830293743
 40
0.3666330115781122
 40
0.4298686439615875
 40
0.489931483470883
 40
0.5469309447630472
 40
0.670026279390109
 40
0.7832710096191281
 40
0.8401032433032466
 40
0.8948415394059419
 40
0.9479656513922621
 40
1.0
 40
1.0
 40
1.0
 40
1.0
 10
153.8827241474062
 20
205.1979614729168
 30
0.0
 10
153.9172186350411
 20
205.108696885423
 30
0.0
 10
153.984690958934
 20
204.934092489982
 30
0.0
 10
154.0946992201082
 20
204.6841224337744
 30
0.0
 10
154.2080055842136
 20
204.45053027973
 30
0.0
 10
154.3250013954944
 20
204.2336873908741
 30
0.0
 10
154.4451879652681
 20
204.0334945960558
 30
0.0
 10
154.5682997815653
 20
203.8499804737454
 30
0.0
 10
154.6940252844979
 20
203.6831062345703
 30
0.0
 10
154.8737324103732
 20
203.4724123905786
 30
0.0
 10
155.1184929979612
 20
203.2404884611327
 30
0.0
 10
155.4006057271019
 20
203.0561549790656
 30
0.0
 10
155.6376871340707
 20
202.9503879948436
 30
0.0
 10
155.821071749043
 20
202.8932632932904
 30
0.0
 10
156.0068328065801
 20
202.8573289552585
 30
0.0
 10
156.1337433300786
 20
202.8528188624224
 30
0.0
 10
156.1965410011781
 20
202.8505871851844
 30
0.0
  0
SPLINE
  5
264
330
1F
100
AcDbEntity
  8
0
  6
Continuous
 62
     8
370
    18
100
AcDbSpline
210
0.0
220
0.0
230
1.0
 70
     8
 71
     3
 72
    19
 73
    15
 74
     0
 42
0.00000001
 43
0.00000001
 40
0.0
 40
0.0
 40
0.0
 40
0.0
 40
0.0706816065621141
 40
0.1400628109407084
 40
0.2081809072899441
 40
0.2750753024307357
 40
0.3407876047901544
 40
0.4053617079420584
 40
0.468843866521734
 40
0.5781723523895315
 40
0.6856975009330798
 40
0.7916686034037466
 40
0.8963460547334159
 40
1.0
 40
1.0
 40
1.0
 40
1.0
 10
126.0344945345709
 20
225.5540650437684
 30
0.0
 10
125.9970388534495
 20
225.5215911623671
 30
0.0
 10
125.9228166018806
 20
225.4572408549469
 30
0.0
 10
125.8028063769648
 20
225.3678189714976
 30
0.0
 10
125.6781162419941
 20
225.28480484972
 30
0.0
 10
125.5483818304559
 20
225.2086162116518
 30
0.0
 10
125.4140977272517
 20
225.139151180253
 30
0.0
 10
125.2755318562082
 20
225.0764131421046
 30
0.0
 10
125.0979192824572
 20
225.0067225198708
 30
0.0
 10
124.8758747119962
 20
224.9358366651287
 30
0.0
 10
124.603481053916
 20
224.8710641884571
 30
0.0
 10
124.319563959965
 20
224.8251447989909
 30
0.0
 10
124.0262729713777
 20
224.7963152731361
 30
0.0
 10
123.822208596754
 20
224.7927190651378
 30
0.0
 10
123.7206776808013
 20
224.7909297949985
 30
0.0
  0
LINE
  5
265
330
1F
100
AcDbEntity
  8
0
  6
Continuous
 62
     8
370
    18
100
AcDbLine
 10
126.0344945346
 20
205.1979614729
 30
0.0
 11
126.0344945346
 21
225.5540650438
 31
0.0
  0
LINE
  5
266
330
1F
100
AcDbEntity
  8
0
  6
Continuous
 62
     8
370
    18
100
AcDbLine
 10
153.8827241474
 20
225.5540650438
 30
0.0
 11
153.8827241474
 21
205.1979614729
 31
0.0
  0
SPLINE
  5
267
330
1F
100
AcDbEntity
  8
0
  6
Continuous
 62
     8
370
    18
100
AcDbSpline
210
0.0
220
0.0
230
1.0
 70
     8
 71
     3
 72
    19
 73
    15
 74
     0
 42
0.00000001
 43
0.00000001
 40
0.0
 40
0.0
 40
0.0
 40
0.0
 40
0.0646801178899811
 40
0.1297213690128695
 40
0.1951908890529533
 40
0.2611545060643737
 40
0.3276765812838037
 40
0.394819870003562
 40
0.4626454032049558
 40
0.531212390103545
 40
0.6430112185411369
 40
0.7582563958213221
 40
0.8771817269771117
 40
0.9999999999999999
 40
0.9999999999999999
 40
0.9999999999999999
 40
0.9999999999999999
 10
156.1965410011781
 20
224.7909297949985
 30
0.0
 10
156.1329690456886
 20
224.7916259458187
 30
0.0
 10
156.0054701887607
 20
224.7930221343289
 30
0.0
 10
155.8190085603504
 20
224.8042528756366
 30
0.0
 10
155.6358413631057
 20
224.8221598864528
 30
0.0
 10
155.4566199149561
 20
224.8474085390852
 30
0.0
 10
155.2815422172559
 20
224.8798197389365
 30
0.0
 10
155.1109295349163
 20
224.9194348645609
 30
0.0
 10
154.9450671201876
 20
224.9662664011141
 30
0.0
 10
154.7510922717522
 20
225.0313436386162
 30
0.0
 10
154.5334078636079
 20
225.1216115636466
 30
0.0
 10
154.2996130015673
 20
225.2451388986018
 30
0.0
 10
154.0787870700336
 20
225.3882875329419
 30
0.0
 10
153.948776335162
 20
225.4982157933146
 30
0.0
 10
153.8827241474087
 20
225.5540650437684
 30
0.0
  0
SPLINE
  5
268
330
1F
100
AcDbEntity
  8
0
  6
Continuous
 62
     8
370
    18
100
AcDbSpline
210
0.0
220
0.0
230
1.0
 70
     8
 71
     3
 72
     8
 73
     4
 74
     0
 42
0.00000001
 43
0.00000001
 40
0.0
 40
0.0
 40
0.0
 40
0.0
 40
1.0
 40
1.0
 40
1.0
 40
1.0
 10
129.4640119083454
 20
201.2031317858849
 30
0.0
 10
129.576154818363
 20
200.6178973978902
 30
0.0
 10
129.5989852983673
 20
199.8392828606975
 30
0.0
 10
129.5269362657946
 20
199.0571488961611
 30
0.0
  0
SPLINE
  5
269
330
1F
100
AcDbEntity
  8
0
  6
Continuous
 62
     8
370
    18
100
AcDbSpline
210
0.0
220
0.0
230
1.0
 70
     8
 71
     3
 72
     8
 73
     4
 74
     0
 42
0.00000001
 43
0.00000001
 40
0.0
 40
0.0
 40
0.0
 40
0.0
 40
1.0
 40
1.0
 40
1.0
 40
1.0
 10
155.4044506519108
 20
227.1790650437684
 30
0.0
 10
154.7172308403136
 20
226.7440844517915
 30
0.0
 10
154.1614981954334
 20
226.1506364535747
 30
0.0
 10
153.8827241474086
 20
225.5540650437684
 30
0.0
  0
SPLINE
  5
26A
330
1F
100
AcDbEntity
  8
0
  6
Continuous
 62
     8
370
    18
100
AcDbSpline
210
0.0
220
0.0
230
1.0
 70
     8
 71
     3
 72
     8
 73
     4
 74
     0
 42
0.00000001
 43
0.00000001
 40
0.0
 40
0.0
 40
0.0
 40
0.0
 40
1.0
 40
1.0
 40
1.0
 40
1.0
 10
150.4532067736179
 20
201.203131785886
 30
0.0
 10
150.3410638635992
 20
200.6178973978909
 30
0.0
 10
150.3182333835935
 20
199.8392828606966
 30
0.0
 10
150.390282416165
 20
199.0571488961588
 30
0.0
  0
SPLINE
  5
26B
330
1F
100
AcDbEntity
  8
0
  6
Continuous
 62
     8
370
    18
100
AcDbSpline
210
0.0
220
0.0
230
1.0
 70
     8
 71
     3
 72
     8
 73
     4
 74
     0
 42
0.00000001
 43
0.00000001
 40
0.0
 40
0.0
 40
0.0
 40
0.0
 40
1.0
 40
1.0
 40
1.0
 40
1.0
 10
124.5127680300687
 20
227.1790650437684
 30
0.0
 10
125.1999878416659
 20
226.7440844517915
 30
0.0
 10
125.7557204865461
 20
226.1506364535747
 30
0.0
 10
126.0344945345708
 20
225.5540650437684
 30
0.0
  0
SPLINE
  5
26C
330
1F
100
AcDbEntity
  8
0
  6
Continuous
 62
     8
370
    18
100
AcDbSpline
210
0.0
220
0.0
230
1.0
 70
     8
 71
     3
 72
     8
 73
     4
 74
     0
 42
0.00000001
 43
0.00000001
 40
0.0
 40
0.0
 40
0.0
 40
0.0
 40
1.0
 40
1.0
 40
1.0
 40
1.0
 10
132.0665521268437
 20
238.8809592483707
 30
0.0
 10
131.676002390684
 20
239.5082952650716
 30
0.0
 10
130.8626467594334
 20
240.128290396103
 30
0.0
 10
129.9347565132503
 20
240.5059592483707
 30
0.0
  0
SPLINE
  5
26D
330
1F
100
AcDbEntity
  8
0
  6
Continuous
 62
     8
370
    18
100
AcDbSpline
210
0.0
220
0.0
230
1.0
 70
     8
 71
     3
 72
     9
 73
     5
 74
     0
 42
0.00000001
 43
0.00000001
 40
0.0
 40
0.0
 40
0.0
 40
0.0
 40
0.77109539593723
 40
1.79922259052019
 40
1.79922259052019
 40
1.79922259052019
 40
1.79922259052019
 10
126.0344945345708
 20
225.5540650437684
 30
0.0
 10
126.973429252441
 20
227.3090980730356
 30
0.0
 10
129.0620210196764
 20
231.6191104668387
 30
0.0
 10
130.9935489066976
 20
236.2089550058565
 30
0.0
 10
132.0665521268438
 20
238.8809592483705
 30
0.0
  0
SPLINE
  5
26E
330
1F
100
AcDbEntity
  8
0
  6
Continuous
 62
     8
370
    18
100
AcDbSpline
210
0.0
220
0.0
230
1.0
 70
     8
 71
     3
 72
     8
 73
     4
 74
     0
 42
0.00000001
 43
0.00000001
 40
0.0
 40
0.0
 40
0.0
 40
0.0
 40
1.0
 40
1.0
 40
1.0
 40
1.0
 10
147.8506665551357
 20
238.8809592483706
 30
0.0
 10
148.2412162912955
 20
239.5082952650715
 30
0.0
 10
149.054571922546
 20
240.1282903961029
 30
0.0
 10
149.9824621687291
 20
240.5059592483706
 30
0.0
  0
SPLINE
  5
26F
330
1F
100
AcDbEntity
  8
0
  6
Continuous
 62
     8
370
    18
100
AcDbSpline
210
0.0
220
0.0
230
1.0
 70
     8
 71
     3
 72
     9
 73
     5
 74
     0
 42
0.00000001
 43
0.00000001
 40
0.0000000000000002
 40
0.0000000000000002
 40
0.0000000000000002
 40
0.0000000000000002
 40
0.7710953959372201
 40
1.79922259052019
 40
1.79922259052019
 40
1.79922259052019
 40
1.79922259052019
 10
147.8506665551356
 20
238.8809592483706
 30
0.0
 10
148.6554189702453
 20
236.8769560664851
 30
0.0
 10
150.5746417039115
 20
232.2696886980648
 30
0.0
 10
152.6308111902484
 20
227.8941090827914
 30
0.0
 10
153.8827241474086
 20
225.5540650437684
 30
0.0
  0
SPLINE
  5
270
330
1F
100
AcDbEntity
  8
0
  6
Continuous
 62
     8
370
    18
100
AcDbSpline
210
0.0
220
0.0
230
1.0
 70
     8
 71
     3
 72
    17
 73
    13
 74
     0
 42
0.00000001
 43
0.00000001
 40
0.0
 40
0.0
 40
0.0
 40
0.0
 40
0.1035668793952341
 40
0.2063229084689857
 40
0.3082774863822054
 40
0.4094376682839511
 40
0.5098089482500056
 40
0.609395975921958
 40
0.7082032104895667
 40
0.8062355156686444
 40
0.9034986991831611
 40
1.0
 40
1.0
 40
1.0
 40
1.0
 10
147.8506665551359
 20
214.4091904887679
 30
0.0
 10
147.8305959750764
 20
214.3413857797528
 30
0.0
 10
147.7906119524167
 20
214.2063072213027
 30
0.0
 10
147.7203568124042
 20
214.0058342127286
 30
0.0
 10
147.6432471649854
 20
213.8082664721771
 30
0.0
 10
147.5588271273992
 20
213.6139116780738
 30
0.0
 10
147.4675975339389
 20
213.4229703289716
 30
0.0
 10
147.3697810500385
 20
213.2356666469619
 30
0.0
 10
147.2657134638517
 20
213.0521808482126
 30
0.0
 10
147.1555045184044
 20
212.8727904726568
 30
0.0
 10
147.0399979558178
 20
212.6973792517634
 30
0.0
 10
146.9578850524323
 20
212.5835102132361
 30
0.0
 10
146.9169900348656
 20
212.5267995607211
 30
0.0
  0
SPLINE
  5
271
330
1F
100
AcDbEntity
  8
0
  6
Continuous
 62
     8
370
    18
100
AcDbSpline
210
0.0
220
0.0
230
1.0
 70
     8
 71
     3
 72
     8
 73
     4
 74
     0
 42
0.00000001
 43
0.00000001
 40
0.0000000000007348
 40
0.0000000000007348
 40
0.0000000000007348
 40
0.0000000000007348
 40
1.51855514489097
 40
1.51855514489097
 40
1.51855514489097
 40
1.51855514489097
 10
153.8827241474014
 20
205.1979614729131
 30
0.0
 10
151.7868387800826
 20
208.0354583310881
 30
0.0
 10
149.7985559491131
 20
211.178520145297
 30
0.0
 10
147.8506665551359
 20
214.4091904887679
 30
0.0
  0
SPLINE
  5
272
330
1F
100
AcDbEntity
  8
0
  6
Continuous
 62
     8
370
    18
100
AcDbSpline
210
0.0
220
0.0
230
1.0
 70
     8
 71
     3
 72
    10
 73
     6
 74
     0
 42
0.00000001
 43
0.00000001
 40
0.0
 40
0.0
 40
0.0
 40
0.0
 40
0.3453066830357023
 40
0.6785986588674993
 40
0.9999999999999999
 40
0.9999999999999999
 40
0.9999999999999999
 40
0.9999999999999999
 10
149.5898046874854
 20
201.2963604763992
 30
0.0
 10
149.6892395096191
 20
201.2818203051283
 30
0.0
 10
149.8846493880245
 20
201.2532458777892
 30
0.0
 10
150.1725168051597
 20
201.222316624545
 30
0.0
 10
150.3606535380023
 20
201.2097333026495
 30
0.0
 10
150.4530134211492
 20
201.2035559117577
 30
0.0
  0
SPLINE
  5
273
330
1F
100
AcDbEntity
  8
0
  6
Continuous
 62
     8
370
    18
100
AcDbSpline
210
0.0
220
0.0
230
1.0
 70
     8
 71
     3
 72
     8
 73
     4
 74
     0
 42
0.00000001
 43
0.00000001
 40
0.0668259205362096
 40
0.0668259205362096
 40
0.0668259205362096
 40
0.0668259205362096
 40
1.430855712941494
 40
1.430855712941494
 40
1.430855712941494
 40
1.430855712941494
 10
143.2885219870006
 20
209.5724081885074
 30
0.0
 10
145.2674710084673
 20
206.6802289622113
 30
0.0
 10
147.3360681513715
 20
203.8688918689884
 30
0.0
 10
149.5897999217516
 20
201.296357924413
 30
0.0
  0
SPLINE
  5
274
330
1F
100
AcDbEntity
  8
0
  6
Continuous
 62
     8
370
    18
100
AcDbSpline
210
0.0
220
0.0
230
1.0
 70
     8
 71
     3
 72
    22
 73
    18
 74
     0
 42
0.00000001
 43
0.00000001
 40
0.0
 40
0.0
 40
0.0
 40
0.0
 40
0.0517457323813062
 40
0.1047047091479869
 40
0.1588765563545158
 40
0.2142646726784635
 40
0.2708764554341136
 40
0.328717510174776
 40
0.3877903816290949
 40
0.4480946220334684
 40
0.5096270458913627
 40
0.5693923361817558
 40
0.6379717173991685
 40
0.7153439891518594
 40
0.8014836261781165
 40
0.8963687262773452
 40
1.0
 40
1.0
 40
1.0
 40
1.0
 10
146.9169900348656
 20
212.5267995607211
 30
0.0
 10
146.8690937153646
 20
212.4627864044852
 30
0.0
 10
146.7721780863487
 20
212.3332592223028
 30
0.0
 10
146.6167095854942
 20
212.1400159971409
 30
0.0
 10
146.4514803500873
 20
211.945380115358
 30
0.0
 10
146.2756409977817
 20
211.7502087086291
 30
0.0
 10
146.0893492077585
 20
211.5550270401978
 30
0.0
 10
145.8925882407963
 20
211.360459389181
 30
0.0
 10
145.6854492300384
 20
211.1671550104712
 30
0.0
 10
145.4680675013406
 20
210.9758064815023
 30
0.0
 10
145.2442985931621
 20
210.7902340212156
 30
0.0
 10
145.0051896854184
 20
210.6032717326466
 30
0.0
 10
144.7407432902256
 20
210.4093515313112
 30
0.0
 10
144.4362555317829
 20
210.2023053470906
 30
0.0
 10
144.0907749463993
 20
209.9879249415618
 30
0.0
 10
143.7041901827157
 20
209.7703483091866
 30
0.0
 10
143.4310887914024
 20
209.6402981323594
 30
0.0
 10
143.2885219870006
 20
209.5724081885074
 30
0.0
  0
SPLINE
  5
275
330
1F
100
AcDbEntity
  8
0
  6
Continuous
 62
     8
370
    18
100
AcDbSpline
210
0.0
220
0.0
230
1.0
 70
     8
 71
     3
 72
    16
 73
    12
 74
     0
 42
0.00000001
 43
0.00000001
 40
0.0
 40
0.0
 40
0.0
 40
0.0
 40
0.1072706050175232
 40
0.2154828584149172
 40
0.3246463326670626
 40
0.4347685797076427
 40
0.5458559803732305
 40
0.6579146941674473
 40
0.7709517163612923
 40
0.8849760499340137
 40
1.0
 40
1.0
 40
1.0
 40
1.0
 10
133.0002286471138
 20
212.5267995607211
 30
0.0
 10
132.9548448429823
 20
212.5898780491191
 30
0.0
 10
132.8636788442597
 20
212.7165887447685
 30
0.0
 10
132.7364262316876
 20
212.9123191383527
 30
0.0
 10
132.6157853145539
 20
213.1129108517136
 30
0.0
 10
132.5028328177542
 20
213.3184791441369
 30
0.0
 10
132.3977667993668
 20
213.5286519060366
 30
0.0
 10
132.3009631634877
 20
213.743164625002
 30
0.0
 10
132.2130568819708
 20
213.9617348827684
 30
0.0
 10
132.1335309271339
 20
214.1839577530578
 30
0.0
 10
132.0889432570348
 20
214.3338947909239
 30
0.0
 10
132.0665521268435
 20
214.409190488768
 30
0.0
  0
SPLINE
  5
276
330
1F
100
AcDbEntity
  8
0
  6
Continuous
 62
     8
370
    18
100
AcDbSpline
210
0.0
220
0.0
230
1.0
 70
     8
 71
     3
 72
    24
 73
    20
 74
     0
 42
0.00000001
 43
0.00000001
 40
0.0
 40
0.0
 40
0.0
 40
0.0
 40
0.0529220180243734
 40
0.1036525830107237
 40
0.1521963493886614
 40
0.1985544192924183
 40
0.2427256453110794
 40
0.2847075857318567
 40
0.3244971818990257
 40
0.3620912178581583
 40
0.3974866133852279
 40
0.4306805930923782
 40
0.4616707666956426
 40
0.4904551487791386
 40
0.6003072499066092
 40
0.7061756330503877
 40
0.8080611508557527
 40
0.9059943601385183
 40
1.0
 40
1.0
 40
1.0
 40
1.0
 10
136.6286966949789
 20
209.5724081885074
 30
0.0
 10
136.5558586059787
 20
209.6063741723468
 30
0.0
 10
136.4131985875539
 20
209.6728996392674
 30
0.0
 10
136.2047633949145
 20
209.7794463751072
 30
0.0
 10
136.0064244938068
 20
209.8870288897853
 30
0.0
 10
135.8183414919617
 20
209.9952944110652
 30
0.0
 10
135.6405523826308
 20
210.103176151121
 30
0.0
 10
135.473053266457
 20
210.2098825297369
 30
0.0
 10
135.3157880447194
 20
210.3146436868485
 30
0.0
 10
135.1686602004987
 20
210.4167687703882
 30
0.0
 10
135.0315387028581
 20
210.5156268885195
 30
0.0
 10
134.9042648057649
 20
210.6106445617903
 30
0.0
 10
134.7866586773591
 20
210.7013086951867
 30
0.0
 10
134.5742418458967
 20
210.8699077776273
 30
0.0
 10
134.2755571527838
 20
211.123516842272
 30
0.0
 10
133.9060350250213
 20
211.4720858687147
 30
0.0
 10
133.5707090401991
 20
211.8236719798164
 30
0.0
 10
133.2677983434473
 20
212.1739911882639
 30
0.0
 10
133.0881934846206
 20
212.4108120943543
 30
0.0
 10
133.0002286471138
 20
212.5267995607211
 30
0.0
  0
SPLINE
  5
277
330
1F
100
AcDbEntity
  8
0
  6
Continuous
 62
     8
370
    18
100
AcDbSpline
210
0.0
220
0.0
230
1.0
 70
     8
 71
     3
 72
     8
 73
     4
 74
     0
 42
0.00000001
 43
0.00000001
 40
2.239066642457651
 40
2.239066642457651
 40
2.239066642457651
 40
2.239066642457651
 40
3.603096426460965
 40
3.603096426460965
 40
3.603096426460965
 40
3.603096426460965
 10
130.3274139944238
 20
201.2963604763439
 30
0.0
 10
132.5811453770368
 20
203.8688942556081
 30
0.0
 10
134.6497422508133
 20
206.6802312011439
 30
0.0
 10
136.6286910611795
 20
209.5724102906412
 30
0.0
  0
SPLINE
  5
278
330
1F
100
AcDbEntity
  8
0
  6
Continuous
 62
     8
370
    18
100
AcDbSpline
210
0.0
220
0.0
230
1.0
 70
     8
 71
     3
 72
    10
 73
     6
 74
     0
 42
0.00000001
 43
0.00000001
 40
0.0
 40
0.0
 40
0.0
 40
0.0
 40
0.3214013408828634
 40
0.654693316714298
 40
0.9999999999999999
 40
0.9999999999999999
 40
0.9999999999999999
 40
0.9999999999999999
 10
129.4642052608169
 20
201.2035559117598
 30
0.0
 10
129.5565651438835
 20
201.2097333026451
 30
0.0
 10
129.7447018766367
 20
201.2223166245326
 30
0.0
 10
130.0325692937493
 20
201.2532458777548
 30
0.0
 10
130.227979172221
 20
201.2818203050766
 30
0.0
 10
130.3274139944238
 20
201.2963604763439
 30
0.0
  0
SPLINE
  5
279
330
1F
100
AcDbEntity
  8
0
  6
Continuous
 62
     8
370
    18
100
AcDbSpline
210
0.0
220
0.0
230
1.0
 70
     8
 71
     3
 72
     8
 73
     4
 74
     0
 42
0.00000001
 43
0.00000001
 40
2.15136723707416
 40
2.15136723707416
 40
2.15136723707416
 40
2.15136723707416
 40
3.66992238196508
 40
3.66992238196508
 40
3.66992238196508
 40
3.66992238196508
 10
132.0665521268435
 20
214.409190488768
 30
0.0
 10
130.1186627328655
 20
211.1785201452956
 30
0.0
 10
128.1303799018951
 20
208.0354583310853
 30
0.0
 10
126.0344945345753
 20
205.1979614729093
 30
0.0
  0
LINE
  5
27A
330
1F
100
AcDbEntity
  8
0
  6
Continuous
 62
     8
370
    18
100
AcDbLine
 10
147.850666555
 20
214.4091904883
 30
0.0
 11
147.8506665551
 21
238.8809592484
 31
0.0
  0
LINE
  5
27B
330
1F
100
AcDbEntity
  8
0
  6
Continuous
 62
     8
370
    18
100
AcDbLine
 10
132.0665521268
 20
238.8809592484
 30
0.0
 11
132.0665521269
 21
214.4091904886
 31
0.0
  0
SPLINE
  5
27C
330
1F
100
AcDbEntity
  8
0
  6
Continuous
 62
     8
370
    18
100
AcDbSpline
210
0.0
220
0.0
230
1.0
 70
     8
 71
     3
 72
     8
 73
     4
 74
     0
 42
0.00000001
 43
0.00000001
 40
0.0
 40
0.0
 40
0.0
 40
0.0
 40
1.0
 40
1.0
 40
1.0
 40
1.0
 10
149.317735427434
 20
198.9984010551146
 30
0.0
 10
149.317735427434
 20
199.8603302531703
 30
0.0
 10
149.4155924437626
 20
200.6870221132654
 30
0.0
 10
149.5897653461044
 20
201.2964980940834
 30
0.0
  0
SPLINE
  5
27D
330
1F
100
AcDbEntity
  8
0
  6
Continuous
 62
     8
370
    18
100
AcDbSpline
210
0.0
220
0.0
230
1.0
 70
     8
 71
     3
 72
     8
 73
     4
 74
     0
 42
0.00000001
 43
0.00000001
 40
0.0
 40
0.0
 40
0.0
 40
0.0
 40
0.9999999999999999
 40
0.9999999999999999
 40
0.9999999999999999
 40
0.9999999999999999
 10
130.3274533357896
 20
201.2964980940834
 30
0.0
 10
130.501626238133
 20
200.6870221132654
 30
0.0
 10
130.5994832544625
 20
199.8603302531703
 30
0.0
 10
130.5994832544625
 20
198.9984010551146
 30
0.0
  0
LINE
  5
27E
330
1F
100
AcDbEntity
  8
0
  6
Continuous
 62
     8
370
    18
100
AcDbLine
 10
149.5897653461
 20
201.2964980941
 30
0.0
 11
130.3274533358
 21
201.2964980941
 31
0.0
  0
LINE
  5
27F
330
1F
100
AcDbEntity
  8
0
  6
Continuous
 62
     8
370
    18
100
AcDbLine
 10
136.6287111896
 20
209.572591159
 30
0.0
 11
143.2885074924
 21
209.572591159
 31
0.0
  0
SPLINE
  5
280
330
1F
100
AcDbEntity
  8
0
  6
Continuous
 62
     8
370
    18
100
AcDbSpline
210
0.0
220
0.0
230
1.0
 70
     8
 71
     3
 72
    17
 73
    13
 74
     0
 42
0.00000001
 43
0.00000001
 40
0.0
 40
0.0
 40
0.0
 40
0.0
 40
0.0811424854420619
 40
0.1590598069191554
 40
0.2337374769309533
 40
0.3051711003602949
 40
0.3733655517855803
 40
0.4383342282215991
 40
0.5000984028931357
 40
0.6777678918637009
 40
0.8443060744640406
 40
1.0
 40
1.0
 40
1.0
 40
1.0
 10
132.3621191098298
 20
244.2018281798608
 30
0.0
 10
132.4013457287137
 20
244.1636895179395
 30
0.0
 10
132.4782398291564
 20
244.0889280884824
 30
0.0
 10
132.5892475682875
 20
243.9739921379318
 30
0.0
 10
132.6940770831675
 20
243.8608628411256
 30
0.0
 10
132.7926194729706
 20
243.7498555403251
 30
0.0
 10
132.8849497442082
 20
243.641641958664
 30
0.0
 10
132.9711284219656
 20
243.5366607892405
 30
0.0
 10
133.1027127613731
 20
243.3701327383004
 30
0.0
 10
133.269765578231
 20
243.1418346731307
 30
0.0
 10
133.4604424705489
 20
242.8544226055775
 30
0.0
 10
133.5687339962884
 20
242.6672600935916
 30
0.0
 10
133.6210575615662
 20
242.5768281798608
 30
0.0
  0
SPLINE
  5
281
330
1F
100
AcDbEntity
  8
0
  6
Continuous
 62
     8
370
    18
100
AcDbSpline
210
0.0
220
0.0
230
1.0
 70
     8
 71
     3
 72
    18
 73
    14
 74
     0
 42
0.00000001
 43
0.00000001
 40
0.0
 40
0.0
 40
0.0
 40
0.0
 40
0.0956790666277876
 40
0.1877108685826252
 40
0.2761125316775397
 40
0.3609033814223057
 40
0.442105321469424
 40
0.5197432931562957
 40
0.6261134328311896
 40
0.7271973524952905
 40
0.8231115270676818
 40
0.9139923106371243
 40
1.0
 40
1.0
 40
1.0
 40
1.0
 10
132.0665521268437
 20
238.8809592483707
 30
0.0
 10
132.0971988683138
 20
239.0060342680868
 30
0.0
 10
132.1573241043069
 20
239.2514164756727
 30
0.0
 10
132.25603975113
 20
239.6094986015746
 30
0.0
 10
132.3584831911515
 20
239.9511281898707
 30
0.0
 10
132.4649889150703
 20
240.2761280648389
 30
0.0
 10
132.5750525624283
 20
240.584543087411
 30
0.0
 10
132.7040644856323
 20
240.9167951501829
 30
0.0
 10
132.8554019617011
 20
241.2687868016546
 30
0.0
 10
133.0333302910876
 20
241.6358114974547
 30
0.0
 10
133.2198175713772
 20
241.9753956162828
 30
0.0
 10
133.4124352281728
 20
242.2888299126618
 30
0.0
 10
133.5528058051008
 20
242.4826082213569
 30
0.0
 10
133.6210575615662
 20
242.5768281798608
 30
0.0
  0
SPLINE
  5
282
330
1F
100
AcDbEntity
  8
0
  6
Continuous
 62
     8
370
    18
100
AcDbSpline
210
0.0
220
0.0
230
1.0
 70
     8
 71
     3
 72
    18
 73
    14
 74
     0
 42
0.00000001
 43
0.00000001
 40
0.0
 40
0.0
 40
0.0
 40
0.0
 40
0.0531963900135486
 40
0.1082708405075179
 40
0.1652662198593886
 40
0.2242212062577149
 40
0.2851707473429649
 40
0.3481464702787863
 40
0.4131770460380992
 40
0.4802885120584282
 40
0.6391102966533951
 40
0.8122923500740328
 40
1.0
 40
1.0
 40
1.0
 40
1.0
 10
146.2961611204132
 20
242.5768281798608
 30
0.0
 10
146.3388056544034
 20
242.5188453989433
 30
0.0
 10
146.4256002571386
 20
242.4008327965223
 30
0.0
 10
146.5489109943836
 20
242.2149024149878
 30
0.0
 10
146.6699530214775
 20
242.018720698621
 30
0.0
 10
146.7878894125884
 20
241.8118130216685
 30
0.0
 10
146.9027969517831
 20
241.5943121461955
 30
0.0
 10
147.0144997922624
 20
241.3661799508432
 30
0.0
 10
147.1228905988793
 20
241.127425139777
 30
0.0
 10
147.2745879905663
 20
240.7670742495896
 30
0.0
 10
147.4607148042434
 20
240.2637908274854
 30
0.0
 10
147.6707155195102
 20
239.5970425027524
 30
0.0
 10
147.7890946467087
 20
239.1259737458514
 30
0.0
 10
147.8506665551358
 20
238.8809592483706
 30
0.0
  0
SPLINE
  5
283
330
1F
100
AcDbEntity
  8
0
  6
Continuous
 62
     8
370
    18
100
AcDbSpline
210
0.0
220
0.0
230
1.0
 70
     8
 71
     3
 72
    16
 73
    12
 74
     0
 42
0.00000001
 43
0.00000001
 40
0.0
 40
0.0
 40
0.0
 40
0.0
 40
0.076538251797045
 40
0.1557373540965382
 40
0.2376561823340927
 40
0.3223383143612598
 40
0.4098123690562414
 40
0.5000922798826875
 40
0.649140722808993
 40
0.8157590651228249
 40
1.0
 40
1.0
 40
1.0
 40
1.0
 10
146.2961611204132
 20
242.5768281798608
 30
0.0
 10
146.3214391963675
 20
242.6212757462886
 30
0.0
 10
146.3728741399852
 20
242.7117160977334
 30
0.0
 10
146.4568690875056
 20
242.8493512926284
 30
0.0
 10
146.5477084683263
 20
242.9910034299076
 30
0.0
 10
146.6460170996082
 20
243.1362729435
 30
0.0
 10
146.7518706470925
 20
243.2846106245522
 30
0.0
 10
146.8888619125699
 20
243.4665394203596
 30
0.0
 10
147.0675242016515
 20
243.6862535220688
 30
0.0
 10
147.2974766691059
 20
243.946569009292
 30
0.0
 10
147.4663971507488
 20
244.1139396177543
 30
0.0
 10
147.5550995721496
 20
244.2018281798609
 30
0.0
  0
LINE
  5
284
330
1F
100
AcDbEntity
  8
0
  6
Continuous
 62
     8
370
    18
100
AcDbLine
 10
133.6210575616
 20
242.5768281799
 30
0.0
 11
135.7199786001
 21
242.5768281799
 31
0.0
  0
LINE
  5
285
330
1F
100
AcDbEntity
  8
0
  6
Continuous
 62
     8
370
    18
100
AcDbLine
 10
135.7199786001
 20
242.5768281799
 30
0.0
 11
135.7199786001
 21
214.4091904887
 31
0.0
  0
SPLINE
  5
286
330
1F
100
AcDbEntity
  8
0
  6
Continuous
 62
     8
370
    18
100
AcDbSpline
210
0.0
220
0.0
230
1.0
 70
    24
 71
     3
 72
     9
 73
     5
 74
     0
 42
0.00000001
 43
0.00000001
 40
0.0
 40
0.0
 40
0.0
 40
0.0
 40
0.428571428571429
 40
1.0
 40
1.0
 40
1.0
 40
1.0
 10
135.7199786000938
 20
214.4091904887337
 30
0.0
 10
135.0782586334346
 20
214.4091904887212
 30
0.0
 10
133.6104916002003
 20
214.4091904886922
 30
0.0
 10
132.4963874787228
 20
214.4091904886688
 30
0.0
 10
132.0665521268745
 20
214.4091904886592
 30
0.0
  0
LINE
  5
287
330
1F
100
AcDbEntity
  8
0
  6
Continuous
 62
     8
370
    18
100
AcDbLine
 10
144.1972400819
 20
242.5768281799
 30
0.0
 11
146.2961611204
 21
242.5768281799
 31
0.0
  0
SPLINE
  5
288
330
1F
100
AcDbEntity
  8
0
  6
Continuous
 62
     8
370
    18
100
AcDbSpline
210
0.0
220
0.0
230
1.0
 70
    24
 71
     3
 72
     9
 73
     5
 74
     0
 42
0.00000001
 43
0.00000001
 40
0.0
 40
0.0
 40
0.0
 40
0.0
 40
0.428571428571429
 40
1.0
 40
1.0
 40
1.0
 40
1.0
 10
147.8506665550317
 20
214.4091904884009
 30
0.0
 10
147.5282900411387
 20
214.4091904884253
 30
0.0
 10
146.5073947903146
 20
214.4091904884986
 30
0.0
 10
145.0528667040702
 20
214.4091904885962
 30
0.0
 10
144.1972400818856
 20
214.4091904886521
 30
0.0
  0
LINE
  5
289
330
1F
100
AcDbEntity
  8
0
  6
Continuous
 62
     8
370
    18
100
AcDbLine
 10
144.1972400819
 20
214.4091904883
 30
0.0
 11
144.1972400819
 21
242.5768281799
 31
0.0
  0
SPLINE
  5
28A
330
1F
100
AcDbEntity
  8
0
  6
Continuous
 62
     8
370
    18
100
AcDbSpline
210
0.0
220
0.0
230
1.0
 70
     8
 71
     3
 72
     8
 73
     4
 74
     0
 42
0.00000001
 43
0.00000001
 40
0.000000000000028
 40
0.000000000000028
 40
0.000000000000028
 40
0.000000000000028
 40
0.0573117771438574
 40
0.0573117771438574
 40
0.0573117771438574
 40
0.0573117771438574
 10
135.840677900737
 20
213.8505871851835
 30
0.0
 10
135.7539466869544
 20
214.0251294638142
 30
0.0
 10
135.7199786000979
 20
214.2181512315876
 30
0.0
 10
135.7199786000938
 20
214.4091904887337
 30
0.0
  0
SPLINE
  5
28B
330
1F
100
AcDbEntity
  8
0
  6
Continuous
 62
     8
370
    18
100
AcDbSpline
210
0.0
220
0.0
230
1.0
 70
     8
 71
     3
 72
     8
 73
     4
 74
     0
 42
0.00000001
 43
0.00000001
 40
0.0
 40
0.0
 40
0.0
 40
0.0
 40
1.0
 40
1.0
 40
1.0
 40
1.0
 10
135.8406779007371
 20
213.850587185179
 30
0.0
 10
134.7527922018238
 20
213.3643934996382
 30
0.0
 10
133.7150776899175
 20
212.8807672439737
 30
0.0
 10
133.0002614457477
 20
212.5268127184126
 30
0.0
  0
SPLINE
  5
28C
330
1F
100
AcDbEntity
  8
0
  6
Continuous
 62
     8
370
    18
100
AcDbSpline
210
0.0
220
0.0
230
1.0
 70
     8
 71
     3
 72
     8
 73
     4
 74
     0
 42
0.00000001
 43
0.00000001
 40
0.0000000000000281
 40
0.0000000000000281
 40
0.0000000000000281
 40
0.0000000000000281
 40
0.0573117771357016
 40
0.0573117771357016
 40
0.0573117771357016
 40
0.0573117771357016
 10
144.1972400818856
 20
214.4091904886521
 30
0.0
 10
144.1972400818718
 20
214.2181512315332
 30
0.0
 10
144.1632719950127
 20
214.0251294637894
 30
0.0
 10
144.0765407812424
 20
213.8505871851835
 30
0.0
  0
SPLINE
  5
28D
330
1F
100
AcDbEntity
  8
0
  6
Continuous
 62
     8
370
    18
100
AcDbSpline
210
0.0
220
0.0
230
1.0
 70
     8
 71
     3
 72
     8
 73
     4
 74
     0
 42
0.00000001
 43
0.00000001
 40
0.0
 40
0.0
 40
0.0
 40
0.0
 40
1.0
 40
1.0
 40
1.0
 40
1.0
 10
146.9169572362318
 20
212.5268127184125
 30
0.0
 10
146.202140992062
 20
212.8807672439736
 30
0.0
 10
145.1644264801557
 20
213.3643934996382
 30
0.0
 10
144.0765407812423
 20
213.850587185179
 30
0.0
  0
SPLINE
  5
28E
330
1F
100
AcDbEntity
  8
0
  6
Continuous
 62
     8
370
    18
100
AcDbSpline
210
0.0
220
0.0
230
1.0
 70
     8
 71
     3
 72
    12
 73
     8
 74
     0
 42
0.00000001
 43
0.00000001
 40
-0.116794664643656
 40
-0.116794664643656
 40
-0.116794664643656
 40
-0.116794664643656
 40
-0.116192170614889
 40
-0.116192170614889
 40
-0.0464768682459556
 40
-0.0232384341229778
 40
0.0
 40
0.0
 40
0.0
 40
0.0
 10
136.6287111895695
 20
209.5725911590058
 30
0.0
 10
136.6271081582082
 20
209.5781839369187
 30
0.0
 10
136.6255071796375
 20
209.5837800929959
 30
0.0
 10
136.4382657670011
 20
210.2403747501108
 30
0.0
 10
136.197842560696
 20
211.3100533592571
 30
0.0
 10
135.956696460218
 20
212.865728211821
 30
0.0
 10
135.8758451507918
 20
213.5212235488224
 30
0.0
 10
135.8406779007371
 20
213.850587185179
 30
0.0
  0
LINE
  5
28F
330
1F
100
AcDbEntity
  8
0
  6
Continuous
 62
     8
370
    18
100
AcDbLine
 10
135.8406779007
 20
213.8505871852
 30
0.0
 11
144.0765407812
 21
213.8505871852
 31
0.0
  0
SPLINE
  5
290
330
1F
100
AcDbEntity
  8
0
  6
Continuous
 62
     8
370
    18
100
AcDbSpline
210
0.0
220
0.0
230
1.0
 70
     8
 71
     3
 72
    12
 73
     8
 74
     0
 42
0.00000001
 43
0.00000001
 40
-0.0006024940290514
 40
-0.0006024940290514
 40
-0.0006024940290514
 40
-0.0006024940290514
 40
0.0226359400938707
 40
0.0458743742167925
 40
0.1155896765855576
 40
0.1155896765855576
 40
0.116192170614609
 40
0.116192170614609
 40
0.116192170614609
 40
0.116192170614609
 10
144.0765407812423
 20
213.850587185179
 30
0.0
 10
144.0413735311878
 20
213.5212235488233
 30
0.0
 10
143.9605222217657
 20
212.8657282118223
 30
0.0
 10
143.7193761212833
 20
211.3100533592641
 30
0.0
 10
143.4789529150011
 20
210.2403747501106
 30
0.0
 10
143.2917115023426
 20
209.5837800930027
 30
0.0
 10
143.2901105237705
 20
209.5781839369241
 30
0.0
 10
143.2885074924099
 20
209.5725911590058
 30
0.0
  0
LWPOLYLINE
  5
291
330
1F
100
AcDbEntity
  8
0
  6
Continuous
 62
     8
370
    18
100
AcDbPolyline
 90
       10
 70
   128
 43
0.0
 10
133.6210575616
 20
242.5768281799
 10
133.5944563385
 20
243.1411847573
 10
133.5154609338
 20
243.6883936457
 10
133.3864715831
 20
244.2018281799
 10
133.2114075624
 20
244.6658879113
 10
132.9955881034
 20
245.06647262
 10
132.7455707712
 20
245.3914107422
 10
132.4689522159
 20
245.6308291974
 10
132.1741373523
 20
245.7774533772
 10
131.8700839809
 20
245.8268281799
  0
LWPOLYLINE
  5
292
330
1F
100
AcDbEntity
  8
0
  6
Continuous
 62
     8
370
    18
100
AcDbPolyline
 90
       10
 70
   128
 43
0.0
 10
148.0471347011
 20
245.8268281799
 10
147.7430813296
 20
245.7774533772
 10
147.448266466
 20
245.6308291974
 10
147.1716479107
 20
245.3914107422
 10
146.9216305785
 20
245.06647262
 10
146.7058111196
 20
244.6658879113
 10
146.5307470989
 20
244.2018281799
 10
146.4017577481
 20
243.6883936457
 10
146.3227623435
 20
243.1411847573
 10
146.2961611204
 20
242.5768281799
  0
ARC
  5
293
330
1F
100
AcDbEntity
  8
0
  6
Continuous
 62
     8
370
    18
100
AcDbCircle
 10
127.4387475195
 20
243.4147705248
 30
0.0
 40
8.323517020037169
100
AcDbArc
 50
354.2221505721
 51
16.8452808969
  0
ARC
  5
294
330
1F
100
AcDbEntity
  8
0
  6
Continuous
 62
     8
370
    18
100
AcDbCircle
 10
153.1611240232
 20
243.3486330756
 30
0.0
 40
8.99704941140674
100
AcDbArc
 50
164.0114462532
 51
184.9211222778
  0
LINE
  5
295
330
1F
100
AcDbEntity
  8
0
  6
Continuous
 62
     8
370
    18
100
AcDbLine
 10
135.7199786001
 20
242.5768281799
 30
0.0
 11
144.1972400819
 21
242.5768281799
 31
0.0
  0
HATCH
  5
296
330
1F
100
AcDbEntity
  8
0
  6
Continuous
 62
     7
370
    18
100
AcDbHatch
 10
0.0
 20
0.0
 30
0.0
210
0.0
220
0.0
230
1.0
  2
ANSI31
 70
     0
 71
     0
 91
        1
 92
        0
 93
       12
 72
     1
 10
190.9586093409897
 20
244.5768281798608
 11
190.9586093409897
 21
245.8268281798608
 72
     1
 10
190.9586093409897
 20
245.8268281798608
 11
186.2276357144306
 21
245.8268281798608
 72
     2
 10
186.2273025612693
 20
242.5768281798608
 40
3.25
 50
89.99412668615255
 51
149.9999999999995
 73
     1
 72
     1
 10
183.4127199989699
 20
244.2018281798609
 11
173.1440267786903
 21
226.4159297949985
 72
     2
 10
175.9586093409897
 20
224.7909297949985
 40
3.25
 50
149.9999999999995
 51
180.0
 73
     1
 72
     1
 10
172.7086093409897
 20
224.7909297949985
 11
172.7086093409897
 21
175.8268281798608
 72
     1
 10
172.7086093409897
 20
175.8268281798608
 11
173.9586093409897
 21
175.8268281798608
 72
     1
 10
173.9586093409897
 20
175.8268281798608
 11
173.9586093409897
 21
224.7909297949985
 72
     2
 10
175.9586093409897
 20
224.7909297949985
 40
2.0
 50
180.0
 51
210.0000000000016
 73
     0
 72
     1
 10
174.2265585334208
 20
225.7909297949985
 11
184.4952517537004
 21
243.5768281798608
 72
     2
 10
186.2273025612693
 20
242.5768281798608
 40
2.0
 50
209.9999999999999
 51
269.9999999999992
 73
     0
 72
     1
 10
186.2273025612693
 20
244.5768281798608
 11
190.9586093409897
 21
244.5768281798608
 97
        0
 75
     0
 76
     1
 52
0.0
 41
1.0
 77
     0
 78
     1
 53
45.0
 43
0.0
 44
0.0
 45
-2.245064030267288
 46
2.245064030267288
 79
     0
 98
        1
 10
0.0
 20
0.0
  0
HATCH
  5
297
330
1F
100
AcDbEntity
  8
0
  6
Continuous
 62
     7
370
    18
100
AcDbHatch
 10
0.0
 20
0.0
 30
0.0
210
0.0
220
0.0
230
1.0
  2
ANSI31
 70
     0
 71
     0
 91
        1
 92
        0
 93
       12
 72
     2
 10
93.68991612071012
 20
242.5768281798608
 40
3.25
 50
30.00000000000035
 51
89.999999999999
 73
     1
 72
     1
 10
93.68991612071018
 20
245.8268281798608
 11
88.95860934098971
 21
245.8268281798608
 72
     1
 10
88.95860934098971
 20
245.8268281798608
 11
88.95860934098971
 21
244.5768281798608
 72
     1
 10
88.95860934098971
 20
244.5768281798608
 11
93.68958296754266
 21
244.5768281798608
 72
     2
 10
93.68991612071012
 20
242.5768281798608
 40
2.0
 50
269.9904558648756
 51
330.0000000000018
 73
     0
 72
     1
 10
95.421966928279
 20
243.5768281798608
 11
105.6906601485586
 21
225.7909297949985
 72
     2
 10
103.9586093409897
 20
224.7909297949985
 40
2.0
 50
330.0000000000002
 51
360.0000000000009
 73
     0
 72
     1
 10
105.9586093409897
 20
224.7909297949985
 11
105.9586093409897
 21
175.8268281798608
 72
     1
 10
105.9586093409897
 20
175.8268281798608
 11
107.2086093409897
 21
175.8268281798608
 72
     1
 10
107.2086093409897
 20
175.8268281798608
 11
107.2086093409897
 21
224.7909297949985
 72
     2
 10
103.9586093409897
 20
224.7909297949985
 40
3.25
 50
0.0
 51
30.00000000000035
 73
     1
 72
     1
 10
106.7731919032891
 20
226.4159297949985
 11
96.50449868300957
 21
244.2018281798609
 97
        0
 75
     0
 76
     1
 52
0.0
 41
1.0
 77
     0
 78
     1
 53
45.0
 43
0.0
 44
0.0
 45
-2.245064030267288
 46
2.245064030267288
 79
     0
 98
        1
 10
0.0
 20
0.0
  0
HATCH
  5
298
330
1F
100
AcDbEntity
  8
0
  6
Continuous
 62
     7
370
    18
100
AcDbHatch
 10
0.0
 20
0.0
 30
0.0
210
0.0
220
0.0
230
1.0
  2
ANSI31
 70
     0
 71
     0
 91
        1
 92
        0
 93
       26
 72
     1
 10
94.95860934098972
 20
176.8268281798608
 11
94.95860934098972
 21
225.8268281798608
 72
     1
 10
94.95860934098972
 20
225.8268281798608
 11
93.95860934098972
 21
225.8268281798608
 72
     1
 10
93.95860934098972
 20
225.8268281798608
 11
93.95860934098972
 21
176.8268281798608
 72
     2
 10
109.9586093409897
 20
176.8268281798608
 40
16.0
 50
180.0
 51
270.0000000000008
 73
     1
 72
     1
 10
109.9586093409897
 20
160.8268281798608
 11
119.196742880835
 21
160.8268281798608
 72
     2
 10
119.1967516018647
 20
176.8268281798608
 40
16.0
 50
270.0000000000007
 51
311.5000000000008
 73
     1
 72
     1
 10
129.7986723733165
 20
164.8435366472368
 11
130.0446553390774
 21
165.0611639916958
 72
     2
 10
139.9839560623135
 20
153.8268281798608
 40
15.00000000000004
 50
228.5000000000009
 51
269.9031826101697
 73
     0
 72
     2
 10
139.933262619666
 20
153.8268281798608
 40
15.00000000000004
 50
270.096817389832
 51
311.5000000000008
 73
     0
 72
     1
 10
149.8725633429021
 20
165.0611639916958
 11
150.1185463086629
 21
164.8435366472368
 72
     2
 10
160.7204670801147
 20
176.8268281798608
 40
16.0
 50
228.5000000000008
 51
270.0000000000008
 73
     1
 72
     1
 10
160.7204694901479
 20
160.8268281798608
 11
169.9586254232025
 21
160.8268281798608
 72
     2
 10
169.9586093409897
 20
176.8268281798608
 40
16.0
 50
270.0000575901832
 51
360.0000000000008
 73
     1
 72
     1
 10
185.9586093409897
 20
176.8268281798608
 11
185.9586093409897
 21
225.8268281798608
 72
     1
 10
185.9586093409897
 20
225.8268281798608
 11
184.9586093409897
 21
225.8268281798608
 72
     1
 10
184.9586093409897
 20
225.8268281798608
 11
184.9586093409897
 21
176.8268281798608
 72
     2
 10
169.9586093409897
 20
176.8268281798608
 40
15.0
 50
0.0
 51
90.0
 73
     0
 72
     1
 10
169.9586151169805
 20
161.8268281798608
 11
160.7204797963653
 21
161.8268281798608
 72
     2
 10
160.7204670801147
 20
176.8268281798608
 40
15.0000000000002
 50
89.99995142750058
 51
131.5454692449037
 73
     0
 72
     1
 10
150.772254053163
 20
165.6003836148886
 11
150.5323673855666
 21
165.8126109814921
 72
     2
 10
139.933262619666
 20
153.8268281798609
 40
15.99999999999992
 50
48.51346389300543
 51
89.90923370226405
 73
     1
 72
     2
 10
139.9839560623134
 20
153.8268281798609
 40
15.99999999999992
 50
90.09076629773598
 51
131.4865361069945
 73
     1
 72
     1
 10
129.3848512964128
 20
165.8126109814921
 11
129.1449646288165
 21
165.6003836148886
 72
     2
 10
119.1967516018647
 20
176.8268281798608
 40
15.0000000000002
 50
48.45453075509629
 51
90.0
 73
     0
 72
     1
 10
119.1967516018647
 20
161.8268281798606
 11
109.9585942608768
 21
161.8268281798608
 72
     2
 10
109.9586093409897
 20
176.8268281798608
 40
15.0
 50
90.00005760178851
 51
180.0
 73
     0
 97
        0
 75
     0
 76
     1
 52
0.0
 41
1.0
 77
     0
 78
     1
 53
45.0
 43
0.0
 44
0.0
 45
-2.245064030267288
 46
2.245064030267288
 79
     0
 98
        1
 10
0.0
 20
0.0
  0
HATCH
  5
299
330
1F
100
AcDbEntity
  8
0
  6
Continuous
 62
     7
370
    18
100
AcDbHatch
 10
0.0
 20
0.0
 30
0.0
210
0.0
220
0.0
230
1.0
  2
ANSI31
 70
     0
 71
     0
 91
        1
 92
        0
 93
        1
 72
     2
 10
139.9586093409897
 20
234.4268281798608
 40
2.5
 50
0.0
 51
360.0
 73
     1
 97
        0
 75
     0
 76
     1
 52
0.0
 41
0.25
 77
     0
 78
     1
 53
45.0
 43
0.0
 44
0.0
 45
-0.5612660075668221
 46
0.5612660075668221
 79
     0
 98
        1
 10
0.0
 20
0.0
  0
HATCH
  5
29A
330
1F
100
AcDbEntity
  8
0
  6
Continuous
 62
     7
370
    18
100
AcDbHatch
 10
0.0
 20
0.0
 30
0.0
210
0.0
220
0.0
230
1.0
  2
DIN 128 Elastomer-Gummi
 70
     0
 71
     0
 91
        1
 92
        0
 93
       14
 72
     1
 10
185.9586093409899
 20
248.5018281798593
 11
185.9586093409899
 21
246.1768281798611
 72
     1
 10
185.9586093409899
 20
246.1768281798611
 11
190.9586093409899
 21
246.1768281798614
 72
     1
 10
190.9586093409899
 20
246.1768281798614
 11
190.9586093409899
 21
244.576828179861
 72
     1
 10
190.9586093409899
 20
244.576828179861
 11
185.9586093409903
 21
244.5768281798608
 72
     1
 10
185.9586093409903
 20
244.5768281798608
 11
185.9586093409903
 21
242.2518281798593
 72
     1
 10
185.9586093409903
 20
242.2518281798593
 11
191.5203484166383
 21
242.2518281798597
 72
     2
 10
191.5202876832236
 20
242.7518281798594
 40
0.499999999999634
 50
270.006959536642
 51
352.4784170159398
 73
     1
 72
     1
 10
192.0159854945142
 20
242.6863783526523
 11
192.8620295116042
 21
249.0940678061326
 72
     2
 10
193.8534251341861
 20
248.9631681517184
 40
1.0
 50
187.5215829840575
 51
243.4225014848475
 73
     0
 72
     4
 94
        3
 73
     1
 74
     0
 95
       26
 96
       22
 40
0.0
 40
0.0
 40
0.0
 40
0.0
 40
0.0003357713719788
 40
0.0003357713719788
 40
0.0003357713719788
 40
0.0006715427439576
 40
0.0006715427439576
 40
0.0006715427439576
 40
0.0010073141159364
 40
0.0010073141159364
 40
0.0010073141159364
 40
0.0013430854879152
 40
0.0013430854879152
 40
0.0013430854879152
 40
0.001678856859894
 40
0.001678856859894
 40
0.001678856859894
 40
0.0020146282318729
 40
0.0020146282318729
 40
0.0020146282318729
 40
0.0020919249173782
 40
0.0020919249173782
 40
0.0020919249173782
 40
0.0020919249173782
 10
193.406017237588
 20
249.8574981657857
 42
1.0
 10
193.506114042863
 20
249.9075737535441
 42
1.0
 10
193.5989456211892
 20
249.9756217748447
 42
1.0
 10
193.6768245492033
 20
250.0560071434573
 42
1.0
 10
193.7547034772174
 20
250.1363925120699
 42
1.0
 10
193.81977775191
 20
250.2313323557115
 42
1.0
 10
193.8666585443004
 20
250.3329646646514
 42
1.0
 10
193.9135393366907
 20
250.4345969735914
 42
1.0
 10
193.943519676916
 20
250.5457248923941
 42
1.0
 10
193.9541168799671
 20
250.6571458697867
 42
1.0
 10
193.9647140830181
 20
250.7685668471792
 42
1.0
 10
193.9562204328393
 20
250.8833540112878
 42
1.0
 10
193.9293392922948
 20
250.9920017871447
 42
1.0
 10
193.9024581517503
 20
251.1006495630016
 42
1.0
 10
193.8564481057943
 20
251.2061545904106
 42
1.0
 10
193.7951192663368
 20
251.2997799521798
 42
1.0
 10
193.7337904268794
 20
251.393405313949
 42
1.0
 10
193.6554512688065
 20
251.4777333131538
 42
1.0
 10
193.5665890918591
 20
251.5457807115154
 42
1.0
 10
193.545853855602
 20
251.5616589955073
 42
1.0
 10
193.5244797449113
 20
251.5767359055357
 42
1.0
 10
193.5025650524742
 20
251.5909421077219
 42
1.0
 72
     2
 10
194.0465207639585
 20
252.4300560355908
 40
1.0
 50
122.9533294624111
 51
153.1181680903455
 73
     0
 72
     2
 10
192.7086093409899
 20
251.7518281798593
 40
0.5
 50
26.88183190966392
 51
143.7815835925609
 73
     1
 72
     1
 10
192.3052241240472
 20
252.0472606878068
 11
189.7086093409899
 21
248.5018281798593
 72
     1
 10
189.7086093409899
 20
248.5018281798593
 11
185.9586093409899
 21
248.5018281798593
 97
        0
 75
     0
 76
     2
 52
180.0
 41
0.125
 77
     0
 78
     3
 53
225.0000020971721
 43
-0.8418989999999942
 44
-0.841899000000006
 45
-0.5612659459355058
 46
-1.683798043244237
 79
     2
 49
0.79375
 49
-1.5875
 53
225.0000020971721
 43
-1.964431249999994
 44
-0.8418990000000138
 45
-0.5612659459355058
 46
-1.683798043244237
 79
     2
 49
0.79375
 49
-1.5875
 53
314.9999719140479
 43
0.0
 44
0.0
 45
0.5612662826950509
 46
0.5612657324384583
 79
     0
 98
        1
 10
0.0
 20
0.0
  0
HATCH
  5
29B
330
1F
100
AcDbEntity
  8
0
  6
Continuous
 62
     7
370
    18
100
AcDbHatch
 10
0.0
 20
0.0
 30
0.0
210
0.0
220
0.0
230
1.0
  2
DIN 128 Elastomer-Gummi
 70
     0
 71
     0
 91
        1
 92
        0
 93
       14
 72
     1
 10
93.9586093409896
 20
246.1768281798611
 11
93.9586093409896
 21
248.5018281798593
 72
     1
 10
93.9586093409896
 20
248.5018281798593
 11
90.2086093409896
 21
248.5018281798593
 72
     1
 10
90.2086093409896
 20
248.5018281798593
 11
87.61199455793222
 21
252.0472606878068
 72
     2
 10
87.2086093409896
 20
251.7518281798593
 40
0.5
 50
36.2184164074401
 51
153.1181680903361
 73
     1
 72
     2
 10
85.87069791802092
 20
252.4300560355908
 40
1.0
 50
26.88183190965416
 51
57.04667053758897
 73
     0
 72
     4
 94
        3
 73
     1
 74
     0
 95
       26
 96
       22
 40
0.0
 40
0.0
 40
0.0
 40
0.0
 40
0.0003357713719788
 40
0.0003357713719788
 40
0.0003357713719788
 40
0.0006715427439576
 40
0.0006715427439576
 40
0.0006715427439576
 40
0.0010073141159364
 40
0.0010073141159364
 40
0.0010073141159364
 40
0.0013430854879153
 40
0.0013430854879153
 40
0.0013430854879153
 40
0.0016788568598941
 40
0.0016788568598941
 40
0.0016788568598941
 40
0.0020146282318729
 40
0.0020146282318729
 40
0.0020146282318729
 40
0.0020919249173782
 40
0.0020919249173782
 40
0.0020919249173782
 40
0.0020919249173782
 10
86.41465362950521
 20
251.5909421077219
 42
1.0
 10
86.32073681790287
 20
251.5300605225417
 42
1.0
 10
86.23603613048469
 20
251.4521244674173
 42
1.0
 10
86.16756566800257
 20
251.3635878609593
 42
1.0
 10
86.09909520552044
 20
251.2750512545013
 42
1.0
 10
86.04496646807965
 20
251.1734721477887
 42
1.0
 10
86.00966187996217
 20
251.0672623508137
 42
1.0
 10
85.97435729184467
 20
250.9610525538387
 42
1.0
 10
85.95690310892017
 20
250.8472826692652
 42
1.0
 10
85.95874471966546
 20
250.7353740307001
 42
1.0
 10
85.96058633041073
 20
250.6234653921351
 42
1.0
 10
85.98177452872395
 20
250.5103314211551
 42
1.0
 10
86.02055471069048
 20
250.4053407910862
 42
1.0
 10
86.05933489265702
 20
250.3003501610174
 42
1.0
 10
86.11677666357677
 20
250.200607100652
 42
1.0
 10
86.18812324542496
 20
250.1143713761859
 42
1.0
 10
86.25946982727316
 20
250.0281356517198
 42
1.0
 10
86.34668904686774
 20
249.9530287753983
 42
1.0
 10
86.44255824271221
 20
249.895270380305
 42
1.0
 10
86.46492850747387
 20
249.8817929480697
 42
1.0
 10
86.48784470278042
 20
249.8691828800089
 42
1.0
 10
86.51120144439147
 20
249.8574981657857
 42
1.0
 72
     2
 10
86.06379354779338
 20
248.9631681517184
 40
1.0
 50
296.5774985151548
 51
352.4784170159404
 73
     0
 72
     1
 10
87.05518917037513
 20
249.0940678061326
 11
87.90123318746522
 21
242.6863783526523
 72
     2
 10
88.3969309987558
 20
242.7518281798594
 40
0.499999999999634
 50
187.5215829840614
 51
270.0000000000008
 73
     1
 72
     1
 10
88.3969309987558
 20
242.2518281798597
 11
93.95860934098913
 21
242.2518281798593
 72
     1
 10
93.95860934098913
 20
242.2518281798593
 11
93.95860934098913
 21
244.5768281798608
 72
     1
 10
93.95860934098913
 20
244.5768281798608
 11
88.9586093409896
 21
244.576828179861
 72
     1
 10
88.9586093409896
 20
244.576828179861
 11
88.9586093409896
 21
246.1768281798614
 72
     1
 10
88.9586093409896
 20
246.1768281798614
 11
93.9586093409896
 21
246.1768281798611
 97
        0
 75
     0
 76
     2
 52
180.0
 41
0.125
 77
     0
 78
     3
 53
225.0000020971721
 43
-0.8418989999999942
 44
-0.841899000000006
 45
-0.5612659459355058
 46
-1.683798043244237
 79
     2
 49
0.79375
 49
-1.5875
 53
225.0000020971721
 43
-1.964431249999994
 44
-0.8418990000000138
 45
-0.5612659459355058
 46
-1.683798043244237
 79
     2
 49
0.79375
 49
-1.5875
 53
314.9999719140479
 43
0.0
 44
0.0
 45
0.5612662826950509
 46
0.5612657324384583
 79
     0
 98
        1
 10
0.0
 20
0.0
  0
DIMENSION
  5
29C
330
1F
100
AcDbEntity
  8
0
  6
Continuous
 62
     7
370
    18
100
AcDbDimension
  2
_D
 10
193.958609341
 20
262.2518281799
 30
0.0
 11
139.958609341
 21
262.2518281799
 31
0.0
 70
   160
  1
%%c<>
 71
     2
 42
-1.0
  3
SLDDIMSTYLE0
100
AcDbAlignedDimension
 13
85.958609341
 23
250.7518281799
 33
0.0
 14
193.958609341
 24
250.7518281799
 34
0.0
100
AcDbRotatedDimension
  0
DIMENSION
  5
2A8
330
1F
100
AcDbEntity
  8
0
  6
Continuous
 62
     7
370
    18
100
AcDbDimension
  2
_D_1
 10
78.4911627907
 20
175.8268281799
 30
0.0
 11
78.4911627907
 21
200.8268281799
 31
0.0
 70
   160
  1
<>
 71
     2
 42
-1.0
  3
SLDDIMSTYLE0
100
AcDbAlignedDimension
 13
93.958609341
 23
225.8268281799
 33
0.0
 14
105.958609341
 24
175.8268281799
 34
0.0
 50
90.0
100
AcDbRotatedDimension
  0
DIMENSION
  5
2B2
330
1F
100
AcDbEntity
  8
0
  6
Continuous
 62
     7
370
    18
100
AcDbDimension
  2
_D_2
 10
65.2904240847
 20
160.8268281799
 30
0.0
 11
65.2904240847
 21
206.5393281799
 31
0.0
 70
   160
  1
<>
 71
     2
 42
-1.0
  3
SLDDIMSTYLE1
100
AcDbAlignedDimension
 13
87.208609341
 23
252.2518281799
 33
0.0
 14
109.9585831219
 24
160.8268281799
 34
0.0
 50
90.0
100
AcDbRotatedDimension
  0
DIMENSION
  5
2BD
330
1F
100
AcDbEntity
  8
0
  6
Continuous
 62
     7
370
    18
100
AcDbDimension
  2
_D_3
 10
93.958609341
 20
150.824849561
 30
0.0
 11
139.958609341
 21
150.824849561
 31
0.0
 70
   160
  1
%%c<>
 71
     2
 42
-1.0
  3
SLDDIMSTYLE0
100
AcDbAlignedDimension
 13
185.958609341
 23
176.8268281799
 33
0.0
 14
93.958609341
 24
176.8268281799
 34
0.0
100
AcDbRotatedDimension
  0
MTEXT
  5
2C8
330
1F
100
AcDbEntity
  8
0
  6
Continuous
 62
     7
370
     0
100
AcDbMText
 10
139.936040452
 20
276.2896046025
 30
0.0
 40
5.0
 41
0.0
 71
     2
 72
     1
  1
A-A
  7
SLDTEXTSTYLE0
 73
     1
 44
1.0
  0
LINE
  5
2C9
330
1F
100
AcDbEntity
  8
0
  6
Continuous
 62
     7
370
    25
100
AcDbLine
 10
319.3124713788
 20
185.6322694012
 30
0.0
 11
319.8252577257
 21
185.6265616368
 31
0.0
  0
SPLINE
  5
2CA
330
1F
100
AcDbEntity
  8
0
  6
Continuous
 62
     7
370
    25
100
AcDbSpline
210
0.0
220
0.0
230
1.0
 70
     8
 71
     3
 72
    52
 73
    48
 74
     0
 42
0.00000001
 43
0.00000001
 40
0.0
 40
0.0
 40
0.0
 40
0.0
 40
0.0147423568556046
 40
0.0364636425842724
 40
0.058231485048855
 40
0.0800425453627406
 40
0.1018945512750688
 40
0.1237874767293014
 40
0.1457229446873758
 40
0.167704340602849
 40
0.1897369878849234
 40
0.2118284290864516
 40
0.2339888225286557
 40
0.2562314474296327
 40
0.2785732738365527
 40
0.3010354967730518
 40
0.3236438650236476
 40
0.346428574761218
 40
0.3694234780506089
 40
0.3926644080603362
 40
0.4161865654615253
 40
0.4400145772475163
 40
0.4641715717461763
 40
0.4886710172303028
 40
0.5109505597970105
 40
0.5332691726188917
 40
0.5556221358246813
 40
0.5780042191360949
 40
0.6004092288137527
 40
0.6228307958048356
 40
0.6452629111880249
 40
0.6677002179137751
 40
0.690138106686669
 40
0.7125726746610456
 40
0.7350003893296638
 40
0.7574177161787283
 40
0.7798222237858875
 40
0.8022113281012114
 40
0.8245820709199532
 40
0.8469307668040682
 40
0.8692525084980255
 40
0.8915404116236497
 40
0.9137843694979443
 40
0.9359688465520577
 40
0.9580686593304605
 40
0.9800401628568404
 40
1.0
 40
1.0
 40
1.0
 40
1.0
 10
283.4799999038764
 20
240.6166822480835
 30
0.0
 10
283.0568036427013
 20
240.3917649390592
 30
0.0
 10
282.0100729630932
 20
239.8354560362423
 30
0.0
 10
280.4315536682553
 20
238.8887044149504
 30
0.0
 10
278.7362170006508
 20
237.7858714334851
 30
0.0
 10
277.1306843376765
 20
236.6323496019327
 30
0.0
 10
275.6153225722308
 20
235.4327385618258
 30
0.0
 10
274.1951155247323
 20
234.1884817289094
 30
0.0
 10
272.8734931209387
 20
232.9018621000158
 30
0.0
 10
271.6540507629741
 20
231.574918772913
 30
0.0
 10
270.5401437149356
 20
230.2097271773539
 30
0.0
 10
269.5350526125242
 20
228.8083137225373
 30
0.0
 10
268.6419998442684
 20
227.3726721924196
 30
0.0
 10
267.8642113457063
 20
225.9047567935949
 30
0.0
 10
267.2049728703465
 20
224.4064875080273
 30
0.0
 10
266.667695253612
 20
222.8797626470324
 30
0.0
 10
266.2559832579268
 20
221.3264877139924
 30
0.0
 10
265.9737029767081
 20
219.7486287990471
 30
0.0
 10
265.8250348892313
 20
218.1482999054475
 30
0.0
 10
265.8144928537945
 20
216.5278896454779
 30
0.0
 10
265.9468710408602
 20
214.8903779530939
 30
0.0
 10
266.2270713594432
 20
213.2393722810698
 30
0.0
 10
266.6598800950573
 20
211.5792556714152
 30
0.0
 10
267.2291914229758
 20
209.9731511972164
 30
0.0
 10
267.9179320761446
 20
208.4307409635229
 30
0.0
 10
268.7070458137455
 20
206.9601693689448
 30
0.0
 10
269.6170732398178
 20
205.514751943565
 30
0.0
 10
270.6456576845469
 20
204.0981376420669
 30
0.0
 10
271.7901078203618
 20
202.7138358097725
 30
0.0
 10
273.0474154130263
 20
201.3652098755861
 30
0.0
 10
274.4142882665776
 20
200.0554647190024
 30
0.0
 10
275.8871795594525
 20
198.7876428390422
 30
0.0
 10
277.462309663737
 20
197.5646289267501
 30
0.0
 10
279.1356749409221
 20
196.389161526979
 30
0.0
 10
280.9030423333888
 20
195.2638476289827
 30
0.0
 10
282.7599708416545
 20
194.1911528058273
 30
0.0
 10
284.7018130432383
 20
193.1734061965812
 30
0.0
 10
286.7237190205385
 20
192.2128002541279
 30
0.0
 10
288.820592561341
 20
191.311408124003
 30
0.0
 10
290.9870611235012
 20
190.4711767907977
 30
0.0
 10
293.2174341444227
 20
189.6939421255915
 30
0.0
 10
295.5055928526871
 20
188.9813624551925
 30
0.0
 10
297.844939106974
 20
188.3351568149252
 30
0.0
 10
300.2277441058335
 20
187.7562180750328
 30
0.0
 10
302.6459367937951
 20
187.2479287991576
 30
0.0
 10
305.0180511299743
 20
186.8160963688413
 30
0.0
 10
306.5970948905008
 20
186.5880425118816
 30
0.0
 10
307.3487392643456
 20
186.4794860533448
 30
0.0
  0
SPLINE
  5
2CB
330
1F
100
AcDbEntity
  8
0
  6
Continuous
 62
     7
370
    25
100
AcDbSpline
210
0.0
220
0.0
230
1.0
 70
     8
 71
     3
 72
    56
 73
    52
 74
     0
 42
0.00000001
 43
0.00000001
 40
0.0
 40
0.0
 40
0.0
 40
0.0
 40
0.0016964005000694
 40
0.0193317258621427
 40
0.0377107570127924
 40
0.0566615844544314
 40
0.0760469480649644
 40
0.0957693999034221
 40
0.1157569776345063
 40
0.1359556726503514
 40
0.1563242785988207
 40
0.176830935548737
 40
0.1974507611132243
 40
0.2181642015517803
 40
0.2389558687732574
 40
0.2598137122774418
 40
0.2807284270223429
 40
0.3016930313235812
 40
0.3227025705130251
 40
0.3437538220173279
 40
0.3648445927416252
 40
0.3859748575370778
 40
0.4071461828282229
 40
0.4283618361331494
 40
0.4496269554151022
 40
0.4709488204749971
 40
0.4923372357593801
 40
0.5138050178922965
 40
0.5353685457533485
 40
0.5570482760175832
 40
0.5788690604863764
 40
0.6008600434205155
 40
0.6230538976163146
 40
0.6454852079601429
 40
0.6681879488746209
 40
0.6911858894486084
 40
0.7145013523129072
 40
0.7381473365603557
 40
0.7596507502973783
 40
0.7811918732404707
 40
0.8027661499395276
 40
0.8243685323179294
 40
0.8459930424010295
 40
0.867633533007961
 40
0.8892842045438354
 40
0.910939886576969
 40
0.9325961303810841
 40
0.9542491690698247
 40
0.9758955931941601
 40
0.9975319913684121
 40
1.0
 40
1.0
 40
1.0
 40
1.0
 10
327.5378425123332
 20
185.9506760540919
 30
0.0
 10
327.6054778696295
 20
185.9557110297141
 30
0.0
 10
328.3762322909983
 20
186.0130882637147
 30
0.0
 10
329.8690609645413
 20
186.1693623362578
 30
0.0
 10
332.0326560634435
 20
186.4297843526166
 30
0.0
 10
334.2425083864438
 20
186.7575377711575
 30
0.0
 10
336.4783989888505
 20
187.147708062224
 30
0.0
 10
338.7221721940226
 20
187.6027442650846
 30
0.0
 10
340.9595329932259
 20
188.1222566907842
 30
0.0
 10
343.178336864272
 20
188.7060448851153
 30
0.0
 10
345.3681631193814
 20
189.3533800025351
 30
0.0
 10
347.5198504480665
 20
190.0632889222695
 30
0.0
 10
349.6252314196233
 20
190.8345432977745
 30
0.0
 10
351.6769357948205
 20
191.6657155995516
 30
0.0
 10
353.6682554345979
 20
192.5552081733312
 30
0.0
 10
355.5930454356682
 20
193.5012837653116
 30
0.0
 10
357.4456503809205
 20
194.5020916883994
 30
0.0
 10
359.220846587087
 20
195.5556923417486
 30
0.0
 10
360.9137918788616
 20
196.6600782905452
 30
0.0
 10
362.5199672377386
 20
197.8131827532639
 30
0.0
 10
364.0351563023655
 20
199.0129059458507
 30
0.0
 10
365.4554097555776
 20
200.257132642744
 30
0.0
 10
366.7770196886925
 20
201.5437603701374
 30
0.0
 10
367.9964653986428
 20
202.8707015204496
 30
0.0
 10
369.1103715453918
 20
204.2358937013091
 30
0.0
 10
370.1154628902635
 20
205.6373069986712
 30
0.0
 10
371.0085155932505
 20
207.0729485711747
 30
0.0
 10
371.7863041093976
 20
208.5408639585795
 30
0.0
 10
372.4455425800142
 20
210.0391332472275
 30
0.0
 10
372.9828201980299
 20
211.5658581073904
 30
0.0
 10
373.394532193368
 20
213.1191330406552
 30
0.0
 10
373.6768124746819
 20
214.6969919555404
 30
0.0
 10
373.8254805621282
 20
216.2973208491534
 30
0.0
 10
373.8360225975907
 20
217.9177311091308
 30
0.0
 10
373.7036444104515
 20
219.5552428014693
 30
0.0
 10
373.423444092141
 20
221.2062484736708
 30
0.0
 10
372.9906353554903
 20
222.8663650826483
 30
0.0
 10
372.4213240313843
 20
224.4724695593378
 30
0.0
 10
371.7325833651768
 20
226.0148797845133
 30
0.0
 10
370.9434696753348
 20
227.485451410292
 30
0.0
 10
370.033442070465
 20
228.9308687188655
 30
0.0
 10
369.0048582943299
 20
230.3474834571497
 30
0.0
 10
367.8604056595466
 20
231.7317836568928
 30
0.0
 10
366.6031074031699
 20
233.0804156903841
 30
0.0
 10
365.236199682541
 20
234.3901380686499
 30
0.0
 10
363.7634385574642
 20
235.658044985949
 30
0.0
 10
362.1878226509264
 20
236.88074152842
 30
0.0
 10
360.5162699737666
 20
238.0573930819119
 30
0.0
 10
358.7421411206797
 20
239.1782897843662
 30
0.0
 10
357.4510238857325
 20
239.9460109719285
 30
0.0
 10
356.7282953712347
 20
240.3231187346401
 30
0.0
 10
356.6542964453767
 20
240.3617301479351
 30
0.0
  0
SPLINE
  5
2CC
330
1F
100
AcDbEntity
  8
0
  6
Continuous
 62
     7
370
    25
100
AcDbSpline
210
0.0
220
0.0
230
1.0
 70
     8
 71
     3
 72
    11
 73
     7
 74
     0
 42
0.00000001
 43
0.00000001
 40
0.0
 40
0.0
 40
0.0
 40
0.0
 40
0.3732609081748311
 40
0.5223044037499744
 40
0.7698838737990348
 40
0.9999999999999999
 40
0.9999999999999999
 40
0.9999999999999999
 40
0.9999999999999999
 10
319.8252577256846
 20
185.6265616367657
 30
0.0
 10
320.7883149125169
 20
185.6346387790373
 30
0.0
 10
322.1359219046478
 20
185.6459411331971
 30
0.0
 10
324.1178351392308
 20
185.7224121329371
 30
0.0
 10
325.72866761545
 20
185.8063225329282
 30
0.0
 10
326.949663049228
 20
185.9037453915442
 30
0.0
 10
327.5378425123332
 20
185.9506760540919
 30
0.0
  0
SPLINE
  5
2CD
330
1F
100
AcDbEntity
  8
0
  6
Continuous
 62
     7
370
    25
100
AcDbSpline
210
0.0
220
0.0
230
1.0
 70
     8
 71
     3
 72
    23
 73
    19
 74
     0
 42
0.00000001
 43
0.00000001
 40
0.0
 40
0.0
 40
0.0
 40
0.0
 40
0.0822214699191503
 40
0.114875736428979
 40
0.1691394787094964
 40
0.2253417802555746
 40
0.2855202707849847
 40
0.3482236805601346
 40
0.4128672465761281
 40
0.4789837434137946
 40
0.5462411407092516
 40
0.6143939917960499
 40
0.6832578817452468
 40
0.7526919588011625
 40
0.8225872269995296
 40
0.8928585374597615
 40
0.9634390358989565
 40
1.0
 40
1.0
 40
1.0
 40
1.0
 10
319.8252577256848
 20
248.9912780017029
 30
0.0
 10
318.8627589485325
 20
248.9830498712518
 30
0.0
 10
317.5180036681162
 20
248.9715539378182
 30
0.0
 10
315.5424315375492
 20
248.8952039829415
 30
0.0
 10
313.8742671358326
 20
248.8049475014739
 30
0.0
 10
311.8934401929665
 20
248.6545874810844
 30
0.0
 10
309.8265254487707
 20
248.4509112444944
 30
0.0
 10
307.6788357127754
 20
248.1869128033596
 30
0.0
 10
305.4847804094147
 20
247.8608855251991
 30
0.0
 10
303.2659540302635
 20
247.471356084061
 30
0.0
 10
301.0400232757258
 20
247.0177305318545
 30
0.0
 10
298.8213860010327
 20
246.4999396734655
 30
0.0
 10
296.6220564895235
 20
245.9184451405406
 30
0.0
 10
294.4527804768671
 20
245.2737646015745
 30
0.0
 10
292.3215148512285
 20
244.5678629209438
 30
0.0
 10
290.2409657023093
 20
243.798625881349
 30
0.0
 10
288.5316902280612
 20
243.1129038218191
 30
0.0
 10
287.5450054158346
 20
242.6634466126459
 30
0.0
 10
287.2083089853064
 20
242.5100737866649
 30
0.0
  0
SPLINE
  5
2CE
330
1F
100
AcDbEntity
  8
0
  6
Continuous
 62
     7
370
    25
100
AcDbSpline
210
0.0
220
0.0
230
1.0
 70
     8
 71
     3
 72
    23
 73
    19
 74
     0
 42
0.00000001
 43
0.00000001
 40
0.0
 40
0.0
 40
0.0
 40
0.0
 40
0.0422071356072346
 40
0.1142851580852148
 40
0.1862949587979983
 40
0.2582183762793613
 40
0.3300292592622522
 40
0.4016885251882122
 40
0.4731350654996747
 40
0.5442676987316104
 40
0.614905822392517
 40
0.684692295840458
 40
0.7528082234300664
 40
0.8168696771481417
 40
0.8703835180656387
 40
0.9141316302400493
 40
0.9664605598595701
 40
1.0
 40
1.0
 40
1.0
 40
1.0
 10
353.0050553899888
 20
242.2528352125061
 30
0.0
 10
352.6118371841523
 20
242.4360211053931
 30
0.0
 10
351.5471118913914
 20
242.932037440697
 30
0.0
 10
349.7267223551198
 20
243.6760875024722
 30
0.0
 10
347.55897298363
 20
244.4882332920153
 30
0.0
 10
345.3255055694249
 20
245.2348388351361
 30
0.0
 10
343.0371016806435
 20
245.917453905654
 30
0.0
 10
340.6995546203122
 20
246.533609080109
 30
0.0
 10
338.3211912576083
 20
247.0820756023406
 30
0.0
 10
335.9117384958495
 20
247.5614390278171
 30
0.0
 10
333.4846603543118
 20
247.970422432083
 30
0.0
 10
331.0620282113748
 20
248.3075980203129
 30
0.0
 10
328.6922259330711
 20
248.5707124096002
 30
0.0
 10
326.4970387156421
 20
248.7561756610718
 30
0.0
 10
324.5805920326659
 20
248.8736070274822
 30
0.0
 10
322.7984839244914
 20
248.9482318964689
 30
0.0
 10
321.2513681794879
 20
248.9857260001419
 30
0.0
 10
320.2258257139837
 20
248.989718547391
 30
0.0
 10
319.8252577256848
 20
248.9912780017029
 30
0.0
  0
SPLINE
  5
2CF
330
1F
100
AcDbEntity
  8
0
  6
Continuous
 62
     7
370
    25
100
AcDbSpline
210
0.0
220
0.0
230
1.0
 70
     8
 71
     3
 72
     9
 73
     5
 74
     0
 42
0.00000001
 43
0.00000001
 40
0.0
 40
0.0
 40
0.0
 40
0.0
 40
0.3725972082291985
 40
1.0
 40
1.0
 40
1.0
 40
1.0
 10
323.8198953635307
 20
188.1762896883836
 30
0.0
 10
323.3244591361043
 20
188.1561177513605
 30
0.0
 10
321.994775991722
 20
188.1019790284244
 30
0.0
 10
320.6616590295243
 20
188.0930355438611
 30
0.0
 10
319.8252577256845
 20
188.087424376678
 30
0.0
  0
SPLINE
  5
2D0
330
1F
100
AcDbEntity
  8
0
  6
Continuous
 62
     7
370
    25
100
AcDbSpline
210
0.0
220
0.0
230
1.0
 70
     8
 71
     3
 72
     9
 73
     5
 74
     0
 42
0.00000001
 43
0.00000001
 40
0.0
 40
0.0
 40
0.0
 40
0.0
 40
0.2261890402429639
 40
1.0
 40
1.0
 40
1.0
 40
1.0
 10
349.2111997284007
 20
193.2949566944816
 30
0.0
 10
349.0349292019457
 20
193.2234272875304
 30
0.0
 10
348.2556229797447
 20
192.9071900070934
 30
0.0
 10
347.4376433992114
 20
192.6243391723317
 30
0.0
 10
346.8046818349373
 20
192.4054660964167
 30
0.0
  0
LINE
  5
2D1
330
1F
100
AcDbEntity
  8
0
  6
Continuous
 62
     7
370
    25
100
AcDbLine
 10
267.8738633795
 20
208.5787633791
 30
0.0
 11
267.995188841
 21
207.8317336994
 31
0.0
  0
LINE
  5
2D2
330
1F
100
AcDbEntity
  8
0
  6
Continuous
 62
     7
370
    25
100
AcDbLine
 10
371.6553266104
 20
207.8317336994
 30
0.0
 11
371.7741944437
 21
208.5636311787
 31
0.0
  0
SPLINE
  5
2D3
330
1F
100
AcDbEntity
  8
0
  6
Continuous
 62
     7
370
    25
100
AcDbSpline
210
0.0
220
0.0
230
1.0
 70
     8
 71
     3
 72
    34
 73
    30
 74
     0
 42
0.00000001
 43
0.00000001
 40
0.0
 40
0.0
 40
0.0
 40
0.0
 40
0.0040384719862009
 40
0.0447074865050215
 40
0.0853870640978819
 40
0.1260722610609575
 40
0.166758435274511
 40
0.2074414142052203
 40
0.2481174954617598
 40
0.2887833365885865
 40
0.3294355863302034
 40
0.370070423811193
 40
0.4106846246047293
 40
0.4512742130105915
 40
0.4918340965448394
 40
0.5323574749534931
 40
0.5728349505317941
 40
0.61325310229977
 40
0.6535920617355382
 40
0.6938211253661731
 40
0.7338902206365977
 40
0.7737117625777785
 40
0.8131173614199343
 40
0.8517367249431457
 40
0.8885663727423736
 40
0.9211143420919773
 40
0.9452693251764132
 40
0.9725256441626384
 40
1.0
 40
1.0
 40
1.0
 40
1.0
 10
271.1104560822887
 20
200.001902204935
 30
0.0
 10
271.1387466730435
 20
199.9551166125588
 30
0.0
 10
271.4519347324656
 20
199.4371815502539
 30
0.0
 10
272.1618716965528
 20
198.4737373364936
 30
0.0
 10
273.245788048388
 20
197.1176231519701
 30
0.0
 10
274.4549729321395
 20
195.7984864094197
 30
0.0
 10
275.7705589409661
 20
194.5159386281748
 30
0.0
 10
277.1933446607359
 20
193.2739648914132
 30
0.0
 10
278.7185457904541
 20
192.0752245932865
 30
0.0
 10
280.3425658873267
 20
190.9225833276389
 30
0.0
 10
282.061177409311
 20
189.8187084159615
 30
0.0
 10
283.8700167404491
 20
188.766169231451
 30
0.0
 10
285.7644518983636
 20
187.7674062529867
 30
0.0
 10
287.7396158487451
 20
186.8247343818969
 30
0.0
 10
289.7903662721619
 20
185.9403453820733
 30
0.0
 10
291.9112602239292
 20
185.1163034161345
 30
0.0
 10
294.0965041456075
 20
184.3545404500556
 30
0.0
 10
296.3398668291989
 20
183.6568526551519
 30
0.0
 10
298.6345194724313
 20
183.0248988614939
 30
0.0
 10
300.9727275834986
 20
182.460203248665
 30
0.0
 10
303.3452143764405
 20
181.9641697702105
 30
0.0
 10
305.7397107533222
 20
181.5381210793322
 30
0.0
 10
308.1371498344275
 20
181.1834422594582
 30
0.0
 10
310.4992237763204
 20
180.9020420768569
 30
0.0
 10
312.738706885918
 20
180.6965280124471
 30
0.0
 10
314.6893023718742
 20
180.5656564845492
 30
0.0
 10
316.4459273756592
 20
180.4836644477531
 30
0.0
 10
318.0998509979907
 20
180.4341446084848
 30
0.0
 10
319.2485966865766
 20
180.4277637167512
 30
0.0
 10
319.8252577256844
 20
180.4245605607402
 30
0.0
  0
SPLINE
  5
2D4
330
1F
100
AcDbEntity
  8
0
  6
Continuous
 62
     7
370
    25
100
AcDbSpline
210
0.0
220
0.0
230
1.0
 70
     8
 71
     3
 72
    34
 73
    30
 74
     0
 42
0.00000001
 43
0.00000001
 40
0.0
 40
0.0
 40
0.0
 40
0.0
 40
0.0453191659228498
 40
0.0633225384712742
 40
0.0932387137925477
 40
0.1242233347926638
 40
0.157399395639717
 40
0.1919663565277362
 40
0.2276016166342313
 40
0.2640474348444337
 40
0.3011206741104219
 40
0.3386859807097158
 40
0.3766416891400464
 40
0.4149101870387796
 40
0.4534314598820897
 40
0.4921586775905673
 40
0.5310551377236423
 40
0.5700921289479144
 40
0.6092474343191367
 40
0.6485042913788055
 40
0.6878506880924237
 40
0.7272789137691079
 40
0.7667850729719056
 40
0.8063687969637522
 40
0.8460341464937675
 40
0.8857893161187693
 40
0.9256469466978651
 40
0.9656245194817968
 40
1.0
 40
1.0
 40
1.0
 40
1.0
 10
319.8252577256844
 20
180.4245605607402
 30
0.0
 10
320.7766286709536
 20
180.4327839737404
 30
0.0
 10
322.1059387333854
 20
180.4442741981402
 30
0.0
 10
324.0588194637235
 20
180.5205904365959
 30
0.0
 10
325.7079254931173
 20
180.6108207350418
 30
0.0
 10
327.6659031163783
 20
180.7611348835838
 30
0.0
 10
329.7086680981868
 20
180.9647396322599
 30
0.0
 10
331.8308306394106
 20
181.2286245849465
 30
0.0
 10
333.9982454056091
 20
181.5544770717314
 30
0.0
 10
336.1894423069928
 20
181.943745978711
 30
0.0
 10
338.3868328073951
 20
182.3970031674517
 30
0.0
 10
340.5760940944131
 20
182.9142718917041
 30
0.0
 10
342.745161302524
 20
183.4951227393596
 30
0.0
 10
344.8836301810305
 20
184.1387641238007
 30
0.0
 10
346.9823550067784
 20
184.8441051001001
 30
0.0
 10
349.0331773398532
 20
185.6098051943521
 30
0.0
 10
351.0287393292824
 20
186.4343148117093
 30
0.0
 10
352.962352582118
 20
187.3159098820175
 30
0.0
 10
354.8279034923835
 20
188.2527228762685
 30
0.0
 10
356.6197834515085
 20
189.2427714389961
 30
0.0
 10
358.3328317295871
 20
190.2839864305052
 30
0.0
 10
359.9622951835365
 20
191.3742345611451
 30
0.0
 10
361.5037514020573
 20
192.5113475276759
 30
0.0
 10
362.9531957987997
 20
193.6931227747433
 30
0.0
 10
364.3065620516031
 20
194.9174550414387
 30
0.0
 10
365.5613386686789
 20
196.181972824866
 30
0.0
 10
366.7103114794288
 20
197.4855239503704
 30
0.0
 10
367.714255470831
 20
198.7586537984415
 30
0.0
 10
368.2785077986687
 20
199.6102680642484
 30
0.0
 10
368.539377312986
 20
200.0039929794084
 30
0.0
  0
LINE
  5
2D5
330
1F
100
AcDbEntity
  8
0
  6
Continuous
 62
     7
370
    25
100
AcDbLine
 10
302.2314918819
 20
190.8494436396
 30
0.0
 11
351.9757224793
 21
219.5661767106
 31
0.0
  0
LINE
  5
2D6
330
1F
100
AcDbEntity
  8
0
  6
Continuous
 62
     7
370
    25
100
AcDbLine
 10
349.4759256477
 20
223.8964210225
 30
0.0
 11
295.617887168
 21
192.8048372112
 31
0.0
  0
LINE
  5
2D7
330
1F
100
AcDbEntity
  8
0
  6
Continuous
 62
     7
370
    25
100
AcDbLine
 10
273.8252577257
 20
196.5127862412
 30
0.0
 11
273.8252577257
 21
156.8600308587
 31
0.0
  0
LINE
  5
2D8
330
1F
100
AcDbEntity
  8
0
  6
Continuous
 62
     7
370
    25
100
AcDbLine
 10
365.8252577257
 20
156.8600308587
 30
0.0
 11
365.8252577257
 21
196.5072120487
 31
0.0
  0
SPLINE
  5
2D9
330
1F
100
AcDbEntity
  8
0
  6
Continuous
 62
     7
370
    25
100
AcDbSpline
210
0.0
220
0.0
230
1.0
 70
     8
 71
     3
 72
    37
 73
    33
 74
     0
 42
0.00000001
 43
0.00000001
 40
0.0
 40
0.0
 40
0.0
 40
0.0
 40
0.0264913058792862
 40
0.0586927006907374
 40
0.091153681998485
 40
0.1239604137485079
 40
0.1572047596593409
 40
0.1909846888689569
 40
0.2254039815008594
 40
0.2605707245029692
 40
0.2965939352846763
 40
0.333577544762619
 40
0.3675565744887467
 40
0.4020900988963246
 40
0.4371289718636501
 40
0.472595472668977
 40
0.5083874357232472
 40
0.5443898677954364
 40
0.5804882891480634
 40
0.6165752130371
 40
0.6525430386065716
 40
0.688334959099797
 40
0.7239033494758343
 40
0.7592018454767663
 40
0.7941684036886705
 40
0.8286921617063934
 40
0.8625316812746856
 40
0.8950525758446011
 40
0.9256761292225816
 40
0.9474047311801446
 40
0.9700183064038603
 40
1.0
 40
1.0
 40
1.0
 40
1.0
 10
273.8353904576962
 20
156.8525606906864
 30
0.0
 10
273.8408547875684
 20
156.3221120554126
 30
0.0
 10
273.8529612605041
 20
155.1468788251669
 30
0.0
 10
274.0440809938297
 20
153.3299968385632
 30
0.0
 10
274.3763156237208
 20
151.4076837907322
 30
0.0
 10
274.8587810806603
 20
149.4966027326434
 30
0.0
 10
275.4875422854973
 20
147.6027317925256
 30
0.0
 10
276.2655881822899
 20
145.7317849811168
 30
0.0
 10
277.1944355912197
 20
143.8891613860823
 30
0.0
 10
278.2765918956563
 20
142.0800435051706
 30
0.0
 10
279.5149495946407
 20
140.3095865637393
 30
0.0
 10
280.8618497024461
 20
138.6462039110586
 30
0.0
 10
282.2980420953015
 20
137.0922763600192
 30
0.0
 10
283.8031285537341
 20
135.6494968435847
 30
0.0
 10
285.4213261538185
 20
134.2710905469555
 30
0.0
 10
287.1464908996851
 20
132.9629794639763
 30
0.0
 10
288.9708207197423
 20
131.73077999076
 30
0.0
 10
290.8851660477899
 20
130.5794054339604
 30
0.0
 10
292.8794850819696
 20
129.5127868320175
 30
0.0
 10
294.9430649484027
 20
128.533866139792
 30
0.0
 10
297.0655276105838
 20
127.6442798584725
 30
0.0
 10
299.2370674347771
 20
126.8446058333887
 30
0.0
 10
301.4486753651636
 20
126.1345973473348
 30
0.0
 10
303.6908894612761
 20
125.5137389573613
 30
0.0
 10
305.952583093885
 20
124.981453361653
 30
0.0
 10
308.2180467723296
 20
124.5373618711857
 30
0.0
 10
310.4584819779391
 20
124.1817133935048
 30
0.0
 10
312.6339398430627
 20
123.9129838365252
 30
0.0
 10
314.5516472168106
 20
123.7385965438824
 30
0.0
 10
316.2526369069086
 20
123.6302490561927
 30
0.0
 10
317.9433987547805
 20
123.5574571783539
 30
0.0
 10
319.1420003448599
 20
123.5472296513195
 30
0.0
 10
319.8252577256843
 20
123.5413994960856
 30
0.0
  0
SPLINE
  5
2DA
330
1F
100
AcDbEntity
  8
0
  6
Continuous
 62
     7
370
    25
100
AcDbSpline
210
0.0
220
0.0
230
1.0
 70
     8
 71
     3
 72
    39
 73
    35
 74
     0
 42
0.00000001
 43
0.00000001
 40
0.0
 40
0.0
 40
0.0
 40
0.0
 40
0.0378493740370372
 40
0.0533769139280104
 40
0.079124371380843
 40
0.1058733418677968
 40
0.1345845158107406
 40
0.1645652446191124
 40
0.1955472987433886
 40
0.2273206639760316
 40
0.259741103628113
 40
0.2927043995758808
 40
0.3261318033179997
 40
0.3599590238110078
 40
0.3941276371981463
 40
0.4285780901241111
 40
0.4632388942950176
 40
0.4980135796433351
 40
0.5328104212107855
 40
0.5675315602889974
 40
0.6020815963841378
 40
0.6363770555847693
 40
0.6703549014115702
 40
0.7039777178814999
 40
0.7372346543305237
 40
0.7701387909531321
 40
0.8027224666263741
 40
0.8350321344680427
 40
0.8671238274835936
 40
0.8990597469203829
 40
0.9309060620794677
 40
0.9627317779504709
 40
0.9946084401156466
 40
0.9999999999999999
 40
0.9999999999999999
 40
0.9999999999999999
 40
0.9999999999999999
 10
319.8252577256843
 20
123.5413994960856
 30
0.0
 10
320.6880046873521
 20
123.5503522138916
 30
0.0
 10
321.9046898105864
 20
123.5629777449582
 30
0.0
 10
323.7039475518047
 20
123.6477678193544
 30
0.0
 10
325.2471875958657
 20
123.750395780953
 30
0.0
 10
327.0810901145925
 20
123.9225860096199
 30
0.0
 10
328.9982352325898
 20
124.1574892787916
 30
0.0
 10
330.9930034072135
 20
124.4639057757953
 30
0.0
 10
333.0333214817556
 20
124.8447422823207
 30
0.0
 10
335.0993234101381
 20
125.3029081473556
 30
0.0
 10
337.1748342021846
 20
125.8405859381016
 30
0.0
 10
339.2466640500277
 20
126.4596194801164
 30
0.0
 10
341.3035015318763
 20
127.1615963670982
 30
0.0
 10
343.3351914584713
 20
127.9478884016355
 30
0.0
 10
345.3321931133511
 20
128.8196134328419
 30
0.0
 10
347.2850761110186
 20
129.7774808575165
 30
0.0
 10
349.1839907552875
 20
130.8214555575816
 30
0.0
 10
351.0188865609315
 20
131.9506409017189
 30
0.0
 10
352.7796936165793
 20
133.1631577133905
 30
0.0
 10
354.4568151874062
 20
134.4562842951738
 30
0.0
 10
356.0412283805349
 20
135.8263852873505
 30
0.0
 10
357.5248527974584
 20
137.2691262477369
 30
0.0
 10
358.9007856398593
 20
138.7797526405845
 30
0.0
 10
360.1633485548865
 20
140.353356639099
 30
0.0
 10
361.3079569288143
 20
141.9850569527937
 30
0.0
 10
362.3308620851077
 20
143.6700593611931
 30
0.0
 10
363.2289162334004
 20
145.4036136958659
 30
0.0
 10
363.9992007537668
 20
147.1809069346339
 30
0.0
 10
364.6393959095367
 20
148.9969541280436
 30
0.0
 10
365.1457767685752
 20
150.8464739737125
 30
0.0
 10
365.5203604559425
 20
152.7239550106749
 30
0.0
 10
365.7442969504785
 20
154.6232288437467
 30
0.0
 10
365.8403054094611
 20
156.0064061046966
 30
0.0
 10
365.8184654549673
 20
156.7522270307073
 30
0.0
 10
365.8153058885579
 20
156.8601242676682
 30
0.0
  0
LINE
  5
2DB
330
1F
100
AcDbEntity
  8
0
  6
Continuous
 62
     7
370
    25
100
AcDbLine
 10
285.8252577257
 20
187.754141798
 30
0.0
 11
285.8252577257
 21
179.8527782015
 31
0.0
  0
LINE
  5
2DC
330
1F
100
AcDbEntity
  8
0
  6
Continuous
 62
     7
370
    25
100
AcDbLine
 10
353.8252577257
 20
179.8527782015
 30
0.0
 11
353.8252577257
 21
187.7642054733
 31
0.0
  0
SPLINE
  5
2DD
330
1F
100
AcDbEntity
  8
0
  6
Continuous
 62
     7
370
    25
100
AcDbSpline
210
0.0
220
0.0
230
1.0
 70
     8
 71
     3
 72
    10
 73
     6
 74
     0
 42
0.00000001
 43
0.00000001
 40
0.0
 40
0.0
 40
0.0
 40
0.0
 40
0.3477756583831941
 40
0.681216649476889
 40
1.0
 40
1.0
 40
1.0
 40
1.0
 10
354.4680034521522
 20
221.1642503538124
 30
0.0
 10
354.1279048311658
 20
219.1209968196117
 30
0.0
 10
353.461725823247
 20
215.1187088703318
 30
0.0
 10
352.4344731385058
 20
209.2642293332046
 30
0.0
 10
351.7132489474396
 20
205.4908706293857
 30
0.0
 10
351.3607409997349
 20
203.6465912095972
 30
0.0
  0
SPLINE
  5
2DE
330
1F
100
AcDbEntity
  8
0
  6
Continuous
 62
     7
370
    25
100
AcDbSpline
210
0.0
220
0.0
230
1.0
 70
     8
 71
     3
 72
     9
 73
     5
 74
     0
 42
0.00000001
 43
0.00000001
 40
0.0
 40
0.0
 40
0.0
 40
0.0
 40
0.4697061214101006
 40
1.0
 40
1.0
 40
1.0
 40
1.0
 10
351.3607516689549
 20
203.6466599922943
 30
0.0
 10
351.3169680211199
 20
203.4017485021774
 30
0.0
 10
351.2237530387315
 20
202.8803341987365
 30
0.0
 10
351.2066794725163
 20
202.3890527408167
 30
0.0
 10
351.1976254648667
 20
202.1285291910171
 30
0.0
  0
LINE
  5
2DF
330
1F
100
AcDbEntity
  8
0
  6
Continuous
 62
     7
370
    25
100
AcDbLine
 10
354.6969126318
 20
223.6943398388
 30
0.0
 11
354.4680023349
 21
221.1642474043
 31
0.0
  0
LINE
  5
2E0
330
1F
100
AcDbEntity
  8
0
  6
Continuous
 62
     7
370
    25
100
AcDbLine
 10
351.1972125213
 20
202.1224873617
 30
0.0
 11
351.1972125213
 21
195.9643405896
 31
0.0
  0
ARC
  5
2E1
330
1F
100
AcDbEntity
  8
0
  6
Continuous
 62
     7
370
    25
100
AcDbCircle
 10
319.7788561557
 20
276.7039220359
 30
0.0
 40
91.06591461788743
100
AcDbArc
 50
262.2677488625
 51
270.0321064879
  0
LWPOLYLINE
  5
2E2
330
1F
100
AcDbEntity
  8
0
  6
Continuous
 62
     7
370
    25
100
AcDbPolyline
 90
       16
 70
   128
 43
0.0
 10
287.1287216727
 20
242.4476744043
 10
286.2674699876
 20
242.0519250536
 10
284.0635094013
 20
240.9584520946
 10
281.9662759276
 20
239.7971304502
 10
279.9820285355
 20
238.5714259606
 10
278.1166889991
 20
237.2849966098
 10
276.3758242246
 20
235.9416816085
 10
274.7646296368
 20
234.5454899366
 10
273.2879136736
 20
233.100588379
 10
271.9500834359
 20
231.6112890896
 10
270.7551315348
 20
230.082036723
 10
269.7066241765
 20
228.5173951693
 10
268.807690519
 20
226.9220339337
 10
268.0610133338
 20
225.3007142014
 10
267.4688209989
 20
223.6582746275
 10
267.1959690922
 20
222.6944569111
  0
LWPOLYLINE
  5
2E3
330
1F
100
AcDbEntity
  8
0
  6
Continuous
 62
     7
370
    25
100
AcDbPolyline
 90
       16
 70
   128
 43
0.0
 10
372.5012913743
 20
222.507050991
 10
372.187863599
 20
223.6384295123
 10
371.5975393307
 20
225.2810931828
 10
370.8527062259
 20
226.9026955686
 10
369.9555871592
 20
228.4983971708
 10
368.9088594865
 20
230.0634357887
 10
367.7156470546
 20
231.593140732
 10
366.3795108784
 20
233.0829467599
 10
364.9044385134
 20
234.5284077055
 10
363.2948321552
 20
235.9252097455
 10
361.5554955019
 20
237.2691842734
 10
359.6916194177
 20
238.5563203412
 10
357.7087664413
 20
239.7827766287
 10
355.6128541854
 20
240.9448929085
 10
353.4101376759
 20
242.0392009688
 10
353.0855626828
 20
242.1905247201
  0
ARC
  5
2E4
330
1F
100
AcDbEntity
  8
0
  6
Continuous
 62
     7
370
    25
100
AcDbCircle
 10
320.7190035035
 20
269.4982487065
 30
0.0
 40
81.40683339071461
100
AcDbArc
 50
272.2832891726
 51
288.657440804
  0
LWPOLYLINE
  5
2E5
330
1F
100
AcDbEntity
  8
0
  6
Continuous
 62
     7
370
    25
100
AcDbPolyline
 90
       26
 70
   128
 43
0.0
 10
318.505247149
 20
188.0711358348
 10
318.0773277587
 20
188.0783780731
 10
315.1979322637
 20
188.1798263986
 10
312.3325898041
 20
188.3726897354
 10
309.4900023307
 20
188.6563823637
 10
306.6788026882
 20
189.0300427185
 10
303.9075283977
 20
189.4925360054
 10
301.1845957279
 20
190.0424576475
 10
298.5182741359
 20
190.678137551
 10
295.9166611529
 20
191.3976451767
 10
293.3876577918
 20
192.1987954038
 10
290.9389445528
 20
193.0791551653
 10
288.5779580975
 20
194.0360508376
 10
286.3118686642
 20
195.0665763599
 10
284.1475582921
 20
196.1676020601
 10
282.0915999204
 20
197.3357841593
 10
280.1502374274
 20
198.5675749269
 10
278.329366667
 20
199.8592334549
 10
276.634517564
 20
201.2068370187
 10
275.0708373192
 20
202.6062929905
 10
273.6430747783
 20
204.0533512687
 10
272.3555660092
 20
205.5436171847
 10
271.2122211337
 20
207.07256485
 10
270.2165124525
 20
208.6355509007
 10
269.3714639003
 20
210.2278285996
 10
268.8543532618
 20
211.3981381559
  0
LWPOLYLINE
  5
2E6
330
1F
100
AcDbEntity
  8
0
  6
Continuous
 62
     7
370
    25
100
AcDbPolyline
 90
       15
 70
   128
 43
0.0
 10
371.0857900972
 20
212.1568182522
 10
370.8371745569
 20
211.5001579633
 10
370.1126907108
 20
209.8881991116
 10
369.2354855836
 20
208.3017276566
 10
368.2082232183
 20
206.74556166
 10
367.0340233769
 20
205.2244271468
 10
365.7164520659
 20
203.7429437525
 10
364.259510706
 20
202.3056106935
 10
362.6676239802
 20
200.916793103
 10
360.9456263961
 20
199.5807087745
 10
359.0987476039
 20
198.3014153521
 10
357.1325965136
 20
197.0827980079
 10
355.0531442617
 20
195.9285576428
 10
352.8667060762
 20
194.8421996467
 10
350.579922098
 20
193.8270232532
  0
LWPOLYLINE
  5
2E7
330
1F
100
AcDbEntity
  8
0
  6
Continuous
 62
     7
370
    25
100
AcDbPolyline
 90
       76
 70
   128
 43
0.0
 10
363.444801218
 20
201.5740779298
 10
363.7221629934
 20
201.8701032579
 10
364.9763935112
 20
203.3254268217
 10
366.0859913292
 20
204.8193827352
 10
367.0474020709
 20
206.3471854075
 10
367.857546048
 20
207.903940826
 10
368.5138281251
 20
209.4846622336
 10
369.0141460327
 20
211.0842861032
 10
369.3568971019
 20
212.6976883573
 10
369.5409833976
 20
214.3197007821
 10
369.5658152359
 20
215.9451275828
 10
369.431313073
 20
217.5687620272
 10
369.1379077598
 20
219.1854031249
 10
368.686539162
 20
220.789872287
 10
368.0786531493
 20
222.377029915
 10
367.3161969638
 20
223.9417918646
 10
366.4016129826
 20
225.4791457315
 10
365.3378308939
 20
226.9841669078
 10
364.1282583125
 20
228.452034357
 10
362.7767698638
 20
229.878046057
 10
361.2876947731
 20
231.2576340626
 10
359.6658029965
 20
232.5863791374
 10
357.9162899425
 20
233.8600249103
 10
356.0447598288
 20
235.07449151
 10
354.0572077306
 20
236.2258886338
 10
351.9600003764
 20
237.3105280096
 10
349.7598557537
 20
238.3249352106
 10
347.463821589
 20
239.2658607845
 10
345.0792527719
 20
240.1302906633
 10
342.6137877952
 20
240.9154558172
 10
340.0753242865
 20
241.6188411257
 10
337.4719937097
 20
242.2381934335
 10
334.8121353175
 20
242.7715287685
 10
332.1042694382
 20
243.2171386968
 10
329.3570701826
 20
243.5735957955
 10
326.579337658
 20
243.839758225
 10
323.7799697793
 20
244.0147733868
 10
320.9679337656
 20
244.0980806547
 10
318.1522374161
 20
244.0894131702
 10
315.3419002549
 20
243.988798698
 10
312.5459246394
 20
243.7965595366
 10
309.7732669223
 20
243.5133114859
 10
307.0328087622
 20
243.1399618748
 10
304.3333286727
 20
242.6777066547
 10
301.6834739024
 20
242.1280265685
 10
299.091732735
 20
241.4926824072
 10
296.5664072987
 20
240.7737093696
 10
294.1155869724
 20
239.9734105431
 10
291.7471224723
 20
239.0943495262
 10
289.4686007043
 20
238.1393422163
 10
287.2873204605
 20
237.1114477897
 10
285.2102690391
 20
236.0139589022
 10
283.2440998621
 20
234.8503911415
 10
281.395111162
 20
233.624471766
 10
279.6692258071
 20
232.340127765
 10
278.0719723285
 20
231.0014732796
 10
276.6084672106
 20
229.6127964235
 10
275.2833985015
 20
228.1785455475
 10
274.1010107957
 20
226.7033149895
 10
273.0650916377
 20
225.1918303578
 10
272.1789593886
 20
223.6489333932
 10
271.4454525973
 20
222.0795664599
 10
270.8669209071
 20
220.4887567132
 10
270.4452175294
 20
218.8815999966
 10
270.1816933074
 20
217.2632445173
 10
270.0771923885
 20
215.6388743558
 10
270.1320495207
 20
214.0136928597
 10
270.3460889801
 20
212.392905975
 10
270.7186251337
 20
210.7817055708
 10
271.2484646359
 20
209.1852528078
 10
271.9339102511
 20
207.6086616055
 10
272.7727662903
 20
206.0569822607
 10
273.7623456447
 20
204.5351852702
 10
274.8994783934
 20
203.0481454086
 10
276.1805219572
 20
201.6006261128
 10
276.2057142333
 20
201.5740779298
  0
ARC
  5
2E8
330
1F
100
AcDbEntity
  8
0
  6
Continuous
 62
     7
370
    25
100
AcDbCircle
 10
351.8420103605
 20
211.2405824271
 30
0.0
 40
20.10442116715942
100
AcDbArc
 50
326.4181257769
 51
350.2379270953
  0
ARC
  5
2E9
330
1F
100
AcDbEntity
  8
0
  6
Continuous
 62
     7
370
    25
100
AcDbCircle
 10
288.0204174354
 20
211.3247537999
 30
0.0
 40
20.32759133986355
100
AcDbArc
 50
189.8946083789
 51
213.4535204582
  0
LWPOLYLINE
  5
2EA
330
1F
100
AcDbEntity
  8
0
  6
Continuous
 62
     7
370
    25
100
AcDbPolyline
 90
      108
 70
   128
 43
0.0
 10
346.8511612533
 20
193.896834556
 10
344.620011676
 20
193.0182447768
 10
342.3033894452
 20
192.2167598824
 10
339.9092804378
 20
191.4951427573
 10
337.4459376435
 20
190.8558809654
 10
334.9218527152
 20
190.3011781743
 10
332.3457266965
 20
189.8329465595
 10
329.7264400275
 20
189.4528002124
 10
327.073021932
 20
189.1620495763
 10
324.3946192918
 20
188.9616969287
 10
321.7004651157
 20
188.8524329269
 10
318.9998467112
 20
188.8346342263
 10
316.3020736695
 20
188.9083621828
 10
313.6164457731
 20
189.073362641
 10
310.9522209378
 20
189.3290668099
 10
308.3185832984
 20
189.6745932245
 10
305.7246115495
 20
190.1087507835
 10
303.179247649
 20
190.6300428559
 10
300.6912659938
 20
191.23667244
 10
298.2692431718
 20
191.9265483578
 10
295.9215283976
 20
192.6972924643
 10
293.6562147303
 20
193.5462478447
 10
291.4811111754
 20
194.470487974
 10
289.4037157655
 20
195.4668268051
 10
287.431189713
 20
196.5318297515
 10
285.5703327236
 20
197.6618255276
 10
283.8275595571
 20
198.8529188037
 10
282.2088779134
 20
200.1010036345
 10
280.7198677237
 20
201.4017776132
 10
279.3656619144
 20
202.7507567024
 10
278.1509287135
 20
204.1432906916
 10
277.0798555581
 20
205.5745792277
 10
276.1561346591
 20
207.0396883627
 10
275.382950274
 20
208.5335675618
 10
274.7629677293
 20
210.0510671139
 10
274.2983242334
 20
211.5869558838
 10
273.9906215087
 20
213.1359393447
 10
273.8409202702
 20
214.6926778296
 10
273.8497365691
 20
216.2518049386
 10
274.0170400138
 20
217.8079460375
 10
274.3422538746
 20
219.3557367856
 10
274.824257072
 20
220.8898416274
 10
275.4613880412
 20
222.4049721859
 10
276.2514504596
 20
223.8959054921
 10
277.1917208185
 20
225.3575019899
 10
278.2789578112
 20
226.7847232537
 10
279.5094135065
 20
228.1726493558
 10
280.8788462686
 20
229.5164958276
 10
282.3825353793
 20
230.8116301519
 10
284.0152973105
 20
232.0535877324
 10
285.7715035938
 20
233.2380872839
 10
287.6451002222
 20
234.3610455912
 10
289.62962852
 20
235.4185915843
 10
291.718247407
 20
236.4070796831
 10
293.9037569813
 20
237.3231023644
 10
296.1786233386
 20
238.1635019082
 10
298.5350045433
 20
238.9253812832
 10
300.9647776613
 20
239.6061141333
 10
303.4595667611
 20
240.2033538315
 10
306.0107717881
 20
240.7150415686
 10
308.60959821
 20
241.1394134512
 10
311.2470873336
 20
241.4750065813
 10
313.9141471876
 20
241.7206641
 10
316.6015838643
 20
241.8755391749
 10
319.3001332125
 20
241.9390979196
 10
322.0004927738
 20
241.9111212338
 10
324.6933538492
 20
241.7917055591
 10
327.3694335887
 20
241.5812625459
 10
330.0195069912
 20
241.2805176349
 10
332.6344387047
 20
240.8905075562
 10
335.2052145177
 20
240.4125767553
 10
337.7229724336
 20
239.8483727587
 10
340.1790332191
 20
239.1998404944
 10
342.564930324
 20
238.4692155874
 10
344.8724390666
 20
237.6590166533
 10
347.0936049864
 20
236.7720366156
 10
349.2207712642
 20
235.8113330781
 10
351.2466051172
 20
234.7802177851
 10
353.1641230764
 20
233.6822452045
 10
354.9667150603
 20
232.5212002753
 10
356.6481671608
 20
231.3010853599
 10
358.2026830642
 20
230.0261064471
 10
359.6249040321
 20
228.7006586535
 10
360.9099273742
 20
227.329311072
 10
362.0533233489
 20
225.916791022
 10
363.0511504333
 20
224.4679677527
 10
363.8999689109
 20
222.9878356579
 10
364.5968527284
 20
221.4814970597
 10
365.139399583
 20
219.9541446193
 10
365.5257392033
 20
218.4110434369
 10
365.7545397965
 20
216.857512902
 10
365.8250126397
 20
215.2989083562
 10
365.7369147982
 20
213.7406026322
 10
365.4905499638
 20
212.1879675327
 10
365.0867674069
 20
210.6463553125
 10
364.5269590497
 20
209.1210802282
 10
363.8130546675
 20
207.6174002192
 10
362.9475152367
 20
206.1404987818
 10
361.933324451
 20
204.6954671014
 10
360.7739784362
 20
203.2872865014
 10
359.473473698
 20
201.9208112721
 10
358.0362933458
 20
200.6007519367
 10
356.467391638
 20
199.3316590132
 10
354.7721769037
 20
198.1179073278
 10
352.9564928994
 20
196.963680934
 10
351.0265986639
 20
195.8729586893
 10
348.9891469425
 20
194.8495005392
 10
346.8511612533
 20
193.896834556
  0
LWPOLYLINE
  5
2EB
330
1F
100
AcDbEntity
  8
0
  6
Continuous
 62
     7
370
    25
100
AcDbPolyline
 90
       54
 70
   128
 43
0.0
 10
365.7958603842
 20
214.4363648568
 10
365.7545397965
 20
214.9590555144
 10
365.5257392033
 20
216.5125860493
 10
365.139399583
 20
218.0556872317
 10
364.5968527284
 20
219.5830396721
 10
363.8999689109
 20
221.0893782703
 10
363.0511504333
 20
222.569510365
 10
362.0533233489
 20
224.0183336344
 10
360.9099273742
 20
225.4308536844
 10
359.6249040321
 20
226.8022012658
 10
358.2026830642
 20
228.1276490595
 10
356.6481671608
 20
229.4026279723
 10
354.9667150603
 20
230.6227428877
 10
353.1641230764
 20
231.7837878169
 10
351.2466051172
 20
232.8817603975
 10
349.2207712642
 20
233.9128756905
 10
347.0936049864
 20
234.8735792279
 10
344.8724390666
 20
235.7605592657
 10
342.564930324
 20
236.5707581998
 10
340.1790332191
 20
237.3013831067
 10
337.7229724336
 20
237.9499153711
 10
335.2052145177
 20
238.5141193677
 10
332.6344387047
 20
238.9920501686
 10
330.0195069912
 20
239.3820602473
 10
327.3694335887
 20
239.6828051582
 10
324.6933538492
 20
239.8932481714
 10
322.0004927738
 20
240.0126638462
 10
319.3001332125
 20
240.040640532
 10
316.6015838643
 20
239.9770817873
 10
313.9141471876
 20
239.8222067124
 10
311.2470873336
 20
239.5765491937
 10
308.60959821
 20
239.2409560635
 10
306.0107717881
 20
238.816584181
 10
303.4595667611
 20
238.3048964438
 10
300.9647776613
 20
237.7076567457
 10
298.5350045433
 20
237.0269238956
 10
296.1786233386
 20
236.2650445206
 10
293.9037569813
 20
235.4246449768
 10
291.718247407
 20
234.5086222955
 10
289.62962852
 20
233.5201341967
 10
287.6451002222
 20
232.4625882035
 10
285.7715035938
 20
231.3396298963
 10
284.0152973105
 20
230.1551303447
 10
282.3825353793
 20
228.9131727643
 10
280.8788462686
 20
227.61803844
 10
279.5094135065
 20
226.2741919682
 10
278.2789578112
 20
224.886265866
 10
277.1917208185
 20
223.4590446023
 10
276.2514504596
 20
221.9974481044
 10
275.4613880412
 20
220.5065147983
 10
274.824257072
 20
218.9913842398
 10
274.3422538746
 20
217.4572793979
 10
274.0170400138
 20
215.9094886499
 10
273.8546550671
 20
214.4363648568
  0
LWPOLYLINE
  5
2EC
330
1F
100
AcDbEntity
  8
0
  6
Continuous
 62
     7
370
    25
100
AcDbPolyline
 90
       10
 70
   128
 43
0.0
 10
352.4935910165
 20
220.7107887268
 10
352.4333558183
 20
221.2739025496
 10
352.2567551528
 20
221.8681871756
 10
351.9758240635
 20
222.4531430895
 10
351.60970754
 20
222.9889065125
 10
351.1833558183
 20
223.4389660528
 10
350.7258240635
 20
223.7726508963
 10
350.2682923088
 20
223.9672209725
 10
349.8419405871
 20
224.0094166523
 10
349.4759256477
 20
223.8964210225
  0
ARC
  5
2ED
330
1F
100
AcDbEntity
  8
0
  6
Continuous
 62
     7
370
    25
100
AcDbCircle
 10
351.308714425
 20
220.5574162871
 30
0.0
 40
1.194761751321118
100
AcDbArc
 50
303.9367271495
 51
7.3754532439
  0
LWPOLYLINE
  5
2EE
330
1F
100
AcDbEntity
  8
0
  6
Continuous
 62
     7
370
    25
100
AcDbPolyline
 90
       18
 70
   128
 43
0.0
 10
294.254028862
 20
174.7964476042
 10
292.0540312927
 20
175.7008386001
 10
289.9497668941
 20
176.67820591
 10
287.9484895014
 20
177.7251803464
 10
286.0570979324
 20
178.8381527713
 10
284.2821122057
 20
180.0132865384
 10
282.6296510648
 20
181.2465307181
 10
281.1054108855
 20
182.5336340623
 10
279.7146460395
 20
183.8701596589
 10
278.4621507814
 20
185.2515002276
 10
277.3522427218
 20
186.6728940011
 10
276.3887479436
 20
188.1294411406
 10
275.5749878131
 20
189.6161206265
 10
274.9137675299
 20
191.1278075665
 10
274.4073664573
 20
192.6592908626
 10
274.0575302648
 20
194.2052911747
 10
273.8654649101
 20
195.7604791193
 10
273.8312155059
 20
196.4431504352
  0
LWPOLYLINE
  5
2EF
330
1F
100
AcDbEntity
  8
0
  6
Continuous
 62
     7
370
    25
100
AcDbPolyline
 90
       38
 70
   128
 43
0.0
 10
365.8185391826
 20
196.4166852585
 10
365.7760292468
 20
195.6423048561
 10
365.5719657335
 20
194.0876262353
 10
365.2102038408
 20
192.5425408624
 10
364.6919906368
 20
191.0123749669
 10
364.0191125098
 20
189.5024033476
 10
363.19388901
 20
188.0178311895
 10
362.219164854
 20
186.5637761204
 10
361.0983001177
 20
185.1452505692
 10
359.835158654
 20
183.7671444875
 10
358.4340947734
 20
182.4342084923
 10
356.8999382332
 20
181.1510374903
 10
355.2379775888
 20
179.9220548376
 10
353.4539419629
 20
178.751497092
 10
351.5539812959
 20
177.6433994087
 10
349.5446451458
 20
176.6015816299
 10
347.4328601105
 20
175.6296351172
 10
345.2259059506
 20
174.7309103718
 10
342.9313904942
 20
173.9085054838
 10
340.5572234114
 20
173.1652554535
 10
338.1115889481
 20
172.5037224175
 10
335.6029177128
 20
171.9261868173
 10
333.039857615
 20
171.4346395378
 10
330.4312440538
 20
171.0307750443
 10
327.7860694607
 20
170.7159855413
 10
325.1134523003
 20
170.4913561735
 10
322.4226056376
 20
170.3576612848
 10
319.7228053787
 20
170.3153617492
 10
317.0233582942
 20
170.3646033821
 10
314.3335699375
 20
170.5052164371
 10
311.6627125663
 20
170.7367161922
 10
309.0199931792
 20
171.0583046195
 10
306.4145217775
 20
171.4688731373
 10
303.8552799607
 20
171.9670064307
 10
301.3510899657
 20
172.5509873311
 10
298.910584254
 20
173.2188027354
 10
296.5421757546
 20
173.9681505454
 10
294.254028862
 20
174.7964476042
  0
LWPOLYLINE
  5
2F0
330
1F
100
AcDbEntity
  8
0
  6
Continuous
 62
     7
370
    25
100
AcDbPolyline
 90
       17
 70
   128
 43
0.0
 10
294.8099251417
 20
175.2763189746
 10
292.6378846068
 20
176.1697407234
 10
290.5613407116
 20
177.1358747518
 10
288.5875873922
 20
178.1713274787
 10
286.7235575291
 20
179.2724618387
 10
284.9757985952
 20
180.4354100573
 10
283.3504496576
 20
181.6560872363
 10
281.8532198135
 20
182.9302057026
 10
280.4893681375
 20
184.2532900687
 10
279.2636852083
 20
185.6206929525
 10
278.180476282
 20
187.0276113015
 10
277.2435461692
 20
188.4691032636
 10
276.4561858714
 20
189.9401055458
 10
275.8211610201
 20
191.4354511989
 10
275.3407021635
 20
192.9498877668
 10
275.0164969306
 20
194.4780957357
 10
274.9044302438
 20
195.3302151265
  0
LWPOLYLINE
  5
2F1
330
1F
100
AcDbEntity
  8
0
  6
Continuous
 62
     7
370
    25
100
AcDbPolyline
 90
       37
 70
   128
 43
0.0
 10
364.7438532527
 20
195.3086738676
 10
364.6604909403
 20
194.6495207249
 10
364.3538306579
 20
193.1201063604
 10
363.8907621392
 20
191.603865498
 10
363.272911929
 20
190.1061239889
 10
362.5024502489
 20
188.632142705
 10
361.5820833735
 20
187.1870990591
 10
360.5150441251
 20
185.7760688198
 10
359.305080518
 20
184.4040082823
 10
357.9564425935
 20
183.0757368593
 10
356.4738674914
 20
181.7959201525
 10
354.8625628108
 20
180.5690535649
 10
353.1281883183
 20
179.39944651
 10
351.2768360675
 20
178.2912072754
 10
349.3150090007
 20
177.2482285916
 10
347.249598107
 20
176.2741739595
 10
345.0878582175
 20
175.3724647814
 10
342.8373825224
 20
174.5462683437
 10
340.5060758997
 20
173.7984866915
 10
338.1021271489
 20
173.1317464352
 10
335.6339802276
 20
172.5483895241
 10
333.110304592
 20
172.0504650208
 10
330.5399647448
 20
171.6397219032
 10
327.9319890984
 20
171.3176029215
 10
325.2955382624
 20
171.0852395304
 10
322.6398728664
 20
170.9434479147
 10
319.9743210322
 20
170.8927261227
 10
317.3082456076
 20
170.9332523165
 10
314.6510112799
 20
171.0648841464
 10
312.0119516816
 20
171.2871592507
 10
309.4003366057
 20
171.5992968802
 10
306.8253394454
 20
172.0002006399
 10
304.2960049722
 20
172.4884623407
 10
301.8212175657
 20
173.0623669458
 10
299.4096700069
 20
173.7198985941
 10
297.0698329446
 20
174.4587476818
 10
294.8099251417
 20
175.2763189746
  0
LINE
  5
2F2
330
1F
100
AcDbEntity
  8
0
  6
Continuous
 62
     7
370
    25
100
AcDbLine
 10
354.6789036685
 20
223.4952909431
 30
0.0
 11
354.682278229
 21
223.6935547093
 31
0.0
  0
LWPOLYLINE
  5
2F3
330
1F
100
AcDbEntity
  8
0
  6
Continuous
 62
     8
370
    18
100
AcDbPolyline
 90
       85
 70
   128
 43
0.0
 10
361.0194047872
 20
237.6542374277
 10
361.8284768304
 20
237.077799738
 10
363.5791914786
 20
235.7250335047
 10
365.1993271916
 20
234.3190941845
 10
366.6840488478
 20
232.8641776529
 10
368.0289254541
 20
231.3646259526
 10
369.2299433702
 20
229.8249143353
 10
370.2835182867
 20
228.2496379056
 10
371.1865059218
 20
226.6434979074
 10
371.9362114055
 20
225.0112876939
 10
372.5303973221
 20
223.3578784218
 10
372.9672903872
 20
221.6882045143
 10
373.2455867402
 20
220.0072489344
 10
373.3644558354
 20
218.3200283144
 10
373.3235429207
 20
216.6315779837
 10
373.1229700962
 20
214.9469369416
 10
372.7633359503
 20
213.2711328193
 10
372.2457137724
 20
211.6091668748
 10
371.5716483507
 20
209.9659990678
 10
370.7431513612
 20
208.3465332567
 10
369.7626953647
 20
206.7556025642
 10
368.633206427
 20
205.1979549525
 10
367.3580553873
 20
203.6782390546
 10
365.9410477973
 20
202.2009902997
 10
364.3864125647
 20
200.770617379
 10
362.698789332
 20
199.3913890873
 10
360.8832146301
 20
198.067421584
 10
358.9451068477
 20
196.8026661084
 10
356.8902500601
 20
195.600897188
 10
354.7247767675
 20
194.4657013736
 10
352.4551495934
 20
193.4004665356
 10
350.0881419973
 20
192.4083717536
 10
347.6308180601
 20
191.4923778281
 10
345.0905114024
 20
190.6552184452
 10
342.4748032976
 20
189.8993920175
 10
339.7915000468
 20
189.2271542281
 10
337.0486096815
 20
188.6405112988
 10
334.2543180645
 20
188.1412140025
 10
331.4169644604
 20
187.7307524388
 10
328.5450166475
 20
187.4103515863
 10
325.6470456467
 20
187.180967647
 10
322.7317001427
 20
187.0432851927
 10
319.8076806721
 20
186.997715122
 10
316.8837136584
 20
187.044393434
 10
313.9685253683
 20
187.1831808221
 10
311.0708158695
 20
187.4136630903
 10
308.1992330659
 20
187.7351523889
 10
305.3623468894
 20
188.1466892674
 10
302.5686237232
 20
188.6470455381
 10
299.8264011354
 20
189.2347279412
 10
297.1438629958
 20
189.9079826015
 10
294.5290150527
 20
190.6648002624
 10
291.98966104
 20
191.5029222825
 10
289.5333793882
 20
192.4198473764
 10
287.167500607
 20
193.4128390791
 10
284.8990854088
 20
194.4789339132
 10
282.7349036359
 20
195.6149502327
 10
280.6814140574
 20
196.8174977183
 10
278.7447450932
 20
198.0829874958
 10
276.9306765249
 20
199.4076428462
 10
275.2446222458
 20
200.7875104774
 10
273.6916141048
 20
202.218472322
 10
272.2762868884
 20
203.6962578274
 10
271.0028644894
 20
205.2164567009
 10
269.8751473007
 20
206.7745320716
 10
268.8965008736
 20
208.3658340301
 10
268.0698458737
 20
209.985613506
 10
267.3976493645
 20
211.6290364407
 10
266.8819174444
 20
213.2911982142
 10
266.5241892603
 20
214.9671382825
 10
266.3255324136
 20
216.6518549818
 10
266.2865397745
 20
218.3403204553
 10
266.4073277123
 20
220.0274956584
 10
266.6875357483
 20
221.7083453971
 10
267.1263276317
 20
223.3778533552
 10
267.722393835
 20
225.0310370648
 10
268.4739554623
 20
226.6629627759
 10
269.3787695584
 20
228.2687601808
 10
270.4341358024
 20
229.8436369489
 10
271.6369045667
 20
231.382893029
 10
272.9834863164
 20
232.8819346759
 10
274.4698623224
 20
234.3362881603
 10
276.0915966546
 20
235.7416131196
 10
277.8438494202
 20
237.0937155118
 10
278.6311106641
 20
237.6542374277
  0
LWPOLYLINE
  5
2F4
330
1F
100
AcDbEntity
  8
0
  6
Continuous
 62
     8
370
    18
100
AcDbPolyline
 90
       65
 70
   128
 43
0.0
 10
267.1959690922
 20
222.6944569111
 10
267.0328808492
 20
221.9996168973
 10
266.7544939012
 20
220.3296910974
 10
266.6344909711
 20
218.6534809427
 10
266.6732301948
 20
216.9759889031
 10
266.8705959593
 20
215.3022212742
 10
267.2259992474
 20
213.6371732364
 10
267.7383793962
 20
211.9858139475
 10
268.4062072618
 20
210.3530717126
 10
269.2274897835
 20
208.7438192764
 10
270.1997759314
 20
207.1628592805
 10
271.3201640215
 20
205.614909931
 10
272.5853103753
 20
204.1045909171
 10
273.991439299
 20
202.6364096244
 10
275.5343543511
 20
201.2147476829
 10
277.2094508667
 20
199.8438478905
 10
279.0117296995
 20
198.5278015511
 10
280.935812141
 20
197.2705362643
 10
282.975955973
 20
196.0758042037
 10
285.1260726045
 20
194.9471709194
 10
287.3797452424
 20
193.8880046967
 10
289.7302480417
 20
192.9014665039
 10
292.1705661783
 20
191.9905005588
 10
294.6934167837
 20
191.1578255417
 10
297.2912706802
 20
190.4059264822
 10
299.9563748506
 20
189.7370473426
 10
302.6807755767
 20
189.1531843211
 10
305.4563421759
 20
188.6560798944
 10
308.2747912666
 20
188.2472176177
 10
311.1277114889
 20
187.9278176965
 10
314.0065886076
 20
187.6988333457
 10
316.9028309219
 20
187.5609479448
 10
319.8077949064
 20
187.5145729979
 10
322.7128110068
 20
187.5598469061
 10
325.6092095134
 20
187.6966345542
 10
328.4883464345
 20
187.9245277141
 10
331.3416292939
 20
188.2428462632
 10
334.1605427744
 20
188.6506402136
 10
336.9366741299
 20
189.1466925481
 10
339.6617382935
 20
189.7295228514
 10
342.3276026028
 20
190.3973917289
 10
344.9263110706
 20
191.1483059974
 10
347.4501081298
 20
191.9800246334
 10
349.8914617778
 20
192.8900654618
 10
352.2430860559
 20
193.8757125631
 10
354.4979627929
 20
194.9340243787
 10
356.6493625504
 20
196.0618424905
 10
358.690864706
 20
197.2558010458
 10
360.6163766149
 20
198.5123368031
 10
362.4201517927
 20
199.8276997657
 10
364.0968070653
 20
201.1979643737
 10
365.6413386344
 20
202.6190412188
 10
367.0491370109
 20
204.0866892493
 10
368.3160007709
 20
205.5965284266
 10
369.4381490952
 20
207.1440527971
 10
370.412233052
 20
208.7246439399
 10
371.2353455921
 20
210.3335847498
 10
371.905030224
 20
211.9660735151
 10
372.4192883456
 20
213.6172382476
 10
372.7765852087
 20
215.2821512229
 10
372.9758544988
 20
216.9558436863
 10
373.0165015181
 20
218.6333206815
 10
372.89840496
 20
220.309575958
 10
372.621917271
 20
221.9796069112
 10
372.5012913743
 20
222.507050991
  0
LWPOLYLINE
  5
2F5
330
1F
100
AcDbEntity
  8
0
  6
Continuous
 62
     8
370
    18
100
AcDbPolyline
 90
       67
 70
   128
 43
0.0
 10
268.8543532618
 20
211.3981381559
 10
268.6796418616
 20
211.8445622517
 10
268.1431473774
 20
213.4808418899
 10
267.7636097637
 20
215.1316981869
 10
267.5421816637
 20
216.7921175462
 10
267.4795355474
 20
218.4570573289
 10
267.5758616688
 20
220.1214611675
 10
267.8308674889
 20
221.7802743224
 10
268.2437785632
 20
223.4284590325
 10
268.8133408945
 20
225.0610098149
 10
269.5378247405
 20
226.6729686666
 10
270.4150298678
 20
228.2594401216
 10
271.4422922331
 20
229.8156061182
 10
272.6164920744
 20
231.3367406314
 10
273.9340633854
 20
232.8182240257
 10
275.3910047454
 20
234.2555570847
 10
276.9828914712
 20
235.6443746751
 10
278.7048890553
 20
236.9804590036
 10
280.5517678475
 20
238.259752426
 10
282.5179189377
 20
239.4783697702
 10
284.5973711897
 20
240.6326101354
 10
286.7838093752
 20
241.7189681315
 10
289.0705933534
 20
242.734144525
 10
291.4507782365
 20
243.6750562586
 10
293.9171354812
 20
244.5388458141
 10
296.4621748417
 20
245.3228898913
 10
299.078167117
 20
246.0248073739
 10
301.7571676247
 20
246.6424665617
 10
304.4910403281
 20
247.1739916439
 10
307.2714825458
 20
247.6177683964
 10
310.0900501661
 20
247.9724490838
 10
312.9381832918
 20
248.2369565524
 10
315.8072322361
 20
248.4104875018
 10
318.6884837919
 20
248.4925149243
 10
321.5731876927
 20
248.4827897051
 10
324.4525831877
 20
248.3813413795
 10
327.3179256473
 20
248.1884780428
 10
330.1605131207
 20
247.9047854144
 10
332.9717127631
 20
247.5311250597
 10
335.7429870537
 20
247.0686317728
 10
338.4659197235
 20
246.5187101307
 10
341.1322413154
 20
245.8830302272
 10
343.7338542985
 20
245.1635226014
 10
346.2628576596
 20
244.3623723743
 10
348.7115708985
 20
243.4820126128
 10
351.0725573538
 20
242.5251169406
 10
353.3386467871
 20
241.4945914183
 10
355.5029571593
 20
240.3935657181
 10
357.5589155309
 20
239.2253836189
 10
359.500278024
 20
237.9935928512
 10
361.3211487843
 20
236.7019343233
 10
363.0159978874
 20
235.3543307595
 10
364.5796781321
 20
233.9548747877
 10
366.007440673
 20
232.5078165095
 10
367.2949494421
 20
231.0175505935
 10
368.4382943177
 20
229.4886029282
 10
369.4340029989
 20
227.9256168775
 10
370.2790515511
 20
226.3333391786
 10
370.9708735897
 20
224.7166055265
 10
371.507368074
 20
223.0803258883
 10
371.8869056877
 20
221.4294695913
 10
372.1083337877
 20
219.769050232
 10
372.170979904
 20
218.1041104493
 10
372.0746537825
 20
216.4397066106
 10
371.8196479625
 20
214.7808934558
 10
371.4067368881
 20
213.1327087457
 10
371.0857900972
 20
212.1568182522
  0
LINE
  5
2F6
330
1F
100
AcDbEntity
  8
0
  6
Continuous
 62
     8
370
    18
100
AcDbLine
 10
277.0152861144
 20
197.9260410472
 30
0.0
 11
276.9568791603
 21
197.972573434
 31
0.0
  0
LWPOLYLINE
  5
2F7
330
1F
100
AcDbEntity
  8
0
  6
Continuous
 62
     8
370
    18
100
AcDbPolyline
 90
       35
 70
   128
 43
0.0
 10
360.8764499935
 20
196.6049643173
 10
359.9244487904
 20
195.9479305904
 10
357.9801385931
 20
194.7135208345
 10
355.9219592351
 20
193.5422478846
 10
353.7560531325
 20
192.4376072795
 10
351.4888842005
 20
191.4028957009
 10
349.1272185621
 20
190.4412011349
 10
346.678104356
 20
189.5553936559
 10
344.1488507014
 20
188.7481168618
 10
341.5470058854
 20
188.0217799836
 10
338.8803348355
 20
187.3785506962
 10
336.1567959462
 20
186.8203486485
 10
333.3845173279
 20
186.3488397349
 10
330.5717725498
 20
185.9654311233
 10
327.7269559477
 20
185.6712670556
 10
324.8585575724
 20
185.467225433
 10
321.9751378522
 20
185.353915196
 10
319.0853020447
 20
185.3316745068
 10
316.1976745557
 20
185.4005697404
 10
313.3208732007
 20
185.5603952864
 10
310.4634834856
 20
185.8106741624
 10
307.6340329843
 20
186.150659438
 10
304.8409658892
 20
186.5793364634
 10
302.0926178102
 20
187.095425898
 10
299.3971908984
 20
187.697387528
 10
296.7627293668
 20
188.3834248633
 10
294.1970954843
 20
189.1514904989
 10
291.7079461106
 20
189.9992922251
 10
289.3027098459
 20
190.9242998682
 10
286.9885648604
 20
191.9237528419
 10
284.7724174724
 20
192.9946683858
 10
282.6608815367
 20
194.1338504669
 10
280.6602587064
 20
195.3378993181
 10
278.7765196264
 20
196.6032215845
 10
277.617969847
 20
197.4563573045
  0
LINE
  5
2F8
330
1F
100
AcDbEntity
  8
0
  6
Continuous
 62
     8
370
    18
100
AcDbLine
 10
277.2278724972
 20
197.758214521
 30
0.0
 11
277.0152861144
 21
197.9260410472
 31
0.0
  0
LWPOLYLINE
  5
2F9
330
1F
100
AcDbEntity
  8
0
  6
Continuous
 62
     8
370
    18
100
AcDbPolyline
 90
       41
 70
   128
 43
0.0
 10
277.6999133131
 20
192.9808520456
 10
279.448724288
 20
191.6680140804
 10
281.3201574679
 20
190.4127844279
 10
283.3085293718
 20
189.2189751791
 10
285.4078013795
 20
188.0902118936
 10
287.6115980709
 20
187.0299225884
 10
289.913226588
 20
186.0413273271
 10
292.3056969605
 20
185.1274284413
 10
294.7817433345
 20
184.2910014116
 10
297.3338460387
 20
183.5345864396
 10
299.954254421
 20
182.8604807326
 10
302.6350103872
 20
182.2707315275
 10
305.3679725695
 20
181.7671298732
 10
308.1448410518
 20
181.3512051915
 10
310.9571825756
 20
181.0242206319
 10
313.7964561521
 20
180.7871692358
 10
316.6540390009
 20
180.6407709205
 10
319.5212527367
 20
180.5854702929
 10
322.3893897257
 20
180.621435299
 10
325.2497395301
 20
180.7485567145
 10
328.0936153615
 20
180.9664484757
 10
330.9123804625
 20
181.2744488525
 10
333.6974743362
 20
181.671622458
 10
336.4404387439
 20
182.1567630888
 10
339.132943393
 20
182.7283973889
 10
341.7668112353
 20
183.3847893237
 10
344.3340433008
 20
184.1239454525
 10
346.8268429899
 20
184.9436209823
 10
349.2376397521
 20
185.8413265855
 10
351.5591120767
 20
186.8143359598
 10
353.7842097287
 20
187.8596941076
 10
355.9061751596
 20
188.9742263106
 10
357.91856403
 20
190.1545477711
 10
359.8152647812
 20
191.3970738917
 10
361.5905171953
 20
192.6980311613
 10
363.2389298891
 20
194.0534686155
 10
364.7554966874
 20
195.4592698353
 10
366.1356118267
 20
196.9111654486
 10
367.3750839426
 20
198.4047460961
 10
368.4701487991
 20
199.9354758225
 10
368.5909285836
 20
200.1202636897
  0
ARC
  5
2FA
330
1F
100
AcDbEntity
  8
0
  6
Continuous
 62
     8
370
    18
100
AcDbCircle
 10
296.3337347024
 20
216.9699252468
 30
0.0
 40
30.37589393945742
100
AcDbArc
 50
213.6933591977
 51
232.161265993
  0
LWPOLYLINE
  5
2FB
330
1F
100
AcDbEntity
  8
0
  6
Continuous
 62
     8
370
    18
100
AcDbPolyline
 90
       12
 70
   128
 43
0.0
 10
358.062834197
 20
142.0980746527
 10
359.497642251
 20
143.4189937372
 10
360.795691377
 20
144.7862468612
 10
361.9525069306
 20
146.1951208198
 10
362.9641011291
 20
147.6407589327
 10
363.8269867977
 20
149.1181777857
 10
364.5381893907
 20
150.6222844101
 10
365.0952572455
 20
152.1478938388
 10
365.4962700337
 20
153.6897469799
 10
365.7398453812
 20
155.2425287464
 10
365.8251436333
 20
156.8008863777
 10
365.8252577257
 20
156.8600308587
  0
LWPOLYLINE
  5
2FC
330
1F
100
AcDbEntity
  8
0
  6
Continuous
 62
     8
370
    18
100
AcDbPolyline
 90
       45
 70
   128
 43
0.0
 10
273.8252577257
 20
156.8600308587
 10
273.8421898441
 20
156.1395840743
 10
273.9946877284
 20
154.5829360547
 10
274.3051730818
 20
153.0341376526
 10
274.772575597
 20
151.4985278969
 10
275.3952840406
 20
149.9814003527
 10
276.1711518078
 20
148.4879848728
 10
277.0975043214
 20
147.0234295698
 10
278.1711482527
 20
145.5927830692
 10
279.3883825283
 20
144.2009771059
 10
280.7450110898
 20
142.8528095233
 10
282.2363573573
 20
141.5529277345
 10
283.8572803514
 20
140.3058127011
 10
285.6021924147
 20
139.1157634871
 10
287.4650784737
 20
137.9868824387
 10
289.4395167745
 20
136.9230610427
 10
291.5187010191
 20
135.9279665118
 10
293.6954638286
 20
135.005029143
 10
295.9623014508
 20
134.1574304926
 10
298.3113996268
 20
133.3880924089
 10
300.7346605285
 20
132.6996669594
 10
303.2237306736
 20
132.0945272894
 10
305.7700297216
 20
131.5747594406
 10
308.3647800522
 20
131.1421551606
 10
310.9990370236
 20
130.7982057259
 10
313.6637198061
 20
130.5440968014
 10
316.3496426863
 20
130.3807043532
 10
319.0475467316
 20
130.308591629
 10
321.7481317078
 20
130.3280072162
 10
324.442088139
 20
130.4388841854
 10
327.1201293993
 20
130.6408403206
 10
329.7730237258
 20
130.9331794372
 10
332.3916260421
 20
131.3148937816
 10
334.9669094835
 20
131.7846675056
 10
337.4899965145
 20
132.3408812017
 10
339.9521895315
 20
132.981617486
 10
342.345000845
 20
133.704667608
 10
344.6601819388
 20
134.507539064
 10
346.8897519039
 20
135.3874641897
 10
349.026024951
 20
136.3414097011
 10
351.0616369041
 20
137.3660871503
 10
352.9895705872
 20
138.4579642618
 10
354.8031800135
 20
139.613277109
 10
356.4962132956
 20
140.8280430894
 10
358.062834197
 20
142.0980746527
  0
SPLINE
  5
2FD
330
1F
100
AcDbEntity
  8
0
  6
Continuous
 62
     8
370
    18
100
AcDbSpline
210
0.0
220
0.0
230
1.0
 70
     8
 71
     3
 72
    25
 73
    21
 74
     0
 42
0.00000001
 43
0.00000001
 40
0.0
 40
0.0
 40
0.0
 40
0.0
 40
0.0538697154106774
 40
0.1077360199819278
 40
0.1644783471473946
 40
0.2212136948566249
 40
0.2800455645202093
 40
0.3388704797941214
 40
0.3988056456136699
 40
0.4587340062662614
 40
0.5186691719329088
 40
0.5785975324364223
 40
0.6374294028910176
 40
0.6962543190298163
 40
0.7529966455375452
 40
0.809731992591498
 40
0.8636034329431492
 40
0.9174679997727913
 40
0.9713394399463899
 40
1.0
 40
1.0
 40
1.0
 40
1.0
 10
346.3189074210189
 20
235.0993430128294
 30
0.0
 10
345.1987563090808
 20
235.5273413128731
 30
0.0
 10
342.9585250092023
 20
236.3833108136253
 30
0.0
 10
339.3047384778054
 20
237.465395485194
 30
0.0
 10
335.4454219097203
 20
238.3845694437707
 30
0.0
 10
331.333794185729
 20
239.1119224267946
 30
0.0
 10
327.0726700548763
 20
239.6233707329395
 30
0.0
 10
322.6668120093433
 20
239.902101479839
 30
0.0
 10
318.2073881559288
 20
239.9377864375775
 30
0.0
 10
313.7355487485246
 20
239.7212146049849
 30
0.0
 10
309.3205837664316
 20
239.257720749612
 30
0.0
 10
305.0310994033277
 20
238.5525170367945
 30
0.0
 10
300.9034333920404
 20
237.6207357470139
 30
0.0
 10
297.0198930867495
 20
236.4861319563085
 30
0.0
 10
293.3796306595498
 20
235.1650449172886
 30
0.0
 10
290.0649182278834
 20
233.6988645953265
 30
0.0
 10
287.0380009392264
 20
232.0983992639306
 30
0.0
 10
284.3282065180187
 20
230.3764238296328
 30
0.0
 10
282.2205624763704
 20
228.8308511188017
 30
0.0
 10
281.1385384635115
 20
227.820567203412
 30
0.0
 10
280.762788280375
 20
227.4697299191039
 30
0.0
  0
LINE
  5
2FE
330
1F
100
AcDbEntity
  8
0
  6
Continuous
 62
     8
370
    18
100
AcDbLine
 10
358.7149896516
 20
227.6265214351
 30
0.0
 11
357.7578096848
 21
228.4958052962
 31
0.0
  0
LINE
  5
2FF
330
1F
100
AcDbEntity
  8
0
  6
Continuous
 62
     8
370
    18
100
AcDbLine
 10
346.318907421
 20
235.0993430128
 30
0.0
 11
346.6464121293
 21
235.0336496727
 31
0.0
  0
ARC
  5
300
330
1F
100
AcDbEntity
  8
0
  6
Continuous
 62
     8
370
    18
100
AcDbCircle
 10
350.2143848255
 20
230.9203250988
 30
0.0
 40
5.71304953020599
100
AcDbArc
 50
132.9888523945
 51
164.5696090741
  0
LWPOLYLINE
  5
301
330
1F
100
AcDbEntity
  8
0
  6
Continuous
 62
     8
370
    18
100
AcDbPolyline
 90
       18
 70
   128
 43
0.0
 10
355.4503250369
 20
226.2385454143
 10
356.8902256366
 20
224.9681867811
 10
358.1943749087
 20
223.6498720912
 10
359.3579963754
 20
222.2884297037
 10
360.3768282454
 20
220.8888459336
 10
361.2471390228
 20
219.4562467899
 10
361.9657411735
 20
217.9958792011
 10
362.5300028001
 20
216.5130917982
 10
362.937857281
 20
215.0133153254
 10
363.1878108393
 20
213.5020427498
 10
363.2789480143
 20
211.984809143
 10
363.2109350138
 20
210.4671714095
 10
362.9840209371
 20
208.9546879334
 10
362.5990368624
 20
207.4528982216
 10
362.057392803
 20
205.9673026146
 10
361.3610725433
 20
204.5033421417
 10
360.5126263727
 20
203.066378593
 10
360.3513338507
 20
202.8219619056
  0
LWPOLYLINE
  5
302
330
1F
100
AcDbEntity
  8
0
  6
Continuous
 62
     8
370
    18
100
AcDbPolyline
 90
       44
 70
   128
 43
0.0
 10
279.2991816007
 20
202.8219619056
 10
279.1828057663
 20
202.9975392606
 10
278.327064014
 20
204.4330603475
 10
277.6233103844
 20
205.8958357673
 10
277.0741223919
 20
207.3805080703
 10
276.6815114506
 20
208.8816396088
 10
276.4469155074
 20
210.3937324527
 10
276.3711937755
 20
211.9112485261
 10
276.4546235876
 20
213.4286298901
 10
276.69689938
 20
214.9403190994
 10
277.0971338119
 20
216.4407795563
 10
277.6538610151
 20
217.9245157885
 10
278.365041963
 20
219.3860935769
 10
279.2280719385
 20
220.820159858
 10
280.2397900736
 20
222.2214623298
 10
281.3964909266
 20
223.5848686887
 10
282.6939380531
 20
224.9053854265
 10
284.1273795222
 20
226.1781761191
 10
285.6915653202
 20
227.3985791403
 10
287.3807665795
 20
228.562124735
 10
289.1887965602
 20
229.6645513897
 10
291.1090333095
 20
230.7018214406
 10
293.1344439145
 20
231.6701358614
 10
295.2576102607
 20
232.5659481775
 10
297.4707562008
 20
233.3859774549
 10
299.765776035
 20
234.127220317
 10
302.1342641986
 20
234.7869619439
 10
304.5675460473
 20
235.3627860164
 10
307.0567096283
 20
235.8525835651
 10
309.5926383208
 20
236.2545606947
 10
312.1660442255
 20
236.5672451545
 10
314.7675021821
 20
236.7894917302
 10
317.3874842888
 20
236.9204864384
 10
320.0163947987
 20
236.9597495078
 10
322.6446052646
 20
236.9071371366
 10
325.2624898029
 20
236.7628420188
 10
327.8604603493
 20
236.5273926387
 10
330.4290017748
 20
236.2016513352
 10
332.9587067352
 20
235.7868111437
 10
335.4403101258
 20
235.2843914263
 10
337.8647230151
 20
234.696232307
 10
340.2230659333
 20
234.0244879328
 10
342.5067013932
 20
233.2716185832
 10
344.7072655255
 20
232.4403816604
  0
ARC
  5
303
330
1F
100
AcDbEntity
  8
0
  6
Continuous
 62
     8
370
    18
100
AcDbCircle
 10
359.5832157461
 20
224.32173995
 30
0.0
 40
4.555757763870668
100
AcDbArc
 50
113.6207646338
 51
155.118463382
  0
LWPOLYLINE
  5
304
330
1F
100
AcDbEntity
  8
0
  6
Continuous
 62
     8
370
    18
100
AcDbPolyline
 90
       29
 70
   128
 43
0.0
 10
292.5549447306
 20
184.8616653095
 10
293.2487478602
 20
184.3528227689
 10
294.7829997502
 20
183.3374027815
 10
296.4334288672
 20
182.3846303326
 10
298.1923784623
 20
181.4989255693
 10
300.0516883334
 20
180.6843974949
 10
302.0027326823
 20
179.9448249065
 10
304.0364601319
 20
179.2836388644
 10
306.1434357176
 20
178.703906774
 10
308.3138846586
 20
178.2083181558
 10
310.5377377058
 20
177.799172168
 10
312.8046778548
 20
177.47836694
 10
315.1041882098
 20
177.2473907666
 10
317.4256007737
 20
177.1073152033
 10
319.7581459396
 20
177.0587900954
 10
322.0910024536
 20
177.1020405627
 10
324.4133476175
 20
177.2368659558
 10
326.714407498
 20
177.4626407862
 10
328.9835069092
 20
177.7783176287
 10
331.2101189379
 20
178.1824319804
 10
333.3839137803
 20
178.6731090548
 10
335.4948066646
 20
179.2480724797
 10
337.5330046368
 20
179.9046548576
 10
339.4890519925
 20
180.6398101404
 10
341.3538741444
 20
181.4501277611
 10
343.1188197213
 20
182.3318484559
 10
344.7757007044
 20
183.2808817043
 10
346.316830413
 20
184.2928247065
 10
347.1551821615
 20
184.9070240667
  0
SPLINE
  5
305
330
1F
100
AcDbEntity
  8
0
  6
Continuous
 62
     8
370
    18
100
AcDbSpline
210
0.0
220
0.0
230
1.0
 70
     8
 71
     3
 72
     8
 73
     4
 74
     0
 42
0.00000001
 43
0.00000001
 40
0.0
 40
0.0
 40
0.0
 40
0.0
 40
0.534007842378915
 40
0.534007842378915
 40
0.534007842378915
 40
0.534007842378915
 10
344.7072655255122
 20
232.4403816604122
 30
0.0
 10
343.3270881782381
 20
231.792945414465
 30
0.0
 10
342.1167044013769
 20
230.6261362121064
 30
0.0
 10
341.0824247996377
 20
229.311696347338
 30
0.0
  0
SPLINE
  5
306
330
1F
100
AcDbEntity
  8
0
  6
Continuous
 62
     8
370
    18
100
AcDbSpline
210
0.0
220
0.0
230
1.0
 70
     8
 71
     3
 72
     9
 73
     5
 74
     0
 42
0.00000001
 43
0.00000001
 40
0.0
 40
0.0
 40
0.0
 40
0.0
 40
1.02812719458296
 40
1.79922259052019
 40
1.79922259052019
 40
1.79922259052019
 40
1.79922259052019
 10
341.0824247996376
 20
229.3116963473379
 30
0.0
 10
339.0911226108661
 20
226.7810006096273
 30
0.0
 10
335.5253407340663
 20
222.4038827833859
 30
0.0
 10
331.72122519404
 20
218.2072513634493
 30
0.0
 10
330.0237062246907
 20
216.4722363687463
 30
0.0
  0
SPLINE
  5
307
330
1F
100
AcDbEntity
  8
0
  6
Continuous
 62
     8
370
    18
100
AcDbSpline
210
0.0
220
0.0
230
1.0
 70
     8
 71
     3
 72
     9
 73
     5
 74
     0
 42
0.00000001
 43
0.00000001
 40
0.0
 40
0.0
 40
0.0
 40
0.0
 40
0.102991576943205
 40
0.180235259650608
 40
0.180235259650608
 40
0.180235259650608
 40
0.180235259650608
 10
330.0237062246907
 20
216.4722363687463
 30
0.0
 10
329.7969766183859
 20
216.2404985950985
 30
0.0
 10
329.3469285630529
 20
215.887183923212
 30
0.0
 10
328.7978345883906
 20
215.7960668537588
 30
0.0
 10
328.5688726722459
 20
215.8321681298091
 30
0.0
  0
LWPOLYLINE
  5
308
330
1F
100
AcDbEntity
  8
0
  6
Continuous
 62
     8
370
    18
100
AcDbPolyline
 90
       28
 70
   128
 43
0.0
 10
328.5688726722
 20
215.8321681298
 10
326.3402318733
 20
216.1362804654
 10
324.0805661998
 20
216.3509383071
 10
321.8006363766
 20
216.4751194357
 10
319.5112996281
 20
216.5082324897
 10
317.2234579755
 20
216.4501197819
 10
314.9480063199
 20
216.3010580501
 10
312.6957805605
 20
216.0617571393
 10
310.4775059925
 20
215.7333566212
 10
308.3037462328
 20
215.3174203677
 10
306.1848529146
 20
214.8159291035
 10
304.1309163925
 20
214.2312709737
 10
302.1517176913
 20
213.5662301712
 10
300.2566819276
 20
212.8239736783
 10
298.4548334267
 20
212.0080361851
 10
296.7547527484
 20
211.122303257
 10
295.1645358248
 20
210.1709928313
 10
293.6917554075
 20
209.1586351313
 10
292.3434250052
 20
208.0900510925
 10
291.1259654847
 20
206.9703294051
 10
290.0451744943
 20
205.8048022815
 10
289.106198855
 20
204.5990200632
 10
288.3135100505
 20
203.3587247904
 10
287.6708829339
 20
202.0898228572
 10
287.1813777516
 20
200.798356885
 10
286.8473255699
 20
199.4904769475
 10
286.6703171744
 20
198.1724112828
 10
286.6456625643
 20
196.9927099874
  0
ARC
  5
309
330
1F
100
AcDbEntity
  8
0
  6
Continuous
 62
     8
370
    18
100
AcDbCircle
 10
341.3423997032
 20
197.304936608
 30
0.0
 40
11.66663189309543
100
AcDbArc
 50
358.4664465354
 51
25.8901479615
  0
SPLINE
  5
30A
330
1F
100
AcDbEntity
  8
0
  6
Continuous
 62
     8
370
    18
100
AcDbSpline
210
0.0
220
0.0
230
1.0
 70
     8
 71
     3
 72
     9
 73
     5
 74
     0
 42
0.00000001
 43
0.00000001
 40
0.0
 40
0.0
 40
0.0
 40
0.0
 40
0.0772375188617349
 40
0.180220877344048
 40
0.180220877344048
 40
0.180220877344048
 40
0.180220877344048
 10
351.8380852824735
 20
202.3991376200186
 30
0.0
 10
351.7755542524405
 20
202.5313039733705
 30
0.0
 10
351.7123735085651
 20
202.9758566108259
 30
0.0
 10
351.7975667599956
 20
203.539857184331
 30
0.0
 10
351.8674244888579
 20
203.862126228584
 30
0.0
  0
SPLINE
  5
30B
330
1F
100
AcDbEntity
  8
0
  6
Continuous
 62
     8
370
    18
100
AcDbSpline
210
0.0
220
0.0
230
1.0
 70
     8
 71
     3
 72
     9
 73
     5
 74
     0
 42
0.00000001
 43
0.00000001
 40
0.0000000000000002
 40
0.0000000000000002
 40
0.0000000000000002
 40
0.0000000000000002
 40
1.02812719458297
 40
1.79922259052019
 40
1.79922259052019
 40
1.79922259052019
 40
1.79922259052019
 10
351.8674244888579
 20
203.862126228584
 30
0.0
 10
352.5648442647681
 20
207.0794768107729
 30
0.0
 10
353.7227567993274
 20
212.81976438107
 30
0.0
 10
354.8050161112384
 20
218.6296254884259
 30
0.0
 10
355.2582934158588
 20
221.1281415870545
 30
0.0
  0
SPLINE
  5
30C
330
1F
100
AcDbEntity
  8
0
  6
Continuous
 62
     8
370
    18
100
AcDbSpline
210
0.0
220
0.0
230
1.0
 70
     8
 71
     3
 72
     8
 73
     4
 74
     0
 42
0.00000001
 43
0.00000001
 40
0.0
 40
0.0
 40
0.0
 40
0.0
 40
0.534007917536861
 40
0.534007917536861
 40
0.534007917536861
 40
0.534007917536861
 10
355.2582934158587
 20
221.1281415870545
 30
0.0
 10
355.5722022665435
 20
222.8584429035854
 30
0.0
 10
355.7210985905617
 20
224.6380352967095
 30
0.0
 10
355.4503250368531
 20
226.2385454143113
 30
0.0
  0
LWPOLYLINE
  5
30D
330
1F
100
AcDbEntity
  8
0
  6
Continuous
 62
     8
370
    18
100
AcDbPolyline
 90
       31
 70
   128
 43
0.0
 10
348.3385288188
 20
185.3332625916
 10
347.5168258326
 20
184.6361930313
 10
346.109686546
 20
183.5744027482
 10
344.5806072948
 20
182.5703723674
 10
342.9366818557
 20
181.6287598342
 10
341.1855368053
 20
180.7539335219
 10
339.3352961385
 20
179.9499519662
 10
337.3945435793
 20
179.2205450362
 10
335.3722827587
 20
178.5690966311
 10
333.2778954446
 20
177.9986289811
 10
331.1210980178
 20
177.5117886267
 10
328.9118963947
 20
177.1108341406
 10
326.660539608
 20
176.79762565
 10
324.3774722585
 20
176.5736162063
 10
322.0732860601
 20
176.4398450448
 10
319.7586707025
 20
176.3969327631
 10
317.4443642585
 20
176.4450784418
 10
315.141103368
 20
176.5840587211
 10
312.8595734278
 20
176.8132288372
 10
310.6103590195
 20
177.1315256133
 10
308.4038948049
 20
177.537472392
 10
306.2504171169
 20
178.0291858856
 10
304.1599164712
 20
178.6043849138
 10
302.1420912172
 20
179.2604009861
 10
300.2063025451
 20
179.9941906816
 10
298.3615310572
 20
180.8023497685
 10
296.6163351046
 20
181.681128997
 10
294.978811083
 20
182.626451493
 10
293.456555871
 20
183.6339316716
 10
292.0566315872
 20
184.6988955831
 10
291.3191654753
 20
185.3268848527
  0
ARC
  5
30E
330
1F
100
AcDbEntity
  8
0
  6
Continuous
 62
     8
370
    18
100
AcDbCircle
 10
340.9057565269
 20
195.9287469979
 30
0.0
 40
11.6742104519449
100
AcDbArc
 50
3.9097120794
 51
25.7798555019
  0
LWPOLYLINE
  5
30F
330
1F
100
AcDbEntity
  8
0
  6
Continuous
 62
     8
370
    18
100
AcDbPolyline
 90
       27
 70
   128
 43
0.0
 10
287.0977174494
 20
196.7247460904
 10
287.2045153274
 20
197.7027550429
 10
287.4874143803
 20
199.0146926446
 10
287.9284413025
 20
200.3120094583
 10
288.5254395293
 20
201.5883617727
 10
289.2754898167
 20
202.8375083902
 10
290.1749245159
 20
204.0533411454
 10
291.2193455075
 20
205.2299147735
 10
292.403645708
 20
206.3614759818
 10
293.7220340429
 20
207.4424915824
 10
295.1680637636
 20
208.4676755487
 10
296.7346639719
 20
209.432014864
 10
298.4141741957
 20
210.3307940338
 10
300.1983818472
 20
211.1596181442
 10
302.0785623819
 20
211.9144343526
 10
304.0455219603
 20
212.5915517055
 10
306.0896424046
 20
213.1876591864
 10
308.2009282304
 20
213.6998419072
 10
310.3690555231
 20
214.1255953604
 10
312.5834224209
 20
214.4628376668
 10
314.8332009562
 20
214.7099197553
 10
317.107390003
 20
214.8656334262
 10
319.3948690714
 20
214.92921726
 10
321.6844526846
 20
214.90036034
 10
323.964945075
 20
214.7792037726
 10
326.22519493
 20
214.566339998
 10
328.4541499202
 20
214.2628098923
  0
SPLINE
  5
310
330
1F
100
AcDbEntity
  8
0
  6
Continuous
 62
     8
370
    18
100
AcDbSpline
210
0.0
220
0.0
230
1.0
 70
     8
 71
     3
 72
     8
 73
     4
 74
     0
 42
0.00000001
 43
0.00000001
 40
0.0
 40
0.0
 40
0.0
 40
0.0
 40
1.0
 40
1.0
 40
1.0
 40
1.0
 10
351.8380852824735
 20
202.3991376200187
 30
0.0
 10
351.5629257540289
 20
201.9523425010317
 30
0.0
 10
351.4180530989249
 20
201.4718481562156
 30
0.0
 10
351.4180530989249
 20
201.0060307656511
 30
0.0
  0
SPLINE
  5
311
330
1F
100
AcDbEntity
  8
0
  6
Continuous
 62
     8
370
    18
100
AcDbSpline
210
0.0
220
0.0
230
1.0
 70
     8
 71
     3
 72
     8
 73
     4
 74
     0
 42
0.00000001
 43
0.00000001
 40
0.0
 40
0.0
 40
0.0
 40
0.0
 40
1.0
 40
1.0
 40
1.0
 40
1.0
 10
328.4541499201991
 20
214.2628098922517
 30
0.0
 10
328.4541499201991
 20
214.7286272828162
 30
0.0
 10
328.4937187683512
 20
215.2699122214214
 30
0.0
 10
328.5688726722458
 20
215.8321681298091
 30
0.0
  0
SPLINE
  5
312
330
1F
100
AcDbEntity
  8
0
  6
Continuous
 62
     8
370
    18
100
AcDbSpline
210
0.0
220
0.0
230
1.0
 70
     8
 71
     3
 72
    12
 73
     8
 74
     0
 42
0.00000001
 43
0.00000001
 40
-0.822043127861726
 40
-0.822043127861726
 40
-0.822043127861726
 40
-0.822043127861726
 40
-0.8206122607487863
 40
-0.8206122607487863
 40
-0.6562036351764414
 40
-0.4917950096040954
 40
0.0014308671129396
 40
0.0014308671129396
 40
0.0014308671129396
 40
0.0014308671129396
 10
328.4541499201991
 20
196.3476247245826
 30
0.0
 10
328.4561548618783
 20
196.3438899371336
 30
0.0
 10
328.4581649160023
 20
196.3401579680414
 30
0.0
 10
328.6919647837304
 20
195.9075786326785
 30
0.0
 10
329.3113152416241
 20
195.0998021850567
 30
0.0
 10
331.2398220911505
 20
193.405350593764
 30
0.0
 10
333.0674227211765
 20
192.4549292112794
 30
0.0
 10
334.4005192003488
 20
191.9426168530496
 30
0.0
  0
SPLINE
  5
313
330
1F
100
AcDbEntity
  8
0
  6
Continuous
 62
     8
370
    18
100
AcDbSpline
210
0.0
220
0.0
230
1.0
 70
     8
 71
     3
 72
    11
 73
     7
 74
     0
 42
0.00000001
 43
0.00000001
 40
0.0
 40
0.0
 40
0.0
 40
0.0
 40
0.2463971144749628
 40
0.4950772530807341
 40
0.7462200726820898
 40
1.0
 40
1.0
 40
1.0
 40
1.0
 10
334.4005192003488
 20
191.9426168530496
 30
0.0
 10
334.4829330995228
 20
191.9113960687064
 30
0.0
 10
334.6485245144453
 20
191.8486652198302
 30
0.0
 10
334.8974734584835
 20
191.760318105158
 30
0.0
 10
335.1482206866103
 20
191.6752135549227
 30
0.0
 10
335.3153498812728
 20
191.6222461037896
 30
0.0
 10
335.3993509193186
 20
191.5956240591683
 30
0.0
  0
LWPOLYLINE
  5
314
330
1F
100
AcDbEntity
  8
0
  6
Continuous
 62
     8
370
    18
100
AcDbPolyline
 90
        3
 70
   128
 43
0.0
 10
335.3993509193
 20
191.5956240592
 10
337.4440487953
 20
190.901146747
 10
337.5190583924
 20
190.8734282932
  0
LINE
  5
315
330
1F
100
AcDbEntity
  8
0
  6
Continuous
 62
     8
370
    18
100
AcDbLine
 10
351.4180530989
 20
196.0840129498
 30
0.0
 11
351.4180530989
 21
201.0060307657
 31
0.0
  0
LINE
  5
316
330
1F
100
AcDbEntity
  8
0
  6
Continuous
 62
     8
370
    18
100
AcDbLine
 10
328.4541499202
 20
214.2628098923
 30
0.0
 11
328.4541499202
 21
211.7608082088
 31
0.0
  0
LINE
  5
317
330
1F
100
AcDbEntity
  8
0
  6
Continuous
 62
     8
370
    18
100
AcDbLine
 10
328.4541499202
 20
205.9874619033
 30
0.0
 11
328.4541499202
 21
196.3476247246
 31
0.0
  0
SPLINE
  5
318
330
1F
100
AcDbEntity
  8
0
  6
Continuous
 62
     8
370
    18
100
AcDbSpline
210
0.0
220
0.0
230
1.0
 70
     8
 71
     3
 72
     8
 73
     4
 74
     0
 42
0.00000001
 43
0.00000001
 40
0.0
 40
0.0
 40
0.0
 40
0.0
 40
1.0
 40
1.0
 40
1.0
 40
1.0
 10
354.5325988790634
 20
221.1227434606063
 30
0.0
 10
354.3304354595077
 20
221.1994344903947
 30
0.0
 10
354.6073136622333
 20
221.2014940670805
 30
0.0
 10
355.2582934158587
 20
221.1281415870545
 30
0.0
  0
SPLINE
  5
319
330
1F
100
AcDbEntity
  8
0
  6
Continuous
 62
     8
370
    18
100
AcDbSpline
210
0.0
220
0.0
230
1.0
 70
     8
 71
     3
 72
     8
 73
     4
 74
     0
 42
0.00000001
 43
0.00000001
 40
0.0
 40
0.0
 40
0.0
 40
0.0
 40
1.0
 40
1.0
 40
1.0
 40
1.0
 10
351.8674244888579
 20
203.862126228584
 30
0.0
 10
351.4328585869625
 20
203.8171290963943
 30
0.0
 10
351.2658720411742
 20
203.6898599444361
 30
0.0
 10
351.4101761069923
 20
203.5136333992989
 30
0.0
  0
SPLINE
  5
31A
330
1F
100
AcDbEntity
  8
0
  6
Continuous
 62
     8
370
    18
100
AcDbSpline
210
0.0
220
0.0
230
1.0
 70
     8
 71
     3
 72
    11
 73
     7
 74
     0
 42
0.00000001
 43
0.00000001
 40
0.0
 40
0.0
 40
0.0
 40
0.0
 40
0.3164642485328947
 40
0.6390571296334192
 40
0.9699795799444602
 40
1.0
 40
1.0
 40
1.0
 40
1.0
 10
351.4180530989249
 20
201.0060307656511
 30
0.0
 10
351.3705553068818
 20
201.1204822844057
 30
0.0
 10
351.2746398826666
 20
201.3516017849387
 30
0.0
 10
351.2151767480484
 20
201.7674707451651
 30
0.0
 10
351.1720433481456
 20
202.0659129234382
 30
0.0
 10
351.2033697183788
 20
202.2490999341089
 30
0.0
 10
351.2059752021559
 20
202.2643360045803
 30
0.0
  0
SPLINE
  5
31B
330
1F
100
AcDbEntity
  8
0
  6
Continuous
 62
     8
370
    18
100
AcDbSpline
210
0.0
220
0.0
230
1.0
 70
     8
 71
     3
 72
     9
 73
     5
 74
     0
 42
0.00000001
 43
0.00000001
 40
0.0
 40
0.0
 40
0.0
 40
0.0
 40
0.2408980137038656
 40
1.0
 40
1.0
 40
1.0
 40
1.0
 10
354.6822782290267
 20
223.6935547093452
 30
0.0
 10
354.6863013918774
 20
223.8338398310303
 30
0.0
 10
354.7030020810558
 20
224.4161822070768
 30
0.0
 10
354.6351440035164
 20
224.997706861629
 30
0.0
 10
354.5836328020699
 20
225.4391433819797
 30
0.0
  0
SPLINE
  5
31C
330
1F
100
AcDbEntity
  8
0
  6
Continuous
 62
     8
370
    18
100
AcDbSpline
210
0.0
220
0.0
230
1.0
 70
     8
 71
     3
 72
    16
 73
    12
 74
     0
 42
0.00000001
 43
0.00000001
 40
0.0
 40
0.0
 40
0.0
 40
0.0
 40
0.076538251797045
 40
0.1557373540965382
 40
0.2376561823340927
 40
0.3223383143612598
 40
0.4098123690562414
 40
0.5000922798826875
 40
0.649140722808993
 40
0.8157590651228249
 40
1.0
 40
1.0
 40
1.0
 40
1.0
 10
354.5836328020698
 20
225.4391433819797
 30
0.0
 10
354.5907148580532
 20
225.4588877915922
 30
0.0
 10
354.6051251775277
 20
225.4990630247474
 30
0.0
 10
354.6373150171356
 20
225.5614564208828
 30
0.0
 10
354.6785227731789
 20
225.6267478958937
 30
0.0
 10
354.7302625567026
 20
225.694975159678
 30
0.0
 10
354.7931035098266
 20
225.7659565454204
 30
0.0
 10
354.8831831842791
 20
225.8546699408399
 30
0.0
 10
355.0150228825115
 20
225.9643235675038
 30
0.0
 10
355.20519110348
 20
226.0989285042185
 30
0.0
 10
355.3659227061565
 20
226.1904737644408
 30
0.0
 10
355.4503250368531
 20
226.2385454143113
 30
0.0
  0
ARC
  5
31D
330
1F
100
AcDbEntity
  8
0
  6
Continuous
 62
     8
370
    18
100
AcDbCircle
 10
357.9987749651
 20
225.0691401345
 30
0.0
 40
3.435127129623115
100
AcDbArc
 50
94.0224541536
 51
173.8165804362
  0
ARC
  5
31E
330
1F
100
AcDbEntity
  8
0
  6
Continuous
 62
     8
370
    18
100
AcDbCircle
 10
352.205055173
 20
224.421861717
 30
0.0
 40
2.586985412323394
100
AcDbArc
 50
23.1556628441
 51
57.0320509539
  0
ARC
  5
31F
330
1F
100
AcDbEntity
  8
0
  6
Continuous
 62
     8
370
    18
100
AcDbCircle
 10
358.2740656503
 20
226.3026053453
 30
0.0
 40
4.670243297762354
100
AcDbArc
 50
124.4125329461
 51
176.4439357777
  0
LINE
  5
320
330
1F
100
AcDbEntity
  8
0
  6
Continuous
 62
     8
370
    18
100
AcDbLine
 10
353.6128145125
 20
216.073207916
 30
0.0
 11
353.6128145125
 21
226.5922780746
 31
0.0
  0
ARC
  5
321
330
1F
100
AcDbEntity
  8
0
  6
Continuous
 62
     8
370
    18
100
AcDbCircle
 10
330.0898338155
 20
192.7668953593
 30
0.0
 40
41.20057204353599
100
AcDbArc
 50
55.1843243313
 51
64.8210522014
  0
ARC
  5
322
330
1F
100
AcDbEntity
  8
0
  6
Continuous
 62
     8
370
    18
100
AcDbCircle
 10
353.2318523602
 20
229.8269143542
 30
0.0
 40
5.617907193617171
100
AcDbArc
 50
134.0729148246
 51
177.696330024
  0
ARC
  5
323
330
1F
100
AcDbEntity
  8
0
  6
Continuous
 62
     8
370
    18
100
AcDbCircle
 10
329.1784927432
 20
167.576867814
 30
0.0
 40
43.1573364364688
100
AcDbArc
 50
58.8189067008
 51
64.5679121174
  0
SPLINE
  5
324
330
1F
100
AcDbEntity
  8
0
  6
Continuous
 62
     8
370
    18
100
AcDbSpline
210
0.0
220
0.0
230
1.0
 70
     8
 71
     3
 72
     8
 73
     4
 74
     0
 42
0.00000001
 43
0.00000001
 40
0.000000000000028
 40
0.000000000000028
 40
0.000000000000028
 40
0.000000000000028
 40
0.0573117771438574
 40
0.0573117771438574
 40
0.0573117771438574
 40
0.0573117771438574
 10
347.7120211342385
 20
206.5520395732674
 30
0.0
 10
347.6448946962055
 20
206.7266172658168
 30
0.0
 10
347.6184854328065
 20
206.8967134951933
 30
0.0
 10
347.6184854328033
 20
207.0527048453269
 30
0.0
  0
LINE
  5
325
330
1F
100
AcDbEntity
  8
0
  6
Continuous
 62
     8
370
    18
100
AcDbLine
 10
347.6184854328
 20
230.0527305945
 30
0.0
 11
347.6184854328
 21
222.8241436105
 31
0.0
  0
LINE
  5
326
330
1F
100
AcDbEntity
  8
0
  6
Continuous
 62
     8
370
    18
100
AcDbLine
 10
347.6184854328
 20
217.050797305
 30
0.0
 11
347.6184854328
 21
207.0527048453
 31
0.0
  0
SPLINE
  5
327
330
1F
100
AcDbEntity
  8
0
  6
Continuous
 62
     8
370
    18
100
AcDbSpline
210
0.0
220
0.0
230
1.0
 70
     8
 71
     3
 72
     8
 73
     4
 74
     0
 42
0.00000001
 43
0.00000001
 40
0.0
 40
0.0
 40
0.0
 40
0.0
 40
1.0
 40
1.0
 40
1.0
 40
1.0
 10
330.0237062246907
 20
216.4722363687463
 30
0.0
 10
330.5610159006876
 20
215.8661874077633
 30
0.0
 10
331.1799539983424
 20
215.2852136165203
 30
0.0
 10
331.7185041037148
 20
214.88139367721
 30
0.0
  0
SPLINE
  5
328
330
1F
100
AcDbEntity
  8
0
  6
Continuous
 62
     8
370
    18
100
AcDbSpline
210
0.0
220
0.0
230
1.0
 70
     8
 71
     3
 72
     8
 73
     4
 74
     0
 42
0.00000001
 43
0.00000001
 40
0.0
 40
0.0
 40
0.0
 40
0.0
 40
1.0
 40
1.0
 40
1.0
 40
1.0
 10
343.3715445317938
 20
227.5658829892042
 30
0.0
 10
342.6170603785796
 20
227.9614219916635
 30
0.0
 10
341.7436800165582
 20
228.627511703499
 30
0.0
 10
341.0824247996377
 20
229.311696347338
 30
0.0
  0
SPLINE
  5
329
330
1F
100
AcDbEntity
  8
0
  6
Continuous
 62
     8
370
    18
100
AcDbSpline
210
0.0
220
0.0
230
1.0
 70
     8
 71
     3
 72
     9
 73
     5
 74
     0
 42
0.00000001
 43
0.00000001
 40
0.0
 40
0.0
 40
0.0
 40
0.0
 40
0.77109539593723
 40
1.79922259052019
 40
1.79922259052019
 40
1.79922259052019
 40
1.79922259052019
 10
331.7185041037148
 20
214.88139367721
 30
0.0
 10
333.5323866900953
 20
216.5950279799564
 30
0.0
 10
337.5672361471901
 20
220.7384547498688
 30
0.0
 10
341.2986614877328
 20
225.0634410986718
 30
0.0
 10
343.3715445317939
 20
227.565882989204
 30
0.0
  0
LINE
  5
32A
330
1F
100
AcDbEntity
  8
0
  6
Continuous
 62
     8
370
    18
100
AcDbLine
 10
343.3715445318
 20
227.5658829892
 30
0.0
 11
343.3715445318
 21
220.3724368144
 31
0.0
  0
LINE
  5
32B
330
1F
100
AcDbEntity
  8
0
  6
Continuous
 62
     8
370
    18
100
AcDbLine
 10
343.3715445318
 20
214.599090509
 30
0.0
 11
343.3715445319
 21
207.5836850579
 31
0.0
  0
SPLINE
  5
32C
330
1F
100
AcDbEntity
  8
0
  6
Continuous
 62
     8
370
    18
100
AcDbSpline
210
0.0
220
0.0
230
1.0
 70
     8
 71
     3
 72
     8
 73
     4
 74
     0
 42
0.00000001
 43
0.00000001
 40
2.15136723707416
 40
2.15136723707416
 40
2.15136723707416
 40
2.15136723707416
 40
3.66992238196508
 40
3.66992238196508
 40
3.66992238196508
 40
3.66992238196508
 10
343.3715445317933
 20
207.5836850579578
 30
0.0
 10
339.6085111869976
 20
204.3636306648219
 30
0.0
 10
335.7674437141946
 20
201.203041597701
 30
0.0
 10
331.7185041037234
 20
198.2598043406317
 30
0.0
  0
LINE
  5
32D
330
1F
100
AcDbEntity
  8
0
  6
Continuous
 62
     8
370
    18
100
AcDbLine
 10
331.7185041037
 20
198.2598043406
 30
0.0
 11
331.7185041037
 21
207.8719334614
 31
0.0
  0
LINE
  5
32E
330
1F
100
AcDbEntity
  8
0
  6
Continuous
 62
     8
370
    18
100
AcDbLine
 10
331.7185041037
 20
213.6452797669
 30
0.0
 11
331.7185041037
 21
214.8813936772
 31
0.0
  0
ARC
  5
32F
330
1F
100
AcDbEntity
  8
0
  6
Continuous
 62
     8
370
    18
100
AcDbCircle
 10
344.8482575039
 20
224.019124307
 30
0.0
 40
6.639169195795807
100
AcDbArc
 50
65.3385817753
 51
83.3162760507
  0
ARC
  5
330
330
1F
100
AcDbEntity
  8
0
  6
Continuous
 62
     8
370
    18
100
AcDbCircle
 10
360.4686519648
 20
230.6006525925
 30
0.0
 40
14.84767611959296
100
AcDbArc
 50
162.3627499277
 51
179.951688537
  0
SPLINE
  5
331
330
1F
100
AcDbEntity
  8
0
  6
Continuous
 62
     8
370
    18
100
AcDbSpline
210
0.0
220
0.0
230
1.0
 70
     8
 71
     3
 72
    17
 73
    13
 74
     0
 42
0.00000001
 43
0.00000001
 40
0.0
 40
0.0
 40
0.0
 40
0.0
 40
0.0811424854420619
 40
0.1590598069191554
 40
0.2337374769309533
 40
0.3051711003602949
 40
0.3733655517855803
 40
0.4383342282215991
 40
0.5000984028931357
 40
0.6777678918637009
 40
0.8443060744640406
 40
1.0
 40
1.0
 40
1.0
 40
1.0
 10
344.7072655255122
 20
232.4403816604122
 30
0.0
 10
344.7248192209244
 20
232.3873484892499
 30
0.0
 10
344.7592289064028
 20
232.2833900521938
 30
0.0
 10
344.8148335853529
 20
232.131012437007
 30
0.0
 10
344.8714439175737
 20
231.9857345320064
 30
0.0
 10
344.9288743117349
 20
231.8477955949413
 30
0.0
 10
344.9865006174043
 20
231.7173225648654
 30
0.0
 10
345.0438404463499
 20
231.5943457626277
 30
0.0
 10
345.13665774554
 20
231.4045245769217
 30
0.0
 10
345.2684789020942
 20
231.157825348522
 30
0.0
 10
345.4429185240436
 20
230.8681733541632
 30
0.0
 10
345.5629736847125
 20
230.6962438136428
 30
0.0
 10
345.6209811233674
 20
230.6131720637975
 30
0.0
  0
SPLINE
  5
332
330
1F
100
AcDbEntity
  8
0
  6
Continuous
 62
     8
370
    18
100
AcDbSpline
210
0.0
220
0.0
230
1.0
 70
     8
 71
     3
 72
    18
 73
    14
 74
     0
 42
0.00000001
 43
0.00000001
 40
0.0
 40
0.0
 40
0.0
 40
0.0
 40
0.0956790666277876
 40
0.1877108685826252
 40
0.2761125316775397
 40
0.3609033814223057
 40
0.442105321469424
 40
0.5197432931562957
 40
0.6261134328311896
 40
0.7271973524952905
 40
0.8231115270676818
 40
0.9139923106371243
 40
1.0
 40
1.0
 40
1.0
 40
1.0
 10
343.3715445317937
 20
227.5658829892042
 30
0.0
 10
343.4298329013066
 20
227.6766407584899
 30
0.0
 10
343.5441877006913
 20
227.8939342356072
 30
0.0
 10
343.7200398171028
 20
228.2072479165312
 30
0.0
 10
343.8945472662843
 20
228.5033077685661
 30
0.0
 10
344.0679350140501
 20
228.7818259095839
 30
0.0
 10
344.2398136923
 20
229.043025956916
 30
0.0
 10
344.4335121018096
 20
229.3208166570373
 30
0.0
 10
344.6507943806443
 20
229.6101134524469
 30
0.0
 10
344.8937321978218
 20
229.9047869807609
 30
0.0
 10
345.1360097891313
 20
230.1696854208488
 30
0.0
 10
345.3758810225566
 20
230.4068374137379
 30
0.0
 10
345.540795497418
 20
230.5456687334629
 30
0.0
 10
345.6209811233674
 20
230.6131720637975
 30
0.0
  0
SPLINE
  5
333
330
1F
100
AcDbEntity
  8
0
  6
Continuous
 62
     8
370
    18
100
AcDbSpline
210
0.0
220
0.0
230
1.0
 70
     8
 71
     3
 72
     9
 73
     5
 74
     0
 42
0.00000001
 43
0.00000001
 40
0.0
 40
0.0
 40
0.0
 40
0.0
 40
0.428571428571429
 40
1.0
 40
1.0
 40
1.0
 40
1.0
 10
347.6184854328033
 20
207.0527048453269
 30
0.0
 10
347.1205510433444
 20
207.2891588271565
 30
0.0
 10
345.7614266803727
 20
207.7028499453916
 30
0.0
 10
344.2019226666421
 20
207.712131083487
 30
0.0
 10
343.3715445318531
 20
207.5836850578782
 30
0.0
  0
ARC
  5
334
330
1F
100
AcDbEntity
  8
0
  6
Continuous
 62
     8
370
    18
100
AcDbCircle
 10
323.7687992247
 20
154.8476803789
 30
0.0
 40
40.93198901920896
100
AcDbArc
 50
64.7726375439
 51
72.8303212968
  0
SPLINE
  5
335
330
1F
100
AcDbEntity
  8
0
  6
Continuous
 62
     8
370
    18
100
AcDbSpline
210
0.0
220
0.0
230
1.0
 70
     8
 71
     3
 72
     8
 73
     4
 74
     0
 42
0.00000001
 43
0.00000001
 40
2.239066642457651
 40
2.239066642457651
 40
2.239066642457651
 40
2.239066642457651
 40
3.603096426460965
 40
3.603096426460965
 40
3.603096426460965
 40
3.603096426460965
 10
335.8520887889048
 20
193.9554812704402
 30
0.0
 10
339.8217922956864
 20
196.5077565636173
 30
0.0
 10
343.5004912757284
 20
199.2381763654072
 30
0.0
 10
347.0601696052661
 20
202.0390873242188
 30
0.0
  0
ARC
  5
336
330
1F
100
AcDbEntity
  8
0
  6
Continuous
 62
     8
370
    18
100
AcDbCircle
 10
329.4925569256
 20
166.1418367754
 30
0.0
 40
39.96541189383886
100
AcDbArc
 50
57.106035782
 51
63.9237101156
  0
SPLINE
  5
337
330
1F
100
AcDbEntity
  8
0
  6
Continuous
 62
     8
370
    18
100
AcDbSpline
210
0.0
220
0.0
230
1.0
 70
     8
 71
     3
 72
    19
 73
    15
 74
     0
 42
0.00000001
 43
0.00000001
 40
0.0
 40
0.0
 40
0.0
 40
0.0
 40
0.0706816065621141
 40
0.1400628109407084
 40
0.2081809072899441
 40
0.2750753024307357
 40
0.3407876047901544
 40
0.4053617079420584
 40
0.468843866521734
 40
0.5781723523895315
 40
0.6856975009330798
 40
0.7916686034037466
 40
0.8963460547334159
 40
1.0
 40
1.0
 40
1.0
 40
1.0
 10
331.7185041037148
 20
214.88139367721
 30
0.0
 10
331.647199958314
 20
214.8442935426662
 30
0.0
 10
331.5059035231831
 20
214.7707758428962
 30
0.0
 10
331.2910405771394
 20
214.6716988081735
 30
0.0
 10
331.0769441892945
 20
214.5821172135289
 30
0.0
 10
330.8635508458784
 20
214.5026329521116
 30
0.0
 10
330.6512346429763
 20
214.4329750151083
 30
0.0
 10
330.4402427698225
 20
214.3730701319225
 30
0.0
 10
330.1792793997753
 20
214.3105182938022
 30
0.0
 10
329.8678497655926
 20
214.2541315879375
 30
0.0
 10
329.5065546106056
 20
214.2150553559039
 30
0.0
 10
329.1498350729836
 20
214.2034227132047
 30
0.0
 10
328.7983496175753
 20
214.21641913658
 30
0.0
 10
328.5685067562593
 20
214.24739703721
 30
0.0
 10
328.4541499201991
 20
214.2628098922517
 30
0.0
  0
SPLINE
  5
338
330
1F
100
AcDbEntity
  8
0
  6
Continuous
 62
     8
370
    18
100
AcDbSpline
210
0.0
220
0.0
230
1.0
 70
     8
 71
     3
 72
    23
 73
    19
 74
     0
 42
0.00000001
 43
0.00000001
 40
0.0
 40
0.0
 40
0.0
 40
0.0
 40
0.0335882556290653
 40
0.0675041260884731
 40
0.1018941769873682
 40
0.1368990182448663
 40
0.1726520069416524
 40
0.2092783290137329
 40
0.2468944520810772
 40
0.2856079114828167
 40
0.3255173732813986
 40
0.3667129109165734
 40
0.4092764337814812
 40
0.4532822131034997
 40
0.5779935620862447
 40
0.7154640071742547
 40
0.8502904408885966
 40
1.0
 40
1.0
 40
1.0
 40
1.0
 10
328.4541499201991
 20
196.3476247245826
 30
0.0
 10
328.4995145453244
 20
196.3414060452683
 30
0.0
 10
328.5906862753548
 20
196.3289080305701
 30
0.0
 10
328.7286863031102
 20
196.3222543833545
 30
0.0
 10
328.8680371685084
 20
196.3243926320651
 30
0.0
 10
329.0087495649871
 20
196.3362464721977
 30
0.0
 10
329.1507344514877
 20
196.3576022708426
 30
0.0
 10
329.2939292360655
 20
196.3885572073142
 30
0.0
 10
329.4382628162664
 20
196.4291221152891
 30
0.0
 10
329.583664997898
 20
196.4793313301714
 30
0.0
 10
329.7300627889539
 20
196.539213519478
 30
0.0
 10
329.8773834989251
 20
196.6087956912297
 30
0.0
 10
330.0255437231215
 20
196.6881183701456
 30
0.0
 10
330.2637969703986
 20
196.8305593952366
 30
0.0
 10
330.5900749262211
 20
197.0660416388397
 30
0.0
 10
330.9779518794051
 20
197.4136574257058
 30
0.0
 10
331.3597273534992
 20
197.8150540890297
 30
0.0
 10
331.5948130057794
 20
198.1064732039392
 30
0.0
 10
331.7185041037202
 20
198.2598043406312
 30
0.0
  0
SPLINE
  5
339
330
1F
100
AcDbEntity
  8
0
  6
Continuous
 62
     8
370
    18
100
AcDbSpline
210
0.0
220
0.0
230
1.0
 70
     8
 71
     3
 72
    16
 73
    12
 74
     0
 42
0.00000001
 43
0.00000001
 40
0.0
 40
0.0
 40
0.0
 40
0.0
 40
0.1072706050175232
 40
0.2154828584149172
 40
0.3246463326670626
 40
0.4347685797076427
 40
0.5458559803732305
 40
0.6579146941674473
 40
0.7709517163612923
 40
0.8849760499340137
 40
1.0
 40
1.0
 40
1.0
 40
1.0
 10
344.5960356105579
 20
205.991258609646
 30
0.0
 10
344.5481788699449
 20
206.0521893673171
 30
0.0
 10
344.4520452902004
 20
206.1745857481914
 30
0.0
 10
344.3101386167684
 20
206.3563766889986
 30
0.0
 10
344.1694420088619
 20
206.5374378099732
 30
0.0
 10
344.0304243526026
 20
206.7172548602828
 30
0.0
 10
343.8933274766046
 20
206.8955019057302
 30
0.0
 10
343.7584373281666
 20
207.0718211438449
 30
0.0
 10
343.6261732801618
 20
207.2457056712224
 30
0.0
 10
343.4964506593014
 20
207.417198073775
 30
0.0
 10
343.413300868882
 20
207.5280281676906
 30
0.0
 10
343.3715445317933
 20
207.5836850579578
 30
0.0
  0
SPLINE
  5
33A
330
1F
100
AcDbEntity
  8
0
  6
Continuous
 62
     8
370
    18
100
AcDbSpline
210
0.0
220
0.0
230
1.0
 70
     8
 71
     3
 72
    24
 73
    20
 74
     0
 42
0.00000001
 43
0.00000001
 40
0.0
 40
0.0
 40
0.0
 40
0.0
 40
0.0529220180243734
 40
0.1036525830107237
 40
0.1521963493886614
 40
0.1985544192924183
 40
0.2427256453110794
 40
0.2847075857318567
 40
0.3244971818990257
 40
0.3620912178581583
 40
0.3974866133852279
 40
0.4306805930923782
 40
0.4616707666956426
 40
0.4904551487791386
 40
0.6003072499066092
 40
0.7061756330503877
 40
0.8080611508557527
 40
0.9059943601385183
 40
1.0
 40
1.0
 40
1.0
 40
1.0
 10
347.0601724157159
 20
202.0390826306993
 30
0.0
 10
347.0276002696769
 20
202.1074793497649
 30
0.0
 10
346.9638047607908
 20
202.2414405414439
 30
0.0
 10
346.8642927999894
 20
202.4411614495142
 30
0.0
 10
346.7654647249527
 20
202.6338802178207
 30
0.0
 10
346.6675961167351
 20
202.8193375779453
 30
0.0
 10
346.5714211930226
 20
202.9970552909395
 30
0.0
 10
346.477473420134
 20
203.1666981462691
 30
0.0
 10
346.3862573259009
 20
203.32797457894
 30
0.0
 10
346.298212082339
 20
203.4806528058483
 30
0.0
 10
346.2137270032993
 20
203.6245493988836
 30
0.0
 10
346.1331426864548
 20
203.7595223130687
 30
0.0
 10
346.0567593158069
 20
203.885472694109
 30
0.0
 10
345.9154626639614
 20
204.1149907291926
 30
0.0
 10
345.7055257330285
 20
204.4447274765332
 30
0.0
 10
345.4225609530384
 20
204.867677084545
 30
0.0
 10
345.1423318934677
 20
205.266751554606
 30
0.0
 10
344.867570275076
 20
205.6414837294268
 30
0.0
 10
344.685303950617
 20
205.8762684185889
 30
0.0
 10
344.5960356105579
 20
205.991258609646
 30
0.0
  0
SPLINE
  5
33B
330
1F
100
AcDbEntity
  8
0
  6
Continuous
 62
     8
370
    18
100
AcDbSpline
210
0.0
220
0.0
230
1.0
 70
     8
 71
     3
 72
    10
 73
     6
 74
     0
 42
0.00000001
 43
0.00000001
 40
0.0
 40
0.0
 40
0.0
 40
0.0
 40
0.3214013408828634
 40
0.654693316714298
 40
0.9999999999999999
 40
0.9999999999999999
 40
0.9999999999999999
 40
0.9999999999999999
 10
334.951224329938
 20
194.0643751858247
 30
0.0
 10
335.0483725313127
 20
194.0500983827559
 30
0.0
 10
335.2462630503632
 20
194.0210165888606
 30
0.0
 10
335.5467875760638
 20
193.9847434078047
 30
0.0
 10
335.7491275630538
 20
193.9653497721276
 30
0.0
 10
335.8520887889049
 20
193.9554812704403
 30
0.0
  0
SPLINE
  5
33C
330
1F
100
AcDbEntity
  8
0
  6
Continuous
 62
     8
370
    18
100
AcDbSpline
210
0.0
220
0.0
230
1.0
 70
     8
 71
     3
 72
     9
 73
     5
 74
     0
 42
0.00000001
 43
0.00000001
 40
0.0981890504804714
 40
0.0981890504804714
 40
0.0981890504804714
 40
0.0981890504804714
 40
0.613509593063059
 40
1.0
 40
1.0
 40
1.0
 40
1.0
 10
334.9514009607786
 20
194.0642886910785
 30
0.0
 10
334.3843758148709
 20
194.9174150557822
 30
0.0
 10
333.2547938816743
 20
196.4767567631679
 30
0.0
 10
332.1504068449798
 20
197.7872483714012
 30
0.0
 10
331.7185041037194
 20
198.2598043406314
 30
0.0
  0
SPLINE
  5
33D
330
1F
100
AcDbEntity
  8
0
  6
Continuous
 62
     8
370
    18
100
AcDbSpline
210
0.0
220
0.0
230
1.0
 70
     8
 71
     3
 72
     8
 73
     4
 74
     0
 42
0.00000001
 43
0.00000001
 40
0.0
 40
0.0
 40
0.0
 40
0.0
 40
0.9999999999999999
 40
0.9999999999999999
 40
0.9999999999999999
 40
0.9999999999999999
 10
335.8520234515297
 20
193.9555238038669
 30
0.0
 10
335.5621902996069
 20
193.1483485041721
 30
0.0
 10
335.3993509193189
 20
192.2994244263367
 30
0.0
 10
335.3993509193189
 20
191.5956240591682
 30
0.0
  0
SPLINE
  5
33E
330
1F
100
AcDbEntity
  8
0
  6
Continuous
 62
     8
370
    18
100
AcDbSpline
210
0.0
220
0.0
230
1.0
 70
     8
 71
     3
 72
    12
 73
     8
 74
     0
 42
0.00000001
 43
0.00000001
 40
-0.116794664643656
 40
-0.116794664643656
 40
-0.116794664643656
 40
-0.116794664643656
 40
-0.116192170614889
 40
-0.116192170614889
 40
-0.0464768682459556
 40
-0.0232384341229778
 40
0.0
 40
0.0
 40
0.0
 40
0.0
 10
347.0600535498646
 20
202.0391515802819
 30
0.0
 10
347.0627970279571
 20
202.0466108156977
 30
0.0
 10
347.0655310469223
 20
202.0540656729696
 30
0.0
 10
347.3843405921966
 20
202.9271122484979
 30
0.0
 10
347.6751869302347
 20
204.1647339614195
 30
0.0
 10
347.7628693837821
 20
205.6824976041254
 30
0.0
 10
347.7392391579306
 20
206.2701025246369
 30
0.0
 10
347.7120211342385
 20
206.5520395732637
 30
0.0
  0
SPLINE
  5
33F
330
1F
100
AcDbEntity
  8
0
  6
Continuous
 62
     8
370
    18
100
AcDbSpline
210
0.0
220
0.0
230
1.0
 70
     8
 71
     3
 72
     8
 73
     4
 74
     0
 42
0.00000001
 43
0.00000001
 40
0.0
 40
0.0
 40
0.0
 40
0.0
 40
1.0
 40
1.0
 40
1.0
 40
1.0
 10
347.7120211342386
 20
206.5520395732636
 30
0.0
 10
346.8700417732882
 20
206.557136956961
 30
0.0
 10
345.7316515041506
 20
206.352256212857
 30
0.0
 10
344.5960365203991
 20
205.9912431016076
 30
0.0
  0
SPLINE
  5
340
330
1F
100
AcDbEntity
  8
0
  6
Continuous
 62
     8
370
    18
100
AcDbSpline
210
0.0
220
0.0
230
1.0
 70
     8
 71
     3
 72
    19
 73
    15
 74
     0
 42
0.00000001
 43
0.00000001
 40
0.0
 40
0.0
 40
0.0
 40
0.0
 40
0.0459785764895136
 40
0.0966186210530912
 40
0.1530894852917634
 40
0.2149403632759739
 40
0.2865047810833207
 40
0.3905963533994374
 40
0.5336351125750386
 40
0.6090083077632568
 40
0.7698348971096188
 40
0.8440175703918991
 40
0.9207420070776522
 40
1.0
 40
1.0
 40
1.0
 40
1.0
 10
328.4541499201985
 20
196.3476247245827
 30
0.0
 10
328.5444547510248
 20
196.2906778569849
 30
0.0
 10
328.7342198306562
 20
196.1710106501967
 30
0.0
 10
329.0416974320047
 20
195.9929966282213
 30
0.0
 10
329.3866303191307
 20
195.8060673032257
 30
0.0
 10
329.7809671146429
 20
195.6075388117386
 30
0.0
 10
330.2829081960269
 20
195.3749985927525
 30
0.0
 10
330.968409710263
 20
195.0860674266401
 30
0.0
 10
331.6784555235418
 20
194.8326901352776
 30
0.0
 10
332.5210703162592
 20
194.5685940916854
 30
0.0
 10
333.2178069349929
 20
194.3883658678391
 30
0.0
 10
333.9159549211109
 20
194.2391380865995
 30
0.0
 10
334.4302695491912
 20
194.1430934544825
 30
0.0
 10
334.7758196160126
 20
194.0908398565327
 30
0.0
 10
334.9514009607786
 20
194.0642886910785
 30
0.0
  0
SPLINE
  5
341
330
1F
100
AcDbEntity
  8
0
  6
Continuous
 62
     8
370
    18
100
AcDbSpline
210
0.0
220
0.0
230
1.0
 70
     8
 71
     3
 72
     8
 73
     4
 74
     0
 42
0.00000001
 43
0.00000001
 40
0.0
 40
0.0
 40
0.0
 40
0.0
 40
1.0
 40
1.0
 40
1.0
 40
1.0
 10
334.9514009607781
 20
194.0642886910783
 30
0.0
 10
334.6684581194846
 20
193.3315271218386
 30
0.0
 10
334.468584882378
 20
192.5617332226644
 30
0.0
 10
334.4005192003488
 20
191.9426168530496
 30
0.0
  0
ENDSEC
  0
SECTION
  2
OBJECTS
  0
DICTIONARY
  5
C
330
0
100
AcDbDictionary
281
     1
  3
ACAD_GROUP
350
D
  3
ACAD_LAYOUT
350
1A
  3
ACAD_MLINESTYLE
350
17
  3
ACAD_PLOTSETTINGS
350
19
  3
ACAD_PLOTSTYLENAME
350
E
  3
ACAD_SCALELIST
350
47
  3
DWGPROPS
350
342
  0
DICTIONARY
  5
D
102
{ACAD_REACTORS
330
C
102
}
330
C
100
AcDbDictionary
281
     1
  0
DICTIONARY
  5
1A
102
{ACAD_REACTORS
330
C
102
}
330
C
100
AcDbDictionary
281
     1
  3
Layout1
350
1E
  3
Layout2
350
26
  3
Model
350
22
  0
DICTIONARY
  5
17
102
{ACAD_REACTORS
330
C
102
}
330
C
100
AcDbDictionary
281
     1
  3
Standard
350
18
  0
DICTIONARY
  5
19
102
{ACAD_REACTORS
330
C
102
}
330
C
100
AcDbDictionary
281
     1
  0
ACDBDICTIONARYWDFLT
  5
E
102
{ACAD_REACTORS
330
C
102
}
330
C
100
AcDbDictionary
281
     1
  3
Normal
350
F
100
AcDbDictionaryWithDefault
340
F
  0
DICTIONARY
  5
47
102
{ACAD_REACTORS
330
C
102
}
330
C
100
AcDbDictionary
281
     1
  3
A0
350
48
  3
A1
350
49
  3
A2
350
4A
  3
A3
350
4B
  3
A4
350
4C
  3
A5
350
4D
  3
A6
350
4E
  3
A7
350
4F
  3
A8
350
50
  3
A9
350
51
  3
B0
350
52
  3
B1
350
53
  3
B2
350
54
  3
B3
350
55
  3
B4
350
56
  3
B5
350
57
  3
B6
350
58
  0
XRECORD
  5
342
102
{ACAD_REACTORS
330
C
102
}
330
C
100
AcDbXrecord
280
     1
  1
DWGPROPS COOKIE
  2

  3

  4

  6

  7

  8
CH-NTL-RS-WSCAD
  9

300
=
301
=
302
=
303
=
304
=
305
=
306
=
307
=
308
=
309
=
 40
0.0
 41
2460824.209665648
 42
2460824.209670509
  1

 90
        0
  0
LAYOUT
  5
1E
102
{ACAD_REACTORS
330
1A
102
}
330
1A
100
AcDbPlotSettings
  1

  2
none_device
  4

  6

 40
0.0
 41
0.0
 42
0.0
 43
0.0
 44
0.0
 45
0.0
 46
0.0
 47
0.0
 48
0.0
 49
0.0
140
0.0
141
0.0
142
1.0
143
1.0
 70
   688
 72
     1
 73
     0
 74
     5
  7

 75
    16
147
1.0
148
0.0
149
0.0
100
AcDbLayout
  1
Layout1
 70
     1
 71
     1
 10
0.0
 20
0.0
 11
420.0
 21
297.0
 12
0.0
 22
0.0
 32
0.0
 14
1.0000000000E+20
 24
1.0000000000E+20
 34
1.0000000000E+20
 15
-1.0000000000E+20
 25
-1.0000000000E+20
 35
-1.0000000000E+20
146
0.0
 13
0.0
 23
0.0
 33
0.0
 16
1.0
 26
0.0
 36
0.0
 17
0.0
 27
1.0
 37
0.0
 76
     0
330
1B
  0
LAYOUT
  5
26
102
{ACAD_REACTORS
330
1A
102
}
330
1A
100
AcDbPlotSettings
  1

  2
none_device
  4

  6

 40
0.0
 41
0.0
 42
0.0
 43
0.0
 44
0.0
 45
0.0
 46
0.0
 47
0.0
 48
0.0
 49
0.0
140
0.0
141
0.0
142
1.0
143
1.0
 70
   688
 72
     1
 73
     0
 74
     5
  7

 75
    16
147
1.0
148
0.0
149
0.0
100
AcDbLayout
  1
Layout2
 70
     1
 71
     2
 10
0.0
 20
0.0
 11
0.0
 21
0.0
 12
0.0
 22
0.0
 32
0.0
 14
0.0
 24
0.0
 34
0.0
 15
0.0
 25
0.0
 35
0.0
146
0.0
 13
0.0
 23
0.0
 33
0.0
 16
1.0
 26
0.0
 36
0.0
 17
0.0
 27
1.0
 37
0.0
 76
     0
330
23
  0
LAYOUT
  5
22
102
{ACAD_REACTORS
330
1A
102
}
330
1A
100
AcDbPlotSettings
  1

  2
none_device
  4
Letter_(8.50_x_11.00_Inches)
  6

 40
6.35
 41
6.35
 42
6.35000508
 43
6.35000508
 44
215.9
 45
279.4
 46
0.0
 47
0.0
 48
0.0
 49
0.0
140
0.0
141
0.0
142
1.0
143
1.0
 70
  1712
 72
     1
 73
     0
 74
     0
  7

 75
     0
147
1.0
148
0.0
149
0.0
100
AcDbLayout
  1
Model
 70
     1
 71
     0
 10
0.0
 20
0.0
 11
420.0
 21
297.0
 12
0.0
 22
0.0
 32
0.0
 14
0.0
 24
0.0
 34
0.0
 15
420.0
 25
297.0
 35
0.0
146
0.0
 13
0.0
 23
0.0
 33
0.0
 16
1.0
 26
0.0
 36
0.0
 17
0.0
 27
1.0
 37
0.0
 76
     0
330
1F
331
29
  0
MLINESTYLE
  5
18
102
{ACAD_REACTORS
330
17
102
}
330
17
100
AcDbMlineStyle
  2
Standard
 70
     0
  3

 62
   256
 51
90.0
 52
90.0
 71
     2
 49
0.5
 62
   256
  6
BYLAYER
 49
-0.5
 62
   256
  6
BYLAYER
  0
ACDBPLACEHOLDER
  5
F
102
{ACAD_REACTORS
330
E
102
}
330
E
  0
SCALE
  5
48
102
{ACAD_REACTORS
330
47
102
}
330
47
100
AcDbScale
 70
     0
300
1:1
140
1.0
141
1.0
290
     1
  0
SCALE
  5
49
102
{ACAD_REACTORS
330
47
102
}
330
47
100
AcDbScale
 70
     0
300
1:2
140
1.0
141
2.0
290
     0
  0
SCALE
  5
4A
102
{ACAD_REACTORS
330
47
102
}
330
47
100
AcDbScale
 70
     0
300
1:4
140
1.0
141
4.0
290
     0
  0
SCALE
  5
4B
102
{ACAD_REACTORS
330
47
102
}
330
47
100
AcDbScale
 70
     0
300
1:5
140
1.0
141
5.0
290
     0
  0
SCALE
  5
4C
102
{ACAD_REACTORS
330
47
102
}
330
47
100
AcDbScale
 70
     0
300
1:8
140
1.0
141
8.0
290
     0
  0
SCALE
  5
4D
102
{ACAD_REACTORS
330
47
102
}
330
47
100
AcDbScale
 70
     0
300
1:10
140
1.0
141
10.0
290
     0
  0
SCALE
  5
4E
102
{ACAD_REACTORS
330
47
102
}
330
47
100
AcDbScale
 70
     0
300
1:16
140
1.0
141
16.0
290
     0
  0
SCALE
  5
4F
102
{ACAD_REACTORS
330
47
102
}
330
47
100
AcDbScale
 70
     0
300
1:20
140
1.0
141
20.0
290
     0
  0
SCALE
  5
50
102
{ACAD_REACTORS
330
47
102
}
330
47
100
AcDbScale
 70
     0
300
1:30
140
1.0
141
30.0
290
     0
  0
SCALE
  5
51
102
{ACAD_REACTORS
330
47
102
}
330
47
100
AcDbScale
 70
     0
300
1:40
140
1.0
141
40.0
290
     0
  0
SCALE
  5
52
102
{ACAD_REACTORS
330
47
102
}
330
47
100
AcDbScale
 70
     0
300
1:50
140
1.0
141
50.0
290
     0
  0
SCALE
  5
53
102
{ACAD_REACTORS
330
47
102
}
330
47
100
AcDbScale
 70
     0
300
1:100
140
1.0
141
100.0
290
     0
  0
SCALE
  5
54
102
{ACAD_REACTORS
330
47
102
}
330
47
100
AcDbScale
 70
     0
300
2:1
140
2.0
141
1.0
290
     0
  0
SCALE
  5
55
102
{ACAD_REACTORS
330
47
102
}
330
47
100
AcDbScale
 70
     0
300
4:1
140
4.0
141
1.0
290
     0
  0
SCALE
  5
56
102
{ACAD_REACTORS
330
47
102
}
330
47
100
AcDbScale
 70
     0
300
8:1
140
8.0
141
1.0
290
     0
  0
SCALE
  5
57
102
{ACAD_REACTORS
330
47
102
}
330
47
100
AcDbScale
 70
     0
300
10:1
140
10.0
141
1.0
290
     0
  0
SCALE
  5
58
102
{ACAD_REACTORS
330
47
102
}
330
47
100
AcDbScale
 70
     0
300
100:1
140
100.0
141
1.0
290
     0
  0
ENDSEC
  0
EOF
