  0
SECTION
  2
HEADER
  9
$ACADVER
  1
AC1015
  9
$ACADMAINTVER
 70
     6
  9
$DWGCODEPAGE
  3
ANSI_1252
  9
$INSBASE
 10
0.0
 20
0.0
 30
0.0
  9
$EXTMIN
 10
0.0
 20
0.0
 30
0.0
  9
$EXTMAX
 10
420.0
 20
297.0
 30
0.0
  9
$LIMMIN
 10
0.0
 20
0.0
  9
$LIMMAX
 10
420.0
 20
297.0
  9
$ORTHOMODE
 70
     0
  9
$REGENMODE
 70
     1
  9
$FILLMODE
 70
     1
  9
$QTEXTMODE
 70
     0
  9
$MIRRTEXT
 70
     1
  9
$LTSCALE
 40
1.0
  9
$ATTMODE
 70
     1
  9
$TEXTSIZE
 40
3.5
  9
$TRACEWID
 40
1.0
  9
$TEXTSTYLE
  7
Standard
  9
$CLAYER
  8
0
  9
$CELTYPE
  6
ByLayer
  9
$CECOLOR
 62
   256
  9
$CELTSCALE
 40
1.0
  9
$DISPSILH
 70
     0
  9
$DIMSCALE
 40
1.0
  9
$DIMASZ
 40
3.5
  9
$DIMEXO
 40
0.1
  9
$DIMDLI
 40
3.75
  9
$DIMRND
 40
0.0
  9
$DIMDLE
 40
0.0
  9
$DIMEXE
 40
1.0
  9
$DIMTP
 40
0.0
  9
$DIMTM
 40
0.0
  9
$DIMTXT
 40
3.5
  9
$DIMCEN
 40
2.5
  9
$DIMTSZ
 40
0.0
  9
$DIMTOL
 70
     0
  9
$DIMLIM
 70
     0
  9
$DIMTIH
 70
     1
  9
$DIMTOH
 70
     1
  9
$DIMSE1
 70
     0
  9
$DIMSE2
 70
     0
  9
$DIMTAD
 70
     1
  9
$DIMZIN
 70
     0
  9
$DIMBLK
  1

  9
$DIMASO
 70
     1
  9
$DIMSHO
 70
     1
  9
$DIMPOST
  1

  9
$DIMAPOST
  1

  9
$DIMALT
 70
     0
  9
$DIMALTD
 70
     3
  9
$DIMALTF
 40
0.0393700787
  9
$DIMLFAC
 40
1.0
  9
$DIMTOFL
 70
     1
  9
$DIMTVP
 40
0.0
  9
$DIMTIX
 70
     0
  9
$DIMSOXD
 70
     0
  9
$DIMSAH
 70
     0
  9
$DIMBLK1
  1

  9
$DIMBLK2
  1

  9
$DIMSTYLE
  2
ISO-25
  9
$DIMCLRD
 70
     0
  9
$DIMCLRE
 70
     0
  9
$DIMCLRT
 70
     0
  9
$DIMTFAC
 40
1.0
  9
$DIMGAP
 40
2.0
  9
$DIMJUST
 70
     0
  9
$DIMSD1
 70
     0
  9
$DIMSD2
 70
     0
  9
$DIMTOLJ
 70
     0
  9
$DIMTZIN
 70
     0
  9
$DIMALTZ
 70
     0
  9
$DIMALTTZ
 70
     0
  9
$DIMUPT
 70
     0
  9
$DIMDEC
 70
     2
  9
$DIMTDEC
 70
     3
  9
$DIMALTU
 70
     2
  9
$DIMALTTD
 70
     3
  9
$DIMTXSTY
  7
Standard
  9
$DIMAUNIT
 70
     0
  9
$DIMADEC
 70
     2
  9
$DIMALTRND
 40
0.0
  9
$DIMAZIN
 70
     0
  9
$DIMDSEP
 70
    44
  9
$DIMATFIT
 70
     3
  9
$DIMFRAC
 70
     0
  9
$DIMLDRBLK
  1

  9
$DIMLUNIT
 70
     2
  9
$DIMLWD
 70
    -2
  9
$DIMLWE
 70
    -2
  9
$DIMTMOVE
 70
     0
  9
$LUNITS
 70
     2
  9
$LUPREC
 70
     2
  9
$SKETCHINC
 40
1.0
  9
$FILLETRAD
 40
10.0
  9
$AUNITS
 70
     0
  9
$AUPREC
 70
     2
  9
$MENU
  1
.
  9
$ELEVATION
 40
0.0
  9
$PELEVATION
 40
0.0
  9
$THICKNESS
 40
0.0
  9
$LIMCHECK
 70
     0
  9
$CHAMFERA
 40
0.0
  9
$CHAMFERB
 40
0.0
  9
$CHAMFERC
 40
0.0
  9
$CHAMFERD
 40
0.0
  9
$SKPOLY
 70
     0
  9
$TDCREATE
 40
2460569.802831736
  9
$TDUCREATE
 40
2460569.719498403
  9
$TDUPDATE
 40
2460569.802840903
  9
$TDUUPDATE
 40
2460569.719507569
  9
$TDINDWG
 40
0.0000000116
  9
$TDUSRTIMER
 40
0.0000000116
  9
$USRTIMER
 70
     1
  9
$ANGBASE
 50
0.0
  9
$ANGDIR
 70
     0
  9
$PDMODE
 70
     0
  9
$PDSIZE
 40
-1.0
  9
$PLINEWID
 40
0.0
  9
$SPLFRAME
 70
     0
  9
$SPLINETYPE
 70
     6
  9
$SPLINESEGS
 70
     8
  9
$HANDSEED
  5
323
  9
$SURFTAB1
 70
     6
  9
$SURFTAB2
 70
     6
  9
$SURFTYPE
 70
     6
  9
$SURFU
 70
     6
  9
$SURFV
 70
     6
  9
$UCSBASE
  2

  9
$UCSNAME
  2

  9
$UCSORG
 10
0.0
 20
0.0
 30
0.0
  9
$UCSXDIR
 10
1.0
 20
0.0
 30
0.0
  9
$UCSYDIR
 10
0.0
 20
1.0
 30
0.0
  9
$UCSORTHOREF
  2

  9
$UCSORTHOVIEW
 70
     0
  9
$UCSORGTOP
 10
0.0
 20
0.0
 30
0.0
  9
$UCSORGBOTTOM
 10
0.0
 20
0.0
 30
0.0
  9
$UCSORGLEFT
 10
0.0
 20
0.0
 30
0.0
  9
$UCSORGRIGHT
 10
0.0
 20
0.0
 30
0.0
  9
$UCSORGFRONT
 10
0.0
 20
0.0
 30
0.0
  9
$UCSORGBACK
 10
0.0
 20
0.0
 30
0.0
  9
$PUCSBASE
  2

  9
$PUCSNAME
  2

  9
$PUCSORG
 10
0.0
 20
0.0
 30
0.0
  9
$PUCSXDIR
 10
1.0
 20
0.0
 30
0.0
  9
$PUCSYDIR
 10
0.0
 20
1.0
 30
0.0
  9
$PUCSORTHOREF
  2

  9
$PUCSORTHOVIEW
 70
     0
  9
$PUCSORGTOP
 10
0.0
 20
0.0
 30
0.0
  9
$PUCSORGBOTTOM
 10
0.0
 20
0.0
 30
0.0
  9
$PUCSORGLEFT
 10
0.0
 20
0.0
 30
0.0
  9
$PUCSORGRIGHT
 10
0.0
 20
0.0
 30
0.0
  9
$PUCSORGFRONT
 10
0.0
 20
0.0
 30
0.0
  9
$PUCSORGBACK
 10
0.0
 20
0.0
 30
0.0
  9
$USERI1
 70
     0
  9
$USERI2
 70
     0
  9
$USERI3
 70
     0
  9
$USERI4
 70
     0
  9
$USERI5
 70
     0
  9
$USERR1
 40
0.0
  9
$USERR2
 40
0.0
  9
$USERR3
 40
0.0
  9
$USERR4
 40
0.0
  9
$USERR5
 40
0.0
  9
$WORLDVIEW
 70
     1
  9
$SHADEDGE
 70
     3
  9
$SHADEDIF
 70
    70
  9
$TILEMODE
 70
     1
  9
$MAXACTVP
 70
    64
  9
$PINSBASE
 10
0.0
 20
0.0
 30
0.0
  9
$PLIMCHECK
 70
     0
  9
$PEXTMIN
 10
1.0000000000E+20
 20
1.0000000000E+20
 30
1.0000000000E+20
  9
$PEXTMAX
 10
-1.0000000000E+20
 20
-1.0000000000E+20
 30
-1.0000000000E+20
  9
$PLIMMIN
 10
0.0
 20
0.0
  9
$PLIMMAX
 10
420.0
 20
297.0
  9
$UNITMODE
 70
     0
  9
$VISRETAIN
 70
     1
  9
$PLINEGEN
 70
     0
  9
$PSLTSCALE
 70
     1
  9
$TREEDEPTH
 70
  3020
  9
$CMLSTYLE
  2
Standard
  9
$CMLJUST
 70
     0
  9
$CMLSCALE
 40
20.0
  9
$PROXYGRAPHICS
 70
     1
  9
$MEASUREMENT
 70
     1
  9
$CELWEIGHT
370
    -1
  9
$ENDCAPS
280
     0
  9
$JOINSTYLE
280
     0
  9
$LWDISPLAY
290
     1
  9
$INSUNITS
 70
     4
  9
$HYPERLINKBASE
  1

  9
$STYLESHEET
  1

  9
$XEDIT
290
     1
  9
$CEPSNTYPE
380
     0
  9
$PSTYLEMODE
290
     1
  9
$FINGERPRINTGUID
  2
{bba45b57-8899-414b-80bf-7cb5f0e48ce0}
  9
$VERSIONGUID
  2
{FAEB1C32-E019-11D5-929B-00C0DF256EC4}
  9
$EXTNAMES
290
     1
  9
$PSVPSCALE
 40
0.0
  9
$OLESTARTUP
290
     0
  0
ENDSEC
  0
SECTION
  2
CLASSES
  0
CLASS
  1
ACDBDICTIONARYWDFLT
  2
AcDbDictionaryWithDefault
  3
ObjectDBX Classes
 90
        0
280
     0
281
     0
  0
CLASS
  1
VISUALSTYLE
  2
AcDbVisualStyle
  3
ObjectDBX Classes
 90
     4095
280
     0
281
     0
  0
CLASS
  1
MATERIAL
  2
AcDbMaterial
  3
ObjectDBX Classes
 90
     1153
280
     0
281
     0
  0
CLASS
  1
SCALE
  2
AcDbScale
  3
ObjectDBX Classes
 90
     1153
280
     0
281
     0
  0
CLASS
  1
TABLESTYLE
  2
AcDbTableStyle
  3
ObjectDBX Classes
 90
     4095
280
     0
281
     0
  0
CLASS
  1
MLEADERSTYLE
  2
AcDbMLeaderStyle
  3
ACDB_MLEADERSTYLE_CLASS
 90
     4095
280
     0
281
     0
  0
CLASS
  1
SUN
  2
AcDbSun
  3
SCENEOE
 90
     1153
280
     0
281
     0
  0
CLASS
  1
ACDBPLACEHOLDER
  2
AcDbPlaceHolder
  3
ObjectDBX Classes
 90
        0
280
     0
281
     0
  0
CLASS
  1
LAYOUT
  2
AcDbLayout
  3
ObjectDBX Classes
 90
        0
280
     0
281
     0
  0
ENDSEC
  0
SECTION
  2
TABLES
  0
TABLE
  2
VPORT
  5
8
330
0
100
AcDbSymbolTable
 70
     1
  0
VPORT
  5
29
330
8
100
AcDbSymbolTableRecord
100
AcDbViewportTableRecord
  2
*Active
 70
     0
 10
0.0
 20
0.0
 11
1.0
 21
1.0
 12
210.0
 22
148.5
 13
0.0
 23
0.0
 14
10.0
 24
10.0
 15
10.0
 25
10.0
 16
0.0
 26
0.0
 36
1.0
 17
0.0
 27
0.0
 37
0.0
 40
297.0
 41
1.4141414141
 42
50.0
 43
0.0
 44
0.0
 50
0.0
 51
0.0
 71
     0
 72
  2000
 73
     1
 74
     3
 75
     0
 76
     0
 77
     0
 78
     0
281
     0
 65
     1
110
0.0
120
0.0
130
0.0
111
1.0
121
0.0
131
0.0
112
0.0
122
1.0
132
0.0
 79
     0
146
0.0
  0
ENDTAB
  0
TABLE
  2
LTYPE
  5
5
330
0
100
AcDbSymbolTable
 70
     6
  0
LTYPE
  5
14
330
5
100
AcDbSymbolTableRecord
100
AcDbLinetypeTableRecord
  2
ByBlock
 70
     0
  3

 72
    65
 73
     0
 40
0.0
  0
LTYPE
  5
15
330
5
100
AcDbSymbolTableRecord
100
AcDbLinetypeTableRecord
  2
ByLayer
 70
     0
  3

 72
    65
 73
     0
 40
0.0
  0
LTYPE
  5
16
330
5
100
AcDbSymbolTableRecord
100
AcDbLinetypeTableRecord
  2
Continuous
 70
     0
  3
Solid line
 72
    65
 73
     0
 40
0.0
  0
LTYPE
  5
6E
330
5
100
AcDbSymbolTableRecord
100
AcDbLinetypeTableRecord
  2
HIDDEN
 70
     0
  3
Hidden __ __ __ __ __ __ __ __ __ __ __ __ __ __
 72
    65
 73
     2
 40
1.905
 49
1.27
 74
     0
 49
-0.635
 74
     0
  0
LTYPE
  5
6F
330
5
100
AcDbSymbolTableRecord
100
AcDbLinetypeTableRecord
  2
PHANTOM
 70
     0
  3
Phantom ______  __  __  ______  __  __  ______
 72
    65
 73
     6
 40
12.7
 49
6.35
 74
     0
 49
-1.27
 74
     0
 49
1.27
 74
     0
 49
-1.27
 74
     0
 49
1.27
 74
     0
 49
-1.27
 74
     0
  0
LTYPE
  5
70
330
5
100
AcDbSymbolTableRecord
100
AcDbLinetypeTableRecord
  2
CENTER
 70
     0
  3
Center ____ _ ____ _ ____ _ ____ _ ____ _ ____
 72
    65
 73
     4
 40
10.16
 49
6.35
 74
     0
 49
-1.27
 74
     0
 49
1.27
 74
     0
 49
-1.27
 74
     0
  0
LTYPE
  5
71
330
5
100
AcDbSymbolTableRecord
100
AcDbLinetypeTableRecord
  2
CENTERX2
 70
     0
  3
Center (2x) ________  __  ________  __  _____
 72
    65
 73
     4
 40
20.32
 49
12.7
 74
     0
 49
-2.54
 74
     0
 49
2.54
 74
     0
 49
-2.54
 74
     0
  0
LTYPE
  5
72
330
5
100
AcDbSymbolTableRecord
100
AcDbLinetypeTableRecord
  2
DOT2
 70
     0
  3
Dot (.5x) ........................................
 72
    65
 73
     2
 40
0.635
 49
0.0
 74
     0
 49
-0.635
 74
     0
  0
ENDTAB
  0
TABLE
  2
LAYER
  5
2
330
0
100
AcDbSymbolTable
 70
     1
  0
LAYER
  5
10
330
2
100
AcDbSymbolTableRecord
100
AcDbLayerTableRecord
  2
0
 70
     0
 62
     7
  6
Continuous
370
    -3
390
F
  0
ENDTAB
  0
TABLE
  2
STYLE
  5
3
330
0
100
AcDbSymbolTable
 70
     3
  0
STYLE
  5
11
330
3
100
AcDbSymbolTableRecord
100
AcDbTextStyleTableRecord
  2
Standard
 70
     0
 40
0.0
 41
1.0
 50
0.0
 71
     0
 42
3.5
  3
txt
  4

  0
STYLE
  5
E9
330
3
100
AcDbSymbolTableRecord
100
AcDbTextStyleTableRecord
  2
SLDTEXTSTYLE0
 70
     0
 40
0.0
 41
0.605
 50
0.0
 71
     0
 42
3.5
  3
TXT
  4

  0
STYLE
  5
198
330
3
100
AcDbSymbolTableRecord
100
AcDbTextStyleTableRecord
  2
SLDTEXTSTYLE1
 70
     0
 40
0.0
 41
0.563
 50
0.0
 71
     0
 42
3.5
  3
TXT
  4

  0
ENDTAB
  0
TABLE
  2
VIEW
  5
6
330
0
100
AcDbSymbolTable
 70
     0
  0
ENDTAB
  0
TABLE
  2
UCS
  5
7
330
0
100
AcDbSymbolTable
 70
     0
  0
ENDTAB
  0
TABLE
  2
APPID
  5
9
330
0
100
AcDbSymbolTable
 70
     1
  0
APPID
  5
12
330
9
100
AcDbSymbolTableRecord
100
AcDbRegAppTableRecord
  2
ACAD
 70
     0
  0
ENDTAB
  0
TABLE
  2
DIMSTYLE
  5
A
330
0
100
AcDbSymbolTable
 70
     4
100
AcDbDimStyleTable
  0
DIMSTYLE
105
27
330
A
100
AcDbSymbolTableRecord
100
AcDbDimStyleTableRecord
  2
ISO-25
 70
     0
 41
2.5
 42
0.625
 43
3.75
 44
1.25
 73
     0
 74
     0
 77
     1
 78
     8
140
2.5
141
2.5
143
0.0393700787
147
0.625
171
     3
172
     1
178
     0
271
     2
272
     2
274
     3
278
    44
283
     0
284
     8
340
11
  0
DIMSTYLE
105
1B0
102
{ACAD_REACTORS
330
1AF
102
}
330
A
100
AcDbSymbolTableRecord
100
AcDbDimStyleTableRecord
  2
SLDDIMSTYLE0
 70
     0
 41
3.5
 44
0.0
 45
0.000000001
 73
     0
 74
     0
 77
     1
 78
    12
 79
     3
140
3.5
141
0.0
147
0.875
173
     1
178
     0
271
     2
272
     3
276
     2
284
    12
340
E9
  0
DIMSTYLE
105
1B9
102
{ACAD_REACTORS
330
1B8
102
}
330
A
100
AcDbSymbolTableRecord
100
AcDbDimStyleTableRecord
  2
SLDDIMSTYLE1
 70
     0
 41
3.5
 44
0.0
 45
0.000000001
 73
     0
 74
     0
 77
     1
 78
    12
 79
     3
140
3.5
141
0.0
147
0.875
172
     1
173
     1
178
     0
271
     1
272
     3
276
     2
284
    12
340
E9
  0
DIMSTYLE
105
297
102
{ACAD_REACTORS
330
296
102
}
330
A
100
AcDbSymbolTableRecord
100
AcDbDimStyleTableRecord
  2
SLDDIMSTYLE2
 70
     0
 41
3.5
 44
0.0
 45
0.000000001
 73
     0
 74
     0
 77
     1
 78
    12
 79
     3
140
3.5
147
0.875
173
     1
178
     0
271
     2
272
     3
276
     2
284
    12
340
E9
  0
ENDTAB
  0
TABLE
  2
BLOCK_RECORD
  5
1
330
0
100
AcDbSymbolTable
 70
    10
  0
BLOCK_RECORD
  5
1F
330
1
100
AcDbSymbolTableRecord
100
AcDbBlockTableRecord
  2
*Model_Space
340
22
  0
BLOCK_RECORD
  5
1B
330
1
100
AcDbSymbolTableRecord
100
AcDbBlockTableRecord
  2
*Paper_Space
340
1E
  0
BLOCK_RECORD
  5
23
330
1
100
AcDbSymbolTableRecord
100
AcDbBlockTableRecord
  2
*Paper_Space0
340
26
  0
BLOCK_RECORD
  5
73
330
1
100
AcDbSymbolTableRecord
100
AcDbBlockTableRecord
  2
ACO-Logo
340
0
102
{BLKREFS
331
149
102
}
  0
BLOCK_RECORD
  5
E6
330
1
100
AcDbSymbolTableRecord
100
AcDbBlockTableRecord
  2
SW_NOTE_0
340
0
102
{BLKREFS
331
EB
102
}
  0
BLOCK_RECORD
  5
EC
330
1
100
AcDbSymbolTableRecord
100
AcDbBlockTableRecord
  2
SW_NOTE_0_1
340
0
102
{BLKREFS
331
F0
102
}
  0
BLOCK_RECORD
  5
F1
330
1
100
AcDbSymbolTableRecord
100
AcDbBlockTableRecord
  2
SW_NOTE_0_2
340
0
102
{BLKREFS
331
F8
102
}
  0
BLOCK_RECORD
  5
170
330
1
100
AcDbSymbolTableRecord
100
AcDbBlockTableRecord
  2
SW_NOTE_0_3
340
0
102
{BLKREFS
331
178
102
}
  0
BLOCK_RECORD
  5
1B1
330
1
100
AcDbSymbolTableRecord
100
AcDbBlockTableRecord
  2
_D
340
0
  0
BLOCK_RECORD
  5
1BA
330
1
100
AcDbSymbolTableRecord
100
AcDbBlockTableRecord
  2
_D_1
340
0
  0
BLOCK_RECORD
  5
1C3
330
1
100
AcDbSymbolTableRecord
100
AcDbBlockTableRecord
  2
SW_CENTERMARKSYMBOL_0
340
0
102
{BLKREFS
331
1CE
102
}
  0
BLOCK_RECORD
  5
298
330
1
100
AcDbSymbolTableRecord
100
AcDbBlockTableRecord
  2
_D_2
340
0
  0
ENDTAB
  0
ENDSEC
  0
SECTION
  2
BLOCKS
  0
BLOCK
  5
20
330
1F
100
AcDbEntity
  8
0
100
AcDbBlockBegin
  2
*Model_Space
 70
     0
 10
0.0
 20
0.0
 30
0.0
  3
*Model_Space
  1

  0
ENDBLK
  5
21
330
1F
100
AcDbEntity
  8
0
100
AcDbBlockEnd
  0
BLOCK
  5
1C
330
1B
100
AcDbEntity
 67
     1
  8
0
100
AcDbBlockBegin
  2
*Paper_Space
 70
     0
 10
0.0
 20
0.0
 30
0.0
  3
*Paper_Space
  1

  0
ENDBLK
  5
1D
330
1B
100
AcDbEntity
 67
     1
  8
0
100
AcDbBlockEnd
  0
BLOCK
  5
24
330
23
100
AcDbEntity
  8
0
100
AcDbBlockBegin
  2
*Paper_Space0
 70
     0
 10
0.0
 20
0.0
 30
0.0
  3
*Paper_Space0
  1

  0
ENDBLK
  5
25
330
23
100
AcDbEntity
  8
0
100
AcDbBlockEnd
  0
BLOCK
  5
74
330
73
100
AcDbEntity
  8
0
100
AcDbBlockBegin
  2
ACO-Logo
 70
     0
 10
0.0
 20
0.0
 30
0.0
  3
ACO-Logo
  1

  0
ARC
  5
76
330
73
100
AcDbEntity
  8
0
  6
Continuous
 62
   179
370
    18
100
AcDbCircle
 10
80.3853261169
 20
4.9940995715
 30
0.0
 40
0.3000000000000441
100
AcDbArc
 50
181.9349323096
 51
274.6062978506
  0
ARC
  5
77
330
73
100
AcDbEntity
  8
0
  6
Continuous
 62
   179
370
    18
100
AcDbCircle
 10
81.2359083165
 20
2.1946665956
 30
0.0
 40
1.000000000000021
100
AcDbArc
 50
221.4087409628
 51
276.0561297228
  0
ARC
  5
78
330
73
100
AcDbEntity
  8
0
  6
Continuous
 62
   179
370
    18
100
AcDbCircle
 10
79.1360017163
 20
3.654242048
 30
0.0
 40
0.300000000000004
100
AcDbArc
 50
181.2730300201
 51
274.4996077095
  0
ARC
  5
79
330
73
100
AcDbEntity
  8
0
  6
Continuous
 62
   179
370
    18
100
AcDbCircle
 10
78.7699033484
 20
3.2873137407
 30
0.0
 40
0.4000000000000358
100
AcDbArc
 50
221.0090869016
 51
274.5606296317
  0
ARC
  5
7A
330
73
100
AcDbEntity
  8
0
  6
Continuous
 62
   179
370
    18
100
AcDbCircle
 10
91.2333953062
 20
4.6062442307
 30
0.0
 40
0.3000000000000493
100
AcDbArc
 50
274.4996077095
 51
3.7249371334
  0
ARC
  5
7B
330
73
100
AcDbEntity
  8
0
  6
Continuous
 62
   179
370
    18
100
AcDbCircle
 10
81.5287571045
 20
9.7648973508
 30
0.0
 40
1.00000000000002
100
AcDbArc
 50
93.1134387481
 51
181.9414863909
  0
ARC
  5
7C
330
73
100
AcDbEntity
  8
0
  6
Continuous
 62
   179
370
    18
100
AcDbCircle
 10
81.6051675115
 20
7.5107903456
 30
0.0
 40
1.0
100
AcDbArc
 50
181.9414863909
 51
274.398705355
  0
ARC
  5
7D
330
73
100
AcDbEntity
  8
0
  6
Continuous
 62
   179
370
    18
100
AcDbCircle
 10
80.1506905656
 20
11.9393118923
 30
0.0
 40
0.300000000000045
100
AcDbArc
 50
93.0418421566
 51
181.9349323096
  0
ARC
  5
7E
330
73
100
AcDbEntity
  8
0
  6
Continuous
 62
   179
370
    18
100
AcDbCircle
 10
78.1879722102
 20
12.3499352608
 30
0.0
 40
0.7999999999953393
100
AcDbArc
 50
92.6995697565
 51
148.2554209065
  0
ARC
  5
7F
330
73
100
AcDbEntity
  8
0
  6
Continuous
 62
   179
370
    18
100
AcDbCircle
 10
78.930862229
 20
12.8855189761
 30
0.0
 40
0.3000000000000031
100
AcDbArc
 50
92.6995697565
 51
181.2730300201
  0
ARC
  5
80
330
73
100
AcDbEntity
  8
0
  6
Continuous
 62
   179
370
    18
100
AcDbCircle
 10
82.327743407
 20
9.8083568568
 30
0.0
 40
1.000000000000034
100
AcDbArc
 50
1.9414863909
 51
93.1134387481
  0
ARC
  5
81
330
73
100
AcDbEntity
  8
0
  6
Continuous
 62
   179
370
    18
100
AcDbCircle
 10
81.5287571045
 20
9.7648973508
 30
0.0
 40
0.3625000000000009
100
AcDbArc
 50
93.1134387481
 51
181.9414863909
  0
ARC
  5
82
330
73
100
AcDbEntity
  8
0
  6
Continuous
 62
   179
370
    18
100
AcDbCircle
 10
82.327743407
 20
9.8083568568
 30
0.0
 40
0.3625000000000146
100
AcDbArc
 50
1.9414863909
 51
93.1134387481
  0
ARC
  5
83
330
73
100
AcDbEntity
  8
0
  6
Continuous
 62
   179
370
    18
100
AcDbCircle
 10
82.4035451983
 20
7.5722040138
 30
0.0
 40
1.000000000000008
100
AcDbArc
 50
274.398705355
 51
1.9414863909
  0
ARC
  5
84
330
73
100
AcDbEntity
  8
0
  6
Continuous
 62
   179
370
    18
100
AcDbCircle
 10
82.4035451983
 20
7.5722040138
 30
0.0
 40
0.3625000000000068
100
AcDbArc
 50
274.398705355
 51
1.9414863909
  0
ARC
  5
85
330
73
100
AcDbEntity
  8
0
  6
Continuous
 62
   179
370
    18
100
AcDbCircle
 10
81.6051675115
 20
7.5107903456
 30
0.0
 40
0.3625000000000111
100
AcDbArc
 50
181.9414863909
 51
274.398705355
  0
ARC
  5
86
330
73
100
AcDbEntity
  8
0
  6
Continuous
 62
   179
370
    18
100
AcDbCircle
 10
88.825822761
 20
8.0662148274
 30
0.0
 40
0.9999999999999997
100
AcDbArc
 50
274.398705355
 51
2.6541955134
  0
ARC
  5
87
330
73
100
AcDbEntity
  8
0
  6
Continuous
 62
   179
370
    18
100
AcDbCircle
 10
90.1578295581
 20
5.7814576687
 30
0.0
 40
0.3000000000000043
100
AcDbArc
 50
274.6062978507
 51
2.5147526475
  0
ARC
  5
88
330
73
100
AcDbEntity
  8
0
  6
Continuous
 62
   179
370
    18
100
AcDbCircle
 10
88.825822761
 20
8.0662148274
 30
0.0
 40
0.3625000000000083
100
AcDbArc
 50
274.398705355
 51
2.6541955134
  0
ARC
  5
89
330
73
100
AcDbEntity
  8
0
  6
Continuous
 62
   179
370
    18
100
AcDbCircle
 10
88.728529747
 20
10.16496413
 30
0.0
 40
1.000000000000001
100
AcDbArc
 50
2.6541955134
 51
93.1134387481
  0
ARC
  5
8A
330
73
100
AcDbEntity
  8
0
  6
Continuous
 62
   179
370
    18
100
AcDbCircle
 10
88.728529747
 20
10.16496413
 30
0.0
 40
0.3625000000000085
100
AcDbArc
 50
2.6541955134
 51
93.1134387481
  0
ARC
  5
8B
330
73
100
AcDbEntity
  8
0
  6
Continuous
 62
   179
370
    18
100
AcDbCircle
 10
89.8647121341
 20
12.455515937
 30
0.0
 40
0.2999999999999984
100
AcDbArc
 50
2.5147526475
 51
93.0418421566
  0
ARC
  5
8C
330
73
100
AcDbEntity
  8
0
  6
Continuous
 62
   179
370
    18
100
AcDbCircle
 10
90.6583795404
 20
13.4384863935
 30
0.0
 40
0.2999999999999911
100
AcDbArc
 50
3.7249371334
 51
92.6995697565
  0
CIRCLE
  5
8D
330
73
100
AcDbEntity
  8
0
  6
Continuous
 62
   179
370
    18
100
AcDbCircle
 10
15.7233972286
 20
6.4054930194
 30
0.0
 40
1.579500000000014
  0
CIRCLE
  5
8E
330
73
100
AcDbEntity
  8
0
  6
Continuous
 62
   179
370
    18
100
AcDbCircle
 10
15.7233972286
 20
6.4054930194
 30
0.0
 40
2.281499999999994
  0
ARC
  5
8F
330
73
100
AcDbEntity
  8
0
  6
Continuous
 62
   179
370
    18
100
AcDbCircle
 10
89.7681336026
 20
2.3106616691
 30
0.0
 40
0.098384530246548
100
AcDbArc
 50
332.3802627259
 51
4.9765441602
  0
ARC
  5
90
330
73
100
AcDbEntity
  8
0
  6
Continuous
 62
   179
370
    18
100
AcDbCircle
 10
89.6886560089
 20
2.3522464185
 30
0.0
 40
0.1880839130754018
100
AcDbArc
 50
303.690067526
 51
332.3802627258
  0
ARC
  5
91
330
73
100
AcDbEntity
  8
0
  6
Continuous
 62
   179
370
    18
100
AcDbCircle
 10
89.4849700869
 20
2.6577753016
 30
0.0
 40
0.5552839311631531
100
AcDbArc
 50
287.108652213
 51
303.690067526
  0
ARC
  5
92
330
73
100
AcDbEntity
  8
0
  6
Continuous
 62
   179
370
    18
100
AcDbCircle
 10
88.0513010646
 20
7.3154864882
 30
0.0
 40
5.428648309393203
100
AcDbArc
 50
285.2551187031
 51
287.108652213
  0
ARC
  5
93
330
73
100
AcDbEntity
  8
0
  6
Continuous
 62
   179
370
    18
100
AcDbCircle
 10
89.1317168954
 20
3.3539617753
 30
0.0
 40
1.322436378825653
100
AcDbArc
 50
281.4991866428
 51
285.255118703
  0
ARC
  5
94
330
73
100
AcDbEntity
  8
0
  6
Continuous
 62
   179
370
    18
100
AcDbCircle
 10
89.3198255509
 20
2.4293110075
 30
0.0
 40
0.3788454141584939
100
AcDbArc
 50
279.1917900003
 51
281.499186643
  0
ARC
  5
95
330
73
100
AcDbEntity
  8
0
  6
Continuous
 62
   179
370
    18
100
AcDbCircle
 10
89.0487250788
 20
4.1046569124
 30
0.0
 40
2.07598399629105
100
AcDbArc
 50
277.7634675038
 51
279.1917900002
  0
ARC
  5
96
330
73
100
AcDbEntity
  8
0
  6
Continuous
 62
   179
370
    18
100
AcDbCircle
 10
9.2588909915
 20
6.4054930194
 30
0.0
 40
1.579500000000074
100
AcDbArc
 50
31.0558004991
 51
330.0
  0
ARC
  5
97
330
73
100
AcDbEntity
  8
0
  6
Continuous
 62
   179
370
    18
100
AcDbCircle
 10
9.2588909915
 20
6.4054930194
 30
0.0
 40
2.281500000000107
100
AcDbArc
 50
30.7309172659
 51
330.0
  0
ARC
  5
98
330
73
100
AcDbEntity
  8
0
  6
Continuous
 62
   179
370
    18
100
AcDbCircle
 10
6.1288847544
 20
4.0685261312
 30
0.0
 40
4.914000000000307
100
AcDbArc
 50
172.3058370354
 51
179.7113029221
  0
ARC
  5
99
330
73
100
AcDbEntity
  8
0
  6
Continuous
 62
   179
370
    18
100
AcDbCircle
 10
-0.5401152456
 20
4.0685261312
 30
0.0
 40
4.91400000000019
100
AcDbArc
 50
0.2886970779
 51
7.6941629646
  0
ARC
  5
9A
330
73
100
AcDbEntity
  8
0
  6
Continuous
 62
   179
370
    18
100
AcDbCircle
 10
-0.5401152456
 20
4.0685261312
 30
0.0
 40
5.616000000000127
100
AcDbArc
 50
0.2526096926
 51
53.5764263577
  0
ARC
  5
9B
330
73
100
AcDbEntity
  8
0
  6
Continuous
 62
   179
370
    18
100
AcDbCircle
 10
6.1288847544
 20
4.0685261312
 30
0.0
 40
5.61600000000074
100
AcDbArc
 50
126.4235736423
 51
179.7473903073
  0
ARC
  5
9C
330
73
100
AcDbEntity
  8
0
  6
Continuous
 62
   179
370
    18
100
AcDbCircle
 10
-0.5401152456
 20
4.0685261312
 30
0.0
 40
4.914000000000161
100
AcDbArc
 50
16.0658750272
 51
47.2678899574
  0
ARC
  5
9D
330
73
100
AcDbEntity
  8
0
  6
Continuous
 62
   179
370
    18
100
AcDbCircle
 10
6.1288847544
 20
4.0685261312
 30
0.0
 40
4.914000000000584
100
AcDbArc
 50
132.7321100426
 51
163.9341249728
  0
LINE
  5
9E
330
73
100
AcDbEntity
  8
0
  6
Continuous
 62
   179
370
    18
100
AcDbLine
 10
78.8017089389
 20
2.8885802402
 30
0.0
 11
90.7982178739
 21
3.8455002136
 31
0.0
  0
LINE
  5
9F
330
73
100
AcDbEntity
  8
0
  6
Continuous
 62
   179
370
    18
100
AcDbLine
 10
76.6545490427
 20
5.8693097374
 30
0.0
 11
78.0344191726
 21
3.5235305166
 31
0.0
  0
LINE
  5
A0
330
73
100
AcDbEntity
  8
0
  6
Continuous
 62
   179
370
    18
100
AcDbLine
 10
91.5327615373
 20
4.6257342197
 30
0.0
 11
90.9577457715
 21
13.4579763825
 31
0.0
  0
LINE
  5
A1
330
73
100
AcDbEntity
  8
0
  6
Continuous
 62
   179
370
    18
100
AcDbLine
 10
78.6309362756
 20
12.8788539549
 30
0.0
 11
78.8360757629
 21
3.6475770268
 31
0.0
  0
LINE
  5
A2
330
73
100
AcDbEntity
  8
0
  6
Continuous
 62
   179
370
    18
100
AcDbLine
 10
80.4094186633
 20
4.6950685544
 30
0.0
 11
90.1819221045
 21
5.4824266516
 31
0.0
  0
LINE
  5
A3
330
73
100
AcDbEntity
  8
0
  6
Continuous
 62
   179
370
    18
100
AcDbLine
 10
79.1595373973
 20
3.3551666867
 30
0.0
 11
91.2569309872
 21
4.3071688694
 31
0.0
  0
LINE
  5
A4
330
73
100
AcDbEntity
  8
0
  6
Continuous
 62
   179
370
    18
100
AcDbLine
 10
79.2585043218
 20
2.925017226
 30
0.0
 11
80.4858981444
 21
1.533240302
 31
0.0
  0
LINE
  5
A5
330
73
100
AcDbEntity
  8
0
  6
Continuous
 62
   179
370
    18
100
AcDbLine
 10
78.0344191726
 20
3.5235305166
 30
0.0
 11
78.3638740472
 21
3.1446574108
 31
0.0
  0
LINE
  5
A6
330
73
100
AcDbEntity
  8
0
  6
Continuous
 62
   179
370
    18
100
AcDbLine
 10
78.3638740472
 20
3.1446574108
 30
0.0
 11
78.4680611395
 21
3.0248422547
 31
0.0
  0
LINE
  5
A7
330
73
100
AcDbEntity
  8
0
  6
Continuous
 62
   179
370
    18
100
AcDbLine
 10
81.3414110113
 20
1.2002475785
 30
0.0
 11
89.3291569519
 21
2.0477010263
 31
0.0
  0
LINE
  5
A8
330
73
100
AcDbEntity
  8
0
  6
Continuous
 62
   179
370
    18
100
AcDbLine
 10
89.8661472522
 20
2.5197759309
 30
0.0
 11
89.8661472522
 21
2.3090867337
 31
0.0
  0
LINE
  5
A9
330
73
100
AcDbEntity
  8
0
  6
Continuous
 62
   179
370
    18
100
AcDbLine
 10
88.676842368
 20
3.6762854359
 30
0.0
 11
89.6713239345
 21
2.7875997807
 31
0.0
  0
LINE
  5
AA
330
73
100
AcDbEntity
  8
0
  6
Continuous
 62
   179
370
    18
100
AcDbLine
 10
89.6713239345
 20
2.7875997807
 30
0.0
 11
89.7459749087
 21
2.7242700694
 31
0.0
  0
LINE
  5
AB
330
73
100
AcDbEntity
  8
0
  6
Continuous
 62
   179
370
    18
100
AcDbLine
 10
90.7982178739
 20
3.8455002136
 30
0.0
 11
91.3961615969
 21
4.3514525945
 31
0.0
  0
LINE
  5
AC
330
73
100
AcDbEntity
  8
0
  6
Continuous
 62
   179
370
    18
100
AcDbLine
 10
90.6442498554
 20
13.7381534621
 30
0.0
 11
78.1502930503
 21
13.1490474438
 31
0.0
  0
LINE
  5
AD
330
73
100
AcDbEntity
  8
0
  6
Continuous
 62
   179
370
    18
100
AcDbLine
 10
80.1347709981
 20
12.2388892068
 30
0.0
 11
89.8487925667
 21
12.7550932515
 31
0.0
  0
LINE
  5
AE
330
73
100
AcDbEntity
  8
0
  6
Continuous
 62
   179
370
    18
100
AcDbLine
 10
76.4935641943
 20
11.7567556248
 30
0.0
 11
76.6545490427
 21
5.8693097374
 31
0.0
  0
LINE
  5
AF
330
73
100
AcDbEntity
  8
0
  6
Continuous
 62
   179
370
    18
100
AcDbLine
 10
79.8508616208
 20
11.929182536
 30
0.0
 11
80.0854971721
 21
4.9839702153
 31
0.0
  0
LINE
  5
B0
330
73
100
AcDbEntity
  8
0
  6
Continuous
 62
   179
370
    18
100
AcDbLine
 10
80.5293311574
 20
9.7310185051
 30
0.0
 11
80.6057415643
 21
7.4769115
 31
0.0
  0
LINE
  5
B1
330
73
100
AcDbEntity
  8
0
  6
Continuous
 62
   179
370
    18
100
AcDbLine
 10
77.507650604
 20
12.7708420346
 30
0.0
 11
76.4935641943
 21
11.7567556248
 31
0.0
  0
LINE
  5
B2
330
73
100
AcDbEntity
  8
0
  6
Continuous
 62
   179
370
    18
100
AcDbLine
 10
86.8848195129
 20
11.0661568594
 30
0.0
 11
88.6742167283
 21
11.1634880887
 31
0.0
  0
LINE
  5
B3
330
73
100
AcDbEntity
  8
0
  6
Continuous
 62
   179
370
    18
100
AcDbLine
 10
87.0766213517
 20
6.9287171941
 30
0.0
 11
88.90708891
 21
7.0695223909
 31
0.0
  0
LINE
  5
B4
330
73
100
AcDbEntity
  8
0
  6
Continuous
 62
   179
370
    18
100
AcDbLine
 10
87.6830038473
 20
7.6147347768
 30
0.0
 11
88.8536252418
 21
7.7047825764
 31
0.0
  0
LINE
  5
B5
330
73
100
AcDbEntity
  8
0
  6
Continuous
 62
   179
370
    18
100
AcDbLine
 10
87.5509212094
 20
10.4639459651
 30
0.0
 11
88.7088412777
 21
10.5269290651
 31
0.0
  0
LINE
  5
B6
330
73
100
AcDbEntity
  8
0
  6
Continuous
 62
   179
370
    18
100
AcDbLine
 10
87.0766218384
 20
6.9287066941
 30
0.0
 11
86.8848195129
 21
11.0661568594
 31
0.0
  0
LINE
  5
B7
330
73
100
AcDbEntity
  8
0
  6
Continuous
 62
   179
370
    18
100
AcDbLine
 10
83.7004598825
 20
6.6667911093
 30
0.0
 11
84.5054929504
 21
10.9267193262
 31
0.0
  0
LINE
  5
B8
330
73
100
AcDbEntity
  8
0
  6
Continuous
 62
   179
370
    18
100
AcDbLine
 10
85.3543248406
 20
10.9728900984
 30
0.0
 11
86.4940946704
 21
6.8816860929
 31
0.0
  0
LINE
  5
B9
330
73
100
AcDbEntity
  8
0
  6
Continuous
 62
   179
370
    18
100
AcDbLine
 10
84.9728575427
 20
9.9667192298
 30
0.0
 11
85.4540299774
 21
8.2395506903
 31
0.0
  0
LINE
  5
BA
330
73
100
AcDbEntity
  8
0
  6
Continuous
 62
   179
370
    18
100
AcDbLine
 10
84.6363094629
 20
8.1858350416
 30
0.0
 11
84.9728575427
 21
9.9667192298
 31
0.0
  0
LINE
  5
BB
330
73
100
AcDbEntity
  8
0
  6
Continuous
 62
   179
370
    18
100
AcDbLine
 10
87.6830038473
 20
7.6147347768
 30
0.0
 11
87.5509212094
 21
10.4639459651
 31
0.0
  0
LINE
  5
BC
330
73
100
AcDbEntity
  8
0
  6
Continuous
 62
   179
370
    18
100
AcDbLine
 10
84.6363094629
 20
8.1858350416
 30
0.0
 11
85.4540299774
 21
8.2395506903
 31
0.0
  0
LINE
  5
BD
330
73
100
AcDbEntity
  8
0
  6
Continuous
 62
   179
370
    18
100
AcDbLine
 10
84.5140586807
 20
7.5389304886
 30
0.0
 11
85.6288154243
 21
7.6121582976
 31
0.0
  0
LINE
  5
BE
330
73
100
AcDbEntity
  8
0
  6
Continuous
 62
   179
370
    18
100
AcDbLine
 10
84.3588137958
 20
6.717433718
 30
0.0
 11
84.5140586807
 21
7.5389304886
 31
0.0
  0
LINE
  5
BF
330
73
100
AcDbEntity
  8
0
  6
Continuous
 62
   179
370
    18
100
AcDbLine
 10
81.6818640104
 20
6.5137358601
 30
0.0
 11
82.4802416972
 21
6.5751495283
 31
0.0
  0
LINE
  5
C0
330
73
100
AcDbEntity
  8
0
  6
Continuous
 62
   179
370
    18
100
AcDbLine
 10
81.6329699923
 20
7.1493580946
 30
0.0
 11
82.4313476791
 21
7.2107717628
 31
0.0
  0
LINE
  5
C1
330
73
100
AcDbEntity
  8
0
  6
Continuous
 62
   179
370
    18
100
AcDbLine
 10
83.7004598825
 20
6.6667911093
 30
0.0
 11
84.3588137958
 21
6.717433718
 31
0.0
  0
LINE
  5
C2
330
73
100
AcDbEntity
  8
0
  6
Continuous
 62
   179
370
    18
100
AcDbLine
 10
82.7059483815
 20
9.3512024135
 30
0.0
 11
83.3423973297
 21
9.3930104243
 31
0.0
  0
LINE
  5
C3
330
73
100
AcDbEntity
  8
0
  6
Continuous
 62
   179
370
    18
100
AcDbLine
 10
82.7491656358
 20
8.0762934118
 30
0.0
 11
83.385614584
 21
8.1181014226
 31
0.0
  0
LINE
  5
C4
330
73
100
AcDbEntity
  8
0
  6
Continuous
 62
   179
370
    18
100
AcDbLine
 10
81.1664651987
 20
9.7526162692
 30
0.0
 11
81.2428756056
 21
7.4985092641
 31
0.0
  0
LINE
  5
C5
330
73
100
AcDbEntity
  8
0
  6
Continuous
 62
   179
370
    18
100
AcDbLine
 10
82.6900353128
 20
9.8206379383
 30
0.0
 11
82.7052632884
 21
9.3714126602
 31
0.0
  0
LINE
  5
C6
330
73
100
AcDbEntity
  8
0
  6
Continuous
 62
   179
370
    18
100
AcDbLine
 10
82.7491656358
 20
8.0762934118
 30
0.0
 11
82.7658371041
 21
7.5844850954
 31
0.0
  0
LINE
  5
C7
330
73
100
AcDbEntity
  8
0
  6
Continuous
 62
   179
370
    18
100
AcDbLine
 10
83.3271693541
 20
9.8422357024
 30
0.0
 11
83.3423973297
 21
9.3930104243
 31
0.0
  0
LINE
  5
C8
330
73
100
AcDbEntity
  8
0
  6
Continuous
 62
   179
370
    18
100
AcDbLine
 10
83.385614584
 20
8.1181014226
 30
0.0
 11
83.4029711454
 21
7.6060828595
 31
0.0
  0
LINE
  5
C9
330
73
100
AcDbEntity
  8
0
  6
Continuous
 62
   179
370
    18
100
AcDbLine
 10
85.6288154243
 20
7.6121582976
 30
0.0
 11
85.8462022593
 21
6.8318482152
 31
0.0
  0
LINE
  5
CA
330
73
100
AcDbEntity
  8
0
  6
Continuous
 62
   179
370
    18
100
AcDbLine
 10
85.8462022593
 20
6.8318482152
 30
0.0
 11
86.4940946704
 21
6.8816860929
 31
0.0
  0
LINE
  5
CB
330
73
100
AcDbEntity
  8
0
  6
Continuous
 62
   179
370
    18
100
AcDbLine
 10
84.5054929504
 20
10.9267193262
 30
0.0
 11
85.3543248406
 21
10.9728900984
 31
0.0
  0
LINE
  5
CC
330
73
100
AcDbEntity
  8
0
  6
Continuous
 62
   179
370
    18
100
AcDbLine
 10
81.4744440858
 20
10.7634213094
 30
0.0
 11
82.2734303883
 21
10.8068808154
 31
0.0
  0
LINE
  5
CD
330
73
100
AcDbEntity
  8
0
  6
Continuous
 62
   179
370
    18
100
AcDbLine
 10
81.5090686352
 20
10.1268622858
 30
0.0
 11
82.3080549377
 21
10.1703217918
 31
0.0
  0
LINE
  5
CE
330
73
100
AcDbEntity
  8
0
  6
Continuous
 62
   179
370
    18
100
AcDbLine
 10
90.4575406452
 20
5.7946206556
 30
0.0
 11
90.1644232213
 21
12.4686789239
 31
0.0
  0
LINE
  5
CF
330
73
100
AcDbEntity
  8
0
  6
Continuous
 62
   179
370
    18
100
AcDbLine
 10
89.8247499755
 20
8.1125227115
 30
0.0
 11
89.7274569615
 21
10.2112720142
 31
0.0
  0
LINE
  5
D0
330
73
100
AcDbEntity
  8
0
  6
Continuous
 62
   179
370
    18
100
AcDbLine
 10
89.1879338763
 20
8.0830014354
 30
0.0
 11
89.0906408622
 21
10.181750738
 31
0.0
  0
LINE
  5
D1
330
73
100
AcDbEntity
  8
0
  6
Continuous
 62
   179
370
    18
100
AcDbLine
 10
89.7459749087
 20
2.7242700694
 30
0.0
 11
89.7974962577
 21
2.6659765769
 31
0.0
  0
LINE
  5
D2
330
73
100
AcDbEntity
  8
0
  6
Continuous
 62
   179
370
    18
100
AcDbLine
 10
89.7974962577
 20
2.6659765769
 30
0.0
 11
89.8351851379
 21
2.60192886
 31
0.0
  0
LINE
  5
D3
330
73
100
AcDbEntity
  8
0
  6
Continuous
 62
   179
370
    18
100
AcDbLine
 10
89.8351851379
 20
2.60192886
 30
0.0
 11
89.8661472522
 21
2.5197759309
 31
0.0
  0
LINE
  5
D4
330
73
100
AcDbEntity
  8
0
  6
Continuous
 62
   179
370
    18
100
AcDbLine
 10
10.6119938288
 20
7.2203138351
 30
0.0
 11
11.2200151261
 21
7.5713550947
 31
0.0
  0
LINE
  5
D5
330
73
100
AcDbEntity
  8
0
  6
Continuous
 62
   179
370
    18
100
AcDbLine
 10
11.2347279503
 20
5.2647430194
 30
0.0
 11
10.6267781168
 21
5.6157430194
 31
0.0
  0
LINE
  5
D6
330
73
100
AcDbEntity
  8
0
  6
Continuous
 62
   179
370
    18
100
AcDbLine
 10
6.4645062371
 20
16.1712617198
 30
0.0
 11
6.4645062371
 21
2.9364593988
 31
0.0
  0
LINE
  5
D7
330
73
100
AcDbEntity
  8
0
  6
Continuous
 62
   179
370
    18
100
AcDbLine
 10
6.4645062371
 20
2.9364593988
 30
0.0
 11
12.0532757459
 21
2.9364593988
 31
0.0
  0
LINE
  5
D8
330
73
100
AcDbEntity
  8
0
  6
Continuous
 62
   179
370
    18
100
AcDbLine
 10
12.0532757459
 20
2.9364593988
 30
0.0
 11
12.0532757459
 21
16.1712617198
 31
0.0
  0
LINE
  5
D9
330
73
100
AcDbEntity
  8
0
  6
Continuous
 62
   179
370
    18
100
AcDbLine
 10
12.0532757459
 20
16.1712617198
 30
0.0
 11
6.4645062371
 21
16.1712617198
 31
0.0
  0
LINE
  5
DA
330
73
100
AcDbEntity
  8
0
  6
Continuous
 62
   179
370
    18
100
AcDbLine
 10
0.0
 20
16.1712617198
 30
0.0
 11
0.0
 21
2.9364593988
 31
0.0
  0
LINE
  5
DB
330
73
100
AcDbEntity
  8
0
  6
Continuous
 62
   179
370
    18
100
AcDbLine
 10
0.0
 20
2.9364593988
 30
0.0
 11
5.5887695089
 21
2.9364593988
 31
0.0
  0
LINE
  5
DC
330
73
100
AcDbEntity
  8
0
  6
Continuous
 62
   179
370
    18
100
AcDbLine
 10
5.5887695089
 20
2.9364593988
 30
0.0
 11
5.5887695089
 21
16.1712617198
 31
0.0
  0
LINE
  5
DD
330
73
100
AcDbEntity
  8
0
  6
Continuous
 62
   179
370
    18
100
AcDbLine
 10
5.5887695089
 20
16.1712617198
 30
0.0
 11
0.0
 21
16.1712617198
 31
0.0
  0
LINE
  5
DE
330
73
100
AcDbEntity
  8
0
  6
Continuous
 62
   179
370
    18
100
AcDbLine
 10
1.2591262606
 20
4.7264381407
 30
0.0
 11
4.3296432482
 21
4.7264381407
 31
0.0
  0
LINE
  5
DF
330
73
100
AcDbEntity
  8
0
  6
Continuous
 62
   179
370
    18
100
AcDbLine
 10
4.3738223747
 20
4.0932862697
 30
0.0
 11
5.0758301722
 21
4.0932862697
 31
0.0
  0
LINE
  5
E0
330
73
100
AcDbEntity
  8
0
  6
Continuous
 62
   179
370
    18
100
AcDbLine
 10
0.5129393366
 20
4.0932862697
 30
0.0
 11
1.2149471342
 21
4.0932862697
 31
0.0
  0
LINE
  5
E1
330
73
100
AcDbEntity
  8
0
  6
Continuous
 62
   179
370
    18
100
AcDbLine
 10
4.1819643097
 20
5.4284381407
 30
0.0
 11
1.4068051992
 21
5.4284381407
 31
0.0
  0
LINE
  5
E2
330
73
100
AcDbEntity
  8
0
  6
Continuous
 62
   179
370
    18
100
AcDbLine
 10
18.517781983
 20
16.1712617198
 30
0.0
 11
18.517781983
 21
2.9364593988
 31
0.0
  0
LINE
  5
E3
330
73
100
AcDbEntity
  8
0
  6
Continuous
 62
   179
370
    18
100
AcDbLine
 10
18.517781983
 20
2.9364593988
 30
0.0
 11
12.9290124742
 21
2.9364593988
 31
0.0
  0
LINE
  5
E4
330
73
100
AcDbEntity
  8
0
  6
Continuous
 62
   179
370
    18
100
AcDbLine
 10
12.9290124742
 20
2.9364593988
 30
0.0
 11
12.9290124742
 21
16.1712617198
 31
0.0
  0
LINE
  5
E5
330
73
100
AcDbEntity
  8
0
  6
Continuous
 62
   179
370
    18
100
AcDbLine
 10
12.9290124742
 20
16.1712617198
 30
0.0
 11
18.517781983
 21
16.1712617198
 31
0.0
  0
INSERT
  5
EB
330
73
100
AcDbEntity
  8
0
  6
Continuous
 62
     7
370
     0
100
AcDbBlockReference
  2
SW_NOTE_0
 10
1.8998941161
 20
-0.3226565443
 30
0.0
  0
INSERT
  5
F0
330
73
100
AcDbEntity
  8
0
  6
Continuous
 62
     7
370
     0
100
AcDbBlockReference
  2
SW_NOTE_0_1
 10
29.1164837035
 20
12.7459167441
 30
0.0
  0
INSERT
  5
F8
330
73
100
AcDbEntity
  8
0
  6
Continuous
 62
     7
370
     0
100
AcDbBlockReference
  2
SW_NOTE_0_2
 10
28.8863479825
 20
8.6365742194
 30
0.0
  0
ENDBLK
  5
75
330
73
100
AcDbEntity
  8
0
100
AcDbBlockEnd
  0
BLOCK
  5
E7
330
E6
100
AcDbEntity
  8
0
100
AcDbBlockBegin
  2
SW_NOTE_0
 70
     0
 10
0.0
 20
0.0
 30
0.0
  3
SW_NOTE_0
  1

  0
MTEXT
  5
EA
330
E6
100
AcDbEntity
  8
0
  6
Continuous
 62
     0
370
     0
100
AcDbMText
 10
7.46875
 20
2.5781354795
 30
0.0
 40
2.0
 41
0.0
 71
     2
 72
     1
  1
www.aco.ch
  7
SLDTEXTSTYLE0
 73
     1
 44
1.0
  0
ENDBLK
  5
E8
330
E6
100
AcDbEntity
  8
0
100
AcDbBlockEnd
  0
BLOCK
  5
ED
330
EC
100
AcDbEntity
  8
0
100
AcDbBlockBegin
  2
SW_NOTE_0_1
 70
     0
 10
0.0
 20
0.0
 30
0.0
  3
SW_NOTE_0_1
  1

  0
MTEXT
  5
EF
330
EC
100
AcDbEntity
  8
0
  6
Continuous
 62
     0
370
     0
100
AcDbMText
 10
0.0
 20
3.8672032193
 30
0.0
 40
3.0
 41
0.0
 71
     1
 72
     1
  1
ACO AG
  7
SLDTEXTSTYLE0
 73
     1
 44
1.0
  0
ENDBLK
  5
EE
330
EC
100
AcDbEntity
  8
0
100
AcDbBlockEnd
  0
BLOCK
  5
F2
330
F1
100
AcDbEntity
  8
0
100
AcDbBlockBegin
  2
SW_NOTE_0_2
 70
     0
 10
0.0
 20
0.0
 30
0.0
  3
SW_NOTE_0_2
  1

  0
MTEXT
  5
F4
330
F1
100
AcDbEntity
  8
0
  6
Continuous
 62
     0
370
     0
100
AcDbMText
 10
0.0
 20
2.5781354795
 30
0.0
 40
2.0
 41
0.0
 71
     1
 72
     1
  1
Industrie Kleinzaun
  7
SLDTEXTSTYLE0
 73
     1
 44
1.0
  0
MTEXT
  5
F5
330
F1
100
AcDbEntity
  8
0
  6
Continuous
 62
     0
370
     0
100
AcDbMText
 10
0.0
 20
-0.4218645465
 30
0.0
 40
2.0
 41
0.0
 71
     1
 72
     1
  1
CH-8754 Netstal
  7
SLDTEXTSTYLE0
 73
     1
 44
1.0
  0
MTEXT
  5
F6
330
F1
100
AcDbEntity
  8
0
  6
Continuous
 62
     0
370
     0
100
AcDbMText
 10
0.0
 20
-3.4218645726
 30
0.0
 40
2.0
 41
0.0
 71
     1
 72
     1
  1
Tel. 055 / 645 53 00
  7
SLDTEXTSTYLE0
 73
     1
 44
1.0
  0
MTEXT
  5
F7
330
F1
100
AcDbEntity
  8
0
  6
Continuous
 62
     0
370
     0
100
AcDbMText
 10
0.0
 20
-6.4218645987
 30
0.0
 40
2.0
 41
0.0
 71
     1
 72
     1
  1
E-Mail: aco@aco.ch
  7
SLDTEXTSTYLE0
 73
     1
 44
1.0
  0
ENDBLK
  5
F3
330
F1
100
AcDbEntity
  8
0
100
AcDbBlockEnd
  0
BLOCK
  5
171
330
170
100
AcDbEntity
  8
0
100
AcDbBlockBegin
  2
SW_NOTE_0_3
 70
     0
 10
0.0
 20
0.0
 30
0.0
  3
SW_NOTE_0_3
  1

  0
MTEXT
  5
173
330
170
100
AcDbEntity
  8
0
  6
Continuous
 62
     0
370
     0
100
AcDbMText
 10
0.0
 20
1.9336016097
 30
0.0
 40
1.5
 41
0.0
 71
     1
 72
     1
  1
Diese Zeichnung darf weder kopiert
  7
SLDTEXTSTYLE0
 73
     1
 44
1.0
  0
MTEXT
  5
174
330
170
100
AcDbEntity
  8
0
  6
Continuous
 62
     0
370
     0
100
AcDbMText
 10
0.0
 20
-0.5663983345
 30
0.0
 40
1.5
 41
0.0
 71
     1
 72
     1
  1
noch dritten Personen, insbesondere
  7
SLDTEXTSTYLE0
 73
     1
 44
1.0
  0
MTEXT
  5
175
330
170
100
AcDbEntity
  8
0
  6
Continuous
 62
     0
370
     0
100
AcDbMText
 10
0.0
 20
-3.0663982786
 30
0.0
 40
1.5
 41
0.0
 71
     1
 72
     1
  1
zum Zweck anderweitiger Benutzung
  7
SLDTEXTSTYLE0
 73
     1
 44
1.0
  0
MTEXT
  5
176
330
170
100
AcDbEntity
  8
0
  6
Continuous
 62
     0
370
     0
100
AcDbMText
 10
0.0
 20
-5.5663982227
 30
0.0
 40
1.5
 41
0.0
 71
     1
 72
     1
  1
mitgeteilt werden und bleibt unser
  7
SLDTEXTSTYLE0
 73
     1
 44
1.0
  0
MTEXT
  5
177
330
170
100
AcDbEntity
  8
0
  6
Continuous
 62
     0
370
     0
100
AcDbMText
 10
0.0
 20
-8.0663981668
 30
0.0
 40
1.5
 41
0.0
 71
     1
 72
     1
  1
Eigentum.
  7
SLDTEXTSTYLE0
 73
     1
 44
1.0
  0
ENDBLK
  5
172
330
170
100
AcDbEntity
  8
0
100
AcDbBlockEnd
  0
BLOCK
  5
1B2
330
1B1
100
AcDbEntity
  8
0
100
AcDbBlockBegin
  2
_D
 70
     0
 10
0.0
 20
0.0
 30
0.0
  3
_D
  1

  0
SOLID
  5
1B4
330
1B1
100
AcDbEntity
  8
0
  6
Continuous
 62
     7
370
    18
100
AcDbTrace
 10
164.9416393967
 20
152.2450122415
 30
0.0
 11
167.7972629361
 21
154.3391361704
 31
0.0
 12
167.0357633256
 22
155.1006357809
 32
0.0
 13
167.0357633256
 23
155.1006357809
 33
0.0
  0
LINE
  5
1B5
330
1B1
100
AcDbEntity
  8
0
  6
Continuous
 62
     7
370
     0
100
AcDbLine
 10
164.9416393967
 20
152.2450122415
 30
0.0
 11
177.8376997704
 21
165.1410726152
 31
0.0
  0
MTEXT
  5
1B6
330
1B1
100
AcDbEntity
  8
0
  6
Continuous
 62
     7
370
    18
100
AcDbMText
 10
164.4247912112
 20
158.1036190489
 30
0.0
 40
3.5
 41
0.0
 71
     1
 72
     1
  1
%%c
  7
SLDTEXTSTYLE0
 11
0.7071067811865461
 21
0.7071067811865489
 31
0.0
 73
     1
 44
1.0
  0
MTEXT
  5
1B7
330
1B1
100
AcDbEntity
  8
0
  6
Continuous
 62
     7
370
    18
100
AcDbMText
 10
168.0262481421
 20
161.7188254014
 30
0.0
 40
3.5
 41
0.0
 71
     1
 72
     1
  1
86.3
  7
SLDTEXTSTYLE0
 11
0.7071067811865461
 21
0.7071067811865489
 31
0.0
 73
     1
 44
1.0
  0
ENDBLK
  5
1B3
330
1B1
100
AcDbEntity
  8
0
100
AcDbBlockEnd
  0
BLOCK
  5
1BB
330
1BA
100
AcDbEntity
  8
0
100
AcDbBlockBegin
  2
_D_1
 70
     0
 10
0.0
 20
0.0
 30
0.0
  3
_D_1
  1

  0
SOLID
  5
1BD
330
1BA
100
AcDbEntity
  8
0
  6
Continuous
 62
     7
370
    18
100
AcDbTrace
 10
104.0360053777
 20
104.1846403894
 30
0.0
 11
107.3363250601
 21
105.4683190181
 31
0.0
 12
106.7978635217
 22
106.4009617606
 32
0.0
 13
106.7978635217
 23
106.4009617606
 33
0.0
  0
SOLID
  5
1BE
330
1BA
100
AcDbEntity
  8
0
  6
Continuous
 62
     7
370
    18
100
AcDbTrace
 10
164.8204385878
 20
139.2785492658
 30
0.0
 11
161.5201189054
 21
137.9948706371
 31
0.0
 12
162.0585804438
 22
137.0622278945
 32
0.0
 13
162.0585804438
 23
137.0622278945
 33
0.0
  0
LINE
  5
1BF
330
1BA
100
AcDbEntity
  8
0
  6
Continuous
 62
     7
370
     0
100
AcDbLine
 10
164.8204385878
 20
139.2785492658
 30
0.0
 11
186.897467045
 21
152.0247275884
 31
0.0
  0
LINE
  5
1C0
330
1BA
100
AcDbEntity
  8
0
  6
Continuous
 62
     7
370
     0
100
AcDbLine
 10
164.8204385878
 20
139.2785492658
 30
0.0
 11
104.0360053777
 21
104.1846403894
 31
0.0
  0
MTEXT
  5
1C1
330
1BA
100
AcDbEntity
  8
0
  6
Continuous
 62
     7
370
    18
100
AcDbMText
 10
172.1202197957
 20
148.6984911468
 30
0.0
 40
3.5
 41
0.0
 71
     1
 72
     1
  1
%%c
  7
SLDTEXTSTYLE0
 11
0.866025403784438
 21
0.5000000000000011
 31
0.0
 73
     1
 44
1.0
  0
MTEXT
  5
1C2
330
1BA
100
AcDbEntity
  8
0
  6
Continuous
 62
     7
370
    18
100
AcDbMText
 10
176.5346443136
 20
151.2583866861
 30
0.0
 40
3.5
 41
0.0
 71
     1
 72
     1
  1
70.2
  7
SLDTEXTSTYLE0
 11
0.866025403784438
 21
0.5000000000000011
 31
0.0
 73
     1
 44
1.0
  0
ENDBLK
  5
1BC
330
1BA
100
AcDbEntity
  8
0
100
AcDbBlockEnd
  0
BLOCK
  5
1C4
330
1C3
100
AcDbEntity
  8
0
100
AcDbBlockBegin
  2
SW_CENTERMARKSYMBOL_0
 70
     0
 10
0.0
 20
0.0
 30
0.0
  3
SW_CENTERMARKSYMBOL_0
  1

  0
LINE
  5
1C6
330
1C3
100
AcDbEntity
  8
0
  6
Continuous
 62
     0
370
    18
100
AcDbLine
 10
0.0
 20
0.0
 30
0.0
 11
0.0
 21
2.5
 31
0.0
  0
LINE
  5
1C7
330
1C3
100
AcDbEntity
  8
0
  6
Continuous
 62
     0
370
    18
100
AcDbLine
 10
0.0
 20
0.0
 30
0.0
 11
-2.5
 21
0.0
 31
0.0
  0
LINE
  5
1C8
330
1C3
100
AcDbEntity
  8
0
  6
Continuous
 62
     0
370
    18
100
AcDbLine
 10
0.0
 20
0.0
 30
0.0
 11
0.0
 21
-2.5
 31
0.0
  0
LINE
  5
1C9
330
1C3
100
AcDbEntity
  8
0
  6
Continuous
 62
     0
370
    18
100
AcDbLine
 10
0.0
 20
0.0
 30
0.0
 11
2.5
 21
0.0
 31
0.0
  0
LINE
  5
1CA
330
1C3
100
AcDbEntity
  8
0
  6
Continuous
 62
     0
370
    18
100
AcDbLine
 10
0.0
 20
5.0
 30
0.0
 11
0.0
 21
45.6417628863
 31
0.0
  0
LINE
  5
1CB
330
1C3
100
AcDbEntity
  8
0
  6
Continuous
 62
     0
370
    18
100
AcDbLine
 10
-5.0
 20
0.0
 30
0.0
 11
-45.6417628863
 21
0.0
 31
0.0
  0
LINE
  5
1CC
330
1C3
100
AcDbEntity
  8
0
  6
Continuous
 62
     0
370
    18
100
AcDbLine
 10
0.0
 20
-5.0
 30
0.0
 11
0.0
 21
-45.6417628863
 31
0.0
  0
LINE
  5
1CD
330
1C3
100
AcDbEntity
  8
0
  6
Continuous
 62
     0
370
    18
100
AcDbLine
 10
5.0
 20
0.0
 30
0.0
 11
45.6417628863
 21
0.0
 31
0.0
  0
ENDBLK
  5
1C5
330
1C3
100
AcDbEntity
  8
0
100
AcDbBlockEnd
  0
BLOCK
  5
299
330
298
100
AcDbEntity
  8
0
100
AcDbBlockBegin
  2
_D_2
 70
     0
 10
0.0
 20
0.0
 30
0.0
  3
_D_2
  1

  0
SOLID
  5
29B
330
298
100
AcDbEntity
  8
0
  6
Continuous
 62
     7
370
    18
100
AcDbTrace
 10
188.5807107239
 20
233.3518688878
 30
0.0
 11
188.0422491854
 21
229.8518688878
 31
0.0
 12
189.1191722624
 22
229.8518688878
 32
0.0
 13
189.1191722624
 23
229.8518688878
 33
0.0
  0
SOLID
  5
29C
330
298
100
AcDbEntity
  8
0
  6
Continuous
 62
     7
370
    18
100
AcDbTrace
 10
188.5807107239
 20
216.7503509398
 30
0.0
 11
189.1191722624
 21
220.2503509398
 31
0.0
 12
188.0422491854
 22
220.2503509398
 32
0.0
 13
188.0422491854
 23
220.2503509398
 33
0.0
  0
LINE
  5
29D
330
298
100
AcDbEntity
  8
0
  6
Continuous
 62
     7
370
     0
100
AcDbLine
 10
175.1746695896
 20
233.3518688878
 30
0.0
 11
189.5807107239
 21
233.3518688878
 31
0.0
  0
LINE
  5
29E
330
298
100
AcDbEntity
  8
0
  6
Continuous
 62
     7
370
     0
100
AcDbLine
 10
174.4051607295
 20
216.7503509398
 30
0.0
 11
189.5807107239
 21
216.7503509398
 31
0.0
  0
LINE
  5
29F
330
298
100
AcDbEntity
  8
0
  6
Continuous
 62
     7
370
     0
100
AcDbLine
 10
188.5807107239
 20
233.3518688878
 30
0.0
 11
188.5807107239
 21
216.7503509398
 31
0.0
  0
MTEXT
  5
2A0
330
298
100
AcDbEntity
  8
0
  6
Continuous
 62
     7
370
    18
100
AcDbMText
 10
184.0689734019
 20
220.3722905852
 30
0.0
 40
3.5
 41
0.0
 71
     1
 72
     1
  1
16.6
  7
SLDTEXTSTYLE0
 11
-7.044195017643634E-15
 21
1.0
 31
0.0
 73
     1
 44
1.0
  0
ENDBLK
  5
29A
330
298
100
AcDbEntity
  8
0
100
AcDbBlockEnd
  0
ENDSEC
  0
SECTION
  2
ENTITIES
  0
LINE
  5
F9
330
1F
100
AcDbEntity
  8
0
  6
CENTERX2
 62
     7
370
    18
100
AcDbLine
 10
352.6174545849
 20
46.9080238789
 30
0.0
 11
352.6174545849
 21
39.4621586124
 31
0.0
  0
LINE
  5
FA
330
1F
100
AcDbEntity
  8
0
  6
Continuous
 62
     7
370
    18
100
AcDbLine
 10
357.7661698132
 20
46.3720107039
 30
0.0
 11
357.7661698132
 21
39.9353173413
 31
0.0
  0
LINE
  5
FB
330
1F
100
AcDbEntity
  8
0
  6
Continuous
 62
     7
370
    18
100
AcDbLine
 10
364.6059427486
 20
44.7376225767
 30
0.0
 11
364.6059427486
 21
41.5697054685
 31
0.0
  0
LINE
  5
FC
330
1F
100
AcDbEntity
  8
0
  6
Continuous
 62
     7
370
    18
100
AcDbLine
 10
364.6059427486
 20
44.7376225767
 30
0.0
 11
357.7661698132
 21
46.3720107039
 31
0.0
  0
LINE
  5
FD
330
1F
100
AcDbEntity
  8
0
  6
Continuous
 62
     7
370
    18
100
AcDbLine
 10
15.0
 20
198.5
 30
0.0
 11
20.0
 21
198.5
 31
0.0
  0
LINE
  5
FE
330
1F
100
AcDbEntity
  8
0
  6
Continuous
 62
     7
370
    18
100
AcDbLine
 10
12.0
 20
148.5
 30
0.0
 11
0.0
 21
148.5
 31
0.0
  0
LINE
  5
FF
330
1F
100
AcDbEntity
  8
0
  6
Continuous
 62
     7
370
    18
100
AcDbLine
 10
357.7661698132
 20
39.9353173413
 30
0.0
 11
364.6059427486
 21
41.5697054685
 31
0.0
  0
LINE
  5
100
330
1F
100
AcDbEntity
  8
0
  6
CENTERX2
 62
     7
370
    18
100
AcDbLine
 10
348.6240467841
 20
43.1536640226
 30
0.0
 11
356.6108623857
 21
43.1536640226
 31
0.0
  0
LINE
  5
101
330
1F
100
AcDbEntity
  8
0
  6
CENTERX2
 62
     7
370
    18
100
AcDbLine
 10
357.1289238876
 20
43.1536640226
 30
0.0
 11
365.6255362296
 21
43.1536640226
 31
0.0
  0
LINE
  5
102
330
1F
100
AcDbEntity
  8
0
  6
Continuous
 62
     7
370
    18
100
AcDbLine
 10
0.0
 20
0.0
 30
0.0
 11
420.0
 21
0.0
 31
0.0
  0
LINE
  5
103
330
1F
100
AcDbEntity
  8
0
  6
Continuous
 62
     7
370
    18
100
AcDbLine
 10
0.0
 20
0.0
 30
0.0
 11
0.0
 21
297.0
 31
0.0
  0
LINE
  5
104
330
1F
100
AcDbEntity
  8
0
  6
Continuous
 62
     7
370
    18
100
AcDbLine
 10
0.0
 20
297.0
 30
0.0
 11
420.0
 21
297.0
 31
0.0
  0
LINE
  5
105
330
1F
100
AcDbEntity
  8
0
  6
Continuous
 62
     7
370
    18
100
AcDbLine
 10
420.0
 20
0.0
 30
0.0
 11
420.0
 21
297.0
 31
0.0
  0
LINE
  5
106
330
1F
100
AcDbEntity
  8
0
  6
Continuous
 62
     7
370
    25
100
AcDbLine
 10
228.0
 20
35.0
 30
0.0
 11
410.0
 21
35.0
 31
0.0
  0
LINE
  5
107
330
1F
100
AcDbEntity
  8
0
  6
Continuous
 62
     7
370
    18
100
AcDbLine
 10
410.0
 20
198.5
 30
0.0
 11
415.0
 21
198.5
 31
0.0
  0
LINE
  5
108
330
1F
100
AcDbEntity
  8
0
  6
Continuous
 62
     7
370
    18
100
AcDbLine
 10
15.0
 20
148.5
 30
0.0
 11
20.0
 21
148.5
 31
0.0
  0
LINE
  5
109
330
1F
100
AcDbEntity
  8
0
  6
Continuous
 62
     7
370
    18
100
AcDbLine
 10
228.0
 20
40.0
 30
0.0
 11
296.6
 21
40.0
 31
0.0
  0
LINE
  5
10A
330
1F
100
AcDbEntity
  8
0
  6
Continuous
 62
     7
370
    18
100
AcDbLine
 10
15.0
 20
248.5
 30
0.0
 11
20.0
 21
248.5
 31
0.0
  0
LINE
  5
10B
330
1F
100
AcDbEntity
  8
0
  6
Continuous
 62
     7
370
    35
100
AcDbLine
 10
20.0
 20
287.0
 30
0.0
 11
20.0
 21
10.0
 31
0.0
  0
LINE
  5
10C
330
1F
100
AcDbEntity
  8
0
  6
Continuous
 62
     7
370
    35
100
AcDbLine
 10
410.0
 20
287.0
 30
0.0
 11
20.0
 21
287.0
 31
0.0
  0
LINE
  5
10D
330
1F
100
AcDbEntity
  8
0
  6
Continuous
 62
     7
370
    35
100
AcDbLine
 10
410.0
 20
5.0
 30
0.0
 11
410.0
 21
287.0
 31
0.0
  0
LINE
  5
10E
330
1F
100
AcDbEntity
  8
0
  6
Continuous
 62
     7
370
    35
100
AcDbLine
 10
20.0
 20
10.0
 30
0.0
 11
415.0
 21
10.0
 31
0.0
  0
LINE
  5
10F
330
1F
100
AcDbEntity
  8
0
  6
Continuous
 62
     7
370
    18
100
AcDbLine
 10
410.0
 20
148.5
 30
0.0
 11
415.0
 21
148.5
 31
0.0
  0
LINE
  5
110
330
1F
100
AcDbEntity
  8
0
  6
Continuous
 62
     7
370
    18
100
AcDbLine
 10
228.0
 20
50.0
 30
0.0
 11
296.6
 21
50.0
 31
0.0
  0
LINE
  5
111
330
1F
100
AcDbEntity
  8
0
  6
Continuous
 62
     7
370
    18
100
AcDbLine
 10
15.0
 20
98.5
 30
0.0
 11
20.0
 21
98.5
 31
0.0
  0
LINE
  5
112
330
1F
100
AcDbEntity
  8
0
  6
Continuous
 62
     7
370
    18
100
AcDbLine
 10
296.6
 20
45.0
 30
0.0
 11
228.0
 21
45.0
 31
0.0
  0
LINE
  5
113
330
1F
100
AcDbEntity
  8
0
  6
Continuous
 62
     7
370
    18
100
AcDbLine
 10
65.0
 20
292.0
 30
0.0
 11
65.0
 21
287.0
 31
0.0
  0
LINE
  5
114
330
1F
100
AcDbEntity
  8
0
  6
Continuous
 62
     7
370
    18
100
AcDbLine
 10
230.0
 20
292.0
 30
0.0
 11
230.0
 21
297.0
 31
0.0
  0
LINE
  5
115
330
1F
100
AcDbEntity
  8
0
  6
Continuous
 62
     7
370
    25
100
AcDbLine
 10
296.6
 20
55.0
 30
0.0
 11
296.6
 21
35.0
 31
0.0
  0
LINE
  5
116
330
1F
100
AcDbEntity
  8
0
  6
Continuous
 62
     7
370
    18
100
AcDbLine
 10
410.0
 20
98.5
 30
0.0
 11
415.0
 21
98.5
 31
0.0
  0
LINE
  5
117
330
1F
100
AcDbEntity
  8
0
100
AcDbLine
 10
230.0
 20
5.0
 30
0.0
 11
230.0
 21
0.0
 31
0.0
  0
LINE
  5
118
330
1F
100
AcDbEntity
  8
0
  6
Continuous
 62
     7
370
    18
100
AcDbLine
 10
125.0
 20
292.0
 30
0.0
 11
125.0
 21
297.0
 31
0.0
  0
LINE
  5
119
330
1F
100
AcDbEntity
  8
0
  6
Continuous
 62
     7
370
    18
100
AcDbLine
 10
125.0
 20
5.0
 30
0.0
 11
125.0
 21
0.0
 31
0.0
  0
LINE
  5
11A
330
1F
100
AcDbEntity
  8
0
  6
Continuous
 62
     7
370
    25
100
AcDbLine
 10
410.0
 20
55.0
 30
0.0
 11
228.0
 21
55.0
 31
0.0
  0
LINE
  5
11B
330
1F
100
AcDbEntity
  8
0
  6
Continuous
 62
     7
370
    18
100
AcDbLine
 10
228.0
 20
55.0
 30
0.0
 11
410.0
 21
55.0
 31
0.0
  0
LINE
  5
11C
330
1F
100
AcDbEntity
  8
0
  6
Continuous
 62
     7
370
    18
100
AcDbLine
 10
410.0
 20
55.0
 30
0.0
 11
228.0
 21
55.0
 31
0.0
  0
LINE
  5
11D
330
1F
100
AcDbEntity
  8
0
  6
Continuous
 62
     7
370
    18
100
AcDbLine
 10
268.0
 20
76.5
 30
0.0
 11
268.0
 21
55.0
 31
0.0
  0
LINE
  5
11E
330
1F
100
AcDbEntity
  8
0
  6
Continuous
 62
     7
370
    18
100
AcDbLine
 10
271.6
 20
55.0
 30
0.0
 11
271.6
 21
40.0
 31
0.0
  0
LINE
  5
11F
330
1F
100
AcDbEntity
  8
0
  6
Continuous
 62
     7
370
    18
100
AcDbLine
 10
247.0
 20
55.0
 30
0.0
 11
247.0
 21
35.0
 31
0.0
  0
LINE
  5
120
330
1F
100
AcDbEntity
  8
0
  6
Continuous
 62
     7
370
    35
100
AcDbLine
 10
228.0
 20
76.5
 30
0.0
 11
228.0
 21
10.0
 31
0.0
  0
LINE
  5
121
330
1F
100
AcDbEntity
  8
0
  6
Continuous
 62
     7
370
    18
100
AcDbLine
 10
15.0
 20
292.0
 30
0.0
 11
415.0
 21
292.0
 31
0.0
  0
LINE
  5
122
330
1F
100
AcDbEntity
  8
0
  6
Continuous
 62
     7
370
    18
100
AcDbLine
 10
228.0
 20
65.75
 30
0.0
 11
310.0
 21
65.75
 31
0.0
  0
LINE
  5
123
330
1F
100
AcDbEntity
  8
0
  6
Continuous
 62
     7
370
    35
100
AcDbLine
 10
228.0
 20
76.5
 30
0.0
 11
410.0
 21
76.5
 31
0.0
  0
LINE
  5
124
330
1F
100
AcDbEntity
  8
0
  6
Continuous
 62
     7
370
    18
100
AcDbLine
 10
15.0
 20
48.5
 30
0.0
 11
20.0
 21
48.5
 31
0.0
  0
LINE
  5
125
330
1F
100
AcDbEntity
  8
0
  6
Continuous
 62
     7
370
    18
100
AcDbLine
 10
410.0
 20
48.5
 30
0.0
 11
415.0
 21
48.5
 31
0.0
  0
LINE
  5
126
330
1F
100
AcDbEntity
  8
0
  6
Continuous
 62
     7
370
    18
100
AcDbLine
 10
332.6610845472
 20
20.0
 30
0.0
 11
332.6610845472
 21
10.0
 31
0.0
  0
LINE
  5
127
330
1F
100
AcDbEntity
  8
0
  6
Continuous
 62
     7
370
    18
100
AcDbLine
 10
410.0
 20
248.5
 30
0.0
 11
415.0
 21
248.5
 31
0.0
  0
LINE
  5
128
330
1F
100
AcDbEntity
  8
0
  6
Continuous
 62
     7
370
    18
100
AcDbLine
 10
65.0
 20
10.0
 30
0.0
 11
65.0
 21
5.0
 31
0.0
  0
LINE
  5
129
330
1F
100
AcDbEntity
  8
0
  6
Continuous
 62
     7
370
    18
100
AcDbLine
 10
115.0
 20
10.0
 30
0.0
 11
115.0
 21
5.0
 31
0.0
  0
LINE
  5
12A
330
1F
100
AcDbEntity
  8
0
  6
Continuous
 62
     7
370
    18
100
AcDbLine
 10
115.0
 20
292.0
 30
0.0
 11
115.0
 21
287.0
 31
0.0
  0
LINE
  5
12B
330
1F
100
AcDbEntity
  8
0
  6
Continuous
 62
     7
370
    18
100
AcDbLine
 10
165.0
 20
10.0
 30
0.0
 11
165.0
 21
5.0
 31
0.0
  0
LINE
  5
12C
330
1F
100
AcDbEntity
  8
0
  6
Continuous
 62
     7
370
    18
100
AcDbLine
 10
165.0
 20
292.0
 30
0.0
 11
165.0
 21
287.0
 31
0.0
  0
LINE
  5
12D
330
1F
100
AcDbEntity
  8
0
  6
Continuous
 62
     7
370
    18
100
AcDbLine
 10
215.0
 20
10.0
 30
0.0
 11
215.0
 21
5.0
 31
0.0
  0
LINE
  5
12E
330
1F
100
AcDbEntity
  8
0
  6
Continuous
 62
     7
370
    18
100
AcDbLine
 10
215.0
 20
292.0
 30
0.0
 11
215.0
 21
287.0
 31
0.0
  0
LINE
  5
12F
330
1F
100
AcDbEntity
  8
0
  6
Continuous
 62
     7
370
    18
100
AcDbLine
 10
265.0
 20
10.0
 30
0.0
 11
265.0
 21
5.0
 31
0.0
  0
LINE
  5
130
330
1F
100
AcDbEntity
  8
0
  6
Continuous
 62
     7
370
    18
100
AcDbLine
 10
265.0
 20
292.0
 30
0.0
 11
265.0
 21
287.0
 31
0.0
  0
LINE
  5
131
330
1F
100
AcDbEntity
  8
0
  6
Continuous
 62
     7
370
    18
100
AcDbLine
 10
347.6610845472
 20
20.0
 30
0.0
 11
347.6610845472
 21
10.0
 31
0.0
  0
LINE
  5
132
330
1F
100
AcDbEntity
  8
0
  6
Continuous
 62
     7
370
    18
100
AcDbLine
 10
362.6610845472
 20
20.0
 30
0.0
 11
362.6610845472
 21
10.0
 31
0.0
  0
LINE
  5
133
330
1F
100
AcDbEntity
  8
0
  6
Continuous
 62
     7
370
    25
100
AcDbLine
 10
327.6610845472
 20
10.0
 30
0.0
 11
327.6610845472
 21
55.0
 31
0.0
  0
LINE
  5
134
330
1F
100
AcDbEntity
  8
0
  6
Continuous
 62
     7
370
    18
100
AcDbLine
 10
20.0
 20
292.0
 30
0.0
 11
20.0
 21
297.0
 31
0.0
  0
LINE
  5
135
330
1F
100
AcDbEntity
  8
0
  6
Continuous
 62
     7
370
    18
100
AcDbLine
 10
20.0
 20
5.0
 30
0.0
 11
20.0
 21
0.0
 31
0.0
  0
LINE
  5
136
330
1F
100
AcDbEntity
  8
0
  6
Continuous
 62
     7
370
    18
100
AcDbLine
 10
315.0
 20
10.0
 30
0.0
 11
315.0
 21
5.0
 31
0.0
  0
LINE
  5
137
330
1F
100
AcDbEntity
  8
0
  6
Continuous
 62
     7
370
    18
100
AcDbLine
 10
315.0
 20
292.0
 30
0.0
 11
315.0
 21
287.0
 31
0.0
  0
LINE
  5
138
330
1F
100
AcDbEntity
  8
0
  6
Continuous
 62
     7
370
    18
100
AcDbLine
 10
365.0
 20
10.0
 30
0.0
 11
365.0
 21
5.0
 31
0.0
  0
LINE
  5
139
330
1F
100
AcDbEntity
  8
0
  6
Continuous
 62
     7
370
    18
100
AcDbLine
 10
365.0
 20
292.0
 30
0.0
 11
365.0
 21
287.0
 31
0.0
  0
LINE
  5
13A
330
1F
100
AcDbEntity
  8
0
  6
Continuous
 62
     7
370
    18
100
AcDbLine
 10
15.0
 20
292.0
 30
0.0
 11
15.0
 21
5.0
 31
0.0
  0
LINE
  5
13B
330
1F
100
AcDbEntity
  8
0
  6
Continuous
 62
     7
370
    18
100
AcDbLine
 10
15.0
 20
5.0
 30
0.0
 11
415.0
 21
5.0
 31
0.0
  0
LINE
  5
13C
330
1F
100
AcDbEntity
  8
0
  6
Continuous
 62
     7
370
    18
100
AcDbLine
 10
415.0
 20
292.0
 30
0.0
 11
415.0
 21
5.0
 31
0.0
  0
LINE
  5
13D
330
1F
100
AcDbEntity
  8
0
  6
Continuous
 62
     7
370
    18
100
AcDbLine
 10
347.6610845472
 20
44.213444
 30
0.0
 11
327.6610845472
 21
44.213444
 31
0.0
  0
LINE
  5
13E
330
1F
100
AcDbEntity
  8
0
  6
Continuous
 62
     7
370
    18
100
AcDbLine
 10
347.6610845472
 20
35.0
 30
0.0
 11
347.6610845472
 21
55.0
 31
0.0
  0
LINE
  5
13F
330
1F
100
AcDbEntity
  8
0
  6
Continuous
 62
     7
370
    18
100
AcDbLine
 10
370.057188
 20
55.012032
 30
0.0
 11
370.057188
 21
35.0
 31
0.0
  0
LINE
  5
140
330
1F
100
AcDbEntity
  8
0
  6
Continuous
 62
     7
370
    18
100
AcDbLine
 10
398.0
 20
35.0
 30
0.0
 11
398.0
 21
20.0
 31
0.0
  0
LINE
  5
141
330
1F
100
AcDbEntity
  8
0
  6
Continuous
 62
     7
370
    18
100
AcDbLine
 10
410.0
 20
15.0
 30
0.0
 11
327.6610845472
 21
15.0
 31
0.0
  0
LINE
  5
142
330
1F
100
AcDbEntity
  8
0
  6
Continuous
 62
     7
370
    18
100
AcDbLine
 10
327.6610845472
 20
20.0
 30
0.0
 11
410.0
 21
20.0
 31
0.0
  0
LINE
  5
143
330
1F
100
AcDbEntity
  8
0
  6
Continuous
 62
     7
370
    18
100
AcDbLine
 10
341.485486
 20
20.0
 30
0.0
 11
341.485486
 21
27.564675
 31
0.0
  0
LINE
  5
144
330
1F
100
AcDbEntity
  8
0
  6
Continuous
 62
     7
370
    25
100
AcDbLine
 10
310.0
 20
76.5
 30
0.0
 11
310.0
 21
55.0
 31
0.0
  0
CIRCLE
  5
145
330
1F
100
AcDbEntity
  8
0
  6
Continuous
 62
     7
370
    18
100
AcDbCircle
 10
11.0
 20
108.5
 30
0.0
 40
2.750000000000001
  0
CIRCLE
  5
146
330
1F
100
AcDbEntity
  8
0
  6
Continuous
 62
     7
370
    18
100
AcDbCircle
 10
11.0
 20
188.5
 30
0.0
 40
2.750000000000001
  0
CIRCLE
  5
147
330
1F
100
AcDbEntity
  8
0
  6
Continuous
 62
     7
370
    18
100
AcDbCircle
 10
352.6174545849
 20
43.1536640226
 30
0.0
 40
3.218346681300138
  0
CIRCLE
  5
148
330
1F
100
AcDbEntity
  8
0
  6
Continuous
 62
     7
370
    18
100
AcDbCircle
 10
352.6174545849
 20
43.1536640226
 30
0.0
 40
1.583958554121555
  0
INSERT
  5
149
330
1F
100
AcDbEntity
  8
0
  6
Continuous
 62
     7
100
AcDbBlockReference
  2
ACO-Logo
 10
314.3510726297
 20
57.6366106772
 30
0.0
  0
POINT
  5
14A
330
1F
100
AcDbEntity
  8
0
100
AcDbPoint
 10
0.0
 20
0.0
 30
0.0
  0
POINT
  5
14B
330
1F
100
AcDbEntity
  8
0
100
AcDbPoint
 10
410.0
 20
10.0
 30
0.0
  0
MTEXT
  5
14C
330
1F
100
AcDbEntity
  8
0
  6
Continuous
 62
     7
370
    18
100
AcDbMText
 10
17.7359443114
 20
124.8017866468
 30
0.0
 40
2.0
 41
0.0
 71
     2
 72
     1
  1
D
  7
SLDTEXTSTYLE0
 73
     1
 44
1.0
  0
MTEXT
  5
14D
330
1F
100
AcDbEntity
  8
0
  6
Continuous
 62
     7
370
    18
100
AcDbMText
 10
17.6274822413
 20
174.7261854936
 30
0.0
 40
2.0
 41
0.0
 71
     2
 72
     1
  1
C
  7
SLDTEXTSTYLE0
 73
     1
 44
1.0
  0
MTEXT
  5
14E
330
1F
100
AcDbEntity
  8
0
  6
Continuous
 62
     7
370
    18
100
AcDbMText
 10
17.5516905072
 20
224.4926420442
 30
0.0
 40
2.0
 41
0.0
 71
     2
 72
     1
  1
B
  7
SLDTEXTSTYLE0
 73
     1
 44
1.0
  0
MTEXT
  5
14F
330
1F
100
AcDbEntity
  8
0
  6
Continuous
 62
     7
370
    18
100
AcDbMText
 10
290.0344258799
 20
290.5428789914
 30
0.0
 40
2.0
 41
0.0
 71
     2
 72
     1
  1
6
  7
SLDTEXTSTYLE0
 73
     1
 44
1.0
  0
MTEXT
  5
150
330
1F
100
AcDbEntity
  8
0
  6
Continuous
 62
     7
370
    18
100
AcDbMText
 10
240.0417859812
 20
290.6369260235
 30
0.0
 40
2.0
 41
0.0
 71
     2
 72
     1
  1
5
  7
SLDTEXTSTYLE0
 73
     1
 44
1.0
  0
MTEXT
  5
151
330
1F
100
AcDbEntity
  8
0
  6
Continuous
 62
     7
370
    18
100
AcDbMText
 10
190.0300404524
 20
290.6343268032
 30
0.0
 40
2.0
 41
0.0
 71
     2
 72
     1
  1
4
  7
SLDTEXTSTYLE0
 73
     1
 44
1.0
  0
MTEXT
  5
152
330
1F
100
AcDbEntity
  8
0
  6
Continuous
 62
     7
370
    18
100
AcDbMText
 10
140.0165868337
 20
290.6378887952
 30
0.0
 40
2.0
 41
0.0
 71
     2
 72
     1
  1
3
  7
SLDTEXTSTYLE0
 73
     1
 44
1.0
  0
MTEXT
  5
153
330
1F
100
AcDbEntity
  8
0
  6
Continuous
 62
     7
370
    18
100
AcDbMText
 10
90.033223
 20
290.5566702875
 30
0.0
 40
2.0
 41
0.0
 71
     2
 72
     1
  1
2
  7
SLDTEXTSTYLE0
 73
     1
 44
1.0
  0
MTEXT
  5
154
330
1F
100
AcDbEntity
  8
0
  6
Continuous
 62
     7
370
    18
100
AcDbMText
 10
40.0509551097
 20
290.5530165805
 30
0.0
 40
2.0
 41
0.0
 71
     2
 72
     1
  1
1
  7
SLDTEXTSTYLE0
 73
     1
 44
1.0
  0
MTEXT
  5
155
330
1F
100
AcDbEntity
  8
0
  6
Continuous
 62
     7
370
    18
100
AcDbMText
 10
17.5609786315
 20
271.2966048816
 30
0.0
 40
2.0
 41
0.0
 71
     2
 72
     1
  1
A
  7
SLDTEXTSTYLE0
 73
     1
 44
1.0
  0
MTEXT
  5
156
330
1F
100
AcDbEntity
  8
0
  6
Continuous
 62
     7
370
    18
100
AcDbMText
 10
89.9333968896
 20
8.5904490253
 30
0.0
 40
2.0
 41
0.0
 71
     2
 72
     1
  1
2
  7
SLDTEXTSTYLE0
 73
     1
 44
1.0
  0
MTEXT
  5
157
330
1F
100
AcDbEntity
  8
0
  6
Continuous
 62
     7
370
    18
100
AcDbMText
 10
39.9009486579
 20
8.6623118453
 30
0.0
 40
2.0
 41
0.0
 71
     2
 72
     1
  1
1
  7
SLDTEXTSTYLE0
 73
     1
 44
1.0
  0
MTEXT
  5
158
330
1F
100
AcDbEntity
  8
0
  6
Continuous
 62
     7
370
    18
100
AcDbMText
 10
190.0227230239
 20
8.7073169286
 30
0.0
 40
2.0
 41
0.0
 71
     2
 72
     1
  1
4
  7
SLDTEXTSTYLE0
 73
     1
 44
1.0
  0
MTEXT
  5
159
330
1F
100
AcDbEntity
  8
0
  6
Continuous
 62
     7
370
    18
100
AcDbMText
 10
140.0453427777
 20
8.5647154541
 30
0.0
 40
2.0
 41
0.0
 71
     2
 72
     1
  1
3
  7
SLDTEXTSTYLE0
 73
     1
 44
1.0
  0
MTEXT
  5
15A
330
1F
100
AcDbEntity
  8
0
  6
Continuous
 62
     7
370
    18
100
AcDbMText
 10
239.8749782531
 20
8.5637526825
 30
0.0
 40
2.0
 41
0.0
 71
     2
 72
     1
  1
5
  7
SLDTEXTSTYLE0
 73
     1
 44
1.0
  0
MTEXT
  5
15B
330
1F
100
AcDbEntity
  8
0
  6
Continuous
 62
     7
370
    18
100
AcDbMText
 10
412.6717254925
 20
224.51208263
 30
0.0
 40
2.0
 41
0.0
 71
     2
 72
     1
  1
B
  7
SLDTEXTSTYLE0
 73
     1
 44
1.0
  0
MTEXT
  5
15C
330
1F
100
AcDbEntity
  8
0
  6
Continuous
 62
     7
370
    18
100
AcDbMText
 10
412.5951211154
 20
271.2798202564
 30
0.0
 40
2.0
 41
0.0
 71
     2
 72
     1
  1
A
  7
SLDTEXTSTYLE0
 73
     1
 44
1.0
  0
MTEXT
  5
15D
330
1F
100
AcDbEntity
  8
0
  6
Continuous
 62
     7
370
    18
100
AcDbMText
 10
412.6491448679
 20
174.7279841048
 30
0.0
 40
2.0
 41
0.0
 71
     2
 72
     1
  1
C
  7
SLDTEXTSTYLE0
 73
     1
 44
1.0
  0
MTEXT
  5
15E
330
1F
100
AcDbEntity
  8
0
  6
Continuous
 62
     7
370
    18
100
AcDbMText
 10
340.0216466634
 20
290.5954278102
 30
0.0
 40
2.0
 41
0.0
 71
     2
 72
     1
  1
7
  7
SLDTEXTSTYLE0
 73
     1
 44
1.0
  0
MTEXT
  5
15F
330
1F
100
AcDbEntity
  8
0
  6
Continuous
 62
     7
370
    18
100
AcDbMText
 10
390.037657264
 20
290.6215496941
 30
0.0
 40
2.0
 41
0.0
 71
     2
 72
     1
  1
8
  7
SLDTEXTSTYLE0
 73
     1
 44
1.0
  0
MTEXT
  5
160
330
1F
100
AcDbEntity
  8
0
  6
Continuous
 62
     7
370
    18
100
AcDbMText
 10
17.6897935208
 20
74.7267628143
 30
0.0
 40
2.0
 41
0.0
 71
     2
 72
     1
  1
E
  7
SLDTEXTSTYLE0
 73
     1
 44
1.0
  0
MTEXT
  5
161
330
1F
100
AcDbEntity
  8
0
  6
Continuous
 62
     7
370
    18
100
AcDbMText
 10
17.5936930126
 20
27.773321616
 30
0.0
 40
2.0
 41
0.0
 71
     2
 72
     1
  1
F
  7
SLDTEXTSTYLE0
 73
     1
 44
1.0
  0
MTEXT
  5
162
330
1F
100
AcDbEntity
  8
0
  6
Continuous
 62
     7
370
    18
100
AcDbMText
 10
339.8003474583
 20
8.7205095051
 30
0.0
 40
2.0
 41
0.0
 71
     2
 72
     1
  1
7
  7
SLDTEXTSTYLE0
 73
     1
 44
1.0
  0
MTEXT
  5
163
330
1F
100
AcDbEntity
  8
0
  6
Continuous
 62
     7
370
    18
100
AcDbMText
 10
289.7886477179
 20
8.6884673623
 30
0.0
 40
2.0
 41
0.0
 71
     2
 72
     1
  1
6
  7
SLDTEXTSTYLE0
 73
     1
 44
1.0
  0
MTEXT
  5
164
330
1F
100
AcDbEntity
  8
0
  6
Continuous
 62
     7
370
    18
100
AcDbMText
 10
412.5160699095
 20
74.5096307526
 30
0.0
 40
2.0
 41
0.0
 71
     2
 72
     1
  1
E
  7
SLDTEXTSTYLE0
 73
     1
 44
1.0
  0
MTEXT
  5
165
330
1F
100
AcDbEntity
  8
0
  6
Continuous
 62
     7
370
    18
100
AcDbMText
 10
412.6234021365
 20
124.4517683275
 30
0.0
 40
2.0
 41
0.0
 71
     2
 72
     1
  1
D
  7
SLDTEXTSTYLE0
 73
     1
 44
1.0
  0
MTEXT
  5
166
330
1F
100
AcDbEntity
  8
0
  6
Continuous
 62
     7
370
    18
100
AcDbMText
 10
411.7952690469
 20
41.8457885264
 30
0.0
 40
1.8
 41
0.0
 71
     3
 72
     1
  1
Plotdatum: 15.09.2024
  7
SLDTEXTSTYLE0
 11
-3.269436733918102E-15
 21
1.0
 31
0.0
 73
     1
 44
1.0
  0
MTEXT
  5
167
330
1F
100
AcDbEntity
  8
0
  6
Continuous
 62
     7
370
    18
100
AcDbMText
 10
412.557933251
 20
8.2549718046
 30
0.0
 40
1.8
 41
0.0
 71
     2
 72
     1
  1
A3
  7
SLDTEXTSTYLE0
 73
     1
 44
1.0
  0
MTEXT
  5
168
330
1F
100
AcDbEntity
  8
0
  6
Continuous
 62
     7
370
    18
100
AcDbMText
 10
390.594604279
 20
8.3847467643
 30
0.0
 40
1.8
 41
0.0
 71
     2
 72
     1
  1
CAD-System: SolidWorks
  7
SLDTEXTSTYLE0
 73
     1
 44
1.0
  0
MTEXT
  5
169
330
1F
100
AcDbEntity
  8
0
  6
Continuous
 62
     7
370
    18
100
AcDbMText
 10
403.9986368527
 20
28.4394692021
 30
0.0
 40
5.0
 41
0.0
 71
     2
 72
     1
  1
B
  7
SLDTEXTSTYLE0
 73
     1
 44
1.0
  0
MTEXT
  5
16A
330
1F
100
AcDbEntity
  8
0
  6
Continuous
 62
     7
370
    18
100
AcDbMText
 10
249.556836311
 20
38.5581729516
 30
0.0
 40
2.0
 41
0.0
 71
     1
 72
     1
  1
Freigegeben
  7
SLDTEXTSTYLE0
 73
     1
 44
1.0
  0
MTEXT
  5
16B
330
1F
100
AcDbEntity
  8
0
  6
Continuous
 62
     7
370
    18
100
AcDbMText
 10
284.1045975735
 20
43.5473338598
 30
0.0
 40
2.0
 41
0.0
 71
     2
 72
     1
  1
Hans
  7
SLDTEXTSTYLE0
 73
     1
 44
1.0
  0
MTEXT
  5
16C
330
1F
100
AcDbEntity
  8
0
  6
Continuous
 62
     7
370
    18
100
AcDbMText
 10
249.5284668163
 20
43.5603133928
 30
0.0
 40
2.0
 41
0.0
 71
     1
 72
     1
  1
15.09.2024
  7
SLDTEXTSTYLE0
 73
     1
 44
1.0
  0
MTEXT
  5
16D
330
1F
100
AcDbEntity
  8
0
  6
Continuous
 62
     7
370
    18
100
AcDbMText
 10
284.1309088133
 20
48.5138972561
 30
0.0
 40
2.0
 41
0.0
 71
     2
 72
     1
  1
AB
  7
SLDTEXTSTYLE0
 73
     1
 44
1.0
  0
MTEXT
  5
16E
330
1F
100
AcDbEntity
  8
0
  6
Continuous
 62
     7
370
    18
100
AcDbMText
 10
249.5284668163
 20
48.4989062069
 30
0.0
 40
2.0
 41
0.0
 71
     1
 72
     1
  1
04.02.2021
  7
SLDTEXTSTYLE0
 73
     1
 44
1.0
  0
MTEXT
  5
16F
330
1F
100
AcDbEntity
  8
0
  6
Continuous
 62
     7
370
     0
100
AcDbMText
 10
372.2007348103
 20
38.8723054925
 30
0.0
 40
1.5
 41
0.0
 71
     1
 72
     1
  1
Copyright reserved! © ACO AG
  7
SLDTEXTSTYLE0
 73
     1
 44
1.0
  0
INSERT
  5
178
330
1F
100
AcDbEntity
  8
0
  6
Continuous
 62
     7
370
     0
100
AcDbBlockReference
  2
SW_NOTE_0_3
 10
372.2203831445
 20
51.2202922854
 30
0.0
  0
MTEXT
  5
179
330
1F
100
AcDbEntity
  8
0
  6
Continuous
 62
     7
370
    18
100
AcDbMText
 10
340.2645517654
 20
13.606872109
 30
0.0
 40
2.0
 41
0.0
 71
     2
 72
     1
  1
18.09.2023
  7
SLDTEXTSTYLE0
 73
     1
 44
1.0
  0
MTEXT
  5
17A
330
1F
100
AcDbEntity
  8
0
  6
Continuous
 62
     7
370
    18
100
AcDbMText
 10
364.9468572407
 20
13.5417229519
 30
0.0
 40
2.0
 41
0.0
 71
     1
 72
     1
  1
SAP-Nr.
  7
SLDTEXTSTYLE0
 73
     1
 44
1.0
  0
MTEXT
  5
17B
330
1F
100
AcDbEntity
  8
0
  6
Continuous
 62
     7
370
    18
100
AcDbMText
 10
354.2676663079
 20
13.606872109
 30
0.0
 40
2.0
 41
0.0
 71
     2
 72
     1
  1
bae
  7
SLDTEXTSTYLE0
 73
     1
 44
1.0
  0
MTEXT
  5
17C
330
1F
100
AcDbEntity
  8
0
  6
Continuous
 62
     7
370
    18
100
AcDbMText
 10
330.227417144
 20
13.524501801
 30
0.0
 40
2.0
 41
0.0
 71
     2
 72
     1
  1
A
  7
SLDTEXTSTYLE0
 73
     1
 44
1.0
  0
MTEXT
  5
17D
330
1F
100
AcDbEntity
  8
0
  6
Continuous
 62
     7
370
    18
100
AcDbMText
 10
364.9468572407
 20
18.4594173137
 30
0.0
 40
2.0
 41
0.0
 71
     1
 72
     1
  1
SAP-Nr.
  7
SLDTEXTSTYLE0
 73
     1
 44
1.0
  0
MTEXT
  5
17E
330
1F
100
AcDbEntity
  8
0
  6
Continuous
 62
     7
370
    18
100
AcDbMText
 10
354.2897149303
 20
18.5245664709
 30
0.0
 40
2.0
 41
0.0
 71
     2
 72
     1
  1
Hans
  7
SLDTEXTSTYLE0
 73
     1
 44
1.0
  0
MTEXT
  5
17F
330
1F
100
AcDbEntity
  8
0
  6
Continuous
 62
     7
370
    18
100
AcDbMText
 10
340.3028682291
 20
18.5245664709
 30
0.0
 40
2.0
 41
0.0
 71
     2
 72
     1
  1
12.09.2024
  7
SLDTEXTSTYLE0
 73
     1
 44
1.0
  0
MTEXT
  5
180
330
1F
100
AcDbEntity
  8
0
  6
Continuous
 62
     7
370
    18
100
AcDbMText
 10
330.2494657985
 20
18.524501801
 30
0.0
 40
2.0
 41
0.0
 71
     2
 72
     1
  1
B
  7
SLDTEXTSTYLE0
 73
     1
 44
1.0
  0
MTEXT
  5
181
330
1F
100
AcDbEntity
  8
0
  6
Continuous
 62
     7
370
    18
100
AcDbMText
 10
311.764909851
 20
46.3490312465
 30
0.0
 40
5.0
 41
0.0
 71
     2
 72
     1
  1
1:1
  7
SLDTEXTSTYLE0
 73
     1
 44
1.0
  0
MTEXT
  5
182
330
1F
100
AcDbEntity
  8
0
  6
Continuous
 62
     7
370
    18
100
AcDbMText
 10
230.1851195342
 20
38.7793829468
 30
0.0
 40
2.0
 41
0.0
 71
     1
 72
     1
  1
Status:
  7
SLDTEXTSTYLE0
 73
     1
 44
1.0
  0
MTEXT
  5
183
330
1F
100
AcDbEntity
  8
0
  6
Continuous
 62
     7
370
    18
100
AcDbMText
 10
344.926838705
 20
28.2772828851
 30
0.0
 40
5.0
 41
0.0
 71
     1
 72
     1
  1
98401
  7
SLDTEXTSTYLE0
 73
     1
 44
1.0
  0
MTEXT
  5
184
330
1F
100
AcDbEntity
  8
0
  6
Continuous
 62
     7
370
    18
100
AcDbMText
 10
231.1132118803
 20
14.9211049657
 30
0.0
 40
2.5
 41
0.0
 71
     1
 72
     1
  1
Art. Nr.: 2021383
  7
SLDTEXTSTYLE0
 73
     1
 44
1.0
  0
MTEXT
  5
185
330
1F
100
AcDbEntity
  8
0
  6
Continuous
 62
     7
370
    18
100
AcDbMText
 10
231.1475981734
 20
21.4529560996
 30
0.0
 40
2.5
 41
0.0
 71
     1
 72
     1
  1
Pipe Dichtung EPDM
  7
SLDTEXTSTYLE0
 73
     1
 44
1.0
  0
MTEXT
  5
186
330
1F
100
AcDbEntity
  8
0
  6
Continuous
 62
     7
370
    18
100
AcDbMText
 10
231.1159560181
 20
33.0904969858
 30
0.0
 40
2.5
 41
0.0
 71
     1
 72
     1
  1
ACO-Standard
  7
SLDTEXTSTYLE0
 73
     1
 44
1.0
  0
MTEXT
  5
187
330
1F
100
AcDbEntity
  8
0
  6
Continuous
 62
     7
370
    18
100
AcDbMText
 10
231.1475981734
 20
28.0307932366
 30
0.0
 40
3.5
 41
0.0
 71
     1
 72
     1
  1
Pipe Dichtung Ø75
  7
SLDTEXTSTYLE0
 73
     1
 44
1.0
  0
MTEXT
  5
188
330
1F
100
AcDbEntity
  8
0
  6
Continuous
 62
     7
370
    18
100
AcDbMText
 10
348.2746465368
 20
53.819119072
 30
0.0
 40
2.0
 41
0.0
 71
     1
 72
     1
  1
Projektion: ISO-E
  7
SLDTEXTSTYLE0
 73
     1
 44
1.0
  0
MTEXT
  5
189
330
1F
100
AcDbEntity
  8
0
  6
Continuous
 62
     7
370
    18
100
AcDbMText
 10
337.7677091855
 20
49.3670227094
 30
0.0
 40
2.5
 41
0.0
 71
     2
 72
     1
  1
Millimeter
  7
SLDTEXTSTYLE0
 73
     1
 44
1.0
  0
MTEXT
  5
18A
330
1F
100
AcDbEntity
  8
0
  6
Continuous
 62
     7
370
    18
100
AcDbMText
 10
337.6323777421
 20
53.855374072
 30
0.0
 40
2.0
 41
0.0
 71
     2
 72
     1
  1
Masseinheit:
  7
SLDTEXTSTYLE0
 73
     1
 44
1.0
  0
MTEXT
  5
18B
330
1F
100
AcDbEntity
  8
0
  6
Continuous
 62
     7
370
    18
100
AcDbMText
 10
337.6114490186
 20
43.5452078816
 30
0.0
 40
2.0
 41
0.0
 71
     2
 72
     1
  1
Blatt / Anz.:
  7
SLDTEXTSTYLE0
 73
     1
 44
1.0
  0
MTEXT
  5
18C
330
1F
100
AcDbEntity
  8
0
  6
Continuous
 62
     7
370
    18
100
AcDbMText
 10
329.2895578243
 20
28.4139191092
 30
0.0
 40
5.0
 41
0.0
 71
     1
 72
     1
  1
CH
  7
SLDTEXTSTYLE0
 73
     1
 44
1.0
  0
MTEXT
  5
18D
330
1F
100
AcDbEntity
  8
0
  6
Continuous
 62
     7
370
    18
100
AcDbMText
 10
330.40704
 20
33.692638072
 30
0.0
 40
2.0
 41
0.0
 71
     1
 72
     1
  1
Zeichnung Nr.:
  7
SLDTEXTSTYLE0
 73
     1
 44
1.0
  0
MTEXT
  5
18E
330
1F
100
AcDbEntity
  8
0
  6
Continuous
 62
     7
370
    18
100
AcDbMText
 10
269.897953
 20
75.161075072
 30
0.0
 40
2.0
 41
0.0
 71
     1
 72
     1
  1
Gewicht:
  7
SLDTEXTSTYLE0
 73
     1
 44
1.0
  0
MTEXT
  5
18F
330
1F
100
AcDbEntity
  8
0
  6
Continuous
 62
     7
370
    18
100
AcDbMText
 10
230.0
 20
64.542328072
 30
0.0
 40
2.0
 41
0.0
 71
     1
 72
     1
  1
zul. Abweichung:
  7
SLDTEXTSTYLE0
 73
     1
 44
1.0
  0
MTEXT
  5
190
330
1F
100
AcDbEntity
  8
0
  6
Continuous
 62
     7
370
    18
100
AcDbMText
 10
269.612607
 20
64.542328072
 30
0.0
 40
2.0
 41
0.0
 71
     1
 72
     1
  1
Oberfläche:
  7
SLDTEXTSTYLE0
 73
     1
 44
1.0
  0
MTEXT
  5
191
330
1F
100
AcDbEntity
  8
0
  6
Continuous
 62
     7
370
    18
100
AcDbMText
 10
230.261411
 20
43.4433838912
 30
0.0
 40
2.0
 41
0.0
 71
     1
 72
     1
  1
Freigegeben:
  7
SLDTEXTSTYLE0
 73
     1
 44
1.0
  0
MTEXT
  5
192
330
1F
100
AcDbEntity
  8
0
  6
Continuous
 62
     7
370
    18
100
AcDbMText
 10
230.0
 20
75.161075072
 30
0.0
 40
2.0
 41
0.0
 71
     1
 72
     1
  1
Werkstoff:
  7
SLDTEXTSTYLE0
 73
     1
 44
1.0
  0
MTEXT
  5
193
330
1F
100
AcDbEntity
  8
0
  6
Continuous
 62
     7
370
    18
100
AcDbMText
 10
254.035545
 20
53.129475072
 30
0.0
 40
2.0
 41
0.0
 71
     1
 72
     1
  1
Datum:
  7
SLDTEXTSTYLE0
 73
     1
 44
1.0
  0
MTEXT
  5
194
330
1F
100
AcDbEntity
  8
0
  6
Continuous
 62
     7
370
    18
100
AcDbMText
 10
279.934928
 20
53.136060072
 30
0.0
 40
2.0
 41
0.0
 71
     1
 72
     1
  1
Name:
  7
SLDTEXTSTYLE0
 73
     1
 44
1.0
  0
MTEXT
  5
195
330
1F
100
AcDbEntity
  8
0
  6
Continuous
 62
     7
370
    18
100
AcDbMText
 10
312.162455406
 20
53.881591072
 30
0.0
 40
2.0
 41
0.0
 71
     2
 72
     1
  1
Massstab:
  7
SLDTEXTSTYLE0
 73
     1
 44
1.0
  0
MTEXT
  5
196
330
1F
100
AcDbEntity
  8
0
  6
Continuous
 62
     7
370
    18
100
AcDbMText
 10
403.9552944035
 20
33.324874072
 30
0.0
 40
2.0
 41
0.0
 71
     2
 72
     1
  1
Index:
  7
SLDTEXTSTYLE0
 73
     1
 44
1.0
  0
MTEXT
  5
197
330
1F
100
AcDbEntity
  8
0
  6
Continuous
 62
     7
370
    18
100
AcDbMText
 10
230.261411
 20
48.4499477886
 30
0.0
 40
2.0
 41
0.0
 71
     1
 72
     1
  1
Erstellt:
  7
SLDTEXTSTYLE0
 73
     1
 44
1.0
  0
MTEXT
  5
199
330
1F
100
AcDbEntity
  8
0
  6
Continuous
 62
     7
370
    18
100
AcDbMText
 10
337.6348165843
 20
39.869706576
 30
0.0
 40
2.5
 41
0.0
 71
     2
 72
     1
  1
1 / 1
  7
SLDTEXTSTYLE1
 73
     1
 44
1.0
  0
MTEXT
  5
19A
330
1F
100
AcDbEntity
  8
0
  6
Continuous
 62
     7
370
    18
100
AcDbMText
 10
269.612607
 20
60.8119428599
 30
0.0
 40
3.0
 41
0.0
 71
     1
 72
     1
  1
DIN ISO 1302
  7
SLDTEXTSTYLE0
 73
     1
 44
1.0
  0
MTEXT
  5
19B
330
1F
100
AcDbEntity
  8
0
  6
Continuous
 62
     7
370
    18
100
AcDbMText
 10
230.0
 20
60.8119428599
 30
0.0
 40
3.0
 41
0.0
 71
     1
 72
     1
  1
Norm
  7
SLDTEXTSTYLE0
 73
     1
 44
1.0
  0
MTEXT
  5
19C
330
1F
100
AcDbEntity
  8
0
  6
Continuous
 62
     7
370
    18
100
AcDbMText
 10
269.612607
 20
71.2121947186
 30
0.0
 40
3.0
 41
0.0
 71
     1
 72
     1
  1
0.02 kg
  7
SLDTEXTSTYLE0
 73
     1
 44
1.0
  0
MTEXT
  5
19D
330
1F
100
AcDbEntity
  8
0
  6
Continuous
 62
     7
370
    18
100
AcDbMText
 10
230.0
 20
71.2121947186
 30
0.0
 40
3.0
 41
0.0
 71
     1
 72
     1
  1
EPDM 60
  7
SLDTEXTSTYLE0
 73
     1
 44
1.0
  0
CIRCLE
  5
19E
330
1F
100
AcDbEntity
  8
0
  6
Continuous
 62
     7
370
    25
100
AcDbCircle
 10
134.4282219828
 20
121.7315948276
 30
0.0
 40
40.30300855687796
  0
CIRCLE
  5
19F
330
1F
100
AcDbEntity
  8
0
  6
Continuous
 62
     7
370
    25
100
AcDbCircle
 10
134.4282219828
 20
121.7315948276
 30
0.0
 40
42.89318015278297
  0
CIRCLE
  5
1A0
330
1F
100
AcDbEntity
  8
0
  6
Continuous
 62
     7
370
    25
100
AcDbCircle
 10
134.4282219828
 20
121.7315948276
 30
0.0
 40
40.20803846942479
  0
CIRCLE
  5
1A1
330
1F
100
AcDbEntity
  8
0
  6
Continuous
 62
     7
370
    25
100
AcDbCircle
 10
134.4282219828
 20
121.7315948276
 30
0.0
 40
42.89999999984869
  0
CIRCLE
  5
1A2
330
1F
100
AcDbEntity
  8
0
  6
Continuous
 62
     7
370
    25
100
AcDbCircle
 10
134.4282219828
 20
121.7315948276
 30
0.0
 40
35.09390887643663
  0
CIRCLE
  5
1A3
330
1F
100
AcDbEntity
  8
0
  6
Continuous
 62
     7
370
    25
100
AcDbCircle
 10
134.4282219828
 20
121.7315948276
 30
0.0
 40
43.15248874115255
  0
CIRCLE
  5
1A4
330
1F
100
AcDbEntity
  8
0
  6
Continuous
 62
     7
370
    25
100
AcDbCircle
 10
134.4282219828
 20
121.7315948276
 30
0.0
 40
39.22640283746962
  0
CIRCLE
  5
1A5
330
1F
100
AcDbEntity
  8
0
  6
Continuous
 62
     8
370
    18
100
AcDbCircle
 10
134.4282219828
 20
121.7315948276
 30
0.0
 40
40.76944579386135
  0
CIRCLE
  5
1A6
330
1F
100
AcDbEntity
  8
0
  6
Continuous
 62
     8
370
    18
100
AcDbCircle
 10
134.4282219828
 20
121.7315948276
 30
0.0
 40
41.41446346968316
  0
CIRCLE
  5
1A7
330
1F
100
AcDbEntity
  8
0
  6
Continuous
 62
     8
370
    18
100
AcDbCircle
 10
134.4282219828
 20
121.7315948276
 30
0.0
 40
41.60934882036274
  0
CIRCLE
  5
1A8
330
1F
100
AcDbEntity
  8
0
  6
Continuous
 62
     8
370
    18
100
AcDbCircle
 10
134.4282219828
 20
121.7315948276
 30
0.0
 40
42.75008054857661
  0
CIRCLE
  5
1A9
330
1F
100
AcDbEntity
  8
0
  6
Continuous
 62
     8
370
    18
100
AcDbCircle
 10
134.4282219828
 20
121.7315948276
 30
0.0
 40
40.2310445234118
  0
CIRCLE
  5
1AA
330
1F
100
AcDbEntity
  8
0
  6
Continuous
 62
     8
370
    18
100
AcDbCircle
 10
134.4282219828
 20
121.7315948276
 30
0.0
 40
38.61962470814403
  0
CIRCLE
  5
1AB
330
1F
100
AcDbEntity
  8
0
  6
Continuous
 62
     8
370
    18
100
AcDbCircle
 10
134.4282219828
 20
121.7315948276
 30
0.0
 40
36.31612974649546
  0
CIRCLE
  5
1AC
330
1F
100
AcDbEntity
  8
0
  6
Continuous
 62
     8
370
    18
100
AcDbCircle
 10
134.4282219828
 20
121.7315948276
 30
0.0
 40
36.08098212141745
  0
CIRCLE
  5
1AD
330
1F
100
AcDbEntity
  8
0
  6
Continuous
 62
     8
370
    18
100
AcDbCircle
 10
134.4282219828
 20
121.7315948276
 30
0.0
 40
35.21595096278436
  0
CIRCLE
  5
1AE
330
1F
100
AcDbEntity
  8
0
  6
Continuous
 62
     8
370
    18
100
AcDbCircle
 10
134.4282219828
 20
121.7315948276
 30
0.0
 40
43.14176288628734
  0
DIMENSION
  5
1AF
330
1F
100
AcDbEntity
  8
0
  6
Continuous
 62
     7
370
    18
100
AcDbDimension
  2
_D
 10
103.9148045688
 20
91.2181774136
 30
0.0
 11
172.7750745819
 21
160.0784474267
 31
0.0
 70
   163
  1
<>
 71
     1
 42
-1.0
  3
SLDDIMSTYLE0
100
AcDbDiametricDimension
 15
164.9416393967
 25
152.2450122415
 35
0.0
 40
0.0
  0
DIMENSION
  5
1B8
330
1F
100
AcDbEntity
  8
0
  6
Continuous
 62
     7
370
    18
100
AcDbDimension
  2
_D_1
 10
164.8204385878
 20
139.2785492658
 30
0.0
 11
180.6979563839
 21
148.4454426659
 31
0.0
 70
   163
  1
<>
 71
     1
 42
-1.0
  3
SLDDIMSTYLE1
100
AcDbDiametricDimension
 15
104.0360053777
 25
104.1846403894
 35
0.0
 40
0.0
  0
INSERT
  5
1CE
330
1F
100
AcDbEntity
  8
0
  6
Continuous
 62
     7
370
     0
100
AcDbBlockReference
  2
SW_CENTERMARKSYMBOL_0
 10
134.4282219828
 20
121.7315948276
 30
0.0
  0
LINE
  5
1CF
330
1F
100
AcDbEntity
  8
0
  6
CENTER
 62
     7
370
    18
100
AcDbLine
 10
184.3356478405
 20
121.7315948276
 30
0.0
 11
84.6975747508
 21
121.7315948276
 31
0.0
  0
LINE
  5
1D0
330
1F
100
AcDbEntity
  8
0
  6
Continuous
 62
     7
370
    18
100
AcDbLine
 10
182.3356478405
 20
114.1315948276
 30
0.0
 11
182.3356478405
 21
121.7315948276
 31
0.0
  0
SOLID
  5
1D1
330
1F
100
AcDbEntity
  8
0
  6
Continuous
 62
     7
370
    18
100
AcDbTrace
 10
182.3356478405
 20
121.7315948276
 30
0.0
 11
181.5356478405
 21
116.7315948276
 31
0.0
 12
183.1356478405
 22
116.7315948276
 32
0.0
 13
183.1356478405
 23
116.7315948276
 33
0.0
  0
LINE
  5
1D2
330
1F
100
AcDbEntity
  8
0
  6
Continuous
 62
     7
370
    18
100
AcDbLine
 10
86.6975747508
 20
114.1315948276
 30
0.0
 11
86.6975747508
 21
121.7315948276
 31
0.0
  0
SOLID
  5
1D3
330
1F
100
AcDbEntity
  8
0
  6
Continuous
 62
     7
370
    18
100
AcDbTrace
 10
86.6975747508
 20
121.7315948276
 30
0.0
 11
85.8975747508
 21
116.7315948276
 31
0.0
 12
87.4975747508
 22
116.7315948276
 32
0.0
 13
87.4975747508
 23
116.7315948276
 33
0.0
  0
MTEXT
  5
1D4
330
1F
100
AcDbEntity
  8
0
  6
Continuous
 62
     7
100
AcDbMText
 10
180.3092165157
 20
112.5749346068
 30
0.0
 40
5.0
 41
0.0
 71
     1
 72
     1
  1
A
  7
SLDTEXTSTYLE0
 73
     1
 44
1.0
  0
MTEXT
  5
1D5
330
1F
100
AcDbEntity
  8
0
  6
Continuous
 62
     7
100
AcDbMText
 10
84.3127255837
 20
112.407193743
 30
0.0
 40
5.0
 41
0.0
 71
     1
 72
     1
  1
A
  7
SLDTEXTSTYLE0
 73
     1
 44
1.0
  0
LINE
  5
1D6
330
1F
100
AcDbEntity
  8
0
  6
Continuous
 62
     7
370
    25
100
AcDbLine
 10
94.551283236
 20
216.7503509398
 30
0.0
 11
174.3051607295
 21
216.7503509398
 31
0.0
  0
LINE
  5
1D7
330
1F
100
AcDbEntity
  8
0
  6
Continuous
 62
     7
370
    25
100
AcDbLine
 10
171.1439218092
 20
221.6496293513
 30
0.0
 11
97.7125221564
 21
221.6496293513
 31
0.0
  0
LINE
  5
1D8
330
1F
100
AcDbEntity
  8
0
  6
Continuous
 62
     7
370
    25
100
AcDbLine
 10
91.390212925
 20
223.3718429085
 30
0.0
 11
92.0688717535
 21
223.3718429085
 31
0.0
  0
LINE
  5
1D9
330
1F
100
AcDbEntity
  8
0
  6
Continuous
 62
     7
370
    25
100
AcDbLine
 10
176.787572212
 20
223.3718429085
 30
0.0
 11
177.4662310406
 21
223.3718429085
 31
0.0
  0
LINE
  5
1DA
330
1F
100
AcDbEntity
  8
0
  6
Continuous
 62
     7
370
    25
100
AcDbLine
 10
97.5650026279
 20
225.9186277605
 30
0.0
 11
171.2914413376
 21
225.9186277605
 31
0.0
  0
LINE
  5
1DB
330
1F
100
AcDbEntity
  8
0
  6
Continuous
 62
     7
370
    25
100
AcDbLine
 10
173.0822264036
 20
229.3536559618
 30
0.0
 11
95.7742175619
 21
229.3536559618
 31
0.0
  0
LINE
  5
1DC
330
1F
100
AcDbEntity
  8
0
  6
Continuous
 62
     7
370
    25
100
AcDbLine
 10
175.0746695896
 20
233.3518688878
 30
0.0
 11
93.7817743759
 21
233.3518688878
 31
0.0
  0
ARC
  5
1DD
330
1F
100
AcDbEntity
  8
0
  6
Continuous
 62
     7
370
    25
100
AcDbCircle
 10
177.0737714205
 20
218.7885195716
 30
0.0
 40
0.2861992083608247
100
AcDbArc
 50
179.9999999945
 51
239.9999999949
  0
LINE
  5
1DE
330
1F
100
AcDbEntity
  8
0
  6
Continuous
 62
     7
370
    25
100
AcDbLine
 10
176.9306718163
 20
218.5406637867
 30
0.0
 11
177.1851223786
 21
218.3937566861
 31
0.0
  0
ARC
  5
1DF
330
1F
100
AcDbEntity
  8
0
  6
Continuous
 62
     7
370
    25
100
AcDbCircle
 10
177.0420227744
 20
218.1459009011
 30
0.0
 40
0.2861992083447504
100
AcDbArc
 50
300.0000000008
 51
60.0000000004
  0
LINE
  5
1E0
330
1F
100
AcDbEntity
  8
0
  6
Continuous
 62
     7
370
    25
100
AcDbLine
 10
177.1851223786
 20
217.8980451161
 30
0.0
 11
175.6286558752
 21
216.9994187614
 31
0.0
  0
ARC
  5
1E1
330
1F
100
AcDbEntity
  8
0
  6
Continuous
 62
     7
370
    25
100
AcDbCircle
 10
174.9417777752
 20
218.1891265291
 30
0.0
 40
1.373756199883092
100
AcDbArc
 50
276.0000000009
 51
300.0000000009
  0
LINE
  5
1E2
330
1F
100
AcDbEntity
  8
0
  6
Continuous
 62
     7
370
    25
100
AcDbLine
 10
175.0853743997
 20
216.8228959094
 30
0.0
 11
174.4846565104
 21
216.759757915
 31
0.0
  0
ARC
  5
1E3
330
1F
100
AcDbEntity
  8
0
  6
Continuous
 62
     7
370
    25
100
AcDbCircle
 10
174.3051607295
 20
218.4675461896
 30
0.0
 40
1.71719524983918
100
AcDbArc
 50
261.2885026267
 51
276.0000000087
  0
LINE
  5
1E4
330
1F
100
AcDbEntity
  8
0
  6
Continuous
 62
     7
370
    25
100
AcDbLine
 10
173.0835206566
 20
216.9174974217
 30
0.0
 11
174.0450757531
 21
216.770161339
 31
0.0
  0
ARC
  5
1E5
330
1F
100
AcDbEntity
  8
0
  6
Continuous
 62
     7
370
    25
100
AcDbCircle
 10
173.1360778462
 20
217.2604998456
 30
0.0
 40
0.3470056497243093
100
AcDbArc
 50
180.0000000009
 51
261.2885026204
  0
LINE
  5
1E6
330
1F
100
AcDbEntity
  8
0
  6
Continuous
 62
     7
370
    25
100
AcDbLine
 10
172.7890721965
 20
218.0748063777
 30
0.0
 11
172.7890721965
 21
217.2604998456
 31
0.0
  0
ARC
  5
1E7
330
1F
100
AcDbEntity
  8
0
  6
Continuous
 62
     7
370
    25
100
AcDbCircle
 10
172.5601128298
 20
218.0748063777
 30
0.0
 40
0.2289593666488292
100
AcDbArc
 50
0.0
 51
28.000000002
  0
LINE
  5
1E8
330
1F
100
AcDbEntity
  8
0
  6
Continuous
 62
     7
370
    25
100
AcDbLine
 10
171.4313514012
 20
220.6853937915
 30
0.0
 11
172.7622719515
 21
218.1822962893
 31
0.0
  0
ARC
  5
1E9
330
1F
100
AcDbEntity
  8
0
  6
Continuous
 62
     7
370
    25
100
AcDbCircle
 10
170.9259535971
 20
220.4166690123
 30
0.0
 40
0.5723984166424451
100
AcDbArc
 50
27.9999999974
 51
76.231542418
  0
ARC
  5
1EA
330
1F
100
AcDbEntity
  8
0
  6
Continuous
 62
     7
370
    25
100
AcDbCircle
 10
171.1439218092
 20
221.3061903014
 30
0.0
 40
0.3434390499494434
100
AcDbArc
 50
79.0000000018
 51
256.2315424214
  0
LINE
  5
1EB
330
1F
100
AcDbEntity
  8
0
  6
Continuous
 62
     7
370
    25
100
AcDbLine
 10
171.2094530692
 20
221.6433194087
 30
0.0
 11
171.7599175758
 21
221.5363199478
 31
0.0
  0
ARC
  5
1EC
330
1F
100
AcDbEntity
  8
0
  6
Continuous
 62
     7
370
    25
100
AcDbCircle
 10
171.8691363426
 20
222.0982017933
 30
0.0
 40
0.5723984166424471
100
AcDbArc
 50
259.0000000006
 51
0.0000000009
  0
LINE
  5
1ED
330
1F
100
AcDbEntity
  8
0
  6
Continuous
 62
     7
370
    25
100
AcDbLine
 10
172.4415347591
 20
224.269789763
 30
0.0
 11
172.4415347592
 21
222.0982017933
 31
0.0
  0
ARC
  5
1EE
330
1F
100
AcDbEntity
  8
0
  6
Continuous
 62
     7
370
    25
100
AcDbCircle
 10
172.2125753925
 20
224.269789763
 30
0.0
 40
0.2289593667154089
100
AcDbArc
 50
0.0
 51
46.0610789805
  0
LINE
  5
1EF
330
1F
100
AcDbEntity
  8
0
  6
Continuous
 62
     7
370
    25
100
AcDbLine
 10
172.1733628825
 20
224.6255399702
 30
0.0
 11
172.3714482681
 21
224.4346588049
 31
0.0
  0
ARC
  5
1F0
330
1F
100
AcDbEntity
  8
0
  6
Continuous
 62
     7
370
    25
100
AcDbCircle
 10
172.3719539772
 20
224.8316262725
 30
0.0
 40
0.2861992083435552
100
AcDbArc
 50
164.9999999834
 51
226.0610789439
  0
LINE
  5
1F1
330
1F
100
AcDbEntity
  8
0
  6
Continuous
 62
     7
370
    25
100
AcDbLine
 10
172.1573546491
 20
225.1365195041
 30
0.0
 11
172.0955067704
 21
224.9057000784
 31
0.0
  0
ARC
  5
1F2
330
1F
100
AcDbEntity
  8
0
  6
Continuous
 62
     7
370
    25
100
AcDbCircle
 10
171.9914863251
 20
225.1809637875
 30
0.0
 40
0.171719524985438
100
AcDbArc
 50
345.0000000171
 51
14.7005665806
  0
LINE
  5
1F3
330
1F
100
AcDbEntity
  8
0
  6
Continuous
 62
     7
370
    25
100
AcDbLine
 10
171.9790715326
 20
225.904964755
 30
0.0
 11
172.1575846532
 21
225.2245406237
 31
0.0
  0
ARC
  5
1F4
330
1F
100
AcDbEntity
  8
0
  6
Continuous
 62
     7
370
    25
100
AcDbCircle
 10
171.8129732044
 20
225.8613879188
 30
0.0
 40
0.1717195249849143
100
AcDbArc
 50
14.7005665781
 51
103.5831004042
  0
LINE
  5
1F5
330
1F
100
AcDbEntity
  8
0
  6
Continuous
 62
     7
370
    25
100
AcDbLine
 10
171.7726439434
 20
226.0283045026
 30
0.0
 11
171.3452136856
 21
225.925031682
 31
0.0
  0
ARC
  5
1F6
330
1F
100
AcDbEntity
  8
0
  6
Continuous
 62
     7
370
    25
100
AcDbCircle
 10
171.2914413376
 20
226.1475871271
 30
0.0
 40
0.2289593666520534
100
AcDbArc
 50
165.9023045184
 51
283.583100384
  0
LINE
  5
1F7
330
1F
100
AcDbEntity
  8
0
  6
Continuous
 62
     7
370
    25
100
AcDbLine
 10
171.2833206253
 20
227.0552431921
 30
0.0
 11
171.069377812
 21
226.2033561343
 31
0.0
  0
ARC
  5
1F8
330
1F
100
AcDbEntity
  8
0
  6
Continuous
 62
     7
370
    25
100
AcDbCircle
 10
171.0057412182
 20
227.124954451
 30
0.0
 40
0.2861992083435395
100
AcDbArc
 50
345.9023045271
 51
65.7584100066
  0
LINE
  5
1F9
330
1F
100
AcDbEntity
  8
0
  6
Continuous
 62
     7
370
    25
100
AcDbLine
 10
170.0342600105
 20
227.8762793773
 30
0.0
 11
171.1232503252
 21
227.3859172771
 31
0.0
  0
LINE
  5
1FA
330
1F
100
AcDbEntity
  8
0
  6
Continuous
 62
     7
370
    25
100
AcDbLine
 10
169.6908209605
 20
228.0309267524
 30
0.0
 11
170.0342600105
 21
227.8762793773
 31
0.0
  0
ARC
  5
1FB
330
1F
100
AcDbEntity
  8
0
  6
Continuous
 62
     7
370
    25
100
AcDbCircle
 10
169.8083300675
 20
228.2918895786
 30
0.0
 40
0.2861992083435634
100
AcDbArc
 50
125.0000000016
 51
245.7584100007
  0
LINE
  5
1FC
330
1F
100
AcDbEntity
  8
0
  6
Continuous
 62
     7
370
    25
100
AcDbLine
 10
170.5092041042
 20
229.1320315834
 30
0.0
 11
169.6441729455
 21
228.5263302451
 31
0.0
  0
ARC
  5
1FD
330
1F
100
AcDbEntity
  8
0
  6
Continuous
 62
     7
370
    25
100
AcDbCircle
 10
170.7718554994
 20
228.7569265168
 30
0.0
 40
0.4579187334185273
100
AcDbArc
 50
93.4434035112
 51
124.9999999972
  0
LINE
  5
1FE
330
1F
100
AcDbEntity
  8
0
  6
Continuous
 62
     7
370
    25
100
AcDbLine
 10
173.0478466909
 20
229.3526225622
 30
0.0
 11
170.7443517293
 21
229.2140185305
 31
0.0
  0
ARC
  5
1FF
330
1F
100
AcDbEntity
  8
0
  6
Continuous
 62
     7
370
    25
100
AcDbCircle
 10
173.0822264036
 20
228.7812575452
 30
0.0
 40
0.5723984166424716
100
AcDbArc
 50
0.0000000001
 51
93.4434035112
  0
LINE
  5
200
330
1F
100
AcDbEntity
  8
0
  6
Continuous
 62
     7
370
    25
100
AcDbLine
 10
173.6546248202
 20
228.7812575452
 30
0.0
 11
173.6546248202
 21
228.5183685408
 31
0.0
  0
ARC
  5
201
330
1F
100
AcDbEntity
  8
0
  6
Continuous
 62
     7
370
    25
100
AcDbCircle
 10
174.4559826035
 20
228.5183685408
 30
0.0
 40
0.8013577832639592
100
AcDbArc
 50
180.0
 51
25.7456652522
  0
LINE
  5
202
330
1F
100
AcDbEntity
  8
0
  6
Continuous
 62
     7
370
    25
100
AcDbLine
 10
174.6533068597
 20
229.9540373845
 30
0.0
 11
175.1777904851
 21
228.8664600214
 31
0.0
  0
ARC
  5
203
330
1F
100
AcDbEntity
  8
0
  6
Continuous
 62
     7
370
    25
100
AcDbCircle
 10
174.8079799772
 20
230.0286284161
 30
0.0
 40
0.1717195249854479
100
AcDbArc
 50
150.0000000235
 51
205.745665252
  0
LINE
  5
204
330
1F
100
AcDbEntity
  8
0
  6
Continuous
 62
     7
370
    25
100
AcDbLine
 10
174.7949331993
 20
230.3494697841
 30
0.0
 11
174.6592665062
 21
230.1144881785
 31
0.0
  0
ARC
  5
205
330
1F
100
AcDbEntity
  8
0
  6
Continuous
 62
     7
370
    25
100
AcDbCircle
 10
174.6462197283
 20
230.4353295465
 30
0.0
 40
0.1717195249851113
100
AcDbArc
 50
330.0000000236
 51
1.9365794019
  0
LINE
  5
206
330
1F
100
AcDbEntity
  8
0
  6
Continuous
 62
     7
370
    25
100
AcDbLine
 10
174.731426696
 20
232.9968239152
 30
0.0
 11
174.8178411748
 21
230.4411325076
 31
0.0
  0
ARC
  5
207
330
1F
100
AcDbEntity
  8
0
  6
Continuous
 62
     7
370
    25
100
AcDbCircle
 10
175.0746695896
 20
233.0084298379
 30
0.0
 40
0.3434390505499879
100
AcDbArc
 50
69.0141810445
 51
181.9365794701
  0
LINE
  5
208
330
1F
100
AcDbEntity
  8
0
  6
Continuous
 62
     7
370
    25
100
AcDbLine
 10
175.1976677766
 20
233.3290882652
 30
0.0
 11
175.8426854524
 21
233.0816723283
 31
0.0
  0
ARC
  5
209
330
1F
100
AcDbEntity
  8
0
  6
Continuous
 62
     7
370
    25
100
AcDbCircle
 10
175.3506927034
 20
231.7990386198
 30
0.0
 40
1.37375619988168
100
AcDbArc
 50
60.0000000083
 51
69.0141809952
  0
LINE
  5
20A
330
1F
100
AcDbEntity
  8
0
  6
Continuous
 62
     7
370
    25
100
AcDbLine
 10
176.0375708031
 20
232.9887463876
 30
0.0
 11
177.1783025313
 21
232.3301446175
 31
0.0
  0
ARC
  5
20B
330
1F
100
AcDbEntity
  8
0
  6
Continuous
 62
     7
370
    25
100
AcDbCircle
 10
177.0352029272
 20
232.0822888325
 30
0.0
 40
0.2861992083455976
100
AcDbArc
 50
299.9999999998
 51
60.0000000082
  0
LINE
  5
20C
330
1F
100
AcDbEntity
  8
0
  6
Continuous
 62
     7
370
    25
100
AcDbLine
 10
177.1783025314
 20
231.8344330475
 30
0.0
 11
176.923851969
 21
231.6875259469
 31
0.0
  0
ARC
  5
20D
330
1F
100
AcDbEntity
  8
0
  6
Continuous
 62
     7
370
    25
100
AcDbCircle
 10
177.0669515732
 20
231.4396701619
 30
0.0
 40
0.2861992083448472
100
AcDbArc
 50
119.9999999997
 51
180.3156413843
  0
LINE
  5
20E
330
1F
100
AcDbEntity
  8
0
  6
Continuous
 62
     7
370
    25
100
AcDbLine
 10
176.7807567078
 20
231.4380935038
 30
0.0
 11
176.787576555
 21
230.2001553624
 31
0.0
  0
ARC
  5
20F
330
1F
100
AcDbEntity
  8
0
  6
Continuous
 62
     7
370
    25
100
AcDbCircle
 10
177.0737714203
 20
230.2017320203
 30
0.0
 40
0.2861992083435433
100
AcDbArc
 50
180.3156413437
 51
239.9999999944
  0
LINE
  5
210
330
1F
100
AcDbEntity
  8
0
  6
Continuous
 62
     7
370
    25
100
AcDbLine
 10
176.9306718161
 20
229.9538762354
 30
0.0
 11
177.1851223784
 21
229.8069691347
 31
0.0
  0
ARC
  5
211
330
1F
100
AcDbEntity
  8
0
  6
Continuous
 62
     7
370
    25
100
AcDbCircle
 10
177.0420227743
 20
229.5591133498
 30
0.0
 40
0.2861992083435828
100
AcDbArc
 50
300.0000000007
 51
60.0000000014
  0
LINE
  5
212
330
1F
100
AcDbEntity
  8
0
  6
Continuous
 62
     7
370
    25
100
AcDbLine
 10
177.1851223784
 20
229.3112575649
 30
0.0
 11
176.9306718161
 21
229.1643504642
 31
0.0
  0
ARC
  5
213
330
1F
100
AcDbEntity
  8
0
  6
Continuous
 62
     7
370
    25
100
AcDbCircle
 10
177.0737714203
 20
228.9164946793
 30
0.0
 40
0.2861992083435609
100
AcDbArc
 50
120.0000000024
 51
180.000000001
  0
LINE
  5
214
330
1F
100
AcDbEntity
  8
0
  6
Continuous
 62
     7
370
    25
100
AcDbLine
 10
176.7875722119
 20
228.9164946792
 30
0.0
 11
176.787572212
 21
227.7026983085
 31
0.0
  0
ARC
  5
215
330
1F
100
AcDbEntity
  8
0
  6
Continuous
 62
     7
370
    25
100
AcDbCircle
 10
177.0737714203
 20
227.7026983085
 30
0.0
 40
0.2861992083746827
100
AcDbArc
 50
179.9999999951
 51
239.9999999944
  0
LINE
  5
216
330
1F
100
AcDbEntity
  8
0
  6
Continuous
 62
     7
370
    25
100
AcDbLine
 10
176.9306718161
 20
227.4548425235
 30
0.0
 11
177.1851223784
 21
227.3079354229
 31
0.0
  0
ARC
  5
217
330
1F
100
AcDbEntity
  8
0
  6
Continuous
 62
     7
370
    25
100
AcDbCircle
 10
177.0420227743
 20
227.0600796379
 30
0.0
 40
0.286199208343601
100
AcDbArc
 50
300.0000000008
 51
60.0000000004
  0
LINE
  5
218
330
1F
100
AcDbEntity
  8
0
  6
Continuous
 62
     7
370
    25
100
AcDbLine
 10
177.1851223784
 20
226.812223853
 30
0.0
 11
176.9306718161
 21
226.6653167524
 31
0.0
  0
ARC
  5
219
330
1F
100
AcDbEntity
  8
0
  6
Continuous
 62
     7
370
    25
100
AcDbCircle
 10
177.0737714203
 20
226.4174609674
 30
0.0
 40
0.2861992083435609
100
AcDbArc
 50
120.0000000023
 51
180.000000001
  0
LINE
  5
21A
330
1F
100
AcDbEntity
  8
0
  6
Continuous
 62
     7
370
    25
100
AcDbLine
 10
176.787572212
 20
226.4174609674
 30
0.0
 11
176.787572212
 21
225.2760419909
 31
0.0
  0
ARC
  5
21B
330
1F
100
AcDbEntity
  8
0
  6
Continuous
 62
     7
370
    25
100
AcDbCircle
 10
177.0737714203
 20
225.2760419911
 30
0.0
 40
0.2861992083435473
100
AcDbArc
 50
180.0000000363
 51
205.0000000351
  0
LINE
  5
21C
330
1F
100
AcDbEntity
  8
0
  6
Continuous
 62
     7
370
    25
100
AcDbLine
 10
176.8143868492
 20
225.155088979
 30
0.0
 11
177.569984869
 21
223.5347037966
 31
0.0
  0
ARC
  5
21D
330
1F
100
AcDbEntity
  8
0
  6
Continuous
 62
     7
370
    25
100
AcDbCircle
 10
177.4662310406
 20
223.4863225918
 30
0.0
 40
0.1144796833467685
100
AcDbArc
 50
234.9999999797
 51
24.9999999837
  0
LINE
  5
21E
330
1F
100
AcDbEntity
  8
0
  6
Continuous
 62
     7
370
    25
100
AcDbLine
 10
176.9677147442
 20
223.6956335721
 30
0.0
 11
177.4005681917
 21
223.3925463252
 31
0.0
  0
ARC
  5
21F
330
1F
100
AcDbEntity
  8
0
  6
Continuous
 62
     7
370
    25
100
AcDbCircle
 10
176.9020518954
 20
223.6018573054
 30
0.0
 40
0.1144796833467581
100
AcDbArc
 50
54.999999999
 51
180.0000000011
  0
LINE
  5
220
330
1F
100
AcDbEntity
  8
0
  6
Continuous
 62
     7
370
    25
100
AcDbLine
 10
176.787572212
 20
223.6018573054
 30
0.0
 11
176.787572212
 21
222.0230962038
 31
0.0
  0
ARC
  5
221
330
1F
100
AcDbEntity
  8
0
  6
Continuous
 62
     7
370
    25
100
AcDbCircle
 10
177.0737714204
 20
222.0230962038
 30
0.0
 40
0.2861992083730911
100
AcDbArc
 50
179.9999999945
 51
239.9999999949
  0
LINE
  5
222
330
1F
100
AcDbEntity
  8
0
  6
Continuous
 62
     7
370
    25
100
AcDbLine
 10
176.9306718162
 20
221.7752404189
 30
0.0
 11
177.1851223785
 21
221.6283333182
 31
0.0
  0
ARC
  5
223
330
1F
100
AcDbEntity
  8
0
  6
Continuous
 62
     7
370
    25
100
AcDbCircle
 10
177.0420227744
 20
221.3804775333
 30
0.0
 40
0.2861992083435544
100
AcDbArc
 50
300.0000000007
 51
60.0000000015
  0
LINE
  5
224
330
1F
100
AcDbEntity
  8
0
  6
Continuous
 62
     7
370
    25
100
AcDbLine
 10
177.1851223786
 20
221.1326217484
 30
0.0
 11
176.9306718162
 21
220.9857146477
 31
0.0
  0
ARC
  5
225
330
1F
100
AcDbEntity
  8
0
  6
Continuous
 62
     7
370
    25
100
AcDbCircle
 10
177.0737714204
 20
220.7378588628
 30
0.0
 40
0.2861992083435894
100
AcDbArc
 50
120.0000000036
 51
180.0000000009
  0
LINE
  5
226
330
1F
100
AcDbEntity
  8
0
  6
Continuous
 62
     7
370
    25
100
AcDbLine
 10
176.787572212
 20
220.7378588628
 30
0.0
 11
176.7875722121
 21
218.7885195717
 31
0.0
  0
ARC
  5
227
330
1F
100
AcDbEntity
  8
0
  6
Continuous
 62
     7
370
    25
100
AcDbCircle
 10
91.7826725451
 20
220.7378588628
 30
0.0
 40
0.2861992083435467
100
AcDbArc
 50
359.9999999991
 51
59.9999999964
  0
LINE
  5
228
330
1F
100
AcDbEntity
  8
0
  6
Continuous
 62
     7
370
    25
100
AcDbLine
 10
91.9257721493
 20
220.9857146477
 30
0.0
 11
91.6713215869
 21
221.1326217484
 31
0.0
  0
SPLINE
  5
229
330
1F
100
AcDbEntity
  8
0
  6
Continuous
 62
     7
370
    25
100
AcDbSpline
210
0.0
220
0.0
230
1.0
 70
     8
 71
     3
 72
    10
 73
     6
 74
     0
 42
0.00000001
 43
0.00000001
 40
0.0
 40
0.0
 40
0.0
 40
0.0
 40
0.5
 40
0.5
 40
1.0
 40
1.0
 40
1.0
 40
1.0
 10
91.67132158694666
 20
221.132621748361
 30
0.0
 10
91.5840001637645
 20
221.1830367955427
 30
0.0
 10
91.52823028662638
 20
221.2801601150343
 30
0.0
 10
91.52821368089106
 20
221.4807475653238
 30
0.0
 10
91.58400016377222
 20
221.5779182711217
 30
0.0
 10
91.67132158695631
 20
221.6283333183
 30
0.0
  0
LINE
  5
22A
330
1F
100
AcDbEntity
  8
0
  6
Continuous
 62
     7
370
    25
100
AcDbLine
 10
91.671321587
 20
221.6283333182
 30
0.0
 11
91.9257721493
 21
221.7752404189
 31
0.0
  0
ARC
  5
22B
330
1F
100
AcDbEntity
  8
0
  6
Continuous
 62
     7
370
    25
100
AcDbCircle
 10
91.7826725451
 20
222.0230962038
 30
0.0
 40
0.2861992083731053
100
AcDbArc
 50
300.0000000051
 51
0.0000000055
  0
LINE
  5
22C
330
1F
100
AcDbEntity
  8
0
  6
Continuous
 62
     7
370
    25
100
AcDbLine
 10
92.0688717535
 20
222.0230962038
 30
0.0
 11
92.0688717535
 21
223.6018573054
 31
0.0
  0
ARC
  5
22D
330
1F
100
AcDbEntity
  8
0
  6
Continuous
 62
     7
370
    25
100
AcDbCircle
 10
91.9543920702
 20
223.6018573054
 30
0.0
 40
0.1144796833467439
100
AcDbArc
 50
359.9999999989
 51
125.000000001
  0
LINE
  5
22E
330
1F
100
AcDbEntity
  8
0
  6
Continuous
 62
     7
370
    25
100
AcDbLine
 10
91.4558757738
 20
223.3925463252
 30
0.0
 11
91.8887292214
 21
223.6956335721
 31
0.0
  0
SPLINE
  5
22F
330
1F
100
AcDbEntity
  8
0
  6
Continuous
 62
     7
370
    25
100
AcDbSpline
210
0.0
220
0.0
230
1.0
 70
     8
 71
     3
 72
    29
 73
    25
 74
     0
 42
0.00000001
 43
0.00000001
 40
0.0
 40
0.0
 40
0.0
 40
0.0
 40
0.0000384390003401
 40
0.0000384390003401
 40
0.0000384390003401
 40
0.0000768780006801
 40
0.0000768780006801
 40
0.0000768780006801
 40
0.0001153170010212
 40
0.0001153170010212
 40
0.0001153170010212
 40
0.0001537560013623
 40
0.0001537560013623
 40
0.0001537560013623
 40
0.0001921950017033
 40
0.0001921950017033
 40
0.0001921950017033
 40
0.0002306340020444
 40
0.0002306340020444
 40
0.0002306340020444
 40
0.0002690730023855
 40
0.0002690730023855
 40
0.0002690730023855
 40
0.0002981697646197
 40
0.0002981697646197
 40
0.0002981697646197
 40
0.0002981697646197
 10
91.45587577379459
 20
223.3925463251894
 30
0.0
 10
91.44537997856087
 20
223.3851970902417
 30
0.0
 10
91.43347058363632
 20
223.3795586192516
 30
0.0
 10
91.42113381119265
 20
223.3760978364531
 30
0.0
 10
91.40879703874897
 20
223.3726370536547
 30
0.0
 10
91.39569262537017
 20
223.3712585063855
 30
0.0
 10
91.38290575322573
 20
223.3720763527441
 30
0.0
 10
91.37011888108096
 20
223.3728941991028
 30
0.0
 10
91.35729687244906
 20
223.3759309963019
 30
0.0
 10
91.34550152343965
 20
223.3809352658449
 30
0.0
 10
91.33370617443023
 20
223.385939535388
 30
0.0
 10
91.32261215475413
 20
223.3930493012077
 30
0.0
 10
91.31313816500422
 20
223.4016758005053
 30
0.0
 10
91.30366417525431
 20
223.4103022998029
 30
0.0
 10
91.29554891109592
 20
223.4206834620801
 30
0.0
 10
91.2894644010824
 20
223.431959618775
 30
0.0
 10
91.2833798910689
 20
223.44323577547
 30
0.0
 10
91.27915831690164
 20
223.4557179369068
 30
0.0
 10
91.2771492689729
 20
223.4683724498699
 30
0.0
 10
91.27514022104418
 20
223.481026962833
 30
0.0
 10
91.27528828733158
 20
223.4942028544142
 30
0.0
 10
91.27758120640145
 20
223.506809023303
 30
0.0
 10
91.27932739303677
 20
223.5164093288372
 30
0.0
 10
91.282335263909
 20
223.5258602090998
 30
0.0
 10
91.28645909646436
 20
223.5347037965603
 30
0.0
  0
LINE
  5
230
330
1F
100
AcDbEntity
  8
0
  6
Continuous
 62
     7
370
    25
100
AcDbLine
 10
91.2864590965
 20
223.5347037966
 30
0.0
 11
92.0420571163
 21
225.155088979
 31
0.0
  0
ARC
  5
231
330
1F
100
AcDbEntity
  8
0
  6
Continuous
 62
     7
370
    25
100
AcDbCircle
 10
91.7826725452
 20
225.2760419911
 30
0.0
 40
0.2861992083435731
100
AcDbArc
 50
334.9999999649
 51
359.9999999637
  0
LINE
  5
232
330
1F
100
AcDbEntity
  8
0
  6
Continuous
 62
     7
370
    25
100
AcDbLine
 10
92.0688717535
 20
225.2760419909
 30
0.0
 11
92.0688717536
 21
226.4174609674
 31
0.0
  0
ARC
  5
233
330
1F
100
AcDbEntity
  8
0
  6
Continuous
 62
     7
370
    25
100
AcDbCircle
 10
91.7826725452
 20
226.4174609674
 30
0.0
 40
0.2861992083435752
100
AcDbArc
 50
359.999999999
 51
59.9999999977
  0
LINE
  5
234
330
1F
100
AcDbEntity
  8
0
  6
Continuous
 62
     7
370
    25
100
AcDbLine
 10
91.9257721494
 20
226.6653167524
 30
0.0
 11
91.6713215871
 21
226.812223853
 31
0.0
  0
SPLINE
  5
235
330
1F
100
AcDbEntity
  8
0
  6
Continuous
 62
     7
370
    25
100
AcDbSpline
210
0.0
220
0.0
230
1.0
 70
     8
 71
     3
 72
    10
 73
     6
 74
     0
 42
0.00000001
 43
0.00000001
 40
0.0
 40
0.0
 40
0.0
 40
0.0
 40
0.5
 40
0.5
 40
1.0
 40
1.0
 40
1.0
 40
1.0
 10
91.67132158707103
 20
226.8122238529651
 30
0.0
 10
91.58400016388944
 20
226.8626389001465
 30
0.0
 10
91.52823028675145
 20
226.9597622196372
 30
0.0
 10
91.52821368101499
 20
227.1603496699257
 30
0.0
 10
91.58400016389326
 20
227.2575203757214
 30
0.0
 10
91.67132158707584
 20
227.3079354229012
 30
0.0
  0
LINE
  5
236
330
1F
100
AcDbEntity
  8
0
  6
Continuous
 62
     7
370
    25
100
AcDbLine
 10
91.6713215871
 20
227.3079354229
 30
0.0
 11
91.9257721494
 21
227.4548425235
 31
0.0
  0
ARC
  5
237
330
1F
100
AcDbEntity
  8
0
  6
Continuous
 62
     7
370
    25
100
AcDbCircle
 10
91.7826725452
 20
227.7026983085
 30
0.0
 40
0.2861992083747111
100
AcDbArc
 50
300.0000000056
 51
0.0000000049
  0
LINE
  5
238
330
1F
100
AcDbEntity
  8
0
  6
Continuous
 62
     7
370
    25
100
AcDbLine
 10
92.0688717536
 20
227.7026983085
 30
0.0
 11
92.0688717536
 21
228.9164946792
 31
0.0
  0
ARC
  5
239
330
1F
100
AcDbEntity
  8
0
  6
Continuous
 62
     7
370
    25
100
AcDbCircle
 10
91.7826725453
 20
228.9164946793
 30
0.0
 40
0.2861992083435752
100
AcDbArc
 50
359.999999999
 51
59.9999999976
  0
LINE
  5
23A
330
1F
100
AcDbEntity
  8
0
  6
Continuous
 62
     7
370
    25
100
AcDbLine
 10
91.9257721494
 20
229.1643504642
 30
0.0
 11
91.6713215871
 21
229.3112575649
 31
0.0
  0
SPLINE
  5
23B
330
1F
100
AcDbEntity
  8
0
  6
Continuous
 62
     7
370
    25
100
AcDbSpline
210
0.0
220
0.0
230
1.0
 70
     8
 71
     3
 72
    10
 73
     6
 74
     0
 42
0.00000001
 43
0.00000001
 40
0.0
 40
0.0
 40
0.0
 40
0.0
 40
0.5
 40
0.5
 40
1.0
 40
1.0
 40
1.0
 40
1.0
 10
91.67132158707855
 20
229.311257564853
 30
0.0
 10
91.58400016389645
 20
229.3616726120346
 30
0.0
 10
91.52823028675833
 20
229.4587959315261
 30
0.0
 10
91.52821368102292
 20
229.6593833818156
 30
0.0
 10
91.58400016390394
 20
229.7565540876134
 30
0.0
 10
91.67132158708796
 20
229.8069691347918
 30
0.0
  0
LINE
  5
23C
330
1F
100
AcDbEntity
  8
0
  6
Continuous
 62
     7
370
    25
100
AcDbLine
 10
91.6713215871
 20
229.8069691347
 30
0.0
 11
91.9257721494
 21
229.9538762354
 31
0.0
  0
ARC
  5
23D
330
1F
100
AcDbEntity
  8
0
  6
Continuous
 62
     7
370
    25
100
AcDbCircle
 10
91.7826725452
 20
230.2017320203
 30
0.0
 40
0.2861992083435575
100
AcDbArc
 50
300.0000000056
 51
359.6843586563
  0
LINE
  5
23E
330
1F
100
AcDbEntity
  8
0
  6
Continuous
 62
     7
370
    25
100
AcDbLine
 10
92.0688674106
 20
230.2001553624
 30
0.0
 11
92.0756872578
 21
231.4380935038
 31
0.0
  0
ARC
  5
23F
330
1F
100
AcDbEntity
  8
0
  6
Continuous
 62
     7
370
    25
100
AcDbCircle
 10
91.7894923923
 20
231.4396701619
 30
0.0
 40
0.2861992083448543
100
AcDbArc
 50
359.6843586157
 51
60.0000000003
  0
LINE
  5
240
330
1F
100
AcDbEntity
  8
0
  6
Continuous
 62
     7
370
    25
100
AcDbLine
 10
91.9325919965
 20
231.6875259469
 30
0.0
 11
91.6781414341
 21
231.8344330475
 31
0.0
  0
SPLINE
  5
241
330
1F
100
AcDbEntity
  8
0
  6
Continuous
 62
     7
370
    25
100
AcDbSpline
210
0.0
220
0.0
230
1.0
 70
     8
 71
     3
 72
    10
 73
     6
 74
     0
 42
0.00000001
 43
0.00000001
 40
0.0
 40
0.0
 40
0.0
 40
0.0
 40
0.5
 40
0.5
 40
1.0
 40
1.0
 40
1.0
 40
1.0
 10
91.67814143414836
 20
231.8344330475229
 30
0.0
 10
91.5908200109595
 20
231.8848480947065
 30
0.0
 10
91.53505013381854
 20
231.9819714142083
 30
0.0
 10
91.53503352809412
 20
232.1825588645093
 30
0.0
 10
91.59082001098709
 20
232.2797295703096
 30
0.0
 10
91.67814143418299
 20
232.3301446174811
 30
0.0
  0
LINE
  5
242
330
1F
100
AcDbEntity
  8
0
  6
Continuous
 62
     7
370
    25
100
AcDbLine
 10
91.6781414342
 20
232.3301446175
 30
0.0
 11
92.8188731624
 21
232.9887463876
 31
0.0
  0
ARC
  5
243
330
1F
100
AcDbEntity
  8
0
  6
Continuous
 62
     7
370
    25
100
AcDbCircle
 10
93.5057512622
 20
231.7990386198
 30
0.0
 40
1.373756199881673
100
AcDbArc
 50
110.9858190048
 51
119.9999999917
  0
LINE
  5
244
330
1F
100
AcDbEntity
  8
0
  6
Continuous
 62
     7
370
    25
100
AcDbLine
 10
93.0137585131
 20
233.0816723283
 30
0.0
 11
93.6587761889
 21
233.3290882652
 31
0.0
  0
ARC
  5
245
330
1F
100
AcDbEntity
  8
0
  6
Continuous
 62
     7
370
    25
100
AcDbCircle
 10
93.7817743759
 20
233.0084298379
 30
0.0
 40
0.3434390505500163
100
AcDbArc
 50
358.0634205299
 51
110.9858189555
  0
LINE
  5
246
330
1F
100
AcDbEntity
  8
0
  6
Continuous
 62
     7
370
    25
100
AcDbLine
 10
94.0386027907
 20
230.4411325076
 30
0.0
 11
94.1250172695
 21
232.9968239152
 31
0.0
  0
SPLINE
  5
247
330
1F
100
AcDbEntity
  8
0
  6
Continuous
 62
     7
370
    25
100
AcDbSpline
210
0.0
220
0.0
230
1.0
 70
     8
 71
     3
 72
    11
 73
     7
 74
     0
 42
0.00000001
 43
0.00000001
 40
0.0
 40
0.0
 40
0.0
 40
0.0
 40
0.0000576585004983
 40
0.0000576585004983
 40
0.0000576585004983
 40
0.0000950565703646
 40
0.0000950565703646
 40
0.0000950565703646
 40
0.0000950565703646
 10
94.0615107662539
 20
230.3494697840653
 30
0.0
 10
94.05190101617772
 20
230.3661143594611
 30
0.0
 10
94.04503245207519
 20
230.3846476112753
 30
0.0
 10
94.04147386272597
 20
230.403534792867
 30
0.0
 10
94.03914663676952
 20
230.4158865241095
 30
0.0
 10
94.03817804136384
 20
230.4285706274412
 30
0.0
 10
94.03860279073848
 20
230.4411325076074
 30
0.0
  0
LINE
  5
248
330
1F
100
AcDbEntity
  8
0
  6
Continuous
 62
     7
370
    25
100
AcDbLine
 10
94.1971774593
 20
230.1144881785
 30
0.0
 11
94.0615107663
 21
230.3494697841
 31
0.0
  0
ARC
  5
249
330
1F
100
AcDbEntity
  8
0
  6
Continuous
 62
     7
370
    25
100
AcDbCircle
 10
94.0484639883
 20
230.0286284161
 30
0.0
 40
0.1717195249854351
100
AcDbArc
 50
334.254334748
 51
29.9999999765
  0
LINE
  5
24A
330
1F
100
AcDbEntity
  8
0
  6
Continuous
 62
     7
370
    25
100
AcDbLine
 10
93.6786534804
 20
228.8664600214
 30
0.0
 11
94.2031371058
 21
229.9540373845
 31
0.0
  0
SPLINE
  5
24B
330
1F
100
AcDbEntity
  8
0
  6
Continuous
 62
     7
370
    25
100
AcDbSpline
210
0.0
220
0.0
230
1.0
 70
     8
 71
     3
 72
    20
 73
    16
 74
     0
 42
0.00000001
 43
0.00000001
 40
0.0
 40
0.0
 40
0.0
 40
0.0
 40
0.125
 40
0.125
 40
0.25
 40
0.25
 40
0.375
 40
0.375
 40
0.5
 40
0.5
 40
0.625
 40
0.625
 40
0.75
 40
0.75
 40
1.0
 40
1.0
 40
1.0
 40
1.0
 10
95.2018191452888
 20
228.5183685408236
 30
0.0
 10
95.20181914528887
 20
228.3973580030799
 30
0.0
 10
95.17426579662322
 20
228.2782054674343
 30
0.0
 10
95.0705444183979
 20
228.0629123932244
 30
0.0
 10
94.99372061929334
 20
227.9665625960102
 30
0.0
 10
94.80697562581047
 20
227.8175172724326
 30
0.0
 10
94.69690187836011
 20
227.764097841994
 30
0.0
 10
94.46109752260033
 20
227.710207342257
 30
0.0
 10
94.33872390297968
 20
227.7105036589442
 30
0.0
 10
94.10569024368698
 20
227.7636718010551
 30
0.0
 10
93.9946541299338
 20
227.817111171784
 30
0.0
 10
93.80778782991102
 20
227.9659380098232
 30
0.0
 10
93.731164398163
 20
228.06139301885
 30
0.0
 10
93.57364444266885
 20
228.3880186058702
 30
0.0
 10
93.57352506430658
 20
228.6484641106694
 30
0.0
 10
93.67865348042889
 20
228.8664600214191
 30
0.0
  0
LINE
  5
24C
330
1F
100
AcDbEntity
  8
0
  6
Continuous
 62
     7
370
    25
100
AcDbLine
 10
95.2018191453
 20
228.5183685408
 30
0.0
 11
95.2018191453
 21
228.7812575452
 31
0.0
  0
ARC
  5
24D
330
1F
100
AcDbEntity
  8
0
  6
Continuous
 62
     7
370
    25
100
AcDbCircle
 10
95.7742175619
 20
228.7812575452
 30
0.0
 40
0.5723984166424733
100
AcDbArc
 50
86.5565964888
 51
179.9999999999
  0
LINE
  5
24E
330
1F
100
AcDbEntity
  8
0
  6
Continuous
 62
     7
370
    25
100
AcDbLine
 10
98.1120922363
 20
229.2140185305
 30
0.0
 11
95.8085972746
 21
229.3526225622
 31
0.0
  0
ARC
  5
24F
330
1F
100
AcDbEntity
  8
0
  6
Continuous
 62
     7
370
    25
100
AcDbCircle
 10
98.0845884661
 20
228.7569265168
 30
0.0
 40
0.4579187334185265
100
AcDbArc
 50
55.0000000028
 51
86.5565964888
  0
LINE
  5
250
330
1F
100
AcDbEntity
  8
0
  6
Continuous
 62
     7
370
    25
100
AcDbLine
 10
99.21227102
 20
228.5263302451
 30
0.0
 11
98.3472398613
 21
229.1320315834
 31
0.0
  0
ARC
  5
251
330
1F
100
AcDbEntity
  8
0
  6
Continuous
 62
     7
370
    25
100
AcDbCircle
 10
99.048113898
 20
228.2918895786
 30
0.0
 40
0.2861992083435576
100
AcDbArc
 50
294.2415899993
 51
54.9999999984
  0
LINE
  5
252
330
1F
100
AcDbEntity
  8
0
  6
Continuous
 62
     7
370
    25
100
AcDbLine
 10
98.822183955
 20
227.8762793773
 30
0.0
 11
99.165623005
 21
228.0309267524
 31
0.0
  0
LINE
  5
253
330
1F
100
AcDbEntity
  8
0
  6
Continuous
 62
     7
370
    25
100
AcDbLine
 10
97.7331936403
 20
227.3859172771
 30
0.0
 11
98.822183955
 21
227.8762793773
 31
0.0
  0
SPLINE
  5
254
330
1F
100
AcDbEntity
  8
0
  6
Continuous
 62
     7
370
    25
100
AcDbSpline
210
0.0
220
0.0
230
1.0
 70
     8
 71
     3
 72
    10
 73
     6
 74
     0
 42
0.00000001
 43
0.00000001
 40
0.0
 40
0.0
 40
0.0
 40
0.0
 40
0.5
 40
0.5
 40
1.0
 40
1.0
 40
1.0
 40
1.0
 10
97.57312334024616
 20
227.055243192115
 30
0.0
 10
97.55677946445194
 20
227.1203219674089
 30
0.0
 10
97.56396258256189
 20
227.189459558117
 30
0.0
 10
97.62222491827791
 20
227.3098293075063
 30
0.0
 10
97.67201063939508
 20
227.3583671470689
 30
0.0
 10
97.73319364032537
 20
227.3859172771392
 30
0.0
  0
LINE
  5
255
330
1F
100
AcDbEntity
  8
0
  6
Continuous
 62
     7
370
    25
100
AcDbLine
 10
97.7870661536
 20
226.2033561343
 30
0.0
 11
97.5731233402
 21
227.0552431921
 31
0.0
  0
ARC
  5
256
330
1F
100
AcDbEntity
  8
0
  6
Continuous
 62
     7
370
    25
100
AcDbCircle
 10
97.5650026279
 20
226.1475871271
 30
0.0
 40
0.2289593666520672
100
AcDbArc
 50
256.416899616
 51
14.0976954816
  0
LINE
  5
257
330
1F
100
AcDbEntity
  8
0
  6
Continuous
 62
     7
370
    25
100
AcDbLine
 10
97.5112302799
 20
225.925031682
 30
0.0
 11
97.0838000222
 21
226.0283045026
 31
0.0
  0
ARC
  5
258
330
1F
100
AcDbEntity
  8
0
  6
Continuous
 62
     7
370
    25
100
AcDbCircle
 10
97.0434707611
 20
225.8613879188
 30
0.0
 40
0.1717195249848868
100
AcDbArc
 50
76.4168995958
 51
165.2994334219
  0
LINE
  5
259
330
1F
100
AcDbEntity
  8
0
  6
Continuous
 62
     7
370
    25
100
AcDbLine
 10
96.6988593123
 20
225.2245406237
 30
0.0
 11
96.877372433
 21
225.904964755
 31
0.0
  0
SPLINE
  5
25A
330
1F
100
AcDbEntity
  8
0
  6
Continuous
 62
     7
370
    25
100
AcDbSpline
210
0.0
220
0.0
230
1.0
 70
     8
 71
     3
 72
    11
 73
     7
 74
     0
 42
0.00000001
 43
0.00000001
 40
0.0
 40
0.0
 40
0.0
 40
0.0
 40
0.0000576585004983
 40
0.0000576585004983
 40
0.0000576585004983
 40
0.0000883831276569
 40
0.0000883831276569
 40
0.0000883831276569
 40
0.0000883831276569
 10
96.69908931637974
 20
225.1365195040836
 30
0.0
 10
96.69411494370492
 20
225.1550841156639
 30
0.0
 10
96.69227717878367
 20
225.1747635774383
 30
0.0
 10
96.69372820772817
 20
225.1939282246209
 30
0.0
 10
96.69450934380167
 20
225.2042451775027
 30
0.0
 10
96.69623371134716
 20
225.2145328312639
 30
0.0
 10
96.6988593123241
 20
225.2245406237198
 30
0.0
  0
LINE
  5
25B
330
1F
100
AcDbEntity
  8
0
  6
Continuous
 62
     7
370
    25
100
AcDbLine
 10
96.7609371951
 20
224.9057000784
 30
0.0
 11
96.6990893164
 21
225.1365195041
 31
0.0
  0
ARC
  5
25C
330
1F
100
AcDbEntity
  8
0
  6
Continuous
 62
     7
370
    25
100
AcDbCircle
 10
96.4844899884
 20
224.8316262725
 30
0.0
 40
0.2861992083435454
100
AcDbArc
 50
313.9389210561
 51
15.0000000166
  0
LINE
  5
25D
330
1F
100
AcDbEntity
  8
0
  6
Continuous
 62
     7
370
    25
100
AcDbLine
 10
96.4849956974
 20
224.4346588049
 30
0.0
 11
96.683081083
 21
224.6255399702
 31
0.0
  0
ARC
  5
25E
330
1F
100
AcDbEntity
  8
0
  6
Continuous
 62
     7
370
    25
100
AcDbCircle
 10
96.643868573
 20
224.269789763
 30
0.0
 40
0.2289593667154286
100
AcDbArc
 50
133.9389210195
 51
180.0
  0
LINE
  5
25F
330
1F
100
AcDbEntity
  8
0
  6
Continuous
 62
     7
370
    25
100
AcDbLine
 10
96.4149092063
 20
222.0982017933
 30
0.0
 11
96.4149092064
 21
224.269789763
 31
0.0
  0
ARC
  5
260
330
1F
100
AcDbEntity
  8
0
  6
Continuous
 62
     7
370
    25
100
AcDbCircle
 10
96.9873076229
 20
222.0982017933
 30
0.0
 40
0.5723984166424444
100
AcDbArc
 50
179.9999999991
 51
280.9999999994
  0
LINE
  5
261
330
1F
100
AcDbEntity
  8
0
  6
Continuous
 62
     7
370
    25
100
AcDbLine
 10
97.0965263897
 20
221.5363199478
 30
0.0
 11
97.6469908963
 21
221.6433194087
 31
0.0
  0
ARC
  5
262
330
1F
100
AcDbEntity
  8
0
  6
Continuous
 62
     7
370
    25
100
AcDbCircle
 10
97.7125221564
 20
221.3061903014
 30
0.0
 40
0.3434390499494468
100
AcDbArc
 50
283.7684575786
 51
100.9999999982
  0
ARC
  5
263
330
1F
100
AcDbEntity
  8
0
  6
Continuous
 62
     7
370
    25
100
AcDbCircle
 10
97.9304903685
 20
220.4166690123
 30
0.0
 40
0.5723984166424576
100
AcDbArc
 50
103.768457582
 51
152.0000000026
  0
LINE
  5
264
330
1F
100
AcDbEntity
  8
0
  6
Continuous
 62
     7
370
    25
100
AcDbLine
 10
96.094172014
 20
218.1822962893
 30
0.0
 11
97.4250925643
 21
220.6853937915
 31
0.0
  0
ARC
  5
265
330
1F
100
AcDbEntity
  8
0
  6
Continuous
 62
     7
370
    25
100
AcDbCircle
 10
96.2963311357
 20
218.0748063777
 30
0.0
 40
0.2289593666488041
100
AcDbArc
 50
151.999999998
 51
180.0
  0
LINE
  5
266
330
1F
100
AcDbEntity
  8
0
  6
Continuous
 62
     7
370
    25
100
AcDbLine
 10
96.067371769
 20
217.2604998456
 30
0.0
 11
96.067371769
 21
218.0748063777
 31
0.0
  0
ARC
  5
267
330
1F
100
AcDbEntity
  8
0
  6
Continuous
 62
     7
370
    25
100
AcDbCircle
 10
95.7203661193
 20
217.2604998456
 30
0.0
 40
0.3470056497243093
100
AcDbArc
 50
278.7114973796
 51
359.9999999991
  0
LINE
  5
268
330
1F
100
AcDbEntity
  8
0
  6
Continuous
 62
     7
370
    25
100
AcDbLine
 10
94.8113682124
 20
216.770161339
 30
0.0
 11
95.7729233089
 21
216.9174974217
 31
0.0
  0
ARC
  5
269
330
1F
100
AcDbEntity
  8
0
  6
Continuous
 62
     7
370
    25
100
AcDbCircle
 10
94.551283236
 20
218.4675461896
 30
0.0
 40
1.717195249839178
100
AcDbArc
 50
263.9999999913
 51
278.7114973733
  0
LINE
  5
26A
330
1F
100
AcDbEntity
  8
0
  6
Continuous
 62
     7
370
    25
100
AcDbLine
 10
94.3717874551
 20
216.759757915
 30
0.0
 11
93.7710695658
 21
216.8228959094
 31
0.0
  0
ARC
  5
26B
330
1F
100
AcDbEntity
  8
0
  6
Continuous
 62
     7
370
    25
100
AcDbCircle
 10
93.9146661903
 20
218.1891265291
 30
0.0
 40
1.373756199883096
100
AcDbArc
 50
239.9999999991
 51
263.9999999991
  0
LINE
  5
26C
330
1F
100
AcDbEntity
  8
0
  6
Continuous
 62
     7
370
    25
100
AcDbLine
 10
93.2277880903
 20
216.9994187614
 30
0.0
 11
91.6713215869
 21
217.8980451161
 31
0.0
  0
SPLINE
  5
26D
330
1F
100
AcDbEntity
  8
0
  6
Continuous
 62
     7
370
    25
100
AcDbSpline
210
0.0
220
0.0
230
1.0
 70
     8
 71
     3
 72
    10
 73
     6
 74
     0
 42
0.00000001
 43
0.00000001
 40
0.0
 40
0.0
 40
0.0
 40
0.0
 40
0.5
 40
0.5
 40
1.0
 40
1.0
 40
1.0
 40
1.0
 10
91.67132158692726
 20
217.8980451161306
 30
0.0
 10
91.58400016374563
 20
217.948460163312
 30
0.0
 10
91.52823028660758
 20
218.0455834828029
 30
0.0
 10
91.52821368087126
 20
218.2461709330914
 30
0.0
 10
91.58400016374964
 20
218.3433416388871
 30
0.0
 10
91.67132158693228
 20
218.3937566860668
 30
0.0
  0
LINE
  5
26E
330
1F
100
AcDbEntity
  8
0
  6
Continuous
 62
     7
370
    25
100
AcDbLine
 10
91.6713215869
 20
218.3937566861
 30
0.0
 11
91.9257721492
 21
218.5406637867
 31
0.0
  0
ARC
  5
26F
330
1F
100
AcDbEntity
  8
0
  6
Continuous
 62
     7
370
    25
100
AcDbCircle
 10
91.782672545
 20
218.7885195716
 30
0.0
 40
0.2861992083608176
100
AcDbArc
 50
300.0000000051
 51
0.0000000055
  0
LINE
  5
270
330
1F
100
AcDbEntity
  8
0
  6
Continuous
 62
     7
370
    25
100
AcDbLine
 10
92.0688717534
 20
218.7885195717
 30
0.0
 11
92.0688717535
 21
220.7378588628
 31
0.0
  0
LINE
  5
271
330
1F
100
AcDbEntity
  8
0
  6
Continuous
 62
     8
370
    18
100
AcDbLine
 10
174.0450757531
 20
216.770161339
 30
0.0
 11
94.8113682124
 21
216.770161339
 31
0.0
  0
LINE
  5
272
330
1F
100
AcDbEntity
  8
0
  6
Continuous
 62
     8
370
    18
100
AcDbLine
 10
95.7729233089
 20
216.9174974217
 30
0.0
 11
173.0835206566
 21
216.9174974217
 31
0.0
  0
LINE
  5
273
330
1F
100
AcDbEntity
  8
0
  6
Continuous
 62
     8
370
    18
100
AcDbLine
 10
172.7890721965
 20
217.2604998456
 30
0.0
 11
96.067371769
 21
217.2604998456
 31
0.0
  0
LINE
  5
274
330
1F
100
AcDbEntity
  8
0
  6
Continuous
 62
     8
370
    18
100
AcDbLine
 10
172.7890721965
 20
218.0748063777
 30
0.0
 11
96.067371769
 21
218.0748063777
 31
0.0
  0
LINE
  5
275
330
1F
100
AcDbEntity
  8
0
  6
Continuous
 62
     8
370
    18
100
AcDbLine
 10
172.7622719515
 20
218.1822962893
 30
0.0
 11
96.094172014
 21
218.1822962893
 31
0.0
  0
LINE
  5
276
330
1F
100
AcDbEntity
  8
0
  6
Continuous
 62
     8
370
    18
100
AcDbLine
 10
171.4313514012
 20
220.6853937915
 30
0.0
 11
97.4250925643
 21
220.6853937915
 31
0.0
  0
LINE
  5
277
330
1F
100
AcDbEntity
  8
0
  6
Continuous
 62
     8
370
    18
100
AcDbLine
 10
97.7942602359
 20
220.972619818
 30
0.0
 11
171.0621837296
 21
220.972619818
 31
0.0
  0
LINE
  5
278
330
1F
100
AcDbEntity
  8
0
  6
Continuous
 62
     8
370
    18
100
AcDbLine
 10
172.4415347592
 20
222.0982017933
 30
0.0
 11
96.4149092063
 21
222.0982017933
 31
0.0
  0
LINE
  5
279
330
1F
100
AcDbEntity
  8
0
  6
Continuous
 62
     8
370
    18
100
AcDbLine
 10
172.4415347591
 20
224.269789763
 30
0.0
 11
96.4149092064
 21
224.269789763
 31
0.0
  0
LINE
  5
27A
330
1F
100
AcDbEntity
  8
0
  6
Continuous
 62
     8
370
    18
100
AcDbLine
 10
177.4005681917
 20
223.3925463252
 30
0.0
 11
176.787572212
 21
223.3925463252
 31
0.0
  0
LINE
  5
27B
330
1F
100
AcDbEntity
  8
0
  6
Continuous
 62
     8
370
    18
100
AcDbLine
 10
92.0688717535
 20
223.3925463252
 30
0.0
 11
91.4558757738
 21
223.3925463252
 31
0.0
  0
LINE
  5
27C
330
1F
100
AcDbEntity
  8
0
  6
Continuous
 62
     8
370
    18
100
AcDbLine
 10
91.8887292214
 20
223.6956335721
 30
0.0
 11
92.020054919
 21
223.6956335721
 31
0.0
  0
LINE
  5
27D
330
1F
100
AcDbEntity
  8
0
  6
Continuous
 62
     8
370
    18
100
AcDbLine
 10
176.8363890465
 20
223.6956335721
 30
0.0
 11
176.9677147442
 21
223.6956335721
 31
0.0
  0
LINE
  5
27E
330
1F
100
AcDbEntity
  8
0
  6
Continuous
 62
     8
370
    18
100
AcDbLine
 10
172.3714482681
 20
224.4346588049
 30
0.0
 11
96.4849956974
 21
224.4346588049
 31
0.0
  0
LINE
  5
27F
330
1F
100
AcDbEntity
  8
0
  6
Continuous
 62
     8
370
    18
100
AcDbLine
 10
96.683081083
 20
224.6255399702
 30
0.0
 11
172.1733628825
 21
224.6255399702
 31
0.0
  0
LINE
  5
280
330
1F
100
AcDbEntity
  8
0
  6
Continuous
 62
     8
370
    18
100
AcDbLine
 10
172.0955067704
 20
224.9057000784
 30
0.0
 11
96.7609371951
 21
224.9057000784
 31
0.0
  0
LINE
  5
281
330
1F
100
AcDbEntity
  8
0
  6
Continuous
 62
     8
370
    18
100
AcDbLine
 10
172.1573546491
 20
225.1365195041
 30
0.0
 11
96.6990893164
 21
225.1365195041
 31
0.0
  0
LINE
  5
282
330
1F
100
AcDbEntity
  8
0
  6
Continuous
 62
     8
370
    18
100
AcDbLine
 10
172.1575846532
 20
225.2245406237
 30
0.0
 11
96.6988593123
 21
225.2245406237
 31
0.0
  0
LINE
  5
283
330
1F
100
AcDbEntity
  8
0
  6
Continuous
 62
     8
370
    18
100
AcDbLine
 10
171.9790715326
 20
225.904964755
 30
0.0
 11
96.877372433
 21
225.904964755
 31
0.0
  0
LINE
  5
284
330
1F
100
AcDbEntity
  8
0
  6
Continuous
 62
     8
370
    18
100
AcDbLine
 10
171.069377812
 20
226.2033561343
 30
0.0
 11
97.7870661536
 21
226.2033561343
 31
0.0
  0
LINE
  5
285
330
1F
100
AcDbEntity
  8
0
  6
Continuous
 62
     8
370
    18
100
AcDbLine
 10
171.2833206253
 20
227.0552431921
 30
0.0
 11
97.5731233402
 21
227.0552431921
 31
0.0
  0
LINE
  5
286
330
1F
100
AcDbEntity
  8
0
  6
Continuous
 62
     8
370
    18
100
AcDbLine
 10
171.1232503252
 20
227.3859172771
 30
0.0
 11
97.7331936403
 21
227.3859172771
 31
0.0
  0
LINE
  5
287
330
1F
100
AcDbEntity
  8
0
  6
Continuous
 62
     8
370
    18
100
AcDbLine
 10
170.0342600105
 20
227.8762793773
 30
0.0
 11
98.822183955
 21
227.8762793773
 31
0.0
  0
LINE
  5
288
330
1F
100
AcDbEntity
  8
0
  6
Continuous
 62
     8
370
    18
100
AcDbLine
 10
93.6786534804
 20
228.8664600214
 30
0.0
 11
95.2081959321
 21
228.8664600214
 31
0.0
  0
LINE
  5
289
330
1F
100
AcDbEntity
  8
0
  6
Continuous
 62
     8
370
    18
100
AcDbLine
 10
173.6482480334
 20
228.8664600214
 30
0.0
 11
175.1777904851
 21
228.8664600214
 31
0.0
  0
LINE
  5
28A
330
1F
100
AcDbEntity
  8
0
  6
Continuous
 62
     8
370
    18
100
AcDbLine
 10
99.165623005
 20
228.0309267524
 30
0.0
 11
169.6908209605
 21
228.0309267524
 31
0.0
  0
LINE
  5
28B
330
1F
100
AcDbEntity
  8
0
  6
Continuous
 62
     8
370
    18
100
AcDbLine
 10
169.6441729455
 20
228.5263302451
 30
0.0
 11
99.21227102
 21
228.5263302451
 31
0.0
  0
LINE
  5
28C
330
1F
100
AcDbEntity
  8
0
  6
Continuous
 62
     8
370
    18
100
AcDbLine
 10
98.3472398613
 20
229.1320315834
 30
0.0
 11
170.5092041042
 21
229.1320315834
 31
0.0
  0
LINE
  5
28D
330
1F
100
AcDbEntity
  8
0
  6
Continuous
 62
     8
370
    18
100
AcDbLine
 10
95.8085972746
 20
229.3526225622
 30
0.0
 11
173.0478466909
 21
229.3526225622
 31
0.0
  0
LINE
  5
28E
330
1F
100
AcDbEntity
  8
0
  6
Continuous
 62
     8
370
    18
100
AcDbLine
 10
94.2031371058
 20
229.9540373845
 30
0.0
 11
174.6533068597
 21
229.9540373845
 31
0.0
  0
LINE
  5
28F
330
1F
100
AcDbEntity
  8
0
  6
Continuous
 62
     8
370
    18
100
AcDbLine
 10
170.7443517293
 20
229.2140185305
 30
0.0
 11
98.1120922363
 21
229.2140185305
 31
0.0
  0
LINE
  5
290
330
1F
100
AcDbEntity
  8
0
  6
Continuous
 62
     8
370
    18
100
AcDbLine
 10
174.6592665062
 20
230.1144881785
 30
0.0
 11
94.1971774593
 21
230.1144881785
 31
0.0
  0
LINE
  5
291
330
1F
100
AcDbEntity
  8
0
  6
Continuous
 62
     8
370
    18
100
AcDbLine
 10
94.0615107663
 20
230.3494697841
 30
0.0
 11
174.7949331993
 21
230.3494697841
 31
0.0
  0
LINE
  5
292
330
1F
100
AcDbEntity
  8
0
  6
Continuous
 62
     8
370
    18
100
AcDbLine
 10
94.0386027907
 20
230.4411325076
 30
0.0
 11
174.8178411748
 21
230.4411325076
 31
0.0
  0
LINE
  5
293
330
1F
100
AcDbEntity
  8
0
  6
Continuous
 62
     8
370
    18
100
AcDbLine
 10
94.1250172695
 20
232.9968239152
 30
0.0
 11
174.731426696
 21
232.9968239152
 31
0.0
  0
HATCH
  5
294
330
1F
100
AcDbEntity
  8
0
  6
Continuous
 62
     7
370
    18
100
AcDbHatch
 10
0.0
 20
0.0
 30
0.0
210
0.0
220
0.0
230
1.0
  2
DIN 128 Elastomer-Gummi
 70
     0
 71
     0
 91
        1
 92
        0
 93
       74
 72
     1
 10
176.7875722121265
 20
218.7885195716648
 11
176.7875722120432
 21
220.7378588627556
 72
     2
 10
177.0737714203867
 20
220.7378588627602
 40
0.286199208343561
 50
179.9999999990839
 51
239.9999999963749
 73
     0
 72
     1
 10
176.9306718162165
 20
220.9857146476898
 11
177.1851223785704
 21
221.132621748361
 72
     2
 10
177.0420227743956
 20
221.3804775333277
 40
0.286199208343561
 50
300.0000000007145
 51
420.0000000015232
 73
     1
 72
     1
 10
177.185122378528
 20
221.6283333182433
 11
176.9306718162237
 21
221.7752404188556
 72
     2
 10
177.0737714204178
 20
222.0230962038112
 40
0.286199208343561
 50
120.0000000051415
 51
180.0000000054631
 73
     0
 72
     1
 10
176.7875722120447
 20
222.0230962038385
 11
176.7875722120086
 21
223.6018573054371
 72
     2
 10
176.9020518953554
 20
223.6018573054394
 40
0.114479683346748
 50
179.999999998862
 51
305.000000000996
 73
     0
 72
     1
 10
176.9677147441517
 20
223.6956335720614
 11
177.4005681917225
 21
223.3925463251894
 72
     2
 10
177.4662310405644
 20
223.4863225918092
 40
0.114479683346748
 50
234.999999979714
 51
384.9999999837115
 73
     1
 72
     1
 10
177.5699848690459
 20
223.5347037965572
 11
176.8143868491777
 21
225.1550889790173
 72
     2
 10
177.0737714202691
 20
225.276041991118
 40
0.286199208343561
 50
154.999999964884
 51
179.9999999636985
 73
     0
 72
     1
 10
176.7875722119956
 20
225.2760419909366
 11
176.7875722119511
 21
226.4174609674165
 72
     2
 10
177.0737714202947
 20
226.4174609674216
 40
0.286199208343561
 50
179.9999999989759
 51
239.9999999976539
 73
     0
 72
     1
 10
176.9306718161299
 20
226.6653167523545
 11
177.1851223784461
 21
226.8122238529651
 72
     2
 10
177.0420227742711
 20
227.0600796379318
 40
0.286199208343561
 50
300.0000000007475
 51
420.0000000003635
 73
     1
 72
     1
 10
177.1851223784413
 20
227.3079354229012
 11
176.9306718161343
 21
227.4548425235204
 72
     2
 10
177.0737714203304
 20
227.7026983084749
 40
0.286199208343561
 50
120.0000000056306
 51
180.0000000048884
 73
     0
 72
     1
 10
176.7875722119558
 20
227.7026983084993
 11
176.7875722119107
 21
228.9164946792476
 72
     2
 10
177.0737714202543
 20
228.9164946792527
 40
0.286199208343561
 50
179.9999999989759
 51
239.9999999976117
 73
     0
 72
     1
 10
176.9306718160896
 20
229.164350464185
 11
177.1851223784386
 21
229.311257564853
 72
     2
 10
177.0420227742636
 20
229.5591133498197
 40
0.286199208343561
 50
300.0000000007243
 51
420.0000000014451
 73
     1
 72
     1
 10
177.1851223783961
 20
229.8069691347346
 11
176.9306718160938
 21
229.9538762353509
 72
     2
 10
177.0737714202899
 20
230.2017320203054
 40
0.286199208343561
 50
120.0000000056031
 51
179.684358656291
 73
     0
 72
     1
 10
176.7875765549645
 20
230.200155362365
 11
176.7807567077655
 21
231.4380935037535
 72
     2
 10
177.0669515732078
 20
231.4396701618971
 40
0.286199208343561
 50
179.6843586157435
 51
240.0000000002891
 73
     0
 72
     1
 10
176.9238519690367
 20
231.6875259468675
 11
177.1783025313688
 21
231.8344330475229
 72
     2
 10
177.035202927198
 20
232.082288832492
 40
0.286199208343561
 50
299.9999999997736
 51
420.0000000082288
 73
     1
 72
     1
 10
177.1783025313352
 20
232.3301446174828
 11
176.0375708031213
 21
232.9887463876466
 72
     2
 10
175.350692703352
 20
231.7990386198436
 40
1.37375619988166
 50
60.00000000826084
 51
69.01418099523514
 73
     1
 72
     1
 10
175.8426854524417
 20
233.0816723283445
 11
175.1976677766199
 21
233.3290882652133
 72
     2
 10
175.0746695895859
 20
233.0084298378852
 40
0.343439049949432
 50
69.01418104449951
 51
181.9365794700839
 73
     1
 72
     1
 10
174.7314266959929
 20
232.9968239152354
 11
174.8178411747786
 21
230.4411325076074
 72
     2
 10
174.6462197282652
 20
230.4353295464965
 40
0.171719524984892
 50
358.0634205981078
 51
389.9999999764078
 73
     0
 72
     1
 10
174.7949331992634
 20
230.3494697840652
 11
174.6592665061704
 21
230.1144881785105
 72
     2
 10
174.8079799771683
 20
230.028628416079
 40
0.171719524984892
 50
150.0000000234704
 51
205.7456652520423
 73
     1
 72
     1
 10
174.6533068596829
 20
229.9540373845231
 11
175.1777904850883
 21
228.8664600214191
 72
     2
 10
174.4559826034923
 20
228.518368540823
 40
0.801357783263938
 50
334.2543347477588
 51
540.0000000000422
 73
     0
 72
     1
 10
173.6546248202283
 20
228.5183685408236
 11
173.6546248202282
 21
228.7812575451584
 72
     2
 10
173.0822264035858
 20
228.7812575451578
 40
0.57239841664246
 50
0.000000000056899
 51
93.44340351121966
 73
     1
 72
     1
 10
173.0478466909026
 20
229.3526225622272
 11
170.744351729254
 21
229.2140185305151
 72
     2
 10
170.7718554994069
 20
228.7569265167553
 40
0.457918733412644
 50
93.44340351121845
 51
124.9999999971961
 73
     1
 72
     1
 10
170.509204104176
 20
229.1320315833613
 11
169.6441729455429
 21
228.5263302451183
 72
     2
 10
169.8083300675387
 20
228.2918895785615
 40
0.286199208343561
 50
125.0000000016236
 51
245.7584100007441
 73
     1
 72
     1
 10
169.6908209605015
 20
228.0309267524353
 11
170.0342600105353
 21
227.8762793772762
 72
     1
 10
170.0342600105353
 20
227.8762793772762
 11
171.1232503251865
 21
227.3859172771309
 72
     2
 10
171.00574121818
 20
227.1249544510015
 40
0.286199208343561
 50
294.2415899933874
 51
374.0976954729495
 73
     0
 72
     1
 10
171.283320625271
 20
227.055243192115
 11
171.0693778119577
 21
226.2033561342651
 72
     2
 10
171.2914413375998
 20
226.1475871271278
 40
0.228959366651219
 50
165.9023045183746
 51
283.5831003839655
 73
     1
 72
     1
 10
171.345213685623
 20
225.9250316819789
 11
171.7726439433617
 21
226.0283045026104
 72
     2
 10
171.8129732044345
 20
225.8613879187776
 40
0.171719524984892
 50
256.4168995957766
 51
345.2994334219462
 73
     0
 72
     1
 10
171.9790715325663
 20
225.9049647549737
 11
172.1575846531935
 21
225.2245406237199
 72
     2
 10
171.9914863250632
 20
225.1809637875163
 40
0.171719524984892
 50
345.2994334193676
 51
374.9999999829472
 73
     0
 72
     1
 10
172.1573546491374
 20
225.1365195040836
 11
172.0955067704141
 21
224.9057000783648
 72
     2
 10
172.371953977164
 20
224.8316262724807
 40
0.286199208343561
 50
164.9999999834443
 51
226.0610789439079
 73
     1
 72
     1
 10
172.1733628824943
 20
224.6255399702324
 11
172.3714482681436
 21
224.4346588049133
 72
     2
 10
172.212575392485
 20
224.2697897629841
 40
0.22895936664645
 50
313.938921019517
 51
360.0000000000008
 73
     0
 72
     1
 10
172.4415347591314
 20
224.2697897629841
 11
172.4415347592181
 21
222.0982017933214
 72
     2
 10
171.8691363426184
 20
222.0982017933123
 40
0.57239841664246
 50
359.9999999990904
 51
460.9999999993852
 73
     0
 72
     1
 10
171.7599175757897
 20
221.5363199477725
 11
171.2094530692452
 21
221.6433194086543
 72
     2
 10
171.1439218091622
 20
221.3061903013653
 40
0.343439049949432
 50
79.00000000181761
 51
256.231542421448
 73
     1
 72
     2
 10
170.9259535970552
 20
220.4166690122865
 40
0.57239841664246
 50
283.7684575819579
 51
332.0000000025977
 73
     0
 72
     1
 10
171.431351401198
 20
220.6853937914609
 11
172.7622719514674
 21
218.1822962893498
 72
     2
 10
172.5601128298261
 20
218.0748063776677
 40
0.22895936664645
 50
331.9999999980093
 51
360.0000000000008
 73
     0
 72
     1
 10
172.7890721964725
 20
218.0748063776677
 11
172.7890721964791
 21
217.2604998455801
 72
     2
 10
173.1360778462034
 20
217.2604998455857
 40
0.347005649717682
 50
180.0000000009394
 51
261.2885026203753
 73
     1
 72
     1
 10
173.083520656627
 20
216.9174974217462
 11
174.0450757531421
 21
216.7701613389726
 72
     2
 10
174.3051607295486
 20
218.4675461895908
 40
1.71719524983917
 50
261.2885026267469
 51
276.0000000087408
 73
     1
 72
     1
 10
174.4846565104053
 20
216.7597579150308
 11
175.0853743997254
 21
216.8228959094076
 72
     2
 10
174.9417777752246
 20
218.1891265290868
 40
1.37375619988166
 50
276.0000000009496
 51
300.0000000009419
 73
     1
 72
     1
 10
175.628655875185
 20
216.9994187613942
 11
177.1851223785904
 21
217.8980451161296
 72
     2
 10
177.0420227744148
 20
218.1459009010972
 40
0.286199208343561
 50
300.0000000007515
 51
420.0000000004193
 73
     1
 72
     1
 10
177.1851223785848
 20
218.3937566860668
 11
176.9306718162674
 21
218.5406637866669
 72
     2
 10
177.0737714204701
 20
218.7885195716375
 40
0.286199208343561
 50
120.0000000051431
 51
180.0000000054688
 73
     0
 97
        0
 75
     0
 76
     2
 52
0.0
 41
0.125
 77
     0
 78
     3
 53
45.00000209717174
 43
0.8418990000000001
 44
0.8418990000000001
 45
0.5612659459355175
 46
1.683798043244233
 79
     2
 49
0.79375
 49
-1.5875
 53
45.00000209717174
 43
1.96443125
 44
0.8418990000000001
 45
0.5612659459355175
 46
1.683798043244233
 79
     2
 49
0.79375
 49
-1.5875
 53
134.9999719140475
 43
0.0
 44
0.0
 45
-0.5612662826950551
 46
-0.5612657324384541
 79
     0
 98
        1
 10
0.0
 20
0.0
  0
HATCH
  5
295
330
1F
100
AcDbEntity
  8
0
  6
Continuous
 62
     7
370
    18
100
AcDbHatch
 10
0.0
 20
0.0
 30
0.0
210
0.0
220
0.0
230
1.0
  2
DIN 128 Elastomer-Gummi
 70
     0
 71
     0
 91
        1
 92
        0
 93
       74
 72
     1
 10
92.06887175347391
 20
220.7378588627556
 11
92.06887175339061
 21
218.7885195716648
 72
     2
 10
91.78267254504705
 20
218.7885195716375
 40
0.286199208343561
 50
359.9999999945328
 51
419.9999999948577
 73
     0
 72
     1
 10
91.92577214924971
 20
218.5406637866669
 11
91.67132158693228
 21
218.3937566860668
 72
     4
 94
        3
 73
     1
 74
     0
 95
       26
 96
       22
 40
0.0
 40
0.0
 40
0.0
 40
0.0
 40
0.0000200815855286
 40
0.0000200815855286
 40
0.0000200815855286
 40
0.0001175026773563
 40
0.0001175026773563
 40
0.0001175026773563
 40
0.000214923769184
 40
0.000214923769184
 40
0.000214923769184
 40
0.0003123448610117
 40
0.0003123448610117
 40
0.0003123448610117
 40
0.0004097659528394
 40
0.0004097659528394
 40
0.0004097659528394
 40
0.0005071870446646
 40
0.0005071870446646
 40
0.0005071870446646
 40
0.0006046081364898
 40
0.0006046081364898
 40
0.0006046081364898
 40
0.0006046081364898
 10
91.67132158693228
 20
218.3937566860668
 42
1.0
 10
91.66552453252692
 20
218.3904097551454
 42
1.0
 10
91.6598414795328
 20
218.3868571365715
 42
1.0
 10
91.6542933932667
 20
218.3831119362891
 42
1.0
 10
91.62774383502173
 20
218.3651898261654
 42
1.0
 10
91.6039224205831
 20
218.3424367388997
 42
1.0
 10
91.5848018116377
 20
218.3167368675411
 42
1.0
 10
91.56568120269232
 20
218.2910369961825
 42
1.0
 10
91.55073402923752
 20
218.2616815065478
 42
1.0
 10
91.54119807320596
 20
218.231101339497
 42
1.0
 10
91.53166211717439
 20
218.2005211724462
 42
1.0
 10
91.52727436512481
 20
218.1678728892152
 42
1.0
 10
91.52839816871217
 20
218.1358601083334
 42
1.0
 10
91.52952197229952
 20
218.1038473274516
 42
1.0
 10
91.53618832741431
 20
218.0715870968966
 42
1.0
 10
91.54784519029103
 20
218.0417509003869
 42
1.0
 10
91.55950205316744
 20
218.0119147038779
 42
1.0
 10
91.57647093447618
 20
217.9836796222763
 42
1.0
 10
91.5973466337783
 20
217.9593838149655
 42
1.0
 10
91.61822233308042
 20
217.9350880076546
 42
1.0
 10
91.64358062793757
 20
217.9140613662713
 42
1.0
 10
91.67132158692725
 20
217.8980451161306
 42
1.0
 72
     1
 10
91.67132158692668
 20
217.8980451161296
 11
93.22778809033218
 21
216.9994187613942
 72
     2
 10
93.91466619029255
 20
218.1891265290868
 40
1.37375619988166
 50
239.9999999990602
 51
263.9999999990508
 73
     1
 72
     1
 10
93.7710695657917
 20
216.8228959094076
 11
94.37178745511184
 21
216.7597579150308
 72
     2
 10
94.55128323596855
 20
218.4675461895908
 40
1.71719524983917
 50
263.9999999912608
 51
278.7114973732548
 73
     1
 72
     1
 10
94.81136821237502
 20
216.7701613389726
 11
95.77292330889009
 21
216.9174974217462
 72
     2
 10
95.72036611931375
 20
217.2604998455857
 40
0.347005649717682
 50
278.7114973796263
 51
359.9999999990623
 73
     1
 72
     1
 10
96.06737176903806
 20
217.2604998455801
 11
96.0673717690446
 21
218.0748063776677
 72
     2
 10
96.29633113569105
 20
218.0748063776677
 40
0.22895936664645
 50
180.0
 51
208.0000000019923
 73
     0
 72
     1
 10
96.09417201404972
 20
218.1822962893498
 11
97.42509256431906
 21
220.6853937914609
 72
     2
 10
97.93049036846196
 20
220.4166690122865
 40
0.57239841664246
 50
207.9999999974033
 51
256.2315424180437
 73
     0
 72
     2
 10
97.71252215635495
 20
221.3061903013653
 40
0.343439049949432
 50
283.7684575785559
 51
460.9999999981808
 73
     1
 72
     1
 10
97.64699089627189
 20
221.6433194086543
 11
97.09652638972737
 21
221.5363199477725
 72
     2
 10
96.98730762289875
 20
222.0982017933123
 40
0.57239841664246
 50
79.00000000061704
 51
180.0000000009112
 73
     0
 72
     1
 10
96.41490920629906
 20
222.0982017933214
 11
96.4149092063857
 21
224.2697897629841
 72
     2
 10
96.64386857303215
 20
224.2697897629841
 40
0.22895936664645
 50
180.0
 51
226.0610789804821
 73
     0
 72
     1
 10
96.4849956973735
 20
224.4346588049133
 11
96.68308108302281
 21
224.6255399702324
 72
     2
 10
96.48448998835316
 20
224.8316262724807
 40
0.286199208343561
 50
313.9389210560917
 51
375.000000016558
 73
     1
 72
     1
 10
96.76093719510295
 20
224.9057000783648
 11
96.69908931637973
 21
225.1365195040836
 72
     4
 94
        3
 73
     1
 74
     0
 95
       11
 96
        7
 40
0.0
 40
0.0
 40
0.0
 40
0.0
 40
0.0000576585004983
 40
0.0000576585004983
 40
0.0000576585004983
 40
0.0000883831276569
 40
0.0000883831276569
 40
0.0000883831276569
 40
0.0000883831276569
 10
96.69908931637973
 20
225.1365195040836
 42
1.0
 10
96.69411494370492
 20
225.1550841156639
 42
1.0
 10
96.69227717878367
 20
225.1747635774383
 42
1.0
 10
96.69372820772816
 20
225.1939282246209
 42
1.0
 10
96.69450934380167
 20
225.2042451775027
 42
1.0
 10
96.69623371134716
 20
225.2145328312639
 42
1.0
 10
96.6988593123241
 20
225.2245406237198
 42
1.0
 72
     1
 10
96.69885931232358
 20
225.2245406237199
 11
96.87737243295085
 21
225.9049647549737
 72
     2
 10
97.04347076108266
 20
225.8613879187776
 40
0.171719524984892
 50
194.7005665780542
 51
283.5831004042204
 73
     0
 72
     1
 10
97.08380002215544
 20
226.0283045026104
 11
97.51123027989415
 21
225.9250316819789
 72
     2
 10
97.56500262791725
 20
226.1475871271278
 40
0.228959366651219
 50
256.4168996160361
 51
374.0976954816263
 73
     1
 72
     1
 10
97.78706615355942
 20
226.2033561342651
 11
97.57312334024616
 21
227.055243192115
 72
     4
 94
        3
 73
     1
 74
     0
 95
       20
 96
       16
 40
0.0
 40
0.0
 40
0.0
 40
0.0
 40
0.0000960975008423
 40
0.0000960975008423
 40
0.0000960975008423
 40
0.0001921950016847
 40
0.0001921950016847
 40
0.0001921950016847
 40
0.0002882925025295
 40
0.0002882925025295
 40
0.0002882925025295
 40
0.0003843900033744
 40
0.0003843900033744
 40
0.0003843900033744
 40
0.0003968838896682
 40
0.0003968838896682
 40
0.0003968838896682
 40
0.0003968838896682
 10
97.57312334024616
 20
227.055243192115
 42
1.0
 10
97.56532099190012
 20
227.0863109315649
 42
1.0
 10
97.56277493514612
 20
227.1191542012092
 42
1.0
 10
97.56569601005091
 20
227.151053235609
 42
1.0
 10
97.5686170849557
 20
227.1829522700087
 42
1.0
 10
97.5770858583718
 20
227.214786883918
 42
1.0
 10
97.5904010274905
 20
227.2439208391177
 42
1.0
 10
97.60371619660954
 20
227.2730547943181
 42
1.0
 10
97.62224501023582
 20
227.3002916412646
 42
1.0
 10
97.64445308925679
 20
227.3233758848191
 42
1.0
 10
97.66666116827777
 20
227.3464601283738
 42
1.0
 10
97.69316103893286
 20
227.3660284604755
 42
1.0
 10
97.72175823541131
 20
227.380460419035
 42
1.0
 10
97.72552883851884
 20
227.3823633044396
 42
1.0
 10
97.72934250819426
 20
227.3841831485493
 42
1.0
 10
97.73319364032535
 20
227.3859172771392
 42
1.0
 72
     1
 10
97.73319364033055
 20
227.3859172771309
 11
98.82218395498177
 21
227.8762793772762
 72
     1
 10
98.82218395498177
 20
227.8762793772762
 11
99.16562300501558
 21
228.0309267524353
 72
     2
 10
99.04811389797835
 20
228.2918895785615
 40
0.286199208343561
 50
294.2415899992575
 51
414.9999999983795
 73
     1
 72
     1
 10
99.2122710199742
 20
228.5263302451183
 11
98.34723986134111
 21
229.1320315833613
 72
     2
 10
98.08458846611026
 20
228.7569265167553
 40
0.457918733412644
 50
55.00000000280392
 51
86.55659648877977
 73
     1
 72
     1
 10
98.11209223626311
 20
229.2140185305151
 11
95.80859727461454
 21
229.3526225622272
 72
     2
 10
95.77421756193135
 20
228.7812575451578
 40
0.57239841664246
 50
86.55659648878178
 51
179.9999999999431
 73
     1
 72
     1
 10
95.20181914528895
 20
228.7812575451584
 11
95.2018191452888
 21
228.5183685408236
 72
     4
 94
        3
 73
     1
 74
     0
 95
       38
 96
       34
 40
0.0
 40
0.0
 40
0.0
 40
0.0
 40
0.0002690730023324
 40
0.0002690730023324
 40
0.0002690730023324
 40
0.0005381460046649
 40
0.0005381460046649
 40
0.0005381460046649
 40
0.0008072190069973
 40
0.0008072190069973
 40
0.0008072190069973
 40
0.0010762920093297
 40
0.0010762920093297
 40
0.0010762920093297
 40
0.0013453650116622
 40
0.0013453650116622
 40
0.0013453650116622
 40
0.0016144380139946
 40
0.0016144380139946
 40
0.0016144380139946
 40
0.001883511016327
 40
0.001883511016327
 40
0.001883511016327
 40
0.0021525840186594
 40
0.0021525840186594
 40
0.0021525840186594
 40
0.0024216570209919
 40
0.0024216570209919
 40
0.0024216570209919
 40
0.0026907300233243
 40
0.0026907300233243
 40
0.0026907300233243
 40
0.002863031305315
 40
0.002863031305315
 40
0.002863031305315
 40
0.002863031305315
 10
95.2018191452888
 20
228.5183685408236
 42
1.0
 10
95.20181914528885
 20
228.4286775400461
 42
1.0
 10
95.18633386242746
 20
228.3377496449978
 42
1.0
 10
95.15664563971117
 20
228.253114634202
 42
1.0
 10
95.12695741699488
 20
228.1684796234061
 42
1.0
 10
95.08224741658556
 20
228.0878031587674
 42
1.0
 10
95.02621809305646
 20
228.0177660933996
 42
1.0
 10
94.97018876952735
 20
227.9477290280317
 42
1.0
 10
94.90129476495697
 20
227.8863996531983
 42
1.0
 10
94.82524122181799
 20
227.8388566810944
 42
1.0
 10
94.74918767867902
 20
227.7913137089905
 42
1.0
 10
94.6638769463495
 20
227.7562458457449
 42
1.0
 10
94.57637364366568
 20
227.7365570763601
 42
1.0
 10
94.48887034098186
 20
227.7168683069753
 42
1.0
 10
94.39676101881669
 20
227.7120155908821
 42
1.0
 10
94.30767329018661
 20
227.7224007836103
 42
1.0
 10
94.21858556155655
 20
227.7327859763384
 42
1.0
 10
94.13006227691069
 20
227.7586955143257
 42
1.0
 10
94.04943408793933
 20
227.7979838174662
 42
1.0
 10
93.96880589896797
 20
227.8372721206068
 42
1.0
 10
93.89384898066888
 20
227.8910228088099
 42
1.0
 10
93.83077054803671
 20
227.9547847642154
 42
1.0
 10
93.76769211540453
 20
228.0185467196209
 42
1.0
 10
93.7147523873853
 20
228.0940785756848
 42
1.0
 10
93.67633532587377
 20
228.1751255065662
 42
1.0
 10
93.63791826436226
 20
228.2561724374475
 42
1.0
 10
93.612964279369
 20
228.3449698175674
 42
1.0
 10
93.60353982124094
 20
228.4341642972703
 42
1.0
 10
93.5941153631129
 20
228.5233587769731
 42
1.0
 10
93.59996049365867
 20
228.6154104501361
 42
1.0
 10
93.62059117507637
 20
228.7026964776818
 42
1.0
 10
93.63391328642773
 20
228.7590607903692
 42
1.0
 10
93.65349552801
 20
228.8142921019123
 42
1.0
 10
93.67865348042888
 20
228.8664600214191
 42
1.0
 72
     1
 10
93.67865348042888
 20
228.8664600214191
 11
94.20313710583424
 21
229.9540373845231
 72
     2
 10
94.04846398834884
 20
230.028628416079
 40
0.171719524984892
 50
334.2543347479593
 51
389.9999999765304
 73
     1
 72
     1
 10
94.19717745934675
 20
230.1144881785105
 11
94.06151076625372
 21
230.3494697840652
 72
     4
 94
        3
 73
     1
 74
     0
 95
       11
 96
        7
 40
0.0
 40
0.0
 40
0.0
 40
0.0
 40
0.0000576585004983
 40
0.0000576585004983
 40
0.0000576585004983
 40
0.0000950565703646
 40
0.0000950565703646
 40
0.0000950565703646
 40
0.0000950565703646
 10
94.0615107662539
 20
230.3494697840653
 42
1.0
 10
94.05190101617771
 20
230.3661143594611
 42
1.0
 10
94.04503245207518
 20
230.3846476112753
 42
1.0
 10
94.04147386272595
 20
230.4035347928669
 42
1.0
 10
94.03914663676952
 20
230.4158865241095
 42
1.0
 10
94.03817804136382
 20
230.4285706274412
 42
1.0
 10
94.03860279073848
 20
230.4411325076074
 42
1.0
 72
     1
 10
94.03860279073848
 20
230.4411325076074
 11
94.12501726952424
 21
232.9968239152354
 72
     2
 10
93.78177437593116
 20
233.0084298378852
 40
0.343439049949432
 50
358.0634205299177
 51
470.9858189554991
 73
     1
 72
     1
 10
93.6587761888972
 20
233.3290882652133
 11
93.0137585130754
 21
233.0816723283445
 72
     2
 10
93.50575126216515
 20
231.7990386198436
 40
1.37375619988166
 50
110.985819004766
 51
119.9999999917397
 73
     1
 72
     1
 10
92.81887316239583
 20
232.9887463876466
 11
91.67814143418195
 21
232.3301446174828
 72
     4
 94
        3
 73
     1
 74
     0
 95
       26
 96
       22
 40
0.0
 40
0.0
 40
0.0
 40
0.0
 40
0.0000200815855724
 40
0.0000200815855724
 40
0.0000200815855724
 40
0.0001175026773999
 40
0.0001175026773999
 40
0.0001175026773999
 40
0.0002149237692273
 40
0.0002149237692273
 40
0.0002149237692273
 40
0.0003123448610548
 40
0.0003123448610548
 40
0.0003123448610548
 40
0.0004097659528822
 40
0.0004097659528822
 40
0.0004097659528822
 40
0.0005071870447071
 40
0.0005071870447071
 40
0.0005071870447071
 40
0.0006046081365321
 40
0.0006046081365321
 40
0.0006046081365321
 40
0.0006046081365321
 10
91.67814143418298
 20
232.330144617481
 42
1.0
 10
91.67234437976448
 20
232.3267976865531
 42
1.0
 10
91.66666132675772
 20
232.3232450679718
 42
1.0
 10
91.66111324047957
 20
232.3194998676812
 42
1.0
 10
91.63456368223491
 20
232.301577757557
 42
1.0
 10
91.61074226779667
 20
232.2788246702908
 42
1.0
 10
91.59162165885171
 20
232.2531247989319
 42
1.0
 10
91.57250104990676
 20
232.227424927573
 42
1.0
 10
91.55755387645246
 20
232.198069437938
 42
1.0
 10
91.54801792042142
 20
232.1674892708871
 42
1.0
 10
91.53848196439037
 20
232.1369091038361
 42
1.0
 10
91.53409421234134
 20
232.104260820605
 42
1.0
 10
91.53521801592926
 20
232.0722480397233
 42
1.0
 10
91.53634181951716
 20
232.0402352588415
 42
1.0
 10
91.54300817463249
 20
232.0079750282866
 42
1.0
 10
91.5546650375097
 20
231.9781388317771
 42
1.0
 10
91.56632190038661
 20
231.9483026352684
 42
1.0
 10
91.58329078169584
 20
231.920067553667
 42
1.0
 10
91.60416648099837
 20
231.8957717463565
 42
1.0
 10
91.62504218030091
 20
231.871475939046
 42
1.0
 10
91.6504004751584
 20
231.8504492976631
 42
1.0
 10
91.67814143414834
 20
231.8344330475229
 42
1.0
 72
     1
 10
91.67814143414834
 20
231.8344330475229
 11
91.93259199648047
 21
231.6875259468675
 72
     2
 10
91.78949239230926
 20
231.4396701618971
 40
0.286199208343561
 50
299.9999999997199
 51
360.3156413842572
 73
     0
 72
     1
 10
92.07568725775162
 20
231.4380935037535
 11
92.06886741055257
 21
230.200155362365
 72
     2
 10
91.78267254522726
 20
230.2017320203054
 40
0.286199208343561
 50
0.3156413437090743
 51
59.99999999439447
 73
     0
 72
     1
 10
91.92577214942328
 20
229.9538762353509
 11
91.671321587121
 21
229.8069691347346
 72
     4
 94
        3
 73
     1
 74
     0
 95
       26
 96
       22
 40
0.0
 40
0.0
 40
0.0
 40
0.0
 40
0.0000200815855338
 40
0.0000200815855338
 40
0.0000200815855338
 40
0.0001175026773615
 40
0.0001175026773615
 40
0.0001175026773615
 40
0.0002149237691892
 40
0.0002149237691892
 40
0.0002149237691892
 40
0.0003123448610169
 40
0.0003123448610169
 40
0.0003123448610169
 40
0.0004097659528446
 40
0.0004097659528446
 40
0.0004097659528446
 40
0.0005071870446697
 40
0.0005071870446697
 40
0.0005071870446697
 40
0.0006046081364949
 40
0.0006046081364949
 40
0.0006046081364949
 40
0.0006046081364949
 10
91.67132158708795
 20
229.8069691347918
 42
1.0
 10
91.665524532681
 20
229.8036222038697
 42
1.0
 10
91.65984147968534
 20
229.8000695852949
 42
1.0
 10
91.6542933934178
 20
229.7963243850115
 42
1.0
 10
91.62774383517285
 20
229.7784022748878
 42
1.0
 10
91.60392242073424
 20
229.755649187622
 42
1.0
 10
91.58480181178885
 20
229.7299493162634
 42
1.0
 10
91.56568120284348
 20
229.7042494449048
 42
1.0
 10
91.55073402938868
 20
229.6748939552701
 42
1.0
 10
91.54119807335715
 20
229.6443137882193
 42
1.0
 10
91.53166211732558
 20
229.6137336211685
 42
1.0
 10
91.52727436527603
 20
229.5810853379375
 42
1.0
 10
91.52839816886338
 20
229.5490725570557
 42
1.0
 10
91.52952197245077
 20
229.5170597761739
 42
1.0
 10
91.53618832756555
 20
229.4847995456189
 42
1.0
 10
91.54784519044226
 20
229.4549633491092
 42
1.0
 10
91.55950205331868
 20
229.4251271526003
 42
1.0
 10
91.57647093462745
 20
229.3968920709986
 42
1.0
 10
91.59734663392959
 20
229.3725962636878
 42
1.0
 10
91.61822233323171
 20
229.348300456377
 42
1.0
 10
91.64358062808886
 20
229.3272738149937
 42
1.0
 10
91.67132158707855
 20
229.311257564853
 42
1.0
 72
     1
 10
91.67132158707855
 20
229.311257564853
 11
91.92577214942752
 21
229.164350464185
 72
     2
 10
91.78267254526284
 20
228.9164946792527
 40
0.286199208343561
 50
300.0000000023874
 51
360.000000001025
 73
     0
 72
     1
 10
92.06887175360642
 20
228.9164946792476
 11
92.06887175356135
 21
227.7026983084993
 72
     2
 10
91.78267254518666
 20
227.7026983084749
 40
0.286199208343561
 50
359.9999999951132
 51
419.9999999943678
 73
     0
 72
     1
 10
91.92577214938282
 20
227.4548425235204
 11
91.67132158707581
 21
227.3079354229012
 72
     4
 94
        3
 73
     1
 74
     0
 95
       26
 96
       22
 40
0.0
 40
0.0
 40
0.0
 40
0.0
 40
0.0000200815855282
 40
0.0000200815855282
 40
0.0000200815855282
 40
0.000117502677356
 40
0.000117502677356
 40
0.000117502677356
 40
0.0002149237691837
 40
0.0002149237691837
 40
0.0002149237691837
 40
0.0003123448610114
 40
0.0003123448610114
 40
0.0003123448610114
 40
0.0004097659528391
 40
0.0004097659528391
 40
0.0004097659528391
 40
0.0005071870446643
 40
0.0005071870446643
 40
0.0005071870446643
 40
0.0006046081364895
 40
0.0006046081364895
 40
0.0006046081364895
 40
0.0006046081364895
 10
91.67132158707584
 20
227.3079354229012
 42
1.0
 10
91.66552453267056
 20
227.3045884919798
 42
1.0
 10
91.65984147967652
 20
227.301035873406
 42
1.0
 10
91.65429339341053
 20
227.2972906731237
 42
1.0
 10
91.62774383516556
 20
227.2793685629999
 42
1.0
 10
91.60392242072692
 20
227.2566154757342
 42
1.0
 10
91.58480181178152
 20
227.2309156043756
 42
1.0
 10
91.56568120283613
 20
227.205215733017
 42
1.0
 10
91.55073402938135
 20
227.1758602433823
 42
1.0
 10
91.54119807334978
 20
227.1452800763315
 42
1.0
 10
91.5316621173182
 20
227.1146999092808
 42
1.0
 10
91.52727436526861
 20
227.0820516260497
 42
1.0
 10
91.52839816885597
 20
227.0500388451679
 42
1.0
 10
91.52952197244332
 20
227.0180260642861
 42
1.0
 10
91.53618832755811
 20
226.9857658337311
 42
1.0
 10
91.54784519043481
 20
226.9559296372214
 42
1.0
 10
91.55950205331122
 20
226.9260934407125
 42
1.0
 10
91.57647093461996
 20
226.8978583591108
 42
1.0
 10
91.59734663392207
 20
226.8735625518
 42
1.0
 10
91.61822233322421
 20
226.8492667444892
 42
1.0
 10
91.64358062808134
 20
226.8282401031059
 42
1.0
 10
91.67132158707103
 20
226.8122238529651
 42
1.0
 72
     1
 10
91.67132158707103
 20
226.8122238529651
 11
91.92577214938721
 21
226.6653167523545
 72
     2
 10
91.78267254522245
 20
226.4174609674216
 40
0.286199208343561
 50
300.0000000023454
 51
360.000000001025
 73
     0
 72
     1
 10
92.06887175356601
 20
226.4174609674165
 11
92.06887175352155
 21
225.2760419909366
 72
     2
 10
91.78267254524805
 20
225.276041991118
 40
0.286199208343561
 50
0.0000000363015424
 51
25.00000003511598
 73
     0
 72
     1
 10
92.04205711633942
 20
225.1550889790173
 11
91.2864590964712
 21
223.5347037965572
 72
     4
 94
        3
 73
     1
 74
     0
 95
       29
 96
       25
 40
0.0
 40
0.0
 40
0.0
 40
0.0
 40
0.0000292734573812
 40
0.0000292734573812
 40
0.0000292734573812
 40
0.0000679458852329
 40
0.0000679458852329
 40
0.0000679458852329
 40
0.0001066183130847
 40
0.0001066183130847
 40
0.0001066183130847
 40
0.0001452907409364
 40
0.0001452907409364
 40
0.0001452907409364
 40
0.0001839631687881
 40
0.0001839631687881
 40
0.0001839631687881
 40
0.0002226355966398
 40
0.0002226355966398
 40
0.0002226355966398
 40
0.0002613080244906
 40
0.0002613080244906
 40
0.0002613080244906
 40
0.0002999804523413
 40
0.0002999804523413
 40
0.0002999804523413
 40
0.0002999804523413
 10
91.28645909646434
 20
223.5347037965603
 42
1.0
 10
91.282335263909
 20
223.5258602090998
 42
1.0
 10
91.27932739303675
 20
223.5164093288372
 42
1.0
 10
91.27758120640144
 20
223.506809023303
 42
1.0
 10
91.27528828733156
 20
223.4942028544142
 42
1.0
 10
91.27514022104417
 20
223.481026962833
 42
1.0
 10
91.2771492689729
 20
223.4683724498699
 42
1.0
 10
91.27915831690163
 20
223.4557179369068
 42
1.0
 10
91.28337989106889
 20
223.44323577547
 42
1.0
 10
91.2894644010824
 20
223.431959618775
 42
1.0
 10
91.29554891109592
 20
223.4206834620801
 42
1.0
 10
91.30366417525431
 20
223.4103022998029
 42
1.0
 10
91.31313816500422
 20
223.4016758005053
 42
1.0
 10
91.32261215475413
 20
223.3930493012077
 42
1.0
 10
91.33370617443023
 20
223.385939535388
 42
1.0
 10
91.34550152343964
 20
223.3809352658449
 42
1.0
 10
91.35729687244904
 20
223.3759309963019
 42
1.0
 10
91.37011888108096
 20
223.3728941991028
 42
1.0
 10
91.38290575322571
 20
223.3720763527441
 42
1.0
 10
91.39569262537017
 20
223.3712585063855
 42
1.0
 10
91.40879703874896
 20
223.3726370536547
 42
1.0
 10
91.42113381119263
 20
223.3760978364531
 42
1.0
 10
91.4334705836363
 20
223.3795586192516
 42
1.0
 10
91.44537997856087
 20
223.3851970902417
 42
1.0
 10
91.45587577379457
 20
223.3925463251894
 42
1.0
 72
     1
 10
91.45587577379457
 20
223.3925463251894
 11
91.88872922136542
 21
223.6956335720614
 72
     2
 10
91.95439207016176
 20
223.6018573054394
 40
0.114479683346748
 50
234.9999999990057
 51
360.0000000011387
 73
     0
 72
     1
 10
92.0688717535085
 20
223.6018573054371
 11
92.06887175347245
 21
222.0230962038385
 72
     2
 10
91.78267254509936
 20
222.0230962038112
 40
0.286199208343561
 50
359.9999999945385
 51
419.9999999948618
 73
     0
 72
     1
 10
91.92577214929337
 20
221.7752404188556
 11
91.67132158698908
 21
221.6283333182433
 72
     4
 94
        3
 73
     1
 74
     0
 95
       26
 96
       22
 40
0.0
 40
0.0
 40
0.0
 40
0.0
 40
0.0000200815855342
 40
0.0000200815855342
 40
0.0000200815855342
 40
0.0001175026773618
 40
0.0001175026773618
 40
0.0001175026773618
 40
0.0002149237691895
 40
0.0002149237691895
 40
0.0002149237691895
 40
0.0003123448610172
 40
0.0003123448610172
 40
0.0003123448610172
 40
0.0004097659528449
 40
0.0004097659528449
 40
0.0004097659528449
 40
0.00050718704467
 40
0.00050718704467
 40
0.00050718704467
 40
0.0006046081364952
 40
0.0006046081364952
 40
0.0006046081364952
 40
0.0006046081364952
 10
91.67132158695631
 20
221.6283333183
 42
1.0
 10
91.66552453254928
 20
221.6249863873778
 42
1.0
 10
91.65984147955353
 20
221.621433768803
 42
1.0
 10
91.6542933932859
 20
221.6176885685196
 42
1.0
 10
91.62774383504093
 20
221.5997664583959
 42
1.0
 10
91.60392242060232
 20
221.5770133711301
 42
1.0
 10
91.58480181165694
 20
221.5513134997715
 42
1.0
 10
91.56568120271156
 20
221.5256136284129
 42
1.0
 10
91.55073402925679
 20
221.4962581387782
 42
1.0
 10
91.54119807322523
 20
221.4656779717274
 42
1.0
 10
91.53166211719369
 20
221.4350978046766
 42
1.0
 10
91.52727436514411
 20
221.4024495214456
 42
1.0
 10
91.52839816873148
 20
221.3704367405638
 42
1.0
 10
91.52952197231885
 20
221.338423959682
 42
1.0
 10
91.53618832743365
 20
221.3061637291269
 42
1.0
 10
91.54784519031037
 20
221.2763275326173
 42
1.0
 10
91.55950205318678
 20
221.2464913361084
 42
1.0
 10
91.57647093449555
 20
221.2182562545067
 42
1.0
 10
91.59734663379767
 20
221.1939604471958
 42
1.0
 10
91.61822233309981
 20
221.169664639885
 42
1.0
 10
91.64358062795696
 20
221.1486379985018
 42
1.0
 10
91.67132158694665
 20
221.132621748361
 42
1.0
 72
     1
 10
91.67132158694666
 20
221.132621748361
 11
91.92577214930057
 21
220.9857146476898
 72
     2
 10
91.78267254513037
 20
220.7378588627602
 40
0.286199208343561
 50
300.0000000036218
 51
360.0000000009169
 73
     0
 97
        0
 75
     0
 76
     2
 52
0.0
 41
0.125
 77
     0
 78
     3
 53
45.00000209717174
 43
0.8418990000000001
 44
0.8418990000000001
 45
0.5612659459355175
 46
1.683798043244233
 79
     2
 49
0.79375
 49
-1.5875
 53
45.00000209717174
 43
1.96443125
 44
0.8418990000000001
 45
0.5612659459355175
 46
1.683798043244233
 79
     2
 49
0.79375
 49
-1.5875
 53
134.9999719140475
 43
0.0
 44
0.0
 45
-0.5612662826950551
 46
-0.5612657324384541
 79
     0
 98
        1
 10
0.0
 20
0.0
  0
DIMENSION
  5
296
330
1F
100
AcDbEntity
  8
0
  6
Continuous
 62
     7
370
    18
100
AcDbDimension
  2
_D_2
 10
188.5807107239
 20
216.7503509398
 30
0.0
 11
188.5807107239
 21
225.0511099138
 31
0.0
 70
   160
  1
<>
 71
     2
 42
-1.0
  3
SLDDIMSTYLE2
100
AcDbAlignedDimension
 13
175.0746695896
 23
233.3518688878
 33
0.0
 14
174.3051607295
 24
216.7503509398
 34
0.0
 50
90.0
100
AcDbRotatedDimension
  0
MTEXT
  5
2A1
330
1F
100
AcDbEntity
  8
0
  6
Continuous
 62
     7
370
     0
100
AcDbMText
 10
134.4031344285
 20
250.795614787
 30
0.0
 40
5.0
 41
0.0
 71
     2
 72
     1
  1
A-A
  7
SLDTEXTSTYLE0
 73
     1
 44
1.0
  0
LINE
  5
2A2
330
1F
100
AcDbEntity
  8
0
  6
Continuous
 62
     7
370
    25
100
AcDbLine
 10
277.1139998534
 20
159.9936768564
 30
0.0
 11
277.7824189483
 21
159.0970343174
 31
0.0
  0
LINE
  5
2A3
330
1F
100
AcDbEntity
  8
0
  6
Continuous
 62
     7
370
    25
100
AcDbLine
 10
352.7739388103
 20
159.0970343174
 30
0.0
 11
353.4423579052
 21
159.9936768564
 31
0.0
  0
LINE
  5
2A4
330
1F
100
AcDbEntity
  8
0
  6
Continuous
 62
     7
370
    25
100
AcDbLine
 10
351.7397966901
 20
174.7495769107
 30
0.0
 11
351.7941952291
 21
174.2166268999
 31
0.0
  0
SPLINE
  5
2A5
330
1F
100
AcDbEntity
  8
0
  6
Continuous
 62
     7
370
    25
100
AcDbSpline
210
0.0
220
0.0
230
1.0
 70
     8
 71
     3
 72
     9
 73
     5
 74
     0
 42
0.00000001
 43
0.00000001
 40
0.0
 40
0.0
 40
0.0
 40
0.0
 40
0.524720446715615
 40
0.9999999999999999
 40
0.9999999999999999
 40
0.9999999999999999
 40
0.9999999999999999
 10
283.648620998376
 20
185.0936440321022
 30
0.0
 10
283.9613462885966
 20
185.3765970534241
 30
0.0
 10
284.5573308593868
 20
185.9158423279184
 30
0.0
 10
285.2123638122656
 20
186.419847948845
 30
0.0
 10
285.5236875814964
 20
186.6593915152119
 30
0.0
  0
SPLINE
  5
2A6
330
1F
100
AcDbEntity
  8
0
  6
Continuous
 62
     7
370
    25
100
AcDbSpline
210
0.0
220
0.0
230
1.0
 70
     8
 71
     3
 72
     9
 73
     5
 74
     0
 42
0.00000001
 43
0.00000001
 40
0.0
 40
0.0
 40
0.0
 40
0.0
 40
0.492169163726945
 40
1.0
 40
1.0
 40
1.0
 40
1.0
 10
344.9328335022397
 20
186.7414621154982
 30
0.0
 10
345.2391336808209
 20
186.5043698118526
 30
0.0
 10
345.8614810385094
 20
186.0226405181068
 30
0.0
 10
346.444226462796
 20
185.516912622058
 30
0.0
 10
346.7401625589458
 20
185.2600884016809
 30
0.0
  0
LWPOLYLINE
  5
2A7
330
1F
100
AcDbEntity
  8
0
  6
Continuous
 62
     7
370
    25
100
AcDbPolyline
 90
      165
 70
   128
 43
0.0
 10
315.2781788793
 20
208.087673221
 10
313.64047271
 20
208.0654871633
 10
312.0051701004
 20
207.9989615513
 10
310.3746710825
 20
207.8881940204
 10
308.7513686385
 20
207.7333471373
 10
307.1376451885
 20
207.5346481612
 10
305.5358690943
 20
207.2923887102
 10
303.9483911832
 20
207.0069243334
 10
302.3775412978
 20
206.6786739892
 10
300.8256248771
 20
206.3081194303
 10
299.2949195724
 20
205.8958044965
 10
297.7876719047
 20
205.4423343169
 10
296.306093968
 20
204.9483744215
 10
294.8523601821
 20
204.4146497645
 10
293.4286041018
 20
203.8419436606
 10
292.0369152855
 20
203.2310966348
 10
290.6793362285
 20
202.5830051894
 10
289.3578593652
 20
201.898620488
 10
288.0744241452
 20
201.1789469595
 10
286.8309141865
 20
200.4250408241
 10
285.6291545117
 20
199.638008543
 10
284.4709088687
 20
198.8190051945
 10
283.3578771427
 20
197.9692327791
 10
282.2916928612
 20
197.0899384549
 10
281.2739207968
 20
196.1824127076
 10
280.3060546702
 20
195.2479874564
 10
279.3895149585
 20
194.2880340992
 10
278.5256468101
 20
193.3039614999
 10
277.7157180706
 20
192.2972139207
 10
276.9609174222
 20
191.2692689027
 10
276.2623526388
 20
190.2216350968
 10
275.6210489607
 20
189.15585005
 10
275.0379475893
 20
188.0734779491
 10
274.5139043065
 20
186.9761073241
 10
274.0496882179
 20
185.865348718
 10
273.6459806247
 20
184.742832322
 10
273.3033740235
 20
183.6102055839
 10
273.0223712366
 20
182.4691307894
 10
272.8033846745
 20
181.3212826234
 10
272.64673573
 20
180.1683457111
 10
272.5526543072
 20
179.0120121465
 10
272.5212784835
 20
177.8539790086
 10
272.5526543072
 20
176.6959458707
 10
272.64673573
 20
175.5396123062
 10
272.8033846745
 20
174.3866753939
 10
273.0223712366
 20
173.2388272278
 10
273.3033740235
 20
172.0977524334
 10
273.6459806247
 20
170.9651256952
 10
274.0496882179
 20
169.8426092993
 10
274.5139043065
 20
168.7318506931
 10
275.0379475893
 20
167.6344800682
 10
275.6210489607
 20
166.5521079672
 10
276.2623526388
 20
165.4863229205
 10
276.9609174222
 20
164.4386891146
 10
277.7157180706
 20
163.4107440965
 10
278.5256468101
 20
162.4039965174
 10
279.3895149585
 20
161.4199239181
 10
280.3060546702
 20
160.4599705609
 10
281.2739207968
 20
159.5255453097
 10
282.2916928612
 20
158.6180195624
 10
283.3578771427
 20
157.7387252382
 10
284.4709088687
 20
156.8889528227
 10
285.6291545117
 20
156.0699494743
 10
286.8309141865
 20
155.2829171931
 10
288.0744241452
 20
154.5290110577
 10
289.3578593652
 20
153.8093375292
 10
290.6793362285
 20
153.1249528279
 10
292.0369152855
 20
152.4768613825
 10
293.4286041018
 20
151.8660143567
 10
294.8523601821
 20
151.2933082527
 10
296.306093968
 20
150.7595835958
 10
297.7876719047
 20
150.2656237004
 10
299.2949195724
 20
149.8121535208
 10
300.8256248771
 20
149.399838587
 10
302.3775412978
 20
149.029284028
 10
303.9483911832
 20
148.7010336839
 10
305.5358690943
 20
148.4155693071
 10
307.1376451885
 20
148.1733098561
 10
308.7513686385
 20
147.9746108799
 10
310.3746710825
 20
147.8197639969
 10
312.0051701004
 20
147.708996466
 10
313.64047271
 20
147.6424708539
 10
315.2781788793
 20
147.6202847962
 10
316.9158850486
 20
147.6424708539
 10
318.5511876582
 20
147.708996466
 10
320.1816866761
 20
147.8197639969
 10
321.8049891202
 20
147.9746108799
 10
323.4187125701
 20
148.1733098561
 10
325.0204886643
 20
148.4155693071
 10
326.6079665755
 20
148.7010336839
 10
328.1788164608
 20
149.029284028
 10
329.7307328815
 20
149.399838587
 10
331.2614381863
 20
149.8121535208
 10
332.7686858539
 20
150.2656237004
 10
334.2502637906
 20
150.7595835958
 10
335.7039975766
 20
151.2933082527
 10
337.1277536568
 20
151.8660143567
 10
338.5194424731
 20
152.4768613825
 10
339.8770215301
 20
153.1249528279
 10
341.1984983934
 20
153.8093375292
 10
342.4819336135
 20
154.5290110577
 10
343.7254435721
 20
155.2829171931
 10
344.9272032469
 20
156.0699494743
 10
346.0854488899
 20
156.8889528227
 10
347.198480616
 20
157.7387252382
 10
348.2646648974
 20
158.6180195624
 10
349.2824369619
 20
159.5255453097
 10
350.2503030884
 20
160.4599705609
 10
351.1668428001
 20
161.4199239181
 10
352.0307109485
 20
162.4039965174
 10
352.840639688
 20
163.4107440965
 10
353.5954403365
 20
164.4386891146
 10
354.2940051198
 20
165.4863229205
 10
354.935308798
 20
166.5521079672
 10
355.5184101693
 20
167.6344800682
 10
356.0424534521
 20
168.7318506931
 10
356.5066695407
 20
169.8426092993
 10
356.9103771339
 20
170.9651256952
 10
357.2529837352
 20
172.0977524334
 10
357.533986522
 20
173.2388272278
 10
357.7529730842
 20
174.3866753939
 10
357.9096220286
 20
175.5396123062
 10
358.0037034514
 20
176.6959458707
 10
358.0350792751
 20
177.8539790086
 10
358.0037034514
 20
179.0120121465
 10
357.9096220286
 20
180.1683457111
 10
357.7529730842
 20
181.3212826234
 10
357.533986522
 20
182.4691307894
 10
357.2529837352
 20
183.6102055839
 10
356.9103771339
 20
184.742832322
 10
356.5066695407
 20
185.865348718
 10
356.0424534521
 20
186.9761073241
 10
355.5184101693
 20
188.0734779491
 10
354.935308798
 20
189.15585005
 10
354.2940051198
 20
190.2216350968
 10
353.5954403365
 20
191.2692689027
 10
352.840639688
 20
192.2972139207
 10
352.0307109485
 20
193.3039614999
 10
351.1668428001
 20
194.2880340992
 10
350.2503030884
 20
195.2479874564
 10
349.2824369619
 20
196.1824127076
 10
348.2646648974
 20
197.0899384549
 10
347.198480616
 20
197.9692327791
 10
346.0854488899
 20
198.8190051945
 10
344.9272032469
 20
199.638008543
 10
343.7254435721
 20
200.4250408241
 10
342.4819336135
 20
201.1789469595
 10
341.1984983934
 20
201.898620488
 10
339.8770215301
 20
202.5830051894
 10
338.5194424731
 20
203.2310966348
 10
337.1277536568
 20
203.8419436606
 10
335.7039975766
 20
204.4146497645
 10
334.2502637906
 20
204.9483744215
 10
332.7686858539
 20
205.4423343169
 10
331.2614381863
 20
205.8958044965
 10
329.7307328815
 20
206.3081194303
 10
328.1788164608
 20
206.6786739892
 10
326.6079665755
 20
207.0069243334
 10
325.0204886643
 20
207.2923887102
 10
323.4187125701
 20
207.5346481612
 10
321.8049891202
 20
207.7333471373
 10
320.1816866761
 20
207.8881940204
 10
318.5511876582
 20
207.9989615513
 10
316.9158850486
 20
208.0654871633
 10
315.2781788793
 20
208.087673221
  0
LWPOLYLINE
  5
2A8
330
1F
100
AcDbEntity
  8
0
  6
Continuous
 62
     7
370
    25
100
AcDbPolyline
 90
       85
 70
   128
 43
0.0
 10
358.0044811995
 20
176.7103834726
 10
358.0350792751
 20
175.5667879378
 10
358.0037034514
 20
174.4087547999
 10
357.9096220286
 20
173.2524212353
 10
357.7529730841
 20
172.099484323
 10
357.533986522
 20
170.9516361569
 10
357.2529837351
 20
169.8105613625
 10
356.9103771339
 20
168.6779346244
 10
356.5066695407
 20
167.5554182284
 10
356.0424534521
 20
166.4446596223
 10
355.5184101692
 20
165.3472889973
 10
354.9353087979
 20
164.2649168964
 10
354.2940051198
 20
163.1991318496
 10
353.5954403364
 20
162.1514980437
 10
352.840639688
 20
161.1235530257
 10
352.0307109485
 20
160.1168054465
 10
351.1668428001
 20
159.1327328472
 10
350.2503030884
 20
158.17277949
 10
349.2824369618
 20
157.2383542388
 10
348.2646648974
 20
156.3308284915
 10
347.1984806159
 20
155.4515341673
 10
346.0854488899
 20
154.6017617519
 10
344.9272032469
 20
153.7827584034
 10
343.725443572
 20
152.9957261223
 10
342.4819336134
 20
152.2418199869
 10
341.1984983934
 20
151.5221464584
 10
339.8770215301
 20
150.837761757
 10
338.5194424731
 20
150.1896703116
 10
337.1277536568
 20
149.5788232859
 10
335.7039975765
 20
149.0061171819
 10
334.2502637906
 20
148.4723925249
 10
332.7686858539
 20
147.9784326295
 10
331.2614381862
 20
147.5249624499
 10
329.7307328815
 20
147.1126475161
 10
328.1788164608
 20
146.7420929572
 10
326.6079665755
 20
146.413842613
 10
325.0204886643
 20
146.1283782363
 10
323.4187125701
 20
145.8861187852
 10
321.8049891201
 20
145.6874198091
 10
320.1816866761
 20
145.532572926
 10
318.5511876582
 20
145.4218053952
 10
316.9158850486
 20
145.3552797831
 10
315.2781788793
 20
145.3330937254
 10
313.64047271
 20
145.3552797831
 10
312.0051701004
 20
145.4218053952
 10
310.3746710825
 20
145.532572926
 10
308.7513686385
 20
145.6874198091
 10
307.1376451885
 20
145.8861187852
 10
305.5358690943
 20
146.1283782363
 10
303.9483911832
 20
146.413842613
 10
302.3775412978
 20
146.7420929572
 10
300.8256248771
 20
147.1126475161
 10
299.2949195724
 20
147.5249624499
 10
297.7876719047
 20
147.9784326295
 10
296.306093968
 20
148.4723925249
 10
294.8523601821
 20
149.0061171819
 10
293.4286041018
 20
149.5788232859
 10
292.0369152855
 20
150.1896703116
 10
290.6793362285
 20
150.837761757
 10
289.3578593652
 20
151.5221464584
 10
288.0744241452
 20
152.2418199869
 10
286.8309141866
 20
152.9957261223
 10
285.6291545117
 20
153.7827584034
 10
284.4709088687
 20
154.6017617519
 10
283.3578771427
 20
155.4515341673
 10
282.2916928612
 20
156.3308284915
 10
281.2739207968
 20
157.2383542388
 10
280.3060546702
 20
158.17277949
 10
279.3895149585
 20
159.1327328472
 10
278.5256468101
 20
160.1168054465
 10
277.7157180706
 20
161.1235530257
 10
276.9609174222
 20
162.1514980437
 10
276.2623526388
 20
163.1991318496
 10
275.6210489607
 20
164.2649168964
 10
275.0379475894
 20
165.3472889973
 10
274.5139043065
 20
166.4446596223
 10
274.0496882179
 20
167.5554182284
 10
273.6459806248
 20
168.6779346244
 10
273.3033740235
 20
169.8105613625
 10
273.0223712366
 20
170.9516361569
 10
272.8033846745
 20
172.099484323
 10
272.6467357301
 20
173.2524212353
 10
272.5526543073
 20
174.4087547999
 10
272.5212784835
 20
175.5667879378
 10
272.5518765591
 20
176.7103834726
  0
LWPOLYLINE
  5
2A9
330
1F
100
AcDbEntity
  8
0
  6
Continuous
 62
     7
370
    25
100
AcDbPolyline
 90
       79
 70
   128
 43
0.0
 10
353.639029093
 20
178.6553126054
 10
353.6079183734
 20
177.5630902294
 10
353.5146366761
 20
176.4726394421
 10
353.3593353044
 20
175.3857289586
 10
353.1422661578
 20
174.3041217518
 10
352.8637813231
 20
173.2295721925
 10
352.5243325038
 20
172.1638232039
 10
352.1244702872
 20
171.1086034349
 10
351.6648432511
 20
170.0656244558
 10
351.1461969124
 20
169.0365779822
 10
350.5693725172
 20
168.0231331314
 10
349.9353056769
 20
167.0269337146
 10
349.2450248502
 20
166.0495955709
 10
348.4996496752
 20
165.0927039463
 10
347.700389153
 20
164.1578109225
 10
346.8485396872
 20
163.2464328995
 10
345.9454829807
 20
162.3600481357
 10
344.9926837948
 20
161.5000943504
 10
343.9916875733
 20
160.667966392
 10
342.9441179356
 20
159.8650139748
 10
341.8516740437
 20
159.0925394907
 10
340.7161278454
 20
158.3517958962
 10
339.5393212009
 20
157.64398468
 10
338.3231628948
 20
156.9702539146
 10
337.0696255404
 20
156.3316963936
 10
335.7807423798
 20
155.7293478598
 10
334.4586039862
 20
155.1641853246
 10
333.1053548729
 20
154.6371254838
 10
331.723190015
 20
154.1490232303
 10
330.3143512889
 20
153.7006702678
 10
328.8811238362
 20
153.2927938265
 10
327.425832357
 20
152.9260554833
 10
325.9508373395
 20
152.6010500893
 10
324.4585312308
 20
152.3183048044
 10
322.9513345571
 20
152.0782782424
 10
321.4316919969
 20
151.8813597273
 10
319.9020684158
 20
151.7278686617
 10
318.3649448691
 20
151.6180540087
 10
316.8228145766
 20
151.552093888
 10
315.2781788793
 20
151.5300952872
 10
313.7335431821
 20
151.552093888
 10
312.1914128896
 20
151.6180540087
 10
310.6542893428
 20
151.7278686617
 10
309.1246657617
 20
151.8813597273
 10
307.6050232015
 20
152.0782782424
 10
306.0978265278
 20
152.3183048044
 10
304.6055204192
 20
152.6010500893
 10
303.1305254016
 20
152.9260554833
 10
301.6752339224
 20
153.2927938265
 10
300.2420064697
 20
153.7006702678
 10
298.8331677436
 20
154.1490232303
 10
297.4510028857
 20
154.6371254838
 10
296.0977537724
 20
155.1641853246
 10
294.7756153789
 20
155.7293478598
 10
293.4867322183
 20
156.3316963936
 10
292.2331948638
 20
156.9702539146
 10
291.0170365577
 20
157.64398468
 10
289.8402299132
 20
158.3517958962
 10
288.7046837149
 20
159.0925394907
 10
287.612239823
 20
159.8650139748
 10
286.5646701854
 20
160.667966392
 10
285.5636739638
 20
161.5000943504
 10
284.6108747779
 20
162.3600481357
 10
283.7078180715
 20
163.2464328995
 10
282.8559686056
 20
164.1578109225
 10
282.0567080835
 20
165.0927039463
 10
281.3113329084
 20
166.0495955709
 10
280.6210520817
 20
167.0269337146
 10
279.9869852414
 20
168.0231331314
 10
279.4101608463
 20
169.0365779822
 10
278.8915145075
 20
170.0656244558
 10
278.4318874715
 20
171.1086034349
 10
278.0320252548
 20
172.1638232039
 10
277.6925764355
 20
173.2295721925
 10
277.4140916008
 20
174.3041217518
 10
277.1970224542
 20
175.3857289586
 10
277.0417210825
 20
176.4726394421
 10
276.9484393853
 20
177.5630902294
 10
276.9173286656
 20
178.6553126054
  0
LWPOLYLINE
  5
2AA
330
1F
100
AcDbEntity
  8
0
  6
Continuous
 62
     7
370
    25
100
AcDbPolyline
 90
       40
 70
   128
 43
0.0
 10
315.2781788793
 20
205.2047282528
 10
316.8228145766
 20
205.1827296519
 10
318.3649448691
 20
205.1167695312
 10
319.9020684158
 20
205.0069548782
 10
321.4316919969
 20
204.8534638126
 10
322.9513345571
 20
204.6565452975
 10
324.4585312308
 20
204.4165187356
 10
325.9508373394
 20
204.1337734506
 10
327.425832357
 20
203.8087680566
 10
328.8811238362
 20
203.4420297134
 10
330.3143512889
 20
203.0341532721
 10
331.723190015
 20
202.5858003096
 10
333.1053548729
 20
202.0976980561
 10
334.4586039862
 20
201.5706382153
 10
335.7807423797
 20
201.0054756801
 10
337.0696255404
 20
200.4031271463
 10
338.3231628948
 20
199.7645696253
 10
339.5393212009
 20
199.0908388599
 10
340.7161278454
 20
198.3830276437
 10
341.8516740437
 20
197.6422840492
 10
342.9441179356
 20
196.8698095651
 10
343.9916875733
 20
196.066857148
 10
344.9926837948
 20
195.2347291895
 10
345.9454829807
 20
194.3747754042
 10
346.8485396872
 20
193.4883906405
 10
347.700389153
 20
192.5770126174
 10
348.4996496752
 20
191.6421195937
 10
349.2450248502
 20
190.6852279691
 10
349.9353056769
 20
189.7078898253
 10
350.5693725172
 20
188.7116904085
 10
351.1461969124
 20
187.6982455577
 10
351.6648432511
 20
186.6691990841
 10
352.1244702872
 20
185.626220105
 10
352.5243325038
 20
184.571000336
 10
352.8637813231
 20
183.5052513475
 10
353.1422661578
 20
182.4307017881
 10
353.3593353044
 20
181.3490945813
 10
353.5146366761
 20
180.2621840979
 10
353.6079183734
 20
179.1717333106
 10
353.6368683165
 20
178.3674117704
  0
LWPOLYLINE
  5
2AB
330
1F
100
AcDbEntity
  8
0
  6
Continuous
 62
     7
370
    25
100
AcDbPolyline
 90
       40
 70
   128
 43
0.0
 10
276.9194894422
 20
178.3674117704
 10
276.9484393853
 20
179.1717333106
 10
277.0417210825
 20
180.2621840979
 10
277.1970224542
 20
181.3490945813
 10
277.4140916009
 20
182.4307017881
 10
277.6925764355
 20
183.5052513475
 10
278.0320252548
 20
184.571000336
 10
278.4318874715
 20
185.626220105
 10
278.8915145075
 20
186.6691990841
 10
279.4101608463
 20
187.6982455577
 10
279.9869852414
 20
188.7116904085
 10
280.6210520817
 20
189.7078898253
 10
281.3113329084
 20
190.6852279691
 10
282.0567080835
 20
191.6421195937
 10
282.8559686056
 20
192.5770126174
 10
283.7078180715
 20
193.4883906405
 10
284.610874778
 20
194.3747754042
 10
285.5636739638
 20
195.2347291895
 10
286.5646701854
 20
196.066857148
 10
287.612239823
 20
196.8698095651
 10
288.7046837149
 20
197.6422840492
 10
289.8402299132
 20
198.3830276437
 10
291.0170365577
 20
199.0908388599
 10
292.2331948638
 20
199.7645696253
 10
293.4867322183
 20
200.4031271463
 10
294.7756153789
 20
201.0054756801
 10
296.0977537725
 20
201.5706382153
 10
297.4510028857
 20
202.0976980561
 10
298.8331677436
 20
202.5858003096
 10
300.2420064697
 20
203.0341532721
 10
301.6752339224
 20
203.4420297134
 10
303.1305254016
 20
203.8087680566
 10
304.6055204192
 20
204.1337734506
 10
306.0978265278
 20
204.4165187356
 10
307.6050232015
 20
204.6565452975
 10
309.1246657617
 20
204.8534638126
 10
310.6542893428
 20
205.0069548782
 10
312.1914128896
 20
205.1167695312
 10
313.7335431821
 20
205.1827296519
 10
315.2781788793
 20
205.2047282528
  0
LINE
  5
2AC
330
1F
100
AcDbEntity
  8
0
  6
Continuous
 62
     7
370
    25
100
AcDbLine
 10
288.3236352598
 20
197.2772163064
 30
0.0
 11
287.4795539459
 21
196.7716387018
 31
0.0
  0
LINE
  5
2AD
330
1F
100
AcDbEntity
  8
0
  6
Continuous
 62
     7
370
    25
100
AcDbLine
 10
343.0768038127
 20
196.7716387018
 30
0.0
 11
342.2327224988
 21
197.2772163064
 31
0.0
  0
LWPOLYLINE
  5
2AE
330
1F
100
AcDbEntity
  8
0
  6
Continuous
 62
     7
370
    25
100
AcDbPolyline
 90
       41
 70
   128
 43
0.0
 10
315.2781788793
 20
205.1097707723
 10
316.8217354395
 20
205.0877875405
 10
318.3627883453
 20
205.0218735018
 10
319.8988380033
 20
204.9121355692
 10
321.4273929353
 20
204.7587517379
 10
322.9459738195
 20
204.5619707971
 10
324.4521175124
 20
204.3221119261
 10
325.9433810433
 20
204.039564177
 10
327.4173455772
 20
203.7147858433
 10
328.8716203383
 20
203.3483037165
 10
330.3038464878
 20
202.940712232
 10
331.7117009493
 20
202.4926725047
 10
333.0929001781
 20
202.0049112567
 10
334.4452038637
 20
201.4782196385
 10
335.7664185647
 20
200.9134519459
 10
337.054401266
 20
200.311524234
 10
338.3070628549
 20
199.6734128319
 10
339.5223715099
 20
199.0001527585
 10
340.6983559957
 20
198.2928360443
 10
341.8331088613
 20
197.5526099594
 10
342.9247895333
 20
196.7806751533
 10
343.9716273018
 20
195.9782837071
 10
344.971924192
 20
195.1467371026
 10
345.9240577187
 20
194.2873841114
 10
346.8264835179
 20
193.4016186073
 10
347.6777378516
 20
192.4908773052
 10
348.4764399822
 20
191.5566374307
 10
349.2212944118
 20
190.6004143244
 10
349.9110929839
 20
189.6237589836
 10
350.5447168427
 20
188.6282555469
 10
351.121138248
 20
187.6155187244
 10
351.6394222421
 20
186.5871911791
 10
352.0987281664
 20
185.5449408619
 10
352.4983110252
 20
184.4904583068
 10
352.8375226936
 20
183.4254538881
 10
353.1158129689
 20
182.351655047
 10
353.3327304634
 20
181.2708034892
 10
353.487923336
 20
180.1846523598
 10
353.5811398634
 20
179.0949634
 10
353.612228848
 20
178.0035040891
 10
353.6066494227
 20
177.5410471699
  0
LWPOLYLINE
  5
2AF
330
1F
100
AcDbEntity
  8
0
  6
Continuous
 62
     7
370
    25
100
AcDbPolyline
 90
       41
 70
   128
 43
0.0
 10
276.9497083359
 20
177.5410471699
 10
276.9441289106
 20
178.0035040891
 10
276.9752178952
 20
179.0949634
 10
277.0684344226
 20
180.1846523598
 10
277.2236272953
 20
181.2708034892
 10
277.4405447897
 20
182.351655047
 10
277.718835065
 20
183.4254538881
 10
278.0580467334
 20
184.4904583068
 10
278.4576295922
 20
185.544940862
 10
278.9169355166
 20
186.5871911791
 10
279.4352195107
 20
187.6155187244
 10
280.0116409159
 20
188.6282555469
 10
280.6452647747
 20
189.6237589836
 10
281.3350633468
 20
190.6004143244
 10
282.0799177765
 20
191.5566374307
 10
282.878619907
 20
192.4908773052
 10
283.7298742407
 20
193.4016186073
 10
284.6323000399
 20
194.2873841114
 10
285.5844335666
 20
195.1467371026
 10
286.5847304568
 20
195.9782837071
 10
287.6315682253
 20
196.7806751533
 10
288.7232488973
 20
197.5526099594
 10
289.8580017629
 20
198.2928360443
 10
291.0339862488
 20
199.0001527585
 10
292.2492949037
 20
199.6734128319
 10
293.5019564927
 20
200.311524234
 10
294.789939194
 20
200.9134519459
 10
296.111153895
 20
201.4782196385
 10
297.4634575806
 20
202.0049112567
 10
298.8446568093
 20
202.4926725047
 10
300.2525112709
 20
202.940712232
 10
301.6847374203
 20
203.3483037165
 10
303.1390121814
 20
203.7147858433
 10
304.6129767154
 20
204.039564177
 10
306.1042402462
 20
204.3221119261
 10
307.6103839391
 20
204.5619707971
 10
309.1289648234
 20
204.7587517379
 10
310.6575197553
 20
204.9121355692
 10
312.1935694133
 20
205.0218735018
 10
313.7346223191
 20
205.0877875405
 10
315.2781788793
 20
205.1097707723
  0
LWPOLYLINE
  5
2B0
330
1F
100
AcDbEntity
  8
0
  6
Continuous
 62
     7
370
    25
100
AcDbPolyline
 90
        3
 70
   128
 43
0.0
 10
333.1445497811
 20
201.9857076764
 10
334.3132350096
 20
201.5946671253
 10
334.9152869332
 20
201.3812149109
  0
ARC
  5
2B1
330
1F
100
AcDbEntity
  8
0
  6
Continuous
 62
     7
370
    25
100
AcDbCircle
 10
335.2942376911
 20
174.272131602
 30
0.0
 40
23.09174175386715
100
AcDbArc
 50
321.8052795844
 51
10.0704424612
  0
ARC
  5
2B2
330
1F
100
AcDbEntity
  8
0
  6
Continuous
 62
     7
370
    25
100
AcDbCircle
 10
295.2175310236
 20
174.2609629265
 30
0.0
 40
23.04980027319449
100
AcDbArc
 50
169.8828420699
 51
218.2414358845
  0
LWPOLYLINE
  5
2B3
330
1F
100
AcDbEntity
  8
0
  6
Continuous
 62
     7
370
    25
100
AcDbPolyline
 90
        3
 70
   128
 43
0.0
 10
295.6410708255
 20
201.3812149109
 10
296.243122749
 20
201.5946671253
 10
297.4118079775
 20
201.9857076764
  0
LINE
  5
2B4
330
1F
100
AcDbEntity
  8
0
  6
Continuous
 62
     7
370
    25
100
AcDbLine
 10
282.5555295178
 20
192.1231288321
 30
0.0
 11
282.1921865659
 21
191.8067091512
 31
0.0
  0
LINE
  5
2B5
330
1F
100
AcDbEntity
  8
0
  6
Continuous
 62
     7
370
    25
100
AcDbLine
 10
348.3641711927
 20
191.8067091512
 30
0.0
 11
348.0008282408
 21
192.1231288321
 31
0.0
  0
LINE
  5
2B6
330
1F
100
AcDbEntity
  8
0
  6
Continuous
 62
     7
370
    25
100
AcDbLine
 10
348.3715269214
 20
191.6843246487
 30
0.0
 11
348.7111128805
 21
191.3797694507
 31
0.0
  0
LINE
  5
2B7
330
1F
100
AcDbEntity
  8
0
  6
Continuous
 62
     7
370
    25
100
AcDbLine
 10
281.8452448781
 20
191.3797694507
 30
0.0
 11
282.1848308372
 21
191.6843246487
 31
0.0
  0
LINE
  5
2B8
330
1F
100
AcDbEntity
  8
0
  6
Continuous
 62
     7
370
    25
100
AcDbLine
 10
280.2635313011
 20
189.036949652
 30
0.0
 11
280.0454318197
 21
188.8081726347
 31
0.0
  0
LINE
  5
2B9
330
1F
100
AcDbEntity
  8
0
  6
Continuous
 62
     7
370
    25
100
AcDbLine
 10
350.5109259389
 20
188.8081726347
 30
0.0
 11
350.2928264575
 21
189.036949652
 31
0.0
  0
LWPOLYLINE
  5
2BA
330
1F
100
AcDbEntity
  8
0
  6
Continuous
 62
     7
370
    25
100
AcDbPolyline
 90
       50
 70
   128
 43
0.0
 10
315.2781788793
 20
201.9345701733
 10
313.7642813535
 20
201.9124417936
 10
312.2529702962
 20
201.8460944608
 10
310.746827757
 20
201.7356415279
 10
309.2484269552
 20
201.5812717021
 10
307.7603278834
 20
201.3832487216
 10
306.285072934
 20
201.1419109053
 10
304.8251825552
 20
200.8576705749
 10
303.3831509452
 20
200.5310133501
 10
301.961441791
 20
200.1624973194
 10
300.5624840587
 20
199.7527520862
 10
299.1886678441
 20
199.3024776933
 10
297.8423402893
 20
198.8124434271
 10
296.5258015722
 20
198.2834865029
 10
295.2413009771
 20
197.7165106346
 10
293.9910330519
 20
197.1124844911
 10
292.7771338582
 20
196.4724400408
 10
291.6016773225
 20
195.797470789
 10
290.4666716925
 20
195.0887299094
 10
289.3740561064
 20
194.3474282737
 10
288.3256972794
 20
193.5748323836
 10
287.3233863152
 20
192.7722622059
 10
286.3688356452
 20
191.9410889185
 10
285.4636761031
 20
191.082732567
 10
284.6094541389
 20
190.1986596387
 10
283.8076291764
 20
189.2903805576
 10
283.0595711202
 20
188.359447103
 10
282.3665580149
 20
187.4074497593
 10
281.7297738618
 20
186.4360149978
 10
281.1503065959
 20
185.4468024987
 10
280.6291462273
 20
184.4415023149
 10
280.1671831498
 20
183.4218319848
 10
279.7652066195
 20
182.3895335982
 10
279.4239034066
 20
181.3463708194
 10
279.1438566219
 20
180.2941258747
 10
278.9255447206
 20
179.2345965068
 10
278.769340685
 20
178.1695929039
 10
278.675511387
 20
177.1009346068
 10
278.6442171324
 20
176.0304474003
 10
278.675511387
 20
174.9599601938
 10
278.769340685
 20
173.8913018967
 10
278.9255447206
 20
172.8262982938
 10
279.1438566219
 20
171.7667689259
 10
279.4239034066
 20
170.7145239812
 10
279.7652066195
 20
169.6713612024
 10
280.1671831498
 20
168.6390628158
 10
280.6291462273
 20
167.6193924857
 10
281.1503065959
 20
166.6140923019
 10
281.7297738618
 20
165.6248798028
 10
282.1260070813
 20
165.0081822441
  0
LWPOLYLINE
  5
2BB
330
1F
100
AcDbEntity
  8
0
  6
Continuous
 62
     7
370
    25
100
AcDbPolyline
 90
       50
 70
   128
 43
0.0
 10
348.4303506773
 20
165.0081822441
 10
348.8265838968
 20
165.6248798028
 10
349.4060511627
 20
166.6140923019
 10
349.9272115313
 20
167.6193924857
 10
350.3891746088
 20
168.6390628158
 10
350.7911511391
 20
169.6713612024
 10
351.1324543521
 20
170.7145239812
 10
351.4125011368
 20
171.7667689259
 10
351.630813038
 20
172.8262982938
 10
351.7870170737
 20
173.8913018967
 10
351.8808463716
 20
174.9599601938
 10
351.9121406262
 20
176.0304474003
 10
351.8808463716
 20
177.1009346068
 10
351.7870170737
 20
178.1695929039
 10
351.630813038
 20
179.2345965068
 10
351.4125011368
 20
180.2941258747
 10
351.1324543521
 20
181.3463708194
 10
350.7911511391
 20
182.3895335982
 10
350.3891746088
 20
183.4218319848
 10
349.9272115313
 20
184.4415023149
 10
349.4060511627
 20
185.4468024987
 10
348.8265838968
 20
186.4360149978
 10
348.1897997437
 20
187.4074497593
 10
347.4967866384
 20
188.359447103
 10
346.7487285822
 20
189.2903805576
 10
345.9469036198
 20
190.1986596387
 10
345.0926816555
 20
191.082732567
 10
344.1875221135
 20
191.9410889185
 10
343.2329714434
 20
192.7722622059
 10
342.2306604792
 20
193.5748323836
 10
341.1823016523
 20
194.3474282737
 10
340.0896860661
 20
195.0887299094
 10
338.9546804361
 20
195.797470789
 10
337.7792239004
 20
196.4724400408
 10
336.5653247067
 20
197.1124844911
 10
335.3150567815
 20
197.7165106346
 10
334.0305561865
 20
198.2834865029
 10
332.7140174694
 20
198.8124434271
 10
331.3676899145
 20
199.3024776933
 10
329.9938736999
 20
199.7527520862
 10
328.5949159676
 20
200.1624973194
 10
327.1732068134
 20
200.5310133501
 10
325.7311752035
 20
200.8576705749
 10
324.2712848246
 20
201.1419109053
 10
322.7960298752
 20
201.3832487216
 10
321.3079308034
 20
201.5812717021
 10
319.8095300016
 20
201.7356415279
 10
318.3033874624
 20
201.8460944608
 10
316.7920764051
 20
201.9124417936
 10
315.2781788793
 20
201.9345701733
  0
LINE
  5
2BC
330
1F
100
AcDbEntity
  8
0
  6
Continuous
 62
     7
370
    25
100
AcDbLine
 10
350.518081026
 20
188.6723532233
 30
0.0
 11
350.7131205544
 21
188.4698847874
 31
0.0
  0
LWPOLYLINE
  5
2BD
330
1F
100
AcDbEntity
  8
0
  6
Continuous
 62
     7
370
    25
100
AcDbPolyline
 90
       81
 70
   128
 43
0.0
 10
357.9622722054
 20
169.7870831478
 10
357.9096220285
 20
169.2363360727
 10
357.752973084
 20
168.0833991604
 10
357.5339865219
 20
166.9355509943
 10
357.252983735
 20
165.7944761999
 10
356.9103771338
 20
164.6618494617
 10
356.5066695406
 20
163.5393330658
 10
356.042453452
 20
162.4285744596
 10
355.5184101692
 20
161.3312038347
 10
354.9353087978
 20
160.2488317337
 10
354.2940051197
 20
159.183046687
 10
353.5954403363
 20
158.1354128811
 10
352.8406396879
 20
157.107467863
 10
352.0307109484
 20
156.1007202839
 10
351.1668428
 20
155.1166476846
 10
350.2503030883
 20
154.1566943274
 10
349.2824369617
 20
153.2222690762
 10
348.2646648973
 20
152.3147433289
 10
347.1984806158
 20
151.4354490047
 10
346.0854488898
 20
150.5856765893
 10
344.9272032468
 20
149.7666732408
 10
343.725443572
 20
148.9796409597
 10
342.4819336134
 20
148.2257348243
 10
341.1984983933
 20
147.5060612958
 10
339.8770215301
 20
146.8216765944
 10
338.519442473
 20
146.1735851491
 10
337.1277536568
 20
145.5627381233
 10
335.7039975765
 20
144.9900320193
 10
334.2502637906
 20
144.4563073623
 10
332.7686858538
 20
143.9623474669
 10
331.2614381862
 20
143.5088772873
 10
329.7307328815
 20
143.0965623535
 10
328.1788164608
 20
142.7260077946
 10
326.6079665754
 20
142.3977574504
 10
325.0204886643
 20
142.1122930737
 10
323.4187125701
 20
141.8700336226
 10
321.8049891201
 20
141.6713346465
 10
320.1816866761
 20
141.5164877634
 10
318.5511876582
 20
141.4057202326
 10
316.9158850486
 20
141.3391946205
 10
315.2781788793
 20
141.3170085628
 10
313.64047271
 20
141.3391946205
 10
312.0051701004
 20
141.4057202326
 10
310.3746710825
 20
141.5164877634
 10
308.7513686385
 20
141.6713346465
 10
307.1376451885
 20
141.8700336226
 10
305.5358690943
 20
142.1122930737
 10
303.9483911832
 20
142.3977574504
 10
302.3775412978
 20
142.7260077946
 10
300.8256248771
 20
143.0965623535
 10
299.2949195724
 20
143.5088772873
 10
297.7876719048
 20
143.9623474669
 10
296.306093968
 20
144.4563073623
 10
294.8523601821
 20
144.9900320193
 10
293.4286041019
 20
145.5627381233
 10
292.0369152856
 20
146.1735851491
 10
290.6793362286
 20
146.8216765944
 10
289.3578593653
 20
147.5060612958
 10
288.0744241452
 20
148.2257348243
 10
286.8309141866
 20
148.9796409597
 10
285.6291545118
 20
149.7666732408
 10
284.4709088688
 20
150.5856765893
 10
283.3578771428
 20
151.4354490047
 10
282.2916928613
 20
152.3147433289
 10
281.2739207969
 20
153.2222690762
 10
280.3060546703
 20
154.1566943274
 10
279.3895149586
 20
155.1166476846
 10
278.5256468102
 20
156.1007202839
 10
277.7157180707
 20
157.107467863
 10
276.9609174223
 20
158.1354128811
 10
276.2623526389
 20
159.183046687
 10
275.6210489608
 20
160.2488317337
 10
275.0379475895
 20
161.3312038347
 10
274.5139043066
 20
162.4285744596
 10
274.049688218
 20
163.5393330658
 10
273.6459806248
 20
164.6618494617
 10
273.3033740236
 20
165.7944761999
 10
273.0223712367
 20
166.9355509943
 10
272.8033846746
 20
168.0833991604
 10
272.6467357302
 20
169.2363360727
 10
272.5940855533
 20
169.7870831478
  0
LINE
  5
2BE
330
1F
100
AcDbEntity
  8
0
  6
Continuous
 62
     7
370
    25
100
AcDbLine
 10
279.8432372043
 20
188.4698847874
 30
0.0
 11
280.0382767326
 21
188.6723532233
 31
0.0
  0
LINE
  5
2BF
330
1F
100
AcDbEntity
  8
0
  6
Continuous
 62
     7
370
    25
100
AcDbLine
 10
278.2081548513
 20
184.9068621693
 30
0.0
 11
278.1031568966
 21
184.7717665223
 31
0.0
  0
LINE
  5
2C0
330
1F
100
AcDbEntity
  8
0
  6
Continuous
 62
     7
370
    25
100
AcDbLine
 10
352.453200862
 20
184.7717665223
 30
0.0
 11
352.3482029073
 21
184.9068621693
 31
0.0
  0
LINE
  5
2C1
330
1F
100
AcDbEntity
  8
0
  6
Continuous
 62
     7
370
    25
100
AcDbLine
 10
352.3870677507
 20
184.801656549
 30
0.0
 11
352.4867875198
 21
184.6777785921
 31
0.0
  0
LWPOLYLINE
  5
2C2
330
1F
100
AcDbEntity
  8
0
  6
Continuous
 62
     7
370
    25
100
AcDbPolyline
 90
       85
 70
   128
 43
0.0
 10
358.0321464582
 20
170.1377290364
 10
358.0350792749
 20
169.7836190911
 10
358.0037034512
 20
168.6255859532
 10
357.9096220284
 20
167.4692523886
 10
357.752973084
 20
166.3163154763
 10
357.5339865218
 20
165.1684673103
 10
357.252983735
 20
164.0273925158
 10
356.9103771337
 20
162.8947657777
 10
356.5066695405
 20
161.7722493817
 10
356.042453452
 20
160.6614907756
 10
355.5184101691
 20
159.5641201507
 10
354.9353087978
 20
158.4817480497
 10
354.2940051197
 20
157.415963003
 10
353.5954403363
 20
156.3683291971
 10
352.8406396879
 20
155.340384179
 10
352.0307109484
 20
154.3336365999
 10
351.1668428
 20
153.3495640006
 10
350.2503030883
 20
152.3896106434
 10
349.2824369617
 20
151.4551853922
 10
348.2646648973
 20
150.5476596449
 10
347.1984806158
 20
149.6683653207
 10
346.0854488898
 20
148.8185929053
 10
344.9272032468
 20
147.9995895568
 10
343.7254435719
 20
147.2125572757
 10
342.4819336133
 20
146.4586511402
 10
341.1984983933
 20
145.7389776118
 10
339.87702153
 20
145.0545929104
 10
338.519442473
 20
144.406501465
 10
337.1277536567
 20
143.7956544392
 10
335.7039975765
 20
143.2229483353
 10
334.2502637906
 20
142.6892236783
 10
332.7686858538
 20
142.1952637829
 10
331.2614381862
 20
141.7417936033
 10
329.7307328815
 20
141.3294786695
 10
328.1788164608
 20
140.9589241106
 10
326.6079665754
 20
140.6306737664
 10
325.0204886643
 20
140.3452093896
 10
323.4187125701
 20
140.1029499386
 10
321.8049891201
 20
139.9042509625
 10
320.1816866761
 20
139.7494040794
 10
318.5511876582
 20
139.6386365486
 10
316.9158850486
 20
139.5721109365
 10
315.2781788793
 20
139.5499248788
 10
313.64047271
 20
139.5721109365
 10
312.0051701004
 20
139.6386365486
 10
310.3746710825
 20
139.7494040794
 10
308.7513686385
 20
139.9042509625
 10
307.1376451885
 20
140.1029499386
 10
305.5358690943
 20
140.3452093896
 10
303.9483911832
 20
140.6306737664
 10
302.3775412979
 20
140.9589241106
 10
300.8256248772
 20
141.3294786695
 10
299.2949195724
 20
141.7417936033
 10
297.7876719048
 20
142.1952637829
 10
296.3060939681
 20
142.6892236783
 10
294.8523601822
 20
143.2229483353
 10
293.4286041019
 20
143.7956544392
 10
292.0369152856
 20
144.406501465
 10
290.6793362286
 20
145.0545929104
 10
289.3578593653
 20
145.7389776118
 10
288.0744241453
 20
146.4586511402
 10
286.8309141867
 20
147.2125572757
 10
285.6291545118
 20
147.9995895568
 10
284.4709088688
 20
148.8185929053
 10
283.3578771428
 20
149.6683653207
 10
282.2916928614
 20
150.5476596449
 10
281.2739207969
 20
151.4551853922
 10
280.3060546703
 20
152.3896106434
 10
279.3895149586
 20
153.3495640006
 10
278.5256468102
 20
154.3336365999
 10
277.7157180708
 20
155.340384179
 10
276.9609174223
 20
156.3683291971
 10
276.262352639
 20
157.415963003
 10
275.6210489608
 20
158.4817480497
 10
275.0379475895
 20
159.5641201507
 10
274.5139043067
 20
160.6614907756
 10
274.0496882181
 20
161.7722493817
 10
273.6459806249
 20
162.8947657777
 10
273.3033740236
 20
164.0273925158
 10
273.0223712368
 20
165.1684673103
 10
272.8033846746
 20
166.3163154763
 10
272.6467357302
 20
167.4692523886
 10
272.5526543074
 20
168.6255859532
 10
272.5212784837
 20
169.7836190911
 10
272.5242113004
 20
170.1377290364
  0
LINE
  5
2C3
330
1F
100
AcDbEntity
  8
0
  6
Continuous
 62
     7
370
    25
100
AcDbLine
 10
278.0695702389
 20
184.6777785921
 30
0.0
 11
278.1692900079
 21
184.801656549
 31
0.0
  0
LINE
  5
2C4
330
1F
100
AcDbEntity
  8
0
  6
Continuous
 62
     7
370
    25
100
AcDbLine
 10
349.520845933
 20
184.2253263569
 30
0.0
 11
349.7459946497
 21
183.9364051343
 31
0.0
  0
LINE
  5
2C5
330
1F
100
AcDbEntity
  8
0
  6
Continuous
 62
     7
370
    25
100
AcDbLine
 10
280.8103631089
 20
183.9364051343
 30
0.0
 11
281.0355118256
 21
184.2253263569
 31
0.0
  0
LWPOLYLINE
  5
2C6
330
1F
100
AcDbEntity
  8
0
  6
Continuous
 62
     7
370
    25
100
AcDbPolyline
 90
       32
 70
   128
 43
0.0
 10
315.2781788793
 20
199.7646512528
 10
316.8170968541
 20
199.7424493663
 10
318.3534534518
 20
199.6758806598
 10
319.8846915585
 20
199.5650559303
 10
321.4082625794
 20
199.4101596345
 10
322.921630681
 20
199.2114495822
 10
324.4222770114
 20
198.9692565066
 10
325.9077038928
 20
198.6839835141
 10
327.3754389789
 20
198.3561054135
 10
328.8230393694
 20
197.9861679256
 10
330.2480956764
 20
197.5747867747
 10
331.6482360343
 20
197.1226466642
 10
333.0211300475
 20
196.6305001367
 10
334.3644926696
 20
196.0991663215
 10
335.676088006
 20
195.5295295714
 10
336.9537330356
 20
194.9225379904
 10
338.1953012446
 20
194.2792018561
 10
339.398726165
 20
193.6005919382
 10
340.5620048149
 20
192.8878377157
 10
341.6832010318
 20
192.1421254978
 10
342.7604486952
 20
191.3646964488
 10
343.7919548327
 20
190.5568445227
 10
344.7760026041
 20
189.7199143093
 10
345.710954159
 20
188.8552987963
 10
346.5952533629
 20
187.964437051
 10
347.427428387
 20
187.0488118247
 10
348.206094158
 20
186.1099470853
 10
348.9299546637
 20
185.1494054805
 10
349.5978051096
 20
184.1687857371
 10
350.2085339247
 20
183.1697199997
 10
350.761124611
 20
182.1538711148
 10
351.0943413137
 20
181.4733171279
  0
LWPOLYLINE
  5
2C7
330
1F
100
AcDbEntity
  8
0
  6
Continuous
 62
     7
370
    25
100
AcDbPolyline
 90
       32
 70
   128
 43
0.0
 10
279.4620164449
 20
181.4733171279
 10
279.7952331476
 20
182.1538711148
 10
280.3478238339
 20
183.1697199997
 10
280.958552649
 20
184.1687857371
 10
281.6264030949
 20
185.1494054805
 10
282.3502636006
 20
186.1099470853
 10
283.1289293717
 20
187.0488118247
 10
283.9611043957
 20
187.964437051
 10
284.8454035996
 20
188.8552987963
 10
285.7803551545
 20
189.7199143093
 10
286.7644029259
 20
190.5568445227
 10
287.7959090634
 20
191.3646964488
 10
288.8731567268
 20
192.1421254978
 10
289.9943529437
 20
192.8878377157
 10
291.1576315936
 20
193.6005919382
 10
292.361056514
 20
194.2792018561
 10
293.602624723
 20
194.9225379904
 10
294.8802697527
 20
195.5295295714
 10
296.191865089
 20
196.0991663215
 10
297.5352277111
 20
196.6305001367
 10
298.9081217244
 20
197.1226466642
 10
300.3082620822
 20
197.5747867747
 10
301.7333183892
 20
197.9861679256
 10
303.1809187797
 20
198.3561054135
 10
304.6486538658
 20
198.6839835141
 10
306.1340807473
 20
198.9692565066
 10
307.6347270776
 20
199.2114495822
 10
309.1480951792
 20
199.4101596345
 10
310.6716662002
 20
199.5650559303
 10
312.2029043068
 20
199.6758806598
 10
313.7392609045
 20
199.7424493663
 10
315.2781788793
 20
199.7646512528
  0
LWPOLYLINE
  5
2C8
330
1F
100
AcDbEntity
  8
0
  6
Continuous
 62
     7
370
    25
100
AcDbPolyline
 90
       32
 70
   128
 43
0.0
 10
315.2781788793
 20
199.7025735596
 10
316.8171062356
 20
199.6803715378
 10
318.3534721993
 20
199.6138024255
 10
319.8847196407
 20
199.5029770203
 10
321.4082999496
 20
199.3480797803
 10
322.9216772769
 20
199.1493685167
 10
324.4223327555
 20
198.9071739646
 10
325.9077686924
 20
198.621899233
 10
327.3755127261
 20
198.2940191336
 10
328.8231219415
 20
197.9240793904
 10
330.2481869359
 20
197.5126957317
 10
331.6483358293
 20
197.0605528649
 10
333.021238212
 20
196.5684033372
 10
334.3646090234
 20
196.0370662829
 10
335.6762123555
 20
195.4674260601
 10
336.953865174
 20
194.8604307788
 10
338.1954409518
 20
194.2170907226
 10
339.3988732085
 20
193.5384766677
 10
340.56215895
 20
192.8257181002
 10
341.6833620019
 20
192.0800013362
 10
342.7606162324
 20
191.3025675479
 10
343.7921286581
 20
190.494710697
 10
344.7761824285
 20
189.6577753815
 10
345.7111396831
 20
188.7931545977
 10
346.5954442778
 20
187.9022874214
 10
347.427624375
 20
186.9866566133
 10
348.2062948929
 20
186.0477861504
 10
348.9301598114
 20
185.08723869
 10
349.5980143287
 20
184.1066129685
 10
350.2087468669
 20
183.1075411407
 10
350.7613409219
 20
182.0916860629
 10
351.145998493
 20
181.3004886445
  0
LWPOLYLINE
  5
2C9
330
1F
100
AcDbEntity
  8
0
  6
Continuous
 62
     7
370
    25
100
AcDbPolyline
 90
       32
 70
   128
 43
0.0
 10
279.4103592656
 20
181.3004886445
 10
279.7950168367
 20
182.0916860629
 10
280.3476108918
 20
183.1075411407
 10
280.9583434299
 20
184.1066129685
 10
281.6261979472
 20
185.08723869
 10
282.3500628657
 20
186.0477861504
 10
283.1287333836
 20
186.9866566133
 10
283.9609134808
 20
187.9022874214
 10
284.8452180755
 20
188.7931545977
 10
285.7801753301
 20
189.6577753815
 10
286.7642291005
 20
190.494710697
 10
287.7957415262
 20
191.3025675479
 10
288.8729957567
 20
192.0800013362
 10
289.9941988086
 20
192.8257181002
 10
291.1574845501
 20
193.5384766677
 10
292.3609168069
 20
194.2170907226
 10
293.6024925846
 20
194.8604307788
 10
294.8801454031
 20
195.4674260601
 10
296.1917487352
 20
196.0370662829
 10
297.5351195467
 20
196.5684033372
 10
298.9080219293
 20
197.0605528649
 10
300.3081708227
 20
197.5126957317
 10
301.7332358171
 20
197.9240793904
 10
303.1808450325
 20
198.2940191336
 10
304.6485890662
 20
198.621899233
 10
306.1340250031
 20
198.9071739646
 10
307.6346804817
 20
199.1493685167
 10
309.1480578091
 20
199.3480797803
 10
310.671638118
 20
199.5029770203
 10
312.2028855594
 20
199.6138024255
 10
313.739251523
 20
199.6803715378
 10
315.2781788793
 20
199.7025735596
  0
LINE
  5
2CA
330
1F
100
AcDbEntity
  8
0
  6
Continuous
 62
     7
370
    25
100
AcDbLine
 10
277.3556866112
 20
181.9648149316
 30
0.0
 11
277.2954923379
 21
181.8788761587
 31
0.0
  0
LINE
  5
2CB
330
1F
100
AcDbEntity
  8
0
  6
Continuous
 62
     7
370
    25
100
AcDbLine
 10
353.2608654208
 20
181.8788761587
 30
0.0
 11
353.2006711474
 21
181.9648149316
 31
0.0
  0
LINE
  5
2CC
330
1F
100
AcDbEntity
  8
0
  6
Continuous
 62
     7
370
    25
100
AcDbLine
 10
282.2305438689
 20
185.8955330404
 30
0.0
 11
282.0039798357
 21
185.6621968187
 31
0.0
  0
LWPOLYLINE
  5
2CD
330
1F
100
AcDbEntity
  8
0
  6
Continuous
 62
     7
370
    25
100
AcDbPolyline
 90
        3
 70
   128
 43
0.0
 10
276.9464746611
 20
178.3033696684
 10
276.9248047736
 20
178.2550604692
 10
276.917998645
 20
178.239825482
  0
LWPOLYLINE
  5
2CE
330
1F
100
AcDbEntity
  8
0
  6
Continuous
 62
     7
370
    25
100
AcDbPolyline
 90
        3
 70
   128
 43
0.0
 10
353.6347042536
 20
178.2480103042
 10
353.631552985
 20
178.2550604692
 10
353.6098830975
 20
178.3033696684
  0
LINE
  5
2CF
330
1F
100
AcDbEntity
  8
0
  6
Continuous
 62
     7
370
    25
100
AcDbLine
 10
348.552377923
 20
185.6621968187
 30
0.0
 11
348.3258138898
 21
185.8955330404
 31
0.0
  0
LINE
  5
2D0
330
1F
100
AcDbEntity
  8
0
  6
Continuous
 62
     7
370
    25
100
AcDbLine
 10
353.2038394458
 20
181.9496197486
 30
0.0
 11
353.2628040223
 21
181.8691733117
 31
0.0
  0
LWPOLYLINE
  5
2D1
330
1F
100
AcDbEntity
  8
0
  6
Continuous
 62
     7
370
    25
100
AcDbPolyline
 90
       85
 70
   128
 43
0.0
 10
358.0128954687
 20
168.8098302358
 10
358.0282594279
 20
167.9994645971
 10
357.9968886087
 20
166.8416161688
 10
357.9028221921
 20
165.6854670427
 10
357.7461982337
 20
164.5327140271
 10
357.5272466005
 20
163.3850489461
 10
357.2462886344
 20
162.2441561563
 10
356.9037366799
 20
161.1117100754
 10
356.5000934792
 20
159.989372724
 10
356.0359514344
 20
158.878791287
 10
355.5119917379
 20
157.7815956958
 10
354.9289833729
 20
156.6993962363
 10
354.2877819846
 20
155.6337811853
 10
353.5893286243
 20
154.5863144799
 10
352.8346483687
 20
153.558533422
 10
352.0248488151
 20
152.551946422
 10
351.1611184561
 20
151.5680307851
 10
350.2447249351
 20
150.6082305432
 10
349.277013186
 20
149.6739543354
 10
348.2594034591
 20
148.7665733411
 10
347.193389237
 20
147.8874192668
 10
346.0805350427
 20
147.0377823925
 10
344.9224741432
 20
146.2189096774
 10
343.7209061524
 20
145.4320029301
 10
342.4775945372
 20
144.6782170449
 10
341.1943640287
 20
143.9586583064
 10
339.8730979448
 20
143.2743827663
 10
338.5157354255
 20
142.6263946934
 10
337.1242685875
 20
142.0156450994
 10
335.7007396004
 20
141.4430303437
 10
334.2472376891
 20
140.9093908174
 10
332.7658960683
 20
140.41550971
 10
331.2588888109
 20
139.9621118601
 10
329.7284276581
 20
139.5498626918
 10
328.1767587724
 20
139.1793672373
 10
326.6061594421
 20
138.85116925
 10
325.0189347382
 20
138.5657504056
 10
323.4174141318
 20
138.3235295957
 10
321.8039480753
 20
138.1248623126
 10
320.1809045527
 20
137.9700401281
 10
318.550665604
 20
137.8592902649
 10
316.9156238298
 20
137.7927752639
 10
315.2781788793
 20
137.7705927449
 10
313.6407339288
 20
137.7927752639
 10
312.0056921546
 20
137.8592902649
 10
310.3754532059
 20
137.9700401281
 10
308.7524096833
 20
138.1248623126
 10
307.1389436268
 20
138.3235295957
 10
305.5374230204
 20
138.5657504056
 10
303.9501983165
 20
138.85116925
 10
302.3795989862
 20
139.1793672373
 10
300.8279301006
 20
139.5498626918
 10
299.2974689477
 20
139.9621118601
 10
297.7904616903
 20
140.41550971
 10
296.3091200695
 20
140.9093908174
 10
294.8556181583
 20
141.4430303437
 10
293.4320891711
 20
142.0156450994
 10
292.0406223332
 20
142.6263946934
 10
290.6832598139
 20
143.2743827663
 10
289.3619937299
 20
143.9586583064
 10
288.0787632214
 20
144.6782170449
 10
286.8354516062
 20
145.4320029301
 10
285.6338836154
 20
146.2189096774
 10
284.4758227159
 20
147.0377823925
 10
283.3629685216
 20
147.8874192668
 10
282.2969542996
 20
148.7665733411
 10
281.2793445727
 20
149.6739543354
 10
280.3116328235
 20
150.6082305432
 10
279.3952393025
 20
151.5680307851
 10
278.5315089435
 20
152.551946422
 10
277.72170939
 20
153.558533422
 10
276.9670291344
 20
154.5863144799
 10
276.2685757741
 20
155.6337811853
 10
275.6273743857
 20
156.6993962363
 10
275.0443660207
 20
157.7815956958
 10
274.5204063242
 20
158.878791287
 10
274.0562642794
 20
159.989372724
 10
273.6526210788
 20
161.1117100754
 10
273.3100691242
 20
162.2441561563
 10
273.0291111581
 20
163.3850489461
 10
272.810159525
 20
164.5327140271
 10
272.6535355665
 20
165.6854670427
 10
272.5594691499
 20
166.8416161688
 10
272.5280983307
 20
167.9994645971
 10
272.5434622899
 20
168.8098302358
  0
LINE
  5
2D2
330
1F
100
AcDbEntity
  8
0
  6
Continuous
 62
     7
370
    25
100
AcDbLine
 10
277.2935537363
 20
181.8691733117
 30
0.0
 11
277.3525183128
 21
181.9496197486
 31
0.0
  0
ARC
  5
2D3
330
1F
100
AcDbEntity
  8
0
  6
Continuous
 62
     7
370
    25
100
AcDbCircle
 10
332.731476431
 20
172.1996251873
 30
0.0
 40
19.19800767349066
100
AcDbArc
 50
7.513594385
 51
20.2322836233
  0
ARC
  5
2D4
330
1F
100
AcDbEntity
  8
0
  6
Continuous
 62
     7
370
    25
100
AcDbCircle
 10
297.7417912653
 20
172.223070233
 30
0.0
 40
19.11193750178303
100
AcDbArc
 50
159.7477982897
 51
174.0122931736
  0
LWPOLYLINE
  5
2D5
330
1F
100
AcDbEntity
  8
0
  6
Continuous
 62
     7
370
    25
100
AcDbPolyline
 90
       33
 70
   128
 43
0.0
 10
315.2781788793
 20
197.7898733365
 10
316.8012148816
 20
197.7676113813
 10
318.3216488025
 20
197.70086355
 10
319.8368830061
 20
197.5897438802
 10
321.3443287401
 20
197.4344422178
 10
322.8414105589
 20
197.2352238933
 10
324.3255707232
 20
196.9924292677
 10
325.7942735703
 20
196.7064731517
 10
327.245009846
 20
196.3778440963
 10
328.6753009918
 20
196.007103559
 10
330.0827033791
 20
195.5948849436
 10
331.4648124847
 20
195.1418925187
 10
332.8192669983
 20
194.6489002144
 10
334.1437528571
 20
194.1167502996
 10
335.4360071993
 20
193.5463519437
 10
336.6938222298
 20
192.9386796625
 10
337.915048993
 20
192.294771654
 10
339.0976010433
 20
191.6157280243
 10
340.2394580103
 20
190.902708908
 10
341.3386690507
 20
190.1569324863
 10
342.3933561808
 20
189.3796729057
 10
343.4017174853
 20
188.5722581011
 10
344.3620301959
 20
187.7360675273
 10
345.2726536344
 20
186.8725298017
 10
346.1320320159
 20
185.9831202641
 10
346.9386971069
 20
185.0693584557
 10
347.6912707335
 20
184.1328055234
 10
348.3884671365
 20
183.175061552
 10
349.0290951674
 20
182.1977628311
 10
349.6120603239
 20
181.2025790592
 10
350.13636662
 20
180.1912104909
 10
350.601118287
 20
179.1653850326
 10
350.8461687189
 20
178.5564028194
  0
LWPOLYLINE
  5
2D6
330
1F
100
AcDbEntity
  8
0
  6
Continuous
 62
     7
370
    25
100
AcDbPolyline
 90
       33
 70
   128
 43
0.0
 10
279.7101890398
 20
178.5564028194
 10
279.9552394716
 20
179.1653850326
 10
280.4199911386
 20
180.1912104909
 10
280.9442974347
 20
181.2025790592
 10
281.5272625913
 20
182.1977628311
 10
282.1678906221
 20
183.175061552
 10
282.8650870251
 20
184.1328055234
 10
283.6176606518
 20
185.0693584557
 10
284.4243257427
 20
185.9831202641
 10
285.2837041242
 20
186.8725298017
 10
286.1943275627
 20
187.7360675273
 10
287.1546402733
 20
188.5722581011
 10
288.1630015778
 20
189.3796729057
 10
289.2176887079
 20
190.1569324863
 10
290.3168997483
 20
190.902708908
 10
291.4587567154
 20
191.6157280243
 10
292.6413087656
 20
192.294771654
 10
293.8625355288
 20
192.9386796625
 10
295.1203505594
 20
193.5463519437
 10
296.4126049015
 20
194.1167502996
 10
297.7370907603
 20
194.6489002144
 10
299.0915452739
 20
195.1418925187
 10
300.4736543795
 20
195.5948849436
 10
301.8810567668
 20
196.007103559
 10
303.3113479126
 20
196.3778440963
 10
304.7620841883
 20
196.7064731517
 10
306.2307870354
 20
196.9924292677
 10
307.7149471997
 20
197.2352238933
 10
309.2120290185
 20
197.4344422178
 10
310.7194747525
 20
197.5897438802
 10
312.2347089561
 20
197.70086355
 10
313.755142877
 20
197.7676113813
 10
315.2781788793
 20
197.7898733365
  0
LWPOLYLINE
  5
2D7
330
1F
100
AcDbEntity
  8
0
  6
Continuous
 62
     7
370
    25
100
AcDbPolyline
 90
        3
 70
   128
 43
0.0
 10
281.7542895345
 20
185.2642622125
 10
281.6954378687
 20
185.2021579549
 10
281.5646102875
 20
185.0628269231
  0
LWPOLYLINE
  5
2D8
330
1F
100
AcDbEntity
  8
0
  6
Continuous
 62
     7
370
    25
100
AcDbPolyline
 90
        3
 70
   128
 43
0.0
 10
348.9917474711
 20
185.0628269231
 10
348.8609198899
 20
185.2021579549
 10
348.8020682242
 20
185.2642622125
  0
LWPOLYLINE
  5
2D9
330
1F
100
AcDbEntity
  8
0
  6
Continuous
 62
     7
370
    25
100
AcDbPolyline
 90
       37
 70
   128
 43
0.0
 10
315.2781788793
 20
197.4428646539
 10
316.7945999806
 20
197.4206993877
 10
318.3084303019
 20
197.3542414578
 10
319.8170834895
 20
197.2436044066
 10
321.3179820347
 20
197.0889772557
 10
322.8085616775
 20
196.8906241828
 10
324.2862757876
 20
196.648884071
 10
325.7485997153
 20
196.3641699291
 10
327.1930351045
 20
196.0369681866
 10
328.6171141618
 20
195.6678378619
 10
330.018403872
 20
195.2574096082
 10
331.394510155
 20
194.8063846353
 10
332.7430819563
 20
194.3155335116
 10
334.0618152637
 20
193.7856948482
 10
335.3484570435
 20
193.2177738655
 10
336.6008090896
 20
192.612740847
 10
337.8167317797
 20
191.9716294814
 10
338.9941477303
 20
191.2955350967
 10
340.1310453459
 20
190.5856127889
 10
341.2254822561
 20
189.8430754484
 10
342.2755886337
 20
189.0691916876
 10
343.2795703896
 20
188.2652836741
 10
344.2357122378
 20
187.4327248712
 10
345.142380626
 20
186.5729376916
 10
345.9980265265
 20
185.6873910673
 10
346.8011880826
 20
184.7775979399
 10
347.5504931063
 20
183.8451126757
 10
348.2446614224
 20
182.89152841
 10
348.8825070562
 20
181.9184743257
 10
349.4629402589
 20
180.9276128693
 10
349.9849693703
 20
179.9206369109
 10
350.4477025123
 20
178.8992668521
 10
350.8503491131
 20
177.8652476866
 10
351.1922212578
 20
176.8203460187
 10
351.4727348635
 20
175.7663470454
 10
351.6914106775
 20
174.7050515062
 10
351.8005234381
 20
174.0098656522
  0
LWPOLYLINE
  5
2DA
330
1F
100
AcDbEntity
  8
0
  6
Continuous
 62
     7
370
    25
100
AcDbPolyline
 90
       37
 70
   128
 43
0.0
 10
278.7558343205
 20
174.0098656522
 10
278.8649470811
 20
174.7050515062
 10
279.0836228951
 20
175.7663470454
 10
279.3641365008
 20
176.8203460187
 10
279.7060086455
 20
177.8652476866
 10
280.1086552463
 20
178.8992668521
 10
280.5713883883
 20
179.9206369109
 10
281.0934174997
 20
180.9276128693
 10
281.6738507025
 20
181.9184743257
 10
282.3116963362
 20
182.89152841
 10
283.0058646524
 20
183.8451126757
 10
283.755169676
 20
184.7775979399
 10
284.5583312321
 20
185.6873910673
 10
285.4139771326
 20
186.5729376916
 10
286.3206455209
 20
187.4327248712
 10
287.2767873691
 20
188.2652836741
 10
288.280769125
 20
189.0691916876
 10
289.3308755025
 20
189.8430754484
 10
290.4253124127
 20
190.5856127889
 10
291.5622100283
 20
191.2955350967
 10
292.7396259789
 20
191.9716294814
 10
293.955548669
 20
192.612740847
 10
295.2079007152
 20
193.2177738655
 10
296.4945424949
 20
193.7856948482
 10
297.8132758023
 20
194.3155335116
 10
299.1618476037
 20
194.8063846353
 10
300.5379538866
 20
195.2574096082
 10
301.9392435968
 20
195.6678378619
 10
303.3633226541
 20
196.0369681866
 10
304.8077580434
 20
196.3641699291
 10
306.270081971
 20
196.648884071
 10
307.7477960811
 20
196.8906241828
 10
309.2383757239
 20
197.0889772557
 10
310.7392742691
 20
197.2436044066
 10
312.2479274567
 20
197.3542414578
 10
313.761757778
 20
197.4206993877
 10
315.2781788793
 20
197.4428646539
  0
LWPOLYLINE
  5
2DB
330
1F
100
AcDbEntity
  8
0
  6
Continuous
 62
     7
370
    25
100
AcDbPolyline
 90
       41
 70
   128
 43
0.0
 10
315.2781788793
 20
195.5906052659
 10
316.7627612547
 20
195.5684683421
 10
318.2447040969
 20
195.5020969294
 10
319.7213725655
 20
195.3916090337
 10
321.1901411978
 20
195.2372010986
 10
322.6483985769
 20
195.0391476555
 10
324.0935519743
 20
194.7978008364
 10
325.5230319601
 20
194.5135897472
 10
326.9342969709
 20
194.1870197046
 10
328.3248378292
 20
193.8186713384
 10
329.6921822039
 20
193.4091995585
 10
331.0338990068
 20
192.9593323907
 10
332.3476027142
 20
192.4698696826
 10
333.630957609
 20
191.9416816809
 10
334.8816819329
 20
191.3757074846
 10
336.0975519438
 20
190.7729533751
 10
337.2764058692
 20
190.1344910274
 10
338.4161477497
 20
189.4614556041
 10
339.514751166
 20
188.7550437377
 10
340.5702628412
 20
188.0165114027
 10
341.5808061141
 20
187.2471716826
 10
342.5445842757
 20
186.4483924354
 10
343.4598837634
 20
185.6215938614
 10
344.3250772084
 20
184.7682459783
 10
345.1386263281
 20
183.8898660076
 10
345.8990846619
 20
182.9880156766
 10
346.6051001428
 20
182.0642984426
 10
347.2554175008
 20
181.1203566408
 10
347.8488804955
 20
180.1578685655
 10
348.3844339713
 20
179.1785454853
 10
348.8611257337
 20
178.184128601
 10
349.2781082422
 20
177.1763859493
 10
349.634640117
 20
176.1571092601
 10
349.9300874575
 20
175.12811077
 10
350.1639249691
 20
174.0912200008
 10
350.3357368972
 20
173.0482805065
 10
350.4452177666
 20
172.0011465954
 10
350.4921729241
 20
170.9516800334
 10
350.4765188853
 20
169.9017467338
 10
350.3982834825
 20
168.8532134396
 10
350.3689105408
 20
168.5911025121
  0
LWPOLYLINE
  5
2DC
330
1F
100
AcDbEntity
  8
0
  6
Continuous
 62
     7
370
    25
100
AcDbPolyline
 90
       41
 70
   128
 43
0.0
 10
280.1874472178
 20
168.5911025121
 10
280.1580742761
 20
168.8532134396
 10
280.0798388733
 20
169.9017467338
 10
280.0641848345
 20
170.9516800334
 10
280.111139992
 20
172.0011465954
 10
280.2206208614
 20
173.0482805065
 10
280.3924327895
 20
174.0912200008
 10
280.6262703011
 20
175.12811077
 10
280.9217176416
 20
176.1571092601
 10
281.2782495164
 20
177.1763859493
 10
281.6952320249
 20
178.184128601
 10
282.1719237873
 20
179.1785454853
 10
282.7074772631
 20
180.1578685655
 10
283.3009402578
 20
181.1203566408
 10
283.9512576159
 20
182.0642984426
 10
284.6572730967
 20
182.9880156766
 10
285.4177314305
 20
183.8898660076
 10
286.2312805502
 20
184.7682459783
 10
287.0964739952
 20
185.6215938614
 10
288.011773483
 20
186.4483924354
 10
288.9755516445
 20
187.2471716826
 10
289.9860949174
 20
188.0165114027
 10
291.0416065926
 20
188.7550437377
 10
292.1402100089
 20
189.4614556041
 10
293.2799518894
 20
190.1344910274
 10
294.4588058148
 20
190.7729533751
 10
295.6746758257
 20
191.3757074846
 10
296.9254001496
 20
191.9416816809
 10
298.2087550444
 20
192.4698696826
 10
299.5224587518
 20
192.9593323907
 10
300.8641755547
 20
193.4091995585
 10
302.2315199294
 20
193.8186713384
 10
303.6220607877
 20
194.1870197046
 10
305.0333257985
 20
194.5135897472
 10
306.4628057843
 20
194.7978008364
 10
307.9079591817
 20
195.0391476555
 10
309.3662165608
 20
195.2372010986
 10
310.8349851931
 20
195.3916090337
 10
312.3116536617
 20
195.5020969294
 10
313.7935965039
 20
195.5684683421
 10
315.2781788793
 20
195.5906052659
  0
LWPOLYLINE
  5
2DD
330
1F
100
AcDbEntity
  8
0
  6
Continuous
 62
     8
370
    18
100
AcDbPolyline
 90
      162
 70
   128
 43
0.0
 10
315.2781788793
 20
207.9730310036
 10
313.6706990356
 20
207.950848546
 10
312.0656671185
 20
207.8843349534
 10
310.465527327
 20
207.7735915152
 10
308.8727164099
 20
207.6187868751
 10
307.2896599555
 20
207.4201567753
 10
305.7187686977
 20
207.1780036965
 10
304.1624348449
 20
206.892696398
 10
302.6230284366
 20
206.5646693557
 10
301.102893735
 20
206.1944221006
 10
299.6043456544
 20
205.7825184584
 10
298.1296662364
 20
205.3295856903
 10
296.6811011744
 20
204.8363135381
 10
295.2608563942
 20
204.3034531741
 10
293.8710946943
 20
203.7318160566
 10
292.5139324525
 20
203.1222726947
 10
291.1914364029
 20
202.4757513223
 10
289.9056204891
 20
201.793236485
 10
288.6584427964
 20
201.0757675401
 10
287.4518025708
 20
200.3244370746
 10
286.2875373263
 20
199.5403892408
 10
285.1674200469
 20
198.7248180143
 10
284.0931564863
 20
197.8789653755
 10
283.0663825709
 20
197.0041194183
 10
282.0886619078
 20
196.101612389
 10
281.1614834045
 20
195.1728186569
 10
280.2862590007
 20
194.2191526216
 10
279.464321519
 20
193.2420665591
 10
278.6969226345
 20
192.2430484104
 10
277.9852309691
 20
191.2236195153
 10
277.3303303118
 20
190.1853322959
 10
276.7332179684
 20
189.1297678924
 10
276.1948032424
 20
188.0585337551
 10
275.7159060507
 20
186.9732611971
 10
275.2972556746
 20
185.8756029093
 10
274.9394896496
 20
184.7672304443
 10
274.6431527945
 20
183.6498316706
 10
274.4086963812
 20
182.5251082021
 10
274.2364774483
 20
181.3947728072
 10
274.1267582568
 20
180.2605468002
 10
274.079705891
 20
179.1241574203
 10
274.0953920037
 20
177.987335201
 10
274.1737927077
 20
176.851811335
 10
274.3147886117
 20
175.7193150379
 10
274.518165002
 20
174.5915709147
 10
274.7836121701
 20
173.4702963338
 10
275.1107258836
 20
172.3571988113
 10
275.4990080023
 20
171.2539734111
 10
275.9478672367
 20
170.1623001637
 10
276.4566200481
 20
169.0838415071
 10
277.02449169
 20
168.0202397562
 10
277.6506173874
 20
166.9731146009
 10
278.3340436543
 20
165.9440606401
 10
279.0737297452
 20
164.9346449532
 10
279.8685492401
 20
163.9464047138
 10
280.71729176
 20
162.9808448489
 10
281.6186648102
 20
162.0394357468
 10
282.5712957482
 20
161.1236110182
 10
283.5737338741
 20
160.2347653132
 10
284.62445264
 20
159.3742521972
 10
285.7218519747
 20
158.5433820897
 10
286.8642607198
 20
157.7434202688
 10
288.0499391755
 20
156.9755849444
 10
289.2770817488
 20
156.2410454031
 10
290.5438197042
 20
155.5409202274
 10
291.8482240086
 20
154.8762755925
 10
293.1883082695
 20
154.2481236425
 10
294.5620317595
 20
153.6574209493
 10
295.9673025245
 20
153.1050670555
 10
297.4019805688
 20
152.5919031051
 10
298.8638811144
 20
152.1187105621
 10
300.350777928
 20
151.6862100207
 10
301.8604067109
 20
151.2950601079
 10
303.3904685476
 20
150.9458564805
 10
304.9386334062
 20
150.6391309179
 10
306.502543687
 20
150.3753505128
 10
308.0798178127
 20
150.154916959
 10
309.6680538549
 20
149.9781659405
 10
311.2648331921
 20
149.84536662
 10
312.8677241928
 20
149.7567212289
 10
314.4742859183
 20
149.7123647596
 10
316.0820718403
 20
149.7123647596
 10
317.6886335659
 20
149.7567212289
 10
319.2915245665
 20
149.84536662
 10
320.8883039038
 20
149.9781659405
 10
322.476539946
 20
150.154916959
 10
324.0538140716
 20
150.3753505128
 10
325.6177243525
 20
150.6391309179
 10
327.1658892111
 20
150.9458564805
 10
328.6959510477
 20
151.2950601079
 10
330.2055798306
 20
151.6862100207
 10
331.6924766442
 20
152.1187105621
 10
333.1543771898
 20
152.5919031051
 10
334.5890552341
 20
153.1050670555
 10
335.9943259991
 20
153.6574209493
 10
337.3680494892
 20
154.2481236425
 10
338.7081337501
 20
154.8762755925
 10
340.0125380545
 20
155.5409202274
 10
341.2792760098
 20
156.2410454031
 10
342.5064185832
 20
156.9755849444
 10
343.6920970388
 20
157.7434202688
 10
344.8345057839
 20
158.5433820897
 10
345.9319051186
 20
159.3742521972
 10
346.9826238845
 20
160.2347653132
 10
347.9850620104
 20
161.1236110182
 10
348.9376929484
 20
162.0394357468
 10
349.8390659986
 20
162.9808448489
 10
350.6878085186
 20
163.9464047138
 10
351.4826280135
 20
164.9346449532
 10
352.2223141043
 20
165.9440606401
 10
352.9057403712
 20
166.9731146009
 10
353.5318660686
 20
168.0202397562
 10
354.0997377105
 20
169.0838415071
 10
354.6084905219
 20
170.1623001637
 10
355.0573497563
 20
171.2539734111
 10
355.445631875
 20
172.3571988113
 10
355.7727455886
 20
173.4702963338
 10
356.0381927566
 20
174.5915709147
 10
356.241569147
 20
175.7193150379
 10
356.3825650509
 20
176.851811335
 10
356.4609657549
 20
177.987335201
 10
356.4766518677
 20
179.1241574203
 10
356.4295995018
 20
180.2605468002
 10
356.3198803103
 20
181.3947728072
 10
356.1476613774
 20
182.5251082021
 10
355.9132049642
 20
183.6498316706
 10
355.616868109
 20
184.7672304443
 10
355.259102084
 20
185.8756029093
 10
354.840451708
 20
186.9732611971
 10
354.3615545162
 20
188.0585337551
 10
353.8231397902
 20
189.1297678924
 10
353.2260274468
 20
190.1853322959
 10
352.5711267895
 20
191.2236195153
 10
351.8594351242
 20
192.2430484104
 10
351.0920362396
 20
193.2420665591
 10
350.2700987579
 20
194.2191526216
 10
349.3948743542
 20
195.1728186569
 10
348.4676958508
 20
196.101612389
 10
347.4899751878
 20
197.0041194183
 10
346.4632012723
 20
197.8789653755
 10
345.3889377118
 20
198.7248180143
 10
344.2688204323
 20
199.5403892408
 10
343.1045551878
 20
200.3244370746
 10
341.8979149623
 20
201.0757675401
 10
340.6507372696
 20
201.793236485
 10
339.3649213557
 20
202.4757513223
 10
338.0424253062
 20
203.1222726947
 10
336.6852630643
 20
203.7318160566
 10
335.2955013644
 20
204.3034531741
 10
333.8752565842
 20
204.8363135381
 10
332.4266915223
 20
205.3295856903
 10
330.9520121043
 20
205.7825184584
 10
329.4534640237
 20
206.1944221006
 10
327.933329322
 20
206.5646693557
 10
326.3939229138
 20
206.892696398
 10
324.8375890609
 20
207.1780036965
 10
323.2666978031
 20
207.4201567753
 10
321.6836413488
 20
207.6187868751
 10
320.0908304317
 20
207.7735915152
 10
318.4906906401
 20
207.8843349534
 10
316.885658723
 20
207.950848546
 10
315.2781788793
 20
207.9730310036
  0
LWPOLYLINE
  5
2DE
330
1F
100
AcDbEntity
  8
0
  6
Continuous
 62
     8
370
    18
100
AcDbPolyline
 90
      165
 70
   128
 43
0.0
 10
315.2781788793
 20
208.4381942337
 10
313.64047271
 20
208.4160081759
 10
312.0051701004
 20
208.3494825639
 10
310.3746710825
 20
208.238715033
 10
308.7513686385
 20
208.0838681499
 10
307.1376451885
 20
207.8851691738
 10
305.5358690943
 20
207.6429097228
 10
303.9483911831
 20
207.357445346
 10
302.3775412978
 20
207.0291950019
 10
300.8256248771
 20
206.6586404429
 10
299.2949195724
 20
206.2463255091
 10
297.7876719047
 20
205.7928553295
 10
296.306093968
 20
205.2988954341
 10
294.8523601821
 20
204.7651707771
 10
293.4286041018
 20
204.1924646732
 10
292.0369152855
 20
203.5816176474
 10
290.6793362285
 20
202.933526202
 10
289.3578593652
 20
202.2491415006
 10
288.0744241452
 20
201.5294679722
 10
286.8309141865
 20
200.7755618368
 10
285.6291545117
 20
199.9885295556
 10
284.4709088687
 20
199.1695262071
 10
283.3578771427
 20
198.3197537917
 10
282.2916928612
 20
197.4404594675
 10
281.2739207968
 20
196.5329337202
 10
280.3060546702
 20
195.598508469
 10
279.3895149585
 20
194.6385551118
 10
278.5256468101
 20
193.6544825125
 10
277.7157180706
 20
192.6477349334
 10
276.9609174222
 20
191.6197899153
 10
276.2623526388
 20
190.5721561094
 10
275.6210489606
 20
189.5063710627
 10
275.0379475893
 20
188.4239989617
 10
274.5139043065
 20
187.3266283368
 10
274.0496882179
 20
186.2158697306
 10
273.6459806247
 20
185.0933533346
 10
273.3033740234
 20
183.9607265965
 10
273.0223712366
 20
182.8196518021
 10
272.8033846744
 20
181.671803636
 10
272.64673573
 20
180.5188667237
 10
272.5526543072
 20
179.3625331591
 10
272.5212784835
 20
178.2045000212
 10
272.5526543072
 20
177.0464668834
 10
272.64673573
 20
175.8901333188
 10
272.8033846744
 20
174.7371964065
 10
273.0223712366
 20
173.5893482404
 10
273.3033740234
 20
172.448273446
 10
273.6459806247
 20
171.3156467078
 10
274.0496882179
 20
170.1931303119
 10
274.5139043065
 20
169.0823717057
 10
275.0379475893
 20
167.9850010808
 10
275.6210489606
 20
166.9026289798
 10
276.2623526388
 20
165.8368439331
 10
276.9609174222
 20
164.7892101272
 10
277.7157180706
 20
163.7612651091
 10
278.5256468101
 20
162.75451753
 10
279.3895149585
 20
161.7704449307
 10
280.3060546702
 20
160.8104915735
 10
281.2739207968
 20
159.8760663223
 10
282.2916928612
 20
158.968540575
 10
283.3578771427
 20
158.0892462508
 10
284.4709088687
 20
157.2394738353
 10
285.6291545117
 20
156.4204704869
 10
286.8309141865
 20
155.6334382057
 10
288.0744241452
 20
154.8795320703
 10
289.3578593652
 20
154.1598585419
 10
290.6793362285
 20
153.4754738405
 10
292.0369152855
 20
152.8273823951
 10
293.4286041018
 20
152.2165353693
 10
294.8523601821
 20
151.6438292653
 10
296.306093968
 20
151.1101046084
 10
297.7876719047
 20
150.616144713
 10
299.2949195724
 20
150.1626745334
 10
300.8256248771
 20
149.7503595996
 10
302.3775412978
 20
149.3798050406
 10
303.9483911832
 20
149.0515546965
 10
305.5358690943
 20
148.7660903197
 10
307.1376451885
 20
148.5238308687
 10
308.7513686385
 20
148.3251318926
 10
310.3746710825
 20
148.1702850095
 10
312.0051701004
 20
148.0595174786
 10
313.64047271
 20
147.9929918666
 10
315.2781788793
 20
147.9708058088
 10
316.9158850486
 20
147.9929918666
 10
318.5511876582
 20
148.0595174786
 10
320.1816866761
 20
148.1702850095
 10
321.8049891202
 20
148.3251318926
 10
323.4187125701
 20
148.5238308687
 10
325.0204886643
 20
148.7660903197
 10
326.6079665755
 20
149.0515546965
 10
328.1788164608
 20
149.3798050406
 10
329.7307328815
 20
149.7503595996
 10
331.2614381863
 20
150.1626745334
 10
332.7686858539
 20
150.616144713
 10
334.2502637906
 20
151.1101046084
 10
335.7039975766
 20
151.6438292653
 10
337.1277536568
 20
152.2165353693
 10
338.5194424731
 20
152.8273823951
 10
339.8770215301
 20
153.4754738405
 10
341.1984983934
 20
154.1598585419
 10
342.4819336135
 20
154.8795320703
 10
343.7254435721
 20
155.6334382057
 10
344.9272032469
 20
156.4204704869
 10
346.0854488899
 20
157.2394738353
 10
347.198480616
 20
158.0892462508
 10
348.2646648974
 20
158.968540575
 10
349.2824369619
 20
159.8760663223
 10
350.2503030884
 20
160.8104915735
 10
351.1668428001
 20
161.7704449307
 10
352.0307109485
 20
162.75451753
 10
352.840639688
 20
163.7612651091
 10
353.5954403365
 20
164.7892101272
 10
354.2940051198
 20
165.8368439331
 10
354.935308798
 20
166.9026289798
 10
355.5184101693
 20
167.9850010808
 10
356.0424534521
 20
169.0823717057
 10
356.5066695407
 20
170.1931303119
 10
356.9103771339
 20
171.3156467078
 10
357.2529837352
 20
172.448273446
 10
357.533986522
 20
173.5893482404
 10
357.7529730842
 20
174.7371964065
 10
357.9096220286
 20
175.8901333188
 10
358.0037034514
 20
177.0464668834
 10
358.0350792751
 20
178.2045000212
 10
358.0037034514
 20
179.3625331591
 10
357.9096220286
 20
180.5188667237
 10
357.7529730842
 20
181.671803636
 10
357.533986522
 20
182.8196518021
 10
357.2529837352
 20
183.9607265965
 10
356.9103771339
 20
185.0933533346
 10
356.5066695407
 20
186.2158697306
 10
356.0424534521
 20
187.3266283368
 10
355.5184101693
 20
188.4239989617
 10
354.935308798
 20
189.5063710627
 10
354.2940051198
 20
190.5721561094
 10
353.5954403365
 20
191.6197899153
 10
352.840639688
 20
192.6477349334
 10
352.0307109485
 20
193.6544825125
 10
351.1668428001
 20
194.6385551118
 10
350.2503030884
 20
195.598508469
 10
349.2824369619
 20
196.5329337202
 10
348.2646648974
 20
197.4404594675
 10
347.198480616
 20
198.3197537917
 10
346.0854488899
 20
199.1695262071
 10
344.9272032469
 20
199.9885295556
 10
343.7254435721
 20
200.7755618368
 10
342.4819336135
 20
201.5294679722
 10
341.1984983934
 20
202.2491415006
 10
339.8770215301
 20
202.933526202
 10
338.5194424731
 20
203.5816176474
 10
337.1277536568
 20
204.1924646732
 10
335.7039975766
 20
204.7651707771
 10
334.2502637906
 20
205.2988954341
 10
332.7686858539
 20
205.7928553295
 10
331.2614381863
 20
206.2463255091
 10
329.7307328815
 20
206.6586404429
 10
328.1788164608
 20
207.0291950019
 10
326.6079665755
 20
207.357445346
 10
325.0204886643
 20
207.6429097228
 10
323.4187125701
 20
207.8851691738
 10
321.8049891202
 20
208.0838681499
 10
320.1816866761
 20
208.238715033
 10
318.5511876582
 20
208.3494825639
 10
316.9158850486
 20
208.4160081759
 10
315.2781788793
 20
208.4381942337
  0
LWPOLYLINE
  5
2DF
330
1F
100
AcDbEntity
  8
0
  6
Continuous
 62
     8
370
    18
100
AcDbPolyline
 90
      161
 70
   128
 43
0.0
 10
315.2781788793
 20
207.7136934939
 10
313.6819865661
 20
207.6915290967
 10
312.0882554658
 20
207.6250700811
 10
310.4994429962
 20
207.5144189221
 10
308.9179989909
 20
207.3597462357
 10
307.346361922
 20
207.1612905159
 10
305.78695514
 20
206.9193577672
 10
304.242183137
 20
206.6343210323
 10
302.7144278396
 20
206.3066198172
 10
301.2060449356
 20
205.9367594134
 10
299.7193602422
 20
205.5253101188
 10
298.2566661194
 20
205.0729063584
 10
296.8202179355
 20
204.5802457061
 10
295.4122305896
 20
204.0480878088
 10
294.034875096
 20
203.4772532154
 10
292.6902752371
 20
202.8686221116
 10
291.3805042884
 20
202.2231329623
 10
290.1075818218
 20
201.5417810651
 10
288.8734705914
 20
200.8256170152
 10
287.6800735074
 20
200.0757450856
 10
286.5292307015
 20
199.2933215246
 10
285.42271669
 20
198.4795527725
 10
284.3622376371
 20
197.6356936017
 10
283.3494287249
 20
196.763045182
 10
282.3858516311
 20
195.8629530739
 10
281.4729921218
 20
194.9368051543
 10
280.6122577603
 20
193.9860294761
 10
279.8049757366
 20
193.0120920665
 10
279.0523908209
 20
192.0164946663
 10
278.3556634447
 20
191.0007724147
 10
277.7158679111
 20
189.9664914817
 10
277.1339907384
 20
188.9152466535
 10
276.6109291391
 20
187.8486588734
 10
276.1474896363
 20
186.7683727426
 10
275.74438682
 20
185.6760539839
 10
275.4022422456
 20
184.5733868737
 10
275.1215834753
 20
183.4620716448
 10
274.9028432644
 20
182.3438218646
 10
274.7463588946
 20
181.2203617933
 10
274.6523716534
 20
180.0934237248
 10
274.6210264623
 20
178.9647453161
 10
274.6523716534
 20
177.8360669074
 10
274.7463588946
 20
176.709128839
 10
274.9028432644
 20
175.5856687676
 10
275.1215834753
 20
174.4674189874
 10
275.4022422456
 20
173.3561037585
 10
275.74438682
 20
172.2534366483
 10
276.1474896363
 20
171.1611178896
 10
276.6109291391
 20
170.0808317588
 10
277.1339907384
 20
169.0142439787
 10
277.7158679111
 20
167.9629991506
 10
278.3556634447
 20
166.9287182175
 10
279.0523908209
 20
165.9129959659
 10
279.8049757366
 20
164.9173985658
 10
280.6122577603
 20
163.9434611561
 10
281.4729921218
 20
162.9926854779
 10
282.3858516311
 20
162.0665375583
 10
283.3494287249
 20
161.1664454502
 10
284.3622376371
 20
160.2937970305
 10
285.42271669
 20
159.4499378597
 10
286.5292307015
 20
158.6361691076
 10
287.6800735074
 20
157.8537455466
 10
288.8734705914
 20
157.103873617
 10
290.1075818218
 20
156.3877095671
 10
291.3805042884
 20
155.7063576699
 10
292.6902752371
 20
155.0608685206
 10
294.034875096
 20
154.4522374168
 10
295.4122305896
 20
153.8814028235
 10
296.8202179355
 20
153.3492449262
 10
298.2566661194
 20
152.8565842738
 10
299.7193602422
 20
152.4041805134
 10
301.2060449356
 20
151.9927312188
 10
302.7144278396
 20
151.622870815
 10
304.242183137
 20
151.2951695999
 10
305.78695514
 20
151.010132865
 10
307.346361922
 20
150.7682001163
 10
308.9179989909
 20
150.5697443965
 10
310.4994429962
 20
150.4150717101
 10
312.0882554658
 20
150.3044205511
 10
313.6819865661
 20
150.2379615355
 10
315.2781788793
 20
150.2157971383
 10
316.8743711925
 20
150.2379615355
 10
318.4681022928
 20
150.3044205511
 10
320.0569147624
 20
150.4150717101
 10
321.6383587677
 20
150.5697443965
 10
323.2099958366
 20
150.7682001163
 10
324.7694026186
 20
151.010132865
 10
326.3141746216
 20
151.2951695999
 10
327.841929919
 20
151.622870815
 10
329.350312823
 20
151.9927312188
 10
330.8369975164
 20
152.4041805134
 10
332.2996916392
 20
152.8565842738
 10
333.7361398231
 20
153.3492449262
 10
335.144127169
 20
153.8814028235
 10
336.5214826626
 20
154.4522374168
 10
337.8660825215
 20
155.0608685206
 10
339.1758534702
 20
155.7063576699
 10
340.4487759368
 20
156.3877095671
 10
341.6828871672
 20
157.103873617
 10
342.8762842512
 20
157.8537455466
 10
344.0271270571
 20
158.6361691076
 10
345.1336410686
 20
159.4499378597
 10
346.1941201215
 20
160.2937970305
 10
347.2069290338
 20
161.1664454502
 10
348.1705061275
 20
162.0665375583
 10
349.0833656368
 20
162.9926854779
 10
349.9440999983
 20
163.9434611561
 10
350.7513820221
 20
164.9173985658
 10
351.5039669377
 20
165.9129959659
 10
352.2006943139
 20
166.9287182175
 10
352.8404898475
 20
167.9629991506
 10
353.4223670202
 20
169.0142439787
 10
353.9454286195
 20
170.0808317588
 10
354.4088681223
 20
171.1611178896
 10
354.8119709386
 20
172.2534366483
 10
355.154115513
 20
173.3561037585
 10
355.4347742833
 20
174.4674189874
 10
355.6535144942
 20
175.5856687676
 10
355.809998864
 20
176.709128839
 10
355.9039861052
 20
177.8360669074
 10
355.9353312963
 20
178.9647453161
 10
355.9039861052
 20
180.0934237248
 10
355.809998864
 20
181.2203617933
 10
355.6535144942
 20
182.3438218646
 10
355.4347742833
 20
183.4620716448
 10
355.154115513
 20
184.5733868737
 10
354.8119709386
 20
185.6760539839
 10
354.4088681223
 20
186.7683727426
 10
353.9454286195
 20
187.8486588734
 10
353.4223670202
 20
188.9152466535
 10
352.8404898475
 20
189.9664914817
 10
352.2006943139
 20
191.0007724147
 10
351.5039669377
 20
192.0164946663
 10
350.7513820221
 20
193.0120920665
 10
349.9440999983
 20
193.9860294761
 10
349.0833656368
 20
194.9368051543
 10
348.1705061275
 20
195.8629530739
 10
347.2069290338
 20
196.763045182
 10
346.1941201215
 20
197.6356936017
 10
345.1336410686
 20
198.4795527725
 10
344.0271270571
 20
199.2933215246
 10
342.8762842512
 20
200.0757450856
 10
341.6828871672
 20
200.8256170152
 10
340.4487759368
 20
201.5417810651
 10
339.1758534702
 20
202.2231329623
 10
337.8660825215
 20
202.8686221116
 10
336.5214826626
 20
203.4772532154
 10
335.144127169
 20
204.0480878088
 10
333.7361398231
 20
204.5802457061
 10
332.2996916392
 20
205.0729063584
 10
330.8369975164
 20
205.5253101188
 10
329.350312823
 20
205.9367594134
 10
327.841929919
 20
206.3066198172
 10
326.3141746216
 20
206.6343210323
 10
324.7694026186
 20
206.9193577672
 10
323.2099958366
 20
207.1612905159
 10
321.6383587677
 20
207.3597462357
 10
320.0569147624
 20
207.5144189221
 10
318.4681022928
 20
207.6250700811
 10
316.8743711925
 20
207.6915290967
 10
315.2781788793
 20
207.7136934939
  0
LWPOLYLINE
  5
2E0
330
1F
100
AcDbEntity
  8
0
  6
Continuous
 62
     8
370
    18
100
AcDbPolyline
 90
      160
 70
   128
 43
0.0
 10
315.2781788793
 20
207.3335671047
 10
313.6956851547
 20
207.3114546851
 10
312.1156623062
 20
207.2451519521
 10
310.5405773519
 20
207.1347624295
 10
308.9728896
 20
206.9804584775
 10
307.4150468089
 20
206.7824810235
 10
305.869481365
 20
206.5411391856
 10
304.3386064855
 20
206.2568097906
 10
302.8248124496
 20
205.929936785
 10
301.3304628671
 20
205.5610305422
 10
299.8578909875
 20
205.1506670656
 10
298.4093960569
 20
204.6994870889
 10
296.9872397282
 20
204.2081950762
 10
295.5936425298
 20
203.6775581217
 10
294.2307803982
 20
203.1084047518
 10
292.9007812808
 20
202.5016236321
 10
291.6057218134
 20
201.8581621793
 10
290.3476240777
 20
201.179025082
 10
289.1284524438
 20
200.4652727322
 10
287.9501105036
 20
199.7180195694
 10
286.8144380981
 20
198.9384323408
 10
285.7232084451
 20
198.1277282792
 10
284.6781253699
 20
197.2871732029
 10
283.6808206459
 20
196.4180795388
 10
282.7328514459
 20
195.5218042735
 10
281.8356979113
 20
194.5997468343
 10
280.990760841
 20
193.6533469047
 10
280.1993595037
 20
192.6840821756
 10
279.4627295787
 20
191.693466039
 10
278.7820212263
 20
190.6830452243
 10
278.1582972918
 20
189.6543973837
 10
277.5925316459
 20
188.6091286286
 10
277.0856076646
 20
187.5488710223
 10
276.6383168496
 20
186.4752800309
 10
276.2513575922
 20
185.3900319395
 10
275.9253340836
 20
184.2948212341
 10
275.6607553706
 20
183.1913579562
 10
275.4580345616
 20
182.0813650328
 10
275.317488181
 20
180.966575586
 10
275.2393356753
 20
179.8487302272
 10
275.2236990704
 20
178.7295743392
 10
275.2706027809
 20
177.6108553511
 10
275.3799735723
 20
176.4943200098
 10
275.5516406751
 20
175.3817116528
 10
275.7853360515
 20
174.2747674858
 10
276.0806948139
 20
173.1752158708
 10
276.4372557946
 20
172.0847736271
 10
276.8544622661
 20
171.0051433509
 10
277.3316628098
 20
169.9380107566
 10
277.8681123339
 20
168.8850420451
 10
278.4629732361
 20
167.8478813021
 10
279.1153167116
 20
166.8281479309
 10
279.8241242036
 20
165.8274341242
 10
280.5882889933
 20
164.8473023778
 10
281.4066179282
 20
163.889283051
 10
282.2778332847
 20
162.9548719773
 10
283.2005747634
 20
162.0455281287
 10
284.1734016132
 20
161.1626713376
 10
285.1947948803
 20
160.3076800802
 10
286.2631597804
 20
159.4818893238
 10
287.3768281885
 20
158.6865884425
 10
288.5340612436
 20
157.9230192044
 10
289.7330520637
 20
157.1923738322
 10
290.971928567
 20
156.4957931419
 10
292.2487563947
 20
155.8343647615
 10
293.561541932
 20
155.2091214329
 10
294.9082354199
 20
154.6210393994
 10
296.2867341564
 20
154.0710368813
 10
297.6948857795
 20
153.5599726421
 10
299.1304916275
 20
153.0886446481
 10
300.5913101723
 20
152.657788822
 10
302.0750605191
 20
152.2680778939
 10
303.5794259679
 20
151.9201203513
 10
305.1020576307
 20
151.6144594886
 10
306.6405780989
 20
151.3515725588
 10
308.1925851553
 20
151.1318700287
 10
309.7556555252
 20
150.9556949378
 10
311.3273486598
 20
150.8233223625
 10
312.9052105467
 20
150.7349589869
 10
314.486777542
 20
150.6907427799
 10
316.0695802166
 20
150.6907427799
 10
317.6511472119
 20
150.7349589869
 10
319.2290090989
 20
150.8233223625
 10
320.8007022334
 20
150.9556949378
 10
322.3637726033
 20
151.1318700287
 10
323.9157796598
 20
151.3515725588
 10
325.4543001279
 20
151.6144594886
 10
326.9769317907
 20
151.9201203513
 10
328.4812972395
 20
152.2680778939
 10
329.9650475864
 20
152.657788822
 10
331.4258661311
 20
153.0886446481
 10
332.8614719791
 20
153.5599726421
 10
334.2696236022
 20
154.0710368813
 10
335.6481223388
 20
154.6210393994
 10
336.9948158267
 20
155.2091214329
 10
338.3076013639
 20
155.8343647615
 10
339.5844291917
 20
156.4957931419
 10
340.8233056949
 20
157.1923738322
 10
342.022296515
 20
157.9230192045
 10
343.1795295701
 20
158.6865884425
 10
344.2931979783
 20
159.4818893238
 10
345.3615628783
 20
160.3076800802
 10
346.3829561454
 20
161.1626713376
 10
347.3557829952
 20
162.0455281287
 10
348.2785244739
 20
162.9548719773
 10
349.1497398304
 20
163.889283051
 10
349.9680687653
 20
164.8473023778
 10
350.732233555
 20
165.8274341242
 10
351.441041047
 20
166.8281479309
 10
352.0933845226
 20
167.8478813021
 10
352.6882454247
 20
168.8850420451
 10
353.2246949488
 20
169.9380107566
 10
353.7018954925
 20
171.0051433509
 10
354.119101964
 20
172.0847736271
 10
354.4756629447
 20
173.1752158708
 10
354.7710217071
 20
174.2747674858
 10
355.0047170835
 20
175.3817116528
 10
355.1763841863
 20
176.4943200098
 10
355.2857549777
 20
177.6108553511
 10
355.3326586883
 20
178.7295743392
 10
355.3170220833
 20
179.8487302272
 10
355.2388695776
 20
180.966575586
 10
355.098323197
 20
182.0813650328
 10
354.895602388
 20
183.1913579562
 10
354.631023675
 20
184.2948212341
 10
354.3050001664
 20
185.3900319395
 10
353.9180409091
 20
186.4752800309
 10
353.470750094
 20
187.5488710223
 10
352.9638261127
 20
188.6091286286
 10
352.3980604669
 20
189.6543973837
 10
351.7743365323
 20
190.6830452243
 10
351.0936281799
 20
191.693466039
 10
350.3569982549
 20
192.6840821756
 10
349.5655969177
 20
193.6533469047
 10
348.7206598473
 20
194.5997468343
 10
347.8235063127
 20
195.5218042735
 10
346.8755371127
 20
196.4180795388
 10
345.8782323887
 20
197.2871732029
 10
344.8331493136
 20
198.1277282792
 10
343.7419196605
 20
198.9384323408
 10
342.606247255
 20
199.7180195694
 10
341.4279053148
 20
200.4652727322
 10
340.2087336809
 20
201.179025082
 10
338.9506359452
 20
201.8581621793
 10
337.6555764778
 20
202.5016236321
 10
336.3255773604
 20
203.1084047518
 10
334.9627152288
 20
203.6775581217
 10
333.5691180304
 20
204.2081950762
 10
332.1469617017
 20
204.6994870889
 10
330.6984667711
 20
205.1506670656
 10
329.2258948915
 20
205.5610305422
 10
327.731545309
 20
205.929936785
 10
326.2177512731
 20
206.2568097906
 10
324.6868763936
 20
206.5411391856
 10
323.1413109497
 20
206.7824810235
 10
321.5834681586
 20
206.9804584775
 10
320.0157804067
 20
207.1347624295
 10
318.4406954524
 20
207.2451519521
 10
316.8606726039
 20
207.3114546851
 10
315.2781788793
 20
207.3335671047
  0
LWPOLYLINE
  5
2E1
330
1F
100
AcDbEntity
  8
0
  6
Continuous
 62
     8
370
    18
100
AcDbPolyline
 90
       77
 70
   128
 43
0.0
 10
273.3524723351
 20
171.9215401244
 10
273.4152622837
 20
171.6242079871
 10
273.6936523296
 20
170.4937428129
 10
274.0330734026
 20
169.3716471456
 10
274.4330273556
 20
168.2595678154
 10
274.8929272009
 20
167.159136952
 10
275.4120979721
 20
166.0719695895
 10
275.9897777146
 20
164.9996612958
 10
276.6251186035
 20
163.9437858314
 10
277.3171881886
 20
162.905892839
 10
278.0649707623
 20
161.8875055698
 10
278.8673688505
 20
160.8901186474
 10
279.7232048234
 20
159.9151958747
 10
280.6312226238
 20
158.9641680854
 10
281.5900896102
 20
158.0384310438
 10
282.5983985131
 20
157.1393433968
 10
283.6546695002
 20
156.2682246793
 10
284.7573523482
 20
155.4263533784
 10
285.9048287179
 20
154.6149650561
 10
287.0954145295
 20
153.8352505368
 10
288.3273624341
 20
153.0883541591
 10
289.5988643783
 20
152.3753720963
 10
290.9080542577
 20
151.6973507479
 10
292.2530106555
 20
151.0552852039
 10
293.6317596629
 20
150.4501177838
 10
295.0422777755
 20
149.8827366544
 10
296.4824948634
 20
149.3539745257
 10
297.9502972096
 20
148.8646074291
 10
299.4435306115
 20
148.4153535781
 10
300.9600035434
 20
148.0068723149
 10
302.497490372
 20
147.639763142
 10
304.0537346235
 20
147.3145648427
 10
305.6264522947
 20
147.0317546904
 10
307.2133352057
 20
146.7917477479
 10
308.8120543868
 20
146.5948962587
 10
310.4202634974
 20
146.4414891293
 10
312.0356022686
 20
146.3317515058
 10
313.6556999682
 20
146.2658444435
 10
315.2781788793
 20
146.2438646699
 10
316.9006577904
 20
146.2658444435
 10
318.52075549
 20
146.3317515058
 10
320.1360942613
 20
146.4414891293
 10
321.7443033718
 20
146.5948962587
 10
323.343022553
 20
146.7917477479
 10
324.9299054639
 20
147.0317546904
 10
326.5026231351
 20
147.3145648427
 10
328.0588673866
 20
147.639763142
 10
329.5963542152
 20
148.0068723149
 10
331.1128271471
 20
148.4153535781
 10
332.6060605491
 20
148.8646074291
 10
334.0738628952
 20
149.3539745257
 10
335.5140799831
 20
149.8827366544
 10
336.9245980957
 20
150.4501177838
 10
338.3033471031
 20
151.0552852039
 10
339.648303501
 20
151.6973507479
 10
340.9574933803
 20
152.3753720963
 10
342.2289953246
 20
153.0883541591
 10
343.4609432292
 20
153.8352505368
 10
344.6515290407
 20
154.6149650561
 10
345.7990054104
 20
155.4263533784
 10
346.9016882584
 20
156.2682246793
 10
347.9579592455
 20
157.1393433968
 10
348.9662681484
 20
158.0384310438
 10
349.9251351348
 20
158.9641680854
 10
350.8331529352
 20
159.9151958747
 10
351.6889889081
 20
160.8901186474
 10
352.4913869964
 20
161.8875055698
 10
353.23916957
 20
162.905892839
 10
353.9312391551
 20
163.9437858314
 10
354.5665800441
 20
164.9996612958
 10
355.1442597865
 20
166.0719695895
 10
355.6634305577
 20
167.159136952
 10
356.123330403
 20
168.2595678154
 10
356.523284356
 20
169.3716471456
 10
356.8627054291
 20
170.4937428129
 10
357.141095475
 20
171.6242079871
 10
357.2038854235
 20
171.9215401244
  0
LWPOLYLINE
  5
2E2
330
1F
100
AcDbEntity
  8
0
  6
Continuous
 62
     8
370
    18
100
AcDbPolyline
 90
      159
 70
   128
 43
0.0
 10
315.2781788793
 20
207.0153802388
 10
316.8532069243
 20
206.9932328098
 10
318.4257445263
 20
206.9268255425
 10
319.9933051799
 20
206.8162634404
 10
321.5534102498
 20
206.6617213249
 10
323.103592889
 20
206.4634435589
 10
324.6414019401
 20
206.2217436603
 10
326.164405811
 20
205.9370038063
 10
327.6701963196
 20
205.6096742291
 10
329.1563925014
 20
205.2402725041
 10
330.6206443749
 20
204.8293827313
 10
332.0606366569
 20
204.377654612
 10
333.4740924236
 20
203.8858024211
 10
334.8587767109
 20
203.354603878
 10
336.2125000483
 20
202.7848989168
 10
337.533121921
 20
202.1775883582
 10
338.8185541543
 20
201.533632485
 10
340.0667642157
 20
200.8540495237
 10
341.2757784285
 20
200.1399140348
 10
342.4436850928
 20
199.3923552132
 10
343.5686375079
 20
198.6125551032
 10
344.648856893
 20
197.8017467288
 10
345.6826351992
 20
196.9612121449
 10
346.6683378104
 20
196.0922804093
 10
347.6044061283
 20
195.1963254819
 10
348.4893600363
 20
194.2747640514
 10
349.3218002406
 20
193.3290532959
 10
350.1004104819
 20
192.3606885784
 10
350.8239596176
 20
191.3712010828
 10
351.4913035676
 20
190.362155392
 10
352.1013871241
 20
189.3351470147
 10
352.6532456194
 20
188.2917998623
 10
353.146006452
 20
187.2337636811
 10
353.5788904657
 20
186.1627114437
 10
353.9512131818
 20
185.0803367038
 10
354.2623858816
 20
183.9883509185
 10
354.5119165371
 20
182.8884807417
 10
354.699410589
 20
181.7824652942
 10
354.8245715708
 20
180.6720534137
 10
354.8872015771
 20
179.5590008898
 10
354.8872015771
 20
178.4450676872
 10
354.8245715708
 20
177.3320151632
 10
354.699410589
 20
176.2216032828
 10
354.5119165371
 20
175.1155878353
 10
354.2623858816
 20
174.0157176584
 10
353.9512131818
 20
172.9237318731
 10
353.5788904657
 20
171.8413571333
 10
353.146006452
 20
170.7703048958
 10
352.6532456194
 20
169.7122687146
 10
352.1013871241
 20
168.6689215622
 10
351.4913035676
 20
167.6419131849
 10
350.8239596176
 20
166.6328674941
 10
350.1004104819
 20
165.6433799985
 10
349.3218002406
 20
164.6750152811
 10
348.4893600363
 20
163.7293045256
 10
347.6044061283
 20
162.8077430951
 10
346.6683378104
 20
161.9117881676
 10
345.6826351992
 20
161.042856432
 10
344.648856893
 20
160.2023218481
 10
343.5686375079
 20
159.3915134738
 10
342.4436850928
 20
158.6117133637
 10
341.2757784285
 20
157.8641545421
 10
340.0667642157
 20
157.1500190532
 10
338.8185541543
 20
156.470436092
 10
337.533121921
 20
155.8264802187
 10
336.2125000483
 20
155.2191696601
 10
334.8587767109
 20
154.649464699
 10
333.4740924236
 20
154.1182661559
 10
332.0606366569
 20
153.6264139649
 10
330.6206443749
 20
153.1746858456
 10
329.1563925014
 20
152.7637960728
 10
327.6701963196
 20
152.3943943478
 10
326.164405811
 20
152.0670647706
 10
324.6414019401
 20
151.7823249166
 10
323.103592889
 20
151.540625018
 10
321.5534102498
 20
151.342347252
 10
319.9933051799
 20
151.1878051365
 10
318.4257445263
 20
151.0772430344
 10
316.8532069243
 20
151.0108357671
 10
315.2781788793
 20
150.9886883382
 10
313.7031508343
 20
151.0108357671
 10
312.1306132324
 20
151.0772430344
 10
310.5630525787
 20
151.1878051365
 10
309.0029475089
 20
151.342347252
 10
307.4527648697
 20
151.540625018
 10
305.9149558185
 20
151.7823249166
 10
304.3919519476
 20
152.0670647706
 10
302.886161439
 20
152.3943943478
 10
301.3999652572
 20
152.7637960728
 10
299.9357133837
 20
153.1746858456
 10
298.4957211017
 20
153.6264139649
 10
297.082265335
 20
154.1182661559
 10
295.6975810478
 20
154.649464699
 10
294.3438577103
 20
155.2191696601
 10
293.0232358377
 20
155.8264802187
 10
291.7378036043
 20
156.470436092
 10
290.4895935429
 20
157.1500190532
 10
289.2805793301
 20
157.8641545421
 10
288.1126726659
 20
158.6117133637
 10
286.9877202507
 20
159.3915134738
 10
285.9075008656
 20
160.2023218481
 10
284.8737225594
 20
161.042856432
 10
283.8880199482
 20
161.9117881676
 10
282.9519516304
 20
162.8077430951
 10
282.0669977223
 20
163.7293045256
 10
281.2345575181
 20
164.6750152811
 10
280.4559472767
 20
165.6433799985
 10
279.7323981411
 20
166.6328674941
 10
279.065054191
 20
167.6419131849
 10
278.4549706346
 20
168.6689215622
 10
277.9031121392
 20
169.7122687146
 10
277.4103513066
 20
170.7703048958
 10
276.9774672929
 20
171.8413571333
 10
276.6051445769
 20
172.9237318731
 10
276.2939718771
 20
174.0157176584
 10
276.0444412216
 20
175.1155878353
 10
275.8569471696
 20
176.2216032828
 10
275.7317861879
 20
177.3320151632
 10
275.6691561815
 20
178.4450676872
 10
275.6691561815
 20
179.5590008898
 10
275.7317861879
 20
180.6720534137
 10
275.8569471696
 20
181.7824652942
 10
276.0444412216
 20
182.8884807417
 10
276.2939718771
 20
183.9883509185
 10
276.6051445769
 20
185.0803367038
 10
276.9774672929
 20
186.1627114437
 10
277.4103513066
 20
187.2337636811
 10
277.9031121392
 20
188.2917998623
 10
278.4549706346
 20
189.3351470147
 10
279.065054191
 20
190.362155392
 10
279.7323981411
 20
191.3712010828
 10
280.4559472767
 20
192.3606885784
 10
281.2345575181
 20
193.3290532959
 10
282.0669977223
 20
194.2747640514
 10
282.9519516304
 20
195.1963254819
 10
283.8880199482
 20
196.0922804093
 10
284.8737225594
 20
196.9612121449
 10
285.9075008656
 20
197.8017467288
 10
286.9877202507
 20
198.6125551032
 10
288.1126726659
 20
199.3923552132
 10
289.2805793301
 20
200.1399140348
 10
290.4895935429
 20
200.8540495237
 10
291.7378036043
 20
201.533632485
 10
293.0232358377
 20
202.1775883582
 10
294.3438577103
 20
202.7848989168
 10
295.6975810478
 20
203.354603878
 10
297.082265335
 20
203.8858024211
 10
298.4957211017
 20
204.377654612
 10
299.9357133837
 20
204.8293827313
 10
301.3999652572
 20
205.2402725041
 10
302.886161439
 20
205.6096742291
 10
304.3919519476
 20
205.9370038063
 10
305.9149558185
 20
206.2217436603
 10
307.4527648697
 20
206.4634435589
 10
309.0029475089
 20
206.6617213249
 10
310.5630525787
 20
206.8162634404
 10
312.1306132324
 20
206.9268255425
 10
313.7031508343
 20
206.9932328098
 10
315.2781788793
 20
207.0153802388
  0
LWPOLYLINE
  5
2E3
330
1F
100
AcDbEntity
  8
0
  6
Continuous
 62
     8
370
    18
100
AcDbPolyline
 90
      157
 70
   128
 43
0.0
 10
315.2781788793
 20
206.2312757663
 10
313.721686938
 20
206.2091083096
 10
312.1677196323
 20
206.1426418952
 10
310.6187975029
 20
206.0319843319
 10
309.0774329071
 20
205.8773151066
 10
307.5461259439
 20
205.6788850934
 10
306.0273603989
 20
205.4370161465
 10
304.5235997153
 20
205.1521005783
 10
303.0372829985
 20
204.8246005227
 10
301.5708210595
 20
204.4550471861
 10
300.126592505
 20
204.0440399854
 10
298.706939879
 20
203.5922455758
 10
297.3141658633
 20
203.1003967693
 10
295.9505295424
 20
202.5692913467
 10
294.6182427394
 20
201.9997907628
 10
293.3194664283
 20
201.3928187496
 10
292.0563072292
 20
200.749359818
 10
290.8308139908
 20
200.0704576608
 10
289.6449744676
 20
199.3572134596
 10
288.5007120957
 20
198.6107840993
 10
287.3998828729
 20
197.8323802909
 10
286.3442723482
 20
197.0232646083
 10
285.3355927256
 20
196.1847494401
 10
284.3754800873
 20
195.3181948609
 10
283.4654917394
 20
194.4250064254
 10
282.6071036864
 20
193.5066328887
 10
281.8017082369
 20
192.5645638558
 10
281.0506117451
 20
191.6003273662
 10
280.3550324924
 20
190.615487415
 10
279.7160987109
 20
189.6116414162
 10
279.1348467534
 20
188.5904176118
 10
278.6122194128
 20
187.5534724304
 10
278.1490643925
 20
186.5024878009
 10
277.7461329318
 20
185.4391684242
 10
277.4040785868
 20
184.3652390083
 10
277.1234561709
 20
183.2824414706
 10
276.9047208549
 20
182.1925321126
 10
276.748227428
 20
181.0972787714
 10
276.6542297233
 20
179.9984579518
 10
276.6228802054
 20
178.8978519452
 10
276.6542297233
 20
177.7972459387
 10
276.748227428
 20
176.6984251191
 10
276.9047208549
 20
175.6031717778
 10
277.1234561709
 20
174.5132624199
 10
277.4040785868
 20
173.4304648821
 10
277.7461329318
 20
172.3565354662
 10
278.1490643925
 20
171.2932160896
 10
278.6122194128
 20
170.2422314601
 10
279.1348467534
 20
169.2052862787
 10
279.7160987109
 20
168.1840624742
 10
280.3550324924
 20
167.1802164754
 10
281.0506117451
 20
166.1953765243
 10
281.8017082369
 20
165.2311400347
 10
282.6071036864
 20
164.2890710018
 10
283.4654917394
 20
163.370697465
 10
284.3754800873
 20
162.4775090296
 10
285.3355927256
 20
161.6109544504
 10
286.3442723482
 20
160.7724392822
 10
287.3998828729
 20
159.9633235996
 10
288.5007120957
 20
159.1849197912
 10
289.6449744676
 20
158.4384904308
 10
290.8308139908
 20
157.7252462297
 10
292.0563072292
 20
157.0463440724
 10
293.3194664283
 20
156.4028851408
 10
294.6182427394
 20
155.7959131277
 10
295.9505295424
 20
155.2264125438
 10
297.3141658633
 20
154.6953071211
 10
298.706939879
 20
154.2034583147
 10
300.126592505
 20
153.751663905
 10
301.5708210595
 20
153.3406567043
 10
303.0372829985
 20
152.9711033677
 10
304.5235997153
 20
152.6436033122
 10
306.0273603989
 20
152.3586877439
 10
307.5461259439
 20
152.116818797
 10
309.0774329071
 20
151.9183887838
 10
310.6187975029
 20
151.7637195585
 10
312.1677196323
 20
151.6530619952
 10
313.721686938
 20
151.5865955808
 10
315.2781788793
 20
151.5644281241
 10
316.8346708206
 20
151.5865955808
 10
318.3886381263
 20
151.6530619952
 10
319.9375602557
 20
151.7637195585
 10
321.4789248515
 20
151.9183887838
 10
323.0102318147
 20
152.116818797
 10
324.5289973597
 20
152.3586877439
 10
326.0327580433
 20
152.6436033122
 10
327.5190747602
 20
152.9711033677
 10
328.9855366992
 20
153.3406567043
 10
330.4297652536
 20
153.751663905
 10
331.8494178796
 20
154.2034583147
 10
333.2421918953
 20
154.6953071211
 10
334.6058282162
 20
155.2264125438
 10
335.9381150193
 20
155.7959131277
 10
337.2368913303
 20
156.4028851408
 10
338.5000505294
 20
157.0463440724
 10
339.7255437679
 20
157.7252462297
 10
340.911383291
 20
158.4384904308
 10
342.0556456629
 20
159.1849197912
 10
343.1564748857
 20
159.9633235996
 10
344.2120854105
 20
160.7724392822
 10
345.220765033
 20
161.6109544504
 10
346.1808776713
 20
162.4775090296
 10
347.0908660192
 20
163.370697465
 10
347.9492540722
 20
164.2890710018
 10
348.7546495218
 20
165.2311400347
 10
349.5057460135
 20
166.1953765243
 10
350.2013252662
 20
167.1802164754
 10
350.8402590478
 20
168.1840624742
 10
351.4215110052
 20
169.2052862787
 10
351.9441383458
 20
170.2422314601
 10
352.4072933661
 20
171.2932160896
 10
352.8102248269
 20
172.3565354662
 10
353.1522791719
 20
173.4304648821
 10
353.4329015877
 20
174.5132624199
 10
353.6516369038
 20
175.6031717778
 10
353.8081303306
 20
176.6984251191
 10
353.9021280353
 20
177.7972459387
 10
353.9334775532
 20
178.8978519452
 10
353.9021280353
 20
179.9984579518
 10
353.8081303306
 20
181.0972787714
 10
353.6516369038
 20
182.1925321126
 10
353.4329015877
 20
183.2824414706
 10
353.1522791719
 20
184.3652390083
 10
352.8102248269
 20
185.4391684242
 10
352.4072933661
 20
186.5024878009
 10
351.9441383458
 20
187.5534724304
 10
351.4215110052
 20
188.5904176118
 10
350.8402590478
 20
189.6116414162
 10
350.2013252662
 20
190.615487415
 10
349.5057460135
 20
191.6003273662
 10
348.7546495218
 20
192.5645638558
 10
347.9492540722
 20
193.5066328887
 10
347.0908660192
 20
194.4250064254
 10
346.1808776713
 20
195.3181948609
 10
345.220765033
 20
196.1847494401
 10
344.2120854105
 20
197.0232646083
 10
343.1564748857
 20
197.8323802909
 10
342.0556456629
 20
198.6107840993
 10
340.911383291
 20
199.3572134596
 10
339.7255437679
 20
200.0704576608
 10
338.5000505294
 20
200.749359818
 10
337.2368913303
 20
201.3928187496
 10
335.9381150193
 20
201.9997907628
 10
334.6058282162
 20
202.5692913467
 10
333.2421918953
 20
203.1003967693
 10
331.8494178796
 20
203.5922455758
 10
330.4297652536
 20
204.0440399854
 10
328.9855366992
 20
204.4550471861
 10
327.5190747602
 20
204.8246005227
 10
326.0327580433
 20
205.1521005783
 10
324.5289973597
 20
205.4370161465
 10
323.0102318147
 20
205.6788850934
 10
321.4789248515
 20
205.8773151066
 10
319.9375602557
 20
206.0319843319
 10
318.3886381263
 20
206.1426418952
 10
316.8346708206
 20
206.2091083096
 10
315.2781788793
 20
206.2312757663
  0
LWPOLYLINE
  5
2E4
330
1F
100
AcDbEntity
  8
0
  6
Continuous
 62
     8
370
    18
100
AcDbPolyline
 90
       81
 70
   128
 43
0.0
 10
357.6823324918
 20
173.9783959642
 10
357.6559180748
 20
173.7205942812
 10
357.5002013638
 20
172.574518611
 10
357.2825180124
 20
171.4335014034
 10
357.0031875011
 20
170.2992172584
 10
356.6626197857
 20
169.1733308945
 10
356.2613146965
 20
168.0574947052
 10
355.799861204
 20
166.9533463338
 10
355.2789365548
 20
165.8625062705
 10
354.6993052777
 20
164.7865754735
 10
354.0618180615
 20
163.7271330195
 10
353.3674105065
 20
162.6857337864
 10
352.6171017517
 20
161.6639061713
 10
351.8119929786
 20
160.663149847
 10
350.9532657954
 20
159.6849335615
 10
350.0421805026
 20
158.7306929821
 10
349.0800742435
 20
157.8018285884
 10
348.0683590417
 20
156.899703617
 10
347.0085197289
 20
156.0256420607
 10
345.9021117653
 20
155.1809267253
 10
344.7507589571
 20
154.3667973472
 10
343.5561510735
 20
153.5844487733
 10
342.3200413662
 20
152.8350292082
 10
341.0442439967
 20
152.1196385284
 10
339.7306313735
 20
151.4393266684
 10
338.3811314043
 20
150.7950920796
 10
336.9977246665
 20
150.1878802652
 10
335.5824415001
 20
149.6185823921
 10
334.1373590284
 20
149.0880339836
 10
332.6645981091
 20
148.5970136926
 10
331.1663202221
 20
148.1462421591
 10
329.6447242967
 20
147.7363809525
 10
328.1020434848
 20
147.3680316005
 10
326.5405418832
 20
147.0417347068
 10
324.9625112108
 20
146.7579691569
 10
323.3702674453
 20
146.5171514159
 10
321.7661474239
 20
146.3196349171
 10
320.152505414
 20
146.1657095432
 10
318.5317096578
 20
146.0556012009
 10
316.9061388965
 20
145.9894714894
 10
315.2781788793
 20
145.9674174631
 10
313.6502188622
 20
145.9894714894
 10
312.0246481008
 20
146.0556012009
 10
310.4038523446
 20
146.1657095432
 10
308.7902103347
 20
146.3196349171
 10
307.1860903133
 20
146.5171514159
 10
305.5938465478
 20
146.7579691569
 10
304.0158158754
 20
147.0417347068
 10
302.4543142738
 20
147.3680316005
 10
300.9116334619
 20
147.7363809525
 10
299.3900375365
 20
148.1462421591
 10
297.8917596495
 20
148.5970136926
 10
296.4189987303
 20
149.0880339836
 10
294.9739162585
 20
149.6185823921
 10
293.5586330921
 20
150.1878802652
 10
292.1752263543
 20
150.7950920796
 10
290.8257263851
 20
151.4393266684
 10
289.5121137619
 20
152.1196385284
 10
288.2363163924
 20
152.8350292082
 10
287.0002066851
 20
153.5844487733
 10
285.8055988015
 20
154.3667973472
 10
284.6542459934
 20
155.1809267253
 10
283.5478380297
 20
156.0256420607
 10
282.4879987169
 20
156.899703617
 10
281.4762835151
 20
157.8018285884
 10
280.514177256
 20
158.7306929821
 10
279.6030919632
 20
159.6849335615
 10
278.74436478
 20
160.663149847
 10
277.9392560069
 20
161.6639061713
 10
277.1889472521
 20
162.6857337864
 10
276.4945396972
 20
163.7271330195
 10
275.8570524809
 20
164.7865754735
 10
275.2774212038
 20
165.8625062705
 10
274.7564965546
 20
166.9533463338
 10
274.2950430621
 20
168.0574947052
 10
273.8937379729
 20
169.1733308945
 10
273.5531702576
 20
170.2992172584
 10
273.2738397462
 20
171.4335014034
 10
273.0561563948
 20
172.574518611
 10
272.9004396838
 20
173.7205942812
 10
272.8740252668
 20
173.9783959642
  0
LWPOLYLINE
  5
2E5
330
1F
100
AcDbEntity
  8
0
  6
Continuous
 62
     8
370
    18
100
AcDbPolyline
 90
       85
 70
   128
 43
0.0
 10
358.013143323
 20
176.8856439793
 10
358.0350792751
 20
175.9173089503
 10
358.0037034514
 20
174.7592758124
 10
357.9096220286
 20
173.6029422479
 10
357.7529730842
 20
172.4500053356
 10
357.533986522
 20
171.3021571695
 10
357.2529837352
 20
170.1610823751
 10
356.9103771339
 20
169.0284556369
 10
356.5066695407
 20
167.905939241
 10
356.0424534521
 20
166.7951806348
 10
355.5184101693
 20
165.6978100099
 10
354.935308798
 20
164.6154379089
 10
354.2940051198
 20
163.5496528622
 10
353.5954403365
 20
162.5020190563
 10
352.840639688
 20
161.4740740382
 10
352.0307109485
 20
160.4673264591
 10
351.1668428001
 20
159.4832538598
 10
350.2503030884
 20
158.5233005026
 10
349.2824369618
 20
157.5888752514
 10
348.2646648974
 20
156.6813495041
 10
347.1984806159
 20
155.8020551799
 10
346.0854488899
 20
154.9522827644
 10
344.9272032469
 20
154.133279416
 10
343.7254435721
 20
153.3462471348
 10
342.4819336135
 20
152.5923409994
 10
341.1984983934
 20
151.8726674709
 10
339.8770215301
 20
151.1882827696
 10
338.5194424731
 20
150.5401913242
 10
337.1277536568
 20
149.9293442984
 10
335.7039975765
 20
149.3566381944
 10
334.2502637906
 20
148.8229135375
 10
332.7686858539
 20
148.3289536421
 10
331.2614381863
 20
147.8754834625
 10
329.7307328815
 20
147.4631685287
 10
328.1788164608
 20
147.0926139697
 10
326.6079665755
 20
146.7643636256
 10
325.0204886643
 20
146.4788992488
 10
323.4187125701
 20
146.2366397978
 10
321.8049891201
 20
146.0379408217
 10
320.1816866761
 20
145.8830939386
 10
318.5511876582
 20
145.7723264077
 10
316.9158850486
 20
145.7058007956
 10
315.2781788793
 20
145.6836147379
 10
313.64047271
 20
145.7058007956
 10
312.0051701004
 20
145.7723264077
 10
310.3746710825
 20
145.8830939386
 10
308.7513686385
 20
146.0379408217
 10
307.1376451885
 20
146.2366397978
 10
305.5358690943
 20
146.4788992488
 10
303.9483911832
 20
146.7643636256
 10
302.3775412978
 20
147.0926139697
 10
300.8256248771
 20
147.4631685287
 10
299.2949195724
 20
147.8754834625
 10
297.7876719047
 20
148.3289536421
 10
296.306093968
 20
148.8229135375
 10
294.8523601821
 20
149.3566381944
 10
293.4286041018
 20
149.9293442984
 10
292.0369152855
 20
150.5401913242
 10
290.6793362285
 20
151.1882827696
 10
289.3578593652
 20
151.8726674709
 10
288.0744241452
 20
152.5923409994
 10
286.8309141866
 20
153.3462471348
 10
285.6291545117
 20
154.133279416
 10
284.4709088687
 20
154.9522827644
 10
283.3578771427
 20
155.8020551799
 10
282.2916928612
 20
156.6813495041
 10
281.2739207968
 20
157.5888752514
 10
280.3060546702
 20
158.5233005026
 10
279.3895149585
 20
159.4832538598
 10
278.5256468101
 20
160.4673264591
 10
277.7157180706
 20
161.4740740382
 10
276.9609174222
 20
162.5020190563
 10
276.2623526388
 20
163.5496528622
 10
275.6210489607
 20
164.6154379089
 10
275.0379475893
 20
165.6978100099
 10
274.5139043065
 20
166.7951806348
 10
274.0496882179
 20
167.905939241
 10
273.6459806247
 20
169.0284556369
 10
273.3033740235
 20
170.1610823751
 10
273.0223712366
 20
171.3021571695
 10
272.8033846745
 20
172.4500053356
 10
272.64673573
 20
173.6029422479
 10
272.5526543072
 20
174.7592758124
 10
272.5212784835
 20
175.9173089503
 10
272.5432144357
 20
176.8856439793
  0
LWPOLYLINE
  5
2E6
330
1F
100
AcDbEntity
  8
0
  6
Continuous
 62
     8
370
    18
100
AcDbPolyline
 90
       40
 70
   128
 43
0.0
 10
315.2781788793
 20
205.7805299236
 10
316.8228145766
 20
205.7585313227
 10
318.3649448691
 20
205.692571202
 10
319.9020684158
 20
205.582756549
 10
321.4316919969
 20
205.4292654834
 10
322.9513345571
 20
205.2323469684
 10
324.4585312308
 20
204.9923204064
 10
325.9508373395
 20
204.7095751214
 10
327.425832357
 20
204.3845697274
 10
328.8811238362
 20
204.0178313843
 10
330.3143512889
 20
203.6099549429
 10
331.723190015
 20
203.1616019804
 10
333.1053548729
 20
202.6734997269
 10
334.4586039862
 20
202.1464398861
 10
335.7807423798
 20
201.5812773509
 10
337.0696255404
 20
200.9789288171
 10
338.3231628948
 20
200.3403712962
 10
339.5393212009
 20
199.6666405307
 10
340.7161278454
 20
198.9588293145
 10
341.8516740437
 20
198.21808572
 10
342.9441179356
 20
197.4456112359
 10
343.9916875733
 20
196.6426588188
 10
344.9926837948
 20
195.8105308603
 10
345.9454829807
 20
194.950577075
 10
346.8485396872
 20
194.0641923113
 10
347.700389153
 20
193.1528142882
 10
348.4996496752
 20
192.2179212645
 10
349.2450248502
 20
191.2610296399
 10
349.9353056769
 20
190.2836914961
 10
350.5693725172
 20
189.2874920793
 10
351.1461969124
 20
188.2740472285
 10
351.6648432511
 20
187.2450007549
 10
352.1244702872
 20
186.2020217758
 10
352.5243325038
 20
185.1468020068
 10
352.8637813231
 20
184.0810530183
 10
353.1422661578
 20
183.0065034589
 10
353.3593353044
 20
181.9248962521
 10
353.5146366761
 20
180.8379857687
 10
353.6079183734
 20
179.7475349814
 10
353.639029093
 20
178.6553126054
  0
LWPOLYLINE
  5
2E7
330
1F
100
AcDbEntity
  8
0
  6
Continuous
 62
     8
370
    18
100
AcDbPolyline
 90
       40
 70
   128
 43
0.0
 10
276.9173286656
 20
178.6553126054
 10
276.9484393853
 20
179.7475349814
 10
277.0417210825
 20
180.8379857687
 10
277.1970224542
 20
181.9248962521
 10
277.4140916008
 20
183.0065034589
 10
277.6925764355
 20
184.0810530183
 10
278.0320252548
 20
185.1468020068
 10
278.4318874715
 20
186.2020217758
 10
278.8915145075
 20
187.2450007549
 10
279.4101608463
 20
188.2740472285
 10
279.9869852414
 20
189.2874920793
 10
280.6210520817
 20
190.2836914961
 10
281.3113329084
 20
191.2610296399
 10
282.0567080835
 20
192.2179212645
 10
282.8559686056
 20
193.1528142882
 10
283.7078180715
 20
194.0641923113
 10
284.6108747779
 20
194.9505770751
 10
285.5636739638
 20
195.8105308603
 10
286.5646701854
 20
196.6426588188
 10
287.612239823
 20
197.4456112359
 10
288.7046837149
 20
198.21808572
 10
289.8402299132
 20
198.9588293145
 10
291.0170365577
 20
199.6666405307
 10
292.2331948638
 20
200.3403712962
 10
293.4867322183
 20
200.9789288171
 10
294.7756153789
 20
201.5812773509
 10
296.0977537725
 20
202.1464398861
 10
297.4510028857
 20
202.6734997269
 10
298.8331677436
 20
203.1616019804
 10
300.2420064697
 20
203.6099549429
 10
301.6752339224
 20
204.0178313843
 10
303.1305254016
 20
204.3845697274
 10
304.6055204192
 20
204.7095751214
 10
306.0978265278
 20
204.9923204064
 10
307.6050232015
 20
205.2323469684
 10
309.1246657617
 20
205.4292654834
 10
310.6542893428
 20
205.582756549
 10
312.1914128896
 20
205.692571202
 10
313.7335431821
 20
205.7585313227
 10
315.2781788793
 20
205.7805299236
  0
LWPOLYLINE
  5
2E8
330
1F
100
AcDbEntity
  8
0
  6
Continuous
 62
     8
370
    18
100
AcDbPolyline
 90
       75
 70
   128
 43
0.0
 10
273.6036808538
 20
168.8070266337
 10
273.6936523296
 20
168.4685900927
 10
274.0330734027
 20
167.3464944254
 10
274.4330273556
 20
166.2344150952
 10
274.892927201
 20
165.1339842318
 10
275.4120979722
 20
164.0468168693
 10
275.9897777146
 20
162.9745085757
 10
276.6251186035
 20
161.9186331113
 10
277.3171881886
 20
160.8807401189
 10
278.0649707623
 20
159.8623528496
 10
278.8673688505
 20
158.8649659273
 10
279.7232048235
 20
157.8900431546
 10
280.6312226238
 20
156.9390153653
 10
281.5900896102
 20
156.0132783237
 10
282.5983985132
 20
155.1141906766
 10
283.6546695003
 20
154.2430719592
 10
284.7573523482
 20
153.4012006583
 10
285.9048287179
 20
152.589812336
 10
287.0954145295
 20
151.8100978167
 10
288.3273624341
 20
151.063201439
 10
289.5988643783
 20
150.3502193762
 10
290.9080542577
 20
149.6721980278
 10
292.2530106556
 20
149.0301324838
 10
293.6317596629
 20
148.4249650637
 10
295.0422777755
 20
147.8575839343
 10
296.4824948634
 20
147.3288218056
 10
297.9502972096
 20
146.839454709
 10
299.4435306115
 20
146.390200858
 10
300.9600035434
 20
145.9817195948
 10
302.497490372
 20
145.6146104219
 10
304.0537346235
 20
145.2894121226
 10
305.6264522947
 20
145.0066019703
 10
307.2133352057
 20
144.7665950278
 10
308.8120543868
 20
144.5697435386
 10
310.4202634974
 20
144.4163364092
 10
312.0356022686
 20
144.3065987857
 10
313.6556999682
 20
144.2406917234
 10
315.2781788793
 20
144.2187119498
 10
316.9006577904
 20
144.2406917234
 10
318.52075549
 20
144.3065987857
 10
320.1360942613
 20
144.4163364092
 10
321.7443033718
 20
144.5697435386
 10
323.343022553
 20
144.7665950278
 10
324.9299054639
 20
145.0066019703
 10
326.5026231351
 20
145.2894121226
 10
328.0588673866
 20
145.6146104219
 10
329.5963542152
 20
145.9817195948
 10
331.1128271471
 20
146.390200858
 10
332.6060605491
 20
146.839454709
 10
334.0738628952
 20
147.3288218056
 10
335.5140799831
 20
147.8575839343
 10
336.9245980957
 20
148.4249650637
 10
338.3033471031
 20
149.0301324838
 10
339.6483035009
 20
149.6721980278
 10
340.9574933803
 20
150.3502193762
 10
342.2289953245
 20
151.063201439
 10
343.4609432291
 20
151.8100978167
 10
344.6515290407
 20
152.589812336
 10
345.7990054104
 20
153.4012006583
 10
346.9016882583
 20
154.2430719592
 10
347.9579592455
 20
155.1141906766
 10
348.9662681484
 20
156.0132783237
 10
349.9251351348
 20
156.9390153653
 10
350.8331529352
 20
157.8900431546
 10
351.6889889081
 20
158.8649659273
 10
352.4913869963
 20
159.8623528496
 10
353.23916957
 20
160.8807401189
 10
353.9312391551
 20
161.9186331113
 10
354.566580044
 20
162.9745085757
 10
355.1442597864
 20
164.0468168693
 10
355.6634305577
 20
165.1339842318
 10
356.123330403
 20
166.2344150952
 10
356.523284356
 20
167.3464944254
 10
356.862705429
 20
168.4685900927
 10
356.9526769048
 20
168.8070266337
  0
LWPOLYLINE
  5
2E9
330
1F
100
AcDbEntity
  8
0
  6
Continuous
 62
     8
370
    18
100
AcDbPolyline
 90
       49
 70
   128
 43
0.0
 10
315.2781788793
 20
202.3987106083
 10
316.7973434207
 20
202.3766504157
 10
318.3139463071
 20
202.3105070363
 10
319.8254302028
 20
202.2003920028
 10
321.3292464041
 20
202.0464909941
 10
322.8228591366
 20
201.8490635222
 10
324.3037498314
 20
201.6084424943
 10
325.7694213718
 20
201.325033652
 10
327.217402304
 20
200.9993148867
 10
328.6452510046
 20
200.6318354339
 10
330.0505597976
 20
200.2232149471
 10
331.4309590145
 20
199.7741424529
 10
332.7841209899
 20
199.2853751891
 10
334.1077639867
 20
198.7577373279
 10
335.3996560433
 20
198.192118586
 10
336.6576187375
 20
197.5894727247
 10
337.8795308595
 20
196.9508159412
 10
339.0633319891
 20
196.2772251553
 10
340.2070259698
 20
195.5698361935
 10
341.3086842748
 20
194.8298418735
 10
342.366449259
 20
194.0584899933
 10
343.3785372913
 20
193.2570812265
 10
344.3432417623
 20
192.4269669296
 10
345.2589359622
 20
191.5695468632
 10
346.1240758232
 20
190.6862668314
 10
346.9372025239
 20
189.7786162443
 10
347.6969449487
 20
188.8481256059
 10
348.402022
 20
187.8963639341
 10
349.0512447584
 20
186.9249361143
 10
349.6435184874
 20
185.9354801936
 10
350.1778444796
 20
184.9296646185
 10
350.6533217405
 20
183.9091854216
 10
351.0691485078
 20
182.8757633617
 10
351.4246236036
 20
181.8311410222
 10
351.7191476163
 20
180.7770798727
 10
351.9522239119
 20
179.7153572986
 10
352.1234594711
 20
178.6477636045
 10
352.2325655519
 20
177.5760989948
 10
352.2793581769
 20
176.5021705385
 10
352.2637584429
 20
175.427789122
 10
352.1857926548
 20
174.3547663953
 10
352.0455922805
 20
173.2849117175
 10
351.8433937296
 20
172.2200291056
 10
351.5795379544
 20
171.1619141926
 10
351.2544698757
 20
170.1123511997
 10
350.8687376316
 20
169.0731099274
 10
350.422991654
 20
168.0459427717
 10
349.9179835715
 20
167.0325817687
 10
349.836998944
 20
166.881553969
  0
LWPOLYLINE
  5
2EA
330
1F
100
AcDbEntity
  8
0
  6
Continuous
 62
     8
370
    18
100
AcDbPolyline
 90
       49
 70
   128
 43
0.0
 10
280.7193588146
 20
166.881553969
 10
280.6383741871
 20
167.0325817687
 10
280.1333661046
 20
168.0459427717
 10
279.687620127
 20
169.0731099274
 10
279.3018878829
 20
170.1123511997
 10
278.9768198042
 20
171.1619141926
 10
278.7129640291
 20
172.2200291056
 10
278.5107654781
 20
173.2849117175
 10
278.3705651038
 20
174.3547663953
 10
278.2925993157
 20
175.427789122
 10
278.2769995818
 20
176.5021705385
 10
278.3237922067
 20
177.5760989948
 10
278.4328982875
 20
178.6477636045
 10
278.6041338467
 20
179.7153572986
 10
278.8372101423
 20
180.7770798727
 10
279.1317341551
 20
181.8311410222
 10
279.4872092508
 20
182.8757633617
 10
279.9030360181
 20
183.9091854216
 10
280.378513279
 20
184.9296646185
 10
280.9128392712
 20
185.9354801936
 10
281.5051130003
 20
186.9249361143
 10
282.1543357587
 20
187.8963639341
 10
282.85941281
 20
188.8481256059
 10
283.6191552348
 20
189.7786162443
 10
284.4322819355
 20
190.6862668314
 10
285.2974217965
 20
191.5695468632
 10
286.2131159963
 20
192.4269669296
 10
287.1778204673
 20
193.2570812265
 10
288.1899084996
 20
194.0584899933
 10
289.2476734838
 20
194.8298418735
 10
290.3493317888
 20
195.5698361935
 10
291.4930257695
 20
196.2772251553
 10
292.6768268991
 20
196.9508159412
 10
293.8987390211
 20
197.5894727247
 10
295.1567017153
 20
198.192118586
 10
296.4485937719
 20
198.7577373279
 10
297.7722367687
 20
199.2853751891
 10
299.1253987441
 20
199.7741424529
 10
300.505797961
 20
200.2232149471
 10
301.9111067541
 20
200.6318354339
 10
303.3389554546
 20
200.9993148867
 10
304.7869363868
 20
201.325033652
 10
306.2526079272
 20
201.6084424943
 10
307.733498622
 20
201.8490635222
 10
309.2271113546
 20
202.0464909941
 10
310.7309275558
 20
202.2003920028
 10
312.2424114515
 20
202.3105070363
 10
313.7590143379
 20
202.3766504157
 10
315.2781788793
 20
202.3987106083
  0
LWPOLYLINE
  5
2EB
330
1F
100
AcDbEntity
  8
0
  6
Continuous
 62
     8
370
    18
100
AcDbPolyline
 90
        3
 70
   128
 43
0.0
 10
333.7584843861
 20
201.7519534635
 10
334.2384847966
 20
201.587683181
 10
335.4858273951
 20
201.1360259637
  0
LWPOLYLINE
  5
2EC
330
1F
100
AcDbEntity
  8
0
  6
Continuous
 62
     8
370
    18
100
AcDbPolyline
 90
       90
 70
   128
 43
0.0
 10
358.030108622
 20
177.3929829493
 10
358.0928909569
 20
176.9195863659
 10
358.2018519955
 20
175.7651268312
 10
358.2485778116
 20
174.6085709873
 10
358.2330006573
 20
173.4515957294
 10
358.1551431179
 20
172.2958785612
 10
358.0151180795
 20
171.143095162
 10
357.8131285649
 20
169.9949169576
 10
357.5494674396
 20
168.8530086966
 10
357.2245169871
 20
167.7190260367
 10
356.8387483545
 20
166.5946131445
 10
356.3927208693
 20
165.4814003112
 10
355.8870812289
 20
164.3810015888
 10
355.3225625623
 20
163.2950124504
 10
354.6999833676
 20
162.2250074765
 10
354.0202463252
 20
161.1725380718
 10
353.2843369888
 20
160.1391302165
 10
352.4933223565
 20
159.1262822532
 10
351.648349324
 20
158.1354627144
 10
350.7506430214
 20
157.168108194
 10
349.8015050369
 20
156.2256212634
 10
348.80231153
 20
155.3093684385
 10
347.7545112357
 20
154.4206781985
 10
346.6596233643
 20
153.5608390591
 10
345.5192353984
 20
152.731097705
 10
344.3350007917
 20
151.9326571817
 10
343.108636571
 20
151.1666751517
 10
341.8419208474
 20
150.4342622157
 10
340.5366902373
 20
149.7364803024
 10
339.1948372006
 20
149.074341129
 10
337.8183072957
 20
148.4488047338
 10
336.4090963595
 20
147.860778085
 10
334.9692476131
 20
147.3111137648
 10
333.5008486995
 20
146.8006087341
 10
332.0060286568
 20
146.3300031763
 10
330.4869548311
 20
145.8999794244
 10
328.9458297342
 20
145.5111609719
 10
327.3848878502
 20
145.1641115683
 10
325.8063923957
 20
144.859334402
 10
324.212632038
 20
144.5972713708
 10
322.6059175774
 20
144.378302441
 10
320.9885785963
 20
144.2027450968
 10
319.3629600814
 20
144.0708538793
 10
317.7314190244
 20
143.9828200183
 10
316.0963210036
 20
143.9387711545
 10
314.460036755
 20
143.9387711545
 10
312.8249387343
 20
143.9828200183
 10
311.1933976772
 20
144.0708538793
 10
309.5677791624
 20
144.2027450968
 10
307.9504401812
 20
144.378302441
 10
306.3437257206
 20
144.5972713708
 10
304.7499653629
 20
144.859334402
 10
303.1714699084
 20
145.1641115683
 10
301.6105280244
 20
145.5111609719
 10
300.0694029275
 20
145.8999794244
 10
298.5503291018
 20
146.3300031763
 10
297.0555090591
 20
146.8006087341
 10
295.5871101455
 20
147.3111137648
 10
294.1472613991
 20
147.860778085
 10
292.7380504629
 20
148.4488047338
 10
291.361520558
 20
149.074341129
 10
290.0196675213
 20
149.7364803024
 10
288.7144369113
 20
150.4342622157
 10
287.4477211876
 20
151.1666751517
 10
286.2213569669
 20
151.9326571817
 10
285.0371223602
 20
152.731097705
 10
283.8967343943
 20
153.5608390591
 10
282.8018465229
 20
154.4206781985
 10
281.7540462286
 20
155.3093684385
 10
280.7548527217
 20
156.2256212634
 10
279.8057147373
 20
157.168108194
 10
278.9080084346
 20
158.1354627144
 10
278.0630354021
 20
159.1262822532
 10
277.2720207699
 20
160.1391302165
 10
276.5361114334
 20
161.1725380718
 10
275.856374391
 20
162.2250074765
 10
275.2337951964
 20
163.2950124504
 10
274.6692765297
 20
164.3810015888
 10
274.1636368893
 20
165.4814003112
 10
273.7176094041
 20
166.5946131445
 10
273.3318407715
 20
167.7190260367
 10
273.006890319
 20
168.8530086966
 10
272.7432291937
 20
169.9949169576
 10
272.5412396791
 20
171.143095162
 10
272.4012146407
 20
172.2958785612
 10
272.3233571013
 20
173.4515957294
 10
272.307779947
 20
174.6085709873
 10
272.3545057631
 20
175.7651268312
 10
272.4634668017
 20
176.9195863659
 10
272.5262491366
 20
177.3929829493
  0
LWPOLYLINE
  5
2ED
330
1F
100
AcDbEntity
  8
0
  6
Continuous
 62
     8
370
    18
100
AcDbPolyline
 90
        3
 70
   128
 43
0.0
 10
295.0705303635
 20
201.1360259637
 10
296.317872962
 20
201.587683181
 10
296.7978733726
 20
201.7519534635
  0
LWPOLYLINE
  5
2EE
330
1F
100
AcDbEntity
  8
0
  6
Continuous
 62
     8
370
    18
100
AcDbPolyline
 90
       60
 70
   128
 43
0.0
 10
353.4423579052
 20
159.9936768564
 10
353.4341746772
 20
159.9827049746
 10
352.6400415029
 20
158.9658639005
 10
351.7917371995
 20
157.9711380972
 10
350.8904917274
 20
156.999969822
 10
349.9376118061
 20
156.0537671761
 10
348.9344790206
 20
155.1339020628
 10
347.8825478175
 20
154.2417081987
 10
346.7833433964
 20
153.3784791794
 10
345.6384594987
 20
152.5454666047
 10
344.4495560966
 20
151.7438782631
 10
343.2183569863
 20
150.9748763809
 10
341.9466472889
 20
150.2395759376
 10
340.6362708618
 20
149.5390430483
 10
339.2891276256
 20
148.8742934189
 10
337.9071708091
 20
148.2462908727
 10
336.4924041178
 20
147.6559459534
 10
335.0468788279
 20
147.1041146046
 10
333.572690813
 20
146.5915969292
 10
332.0719775048
 20
146.1191360286
 10
330.5469147941
 20
145.6874169261
 10
328.999713876
 20
145.2970655731
 10
327.4326180439
 20
144.9486479417
 10
325.8478994371
 20
144.6426692042
 10
324.2478557459
 20
144.3795730005
 10
322.6348068807
 20
144.1597407949
 10
321.0110916083
 20
143.9834913231
 10
319.3790641604
 20
143.85108013
 10
317.741090821
 20
143.7626991993
 10
316.0995464947
 20
143.7184766747
 10
314.4568112639
 20
143.7184766747
 10
312.8152669376
 20
143.7626991993
 10
311.1772935982
 20
143.85108013
 10
309.5452661503
 20
143.9834913231
 10
307.9215508779
 20
144.1597407949
 10
306.3085020128
 20
144.3795730005
 10
304.7084583216
 20
144.6426692042
 10
303.1237397147
 20
144.9486479417
 10
301.5566438827
 20
145.2970655731
 10
300.0094429646
 20
145.6874169261
 10
298.4843802538
 20
146.1191360286
 10
296.9836669456
 20
146.5915969292
 10
295.5094789307
 20
147.1041146046
 10
294.0639536409
 20
147.6559459534
 10
292.6491869495
 20
148.2462908727
 10
291.2672301331
 20
148.8742934189
 10
289.9200868969
 20
149.5390430483
 10
288.6097104698
 20
150.2395759376
 10
287.3380007723
 20
150.9748763809
 10
286.106801662
 20
151.7438782631
 10
284.9178982599
 20
152.5454666047
 10
283.7730143622
 20
153.3784791794
 10
282.6738099411
 20
154.2417081987
 10
281.621878738
 20
155.1339020628
 10
280.6187459525
 20
156.0537671761
 10
279.6658660312
 20
156.999969822
 10
278.7646205591
 20
157.9711380972
 10
277.9163162557
 20
158.9658639005
 10
277.1221830814
 20
159.9827049746
 10
277.1139998534
 20
159.9936768564
  0
LWPOLYLINE
  5
2EF
330
1F
100
AcDbEntity
  8
0
  6
Continuous
 62
     8
370
    18
100
AcDbPolyline
 90
       59
 70
   128
 43
0.0
 10
277.7824189483
 20
159.0970343174
 10
278.041413775
 20
158.7549942449
 10
278.8443198034
 20
157.7569759491
 10
279.7006975441
 20
156.7814360234
 10
280.6092901448
 20
155.8298062073
 10
281.5687641204
 20
154.9034831486
 10
282.5777113107
 20
154.0038263543
 10
283.6346509465
 20
153.1321561947
 10
284.7380318231
 20
152.289751966
 10
285.886234577
 20
151.4778500126
 10
287.0775740622
 20
150.6976419125
 10
288.3103018238
 20
149.9502727287
 10
289.5826086639
 20
149.2368393286
 10
290.8926272966
 20
148.558388774
 10
292.2384350889
 20
147.9159167848
 10
293.6180568824
 20
147.3103662771
 10
295.0294678919
 20
146.7426259797
 10
296.470596677
 20
146.21352913
 10
297.9393281825
 20
145.7238522505
 10
299.4335068424
 20
145.2743140095
 10
300.9509397435
 20
144.8655741664
 10
302.4893998437
 20
144.4982326032
 10
304.0466292407
 20
144.1728284444
 10
305.6203424856
 20
143.8898392655
 10
307.2082299372
 20
143.649680392
 10
308.8079611517
 20
143.4527042903
 10
310.4171883029
 20
143.29920005
 10
312.0335496282
 20
143.1893929596
 10
313.6546728943
 20
143.1234441763
 10
315.2781788793
 20
143.1014504889
 10
316.9016848643
 20
143.1234441763
 10
318.5228081304
 20
143.1893929596
 10
320.1391694557
 20
143.29920005
 10
321.748396607
 20
143.4527042903
 10
323.3481278215
 20
143.649680392
 10
324.9360152731
 20
143.8898392655
 10
326.509728518
 20
144.1728284444
 10
328.066957915
 20
144.4982326032
 10
329.6054180152
 20
144.8655741664
 10
331.1228509162
 20
145.2743140095
 10
332.6170295761
 20
145.7238522505
 10
334.0857610816
 20
146.21352913
 10
335.5268898667
 20
146.7426259797
 10
336.9383008762
 20
147.3103662771
 10
338.3179226697
 20
147.9159167848
 10
339.6637304621
 20
148.558388774
 10
340.9737490948
 20
149.2368393286
 10
342.2460559348
 20
149.9502727287
 10
343.4787836964
 20
150.6976419125
 10
344.6701231816
 20
151.4778500126
 10
345.8183259355
 20
152.289751966
 10
346.9217068121
 20
153.1321561947
 10
347.9786464479
 20
154.0038263543
 10
348.9875936382
 20
154.9034831486
 10
349.9470676139
 20
155.8298062073
 10
350.8556602145
 20
156.7814360234
 10
351.7120379552
 20
157.7569759491
 10
352.5149439836
 20
158.7549942449
 10
352.7739388103
 20
159.0970343174
  0
LINE
  5
2F0
330
1F
100
AcDbEntity
  8
0
  6
Continuous
 62
     8
370
    18
100
AcDbLine
 10
289.1900695044
 20
197.8643945053
 30
0.0
 11
288.2895330921
 21
197.3560229076
 31
0.0
  0
LWPOLYLINE
  5
2F1
330
1F
100
AcDbEntity
  8
0
  6
Continuous
 62
     8
370
    18
100
AcDbPolyline
 90
       79
 70
   128
 43
0.0
 10
272.8789341416
 20
171.6644439547
 10
273.0193578728
 20
170.6553126251
 10
273.2372309457
 20
169.5133009662
 10
273.516804907
 20
168.378028238
 10
273.8576694435
 20
167.2511606101
 10
274.2593242893
 20
166.1343519158
 10
274.7211799608
 20
165.0292412261
 10
275.2425586208
 20
163.9374504433
 10
275.8226950745
 20
162.8605819208
 10
276.4607378915
 20
161.8002161118
 10
277.155750656
 20
160.7579092492
 10
277.9067133409
 20
159.7351910622
 10
278.712523805
 20
158.7335625307
 10
279.5719994102
 20
157.7544936827
 10
280.4838787576
 20
156.7994214368
 10
281.4468235386
 20
155.8697474931
 10
282.4594204988
 20
154.9668362764
 10
283.5201835126
 20
154.0920129335
 10
284.6275557639
 20
153.2465613881
 10
285.7799120313
 20
152.431722457
 10
286.9755610731
 20
151.6486920288
 10
288.2127481095
 20
150.8986193085
 10
289.4896573977
 20
150.1826051314
 10
290.8044148974
 20
149.5017003469
 10
292.1550910207
 20
148.8569042767
 10
293.539703464
 20
148.2491632479
 10
294.9562201177
 20
147.6793692044
 10
296.4025620483
 20
147.1483583975
 10
297.8766065494
 20
146.6569101587
 10
299.3761902577
 20
146.2057457561
 10
300.899112327
 20
145.7955273357
 10
302.4431376594
 20
145.4268569496
 10
304.0060001847
 20
145.1002756725
 10
305.5854061867
 20
144.8162628072
 10
307.1790376692
 20
144.575235182
 10
308.7845557582
 20
144.3775465381
 10
310.3996041347
 20
144.2234870109
 10
312.0218124924
 20
144.1132827039
 10
313.6488000168
 20
144.0470953571
 10
315.2781788793
 20
144.0250221097
 10
316.9075577419
 20
144.0470953571
 10
318.5345452662
 20
144.1132827039
 10
320.1567536239
 20
144.2234870109
 10
321.7718020004
 20
144.3775465381
 10
323.3773200895
 20
144.575235182
 10
324.970951572
 20
144.8162628072
 10
326.5503575739
 20
145.1002756725
 10
328.1132200992
 20
145.4268569496
 10
329.6572454316
 20
145.7955273357
 10
331.180167501
 20
146.2057457561
 10
332.6797512092
 20
146.6569101587
 10
334.1537957103
 20
147.1483583975
 10
335.6001376409
 20
147.6793692044
 10
337.0166542946
 20
148.2491632479
 10
338.4012667379
 20
148.8569042767
 10
339.7519428612
 20
149.5017003469
 10
341.0667003609
 20
150.1826051314
 10
342.3436096492
 20
150.8986193085
 10
343.5807966855
 20
151.6486920288
 10
344.7764457273
 20
152.431722457
 10
345.9288019947
 20
153.2465613881
 10
347.0361742461
 20
154.0920129335
 10
348.0969372598
 20
154.9668362764
 10
349.10953422
 20
155.8697474931
 10
350.072479001
 20
156.7994214368
 10
350.9843583484
 20
157.7544936827
 10
351.8438339537
 20
158.7335625307
 10
352.6496444177
 20
159.7351910622
 10
353.4006071027
 20
160.7579092492
 10
354.0956198672
 20
161.8002161118
 10
354.7336626841
 20
162.8605819208
 10
355.3137991378
 20
163.9374504433
 10
355.8351777979
 20
165.0292412261
 10
356.2970334693
 20
166.1343519158
 10
356.6986883152
 20
167.2511606101
 10
357.0395528516
 20
168.378028238
 10
357.3191268129
 20
169.5133009662
 10
357.5369998858
 20
170.6553126251
 10
357.677423617
 20
171.6644439547
  0
LINE
  5
2F2
330
1F
100
AcDbEntity
  8
0
  6
Continuous
 62
     8
370
    18
100
AcDbLine
 10
342.2668246665
 20
197.3560229076
 30
0.0
 11
341.3662882542
 21
197.8643945053
 31
0.0
  0
LWPOLYLINE
  5
2F3
330
1F
100
AcDbEntity
  8
0
  6
Continuous
 62
     8
370
    18
100
AcDbPolyline
 90
       61
 70
   128
 43
0.0
 10
353.4624267563
 20
160.0206305831
 10
353.23916957
 20
159.6969127748
 10
352.4913869963
 20
158.6785255056
 10
351.6889889081
 20
157.6811385832
 10
350.8331529351
 20
156.7062158105
 10
349.9251351348
 20
155.7551880212
 10
348.9662681484
 20
154.8294509796
 10
347.9579592455
 20
153.9303633326
 10
346.9016882583
 20
153.0592446152
 10
345.7990054104
 20
152.2173733142
 10
344.6515290407
 20
151.405984992
 10
343.4609432291
 20
150.6262704727
 10
342.2289953245
 20
149.8793740949
 10
340.9574933803
 20
149.1663920321
 10
339.6483035009
 20
148.4883706838
 10
338.3033471031
 20
147.8463051397
 10
336.9245980957
 20
147.2411377197
 10
335.5140799831
 20
146.6737565903
 10
334.0738628952
 20
146.1449944615
 10
332.606060549
 20
145.6556273649
 10
331.1128271471
 20
145.206373514
 10
329.5963542152
 20
144.7978922507
 10
328.0588673866
 20
144.4307830778
 10
326.5026231351
 20
144.1055847785
 10
324.9299054639
 20
143.8227746262
 10
323.3430225529
 20
143.5827676838
 10
321.7443033718
 20
143.3859161945
 10
320.1360942612
 20
143.2325090651
 10
318.52075549
 20
143.1227714417
 10
316.9006577904
 20
143.0568643793
 10
315.2781788793
 20
143.0348846057
 10
313.6556999682
 20
143.0568643793
 10
312.0356022686
 20
143.1227714417
 10
310.4202634974
 20
143.2325090651
 10
308.8120543868
 20
143.3859161945
 10
307.2133352057
 20
143.5827676838
 10
305.6264522947
 20
143.8227746262
 10
304.0537346235
 20
144.1055847785
 10
302.497490372
 20
144.4307830778
 10
300.9600035434
 20
144.7978922507
 10
299.4435306115
 20
145.206373514
 10
297.9502972096
 20
145.6556273649
 10
296.4824948634
 20
146.1449944615
 10
295.0422777755
 20
146.6737565903
 10
293.6317596629
 20
147.2411377197
 10
292.2530106556
 20
147.8463051397
 10
290.9080542577
 20
148.4883706838
 10
289.5988643783
 20
149.1663920321
 10
288.3273624341
 20
149.8793740949
 10
287.0954145295
 20
150.6262704727
 10
285.9048287179
 20
151.405984992
 10
284.7573523482
 20
152.2173733142
 10
283.6546695003
 20
153.0592446152
 10
282.5983985132
 20
153.9303633326
 10
281.5900896102
 20
154.8294509796
 10
280.6312226238
 20
155.7551880212
 10
279.7232048235
 20
156.7062158105
 10
278.8673688505
 20
157.6811385832
 10
278.0649707623
 20
158.6785255056
 10
277.3171881886
 20
159.6969127748
 10
277.0939310023
 20
160.0206305831
  0
LWPOLYLINE
  5
2F4
330
1F
100
AcDbEntity
  8
0
  6
Continuous
 62
     8
370
    18
100
AcDbPolyline
 90
       71
 70
   128
 43
0.0
 10
274.155722859
 20
164.9950253585
 10
274.4330273557
 20
164.2434826527
 10
274.892927201
 20
163.1430517893
 10
275.4120979722
 20
162.0558844268
 10
275.9897777146
 20
160.9835761332
 10
276.6251186036
 20
159.9277006688
 10
277.3171881887
 20
158.8898076764
 10
278.0649707623
 20
157.8714204071
 10
278.8673688506
 20
156.8740334848
 10
279.7232048235
 20
155.8991107121
 10
280.6312226239
 20
154.9480829228
 10
281.5900896103
 20
154.0223458812
 10
282.5983985132
 20
153.1232582341
 10
283.6546695003
 20
152.2521395167
 10
284.7573523483
 20
151.4102682158
 10
285.9048287179
 20
150.5988798935
 10
287.0954145295
 20
149.8191653743
 10
288.3273624341
 20
149.0722689965
 10
289.5988643783
 20
148.3592869337
 10
290.9080542577
 20
147.6812655853
 10
292.2530106556
 20
147.0392000413
 10
293.631759663
 20
146.4340326212
 10
295.0422777755
 20
145.8666514918
 10
296.4824948635
 20
145.3378893631
 10
297.9502972096
 20
144.8485222665
 10
299.4435306116
 20
144.3992684155
 10
300.9600035434
 20
143.9907871523
 10
302.4974903721
 20
143.6236779794
 10
304.0537346235
 20
143.2984796801
 10
305.6264522947
 20
143.0156695278
 10
307.2133352057
 20
142.7756625854
 10
308.8120543868
 20
142.5788110961
 10
310.4202634974
 20
142.4254039667
 10
312.0356022686
 20
142.3156663432
 10
313.6556999682
 20
142.2497592809
 10
315.2781788793
 20
142.2277795073
 10
316.9006577904
 20
142.2497592809
 10
318.52075549
 20
142.3156663432
 10
320.1360942612
 20
142.4254039667
 10
321.7443033718
 20
142.5788110961
 10
323.3430225529
 20
142.7756625854
 10
324.9299054639
 20
143.0156695278
 10
326.5026231351
 20
143.2984796801
 10
328.0588673866
 20
143.6236779794
 10
329.5963542152
 20
143.9907871523
 10
331.1128271471
 20
144.3992684155
 10
332.606060549
 20
144.8485222665
 10
334.0738628952
 20
145.3378893631
 10
335.5140799831
 20
145.8666514918
 10
336.9245980957
 20
146.4340326212
 10
338.303347103
 20
147.0392000413
 10
339.6483035009
 20
147.6812655853
 10
340.9574933803
 20
148.3592869337
 10
342.2289953245
 20
149.0722689965
 10
343.4609432291
 20
149.8191653743
 10
344.6515290407
 20
150.5988798935
 10
345.7990054103
 20
151.4102682158
 10
346.9016882583
 20
152.2521395167
 10
347.9579592454
 20
153.1232582341
 10
348.9662681484
 20
154.0223458812
 10
349.9251351348
 20
154.9480829228
 10
350.8331529351
 20
155.8991107121
 10
351.6889889081
 20
156.8740334848
 10
352.4913869963
 20
157.8714204071
 10
353.23916957
 20
158.8898076764
 10
353.931239155
 20
159.9277006688
 10
354.566580044
 20
160.9835761332
 10
355.1442597864
 20
162.0558844268
 10
355.6634305576
 20
163.1430517893
 10
356.1233304029
 20
164.2434826527
 10
356.4006348996
 20
164.9950253585
  0
LINE
  5
2F5
330
1F
100
AcDbEntity
  8
0
  6
Continuous
 62
     8
370
    18
100
AcDbLine
 10
350.2858596014
 20
189.0479976823
 30
0.0
 11
350.5002514191
 21
188.8256831629
 31
0.0
  0
LWPOLYLINE
  5
2F6
330
1F
100
AcDbEntity
  8
0
  6
Continuous
 62
     8
370
    18
100
AcDbPolyline
 90
       75
 70
   128
 43
0.0
 10
357.1698539312
 20
166.9284009528
 10
357.003187501
 20
166.2831320958
 10
356.6626197857
 20
165.1572457319
 10
356.2613146965
 20
164.0414095425
 10
355.7998612039
 20
162.9372611712
 10
355.2789365547
 20
161.8464211079
 10
354.6993052776
 20
160.7704903108
 10
354.0618180614
 20
159.7110478568
 10
353.3674105064
 20
158.6696486238
 10
352.6171017517
 20
157.6478210087
 10
351.8119929786
 20
156.6470646844
 10
350.9532657953
 20
155.6688483989
 10
350.0421805025
 20
154.7146078195
 10
349.0800742434
 20
153.7857434258
 10
348.0683590417
 20
152.8836184544
 10
347.0085197288
 20
152.0095568981
 10
345.9021117652
 20
151.1648415627
 10
344.7507589571
 20
150.3507121846
 10
343.5561510734
 20
149.5683636107
 10
342.3200413662
 20
148.8189440456
 10
341.0442439966
 20
148.1035533658
 10
339.7306313735
 20
147.4232415058
 10
338.3811314043
 20
146.779006917
 10
336.9977246664
 20
146.1717951026
 10
335.5824415
 20
145.6024972295
 10
334.1373590283
 20
145.071948821
 10
332.6645981091
 20
144.58092853
 10
331.1663202221
 20
144.1301569965
 10
329.6447242967
 20
143.7202957899
 10
328.1020434848
 20
143.3519464379
 10
326.5405418832
 20
143.0256495442
 10
324.9625112108
 20
142.7418839943
 10
323.3702674453
 20
142.5010662533
 10
321.7661474239
 20
142.3035497545
 10
320.152505414
 20
142.1496243807
 10
318.5317096578
 20
142.0395160384
 10
316.9061388965
 20
141.9733863268
 10
315.2781788793
 20
141.9513323005
 10
313.6502188622
 20
141.9733863268
 10
312.0246481008
 20
142.0395160384
 10
310.4038523446
 20
142.1496243807
 10
308.7902103347
 20
142.3035497545
 10
307.1860903133
 20
142.5010662533
 10
305.5938465478
 20
142.7418839943
 10
304.0158158754
 20
143.0256495442
 10
302.4543142738
 20
143.3519464379
 10
300.9116334619
 20
143.7202957899
 10
299.3900375365
 20
144.1301569965
 10
297.8917596495
 20
144.58092853
 10
296.4189987303
 20
145.071948821
 10
294.9739162586
 20
145.6024972295
 10
293.5586330922
 20
146.1717951026
 10
292.1752263543
 20
146.779006917
 10
290.8257263852
 20
147.4232415058
 10
289.512113762
 20
148.1035533658
 10
288.2363163925
 20
148.8189440456
 10
287.0002066852
 20
149.5683636107
 10
285.8055988016
 20
150.3507121846
 10
284.6542459934
 20
151.1648415627
 10
283.5478380298
 20
152.0095568981
 10
282.4879987169
 20
152.8836184544
 10
281.4762835152
 20
153.7857434258
 10
280.5141772561
 20
154.7146078195
 10
279.6030919633
 20
155.6688483989
 10
278.74436478
 20
156.6470646844
 10
277.939256007
 20
157.6478210087
 10
277.1889472522
 20
158.6696486238
 10
276.4945396972
 20
159.7110478568
 10
275.857052481
 20
160.7704903108
 10
275.2774212039
 20
161.8464211079
 10
274.7564965547
 20
162.9372611712
 10
274.2950430622
 20
164.0414095425
 10
273.893737973
 20
165.1572457319
 10
273.5531702576
 20
166.2831320958
 10
273.3865038274
 20
166.9284009528
  0
LINE
  5
2F7
330
1F
100
AcDbEntity
  8
0
  6
Continuous
 62
     8
370
    18
100
AcDbLine
 10
349.8963048739
 20
189.645770613
 30
0.0
 11
350.1256852567
 21
189.4198400391
 31
0.0
  0
LWPOLYLINE
  5
2F8
330
1F
100
AcDbEntity
  8
0
  6
Continuous
 62
     8
370
    18
100
AcDbPolyline
 90
       79
 70
   128
 43
0.0
 10
357.8993179294
 20
169.4938354183
 10
357.752973084
 20
168.433920173
 10
357.5339865219
 20
167.2860720069
 10
357.252983735
 20
166.1449972125
 10
356.9103771338
 20
165.0123704743
 10
356.5066695406
 20
163.8898540784
 10
356.042453452
 20
162.7790954722
 10
355.5184101692
 20
161.6817248473
 10
354.9353087978
 20
160.5993527463
 10
354.2940051197
 20
159.5335676996
 10
353.5954403363
 20
158.4859338937
 10
352.8406396879
 20
157.4579888757
 10
352.0307109484
 20
156.4512412965
 10
351.1668428
 20
155.4671686973
 10
350.2503030883
 20
154.50721534
 10
349.2824369617
 20
153.5727900888
 10
348.2646648973
 20
152.6652643415
 10
347.1984806159
 20
151.7859700173
 10
346.0854488898
 20
150.9361976019
 10
344.9272032468
 20
150.1171942534
 10
343.725443572
 20
149.3301619723
 10
342.4819336134
 20
148.5762558369
 10
341.1984983933
 20
147.8565823084
 10
339.8770215301
 20
147.172197607
 10
338.519442473
 20
146.5241061617
 10
337.1277536568
 20
145.9132591359
 10
335.7039975765
 20
145.3405530319
 10
334.2502637906
 20
144.806828375
 10
332.7686858538
 20
144.3128684795
 10
331.2614381862
 20
143.8593982999
 10
329.7307328815
 20
143.4470833661
 10
328.1788164608
 20
143.0765288072
 10
326.6079665754
 20
142.748278463
 10
325.0204886643
 20
142.4628140863
 10
323.4187125701
 20
142.2205546353
 10
321.8049891201
 20
142.0218556591
 10
320.1816866761
 20
141.8670087761
 10
318.5511876582
 20
141.7562412452
 10
316.9158850486
 20
141.6897156331
 10
315.2781788793
 20
141.6675295754
 10
313.64047271
 20
141.6897156331
 10
312.0051701004
 20
141.7562412452
 10
310.3746710825
 20
141.8670087761
 10
308.7513686385
 20
142.0218556591
 10
307.1376451885
 20
142.2205546353
 10
305.5358690943
 20
142.4628140863
 10
303.9483911832
 20
142.748278463
 10
302.3775412978
 20
143.0765288072
 10
300.8256248771
 20
143.4470833661
 10
299.2949195724
 20
143.8593982999
 10
297.7876719048
 20
144.3128684795
 10
296.306093968
 20
144.806828375
 10
294.8523601821
 20
145.3405530319
 10
293.4286041019
 20
145.9132591359
 10
292.0369152856
 20
146.5241061617
 10
290.6793362286
 20
147.172197607
 10
289.3578593653
 20
147.8565823084
 10
288.0744241452
 20
148.5762558369
 10
286.8309141866
 20
149.3301619723
 10
285.6291545118
 20
150.1171942534
 10
284.4709088688
 20
150.9361976019
 10
283.3578771428
 20
151.7859700173
 10
282.2916928613
 20
152.6652643415
 10
281.2739207969
 20
153.5727900888
 10
280.3060546703
 20
154.50721534
 10
279.3895149586
 20
155.4671686973
 10
278.5256468102
 20
156.4512412965
 10
277.7157180707
 20
157.4579888757
 10
276.9609174223
 20
158.4859338937
 10
276.2623526389
 20
159.5335676996
 10
275.6210489608
 20
160.5993527463
 10
275.0379475895
 20
161.6817248473
 10
274.5139043066
 20
162.7790954722
 10
274.049688218
 20
163.8898540784
 10
273.6459806248
 20
165.0123704743
 10
273.3033740236
 20
166.1449972125
 10
273.0223712367
 20
167.2860720069
 10
272.8033846746
 20
168.433920173
 10
272.6570398293
 20
169.4938354183
  0
LINE
  5
2F9
330
1F
100
AcDbEntity
  8
0
  6
Continuous
 62
     8
370
    18
100
AcDbLine
 10
280.4306725019
 20
189.4198400391
 30
0.0
 11
280.6600528848
 21
189.645770613
 31
0.0
  0
LWPOLYLINE
  5
2FA
330
1F
100
AcDbEntity
  8
0
  6
Continuous
 62
     8
370
    18
100
AcDbPolyline
 90
       29
 70
   128
 43
0.0
 10
315.2781788793
 20
200.578467413
 10
316.8186903709
 20
200.5563859627
 10
318.3566708062
 20
200.4901778914
 10
319.8895932873
 20
200.379951979
 10
321.4149392266
 20
200.2258893262
 10
322.9302024849
 20
200.0282430576
 10
324.4328934884
 20
199.7873379056
 10
325.9205433198
 20
199.5035696765
 10
327.3907077745
 20
199.177404601
 10
328.8409713759
 20
198.8093785673
 10
330.2689513449
 20
198.4000962413
 10
331.6723015141
 20
197.9502300727
 10
333.0487161829
 20
197.4605191905
 10
334.3959339055
 20
196.9317681884
 10
335.7117412068
 20
196.3648458028
 10
336.9939762189
 20
195.7606834859
 10
338.240532233
 20
195.1202738746
 10
339.4493611608
 20
194.4446691603
 10
340.6184768995
 20
193.7349793597
 10
341.7459585952
 20
192.9923704914
 10
342.8299537983
 20
192.2180626598
 10
343.8686815076
 20
191.4133280505
 10
344.8604350961
 20
190.5794888405
 10
345.8035851153
 20
189.7179150253
 10
346.6965819722
 20
188.8300221685
 10
347.5379584753
 20
187.9172690758
 10
348.3263322453
 20
186.981155398
 10
349.0604079861
 20
186.0232191675
 10
349.1457307076
 20
185.9055698408
  0
LWPOLYLINE
  5
2FB
330
1F
100
AcDbEntity
  8
0
  6
Continuous
 62
     8
370
    18
100
AcDbPolyline
 90
       29
 70
   128
 43
0.0
 10
281.410627051
 20
185.9055698408
 10
281.4959497726
 20
186.0232191675
 10
282.2300255133
 20
186.981155398
 10
283.0183992833
 20
187.9172690758
 10
283.8597757864
 20
188.8300221685
 10
284.7527726433
 20
189.7179150253
 10
285.6959226626
 20
190.5794888405
 10
286.6876762511
 20
191.4133280505
 10
287.7264039603
 20
192.2180626598
 10
288.8103991634
 20
192.9923704914
 10
289.9378808591
 20
193.7349793597
 10
291.1069965979
 20
194.4446691603
 10
292.3158255256
 20
195.1202738746
 10
293.5623815397
 20
195.7606834859
 10
294.8446165518
 20
196.3648458028
 10
296.1604238531
 20
196.9317681884
 10
297.5076415757
 20
197.4605191905
 10
298.8840562445
 20
197.9502300727
 10
300.2874064137
 20
198.4000962413
 10
301.7153863827
 20
198.8093785673
 10
303.1656499842
 20
199.177404601
 10
304.6358144388
 20
199.5035696765
 10
306.1234642702
 20
199.7873379056
 10
307.6261552738
 20
200.0282430576
 10
309.141418532
 20
200.2258893262
 10
310.6667644713
 20
200.379951979
 10
312.1996869524
 20
200.4901778914
 10
313.7376673877
 20
200.5563859627
 10
315.2781788793
 20
200.578467413
  0
LWPOLYLINE
  5
2FC
330
1F
100
AcDbEntity
  8
0
  6
Continuous
 62
     8
370
    18
100
AcDbPolyline
 90
       71
 70
   128
 43
0.0
 10
274.0476536205
 20
163.5445701779
 10
274.4330273557
 20
162.4763989687
 10
274.892927201
 20
161.3759681053
 10
275.4120979723
 20
160.2888007428
 10
275.9897777147
 20
159.2164924492
 10
276.6251186036
 20
158.1606169848
 10
277.3171881887
 20
157.1227239924
 10
278.0649707624
 20
156.1043367231
 10
278.8673688506
 20
155.1069498007
 10
279.7232048235
 20
154.1320270281
 10
280.6312226239
 20
153.1809992387
 10
281.5900896103
 20
152.2552621972
 10
282.5983985132
 20
151.3561745501
 10
283.6546695003
 20
150.4850558327
 10
284.7573523483
 20
149.6431845318
 10
285.904828718
 20
148.8317962095
 10
287.0954145295
 20
148.0520816902
 10
288.3273624341
 20
147.3051853125
 10
289.5988643784
 20
146.5922032497
 10
290.9080542577
 20
145.9141819013
 10
292.2530106556
 20
145.2721163573
 10
293.631759663
 20
144.6669489372
 10
295.0422777755
 20
144.0995678078
 10
296.4824948635
 20
143.5708056791
 10
297.9502972096
 20
143.0814385824
 10
299.4435306116
 20
142.6321847315
 10
300.9600035434
 20
142.2237034683
 10
302.4974903721
 20
141.8565942954
 10
304.0537346235
 20
141.5313959961
 10
305.6264522947
 20
141.2485858438
 10
307.2133352057
 20
141.0085789013
 10
308.8120543869
 20
140.8117274121
 10
310.4202634974
 20
140.6583202827
 10
312.0356022686
 20
140.5485826592
 10
313.6556999682
 20
140.4826755969
 10
315.2781788793
 20
140.4606958233
 10
316.9006577904
 20
140.4826755969
 10
318.52075549
 20
140.5485826592
 10
320.1360942612
 20
140.6583202827
 10
321.7443033718
 20
140.8117274121
 10
323.3430225529
 20
141.0085789013
 10
324.9299054639
 20
141.2485858438
 10
326.5026231351
 20
141.5313959961
 10
328.0588673866
 20
141.8565942954
 10
329.5963542152
 20
142.2237034683
 10
331.112827147
 20
142.6321847315
 10
332.606060549
 20
143.0814385824
 10
334.0738628951
 20
143.5708056791
 10
335.5140799831
 20
144.0995678078
 10
336.9245980956
 20
144.6669489372
 10
338.303347103
 20
145.2721163573
 10
339.6483035009
 20
145.9141819013
 10
340.9574933803
 20
146.5922032497
 10
342.2289953245
 20
147.3051853125
 10
343.4609432291
 20
148.0520816902
 10
344.6515290406
 20
148.8317962095
 10
345.7990054103
 20
149.6431845318
 10
346.9016882583
 20
150.4850558327
 10
347.9579592454
 20
151.3561745501
 10
348.9662681483
 20
152.2552621972
 10
349.9251351347
 20
153.1809992387
 10
350.8331529351
 20
154.1320270281
 10
351.688988908
 20
155.1069498007
 10
352.4913869962
 20
156.1043367231
 10
353.2391695699
 20
157.1227239924
 10
353.931239155
 20
158.1606169848
 10
354.5665800439
 20
159.2164924492
 10
355.1442597864
 20
160.2888007428
 10
355.6634305576
 20
161.3759681053
 10
356.1233304029
 20
162.4763989687
 10
356.5087041381
 20
163.5445701779
  0
LWPOLYLINE
  5
2FD
330
1F
100
AcDbEntity
  8
0
  6
Continuous
 62
     8
370
    18
100
AcDbPolyline
 90
       30
 70
   128
 43
0.0
 10
315.2781788793
 20
200.4123287624
 10
316.8158500753
 20
200.3902880244
 10
318.3509948816
 20
200.3242020234
 10
319.8810910592
 20
200.2141793383
 10
321.4036246643
 20
200.0604007363
 10
322.9160941779
 20
199.8631188752
 10
324.4160146169
 20
199.6226578884
 10
325.9009216156
 20
199.3394128529
 10
327.368375476
 20
199.0138491395
 10
328.8159651751
 20
198.6465016484
 10
330.2413123268
 20
198.2379739307
 10
331.6420750896
 20
197.7889371963
 10
333.0159520139
 20
197.3001292114
 10
334.3606858235
 20
196.7723530863
 10
335.6740671243
 20
196.2064759556
 10
336.9539380343
 20
195.6034275541
 10
338.1981957289
 20
194.9641986887
 10
339.404795896
 20
194.2898396107
 10
340.5717560947
 20
193.5814582904
 10
341.6971590124
 20
192.8402185964
 10
342.7791556152
 20
192.0673383835
 10
343.8159681853
 20
191.2640874919
 10
344.8058932426
 20
190.4317856608
 10
345.7473043428
 20
189.5718003598
 10
346.6386547497
 20
188.6855445425
 10
347.4784799772
 20
187.774474325
 10
348.2654001946
 20
186.8400865931
 10
348.9981224939
 20
185.8839165435
 10
349.6754430144
 20
184.9075351611
 10
349.76025287
 20
184.7778391994
  0
LWPOLYLINE
  5
2FE
330
1F
100
AcDbEntity
  8
0
  6
Continuous
 62
     8
370
    18
100
AcDbPolyline
 90
       30
 70
   128
 43
0.0
 10
280.7961048887
 20
184.7778391994
 10
280.8809147442
 20
184.9075351611
 10
281.5582352647
 20
185.8839165435
 10
282.2909575641
 20
186.8400865931
 10
283.0778777814
 20
187.774474325
 10
283.9177030089
 20
188.6855445425
 10
284.8090534159
 20
189.5718003598
 10
285.750464516
 20
190.4317856608
 10
286.7403895733
 20
191.2640874919
 10
287.7772021435
 20
192.0673383835
 10
288.8591987462
 20
192.8402185964
 10
289.9846016639
 20
193.5814582904
 10
291.1515618626
 20
194.2898396107
 10
292.3581620297
 20
194.9641986887
 10
293.6024197243
 20
195.6034275541
 10
294.8822906343
 20
196.2064759556
 10
296.1956719351
 20
196.7723530863
 10
297.5404057447
 20
197.3001292114
 10
298.914282669
 20
197.7889371963
 10
300.3150454318
 20
198.2379739307
 10
301.7403925835
 20
198.6465016484
 10
303.1879822826
 20
199.0138491395
 10
304.655436143
 20
199.3394128529
 10
306.1403431418
 20
199.6226578884
 10
307.6402635807
 20
199.8631188752
 10
309.1527330944
 20
200.0604007363
 10
310.6752666994
 20
200.2141793383
 10
312.205362877
 20
200.3242020234
 10
313.7405076833
 20
200.3902880244
 10
315.2781788793
 20
200.4123287624
  0
LINE
  5
2FF
330
1F
100
AcDbEntity
  8
0
  6
Continuous
 62
     8
370
    18
100
AcDbLine
 10
352.325050836
 20
184.9687271735
 30
0.0
 11
352.4299372931
 21
184.8360513171
 31
0.0
  0
LWPOLYLINE
  5
300
330
1F
100
AcDbEntity
  8
0
  6
Continuous
 62
     8
370
    18
100
AcDbPolyline
 90
       77
 70
   128
 43
0.0
 10
357.4955031096
 20
166.7626934665
 10
357.2825180123
 20
165.6503325567
 10
357.0031875009
 20
164.5160484117
 10
356.6626197856
 20
163.3901620478
 10
356.2613146964
 20
162.2743258585
 10
355.7998612039
 20
161.1701774872
 10
355.2789365547
 20
160.0793374239
 10
354.6993052776
 20
159.0034066268
 10
354.0618180613
 20
157.9439641728
 10
353.3674105064
 20
156.9025649397
 10
352.6171017516
 20
155.8807373246
 10
351.8119929785
 20
154.8799810004
 10
350.9532657953
 20
153.9017647149
 10
350.0421805025
 20
152.9475241355
 10
349.0800742434
 20
152.0186597418
 10
348.0683590416
 20
151.1165347704
 10
347.0085197288
 20
150.2424732141
 10
345.9021117652
 20
149.3977578787
 10
344.750758957
 20
148.5836285005
 10
343.5561510734
 20
147.8012799267
 10
342.3200413661
 20
147.0518603616
 10
341.0442439966
 20
146.3364696818
 10
339.7306313734
 20
145.6561578218
 10
338.3811314043
 20
145.011923233
 10
336.9977246664
 20
144.4047114185
 10
335.5824415
 20
143.8354135455
 10
334.1373590283
 20
143.304865137
 10
332.6645981091
 20
142.813844846
 10
331.1663202221
 20
142.3630733125
 10
329.6447242967
 20
141.9532121058
 10
328.1020434848
 20
141.5848627539
 10
326.5405418832
 20
141.2585658601
 10
324.9625112108
 20
140.9748003103
 10
323.3702674453
 20
140.7339825693
 10
321.7661474239
 20
140.5364660705
 10
320.152505414
 20
140.3825406966
 10
318.5317096578
 20
140.2724323543
 10
316.9061388965
 20
140.2063026428
 10
315.2781788793
 20
140.1842486165
 10
313.6502188622
 20
140.2063026428
 10
312.0246481008
 20
140.2724323543
 10
310.4038523446
 20
140.3825406966
 10
308.7902103347
 20
140.5364660705
 10
307.1860903133
 20
140.7339825693
 10
305.5938465478
 20
140.9748003103
 10
304.0158158754
 20
141.2585658601
 10
302.4543142738
 20
141.5848627539
 10
300.9116334619
 20
141.9532121059
 10
299.3900375366
 20
142.3630733125
 10
297.8917596495
 20
142.813844846
 10
296.4189987303
 20
143.304865137
 10
294.9739162586
 20
143.8354135455
 10
293.5586330922
 20
144.4047114185
 10
292.1752263544
 20
145.011923233
 10
290.8257263852
 20
145.6561578218
 10
289.512113762
 20
146.3364696818
 10
288.2363163925
 20
147.0518603616
 10
287.0002066852
 20
147.8012799267
 10
285.8055988016
 20
148.5836285005
 10
284.6542459935
 20
149.3977578787
 10
283.5478380298
 20
150.2424732141
 10
282.487998717
 20
151.1165347704
 10
281.4762835152
 20
152.0186597418
 10
280.5141772561
 20
152.9475241355
 10
279.6030919633
 20
153.9017647149
 10
278.7443647801
 20
154.8799810004
 10
277.939256007
 20
155.8807373246
 10
277.1889472522
 20
156.9025649397
 10
276.4945396973
 20
157.9439641728
 10
275.8570524811
 20
159.0034066268
 10
275.2774212039
 20
160.0793374239
 10
274.7564965547
 20
161.1701774872
 10
274.2950430622
 20
162.2743258585
 10
273.893737973
 20
163.3901620478
 10
273.5531702577
 20
164.5160484117
 10
273.2738397463
 20
165.6503325567
 10
273.060854649
 20
166.7626934665
  0
LINE
  5
301
330
1F
100
AcDbEntity
  8
0
  6
Continuous
 62
     8
370
    18
100
AcDbLine
 10
278.1264204655
 20
184.8360513171
 30
0.0
 11
278.2313069227
 21
184.9687271735
 31
0.0
  0
LINE
  5
302
330
1F
100
AcDbEntity
  8
0
  6
Continuous
 62
     8
370
    18
100
AcDbLine
 10
352.13218102
 20
185.4627906911
 30
0.0
 11
352.244366987
 21
185.3271231589
 31
0.0
  0
LWPOLYLINE
  5
303
330
1F
100
AcDbEntity
  8
0
  6
Continuous
 62
     8
370
    18
100
AcDbPolyline
 90
       85
 70
   128
 43
0.0
 10
358.035070888
 20
170.1530768962
 10
358.035079275
 20
170.1341401036
 10
358.0037034513
 20
168.9761069658
 10
357.9096220285
 20
167.8197734012
 10
357.752973084
 20
166.6668364889
 10
357.5339865219
 20
165.5189883228
 10
357.252983735
 20
164.3779135284
 10
356.9103771338
 20
163.2452867903
 10
356.5066695406
 20
162.1227703943
 10
356.042453452
 20
161.0120117882
 10
355.5184101692
 20
159.9146411632
 10
354.9353087978
 20
158.8322690623
 10
354.2940051197
 20
157.7664840155
 10
353.5954403363
 20
156.7188502096
 10
352.8406396879
 20
155.6909051916
 10
352.0307109484
 20
154.6841576125
 10
351.1668428
 20
153.7000850132
 10
350.2503030883
 20
152.7401316559
 10
349.2824369617
 20
151.8057064047
 10
348.2646648973
 20
150.8981806574
 10
347.1984806158
 20
150.0188863332
 10
346.0854488898
 20
149.1691139178
 10
344.9272032468
 20
148.3501105693
 10
343.725443572
 20
147.5630782882
 10
342.4819336134
 20
146.8091721528
 10
341.1984983933
 20
146.0894986243
 10
339.8770215301
 20
145.4051139229
 10
338.519442473
 20
144.7570224776
 10
337.1277536568
 20
144.1461754518
 10
335.7039975765
 20
143.5734693478
 10
334.2502637906
 20
143.0397446909
 10
332.7686858538
 20
142.5457847955
 10
331.2614381862
 20
142.0923146158
 10
329.7307328815
 20
141.6799996821
 10
328.1788164608
 20
141.3094451231
 10
326.6079665754
 20
140.981194779
 10
325.0204886643
 20
140.6957304022
 10
323.4187125701
 20
140.4534709512
 10
321.8049891201
 20
140.2547719751
 10
320.1816866761
 20
140.099925092
 10
318.5511876582
 20
139.9891575611
 10
316.9158850486
 20
139.922631949
 10
315.2781788793
 20
139.9004458913
 10
313.64047271
 20
139.922631949
 10
312.0051701004
 20
139.9891575611
 10
310.3746710825
 20
140.099925092
 10
308.7513686385
 20
140.2547719751
 10
307.1376451885
 20
140.4534709512
 10
305.5358690943
 20
140.6957304022
 10
303.9483911832
 20
140.981194779
 10
302.3775412979
 20
141.3094451231
 10
300.8256248771
 20
141.6799996821
 10
299.2949195724
 20
142.0923146158
 10
297.7876719048
 20
142.5457847955
 10
296.306093968
 20
143.0397446909
 10
294.8523601821
 20
143.5734693478
 10
293.4286041019
 20
144.1461754518
 10
292.0369152856
 20
144.7570224776
 10
290.6793362286
 20
145.4051139229
 10
289.3578593653
 20
146.0894986243
 10
288.0744241452
 20
146.8091721528
 10
286.8309141866
 20
147.5630782882
 10
285.6291545118
 20
148.3501105693
 10
284.4709088688
 20
149.1691139178
 10
283.3578771428
 20
150.0188863332
 10
282.2916928613
 20
150.8981806574
 10
281.2739207969
 20
151.8057064047
 10
280.3060546703
 20
152.7401316559
 10
279.3895149586
 20
153.7000850132
 10
278.5256468102
 20
154.6841576125
 10
277.7157180707
 20
155.6909051916
 10
276.9609174223
 20
156.7188502096
 10
276.2623526389
 20
157.7664840155
 10
275.6210489608
 20
158.8322690623
 10
275.0379475895
 20
159.9146411632
 10
274.5139043066
 20
161.0120117882
 10
274.049688218
 20
162.1227703943
 10
273.6459806248
 20
163.2452867903
 10
273.3033740236
 20
164.3779135284
 10
273.0223712367
 20
165.5189883228
 10
272.8033846746
 20
166.6668364889
 10
272.6467357302
 20
167.8197734012
 10
272.5526543073
 20
168.9761069658
 10
272.5212784836
 20
170.1341401036
 10
272.5212868706
 20
170.1530768962
  0
LINE
  5
304
330
1F
100
AcDbEntity
  8
0
  6
Continuous
 62
     8
370
    18
100
AcDbLine
 10
278.3119907717
 20
185.3271231589
 30
0.0
 11
278.4241767387
 21
185.4627906911
 31
0.0
  0
LWPOLYLINE
  5
305
330
1F
100
AcDbEntity
  8
0
  6
Continuous
 62
     8
370
    18
100
AcDbPolyline
 90
       31
 70
   128
 43
0.0
 10
315.2781788793
 20
200.1372878766
 10
313.7386079513
 20
200.11507657
 10
312.2015994872
 20
200.0484796188
 10
310.6697116858
 20
199.937607867
 10
309.1454942233
 20
199.7826458498
 10
307.6314840092
 20
199.583851486
 10
306.130200964
 20
199.3415556494
 10
304.6441438253
 20
199.0561616174
 10
303.1757859884
 20
198.7281444002
 10
301.7275713902
 20
198.3580499501
 10
300.3019104408
 20
197.9464942528
 10
298.9011760122
 20
197.4941623021
 10
297.5276994887
 20
197.0018069599
 10
296.1837668863
 20
196.4702477031
 10
294.8716150483
 20
195.9003692597
 10
293.5934279219
 20
195.293120136
 10
292.3513329234
 20
194.6495110383
 10
291.1473973973
 20
193.9706131904
 10
289.9836251756
 20
193.2575565508
 10
288.8619532422
 20
192.5115279319
 10
287.7842485094
 20
191.7337690247
 10
286.7523047104
 20
190.9255743321
 10
285.7678394137
 20
190.0882890145
 10
284.8324911647
 20
189.2233066506
 10
283.9478167582
 20
188.3320669182
 10
283.1152886476
 20
187.4160531979
 10
282.3362924936
 20
186.4767901041
 10
281.6121248584
 20
185.5158409476
 10
280.9439910477
 20
184.5348051334
 10
280.3330031043
 20
183.5353154987
 10
279.8937315892
 20
182.738205716
  0
LWPOLYLINE
  5
306
330
1F
100
AcDbEntity
  8
0
  6
Continuous
 62
     8
370
    18
100
AcDbPolyline
 90
       31
 70
   128
 43
0.0
 10
350.6626261694
 20
182.738205716
 10
350.2233546543
 20
183.5353154987
 10
349.6123667109
 20
184.5348051334
 10
348.9442329002
 20
185.5158409476
 10
348.2200652651
 20
186.4767901041
 10
347.441069111
 20
187.4160531979
 10
346.6085410004
 20
188.3320669182
 10
345.7238665939
 20
189.2233066506
 10
344.7885183449
 20
190.0882890145
 10
343.8040530482
 20
190.9255743321
 10
342.7721092492
 20
191.7337690247
 10
341.6944045164
 20
192.5115279319
 10
340.572732583
 20
193.2575565508
 10
339.4089603613
 20
193.9706131904
 10
338.2050248353
 20
194.6495110383
 10
336.9629298367
 20
195.293120136
 10
335.6847427103
 20
195.9003692597
 10
334.3725908723
 20
196.4702477031
 10
333.0286582699
 20
197.0018069599
 10
331.6551817464
 20
197.4941623021
 10
330.2544473178
 20
197.9464942528
 10
328.8287863684
 20
198.3580499501
 10
327.3805717702
 20
198.7281444002
 10
325.9122139333
 20
199.0561616174
 10
324.4261567946
 20
199.3415556494
 10
322.9248737494
 20
199.583851486
 10
321.4108635353
 20
199.7826458498
 10
319.8866460728
 20
199.937607867
 10
318.3547582714
 20
200.0484796188
 10
316.8177498073
 20
200.11507657
 10
315.2781788793
 20
200.1372878766
  0
LWPOLYLINE
  5
307
330
1F
100
AcDbEntity
  8
0
  6
Continuous
 62
     8
370
    18
100
AcDbPolyline
 90
       32
 70
   128
 43
0.0
 10
315.2781788793
 20
199.8841321795
 10
316.8145741666
 20
199.8619666877
 10
318.3484122755
 20
199.7955071046
 10
319.877140284
 20
199.6848640457
 10
321.398213775
 20
199.5302216654
 10
322.909101072
 20
199.3318373506
 10
324.407287452
 20
199.0900412925
 10
325.8902793318
 20
198.8052359368
 10
327.3556084177
 20
198.4778953139
 10
328.800835814
 20
198.1085642498
 10
330.2235560824
 20
197.6978574598
 10
331.6214012454
 20
197.2464585248
 10
332.9920447276
 20
196.7551187537
 10
334.3332052284
 20
196.2246559331
 10
335.6426505182
 20
195.655952966
 10
336.9182011548
 20
195.0499564023
 10
338.15773411
 20
194.4076748636
 10
339.3591863034
 20
193.7301773641
 10
340.5205580365
 20
193.0185915315
 10
341.6399163207
 20
192.2741017302
 10
342.7153980945
 20
191.49794709
 10
343.7452133247
 20
190.6914194437
 10
344.7276479854
 20
189.855861177
 10
345.6610669111
 20
188.9926629941
 10
346.5439165182
 20
188.1032616033
 10
347.3747273906
 20
187.1891373253
 10
348.1521167255
 20
186.2518116299
 10
348.8747906352
 20
185.292844603
 10
349.5415463003
 20
184.3138323509
 10
350.1512739717
 20
183.3164043425
 10
350.7029588179
 20
182.3022206986
 10
351.073461721
 20
181.5415670487
  0
LWPOLYLINE
  5
308
330
1F
100
AcDbEntity
  8
0
  6
Continuous
 62
     8
370
    18
100
AcDbPolyline
 90
       32
 70
   128
 43
0.0
 10
279.4828960377
 20
181.5415670487
 10
279.8533989407
 20
182.3022206986
 10
280.4050837869
 20
183.3164043425
 10
281.0148114583
 20
184.3138323509
 10
281.6815671234
 20
185.292844603
 10
282.4042410331
 20
186.2518116299
 10
283.181630368
 20
187.1891373253
 10
284.0124412404
 20
188.1032616033
 10
284.8952908475
 20
188.9926629941
 10
285.8287097732
 20
189.855861177
 10
286.811144434
 20
190.6914194437
 10
287.8409596641
 20
191.49794709
 10
288.9164414379
 20
192.2741017302
 10
290.0357997221
 20
193.0185915315
 10
291.1971714552
 20
193.7301773641
 10
292.3986236486
 20
194.4076748636
 10
293.6381566038
 20
195.0499564023
 10
294.9137072404
 20
195.655952966
 10
296.2231525303
 20
196.2246559331
 10
297.564313031
 20
196.7551187537
 10
298.9349565132
 20
197.2464585248
 10
300.3328016762
 20
197.6978574598
 10
301.7555219446
 20
198.1085642498
 10
303.2007493409
 20
198.4778953139
 10
304.6660784268
 20
198.8052359368
 10
306.1490703066
 20
199.0900412925
 10
307.6472566866
 20
199.3318373506
 10
309.1581439836
 20
199.5302216654
 10
310.6792174747
 20
199.6848640457
 10
312.2079454831
 20
199.7955071046
 10
313.741783592
 20
199.8619666877
 10
315.2781788793
 20
199.8841321795
  0
LWPOLYLINE
  5
309
330
1F
100
AcDbEntity
  8
0
  6
Continuous
 62
     8
370
    18
100
AcDbPolyline
 90
        3
 70
   128
 43
0.0
 10
293.37404018
 20
194.7461494666
 10
292.638931611
 20
194.4068711684
 10
292.2812173463
 20
194.2359154351
  0
LINE
  5
30A
330
1F
100
AcDbEntity
  8
0
  6
Continuous
 62
     8
370
    18
100
AcDbLine
 10
277.1133256422
 20
180.5474542056
 30
0.0
 11
277.0647326888
 21
180.4551539381
 31
0.0
  0
LINE
  5
30B
330
1F
100
AcDbEntity
  8
0
  6
Continuous
 62
     8
370
    18
100
AcDbLine
 10
353.4916250699
 20
180.4551539381
 30
0.0
 11
353.4430321165
 21
180.5474542056
 31
0.0
  0
LWPOLYLINE
  5
30C
330
1F
100
AcDbEntity
  8
0
  6
Continuous
 62
     8
370
    18
100
AcDbPolyline
 90
        3
 70
   128
 43
0.0
 10
338.2751404123
 20
194.2359154351
 10
337.9174261476
 20
194.4068711684
 10
337.1823175786
 20
194.7461494666
  0
LWPOLYLINE
  5
30D
330
1F
100
AcDbEntity
  8
0
  6
Continuous
 62
     8
370
    18
100
AcDbPolyline
 90
       34
 70
   128
 43
0.0
 10
315.2781788793
 20
199.0952132042
 10
316.8098249379
 20
199.0731162293
 10
318.3389217227
 20
199.0068620828
 10
319.8629242031
 20
198.8965610382
 10
321.3792958275
 20
198.7423966807
 10
322.8855127447
 20
198.5446256016
 10
324.3790680055
 20
198.3035769715
 10
325.8574757345
 20
198.0196519919
 10
327.318275268
 20
197.693323228
 10
328.7590352493
 20
197.3251338218
 10
330.1773576755
 20
196.9156965883
 10
331.570881889
 20
196.4656929952
 10
332.9372885063
 20
195.9758720291
 10
334.2743032784
 20
195.4470489488
 10
335.5797008761
 20
194.880103928
 10
336.851308594
 20
194.2759805908
 10
338.0870099665
 20
193.6356844409
 10
339.2847482906
 20
192.960281188
 10
340.4425300492
 20
192.2508949741
 10
341.5584282287
 20
191.5087065027
 10
342.6305855267
 20
190.7349510731
 10
343.6572174432
 20
189.930916525
 10
344.6366152508
 20
189.0979410944
 10
345.5671488383
 20
188.2374111868
 10
346.4472694246
 20
187.3507590694
 10
347.2755121357
 20
186.4394604869
 10
348.0504984434
 20
185.505032206
 10
348.7709384595
 20
184.5490294904
 10
349.4356330826
 20
183.5730435122
 10
350.0434759941
 20
182.5786987038
 10
350.5934554996
 20
181.5676500539
 10
351.0846562123
 20
180.5415803533
 10
351.5162605773
 20
179.5021973937
 10
351.6434197497
 20
179.162252767
  0
LWPOLYLINE
  5
30E
330
1F
100
AcDbEntity
  8
0
  6
Continuous
 62
     8
370
    18
100
AcDbPolyline
 90
       34
 70
   128
 43
0.0
 10
278.9129380089
 20
179.162252767
 10
279.0400971813
 20
179.5021973937
 10
279.4717015463
 20
180.5415803533
 10
279.962902259
 20
181.5676500539
 10
280.5128817645
 20
182.5786987038
 10
281.1207246761
 20
183.5730435122
 10
281.7854192992
 20
184.5490294904
 10
282.5058593152
 20
185.505032206
 10
283.2808456229
 20
186.4394604869
 10
284.109088334
 20
187.3507590694
 10
284.9892089203
 20
188.2374111868
 10
285.9197425079
 20
189.0979410944
 10
286.8991403154
 20
189.930916525
 10
287.9257722319
 20
190.7349510731
 10
288.99792953
 20
191.5087065027
 10
290.1138277094
 20
192.2508949741
 10
291.271609468
 20
192.960281188
 10
292.4693477921
 20
193.6356844409
 10
293.7050491647
 20
194.2759805908
 10
294.9766568826
 20
194.880103928
 10
296.2820544803
 20
195.4470489488
 10
297.6190692523
 20
195.9758720291
 10
298.9854758696
 20
196.4656929952
 10
300.3790000831
 20
196.9156965883
 10
301.7973225094
 20
197.3251338218
 10
303.2380824906
 20
197.693323228
 10
304.6988820241
 20
198.0196519919
 10
306.1772897531
 20
198.3035769715
 10
307.6708450139
 20
198.5446256016
 10
309.1770619312
 20
198.7423966807
 10
310.6934335555
 20
198.8965610382
 10
312.2174360359
 20
199.0068620828
 10
313.7465328208
 20
199.0731162293
 10
315.2781788793
 20
199.0952132042
  0
LWPOLYLINE
  5
30F
330
1F
100
AcDbEntity
  8
0
  6
Continuous
 62
     8
370
    18
100
AcDbPolyline
 90
       72
 70
   128
 43
0.0
 10
274.0594183989
 20
161.7472543687
 10
274.1488296891
 20
161.4848277256
 10
274.5688104398
 20
160.3693526607
 10
275.0492730475
 20
159.2661507856
 10
275.5895036894
 20
158.1768611259
 10
276.1886997454
 20
157.1031020379
 10
276.8459709909
 20
156.0464688041
 10
277.5603409188
 20
155.0085312631
 10
278.3307481904
 20
153.9908314774
 10
279.1560482129
 20
152.9948814423
 10
280.0350148389
 20
152.0221608395
 10
280.9663421889
 20
151.0741148388
 10
281.948646591
 20
150.1521519509
 10
282.9804686367
 20
149.2576419348
 10
284.0602753495
 20
148.391913763
 10
285.1864624619
 20
147.5562536468
 10
286.357356799
 20
146.7519031252
 10
287.5712187647
 20
145.9800572209
 10
288.8262449257
 20
145.2418626642
 10
290.1205706914
 20
144.53841619
 10
291.4522730836
 20
143.8707629078
 10
292.8193735936
 20
143.2398947492
 10
294.2198411221
 20
142.6467489941
 10
295.6515949962
 20
142.0922068786
 10
297.112508061
 20
141.5770922851
 10
298.6004098399
 20
141.1021705187
 10
300.1130897589
 20
140.6681471701
 10
301.6483004316
 20
140.2756670672
 10
303.2037609973
 20
139.9253133172
 10
304.7771605103
 20
139.6176064402
 10
306.366161373
 20
139.353003596
 10
307.9684028087
 20
139.1318979046
 10
309.5815043694
 20
138.9546178625
 10
311.2030694722
 20
138.8214268545
 10
312.8306889598
 20
138.7325227621
 10
314.4619446801
 20
138.6880376703
 10
316.0944130785
 20
138.6880376703
 10
317.7256687988
 20
138.7325227621
 10
319.3532882865
 20
138.8214268545
 10
320.9748533892
 20
138.9546178625
 10
322.58795495
 20
139.1318979046
 10
324.1901963857
 20
139.353003596
 10
325.7791972483
 20
139.6176064402
 10
327.3525967613
 20
139.9253133172
 10
328.908057327
 20
140.2756670672
 10
330.4432679997
 20
140.6681471701
 10
331.9559479188
 20
141.1021705187
 10
333.4438496976
 20
141.5770922851
 10
334.9047627624
 20
142.0922068786
 10
336.3365166365
 20
142.6467489941
 10
337.736984165
 20
143.2398947492
 10
339.1040846751
 20
143.8707629078
 10
340.4357870672
 20
144.53841619
 10
341.7301128329
 20
145.2418626642
 10
342.985138994
 20
145.9800572209
 10
344.1990009596
 20
146.7519031252
 10
345.3698952968
 20
147.5562536468
 10
346.4960824091
 20
148.391913763
 10
347.5758891219
 20
149.2576419348
 10
348.6077111677
 20
150.1521519509
 10
349.5900155697
 20
151.0741148388
 10
350.5213429197
 20
152.0221608395
 10
351.4003095457
 20
152.9948814423
 10
352.2256095682
 20
153.9908314774
 10
352.9960168399
 20
155.0085312631
 10
353.7103867677
 20
156.0464688041
 10
354.3676580132
 20
157.1031020379
 10
354.9668540693
 20
158.1768611259
 10
355.5070847111
 20
159.2661507856
 10
355.9875473188
 20
160.3693526607
 10
356.4075280695
 20
161.4848277256
 10
356.4969393597
 20
161.7472543687
  0
LWPOLYLINE
  5
310
330
1F
100
AcDbEntity
  8
0
  6
Continuous
 62
     8
370
    18
100
AcDbPolyline
 90
       35
 70
   128
 43
0.0
 10
315.2781788793
 20
198.8620324841
 10
313.7450025628
 20
198.8397688228
 10
312.2144115283
 20
198.7730153803
 10
310.6889866987
 20
198.6618847182
 10
309.1713002853
 20
198.5065642278
 10
307.6639114508
 20
198.3073158146
 10
306.1693619936
 20
198.0644754565
 10
304.6901720624
 20
197.7784526373
 10
303.2288359059
 20
197.4497296562
 10
301.7878176675
 20
197.0788608145
 10
300.3695472299
 20
196.6664714809
 10
298.976416118
 20
196.2132570372
 10
297.610773466
 20
195.7199817055
 10
296.2749220563
 20
195.1874772595
 10
294.9711144365
 20
194.6166416222
 10
293.7015491214
 20
194.0084373516
 10
292.4683668852
 20
193.3638900177
 10
291.2736471521
 20
192.6840864732
 10
290.11940449
 20
191.9701730206
 10
289.0075852129
 20
191.2233534794
 10
287.9400640998
 20
190.4448871565
 10
286.9186412328
 20
189.636086722
 10
285.9450389618
 20
188.7983159965
 10
285.0208990006
 20
187.932987651
 10
284.1477796582
 20
187.0415608249
 10
283.3271532114
 20
186.1255386653
 10
282.5604034219
 20
185.186465793
 10
281.8488232033
 20
184.2259256971
 10
281.1936124409
 20
183.2455380657
 10
280.5958759683
 20
182.246956054
 10
280.0566217044
 20
181.2318634972
 10
279.5767589538
 20
180.201972071
 10
279.1570968737
 20
179.1590184053
 10
278.7983431094
 20
178.104761156
 10
278.7416558261
 20
177.9185200228
  0
LWPOLYLINE
  5
311
330
1F
100
AcDbEntity
  8
0
  6
Continuous
 62
     8
370
    18
100
AcDbPolyline
 90
       35
 70
   128
 43
0.0
 10
351.8147019325
 20
177.9185200228
 10
351.7580146492
 20
178.104761156
 10
351.3992608849
 20
179.1590184053
 10
350.9795988048
 20
180.201972071
 10
350.4997360542
 20
181.2318634972
 10
349.9604817903
 20
182.246956054
 10
349.3627453177
 20
183.2455380657
 10
348.7075345553
 20
184.2259256971
 10
347.9959543368
 20
185.186465793
 10
347.2292045472
 20
186.1255386653
 10
346.4085781004
 20
187.0415608249
 10
345.535458758
 20
187.932987651
 10
344.6113187968
 20
188.7983159965
 10
343.6377165258
 20
189.636086722
 10
342.6162936588
 20
190.4448871565
 10
341.5487725457
 20
191.2233534794
 10
340.4369532687
 20
191.9701730206
 10
339.2827106065
 20
192.6840864732
 10
338.0879908734
 20
193.3638900177
 10
336.8548086372
 20
194.0084373516
 10
335.5852433221
 20
194.6166416222
 10
334.2814357024
 20
195.1874772595
 10
332.9455842926
 20
195.7199817055
 10
331.5799416406
 20
196.2132570372
 10
330.1868105287
 20
196.6664714809
 10
328.7685400912
 20
197.0788608145
 10
327.3275218528
 20
197.4497296562
 10
325.8661856963
 20
197.7784526373
 10
324.386995765
 20
198.0644754565
 10
322.8924463079
 20
198.3073158146
 10
321.3850574733
 20
198.5065642278
 10
319.8673710599
 20
198.6618847182
 10
318.3419462303
 20
198.7730153803
 10
316.8113551959
 20
198.8397688228
 10
315.2781788793
 20
198.8620324841
  0
LWPOLYLINE
  5
312
330
1F
100
AcDbEntity
  8
0
  6
Continuous
 62
     8
370
    18
100
AcDbPolyline
 90
       37
 70
   128
 43
0.0
 10
315.2781788793
 20
198.6328185621
 10
313.7625507243
 20
198.6108097223
 10
312.2494782612
 20
198.5448203148
 10
310.7415128725
 20
198.4349616125
 10
309.241197329
 20
198.2814188622
 10
307.751061502
 20
198.0844509717
 10
306.2736180979
 20
197.8443900734
 10
304.8113584202
 20
197.5616409642
 10
303.3667481697
 20
197.2366804231
 10
301.942223286
 20
196.8700564072
 10
300.5401858403
 20
196.4623871274
 10
299.162999985
 20
196.0143600063
 10
297.8129879669
 20
195.5267305192
 10
296.4924262118
 20
195.0003209195
 10
295.2035414854
 20
194.4360188529
 10
293.9485071391
 20
193.8347758605
 10
292.7294394446
 20
193.1976057739
 10
291.5483940258
 20
192.5255830059
 10
290.4073623926
 20
191.8198407391
 10
289.3082685823
 20
191.0815690145
 10
288.2529659158
 20
190.3120127253
 10
287.2432338721
 20
189.5124695175
 10
286.2807750878
 20
188.6842876018
 10
285.3672124863
 20
187.8288634802
 10
284.5040865406
 20
186.9476395914
 10
283.6928526765
 20
186.0421018782
 10
282.9348788177
 20
185.113777282
 10
282.2314430796
 20
184.1642311681
 10
281.5837316141
 20
183.1950646861
 10
280.9928366091
 20
182.2079120698
 10
280.4597544474
 20
181.204437882
 10
279.985384026
 20
180.1863342071
 10
279.5705252408
 20
179.1553177982
 10
279.2158776376
 20
178.1131271822
 10
278.9220392324
 20
177.0615197284
 10
278.6895055033
 20
176.0022686847
 10
278.6461312938
 20
175.765642788
  0
LWPOLYLINE
  5
313
330
1F
100
AcDbEntity
  8
0
  6
Continuous
 62
     8
370
    18
100
AcDbPolyline
 90
       37
 70
   128
 43
0.0
 10
351.9102264648
 20
175.765642788
 10
351.8668522553
 20
176.0022686847
 10
351.6343185262
 20
177.0615197284
 10
351.340480121
 20
178.1131271822
 10
350.9858325178
 20
179.1553177982
 10
350.5709737326
 20
180.1863342071
 10
350.0966033112
 20
181.204437882
 10
349.5635211495
 20
182.2079120698
 10
348.9726261445
 20
183.1950646861
 10
348.324914679
 20
184.1642311681
 10
347.6214789409
 20
185.113777282
 10
346.8635050821
 20
186.0421018782
 10
346.052271218
 20
186.9476395914
 10
345.1891452724
 20
187.8288634802
 10
344.2755826708
 20
188.6842876018
 10
343.3131238866
 20
189.5124695175
 10
342.3033918429
 20
190.3120127253
 10
341.2480891764
 20
191.0815690145
 10
340.1489953661
 20
191.8198407391
 10
339.0079637328
 20
192.5255830059
 10
337.8269183141
 20
193.1976057739
 10
336.6078506195
 20
193.8347758605
 10
335.3528162732
 20
194.4360188529
 10
334.0639315468
 20
195.0003209195
 10
332.7433697917
 20
195.5267305192
 10
331.3933577736
 20
196.0143600063
 10
330.0161719183
 20
196.4623871274
 10
328.6141344727
 20
196.8700564072
 10
327.189609589
 20
197.2366804231
 10
325.7449993384
 20
197.5616409642
 10
324.2827396608
 20
197.8443900734
 10
322.8052962566
 20
198.0844509717
 10
321.3151604297
 20
198.2814188622
 10
319.8148448862
 20
198.4349616125
 10
318.3068794975
 20
198.5448203148
 10
316.7938070344
 20
198.6108097223
 10
315.2781788793
 20
198.6328185621
  0
LINE
  5
314
330
1F
100
AcDbEntity
  8
0
  6
Continuous
 62
     8
370
    18
100
AcDbLine
 10
353.1859277835
 20
182.0347545167
 30
0.0
 11
353.2465336391
 21
181.9498381786
 31
0.0
  0
LWPOLYLINE
  5
315
330
1F
100
AcDbEntity
  8
0
  6
Continuous
 62
     8
370
    18
100
AcDbPolyline
 90
       77
 70
   128
 43
0.0
 10
357.4807771358
 20
164.9311335505
 10
357.275778091
 20
163.8669141926
 10
356.9964924003
 20
162.7328120523
 10
356.6559793318
 20
161.6071063456
 10
356.2547386351
 20
160.4914492008
 10
355.7933591863
 20
159.3874779986
 10
355.2725181235
 20
158.296812969
 10
354.6929798527
 20
157.2210548134
 10
354.0555949262
 20
156.1617823551
 10
353.3612987944
 20
155.1205502227
 10
352.6111104324
 20
154.0988865677
 10
351.8061308453
 20
153.0982908225
 10
350.9475414515
 20
152.1202314994
 10
350.0366023494
 20
151.1661440353
 10
349.0746504677
 20
150.2374286851
 10
348.0630976034
 20
149.3354484666
 10
347.00342835
 20
148.4615271602
 10
345.8971979181
 20
147.616947366
 10
344.7460298534
 20
146.8029486212
 10
343.5516136539
 20
146.0207255812
 10
342.31570229
 20
145.2714262663
 10
341.040109632
 20
144.5561503765
 10
339.7267077882
 20
143.8759476778
 10
338.3774243567
 20
143.2318164614
 10
336.9942395972
 20
142.6247020788
 10
335.5791835239
 20
142.055495554
 10
334.1343329269
 20
141.5250322761
 10
332.6618083235
 20
141.0340907731
 10
331.1637708468
 20
140.5833915694
 10
329.6424190733
 20
140.1735961281
 10
328.0999857964
 20
139.8053058807
 10
326.5387347499
 20
139.4790613438
 10
324.9609572847
 20
139.1953413263
 10
323.368969007
 20
138.9545622264
 10
321.7651063791
 20
138.7570774207
 10
320.1517232906
 20
138.6031767453
 10
318.5311876036
 20
138.4930860707
 10
316.9058776777
 20
138.4269669702
 10
315.2781788793
 20
138.4049164827
 10
313.650480081
 20
138.4269669702
 10
312.025170155
 20
138.4930860707
 10
310.404634468
 20
138.6031767453
 10
308.7912513795
 20
138.7570774207
 10
307.1873887516
 20
138.9545622264
 10
305.5954004739
 20
139.1953413263
 10
304.0176230088
 20
139.4790613438
 10
302.4563719622
 20
139.8053058807
 10
300.9139386853
 20
140.1735961281
 10
299.3925869118
 20
140.5833915694
 10
297.8945494351
 20
141.0340907731
 10
296.4220248317
 20
141.5250322761
 10
294.9771742347
 20
142.055495554
 10
293.5621181614
 20
142.6247020788
 10
292.1789334019
 20
143.2318164614
 10
290.8296499705
 20
143.8759476778
 10
289.5162481266
 20
144.5561503765
 10
288.2406554686
 20
145.2714262663
 10
287.0047441047
 20
146.0207255812
 10
285.8103279052
 20
146.8029486212
 10
284.6591598405
 20
147.616947366
 10
283.5529294086
 20
148.4615271602
 10
282.4932601552
 20
149.3354484666
 10
281.4817072909
 20
150.2374286851
 10
280.5197554093
 20
151.1661440353
 10
279.6088163071
 20
152.1202314994
 10
278.7502269133
 20
153.0982908225
 10
277.9452473262
 20
154.0988865677
 10
277.1950589642
 20
155.1205502227
 10
276.5007628324
 20
156.1617823551
 10
275.8633779059
 20
157.2210548134
 10
275.2838396351
 20
158.296812969
 10
274.7629985723
 20
159.3874779986
 10
274.3016191236
 20
160.4914492008
 10
273.9003784269
 20
161.6071063456
 10
273.5598653583
 20
162.7328120523
 10
273.2805796677
 20
163.8669141926
 10
273.0755806228
 20
164.9311335505
  0
LINE
  5
316
330
1F
100
AcDbEntity
  8
0
  6
Continuous
 62
     8
370
    18
100
AcDbLine
 10
277.3098241195
 20
181.9498381786
 30
0.0
 11
277.3704299751
 21
182.0347545167
 31
0.0
  0
LINE
  5
317
330
1F
100
AcDbEntity
  8
0
  6
Continuous
 62
     8
370
    18
100
AcDbLine
 10
353.0929973197
 20
182.4497886798
 30
0.0
 11
353.1578067711
 21
182.3625367281
 31
0.0
  0
LWPOLYLINE
  5
318
330
1F
100
AcDbEntity
  8
0
  6
Continuous
 62
     8
370
    18
100
AcDbPolyline
 90
       85
 70
   128
 43
0.0
 10
358.0194075117
 20
168.9651123896
 10
358.0282594279
 20
168.3499856097
 10
357.9968886087
 20
167.1921371814
 10
357.9028221922
 20
166.0359880553
 10
357.7461982337
 20
164.8832350398
 10
357.5272466005
 20
163.7355699587
 10
357.2462886344
 20
162.594677169
 10
356.9037366799
 20
161.462231088
 10
356.5000934792
 20
160.3398937366
 10
356.0359514344
 20
159.2293122996
 10
355.511991738
 20
158.1321167084
 10
354.928983373
 20
157.0499172489
 10
354.2877819846
 20
155.9843021979
 10
353.5893286243
 20
154.9368354926
 10
352.8346483687
 20
153.9090544347
 10
352.0248488152
 20
152.9024674346
 10
351.1611184562
 20
151.9185517977
 10
350.2447249352
 20
150.9587515558
 10
349.277013186
 20
150.0244753481
 10
348.2594034591
 20
149.1170943537
 10
347.193389237
 20
148.2379402794
 10
346.0805350428
 20
147.3883034051
 10
344.9224741432
 20
146.56943069
 10
343.7209061524
 20
145.7825239428
 10
342.4775945372
 20
145.0287380575
 10
341.1943640287
 20
144.309179319
 10
339.8730979448
 20
143.6249037789
 10
338.5157354255
 20
142.976915706
 10
337.1242685875
 20
142.3661661121
 10
335.7007396004
 20
141.7935513563
 10
334.2472376891
 20
141.25991183
 10
332.7658960683
 20
140.7660307226
 10
331.2588888109
 20
140.3126328728
 10
329.7284276581
 20
139.9003837044
 10
328.1767587724
 20
139.5298882499
 10
326.6061594421
 20
139.2016902626
 10
325.0189347382
 20
138.9162714182
 10
323.4174141318
 20
138.6740506083
 10
321.8039480754
 20
138.4753833252
 10
320.1809045527
 20
138.3205611407
 10
318.550665604
 20
138.2098112775
 10
316.9156238298
 20
138.1432962765
 10
315.2781788793
 20
138.1211137575
 10
313.6407339288
 20
138.1432962765
 10
312.0056921546
 20
138.2098112775
 10
310.3754532059
 20
138.3205611407
 10
308.7524096833
 20
138.4753833252
 10
307.1389436268
 20
138.6740506083
 10
305.5374230204
 20
138.9162714182
 10
303.9501983165
 20
139.2016902626
 10
302.3795989862
 20
139.5298882499
 10
300.8279301006
 20
139.9003837044
 10
299.2974689477
 20
140.3126328728
 10
297.7904616903
 20
140.7660307226
 10
296.3091200695
 20
141.25991183
 10
294.8556181582
 20
141.7935513563
 10
293.4320891711
 20
142.3661661121
 10
292.0406223331
 20
142.976915706
 10
290.6832598138
 20
143.6249037789
 10
289.3619937299
 20
144.309179319
 10
288.0787632214
 20
145.0287380575
 10
286.8354516062
 20
145.7825239428
 10
285.6338836154
 20
146.56943069
 10
284.4758227159
 20
147.3883034051
 10
283.3629685216
 20
148.2379402794
 10
282.2969542995
 20
149.1170943537
 10
281.2793445726
 20
150.0244753481
 10
280.3116328235
 20
150.9587515558
 10
279.3952393025
 20
151.9185517977
 10
278.5315089435
 20
152.9024674346
 10
277.7217093899
 20
153.9090544347
 10
276.9670291343
 20
154.9368354926
 10
276.268575774
 20
155.9843021979
 10
275.6273743857
 20
157.0499172489
 10
275.0443660207
 20
158.1321167084
 10
274.5204063242
 20
159.2293122996
 10
274.0562642794
 20
160.3398937366
 10
273.6526210787
 20
161.462231088
 10
273.3100691242
 20
162.594677169
 10
273.0291111581
 20
163.7355699587
 10
272.8101595249
 20
164.8832350398
 10
272.6535355664
 20
166.0359880553
 10
272.5594691499
 20
167.1921371814
 10
272.5280983307
 20
168.3499856097
 10
272.536950247
 20
168.9651123896
  0
LINE
  5
319
330
1F
100
AcDbEntity
  8
0
  6
Continuous
 62
     8
370
    18
100
AcDbLine
 10
277.3985509875
 20
182.3625367281
 30
0.0
 11
277.4633604389
 21
182.4497886798
 31
0.0
  0
LWPOLYLINE
  5
31A
330
1F
100
AcDbEntity
  8
0
  6
Continuous
 62
     8
370
    18
100
AcDbPolyline
 90
       33
 70
   128
 43
0.0
 10
315.2781788793
 20
198.2409680378
 10
316.7923737004
 20
198.2188353127
 10
318.303981545
 20
198.1524749507
 10
319.8104198566
 20
198.0420003274
 10
321.3091149104
 20
197.8876001868
 10
322.7975062112
 20
197.6895383191
 10
324.2730508674
 20
197.4481531095
 10
325.7332279357
 20
197.1638569607
 10
327.1755427281
 20
196.8371355878
 10
328.5975310739
 20
196.4685471888
 10
329.9967635299
 20
196.0587214909
 10
331.3708495309
 20
195.6083586744
 10
332.7174414741
 20
195.1182281765
 10
334.0342387296
 20
194.5891673771
 10
335.3189915716
 20
194.0220801676
 10
336.5695050212
 20
193.417935407
 10
337.7836425972
 20
192.7777652664
 10
338.9593299661
 20
192.1026634659
 10
340.0945584855
 20
191.3937834056
 10
341.1873886367
 20
190.6523361951
 10
342.2359533376
 20
189.8795885845
 10
343.238461133
 20
189.0768608002
 10
344.1931992552
 20
188.2455242892
 10
345.0985365502
 20
187.3869993758
 10
345.9529262643
 20
186.5027528356
 10
346.7549086871
 20
185.594295389
 10
347.503113645
 20
184.6631791201
 10
348.1962628424
 20
183.7109948256
 10
348.8331720455
 20
182.7393692964
 10
349.4127531057
 20
181.7499625383
 10
349.9340158184
 20
180.7444649362
 10
350.3960696151
 20
179.7245943659
 10
350.7449346558
 20
178.8388134972
  0
LWPOLYLINE
  5
31B
330
1F
100
AcDbEntity
  8
0
  6
Continuous
 62
     8
370
    18
100
AcDbPolyline
 90
       33
 70
   128
 43
0.0
 10
279.8113912957
 20
178.8387268142
 10
280.1602881436
 20
179.7245943659
 10
280.6223419402
 20
180.7444649362
 10
281.1436046529
 20
181.7499625383
 10
281.7231857131
 20
182.7393692964
 10
282.3600949163
 20
183.7109948256
 10
283.0532441137
 20
184.6631791201
 10
283.8014490716
 20
185.594295389
 10
284.6034314943
 20
186.5027528356
 10
285.4578212084
 20
187.3869993758
 10
286.3631585034
 20
188.2455242892
 10
287.3178966256
 20
189.0768608002
 10
288.3204044211
 20
189.8795885845
 10
289.368969122
 20
190.6523361951
 10
290.4617992731
 20
191.3937834056
 10
291.5970277926
 20
192.1026634659
 10
292.7727151614
 20
192.7777652664
 10
293.9868527374
 20
193.417935407
 10
295.2373661871
 20
194.0220801676
 10
296.522119029
 20
194.5891673771
 10
297.8389162845
 20
195.1182281765
 10
299.1855082277
 20
195.6083586744
 10
300.5595942287
 20
196.0587214909
 10
301.9588266847
 20
196.4685471888
 10
303.3808150305
 20
196.8371355878
 10
304.8231298229
 20
197.1638569607
 10
306.2833068912
 20
197.4481531095
 10
307.7588515474
 20
197.6895383191
 10
309.2472428482
 20
197.8876001868
 10
310.745937902
 20
198.0420003274
 10
312.2523762136
 20
198.1524749507
 10
313.7639840582
 20
198.2188353127
 10
315.2781788793
 20
198.2409680378
  0
ARC
  5
31C
330
1F
100
AcDbEntity
  8
0
  6
Continuous
 62
     8
370
    18
100
AcDbCircle
 10
306.681398567
 20
159.4119059019
 30
0.0
 40
34.56968207557544
100
AcDbArc
 50
127.0069725098
 51
131.105914803
  0
ARC
  5
31D
330
1F
100
AcDbEntity
  8
0
  6
Continuous
 62
     8
370
    18
100
AcDbCircle
 10
323.8749591916
 20
159.4119059018
 30
0.0
 40
34.56968207566384
100
AcDbArc
 50
48.894085197
 51
52.9930274902
  0
LWPOLYLINE
  5
31E
330
1F
100
AcDbEntity
  8
0
  6
Continuous
 62
     8
370
    18
100
AcDbPolyline
 90
       40
 70
   128
 43
0.0
 10
315.2781788793
 20
196.3260938515
 10
316.7692049984
 20
196.3040091073
 10
318.2576153511
 20
196.2377936186
 10
319.7407987597
 20
196.1275635501
 10
321.2161532167
 20
195.9735122826
 10
322.681090449
 20
195.7759100745
 10
324.1330404588
 20
195.5351035872
 10
325.5694560326
 20
195.251515277
 10
326.9878172092
 20
194.9256426543
 10
328.3856357012
 20
194.5580574104
 10
329.76045926
 20
194.1494044146
 10
331.1098759779
 20
193.7004005832
 10
332.4315185194
 20
193.2118336215
 10
333.7230682745
 20
192.6845606419
 10
334.9822594259
 20
192.1195066605
 10
336.2068829246
 20
191.5176629739
 10
337.3947903648
 20
190.8800854204
 10
338.5438977531
 20
190.2078925278
 10
339.6521891648
 20
189.5022635507
 10
340.7177202801
 20
188.7644364023
 10
341.7386217954
 20
187.9957054819
 10
342.7131027025
 20
187.1974194049
 10
343.6394534307
 20
186.3709786363
 10
344.5160488462
 20
185.517833034
 10
345.3413511026
 20
184.6394793054
 10
346.1139123395
 20
183.7374583812
 10
346.8323772218
 20
182.8133527129
 10
347.495485318
 20
181.8687834956
 10
348.1020733112
 20
180.9054078247
 10
348.6510770399
 20
179.9249157887
 10
349.1415333651
 20
178.9290275036
 10
349.5725818596
 20
177.9194900959
 10
349.9434663181
 20
176.8980746372
 10
350.253536083
 20
175.8665730375
 10
350.5022471866
 20
174.8267949009
 10
350.6891633052
 20
173.7805643516
 10
350.8139565245
 20
172.7297168336
 10
350.8764079146
 20
171.6760958905
 10
350.8764079146
 20
170.6215499314
 10
350.8320733014
 20
169.7867407811
  0
LWPOLYLINE
  5
31F
330
1F
100
AcDbEntity
  8
0
  6
Continuous
 62
     8
370
    18
100
AcDbPolyline
 90
       40
 70
   128
 43
0.0
 10
279.7242844572
 20
169.7867407811
 10
279.6799498441
 20
170.6215499314
 10
279.6799498441
 20
171.6760958905
 10
279.7424012342
 20
172.7297168336
 10
279.8671944534
 20
173.7805643516
 10
280.054110572
 20
174.8267949009
 10
280.3028216757
 20
175.8665730375
 10
280.6128914406
 20
176.8980746372
 10
280.983775899
 20
177.9194900959
 10
281.4148243935
 20
178.9290275036
 10
281.9052807187
 20
179.9249157887
 10
282.4542844474
 20
180.9054078247
 10
283.0608724406
 20
181.8687834956
 10
283.7239805369
 20
182.8133527129
 10
284.4424454191
 20
183.7374583812
 10
285.215006656
 20
184.6394793054
 10
286.0403089124
 20
185.517833034
 10
286.9169043279
 20
186.3709786363
 10
287.8432550561
 20
187.1974194049
 10
288.8177359632
 20
187.9957054819
 10
289.8386374785
 20
188.7644364023
 10
290.9041685938
 20
189.5022635507
 10
292.0124600055
 20
190.2078925278
 10
293.1615673939
 20
190.8800854204
 10
294.349474834
 20
191.5176629739
 10
295.5740983327
 20
192.1195066605
 10
296.8332894842
 20
192.6845606419
 10
298.1248392392
 20
193.2118336215
 10
299.4464817808
 20
193.7004005832
 10
300.7958984987
 20
194.1494044146
 10
302.1707220575
 20
194.5580574104
 10
303.5685405495
 20
194.9256426543
 10
304.9869017261
 20
195.251515277
 10
306.4233172998
 20
195.5351035872
 10
307.8752673096
 20
195.7759100745
 10
309.3402045419
 20
195.9735122826
 10
310.8155589989
 20
196.1275635501
 10
312.2987424075
 20
196.2377936186
 10
313.7871527602
 20
196.3040091073
 10
315.2781788793
 20
196.3260938515
  0
LWPOLYLINE
  5
320
330
1F
100
AcDbEntity
  8
0
  6
Continuous
 62
     8
370
    18
100
AcDbPolyline
 90
       41
 70
   128
 43
0.0
 10
315.2781788793
 20
195.9738935627
 10
313.7916299853
 20
195.9517273157
 10
312.307724121
 20
195.8852679856
 10
310.8290996169
 20
195.7746337347
 10
309.3583854133
 20
195.6200212665
 10
307.8981963865
 20
195.4217054764
 10
306.4511286992
 20
195.1800389628
 10
305.019755185
 20
194.8954513996
 10
303.6066207738
 20
194.5684487734
 10
302.214237967
 20
194.1996124829
 10
300.8450823704
 20
193.7895983054
 10
299.5015882926
 20
193.3391352313
 10
298.1861444172
 20
192.8490241674
 10
296.9010895553
 20
192.3201365134
 10
295.6487084876
 20
191.7534126121
 10
294.4312279019
 20
191.1498600781
 10
293.2508124343
 20
190.5105520056
 10
292.1095608204
 20
189.8366250611
 10
291.0095021639
 20
189.1292774622
 10
289.952592329
 20
188.3897668469
 10
288.9407104627
 20
187.6194080383
 10
287.9756556542
 20
186.8195707062
 10
287.0591437356
 20
185.9916769321
 10
286.1928042317
 20
185.137198681
 10
285.3781774625
 20
184.2576551841
 10
284.6167118046
 20
183.3546102375
 10
283.9097611164
 20
182.4296694222
 10
283.2585823301
 20
181.4844772492
 10
282.664333218
 20
180.5207142358
 10
282.1280703334
 20
179.5400939174
 10
281.650747132
 20
178.5443598011
 10
281.233212277
 20
177.5352822659
 10
280.8762081303
 20
176.5146554148
 10
280.5803694322
 20
175.4842938851
 10
280.346222173
 20
174.4460296219
 10
280.1741826581
 20
173.4017086214
 10
280.0645567674
 20
172.353187648
 10
280.0175394117
 20
171.3023309338
 10
280.0332141863
 20
170.2510068637
 10
280.1115532219
 20
169.2010846535
 10
280.1852726775
 20
168.5962329972
  0
LWPOLYLINE
  5
321
330
1F
100
AcDbEntity
  8
0
  6
Continuous
 62
     8
370
    18
100
AcDbPolyline
 90
       41
 70
   128
 43
0.0
 10
350.3710850811
 20
168.5962329972
 10
350.4448045367
 20
169.2010846535
 10
350.5231435723
 20
170.2510068637
 10
350.5388183469
 20
171.3023309338
 10
350.4918009913
 20
172.353187648
 10
350.3821751006
 20
173.4017086214
 10
350.2101355856
 20
174.4460296219
 10
349.9759883264
 20
175.4842938851
 10
349.6801496283
 20
176.5146554148
 10
349.3231454816
 20
177.5352822659
 10
348.9056106266
 20
178.5443598011
 10
348.4282874252
 20
179.5400939174
 10
347.8920245406
 20
180.5207142358
 10
347.2977754285
 20
181.4844772492
 10
346.6465966423
 20
182.4296694222
 10
345.939645954
 20
183.3546102375
 10
345.1781802961
 20
184.2576551841
 10
344.3635535269
 20
185.137198681
 10
343.497214023
 20
185.9916769321
 10
342.5807021044
 20
186.8195707062
 10
341.6156472959
 20
187.6194080383
 10
340.6037654296
 20
188.3897668469
 10
339.5468555947
 20
189.1292774622
 10
338.4467969382
 20
189.8366250611
 10
337.3055453243
 20
190.5105520056
 10
336.1251298567
 20
191.1498600781
 10
334.907649271
 20
191.7534126121
 10
333.6552682033
 20
192.3201365134
 10
332.3702133414
 20
192.8490241674
 10
331.054769466
 20
193.3391352313
 10
329.7112753883
 20
193.7895983054
 10
328.3421197916
 20
194.1996124829
 10
326.9497369848
 20
194.5684487734
 10
325.5366025736
 20
194.8954513996
 10
324.1052290594
 20
195.1800389628
 10
322.6581613722
 20
195.4217054764
 10
321.1979723453
 20
195.6200212665
 10
319.7272581417
 20
195.7746337347
 10
318.2486336376
 20
195.8852679856
 10
316.7647277733
 20
195.9517273157
 10
315.2781788793
 20
195.9738935627
  0
ENDSEC
  0
SECTION
  2
OBJECTS
  0
DICTIONARY
  5
C
330
0
100
AcDbDictionary
281
     1
  3
ACAD_GROUP
350
D
  3
ACAD_LAYOUT
350
1A
  3
ACAD_MLINESTYLE
350
17
  3
ACAD_PLOTSETTINGS
350
19
  3
ACAD_PLOTSTYLENAME
350
E
  3
ACAD_SCALELIST
350
47
  3
DWGPROPS
350
322
  0
DICTIONARY
  5
D
102
{ACAD_REACTORS
330
C
102
}
330
C
100
AcDbDictionary
281
     1
  0
DICTIONARY
  5
1A
102
{ACAD_REACTORS
330
C
102
}
330
C
100
AcDbDictionary
281
     1
  3
Layout1
350
1E
  3
Layout2
350
26
  3
Model
350
22
  0
DICTIONARY
  5
17
102
{ACAD_REACTORS
330
C
102
}
330
C
100
AcDbDictionary
281
     1
  3
Standard
350
18
  0
DICTIONARY
  5
19
102
{ACAD_REACTORS
330
C
102
}
330
C
100
AcDbDictionary
281
     1
  0
ACDBDICTIONARYWDFLT
  5
E
102
{ACAD_REACTORS
330
C
102
}
330
C
100
AcDbDictionary
281
     1
  3
Normal
350
F
100
AcDbDictionaryWithDefault
340
F
  0
DICTIONARY
  5
47
102
{ACAD_REACTORS
330
C
102
}
330
C
100
AcDbDictionary
281
     1
  3
A0
350
48
  3
A1
350
49
  3
A2
350
4A
  3
A3
350
4B
  3
A4
350
4C
  3
A5
350
4D
  3
A6
350
4E
  3
A7
350
4F
  3
A8
350
50
  3
A9
350
51
  3
B0
350
52
  3
B1
350
53
  3
B2
350
54
  3
B3
350
55
  3
B4
350
56
  3
B5
350
57
  3
B6
350
58
  3
B7
350
59
  3
B8
350
5A
  3
B9
350
5B
  3
C0
350
5C
  3
C1
350
5D
  3
C2
350
5E
  3
C3
350
5F
  3
C4
350
60
  3
C5
350
61
  3
C6
350
62
  3
C7
350
63
  3
C8
350
64
  3
C9
350
65
  3
D0
350
66
  3
D1
350
67
  3
D2
350
68
  0
XRECORD
  5
322
102
{ACAD_REACTORS
330
C
102
}
330
C
100
AcDbXrecord
280
     1
  1
DWGPROPS COOKIE
  2

  3

  4

  6

  7

  8
ch-ntl-rs-wscad
  9

300
=
301
=
302
=
303
=
304
=
305
=
306
=
307
=
308
=
309
=
 40
0.0
 41
2460569.719498403
 42
2460569.719507569
  1

 90
        0
  0
LAYOUT
  5
1E
102
{ACAD_REACTORS
330
1A
102
}
330
1A
100
AcDbPlotSettings
  1

  2
none_device
  4

  6

 40
0.0
 41
0.0
 42
0.0
 43
0.0
 44
0.0
 45
0.0
 46
0.0
 47
0.0
 48
0.0
 49
0.0
140
0.0
141
0.0
142
1.0
143
1.0
 70
   688
 72
     1
 73
     0
 74
     5
  7

 75
    16
147
1.0
148
0.0
149
0.0
100
AcDbLayout
  1
Layout1
 70
     1
 71
     1
 10
0.0
 20
0.0
 11
420.0
 21
297.0
 12
0.0
 22
0.0
 32
0.0
 14
1.0000000000E+20
 24
1.0000000000E+20
 34
1.0000000000E+20
 15
-1.0000000000E+20
 25
-1.0000000000E+20
 35
-1.0000000000E+20
146
0.0
 13
0.0
 23
0.0
 33
0.0
 16
1.0
 26
0.0
 36
0.0
 17
0.0
 27
1.0
 37
0.0
 76
     0
330
1B
  0
LAYOUT
  5
26
102
{ACAD_REACTORS
330
1A
102
}
330
1A
100
AcDbPlotSettings
  1

  2
none_device
  4

  6

 40
0.0
 41
0.0
 42
0.0
 43
0.0
 44
0.0
 45
0.0
 46
0.0
 47
0.0
 48
0.0
 49
0.0
140
0.0
141
0.0
142
1.0
143
1.0
 70
   688
 72
     1
 73
     0
 74
     5
  7

 75
    16
147
1.0
148
0.0
149
0.0
100
AcDbLayout
  1
Layout2
 70
     1
 71
     2
 10
0.0
 20
0.0
 11
0.0
 21
0.0
 12
0.0
 22
0.0
 32
0.0
 14
0.0
 24
0.0
 34
0.0
 15
0.0
 25
0.0
 35
0.0
146
0.0
 13
0.0
 23
0.0
 33
0.0
 16
1.0
 26
0.0
 36
0.0
 17
0.0
 27
1.0
 37
0.0
 76
     0
330
23
  0
LAYOUT
  5
22
102
{ACAD_REACTORS
330
1A
102
}
330
1A
100
AcDbPlotSettings
  1

  2
none_device
  4
Letter_(8.50_x_11.00_Inches)
  6

 40
6.35
 41
6.35
 42
6.35000508
 43
6.35000508
 44
215.9
 45
279.4
 46
0.0
 47
0.0
 48
0.0
 49
0.0
140
0.0
141
0.0
142
1.0
143
1.0
 70
  1712
 72
     1
 73
     0
 74
     0
  7

 75
     0
147
1.0
148
0.0
149
0.0
100
AcDbLayout
  1
Model
 70
     1
 71
     0
 10
0.0
 20
0.0
 11
420.0
 21
297.0
 12
0.0
 22
0.0
 32
0.0
 14
0.0
 24
0.0
 34
0.0
 15
420.0
 25
297.0
 35
0.0
146
0.0
 13
0.0
 23
0.0
 33
0.0
 16
1.0
 26
0.0
 36
0.0
 17
0.0
 27
1.0
 37
0.0
 76
     0
330
1F
331
29
  0
MLINESTYLE
  5
18
102
{ACAD_REACTORS
330
17
102
}
330
17
100
AcDbMlineStyle
  2
Standard
 70
     0
  3

 62
   256
 51
90.0
 52
90.0
 71
     2
 49
0.5
 62
   256
  6
BYLAYER
 49
-0.5
 62
   256
  6
BYLAYER
  0
ACDBPLACEHOLDER
  5
F
102
{ACAD_REACTORS
330
E
102
}
330
E
  0
SCALE
  5
48
102
{ACAD_REACTORS
330
47
102
}
330
47
100
AcDbScale
 70
     0
300
1:1
140
1.0
141
1.0
290
     1
  0
SCALE
  5
49
102
{ACAD_REACTORS
330
47
102
}
330
47
100
AcDbScale
 70
     0
300
1:2
140
1.0
141
2.0
290
     0
  0
SCALE
  5
4A
102
{ACAD_REACTORS
330
47
102
}
330
47
100
AcDbScale
 70
     0
300
1:4
140
1.0
141
4.0
290
     0
  0
SCALE
  5
4B
102
{ACAD_REACTORS
330
47
102
}
330
47
100
AcDbScale
 70
     0
300
1:5
140
1.0
141
5.0
290
     0
  0
SCALE
  5
4C
102
{ACAD_REACTORS
330
47
102
}
330
47
100
AcDbScale
 70
     0
300
1:8
140
1.0
141
8.0
290
     0
  0
SCALE
  5
4D
102
{ACAD_REACTORS
330
47
102
}
330
47
100
AcDbScale
 70
     0
300
1:10
140
1.0
141
10.0
290
     0
  0
SCALE
  5
4E
102
{ACAD_REACTORS
330
47
102
}
330
47
100
AcDbScale
 70
     0
300
1:16
140
1.0
141
16.0
290
     0
  0
SCALE
  5
4F
102
{ACAD_REACTORS
330
47
102
}
330
47
100
AcDbScale
 70
     0
300
1:20
140
1.0
141
20.0
290
     0
  0
SCALE
  5
50
102
{ACAD_REACTORS
330
47
102
}
330
47
100
AcDbScale
 70
     0
300
1:30
140
1.0
141
30.0
290
     0
  0
SCALE
  5
51
102
{ACAD_REACTORS
330
47
102
}
330
47
100
AcDbScale
 70
     0
300
1:40
140
1.0
141
40.0
290
     0
  0
SCALE
  5
52
102
{ACAD_REACTORS
330
47
102
}
330
47
100
AcDbScale
 70
     0
300
1:50
140
1.0
141
50.0
290
     0
  0
SCALE
  5
53
102
{ACAD_REACTORS
330
47
102
}
330
47
100
AcDbScale
 70
     0
300
1:100
140
1.0
141
100.0
290
     0
  0
SCALE
  5
54
102
{ACAD_REACTORS
330
47
102
}
330
47
100
AcDbScale
 70
     0
300
2:1
140
2.0
141
1.0
290
     0
  0
SCALE
  5
55
102
{ACAD_REACTORS
330
47
102
}
330
47
100
AcDbScale
 70
     0
300
4:1
140
4.0
141
1.0
290
     0
  0
SCALE
  5
56
102
{ACAD_REACTORS
330
47
102
}
330
47
100
AcDbScale
 70
     0
300
8:1
140
8.0
141
1.0
290
     0
  0
SCALE
  5
57
102
{ACAD_REACTORS
330
47
102
}
330
47
100
AcDbScale
 70
     0
300
10:1
140
10.0
141
1.0
290
     0
  0
SCALE
  5
58
102
{ACAD_REACTORS
330
47
102
}
330
47
100
AcDbScale
 70
     0
300
100:1
140
100.0
141
1.0
290
     0
  0
SCALE
  5
59
102
{ACAD_REACTORS
330
47
102
}
330
47
100
AcDbScale
 70
     0
300
1/128" = 1'-0"
140
0.0078125
141
12.0
290
     0
  0
SCALE
  5
5A
102
{ACAD_REACTORS
330
47
102
}
330
47
100
AcDbScale
 70
     0
300
1/64" = 1'-0"
140
0.015625
141
12.0
290
     0
  0
SCALE
  5
5B
102
{ACAD_REACTORS
330
47
102
}
330
47
100
AcDbScale
 70
     0
300
1/32" = 1'-0"
140
0.03125
141
12.0
290
     0
  0
SCALE
  5
5C
102
{ACAD_REACTORS
330
47
102
}
330
47
100
AcDbScale
 70
     0
300
1/16" = 1'-0"
140
0.0625
141
12.0
290
     0
  0
SCALE
  5
5D
102
{ACAD_REACTORS
330
47
102
}
330
47
100
AcDbScale
 70
     0
300
3/32" = 1'-0"
140
0.09375
141
12.0
290
     0
  0
SCALE
  5
5E
102
{ACAD_REACTORS
330
47
102
}
330
47
100
AcDbScale
 70
     0
300
1/8" = 1'-0"
140
0.125
141
12.0
290
     0
  0
SCALE
  5
5F
102
{ACAD_REACTORS
330
47
102
}
330
47
100
AcDbScale
 70
     0
300
3/16" = 1'-0"
140
0.1875
141
12.0
290
     0
  0
SCALE
  5
60
102
{ACAD_REACTORS
330
47
102
}
330
47
100
AcDbScale
 70
     0
300
1/4" = 1'-0"
140
0.25
141
12.0
290
     0
  0
SCALE
  5
61
102
{ACAD_REACTORS
330
47
102
}
330
47
100
AcDbScale
 70
     0
300
3/8" = 1'-0"
140
0.375
141
12.0
290
     0
  0
SCALE
  5
62
102
{ACAD_REACTORS
330
47
102
}
330
47
100
AcDbScale
 70
     0
300
1/2" = 1'-0"
140
0.5
141
12.0
290
     0
  0
SCALE
  5
63
102
{ACAD_REACTORS
330
47
102
}
330
47
100
AcDbScale
 70
     0
300
3/4" = 1'-0"
140
0.75
141
12.0
290
     0
  0
SCALE
  5
64
102
{ACAD_REACTORS
330
47
102
}
330
47
100
AcDbScale
 70
     0
300
1" = 1'-0"
140
1.0
141
12.0
290
     0
  0
SCALE
  5
65
102
{ACAD_REACTORS
330
47
102
}
330
47
100
AcDbScale
 70
     0
300
1-1/2" = 1'-0"
140
1.5
141
12.0
290
     0
  0
SCALE
  5
66
102
{ACAD_REACTORS
330
47
102
}
330
47
100
AcDbScale
 70
     0
300
3" = 1'-0"
140
3.0
141
12.0
290
     0
  0
SCALE
  5
67
102
{ACAD_REACTORS
330
47
102
}
330
47
100
AcDbScale
 70
     0
300
6" = 1'-0"
140
6.0
141
12.0
290
     0
  0
SCALE
  5
68
102
{ACAD_REACTORS
330
47
102
}
330
47
100
AcDbScale
 70
     0
300
1'-0" = 1'-0"
140
12.0
141
12.0
290
     0
  0
ENDSEC
  0
EOF
