  0
SECTION
  2
HEADER
  9
$ACADVER
  1
AC1015
  9
$ACADMAINTVER
 70
     6
  9
$DWGCODEPAGE
  3
ANSI_1252
  9
$INSBASE
 10
0.0
 20
0.0
 30
0.0
  9
$EXTMIN
 10
0.0
 20
0.0
 30
0.0
  9
$EXTMAX
 10
420.0
 20
297.0
 30
0.0
  9
$LIMMIN
 10
0.0
 20
0.0
  9
$LIMMAX
 10
420.0
 20
297.0
  9
$ORTHOMODE
 70
     0
  9
$REGENMODE
 70
     1
  9
$FILLMODE
 70
     1
  9
$QTEXTMODE
 70
     0
  9
$MIRRTEXT
 70
     1
  9
$LTSCALE
 40
1.0
  9
$ATTMODE
 70
     1
  9
$TEXTSIZE
 40
3.5
  9
$TRACEWID
 40
1.0
  9
$TEXTSTYLE
  7
Standard
  9
$CLAYER
  8
0
  9
$CELTYPE
  6
ByLayer
  9
$CECOLOR
 62
   256
  9
$CELTSCALE
 40
1.0
  9
$DISPSILH
 70
     0
  9
$DIMSCALE
 40
1.0
  9
$DIMASZ
 40
3.5
  9
$DIMEXO
 40
0.1
  9
$DIMDLI
 40
3.75
  9
$DIMRND
 40
0.0
  9
$DIMDLE
 40
0.0
  9
$DIMEXE
 40
1.0
  9
$DIMTP
 40
0.0
  9
$DIMTM
 40
0.0
  9
$DIMTXT
 40
3.5
  9
$DIMCEN
 40
2.5
  9
$DIMTSZ
 40
0.0
  9
$DIMTOL
 70
     0
  9
$DIMLIM
 70
     0
  9
$DIMTIH
 70
     1
  9
$DIMTOH
 70
     1
  9
$DIMSE1
 70
     0
  9
$DIMSE2
 70
     0
  9
$DIMTAD
 70
     1
  9
$DIMZIN
 70
     0
  9
$DIMBLK
  1

  9
$DIMASO
 70
     1
  9
$DIMSHO
 70
     1
  9
$DIMPOST
  1

  9
$DIMAPOST
  1

  9
$DIMALT
 70
     0
  9
$DIMALTD
 70
     3
  9
$DIMALTF
 40
0.0393700787
  9
$DIMLFAC
 40
1.0
  9
$DIMTOFL
 70
     1
  9
$DIMTVP
 40
0.0
  9
$DIMTIX
 70
     0
  9
$DIMSOXD
 70
     0
  9
$DIMSAH
 70
     0
  9
$DIMBLK1
  1

  9
$DIMBLK2
  1

  9
$DIMSTYLE
  2
ISO-25
  9
$DIMCLRD
 70
     0
  9
$DIMCLRE
 70
     0
  9
$DIMCLRT
 70
     0
  9
$DIMTFAC
 40
1.0
  9
$DIMGAP
 40
2.0
  9
$DIMJUST
 70
     0
  9
$DIMSD1
 70
     0
  9
$DIMSD2
 70
     0
  9
$DIMTOLJ
 70
     0
  9
$DIMTZIN
 70
     0
  9
$DIMALTZ
 70
     0
  9
$DIMALTTZ
 70
     0
  9
$DIMUPT
 70
     0
  9
$DIMDEC
 70
     2
  9
$DIMTDEC
 70
     3
  9
$DIMALTU
 70
     2
  9
$DIMALTTD
 70
     3
  9
$DIMTXSTY
  7
Standard
  9
$DIMAUNIT
 70
     0
  9
$DIMADEC
 70
     2
  9
$DIMALTRND
 40
0.0
  9
$DIMAZIN
 70
     0
  9
$DIMDSEP
 70
    44
  9
$DIMATFIT
 70
     3
  9
$DIMFRAC
 70
     0
  9
$DIMLDRBLK
  1

  9
$DIMLUNIT
 70
     2
  9
$DIMLWD
 70
    -2
  9
$DIMLWE
 70
    -2
  9
$DIMTMOVE
 70
     0
  9
$LUNITS
 70
     2
  9
$LUPREC
 70
     2
  9
$SKETCHINC
 40
1.0
  9
$FILLETRAD
 40
10.0
  9
$AUNITS
 70
     0
  9
$AUPREC
 70
     2
  9
$MENU
  1
.
  9
$ELEVATION
 40
0.0
  9
$PELEVATION
 40
0.0
  9
$THICKNESS
 40
0.0
  9
$LIMCHECK
 70
     0
  9
$CHAMFERA
 40
0.0
  9
$CHAMFERB
 40
0.0
  9
$CHAMFERC
 40
0.0
  9
$CHAMFERD
 40
0.0
  9
$SKPOLY
 70
     0
  9
$TDCREATE
 40
2460569.820960938
  9
$TDUCREATE
 40
2460569.737627604
  9
$TDUPDATE
 40
2460569.820977651
  9
$TDUUPDATE
 40
2460569.737644317
  9
$TDINDWG
 40
0.0000000116
  9
$TDUSRTIMER
 40
0.0000000116
  9
$USRTIMER
 70
     1
  9
$ANGBASE
 50
0.0
  9
$ANGDIR
 70
     0
  9
$PDMODE
 70
     0
  9
$PDSIZE
 40
-1.0
  9
$PLINEWID
 40
0.0
  9
$SPLFRAME
 70
     0
  9
$SPLINETYPE
 70
     6
  9
$SPLINESEGS
 70
     8
  9
$HANDSEED
  5
477
  9
$SURFTAB1
 70
     6
  9
$SURFTAB2
 70
     6
  9
$SURFTYPE
 70
     6
  9
$SURFU
 70
     6
  9
$SURFV
 70
     6
  9
$UCSBASE
  2

  9
$UCSNAME
  2

  9
$UCSORG
 10
0.0
 20
0.0
 30
0.0
  9
$UCSXDIR
 10
1.0
 20
0.0
 30
0.0
  9
$UCSYDIR
 10
0.0
 20
1.0
 30
0.0
  9
$UCSORTHOREF
  2

  9
$UCSORTHOVIEW
 70
     0
  9
$UCSORGTOP
 10
0.0
 20
0.0
 30
0.0
  9
$UCSORGBOTTOM
 10
0.0
 20
0.0
 30
0.0
  9
$UCSORGLEFT
 10
0.0
 20
0.0
 30
0.0
  9
$UCSORGRIGHT
 10
0.0
 20
0.0
 30
0.0
  9
$UCSORGFRONT
 10
0.0
 20
0.0
 30
0.0
  9
$UCSORGBACK
 10
0.0
 20
0.0
 30
0.0
  9
$PUCSBASE
  2

  9
$PUCSNAME
  2

  9
$PUCSORG
 10
0.0
 20
0.0
 30
0.0
  9
$PUCSXDIR
 10
1.0
 20
0.0
 30
0.0
  9
$PUCSYDIR
 10
0.0
 20
1.0
 30
0.0
  9
$PUCSORTHOREF
  2

  9
$PUCSORTHOVIEW
 70
     0
  9
$PUCSORGTOP
 10
0.0
 20
0.0
 30
0.0
  9
$PUCSORGBOTTOM
 10
0.0
 20
0.0
 30
0.0
  9
$PUCSORGLEFT
 10
0.0
 20
0.0
 30
0.0
  9
$PUCSORGRIGHT
 10
0.0
 20
0.0
 30
0.0
  9
$PUCSORGFRONT
 10
0.0
 20
0.0
 30
0.0
  9
$PUCSORGBACK
 10
0.0
 20
0.0
 30
0.0
  9
$USERI1
 70
     0
  9
$USERI2
 70
     0
  9
$USERI3
 70
     0
  9
$USERI4
 70
     0
  9
$USERI5
 70
     0
  9
$USERR1
 40
0.0
  9
$USERR2
 40
0.0
  9
$USERR3
 40
0.0
  9
$USERR4
 40
0.0
  9
$USERR5
 40
0.0
  9
$WORLDVIEW
 70
     1
  9
$SHADEDGE
 70
     3
  9
$SHADEDIF
 70
    70
  9
$TILEMODE
 70
     1
  9
$MAXACTVP
 70
    64
  9
$PINSBASE
 10
0.0
 20
0.0
 30
0.0
  9
$PLIMCHECK
 70
     0
  9
$PEXTMIN
 10
1.0000000000E+20
 20
1.0000000000E+20
 30
1.0000000000E+20
  9
$PEXTMAX
 10
-1.0000000000E+20
 20
-1.0000000000E+20
 30
-1.0000000000E+20
  9
$PLIMMIN
 10
0.0
 20
0.0
  9
$PLIMMAX
 10
420.0
 20
297.0
  9
$UNITMODE
 70
     0
  9
$VISRETAIN
 70
     1
  9
$PLINEGEN
 70
     0
  9
$PSLTSCALE
 70
     1
  9
$TREEDEPTH
 70
  3020
  9
$CMLSTYLE
  2
Standard
  9
$CMLJUST
 70
     0
  9
$CMLSCALE
 40
20.0
  9
$PROXYGRAPHICS
 70
     1
  9
$MEASUREMENT
 70
     1
  9
$CELWEIGHT
370
    -1
  9
$ENDCAPS
280
     0
  9
$JOINSTYLE
280
     0
  9
$LWDISPLAY
290
     1
  9
$INSUNITS
 70
     4
  9
$HYPERLINKBASE
  1

  9
$STYLESHEET
  1

  9
$XEDIT
290
     1
  9
$CEPSNTYPE
380
     0
  9
$PSTYLEMODE
290
     1
  9
$FINGERPRINTGUID
  2
{7efd2eba-3d91-4a36-9343-bd1920d74381}
  9
$VERSIONGUID
  2
{FAEB1C32-E019-11D5-929B-00C0DF256EC4}
  9
$EXTNAMES
290
     1
  9
$PSVPSCALE
 40
0.0
  9
$OLESTARTUP
290
     0
  0
ENDSEC
  0
SECTION
  2
CLASSES
  0
CLASS
  1
ACDBDICTIONARYWDFLT
  2
AcDbDictionaryWithDefault
  3
ObjectDBX Classes
 90
        0
280
     0
281
     0
  0
CLASS
  1
VISUALSTYLE
  2
AcDbVisualStyle
  3
ObjectDBX Classes
 90
     4095
280
     0
281
     0
  0
CLASS
  1
MATERIAL
  2
AcDbMaterial
  3
ObjectDBX Classes
 90
     1153
280
     0
281
     0
  0
CLASS
  1
SCALE
  2
AcDbScale
  3
ObjectDBX Classes
 90
     1153
280
     0
281
     0
  0
CLASS
  1
TABLESTYLE
  2
AcDbTableStyle
  3
ObjectDBX Classes
 90
     4095
280
     0
281
     0
  0
CLASS
  1
MLEADERSTYLE
  2
AcDbMLeaderStyle
  3
ACDB_MLEADERSTYLE_CLASS
 90
     4095
280
     0
281
     0
  0
CLASS
  1
SUN
  2
AcDbSun
  3
SCENEOE
 90
     1153
280
     0
281
     0
  0
CLASS
  1
ACDBPLACEHOLDER
  2
AcDbPlaceHolder
  3
ObjectDBX Classes
 90
        0
280
     0
281
     0
  0
CLASS
  1
LAYOUT
  2
AcDbLayout
  3
ObjectDBX Classes
 90
        0
280
     0
281
     0
  0
ENDSEC
  0
SECTION
  2
TABLES
  0
TABLE
  2
VPORT
  5
8
330
0
100
AcDbSymbolTable
 70
     1
  0
VPORT
  5
29
330
8
100
AcDbSymbolTableRecord
100
AcDbViewportTableRecord
  2
*Active
 70
     0
 10
0.0
 20
0.0
 11
1.0
 21
1.0
 12
210.0
 22
148.5
 13
0.0
 23
0.0
 14
10.0
 24
10.0
 15
10.0
 25
10.0
 16
0.0
 26
0.0
 36
1.0
 17
0.0
 27
0.0
 37
0.0
 40
297.0
 41
1.4141414141
 42
50.0
 43
0.0
 44
0.0
 50
0.0
 51
0.0
 71
     0
 72
  2000
 73
     1
 74
     3
 75
     0
 76
     0
 77
     0
 78
     0
281
     0
 65
     1
110
0.0
120
0.0
130
0.0
111
1.0
121
0.0
131
0.0
112
0.0
122
1.0
132
0.0
 79
     0
146
0.0
  0
ENDTAB
  0
TABLE
  2
LTYPE
  5
5
330
0
100
AcDbSymbolTable
 70
     6
  0
LTYPE
  5
14
330
5
100
AcDbSymbolTableRecord
100
AcDbLinetypeTableRecord
  2
ByBlock
 70
     0
  3

 72
    65
 73
     0
 40
0.0
  0
LTYPE
  5
15
330
5
100
AcDbSymbolTableRecord
100
AcDbLinetypeTableRecord
  2
ByLayer
 70
     0
  3

 72
    65
 73
     0
 40
0.0
  0
LTYPE
  5
16
330
5
100
AcDbSymbolTableRecord
100
AcDbLinetypeTableRecord
  2
Continuous
 70
     0
  3
Solid line
 72
    65
 73
     0
 40
0.0
  0
LTYPE
  5
6E
330
5
100
AcDbSymbolTableRecord
100
AcDbLinetypeTableRecord
  2
HIDDEN
 70
     0
  3
Hidden __ __ __ __ __ __ __ __ __ __ __ __ __ __
 72
    65
 73
     2
 40
1.905
 49
1.27
 74
     0
 49
-0.635
 74
     0
  0
LTYPE
  5
6F
330
5
100
AcDbSymbolTableRecord
100
AcDbLinetypeTableRecord
  2
PHANTOM
 70
     0
  3
Phantom ______  __  __  ______  __  __  ______
 72
    65
 73
     6
 40
12.7
 49
6.35
 74
     0
 49
-1.27
 74
     0
 49
1.27
 74
     0
 49
-1.27
 74
     0
 49
1.27
 74
     0
 49
-1.27
 74
     0
  0
LTYPE
  5
70
330
5
100
AcDbSymbolTableRecord
100
AcDbLinetypeTableRecord
  2
CENTER
 70
     0
  3
Center ____ _ ____ _ ____ _ ____ _ ____ _ ____
 72
    65
 73
     4
 40
10.16
 49
6.35
 74
     0
 49
-1.27
 74
     0
 49
1.27
 74
     0
 49
-1.27
 74
     0
  0
LTYPE
  5
71
330
5
100
AcDbSymbolTableRecord
100
AcDbLinetypeTableRecord
  2
CENTERX2
 70
     0
  3
Center (2x) ________  __  ________  __  _____
 72
    65
 73
     4
 40
20.32
 49
12.7
 74
     0
 49
-2.54
 74
     0
 49
2.54
 74
     0
 49
-2.54
 74
     0
  0
LTYPE
  5
72
330
5
100
AcDbSymbolTableRecord
100
AcDbLinetypeTableRecord
  2
DOT2
 70
     0
  3
Dot (.5x) ........................................
 72
    65
 73
     2
 40
0.635
 49
0.0
 74
     0
 49
-0.635
 74
     0
  0
ENDTAB
  0
TABLE
  2
LAYER
  5
2
330
0
100
AcDbSymbolTable
 70
     1
  0
LAYER
  5
10
330
2
100
AcDbSymbolTableRecord
100
AcDbLayerTableRecord
  2
0
 70
     0
 62
     7
  6
Continuous
370
    -3
390
F
  0
ENDTAB
  0
TABLE
  2
STYLE
  5
3
330
0
100
AcDbSymbolTable
 70
     3
  0
STYLE
  5
11
330
3
100
AcDbSymbolTableRecord
100
AcDbTextStyleTableRecord
  2
Standard
 70
     0
 40
0.0
 41
1.0
 50
0.0
 71
     0
 42
3.5
  3
txt
  4

  0
STYLE
  5
E9
330
3
100
AcDbSymbolTableRecord
100
AcDbTextStyleTableRecord
  2
SLDTEXTSTYLE0
 70
     0
 40
0.0
 41
0.605
 50
0.0
 71
     0
 42
3.5
  3
TXT
  4

  0
STYLE
  5
196
330
3
100
AcDbSymbolTableRecord
100
AcDbTextStyleTableRecord
  2
SLDTEXTSTYLE1
 70
     0
 40
0.0
 41
0.563
 50
0.0
 71
     0
 42
3.5
  3
TXT
  4

  0
ENDTAB
  0
TABLE
  2
VIEW
  5
6
330
0
100
AcDbSymbolTable
 70
     0
  0
ENDTAB
  0
TABLE
  2
UCS
  5
7
330
0
100
AcDbSymbolTable
 70
     0
  0
ENDTAB
  0
TABLE
  2
APPID
  5
9
330
0
100
AcDbSymbolTable
 70
     1
  0
APPID
  5
12
330
9
100
AcDbSymbolTableRecord
100
AcDbRegAppTableRecord
  2
ACAD
 70
     0
  0
ENDTAB
  0
TABLE
  2
DIMSTYLE
  5
A
330
0
100
AcDbSymbolTable
 70
     2
100
AcDbDimStyleTable
  0
DIMSTYLE
105
27
330
A
100
AcDbSymbolTableRecord
100
AcDbDimStyleTableRecord
  2
ISO-25
 70
     0
 41
2.5
 42
0.625
 43
3.75
 44
1.25
 73
     0
 74
     0
 77
     1
 78
     8
140
2.5
141
2.5
143
0.0393700787
147
0.625
171
     3
172
     1
178
     0
271
     2
272
     2
274
     3
278
    44
283
     0
284
     8
340
11
  0
DIMSTYLE
105
326
102
{ACAD_REACTORS
330
325
330
331
330
33C
330
346
330
350
330
35B
330
366
330
371
330
37C
102
}
330
A
100
AcDbSymbolTableRecord
100
AcDbDimStyleTableRecord
  2
SLDDIMSTYLE0
 70
     0
 41
3.5
 44
0.0
 45
0.000000001
 73
     0
 74
     0
 77
     1
 78
    12
 79
     3
140
3.5
147
0.875
173
     1
178
     0
271
     2
272
     3
276
     2
284
    12
340
E9
  0
ENDTAB
  0
TABLE
  2
BLOCK_RECORD
  5
1
330
0
100
AcDbSymbolTable
 70
    18
  0
BLOCK_RECORD
  5
1F
330
1
100
AcDbSymbolTableRecord
100
AcDbBlockTableRecord
  2
*Model_Space
340
22
  0
BLOCK_RECORD
  5
1B
330
1
100
AcDbSymbolTableRecord
100
AcDbBlockTableRecord
  2
*Paper_Space
340
1E
  0
BLOCK_RECORD
  5
23
330
1
100
AcDbSymbolTableRecord
100
AcDbBlockTableRecord
  2
*Paper_Space0
340
26
  0
BLOCK_RECORD
  5
73
330
1
100
AcDbSymbolTableRecord
100
AcDbBlockTableRecord
  2
ACO-Logo
340
0
102
{BLKREFS
331
149
102
}
  0
BLOCK_RECORD
  5
E6
330
1
100
AcDbSymbolTableRecord
100
AcDbBlockTableRecord
  2
SW_NOTE_0
340
0
102
{BLKREFS
331
EB
102
}
  0
BLOCK_RECORD
  5
EC
330
1
100
AcDbSymbolTableRecord
100
AcDbBlockTableRecord
  2
SW_NOTE_0_1
340
0
102
{BLKREFS
331
F0
102
}
  0
BLOCK_RECORD
  5
F1
330
1
100
AcDbSymbolTableRecord
100
AcDbBlockTableRecord
  2
SW_NOTE_0_2
340
0
102
{BLKREFS
331
F8
102
}
  0
BLOCK_RECORD
  5
170
330
1
100
AcDbSymbolTableRecord
100
AcDbBlockTableRecord
  2
SW_NOTE_0_3
340
0
102
{BLKREFS
331
178
102
}
  0
BLOCK_RECORD
  5
200
330
1
100
AcDbSymbolTableRecord
100
AcDbBlockTableRecord
  2
SW_CENTERMARKSYMBOL_0
340
0
102
{BLKREFS
331
20B
102
}
  0
BLOCK_RECORD
  5
213
330
1
100
AcDbSymbolTableRecord
100
AcDbBlockTableRecord
  2
SW_BROKEN_VIEW_0
340
0
102
{BLKREFS
331
216
102
}
  0
BLOCK_RECORD
  5
327
330
1
100
AcDbSymbolTableRecord
100
AcDbBlockTableRecord
  2
_D
340
0
  0
BLOCK_RECORD
  5
332
330
1
100
AcDbSymbolTableRecord
100
AcDbBlockTableRecord
  2
_D_1
340
0
  0
BLOCK_RECORD
  5
33D
330
1
100
AcDbSymbolTableRecord
100
AcDbBlockTableRecord
  2
_D_2
340
0
  0
BLOCK_RECORD
  5
347
330
1
100
AcDbSymbolTableRecord
100
AcDbBlockTableRecord
  2
_D_3
340
0
  0
BLOCK_RECORD
  5
351
330
1
100
AcDbSymbolTableRecord
100
AcDbBlockTableRecord
  2
_D_4
340
0
  0
BLOCK_RECORD
  5
35C
330
1
100
AcDbSymbolTableRecord
100
AcDbBlockTableRecord
  2
_D_5
340
0
  0
BLOCK_RECORD
  5
367
330
1
100
AcDbSymbolTableRecord
100
AcDbBlockTableRecord
  2
_D_6
340
0
  0
BLOCK_RECORD
  5
372
330
1
100
AcDbSymbolTableRecord
100
AcDbBlockTableRecord
  2
_D_7
340
0
  0
BLOCK_RECORD
  5
37D
330
1
100
AcDbSymbolTableRecord
100
AcDbBlockTableRecord
  2
_D_8
340
0
  0
BLOCK_RECORD
  5
38B
330
1
100
AcDbSymbolTableRecord
100
AcDbBlockTableRecord
  2
SW_HATCH_0
340
0
102
{BLKREFS
331
475
102
}
  0
ENDTAB
  0
ENDSEC
  0
SECTION
  2
BLOCKS
  0
BLOCK
  5
20
330
1F
100
AcDbEntity
  8
0
100
AcDbBlockBegin
  2
*Model_Space
 70
     0
 10
0.0
 20
0.0
 30
0.0
  3
*Model_Space
  1

  0
ENDBLK
  5
21
330
1F
100
AcDbEntity
  8
0
100
AcDbBlockEnd
  0
BLOCK
  5
1C
330
1B
100
AcDbEntity
 67
     1
  8
0
100
AcDbBlockBegin
  2
*Paper_Space
 70
     0
 10
0.0
 20
0.0
 30
0.0
  3
*Paper_Space
  1

  0
ENDBLK
  5
1D
330
1B
100
AcDbEntity
 67
     1
  8
0
100
AcDbBlockEnd
  0
BLOCK
  5
24
330
23
100
AcDbEntity
  8
0
100
AcDbBlockBegin
  2
*Paper_Space0
 70
     0
 10
0.0
 20
0.0
 30
0.0
  3
*Paper_Space0
  1

  0
ENDBLK
  5
25
330
23
100
AcDbEntity
  8
0
100
AcDbBlockEnd
  0
BLOCK
  5
74
330
73
100
AcDbEntity
  8
0
100
AcDbBlockBegin
  2
ACO-Logo
 70
     0
 10
0.0
 20
0.0
 30
0.0
  3
ACO-Logo
  1

  0
ARC
  5
76
330
73
100
AcDbEntity
  8
0
  6
Continuous
 62
   179
370
    18
100
AcDbCircle
 10
80.3853261169
 20
4.9940995715
 30
0.0
 40
0.3000000000000441
100
AcDbArc
 50
181.9349323096
 51
274.6062978506
  0
ARC
  5
77
330
73
100
AcDbEntity
  8
0
  6
Continuous
 62
   179
370
    18
100
AcDbCircle
 10
81.2359083165
 20
2.1946665956
 30
0.0
 40
1.000000000000021
100
AcDbArc
 50
221.4087409628
 51
276.0561297228
  0
ARC
  5
78
330
73
100
AcDbEntity
  8
0
  6
Continuous
 62
   179
370
    18
100
AcDbCircle
 10
79.1360017163
 20
3.654242048
 30
0.0
 40
0.300000000000004
100
AcDbArc
 50
181.2730300201
 51
274.4996077095
  0
ARC
  5
79
330
73
100
AcDbEntity
  8
0
  6
Continuous
 62
   179
370
    18
100
AcDbCircle
 10
78.7699033484
 20
3.2873137407
 30
0.0
 40
0.4000000000000358
100
AcDbArc
 50
221.0090869016
 51
274.5606296317
  0
ARC
  5
7A
330
73
100
AcDbEntity
  8
0
  6
Continuous
 62
   179
370
    18
100
AcDbCircle
 10
91.2333953062
 20
4.6062442307
 30
0.0
 40
0.3000000000000493
100
AcDbArc
 50
274.4996077095
 51
3.7249371334
  0
ARC
  5
7B
330
73
100
AcDbEntity
  8
0
  6
Continuous
 62
   179
370
    18
100
AcDbCircle
 10
81.5287571045
 20
9.7648973508
 30
0.0
 40
1.00000000000002
100
AcDbArc
 50
93.1134387481
 51
181.9414863909
  0
ARC
  5
7C
330
73
100
AcDbEntity
  8
0
  6
Continuous
 62
   179
370
    18
100
AcDbCircle
 10
81.6051675115
 20
7.5107903456
 30
0.0
 40
1.0
100
AcDbArc
 50
181.9414863909
 51
274.398705355
  0
ARC
  5
7D
330
73
100
AcDbEntity
  8
0
  6
Continuous
 62
   179
370
    18
100
AcDbCircle
 10
80.1506905656
 20
11.9393118923
 30
0.0
 40
0.300000000000045
100
AcDbArc
 50
93.0418421566
 51
181.9349323096
  0
ARC
  5
7E
330
73
100
AcDbEntity
  8
0
  6
Continuous
 62
   179
370
    18
100
AcDbCircle
 10
78.1879722102
 20
12.3499352608
 30
0.0
 40
0.7999999999953393
100
AcDbArc
 50
92.6995697565
 51
148.2554209065
  0
ARC
  5
7F
330
73
100
AcDbEntity
  8
0
  6
Continuous
 62
   179
370
    18
100
AcDbCircle
 10
78.930862229
 20
12.8855189761
 30
0.0
 40
0.3000000000000031
100
AcDbArc
 50
92.6995697565
 51
181.2730300201
  0
ARC
  5
80
330
73
100
AcDbEntity
  8
0
  6
Continuous
 62
   179
370
    18
100
AcDbCircle
 10
82.327743407
 20
9.8083568568
 30
0.0
 40
1.000000000000034
100
AcDbArc
 50
1.9414863909
 51
93.1134387481
  0
ARC
  5
81
330
73
100
AcDbEntity
  8
0
  6
Continuous
 62
   179
370
    18
100
AcDbCircle
 10
81.5287571045
 20
9.7648973508
 30
0.0
 40
0.3625000000000009
100
AcDbArc
 50
93.1134387481
 51
181.9414863909
  0
ARC
  5
82
330
73
100
AcDbEntity
  8
0
  6
Continuous
 62
   179
370
    18
100
AcDbCircle
 10
82.327743407
 20
9.8083568568
 30
0.0
 40
0.3625000000000146
100
AcDbArc
 50
1.9414863909
 51
93.1134387481
  0
ARC
  5
83
330
73
100
AcDbEntity
  8
0
  6
Continuous
 62
   179
370
    18
100
AcDbCircle
 10
82.4035451983
 20
7.5722040138
 30
0.0
 40
1.000000000000008
100
AcDbArc
 50
274.398705355
 51
1.9414863909
  0
ARC
  5
84
330
73
100
AcDbEntity
  8
0
  6
Continuous
 62
   179
370
    18
100
AcDbCircle
 10
82.4035451983
 20
7.5722040138
 30
0.0
 40
0.3625000000000068
100
AcDbArc
 50
274.398705355
 51
1.9414863909
  0
ARC
  5
85
330
73
100
AcDbEntity
  8
0
  6
Continuous
 62
   179
370
    18
100
AcDbCircle
 10
81.6051675115
 20
7.5107903456
 30
0.0
 40
0.3625000000000111
100
AcDbArc
 50
181.9414863909
 51
274.398705355
  0
ARC
  5
86
330
73
100
AcDbEntity
  8
0
  6
Continuous
 62
   179
370
    18
100
AcDbCircle
 10
88.825822761
 20
8.0662148274
 30
0.0
 40
0.9999999999999997
100
AcDbArc
 50
274.398705355
 51
2.6541955134
  0
ARC
  5
87
330
73
100
AcDbEntity
  8
0
  6
Continuous
 62
   179
370
    18
100
AcDbCircle
 10
90.1578295581
 20
5.7814576687
 30
0.0
 40
0.3000000000000043
100
AcDbArc
 50
274.6062978507
 51
2.5147526475
  0
ARC
  5
88
330
73
100
AcDbEntity
  8
0
  6
Continuous
 62
   179
370
    18
100
AcDbCircle
 10
88.825822761
 20
8.0662148274
 30
0.0
 40
0.3625000000000083
100
AcDbArc
 50
274.398705355
 51
2.6541955134
  0
ARC
  5
89
330
73
100
AcDbEntity
  8
0
  6
Continuous
 62
   179
370
    18
100
AcDbCircle
 10
88.728529747
 20
10.16496413
 30
0.0
 40
1.000000000000001
100
AcDbArc
 50
2.6541955134
 51
93.1134387481
  0
ARC
  5
8A
330
73
100
AcDbEntity
  8
0
  6
Continuous
 62
   179
370
    18
100
AcDbCircle
 10
88.728529747
 20
10.16496413
 30
0.0
 40
0.3625000000000085
100
AcDbArc
 50
2.6541955134
 51
93.1134387481
  0
ARC
  5
8B
330
73
100
AcDbEntity
  8
0
  6
Continuous
 62
   179
370
    18
100
AcDbCircle
 10
89.8647121341
 20
12.455515937
 30
0.0
 40
0.2999999999999984
100
AcDbArc
 50
2.5147526475
 51
93.0418421566
  0
ARC
  5
8C
330
73
100
AcDbEntity
  8
0
  6
Continuous
 62
   179
370
    18
100
AcDbCircle
 10
90.6583795404
 20
13.4384863935
 30
0.0
 40
0.2999999999999911
100
AcDbArc
 50
3.7249371334
 51
92.6995697565
  0
CIRCLE
  5
8D
330
73
100
AcDbEntity
  8
0
  6
Continuous
 62
   179
370
    18
100
AcDbCircle
 10
15.7233972286
 20
6.4054930194
 30
0.0
 40
1.579500000000014
  0
CIRCLE
  5
8E
330
73
100
AcDbEntity
  8
0
  6
Continuous
 62
   179
370
    18
100
AcDbCircle
 10
15.7233972286
 20
6.4054930194
 30
0.0
 40
2.281499999999994
  0
ARC
  5
8F
330
73
100
AcDbEntity
  8
0
  6
Continuous
 62
   179
370
    18
100
AcDbCircle
 10
89.7681336026
 20
2.3106616691
 30
0.0
 40
0.098384530246548
100
AcDbArc
 50
332.3802627259
 51
4.9765441602
  0
ARC
  5
90
330
73
100
AcDbEntity
  8
0
  6
Continuous
 62
   179
370
    18
100
AcDbCircle
 10
89.6886560089
 20
2.3522464185
 30
0.0
 40
0.1880839130754018
100
AcDbArc
 50
303.690067526
 51
332.3802627258
  0
ARC
  5
91
330
73
100
AcDbEntity
  8
0
  6
Continuous
 62
   179
370
    18
100
AcDbCircle
 10
89.4849700869
 20
2.6577753016
 30
0.0
 40
0.5552839311631531
100
AcDbArc
 50
287.108652213
 51
303.690067526
  0
ARC
  5
92
330
73
100
AcDbEntity
  8
0
  6
Continuous
 62
   179
370
    18
100
AcDbCircle
 10
88.0513010646
 20
7.3154864882
 30
0.0
 40
5.428648309393203
100
AcDbArc
 50
285.2551187031
 51
287.108652213
  0
ARC
  5
93
330
73
100
AcDbEntity
  8
0
  6
Continuous
 62
   179
370
    18
100
AcDbCircle
 10
89.1317168954
 20
3.3539617753
 30
0.0
 40
1.322436378825653
100
AcDbArc
 50
281.4991866428
 51
285.255118703
  0
ARC
  5
94
330
73
100
AcDbEntity
  8
0
  6
Continuous
 62
   179
370
    18
100
AcDbCircle
 10
89.3198255509
 20
2.4293110075
 30
0.0
 40
0.3788454141584939
100
AcDbArc
 50
279.1917900003
 51
281.499186643
  0
ARC
  5
95
330
73
100
AcDbEntity
  8
0
  6
Continuous
 62
   179
370
    18
100
AcDbCircle
 10
89.0487250788
 20
4.1046569124
 30
0.0
 40
2.07598399629105
100
AcDbArc
 50
277.7634675038
 51
279.1917900002
  0
ARC
  5
96
330
73
100
AcDbEntity
  8
0
  6
Continuous
 62
   179
370
    18
100
AcDbCircle
 10
9.2588909915
 20
6.4054930194
 30
0.0
 40
1.579500000000074
100
AcDbArc
 50
31.0558004991
 51
330.0
  0
ARC
  5
97
330
73
100
AcDbEntity
  8
0
  6
Continuous
 62
   179
370
    18
100
AcDbCircle
 10
9.2588909915
 20
6.4054930194
 30
0.0
 40
2.281500000000107
100
AcDbArc
 50
30.7309172659
 51
330.0
  0
ARC
  5
98
330
73
100
AcDbEntity
  8
0
  6
Continuous
 62
   179
370
    18
100
AcDbCircle
 10
6.1288847544
 20
4.0685261312
 30
0.0
 40
4.914000000000307
100
AcDbArc
 50
172.3058370354
 51
179.7113029221
  0
ARC
  5
99
330
73
100
AcDbEntity
  8
0
  6
Continuous
 62
   179
370
    18
100
AcDbCircle
 10
-0.5401152456
 20
4.0685261312
 30
0.0
 40
4.91400000000019
100
AcDbArc
 50
0.2886970779
 51
7.6941629646
  0
ARC
  5
9A
330
73
100
AcDbEntity
  8
0
  6
Continuous
 62
   179
370
    18
100
AcDbCircle
 10
-0.5401152456
 20
4.0685261312
 30
0.0
 40
5.616000000000127
100
AcDbArc
 50
0.2526096926
 51
53.5764263577
  0
ARC
  5
9B
330
73
100
AcDbEntity
  8
0
  6
Continuous
 62
   179
370
    18
100
AcDbCircle
 10
6.1288847544
 20
4.0685261312
 30
0.0
 40
5.61600000000074
100
AcDbArc
 50
126.4235736423
 51
179.7473903073
  0
ARC
  5
9C
330
73
100
AcDbEntity
  8
0
  6
Continuous
 62
   179
370
    18
100
AcDbCircle
 10
-0.5401152456
 20
4.0685261312
 30
0.0
 40
4.914000000000161
100
AcDbArc
 50
16.0658750272
 51
47.2678899574
  0
ARC
  5
9D
330
73
100
AcDbEntity
  8
0
  6
Continuous
 62
   179
370
    18
100
AcDbCircle
 10
6.1288847544
 20
4.0685261312
 30
0.0
 40
4.914000000000584
100
AcDbArc
 50
132.7321100426
 51
163.9341249728
  0
LINE
  5
9E
330
73
100
AcDbEntity
  8
0
  6
Continuous
 62
   179
370
    18
100
AcDbLine
 10
78.8017089389
 20
2.8885802402
 30
0.0
 11
90.7982178739
 21
3.8455002136
 31
0.0
  0
LINE
  5
9F
330
73
100
AcDbEntity
  8
0
  6
Continuous
 62
   179
370
    18
100
AcDbLine
 10
76.6545490427
 20
5.8693097374
 30
0.0
 11
78.0344191726
 21
3.5235305166
 31
0.0
  0
LINE
  5
A0
330
73
100
AcDbEntity
  8
0
  6
Continuous
 62
   179
370
    18
100
AcDbLine
 10
91.5327615373
 20
4.6257342197
 30
0.0
 11
90.9577457715
 21
13.4579763825
 31
0.0
  0
LINE
  5
A1
330
73
100
AcDbEntity
  8
0
  6
Continuous
 62
   179
370
    18
100
AcDbLine
 10
78.6309362756
 20
12.8788539549
 30
0.0
 11
78.8360757629
 21
3.6475770268
 31
0.0
  0
LINE
  5
A2
330
73
100
AcDbEntity
  8
0
  6
Continuous
 62
   179
370
    18
100
AcDbLine
 10
80.4094186633
 20
4.6950685544
 30
0.0
 11
90.1819221045
 21
5.4824266516
 31
0.0
  0
LINE
  5
A3
330
73
100
AcDbEntity
  8
0
  6
Continuous
 62
   179
370
    18
100
AcDbLine
 10
79.1595373973
 20
3.3551666867
 30
0.0
 11
91.2569309872
 21
4.3071688694
 31
0.0
  0
LINE
  5
A4
330
73
100
AcDbEntity
  8
0
  6
Continuous
 62
   179
370
    18
100
AcDbLine
 10
79.2585043218
 20
2.925017226
 30
0.0
 11
80.4858981444
 21
1.533240302
 31
0.0
  0
LINE
  5
A5
330
73
100
AcDbEntity
  8
0
  6
Continuous
 62
   179
370
    18
100
AcDbLine
 10
78.0344191726
 20
3.5235305166
 30
0.0
 11
78.3638740472
 21
3.1446574108
 31
0.0
  0
LINE
  5
A6
330
73
100
AcDbEntity
  8
0
  6
Continuous
 62
   179
370
    18
100
AcDbLine
 10
78.3638740472
 20
3.1446574108
 30
0.0
 11
78.4680611395
 21
3.0248422547
 31
0.0
  0
LINE
  5
A7
330
73
100
AcDbEntity
  8
0
  6
Continuous
 62
   179
370
    18
100
AcDbLine
 10
81.3414110113
 20
1.2002475785
 30
0.0
 11
89.3291569519
 21
2.0477010263
 31
0.0
  0
LINE
  5
A8
330
73
100
AcDbEntity
  8
0
  6
Continuous
 62
   179
370
    18
100
AcDbLine
 10
89.8661472522
 20
2.5197759309
 30
0.0
 11
89.8661472522
 21
2.3090867337
 31
0.0
  0
LINE
  5
A9
330
73
100
AcDbEntity
  8
0
  6
Continuous
 62
   179
370
    18
100
AcDbLine
 10
88.676842368
 20
3.6762854359
 30
0.0
 11
89.6713239345
 21
2.7875997807
 31
0.0
  0
LINE
  5
AA
330
73
100
AcDbEntity
  8
0
  6
Continuous
 62
   179
370
    18
100
AcDbLine
 10
89.6713239345
 20
2.7875997807
 30
0.0
 11
89.7459749087
 21
2.7242700694
 31
0.0
  0
LINE
  5
AB
330
73
100
AcDbEntity
  8
0
  6
Continuous
 62
   179
370
    18
100
AcDbLine
 10
90.7982178739
 20
3.8455002136
 30
0.0
 11
91.3961615969
 21
4.3514525945
 31
0.0
  0
LINE
  5
AC
330
73
100
AcDbEntity
  8
0
  6
Continuous
 62
   179
370
    18
100
AcDbLine
 10
90.6442498554
 20
13.7381534621
 30
0.0
 11
78.1502930503
 21
13.1490474438
 31
0.0
  0
LINE
  5
AD
330
73
100
AcDbEntity
  8
0
  6
Continuous
 62
   179
370
    18
100
AcDbLine
 10
80.1347709981
 20
12.2388892068
 30
0.0
 11
89.8487925667
 21
12.7550932515
 31
0.0
  0
LINE
  5
AE
330
73
100
AcDbEntity
  8
0
  6
Continuous
 62
   179
370
    18
100
AcDbLine
 10
76.4935641943
 20
11.7567556248
 30
0.0
 11
76.6545490427
 21
5.8693097374
 31
0.0
  0
LINE
  5
AF
330
73
100
AcDbEntity
  8
0
  6
Continuous
 62
   179
370
    18
100
AcDbLine
 10
79.8508616208
 20
11.929182536
 30
0.0
 11
80.0854971721
 21
4.9839702153
 31
0.0
  0
LINE
  5
B0
330
73
100
AcDbEntity
  8
0
  6
Continuous
 62
   179
370
    18
100
AcDbLine
 10
80.5293311574
 20
9.7310185051
 30
0.0
 11
80.6057415643
 21
7.4769115
 31
0.0
  0
LINE
  5
B1
330
73
100
AcDbEntity
  8
0
  6
Continuous
 62
   179
370
    18
100
AcDbLine
 10
77.507650604
 20
12.7708420346
 30
0.0
 11
76.4935641943
 21
11.7567556248
 31
0.0
  0
LINE
  5
B2
330
73
100
AcDbEntity
  8
0
  6
Continuous
 62
   179
370
    18
100
AcDbLine
 10
86.8848195129
 20
11.0661568594
 30
0.0
 11
88.6742167283
 21
11.1634880887
 31
0.0
  0
LINE
  5
B3
330
73
100
AcDbEntity
  8
0
  6
Continuous
 62
   179
370
    18
100
AcDbLine
 10
87.0766213517
 20
6.9287171941
 30
0.0
 11
88.90708891
 21
7.0695223909
 31
0.0
  0
LINE
  5
B4
330
73
100
AcDbEntity
  8
0
  6
Continuous
 62
   179
370
    18
100
AcDbLine
 10
87.6830038473
 20
7.6147347768
 30
0.0
 11
88.8536252418
 21
7.7047825764
 31
0.0
  0
LINE
  5
B5
330
73
100
AcDbEntity
  8
0
  6
Continuous
 62
   179
370
    18
100
AcDbLine
 10
87.5509212094
 20
10.4639459651
 30
0.0
 11
88.7088412777
 21
10.5269290651
 31
0.0
  0
LINE
  5
B6
330
73
100
AcDbEntity
  8
0
  6
Continuous
 62
   179
370
    18
100
AcDbLine
 10
87.0766218384
 20
6.9287066941
 30
0.0
 11
86.8848195129
 21
11.0661568594
 31
0.0
  0
LINE
  5
B7
330
73
100
AcDbEntity
  8
0
  6
Continuous
 62
   179
370
    18
100
AcDbLine
 10
83.7004598825
 20
6.6667911093
 30
0.0
 11
84.5054929504
 21
10.9267193262
 31
0.0
  0
LINE
  5
B8
330
73
100
AcDbEntity
  8
0
  6
Continuous
 62
   179
370
    18
100
AcDbLine
 10
85.3543248406
 20
10.9728900984
 30
0.0
 11
86.4940946704
 21
6.8816860929
 31
0.0
  0
LINE
  5
B9
330
73
100
AcDbEntity
  8
0
  6
Continuous
 62
   179
370
    18
100
AcDbLine
 10
84.9728575427
 20
9.9667192298
 30
0.0
 11
85.4540299774
 21
8.2395506903
 31
0.0
  0
LINE
  5
BA
330
73
100
AcDbEntity
  8
0
  6
Continuous
 62
   179
370
    18
100
AcDbLine
 10
84.6363094629
 20
8.1858350416
 30
0.0
 11
84.9728575427
 21
9.9667192298
 31
0.0
  0
LINE
  5
BB
330
73
100
AcDbEntity
  8
0
  6
Continuous
 62
   179
370
    18
100
AcDbLine
 10
87.6830038473
 20
7.6147347768
 30
0.0
 11
87.5509212094
 21
10.4639459651
 31
0.0
  0
LINE
  5
BC
330
73
100
AcDbEntity
  8
0
  6
Continuous
 62
   179
370
    18
100
AcDbLine
 10
84.6363094629
 20
8.1858350416
 30
0.0
 11
85.4540299774
 21
8.2395506903
 31
0.0
  0
LINE
  5
BD
330
73
100
AcDbEntity
  8
0
  6
Continuous
 62
   179
370
    18
100
AcDbLine
 10
84.5140586807
 20
7.5389304886
 30
0.0
 11
85.6288154243
 21
7.6121582976
 31
0.0
  0
LINE
  5
BE
330
73
100
AcDbEntity
  8
0
  6
Continuous
 62
   179
370
    18
100
AcDbLine
 10
84.3588137958
 20
6.717433718
 30
0.0
 11
84.5140586807
 21
7.5389304886
 31
0.0
  0
LINE
  5
BF
330
73
100
AcDbEntity
  8
0
  6
Continuous
 62
   179
370
    18
100
AcDbLine
 10
81.6818640104
 20
6.5137358601
 30
0.0
 11
82.4802416972
 21
6.5751495283
 31
0.0
  0
LINE
  5
C0
330
73
100
AcDbEntity
  8
0
  6
Continuous
 62
   179
370
    18
100
AcDbLine
 10
81.6329699923
 20
7.1493580946
 30
0.0
 11
82.4313476791
 21
7.2107717628
 31
0.0
  0
LINE
  5
C1
330
73
100
AcDbEntity
  8
0
  6
Continuous
 62
   179
370
    18
100
AcDbLine
 10
83.7004598825
 20
6.6667911093
 30
0.0
 11
84.3588137958
 21
6.717433718
 31
0.0
  0
LINE
  5
C2
330
73
100
AcDbEntity
  8
0
  6
Continuous
 62
   179
370
    18
100
AcDbLine
 10
82.7059483815
 20
9.3512024135
 30
0.0
 11
83.3423973297
 21
9.3930104243
 31
0.0
  0
LINE
  5
C3
330
73
100
AcDbEntity
  8
0
  6
Continuous
 62
   179
370
    18
100
AcDbLine
 10
82.7491656358
 20
8.0762934118
 30
0.0
 11
83.385614584
 21
8.1181014226
 31
0.0
  0
LINE
  5
C4
330
73
100
AcDbEntity
  8
0
  6
Continuous
 62
   179
370
    18
100
AcDbLine
 10
81.1664651987
 20
9.7526162692
 30
0.0
 11
81.2428756056
 21
7.4985092641
 31
0.0
  0
LINE
  5
C5
330
73
100
AcDbEntity
  8
0
  6
Continuous
 62
   179
370
    18
100
AcDbLine
 10
82.6900353128
 20
9.8206379383
 30
0.0
 11
82.7052632884
 21
9.3714126602
 31
0.0
  0
LINE
  5
C6
330
73
100
AcDbEntity
  8
0
  6
Continuous
 62
   179
370
    18
100
AcDbLine
 10
82.7491656358
 20
8.0762934118
 30
0.0
 11
82.7658371041
 21
7.5844850954
 31
0.0
  0
LINE
  5
C7
330
73
100
AcDbEntity
  8
0
  6
Continuous
 62
   179
370
    18
100
AcDbLine
 10
83.3271693541
 20
9.8422357024
 30
0.0
 11
83.3423973297
 21
9.3930104243
 31
0.0
  0
LINE
  5
C8
330
73
100
AcDbEntity
  8
0
  6
Continuous
 62
   179
370
    18
100
AcDbLine
 10
83.385614584
 20
8.1181014226
 30
0.0
 11
83.4029711454
 21
7.6060828595
 31
0.0
  0
LINE
  5
C9
330
73
100
AcDbEntity
  8
0
  6
Continuous
 62
   179
370
    18
100
AcDbLine
 10
85.6288154243
 20
7.6121582976
 30
0.0
 11
85.8462022593
 21
6.8318482152
 31
0.0
  0
LINE
  5
CA
330
73
100
AcDbEntity
  8
0
  6
Continuous
 62
   179
370
    18
100
AcDbLine
 10
85.8462022593
 20
6.8318482152
 30
0.0
 11
86.4940946704
 21
6.8816860929
 31
0.0
  0
LINE
  5
CB
330
73
100
AcDbEntity
  8
0
  6
Continuous
 62
   179
370
    18
100
AcDbLine
 10
84.5054929504
 20
10.9267193262
 30
0.0
 11
85.3543248406
 21
10.9728900984
 31
0.0
  0
LINE
  5
CC
330
73
100
AcDbEntity
  8
0
  6
Continuous
 62
   179
370
    18
100
AcDbLine
 10
81.4744440858
 20
10.7634213094
 30
0.0
 11
82.2734303883
 21
10.8068808154
 31
0.0
  0
LINE
  5
CD
330
73
100
AcDbEntity
  8
0
  6
Continuous
 62
   179
370
    18
100
AcDbLine
 10
81.5090686352
 20
10.1268622858
 30
0.0
 11
82.3080549377
 21
10.1703217918
 31
0.0
  0
LINE
  5
CE
330
73
100
AcDbEntity
  8
0
  6
Continuous
 62
   179
370
    18
100
AcDbLine
 10
90.4575406452
 20
5.7946206556
 30
0.0
 11
90.1644232213
 21
12.4686789239
 31
0.0
  0
LINE
  5
CF
330
73
100
AcDbEntity
  8
0
  6
Continuous
 62
   179
370
    18
100
AcDbLine
 10
89.8247499755
 20
8.1125227115
 30
0.0
 11
89.7274569615
 21
10.2112720142
 31
0.0
  0
LINE
  5
D0
330
73
100
AcDbEntity
  8
0
  6
Continuous
 62
   179
370
    18
100
AcDbLine
 10
89.1879338763
 20
8.0830014354
 30
0.0
 11
89.0906408622
 21
10.181750738
 31
0.0
  0
LINE
  5
D1
330
73
100
AcDbEntity
  8
0
  6
Continuous
 62
   179
370
    18
100
AcDbLine
 10
89.7459749087
 20
2.7242700694
 30
0.0
 11
89.7974962577
 21
2.6659765769
 31
0.0
  0
LINE
  5
D2
330
73
100
AcDbEntity
  8
0
  6
Continuous
 62
   179
370
    18
100
AcDbLine
 10
89.7974962577
 20
2.6659765769
 30
0.0
 11
89.8351851379
 21
2.60192886
 31
0.0
  0
LINE
  5
D3
330
73
100
AcDbEntity
  8
0
  6
Continuous
 62
   179
370
    18
100
AcDbLine
 10
89.8351851379
 20
2.60192886
 30
0.0
 11
89.8661472522
 21
2.5197759309
 31
0.0
  0
LINE
  5
D4
330
73
100
AcDbEntity
  8
0
  6
Continuous
 62
   179
370
    18
100
AcDbLine
 10
10.6119938288
 20
7.2203138351
 30
0.0
 11
11.2200151261
 21
7.5713550947
 31
0.0
  0
LINE
  5
D5
330
73
100
AcDbEntity
  8
0
  6
Continuous
 62
   179
370
    18
100
AcDbLine
 10
11.2347279503
 20
5.2647430194
 30
0.0
 11
10.6267781168
 21
5.6157430194
 31
0.0
  0
LINE
  5
D6
330
73
100
AcDbEntity
  8
0
  6
Continuous
 62
   179
370
    18
100
AcDbLine
 10
6.4645062371
 20
16.1712617198
 30
0.0
 11
6.4645062371
 21
2.9364593988
 31
0.0
  0
LINE
  5
D7
330
73
100
AcDbEntity
  8
0
  6
Continuous
 62
   179
370
    18
100
AcDbLine
 10
6.4645062371
 20
2.9364593988
 30
0.0
 11
12.0532757459
 21
2.9364593988
 31
0.0
  0
LINE
  5
D8
330
73
100
AcDbEntity
  8
0
  6
Continuous
 62
   179
370
    18
100
AcDbLine
 10
12.0532757459
 20
2.9364593988
 30
0.0
 11
12.0532757459
 21
16.1712617198
 31
0.0
  0
LINE
  5
D9
330
73
100
AcDbEntity
  8
0
  6
Continuous
 62
   179
370
    18
100
AcDbLine
 10
12.0532757459
 20
16.1712617198
 30
0.0
 11
6.4645062371
 21
16.1712617198
 31
0.0
  0
LINE
  5
DA
330
73
100
AcDbEntity
  8
0
  6
Continuous
 62
   179
370
    18
100
AcDbLine
 10
0.0
 20
16.1712617198
 30
0.0
 11
0.0
 21
2.9364593988
 31
0.0
  0
LINE
  5
DB
330
73
100
AcDbEntity
  8
0
  6
Continuous
 62
   179
370
    18
100
AcDbLine
 10
0.0
 20
2.9364593988
 30
0.0
 11
5.5887695089
 21
2.9364593988
 31
0.0
  0
LINE
  5
DC
330
73
100
AcDbEntity
  8
0
  6
Continuous
 62
   179
370
    18
100
AcDbLine
 10
5.5887695089
 20
2.9364593988
 30
0.0
 11
5.5887695089
 21
16.1712617198
 31
0.0
  0
LINE
  5
DD
330
73
100
AcDbEntity
  8
0
  6
Continuous
 62
   179
370
    18
100
AcDbLine
 10
5.5887695089
 20
16.1712617198
 30
0.0
 11
0.0
 21
16.1712617198
 31
0.0
  0
LINE
  5
DE
330
73
100
AcDbEntity
  8
0
  6
Continuous
 62
   179
370
    18
100
AcDbLine
 10
1.2591262606
 20
4.7264381407
 30
0.0
 11
4.3296432482
 21
4.7264381407
 31
0.0
  0
LINE
  5
DF
330
73
100
AcDbEntity
  8
0
  6
Continuous
 62
   179
370
    18
100
AcDbLine
 10
4.3738223747
 20
4.0932862697
 30
0.0
 11
5.0758301722
 21
4.0932862697
 31
0.0
  0
LINE
  5
E0
330
73
100
AcDbEntity
  8
0
  6
Continuous
 62
   179
370
    18
100
AcDbLine
 10
0.5129393366
 20
4.0932862697
 30
0.0
 11
1.2149471342
 21
4.0932862697
 31
0.0
  0
LINE
  5
E1
330
73
100
AcDbEntity
  8
0
  6
Continuous
 62
   179
370
    18
100
AcDbLine
 10
4.1819643097
 20
5.4284381407
 30
0.0
 11
1.4068051992
 21
5.4284381407
 31
0.0
  0
LINE
  5
E2
330
73
100
AcDbEntity
  8
0
  6
Continuous
 62
   179
370
    18
100
AcDbLine
 10
18.517781983
 20
16.1712617198
 30
0.0
 11
18.517781983
 21
2.9364593988
 31
0.0
  0
LINE
  5
E3
330
73
100
AcDbEntity
  8
0
  6
Continuous
 62
   179
370
    18
100
AcDbLine
 10
18.517781983
 20
2.9364593988
 30
0.0
 11
12.9290124742
 21
2.9364593988
 31
0.0
  0
LINE
  5
E4
330
73
100
AcDbEntity
  8
0
  6
Continuous
 62
   179
370
    18
100
AcDbLine
 10
12.9290124742
 20
2.9364593988
 30
0.0
 11
12.9290124742
 21
16.1712617198
 31
0.0
  0
LINE
  5
E5
330
73
100
AcDbEntity
  8
0
  6
Continuous
 62
   179
370
    18
100
AcDbLine
 10
12.9290124742
 20
16.1712617198
 30
0.0
 11
18.517781983
 21
16.1712617198
 31
0.0
  0
INSERT
  5
EB
330
73
100
AcDbEntity
  8
0
  6
Continuous
 62
     7
370
     0
100
AcDbBlockReference
  2
SW_NOTE_0
 10
1.8998941161
 20
-0.3226565443
 30
0.0
  0
INSERT
  5
F0
330
73
100
AcDbEntity
  8
0
  6
Continuous
 62
     7
370
     0
100
AcDbBlockReference
  2
SW_NOTE_0_1
 10
29.1164837035
 20
12.7459167441
 30
0.0
  0
INSERT
  5
F8
330
73
100
AcDbEntity
  8
0
  6
Continuous
 62
     7
370
     0
100
AcDbBlockReference
  2
SW_NOTE_0_2
 10
28.8863479825
 20
8.6365742194
 30
0.0
  0
ENDBLK
  5
75
330
73
100
AcDbEntity
  8
0
100
AcDbBlockEnd
  0
BLOCK
  5
E7
330
E6
100
AcDbEntity
  8
0
100
AcDbBlockBegin
  2
SW_NOTE_0
 70
     0
 10
0.0
 20
0.0
 30
0.0
  3
SW_NOTE_0
  1

  0
MTEXT
  5
EA
330
E6
100
AcDbEntity
  8
0
  6
Continuous
 62
     0
370
     0
100
AcDbMText
 10
7.46875
 20
2.5781354795
 30
0.0
 40
2.0
 41
0.0
 71
     2
 72
     1
  1
www.aco.ch
  7
SLDTEXTSTYLE0
 73
     1
 44
1.0
  0
ENDBLK
  5
E8
330
E6
100
AcDbEntity
  8
0
100
AcDbBlockEnd
  0
BLOCK
  5
ED
330
EC
100
AcDbEntity
  8
0
100
AcDbBlockBegin
  2
SW_NOTE_0_1
 70
     0
 10
0.0
 20
0.0
 30
0.0
  3
SW_NOTE_0_1
  1

  0
MTEXT
  5
EF
330
EC
100
AcDbEntity
  8
0
  6
Continuous
 62
     0
370
     0
100
AcDbMText
 10
0.0
 20
3.8672032193
 30
0.0
 40
3.0
 41
0.0
 71
     1
 72
     1
  1
ACO AG
  7
SLDTEXTSTYLE0
 73
     1
 44
1.0
  0
ENDBLK
  5
EE
330
EC
100
AcDbEntity
  8
0
100
AcDbBlockEnd
  0
BLOCK
  5
F2
330
F1
100
AcDbEntity
  8
0
100
AcDbBlockBegin
  2
SW_NOTE_0_2
 70
     0
 10
0.0
 20
0.0
 30
0.0
  3
SW_NOTE_0_2
  1

  0
MTEXT
  5
F4
330
F1
100
AcDbEntity
  8
0
  6
Continuous
 62
     0
370
     0
100
AcDbMText
 10
0.0
 20
2.5781354795
 30
0.0
 40
2.0
 41
0.0
 71
     1
 72
     1
  1
Industrie Kleinzaun
  7
SLDTEXTSTYLE0
 73
     1
 44
1.0
  0
MTEXT
  5
F5
330
F1
100
AcDbEntity
  8
0
  6
Continuous
 62
     0
370
     0
100
AcDbMText
 10
0.0
 20
-0.4218645465
 30
0.0
 40
2.0
 41
0.0
 71
     1
 72
     1
  1
CH-8754 Netstal
  7
SLDTEXTSTYLE0
 73
     1
 44
1.0
  0
MTEXT
  5
F6
330
F1
100
AcDbEntity
  8
0
  6
Continuous
 62
     0
370
     0
100
AcDbMText
 10
0.0
 20
-3.4218645726
 30
0.0
 40
2.0
 41
0.0
 71
     1
 72
     1
  1
Tel. 055 / 645 53 00
  7
SLDTEXTSTYLE0
 73
     1
 44
1.0
  0
MTEXT
  5
F7
330
F1
100
AcDbEntity
  8
0
  6
Continuous
 62
     0
370
     0
100
AcDbMText
 10
0.0
 20
-6.4218645987
 30
0.0
 40
2.0
 41
0.0
 71
     1
 72
     1
  1
E-Mail: aco@aco.ch
  7
SLDTEXTSTYLE0
 73
     1
 44
1.0
  0
ENDBLK
  5
F3
330
F1
100
AcDbEntity
  8
0
100
AcDbBlockEnd
  0
BLOCK
  5
171
330
170
100
AcDbEntity
  8
0
100
AcDbBlockBegin
  2
SW_NOTE_0_3
 70
     0
 10
0.0
 20
0.0
 30
0.0
  3
SW_NOTE_0_3
  1

  0
MTEXT
  5
173
330
170
100
AcDbEntity
  8
0
  6
Continuous
 62
     0
370
     0
100
AcDbMText
 10
0.0
 20
1.9336016097
 30
0.0
 40
1.5
 41
0.0
 71
     1
 72
     1
  1
Diese Zeichnung darf weder kopiert
  7
SLDTEXTSTYLE0
 73
     1
 44
1.0
  0
MTEXT
  5
174
330
170
100
AcDbEntity
  8
0
  6
Continuous
 62
     0
370
     0
100
AcDbMText
 10
0.0
 20
-0.5663983345
 30
0.0
 40
1.5
 41
0.0
 71
     1
 72
     1
  1
noch dritten Personen, insbesondere
  7
SLDTEXTSTYLE0
 73
     1
 44
1.0
  0
MTEXT
  5
175
330
170
100
AcDbEntity
  8
0
  6
Continuous
 62
     0
370
     0
100
AcDbMText
 10
0.0
 20
-3.0663982786
 30
0.0
 40
1.5
 41
0.0
 71
     1
 72
     1
  1
zum Zweck anderweitiger Benutzung
  7
SLDTEXTSTYLE0
 73
     1
 44
1.0
  0
MTEXT
  5
176
330
170
100
AcDbEntity
  8
0
  6
Continuous
 62
     0
370
     0
100
AcDbMText
 10
0.0
 20
-5.5663982227
 30
0.0
 40
1.5
 41
0.0
 71
     1
 72
     1
  1
mitgeteilt werden und bleibt unser
  7
SLDTEXTSTYLE0
 73
     1
 44
1.0
  0
MTEXT
  5
177
330
170
100
AcDbEntity
  8
0
  6
Continuous
 62
     0
370
     0
100
AcDbMText
 10
0.0
 20
-8.0663981668
 30
0.0
 40
1.5
 41
0.0
 71
     1
 72
     1
  1
Eigentum.
  7
SLDTEXTSTYLE0
 73
     1
 44
1.0
  0
ENDBLK
  5
172
330
170
100
AcDbEntity
  8
0
100
AcDbBlockEnd
  0
BLOCK
  5
201
330
200
100
AcDbEntity
  8
0
100
AcDbBlockBegin
  2
SW_CENTERMARKSYMBOL_0
 70
     0
 10
0.0
 20
0.0
 30
0.0
  3
SW_CENTERMARKSYMBOL_0
  1

  0
LINE
  5
203
330
200
100
AcDbEntity
  8
0
  6
Continuous
 62
     0
370
    18
100
AcDbLine
 10
0.0
 20
0.0
 30
0.0
 11
0.0
 21
2.5
 31
0.0
  0
LINE
  5
204
330
200
100
AcDbEntity
  8
0
  6
Continuous
 62
     0
370
    18
100
AcDbLine
 10
0.0
 20
0.0
 30
0.0
 11
-2.5
 21
0.0
 31
0.0
  0
LINE
  5
205
330
200
100
AcDbEntity
  8
0
  6
Continuous
 62
     0
370
    18
100
AcDbLine
 10
0.0
 20
0.0
 30
0.0
 11
0.0
 21
-2.5
 31
0.0
  0
LINE
  5
206
330
200
100
AcDbEntity
  8
0
  6
Continuous
 62
     0
370
    18
100
AcDbLine
 10
0.0
 20
0.0
 30
0.0
 11
2.5
 21
0.0
 31
0.0
  0
LINE
  5
207
330
200
100
AcDbEntity
  8
0
  6
Continuous
 62
     0
370
    18
100
AcDbLine
 10
0.0
 20
5.0
 30
0.0
 11
0.0
 21
46.6524887412
 31
0.0
  0
LINE
  5
208
330
200
100
AcDbEntity
  8
0
  6
Continuous
 62
     0
370
    18
100
AcDbLine
 10
-5.0
 20
0.0
 30
0.0
 11
-46.6524887412
 21
0.0
 31
0.0
  0
LINE
  5
209
330
200
100
AcDbEntity
  8
0
  6
Continuous
 62
     0
370
    18
100
AcDbLine
 10
0.0
 20
-5.0
 30
0.0
 11
0.0
 21
-46.6524887412
 31
0.0
  0
LINE
  5
20A
330
200
100
AcDbEntity
  8
0
  6
Continuous
 62
     0
370
    18
100
AcDbLine
 10
5.0
 20
0.0
 30
0.0
 11
46.6524887412
 21
0.0
 31
0.0
  0
ENDBLK
  5
202
330
200
100
AcDbEntity
  8
0
100
AcDbBlockEnd
  0
BLOCK
  5
214
330
213
100
AcDbEntity
  8
0
100
AcDbBlockBegin
  2
SW_BROKEN_VIEW_0
 70
     0
 10
0.0
 20
0.0
 30
0.0
  3
SW_BROKEN_VIEW_0
  1

  0
ENDBLK
  5
215
330
213
100
AcDbEntity
  8
0
100
AcDbBlockEnd
  0
BLOCK
  5
328
330
327
100
AcDbEntity
  8
0
100
AcDbBlockBegin
  2
_D
 70
     0
 10
0.0
 20
0.0
 30
0.0
  3
_D
  1

  0
SOLID
  5
32A
330
327
100
AcDbEntity
  8
0
  6
Continuous
 62
     7
370
    18
100
AcDbTrace
 10
108.3925921497
 20
1266.2460021698
 30
0.0
 11
111.8925921497
 21
1265.7075406314
 31
0.0
 12
111.8925921497
 22
1266.7844637083
 32
0.0
 13
111.8925921497
 23
1266.7844637083
 33
0.0
  0
SOLID
  5
32B
330
327
100
AcDbEntity
  8
0
  6
Continuous
 62
     7
370
    18
100
AcDbTrace
 10
184.3925921497
 20
1266.2460021698
 30
0.0
 11
180.8925921497
 21
1266.7844637083
 31
0.0
 12
180.8925921497
 22
1265.7075406314
 32
0.0
 13
180.8925921497
 23
1265.7075406314
 33
0.0
  0
LINE
  5
32C
330
327
100
AcDbEntity
  8
0
  6
Continuous
 62
     7
370
     0
100
AcDbLine
 10
108.3925921497
 20
1256.3460021698
 30
0.0
 11
108.3925921497
 21
1267.2460021698
 31
0.0
  0
LINE
  5
32D
330
327
100
AcDbEntity
  8
0
  6
Continuous
 62
     7
370
     0
100
AcDbLine
 10
184.3925921497
 20
1256.3460021698
 30
0.0
 11
184.3925921497
 21
1267.2460021698
 31
0.0
  0
LINE
  5
32E
330
327
100
AcDbEntity
  8
0
  6
Continuous
 62
     7
370
     0
100
AcDbLine
 10
108.3925921497
 20
1266.2460021698
 30
0.0
 11
184.3925921497
 21
1266.2460021698
 31
0.0
  0
MTEXT
  5
32F
330
327
100
AcDbEntity
  8
0
  6
Continuous
 62
     7
370
    18
100
AcDbMText
 10
141.167505565
 20
1270.757739259
 30
0.0
 40
3.5
 41
0.0
 71
     1
 72
     1
  1
%%c
  7
SLDTEXTSTYLE0
 73
     1
 44
1.0
  0
MTEXT
  5
330
330
327
100
AcDbEntity
  8
0
  6
Continuous
 62
     7
370
    18
100
AcDbMText
 10
146.2704571103
 20
1270.7674615682
 30
0.0
 40
3.5
 41
0.0
 71
     1
 72
     1
  1
76
  7
SLDTEXTSTYLE0
 73
     1
 44
1.0
  0
ENDBLK
  5
329
330
327
100
AcDbEntity
  8
0
100
AcDbBlockEnd
  0
BLOCK
  5
333
330
332
100
AcDbEntity
  8
0
100
AcDbBlockBegin
  2
_D_1
 70
     0
 10
0.0
 20
0.0
 30
0.0
  3
_D_1
  1

  0
SOLID
  5
335
330
332
100
AcDbEntity
  8
0
  6
Continuous
 62
     7
370
    18
100
AcDbTrace
 10
108.8925921497
 20
1124.8371426672
 30
0.0
 11
112.3925921497
 21
1124.2986811288
 31
0.0
 12
112.3925921497
 22
1125.3756042057
 32
0.0
 13
112.3925921497
 23
1125.3756042057
 33
0.0
  0
SOLID
  5
336
330
332
100
AcDbEntity
  8
0
  6
Continuous
 62
     7
370
    18
100
AcDbTrace
 10
183.8925921497
 20
1124.8371426672
 30
0.0
 11
180.3925921497
 21
1125.3756042057
 31
0.0
 12
180.3925921497
 22
1124.2986811288
 32
0.0
 13
180.3925921497
 23
1124.2986811288
 33
0.0
  0
LINE
  5
337
330
332
100
AcDbEntity
  8
0
  6
Continuous
 62
     7
370
     0
100
AcDbLine
 10
108.8925921497
 20
1140.3228714131
 30
0.0
 11
108.8925921497
 21
1123.8371426672
 31
0.0
  0
LINE
  5
338
330
332
100
AcDbEntity
  8
0
  6
Continuous
 62
     7
370
     0
100
AcDbLine
 10
183.8925921497
 20
1140.3228714131
 30
0.0
 11
183.8925921497
 21
1123.8371426672
 31
0.0
  0
LINE
  5
339
330
332
100
AcDbEntity
  8
0
  6
Continuous
 62
     7
370
     0
100
AcDbLine
 10
108.8925921497
 20
1124.8371426672
 30
0.0
 11
183.8925921497
 21
1124.8371426672
 31
0.0
  0
MTEXT
  5
33A
330
332
100
AcDbEntity
  8
0
  6
Continuous
 62
     7
370
    18
100
AcDbMText
 10
141.1675055651
 20
1129.3488797564
 30
0.0
 40
3.5
 41
0.0
 71
     1
 72
     1
  1
%%c
  7
SLDTEXTSTYLE0
 73
     1
 44
1.0
  0
MTEXT
  5
33B
330
332
100
AcDbEntity
  8
0
  6
Continuous
 62
     7
370
    18
100
AcDbMText
 10
146.2704571103
 20
1129.3586020656
 30
0.0
 40
3.5
 41
0.0
 71
     1
 72
     1
  1
75
  7
SLDTEXTSTYLE0
 73
     1
 44
1.0
  0
ENDBLK
  5
334
330
332
100
AcDbEntity
  8
0
100
AcDbBlockEnd
  0
BLOCK
  5
33E
330
33D
100
AcDbEntity
  8
0
100
AcDbBlockBegin
  2
_D_2
 70
     0
 10
0.0
 20
0.0
 30
0.0
  3
_D_2
  1

  0
SOLID
  5
340
330
33D
100
AcDbEntity
  8
0
  6
Continuous
 62
     7
370
    18
100
AcDbTrace
 10
200.5501182215
 20
1134.4819933656
 30
0.0
 11
201.0885797599
 21
1137.9819933656
 31
0.0
 12
200.011656683
 22
1137.9819933656
 32
0.0
 13
200.011656683
 23
1137.9819933656
 33
0.0
  0
SOLID
  5
341
330
33D
100
AcDbEntity
  8
0
  6
Continuous
 62
     7
370
    18
100
AcDbTrace
 10
200.5501182215
 20
1256.2460021698
 30
0.0
 11
200.011656683
 21
1252.7460021698
 31
0.0
 12
201.0885797599
 22
1252.7460021698
 32
0.0
 13
201.0885797599
 23
1252.7460021698
 33
0.0
  0
LINE
  5
342
330
33D
100
AcDbEntity
  8
0
  6
Continuous
 62
     7
370
     0
100
AcDbLine
 10
182.5725921497
 20
1134.4819933656
 30
0.0
 11
201.5501182215
 21
1134.4819933656
 31
0.0
  0
LINE
  5
343
330
33D
100
AcDbEntity
  8
0
  6
Continuous
 62
     7
370
     0
100
AcDbLine
 10
185.4925921497
 20
1256.2460021698
 30
0.0
 11
201.5501182215
 21
1256.2460021698
 31
0.0
  0
LINE
  5
344
330
33D
100
AcDbEntity
  8
0
  6
Continuous
 62
     7
370
     0
100
AcDbLine
 10
200.5501182215
 20
1134.4819933656
 30
0.0
 11
200.5501182215
 21
1256.2460021698
 31
0.0
  0
MTEXT
  5
345
330
33D
100
AcDbEntity
  8
0
  6
Continuous
 62
     7
370
    18
100
AcDbMText
 10
196.0383808994
 20
1190.016775678
 30
0.0
 40
3.5
 41
0.0
 71
     1
 72
     1
  1
1050
  7
SLDTEXTSTYLE0
 11
6.123233995736766E-17
 21
1.0
 31
0.0
 73
     1
 44
1.0
  0
ENDBLK
  5
33F
330
33D
100
AcDbEntity
  8
0
100
AcDbBlockEnd
  0
BLOCK
  5
348
330
347
100
AcDbEntity
  8
0
100
AcDbBlockBegin
  2
_D_3
 70
     0
 10
0.0
 20
0.0
 30
0.0
  3
_D_3
  1

  0
SOLID
  5
34A
330
347
100
AcDbEntity
  8
0
  6
Continuous
 62
     7
370
    18
100
AcDbTrace
 10
198.3692635921
 20
755.3134018388
 30
0.0
 11
197.8308020536
 21
751.8134018388
 31
0.0
 12
198.9077251306
 22
751.8134018388
 32
0.0
 13
198.9077251306
 23
751.8134018388
 33
0.0
  0
SOLID
  5
34B
330
347
100
AcDbEntity
  8
0
  6
Continuous
 62
     7
370
    18
100
AcDbTrace
 10
198.3692635921
 20
635.4145936967
 30
0.0
 11
198.9077251306
 21
638.9145936967
 31
0.0
 12
197.8308020536
 22
638.9145936967
 32
0.0
 13
197.8308020536
 23
638.9145936967
 33
0.0
  0
LINE
  5
34C
330
347
100
AcDbEntity
  8
0
  6
Continuous
 62
     7
370
     0
100
AcDbLine
 10
185.4925921497
 20
755.3134018388
 30
0.0
 11
199.3692635921
 21
755.3134018388
 31
0.0
  0
LINE
  5
34D
330
347
100
AcDbEntity
  8
0
  6
Continuous
 62
     7
370
     0
100
AcDbLine
 10
182.5725921497
 20
635.4145936967
 30
0.0
 11
199.3692635921
 21
635.4145936967
 31
0.0
  0
LINE
  5
34E
330
347
100
AcDbEntity
  8
0
  6
Continuous
 62
     7
370
     0
100
AcDbLine
 10
198.3692635921
 20
755.3134018388
 30
0.0
 11
198.3692635921
 21
635.4145936967
 31
0.0
  0
MTEXT
  5
34F
330
347
100
AcDbEntity
  8
0
  6
Continuous
 62
     7
370
    18
100
AcDbMText
 10
193.8575262701
 20
690.016775678
 30
0.0
 40
3.5
 41
0.0
 71
     1
 72
     1
  1
2050
  7
SLDTEXTSTYLE0
 11
-7.044195017643634E-15
 21
1.0
 31
0.0
 73
     1
 44
1.0
  0
ENDBLK
  5
349
330
347
100
AcDbEntity
  8
0
100
AcDbBlockEnd
  0
BLOCK
  5
352
330
351
100
AcDbEntity
  8
0
100
AcDbBlockBegin
  2
_D_4
 70
     0
 10
0.0
 20
0.0
 30
0.0
  3
_D_4
  1

  0
SOLID
  5
354
330
351
100
AcDbEntity
  8
0
  6
Continuous
 62
     7
370
    18
100
AcDbTrace
 10
108.3925921497
 20
766.4036872072
 30
0.0
 11
111.8925921497
 21
765.8652256687
 31
0.0
 12
111.8925921497
 22
766.9421487456
 32
0.0
 13
111.8925921497
 23
766.9421487456
 33
0.0
  0
SOLID
  5
355
330
351
100
AcDbEntity
  8
0
  6
Continuous
 62
     7
370
    18
100
AcDbTrace
 10
184.3925921497
 20
766.4036872072
 30
0.0
 11
180.8925921497
 21
766.9421487456
 31
0.0
 12
180.8925921497
 22
765.8652256687
 32
0.0
 13
180.8925921497
 23
765.8652256687
 33
0.0
  0
LINE
  5
356
330
351
100
AcDbEntity
  8
0
  6
Continuous
 62
     7
370
     0
100
AcDbLine
 10
108.3925921497
 20
755.4134018388
 30
0.0
 11
108.3925921497
 21
767.4036872072
 31
0.0
  0
LINE
  5
357
330
351
100
AcDbEntity
  8
0
  6
Continuous
 62
     7
370
     0
100
AcDbLine
 10
184.3925921497
 20
755.4134018388
 30
0.0
 11
184.3925921497
 21
767.4036872072
 31
0.0
  0
LINE
  5
358
330
351
100
AcDbEntity
  8
0
  6
Continuous
 62
     7
370
     0
100
AcDbLine
 10
108.3925921497
 20
766.4036872072
 30
0.0
 11
184.3925921497
 21
766.4036872072
 31
0.0
  0
MTEXT
  5
359
330
351
100
AcDbEntity
  8
0
  6
Continuous
 62
     7
370
    18
100
AcDbMText
 10
141.167505565
 20
770.9154242964
 30
0.0
 40
3.5
 41
0.0
 71
     1
 72
     1
  1
%%c
  7
SLDTEXTSTYLE0
 73
     1
 44
1.0
  0
MTEXT
  5
35A
330
351
100
AcDbEntity
  8
0
  6
Continuous
 62
     7
370
    18
100
AcDbMText
 10
146.2704571103
 20
770.9251466055
 30
0.0
 40
3.5
 41
0.0
 71
     1
 72
     1
  1
76
  7
SLDTEXTSTYLE0
 73
     1
 44
1.0
  0
ENDBLK
  5
353
330
351
100
AcDbEntity
  8
0
100
AcDbBlockEnd
  0
BLOCK
  5
35D
330
35C
100
AcDbEntity
  8
0
100
AcDbBlockBegin
  2
_D_5
 70
     0
 10
0.0
 20
0.0
 30
0.0
  3
_D_5
  1

  0
SOLID
  5
35F
330
35C
100
AcDbEntity
  8
0
  6
Continuous
 62
     7
370
    18
100
AcDbTrace
 10
108.8925921497
 20
625.4145936967
 30
0.0
 11
112.3925921497
 21
624.8761321582
 31
0.0
 12
112.3925921497
 22
625.9530552351
 32
0.0
 13
112.3925921497
 23
625.9530552351
 33
0.0
  0
SOLID
  5
360
330
35C
100
AcDbEntity
  8
0
  6
Continuous
 62
     7
370
    18
100
AcDbTrace
 10
183.8925921497
 20
625.4145936967
 30
0.0
 11
180.3925921497
 21
625.9530552351
 31
0.0
 12
180.3925921497
 22
624.8761321582
 32
0.0
 13
180.3925921497
 23
624.8761321582
 33
0.0
  0
LINE
  5
361
330
35C
100
AcDbEntity
  8
0
  6
Continuous
 62
     7
370
     0
100
AcDbLine
 10
108.8925921497
 20
641.2554717441
 30
0.0
 11
108.8925921497
 21
624.4145936967
 31
0.0
  0
LINE
  5
362
330
35C
100
AcDbEntity
  8
0
  6
Continuous
 62
     7
370
     0
100
AcDbLine
 10
183.8925921497
 20
641.2554717441
 30
0.0
 11
183.8925921497
 21
624.4145936967
 31
0.0
  0
LINE
  5
363
330
35C
100
AcDbEntity
  8
0
  6
Continuous
 62
     7
370
     0
100
AcDbLine
 10
108.8925921497
 20
625.4145936967
 30
0.0
 11
183.8925921497
 21
625.4145936967
 31
0.0
  0
MTEXT
  5
364
330
35C
100
AcDbEntity
  8
0
  6
Continuous
 62
     7
370
    18
100
AcDbMText
 10
141.1675055651
 20
629.9263307859
 30
0.0
 40
3.5
 41
0.0
 71
     1
 72
     1
  1
%%c
  7
SLDTEXTSTYLE0
 73
     1
 44
1.0
  0
MTEXT
  5
365
330
35C
100
AcDbEntity
  8
0
  6
Continuous
 62
     7
370
    18
100
AcDbMText
 10
146.2704571103
 20
629.9360530951
 30
0.0
 40
3.5
 41
0.0
 71
     1
 72
     1
  1
75
  7
SLDTEXTSTYLE0
 73
     1
 44
1.0
  0
ENDBLK
  5
35E
330
35C
100
AcDbEntity
  8
0
100
AcDbBlockEnd
  0
BLOCK
  5
368
330
367
100
AcDbEntity
  8
0
100
AcDbBlockBegin
  2
_D_6
 70
     0
 10
0.0
 20
0.0
 30
0.0
  3
_D_6
  1

  0
SOLID
  5
36A
330
367
100
AcDbEntity
  8
0
  6
Continuous
 62
     7
370
    18
100
AcDbTrace
 10
107.3925921497
 20
266.4087895289
 30
0.0
 11
110.8925921497
 21
265.8703279905
 31
0.0
 12
110.8925921497
 22
266.9472510674
 32
0.0
 13
110.8925921497
 23
266.9472510674
 33
0.0
  0
SOLID
  5
36B
330
367
100
AcDbEntity
  8
0
  6
Continuous
 62
     7
370
    18
100
AcDbTrace
 10
185.3925921497
 20
266.4087895289
 30
0.0
 11
181.8925921497
 21
266.9472510674
 31
0.0
 12
181.8925921497
 22
265.8703279905
 32
0.0
 13
181.8925921497
 23
265.8703279905
 33
0.0
  0
LINE
  5
36C
330
367
100
AcDbEntity
  8
0
  6
Continuous
 62
     7
370
     0
100
AcDbLine
 10
107.3925921497
 20
256.805473597
 30
0.0
 11
107.3925921497
 21
267.4087895289
 31
0.0
  0
LINE
  5
36D
330
367
100
AcDbEntity
  8
0
  6
Continuous
 62
     7
370
     0
100
AcDbLine
 10
185.3925921497
 20
256.805473597
 30
0.0
 11
185.3925921497
 21
267.4087895289
 31
0.0
  0
LINE
  5
36E
330
367
100
AcDbEntity
  8
0
  6
Continuous
 62
     7
370
     0
100
AcDbLine
 10
107.3925921497
 20
266.4087895289
 30
0.0
 11
185.3925921497
 21
266.4087895289
 31
0.0
  0
MTEXT
  5
36F
330
367
100
AcDbEntity
  8
0
  6
Continuous
 62
     7
370
    18
100
AcDbMText
 10
141.167505565
 20
270.9205266181
 30
0.0
 40
3.5
 41
0.0
 71
     1
 72
     1
  1
%%c
  7
SLDTEXTSTYLE0
 73
     1
 44
1.0
  0
MTEXT
  5
370
330
367
100
AcDbEntity
  8
0
  6
Continuous
 62
     7
370
    18
100
AcDbMText
 10
146.2704571103
 20
270.9302489273
 30
0.0
 40
3.5
 41
0.0
 71
     1
 72
     1
  1
78
  7
SLDTEXTSTYLE0
 73
     1
 44
1.0
  0
ENDBLK
  5
369
330
367
100
AcDbEntity
  8
0
100
AcDbBlockEnd
  0
BLOCK
  5
373
330
372
100
AcDbEntity
  8
0
100
AcDbBlockBegin
  2
_D_7
 70
     0
 10
0.0
 20
0.0
 30
0.0
  3
_D_7
  1

  0
SOLID
  5
375
330
372
100
AcDbEntity
  8
0
  6
Continuous
 62
     7
370
    18
100
AcDbTrace
 10
108.8925921497
 20
124.0225219384
 30
0.0
 11
112.3925921497
 21
123.4840604
 31
0.0
 12
112.3925921497
 22
124.5609834769
 32
0.0
 13
112.3925921497
 23
124.5609834769
 33
0.0
  0
SOLID
  5
376
330
372
100
AcDbEntity
  8
0
  6
Continuous
 62
     7
370
    18
100
AcDbTrace
 10
183.8925921497
 20
124.0225219384
 30
0.0
 11
180.3925921497
 21
124.5609834769
 31
0.0
 12
180.3925921497
 22
123.4840604
 32
0.0
 13
180.3925921497
 23
123.4840604
 33
0.0
  0
LINE
  5
377
330
372
100
AcDbEntity
  8
0
  6
Continuous
 62
     7
370
     0
100
AcDbLine
 10
108.8925921497
 20
139.8633999859
 30
0.0
 11
108.8925921497
 21
123.0225219384
 31
0.0
  0
LINE
  5
378
330
372
100
AcDbEntity
  8
0
  6
Continuous
 62
     7
370
     0
100
AcDbLine
 10
183.8925921497
 20
139.8633999859
 30
0.0
 11
183.8925921497
 21
123.0225219384
 31
0.0
  0
LINE
  5
379
330
372
100
AcDbEntity
  8
0
  6
Continuous
 62
     7
370
     0
100
AcDbLine
 10
108.8925921497
 20
124.0225219384
 30
0.0
 11
183.8925921497
 21
124.0225219384
 31
0.0
  0
MTEXT
  5
37A
330
372
100
AcDbEntity
  8
0
  6
Continuous
 62
     7
370
    18
100
AcDbMText
 10
141.167505565
 20
128.5342590276
 30
0.0
 40
3.5
 41
0.0
 71
     1
 72
     1
  1
%%c
  7
SLDTEXTSTYLE0
 73
     1
 44
1.0
  0
MTEXT
  5
37B
330
372
100
AcDbEntity
  8
0
  6
Continuous
 62
     7
370
    18
100
AcDbMText
 10
146.2704571103
 20
128.5439813368
 30
0.0
 40
3.5
 41
0.0
 71
     1
 72
     1
  1
75
  7
SLDTEXTSTYLE0
 73
     1
 44
1.0
  0
ENDBLK
  5
374
330
372
100
AcDbEntity
  8
0
100
AcDbBlockEnd
  0
BLOCK
  5
37E
330
37D
100
AcDbEntity
  8
0
100
AcDbBlockBegin
  2
_D_8
 70
     0
 10
0.0
 20
0.0
 30
0.0
  3
_D_8
  1

  0
SOLID
  5
380
330
37D
100
AcDbEntity
  8
0
  6
Continuous
 62
     7
370
    18
100
AcDbTrace
 10
199.9925921497
 20
134.0225219384
 30
0.0
 11
200.5310536882
 21
137.5225219384
 31
0.0
 12
199.4541306113
 22
137.5225219384
 32
0.0
 13
199.4541306113
 23
137.5225219384
 33
0.0
  0
SOLID
  5
381
330
37D
100
AcDbEntity
  8
0
  6
Continuous
 62
     7
370
    18
100
AcDbTrace
 10
199.9925921497
 20
256.705473597
 30
0.0
 11
199.4541306113
 21
253.205473597
 31
0.0
 12
200.5310536882
 22
253.205473597
 32
0.0
 13
200.5310536882
 23
253.205473597
 33
0.0
  0
LINE
  5
382
330
37D
100
AcDbEntity
  8
0
  6
Continuous
 62
     7
370
     0
100
AcDbLine
 10
182.5725921497
 20
134.0225219384
 30
0.0
 11
200.9925921497
 21
134.0225219384
 31
0.0
  0
LINE
  5
383
330
37D
100
AcDbEntity
  8
0
  6
Continuous
 62
     7
370
     0
100
AcDbLine
 10
185.4925921497
 20
256.705473597
 30
0.0
 11
200.9925921497
 21
256.705473597
 31
0.0
  0
LINE
  5
384
330
37D
100
AcDbEntity
  8
0
  6
Continuous
 62
     7
370
     0
100
AcDbLine
 10
199.9925921497
 20
134.0225219384
 30
0.0
 11
199.9925921497
 21
256.705473597
 31
0.0
  0
MTEXT
  5
385
330
37D
100
AcDbEntity
  8
0
  6
Continuous
 62
     7
370
    18
100
AcDbMText
 10
195.4808548277
 20
190.016775678
 30
0.0
 40
3.5
 41
0.0
 71
     1
 72
     1
  1
3050
  7
SLDTEXTSTYLE0
 11
6.123233995736766E-17
 21
1.0
 31
0.0
 73
     1
 44
1.0
  0
ENDBLK
  5
37F
330
37D
100
AcDbEntity
  8
0
100
AcDbBlockEnd
  0
BLOCK
  5
38C
330
38B
100
AcDbEntity
  8
0
100
AcDbBlockBegin
  2
SW_HATCH_0
 70
     0
 10
0.0
 20
0.0
 30
0.0
  3
SW_HATCH_0
  1

  0
LINE
  5
38E
330
38B
100
AcDbEntity
  8
0
  6
Continuous
 62
     0
370
    18
100
AcDbLine
 10
0.0
 20
0.0
 30
0.0
 11
-0.1660883427
 21
-0.1660585403
 31
0.0
  0
LINE
  5
38F
330
38B
100
AcDbEntity
  8
0
  6
Continuous
 62
     0
370
    18
100
AcDbLine
 10
0.8339136839
 20
-1.4110803604
 30
0.0
 11
-0.1660883427
 21
-2.4111270905
 31
0.0
  0
LINE
  5
390
330
38B
100
AcDbEntity
  8
0
  6
Continuous
 62
     0
370
    18
100
AcDbLine
 10
0.8339136839
 20
-3.6561489105
 30
0.0
 11
-0.0786110759
 21
-4.568696022
 31
0.0
  0
LINE
  5
391
330
38B
100
AcDbEntity
  8
0
  6
Continuous
 62
     0
370
    18
100
AcDbLine
 10
1.4457851648
 20
-5.2894353867
 30
0.0
 11
0.7386021316
 21
-5.9965848923
 31
0.0
  0
LINE
  5
392
330
38B
100
AcDbEntity
  8
0
  6
Continuous
 62
     0
370
    18
100
AcDbLine
 10
2.9791034758
 20
-6.0011148453
 30
0.0
 11
2.1862015128
 21
-6.7939758301
 31
0.0
  0
LINE
  5
393
330
38B
100
AcDbEntity
  8
0
  6
Continuous
 62
     0
370
    18
100
AcDbLine
 10
4.4592879713
 20
-6.765961647
 30
0.0
 11
3.7511400878
 21
-7.4741840363
 31
0.0
  0
LINE
  5
394
330
38B
100
AcDbEntity
  8
0
  6
Continuous
 62
     0
370
    18
100
AcDbLine
 10
5.317799747
 20
-8.1526041031
 30
0.0
 11
4.4339112937
 21
-9.0364217758
 31
0.0
  0
LINE
  5
395
330
38B
100
AcDbEntity
  8
0
  6
Continuous
 62
     0
370
    18
100
AcDbLine
 10
5.4339133203
 20
-10.2815628052
 30
0.0
 11
4.4339112937
 21
-11.2814903259
 31
0.0
  0
LINE
  5
396
330
38B
100
AcDbEntity
  8
0
  6
Continuous
 62
     0
370
    18
100
AcDbLine
 10
5.4339133203
 20
-12.5266313553
 30
0.0
 11
4.4339112937
 21
-13.526558876
 31
0.0
  0
LINE
  5
397
330
38B
100
AcDbEntity
  8
0
  6
Continuous
 62
     0
370
    18
100
AcDbLine
 10
5.4339133203
 20
-14.7716999054
 30
0.0
 11
4.4339112937
 21
-15.7716274261
 31
0.0
  0
LINE
  5
398
330
38B
100
AcDbEntity
  8
0
  6
Continuous
 62
     0
370
    18
100
AcDbLine
 10
5.4339133203
 20
-17.0166492462
 30
0.0
 11
4.4339112937
 21
-18.0166959763
 31
0.0
  0
LINE
  5
399
330
38B
100
AcDbEntity
  8
0
  6
Continuous
 62
     0
370
    18
100
AcDbLine
 10
0.8032657206
 20
-23.8924026489
 30
0.0
 11
0.2572089434
 21
-24.4385004044
 31
0.0
  0
LINE
  5
39A
330
38B
100
AcDbEntity
  8
0
  6
Continuous
 62
     0
370
    18
100
AcDbLine
 10
5.4339133203
 20
-19.2617177963
 30
0.0
 11
4.4339112937
 21
-20.2617645264
 31
0.0
  0
LINE
  5
39B
330
38B
100
AcDbEntity
  8
0
  6
Continuous
 62
     0
370
    18
100
AcDbLine
 10
0.6339140236
 20
-26.3068675995
 30
0.0
 11
-0.3660880029
 21
-27.3067951202
 31
0.0
  0
LINE
  5
39C
330
38B
100
AcDbEntity
  8
0
  6
Continuous
 62
     0
370
    18
100
AcDbLine
 10
5.4001957178
 20
-21.5405225754
 30
0.0
 11
2.8285160661
 21
-24.1122245789
 31
0.0
  0
LINE
  5
39D
330
38B
100
AcDbEntity
  8
0
  6
Continuous
 62
     0
370
    18
100
AcDbLine
 10
0.6339140236
 20
-28.5519361496
 30
0.0
 11
-0.3660880029
 21
-29.5518636703
 31
0.0
  0
LINE
  5
39E
330
38B
100
AcDbEntity
  8
0
  6
Continuous
 62
     0
370
    18
100
AcDbLine
 10
0.6339140236
 20
-30.7970046997
 30
0.0
 11
-0.3660880029
 21
-31.7969322205
 31
0.0
  0
LINE
  5
39F
330
38B
100
AcDbEntity
  8
0
  6
Continuous
 62
     0
370
    18
100
AcDbLine
 10
0.6339140236
 20
-33.0420732498
 30
0.0
 11
-0.3660880029
 21
-34.0420007706
 31
0.0
  0
LINE
  5
3A0
330
38B
100
AcDbEntity
  8
0
  6
Continuous
 62
     0
370
    18
100
AcDbLine
 10
0.6339140236
 20
-35.2871417999
 30
0.0
 11
-0.3660880029
 21
-36.2870693207
 31
0.0
  0
LINE
  5
3A1
330
38B
100
AcDbEntity
  8
0
  6
Continuous
 62
     0
370
    18
100
AcDbLine
 10
0.6339140236
 20
-37.53221035
 30
0.0
 11
-0.3660880029
 21
-38.5321378708
 31
0.0
  0
LINE
  5
3A2
330
38B
100
AcDbEntity
  8
0
  6
Continuous
 62
     0
370
    18
100
AcDbLine
 10
0.6339140236
 20
-39.7771596909
 30
0.0
 11
-0.3660880029
 21
-40.7772064209
 31
0.0
  0
LINE
  5
3A3
330
38B
100
AcDbEntity
  8
0
  6
Continuous
 62
     0
370
    18
100
AcDbLine
 10
0.6339140236
 20
-42.022228241
 30
0.0
 11
-0.3660880029
 21
-43.022274971
 31
0.0
  0
LINE
  5
3A4
330
38B
100
AcDbEntity
  8
0
  6
Continuous
 62
     0
370
    18
100
AcDbLine
 10
0.6339140236
 20
-44.2672967911
 30
0.0
 11
-0.3660880029
 21
-45.2673435211
 31
0.0
  0
LINE
  5
3A5
330
38B
100
AcDbEntity
  8
0
  6
Continuous
 62
     0
370
    18
100
AcDbLine
 10
0.6339140236
 20
-46.5123653412
 30
0.0
 11
-0.3660880029
 21
-47.5124120712
 31
0.0
  0
LINE
  5
3A6
330
38B
100
AcDbEntity
  8
0
  6
Continuous
 62
     0
370
    18
100
AcDbLine
 10
0.6339140236
 20
-48.7574338913
 30
0.0
 11
-0.3660880029
 21
-49.7574806213
 31
0.0
  0
LINE
  5
3A7
330
38B
100
AcDbEntity
  8
0
  6
Continuous
 62
     0
370
    18
100
AcDbLine
 10
0.6339140236
 20
-51.0025024414
 30
0.0
 11
-0.4770644009
 21
-52.11353302
 31
0.0
  0
LINE
  5
3A8
330
38B
100
AcDbEntity
  8
0
  6
Continuous
 62
     0
370
    18
100
AcDbLine
 10
0.0404678285
 20
-53.8409948349
 30
0.0
 11
-1.4657080173
 21
-55.3472042084
 31
0.0
  0
LINE
  5
3A9
330
38B
100
AcDbEntity
  8
0
  6
Continuous
 62
     0
370
    18
100
AcDbLine
 10
-0.6660856307
 20
-56.7926168442
 30
0.0
 11
-1.6660876572
 21
-57.7926635742
 31
0.0
  0
LINE
  5
3AA
330
38B
100
AcDbEntity
  8
0
  6
Continuous
 62
     0
370
    18
100
AcDbLine
 10
-0.6660856307
 20
-59.0376853943
 30
0.0
 11
-1.6660876572
 21
-60.0377321243
 31
0.0
  0
LINE
  5
3AB
330
38B
100
AcDbEntity
  8
0
  6
Continuous
 62
     0
370
    18
100
AcDbLine
 10
-0.6660856307
 20
-61.2827539444
 30
0.0
 11
-1.6660876572
 21
-62.2828006744
 31
0.0
  0
LINE
  5
3AC
330
38B
100
AcDbEntity
  8
0
  6
Continuous
 62
     0
370
    18
100
AcDbLine
 10
-0.6660856307
 20
-63.5278224945
 30
0.0
 11
-1.6660876572
 21
-64.5278692245
 31
0.0
  0
LINE
  5
3AD
330
38B
100
AcDbEntity
  8
0
  6
Continuous
 62
     0
370
    18
100
AcDbLine
 10
-0.6660856307
 20
-65.7728910446
 30
0.0
 11
-1.6660876572
 21
-66.7729377747
 31
0.0
  0
LINE
  5
3AE
330
38B
100
AcDbEntity
  8
0
  6
Continuous
 62
     0
370
    18
100
AcDbLine
 10
-0.6660856307
 20
-68.0179595947
 30
0.0
 11
-1.6660876572
 21
-69.0180063248
 31
0.0
  0
LINE
  5
3AF
330
38B
100
AcDbEntity
  8
0
  6
Continuous
 62
     0
370
    18
100
AcDbLine
 10
-0.6660856307
 20
-70.2630281448
 30
0.0
 11
-1.6660876572
 21
-71.2630748749
 31
0.0
  0
LINE
  5
3B0
330
38B
100
AcDbEntity
  8
0
  6
Continuous
 62
     0
370
    18
100
AcDbLine
 10
-0.6660856307
 20
-72.5080966949
 30
0.0
 11
-1.6660876572
 21
-73.508143425
 31
0.0
  0
LINE
  5
3B1
330
38B
100
AcDbEntity
  8
0
  6
Continuous
 62
     0
370
    18
100
AcDbLine
 10
-0.6660856307
 20
-74.7531652451
 30
0.0
 11
-1.6660876572
 21
-75.7532119751
 31
0.0
  0
LINE
  5
3B2
330
38B
100
AcDbEntity
  8
0
  6
Continuous
 62
     0
370
    18
100
AcDbLine
 10
-0.6660856307
 20
-76.9982337952
 30
0.0
 11
-1.6660876572
 21
-77.9982805252
 31
0.0
  0
LINE
  5
3B3
330
38B
100
AcDbEntity
  8
0
  6
Continuous
 62
     0
370
    18
100
AcDbLine
 10
-0.6660856307
 20
-79.2433023453
 30
0.0
 11
-1.6660876572
 21
-80.2433490753
 31
0.0
  0
LINE
  5
3B4
330
38B
100
AcDbEntity
  8
0
  6
Continuous
 62
     0
370
    18
100
AcDbLine
 10
-0.6660856307
 20
-81.4883708954
 30
0.0
 11
-1.1099018157
 21
-81.9321870804
 31
0.0
  0
LINE
  5
3B5
330
38B
100
AcDbEntity
  8
0
  6
Continuous
 62
     0
370
    18
100
AcDbLine
 10
-76.3321742415
 20
0.0
 30
0.0
 11
-77.1660879254
 21
-0.8338689804
 31
0.0
  0
LINE
  5
3B6
330
38B
100
AcDbEntity
  8
0
  6
Continuous
 62
     0
370
    18
100
AcDbLine
 10
-76.1660858989
 20
-2.0790100098
 30
0.0
 11
-77.1660879254
 21
-3.0789375305
 31
0.0
  0
LINE
  5
3B7
330
38B
100
AcDbEntity
  8
0
  6
Continuous
 62
     0
370
    18
100
AcDbLine
 10
-80.7653069496
 20
-8.92329216
 30
0.0
 11
-81.7660875618
 21
-9.9240541458
 31
0.0
  0
LINE
  5
3B8
330
38B
100
AcDbEntity
  8
0
  6
Continuous
 62
     0
370
    18
100
AcDbLine
 10
-76.2114711106
 20
-4.3693780899
 30
0.0
 11
-78.693266958
 21
-6.8511962891
 31
0.0
  0
LINE
  5
3B9
330
38B
100
AcDbEntity
  8
0
  6
Continuous
 62
     0
370
    18
100
AcDbLine
 10
-80.7660855353
 20
-11.1690759659
 30
0.0
 11
-81.7660875618
 21
-12.1691226959
 31
0.0
  0
LINE
  5
3BA
330
38B
100
AcDbEntity
  8
0
  6
Continuous
 62
     0
370
    18
100
AcDbLine
 10
-80.7660855353
 20
-13.414144516
 30
0.0
 11
-81.7660875618
 21
-14.414191246
 31
0.0
  0
LINE
  5
3BB
330
38B
100
AcDbEntity
  8
0
  6
Continuous
 62
     0
370
    18
100
AcDbLine
 10
-80.7660855353
 20
-15.6592130661
 30
0.0
 11
-81.7660875618
 21
-16.6592597961
 31
0.0
  0
LINE
  5
3BC
330
38B
100
AcDbEntity
  8
0
  6
Continuous
 62
     0
370
    18
100
AcDbLine
 10
-80.7660855353
 20
-17.9042816162
 30
0.0
 11
-81.7660875618
 21
-18.9043283463
 31
0.0
  0
LINE
  5
3BD
330
38B
100
AcDbEntity
  8
0
  6
Continuous
 62
     0
370
    18
100
AcDbLine
 10
-80.7660855353
 20
-20.1493501663
 30
0.0
 11
-81.76555112
 21
-21.1488008499
 31
0.0
  0
LINE
  5
3BE
330
38B
100
AcDbEntity
  8
0
  6
Continuous
 62
     0
370
    18
100
AcDbLine
 10
-80.4854221642
 20
-22.1136808395
 30
0.0
 11
-81.2073461711
 21
-22.8356122971
 31
0.0
  0
LINE
  5
3BF
330
38B
100
AcDbEntity
  8
0
  6
Continuous
 62
     0
370
    18
100
AcDbLine
 10
-79.1836902499
 20
-23.057103157
 30
0.0
 11
-79.9675546587
 21
-23.8409042358
 31
0.0
  0
LINE
  5
3C0
330
38B
100
AcDbEntity
  8
0
  6
Continuous
 62
     0
370
    18
100
AcDbLine
 10
-77.5214284658
 20
-23.6399173737
 30
0.0
 11
-78.27417925
 21
-24.3926048279
 31
0.0
  0
LINE
  5
3C1
330
38B
100
AcDbEntity
  8
0
  6
Continuous
 62
     0
370
    18
100
AcDbLine
 10
-76.3818696141
 20
-24.7453451157
 30
0.0
 11
-77.1248042583
 21
-25.4882574081
 31
0.0
  0
LINE
  5
3C2
330
38B
100
AcDbEntity
  8
0
  6
Continuous
 62
     0
370
    18
100
AcDbLine
 10
-75.9660862386
 20
-26.5746116638
 30
0.0
 11
-76.9660882652
 21
-27.5746583939
 31
0.0
  0
LINE
  5
3C3
330
38B
100
AcDbEntity
  8
0
  6
Continuous
 62
     0
370
    18
100
AcDbLine
 10
-75.9660862386
 20
-28.8196802139
 30
0.0
 11
-76.9660882652
 21
-29.819726944
 31
0.0
  0
LINE
  5
3C4
330
38B
100
AcDbEntity
  8
0
  6
Continuous
 62
     0
370
    18
100
AcDbLine
 10
-75.9660862386
 20
-31.064748764
 30
0.0
 11
-76.9660882652
 21
-32.0647954941
 31
0.0
  0
LINE
  5
3C5
330
38B
100
AcDbEntity
  8
0
  6
Continuous
 62
     0
370
    18
100
AcDbLine
 10
-75.9660862386
 20
-33.3098173141
 30
0.0
 11
-76.9660882652
 21
-34.3098640442
 31
0.0
  0
LINE
  5
3C6
330
38B
100
AcDbEntity
  8
0
  6
Continuous
 62
     0
370
    18
100
AcDbLine
 10
-75.9660862386
 20
-35.5548858643
 30
0.0
 11
-76.9660882652
 21
-36.5549325943
 31
0.0
  0
LINE
  5
3C7
330
38B
100
AcDbEntity
  8
0
  6
Continuous
 62
     0
370
    18
100
AcDbLine
 10
-75.9660862386
 20
-37.7999544144
 30
0.0
 11
-76.9660882652
 21
-38.8000011444
 31
0.0
  0
LINE
  5
3C8
330
38B
100
AcDbEntity
  8
0
  6
Continuous
 62
     0
370
    18
100
AcDbLine
 10
-75.9660862386
 20
-40.0450229645
 30
0.0
 11
-76.9660882652
 21
-41.0450696945
 31
0.0
  0
LINE
  5
3C9
330
38B
100
AcDbEntity
  8
0
  6
Continuous
 62
     0
370
    18
100
AcDbLine
 10
-75.9660862386
 20
-42.2900915146
 30
0.0
 11
-76.9660882652
 21
-43.2901382446
 31
0.0
  0
LINE
  5
3CA
330
38B
100
AcDbEntity
  8
0
  6
Continuous
 62
     0
370
    18
100
AcDbLine
 10
-75.9660862386
 20
-44.5351600647
 30
0.0
 11
-76.9660882652
 21
-45.5352067947
 31
0.0
  0
LINE
  5
3CB
330
38B
100
AcDbEntity
  8
0
  6
Continuous
 62
     0
370
    18
100
AcDbLine
 10
-75.9660862386
 20
-46.7802286148
 30
0.0
 11
-76.9660882652
 21
-47.7802753448
 31
0.0
  0
LINE
  5
3CC
330
38B
100
AcDbEntity
  8
0
  6
Continuous
 62
     0
370
    18
100
AcDbLine
 10
-75.9660862386
 20
-49.0252971649
 30
0.0
 11
-76.9660882652
 21
-50.025343895
 31
0.0
  0
LINE
  5
3CD
330
38B
100
AcDbEntity
  8
0
  6
Continuous
 62
     0
370
    18
100
AcDbLine
 10
-75.9660862386
 20
-51.270365715
 30
0.0
 11
-76.8762044609
 21
-52.1805286407
 31
0.0
  0
LINE
  5
3CE
330
38B
100
AcDbEntity
  8
0
  6
Continuous
 62
     0
370
    18
100
AcDbLine
 10
-75.5528435111
 20
-53.1021356583
 30
0.0
 11
-76.3536915183
 21
-53.9029836655
 31
0.0
  0
LINE
  5
3CF
330
38B
100
AcDbEntity
  8
0
  6
Continuous
 62
     0
370
    18
100
AcDbLine
 10
-75.0271715224
 20
-54.8216104507
 30
0.0
 11
-75.8280195296
 21
-55.6224584579
 31
0.0
  0
LINE
  5
3D0
330
38B
100
AcDbEntity
  8
0
  6
Continuous
 62
     0
370
    18
100
AcDbLine
 10
-74.6660865843
 20
-56.7055940628
 30
0.0
 11
-75.6660886109
 21
-57.7055215836
 31
0.0
  0
LINE
  5
3D1
330
38B
100
AcDbEntity
  8
0
  6
Continuous
 62
     0
370
    18
100
AcDbLine
 10
-74.6660865843
 20
-58.9506626129
 30
0.0
 11
-75.6660886109
 21
-59.9505901337
 31
0.0
  0
LINE
  5
3D2
330
38B
100
AcDbEntity
  8
0
  6
Continuous
 62
     0
370
    18
100
AcDbLine
 10
-74.6660865843
 20
-61.195731163
 30
0.0
 11
-75.6660886109
 21
-62.1956586838
 31
0.0
  0
LINE
  5
3D3
330
38B
100
AcDbEntity
  8
0
  6
Continuous
 62
     0
370
    18
100
AcDbLine
 10
-74.6660865843
 20
-63.4407997131
 30
0.0
 11
-75.6660886109
 21
-64.4407272339
 31
0.0
  0
LINE
  5
3D4
330
38B
100
AcDbEntity
  8
0
  6
Continuous
 62
     0
370
    18
100
AcDbLine
 10
-74.6660865843
 20
-65.685749054
 30
0.0
 11
-75.6660886109
 21
-66.685795784
 31
0.0
  0
LINE
  5
3D5
330
38B
100
AcDbEntity
  8
0
  6
Continuous
 62
     0
370
    18
100
AcDbLine
 10
-74.6660865843
 20
-67.9308176041
 30
0.0
 11
-75.6660886109
 21
-68.9308643341
 31
0.0
  0
LINE
  5
3D6
330
38B
100
AcDbEntity
  8
0
  6
Continuous
 62
     0
370
    18
100
AcDbLine
 10
-74.6660865843
 20
-70.1758861542
 30
0.0
 11
-75.6660886109
 21
-71.1759328842
 31
0.0
  0
LINE
  5
3D7
330
38B
100
AcDbEntity
  8
0
  6
Continuous
 62
     0
370
    18
100
AcDbLine
 10
-74.6660865843
 20
-72.4209547043
 30
0.0
 11
-75.6660886109
 21
-73.4210014343
 31
0.0
  0
LINE
  5
3D8
330
38B
100
AcDbEntity
  8
0
  6
Continuous
 62
     0
370
    18
100
AcDbLine
 10
-74.6660865843
 20
-74.6660232544
 30
0.0
 11
-75.6660886109
 21
-75.6660699844
 31
0.0
  0
LINE
  5
3D9
330
38B
100
AcDbEntity
  8
0
  6
Continuous
 62
     0
370
    18
100
AcDbLine
 10
-74.6660865843
 20
-76.9110918045
 30
0.0
 11
-75.6660886109
 21
-77.9111385345
 31
0.0
  0
LINE
  5
3DA
330
38B
100
AcDbEntity
  8
0
  6
Continuous
 62
     0
370
    18
100
AcDbLine
 10
-74.6660865843
 20
-79.1561603546
 30
0.0
 11
-75.6660886109
 21
-80.1562070847
 31
0.0
  0
LINE
  5
3DB
330
38B
100
AcDbEntity
  8
0
  6
Continuous
 62
     0
370
    18
100
AcDbLine
 10
0.2806335688
 20
-7.5770616531
 30
0.0
 11
0.8419007063
 21
-7.0158243179
 31
0.0
  0
LINE
  5
3DC
330
38B
100
AcDbEntity
  8
0
  6
Continuous
 62
     0
370
    18
100
AcDbLine
 10
1.4031678438
 20
-7.5770616531
 30
0.0
 11
1.9644312561
 21
-7.0158243179
 31
0.0
  0
LINE
  5
3DD
330
38B
100
AcDbEntity
  8
0
  6
Continuous
 62
     0
370
    18
100
AcDbLine
 10
-0.2806298435
 20
-9.260892868
 30
0.0
 11
0.2806335688
 21
-8.6996555328
 31
0.0
  0
LINE
  5
3DE
330
38B
100
AcDbEntity
  8
0
  6
Continuous
 62
     0
370
    18
100
AcDbLine
 10
2.5256983936
 20
-7.5770616531
 30
0.0
 11
3.0706338584
 21
-7.0321559906
 31
0.0
  0
LINE
  5
3DF
330
38B
100
AcDbEntity
  8
0
  6
Continuous
 62
     0
370
    18
100
AcDbLine
 10
0.8419007063
 20
-9.260892868
 30
0.0
 11
1.4031678438
 21
-8.6996555328
 31
0.0
  0
LINE
  5
3E0
330
38B
100
AcDbEntity
  8
0
  6
Continuous
 62
     0
370
    18
100
AcDbLine
 10
-0.841896981
 20
-10.9446048737
 30
0.0
 11
-0.2806298435
 21
-10.3833675385
 31
0.0
  0
LINE
  5
3E1
330
38B
100
AcDbEntity
  8
0
  6
Continuous
 62
     0
370
    18
100
AcDbLine
 10
3.6482289433
 20
-7.5770616531
 30
0.0
 11
3.7822909653
 21
-7.4429512024
 31
0.0
  0
LINE
  5
3E2
330
38B
100
AcDbEntity
  8
0
  6
Continuous
 62
     0
370
    18
100
AcDbLine
 10
1.9644312561
 20
-9.260892868
 30
0.0
 11
2.5256983936
 21
-8.6996555328
 31
0.0
  0
LINE
  5
3E3
330
38B
100
AcDbEntity
  8
0
  6
Continuous
 62
     0
370
    18
100
AcDbLine
 10
0.2806335688
 20
-10.9446048737
 30
0.0
 11
0.8419007063
 21
-10.3833675385
 31
0.0
  0
LINE
  5
3E4
330
38B
100
AcDbEntity
  8
0
  6
Continuous
 62
     0
370
    18
100
AcDbLine
 10
3.0869655311
 20
-9.260892868
 30
0.0
 11
3.6482289433
 21
-8.6996555328
 31
0.0
  0
LINE
  5
3E5
330
38B
100
AcDbEntity
  8
0
  6
Continuous
 62
     0
370
    18
100
AcDbLine
 10
1.4031678438
 20
-10.9446048737
 30
0.0
 11
1.9644312561
 21
-10.3833675385
 31
0.0
  0
LINE
  5
3E6
330
38B
100
AcDbEntity
  8
0
  6
Continuous
 62
     0
370
    18
100
AcDbLine
 10
-0.1527741551
 20
-12.5006437302
 30
0.0
 11
0.2806335688
 21
-12.0671987534
 31
0.0
  0
LINE
  5
3E7
330
38B
100
AcDbEntity
  8
0
  6
Continuous
 62
     0
370
    18
100
AcDbLine
 10
2.5256983936
 20
-10.9446048737
 30
0.0
 11
3.0869655311
 21
-10.3833675385
 31
0.0
  0
LINE
  5
3E8
330
38B
100
AcDbEntity
  8
0
  6
Continuous
 62
     0
370
    18
100
AcDbLine
 10
0.8419007063
 20
-12.6284360886
 30
0.0
 11
1.4031678438
 21
-12.0671987534
 31
0.0
  0
LINE
  5
3E9
330
38B
100
AcDbEntity
  8
0
  6
Continuous
 62
     0
370
    18
100
AcDbLine
 10
-1.4031641185
 20
-15.9960985184
 30
0.0
 11
-1.3406313956
 21
-15.9335136414
 31
0.0
  0
LINE
  5
3EA
330
38B
100
AcDbEntity
  8
0
  6
Continuous
 62
     0
370
    18
100
AcDbLine
 10
3.6482289433
 20
-10.9446048737
 30
0.0
 11
4.1932612658
 21
-10.3995800018
 31
0.0
  0
LINE
  5
3EB
330
38B
100
AcDbEntity
  8
0
  6
Continuous
 62
     0
370
    18
100
AcDbLine
 10
1.9644312561
 20
-12.6284360886
 30
0.0
 11
2.5256983936
 21
-12.0671987534
 31
0.0
  0
LINE
  5
3EC
330
38B
100
AcDbEntity
  8
0
  6
Continuous
 62
     0
370
    18
100
AcDbLine
 10
0.2806335688
 20
-14.3122673035
 30
0.0
 11
0.8419007063
 21
-13.7510299683
 31
0.0
  0
LINE
  5
3ED
330
38B
100
AcDbEntity
  8
0
  6
Continuous
 62
     0
370
    18
100
AcDbLine
 10
-1.9644312561
 20
-17.679810524
 30
0.0
 11
-1.8552541733
 21
-17.570734024
 31
0.0
  0
LINE
  5
3EE
330
38B
100
AcDbEntity
  8
0
  6
Continuous
 62
     0
370
    18
100
AcDbLine
 10
3.0869655311
 20
-12.6284360886
 30
0.0
 11
3.6482289433
 21
-12.0671987534
 31
0.0
  0
LINE
  5
3EF
330
38B
100
AcDbEntity
  8
0
  6
Continuous
 62
     0
370
    18
100
AcDbLine
 10
1.4031678438
 20
-14.3122673035
 30
0.0
 11
1.9644312561
 21
-13.7510299683
 31
0.0
  0
LINE
  5
3F0
330
38B
100
AcDbEntity
  8
0
  6
Continuous
 62
     0
370
    18
100
AcDbLine
 10
-0.2806298435
 20
-15.9960985184
 30
0.0
 11
0.2806335688
 21
-15.4347419739
 31
0.0
  0
LINE
  5
3F1
330
38B
100
AcDbEntity
  8
0
  6
Continuous
 62
     0
370
    18
100
AcDbLine
 10
2.5256983936
 20
-14.3122673035
 30
0.0
 11
3.0869655311
 21
-13.7510299683
 31
0.0
  0
LINE
  5
3F2
330
38B
100
AcDbEntity
  8
0
  6
Continuous
 62
     0
370
    18
100
AcDbLine
 10
0.8419007063
 20
-15.9960985184
 30
0.0
 11
1.4031678438
 21
-15.4347419739
 31
0.0
  0
LINE
  5
3F3
330
38B
100
AcDbEntity
  8
0
  6
Continuous
 62
     0
370
    18
100
AcDbLine
 10
-0.841896981
 20
-17.679810524
 30
0.0
 11
-0.2806298435
 21
-17.1185731888
 31
0.0
  0
LINE
  5
3F4
330
38B
100
AcDbEntity
  8
0
  6
Continuous
 62
     0
370
    18
100
AcDbLine
 10
-2.2149309516
 20
-19.052863121
 30
0.0
 11
-1.9644312561
 21
-18.8024044037
 31
0.0
  0
LINE
  5
3F5
330
38B
100
AcDbEntity
  8
0
  6
Continuous
 62
     0
370
    18
100
AcDbLine
 10
3.6482289433
 20
-14.3122673035
 30
0.0
 11
4.2094960809
 21
-13.7510299683
 31
0.0
  0
LINE
  5
3F6
330
38B
100
AcDbEntity
  8
0
  6
Continuous
 62
     0
370
    18
100
AcDbLine
 10
1.9644312561
 20
-15.9960985184
 30
0.0
 11
2.5256983936
 21
-15.4347419739
 31
0.0
  0
LINE
  5
3F7
330
38B
100
AcDbEntity
  8
0
  6
Continuous
 62
     0
370
    18
100
AcDbLine
 10
0.2806335688
 20
-17.679810524
 30
0.0
 11
0.8419007063
 21
-17.1185731888
 31
0.0
  0
LINE
  5
3F8
330
38B
100
AcDbEntity
  8
0
  6
Continuous
 62
     0
370
    18
100
AcDbLine
 10
-1.2984760106
 20
-19.2589759827
 30
0.0
 11
-0.841896981
 21
-18.8024044037
 31
0.0
  0
LINE
  5
3F9
330
38B
100
AcDbEntity
  8
0
  6
Continuous
 62
     0
370
    18
100
AcDbLine
 10
3.0869655311
 20
-15.9960985184
 30
0.0
 11
3.6482289433
 21
-15.4347419739
 31
0.0
  0
LINE
  5
3FA
330
38B
100
AcDbEntity
  8
0
  6
Continuous
 62
     0
370
    18
100
AcDbLine
 10
1.4031678438
 20
-17.679810524
 30
0.0
 11
1.9644312561
 21
-17.1185731888
 31
0.0
  0
LINE
  5
3FB
330
38B
100
AcDbEntity
  8
0
  6
Continuous
 62
     0
370
    18
100
AcDbLine
 10
-0.2396516502
 20
-19.3226337433
 30
0.0
 11
0.2806335688
 21
-18.8024044037
 31
0.0
  0
LINE
  5
3FC
330
38B
100
AcDbEntity
  8
0
  6
Continuous
 62
     0
370
    18
100
AcDbLine
 10
2.5256983936
 20
-17.679810524
 30
0.0
 11
3.0869655311
 21
-17.1185731888
 31
0.0
  0
LINE
  5
3FD
330
38B
100
AcDbEntity
  8
0
  6
Continuous
 62
     0
370
    18
100
AcDbLine
 10
3.6482289433
 20
-17.679810524
 30
0.0
 11
4.2094960809
 21
-17.1185731888
 31
0.0
  0
LINE
  5
3FE
330
38B
100
AcDbEntity
  8
0
  6
Continuous
 62
     0
370
    18
100
AcDbLine
 10
3.0869655311
 20
-19.3636417389
 30
0.0
 11
3.6482289433
 21
-18.8024044037
 31
0.0
  0
LINE
  5
3FF
330
38B
100
AcDbEntity
  8
0
  6
Continuous
 62
     0
370
    18
100
AcDbLine
 10
4.2094960809
 20
-19.3636417389
 30
0.0
 11
4.3748281896
 21
-19.1982984543
 31
0.0
  0
LINE
  5
400
330
38B
100
AcDbEntity
  8
0
  6
Continuous
 62
     0
370
    18
100
AcDbLine
 10
2.5256983936
 20
-21.0474729538
 30
0.0
 11
3.0869655311
 21
-20.4862356186
 31
0.0
  0
LINE
  5
401
330
38B
100
AcDbEntity
  8
0
  6
Continuous
 62
     0
370
    18
100
AcDbLine
 10
3.6482289433
 20
-21.0474729538
 30
0.0
 11
4.1916593909
 21
-20.5039978027
 31
0.0
  0
LINE
  5
402
330
38B
100
AcDbEntity
  8
0
  6
Continuous
 62
     0
370
    18
100
AcDbLine
 10
2.1528676152
 20
-22.5428342819
 30
0.0
 11
2.5256983936
 21
-22.1699476242
 31
0.0
  0
LINE
  5
403
330
38B
100
AcDbEntity
  8
0
  6
Continuous
 62
     0
370
    18
100
AcDbLine
 10
3.0869655311
 20
-22.7313041687
 30
0.0
 11
3.6482289433
 21
-22.1699476242
 31
0.0
  0
LINE
  5
404
330
38B
100
AcDbEntity
  8
0
  6
Continuous
 62
     0
370
    18
100
AcDbLine
 10
-3.0687302351
 20
-18.2594060898
 30
0.0
 11
-2.4159476161
 21
-18.9120769501
 31
0.0
  0
LINE
  5
405
330
38B
100
AcDbEntity
  8
0
  6
Continuous
 62
     0
370
    18
100
AcDbLine
 10
2.1588988602
 20
-22.3644971848
 30
0.0
 11
2.9878243804
 21
-23.193359375
 31
0.0
  0
LINE
  5
406
330
38B
100
AcDbEntity
  8
0
  6
Continuous
 62
     0
370
    18
100
AcDbLine
 10
-2.3928135633
 20
-17.8127288818
 30
0.0
 11
-0.9240582585
 21
-19.2815065384
 31
0.0
  0
LINE
  5
407
330
38B
100
AcDbEntity
  8
0
  6
Continuous
 62
     0
370
    18
100
AcDbLine
 10
2.1956115961
 20
-21.2786197662
 30
0.0
 11
3.7439092994
 21
-22.8269100189
 31
0.0
  0
LINE
  5
408
330
38B
100
AcDbEntity
  8
0
  6
Continuous
 62
     0
370
    18
100
AcDbLine
 10
-1.618809998
 20
-17.4641609192
 30
0.0
 11
0.270344317
 21
-19.35338974
 31
0.0
  0
LINE
  5
409
330
38B
100
AcDbEntity
  8
0
  6
Continuous
 62
     0
370
    18
100
AcDbLine
 10
2.0454451442
 20
-20.005941391
 30
0.0
 11
4.4339112937
 21
-22.3944187164
 31
0.0
  0
LINE
  5
40A
330
38B
100
AcDbEntity
  8
0
  6
Continuous
 62
     0
370
    18
100
AcDbLine
 10
-1.4510042965
 20
-16.5095329285
 30
0.0
 11
1.0264627635
 21
-18.9869403839
 31
0.0
  0
LINE
  5
40B
330
38B
100
AcDbEntity
  8
0
  6
Continuous
 62
     0
370
    18
100
AcDbLine
 10
2.4067461491
 20
-19.2446708679
 30
0.0
 11
4.1887797415
 21
-21.0267305374
 31
0.0
  0
LINE
  5
40C
330
38B
100
AcDbEntity
  8
0
  6
Continuous
 62
     0
370
    18
100
AcDbLine
 10
-0.7935166359
 20
-16.0443782806
 30
0.0
 11
1.2201033533
 21
-18.0580615997
 31
0.0
  0
LINE
  5
40D
330
38B
100
AcDbEntity
  8
0
  6
Continuous
 62
     0
370
    18
100
AcDbLine
 10
2.6304870844
 20
-18.345952034
 30
0.0
 11
4.2866058648
 21
-20.0020074844
 31
0.0
  0
LINE
  5
40E
330
38B
100
AcDbEntity
  8
0
  6
Continuous
 62
     0
370
    18
100
AcDbLine
 10
-0.4455372691
 20
-15.2698755264
 30
0.0
 11
2.0453371108
 21
-17.7607536316
 31
0.0
  0
LINE
  5
40F
330
38B
100
AcDbEntity
  8
0
  6
Continuous
 62
     0
370
    18
100
AcDbLine
 10
-0.188510865
 20
-14.4044160843
 30
0.0
 11
4.1932612658
 21
-18.7861919403
 31
0.0
  0
LINE
  5
410
330
38B
100
AcDbEntity
  8
0
  6
Continuous
 62
     0
370
    18
100
AcDbLine
 10
-0.1527741551
 20
-13.3175849915
 30
0.0
 11
4.1971430182
 21
-17.6675319672
 31
0.0
  0
LINE
  5
411
330
38B
100
AcDbEntity
  8
0
  6
Continuous
 62
     0
370
    18
100
AcDbLine
 10
4.3170489371
 20
-16.6648626328
 30
0.0
 11
4.4339112937
 21
-16.7816877365
 31
0.0
  0
LINE
  5
412
330
38B
100
AcDbEntity
  8
0
  6
Continuous
 62
     0
370
    18
100
AcDbLine
 10
-0.1527741551
 20
-12.195110321
 30
0.0
 11
4.2438097298
 21
-16.591668129
 31
0.0
  0
LINE
  5
413
330
38B
100
AcDbEntity
  8
0
  6
Continuous
 62
     0
370
    18
100
AcDbLine
 10
-1.4090836048
 20
-10.9387636185
 30
0.0
 11
-0.804707408
 21
-11.5431547165
 31
0.0
  0
LINE
  5
414
330
38B
100
AcDbEntity
  8
0
  6
Continuous
 62
     0
370
    18
100
AcDbLine
 10
-0.9425915778
 20
-10.2827548981
 30
0.0
 11
4.1932612658
 21
-15.4185295105
 31
0.0
  0
LINE
  5
415
330
38B
100
AcDbEntity
  8
0
  6
Continuous
 62
     0
370
    18
100
AcDbLine
 10
-0.552918762
 20
-9.5498561859
 30
0.0
 11
4.4339112937
 21
-14.5366191864
 31
0.0
  0
LINE
  5
416
330
38B
100
AcDbEntity
  8
0
  6
Continuous
 62
     0
370
    18
100
AcDbLine
 10
-0.1632496715
 20
-8.8169574738
 30
0.0
 11
4.1932612658
 21
-13.1734609604
 31
0.0
  0
LINE
  5
417
330
38B
100
AcDbEntity
  8
0
  6
Continuous
 62
     0
370
    18
100
AcDbLine
 10
0.1947619021
 20
-8.0524682999
 30
0.0
 11
4.1932612658
 21
-12.05098629
 31
0.0
  0
LINE
  5
418
330
38B
100
AcDbEntity
  8
0
  6
Continuous
 62
     0
370
    18
100
AcDbLine
 10
0.2940744162
 20
-7.0292949677
 30
0.0
 11
4.4339112937
 21
-11.1690759659
 31
0.0
  0
LINE
  5
419
330
38B
100
AcDbEntity
  8
0
  6
Continuous
 62
     0
370
    18
100
AcDbLine
 10
1.2066885829
 20
-6.8193674088
 30
0.0
 11
4.1932612658
 21
-9.8059177399
 31
0.0
  0
LINE
  5
41A
330
38B
100
AcDbEntity
  8
0
  6
Continuous
 62
     0
370
    18
100
AcDbLine
 10
2.3273490369
 20
-6.8174600601
 30
0.0
 11
4.2109973729
 21
-8.7010860443
 31
0.0
  0
LINE
  5
41B
330
38B
100
AcDbEntity
  8
0
  6
Continuous
 62
     0
370
    18
100
AcDbLine
 10
-79.4191397727
 20
-7.5770616531
 30
0.0
 11
-78.8578726351
 21
-7.0158243179
 31
0.0
  0
LINE
  5
41C
330
38B
100
AcDbEntity
  8
0
  6
Continuous
 62
     0
370
    18
100
AcDbLine
 10
-80.5431716144
 20
-8.7010860443
 30
0.0
 11
-80.5416703224
 21
-8.6996555328
 31
0.0
  0
LINE
  5
41D
330
38B
100
AcDbEntity
  8
0
  6
Continuous
 62
     0
370
    18
100
AcDbLine
 10
-78.2966054976
 20
-7.5770616531
 30
0.0
 11
-77.7353420854
 21
-7.0158243179
 31
0.0
  0
LINE
  5
41E
330
38B
100
AcDbEntity
  8
0
  6
Continuous
 62
     0
370
    18
100
AcDbLine
 10
-79.9804031849
 20
-9.260892868
 30
0.0
 11
-79.4191397727
 21
-8.6996555328
 31
0.0
  0
LINE
  5
41F
330
38B
100
AcDbEntity
  8
0
  6
Continuous
 62
     0
370
    18
100
AcDbLine
 10
-77.1740749478
 20
-7.5770616531
 30
0.0
 11
-76.6262486577
 21
-7.0292949677
 31
0.0
  0
LINE
  5
420
330
38B
100
AcDbEntity
  8
0
  6
Continuous
 62
     0
370
    18
100
AcDbLine
 10
-78.8578726351
 20
-9.260892868
 30
0.0
 11
-78.2966054976
 21
-8.6996555328
 31
0.0
  0
LINE
  5
421
330
38B
100
AcDbEntity
  8
0
  6
Continuous
 62
     0
370
    18
100
AcDbLine
 10
-80.5416703224
 20
-10.9446048737
 30
0.0
 11
-79.9804031849
 21
-10.3833675385
 31
0.0
  0
LINE
  5
422
330
38B
100
AcDbEntity
  8
0
  6
Continuous
 62
     0
370
    18
100
AcDbLine
 10
-77.7353420854
 20
-9.260892868
 30
0.0
 11
-77.1740749478
 21
-8.6996555328
 31
0.0
  0
LINE
  5
423
330
38B
100
AcDbEntity
  8
0
  6
Continuous
 62
     0
370
    18
100
AcDbLine
 10
-79.4191397727
 20
-10.9446048737
 30
0.0
 11
-78.8578726351
 21
-10.3833675385
 31
0.0
  0
LINE
  5
424
330
38B
100
AcDbEntity
  8
0
  6
Continuous
 62
     0
370
    18
100
AcDbLine
 10
-76.6128078103
 20
-9.260892868
 30
0.0
 11
-76.1689245701
 21
-8.8169574738
 31
0.0
  0
LINE
  5
425
330
38B
100
AcDbEntity
  8
0
  6
Continuous
 62
     0
370
    18
100
AcDbLine
 10
-78.2966054976
 20
-10.9446048737
 30
0.0
 11
-77.7353420854
 21
-10.3833675385
 31
0.0
  0
LINE
  5
426
330
38B
100
AcDbEntity
  8
0
  6
Continuous
 62
     0
370
    18
100
AcDbLine
 10
-79.9804031849
 20
-12.6284360886
 30
0.0
 11
-79.4191397727
 21
-12.0671987534
 31
0.0
  0
LINE
  5
427
330
38B
100
AcDbEntity
  8
0
  6
Continuous
 62
     0
370
    18
100
AcDbLine
 10
-77.1740749478
 20
-10.9446048737
 30
0.0
 11
-76.6128078103
 21
-10.3833675385
 31
0.0
  0
LINE
  5
428
330
38B
100
AcDbEntity
  8
0
  6
Continuous
 62
     0
370
    18
100
AcDbLine
 10
-78.8578726351
 20
-12.6284360886
 30
0.0
 11
-78.2966054976
 21
-12.0671987534
 31
0.0
  0
LINE
  5
429
330
38B
100
AcDbEntity
  8
0
  6
Continuous
 62
     0
370
    18
100
AcDbLine
 10
-80.5416703224
 20
-14.3122673035
 30
0.0
 11
-79.9804031849
 21
-13.7510299683
 31
0.0
  0
LINE
  5
42A
330
38B
100
AcDbEntity
  8
0
  6
Continuous
 62
     0
370
    18
100
AcDbLine
 10
-76.0515443981
 20
-10.9446048737
 30
0.0
 11
-75.4902772605
 21
-10.3833675385
 31
0.0
  0
LINE
  5
42B
330
38B
100
AcDbEntity
  8
0
  6
Continuous
 62
     0
370
    18
100
AcDbLine
 10
-77.7353420854
 20
-12.6284360886
 30
0.0
 11
-77.1740749478
 21
-12.0671987534
 31
0.0
  0
LINE
  5
42C
330
38B
100
AcDbEntity
  8
0
  6
Continuous
 62
     0
370
    18
100
AcDbLine
 10
-79.4191397727
 20
-14.3122673035
 30
0.0
 11
-78.8578726351
 21
-13.7510299683
 31
0.0
  0
LINE
  5
42D
330
38B
100
AcDbEntity
  8
0
  6
Continuous
 62
     0
370
    18
100
AcDbLine
 10
-76.6128078103
 20
-12.6284360886
 30
0.0
 11
-76.1794000864
 21
-12.195110321
 31
0.0
  0
LINE
  5
42E
330
38B
100
AcDbEntity
  8
0
  6
Continuous
 62
     0
370
    18
100
AcDbLine
 10
-78.2966054976
 20
-14.3122673035
 30
0.0
 11
-77.7353420854
 21
-13.7510299683
 31
0.0
  0
LINE
  5
42F
330
38B
100
AcDbEntity
  8
0
  6
Continuous
 62
     0
370
    18
100
AcDbLine
 10
-79.9804031849
 20
-15.9960985184
 30
0.0
 11
-79.4191397727
 21
-15.4347419739
 31
0.0
  0
LINE
  5
430
330
38B
100
AcDbEntity
  8
0
  6
Continuous
 62
     0
370
    18
100
AcDbLine
 10
-74.929010123
 20
-10.9446048737
 30
0.0
 11
-74.9230906367
 21
-10.9387636185
 31
0.0
  0
LINE
  5
431
330
38B
100
AcDbEntity
  8
0
  6
Continuous
 62
     0
370
    18
100
AcDbLine
 10
-77.1740749478
 20
-14.3122673035
 30
0.0
 11
-76.6128078103
 21
-13.7510299683
 31
0.0
  0
LINE
  5
432
330
38B
100
AcDbEntity
  8
0
  6
Continuous
 62
     0
370
    18
100
AcDbLine
 10
-78.8578726351
 20
-15.9960985184
 30
0.0
 11
-78.2966054976
 21
-15.4347419739
 31
0.0
  0
LINE
  5
433
330
38B
100
AcDbEntity
  8
0
  6
Continuous
 62
     0
370
    18
100
AcDbLine
 10
-80.5293172598
 20
-17.6675319672
 30
0.0
 11
-79.9804031849
 21
-17.1185731888
 31
0.0
  0
LINE
  5
434
330
38B
100
AcDbEntity
  8
0
  6
Continuous
 62
     0
370
    18
100
AcDbLine
 10
-77.7353420854
 20
-15.9960985184
 30
0.0
 11
-77.1740749478
 21
-15.4347419739
 31
0.0
  0
LINE
  5
435
330
38B
100
AcDbEntity
  8
0
  6
Continuous
 62
     0
370
    18
100
AcDbLine
 10
-79.4191397727
 20
-17.679810524
 30
0.0
 11
-78.8578726351
 21
-17.1185731888
 31
0.0
  0
LINE
  5
436
330
38B
100
AcDbEntity
  8
0
  6
Continuous
 62
     0
370
    18
100
AcDbLine
 10
-79.9804031849
 20
-19.3636417389
 30
0.0
 11
-79.4191397727
 21
-18.8024044037
 31
0.0
  0
LINE
  5
437
330
38B
100
AcDbEntity
  8
0
  6
Continuous
 62
     0
370
    18
100
AcDbLine
 10
-76.6128078103
 20
-15.9960985184
 30
0.0
 11
-76.0515443981
 21
-15.4347419739
 31
0.0
  0
LINE
  5
438
330
38B
100
AcDbEntity
  8
0
  6
Continuous
 62
     0
370
    18
100
AcDbLine
 10
-78.2966054976
 20
-17.679810524
 30
0.0
 11
-77.7353420854
 21
-17.1185731888
 31
0.0
  0
LINE
  5
439
330
38B
100
AcDbEntity
  8
0
  6
Continuous
 62
     0
370
    18
100
AcDbLine
 10
-78.8578726351
 20
-19.3636417389
 30
0.0
 11
-78.7389203906
 21
-19.2446708679
 31
0.0
  0
LINE
  5
43A
330
38B
100
AcDbEntity
  8
0
  6
Continuous
 62
     0
370
    18
100
AcDbLine
 10
-80.5209539831
 20
-21.0267305374
 30
0.0
 11
-79.9804031849
 21
-20.4862356186
 31
0.0
  0
LINE
  5
43B
330
38B
100
AcDbEntity
  8
0
  6
Continuous
 62
     0
370
    18
100
AcDbLine
 10
-77.1740749478
 20
-17.679810524
 30
0.0
 11
-76.6128078103
 21
-17.1185731888
 31
0.0
  0
LINE
  5
43C
330
38B
100
AcDbEntity
  8
0
  6
Continuous
 62
     0
370
    18
100
AcDbLine
 10
-79.4191397727
 20
-21.0474729538
 30
0.0
 11
-78.8578726351
 21
-20.4862356186
 31
0.0
  0
LINE
  5
43D
330
38B
100
AcDbEntity
  8
0
  6
Continuous
 62
     0
370
    18
100
AcDbLine
 10
-80.7660855353
 20
-22.3944187164
 30
0.0
 11
-80.5416703224
 21
-22.1699476242
 31
0.0
  0
LINE
  5
43E
330
38B
100
AcDbEntity
  8
0
  6
Continuous
 62
     0
370
    18
100
AcDbLine
 10
-76.0515443981
 20
-17.679810524
 30
0.0
 11
-75.4902772605
 21
-17.1185731888
 31
0.0
  0
LINE
  5
43F
330
38B
100
AcDbEntity
  8
0
  6
Continuous
 62
     0
370
    18
100
AcDbLine
 10
-77.3586370051
 20
-18.9869403839
 30
0.0
 11
-77.1740749478
 21
-18.8024044037
 31
0.0
  0
LINE
  5
440
330
38B
100
AcDbEntity
  8
0
  6
Continuous
 62
     0
370
    18
100
AcDbLine
 10
-79.9804031849
 20
-22.7313041687
 30
0.0
 11
-79.4191397727
 21
-22.1699476242
 31
0.0
  0
LINE
  5
441
330
38B
100
AcDbEntity
  8
0
  6
Continuous
 62
     0
370
    18
100
AcDbLine
 10
-74.929010123
 20
-17.679810524
 30
0.0
 11
-74.7133642435
 21
-17.4641609192
 31
0.0
  0
LINE
  5
442
330
38B
100
AcDbEntity
  8
0
  6
Continuous
 62
     0
370
    18
100
AcDbLine
 10
-76.6025185585
 20
-19.35338974
 30
0.0
 11
-76.0515443981
 21
-18.8024044037
 31
0.0
  0
LINE
  5
443
330
38B
100
AcDbEntity
  8
0
  6
Continuous
 62
     0
370
    18
100
AcDbLine
 10
-78.8578726351
 20
-22.7313041687
 30
0.0
 11
-78.4910731018
 21
-22.3644971848
 31
0.0
  0
LINE
  5
444
330
38B
100
AcDbEntity
  8
0
  6
Continuous
 62
     0
370
    18
100
AcDbLine
 10
-75.408115983
 20
-19.2815065384
 30
0.0
 11
-74.929010123
 21
-18.8024044037
 31
0.0
  0
LINE
  5
445
330
38B
100
AcDbEntity
  8
0
  6
Continuous
 62
     0
370
    18
100
AcDbLine
 10
-73.9162266254
 20
-18.9120769501
 30
0.0
 11
-73.8064795732
 21
-18.8024044037
 31
0.0
  0
LINE
  5
446
330
38B
100
AcDbEntity
  8
0
  6
Continuous
 62
     0
370
    18
100
AcDbLine
 10
-80.5565565825
 20
-21.5938091278
 30
0.0
 11
-78.7876583636
 21
-23.3627557755
 31
0.0
  0
LINE
  5
447
330
38B
100
AcDbEntity
  8
0
  6
Continuous
 62
     0
370
    18
100
AcDbLine
 10
-80.5238336325
 20
-20.5039978027
 30
0.0
 11
-78.4850418568
 21
-22.5428342819
 31
0.0
  0
LINE
  5
448
330
38B
100
AcDbEntity
  8
0
  6
Continuous
 62
     0
370
    18
100
AcDbLine
 10
-80.7070024312
 20
-19.1982984543
 30
0.0
 11
-78.524325043
 21
-21.381020546
 31
0.0
  0
LINE
  5
449
330
38B
100
AcDbEntity
  8
0
  6
Continuous
 62
     0
370
    18
100
AcDbLine
 10
-80.5254355073
 20
-18.2573795319
 30
0.0
 11
-78.4920826554
 21
-20.2907323837
 31
0.0
  0
LINE
  5
44A
330
38B
100
AcDbEntity
  8
0
  6
Continuous
 62
     0
370
    18
100
AcDbLine
 10
-80.7660855353
 20
-16.8942213058
 30
0.0
 11
-78.9697766304
 21
-18.6904668808
 31
0.0
  0
LINE
  5
44B
330
38B
100
AcDbEntity
  8
0
  6
Continuous
 62
     0
370
    18
100
AcDbLine
 10
-80.5254355073
 20
-16.0123109818
 30
0.0
 11
-78.6554142833
 21
-17.8823471069
 31
0.0
  0
LINE
  5
44C
330
38B
100
AcDbEntity
  8
0
  6
Continuous
 62
     0
370
    18
100
AcDbLine
 10
-80.7660855353
 20
-14.6491527557
 30
0.0
 11
-76.0925225914
 21
-19.3226337433
 31
0.0
  0
LINE
  5
44D
330
38B
100
AcDbEntity
  8
0
  6
Continuous
 62
     0
370
    18
100
AcDbLine
 10
-80.5809311569
 20
-13.7116909027
 30
0.0
 11
-75.033698231
 21
-19.2589759827
 31
0.0
  0
LINE
  5
44E
330
38B
100
AcDbEntity
  8
0
  6
Continuous
 62
     0
370
    18
100
AcDbLine
 10
-80.5254355073
 20
-12.6446485519
 30
0.0
 11
-74.1172432899
 21
-19.052863121
 31
0.0
  0
LINE
  5
44F
330
38B
100
AcDbEntity
  8
0
  6
Continuous
 62
     0
370
    18
100
AcDbLine
 10
-74.4769200683
 20
-17.570734024
 30
0.0
 11
-73.4570100904
 21
-18.5905694962
 31
0.0
  0
LINE
  5
450
330
38B
100
AcDbEntity
  8
0
  6
Continuous
 62
     0
370
    18
100
AcDbLine
 10
-80.7660855353
 20
-11.2814903259
 30
0.0
 11
-75.013037771
 21
-17.0345306396
 31
0.0
  0
LINE
  5
451
330
38B
100
AcDbEntity
  8
0
  6
Continuous
 62
     0
370
    18
100
AcDbLine
 10
-74.991542846
 20
-15.9335136414
 30
0.0
 11
-74.8034827411
 21
-16.1216259003
 31
0.0
  0
LINE
  5
452
330
38B
100
AcDbEntity
  8
0
  6
Continuous
 62
     0
370
    18
100
AcDbLine
 10
-80.5254355073
 20
-10.3995800018
 30
0.0
 11
-75.870193541
 21
-15.0548219681
 31
0.0
  0
LINE
  5
453
330
38B
100
AcDbEntity
  8
0
  6
Continuous
 62
     0
370
    18
100
AcDbLine
 10
-80.5254355073
 20
-9.2771053314
 30
0.0
 11
-76.1794000864
 21
-13.6231184006
 31
0.0
  0
LINE
  5
454
330
38B
100
AcDbEntity
  8
0
  6
Continuous
 62
     0
370
    18
100
AcDbLine
 10
-80.7660855353
 20
-7.9139471054
 30
0.0
 11
-76.1794000864
 21
-12.5006437302
 31
0.0
  0
LINE
  5
455
330
38B
100
AcDbEntity
  8
0
  6
Continuous
 62
     0
370
    18
100
AcDbLine
 10
-80.1144652069
 20
-7.4429512024
 30
0.0
 11
-75.9240686893
 21
-11.6333961487
 31
0.0
  0
LINE
  5
456
330
38B
100
AcDbEntity
  8
0
  6
Continuous
 62
     0
370
    18
100
AcDbLine
 10
-79.4028081
 20
-7.0321559906
 30
0.0
 11
-74.7869126499
 21
-11.6480588913
 31
0.0
  0
LINE
  5
457
330
38B
100
AcDbEntity
  8
0
  6
Continuous
 62
     0
370
    18
100
AcDbLine
 10
-78.5106085241
 20
-6.8018436432
 30
0.0
 11
-75.798202306
 21
-9.5142126083
 31
0.0
  0
LINE
  5
458
330
38B
100
AcDbEntity
  8
0
  6
Continuous
 62
     0
370
    18
100
AcDbLine
 10
-77.3400962353
 20
-6.8497657776
 30
0.0
 11
-76.5269361436
 21
-7.6628923416
 31
0.0
  0
LINE
  5
459
330
38B
100
AcDbEntity
  8
0
  6
Continuous
 62
     0
370
    18
100
AcDbLine
 10
-0.6660856307
 20
-92.9600941833
 30
0.0
 11
-1.6660876572
 21
-93.9601409134
 31
0.0
  0
LINE
  5
45A
330
38B
100
AcDbEntity
  8
0
  6
Continuous
 62
     0
370
    18
100
AcDbLine
 10
-0.6660856307
 20
-95.2051627334
 30
0.0
 11
-1.6660876572
 21
-96.2052094635
 31
0.0
  0
LINE
  5
45B
330
38B
100
AcDbEntity
  8
0
  6
Continuous
 62
     0
370
    18
100
AcDbLine
 10
-0.6660856307
 20
-97.4502312836
 30
0.0
 11
-1.6660876572
 21
-98.4502780136
 31
0.0
  0
LINE
  5
45C
330
38B
100
AcDbEntity
  8
0
  6
Continuous
 62
     0
370
    18
100
AcDbLine
 10
-0.6660856307
 20
-99.6952998337
 30
0.0
 11
-1.6660876572
 21
-100.6953465637
 31
0.0
  0
LINE
  5
45D
330
38B
100
AcDbEntity
  8
0
  6
Continuous
 62
     0
370
    18
100
AcDbLine
 10
-0.6660856307
 20
-101.9403683838
 30
0.0
 11
-1.6660876572
 21
-102.9404151138
 31
0.0
  0
LINE
  5
45E
330
38B
100
AcDbEntity
  8
0
  6
Continuous
 62
     0
370
    18
100
AcDbLine
 10
-0.6660856307
 20
-104.1854369339
 30
0.0
 11
-1.6660876572
 21
-105.1854836639
 31
0.0
  0
LINE
  5
45F
330
38B
100
AcDbEntity
  8
0
  6
Continuous
 62
     0
370
    18
100
AcDbLine
 10
-0.6660856307
 20
-106.430505484
 30
0.0
 11
-1.6660876572
 21
-107.430552214
 31
0.0
  0
LINE
  5
460
330
38B
100
AcDbEntity
  8
0
  6
Continuous
 62
     0
370
    18
100
AcDbLine
 10
-0.6660856307
 20
-108.6755740341
 30
0.0
 11
-1.6660876572
 21
-109.6756207641
 31
0.0
  0
LINE
  5
461
330
38B
100
AcDbEntity
  8
0
  6
Continuous
 62
     0
370
    18
100
AcDbLine
 10
-0.6660856307
 20
-110.9206425842
 30
0.0
 11
-1.6660876572
 21
-111.9206893143
 31
0.0
  0
LINE
  5
462
330
38B
100
AcDbEntity
  8
0
  6
Continuous
 62
     0
370
    18
100
AcDbLine
 10
-0.6660856307
 20
-113.1657111343
 30
0.0
 11
-1.6660876572
 21
-114.1657578644
 31
0.0
  0
LINE
  5
463
330
38B
100
AcDbEntity
  8
0
  6
Continuous
 62
     0
370
    18
100
AcDbLine
 10
-0.6660856307
 20
-115.4107796844
 30
0.0
 11
-1.6660876572
 21
-116.4108264145
 31
0.0
  0
LINE
  5
464
330
38B
100
AcDbEntity
  8
0
  6
Continuous
 62
     0
370
    18
100
AcDbLine
 10
-0.8880309761
 20
-117.8778159317
 30
0.0
 11
-2.2609531879
 21
-119.2507493194
 31
0.0
  0
LINE
  5
465
330
38B
100
AcDbEntity
  8
0
  6
Continuous
 62
     0
370
    18
100
AcDbLine
 10
-1.6337037086
 20
-120.8685385879
 30
0.0
 11
-3.0066259205
 21
-122.2414719757
 31
0.0
  0
LINE
  5
466
330
38B
100
AcDbEntity
  8
0
  6
Continuous
 62
     0
370
    18
100
AcDbLine
 10
-74.6660865843
 20
-90.6280028518
 30
0.0
 11
-75.6660886109
 21
-91.6279303726
 31
0.0
  0
LINE
  5
467
330
38B
100
AcDbEntity
  8
0
  6
Continuous
 62
     0
370
    18
100
AcDbLine
 10
-74.6660865843
 20
-92.873071402
 30
0.0
 11
-75.6660886109
 21
-93.8729989227
 31
0.0
  0
LINE
  5
468
330
38B
100
AcDbEntity
  8
0
  6
Continuous
 62
     0
370
    18
100
AcDbLine
 10
-74.6660865843
 20
-95.1181399521
 30
0.0
 11
-75.6660886109
 21
-96.1180674728
 31
0.0
  0
LINE
  5
469
330
38B
100
AcDbEntity
  8
0
  6
Continuous
 62
     0
370
    18
100
AcDbLine
 10
-74.6660865843
 20
-97.3632085022
 30
0.0
 11
-75.6660886109
 21
-98.3631360229
 31
0.0
  0
LINE
  5
46A
330
38B
100
AcDbEntity
  8
0
  6
Continuous
 62
     0
370
    18
100
AcDbLine
 10
-74.6660865843
 20
-99.608157843
 30
0.0
 11
-75.6660886109
 21
-100.608204573
 31
0.0
  0
LINE
  5
46B
330
38B
100
AcDbEntity
  8
0
  6
Continuous
 62
     0
370
    18
100
AcDbLine
 10
-74.6660865843
 20
-101.8532263931
 30
0.0
 11
-75.6660886109
 21
-102.8532731232
 31
0.0
  0
LINE
  5
46C
330
38B
100
AcDbEntity
  8
0
  6
Continuous
 62
     0
370
    18
100
AcDbLine
 10
-74.6660865843
 20
-104.0982949432
 30
0.0
 11
-75.6660886109
 21
-105.0983416733
 31
0.0
  0
LINE
  5
46D
330
38B
100
AcDbEntity
  8
0
  6
Continuous
 62
     0
370
    18
100
AcDbLine
 10
-74.6660865843
 20
-106.3433634933
 30
0.0
 11
-75.6660886109
 21
-107.3434102234
 31
0.0
  0
LINE
  5
46E
330
38B
100
AcDbEntity
  8
0
  6
Continuous
 62
     0
370
    18
100
AcDbLine
 10
-74.6660865843
 20
-108.5884320434
 30
0.0
 11
-75.6660886109
 21
-109.5884787735
 31
0.0
  0
LINE
  5
46F
330
38B
100
AcDbEntity
  8
0
  6
Continuous
 62
     0
370
    18
100
AcDbLine
 10
-74.6660865843
 20
-110.8335005935
 30
0.0
 11
-75.6660886109
 21
-111.8335473236
 31
0.0
  0
LINE
  5
470
330
38B
100
AcDbEntity
  8
0
  6
Continuous
 62
     0
370
    18
100
AcDbLine
 10
-74.6660865843
 20
-113.0785691437
 30
0.0
 11
-75.6660886109
 21
-114.0786158737
 31
0.0
  0
LINE
  5
471
330
38B
100
AcDbEntity
  8
0
  6
Continuous
 62
     0
370
    18
100
AcDbLine
 10
-74.6660865843
 20
-115.3236376938
 30
0.0
 11
-75.6660886109
 21
-116.3236844238
 31
0.0
  0
LINE
  5
472
330
38B
100
AcDbEntity
  8
0
  6
Continuous
 62
     0
370
    18
100
AcDbLine
 10
-74.5256096125
 20
-117.4282777008
 30
0.0
 11
-75.3505453467
 21
-118.2532059845
 31
0.0
  0
LINE
  5
473
330
38B
100
AcDbEntity
  8
0
  6
Continuous
 62
     0
370
    18
100
AcDbLine
 10
-74.077565223
 20
-119.2252385315
 30
0.0
 11
-74.902497232
 21
-120.0501668152
 31
0.0
  0
LINE
  5
474
330
38B
100
AcDbEntity
  8
0
  6
Continuous
 62
     0
370
    18
100
AcDbLine
 10
-73.6295171082
 20
-121.0223185715
 30
0.0
 11
-74.4544528425
 21
-121.8472468551
 31
0.0
  0
ENDBLK
  5
38D
330
38B
100
AcDbEntity
  8
0
100
AcDbBlockEnd
  0
ENDSEC
  0
SECTION
  2
ENTITIES
  0
LINE
  5
F9
330
1F
100
AcDbEntity
  8
0
  6
CENTERX2
 62
     7
370
    18
100
AcDbLine
 10
352.6174545849
 20
46.9080238789
 30
0.0
 11
352.6174545849
 21
39.4621586124
 31
0.0
  0
LINE
  5
FA
330
1F
100
AcDbEntity
  8
0
  6
Continuous
 62
     7
370
    18
100
AcDbLine
 10
357.7661698132
 20
46.3720107039
 30
0.0
 11
357.7661698132
 21
39.9353173413
 31
0.0
  0
LINE
  5
FB
330
1F
100
AcDbEntity
  8
0
  6
Continuous
 62
     7
370
    18
100
AcDbLine
 10
364.6059427486
 20
44.7376225767
 30
0.0
 11
364.6059427486
 21
41.5697054685
 31
0.0
  0
LINE
  5
FC
330
1F
100
AcDbEntity
  8
0
  6
Continuous
 62
     7
370
    18
100
AcDbLine
 10
364.6059427486
 20
44.7376225767
 30
0.0
 11
357.7661698132
 21
46.3720107039
 31
0.0
  0
LINE
  5
FD
330
1F
100
AcDbEntity
  8
0
  6
Continuous
 62
     7
370
    18
100
AcDbLine
 10
15.0
 20
198.5
 30
0.0
 11
20.0
 21
198.5
 31
0.0
  0
LINE
  5
FE
330
1F
100
AcDbEntity
  8
0
  6
Continuous
 62
     7
370
    18
100
AcDbLine
 10
12.0
 20
148.5
 30
0.0
 11
0.0
 21
148.5
 31
0.0
  0
LINE
  5
FF
330
1F
100
AcDbEntity
  8
0
  6
Continuous
 62
     7
370
    18
100
AcDbLine
 10
357.7661698132
 20
39.9353173413
 30
0.0
 11
364.6059427486
 21
41.5697054685
 31
0.0
  0
LINE
  5
100
330
1F
100
AcDbEntity
  8
0
  6
CENTERX2
 62
     7
370
    18
100
AcDbLine
 10
348.6240467841
 20
43.1536640226
 30
0.0
 11
356.6108623857
 21
43.1536640226
 31
0.0
  0
LINE
  5
101
330
1F
100
AcDbEntity
  8
0
  6
CENTERX2
 62
     7
370
    18
100
AcDbLine
 10
357.1289238876
 20
43.1536640226
 30
0.0
 11
365.6255362296
 21
43.1536640226
 31
0.0
  0
LINE
  5
102
330
1F
100
AcDbEntity
  8
0
  6
Continuous
 62
     7
370
    18
100
AcDbLine
 10
0.0
 20
0.0
 30
0.0
 11
420.0
 21
0.0
 31
0.0
  0
LINE
  5
103
330
1F
100
AcDbEntity
  8
0
  6
Continuous
 62
     7
370
    18
100
AcDbLine
 10
0.0
 20
0.0
 30
0.0
 11
0.0
 21
297.0
 31
0.0
  0
LINE
  5
104
330
1F
100
AcDbEntity
  8
0
  6
Continuous
 62
     7
370
    18
100
AcDbLine
 10
0.0
 20
297.0
 30
0.0
 11
420.0
 21
297.0
 31
0.0
  0
LINE
  5
105
330
1F
100
AcDbEntity
  8
0
  6
Continuous
 62
     7
370
    18
100
AcDbLine
 10
420.0
 20
0.0
 30
0.0
 11
420.0
 21
297.0
 31
0.0
  0
LINE
  5
106
330
1F
100
AcDbEntity
  8
0
  6
Continuous
 62
     7
370
    25
100
AcDbLine
 10
228.0
 20
35.0
 30
0.0
 11
410.0
 21
35.0
 31
0.0
  0
LINE
  5
107
330
1F
100
AcDbEntity
  8
0
  6
Continuous
 62
     7
370
    18
100
AcDbLine
 10
410.0
 20
198.5
 30
0.0
 11
415.0
 21
198.5
 31
0.0
  0
LINE
  5
108
330
1F
100
AcDbEntity
  8
0
  6
Continuous
 62
     7
370
    18
100
AcDbLine
 10
15.0
 20
148.5
 30
0.0
 11
20.0
 21
148.5
 31
0.0
  0
LINE
  5
109
330
1F
100
AcDbEntity
  8
0
  6
Continuous
 62
     7
370
    18
100
AcDbLine
 10
228.0
 20
40.0
 30
0.0
 11
296.6
 21
40.0
 31
0.0
  0
LINE
  5
10A
330
1F
100
AcDbEntity
  8
0
  6
Continuous
 62
     7
370
    18
100
AcDbLine
 10
15.0
 20
248.5
 30
0.0
 11
20.0
 21
248.5
 31
0.0
  0
LINE
  5
10B
330
1F
100
AcDbEntity
  8
0
  6
Continuous
 62
     7
370
    35
100
AcDbLine
 10
20.0
 20
287.0
 30
0.0
 11
20.0
 21
10.0
 31
0.0
  0
LINE
  5
10C
330
1F
100
AcDbEntity
  8
0
  6
Continuous
 62
     7
370
    35
100
AcDbLine
 10
410.0
 20
287.0
 30
0.0
 11
20.0
 21
287.0
 31
0.0
  0
LINE
  5
10D
330
1F
100
AcDbEntity
  8
0
  6
Continuous
 62
     7
370
    35
100
AcDbLine
 10
410.0
 20
5.0
 30
0.0
 11
410.0
 21
287.0
 31
0.0
  0
LINE
  5
10E
330
1F
100
AcDbEntity
  8
0
  6
Continuous
 62
     7
370
    35
100
AcDbLine
 10
20.0
 20
10.0
 30
0.0
 11
415.0
 21
10.0
 31
0.0
  0
LINE
  5
10F
330
1F
100
AcDbEntity
  8
0
  6
Continuous
 62
     7
370
    18
100
AcDbLine
 10
410.0
 20
148.5
 30
0.0
 11
415.0
 21
148.5
 31
0.0
  0
LINE
  5
110
330
1F
100
AcDbEntity
  8
0
  6
Continuous
 62
     7
370
    18
100
AcDbLine
 10
228.0
 20
50.0
 30
0.0
 11
296.6
 21
50.0
 31
0.0
  0
LINE
  5
111
330
1F
100
AcDbEntity
  8
0
  6
Continuous
 62
     7
370
    18
100
AcDbLine
 10
15.0
 20
98.5
 30
0.0
 11
20.0
 21
98.5
 31
0.0
  0
LINE
  5
112
330
1F
100
AcDbEntity
  8
0
  6
Continuous
 62
     7
370
    18
100
AcDbLine
 10
296.6
 20
45.0
 30
0.0
 11
228.0
 21
45.0
 31
0.0
  0
LINE
  5
113
330
1F
100
AcDbEntity
  8
0
  6
Continuous
 62
     7
370
    18
100
AcDbLine
 10
65.0
 20
292.0
 30
0.0
 11
65.0
 21
287.0
 31
0.0
  0
LINE
  5
114
330
1F
100
AcDbEntity
  8
0
  6
Continuous
 62
     7
370
    18
100
AcDbLine
 10
230.0
 20
292.0
 30
0.0
 11
230.0
 21
297.0
 31
0.0
  0
LINE
  5
115
330
1F
100
AcDbEntity
  8
0
  6
Continuous
 62
     7
370
    25
100
AcDbLine
 10
296.6
 20
55.0
 30
0.0
 11
296.6
 21
35.0
 31
0.0
  0
LINE
  5
116
330
1F
100
AcDbEntity
  8
0
  6
Continuous
 62
     7
370
    18
100
AcDbLine
 10
410.0
 20
98.5
 30
0.0
 11
415.0
 21
98.5
 31
0.0
  0
LINE
  5
117
330
1F
100
AcDbEntity
  8
0
100
AcDbLine
 10
230.0
 20
5.0
 30
0.0
 11
230.0
 21
0.0
 31
0.0
  0
LINE
  5
118
330
1F
100
AcDbEntity
  8
0
  6
Continuous
 62
     7
370
    18
100
AcDbLine
 10
125.0
 20
292.0
 30
0.0
 11
125.0
 21
297.0
 31
0.0
  0
LINE
  5
119
330
1F
100
AcDbEntity
  8
0
  6
Continuous
 62
     7
370
    18
100
AcDbLine
 10
125.0
 20
5.0
 30
0.0
 11
125.0
 21
0.0
 31
0.0
  0
LINE
  5
11A
330
1F
100
AcDbEntity
  8
0
  6
Continuous
 62
     7
370
    25
100
AcDbLine
 10
410.0
 20
55.0
 30
0.0
 11
228.0
 21
55.0
 31
0.0
  0
LINE
  5
11B
330
1F
100
AcDbEntity
  8
0
  6
Continuous
 62
     7
370
    18
100
AcDbLine
 10
228.0
 20
55.0
 30
0.0
 11
410.0
 21
55.0
 31
0.0
  0
LINE
  5
11C
330
1F
100
AcDbEntity
  8
0
  6
Continuous
 62
     7
370
    18
100
AcDbLine
 10
410.0
 20
55.0
 30
0.0
 11
228.0
 21
55.0
 31
0.0
  0
LINE
  5
11D
330
1F
100
AcDbEntity
  8
0
  6
Continuous
 62
     7
370
    18
100
AcDbLine
 10
268.0
 20
76.5
 30
0.0
 11
268.0
 21
55.0
 31
0.0
  0
LINE
  5
11E
330
1F
100
AcDbEntity
  8
0
  6
Continuous
 62
     7
370
    18
100
AcDbLine
 10
271.6
 20
55.0
 30
0.0
 11
271.6
 21
40.0
 31
0.0
  0
LINE
  5
11F
330
1F
100
AcDbEntity
  8
0
  6
Continuous
 62
     7
370
    18
100
AcDbLine
 10
247.0
 20
55.0
 30
0.0
 11
247.0
 21
35.0
 31
0.0
  0
LINE
  5
120
330
1F
100
AcDbEntity
  8
0
  6
Continuous
 62
     7
370
    35
100
AcDbLine
 10
228.0
 20
76.5
 30
0.0
 11
228.0
 21
10.0
 31
0.0
  0
LINE
  5
121
330
1F
100
AcDbEntity
  8
0
  6
Continuous
 62
     7
370
    18
100
AcDbLine
 10
15.0
 20
292.0
 30
0.0
 11
415.0
 21
292.0
 31
0.0
  0
LINE
  5
122
330
1F
100
AcDbEntity
  8
0
  6
Continuous
 62
     7
370
    18
100
AcDbLine
 10
228.0
 20
65.75
 30
0.0
 11
310.0
 21
65.75
 31
0.0
  0
LINE
  5
123
330
1F
100
AcDbEntity
  8
0
  6
Continuous
 62
     7
370
    35
100
AcDbLine
 10
228.0
 20
76.5
 30
0.0
 11
410.0
 21
76.5
 31
0.0
  0
LINE
  5
124
330
1F
100
AcDbEntity
  8
0
  6
Continuous
 62
     7
370
    18
100
AcDbLine
 10
15.0
 20
48.5
 30
0.0
 11
20.0
 21
48.5
 31
0.0
  0
LINE
  5
125
330
1F
100
AcDbEntity
  8
0
  6
Continuous
 62
     7
370
    18
100
AcDbLine
 10
410.0
 20
48.5
 30
0.0
 11
415.0
 21
48.5
 31
0.0
  0
LINE
  5
126
330
1F
100
AcDbEntity
  8
0
  6
Continuous
 62
     7
370
    18
100
AcDbLine
 10
332.6610845472
 20
20.0
 30
0.0
 11
332.6610845472
 21
10.0
 31
0.0
  0
LINE
  5
127
330
1F
100
AcDbEntity
  8
0
  6
Continuous
 62
     7
370
    18
100
AcDbLine
 10
410.0
 20
248.5
 30
0.0
 11
415.0
 21
248.5
 31
0.0
  0
LINE
  5
128
330
1F
100
AcDbEntity
  8
0
  6
Continuous
 62
     7
370
    18
100
AcDbLine
 10
65.0
 20
10.0
 30
0.0
 11
65.0
 21
5.0
 31
0.0
  0
LINE
  5
129
330
1F
100
AcDbEntity
  8
0
  6
Continuous
 62
     7
370
    18
100
AcDbLine
 10
115.0
 20
10.0
 30
0.0
 11
115.0
 21
5.0
 31
0.0
  0
LINE
  5
12A
330
1F
100
AcDbEntity
  8
0
  6
Continuous
 62
     7
370
    18
100
AcDbLine
 10
115.0
 20
292.0
 30
0.0
 11
115.0
 21
287.0
 31
0.0
  0
LINE
  5
12B
330
1F
100
AcDbEntity
  8
0
  6
Continuous
 62
     7
370
    18
100
AcDbLine
 10
165.0
 20
10.0
 30
0.0
 11
165.0
 21
5.0
 31
0.0
  0
LINE
  5
12C
330
1F
100
AcDbEntity
  8
0
  6
Continuous
 62
     7
370
    18
100
AcDbLine
 10
165.0
 20
292.0
 30
0.0
 11
165.0
 21
287.0
 31
0.0
  0
LINE
  5
12D
330
1F
100
AcDbEntity
  8
0
  6
Continuous
 62
     7
370
    18
100
AcDbLine
 10
215.0
 20
10.0
 30
0.0
 11
215.0
 21
5.0
 31
0.0
  0
LINE
  5
12E
330
1F
100
AcDbEntity
  8
0
  6
Continuous
 62
     7
370
    18
100
AcDbLine
 10
215.0
 20
292.0
 30
0.0
 11
215.0
 21
287.0
 31
0.0
  0
LINE
  5
12F
330
1F
100
AcDbEntity
  8
0
  6
Continuous
 62
     7
370
    18
100
AcDbLine
 10
265.0
 20
10.0
 30
0.0
 11
265.0
 21
5.0
 31
0.0
  0
LINE
  5
130
330
1F
100
AcDbEntity
  8
0
  6
Continuous
 62
     7
370
    18
100
AcDbLine
 10
265.0
 20
292.0
 30
0.0
 11
265.0
 21
287.0
 31
0.0
  0
LINE
  5
131
330
1F
100
AcDbEntity
  8
0
  6
Continuous
 62
     7
370
    18
100
AcDbLine
 10
347.6610845472
 20
20.0
 30
0.0
 11
347.6610845472
 21
10.0
 31
0.0
  0
LINE
  5
132
330
1F
100
AcDbEntity
  8
0
  6
Continuous
 62
     7
370
    18
100
AcDbLine
 10
362.6610845472
 20
20.0
 30
0.0
 11
362.6610845472
 21
10.0
 31
0.0
  0
LINE
  5
133
330
1F
100
AcDbEntity
  8
0
  6
Continuous
 62
     7
370
    25
100
AcDbLine
 10
327.6610845472
 20
10.0
 30
0.0
 11
327.6610845472
 21
55.0
 31
0.0
  0
LINE
  5
134
330
1F
100
AcDbEntity
  8
0
  6
Continuous
 62
     7
370
    18
100
AcDbLine
 10
20.0
 20
292.0
 30
0.0
 11
20.0
 21
297.0
 31
0.0
  0
LINE
  5
135
330
1F
100
AcDbEntity
  8
0
  6
Continuous
 62
     7
370
    18
100
AcDbLine
 10
20.0
 20
5.0
 30
0.0
 11
20.0
 21
0.0
 31
0.0
  0
LINE
  5
136
330
1F
100
AcDbEntity
  8
0
  6
Continuous
 62
     7
370
    18
100
AcDbLine
 10
315.0
 20
10.0
 30
0.0
 11
315.0
 21
5.0
 31
0.0
  0
LINE
  5
137
330
1F
100
AcDbEntity
  8
0
  6
Continuous
 62
     7
370
    18
100
AcDbLine
 10
315.0
 20
292.0
 30
0.0
 11
315.0
 21
287.0
 31
0.0
  0
LINE
  5
138
330
1F
100
AcDbEntity
  8
0
  6
Continuous
 62
     7
370
    18
100
AcDbLine
 10
365.0
 20
10.0
 30
0.0
 11
365.0
 21
5.0
 31
0.0
  0
LINE
  5
139
330
1F
100
AcDbEntity
  8
0
  6
Continuous
 62
     7
370
    18
100
AcDbLine
 10
365.0
 20
292.0
 30
0.0
 11
365.0
 21
287.0
 31
0.0
  0
LINE
  5
13A
330
1F
100
AcDbEntity
  8
0
  6
Continuous
 62
     7
370
    18
100
AcDbLine
 10
15.0
 20
292.0
 30
0.0
 11
15.0
 21
5.0
 31
0.0
  0
LINE
  5
13B
330
1F
100
AcDbEntity
  8
0
  6
Continuous
 62
     7
370
    18
100
AcDbLine
 10
15.0
 20
5.0
 30
0.0
 11
415.0
 21
5.0
 31
0.0
  0
LINE
  5
13C
330
1F
100
AcDbEntity
  8
0
  6
Continuous
 62
     7
370
    18
100
AcDbLine
 10
415.0
 20
292.0
 30
0.0
 11
415.0
 21
5.0
 31
0.0
  0
LINE
  5
13D
330
1F
100
AcDbEntity
  8
0
  6
Continuous
 62
     7
370
    18
100
AcDbLine
 10
347.6610845472
 20
44.213444
 30
0.0
 11
327.6610845472
 21
44.213444
 31
0.0
  0
LINE
  5
13E
330
1F
100
AcDbEntity
  8
0
  6
Continuous
 62
     7
370
    18
100
AcDbLine
 10
347.6610845472
 20
35.0
 30
0.0
 11
347.6610845472
 21
55.0
 31
0.0
  0
LINE
  5
13F
330
1F
100
AcDbEntity
  8
0
  6
Continuous
 62
     7
370
    18
100
AcDbLine
 10
370.057188
 20
55.012032
 30
0.0
 11
370.057188
 21
35.0
 31
0.0
  0
LINE
  5
140
330
1F
100
AcDbEntity
  8
0
  6
Continuous
 62
     7
370
    18
100
AcDbLine
 10
398.0
 20
35.0
 30
0.0
 11
398.0
 21
20.0
 31
0.0
  0
LINE
  5
141
330
1F
100
AcDbEntity
  8
0
  6
Continuous
 62
     7
370
    18
100
AcDbLine
 10
410.0
 20
15.0
 30
0.0
 11
327.6610845472
 21
15.0
 31
0.0
  0
LINE
  5
142
330
1F
100
AcDbEntity
  8
0
  6
Continuous
 62
     7
370
    18
100
AcDbLine
 10
327.6610845472
 20
20.0
 30
0.0
 11
410.0
 21
20.0
 31
0.0
  0
LINE
  5
143
330
1F
100
AcDbEntity
  8
0
  6
Continuous
 62
     7
370
    18
100
AcDbLine
 10
341.485486
 20
20.0
 30
0.0
 11
341.485486
 21
27.564675
 31
0.0
  0
LINE
  5
144
330
1F
100
AcDbEntity
  8
0
  6
Continuous
 62
     7
370
    25
100
AcDbLine
 10
310.0
 20
76.5
 30
0.0
 11
310.0
 21
55.0
 31
0.0
  0
CIRCLE
  5
145
330
1F
100
AcDbEntity
  8
0
  6
Continuous
 62
     7
370
    18
100
AcDbCircle
 10
11.0
 20
108.5
 30
0.0
 40
2.750000000000001
  0
CIRCLE
  5
146
330
1F
100
AcDbEntity
  8
0
  6
Continuous
 62
     7
370
    18
100
AcDbCircle
 10
11.0
 20
188.5
 30
0.0
 40
2.750000000000001
  0
CIRCLE
  5
147
330
1F
100
AcDbEntity
  8
0
  6
Continuous
 62
     7
370
    18
100
AcDbCircle
 10
352.6174545849
 20
43.1536640226
 30
0.0
 40
3.218346681300138
  0
CIRCLE
  5
148
330
1F
100
AcDbEntity
  8
0
  6
Continuous
 62
     7
370
    18
100
AcDbCircle
 10
352.6174545849
 20
43.1536640226
 30
0.0
 40
1.583958554121555
  0
INSERT
  5
149
330
1F
100
AcDbEntity
  8
0
  6
Continuous
 62
     7
100
AcDbBlockReference
  2
ACO-Logo
 10
314.3510726297
 20
57.6366106772
 30
0.0
  0
POINT
  5
14A
330
1F
100
AcDbEntity
  8
0
100
AcDbPoint
 10
0.0
 20
0.0
 30
0.0
  0
POINT
  5
14B
330
1F
100
AcDbEntity
  8
0
100
AcDbPoint
 10
410.0
 20
10.0
 30
0.0
  0
MTEXT
  5
14C
330
1F
100
AcDbEntity
  8
0
  6
Continuous
 62
     7
370
    18
100
AcDbMText
 10
17.7359443114
 20
124.8017866468
 30
0.0
 40
2.0
 41
0.0
 71
     2
 72
     1
  1
D
  7
SLDTEXTSTYLE0
 73
     1
 44
1.0
  0
MTEXT
  5
14D
330
1F
100
AcDbEntity
  8
0
  6
Continuous
 62
     7
370
    18
100
AcDbMText
 10
17.6274822413
 20
174.7261854936
 30
0.0
 40
2.0
 41
0.0
 71
     2
 72
     1
  1
C
  7
SLDTEXTSTYLE0
 73
     1
 44
1.0
  0
MTEXT
  5
14E
330
1F
100
AcDbEntity
  8
0
  6
Continuous
 62
     7
370
    18
100
AcDbMText
 10
17.5516905072
 20
224.4926420442
 30
0.0
 40
2.0
 41
0.0
 71
     2
 72
     1
  1
B
  7
SLDTEXTSTYLE0
 73
     1
 44
1.0
  0
MTEXT
  5
14F
330
1F
100
AcDbEntity
  8
0
  6
Continuous
 62
     7
370
    18
100
AcDbMText
 10
290.0344258799
 20
290.5428789914
 30
0.0
 40
2.0
 41
0.0
 71
     2
 72
     1
  1
6
  7
SLDTEXTSTYLE0
 73
     1
 44
1.0
  0
MTEXT
  5
150
330
1F
100
AcDbEntity
  8
0
  6
Continuous
 62
     7
370
    18
100
AcDbMText
 10
240.0417859812
 20
290.6369260235
 30
0.0
 40
2.0
 41
0.0
 71
     2
 72
     1
  1
5
  7
SLDTEXTSTYLE0
 73
     1
 44
1.0
  0
MTEXT
  5
151
330
1F
100
AcDbEntity
  8
0
  6
Continuous
 62
     7
370
    18
100
AcDbMText
 10
190.0300404524
 20
290.6343268032
 30
0.0
 40
2.0
 41
0.0
 71
     2
 72
     1
  1
4
  7
SLDTEXTSTYLE0
 73
     1
 44
1.0
  0
MTEXT
  5
152
330
1F
100
AcDbEntity
  8
0
  6
Continuous
 62
     7
370
    18
100
AcDbMText
 10
140.0165868337
 20
290.6378887952
 30
0.0
 40
2.0
 41
0.0
 71
     2
 72
     1
  1
3
  7
SLDTEXTSTYLE0
 73
     1
 44
1.0
  0
MTEXT
  5
153
330
1F
100
AcDbEntity
  8
0
  6
Continuous
 62
     7
370
    18
100
AcDbMText
 10
90.033223
 20
290.5566702875
 30
0.0
 40
2.0
 41
0.0
 71
     2
 72
     1
  1
2
  7
SLDTEXTSTYLE0
 73
     1
 44
1.0
  0
MTEXT
  5
154
330
1F
100
AcDbEntity
  8
0
  6
Continuous
 62
     7
370
    18
100
AcDbMText
 10
40.0509551097
 20
290.5530165805
 30
0.0
 40
2.0
 41
0.0
 71
     2
 72
     1
  1
1
  7
SLDTEXTSTYLE0
 73
     1
 44
1.0
  0
MTEXT
  5
155
330
1F
100
AcDbEntity
  8
0
  6
Continuous
 62
     7
370
    18
100
AcDbMText
 10
17.5609786315
 20
271.2966048816
 30
0.0
 40
2.0
 41
0.0
 71
     2
 72
     1
  1
A
  7
SLDTEXTSTYLE0
 73
     1
 44
1.0
  0
MTEXT
  5
156
330
1F
100
AcDbEntity
  8
0
  6
Continuous
 62
     7
370
    18
100
AcDbMText
 10
89.9333968896
 20
8.5904490253
 30
0.0
 40
2.0
 41
0.0
 71
     2
 72
     1
  1
2
  7
SLDTEXTSTYLE0
 73
     1
 44
1.0
  0
MTEXT
  5
157
330
1F
100
AcDbEntity
  8
0
  6
Continuous
 62
     7
370
    18
100
AcDbMText
 10
39.9009486579
 20
8.6623118453
 30
0.0
 40
2.0
 41
0.0
 71
     2
 72
     1
  1
1
  7
SLDTEXTSTYLE0
 73
     1
 44
1.0
  0
MTEXT
  5
158
330
1F
100
AcDbEntity
  8
0
  6
Continuous
 62
     7
370
    18
100
AcDbMText
 10
190.0227230239
 20
8.7073169286
 30
0.0
 40
2.0
 41
0.0
 71
     2
 72
     1
  1
4
  7
SLDTEXTSTYLE0
 73
     1
 44
1.0
  0
MTEXT
  5
159
330
1F
100
AcDbEntity
  8
0
  6
Continuous
 62
     7
370
    18
100
AcDbMText
 10
140.0453427777
 20
8.5647154541
 30
0.0
 40
2.0
 41
0.0
 71
     2
 72
     1
  1
3
  7
SLDTEXTSTYLE0
 73
     1
 44
1.0
  0
MTEXT
  5
15A
330
1F
100
AcDbEntity
  8
0
  6
Continuous
 62
     7
370
    18
100
AcDbMText
 10
239.8749782531
 20
8.5637526825
 30
0.0
 40
2.0
 41
0.0
 71
     2
 72
     1
  1
5
  7
SLDTEXTSTYLE0
 73
     1
 44
1.0
  0
MTEXT
  5
15B
330
1F
100
AcDbEntity
  8
0
  6
Continuous
 62
     7
370
    18
100
AcDbMText
 10
412.6717254925
 20
224.51208263
 30
0.0
 40
2.0
 41
0.0
 71
     2
 72
     1
  1
B
  7
SLDTEXTSTYLE0
 73
     1
 44
1.0
  0
MTEXT
  5
15C
330
1F
100
AcDbEntity
  8
0
  6
Continuous
 62
     7
370
    18
100
AcDbMText
 10
412.5951211154
 20
271.2798202564
 30
0.0
 40
2.0
 41
0.0
 71
     2
 72
     1
  1
A
  7
SLDTEXTSTYLE0
 73
     1
 44
1.0
  0
MTEXT
  5
15D
330
1F
100
AcDbEntity
  8
0
  6
Continuous
 62
     7
370
    18
100
AcDbMText
 10
412.6491448679
 20
174.7279841048
 30
0.0
 40
2.0
 41
0.0
 71
     2
 72
     1
  1
C
  7
SLDTEXTSTYLE0
 73
     1
 44
1.0
  0
MTEXT
  5
15E
330
1F
100
AcDbEntity
  8
0
  6
Continuous
 62
     7
370
    18
100
AcDbMText
 10
340.0216466634
 20
290.5954278102
 30
0.0
 40
2.0
 41
0.0
 71
     2
 72
     1
  1
7
  7
SLDTEXTSTYLE0
 73
     1
 44
1.0
  0
MTEXT
  5
15F
330
1F
100
AcDbEntity
  8
0
  6
Continuous
 62
     7
370
    18
100
AcDbMText
 10
390.037657264
 20
290.6215496941
 30
0.0
 40
2.0
 41
0.0
 71
     2
 72
     1
  1
8
  7
SLDTEXTSTYLE0
 73
     1
 44
1.0
  0
MTEXT
  5
160
330
1F
100
AcDbEntity
  8
0
  6
Continuous
 62
     7
370
    18
100
AcDbMText
 10
17.6897935208
 20
74.7267628143
 30
0.0
 40
2.0
 41
0.0
 71
     2
 72
     1
  1
E
  7
SLDTEXTSTYLE0
 73
     1
 44
1.0
  0
MTEXT
  5
161
330
1F
100
AcDbEntity
  8
0
  6
Continuous
 62
     7
370
    18
100
AcDbMText
 10
17.5936930126
 20
27.773321616
 30
0.0
 40
2.0
 41
0.0
 71
     2
 72
     1
  1
F
  7
SLDTEXTSTYLE0
 73
     1
 44
1.0
  0
MTEXT
  5
162
330
1F
100
AcDbEntity
  8
0
  6
Continuous
 62
     7
370
    18
100
AcDbMText
 10
339.8003474583
 20
8.7205095051
 30
0.0
 40
2.0
 41
0.0
 71
     2
 72
     1
  1
7
  7
SLDTEXTSTYLE0
 73
     1
 44
1.0
  0
MTEXT
  5
163
330
1F
100
AcDbEntity
  8
0
  6
Continuous
 62
     7
370
    18
100
AcDbMText
 10
289.7886477179
 20
8.6884673623
 30
0.0
 40
2.0
 41
0.0
 71
     2
 72
     1
  1
6
  7
SLDTEXTSTYLE0
 73
     1
 44
1.0
  0
MTEXT
  5
164
330
1F
100
AcDbEntity
  8
0
  6
Continuous
 62
     7
370
    18
100
AcDbMText
 10
412.5160699095
 20
74.5096307526
 30
0.0
 40
2.0
 41
0.0
 71
     2
 72
     1
  1
E
  7
SLDTEXTSTYLE0
 73
     1
 44
1.0
  0
MTEXT
  5
165
330
1F
100
AcDbEntity
  8
0
  6
Continuous
 62
     7
370
    18
100
AcDbMText
 10
412.6234021365
 20
124.4517683275
 30
0.0
 40
2.0
 41
0.0
 71
     2
 72
     1
  1
D
  7
SLDTEXTSTYLE0
 73
     1
 44
1.0
  0
MTEXT
  5
166
330
1F
100
AcDbEntity
  8
0
  6
Continuous
 62
     7
370
    18
100
AcDbMText
 10
411.7952690469
 20
41.8457885264
 30
0.0
 40
1.8
 41
0.0
 71
     3
 72
     1
  1
Plotdatum: 15.09.2024
  7
SLDTEXTSTYLE0
 11
-3.269436733918102E-15
 21
1.0
 31
0.0
 73
     1
 44
1.0
  0
MTEXT
  5
167
330
1F
100
AcDbEntity
  8
0
  6
Continuous
 62
     7
370
    18
100
AcDbMText
 10
412.557933251
 20
8.2549718046
 30
0.0
 40
1.8
 41
0.0
 71
     2
 72
     1
  1
A3
  7
SLDTEXTSTYLE0
 73
     1
 44
1.0
  0
MTEXT
  5
168
330
1F
100
AcDbEntity
  8
0
  6
Continuous
 62
     7
370
    18
100
AcDbMText
 10
390.594604279
 20
8.3847467643
 30
0.0
 40
1.8
 41
0.0
 71
     2
 72
     1
  1
CAD-System: SolidWorks
  7
SLDTEXTSTYLE0
 73
     1
 44
1.0
  0
MTEXT
  5
169
330
1F
100
AcDbEntity
  8
0
  6
Continuous
 62
     7
370
    18
100
AcDbMText
 10
403.9986368527
 20
28.4394692021
 30
0.0
 40
5.0
 41
0.0
 71
     2
 72
     1
  1
A
  7
SLDTEXTSTYLE0
 73
     1
 44
1.0
  0
MTEXT
  5
16A
330
1F
100
AcDbEntity
  8
0
  6
Continuous
 62
     7
370
    18
100
AcDbMText
 10
249.556836311
 20
38.5581729516
 30
0.0
 40
2.0
 41
0.0
 71
     1
 72
     1
  1
Freigegeben
  7
SLDTEXTSTYLE0
 73
     1
 44
1.0
  0
MTEXT
  5
16B
330
1F
100
AcDbEntity
  8
0
  6
Continuous
 62
     7
370
    18
100
AcDbMText
 10
284.1045975735
 20
43.5473338598
 30
0.0
 40
2.0
 41
0.0
 71
     2
 72
     1
  1
Hans
  7
SLDTEXTSTYLE0
 73
     1
 44
1.0
  0
MTEXT
  5
16C
330
1F
100
AcDbEntity
  8
0
  6
Continuous
 62
     7
370
    18
100
AcDbMText
 10
249.5284668163
 20
43.5603133928
 30
0.0
 40
2.0
 41
0.0
 71
     1
 72
     1
  1
15.09.2024
  7
SLDTEXTSTYLE0
 73
     1
 44
1.0
  0
MTEXT
  5
16D
330
1F
100
AcDbEntity
  8
0
  6
Continuous
 62
     7
370
    18
100
AcDbMText
 10
284.1309088133
 20
48.5138972561
 30
0.0
 40
2.0
 41
0.0
 71
     2
 72
     1
  1
AB
  7
SLDTEXTSTYLE0
 73
     1
 44
1.0
  0
MTEXT
  5
16E
330
1F
100
AcDbEntity
  8
0
  6
Continuous
 62
     7
370
    18
100
AcDbMText
 10
249.5284668163
 20
48.4989062069
 30
0.0
 40
2.0
 41
0.0
 71
     1
 72
     1
  1
05.02.2021
  7
SLDTEXTSTYLE0
 73
     1
 44
1.0
  0
MTEXT
  5
16F
330
1F
100
AcDbEntity
  8
0
  6
Continuous
 62
     7
370
     0
100
AcDbMText
 10
372.2007348103
 20
38.8723054925
 30
0.0
 40
1.5
 41
0.0
 71
     1
 72
     1
  1
Copyright reserved! © ACO AG
  7
SLDTEXTSTYLE0
 73
     1
 44
1.0
  0
INSERT
  5
178
330
1F
100
AcDbEntity
  8
0
  6
Continuous
 62
     7
370
     0
100
AcDbBlockReference
  2
SW_NOTE_0_3
 10
372.2203831445
 20
51.2202922854
 30
0.0
  0
MTEXT
  5
179
330
1F
100
AcDbEntity
  8
0
  6
Continuous
 62
     7
370
    18
100
AcDbMText
 10
364.9468572407
 20
13.5417229519
 30
0.0
 40
2.0
 41
0.0
 71
     1
 72
     1
  1
Erstausgabe
  7
SLDTEXTSTYLE0
 73
     1
 44
1.0
  0
MTEXT
  5
17A
330
1F
100
AcDbEntity
  8
0
  6
Continuous
 62
     7
370
    18
100
AcDbMText
 10
330.2607505021
 20
13.524501801
 30
0.0
 40
2.0
 41
0.0
 71
     2
 72
     1
  1
-
  7
SLDTEXTSTYLE0
 73
     1
 44
1.0
  0
MTEXT
  5
17B
330
1F
100
AcDbEntity
  8
0
  6
Continuous
 62
     7
370
    18
100
AcDbMText
 10
364.9468572407
 20
18.4594173137
 30
0.0
 40
2.0
 41
0.0
 71
     1
 72
     1
  1
SAP-Nr.
  7
SLDTEXTSTYLE0
 73
     1
 44
1.0
  0
MTEXT
  5
17C
330
1F
100
AcDbEntity
  8
0
  6
Continuous
 62
     7
370
    18
100
AcDbMText
 10
354.2897149303
 20
18.5245664709
 30
0.0
 40
2.0
 41
0.0
 71
     2
 72
     1
  1
Hans
  7
SLDTEXTSTYLE0
 73
     1
 44
1.0
  0
MTEXT
  5
17D
330
1F
100
AcDbEntity
  8
0
  6
Continuous
 62
     7
370
    18
100
AcDbMText
 10
340.3028682291
 20
18.5245664709
 30
0.0
 40
2.0
 41
0.0
 71
     2
 72
     1
  1
12.09.2024
  7
SLDTEXTSTYLE0
 73
     1
 44
1.0
  0
MTEXT
  5
17E
330
1F
100
AcDbEntity
  8
0
  6
Continuous
 62
     7
370
    18
100
AcDbMText
 10
330.227417144
 20
18.524501801
 30
0.0
 40
2.0
 41
0.0
 71
     2
 72
     1
  1
A
  7
SLDTEXTSTYLE0
 73
     1
 44
1.0
  0
MTEXT
  5
17F
330
1F
100
AcDbEntity
  8
0
  6
Continuous
 62
     7
370
    18
100
AcDbMText
 10
311.764909851
 20
46.3490312465
 30
0.0
 40
5.0
 41
0.0
 71
     2
 72
     1
  1
1:1
  7
SLDTEXTSTYLE0
 73
     1
 44
1.0
  0
MTEXT
  5
180
330
1F
100
AcDbEntity
  8
0
  6
Continuous
 62
     7
370
    18
100
AcDbMText
 10
230.1851195342
 20
38.7793829468
 30
0.0
 40
2.0
 41
0.0
 71
     1
 72
     1
  1
Status:
  7
SLDTEXTSTYLE0
 73
     1
 44
1.0
  0
MTEXT
  5
181
330
1F
100
AcDbEntity
  8
0
  6
Continuous
 62
     7
370
    18
100
AcDbMText
 10
344.926838705
 20
28.2772828851
 30
0.0
 40
5.0
 41
0.0
 71
     1
 72
     1
  1
98580
  7
SLDTEXTSTYLE0
 73
     1
 44
1.0
  0
MTEXT
  5
182
330
1F
100
AcDbEntity
  8
0
  6
Continuous
 62
     7
370
    18
100
AcDbMText
 10
231.1132118803
 20
14.9211049657
 30
0.0
 40
2.5
 41
0.0
 71
     1
 72
     1
  1
Art. Nr.: 2021469
  7
SLDTEXTSTYLE0
 73
     1
 44
1.0
  0
MTEXT
  5
183
330
1F
100
AcDbEntity
  8
0
  6
Continuous
 62
     7
370
    18
100
AcDbMText
 10
231.1475981734
 20
21.4529560996
 30
0.0
 40
2.5
 41
0.0
 71
     1
 72
     1
  1
Pipe Rohre mit Steckmuffe DN70
  7
SLDTEXTSTYLE0
 73
     1
 44
1.0
  0
MTEXT
  5
184
330
1F
100
AcDbEntity
  8
0
  6
Continuous
 62
     7
370
    18
100
AcDbMText
 10
231.1159560181
 20
33.0904969858
 30
0.0
 40
2.5
 41
0.0
 71
     1
 72
     1
  1
Haustechnik
  7
SLDTEXTSTYLE0
 73
     1
 44
1.0
  0
MTEXT
  5
185
330
1F
100
AcDbEntity
  8
0
  6
Continuous
 62
     7
370
    18
100
AcDbMText
 10
231.1475981734
 20
28.0307932366
 30
0.0
 40
3.5
 41
0.0
 71
     1
 72
     1
  1
Pipe Rohr mit Steckmuffe DN70 x 3000
  7
SLDTEXTSTYLE0
 73
     1
 44
1.0
  0
MTEXT
  5
186
330
1F
100
AcDbEntity
  8
0
  6
Continuous
 62
     7
370
    18
100
AcDbMText
 10
348.2746465368
 20
53.819119072
 30
0.0
 40
2.0
 41
0.0
 71
     1
 72
     1
  1
Projektion: ISO-E
  7
SLDTEXTSTYLE0
 73
     1
 44
1.0
  0
MTEXT
  5
187
330
1F
100
AcDbEntity
  8
0
  6
Continuous
 62
     7
370
    18
100
AcDbMText
 10
337.7677091855
 20
49.3670227094
 30
0.0
 40
2.5
 41
0.0
 71
     2
 72
     1
  1
Millimeter
  7
SLDTEXTSTYLE0
 73
     1
 44
1.0
  0
MTEXT
  5
188
330
1F
100
AcDbEntity
  8
0
  6
Continuous
 62
     7
370
    18
100
AcDbMText
 10
337.6323777421
 20
53.855374072
 30
0.0
 40
2.0
 41
0.0
 71
     2
 72
     1
  1
Masseinheit:
  7
SLDTEXTSTYLE0
 73
     1
 44
1.0
  0
MTEXT
  5
189
330
1F
100
AcDbEntity
  8
0
  6
Continuous
 62
     7
370
    18
100
AcDbMText
 10
337.6114490186
 20
43.5452078816
 30
0.0
 40
2.0
 41
0.0
 71
     2
 72
     1
  1
Blatt / Anz.:
  7
SLDTEXTSTYLE0
 73
     1
 44
1.0
  0
MTEXT
  5
18A
330
1F
100
AcDbEntity
  8
0
  6
Continuous
 62
     7
370
    18
100
AcDbMText
 10
329.2895578243
 20
28.4139191092
 30
0.0
 40
5.0
 41
0.0
 71
     1
 72
     1
  1
CH
  7
SLDTEXTSTYLE0
 73
     1
 44
1.0
  0
MTEXT
  5
18B
330
1F
100
AcDbEntity
  8
0
  6
Continuous
 62
     7
370
    18
100
AcDbMText
 10
330.40704
 20
33.692638072
 30
0.0
 40
2.0
 41
0.0
 71
     1
 72
     1
  1
Zeichnung Nr.:
  7
SLDTEXTSTYLE0
 73
     1
 44
1.0
  0
MTEXT
  5
18C
330
1F
100
AcDbEntity
  8
0
  6
Continuous
 62
     7
370
    18
100
AcDbMText
 10
269.897953
 20
75.161075072
 30
0.0
 40
2.0
 41
0.0
 71
     1
 72
     1
  1
Gewicht:
  7
SLDTEXTSTYLE0
 73
     1
 44
1.0
  0
MTEXT
  5
18D
330
1F
100
AcDbEntity
  8
0
  6
Continuous
 62
     7
370
    18
100
AcDbMText
 10
230.0
 20
64.542328072
 30
0.0
 40
2.0
 41
0.0
 71
     1
 72
     1
  1
zul. Abweichung:
  7
SLDTEXTSTYLE0
 73
     1
 44
1.0
  0
MTEXT
  5
18E
330
1F
100
AcDbEntity
  8
0
  6
Continuous
 62
     7
370
    18
100
AcDbMText
 10
269.612607
 20
64.542328072
 30
0.0
 40
2.0
 41
0.0
 71
     1
 72
     1
  1
Oberfläche:
  7
SLDTEXTSTYLE0
 73
     1
 44
1.0
  0
MTEXT
  5
18F
330
1F
100
AcDbEntity
  8
0
  6
Continuous
 62
     7
370
    18
100
AcDbMText
 10
230.261411
 20
43.4433838912
 30
0.0
 40
2.0
 41
0.0
 71
     1
 72
     1
  1
Freigegeben:
  7
SLDTEXTSTYLE0
 73
     1
 44
1.0
  0
MTEXT
  5
190
330
1F
100
AcDbEntity
  8
0
  6
Continuous
 62
     7
370
    18
100
AcDbMText
 10
230.0
 20
75.161075072
 30
0.0
 40
2.0
 41
0.0
 71
     1
 72
     1
  1
Werkstoff:
  7
SLDTEXTSTYLE0
 73
     1
 44
1.0
  0
MTEXT
  5
191
330
1F
100
AcDbEntity
  8
0
  6
Continuous
 62
     7
370
    18
100
AcDbMText
 10
254.035545
 20
53.129475072
 30
0.0
 40
2.0
 41
0.0
 71
     1
 72
     1
  1
Datum:
  7
SLDTEXTSTYLE0
 73
     1
 44
1.0
  0
MTEXT
  5
192
330
1F
100
AcDbEntity
  8
0
  6
Continuous
 62
     7
370
    18
100
AcDbMText
 10
279.934928
 20
53.136060072
 30
0.0
 40
2.0
 41
0.0
 71
     1
 72
     1
  1
Name:
  7
SLDTEXTSTYLE0
 73
     1
 44
1.0
  0
MTEXT
  5
193
330
1F
100
AcDbEntity
  8
0
  6
Continuous
 62
     7
370
    18
100
AcDbMText
 10
312.162455406
 20
53.881591072
 30
0.0
 40
2.0
 41
0.0
 71
     2
 72
     1
  1
Massstab:
  7
SLDTEXTSTYLE0
 73
     1
 44
1.0
  0
MTEXT
  5
194
330
1F
100
AcDbEntity
  8
0
  6
Continuous
 62
     7
370
    18
100
AcDbMText
 10
403.9552944035
 20
33.324874072
 30
0.0
 40
2.0
 41
0.0
 71
     2
 72
     1
  1
Index:
  7
SLDTEXTSTYLE0
 73
     1
 44
1.0
  0
MTEXT
  5
195
330
1F
100
AcDbEntity
  8
0
  6
Continuous
 62
     7
370
    18
100
AcDbMText
 10
230.261411
 20
48.4499477886
 30
0.0
 40
2.0
 41
0.0
 71
     1
 72
     1
  1
Erstellt:
  7
SLDTEXTSTYLE0
 73
     1
 44
1.0
  0
MTEXT
  5
197
330
1F
100
AcDbEntity
  8
0
  6
Continuous
 62
     7
370
    18
100
AcDbMText
 10
337.6348165843
 20
39.869706576
 30
0.0
 40
2.5
 41
0.0
 71
     2
 72
     1
  1
1 / 1
  7
SLDTEXTSTYLE1
 73
     1
 44
1.0
  0
MTEXT
  5
198
330
1F
100
AcDbEntity
  8
0
  6
Continuous
 62
     7
370
    18
100
AcDbMText
 10
269.612607
 20
60.8119428599
 30
0.0
 40
3.0
 41
0.0
 71
     1
 72
     1
  1
DIN ISO 1302
  7
SLDTEXTSTYLE0
 73
     1
 44
1.0
  0
MTEXT
  5
199
330
1F
100
AcDbEntity
  8
0
  6
Continuous
 62
     7
370
    18
100
AcDbMText
 10
230.0
 20
60.8119428599
 30
0.0
 40
3.0
 41
0.0
 71
     1
 72
     1
  1
Norm
  7
SLDTEXTSTYLE0
 73
     1
 44
1.0
  0
MTEXT
  5
19A
330
1F
100
AcDbEntity
  8
0
  6
Continuous
 62
     7
370
    18
100
AcDbMText
 10
269.612607
 20
71.2121947186
 30
0.0
 40
3.0
 41
0.0
 71
     1
 72
     1
  1
5.71 kg
  7
SLDTEXTSTYLE0
 73
     1
 44
1.0
  0
MTEXT
  5
19B
330
1F
100
AcDbEntity
  8
0
  6
Continuous
 62
     7
370
    18
100
AcDbMText
 10
230.0
 20
71.2121947186
 30
0.0
 40
3.0
 41
0.0
 71
     1
 72
     1
  1
1.4404 / EPDM
  7
SLDTEXTSTYLE0
 73
     1
 44
1.0
  0
LINE
  5
19C
330
1F
100
AcDbEntity
  8
0
  6
Continuous
 62
     7
370
    25
100
AcDbLine
 10
345.5622764298
 20
267.6948495347
 30
0.0
 11
345.6224315664
 21
267.5156640154
 31
0.0
  0
SPLINE
  5
19D
330
1F
100
AcDbEntity
  8
0
  6
Continuous
 62
     7
370
    25
100
AcDbSpline
210
0.0
220
0.0
230
1.0
 70
     8
 71
     3
 72
    15
 73
    11
 74
     0
 42
0.00000001
 43
0.00000001
 40
0.0
 40
0.0
 40
0.0
 40
0.0
 40
0.0549200759251675
 40
0.2032704321992823
 40
0.3564226169945846
 40
0.4980486575233827
 40
0.6410990199015184
 40
0.7854846396490502
 40
0.9309097884669042
 40
1.0
 40
1.0
 40
1.0
 40
1.0
 10
346.1195180315421
 20
267.4495214562803
 30
0.0
 10
346.1205698723086
 20
267.468434229755
 30
0.0
 10
346.1244629500878
 20
267.5384342720625
 30
0.0
 10
346.1092299641962
 20
267.6611712263346
 30
0.0
 10
346.0740464500357
 20
267.8114204563508
 30
0.0
 10
346.0180518506698
 20
267.9560740650873
 30
0.0
 10
345.9458354549084
 20
268.0932534555105
 30
0.0
 10
345.8547659503779
 20
268.2256495075542
 30
0.0
 10
345.7682123729343
 20
268.3314064227993
 30
0.0
 10
345.7065099178905
 20
268.3901413017317
 30
0.0
 10
345.6866370488143
 20
268.4090583862854
 30
0.0
  0
SPLINE
  5
19E
330
1F
100
AcDbEntity
  8
0
  6
Continuous
 62
     7
370
    25
100
AcDbSpline
210
0.0
220
0.0
230
1.0
 70
     8
 71
     3
 72
    15
 73
    11
 74
     0
 42
0.00000001
 43
0.00000001
 40
0.0
 40
0.0
 40
0.0
 40
0.0
 40
0.0038126798563306
 40
0.146925220078317
 40
0.290483151098583
 40
0.4345078536104659
 40
0.5791581410069397
 40
0.7248112756757595
 40
0.8721303605261853
 40
1.0
 40
1.0
 40
1.0
 40
1.0
 10
340.7259901640999
 20
268.3932767648114
 30
0.0
 10
340.724913222033
 20
268.3922795180848
 30
0.0
 10
340.6834122421071
 20
268.3538496733809
 30
0.0
 10
340.6139840719057
 20
268.2719887738246
 30
0.0
 10
340.5197695143074
 20
268.1475226335954
 30
0.0
 10
340.4425799400868
 20
268.0163700327375
 30
0.0
 10
340.3811422827451
 20
267.8799437993604
 30
0.0
 10
340.337665993004
 20
267.7384391433397
 30
0.0
 10
340.3119028384112
 20
267.5996807745831
 30
0.0
 10
340.3107261421167
 20
267.50816195142
 30
0.0
 10
340.3101793765059
 20
267.4656366664482
 30
0.0
  0
LINE
  5
19F
330
1F
100
AcDbEntity
  8
0
  6
Continuous
 62
     7
370
    25
100
AcDbLine
 10
346.1222001255
 20
266.8155665644
 30
0.0
 11
346.1222001255
 21
267.4749455976
 31
0.0
  0
LINE
  5
1A0
330
1F
100
AcDbEntity
  8
0
  6
Continuous
 62
     7
370
    25
100
AcDbLine
 10
340.3088667922
 20
267.4749455976
 30
0.0
 11
340.3088667922
 21
266.8155665644
 31
0.0
  0
LINE
  5
1A1
330
1F
100
AcDbEntity
  8
0
  6
Continuous
 62
     7
370
    25
100
AcDbLine
 10
345.8155334589
 20
267.7541787152
 30
0.0
 11
345.8155334589
 21
267.9637346539
 31
0.0
  0
LINE
  5
1A2
330
1F
100
AcDbEntity
  8
0
  6
Continuous
 62
     7
370
    25
100
AcDbLine
 10
340.6155334589
 20
267.9637346539
 30
0.0
 11
340.6155334589
 21
267.7541787152
 31
0.0
  0
SPLINE
  5
1A3
330
1F
100
AcDbEntity
  8
0
  6
Continuous
 62
     7
370
    25
100
AcDbSpline
210
0.0
220
0.0
230
1.0
 70
     8
 71
     3
 72
    26
 73
    22
 74
     0
 42
0.00000001
 43
0.00000001
 40
0.0
 40
0.0
 40
0.0
 40
0.0
 40
0.0585187948340436
 40
0.1174289087610569
 40
0.1748727328599523
 40
0.2313331387670735
 40
0.2872004294359005
 40
0.3427450628166435
 40
0.398136795256435
 40
0.453451051984115
 40
0.5087236218111365
 40
0.5639557312092307
 40
0.6190968568424314
 40
0.6740339128427817
 40
0.7285457577491834
 40
0.7821692165327174
 40
0.8337425330589041
 40
0.8819863531953317
 40
0.9163922739645518
 40
0.9530429071845201
 40
0.9999999999999999
 40
0.9999999999999999
 40
0.9999999999999999
 40
0.9999999999999999
 10
340.6918878165317
 20
267.8695307489428
 30
0.0
 10
340.6992374719034
 20
267.9057309109797
 30
0.0
 10
340.7139859302835
 20
267.9783733079568
 30
0.0
 10
340.7581885143356
 20
268.0872194288788
 30
0.0
 10
340.8180195458683
 20
268.1947588707841
 30
0.0
 10
340.8942285929991
 20
268.2995308464848
 30
0.0
 10
340.9860980298531
 20
268.4011784374618
 30
0.0
 10
341.0933899852904
 20
268.4991253024516
 30
0.0
 10
341.2155413679659
 20
268.5926264912299
 30
0.0
 10
341.3518165093109
 20
268.6808669096268
 30
0.0
 10
341.5012579030437
 20
268.7630275875838
 30
0.0
 10
341.6627089818135
 20
268.838328846309
 30
0.0
 10
341.8347674954508
 20
268.9060412342876
 30
0.0
 10
342.0156847032098
 20
268.9654915368983
 30
0.0
 10
342.2031197007468
 20
269.01605915215
 30
0.0
 10
342.393341783751
 20
269.0571362944927
 30
0.0
 10
342.5811164999486
 20
269.0884045965141
 30
0.0
 10
342.7485743306676
 20
269.1088194881236
 30
0.0
 10
342.8990649602204
 20
269.1216452508623
 30
0.0
 10
343.0489490538519
 20
269.1302252828406
 30
0.0
 10
343.1556220720456
 20
269.1314247806313
 30
0.0
 10
343.2155334588726
 20
269.132098461543
 30
0.0
  0
SPLINE
  5
1A4
330
1F
100
AcDbEntity
  8
0
  6
Continuous
 62
     7
370
    25
100
AcDbSpline
210
0.0
220
0.0
230
1.0
 70
     8
 71
     3
 72
    29
 73
    25
 74
     0
 42
0.00000001
 43
0.00000001
 40
0.0
 40
0.0
 40
0.0
 40
0.0
 40
0.0580143185398345
 40
0.0815082033637944
 40
0.1204153147380424
 40
0.1606526012063647
 40
0.2036300688391822
 40
0.2482504900606088
 40
0.2940608809265884
 40
0.3407006361739628
 40
0.3879165217505872
 40
0.4355279117091457
 40
0.4834109114576897
 40
0.5314901893241684
 40
0.5797375132774962
 40
0.6281763211764262
 40
0.6768711166233606
 40
0.7259727569264984
 40
0.7757334462269834
 40
0.8265368446607256
 40
0.8789310065311412
 40
0.9336375640190343
 40
0.9914622222282489
 40
1.0
 40
1.0
 40
1.0
 40
1.0
 10
343.2155334588726
 20
269.132098461543
 30
0.0
 10
343.2944561687244
 20
269.130975383156
 30
0.0
 10
343.4053399720083
 20
269.1293974950783
 30
0.0
 10
343.5680749699175
 20
269.1188851679905
 30
0.0
 10
343.7059067854593
 20
269.106335755747
 30
0.0
 10
343.8678610162241
 20
269.0854923400042
 30
0.0
 10
344.0344301032884
 20
269.0574317071116
 30
0.0
 10
344.2041432208432
 20
269.0214027975649
 30
0.0
 10
344.3732231199289
 20
268.9774619776609
 30
0.0
 10
344.5390210155035
 20
268.9257580442383
 30
0.0
 10
344.6993019849737
 20
268.8666143035844
 30
0.0
 10
344.8522050753609
 20
268.8004731374763
 30
0.0
 10
344.9961705095267
 20
268.7278716311837
 30
0.0
 10
345.129900125526
 20
268.6494145687527
 30
0.0
 10
345.2523328535822
 20
268.5657460355289
 30
0.0
 10
345.3626100401734
 20
268.4775277351466
 30
0.0
 10
345.4600771161163
 20
268.3853926825992
 30
0.0
 10
345.5442489628809
 20
268.289885893549
 30
0.0
 10
345.614835216293
 20
268.1913689214715
 30
0.0
 10
345.671424862046
 20
268.0899115125889
 30
0.0
 10
345.7141852938724
 20
267.9851663302663
 30
0.0
 10
345.7401859303616
 20
267.8762382509675
 30
0.0
 10
345.7515741911118
 20
267.7966993047893
 30
0.0
 10
345.748049681472
 20
267.7530607150193
 30
0.0
 10
345.747596240009
 20
267.7474464457987
 30
0.0
  0
SPLINE
  5
1A5
330
1F
100
AcDbEntity
  8
0
  6
Continuous
 62
     7
370
    25
100
AcDbSpline
210
0.0
220
0.0
230
1.0
 70
     8
 71
     3
 72
    29
 73
    25
 74
     0
 42
0.00000001
 43
0.00000001
 40
0.0
 40
0.0
 40
0.0
 40
0.0
 40
0.0567951198267947
 40
0.0797971721151857
 40
0.1179116409354046
 40
0.1573634678872258
 40
0.1995563583875216
 40
0.2434378191273424
 40
0.2885876565451487
 40
0.3346750479950956
 40
0.3814717882533725
 40
0.4288157644189963
 40
0.4765917707426234
 40
0.5247180375716266
 40
0.5731367280333948
 40
0.6217970007592617
 40
0.6706562979333635
 40
0.7196855732384085
 40
0.7688674360667683
 40
0.8182092112824753
 40
0.8677653071544008
 40
0.9176649709270073
 40
0.9681353766483717
 40
1.0
 40
1.0
 40
1.0
 40
1.0
 10
343.2155334588727
 20
265.053041157033
 30
0.0
 10
343.2998559148464
 20
265.0542300666817
 30
0.0
 10
343.4183290081867
 20
265.05590048534
 30
0.0
 10
343.5923797490126
 20
265.0670413510401
 30
0.0
 10
343.7400065976618
 20
265.0803592304346
 30
0.0
 10
343.9138904770866
 20
265.1025299520643
 30
0.0
 10
344.0933709532758
 20
265.1324811405843
 30
0.0
 10
344.2771368952816
 20
265.1711205021181
 30
0.0
 10
344.4613909970475
 20
265.2185386269307
 30
0.0
 10
344.643532290681
 20
265.2747733665816
 30
0.0
 10
344.8213729322021
 20
265.3397235515382
 30
0.0
 10
344.9930825429315
 20
265.4132084397274
 30
0.0
 10
345.1570937464185
 20
265.4949912307164
 30
0.0
 10
345.3120405544464
 20
265.5848007436334
 30
0.0
 10
345.4566998422462
 20
265.682339938656
 30
0.0
 10
345.589949995551
 20
265.7872899219291
 30
0.0
 10
345.7107456277523
 20
265.8993118023163
 30
0.0
 10
345.8180872274605
 20
266.0180480855881
 30
0.0
 10
345.9110302655765
 20
266.1431173300796
 30
0.0
 10
345.9885467138483
 20
266.2741082936781
 30
0.0
 10
346.0499546199307
 20
266.4105752080424
 30
0.0
 10
346.0932184549364
 20
266.5520798604622
 30
0.0
 10
346.1176285142736
 20
266.6793080659926
 30
0.0
 10
346.1189908079053
 20
266.7592168031979
 30
0.0
 10
346.1195180315421
 20
266.7901424230976
 30
0.0
  0
SPLINE
  5
1A6
330
1F
100
AcDbEntity
  8
0
  6
Continuous
 62
     7
370
    25
100
AcDbSpline
210
0.0
220
0.0
230
1.0
 70
     8
 71
     3
 72
    29
 73
    25
 74
     0
 42
0.00000001
 43
0.00000001
 40
0.0
 40
0.0
 40
0.0
 40
0.0
 40
0.0075244817407154
 40
0.0599311145854158
 40
0.1140340538672114
 40
0.1640652374359725
 40
0.2145995806471202
 40
0.2656056203507405
 40
0.3169788867984554
 40
0.3685820075129941
 40
0.4202829633013209
 40
0.4719743545278016
 40
0.5235642044346283
 40
0.5749824345848841
 40
0.626174908679901
 40
0.6770632199746999
 40
0.7275118933839035
 40
0.7772492489633323
 40
0.8256391002630613
 40
0.8707855816559829
 40
0.9084003566067912
 40
0.9399472718674499
 40
0.9784225942746212
 40
1.0
 40
1.0
 40
1.0
 40
1.0
 10
340.3101793765059
 20
266.8062576332655
 30
0.0
 10
340.309833803635
 20
266.7989225995066
 30
0.0
 10
340.3070813792106
 20
266.7405004032885
 30
0.0
 10
340.32225193775
 20
266.6293396301627
 30
0.0
 10
340.3569270782311
 20
266.4790966138596
 30
0.0
 10
340.4130060113029
 20
266.3344212482289
 30
0.0
 10
340.4853618684358
 20
266.1973227064993
 30
0.0
 10
340.57578182697
 20
266.0646206214103
 30
0.0
 10
340.6833836867057
 20
265.9373324385174
 30
0.0
 10
340.8072974447536
 20
265.8163915694321
 30
0.0
 10
340.9464387292284
 20
265.702608316275
 30
0.0
 10
341.099629728574
 20
265.5966686606455
 30
0.0
 10
341.2656095283758
 20
265.4991467321989
 30
0.0
 10
341.4430512142326
 20
265.4105225373058
 30
0.0
 10
341.6305358011824
 20
265.3312070678342
 30
0.0
 10
341.8264644386191
 20
265.2615681516536
 30
0.0
 10
342.0288517033309
 20
265.2019537379353
 30
0.0
 10
342.2348310134121
 20
265.1527209319894
 30
0.0
 10
342.4388856210749
 20
265.1143539284168
 30
0.0
 10
342.6294154091505
 20
265.0873574898468
 30
0.0
 10
342.7976213460513
 20
265.0701590181931
 30
0.0
 10
342.9572047368933
 20
265.0590789234354
 30
0.0
 10
343.0937155747243
 20
265.0537639896358
 30
0.0
 10
343.1833331697558
 20
265.0532322243706
 30
0.0
 10
343.2155334588727
 20
265.053041157033
 30
0.0
  0
LINE
  5
1A7
330
1F
100
AcDbEntity
  8
0
  6
Continuous
 62
     7
370
    25
100
AcDbLine
 10
345.8022001255
 20
265.1629100132
 30
0.0
 11
345.8022001255
 21
266.0041579196
 31
0.0
  0
LINE
  5
1A8
330
1F
100
AcDbEntity
  8
0
  6
Continuous
 62
     7
370
    25
100
AcDbLine
 10
340.6288667922
 20
266.0061202962
 30
0.0
 11
340.6288667922
 21
265.1629100132
 31
0.0
  0
SPLINE
  5
1A9
330
1F
100
AcDbEntity
  8
0
  6
Continuous
 62
     7
370
    25
100
AcDbSpline
210
0.0
220
0.0
230
1.0
 70
     8
 71
     3
 72
    11
 73
     7
 74
     0
 42
0.00000001
 43
0.00000001
 40
0.0
 40
0.0
 40
0.0
 40
0.0
 40
0.0022077742513398
 40
0.3736830332522255
 40
0.7496734370587109
 40
0.9999999999999999
 40
0.9999999999999999
 40
0.9999999999999999
 40
0.9999999999999999
 10
345.7330579196664
 20
264.7950415273457
 30
0.0
 10
345.73317464211
 20
264.7952984274617
 30
0.0
 10
345.7529308272202
 20
264.8387807783047
 30
0.0
 10
345.7760604735466
 20
264.9300155509109
 30
0.0
 10
345.8001313333426
 20
265.0521433181694
 30
0.0
 10
345.799960817457
 20
265.1297106203317
 30
0.0
 10
345.7998926656139
 20
265.1607127441408
 30
0.0
  0
SPLINE
  5
1AA
330
1F
100
AcDbEntity
  8
0
  6
Continuous
 62
     7
370
    25
100
AcDbSpline
210
0.0
220
0.0
230
1.0
 70
     8
 71
     3
 72
    11
 73
     7
 74
     0
 42
0.00000001
 43
0.00000001
 40
0.0
 40
0.0
 40
0.0
 40
0.0
 40
0.1146231440530048
 40
0.4817844487337086
 40
0.8623949060847752
 40
1.0
 40
1.0
 40
1.0
 40
1.0
 10
340.6310857095679
 20
265.1614307801395
 30
0.0
 10
340.6304790300641
 20
265.1461927412042
 30
0.0
 10
340.6279290323934
 20
265.0821441561744
 30
0.0
 10
340.6461165494273
 20
264.9679825684987
 30
0.0
 10
340.6736515236318
 20
264.8520736183644
 30
0.0
 10
340.7025998571066
 20
264.7870894196135
 30
0.0
 10
340.7102866934757
 20
264.7698337491684
 30
0.0
  0
LINE
  5
1AB
330
1F
100
AcDbEntity
  8
0
  6
Continuous
 62
     7
370
    25
100
AcDbLine
 10
340.6985471062
 20
264.7934889463
 30
0.0
 11
340.7689442364
 21
264.6099179906
 31
0.0
  0
LINE
  5
1AC
330
1F
100
AcDbEntity
  8
0
  6
Continuous
 62
     7
370
    25
100
AcDbLine
 10
345.6621226813
 20
264.6099179906
 30
0.0
 11
345.7325198116
 21
264.7934889463
 31
0.0
  0
LINE
  5
1AD
330
1F
100
AcDbEntity
  8
0
  6
Continuous
 62
     7
370
    25
100
AcDbLine
 10
345.7155334589
 20
102.2571675294
 30
0.0
 11
345.7155334589
 21
264.7491945129
 31
0.0
  0
LINE
  5
1AE
330
1F
100
AcDbEntity
  8
0
  6
Continuous
 62
     7
370
    25
100
AcDbLine
 10
340.7155334589
 20
264.7491945129
 30
0.0
 11
340.7155334589
 21
102.2571675294
 31
0.0
  0
SPLINE
  5
1AF
330
1F
100
AcDbEntity
  8
0
  6
Continuous
 62
     7
370
    25
100
AcDbSpline
210
0.0
220
0.0
230
1.0
 70
     8
 71
     3
 72
    10
 73
     6
 74
     0
 42
0.00000001
 43
0.00000001
 40
0.0
 40
0.0
 40
0.0
 40
0.0
 40
0.2638307346879402
 40
0.7332221982271605
 40
0.9999999999999999
 40
0.9999999999999999
 40
0.9999999999999999
 40
0.9999999999999999
 10
340.7180318918176
 20
102.2582624266813
 30
0.0
 10
340.7177789350632
 20
102.2315912005566
 30
0.0
 10
340.7170759331643
 20
102.157468164544
 30
0.0
 10
340.7333840523469
 20
102.0565300308398
 30
0.0
 10
340.7584079180417
 20
101.9844966191566
 30
0.0
 10
340.7674762290897
 20
101.9583926833791
 30
0.0
  0
SPLINE
  5
1B0
330
1F
100
AcDbEntity
  8
0
  6
Continuous
 62
     7
370
    25
100
AcDbSpline
210
0.0
220
0.0
230
1.0
 70
     8
 71
     3
 72
    10
 73
     6
 74
     0
 42
0.00000001
 43
0.00000001
 40
0.0
 40
0.0
 40
0.0
 40
0.0
 40
0.4039874387600212
 40
0.8700742170960001
 40
1.0
 40
1.0
 40
1.0
 40
1.0
 10
345.6632612878043
 20
101.951478641476
 30
0.0
 10
345.6748300094218
 20
101.9892260088616
 30
0.0
 10
345.6997457504535
 20
102.0705231185595
 30
0.0
 10
345.7149476819866
 20
102.1662898832654
 30
0.0
 10
345.7135595348681
 20
102.22344726449
 30
0.0
 10
345.7132569303377
 20
102.2359070983715
 30
0.0
  0
LINE
  5
1B1
330
1F
100
AcDbEntity
  8
0
  6
Continuous
 62
     7
370
    25
100
AcDbLine
 10
340.7585786593
 20
101.9768316064
 30
0.0
 11
340.8478644203
 21
101.6890024614
 31
0.0
  0
LINE
  5
1B2
330
1F
100
AcDbEntity
  8
0
  6
Continuous
 62
     7
370
    25
100
AcDbLine
 10
345.5832024974
 20
101.6890024614
 30
0.0
 11
345.6724882584
 21
101.9768316064
 31
0.0
  0
ARC
  5
1B3
330
1F
100
AcDbEntity
  8
0
  6
Continuous
 62
     7
370
    25
100
AcDbCircle
 10
343.2505622882
 20
264.9251599957
 30
0.0
 40
3.849381272873395
100
AcDbArc
 50
72.9951323838
 51
87.7472905997
  0
ARC
  5
1B4
330
1F
100
AcDbEntity
  8
0
  6
Continuous
 62
     7
370
    25
100
AcDbCircle
 10
343.1899061906
 20
264.8592009218
 30
0.0
 40
3.91574990205274
100
AcDbArc
 50
91.9771122376
 51
105.6307814634
  0
LINE
  5
1B5
330
1F
100
AcDbEntity
  8
0
  6
Continuous
 62
     7
370
    25
100
AcDbLine
 10
344.9621398912
 20
267.8899066375
 30
0.0
 11
344.9145609276
 21
267.912859579
 31
0.0
  0
ARC
  5
1B6
330
1F
100
AcDbEntity
  8
0
  6
Continuous
 62
     7
370
    25
100
AcDbCircle
 10
343.2155334589
 20
263.9404096877
 30
0.0
 40
4.32626552083889
100
AcDbArc
 50
69.8570637325
 51
110.1429362675
  0
LINE
  5
1B7
330
1F
100
AcDbEntity
  8
0
  6
Continuous
 62
     7
370
    25
100
AcDbLine
 10
341.5165059902
 20
267.912859579
 30
0.0
 11
341.4689270266
 21
267.8899066375
 31
0.0
  0
ARC
  5
1B8
330
1F
100
AcDbEntity
  8
0
  6
Continuous
 62
     7
370
    25
100
AcDbCircle
 10
343.2155334589
 20
263.571048877
 30
0.0
 40
4.691159675246293
100
AcDbArc
 50
85.8473384237
 51
94.1526615763
  0
LWPOLYLINE
  5
1B9
330
1F
100
AcDbEntity
  8
0
  6
Continuous
 62
     7
370
    25
100
AcDbPolyline
 90
       29
 70
   128
 43
0.0
 10
340.8563347536
 20
267.4308886369
 10
340.864324761
 20
267.4464126097
 10
340.9455553719
 20
267.5774709767
 10
341.0486471127
 20
267.7033019016
 10
341.1726071536
 20
267.8226935638
 10
341.3162416915
 20
267.9344961562
 10
341.4781674474
 20
268.037632959
 10
341.6568249878
 20
268.1311107081
 10
341.8504937428
 20
268.2140291619
 10
342.0573085765
 20
268.2855897703
 10
342.275277749
 20
268.3451033655
 10
342.5023020979
 20
268.391996799
 10
342.7361952547
 20
268.4258184615
 10
342.9747047005
 20
268.4462426318
 10
343.2155334589
 20
268.4530726141
 10
343.4563622172
 20
268.4462426318
 10
343.694871663
 20
268.4258184615
 10
343.9287648198
 20
268.391996799
 10
344.1557891688
 20
268.3451033655
 10
344.3737583412
 20
268.2855897703
 10
344.5805731749
 20
268.2140291619
 10
344.7742419299
 20
268.1311107081
 10
344.9528994703
 20
268.037632959
 10
345.1148252262
 20
267.9344961562
 10
345.2584597642
 20
267.8226935638
 10
345.382419805
 20
267.7033019016
 10
345.4855115458
 20
267.5774709767
 10
345.5667421568
 20
267.4464126097
 10
345.5747321641
 20
267.4308886369
  0
LWPOLYLINE
  5
1BA
330
1F
100
AcDbEntity
  8
0
  6
Continuous
 62
     7
370
    25
100
AcDbPolyline
 90
       20
 70
   128
 43
0.0
 10
341.3622829251
 20
267.8165171403
 10
341.4203686832
 20
267.854959608
 10
341.5910368858
 20
267.9534842642
 10
341.7778500652
 20
268.0417094414
 10
341.978951588
 20
268.1187583181
 10
342.1923428171
 20
268.1838651481
 10
342.4159029744
 20
268.2363828703
 10
342.6474102188
 20
268.2757895401
 10
342.8845637271
 20
268.3016935162
 10
343.1250065614
 20
268.3138373533
 10
343.3663490926
 20
268.3121003606
 10
343.6061927503
 20
268.2964998009
 10
343.8421538604
 20
268.2671907198
 10
344.0718873355
 20
268.2244644039
 10
344.293109981
 20
268.1687454867
 10
344.5036231869
 20
268.1005877277
 10
344.7013347784
 20
268.0206685094
 10
344.8842798088
 20
267.9297821049
 10
345.0506400883
 20
267.8288317841
 10
345.0687839927
 20
267.8165171403
  0
LWPOLYLINE
  5
1BB
330
1F
100
AcDbEntity
  8
0
  6
Continuous
 62
     7
370
    25
100
AcDbPolyline
 90
       28
 70
   128
 43
0.0
 10
345.4914598609
 20
267.3214292907
 10
345.4531194199
 20
267.3977114988
 10
345.37022461
 20
267.5242584134
 10
345.2659155114
 20
267.6454117527
 10
345.1412287948
 20
267.7599674405
 10
344.9974036529
 20
267.8667869708
 10
344.8358694843
 20
267.9648087233
 10
344.6582316884
 20
268.0530585136
 10
344.4662557094
 20
268.1306592757
 10
344.2618494907
 20
268.1968397784
 10
344.0470445132
 20
268.25094229
 10
343.8239756052
 20
268.2924291157
 10
343.5948597259
 20
268.3208879405
 10
343.3619739317
 20
268.336035928
 10
343.1276327463
 20
268.3377225306
 10
342.8941651576
 20
268.3259309861
 10
342.6638914715
 20
268.3007784842
 10
342.4391002514
 20
268.2625150018
 10
342.2220255732
 20
268.2115208184
 10
342.0148248228
 20
268.1483027374
 10
341.8195572543
 20
268.0734890482
 10
341.6381635244
 20
267.987823283
 10
341.4724464057
 20
267.8921568266
 10
341.3240528691
 20
267.7874404553
 10
341.1944577165
 20
267.6747148875
 10
341.0849489226
 20
267.5551004403
 10
340.996614835
 20
267.429785896
 10
340.9396070569
 20
267.3214292907
  0
LWPOLYLINE
  5
1BC
330
1F
100
AcDbEntity
  8
0
  6
Continuous
 62
     7
370
    25
100
AcDbPolyline
 90
       28
 70
   128
 43
0.0
 10
340.9497620681
 20
267.3095737315
 10
340.9583864976
 20
267.3274348201
 10
341.0353068926
 20
267.4573465591
 10
341.1345993624
 20
267.5820993636
 10
341.2552450321
 20
267.7004131008
 10
341.3960059137
 20
267.8110737119
 10
341.5554376101
 20
267.9129456691
 10
341.7319041364
 20
268.0049836284
 10
341.9235947072
 20
268.0862431557
 10
342.1285423179
 20
268.1558904183
 10
342.3446439286
 20
268.213210741
 10
342.5696820444
 20
268.2576159398
 10
342.8013474697
 20
268.2886503573
 10
343.0372630037
 20
268.3059955383
 10
343.2750078339
 20
268.3094734978
 10
343.5121423764
 20
268.2990485472
 10
343.7462333101
 20
268.2748276606
 10
343.9748785452
 20
268.2370593772
 10
344.1957318721
 20
268.1861312505
 10
344.4065270369
 20
268.1225658721
 10
344.6051009959
 20
268.0470155088
 10
344.7894161116
 20
267.9602554096
 10
344.9575810615
 20
267.8631758504
 10
345.1078702456
 20
267.756772999
 10
345.2387414935
 20
267.6421386925
 10
345.3488518891
 20
267.5204492341
 10
345.4370715509
 20
267.3929533223
 10
345.4813048496
 20
267.3095737315
  0
LINE
  5
1BD
330
1F
100
AcDbEntity
  8
0
  6
Continuous
 62
     7
370
    25
100
AcDbLine
 10
340.3089014446
 20
267.4667520876
 30
0.0
 11
340.3088667922
 21
267.4749455976
 31
0.0
  0
LINE
  5
1BE
330
1F
100
AcDbEntity
  8
0
  6
Continuous
 62
     7
370
    25
100
AcDbLine
 10
346.1222001255
 20
267.4749455976
 30
0.0
 11
346.1219412059
 21
267.4525492211
 31
0.0
  0
LINE
  5
1BF
330
1F
100
AcDbEntity
  8
0
  6
Continuous
 62
     7
370
    25
100
AcDbLine
 10
340.3089014446
 20
266.8073730544
 30
0.0
 11
340.3088667922
 21
266.8155665644
 31
0.0
  0
LINE
  5
1C0
330
1F
100
AcDbEntity
  8
0
  6
Continuous
 62
     7
370
    25
100
AcDbLine
 10
346.1222001255
 20
266.8155665644
 30
0.0
 11
346.1219412059
 21
266.7931701879
 31
0.0
  0
LWPOLYLINE
  5
1C1
330
1F
100
AcDbEntity
  8
0
  6
Continuous
 62
     7
370
    25
100
AcDbPolyline
 90
       67
 70
   128
 43
0.0
 10
345.05401109
 20
266.9024041086
 10
344.8709279116
 20
266.8063240132
 10
344.6728532247
 20
266.7207256078
 10
344.4615808243
 20
266.6463840848
 10
344.2390240261
 20
266.5839726925
 10
344.0071983388
 20
266.5340566383
 10
343.7682032117
 20
266.4970879695
 10
343.5242030218
 20
266.4734014802
 10
343.2774074725
 20
266.463211679
 10
343.0300515826
 20
266.4666108461
 10
342.7843754452
 20
266.4835681983
 10
342.5426039416
 20
266.5139301671
 10
342.3069265919
 20
266.5574217899
 10
342.0794777267
 20
266.6136491997
 10
341.8623171581
 20
266.6821031925
 10
341.6574115259
 20
266.7621638383
 10
341.4666164872
 20
266.8531060954
 10
341.2916599115
 20
266.9541063768
 10
341.1341262325
 20
267.0642500081
 10
340.9954420996
 20
267.1825395117
 10
340.8768634579
 20
267.3079036395
 10
340.7794641739
 20
267.4392070745
 10
340.7041263105
 20
267.5752607125
 10
340.6515321392
 20
267.7148324307
 10
340.6221579609
 20
267.8566582459
 10
340.6162697927
 20
267.9994537617
 10
340.6339209587
 20
268.1419257997
 10
340.6749516073
 20
268.2827841111
 10
340.7389901586
 20
268.4207530612
 10
340.8254566696
 20
268.5545831818
 10
340.933568086
 20
268.6830624867
 10
341.0623453342
 20
268.8050274473
 10
341.2106221875
 20
268.9193735301
 10
341.3770558278
 20
269.0250651993
 10
341.5601390062
 20
269.1211452947
 10
341.758213693
 20
269.2067437001
 10
341.9694860934
 20
269.2810852231
 10
342.1920428917
 20
269.3434966153
 10
342.423868579
 20
269.3934126696
 10
342.662863706
 20
269.4303813384
 10
342.906863896
 20
269.4540678276
 10
343.1536594453
 20
269.4642576289
 10
343.4010153352
 20
269.4608584617
 10
343.6466914725
 20
269.4439011095
 10
343.8884629761
 20
269.4135391407
 10
344.1241403258
 20
269.3700475179
 10
344.351589191
 20
269.3138201081
 10
344.5687497596
 20
269.2453661153
 10
344.7736553918
 20
269.1653054696
 10
344.9644504305
 20
269.0743632124
 10
345.1394070063
 20
268.9733629311
 10
345.2969406853
 20
268.8632192997
 10
345.4356248181
 20
268.7449297961
 10
345.5542034598
 20
268.6195656684
 10
345.6516027439
 20
268.4882622333
 10
345.7269406072
 20
268.3522085953
 10
345.7795347785
 20
268.2126368772
 10
345.8089089569
 20
268.0708110619
 10
345.8147971251
 20
267.9280155462
 10
345.797145959
 20
267.7855435082
 10
345.7561153104
 20
267.6446851968
 10
345.6920767591
 20
267.5067162467
 10
345.6056102482
 20
267.372886126
 10
345.4974988317
 20
267.2444068212
 10
345.3687215835
 20
267.1224418605
 10
345.2204447302
 20
267.0080957777
 10
345.05401109
 20
266.9024041086
  0
LWPOLYLINE
  5
1C2
330
1F
100
AcDbEntity
  8
0
  6
Continuous
 62
     7
370
    25
100
AcDbPolyline
 90
       66
 70
   128
 43
0.0
 10
341.4241962799
 20
268.9978515956
 10
341.605447871
 20
269.0928306407
 10
341.8017323974
 20
269.1772676207
 10
342.0112172035
 20
269.2503741705
 10
342.2319463859
 20
269.3114677137
 10
342.4618590558
 20
269.3599778365
 10
342.6988085805
 20
269.3954516129
 10
342.9405826262
 20
269.4175578338
 10
343.1849238138
 20
269.4260900994
 10
343.4295507953
 20
269.4209687462
 10
343.6721795547
 20
269.4022415909
 10
343.9105447325
 20
269.3700834839
 10
344.1424207772
 20
269.3247946768
 10
344.3656427249
 20
269.266798019
 10
344.5781264122
 20
269.1966350097
 10
344.7778879362
 20
269.1149607419
 10
344.9630621774
 20
269.0225377863
 10
345.1319202138
 20
268.9202290712
 10
345.2828854635
 20
268.8089898253
 10
345.4145484045
 20
268.6898586597
 10
345.5256797354
 20
268.5639478699
 10
345.615241853
 20
268.432433051
 10
345.6823985398
 20
268.2965421215
 10
345.7265227721
 20
268.1575438583
 10
345.7472025737
 20
268.0167360508
 10
345.7442448629
 20
267.8754333835
 10
345.717677255
 20
267.7349551614
 10
345.6677478047
 20
267.5966129918
 10
345.5949226898
 20
267.4616985382
 10
345.4998818587
 20
267.3314714606
 10
345.383512682
 20
267.207147654
 10
345.2469016675
 20
267.0898878964
 10
345.0913243154
 20
266.9807870106
 10
344.9182332094
 20
266.880863642
 10
344.7292444546
 20
266.7910507484
 10
344.5261225881
 20
266.7121868883
 10
344.310764104
 20
266.6450083926
 10
344.0851797465
 20
266.5901424887
 10
343.8514757359
 20
266.5481014447
 10
343.6118341036
 20
266.5192777865
 10
343.368492319
 20
266.503940633
 10
343.1237223987
 20
266.5022331829
 10
342.8798096935
 20
266.5141713782
 10
342.6390315507
 20
266.5396437553
 10
342.4036360509
 20
266.5784124854
 10
342.1758210184
 20
266.6301155954
 10
341.9577135008
 20
266.6942703472
 10
341.7513499093
 20
266.7702777451
 10
341.5586570051
 20
266.8574281287
 10
341.3814339099
 20
266.9549077982
 10
341.221335308
 20
267.0618066122
 10
341.0798559969
 20
267.1771264854
 10
340.9583169309
 20
267.2997907071
 10
340.8578528875
 20
267.4286539945
 10
340.7794018722
 20
267.5625131859
 10
340.7236963613
 20
267.7001184741
 10
340.6912564619
 20
267.8401850754
 10
340.6823850567
 20
267.9814052259
 10
340.6971649756
 20
268.1224603911
 10
340.7354582225
 20
268.2620335767
 10
340.7969072637
 20
268.3988216258
 10
340.880938366
 20
268.5315473849
 10
340.9867669537
 20
268.6589716296
 10
341.1134049337
 20
268.779904634
 10
341.2596699213
 20
268.8932172792
 10
341.4241962799
 20
268.9978515956
  0
LINE
  5
1C3
330
1F
100
AcDbEntity
  8
0
  6
Continuous
 62
     7
370
    25
100
AcDbLine
 10
345.8153820613
 20
267.7379812452
 30
0.0
 11
345.8155334589
 21
267.7541787152
 31
0.0
  0
LINE
  5
1C4
330
1F
100
AcDbEntity
  8
0
  6
Continuous
 62
     7
370
    25
100
AcDbLine
 10
340.6155334589
 20
267.7541787152
 30
0.0
 11
340.6156230989
 21
267.7417151799
 31
0.0
  0
LINE
  5
1C5
330
1F
100
AcDbEntity
  8
0
  6
Continuous
 62
     7
370
    25
100
AcDbLine
 10
340.7070333606
 20
264.7721076771
 30
0.0
 11
340.6985471062
 21
264.7934889463
 31
0.0
  0
LWPOLYLINE
  5
1C6
330
1F
100
AcDbEntity
  8
0
  6
Continuous
 62
     7
370
    25
100
AcDbPolyline
 90
       34
 70
   128
 43
0.0
 10
340.7155334589
 20
102.2571675294
 10
340.7244706329
 20
102.1352436033
 10
340.7564836915
 20
101.9970199835
 10
340.8114562352
 20
101.8612252913
 10
340.8888750002
 20
101.729127405
 10
340.9880171484
 20
101.6019596872
 10
341.1079570162
 20
101.4809094684
 10
341.2475747574
 20
101.367106962
 10
341.4055667987
 20
101.2616147113
 10
341.580458011
 20
101.165417669
 10
341.7706154823
 20
101.079414001
 10
341.9742637634
 20
101.0044067004
 10
342.1895014452
 20
100.9410960901
 10
342.4143189115
 20
100.8900732842
 10
342.6466171021
 20
100.851814669
 10
342.8842271115
 20
100.8266774547
 10
343.124930439
 20
100.8148963409
 10
343.3664797024
 20
100.8165813245
 10
343.6066196215
 20
100.8317166734
 10
343.8431080744
 20
100.8601610729
 10
344.0737370322
 20
100.9016489453
 10
344.2963531745
 20
100.9557929294
 10
344.5088779943
 20
101.0220874976
 10
344.7093272047
 20
101.0999136753
 10
344.8958292653
 20
101.1885448203
 10
345.0666428567
 20
101.2871534077
 10
345.2201731385
 20
101.3948187556
 10
345.3549866396
 20
101.5105356216
 10
345.4698246429
 20
101.6332235886
 10
345.5636149367
 20
101.7617371521
 10
345.6354818265
 20
101.8948764155
 10
345.6847543104
 20
102.0313982934
 10
345.7109723444
 20
102.1700281178
 10
345.7155334589
 20
102.2571675294
  0
LINE
  5
1C7
330
1F
100
AcDbEntity
  8
0
  6
Continuous
 62
     7
370
    25
100
AcDbLine
 10
340.7585786593
 20
101.9768316064
 30
0.0
 11
340.7641823253
 21
101.9593868168
 31
0.0
  0
LINE
  5
1C8
330
1F
100
AcDbEntity
  8
0
  6
Continuous
 62
     7
370
    25
100
AcDbLine
 10
345.6648935454
 20
101.9534616085
 30
0.0
 11
345.6724882584
 21
101.9768316064
 31
0.0
  0
LWPOLYLINE
  5
1C9
330
1F
100
AcDbEntity
  8
0
  6
Continuous
 62
     7
370
    25
100
AcDbPolyline
 90
       30
 70
   128
 43
0.0
 10
340.8478644203
 20
101.6890024614
 10
340.8773615134
 20
101.6079314902
 10
340.9451794217
 20
101.4751541793
 10
341.0355611285
 20
101.3469347942
 10
341.1476083796
 20
101.2245476367
 10
341.2802075993
 20
101.1092090455
 10
341.4320409568
 20
101.0020653072
 10
341.6015994641
 20
100.9041812645
 10
341.7871979725
 20
100.8165297329
 10
341.9869919207
 20
100.7399818327
 10
342.1989956666
 20
100.6752983315
 10
342.4211022218
 20
100.6231220828
 10
342.6511041916
 20
100.5839716376
 10
342.886715713
 20
100.5582360908
 10
343.1255951729
 20
100.5461712136
 10
343.3653684799
 20
100.5478969123
 10
343.6036526591
 20
100.5633960362
 10
343.8380795354
 20
100.5925145478
 10
344.066319269
 20
100.6349630545
 10
344.286103511
 20
100.6903196839
 10
344.4952479469
 20
100.7580342768
 10
344.6916740053
 20
100.8374338554
 10
344.8734295157
 20
100.9277293108
 10
345.0387081103
 20
101.0280232463
 10
345.1858671761
 20
101.1373188957
 10
345.3134441802
 20
101.2545300298
 10
345.420171205
 20
101.3784917515
 10
345.5049875494
 20
101.5079720737
 10
345.5670502705
 20
101.6416841627
 10
345.5832024974
 20
101.6890024614
  0
ARC
  5
1CA
330
1F
100
AcDbEntity
  8
0
  6
Continuous
 62
     8
370
    18
100
AcDbCircle
 10
343.2172561783
 20
264.5844093101
 30
0.0
 40
4.552344643423694
100
AcDbArc
 50
81.8002957021
 51
90.7841404215
  0
LWPOLYLINE
  5
1CB
330
1F
100
AcDbEntity
  8
0
  6
Continuous
 62
     8
370
    18
100
AcDbPolyline
 90
       21
 70
   128
 43
0.0
 10
341.1542950882
 20
268.5478341066
 10
341.1789109804
 20
268.5653061718
 10
341.3479770622
 20
268.6726695411
 10
341.5339560239
 20
268.7702693126
 10
341.7351636112
 20
268.8572216077
 10
341.9497776571
 20
268.932738973
 10
342.1758545836
 20
268.9961375114
 10
342.4113470029
 20
269.0468430761
 10
342.6541222593
 20
269.0843964696
 10
342.9019817425
 20
269.1084576024
 10
343.1526807986
 20
269.1188085734
 10
343.4039490581
 20
269.1153556424
 10
343.6535109968
 20
269.0981300798
 10
343.8991065431
 20
269.0672878829
 10
344.1385115456
 20
269.0231083634
 10
344.3695579157
 20
268.9659916179
 10
344.5901532616
 20
268.8964549045
 10
344.7982998377
 20
268.8151279585
 10
344.9921126363
 20
268.7227472892
 10
345.1698364589
 20
268.6201495103
 10
345.3294456113
 20
268.5085846342
  0
LWPOLYLINE
  5
1CC
330
1F
100
AcDbEntity
  8
0
  6
Continuous
 62
     8
370
    18
100
AcDbPolyline
 90
       31
 70
   128
 43
0.0
 10
345.7441605473
 20
267.873483079
 10
345.7047435463
 20
267.9715722029
 10
345.6300715564
 20
268.1064233314
 10
345.5335331355
 20
268.2365662416
 10
345.4160025505
 20
268.3608223391
 10
345.2785441768
 20
268.4780663414
 10
345.1224028585
 20
268.5872364688
 10
344.9489926356
 20
268.6873440596
 10
344.759883938
 20
268.777482524
 10
344.5567893634
 20
268.8568355541
 10
344.3415481675
 20
268.9246845166
 10
344.1161096081
 20
268.9804149607
 10
343.8825152916
 20
269.0235221829
 10
343.6428806844
 20
269.0536157976
 10
343.3993759545
 20
269.0704232724
 10
343.1542063184
 20
269.073792396
 10
342.9095920705
 20
269.0636926572
 10
342.6677484752
 20
269.0402155209
 10
342.4308657055
 20
269.0035735995
 10
342.2010890085
 20
268.9540987281
 10
341.9804992775
 20
268.8922389587
 10
341.7710942073
 20
268.8185545029
 10
341.5747702027
 20
268.7337126586
 10
341.3933052041
 20
268.6384817667
 10
341.2283425869
 20
268.5337242529
 10
341.0813762779
 20
268.4203888174
 10
340.9537372268
 20
268.2995018436
 10
340.8465813526
 20
268.1721581025
 10
340.7608790756
 20
268.0395108387
 10
340.6974065287
 20
267.9027613266
 10
340.6869994556
 20
267.8737563083
  0
LWPOLYLINE
  5
1CD
330
1F
100
AcDbEntity
  8
0
  6
Continuous
 62
     8
370
    18
100
AcDbPolyline
 90
       31
 70
   128
 43
0.0
 10
340.6949235286
 20
267.8173454203
 10
340.7400327427
 20
267.938467959
 10
340.8135494092
 20
268.0746635681
 10
340.9094927536
 20
268.2061272896
 10
341.0269669787
 20
268.3316316823
 10
341.1648752594
 20
268.4500049453
 10
341.3219299831
 20
268.5601418596
 10
341.4966647723
 20
268.6610141062
 10
341.6874481753
 20
268.7516798684
 10
341.8924988989
 20
268.8312926242
 10
342.1099024397
 20
268.8991090509
 10
342.3376289594
 20
268.9544959646
 10
342.5735522369
 20
268.9969362328
 10
342.8154695201
 20
269.0260336021
 10
343.0611220925
 20
269.0415163982
 10
343.3082163622
 20
269.0432400623
 10
343.5544452766
 20
269.0311885012
 10
343.7975098627
 20
269.0054742369
 10
344.0351406919
 20
268.9663373566
 10
344.2651190693
 20
268.914143271
 10
344.4852977485
 20
268.8493793019
 10
344.6936209807
 20
268.7726501333
 10
344.888143708
 20
268.6846721646
 10
345.067049724
 20
268.5862668225
 10
345.2286686316
 20
268.478352891
 10
345.3714914384
 20
268.3619379336
 10
345.4941846465
 20
268.2381088854
 10
345.5956027023
 20
268.1080219046
 10
345.674798693
 20
267.9728915786
 10
345.7310331867
 20
267.8339795826
 10
345.7361433891
 20
267.8173454203
  0
LWPOLYLINE
  5
1CE
330
1F
100
AcDbEntity
  8
0
  6
Continuous
 62
     8
370
    18
100
AcDbPolyline
 90
       30
 70
   128
 43
0.0
 10
340.7001413684
 20
267.7899907997
 10
340.7400327427
 20
267.8941403245
 10
340.8135494092
 20
268.0303359336
 10
340.9094927536
 20
268.1617996552
 10
341.0269669787
 20
268.2873040478
 10
341.1648752594
 20
268.4056773109
 10
341.3219299831
 20
268.5158142251
 10
341.4966647723
 20
268.6166864718
 10
341.6874481753
 20
268.7073522339
 10
341.8924988989
 20
268.7869649898
 10
342.1099024397
 20
268.8547814164
 10
342.3376289594
 20
268.9101683302
 10
342.5735522369
 20
268.9526085984
 10
342.8154695201
 20
268.9817059676
 10
343.0611220925
 20
268.9971887637
 10
343.3082163622
 20
268.9989124278
 10
343.5544452766
 20
268.9868608667
 10
343.7975098627
 20
268.9611466024
 10
344.0351406919
 20
268.9220097222
 10
344.2651190693
 20
268.8698156365
 10
344.4852977485
 20
268.8050516675
 10
344.6936209807
 20
268.7283224988
 10
344.888143708
 20
268.6403445301
 10
345.067049724
 20
268.541939188
 10
345.2286686316
 20
268.4340252566
 10
345.3714914384
 20
268.3176102992
 10
345.4941846465
 20
268.1937812509
 10
345.5956027023
 20
268.0636942702
 10
345.674798693
 20
267.9285639441
 10
345.7309255494
 20
267.7899907997
  0
LWPOLYLINE
  5
1CF
330
1F
100
AcDbEntity
  8
0
  6
Continuous
 62
     8
370
    18
100
AcDbPolyline
 90
       31
 70
   128
 43
0.0
 10
340.7016103043
 20
267.7830443831
 10
340.741762215
 20
267.8880300781
 10
340.8152275201
 20
268.0241305361
 10
340.9111038351
 20
268.1555024125
 10
341.0284959886
 20
268.2809191233
 10
341.1663079216
 20
268.3992096867
 10
341.3232529214
 20
268.5092696554
 10
341.4978656347
 20
268.6100714291
 10
341.6885157497
 20
268.700673849
 10
341.8934232176
 20
268.7802309845
 10
342.1106748726
 20
268.8480000322
 10
342.3382422945
 20
268.9033482507
 10
342.5740007477
 20
268.9457588686
 10
342.8157490189
 20
268.9748359095
 10
343.0612299697
 20
268.9903078887
 10
343.3081516107
 20
268.9920303486
 10
343.5542085009
 20
268.9799872071
 10
343.7971032735
 20
268.9542909077
 10
344.0345680854
 20
268.9151813699
 10
344.2643857917
 20
268.8630237489
 10
344.4844106463
 20
268.7983050262
 10
344.6925883366
 20
268.7216294633
 10
344.8869751634
 20
268.6337129591
 10
345.0657561894
 20
268.5353763664
 10
345.2272621842
 20
268.4275378275
 10
345.36998521
 20
268.3112042017
 10
345.4925927003
 20
268.1874616648
 10
345.5939399019
 20
268.0574655674
 10
345.6730805634
 20
267.9224296482
 10
345.7292757697
 20
267.783614701
 10
345.7294566134
 20
267.7830443831
  0
LWPOLYLINE
  5
1D0
330
1F
100
AcDbEntity
  8
0
  6
Continuous
 62
     8
370
    18
100
AcDbPolyline
 90
       31
 70
   128
 43
0.0
 10
340.7721499856
 20
267.5774886283
 10
340.7960584814
 20
267.6592498782
 10
340.8548809863
 20
267.7948158544
 10
340.936437865
 20
267.9264006254
 10
341.0399436801
 20
268.0527369579
 10
341.1644016141
 20
268.172608164
 10
341.308613069
 20
268.2848598185
 10
341.4711892097
 20
268.3884108766
 10
341.6505643391
 20
268.4822640849
 10
341.8450109766
 20
268.5655155858
 10
342.0526564949
 20
268.6373636217
 10
342.2715011539
 20
268.6971162569
 10
342.4994373602
 20
268.7441980408
 10
342.7342699633
 20
268.7781555501
 10
342.973737397
 20
268.7986617554
 10
343.2155334589
 20
268.8055191707
 10
343.4573295208
 20
268.7986617554
 10
343.6967969545
 20
268.7781555501
 10
343.9316295576
 20
268.7441980408
 10
344.1595657638
 20
268.6971162569
 10
344.3784104229
 20
268.6373636217
 10
344.5860559411
 20
268.5655155858
 10
344.7805025786
 20
268.4822640849
 10
344.959877708
 20
268.3884108766
 10
345.1224538487
 20
268.2848598185
 10
345.2666653036
 20
268.172608164
 10
345.3911232376
 20
268.0527369579
 10
345.4946290528
 20
267.9264006254
 10
345.5761859315
 20
267.7948158544
 10
345.6350084364
 20
267.6592498782
 10
345.6589169321
 20
267.5774886283
  0
LWPOLYLINE
  5
1D1
330
1F
100
AcDbEntity
  8
0
  6
Continuous
 62
     8
370
    18
100
AcDbPolyline
 90
       26
 70
   128
 43
0.0
 10
340.86639217
 20
267.7351233707
 10
340.9303847691
 20
267.8187867009
 10
341.0467947141
 20
267.9431540625
 10
341.1834535884
 20
268.0604549005
 10
341.3390854449
 20
268.1695940083
 10
341.512237191
 20
268.2695523836
 10
341.7012921553
 20
268.359396742
 10
341.9044851828
 20
268.4382882309
 10
342.1199191147
 20
268.5054902617
 10
342.3455825026
 20
268.5603753872
 10
342.5793683882
 20
268.6024311597
 10
342.8190939756
 20
268.6312649158
 10
343.0625210117
 20
268.6466074425
 10
343.3073766838
 20
268.6483154908
 10
343.5513748404
 20
268.636373113
 10
343.7922373365
 20
268.610891812
 10
344.0277153039
 20
268.5721094998
 10
344.2556101483
 20
268.5203882764
 10
344.4737940768
 20
268.4562110489
 10
344.680229965
 20
268.3801770228
 10
344.8729903765
 20
268.2929961073
 10
345.0502755594
 20
268.1954822871
 10
345.2104302496
 20
268.0885460225
 10
345.351959126
 20
267.9731857487
 10
345.4735407715
 20
267.8504785532
 10
345.5646747478
 20
267.7351233707
  0
LWPOLYLINE
  5
1D2
330
1F
100
AcDbEntity
  8
0
  6
Continuous
 62
     8
370
    18
100
AcDbPolyline
 90
       11
 70
   128
 43
0.0
 10
345.6392068104
 20
267.5394167004
 10
345.6108701552
 20
267.6408426359
 10
345.5526345024
 20
267.7750561163
 10
345.4718912891
 20
267.9053281107
 10
345.3694181163
 20
268.0304040285
 10
345.2462018569
 20
268.1490793203
 10
345.1034291508
 20
268.2602110781
 10
344.9424749771
 20
268.3627290423
 10
344.7648894125
 20
268.455645909
 10
344.5723827031
 20
268.5380668379
 10
344.3763251872
 20
268.6062459876
  0
LWPOLYLINE
  5
1D3
330
1F
100
AcDbEntity
  8
0
  6
Continuous
 62
     8
370
    18
100
AcDbPolyline
 90
        3
 70
   128
 43
0.0
 10
343.4018701766
 20
268.7715663844
 10
343.2155334589
 20
268.7756759885
 10
343.05481176
 20
268.7726197328
  0
LWPOLYLINE
  5
1D4
330
1F
100
AcDbEntity
  8
0
  6
Continuous
 62
     8
370
    18
100
AcDbPolyline
 90
       12
 70
   128
 43
0.0
 10
342.1348573868
 20
268.6301383804
 10
342.0642581239
 20
268.6091980704
 10
341.8586842146
 20
268.5380668379
 10
341.6661775052
 20
268.455645909
 10
341.4885919407
 20
268.3627290423
 10
341.327637767
 20
268.2602110781
 10
341.1848650608
 20
268.1490793203
 10
341.0616488014
 20
268.0304040285
 10
340.9591756287
 20
267.9053281107
 10
340.8784324153
 20
267.7750561163
 10
340.8201967626
 20
267.6408426359
 10
340.7918601074
 20
267.5394167004
  0
LWPOLYLINE
  5
1D5
330
1F
100
AcDbEntity
  8
0
  6
Continuous
 62
     8
370
    18
100
AcDbPolyline
 90
       28
 70
   128
 43
0.0
 10
340.8383621145
 20
267.6764963555
 10
340.8396991428
 20
267.6786132338
 10
340.9345979787
 20
267.8086457463
 10
341.0507932945
 20
267.9327838075
 10
341.187200206
 20
268.0498683737
 10
341.3425451185
 20
268.1588062579
 10
341.5153776186
 20
268.2585803365
 10
341.7040840157
 20
268.3482590456
 10
341.9069024089
 20
268.4270050795
 10
342.1219391377
 20
268.4940832075
 10
342.347186462
 20
268.5488671393
 10
342.5805413083
 20
268.5908453721
 10
342.8198249051
 20
268.6196259664
 10
343.0628031262
 20
268.6349402055
 10
343.3072073492
 20
268.6366451046
 10
343.5507556377
 20
268.6247247455
 10
343.7911740472
 20
268.5992904253
 10
344.0262178555
 20
268.5605796174
 10
344.2536925221
 20
268.5089537542
 10
344.4714741772
 20
268.4448948525
 10
344.6775294522
 20
268.3690010131
 10
344.8699344645
 20
268.2819808361
 10
345.0468927804
 20
268.1846468056
 10
345.2067521877
 20
268.0779077032
 10
345.3480201223
 20
267.9627601231
 10
345.4693776035
 20
267.8402791673
 10
345.5696915491
 20
267.7116084075
 10
345.585376578
 20
267.6879768481
  0
LWPOLYLINE
  5
1D6
330
1F
100
AcDbEntity
  8
0
  6
Continuous
 62
     8
370
    18
100
AcDbPolyline
 90
       27
 70
   128
 43
0.0
 10
345.5545499075
 20
267.7025967684
 10
345.4576112454
 20
267.8264273606
 10
345.3368873198
 20
267.9482688956
 10
345.1963568848
 20
268.0628153393
 10
345.0373320352
 20
268.1689972025
 10
344.8612975431
 20
268.2658230935
 10
344.6698969952
 20
268.3523889753
 10
344.4649174469
 20
268.4278866054
 10
344.2482727368
 20
268.4916110829
 10
344.0219856184
 20
268.5429674295
 10
343.7881688734
 20
268.5814761448
 10
343.5490055859
 20
268.6067776833
 10
343.3067287589
 20
268.6186358113
 10
343.063600466
 20
268.6169398128
 10
342.8218907306
 20
268.6017055227
 10
342.5838563312
 20
268.5730751796
 10
342.351719731
 20
268.5313160973
 10
342.1276483268
 20
268.476818169
 10
341.9137342129
 20
268.4100902272
 10
341.7119746479
 20
268.3317552928
 10
341.5242534064
 20
268.2425447579
 10
341.3523231911
 20
268.1432915573
 10
341.197789268
 20
268.0349223912
 10
341.0620944787
 20
267.9184490735
 10
340.946505769
 20
267.7949590842
 10
340.8521023595
 20
267.6656054159
 10
340.8009281894
 20
267.5758183386
  0
LWPOLYLINE
  5
1D7
330
1F
100
AcDbEntity
  8
0
  6
Continuous
 62
     8
370
    18
100
AcDbPolyline
 90
       28
 70
   128
 43
0.0
 10
340.7936385276
 20
267.5347501704
 10
340.8569773594
 20
267.6493260109
 10
340.9511860449
 20
267.7784128641
 10
341.0665363322
 20
267.9016481332
 10
341.2019512267
 20
268.0178812038
 10
341.3561663959
 20
268.126026839
 10
341.5277419744
 20
268.2250753122
 10
341.7150760072
 20
268.3141018344
 10
341.916419407
 20
268.392275189
 10
342.1298922847
 20
268.4588654924
 10
342.3535015015
 20
268.513251009
 10
342.5851592784
 20
268.5549239557
 10
342.8227026892
 20
268.5834952436
 10
343.063913855
 20
268.5986981102
 10
343.3065406523
 20
268.6003906105
 10
343.5483177399
 20
268.5885569419
 10
343.7869877103
 20
268.5633075924
 10
344.0203221664
 20
268.5248783082
 10
344.2461425271
 20
268.4736278933
 10
344.4623403687
 20
268.410034859
 10
344.66689711
 20
268.3346929562
 10
344.85790286
 20
268.2483056321
 10
345.0335742494
 20
268.1516794617
 10
345.1922710818
 20
268.0457166177
 10
345.3325116476
 20
267.9314064466
 10
345.4529865585
 20
267.8098162315
 10
345.5525709726
 20
267.6820812277
 10
345.5966422559
 20
267.6121451096
  0
LWPOLYLINE
  5
1D8
330
1F
100
AcDbEntity
  8
0
  6
Continuous
 62
     8
370
    18
100
AcDbPolyline
 90
       28
 70
   128
 43
0.0
 10
340.7945678939
 20
267.5330054746
 10
340.8531047231
 20
267.637578214
 10
340.9474680949
 20
267.7668770216
 10
341.0630077818
 20
267.8903146371
 10
341.198645021
 20
268.0067385569
 10
341.3531134042
 20
268.115061762
 10
341.5249707015
 20
268.214272868
 10
341.7126123279
 20
268.3034455675
 10
341.9142863239
 20
268.381747279
 10
342.1281097138
 20
268.4484469206
 10
342.3520860863
 20
268.5029217355
 10
342.5841242342
 20
268.5446631073
 10
342.8220576799
 20
268.5732813078
 10
343.0636649029
 20
268.5885091368
 10
343.3066900817
 20
268.5902044161
 10
343.5488641557
 20
268.5783513172
 10
343.7879260108
 20
268.5530605095
 10
344.0216435909
 20
268.5145681263
 10
344.2478347379
 20
268.4632335606
 10
344.4643875659
 20
268.3995361095
 10
344.6692801797
 20
268.324070499
 10
344.860599552
 20
268.237541331
 10
345.0365593854
 20
268.1407565051
 10
345.1955167904
 20
268.0346196752
 10
345.3359876245
 20
267.9201218122
 10
345.4566603494
 20
267.7983319518
 10
345.5564082763
 20
267.6703872132
 10
345.5995232287
 20
267.6021052835
  0
LWPOLYLINE
  5
1D9
330
1F
100
AcDbEntity
  8
0
  6
Continuous
 62
     8
370
    18
100
AcDbPolyline
 90
       28
 70
   128
 43
0.0
 10
340.7957853257
 20
267.5307316364
 10
340.8530903213
 20
267.6327897302
 10
340.9474542683
 20
267.762089326
 10
341.0629946596
 20
267.8855276941
 10
341.1986327257
 20
268.0019523236
 10
341.3531020505
 20
268.1102761891
 10
341.5249603955
 20
268.2094878999
 10
341.7126031658
 20
268.298661143
 10
341.9142783913
 20
268.3769633319
 10
342.1281030847
 20
268.44366338
 10
342.3520808225
 20
268.4981385271
 10
342.584120385
 20
268.5398801533
 10
342.8220552812
 20
268.5684985283
 10
343.0636639771
 20
268.5837264501
 10
343.3066906375
 20
268.5854217397
 10
343.5488661878
 20
268.5735685686
 10
343.7879295003
 20
268.5482776067
 10
344.0216485051
 20
268.5097849888
 10
344.247841031
 20
268.4584501102
 10
344.4643951792
 20
268.3947522708
 10
344.669289042
 20
268.3192862002
 10
344.8606095806
 20
268.2327565047
 10
345.0365704867
 20
268.1359710888
 10
345.1955288607
 20
268.0298336119
 10
345.3360005512
 20
267.9153350509
 10
345.4566740117
 20
267.7935444481
 10
345.5564225468
 20
267.6655989295
 10
345.6020398018
 20
267.5930006628
  0
LWPOLYLINE
  5
1DA
330
1F
100
AcDbEntity
  8
0
  6
Continuous
 62
     8
370
    18
100
AcDbPolyline
 90
       28
 70
   128
 43
0.0
 10
340.812061415
 20
267.501507801
 10
340.8642680107
 20
267.5933917034
 10
340.9581854831
 20
267.7220795297
 10
341.0731792053
 20
267.8449338601
 10
341.2081755119
 20
267.9608076369
 10
341.3619139789
 20
268.0686189777
 10
341.5329591915
 20
268.1673612771
 10
341.7197141467
 20
268.256112605
 10
341.9204351638
 20
268.334044314
 10
342.1332481647
 20
268.4004287768
 10
342.3561661718
 20
268.4546461795
 10
342.5871078597
 20
268.4961903089
 10
342.8239169881
 20
268.5246732787
 10
343.064382534
 20
268.5398291509
 10
343.3062593354
 20
268.5415164194
 10
343.5472890537
 20
268.5297193305
 10
343.7852212593
 20
268.5045480305
 10
344.0178344435
 20
268.4662375371
 10
344.2429567596
 20
268.4151455449
 10
344.4584863011
 20
268.3517490861
 10
344.6624107269
 20
268.2766400765
 10
344.8528260494
 20
268.1905197886
 10
345.0279544121
 20
268.0941923043
 10
345.1861606888
 20
267.9885570073
 10
345.3259677499
 20
267.8746001861
 10
345.4460702547
 20
267.7533858247
 10
345.5453468384
 20
267.6260456689
 10
345.6190055027
 20
267.501507801
  0
LWPOLYLINE
  5
1DB
330
1F
100
AcDbEntity
  8
0
  6
Continuous
 62
     8
370
    18
100
AcDbPolyline
 90
       29
 70
   128
 43
0.0
 10
345.6094459966
 20
267.4852608023
 10
345.5979590381
 20
267.5077817474
 10
345.5156499324
 20
267.6405801698
 10
345.4111894477
 20
267.7680817457
 10
345.2855835955
 20
267.889058565
 10
345.1400420289
 20
268.002345555
 10
344.9759663927
 20
268.1068516999
 10
344.7949368251
 20
268.2015705485
 10
344.5986967396
 20
268.2855899065
 10
344.3891360356
 20
268.3581006216
 10
344.1682728972
 20
268.4184043758
 10
343.9382343573
 20
268.4659204111
 10
343.7012358126
 20
268.5001911221
 10
343.4595596887
 20
268.5208864632
 10
343.2155334589
 20
268.5278071268
 10
342.971507229
 20
268.5208864632
 10
342.7298311052
 20
268.5001911221
 10
342.4928325605
 20
268.4659204111
 10
342.2627940205
 20
268.4184043758
 10
342.0419308821
 20
268.3581006216
 10
341.8323701782
 20
268.2855899065
 10
341.6361300927
 20
268.2015705485
 10
341.455100525
 20
268.1068516999
 10
341.2910248889
 20
268.002345555
 10
341.1454833223
 20
267.889058565
 10
341.0198774701
 20
267.7680817457
 10
340.9154169853
 20
267.6405801698
 10
340.8331078796
 20
267.5077817474
 10
340.8216209211
 20
267.4852608023
  0
LWPOLYLINE
  5
1DC
330
1F
100
AcDbEntity
  8
0
  6
Continuous
 62
     8
370
    18
100
AcDbPolyline
 90
       29
 70
   128
 43
0.0
 10
345.5942921687
 20
267.460703758
 10
345.5706906878
 20
267.5086283248
 10
345.4893236613
 20
267.6399067862
 10
345.3860587921
 20
267.7659490268
 10
345.2618905774
 20
267.8855411908
 10
345.1180148251
 20
267.9975315404
 10
344.9558171371
 20
268.1008415471
 10
344.7768595661
 20
268.1944762793
 10
344.5828655711
 20
268.2775339832
 10
344.3757034204
 20
268.3492147678
 10
344.1573681987
 20
268.4088283078
 10
343.9299625937
 20
268.4558004924
 10
343.6956766455
 20
268.4896789537
 10
343.456766656
 20
268.5101374236
 10
343.2155334589
 20
268.5169788759
 10
342.9743002618
 20
268.5101374236
 10
342.7353902723
 20
268.4896789537
 10
342.5011043241
 20
268.4558004924
 10
342.273698719
 20
268.4088283078
 10
342.0553634974
 20
268.3492147678
 10
341.8482013467
 20
268.2775339832
 10
341.6542073517
 20
268.1944762793
 10
341.4752497806
 20
268.1008415471
 10
341.3130520927
 20
267.9975315404
 10
341.1691763403
 20
267.8855411908
 10
341.0450081256
 20
267.7659490268
 10
340.9417432565
 20
267.6399067862
 10
340.8603762299
 20
267.5086283248
 10
340.836774749
 20
267.460703758
  0
LWPOLYLINE
  5
1DD
330
1F
100
AcDbEntity
  8
0
  6
Continuous
 62
     8
370
    18
100
AcDbPolyline
 90
       29
 70
   128
 43
0.0
 10
340.852023875
 20
267.4372937667
 10
340.8779734615
 20
267.4903958423
 10
340.958732531
 20
267.6206934192
 10
341.0612258271
 20
267.745793899
 10
341.1844662834
 20
267.864492496
 10
341.3272670269
 20
267.9756460775
 10
341.4882528084
 20
268.078184174
 10
341.6658732467
 20
268.1711192875
 10
341.8584177601
 20
268.253556402
 10
342.0640320394
 20
268.324701603
 10
342.280735907
 20
268.3838697234
 10
342.5064423859
 20
268.4304909419
 10
342.7389777996
 20
268.4641162706
 10
342.9761027047
 20
268.4844218792
 10
343.2155334589
 20
268.4912122136
 10
343.4549642131
 20
268.4844218792
 10
343.6920891182
 20
268.4641162706
 10
343.9246245318
 20
268.4304909419
 10
344.1503310108
 20
268.3838697234
 10
344.3670348783
 20
268.324701603
 10
344.5726491577
 20
268.253556402
 10
344.765193671
 20
268.1711192875
 10
344.9428141094
 20
268.078184174
 10
345.1037998908
 20
267.9756460775
 10
345.2466006343
 20
267.864492496
 10
345.3698410906
 20
267.745793899
 10
345.4723343867
 20
267.6206934192
 10
345.5530934563
 20
267.4903958423
 10
345.5790430428
 20
267.4372937667
  0
LWPOLYLINE
  5
1DE
330
1F
100
AcDbEntity
  8
0
  6
Continuous
 62
     8
370
    18
100
AcDbPolyline
 90
       29
 70
   128
 43
0.0
 10
340.8680045113
 20
267.4139804353
 10
340.8745366094
 20
267.4266237357
 10
340.9554144168
 20
267.5571128856
 10
341.0580584061
 20
267.6823972973
 10
341.1814800596
 20
267.8012704136
 10
341.3244907592
 20
267.9125874214
 10
341.4857132338
 20
268.0152762769
 10
341.6635948227
 20
268.1083480303
 10
341.8564224291
 20
268.1909063499
 10
342.0623390176
 20
268.2621561539
 10
342.2793614991
 20
268.3214112676
 10
342.5053998283
 20
268.368101032
 10
342.7382771325
 20
268.4017757991
 10
342.975750676
 20
268.4221112625
 10
343.2155334589
 20
268.4289115806
 10
343.4553162417
 20
268.4221112625
 10
343.6927897853
 20
268.4017757991
 10
343.9256670895
 20
268.368101032
 10
344.1517054187
 20
268.3214112676
 10
344.3687279001
 20
268.2621561539
 10
344.5746444887
 20
268.1909063499
 10
344.767472095
 20
268.1083480303
 10
344.945353684
 20
268.0152762769
 10
345.1065761585
 20
267.9125874214
 10
345.2495868582
 20
267.8012704136
 10
345.3730085116
 20
267.6823972973
 10
345.4756525009
 20
267.5571128856
 10
345.5565303083
 20
267.4266237357
 10
345.5630624065
 20
267.4139804353
  0
LWPOLYLINE
  5
1DF
330
1F
100
AcDbEntity
  8
0
  6
Continuous
 62
     8
370
    18
100
AcDbPolyline
 90
       28
 70
   128
 43
0.0
 10
340.9218455956
 20
267.3428419903
 10
340.975003742
 20
267.4425697666
 10
341.0641981569
 20
267.5691048082
 10
341.1747735085
 20
267.6898842367
 10
341.3056308493
 20
267.803707692
 10
341.4554696603
 20
267.9094439453
 10
341.6228007762
 20
268.0060421423
 10
341.8059611849
 20
268.0925422467
 10
342.0031305562
 20
268.1680845816
 10
342.2123493323
 20
268.2319183734
 10
342.4315382029
 20
268.2834092131
 10
342.6585187706
 20
268.3220453616
 10
342.8910352005
 20
268.3474428355
 10
343.1267766399
 20
268.3593492234
 10
343.3634001844
 20
268.3576461942
 10
343.598554163
 20
268.3423506733
 10
343.8299015097
 20
268.3136146746
 10
344.0551429907
 20
268.2717237892
 10
344.272040055
 20
268.2170943477
 10
344.4784370821
 20
268.150269282
 10
344.6722828056
 20
268.0719127295
 10
344.8516506996
 20
267.982803433
 10
345.0147581254
 20
267.8838270005
 10
345.1599840482
 20
267.7759671045
 10
345.2858851474
 20
267.660295705
 10
345.3912101614
 20
267.5379623963
 10
345.4749123228
 20
267.4101829817
 10
345.5092213222
 20
267.3428419903
  0
LWPOLYLINE
  5
1E0
330
1F
100
AcDbEntity
  8
0
  6
Continuous
 62
     8
370
    18
100
AcDbPolyline
 90
       31
 70
   128
 43
0.0
 10
345.1733720953
 20
266.499936388
 10
344.9843737418
 20
266.4004727375
 10
344.7802842666
 20
266.3115004525
 10
344.5628448893
 20
266.233778613
 10
344.3339107259
 20
266.1679703145
 10
344.0954349619
 20
266.1146370102
 10
343.8494521886
 20
266.0742337209
 10
343.5980610442
 20
266.0471051533
 10
343.3434063093
 20
266.0334827587
 10
343.0876606084
 20
266.0334827587
 10
342.8330058735
 20
266.0471051533
 10
342.5816147291
 20
266.0742337209
 10
342.3356319558
 20
266.1146370102
 10
342.0971561919
 20
266.1679703145
 10
341.8682220285
 20
266.233778613
 10
341.6507826511
 20
266.3115004525
 10
341.446693176
 20
266.4004727375
 10
341.2576948224
 20
266.499936388
 10
341.0854000578
 20
266.6090428151
 10
340.9312788403
 20
266.7268611613
 10
340.7966460778
 20
266.8523862419
 10
340.6826504096
 20
266.9845471213
 10
340.5902644065
 20
267.1222162495
 10
340.5202762732
 20
267.2642190819
 10
340.473283124
 20
267.4093441005
 10
340.4496858877
 20
267.5563531497
 10
340.4496858877
 20
267.7039920003
 10
340.473283124
 20
267.8510010496
 10
340.5202762732
 20
267.9961260682
 10
340.5902644065
 20
268.1381289006
 10
340.6631506556
 20
268.2496768752
  0
LWPOLYLINE
  5
1E1
330
1F
100
AcDbEntity
  8
0
  6
Continuous
 62
     8
370
    18
100
AcDbPolyline
 90
       14
 70
   128
 43
0.0
 10
345.7679162622
 20
268.2496768752
 10
345.8408025113
 20
268.1381289006
 10
345.9107906445
 20
267.9961260682
 10
345.9577837937
 20
267.8510010496
 10
345.98138103
 20
267.7039920003
 10
345.98138103
 20
267.5563531497
 10
345.9577837937
 20
267.4093441005
 10
345.9107906445
 20
267.2642190819
 10
345.8408025113
 20
267.1222162495
 10
345.7484165082
 20
266.9845471213
 10
345.6344208399
 20
266.8523862419
 10
345.4997880774
 20
266.7268611613
 10
345.3456668599
 20
266.6090428151
 10
345.1733720953
 20
266.499936388
  0
LWPOLYLINE
  5
1E2
330
1F
100
AcDbEntity
  8
0
  6
Continuous
 62
     8
370
    18
100
AcDbPolyline
 90
       28
 70
   128
 43
0.0
 10
345.2708571695
 20
266.2884324751
 10
345.0783452435
 20
266.1868508118
 10
344.8708350523
 20
266.0956401303
 10
344.649997346
 20
266.0155348054
 10
344.41761018
 20
265.9471797981
 10
344.175544599
 20
265.8911254627
 10
343.9257495727
 20
265.8478231158
 10
343.6702363039
 20
265.8176214024
 10
343.4110620352
 20
265.8007634888
 10
343.1503134853
 20
265.7973851053
 10
342.8900900483
 20
265.8075134524
 10
342.6324868903
 20
265.8310669827
 10
342.3795780805
 20
265.867856057
 10
342.1333998918
 20
265.9175844714
 10
341.8959344063
 20
265.9798518418
 10
341.6690935565
 20
266.0541568281
 10
341.4547037314
 20
266.1399011701
 10
341.254491072
 20
266.2363945049
 10
341.0700675728
 20
266.3428599248
 10
340.9029181035
 20
266.4584402329
 10
340.7543884531
 20
266.5822048445
 10
340.6256744952
 20
266.7131572797
 10
340.5178125589
 20
266.8502431865
 10
340.431671085
 20
266.9923588298
 10
340.3679436341
 20
267.138359978
 10
340.3271433021
 20
267.2870711157
 10
340.3095985893
 20
267.4372949083
 10
340.3089014446
 20
267.4667520876
  0
LWPOLYLINE
  5
1E3
330
1F
100
AcDbEntity
  8
0
  6
Continuous
 62
     8
370
    18
100
AcDbPolyline
 90
       10
 70
   128
 43
0.0
 10
346.1219412059
 20
267.4525492211
 10
346.1156161623
 20
267.3620693531
 10
346.0864142355
 20
267.2124512325
 10
346.0340976648
 20
267.0649465621
 10
345.9590876723
 20
266.920742963
 10
345.8619881945
 20
266.7810014775
 10
345.7435810192
 20
266.6468472221
 10
345.6048194915
 20
266.5193603279
 10
345.4468208375
 20
266.3995672444
 10
345.2708571695
 20
266.2884324751
  0
LWPOLYLINE
  5
1E4
330
1F
100
AcDbEntity
  8
0
  6
Continuous
 62
     8
370
    18
100
AcDbPolyline
 90
       28
 70
   128
 43
0.0
 10
345.2708571695
 20
265.6290534419
 10
345.0783452435
 20
265.5274717786
 10
344.8708350523
 20
265.4362610971
 10
344.649997346
 20
265.3561557722
 10
344.41761018
 20
265.2878007649
 10
344.175544599
 20
265.2317464296
 10
343.9257495727
 20
265.1884440826
 10
343.6702363039
 20
265.1582423692
 10
343.4110620352
 20
265.1413844557
 10
343.1503134853
 20
265.1380060721
 10
342.8900900483
 20
265.1481344192
 10
342.6324868903
 20
265.1716879495
 10
342.3795780805
 20
265.2084770239
 10
342.1333998918
 20
265.2582054382
 10
341.8959344063
 20
265.3204728087
 10
341.6690935565
 20
265.3947777949
 10
341.4547037314
 20
265.4805221369
 10
341.254491072
 20
265.5770154717
 10
341.0700675728
 20
265.6834808916
 10
340.9029181035
 20
265.7990611997
 10
340.7543884531
 20
265.9228258113
 10
340.6256744952
 20
266.0537782465
 10
340.5178125589
 20
266.1908641533
 10
340.431671085
 20
266.3329797966
 10
340.3679436341
 20
266.4789809448
 10
340.3271433021
 20
266.6276920825
 10
340.3095985893
 20
266.7779158751
 10
340.3089014446
 20
266.8073730544
  0
LWPOLYLINE
  5
1E5
330
1F
100
AcDbEntity
  8
0
  6
Continuous
 62
     8
370
    18
100
AcDbPolyline
 90
       10
 70
   128
 43
0.0
 10
346.1219412059
 20
266.7931701879
 10
346.1156161623
 20
266.7026903199
 10
346.0864142355
 20
266.5530721993
 10
346.0340976648
 20
266.405567529
 10
345.9590876723
 20
266.2613639298
 10
345.8619881945
 20
266.1216224443
 10
345.7435810192
 20
265.9874681889
 10
345.6048194915
 20
265.8599812947
 10
345.4468208375
 20
265.7401882112
 10
345.2708571695
 20
265.6290534419
  0
LWPOLYLINE
  5
1E6
330
1F
100
AcDbEntity
  8
0
  6
Continuous
 62
     8
370
    18
100
AcDbPolyline
 90
       10
 70
   128
 43
0.0
 10
345.05401109
 20
266.6928481698
 10
345.2204447302
 20
266.798539839
 10
345.3687215835
 20
266.9128859218
 10
345.4974988317
 20
267.0348508824
 10
345.6056102482
 20
267.1633301873
 10
345.6920767591
 20
267.2971603079
 10
345.7561153104
 20
267.435129258
 10
345.797145959
 20
267.5759875694
 10
345.8147971251
 20
267.7184596074
 10
345.8153820613
 20
267.7379812452
  0
LWPOLYLINE
  5
1E7
330
1F
100
AcDbEntity
  8
0
  6
Continuous
 62
     8
370
    18
100
AcDbPolyline
 90
       26
 70
   128
 43
0.0
 10
340.6156230989
 20
267.7417151799
 10
340.6221579609
 20
267.6471023072
 10
340.6515321392
 20
267.5052764919
 10
340.7041263105
 20
267.3657047738
 10
340.7794641739
 20
267.2296511358
 10
340.8768634579
 20
267.0983477008
 10
340.9954420996
 20
266.972983573
 10
341.1341262325
 20
266.8546940694
 10
341.2916599115
 20
266.744550438
 10
341.4666164872
 20
266.6435501567
 10
341.6574115259
 20
266.5526078995
 10
341.8623171581
 20
266.4725472538
 10
342.0794777267
 20
266.404093261
 10
342.3069265919
 20
266.3478658512
 10
342.5426039416
 20
266.3043742284
 10
342.7843754452
 20
266.2740122596
 10
343.0300515826
 20
266.2570549074
 10
343.2774074725
 20
266.2536557402
 10
343.5242030218
 20
266.2638455415
 10
343.7682032117
 20
266.2875320307
 10
344.0071983388
 20
266.3245006995
 10
344.2390240261
 20
266.3744167538
 10
344.4615808243
 20
266.436828146
 10
344.6728532247
 20
266.511169669
 10
344.8709279116
 20
266.5967680744
 10
345.05401109
 20
266.6928481698
  0
LWPOLYLINE
  5
1E8
330
1F
100
AcDbEntity
  8
0
  6
Continuous
 62
     8
370
    18
100
AcDbPolyline
 90
       30
 70
   128
 43
0.0
 10
345.1190011394
 20
266.5518455612
 10
344.9323937193
 20
266.4537761108
 10
344.7306984695
 20
266.3662252183
 10
344.5156878951
 20
266.2899622842
 10
344.2892515168
 20
266.22565751
 10
344.0533792656
 20
266.1738760082
 10
343.8101439953
 20
266.1350728366
 10
343.5616832662
 20
266.1095889988
 10
343.3101805602
 20
266.0976484478
 10
343.057846092
 20
266.0993561175
 10
342.8068973861
 20
266.1146970008
 10
342.5595397887
 20
266.1435362815
 10
342.3179470873
 20
266.185620519
 10
342.0842424071
 20
266.2405798755
 10
341.8604795534
 20
266.3079313662
 10
341.6486249622
 20
266.3870831037
 10
341.4505404191
 20
266.4773394998
 10
341.2679666984
 20
266.577907378
 10
341.1025082643
 20
266.6879029442
 10
340.9556191717
 20
266.8063595533
 10
340.8285902871
 20
266.9322362045
 10
340.7225379448
 20
267.0644266892
 10
340.6383941368
 20
267.2017693126
 10
340.5768983219
 20
267.3430571029
 10
340.5385909274
 20
267.4870484179
 10
340.5238086001
 20
267.6324778566
 10
340.5326812476
 20
267.7780673801
 10
340.5651308969
 20
267.9225375423
 10
340.6208723791
 20
268.0646187342
 10
340.6215886339
 20
268.0661121089
  0
LWPOLYLINE
  5
1E9
330
1F
100
AcDbEntity
  8
0
  6
Continuous
 62
     8
370
    18
100
AcDbPolyline
 90
       13
 70
   128
 43
0.0
 10
345.8094782839
 20
268.0661121089
 10
345.8262901933
 20
268.0293911485
 10
345.8762467057
 20
267.8865946471
 10
345.9028207744
 20
267.7417250428
 10
345.9057788655
 20
267.596055455
 10
345.8850949833
 20
267.4508660332
 10
345.8409508984
 20
267.3074327074
 10
345.7737345507
 20
267.1670159747
 10
345.6840366397
 20
267.0308498225
 10
345.5726454341
 20
266.9001308837
 10
345.4405398437
 20
266.7760079211
 10
345.2888808171
 20
266.6595717318
 10
345.1190011394
 20
266.5518455612
  0
LWPOLYLINE
  5
1EA
330
1F
100
AcDbEntity
  8
0
  6
Continuous
 62
     8
370
    18
100
AcDbPolyline
 90
       33
 70
   128
 43
0.0
 10
345.7423566365
 20
267.8589566846
 10
345.7398104559
 20
267.8777282937
 10
345.7073705565
 20
268.0177948951
 10
345.6516650455
 20
268.1554001832
 10
345.5732140303
 20
268.2892593746
 10
345.4727499868
 20
268.418122662
 10
345.3512109208
 20
268.5407868837
 10
345.2097316097
 20
268.6561067569
 10
345.0496330079
 20
268.7630055709
 10
344.8724099127
 20
268.8604852404
 10
344.6797170084
 20
268.947635624
 10
344.4733534169
 20
269.023643022
 10
344.2552458994
 20
269.0877977737
 10
344.0274308669
 20
269.1395008837
 10
343.792035367
 20
269.1782696138
 10
343.5512572242
 20
269.2037419909
 10
343.307344519
 20
269.2156801862
 10
343.0625745987
 20
269.2139727361
 10
342.8192328141
 20
269.1986355826
 10
342.5795911818
 20
269.1698119244
 10
342.3458871712
 20
269.1277708804
 10
342.1203028137
 20
269.0729049765
 10
341.9049443296
 20
269.0057264808
 10
341.7018224631
 20
268.9268626208
 10
341.5128337083
 20
268.8370497271
 10
341.3397426024
 20
268.7371263585
 10
341.1841652502
 20
268.6280254727
 10
341.0475542357
 20
268.5107657151
 10
340.9311850591
 20
268.3864419085
 10
340.836144228
 20
268.2562148309
 10
340.763319113
 20
268.1213003773
 10
340.7133896627
 20
267.9829582077
 10
340.6887102813
 20
267.8589566846
  0
LWPOLYLINE
  5
1EB
330
1F
100
AcDbEntity
  8
0
  6
Continuous
 62
     8
370
    18
100
AcDbPolyline
 90
       18
 70
   128
 43
0.0
 10
345.0422313314
 20
267.8059720134
 10
344.8636663045
 20
267.8950318969
 10
344.6608889581
 20
267.9788300243
 10
344.4454097757
 20
268.051298187
 10
344.2191223959
 20
268.111799532
 10
343.9840154404
 20
268.1598023716
 10
343.7421550377
 20
268.1948848548
 10
343.4956666656
 20
268.2167386758
 10
343.2467164729
 20
268.2251717821
 10
342.9974922426
 20
268.2201100636
 10
342.7501841664
 20
268.2015980026
 10
342.5069655966
 20
268.1697982838
 10
342.2699739466
 20
268.1249903644
 10
342.0412919075
 20
268.067568018
 10
341.8229291455
 20
267.9980358741
 10
341.6168046402
 20
267.9170049837
 10
341.4247298213
 20
267.8251874493
 10
341.3888355863
 20
267.8059720134
  0
LWPOLYLINE
  5
1EC
330
1F
100
AcDbEntity
  8
0
  6
Continuous
 62
     8
370
    18
100
AcDbPolyline
 90
       24
 70
   128
 43
0.0
 10
341.0132798741
 20
267.2408890772
 10
341.0589646527
 20
267.2863509604
 10
341.1948566618
 20
267.4029935614
 10
341.3496151858
 20
267.5115202321
 10
341.521795286
 20
267.6109176882
 10
341.7097893631
 20
267.7002578824
 10
341.9118421671
 20
267.7787066695
 10
342.1260671855
 20
267.8455315942
 10
342.3504642569
 20
267.9001087302
 10
342.5829382464
 20
267.9419285055
 10
342.821318607
 20
267.9706004602
 10
343.0633796454
 20
267.9858568919
 10
343.3068613029
 20
267.9875553554
 10
343.549490257
 20
267.9756799927
 10
343.7890011465
 20
267.9503416807
 10
344.0231577226
 20
267.9117769966
 10
344.2497737286
 20
267.8603460082
 10
344.4667333119
 20
267.7965289131
 10
344.6720107792
 20
267.720921554
 10
344.8636895103
 20
267.6342298567
 10
345.0399798523
 20
267.5372632381
 10
345.19923583
 20
267.4309270494
 10
345.3399705131
 20
267.3162141229
 10
345.4177870436
 20
267.2408890772
  0
ARC
  5
1ED
330
1F
100
AcDbEntity
  8
0
  6
Continuous
 62
     8
370
    18
100
AcDbCircle
 10
343.2166130043
 20
269.397816886
 30
0.0
 40
4.35796358376275
100
AcDbArc
 50
257.2438154629
 51
280.594846161
  0
LWPOLYLINE
  5
1EE
330
1F
100
AcDbEntity
  8
0
  6
Continuous
 62
     8
370
    18
100
AcDbPolyline
 90
       26
 70
   128
 43
0.0
 10
345.0445829995
 20
264.1070221886
 10
344.8624387093
 20
264.0114348116
 10
344.66537979
 20
263.9262753724
 10
344.4551908379
 20
263.852315088
 10
344.2337753565
 20
263.7902237542
 10
344.0031385189
 20
263.7405636797
 10
343.7653690078
 20
263.7037845938
 10
343.5226201009
 20
263.6802195737
 10
343.2770901699
 20
263.6700820278
 10
343.0310027717
 20
263.6734637634
 10
342.7865865119
 20
263.6903341548
 10
342.5460548622
 20
263.7205404212
 10
342.3115861143
 20
263.76380901
 10
342.0853036535
 20
263.8197480742
 10
341.8692567289
 20
263.8878510208
 10
341.6654018948
 20
263.9675010992
 10
341.4755852922
 20
264.0579769858
 10
341.3015259297
 20
264.1584593169
 10
341.1448001157
 20
264.2680381092
 10
341.0068271835
 20
264.3857209999
 10
340.8888566374
 20
264.5104422348
 10
340.7919568369
 20
264.6410723188
 10
340.7170053215
 20
264.7764282458
 10
340.6646808639
 20
264.9152842116
 10
340.6354573224
 20
265.056382715
 10
340.6288667922
 20
265.1629100132
  0
LWPOLYLINE
  5
1EF
330
1F
100
AcDbEntity
  8
0
  6
Continuous
 62
     8
370
    18
100
AcDbPolyline
 90
       10
 70
   128
 43
0.0
 10
345.8022001255
 20
265.1629100132
 10
345.8014675678
 20
265.1273740804
 10
345.7839069206
 20
264.9856326682
 10
345.7430866855
 20
264.8454967071
 10
345.6793765371
 20
264.7082352901
 10
345.5933534441
 20
264.5750914778
 10
345.4857964452
 20
264.4472710411
 10
345.3576795931
 20
264.3259315418
 10
345.2101631339
 20
264.2121718492
 10
345.0445829995
 20
264.1070221886
  0
LWPOLYLINE
  5
1F0
330
1F
100
AcDbEntity
  8
0
  6
Continuous
 62
     8
370
    18
100
AcDbPolyline
 90
       24
 70
   128
 43
0.0
 10
345.0384035589
 20
264.0628428179
 10
344.8568746428
 20
263.9675783827
 10
344.6604814867
 20
263.8827066545
 10
344.4510026576
 20
263.8089962448
 10
344.230335228
 20
263.7471146865
 10
344.0004775966
 20
263.6976223884
 10
343.7635113894
 20
263.6609675607
 10
343.5215826093
 20
263.6374821549
 10
343.2768822006
 20
263.6273788588
 10
343.0316262083
 20
263.6307491691
 10
342.7880357085
 20
263.6475625639
 10
342.5483166945
 20
263.6776667785
 10
342.3146400988
 20
263.7207891845
 10
342.089122133
 20
263.7765392586
 10
341.8738051225
 20
263.8444121196
 10
341.6706390116
 20
263.9237931003
 10
341.4814637041
 20
264.0139633142
 10
341.3079924008
 20
264.114106166
 10
341.1517960847
 20
264.2233147465
 10
341.0142892938
 20
264.3406000458
 10
340.896717311
 20
264.4648999102
 10
340.8001448863
 20
264.5950886607
 10
340.7254465945
 20
264.729987288
 10
340.7070333606
 20
264.7721076771
  0
ARC
  5
1F1
330
1F
100
AcDbEntity
  8
0
  6
Continuous
 62
     8
370
    18
100
AcDbCircle
 10
344.3407398516
 20
265.4204778358
 30
0.0
 40
1.526403449334583
100
AcDbArc
 50
297.1977993107
 51
335.8041871639
  0
ARC
  5
1F2
330
1F
100
AcDbEntity
  8
0
  6
Continuous
 62
     8
370
    18
100
AcDbCircle
 10
344.3113177939
 20
265.2175968398
 30
0.0
 40
1.481197970414011
100
AcDbArc
 50
297.1586786884
 51
335.7787223579
  0
LWPOLYLINE
  5
1F3
330
1F
100
AcDbEntity
  8
0
  6
Continuous
 62
     8
370
    18
100
AcDbPolyline
 90
       24
 70
   128
 43
0.0
 10
340.7689442364
 20
264.6099179906
 10
340.7754539568
 20
264.5934017241
 10
340.8418814466
 20
264.4589863179
 10
340.9304710857
 20
264.328899506
 10
341.0403957365
 20
264.2043558738
 10
341.1706290622
 20
264.0865182517
 10
341.3199551093
 20
263.9764868578
 10
341.4869796606
 20
263.8752890255
 10
341.6701432531
 20
263.7838696117
 10
341.8677357375
 20
263.703082175
 10
342.0779122461
 20
263.6336810058
 10
342.2987104174
 20
263.5763140841
 10
342.5280687185
 20
263.5315170295
 10
342.7638456926
 20
263.4997080999
 10
343.0038399537
 20
263.4811842868
 10
343.24581074
 20
263.4761185419
 10
343.4874988355
 20
263.4845581629
 10
343.7266476636
 20
263.5064243513
 10
343.961024356
 20
263.5415129483
 10
344.1884406008
 20
263.5894963411
 10
344.4067730737
 20
263.6499265218
 10
344.6139832633
 20
263.72223927
 10
344.8081365039
 20
263.8057594211
 10
344.987420039
 20
263.89970717
  0
LWPOLYLINE
  5
1F4
330
1F
100
AcDbEntity
  8
0
  6
Continuous
 62
     8
370
    18
100
AcDbPolyline
 90
       24
 70
   128
 43
0.0
 10
344.9833004118
 20
263.8702542562
 10
344.8044337101
 20
263.7765249354
 10
344.6107318748
 20
263.6931989682
 10
344.4040034478
 20
263.6210543467
 10
344.1861785967
 20
263.5607646659
 10
343.9592910935
 20
263.5128928342
 10
343.7254593257
 20
263.477885818
 10
343.4868665174
 20
263.4560704685
 10
343.2457403455
 20
263.4476504695
 10
343.00433214
 20
263.4527044365
 10
342.7648958643
 20
263.4711851819
 10
342.5296670705
 20
263.5029201559
 10
342.3008420263
 20
263.5476130576
 10
342.0805572095
 20
263.6048466015
 10
341.8708693602
 20
263.6740864133
 10
341.6737362773
 20
263.7546860197
 10
341.4909985393
 20
263.8458928838
 10
341.3243623191
 20
263.9468554316
 10
341.1753834543
 20
264.0566310031
 10
341.0454529205
 20
264.1741946534
 10
340.9357838439
 20
264.2984487223
 10
340.8474001752
 20
264.428233083
 10
340.781127129
 20
264.562335974
 10
340.7428789675
 20
264.6778870442
  0
LWPOLYLINE
  5
1F5
330
1F
100
AcDbEntity
  8
0
  6
Continuous
 62
     8
370
    18
100
AcDbPolyline
 90
        8
 70
   128
 43
0.0
 10
345.6881879502
 20
264.6778870442
 10
345.6629761263
 20
264.596390459
 10
345.6023356251
 20
264.4614022527
 10
345.5194101952
 20
264.3304228851
 10
345.414974089
 20
264.2046752752
 10
345.2900023982
 20
264.0853334946
 10
345.1456619499
 20
263.9735118052
 10
344.9833004118
 20
263.8702542562
  0
LWPOLYLINE
  5
1F6
330
1F
100
AcDbEntity
  8
0
  6
Continuous
 62
     8
370
    18
100
AcDbPolyline
 90
       31
 70
   128
 43
0.0
 10
340.7641823253
 20
101.9593868168
 10
340.7674547265
 20
101.9497169207
 10
340.8269726486
 20
101.8125482432
 10
340.909493717
 20
101.6794078377
 10
341.0142232088
 20
101.5515779194
 10
341.1401525216
 20
101.4302895601
 10
341.2860688873
 20
101.3167108331
 10
341.4505670517
 20
101.2119355635
 10
341.6320628074
 20
101.1169727946
 10
341.828808251
 20
101.0327370696
 10
342.0389086165
 20
100.9600396248
 10
342.2603405224
 20
100.8995805761
 10
342.4909714585
 20
100.8519421773
 10
342.7285803227
 20
100.8175832122
 10
342.9708788118
 20
100.7968345764
 10
343.2155334589
 20
100.7898960907
 10
343.460188106
 20
100.7968345764
 10
343.7024865951
 20
100.8175832122
 10
343.9400954593
 20
100.8519421773
 10
344.1707263953
 20
100.8995805761
 10
344.3921583012
 20
100.9600396248
 10
344.6022586667
 20
101.0327370696
 10
344.7990041104
 20
101.1169727946
 10
344.9804998661
 20
101.2119355635
 10
345.1449980304
 20
101.3167108331
 10
345.2909143962
 20
101.4302895601
 10
345.416843709
 20
101.5515779194
 10
345.5215732007
 20
101.6794078377
 10
345.6040942692
 20
101.8125482432
 10
345.6636121913
 20
101.9497169207
 10
345.6648935454
 20
101.9534616085
  0
MTEXT
  5
1F7
330
1F
100
AcDbEntity
  8
0
  6
Continuous
 62
     7
370
     0
100
AcDbMText
 10
343.1922704535
 20
275.6785712069
 30
0.0
 40
3.5
 41
0.0
 71
     2
 72
     1
  1
(1:15)
  7
SLDTEXTSTYLE0
 73
     1
 44
1.0
  0
CIRCLE
  5
1F8
330
1F
100
AcDbEntity
  8
0
  6
Continuous
 62
     7
370
    25
100
AcDbCircle
 10
146.3925921497
 20
70.2199662046
 30
0.0
 40
35.09390887643659
  0
CIRCLE
  5
1F9
330
1F
100
AcDbEntity
  8
0
  6
Continuous
 62
     7
370
    25
100
AcDbCircle
 10
146.3925921497
 20
70.2199662046
 30
0.0
 40
39.0
  0
CIRCLE
  5
1FA
330
1F
100
AcDbEntity
  8
0
  6
Continuous
 62
     7
370
    25
100
AcDbCircle
 10
146.3925921497
 20
70.2199662046
 30
0.0
 40
37.99999999999999
  0
CIRCLE
  5
1FB
330
1F
100
AcDbEntity
  8
0
  6
Continuous
 62
     7
370
    25
100
AcDbCircle
 10
146.3925921497
 20
70.2199662046
 30
0.0
 40
43.59999999999999
  0
CIRCLE
  5
1FC
330
1F
100
AcDbEntity
  8
0
  6
Continuous
 62
     7
370
    25
100
AcDbCircle
 10
146.3925921497
 20
70.2199662046
 30
0.0
 40
35.04938637064781
  0
CIRCLE
  5
1FD
330
1F
100
AcDbEntity
  8
0
  6
Continuous
 62
     8
370
    18
100
AcDbCircle
 10
146.3925921497
 20
70.2199662046
 30
0.0
 40
35.26259897774298
  0
CIRCLE
  5
1FE
330
1F
100
AcDbEntity
  8
0
  6
Continuous
 62
     8
370
    18
100
AcDbCircle
 10
146.3925921497
 20
70.2199662046
 30
0.0
 40
40.37864714073729
  0
CIRCLE
  5
1FF
330
1F
100
AcDbEntity
  8
0
  6
Continuous
 62
     8
370
    18
100
AcDbCircle
 10
146.3925921497
 20
70.2199662046
 30
0.0
 40
41.5320292888922
  0
INSERT
  5
20B
330
1F
100
AcDbEntity
  8
0
  6
Continuous
 62
     7
370
     0
100
AcDbBlockReference
  2
SW_CENTERMARKSYMBOL_0
 10
146.3925921497
 20
70.2199662046
 30
0.0
  0
LINE
  5
20C
330
1F
100
AcDbEntity
  8
0
  6
CENTER
 62
     7
370
    18
100
AcDbLine
 10
196.0775083056
 20
70.2199662046
 30
0.0
 11
96.9426578073
 21
70.2199662046
 31
0.0
  0
LINE
  5
20D
330
1F
100
AcDbEntity
  8
0
  6
Continuous
 62
     7
370
    18
100
AcDbLine
 10
194.0775083056
 20
62.6199662046
 30
0.0
 11
194.0775083056
 21
70.2199662046
 31
0.0
  0
SOLID
  5
20E
330
1F
100
AcDbEntity
  8
0
  6
Continuous
 62
     7
370
    18
100
AcDbTrace
 10
194.0775083056
 20
70.2199662046
 30
0.0
 11
193.2775083056
 21
65.2199662046
 31
0.0
 12
194.8775083056
 22
65.2199662046
 32
0.0
 13
194.8775083056
 23
65.2199662046
 33
0.0
  0
LINE
  5
20F
330
1F
100
AcDbEntity
  8
0
  6
Continuous
 62
     7
370
    18
100
AcDbLine
 10
98.9426578073
 20
62.6199662046
 30
0.0
 11
98.9426578073
 21
70.2199662046
 31
0.0
  0
SOLID
  5
210
330
1F
100
AcDbEntity
  8
0
  6
Continuous
 62
     7
370
    18
100
AcDbTrace
 10
98.9426578073
 20
70.2199662046
 30
0.0
 11
98.1426578073
 21
65.2199662046
 31
0.0
 12
99.7426578073
 22
65.2199662046
 32
0.0
 13
99.7426578073
 23
65.2199662046
 33
0.0
  0
MTEXT
  5
211
330
1F
100
AcDbEntity
  8
0
  6
Continuous
 62
     7
100
AcDbMText
 10
191.8363710295
 20
60.5600833924
 30
0.0
 40
5.0
 41
0.0
 71
     1
 72
     1
  1
A
  7
SLDTEXTSTYLE0
 73
     1
 44
1.0
  0
MTEXT
  5
212
330
1F
100
AcDbEntity
  8
0
  6
Continuous
 62
     7
100
AcDbMText
 10
96.5578086402
 20
60.7278242562
 30
0.0
 40
5.0
 41
0.0
 71
     1
 72
     1
  1
A
  7
SLDTEXTSTYLE0
 73
     1
 44
1.0
  0
INSERT
  5
216
330
1F
100
AcDbEntity
  8
0
  6
Continuous
 62
     7
100
AcDbBlockReference
  2
SW_BROKEN_VIEW_0
 10
0.0
 20
0.0
 30
0.0
  0
LINE
  5
217
330
1F
100
AcDbEntity
  8
0
  6
Continuous
 62
     7
370
    25
100
AcDbLine
 10
186.2695300159
 20
249.9433028054
 30
0.0
 11
106.5156542835
 21
249.9433028054
 31
0.0
  0
LINE
  5
218
330
1F
100
AcDbEntity
  8
0
  6
Continuous
 62
     7
370
    25
100
AcDbLine
 10
183.2558111427
 20
240.7750355553
 30
0.0
 11
109.5293731568
 21
240.7750355553
 31
0.0
  0
LINE
  5
219
330
1F
100
AcDbEntity
  8
0
  6
Continuous
 62
     7
370
    25
100
AcDbLine
 10
183.3095857081
 20
240.7685982537
 30
0.0
 11
183.7370143411
 21
240.665363009
 31
0.0
  0
ARC
  5
21A
330
1F
100
AcDbEntity
  8
0
  6
Continuous
 62
     7
370
    25
100
AcDbCircle
 10
183.7772787411
 20
240.8323709024
 30
0.0
 40
0.1717930685257927
100
AcDbArc
 50
256.4450788718
 51
345.2888202446
  0
LINE
  5
21B
330
1F
100
AcDbEntity
  8
0
  6
Continuous
 62
     7
370
    25
100
AcDbLine
 10
184.1219560382
 20
241.4691912484
 30
0.0
 11
183.9434401271
 21
240.7887446236
 31
0.0
  0
SPLINE
  5
21C
330
1F
100
AcDbEntity
  8
0
  6
Continuous
 62
     7
370
    25
100
AcDbSpline
210
0.0
220
0.0
230
1.0
 70
     8
 71
     3
 72
     9
 73
     5
 74
     0
 42
0.00000001
 43
0.00000001
 40
0.0
 40
0.0
 40
0.0
 40
0.0
 40
0.6509388448942541
 40
1.0
 40
1.0
 40
1.0
 40
1.0
 10
184.1217250702343
 20
241.5571677040898
 30
0.0
 10
184.1251313674575
 20
241.5379551993683
 30
0.0
 10
184.1303642664464
 20
241.5084401306761
 30
0.0
 10
184.1241316148117
 20
241.4793466517584
 30
0.0
 10
184.1219560382328
 20
241.4691912484013
 30
0.0
  0
LINE
  5
21D
330
1F
100
AcDbEntity
  8
0
  6
Continuous
 62
     7
370
    25
100
AcDbLine
 10
184.0598778007
 20
241.7879568887
 30
0.0
 11
184.1217250702
 21
241.5571677041
 31
0.0
  0
ARC
  5
21E
330
1F
100
AcDbEntity
  8
0
  6
Continuous
 62
     7
370
    25
100
AcDbCircle
 10
184.336315698
 20
241.8620207368
 30
0.0
 40
0.2861876389246458
100
AcDbArc
 50
133.9389178913
 51
194.9985567512
  0
LINE
  5
21F
330
1F
100
AcDbEntity
  8
0
  6
Continuous
 62
     7
370
    25
100
AcDbLine
 10
184.3358175037
 20
242.259072001
 30
0.0
 11
184.1377326426
 21
242.0680987191
 31
0.0
  0
ARC
  5
220
330
1F
100
AcDbEntity
  8
0
  6
Continuous
 62
     7
370
    25
100
AcDbCircle
 10
184.1772709433
 20
242.4238038768
 30
0.0
 40
0.2286342116189254
100
AcDbArc
 50
313.903888414
 51
0.0337236672
  0
LINE
  5
221
330
1F
100
AcDbEntity
  8
0
  6
Continuous
 62
     7
370
    25
100
AcDbLine
 10
184.4059051154
 20
244.5954548669
 30
0.0
 11
184.4059051154
 21
242.4239384484
 31
0.0
  0
ARC
  5
222
330
1F
100
AcDbEntity
  8
0
  6
Continuous
 62
     7
370
    25
100
AcDbCircle
 10
183.8334043516
 20
244.5954013078
 30
0.0
 40
0.5725007662373318
100
AcDbArc
 50
0.0053601873
 51
100.9874912569
  0
LINE
  5
223
330
1F
100
AcDbEntity
  8
0
  6
Continuous
 62
     7
370
    25
100
AcDbLine
 10
183.7242887495
 20
245.1574074578
 30
0.0
 11
183.1738249538
 21
245.0503575158
 31
0.0
  0
ARC
  5
224
330
1F
100
AcDbEntity
  8
0
  6
Continuous
 62
     7
370
    25
100
AcDbCircle
 10
183.1082786878
 20
245.387469651
 30
0.0
 40
0.3434252533896865
100
AcDbArc
 50
103.7668840445
 51
281.0029978264
  0
ARC
  5
225
330
1F
100
AcDbEntity
  8
0
  6
Continuous
 62
     7
370
    25
100
AcDbCircle
 10
182.8903757524
 20
246.2768499777
 30
0.0
 40
0.5722597660382129
100
AcDbArc
 50
283.7664130319
 51
332.0150890746
  0
LINE
  5
226
330
1F
100
AcDbEntity
  8
0
  6
Continuous
 62
     7
370
    25
100
AcDbLine
 10
184.7266414342
 20
248.5113608193
 30
0.0
 11
183.3957218704
 21
246.0083233666
 31
0.0
  0
ARC
  5
227
330
1F
100
AcDbEntity
  8
0
  6
Continuous
 62
     7
370
    25
100
AcDbCircle
 10
184.5245915497
 20
248.6188224326
 30
0.0
 40
0.2288496321630323
100
AcDbArc
 50
331.9934159888
 51
0.0163152202
  0
LINE
  5
228
330
1F
100
AcDbEntity
  8
0
  6
Continuous
 62
     7
370
    25
100
AcDbLine
 10
184.7534411726
 20
249.4332062554
 30
0.0
 11
184.7534411726
 21
248.6188875985
 31
0.0
  0
ARC
  5
229
330
1F
100
AcDbEntity
  8
0
  6
Continuous
 62
     7
370
    25
100
AcDbCircle
 10
185.1003853084
 20
249.4332214293
 30
0.0
 40
0.34694413613646
100
AcDbArc
 50
98.7024075534
 51
180.0025058738
  0
LINE
  5
22A
330
1F
100
AcDbEntity
  8
0
  6
Continuous
 62
     7
370
    25
100
AcDbLine
 10
186.0094451485
 20
249.9235140633
 30
0.0
 11
185.0478918431
 21
249.7761713815
 31
0.0
  0
ARC
  5
22B
330
1F
100
AcDbEntity
  8
0
  6
Continuous
 62
     7
370
    25
100
AcDbCircle
 10
186.2694100122
 20
248.2259114195
 30
0.0
 40
1.717392345019344
100
AcDbArc
 50
83.9966694399
 51
98.7064358868
  0
LINE
  5
22C
330
1F
100
AcDbEntity
  8
0
  6
Continuous
 62
     7
370
    25
100
AcDbLine
 10
186.4490256784
 20
249.9338852715
 30
0.0
 11
187.0497436402
 21
249.8708235574
 31
0.0
  0
ARC
  5
22D
330
1F
100
AcDbEntity
  8
0
  6
Continuous
 62
     7
370
    25
100
AcDbCircle
 10
186.9060771011
 20
248.5045538654
 30
0.0
 40
1.373802367703343
100
AcDbArc
 50
59.9977466097
 51
83.9972704518
  0
LINE
  5
22E
330
1F
100
AcDbEntity
  8
0
  6
Continuous
 62
     7
370
    25
100
AcDbLine
 10
187.5930250761
 20
249.6942745995
 30
0.0
 11
188.9925905642
 21
248.886274035
 31
0.0
  0
LINE
  5
22F
330
1F
100
AcDbEntity
  8
0
  6
Continuous
 62
     7
370
    25
100
AcDbLine
 10
188.9925905642
 20
248.886274035
 30
0.0
 11
188.9925905642
 21
248.2092844796
 31
0.0
  0
LINE
  5
230
330
1F
100
AcDbEntity
  8
0
  6
Continuous
 62
     7
370
    25
100
AcDbLine
 10
188.9925905642
 20
248.2092844796
 30
0.0
 11
188.8950438378
 21
248.1530176949
 31
0.0
  0
ARC
  5
231
330
1F
100
AcDbEntity
  8
0
  6
Continuous
 62
     7
370
    25
100
AcDbCircle
 10
189.0382314555
 20
247.9051068195
 30
0.0
 40
0.2862909290118594
100
AcDbArc
 50
120.0097417387
 51
179.9850376884
  0
LINE
  5
232
330
1F
100
AcDbEntity
  8
0
  6
Continuous
 62
     7
370
    25
100
AcDbLine
 10
188.7519405363
 20
247.905181582
 30
0.0
 11
188.7519405363
 21
245.9558712792
 31
0.0
  0
ARC
  5
233
330
1F
100
AcDbEntity
  8
0
  6
Continuous
 62
     7
370
    25
100
AcDbCircle
 10
189.0382314383
 20
245.9558268152
 30
0.0
 40
0.2862909054593738
100
AcDbArc
 50
179.9911013489
 51
239.9902595241
  0
LINE
  5
234
330
1F
100
AcDbEntity
  8
0
  6
Continuous
 62
     7
370
    25
100
AcDbLine
 10
188.8950438378
 20
245.707915957
 30
0.0
 11
188.9925905642
 21
245.6516491723
 31
0.0
  0
LINE
  5
235
330
1F
100
AcDbEntity
  8
0
  6
Continuous
 62
     7
370
    25
100
AcDbLine
 10
188.9925905642
 20
245.6516491723
 30
0.0
 11
188.9925905642
 21
244.9747788262
 31
0.0
  0
LINE
  5
236
330
1F
100
AcDbEntity
  8
0
  6
Continuous
 62
     7
370
    25
100
AcDbLine
 10
188.9925905642
 20
244.9747788262
 30
0.0
 11
188.8950438378
 21
244.9183928323
 31
0.0
  0
ARC
  5
237
330
1F
100
AcDbEntity
  8
0
  6
Continuous
 62
     7
370
    25
100
AcDbCircle
 10
189.0378463561
 20
244.6707043175
 30
0.0
 40
0.2859058578939528
100
AcDbArc
 50
119.9652006205
 51
180.0295788067
  0
LINE
  5
238
330
1F
100
AcDbEntity
  8
0
  6
Continuous
 62
     7
370
    25
100
AcDbLine
 10
188.7519405363
 20
244.6705567193
 30
0.0
 11
188.7519405363
 21
243.0918680978
 31
0.0
  0
ARC
  5
239
330
1F
100
AcDbEntity
  8
0
  6
Continuous
 62
     7
370
    25
100
AcDbCircle
 10
188.8664365025
 20
243.0918569968
 30
0.0
 40
0.1144959667858901
100
AcDbArc
 50
179.9944448942
 51
304.9851615045
  0
LINE
  5
23A
330
1F
100
AcDbEntity
  8
0
  6
Continuous
 62
     7
370
    25
100
AcDbLine
 10
188.9925905642
 20
243.0403696847
 30
0.0
 11
188.9320843992
 21
242.9980503869
 31
0.0
  0
LINE
  5
23B
330
1F
100
AcDbEntity
  8
0
  6
Continuous
 62
     7
370
    25
100
AcDbLine
 10
188.9925905642
 20
243.0403696847
 30
0.0
 11
188.9925905642
 21
241.9971691918
 31
0.0
  0
LINE
  5
23C
330
1F
100
AcDbEntity
  8
0
  6
Continuous
 62
     7
370
    25
100
AcDbLine
 10
188.9925905642
 20
241.9971691918
 30
0.0
 11
188.7787551758
 21
241.5385710549
 31
0.0
  0
ARC
  5
23D
330
1F
100
AcDbEntity
  8
0
  6
Continuous
 62
     7
370
    25
100
AcDbCircle
 10
189.0382813035
 20
241.4175866124
 30
0.0
 40
0.2863407869328601
100
AcDbArc
 50
155.006270747
 51
179.9787451776
  0
LINE
  5
23E
330
1F
100
AcDbEntity
  8
0
  6
Continuous
 62
     7
370
    25
100
AcDbLine
 10
188.7519405363
 20
241.4176928353
 30
0.0
 11
188.7519405363
 21
240.2762638879
 31
0.0
  0
ARC
  5
23F
330
1F
100
AcDbEntity
  8
0
  6
Continuous
 62
     7
370
    25
100
AcDbCircle
 10
189.0378463561
 20
240.2761162897
 30
0.0
 40
0.2859058578939386
100
AcDbArc
 50
179.9704211933
 51
240.0347993795
  0
LINE
  5
240
330
1F
100
AcDbEntity
  8
0
  6
Continuous
 62
     7
370
    25
100
AcDbLine
 10
188.8950438378
 20
240.0284277749
 30
0.0
 11
188.9925905642
 21
239.9720417809
 31
0.0
  0
LINE
  5
241
330
1F
100
AcDbEntity
  8
0
  6
Continuous
 62
     7
370
    25
100
AcDbLine
 10
188.9925905642
 20
239.9720417809
 30
0.0
 11
188.9925905642
 21
239.2951714349
 31
0.0
  0
LINE
  5
242
330
1F
100
AcDbEntity
  8
0
  6
Continuous
 62
     7
370
    25
100
AcDbLine
 10
188.9925905642
 20
239.2951714349
 30
0.0
 11
188.8950438378
 21
239.2387854409
 31
0.0
  0
ARC
  5
243
330
1F
100
AcDbEntity
  8
0
  6
Continuous
 62
     7
370
    25
100
AcDbCircle
 10
189.0378463561
 20
238.9910969261
 30
0.0
 40
0.2859058578939528
100
AcDbArc
 50
119.9652006205
 51
180.0295788067
  0
LINE
  5
244
330
1F
100
AcDbEntity
  8
0
  6
Continuous
 62
     7
370
    25
100
AcDbLine
 10
188.7519405363
 20
238.9909493279
 30
0.0
 11
188.7519405363
 21
237.7771603417
 31
0.0
  0
ARC
  5
245
330
1F
100
AcDbEntity
  8
0
  6
Continuous
 62
     7
370
    25
100
AcDbCircle
 10
189.0382314555
 20
237.7772351042
 30
0.0
 40
0.2862909290118389
100
AcDbArc
 50
180.0149623116
 51
239.9902582613
  0
LINE
  5
246
330
1F
100
AcDbEntity
  8
0
  6
Continuous
 62
     7
370
    25
100
AcDbLine
 10
188.8950438378
 20
237.5293242287
 30
0.0
 11
188.9925905642
 21
237.4730574441
 31
0.0
  0
LINE
  5
247
330
1F
100
AcDbEntity
  8
0
  6
Continuous
 62
     7
370
    25
100
AcDbLine
 10
188.9925905642
 20
237.4730574441
 30
0.0
 11
188.9925905642
 21
236.796187098
 31
0.0
  0
LINE
  5
248
330
1F
100
AcDbEntity
  8
0
  6
Continuous
 62
     7
370
    25
100
AcDbLine
 10
188.9925905642
 20
236.796187098
 30
0.0
 11
188.8950438378
 21
236.7398011041
 31
0.0
  0
ARC
  5
249
330
1F
100
AcDbEntity
  8
0
  6
Continuous
 62
     7
370
    25
100
AcDbCircle
 10
189.0381143427
 20
236.4919615874
 30
0.0
 40
0.2861705704625417
100
AcDbArc
 50
119.9965830042
 51
179.6890389028
  0
LINE
  5
24A
330
1F
100
AcDbEntity
  8
0
  6
Continuous
 62
     7
370
    25
100
AcDbLine
 10
188.7519479868
 20
236.4935147118
 30
0.0
 11
188.7451269803
 21
235.2556454491
 31
0.0
  0
ARC
  5
24B
330
1F
100
AcDbEntity
  8
0
  6
Continuous
 62
     7
370
    25
100
AcDbCircle
 10
189.0315154558
 20
235.2541080377
 30
0.0
 40
0.2863926021361662
100
AcDbArc
 50
179.6924235755
 51
239.9777458348
  0
LINE
  5
24C
330
1F
100
AcDbEntity
  8
0
  6
Continuous
 62
     7
370
    25
100
AcDbLine
 10
188.8882228312
 20
235.0061404061
 30
0.0
 11
188.9925905642
 21
234.9459397149
 31
0.0
  0
LINE
  5
24D
330
1F
100
AcDbEntity
  8
0
  6
Continuous
 62
     7
370
    25
100
AcDbLine
 10
188.9925905642
 20
234.9459397149
 30
0.0
 11
188.9925905642
 21
234.2769371819
 31
0.0
  0
LINE
  5
24E
330
1F
100
AcDbEntity
  8
0
  6
Continuous
 62
     7
370
    25
100
AcDbLine
 10
188.9925905642
 20
234.2769371819
 30
0.0
 11
188.0019427416
 21
233.7049710107
 31
0.0
  0
ARC
  5
24F
330
1F
100
AcDbEntity
  8
0
  6
Continuous
 62
     7
370
    25
100
AcDbCircle
 10
187.3120448492
 20
234.9002346234
 30
0.0
 40
1.380077608610025
100
AcDbArc
 50
291.019290015
 51
299.9932450615
  0
LINE
  5
250
330
1F
100
AcDbEntity
  8
0
  6
Continuous
 62
     7
370
    25
100
AcDbLine
 10
187.8070541797
 20
233.6119877648
 30
0.0
 11
187.1620387909
 21
233.364628489
 31
0.0
  0
ARC
  5
251
330
1F
100
AcDbEntity
  8
0
  6
Continuous
 62
     7
370
    25
100
AcDbCircle
 10
187.0389497054
 20
233.6851597727
 30
0.0
 40
0.3433529186935964
100
AcDbArc
 50
178.0463907779
 51
291.0075796454
  0
LINE
  5
252
330
1F
100
AcDbEntity
  8
0
  6
Continuous
 62
     7
370
    25
100
AcDbLine
 10
186.7822119174
 20
236.2525927377
 30
0.0
 11
186.6957963583
 21
233.696864779
 31
0.0
  0
SPLINE
  5
253
330
1F
100
AcDbEntity
  8
0
  6
Continuous
 62
     7
370
    25
100
AcDbSpline
210
0.0
220
0.0
230
1.0
 70
     8
 71
     3
 72
     9
 73
     5
 74
     0
 42
0.00000001
 43
0.00000001
 40
0.0
 40
0.0
 40
0.0
 40
0.0
 40
0.6051139748421752
 40
1.0
 40
1.0
 40
1.0
 40
1.0
 10
186.7593051073513
 20
236.3442646813237
 30
0.0
 10
186.7675599680195
 20
236.3265693711845
 30
0.0
 10
186.7812017958592
 20
236.2973264336969
 30
0.0
 10
186.7819259564853
 20
236.2652566479001
 30
0.0
 10
186.7822119173965
 20
236.2525927376591
 30
0.0
  0
LINE
  5
254
330
1F
100
AcDbEntity
  8
0
  6
Continuous
 62
     7
370
    25
100
AcDbLine
 10
186.6236374853
 20
236.579226191
 30
0.0
 11
186.7593051074
 21
236.3442646813
 31
0.0
  0
ARC
  5
255
330
1F
100
AcDbEntity
  8
0
  6
Continuous
 62
     7
370
    25
100
AcDbCircle
 10
186.7723677424
 20
236.665089648
 30
0.0
 40
0.1717359095280844
100
AcDbArc
 50
154.2565207537
 51
209.9982672867
  0
LINE
  5
256
330
1F
100
AcDbEntity
  8
0
  6
Continuous
 62
     7
370
    25
100
AcDbLine
 10
187.1421606419
 20
237.8272282433
 30
0.0
 11
186.6176770208
 21
236.7396818948
 31
0.0
  0
SPLINE
  5
257
330
1F
100
AcDbEntity
  8
0
  6
Continuous
 62
     7
370
    25
100
AcDbSpline
210
0.0
220
0.0
230
1.0
 70
     8
 71
     3
 72
    18
 73
    14
 74
     0
 42
0.00000001
 43
0.00000001
 40
0.0
 40
0.0
 40
0.0
 40
0.0
 40
0.0939309671660284
 40
0.1878570924042076
 40
0.2817976340011635
 40
0.3757307243973227
 40
0.469666997712136
 40
0.5636012169303177
 40
0.6575282233037072
 40
0.7514857285768819
 40
0.845422114173802
 40
0.9393320554647158
 40
1.0
 40
1.0
 40
1.0
 40
1.0
 10
185.6189937469921
 20
238.1753193688237
 30
0.0
 10
185.6278537135084
 20
238.2654274393899
 30
0.0
 10
185.6455731898299
 20
238.4456389356562
 30
0.0
 10
185.7837327091776
 20
238.6854667064628
 30
0.0
 10
185.9871282644326
 20
238.8678359460248
 30
0.0
 10
186.2411581802025
 20
238.9720474105292
 30
0.0
 10
186.5148922807392
 20
238.9865395815112
 30
0.0
 10
186.7781052511019
 20
238.9094767668737
 30
0.0
 10
187.0009380097501
 20
238.7497644725144
 30
0.0
 10
187.1585221185258
 20
238.5249859810825
 30
0.0
 10
187.2317897792018
 20
238.2615575346276
 30
0.0
 10
187.2195702972875
 20
238.018393766673
 30
0.0
 10
187.1639788795514
 20
237.881109051839
 30
0.0
 10
187.1421606419048
 20
237.8272282433354
 30
0.0
  0
LINE
  5
258
330
1F
100
AcDbEntity
  8
0
  6
Continuous
 62
     7
370
    25
100
AcDbLine
 10
185.618993747
 20
238.1753193688
 30
0.0
 11
185.618993747
 21
237.9124628854
 31
0.0
  0
ARC
  5
259
330
1F
100
AcDbEntity
  8
0
  6
Continuous
 62
     7
370
    25
100
AcDbCircle
 10
185.0466368211
 20
237.9124138871
 30
0.0
 40
0.572356927946713
100
AcDbArc
 50
266.5524709933
 51
0.004904974
  0
LINE
  5
25A
330
1F
100
AcDbEntity
  8
0
  6
Continuous
 62
     7
370
    25
100
AcDbLine
 10
182.70872246
 20
237.479613955
 30
0.0
 11
185.0122184632
 21
237.3410927605
 31
0.0
  0
ARC
  5
25B
330
1F
100
AcDbEntity
  8
0
  6
Continuous
 62
     7
370
    25
100
AcDbCircle
 10
182.7369409201
 20
237.9386227019
 30
0.0
 40
0.4598753213420548
100
AcDbArc
 50
235.0619425886
 51
266.4820574051
  0
LINE
  5
25C
330
1F
100
AcDbEntity
  8
0
  6
Continuous
 62
     7
370
    25
100
AcDbLine
 10
181.6085436521
 20
238.1673323464
 30
0.0
 11
182.4735746858
 21
237.5616299462
 31
0.0
  0
ARC
  5
25D
330
1F
100
AcDbEntity
  8
0
  6
Continuous
 62
     7
370
    25
100
AcDbCircle
 10
181.7727234615
 20
238.401786829
 30
0.0
 40
0.2862235388871162
100
AcDbArc
 50
114.2443622361
 51
234.9978661069
  0
LINE
  5
25E
330
1F
100
AcDbEntity
  8
0
  6
Continuous
 62
     7
370
    25
100
AcDbLine
 10
181.9986299751
 20
238.8173806023
 30
0.0
 11
181.6551917372
 21
238.6627661538
 31
0.0
  0
LINE
  5
25F
330
1F
100
AcDbEntity
  8
0
  6
Continuous
 62
     7
370
    25
100
AcDbLine
 10
183.0876217363
 20
239.3078076196
 30
0.0
 11
181.9986299751
 21
238.8173806023
 31
0.0
  0
SPLINE
  5
260
330
1F
100
AcDbEntity
  8
0
  6
Continuous
 62
     7
370
    25
100
AcDbSpline
210
0.0
220
0.0
230
1.0
 70
     8
 71
     3
 72
    12
 73
     8
 74
     0
 42
0.00000001
 43
0.00000001
 40
0.0
 40
0.0
 40
0.0
 40
0.0
 40
0.242079421178813
 40
0.4840647756770045
 40
0.726175349162428
 40
0.9681978829598841
 40
1.0
 40
1.0
 40
1.0
 40
1.0
 10
183.2476900098285
 20
239.63849418877
 30
0.0
 10
183.2524620387382
 20
239.6065022736551
 30
0.0
 10
183.2620042422532
 20
239.5425308747723
 30
0.0
 10
183.2350035504302
 20
239.4473520815351
 30
0.0
 10
183.1804151108676
 20
239.3666920802753
 30
0.0
 10
183.1243844553643
 20
239.3246819642876
 30
0.0
 10
183.0914470958986
 20
239.3095634863274
 30
0.0
 10
183.0876217362842
 20
239.3078076195561
 30
0.0
  0
LINE
  5
261
330
1F
100
AcDbEntity
  8
0
  6
Continuous
 62
     7
370
    25
100
AcDbLine
 10
183.033746588
 20
240.4903637719
 30
0.0
 11
183.2476900098
 21
239.6384941888
 31
0.0
  0
ARC
  5
262
330
1F
100
AcDbEntity
  8
0
  6
Continuous
 62
     7
370
    25
100
AcDbCircle
 10
183.2556894632
 20
240.5461810668
 30
0.0
 40
0.2288541244032963
100
AcDbArc
 50
76.3786190925
 51
194.1167781187
  0
LINE
  5
263
330
1F
100
AcDbEntity
  8
0
  6
Continuous
 62
     7
370
    25
100
AcDbLine
 10
109.5374942896
 20
239.6384941888
 30
0.0
 11
109.7514377115
 21
240.4903637719
 31
0.0
  0
SPLINE
  5
264
330
1F
100
AcDbEntity
  8
0
  6
Continuous
 62
     7
370
    25
100
AcDbSpline
210
0.0
220
0.0
230
1.0
 70
     8
 71
     3
 72
    12
 73
     8
 74
     0
 42
0.00000001
 43
0.00000001
 40
0.0
 40
0.0
 40
0.0
 40
0.0
 40
0.2418788697998625
 40
0.4839231599311992
 40
0.725894137853743
 40
0.9679861044592207
 40
1.0
 40
1.0
 40
1.0
 40
1.0
 10
109.6975625631771
 20
239.3078076195561
 30
0.0
 10
109.6695151989079
 20
239.3238727978767
 30
0.0
 10
109.61340128885
 20
239.3560141414516
 30
0.0
 10
109.5555717979794
 20
239.4362256840344
 30
0.0
 10
109.5260826867644
 20
239.5291064512916
 30
0.0
 10
109.5282176824154
 20
239.5990580801177
 30
0.0
 10
109.5365241453446
 20
239.6343699745328
 30
0.0
 10
109.5374942896328
 20
239.63849418877
 30
0.0
  0
LINE
  5
265
330
1F
100
AcDbEntity
  8
0
  6
Continuous
 62
     7
370
    25
100
AcDbLine
 10
110.7865543244
 20
238.8173806023
 30
0.0
 11
109.6975625632
 21
239.3078076196
 31
0.0
  0
LINE
  5
266
330
1F
100
AcDbEntity
  8
0
  6
Continuous
 62
     7
370
    25
100
AcDbLine
 10
111.1299925623
 20
238.6627661538
 30
0.0
 11
110.7865543244
 21
238.8173806023
 31
0.0
  0
ARC
  5
267
330
1F
100
AcDbEntity
  8
0
  6
Continuous
 62
     7
370
    25
100
AcDbCircle
 10
111.012460838
 20
238.401786829
 30
0.0
 40
0.2862235388871244
100
AcDbArc
 50
305.0021338931
 51
65.7556377639
  0
LINE
  5
268
330
1F
100
AcDbEntity
  8
0
  6
Continuous
 62
     7
370
    25
100
AcDbLine
 10
110.3116096137
 20
237.5616299462
 30
0.0
 11
111.1766406474
 21
238.1673323464
 31
0.0
  0
ARC
  5
269
330
1F
100
AcDbEntity
  8
0
  6
Continuous
 62
     7
370
    25
100
AcDbCircle
 10
110.0482433794
 20
237.9386227019
 30
0.0
 40
0.4598753213420482
100
AcDbArc
 50
273.5179425949
 51
304.9380574114
  0
LINE
  5
26A
330
1F
100
AcDbEntity
  8
0
  6
Continuous
 62
     7
370
    25
100
AcDbLine
 10
107.7729658363
 20
237.3410927605
 30
0.0
 11
110.0764618394
 21
237.479613955
 31
0.0
  0
ARC
  5
26B
330
1F
100
AcDbEntity
  8
0
  6
Continuous
 62
     7
370
    25
100
AcDbCircle
 10
107.7385474783
 20
237.9124138871
 30
0.0
 40
0.5723569279466856
100
AcDbArc
 50
179.995095026
 51
273.4475290067
  0
LINE
  5
26C
330
1F
100
AcDbEntity
  8
0
  6
Continuous
 62
     7
370
    25
100
AcDbLine
 10
107.1661905525
 20
237.9124628854
 30
0.0
 11
107.1661905525
 21
238.1753193688
 31
0.0
  0
SPLINE
  5
26D
330
1F
100
AcDbEntity
  8
0
  6
Continuous
 62
     7
370
    25
100
AcDbSpline
210
0.0
220
0.0
230
1.0
 70
     8
 71
     3
 72
    18
 73
    14
 74
     0
 42
0.00000001
 43
0.00000001
 40
0.0
 40
0.0
 40
0.0
 40
0.0
 40
0.0939429521505273
 40
0.1878574847624701
 40
0.2817878568266082
 40
0.3757305129107874
 40
0.4696655437857286
 40
0.56360332036619
 40
0.6575386738812885
 40
0.7514722476714948
 40
0.8454083205845355
 40
0.9393391420999285
 40
0.9999999999999999
 40
0.9999999999999999
 40
0.9999999999999999
 40
0.9999999999999999
 10
105.6430236575565
 20
237.8272282433354
 30
0.0
 10
105.6118604083569
 20
237.9122493120036
 30
0.0
 10
105.5495433374361
 20
238.0822657288419
 30
0.0
 10
105.5697806275844
 20
238.3582960530849
 30
0.0
 10
105.6738197740208
 20
238.6108675564536
 30
0.0
 10
105.8573022078721
 20
238.815135378844
 30
0.0
 10
106.097618563379
 20
238.9470222081591
 30
0.0
 10
106.3681766820613
 20
238.9919985207106
 30
0.0
 10
106.6382325784739
 20
238.9448497894777
 30
0.0
 10
106.8778482336397
 20
238.8109515942386
 30
0.0
 10
107.05824668155
 20
238.6054722048449
 30
0.0
 10
107.1528895981883
 20
238.3811402017747
 30
0.0
 10
107.1624421771533
 20
238.2333222544399
 30
0.0
 10
107.1661905524692
 20
238.1753193688237
 30
0.0
  0
LINE
  5
26E
330
1F
100
AcDbEntity
  8
0
  6
Continuous
 62
     7
370
    25
100
AcDbLine
 10
106.1675072787
 20
236.7396818948
 30
0.0
 11
105.6430236576
 21
237.8272282433
 31
0.0
  0
ARC
  5
26F
330
1F
100
AcDbEntity
  8
0
  6
Continuous
 62
     7
370
    25
100
AcDbCircle
 10
106.0128165571
 20
236.665089648
 30
0.0
 40
0.1717359095280588
100
AcDbArc
 50
330.0017327132
 51
25.7434792463
  0
LINE
  5
270
330
1F
100
AcDbEntity
  8
0
  6
Continuous
 62
     7
370
    25
100
AcDbLine
 10
106.0258791921
 20
236.3442646813
 30
0.0
 11
106.1615468142
 21
236.579226191
 31
0.0
  0
SPLINE
  5
271
330
1F
100
AcDbEntity
  8
0
  6
Continuous
 62
     7
370
    25
100
AcDbSpline
210
0.0
220
0.0
230
1.0
 70
     8
 71
     3
 72
     9
 73
     5
 74
     0
 42
0.00000001
 43
0.00000001
 40
0.0
 40
0.0
 40
0.0
 40
0.0
 40
0.6042286791918366
 40
1.0
 40
1.0
 40
1.0
 40
1.0
 10
106.0029723820648
 20
236.2525927376591
 30
0.0
 10
106.0040094196485
 20
236.2720617103608
 30
0.0
 10
106.0057257194856
 20
236.3042829096719
 30
0.0
 10
106.020164669709
 20
236.3329278395796
 30
0.0
 10
106.02587919211
 20
236.3442646813237
 30
0.0
  0
LINE
  5
272
330
1F
100
AcDbEntity
  8
0
  6
Continuous
 62
     7
370
    25
100
AcDbLine
 10
106.0893879411
 20
233.696864779
 30
0.0
 11
106.0029723821
 21
236.2525927377
 31
0.0
  0
ARC
  5
273
330
1F
100
AcDbEntity
  8
0
  6
Continuous
 62
     7
370
    25
100
AcDbCircle
 10
105.7462345941
 20
233.6851597727
 30
0.0
 40
0.3433529186935832
100
AcDbArc
 50
248.9924203546
 51
1.9536092221
  0
LINE
  5
274
330
1F
100
AcDbEntity
  8
0
  6
Continuous
 62
     7
370
    25
100
AcDbLine
 10
105.6231455085
 20
233.364628489
 30
0.0
 11
104.9781301198
 21
233.6119877648
 31
0.0
  0
ARC
  5
275
330
1F
100
AcDbEntity
  8
0
  6
Continuous
 62
     7
370
    25
100
AcDbCircle
 10
105.4731394502
 20
234.9002346234
 30
0.0
 40
1.380077608610025
100
AcDbArc
 50
240.0067549385
 51
248.980709985
  0
LINE
  5
276
330
1F
100
AcDbEntity
  8
0
  6
Continuous
 62
     7
370
    25
100
AcDbLine
 10
104.7832415578
 20
233.7049710107
 30
0.0
 11
103.7925937352
 21
234.2769371819
 31
0.0
  0
LINE
  5
277
330
1F
100
AcDbEntity
  8
0
  6
Continuous
 62
     7
370
    25
100
AcDbLine
 10
103.7925937352
 20
234.2769371819
 30
0.0
 11
103.7925937352
 21
234.9459397149
 31
0.0
  0
LINE
  5
278
330
1F
100
AcDbEntity
  8
0
  6
Continuous
 62
     7
370
    25
100
AcDbLine
 10
103.7925937352
 20
234.9459397149
 30
0.0
 11
103.8969614682
 21
235.0061404061
 31
0.0
  0
ARC
  5
279
330
1F
100
AcDbEntity
  8
0
  6
Continuous
 62
     7
370
    25
100
AcDbCircle
 10
103.7536688436
 20
235.2541080377
 30
0.0
 40
0.2863926021362029
100
AcDbArc
 50
300.0222541653
 51
0.3075764245
  0
LINE
  5
27A
330
1F
100
AcDbEntity
  8
0
  6
Continuous
 62
     7
370
    25
100
AcDbLine
 10
104.0400573192
 20
235.2556454491
 30
0.0
 11
104.0332363126
 21
236.4935147118
 31
0.0
  0
ARC
  5
27B
330
1F
100
AcDbEntity
  8
0
  6
Continuous
 62
     7
370
    25
100
AcDbCircle
 10
103.7470699568
 20
236.4919615874
 30
0.0
 40
0.2861705704625488
100
AcDbArc
 50
0.3109610972
 51
60.0034169958
  0
LINE
  5
27C
330
1F
100
AcDbEntity
  8
0
  6
Continuous
 62
     7
370
    25
100
AcDbLine
 10
103.8901404617
 20
236.7398011041
 30
0.0
 11
103.7925937352
 21
236.796187098
 31
0.0
  0
LINE
  5
27D
330
1F
100
AcDbEntity
  8
0
  6
Continuous
 62
     7
370
    25
100
AcDbLine
 10
103.7925937352
 20
236.796187098
 30
0.0
 11
103.7925937352
 21
237.4730574441
 31
0.0
  0
LINE
  5
27E
330
1F
100
AcDbEntity
  8
0
  6
Continuous
 62
     7
370
    25
100
AcDbLine
 10
103.7925937352
 20
237.4730574441
 30
0.0
 11
103.8901404617
 21
237.5293242287
 31
0.0
  0
ARC
  5
27F
330
1F
100
AcDbEntity
  8
0
  6
Continuous
 62
     7
370
    25
100
AcDbCircle
 10
103.746952844
 20
237.7772351042
 30
0.0
 40
0.286290929011831
100
AcDbArc
 50
300.0097417387
 51
359.9850376884
  0
LINE
  5
280
330
1F
100
AcDbEntity
  8
0
  6
Continuous
 62
     7
370
    25
100
AcDbLine
 10
104.0332437632
 20
237.7771603417
 30
0.0
 11
104.0332437632
 21
238.9909493279
 31
0.0
  0
ARC
  5
281
330
1F
100
AcDbEntity
  8
0
  6
Continuous
 62
     7
370
    25
100
AcDbCircle
 10
103.7473379434
 20
238.9910969261
 30
0.0
 40
0.2859058578938539
100
AcDbArc
 50
359.9704211933
 51
60.0347993795
  0
LINE
  5
282
330
1F
100
AcDbEntity
  8
0
  6
Continuous
 62
     7
370
    25
100
AcDbLine
 10
103.8901404617
 20
239.2387854409
 30
0.0
 11
103.7925937352
 21
239.2951714349
 31
0.0
  0
LINE
  5
283
330
1F
100
AcDbEntity
  8
0
  6
Continuous
 62
     7
370
    25
100
AcDbLine
 10
103.7925937352
 20
239.2951714349
 30
0.0
 11
103.7925937352
 21
239.9720417809
 31
0.0
  0
LINE
  5
284
330
1F
100
AcDbEntity
  8
0
  6
Continuous
 62
     7
370
    25
100
AcDbLine
 10
103.7925937352
 20
239.9720417809
 30
0.0
 11
103.8901404617
 21
240.0284277749
 31
0.0
  0
ARC
  5
285
330
1F
100
AcDbEntity
  8
0
  6
Continuous
 62
     7
370
    25
100
AcDbCircle
 10
103.7473379434
 20
240.2761162897
 30
0.0
 40
0.2859058578938998
100
AcDbArc
 50
299.9652006205
 51
0.0295788067
  0
LINE
  5
286
330
1F
100
AcDbEntity
  8
0
  6
Continuous
 62
     7
370
    25
100
AcDbLine
 10
104.0332437632
 20
240.2762638879
 30
0.0
 11
104.0332437632
 21
241.4176928353
 31
0.0
  0
ARC
  5
287
330
1F
100
AcDbEntity
  8
0
  6
Continuous
 62
     7
370
    25
100
AcDbCircle
 10
103.746902996
 20
241.4175866124
 30
0.0
 40
0.2863407869328428
100
AcDbArc
 50
0.0212548224
 51
24.993729253
  0
LINE
  5
288
330
1F
100
AcDbEntity
  8
0
  6
Continuous
 62
     7
370
    25
100
AcDbLine
 10
104.0064291236
 20
241.5385710549
 30
0.0
 11
103.7925937352
 21
241.9971691918
 31
0.0
  0
LINE
  5
289
330
1F
100
AcDbEntity
  8
0
  6
Continuous
 62
     7
370
    25
100
AcDbLine
 10
103.7925937352
 20
241.9971691918
 30
0.0
 11
103.7925937352
 21
243.0403696847
 31
0.0
  0
LINE
  5
28A
330
1F
100
AcDbEntity
  8
0
  6
Continuous
 62
     7
370
    25
100
AcDbLine
 10
103.8530999002
 20
242.9980503869
 30
0.0
 11
103.7925937352
 21
243.0403696847
 31
0.0
  0
ARC
  5
28B
330
1F
100
AcDbEntity
  8
0
  6
Continuous
 62
     7
370
    25
100
AcDbCircle
 10
103.918747797
 20
243.0918569968
 30
0.0
 40
0.1144959667858901
100
AcDbArc
 50
235.0148384956
 51
0.0055551058
  0
LINE
  5
28C
330
1F
100
AcDbEntity
  8
0
  6
Continuous
 62
     7
370
    25
100
AcDbLine
 10
104.0332437632
 20
243.0918680978
 30
0.0
 11
104.0332437632
 21
244.6705567193
 31
0.0
  0
ARC
  5
28D
330
1F
100
AcDbEntity
  8
0
  6
Continuous
 62
     7
370
    25
100
AcDbCircle
 10
103.7473379434
 20
244.6707043175
 30
0.0
 40
0.2859058578938856
100
AcDbArc
 50
359.9704211933
 51
60.0347993795
  0
LINE
  5
28E
330
1F
100
AcDbEntity
  8
0
  6
Continuous
 62
     7
370
    25
100
AcDbLine
 10
103.8901404617
 20
244.9183928323
 30
0.0
 11
103.7925937352
 21
244.9747788262
 31
0.0
  0
LINE
  5
28F
330
1F
100
AcDbEntity
  8
0
  6
Continuous
 62
     7
370
    25
100
AcDbLine
 10
103.7925937352
 20
244.9747788262
 30
0.0
 11
103.7925937352
 21
245.6516491723
 31
0.0
  0
LINE
  5
290
330
1F
100
AcDbEntity
  8
0
  6
Continuous
 62
     7
370
    25
100
AcDbLine
 10
103.7925937352
 20
245.6516491723
 30
0.0
 11
103.8901404617
 21
245.707915957
 31
0.0
  0
ARC
  5
291
330
1F
100
AcDbEntity
  8
0
  6
Continuous
 62
     7
370
    25
100
AcDbCircle
 10
103.7469528612
 20
245.9558268152
 30
0.0
 40
0.2862909054593738
100
AcDbArc
 50
300.0097404759
 51
0.0088986511
  0
LINE
  5
292
330
1F
100
AcDbEntity
  8
0
  6
Continuous
 62
     7
370
    25
100
AcDbLine
 10
104.0332437632
 20
245.9558712792
 30
0.0
 11
104.0332437632
 21
247.905181582
 31
0.0
  0
ARC
  5
293
330
1F
100
AcDbEntity
  8
0
  6
Continuous
 62
     7
370
    25
100
AcDbCircle
 10
103.746952844
 20
247.9051068195
 30
0.0
 40
0.2862909290118389
100
AcDbArc
 50
0.0149623116
 51
59.9902582613
  0
LINE
  5
294
330
1F
100
AcDbEntity
  8
0
  6
Continuous
 62
     7
370
    25
100
AcDbLine
 10
103.8901404617
 20
248.1530176949
 30
0.0
 11
103.7925937352
 21
248.2092844796
 31
0.0
  0
LINE
  5
295
330
1F
100
AcDbEntity
  8
0
  6
Continuous
 62
     7
370
    25
100
AcDbLine
 10
103.7925937352
 20
248.2092844796
 30
0.0
 11
103.7925937352
 21
248.886274035
 31
0.0
  0
LINE
  5
296
330
1F
100
AcDbEntity
  8
0
  6
Continuous
 62
     7
370
    25
100
AcDbLine
 10
103.7925937352
 20
248.886274035
 30
0.0
 11
105.1921592233
 21
249.6942745995
 31
0.0
  0
ARC
  5
297
330
1F
100
AcDbEntity
  8
0
  6
Continuous
 62
     7
370
    25
100
AcDbCircle
 10
105.8791071983
 20
248.5045538654
 30
0.0
 40
1.373802367703368
100
AcDbArc
 50
96.0027295482
 51
120.0022533903
  0
LINE
  5
298
330
1F
100
AcDbEntity
  8
0
  6
Continuous
 62
     7
370
    25
100
AcDbLine
 10
105.7354406593
 20
249.8708235574
 30
0.0
 11
106.3361586211
 21
249.9338852715
 31
0.0
  0
ARC
  5
299
330
1F
100
AcDbEntity
  8
0
  6
Continuous
 62
     7
370
    25
100
AcDbCircle
 10
106.5157742872
 20
248.2259114195
 30
0.0
 40
1.717392345019259
100
AcDbArc
 50
81.2935641132
 51
96.0033305601
  0
LINE
  5
29A
330
1F
100
AcDbEntity
  8
0
  6
Continuous
 62
     7
370
    25
100
AcDbLine
 10
107.7372924564
 20
249.7761713815
 30
0.0
 11
106.775739151
 21
249.9235140633
 31
0.0
  0
ARC
  5
29B
330
1F
100
AcDbEntity
  8
0
  6
Continuous
 62
     7
370
    25
100
AcDbCircle
 10
107.6847989911
 20
249.4332214293
 30
0.0
 40
0.3469441361364946
100
AcDbArc
 50
359.9974941262
 51
81.2975924466
  0
LINE
  5
29C
330
1F
100
AcDbEntity
  8
0
  6
Continuous
 62
     7
370
    25
100
AcDbLine
 10
108.0317431269
 20
248.6188875985
 30
0.0
 11
108.0317431269
 21
249.4332062554
 31
0.0
  0
ARC
  5
29D
330
1F
100
AcDbEntity
  8
0
  6
Continuous
 62
     7
370
    25
100
AcDbCircle
 10
108.2605927498
 20
248.6188224326
 30
0.0
 40
0.2288496321629546
100
AcDbArc
 50
179.9836847798
 51
208.0065840112
  0
LINE
  5
29E
330
1F
100
AcDbEntity
  8
0
  6
Continuous
 62
     7
370
    25
100
AcDbLine
 10
109.389462429
 20
246.0083233666
 30
0.0
 11
108.0585428653
 21
248.5113608193
 31
0.0
  0
ARC
  5
29F
330
1F
100
AcDbEntity
  8
0
  6
Continuous
 62
     7
370
    25
100
AcDbCircle
 10
109.894808547
 20
246.2768499777
 30
0.0
 40
0.5722597660381951
100
AcDbArc
 50
207.9849109254
 51
256.2335869681
  0
ARC
  5
2A0
330
1F
100
AcDbEntity
  8
0
  6
Continuous
 62
     7
370
    25
100
AcDbCircle
 10
109.6769056117
 20
245.387469651
 30
0.0
 40
0.3434252533896892
100
AcDbArc
 50
258.9970021736
 51
76.2331159555
  0
LINE
  5
2A1
330
1F
100
AcDbEntity
  8
0
  6
Continuous
 62
     7
370
    25
100
AcDbLine
 10
109.6113593457
 20
245.0503575158
 30
0.0
 11
109.06089555
 21
245.1574074578
 31
0.0
  0
ARC
  5
2A2
330
1F
100
AcDbEntity
  8
0
  6
Continuous
 62
     7
370
    25
100
AcDbCircle
 10
108.9517799478
 20
244.5954013078
 30
0.0
 40
0.5725007662373431
100
AcDbArc
 50
79.0125087431
 51
179.9946398127
  0
LINE
  5
2A3
330
1F
100
AcDbEntity
  8
0
  6
Continuous
 62
     7
370
    25
100
AcDbLine
 10
108.3792791841
 20
242.4239384484
 30
0.0
 11
108.3792791841
 21
244.5954548669
 31
0.0
  0
ARC
  5
2A4
330
1F
100
AcDbEntity
  8
0
  6
Continuous
 62
     7
370
    25
100
AcDbCircle
 10
108.6079133561
 20
242.4238038768
 30
0.0
 40
0.2286342116189128
100
AcDbArc
 50
179.9662763328
 51
226.096111586
  0
LINE
  5
2A5
330
1F
100
AcDbEntity
  8
0
  6
Continuous
 62
     7
370
    25
100
AcDbLine
 10
108.6474516568
 20
242.0680987191
 30
0.0
 11
108.4493667958
 21
242.259072001
 31
0.0
  0
ARC
  5
2A6
330
1F
100
AcDbEntity
  8
0
  6
Continuous
 62
     7
370
    25
100
AcDbCircle
 10
108.4488686014
 20
241.8620207368
 30
0.0
 40
0.2861876389245813
100
AcDbArc
 50
345.0014432488
 51
46.0610821088
  0
LINE
  5
2A7
330
1F
100
AcDbEntity
  8
0
  6
Continuous
 62
     7
370
    25
100
AcDbLine
 10
108.6634592292
 20
241.5571677041
 30
0.0
 11
108.7253064988
 21
241.7879568887
 31
0.0
  0
SPLINE
  5
2A8
330
1F
100
AcDbEntity
  8
0
  6
Continuous
 62
     7
370
    25
100
AcDbSpline
210
0.0
220
0.0
230
1.0
 70
     8
 71
     3
 72
     9
 73
     5
 74
     0
 42
0.00000001
 43
0.00000001
 40
0.0
 40
0.0
 40
0.0
 40
0.0
 40
0.6493035740527631
 40
1.0
 40
1.0
 40
1.0
 40
1.0
 10
108.6632282612285
 20
241.4691912484013
 30
0.0
 10
108.6599345897627
 20
241.4883711984622
 30
0.0
 10
108.6548619679608
 20
241.5179104630333
 30
0.0
 10
108.6612270260901
 20
241.5469749073469
 30
0.0
 10
108.663459229227
 20
241.5571677040898
 30
0.0
  0
LINE
  5
2A9
330
1F
100
AcDbEntity
  8
0
  6
Continuous
 62
     7
370
    25
100
AcDbLine
 10
108.8417441723
 20
240.7887446236
 30
0.0
 11
108.6632282612
 21
241.4691912484
 31
0.0
  0
ARC
  5
2AA
330
1F
100
AcDbEntity
  8
0
  6
Continuous
 62
     7
370
    25
100
AcDbCircle
 10
109.0079055583
 20
240.8323709024
 30
0.0
 40
0.1717930685257898
100
AcDbArc
 50
194.7111797554
 51
283.5549211281
  0
LINE
  5
2AB
330
1F
100
AcDbEntity
  8
0
  6
Continuous
 62
     7
370
    25
100
AcDbLine
 10
109.0481699583
 20
240.665363009
 30
0.0
 11
109.4755985913
 21
240.7685982537
 31
0.0
  0
ARC
  5
2AC
330
1F
100
AcDbEntity
  8
0
  6
Continuous
 62
     7
370
    25
100
AcDbCircle
 10
109.5294948363
 20
240.5461810668
 30
0.0
 40
0.2288541244032884
100
AcDbArc
 50
345.8832218813
 51
103.6213809075
  0
LINE
  5
2AD
330
1F
100
AcDbEntity
  8
0
  6
Continuous
 62
     7
370
    25
100
AcDbLine
 10
108.4493667958
 20
242.259072001
 30
0.0
 11
184.3358175037
 21
242.259072001
 31
0.0
  0
LINE
  5
2AE
330
1F
100
AcDbEntity
  8
0
  6
Continuous
 62
     7
370
    25
100
AcDbLine
 10
185.0478918431
 20
249.7761713815
 30
0.0
 11
107.7372924564
 21
249.7761713815
 31
0.0
  0
LINE
  5
2AF
330
1F
100
AcDbEntity
  8
0
  6
Continuous
 62
     7
370
    25
100
AcDbLine
 10
186.7593051074
 20
236.3442646813
 30
0.0
 11
106.0258791921
 21
236.3442646813
 31
0.0
  0
LINE
  5
2B0
330
1F
100
AcDbEntity
  8
0
  6
Continuous
 62
     7
370
    25
100
AcDbLine
 10
103.7925937352
 20
243.0403696847
 30
0.0
 11
104.0210508881
 21
243.0403696847
 31
0.0
  0
LINE
  5
2B1
330
1F
100
AcDbEntity
  8
0
  6
Continuous
 62
     7
370
    25
100
AcDbLine
 10
188.7641334114
 20
243.0403696847
 30
0.0
 11
188.9925905642
 21
243.0403696847
 31
0.0
  0
LINE
  5
2B2
330
1F
100
AcDbEntity
  8
0
  6
Continuous
 62
     7
370
    25
100
AcDbLine
 10
110.0764618394
 20
237.479613955
 30
0.0
 11
182.70872246
 21
237.479613955
 31
0.0
  0
LINE
  5
2B3
330
1F
100
AcDbEntity
  8
0
  6
Continuous
 62
     7
370
    25
100
AcDbLine
 10
185.0122184632
 20
237.3410927605
 30
0.0
 11
107.7729658363
 21
237.3410927605
 31
0.0
  0
LINE
  5
2B4
330
1F
100
AcDbEntity
  8
0
  6
Continuous
 62
     7
370
    25
100
AcDbLine
 10
183.1738249538
 20
245.0503575158
 30
0.0
 11
109.742422509
 21
245.0503575158
 31
0.0
  0
LINE
  5
2B5
330
1F
100
AcDbEntity
  8
0
  6
Continuous
 62
     7
370
    25
100
AcDbLine
 10
109.6975625632
 20
239.3078076196
 30
0.0
 11
183.0876217363
 21
239.3078076196
 31
0.0
  0
LINE
  5
2B6
330
1F
100
AcDbEntity
  8
0
  6
Continuous
 62
     7
370
    25
100
AcDbLine
 10
183.0265530524
 20
245.7210289788
 30
0.0
 11
109.758631247
 21
245.7210289788
 31
0.0
  0
ARC
  5
2B7
330
1F
100
AcDbEntity
  8
0
  6
Continuous
 62
     7
370
    25
100
AcDbCircle
 10
187.39245657
 20
252.8558456677
 30
0.0
 40
1.999863618016862
100
AcDbArc
 50
179.9972006433
 51
251.9028590673
  0
ARC
  5
2B8
330
1F
100
AcDbEntity
  8
0
  6
Continuous
 62
     7
370
    25
100
AcDbCircle
 10
105.3927277294
 20
252.8558456677
 30
0.0
 40
1.999863618016871
100
AcDbArc
 50
288.0971409327
 51
0.0027993567
  0
LINE
  5
2B9
330
1F
100
AcDbEntity
  8
0
  6
Continuous
 62
     7
370
    25
100
AcDbLine
 10
183.8925936398
 20
200.2544867349
 30
0.0
 11
183.8925936398
 21
174.9445664239
 31
0.0
  0
LINE
  5
2BA
330
1F
100
AcDbEntity
  8
0
  6
Continuous
 62
     7
370
    25
100
AcDbLine
 10
108.8925906596
 20
175.752805407
 30
0.0
 11
108.8925906596
 21
200.2544867349
 31
0.0
  0
ARC
  5
2BB
330
1F
100
AcDbEntity
  8
0
  6
Continuous
 62
     7
370
    25
100
AcDbCircle
 10
186.9924264576
 20
247.7262486556
 30
0.0
 40
2.00016411014112
100
AcDbArc
 50
0.0034085917
 51
71.8965039591
  0
ARC
  5
2BC
330
1F
100
AcDbEntity
  8
0
  6
Continuous
 62
     7
370
    25
100
AcDbCircle
 10
105.7927578418
 20
247.7262486556
 30
0.0
 40
2.000164110141103
100
AcDbArc
 50
108.1034960409
 51
179.9965914083
  0
ARC
  5
2BD
330
1F
100
AcDbEntity
  8
0
  6
Continuous
 62
     7
370
    25
100
AcDbCircle
 10
186.9926484549
 20
247.7263467593
 30
0.0
 40
2.999944135981982
100
AcDbArc
 50
0.000398946
 51
71.9007991461
  0
ARC
  5
2BE
330
1F
100
AcDbEntity
  8
0
  6
Continuous
 62
     7
370
    25
100
AcDbCircle
 10
105.7925358446
 20
247.7263467593
 30
0.0
 40
2.999944135981954
100
AcDbArc
 50
108.0992008539
 51
179.999601054
  0
ARC
  5
2BF
330
1F
100
AcDbEntity
  8
0
  6
Continuous
 62
     7
370
    25
100
AcDbCircle
 10
187.3925350662
 20
252.8558450595
 30
0.0
 40
2.999944140020218
100
AcDbArc
 50
179.9981222394
 51
251.900799121
  0
ARC
  5
2C0
330
1F
100
AcDbEntity
  8
0
  6
Continuous
 62
     7
370
    25
100
AcDbCircle
 10
105.3926492332
 20
252.8558450595
 30
0.0
 40
2.999944140020214
100
AcDbArc
 50
288.099200879
 51
0.0018777606
  0
ARC
  5
2C1
330
1F
100
AcDbEntity
  8
0
  6
Continuous
 62
     7
370
    25
100
AcDbCircle
 10
185.8926889752
 20
200.2544997325
 30
0.0
 40
3.000097361917444
100
AcDbArc
 50
163.0002920725
 51
180.0002482281
  0
ARC
  5
2C2
330
1F
100
AcDbEntity
  8
0
  6
Continuous
 62
     7
370
    25
100
AcDbCircle
 10
106.8924953243
 20
200.2544997325
 30
0.0
 40
3.000097361917402
100
AcDbArc
 50
359.9997517719
 51
16.9997079275
  0
ARC
  5
2C3
330
1F
100
AcDbEntity
  8
0
  6
Continuous
 62
     7
370
    25
100
AcDbCircle
 10
186.9926423612
 20
235.6134129077
 30
0.0
 40
1.999948203164528
100
AcDbArc
 50
287.3989780878
 51
359.9994161229
  0
ARC
  5
2C4
330
1F
100
AcDbEntity
  8
0
  6
Continuous
 62
     7
370
    25
100
AcDbCircle
 10
105.7925419383
 20
235.6134129077
 30
0.0
 40
1.999948203164481
100
AcDbArc
 50
180.0005838771
 51
252.6010219122
  0
LINE
  5
2C5
330
1F
100
AcDbEntity
  8
0
  6
Continuous
 62
     7
370
    25
100
AcDbLine
 10
185.3925929544
 20
256.7054497552
 30
0.0
 11
185.3925929544
 21
252.855943377
 31
0.0
  0
LINE
  5
2C6
330
1F
100
AcDbEntity
  8
0
  6
Continuous
 62
     7
370
    25
100
AcDbLine
 10
107.3925913451
 20
252.855943377
 30
0.0
 11
107.3925913451
 21
256.7054497552
 31
0.0
  0
ARC
  5
2C7
330
1F
100
AcDbEntity
  8
0
  6
Continuous
 62
     7
370
    25
100
AcDbCircle
 10
187.1925414972
 20
230.4363511198
 30
0.0
 40
1.999948203164481
100
AcDbArc
 50
107.3989780878
 51
179.9994161229
  0
ARC
  5
2C8
330
1F
100
AcDbEntity
  8
0
  6
Continuous
 62
     7
370
    25
100
AcDbCircle
 10
105.5926428023
 20
230.4363511198
 30
0.0
 40
1.999948203164521
100
AcDbArc
 50
0.0005838771
 51
72.6010219122
  0
ARC
  5
2C9
330
1F
100
AcDbEntity
  8
0
  6
Continuous
 62
     7
370
    25
100
AcDbCircle
 10
187.1926634738
 20
230.436289252
 30
0.0
 40
3.00007220733435
100
AcDbArc
 50
107.401006541
 51
179.9984292081
  0
ARC
  5
2CA
330
1F
100
AcDbEntity
  8
0
  6
Continuous
 62
     7
370
    25
100
AcDbCircle
 10
105.5925208257
 20
230.436289252
 30
0.0
 40
3.000072207334327
100
AcDbArc
 50
0.0015707919
 51
72.598993459
  0
ARC
  5
2CB
330
1F
100
AcDbEntity
  8
0
  6
Continuous
 62
     7
370
    25
100
AcDbCircle
 10
186.9925203846
 20
235.6134747755
 30
0.0
 40
3.00007220733435
100
AcDbArc
 50
287.401006541
 51
359.9984292081
  0
ARC
  5
2CC
330
1F
100
AcDbEntity
  8
0
  6
Continuous
 62
     7
370
    25
100
AcDbCircle
 10
105.7926639149
 20
235.6134747755
 30
0.0
 40
3.000072207334362
100
AcDbArc
 50
180.0015707919
 51
252.598993459
  0
ARC
  5
2CD
330
1F
100
AcDbEntity
  8
0
  6
Continuous
 62
     7
370
    25
100
AcDbCircle
 10
182.1924959323
 20
205.2538729224
 30
0.0
 40
3.000097361917416
100
AcDbArc
 50
343.0002920725
 51
0.0002482281
  0
ARC
  5
2CE
330
1F
100
AcDbEntity
  8
0
  6
Continuous
 62
     7
370
    25
100
AcDbCircle
 10
110.5926883672
 20
205.2538729224
 30
0.0
 40
3.000097361917402
100
AcDbArc
 50
179.9997517719
 51
196.9997079275
  0
ARC
  5
2CF
330
1F
100
AcDbEntity
  8
0
  6
Continuous
 62
     7
370
    25
100
AcDbCircle
 10
185.8921272839
 20
200.2545431851
 30
0.0
 40
1.999533644892168
100
AcDbArc
 50
162.9982604518
 51
180.0016175566
  0
ARC
  5
2D0
330
1F
100
AcDbEntity
  8
0
  6
Continuous
 62
     7
370
    25
100
AcDbCircle
 10
106.8930570155
 20
200.2545431851
 30
0.0
 40
1.999533644892181
100
AcDbArc
 50
359.9983824434
 51
17.0017395482
  0
ARC
  5
2D1
330
1F
100
AcDbEntity
  8
0
  6
Continuous
 62
     7
370
    25
100
AcDbCircle
 10
182.1914709077
 20
205.2539473738
 30
0.0
 40
2.001120360821218
100
AcDbArc
 50
343.0050521097
 51
359.9982404638
  0
ARC
  5
2D2
330
1F
100
AcDbEntity
  8
0
  6
Continuous
 62
     7
370
    25
100
AcDbCircle
 10
110.5937133918
 20
205.2539473738
 30
0.0
 40
2.001120360821205
100
AcDbArc
 50
180.0017595363
 51
196.9949478903
  0
LINE
  5
2D3
330
1F
100
AcDbEntity
  8
0
  6
Continuous
 62
     7
370
    25
100
AcDbLine
 10
184.3925909278
 20
256.7054497552
 30
0.0
 11
184.3925909278
 21
252.855943377
 31
0.0
  0
LINE
  5
2D4
330
1F
100
AcDbEntity
  8
0
  6
Continuous
 62
     7
370
    25
100
AcDbLine
 10
184.3925909278
 20
256.7054497552
 30
0.0
 11
185.3925929544
 21
256.7054497552
 31
0.0
  0
LINE
  5
2D5
330
1F
100
AcDbEntity
  8
0
  6
Continuous
 62
     7
370
    25
100
AcDbLine
 10
186.7712409375
 20
250.9549128365
 30
0.0
 11
187.9246206162
 21
250.5778538537
 31
0.0
  0
LINE
  5
2D6
330
1F
100
AcDbEntity
  8
0
  6
Continuous
 62
     7
370
    25
100
AcDbLine
 10
189.9925925908
 20
247.7263676476
 30
0.0
 11
189.9925925908
 21
235.6133925271
 31
0.0
  0
LINE
  5
2D7
330
1F
100
AcDbEntity
  8
0
  6
Continuous
 62
     7
370
    25
100
AcDbLine
 10
187.8897146461
 20
232.7507006478
 30
0.0
 11
186.5945094404
 21
232.3447930169
 31
0.0
  0
LINE
  5
2D8
330
1F
100
AcDbEntity
  8
0
  6
Continuous
 62
     7
370
    25
100
AcDbLine
 10
185.1925932941
 20
230.4363715005
 30
0.0
 11
185.1925932941
 21
205.25388592
 31
0.0
  0
LINE
  5
2D9
330
1F
100
AcDbEntity
  8
0
  6
Continuous
 62
     7
370
    25
100
AcDbLine
 10
185.0615077791
 20
204.3767439675
 30
0.0
 11
183.9799814997
 21
200.8392083001
 31
0.0
  0
LINE
  5
2DA
330
1F
100
AcDbEntity
  8
0
  6
Continuous
 62
     7
370
    25
100
AcDbLine
 10
182.8925916133
 20
200.2544867349
 30
0.0
 11
182.8925916133
 21
174.5652424645
 31
0.0
  0
LINE
  5
2DB
330
1F
100
AcDbEntity
  8
0
  6
Continuous
 62
     7
370
    25
100
AcDbLine
 10
184.1052034078
 20
204.6690451455
 30
0.0
 11
183.0236771283
 21
201.1316286874
 31
0.0
  0
LINE
  5
2DC
330
1F
100
AcDbEntity
  8
0
  6
Continuous
 62
     7
370
    25
100
AcDbLine
 10
184.1925912676
 20
230.4363715005
 30
0.0
 11
184.1925912676
 21
205.25388592
 31
0.0
  0
LINE
  5
2DD
330
1F
100
AcDbEntity
  8
0
  6
Continuous
 62
     7
370
    25
100
AcDbLine
 10
187.590674418
 20
233.7049710107
 30
0.0
 11
186.2954692123
 21
233.2990633797
 31
0.0
  0
LINE
  5
2DE
330
1F
100
AcDbEntity
  8
0
  6
Continuous
 62
     7
370
    25
100
AcDbLine
 10
188.9925905642
 20
247.7263676476
 30
0.0
 11
188.9925905642
 21
235.6133925271
 31
0.0
  0
LINE
  5
2DF
330
1F
100
AcDbEntity
  8
0
  6
Continuous
 62
     7
370
    25
100
AcDbLine
 10
186.4605629024
 20
250.0043379617
 30
0.0
 11
187.6139463065
 21
249.6273981881
 31
0.0
  0
LINE
  5
2E0
330
1F
100
AcDbEntity
  8
0
  6
Continuous
 62
     7
370
    25
100
AcDbLine
 10
109.8925926862
 20
176.1321293664
 30
0.0
 11
109.8925926862
 21
200.2544867349
 31
0.0
  0
LINE
  5
2E1
330
1F
100
AcDbEntity
  8
0
  6
Continuous
 62
     7
370
    25
100
AcDbLine
 10
102.7925917087
 20
235.6133925271
 30
0.0
 11
102.7925917087
 21
247.7263676476
 31
0.0
  0
LINE
  5
2E2
330
1F
100
AcDbEntity
  8
0
  6
Continuous
 62
     7
370
    25
100
AcDbLine
 10
103.7925937352
 20
235.6133925271
 30
0.0
 11
103.7925937352
 21
247.7263676476
 31
0.0
  0
LINE
  5
2E3
330
1F
100
AcDbEntity
  8
0
  6
Continuous
 62
     7
370
    25
100
AcDbLine
 10
106.4897150872
 20
233.2990633797
 30
0.0
 11
105.1945098815
 21
233.7049710107
 31
0.0
  0
LINE
  5
2E4
330
1F
100
AcDbEntity
  8
0
  6
Continuous
 62
     7
370
    25
100
AcDbLine
 10
108.5925930319
 20
205.25388592
 30
0.0
 11
108.5925930319
 21
230.4363715005
 31
0.0
  0
LINE
  5
2E5
330
1F
100
AcDbEntity
  8
0
  6
Continuous
 62
     7
370
    25
100
AcDbLine
 10
109.7615071712
 20
201.1316286874
 30
0.0
 11
108.6799808917
 21
204.6690451455
 31
0.0
  0
LINE
  5
2E6
330
1F
100
AcDbEntity
  8
0
  6
Continuous
 62
     7
370
    25
100
AcDbLine
 10
108.8052027998
 20
200.8392083001
 30
0.0
 11
107.7236765203
 21
204.3767439675
 31
0.0
  0
LINE
  5
2E7
330
1F
100
AcDbEntity
  8
0
  6
Continuous
 62
     7
370
    25
100
AcDbLine
 10
107.5925910053
 20
205.25388592
 30
0.0
 11
107.5925910053
 21
230.4363715005
 31
0.0
  0
LINE
  5
2E8
330
1F
100
AcDbEntity
  8
0
  6
Continuous
 62
     7
370
    25
100
AcDbLine
 10
106.190674859
 20
232.3447930169
 30
0.0
 11
104.8954696534
 21
232.7507006478
 31
0.0
  0
LINE
  5
2E9
330
1F
100
AcDbEntity
  8
0
  6
Continuous
 62
     7
370
    25
100
AcDbLine
 10
104.8605636833
 20
250.5778538537
 30
0.0
 11
106.013943362
 21
250.9549128365
 31
0.0
  0
LINE
  5
2EA
330
1F
100
AcDbEntity
  8
0
  6
Continuous
 62
     7
370
    25
100
AcDbLine
 10
107.3925913451
 20
256.7054497552
 30
0.0
 11
108.3925933716
 21
256.7054497552
 31
0.0
  0
LINE
  5
2EB
330
1F
100
AcDbEntity
  8
0
  6
Continuous
 62
     7
370
    25
100
AcDbLine
 10
108.3925933716
 20
252.855943377
 30
0.0
 11
108.3925933716
 21
256.7054497552
 31
0.0
  0
LINE
  5
2EC
330
1F
100
AcDbEntity
  8
0
  6
Continuous
 62
     7
370
    25
100
AcDbLine
 10
105.171237993
 20
249.6273981881
 30
0.0
 11
106.324621397
 21
250.0043379617
 31
0.0
  0
LINE
  5
2ED
330
1F
100
AcDbEntity
  8
0
  6
Continuous
 62
     7
370
    25
100
AcDbLine
 10
108.3925933716
 20
256.7054497552
 30
0.0
 11
184.3925909278
 21
256.7054497552
 31
0.0
  0
LINE
  5
2EE
330
1F
100
AcDbEntity
  8
0
  6
Continuous
 62
     8
370
    18
100
AcDbLine
 10
186.6957963583
 20
233.696864779
 30
0.0
 11
106.0893879411
 21
233.696864779
 31
0.0
  0
LINE
  5
2EF
330
1F
100
AcDbEntity
  8
0
  6
Continuous
 62
     8
370
    18
100
AcDbLine
 10
188.9320843992
 20
242.9980503869
 30
0.0
 11
188.8007604656
 21
242.9980503869
 31
0.0
  0
LINE
  5
2F0
330
1F
100
AcDbEntity
  8
0
  6
Continuous
 62
     8
370
    18
100
AcDbLine
 10
103.9844238338
 20
242.9980503869
 30
0.0
 11
103.8530999002
 21
242.9980503869
 31
0.0
  0
LINE
  5
2F1
330
1F
100
AcDbEntity
  8
0
  6
Continuous
 62
     8
370
    18
100
AcDbLine
 10
187.1421606419
 20
237.8272282433
 30
0.0
 11
185.6126197753
 21
237.8272282433
 31
0.0
  0
LINE
  5
2F2
330
1F
100
AcDbEntity
  8
0
  6
Continuous
 62
     8
370
    18
100
AcDbLine
 10
107.1725645242
 20
237.8272282433
 30
0.0
 11
105.6430236576
 21
237.8272282433
 31
0.0
  0
LINE
  5
2F3
330
1F
100
AcDbEntity
  8
0
  6
Continuous
 62
     8
370
    18
100
AcDbLine
 10
106.775739151
 20
249.9235140633
 30
0.0
 11
186.0094451485
 21
249.9235140633
 31
0.0
  0
LINE
  5
2F4
330
1F
100
AcDbEntity
  8
0
  6
Continuous
 62
     8
370
    18
100
AcDbLine
 10
108.3792791841
 20
242.4239384484
 30
0.0
 11
184.4059051154
 21
242.4239384484
 31
0.0
  0
LINE
  5
2F5
330
1F
100
AcDbEntity
  8
0
  6
Continuous
 62
     8
370
    18
100
AcDbLine
 10
108.8417441723
 20
240.7887446236
 30
0.0
 11
183.9434401271
 21
240.7887446236
 31
0.0
  0
LINE
  5
2F6
330
1F
100
AcDbEntity
  8
0
  6
Continuous
 62
     8
370
    18
100
AcDbLine
 10
108.7253064988
 20
241.7879568887
 30
0.0
 11
184.0598778007
 21
241.7879568887
 31
0.0
  0
LINE
  5
2F7
330
1F
100
AcDbEntity
  8
0
  6
Continuous
 62
     8
370
    18
100
AcDbLine
 10
184.1377326426
 20
242.0680987191
 30
0.0
 11
108.6474516568
 21
242.0680987191
 31
0.0
  0
LINE
  5
2F8
330
1F
100
AcDbEntity
  8
0
  6
Continuous
 62
     8
370
    18
100
AcDbLine
 10
108.3792791841
 20
244.5954548669
 30
0.0
 11
184.4059051154
 21
244.5954548669
 31
0.0
  0
LINE
  5
2F9
330
1F
100
AcDbEntity
  8
0
  6
Continuous
 62
     8
370
    18
100
AcDbLine
 10
109.7514377115
 20
240.4903637719
 30
0.0
 11
183.033746588
 21
240.4903637719
 31
0.0
  0
LINE
  5
2FA
330
1F
100
AcDbEntity
  8
0
  6
Continuous
 62
     8
370
    18
100
AcDbLine
 10
108.0317431269
 20
249.4332062554
 30
0.0
 11
184.7534411726
 21
249.4332062554
 31
0.0
  0
LINE
  5
2FB
330
1F
100
AcDbEntity
  8
0
  6
Continuous
 62
     8
370
    18
100
AcDbLine
 10
106.1615468142
 20
236.579226191
 30
0.0
 11
186.6236374853
 21
236.579226191
 31
0.0
  0
LINE
  5
2FC
330
1F
100
AcDbEntity
  8
0
  6
Continuous
 62
     8
370
    18
100
AcDbLine
 10
108.6632282612
 20
241.4691912484
 30
0.0
 11
184.1219560382
 21
241.4691912484
 31
0.0
  0
LINE
  5
2FD
330
1F
100
AcDbEntity
  8
0
  6
Continuous
 62
     8
370
    18
100
AcDbLine
 10
109.5374942896
 20
239.6384941888
 30
0.0
 11
183.2476900098
 21
239.6384941888
 31
0.0
  0
LINE
  5
2FE
330
1F
100
AcDbEntity
  8
0
  6
Continuous
 62
     8
370
    18
100
AcDbLine
 10
186.6176770208
 20
236.7396818948
 30
0.0
 11
106.1675072787
 21
236.7396818948
 31
0.0
  0
LINE
  5
2FF
330
1F
100
AcDbEntity
  8
0
  6
Continuous
 62
     8
370
    18
100
AcDbLine
 10
186.7822119174
 20
236.2525927377
 30
0.0
 11
106.0029723821
 21
236.2525927377
 31
0.0
  0
LINE
  5
300
330
1F
100
AcDbEntity
  8
0
  6
Continuous
 62
     8
370
    18
100
AcDbLine
 10
109.389462429
 20
246.0083233666
 30
0.0
 11
183.3957218704
 21
246.0083233666
 31
0.0
  0
LINE
  5
301
330
1F
100
AcDbEntity
  8
0
  6
Continuous
 62
     8
370
    18
100
AcDbLine
 10
108.0585428653
 20
248.5113608193
 30
0.0
 11
184.7266414342
 21
248.5113608193
 31
0.0
  0
LINE
  5
302
330
1F
100
AcDbEntity
  8
0
  6
Continuous
 62
     8
370
    18
100
AcDbLine
 10
108.0317431269
 20
248.6188875985
 30
0.0
 11
184.7534411726
 21
248.6188875985
 31
0.0
  0
LINE
  5
303
330
1F
100
AcDbEntity
  8
0
  6
Continuous
 62
     8
370
    18
100
AcDbLine
 10
108.6634592292
 20
241.5571677041
 30
0.0
 11
184.1217250702
 21
241.5571677041
 31
0.0
  0
LINE
  5
304
330
1F
100
AcDbEntity
  8
0
  6
Continuous
 62
     8
370
    18
100
AcDbLine
 10
110.7865543244
 20
238.8173806023
 30
0.0
 11
181.9986299751
 21
238.8173806023
 31
0.0
  0
LINE
  5
305
330
1F
100
AcDbEntity
  8
0
  6
Continuous
 62
     8
370
    18
100
AcDbLine
 10
111.1766406474
 20
238.1673323464
 30
0.0
 11
181.6085436521
 21
238.1673323464
 31
0.0
  0
LINE
  5
306
330
1F
100
AcDbEntity
  8
0
  6
Continuous
 62
     8
370
    18
100
AcDbLine
 10
182.4735746858
 20
237.5616299462
 30
0.0
 11
110.3116096137
 21
237.5616299462
 31
0.0
  0
LINE
  5
307
330
1F
100
AcDbEntity
  8
0
  6
Continuous
 62
     8
370
    18
100
AcDbLine
 10
181.6551917372
 20
238.6627661538
 30
0.0
 11
111.1299925623
 21
238.6627661538
 31
0.0
  0
LINE
  5
308
330
1F
100
AcDbEntity
  8
0
  6
Continuous
 62
     8
370
    18
100
AcDbLine
 10
103.7925937352
 20
247.7263676476
 30
0.0
 11
104.0332437632
 21
247.7263676476
 31
0.0
  0
LINE
  5
309
330
1F
100
AcDbEntity
  8
0
  6
Continuous
 62
     8
370
    18
100
AcDbLine
 10
188.7519405363
 20
247.7263676476
 30
0.0
 11
188.9925905642
 21
247.7263676476
 31
0.0
  0
LINE
  5
30A
330
1F
100
AcDbEntity
  8
0
  6
Continuous
 62
     8
370
    18
100
AcDbLine
 10
106.324621397
 20
250.0043379617
 30
0.0
 11
186.4605629024
 21
250.0043379617
 31
0.0
  0
LINE
  5
30B
330
1F
100
AcDbEntity
  8
0
  6
Continuous
 62
     8
370
    18
100
AcDbLine
 10
184.3925909278
 20
252.855943377
 30
0.0
 11
108.3925933716
 21
252.855943377
 31
0.0
  0
LINE
  5
30C
330
1F
100
AcDbEntity
  8
0
  6
Continuous
 62
     8
370
    18
100
AcDbLine
 10
109.8925926862
 20
200.2544867349
 30
0.0
 11
182.8925916133
 21
200.2544867349
 31
0.0
  0
LINE
  5
30D
330
1F
100
AcDbEntity
  8
0
  6
Continuous
 62
     8
370
    18
100
AcDbLine
 10
183.0236771283
 20
201.1316286874
 30
0.0
 11
109.7615071712
 21
201.1316286874
 31
0.0
  0
LINE
  5
30E
330
1F
100
AcDbEntity
  8
0
  6
Continuous
 62
     8
370
    18
100
AcDbLine
 10
103.7925937352
 20
235.6133925271
 30
0.0
 11
104.0380866406
 21
235.6133925271
 31
0.0
  0
LINE
  5
30F
330
1F
100
AcDbEntity
  8
0
  6
Continuous
 62
     8
370
    18
100
AcDbLine
 10
188.7470976589
 20
235.6133925271
 30
0.0
 11
188.9925905642
 21
235.6133925271
 31
0.0
  0
LINE
  5
310
330
1F
100
AcDbEntity
  8
0
  6
Continuous
 62
     8
370
    18
100
AcDbLine
 10
108.5925930319
 20
230.4363715005
 30
0.0
 11
184.1925912676
 21
230.4363715005
 31
0.0
  0
LINE
  5
311
330
1F
100
AcDbEntity
  8
0
  6
Continuous
 62
     8
370
    18
100
AcDbLine
 10
186.2954692123
 20
233.2990633797
 30
0.0
 11
106.4897150872
 21
233.2990633797
 31
0.0
  0
LINE
  5
312
330
1F
100
AcDbEntity
  8
0
  6
Continuous
 62
     8
370
    18
100
AcDbLine
 10
108.5925930319
 20
205.25388592
 30
0.0
 11
184.1925912676
 21
205.25388592
 31
0.0
  0
LINE
  5
313
330
1F
100
AcDbEntity
  8
0
  6
Continuous
 62
     8
370
    18
100
AcDbLine
 10
108.6799808917
 20
204.6690451455
 30
0.0
 11
184.1052034078
 21
204.6690451455
 31
0.0
  0
LINE
  5
314
330
1F
100
AcDbEntity
  8
0
  6
Continuous
 62
     7
370
    25
100
AcDbLine
 10
183.8925936398
 20
164.9446010247
 30
0.0
 11
183.8925936398
 21
139.963340725
 31
0.0
  0
LINE
  5
315
330
1F
100
AcDbEntity
  8
0
  6
Continuous
 62
     7
370
    25
100
AcDbLine
 10
108.8925906596
 20
139.963340725
 30
0.0
 11
108.8925906596
 21
165.7527207986
 31
0.0
  0
ARC
  5
316
330
1F
100
AcDbEntity
  8
0
  6
Continuous
 62
     7
370
    25
100
AcDbCircle
 10
110.8922710933
 20
139.9634035376
 30
0.0
 40
1.999680434663599
100
AcDbArc
 50
180.0017997357
 51
194.0014064483
  0
ARC
  5
317
330
1F
100
AcDbEntity
  8
0
  6
Continuous
 62
     7
370
    25
100
AcDbCircle
 10
181.8929132062
 20
139.9634035376
 30
0.0
 40
1.999680434663475
100
AcDbArc
 50
345.9985935517
 51
359.9982002643
  0
ARC
  5
318
330
1F
100
AcDbEntity
  8
0
  6
Continuous
 62
     7
370
    25
100
AcDbCircle
 10
110.892432903
 20
139.9633721313
 30
0.0
 40
0.999840217331863
100
AcDbArc
 50
180.0017997357
 51
194.0014064483
  0
ARC
  5
319
330
1F
100
AcDbEntity
  8
0
  6
Continuous
 62
     7
370
    25
100
AcDbCircle
 10
181.8927513965
 20
139.9633721313
 30
0.0
 40
0.9998402173317511
100
AcDbArc
 50
345.9985935517
 51
359.9982002643
  0
LINE
  5
31A
330
1F
100
AcDbEntity
  8
0
  6
Continuous
 62
     7
370
    25
100
AcDbLine
 10
110.3125930903
 20
134.0225457803
 30
0.0
 11
108.9520015893
 21
139.479589428
 31
0.0
  0
LINE
  5
31B
330
1F
100
AcDbEntity
  8
0
  6
Continuous
 62
     7
370
    25
100
AcDbLine
 10
183.8331827102
 20
139.479589428
 30
0.0
 11
182.4725912092
 21
134.0225457803
 31
0.0
  0
LINE
  5
31C
330
1F
100
AcDbEntity
  8
0
  6
Continuous
 62
     7
370
    25
100
AcDbLine
 10
182.4725912092
 20
134.0225457803
 30
0.0
 11
181.4419784722
 21
134.0225457803
 31
0.0
  0
LINE
  5
31D
330
1F
100
AcDbEntity
  8
0
  6
Continuous
 62
     7
370
    25
100
AcDbLine
 10
182.8628861484
 20
139.7214650765
 30
0.0
 11
181.4419784722
 21
134.0225457803
 31
0.0
  0
LINE
  5
31E
330
1F
100
AcDbEntity
  8
0
  6
Continuous
 62
     7
370
    25
100
AcDbLine
 10
182.8925916133
 20
164.5652770654
 30
0.0
 11
182.8925916133
 21
139.963340725
 31
0.0
  0
LINE
  5
31F
330
1F
100
AcDbEntity
  8
0
  6
Continuous
 62
     7
370
    25
100
AcDbLine
 10
109.8925926862
 20
139.963340725
 30
0.0
 11
109.8925926862
 21
166.1320447579
 31
0.0
  0
LINE
  5
320
330
1F
100
AcDbEntity
  8
0
  6
Continuous
 62
     7
370
    25
100
AcDbLine
 10
111.3432058272
 20
134.0225457803
 30
0.0
 11
109.922298151
 21
139.7214650765
 31
0.0
  0
LINE
  5
321
330
1F
100
AcDbEntity
  8
0
  6
Continuous
 62
     7
370
    25
100
AcDbLine
 10
111.3432058272
 20
134.0225457803
 30
0.0
 11
110.3125930903
 21
134.0225457803
 31
0.0
  0
LINE
  5
322
330
1F
100
AcDbEntity
  8
0
  6
Continuous
 62
     7
370
    25
100
AcDbLine
 10
181.4419784722
 20
134.0225457803
 30
0.0
 11
111.3432058272
 21
134.0225457803
 31
0.0
  0
LINE
  5
323
330
1F
100
AcDbEntity
  8
0
  6
Continuous
 62
     8
370
    18
100
AcDbLine
 10
109.922298151
 20
139.7214650765
 30
0.0
 11
182.8628861484
 21
139.7214650765
 31
0.0
  0
LINE
  5
324
330
1F
100
AcDbEntity
  8
0
  6
Continuous
 62
     8
370
    18
100
AcDbLine
 10
109.8925926862
 20
139.963340725
 30
0.0
 11
182.8925916133
 21
139.963340725
 31
0.0
  0
DIMENSION
  5
325
330
1F
100
AcDbEntity
  8
0
  6
Continuous
 62
     7
370
    18
100
AcDbDimension
  2
_D
 10
184.3925921497
 20
1266.2460021698
 30
0.0
 11
146.3925921497
 21
1266.2460021698
 31
0.0
 70
   160
  1
%%c<>
 71
     2
 42
-1.0
  3
SLDDIMSTYLE0
100
AcDbAlignedDimension
 13
108.3925921497
 23
1256.2460021698
 33
0.0
 14
184.3925921497
 24
1256.2460021698
 34
0.0
100
AcDbRotatedDimension
  0
DIMENSION
  5
331
330
1F
100
AcDbEntity
  8
0
  6
Continuous
 62
     7
370
    18
100
AcDbDimension
  2
_D_1
 10
183.8925921497
 20
1124.8371426672
 30
0.0
 11
146.3925921497
 21
1124.8371426672
 31
0.0
 70
   160
  1
%%c<>
 71
     2
 42
-1.0
  3
SLDDIMSTYLE0
100
AcDbAlignedDimension
 13
108.8925921497
 23
1140.4228714131
 33
0.0
 14
183.8925921497
 24
1140.4228714131
 34
0.0
100
AcDbRotatedDimension
  0
DIMENSION
  5
33C
330
1F
100
AcDbEntity
  8
0
  6
Continuous
 62
     7
370
    18
100
AcDbDimension
  2
_D_2
 10
200.5501182215
 20
1256.2460021698
 30
0.0
 11
200.5501182215
 21
1195.3639977677
 31
0.0
 70
   160
  1
1050
 71
     2
 42
-1.0
  3
SLDDIMSTYLE0
100
AcDbAlignedDimension
 13
182.4725921497
 23
1134.4819933656
 33
0.0
 14
185.3925921497
 24
1256.2460021698
 34
0.0
 50
90.0
100
AcDbRotatedDimension
  0
DIMENSION
  5
346
330
1F
100
AcDbEntity
  8
0
  6
Continuous
 62
     7
370
    18
100
AcDbDimension
  2
_D_3
 10
198.3692635921
 20
635.4145936967
 30
0.0
 11
198.3692635921
 21
695.3639977677
 31
0.0
 70
   160
  1
2050
 71
     2
 42
-1.0
  3
SLDDIMSTYLE0
100
AcDbAlignedDimension
 13
185.3925921497
 23
755.3134018388
 33
0.0
 14
182.4725921497
 24
635.4145936967
 34
0.0
 50
90.0
100
AcDbRotatedDimension
  0
DIMENSION
  5
350
330
1F
100
AcDbEntity
  8
0
  6
Continuous
 62
     7
370
    18
100
AcDbDimension
  2
_D_4
 10
184.3925921497
 20
766.4036872072
 30
0.0
 11
146.3925921497
 21
766.4036872072
 31
0.0
 70
   160
  1
%%c<>
 71
     2
 42
-1.0
  3
SLDDIMSTYLE0
100
AcDbAlignedDimension
 13
108.3925921497
 23
755.3134018388
 33
0.0
 14
184.3925921497
 24
755.3134018388
 34
0.0
100
AcDbRotatedDimension
  0
DIMENSION
  5
35B
330
1F
100
AcDbEntity
  8
0
  6
Continuous
 62
     7
370
    18
100
AcDbDimension
  2
_D_5
 10
183.8925921497
 20
625.4145936967
 30
0.0
 11
146.3925921497
 21
625.4145936967
 31
0.0
 70
   160
  1
%%c<>
 71
     2
 42
-1.0
  3
SLDDIMSTYLE0
100
AcDbAlignedDimension
 13
108.8925921497
 23
641.3554717441
 33
0.0
 14
183.8925921497
 24
641.3554717441
 34
0.0
100
AcDbRotatedDimension
  0
DIMENSION
  5
366
330
1F
100
AcDbEntity
  8
0
  6
Continuous
 62
     7
370
    18
100
AcDbDimension
  2
_D_6
 10
185.3925921497
 20
266.4087895289
 30
0.0
 11
146.3925921497
 21
266.4087895289
 31
0.0
 70
   160
  1
%%c<>
 71
     2
 42
-1.0
  3
SLDDIMSTYLE0
100
AcDbAlignedDimension
 13
107.3925921497
 23
256.705473597
 33
0.0
 14
185.3925921497
 24
256.705473597
 34
0.0
100
AcDbRotatedDimension
  0
DIMENSION
  5
371
330
1F
100
AcDbEntity
  8
0
  6
Continuous
 62
     7
370
    18
100
AcDbDimension
  2
_D_7
 10
183.8925921497
 20
124.0225219384
 30
0.0
 11
146.3925921497
 21
124.0225219384
 31
0.0
 70
   160
  1
%%c<>
 71
     2
 42
-1.0
  3
SLDDIMSTYLE0
100
AcDbAlignedDimension
 13
108.8925921497
 23
139.9633999859
 33
0.0
 14
183.8925921497
 24
139.9633999859
 34
0.0
100
AcDbRotatedDimension
  0
DIMENSION
  5
37C
330
1F
100
AcDbEntity
  8
0
  6
Continuous
 62
     7
370
    18
100
AcDbDimension
  2
_D_8
 10
199.9925921497
 20
256.705473597
 30
0.0
 11
199.9925921497
 21
195.3639977677
 31
0.0
 70
   160
  1
3050
 71
     2
 42
-1.0
  3
SLDDIMSTYLE0
100
AcDbAlignedDimension
 13
182.4725921497
 23
134.0225219384
 33
0.0
 14
185.3925921497
 24
256.705473597
 34
0.0
 50
90.0
100
AcDbRotatedDimension
  0
MTEXT
  5
386
330
1F
100
AcDbEntity
  8
0
  6
Continuous
 62
     7
370
     0
100
AcDbMText
 10
146.3704464412
 20
281.3614333331
 30
0.0
 40
5.0
 41
0.0
 71
     2
 72
     1
  1
A-A
  7
SLDTEXTSTYLE0
 73
     1
 44
1.0
  0
ARC
  5
387
330
1F
100
AcDbEntity
  8
0
  6
HIDDEN
 62
     7
370
    18
100
AcDbCircle
 10
165.6425921497
 20
211.5486877161
 30
0.0
 40
50.05000000000001
100
AcDbArc
 50
247.380135052
 51
292.619864948
  0
ARC
  5
388
330
1F
100
AcDbEntity
  8
0
  6
HIDDEN
 62
     7
370
    18
100
AcDbCircle
 10
127.1425921497
 20
119.1486877161
 30
0.0
 40
50.05000000000002
100
AcDbArc
 50
67.380135052
 51
112.619864948
  0
ARC
  5
389
330
1F
100
AcDbEntity
  8
0
  6
HIDDEN
 62
     7
370
    18
100
AcDbCircle
 10
165.6425921497
 20
221.5486877161
 30
0.0
 40
50.05000000000001
100
AcDbArc
 50
247.380135052
 51
292.619864948
  0
ARC
  5
38A
330
1F
100
AcDbEntity
  8
0
  6
HIDDEN
 62
     7
370
    18
100
AcDbCircle
 10
127.1425921497
 20
129.1486877161
 30
0.0
 40
50.05000000000002
100
AcDbArc
 50
67.380135052
 51
112.619864948
  0
INSERT
  5
475
330
1F
100
AcDbEntity
  8
0
  6
Continuous
 62
     7
370
    18
100
AcDbBlockReference
  2
SW_HATCH_0
 10
184.5586792705
 20
256.7054497552
 30
0.0
  0
ENDSEC
  0
SECTION
  2
OBJECTS
  0
DICTIONARY
  5
C
330
0
100
AcDbDictionary
281
     1
  3
ACAD_GROUP
350
D
  3
ACAD_LAYOUT
350
1A
  3
ACAD_MLINESTYLE
350
17
  3
ACAD_PLOTSETTINGS
350
19
  3
ACAD_PLOTSTYLENAME
350
E
  3
ACAD_SCALELIST
350
47
  3
DWGPROPS
350
476
  0
DICTIONARY
  5
D
102
{ACAD_REACTORS
330
C
102
}
330
C
100
AcDbDictionary
281
     1
  0
DICTIONARY
  5
1A
102
{ACAD_REACTORS
330
C
102
}
330
C
100
AcDbDictionary
281
     1
  3
Layout1
350
1E
  3
Layout2
350
26
  3
Model
350
22
  0
DICTIONARY
  5
17
102
{ACAD_REACTORS
330
C
102
}
330
C
100
AcDbDictionary
281
     1
  3
Standard
350
18
  0
DICTIONARY
  5
19
102
{ACAD_REACTORS
330
C
102
}
330
C
100
AcDbDictionary
281
     1
  0
ACDBDICTIONARYWDFLT
  5
E
102
{ACAD_REACTORS
330
C
102
}
330
C
100
AcDbDictionary
281
     1
  3
Normal
350
F
100
AcDbDictionaryWithDefault
340
F
  0
DICTIONARY
  5
47
102
{ACAD_REACTORS
330
C
102
}
330
C
100
AcDbDictionary
281
     1
  3
A0
350
48
  3
A1
350
49
  3
A2
350
4A
  3
A3
350
4B
  3
A4
350
4C
  3
A5
350
4D
  3
A6
350
4E
  3
A7
350
4F
  3
A8
350
50
  3
A9
350
51
  3
B0
350
52
  3
B1
350
53
  3
B2
350
54
  3
B3
350
55
  3
B4
350
56
  3
B5
350
57
  3
B6
350
58
  3
B7
350
59
  3
B8
350
5A
  3
B9
350
5B
  3
C0
350
5C
  3
C1
350
5D
  3
C2
350
5E
  3
C3
350
5F
  3
C4
350
60
  3
C5
350
61
  3
C6
350
62
  3
C7
350
63
  3
C8
350
64
  3
C9
350
65
  3
D0
350
66
  3
D1
350
67
  3
D2
350
68
  0
XRECORD
  5
476
102
{ACAD_REACTORS
330
C
102
}
330
C
100
AcDbXrecord
280
     1
  1
DWGPROPS COOKIE
  2

  3

  4

  6

  7

  8
ch-ntl-rs-wscad
  9

300
=
301
=
302
=
303
=
304
=
305
=
306
=
307
=
308
=
309
=
 40
0.0
 41
2460569.737627604
 42
2460569.737644317
  1

 90
        0
  0
LAYOUT
  5
1E
102
{ACAD_REACTORS
330
1A
102
}
330
1A
100
AcDbPlotSettings
  1

  2
none_device
  4

  6

 40
0.0
 41
0.0
 42
0.0
 43
0.0
 44
0.0
 45
0.0
 46
0.0
 47
0.0
 48
0.0
 49
0.0
140
0.0
141
0.0
142
1.0
143
1.0
 70
   688
 72
     1
 73
     0
 74
     5
  7

 75
    16
147
1.0
148
0.0
149
0.0
100
AcDbLayout
  1
Layout1
 70
     1
 71
     1
 10
0.0
 20
0.0
 11
420.0
 21
297.0
 12
0.0
 22
0.0
 32
0.0
 14
1.0000000000E+20
 24
1.0000000000E+20
 34
1.0000000000E+20
 15
-1.0000000000E+20
 25
-1.0000000000E+20
 35
-1.0000000000E+20
146
0.0
 13
0.0
 23
0.0
 33
0.0
 16
1.0
 26
0.0
 36
0.0
 17
0.0
 27
1.0
 37
0.0
 76
     0
330
1B
  0
LAYOUT
  5
26
102
{ACAD_REACTORS
330
1A
102
}
330
1A
100
AcDbPlotSettings
  1

  2
none_device
  4

  6

 40
0.0
 41
0.0
 42
0.0
 43
0.0
 44
0.0
 45
0.0
 46
0.0
 47
0.0
 48
0.0
 49
0.0
140
0.0
141
0.0
142
1.0
143
1.0
 70
   688
 72
     1
 73
     0
 74
     5
  7

 75
    16
147
1.0
148
0.0
149
0.0
100
AcDbLayout
  1
Layout2
 70
     1
 71
     2
 10
0.0
 20
0.0
 11
0.0
 21
0.0
 12
0.0
 22
0.0
 32
0.0
 14
0.0
 24
0.0
 34
0.0
 15
0.0
 25
0.0
 35
0.0
146
0.0
 13
0.0
 23
0.0
 33
0.0
 16
1.0
 26
0.0
 36
0.0
 17
0.0
 27
1.0
 37
0.0
 76
     0
330
23
  0
LAYOUT
  5
22
102
{ACAD_REACTORS
330
1A
102
}
330
1A
100
AcDbPlotSettings
  1

  2
none_device
  4
Letter_(8.50_x_11.00_Inches)
  6

 40
6.35
 41
6.35
 42
6.35000508
 43
6.35000508
 44
215.9
 45
279.4
 46
0.0
 47
0.0
 48
0.0
 49
0.0
140
0.0
141
0.0
142
1.0
143
1.0
 70
  1712
 72
     1
 73
     0
 74
     0
  7

 75
     0
147
1.0
148
0.0
149
0.0
100
AcDbLayout
  1
Model
 70
     1
 71
     0
 10
0.0
 20
0.0
 11
420.0
 21
297.0
 12
0.0
 22
0.0
 32
0.0
 14
0.0
 24
0.0
 34
0.0
 15
420.0
 25
297.0
 35
0.0
146
0.0
 13
0.0
 23
0.0
 33
0.0
 16
1.0
 26
0.0
 36
0.0
 17
0.0
 27
1.0
 37
0.0
 76
     0
330
1F
331
29
  0
MLINESTYLE
  5
18
102
{ACAD_REACTORS
330
17
102
}
330
17
100
AcDbMlineStyle
  2
Standard
 70
     0
  3

 62
   256
 51
90.0
 52
90.0
 71
     2
 49
0.5
 62
   256
  6
BYLAYER
 49
-0.5
 62
   256
  6
BYLAYER
  0
ACDBPLACEHOLDER
  5
F
102
{ACAD_REACTORS
330
E
102
}
330
E
  0
SCALE
  5
48
102
{ACAD_REACTORS
330
47
102
}
330
47
100
AcDbScale
 70
     0
300
1:1
140
1.0
141
1.0
290
     1
  0
SCALE
  5
49
102
{ACAD_REACTORS
330
47
102
}
330
47
100
AcDbScale
 70
     0
300
1:2
140
1.0
141
2.0
290
     0
  0
SCALE
  5
4A
102
{ACAD_REACTORS
330
47
102
}
330
47
100
AcDbScale
 70
     0
300
1:4
140
1.0
141
4.0
290
     0
  0
SCALE
  5
4B
102
{ACAD_REACTORS
330
47
102
}
330
47
100
AcDbScale
 70
     0
300
1:5
140
1.0
141
5.0
290
     0
  0
SCALE
  5
4C
102
{ACAD_REACTORS
330
47
102
}
330
47
100
AcDbScale
 70
     0
300
1:8
140
1.0
141
8.0
290
     0
  0
SCALE
  5
4D
102
{ACAD_REACTORS
330
47
102
}
330
47
100
AcDbScale
 70
     0
300
1:10
140
1.0
141
10.0
290
     0
  0
SCALE
  5
4E
102
{ACAD_REACTORS
330
47
102
}
330
47
100
AcDbScale
 70
     0
300
1:16
140
1.0
141
16.0
290
     0
  0
SCALE
  5
4F
102
{ACAD_REACTORS
330
47
102
}
330
47
100
AcDbScale
 70
     0
300
1:20
140
1.0
141
20.0
290
     0
  0
SCALE
  5
50
102
{ACAD_REACTORS
330
47
102
}
330
47
100
AcDbScale
 70
     0
300
1:30
140
1.0
141
30.0
290
     0
  0
SCALE
  5
51
102
{ACAD_REACTORS
330
47
102
}
330
47
100
AcDbScale
 70
     0
300
1:40
140
1.0
141
40.0
290
     0
  0
SCALE
  5
52
102
{ACAD_REACTORS
330
47
102
}
330
47
100
AcDbScale
 70
     0
300
1:50
140
1.0
141
50.0
290
     0
  0
SCALE
  5
53
102
{ACAD_REACTORS
330
47
102
}
330
47
100
AcDbScale
 70
     0
300
1:100
140
1.0
141
100.0
290
     0
  0
SCALE
  5
54
102
{ACAD_REACTORS
330
47
102
}
330
47
100
AcDbScale
 70
     0
300
2:1
140
2.0
141
1.0
290
     0
  0
SCALE
  5
55
102
{ACAD_REACTORS
330
47
102
}
330
47
100
AcDbScale
 70
     0
300
4:1
140
4.0
141
1.0
290
     0
  0
SCALE
  5
56
102
{ACAD_REACTORS
330
47
102
}
330
47
100
AcDbScale
 70
     0
300
8:1
140
8.0
141
1.0
290
     0
  0
SCALE
  5
57
102
{ACAD_REACTORS
330
47
102
}
330
47
100
AcDbScale
 70
     0
300
10:1
140
10.0
141
1.0
290
     0
  0
SCALE
  5
58
102
{ACAD_REACTORS
330
47
102
}
330
47
100
AcDbScale
 70
     0
300
100:1
140
100.0
141
1.0
290
     0
  0
SCALE
  5
59
102
{ACAD_REACTORS
330
47
102
}
330
47
100
AcDbScale
 70
     0
300
1/128" = 1'-0"
140
0.0078125
141
12.0
290
     0
  0
SCALE
  5
5A
102
{ACAD_REACTORS
330
47
102
}
330
47
100
AcDbScale
 70
     0
300
1/64" = 1'-0"
140
0.015625
141
12.0
290
     0
  0
SCALE
  5
5B
102
{ACAD_REACTORS
330
47
102
}
330
47
100
AcDbScale
 70
     0
300
1/32" = 1'-0"
140
0.03125
141
12.0
290
     0
  0
SCALE
  5
5C
102
{ACAD_REACTORS
330
47
102
}
330
47
100
AcDbScale
 70
     0
300
1/16" = 1'-0"
140
0.0625
141
12.0
290
     0
  0
SCALE
  5
5D
102
{ACAD_REACTORS
330
47
102
}
330
47
100
AcDbScale
 70
     0
300
3/32" = 1'-0"
140
0.09375
141
12.0
290
     0
  0
SCALE
  5
5E
102
{ACAD_REACTORS
330
47
102
}
330
47
100
AcDbScale
 70
     0
300
1/8" = 1'-0"
140
0.125
141
12.0
290
     0
  0
SCALE
  5
5F
102
{ACAD_REACTORS
330
47
102
}
330
47
100
AcDbScale
 70
     0
300
3/16" = 1'-0"
140
0.1875
141
12.0
290
     0
  0
SCALE
  5
60
102
{ACAD_REACTORS
330
47
102
}
330
47
100
AcDbScale
 70
     0
300
1/4" = 1'-0"
140
0.25
141
12.0
290
     0
  0
SCALE
  5
61
102
{ACAD_REACTORS
330
47
102
}
330
47
100
AcDbScale
 70
     0
300
3/8" = 1'-0"
140
0.375
141
12.0
290
     0
  0
SCALE
  5
62
102
{ACAD_REACTORS
330
47
102
}
330
47
100
AcDbScale
 70
     0
300
1/2" = 1'-0"
140
0.5
141
12.0
290
     0
  0
SCALE
  5
63
102
{ACAD_REACTORS
330
47
102
}
330
47
100
AcDbScale
 70
     0
300
3/4" = 1'-0"
140
0.75
141
12.0
290
     0
  0
SCALE
  5
64
102
{ACAD_REACTORS
330
47
102
}
330
47
100
AcDbScale
 70
     0
300
1" = 1'-0"
140
1.0
141
12.0
290
     0
  0
SCALE
  5
65
102
{ACAD_REACTORS
330
47
102
}
330
47
100
AcDbScale
 70
     0
300
1-1/2" = 1'-0"
140
1.5
141
12.0
290
     0
  0
SCALE
  5
66
102
{ACAD_REACTORS
330
47
102
}
330
47
100
AcDbScale
 70
     0
300
3" = 1'-0"
140
3.0
141
12.0
290
     0
  0
SCALE
  5
67
102
{ACAD_REACTORS
330
47
102
}
330
47
100
AcDbScale
 70
     0
300
6" = 1'-0"
140
6.0
141
12.0
290
     0
  0
SCALE
  5
68
102
{ACAD_REACTORS
330
47
102
}
330
47
100
AcDbScale
 70
     0
300
1'-0" = 1'-0"
140
12.0
141
12.0
290
     0
  0
ENDSEC
  0
EOF
