  0
SECTION
  2
HEADER
  9
$ACADVER
  1
AC1015
  9
$ACADMAINTVER
 70
     6
  9
$DWGCODEPAGE
  3
ANSI_1252
  9
$INSBASE
 10
0.0
 20
0.0
 30
0.0
  9
$EXTMIN
 10
0.0
 20
0.0
 30
0.0
  9
$EXTMAX
 10
420.0
 20
297.0
 30
0.0
  9
$LIMMIN
 10
0.0
 20
0.0
  9
$LIMMAX
 10
420.0
 20
297.0
  9
$ORTHOMODE
 70
     0
  9
$REGENMODE
 70
     1
  9
$FILLMODE
 70
     1
  9
$QTEXTMODE
 70
     0
  9
$MIRRTEXT
 70
     1
  9
$LTSCALE
 40
1.0
  9
$ATTMODE
 70
     1
  9
$TEXTSIZE
 40
3.5
  9
$TRACEWID
 40
1.0
  9
$TEXTSTYLE
  7
Standard
  9
$CLAYER
  8
0
  9
$CELTYPE
  6
ByLayer
  9
$CECOLOR
 62
   256
  9
$CELTSCALE
 40
1.0
  9
$DISPSILH
 70
     0
  9
$DIMSCALE
 40
1.0
  9
$DIMASZ
 40
2.5
  9
$DIMEXO
 40
0.3
  9
$DIMDLI
 40
3.75
  9
$DIMRND
 40
0.0
  9
$DIMDLE
 40
0.0
  9
$DIMEXE
 40
1.0
  9
$DIMTP
 40
0.0
  9
$DIMTM
 40
0.0
  9
$DIMTXT
 40
3.5277777778
  9
$DIMCEN
 40
2.5
  9
$DIMTSZ
 40
0.0
  9
$DIMTOL
 70
     0
  9
$DIMLIM
 70
     0
  9
$DIMTIH
 70
     1
  9
$DIMTOH
 70
     1
  9
$DIMSE1
 70
     0
  9
$DIMSE2
 70
     0
  9
$DIMTAD
 70
     1
  9
$DIMZIN
 70
     0
  9
$DIMBLK
  1

  9
$DIMASO
 70
     1
  9
$DIMSHO
 70
     1
  9
$DIMPOST
  1

  9
$DIMAPOST
  1

  9
$DIMALT
 70
     0
  9
$DIMALTD
 70
     3
  9
$DIMALTF
 40
0.0393700787
  9
$DIMLFAC
 40
1.0
  9
$DIMTOFL
 70
     1
  9
$DIMTVP
 40
0.0
  9
$DIMTIX
 70
     0
  9
$DIMSOXD
 70
     0
  9
$DIMSAH
 70
     0
  9
$DIMBLK1
  1

  9
$DIMBLK2
  1

  9
$DIMSTYLE
  2
ISO-25
  9
$DIMCLRD
 70
     0
  9
$DIMCLRE
 70
     0
  9
$DIMCLRT
 70
     0
  9
$DIMTFAC
 40
1.0
  9
$DIMGAP
 40
1.52
  9
$DIMJUST
 70
     0
  9
$DIMSD1
 70
     0
  9
$DIMSD2
 70
     0
  9
$DIMTOLJ
 70
     0
  9
$DIMTZIN
 70
     0
  9
$DIMALTZ
 70
     0
  9
$DIMALTTZ
 70
     0
  9
$DIMUPT
 70
     0
  9
$DIMDEC
 70
     1
  9
$DIMTDEC
 70
     1
  9
$DIMALTU
 70
     2
  9
$DIMALTTD
 70
     3
  9
$DIMTXSTY
  7
Standard
  9
$DIMAUNIT
 70
     0
  9
$DIMADEC
 70
     1
  9
$DIMALTRND
 40
0.0
  9
$DIMAZIN
 70
     0
  9
$DIMDSEP
 70
    44
  9
$DIMATFIT
 70
     3
  9
$DIMFRAC
 70
     0
  9
$DIMLDRBLK
  1

  9
$DIMLUNIT
 70
     2
  9
$DIMLWD
 70
    -2
  9
$DIMLWE
 70
    -2
  9
$DIMTMOVE
 70
     0
  9
$LUNITS
 70
     2
  9
$LUPREC
 70
     2
  9
$SKETCHINC
 40
1.0
  9
$FILLETRAD
 40
0.0
  9
$AUNITS
 70
     0
  9
$AUPREC
 70
     2
  9
$MENU
  1
.
  9
$ELEVATION
 40
0.0
  9
$PELEVATION
 40
0.0
  9
$THICKNESS
 40
0.0
  9
$LIMCHECK
 70
     0
  9
$CHAMFERA
 40
0.0
  9
$CHAMFERB
 40
0.0
  9
$CHAMFERC
 40
0.0
  9
$CHAMFERD
 40
0.0
  9
$SKPOLY
 70
     0
  9
$TDCREATE
 40
2460955.585654132
  9
$TDUCREATE
 40
2460955.502320799
  9
$TDUPDATE
 40
2460955.585657859
  9
$TDUUPDATE
 40
2460955.502324526
  9
$TDINDWG
 40
0.0000000116
  9
$TDUSRTIMER
 40
0.0000000116
  9
$USRTIMER
 70
     1
  9
$ANGBASE
 50
0.0
  9
$ANGDIR
 70
     0
  9
$PDMODE
 70
     0
  9
$PDSIZE
 40
-1.0
  9
$PLINEWID
 40
0.0
  9
$SPLFRAME
 70
     0
  9
$SPLINETYPE
 70
     6
  9
$SPLINESEGS
 70
     8
  9
$HANDSEED
  5
2C1
  9
$SURFTAB1
 70
     6
  9
$SURFTAB2
 70
     6
  9
$SURFTYPE
 70
     6
  9
$SURFU
 70
     6
  9
$SURFV
 70
     6
  9
$UCSBASE
  2

  9
$UCSNAME
  2

  9
$UCSORG
 10
0.0
 20
0.0
 30
0.0
  9
$UCSXDIR
 10
1.0
 20
0.0
 30
0.0
  9
$UCSYDIR
 10
0.0
 20
1.0
 30
0.0
  9
$UCSORTHOREF
  2

  9
$UCSORTHOVIEW
 70
     0
  9
$UCSORGTOP
 10
0.0
 20
0.0
 30
0.0
  9
$UCSORGBOTTOM
 10
0.0
 20
0.0
 30
0.0
  9
$UCSORGLEFT
 10
0.0
 20
0.0
 30
0.0
  9
$UCSORGRIGHT
 10
0.0
 20
0.0
 30
0.0
  9
$UCSORGFRONT
 10
0.0
 20
0.0
 30
0.0
  9
$UCSORGBACK
 10
0.0
 20
0.0
 30
0.0
  9
$PUCSBASE
  2

  9
$PUCSNAME
  2

  9
$PUCSORG
 10
0.0
 20
0.0
 30
0.0
  9
$PUCSXDIR
 10
1.0
 20
0.0
 30
0.0
  9
$PUCSYDIR
 10
0.0
 20
1.0
 30
0.0
  9
$PUCSORTHOREF
  2

  9
$PUCSORTHOVIEW
 70
     0
  9
$PUCSORGTOP
 10
0.0
 20
0.0
 30
0.0
  9
$PUCSORGBOTTOM
 10
0.0
 20
0.0
 30
0.0
  9
$PUCSORGLEFT
 10
0.0
 20
0.0
 30
0.0
  9
$PUCSORGRIGHT
 10
0.0
 20
0.0
 30
0.0
  9
$PUCSORGFRONT
 10
0.0
 20
0.0
 30
0.0
  9
$PUCSORGBACK
 10
0.0
 20
0.0
 30
0.0
  9
$USERI1
 70
     0
  9
$USERI2
 70
     0
  9
$USERI3
 70
     0
  9
$USERI4
 70
     0
  9
$USERI5
 70
     0
  9
$USERR1
 40
0.0
  9
$USERR2
 40
0.0
  9
$USERR3
 40
0.0
  9
$USERR4
 40
0.0
  9
$USERR5
 40
0.0
  9
$WORLDVIEW
 70
     1
  9
$SHADEDGE
 70
     3
  9
$SHADEDIF
 70
    70
  9
$TILEMODE
 70
     1
  9
$MAXACTVP
 70
    64
  9
$PINSBASE
 10
0.0
 20
0.0
 30
0.0
  9
$PLIMCHECK
 70
     0
  9
$PEXTMIN
 10
1.0000000000E+20
 20
1.0000000000E+20
 30
1.0000000000E+20
  9
$PEXTMAX
 10
-1.0000000000E+20
 20
-1.0000000000E+20
 30
-1.0000000000E+20
  9
$PLIMMIN
 10
0.0
 20
0.0
  9
$PLIMMAX
 10
420.0
 20
297.0
  9
$UNITMODE
 70
     0
  9
$VISRETAIN
 70
     1
  9
$PLINEGEN
 70
     0
  9
$PSLTSCALE
 70
     1
  9
$TREEDEPTH
 70
  3020
  9
$CMLSTYLE
  2
Standard
  9
$CMLJUST
 70
     0
  9
$CMLSCALE
 40
20.0
  9
$PROXYGRAPHICS
 70
     1
  9
$MEASUREMENT
 70
     1
  9
$CELWEIGHT
370
    -1
  9
$ENDCAPS
280
     0
  9
$JOINSTYLE
280
     0
  9
$LWDISPLAY
290
     1
  9
$INSUNITS
 70
     4
  9
$HYPERLINKBASE
  1

  9
$STYLESHEET
  1

  9
$XEDIT
290
     1
  9
$CEPSNTYPE
380
     0
  9
$PSTYLEMODE
290
     1
  9
$FINGERPRINTGUID
  2
{8f6ae5ec-1c3f-463e-ae0a-8f2e84c42f0c}
  9
$VERSIONGUID
  2
{FAEB1C32-E019-11D5-929B-00C0DF256EC4}
  9
$EXTNAMES
290
     1
  9
$PSVPSCALE
 40
0.0
  9
$OLESTARTUP
290
     0
  0
ENDSEC
  0
SECTION
  2
CLASSES
  0
CLASS
  1
ACDBDICTIONARYWDFLT
  2
AcDbDictionaryWithDefault
  3
ObjectDBX Classes
 90
        0
280
     0
281
     0
  0
CLASS
  1
VISUALSTYLE
  2
AcDbVisualStyle
  3
ObjectDBX Classes
 90
     4095
280
     0
281
     0
  0
CLASS
  1
MATERIAL
  2
AcDbMaterial
  3
ObjectDBX Classes
 90
     1153
280
     0
281
     0
  0
CLASS
  1
SCALE
  2
AcDbScale
  3
ObjectDBX Classes
 90
     1153
280
     0
281
     0
  0
CLASS
  1
TABLESTYLE
  2
AcDbTableStyle
  3
ObjectDBX Classes
 90
     4095
280
     0
281
     0
  0
CLASS
  1
MLEADERSTYLE
  2
AcDbMLeaderStyle
  3
ACDB_MLEADERSTYLE_CLASS
 90
     4095
280
     0
281
     0
  0
CLASS
  1
SUN
  2
AcDbSun
  3
SCENEOE
 90
     1153
280
     0
281
     0
  0
CLASS
  1
ACDBPLACEHOLDER
  2
AcDbPlaceHolder
  3
ObjectDBX Classes
 90
        0
280
     0
281
     0
  0
CLASS
  1
LAYOUT
  2
AcDbLayout
  3
ObjectDBX Classes
 90
        0
280
     0
281
     0
  0
ENDSEC
  0
SECTION
  2
TABLES
  0
TABLE
  2
VPORT
  5
8
330
0
100
AcDbSymbolTable
 70
     1
  0
VPORT
  5
29
330
8
100
AcDbSymbolTableRecord
100
AcDbViewportTableRecord
  2
*Active
 70
     0
 10
0.0
 20
0.0
 11
1.0
 21
1.0
 12
210.0
 22
148.5
 13
0.0
 23
0.0
 14
10.0
 24
10.0
 15
10.0
 25
10.0
 16
0.0
 26
0.0
 36
1.0
 17
0.0
 27
0.0
 37
0.0
 40
297.0
 41
1.4141414141
 42
50.0
 43
0.0
 44
0.0
 50
0.0
 51
0.0
 71
     0
 72
  2000
 73
     1
 74
     3
 75
     0
 76
     0
 77
     0
 78
     0
281
     0
 65
     1
110
0.0
120
0.0
130
0.0
111
1.0
121
0.0
131
0.0
112
0.0
122
1.0
132
0.0
 79
     0
146
0.0
  0
ENDTAB
  0
TABLE
  2
LTYPE
  5
5
330
0
100
AcDbSymbolTable
 70
     6
  0
LTYPE
  5
14
330
5
100
AcDbSymbolTableRecord
100
AcDbLinetypeTableRecord
  2
ByBlock
 70
     0
  3

 72
    65
 73
     0
 40
0.0
  0
LTYPE
  5
15
330
5
100
AcDbSymbolTableRecord
100
AcDbLinetypeTableRecord
  2
ByLayer
 70
     0
  3

 72
    65
 73
     0
 40
0.0
  0
LTYPE
  5
16
330
5
100
AcDbSymbolTableRecord
100
AcDbLinetypeTableRecord
  2
Continuous
 70
     0
  3
Solid line
 72
    65
 73
     0
 40
0.0
  0
LTYPE
  5
5E
330
5
100
AcDbSymbolTableRecord
100
AcDbLinetypeTableRecord
  2
HIDDEN
 70
     0
  3
Hidden __ __ __ __ __ __ __ __ __ __ __ __ __ __
 72
    65
 73
     2
 40
1.905
 49
1.27
 74
     0
 49
-0.635
 74
     0
  0
LTYPE
  5
5F
330
5
100
AcDbSymbolTableRecord
100
AcDbLinetypeTableRecord
  2
PHANTOM
 70
     0
  3
Phantom ______  __  __  ______  __  __  ______
 72
    65
 73
     6
 40
12.7
 49
6.35
 74
     0
 49
-1.27
 74
     0
 49
1.27
 74
     0
 49
-1.27
 74
     0
 49
1.27
 74
     0
 49
-1.27
 74
     0
  0
LTYPE
  5
60
330
5
100
AcDbSymbolTableRecord
100
AcDbLinetypeTableRecord
  2
CENTER
 70
     0
  3
Center ____ _ ____ _ ____ _ ____ _ ____ _ ____
 72
    65
 73
     4
 40
10.16
 49
6.35
 74
     0
 49
-1.27
 74
     0
 49
1.27
 74
     0
 49
-1.27
 74
     0
  0
LTYPE
  5
61
330
5
100
AcDbSymbolTableRecord
100
AcDbLinetypeTableRecord
  2
CENTERX2
 70
     0
  3
Center (2x) ________  __  ________  __  _____
 72
    65
 73
     4
 40
20.32
 49
12.7
 74
     0
 49
-2.54
 74
     0
 49
2.54
 74
     0
 49
-2.54
 74
     0
  0
LTYPE
  5
62
330
5
100
AcDbSymbolTableRecord
100
AcDbLinetypeTableRecord
  2
DOT2
 70
     0
  3
Dot (.5x) ........................................
 72
    65
 73
     2
 40
0.635
 49
0.0
 74
     0
 49
-0.635
 74
     0
  0
ENDTAB
  0
TABLE
  2
LAYER
  5
2
330
0
100
AcDbSymbolTable
 70
     1
  0
LAYER
  5
10
330
2
100
AcDbSymbolTableRecord
100
AcDbLayerTableRecord
  2
0
 70
     0
 62
     7
  6
Continuous
370
    -3
390
F
  0
ENDTAB
  0
TABLE
  2
STYLE
  5
3
330
0
100
AcDbSymbolTable
 70
     3
  0
STYLE
  5
11
330
3
100
AcDbSymbolTableRecord
100
AcDbTextStyleTableRecord
  2
Standard
 70
     0
 40
0.0
 41
1.0
 50
0.0
 71
     0
 42
3.5
  3
txt
  4

  0
STYLE
  5
D9
330
3
100
AcDbSymbolTableRecord
100
AcDbTextStyleTableRecord
  2
SLDTEXTSTYLE0
 70
     0
 40
0.0
 41
0.605
 50
0.0
 71
     0
 42
3.5
  3
TXT
  4

  0
STYLE
  5
17A
330
3
100
AcDbSymbolTableRecord
100
AcDbTextStyleTableRecord
  2
SLDTEXTSTYLE1
 70
     0
 40
0.0
 41
0.563
 50
0.0
 71
     0
 42
3.5
  3
TXT
  4

  0
ENDTAB
  0
TABLE
  2
VIEW
  5
6
330
0
100
AcDbSymbolTable
 70
     0
  0
ENDTAB
  0
TABLE
  2
UCS
  5
7
330
0
100
AcDbSymbolTable
 70
     0
  0
ENDTAB
  0
TABLE
  2
APPID
  5
9
330
0
100
AcDbSymbolTable
 70
     1
  0
APPID
  5
12
330
9
100
AcDbSymbolTableRecord
100
AcDbRegAppTableRecord
  2
ACAD
 70
     0
  0
ENDTAB
  0
TABLE
  2
DIMSTYLE
  5
A
330
0
100
AcDbSymbolTable
 70
     3
100
AcDbDimStyleTable
  0
DIMSTYLE
105
27
330
A
100
AcDbSymbolTableRecord
100
AcDbDimStyleTableRecord
  2
ISO-25
 70
     0
 41
2.5
 42
0.625
 43
3.75
 44
1.25
 73
     0
 74
     0
 77
     1
 78
     8
140
2.5
141
2.5
143
0.0393700787
147
0.625
171
     3
172
     1
178
     0
271
     2
272
     2
274
     3
278
    44
283
     0
284
     8
340
11
  0
DIMSTYLE
105
2A0
102
{ACAD_REACTORS
330
29F
102
}
330
A
100
AcDbSymbolTableRecord
100
AcDbDimStyleTableRecord
  2
SLDDIMSTYLE0
 70
     0
 41
2.5
 44
0.0
 45
0.000000001
 73
     0
 74
     0
 77
     1
 78
    12
 79
     3
140
2.5683186849
147
0.6420796712
173
     1
178
     0
271
     1
272
     1
276
     2
284
    12
340
D9
  0
DIMSTYLE
105
2B3
102
{ACAD_REACTORS
330
2B2
102
}
330
A
100
AcDbSymbolTableRecord
100
AcDbDimStyleTableRecord
  2
SLDDIMSTYLE1
 70
     0
 41
2.5
 44
0.0
 45
0.000000001
 73
     0
 74
     0
 77
     1
 78
    12
 79
     3
140
2.5683186849
147
0.6420796712
172
     1
173
     1
178
     0
271
     1
272
     1
276
     2
284
    12
289
     0
340
D9
  0
ENDTAB
  0
TABLE
  2
BLOCK_RECORD
  5
1
330
0
100
AcDbSymbolTable
 70
     8
  0
BLOCK_RECORD
  5
1F
330
1
100
AcDbSymbolTableRecord
100
AcDbBlockTableRecord
  2
*Model_Space
340
22
  0
BLOCK_RECORD
  5
1B
330
1
100
AcDbSymbolTableRecord
100
AcDbBlockTableRecord
  2
*Paper_Space
340
1E
  0
BLOCK_RECORD
  5
23
330
1
100
AcDbSymbolTableRecord
100
AcDbBlockTableRecord
  2
*Paper_Space0
340
26
  0
BLOCK_RECORD
  5
63
330
1
100
AcDbSymbolTableRecord
100
AcDbBlockTableRecord
  2
ACO-Logo
340
0
102
{BLKREFS
331
139
102
}
  0
BLOCK_RECORD
  5
D6
330
1
100
AcDbSymbolTableRecord
100
AcDbBlockTableRecord
  2
SW_NOTE_0
340
0
102
{BLKREFS
331
DB
102
}
  0
BLOCK_RECORD
  5
DC
330
1
100
AcDbSymbolTableRecord
100
AcDbBlockTableRecord
  2
SW_NOTE_0_1
340
0
102
{BLKREFS
331
E0
102
}
  0
BLOCK_RECORD
  5
E1
330
1
100
AcDbSymbolTableRecord
100
AcDbBlockTableRecord
  2
SW_NOTE_0_2
340
0
102
{BLKREFS
331
E8
102
}
  0
BLOCK_RECORD
  5
2A1
330
1
100
AcDbSymbolTableRecord
100
AcDbBlockTableRecord
  2
_D
340
0
  0
BLOCK_RECORD
  5
2A9
330
1
100
AcDbSymbolTableRecord
100
AcDbBlockTableRecord
  2
SW_SYMBOL_MOD_BOX
340
0
102
{BLKREFS
331
2B0
102
}
  0
BLOCK_RECORD
  5
2B4
330
1
100
AcDbSymbolTableRecord
100
AcDbBlockTableRecord
  2
_D_1
340
0
  0
ENDTAB
  0
ENDSEC
  0
SECTION
  2
BLOCKS
  0
BLOCK
  5
20
330
1F
100
AcDbEntity
  8
0
100
AcDbBlockBegin
  2
*Model_Space
 70
     0
 10
0.0
 20
0.0
 30
0.0
  3
*Model_Space
  1

  0
ENDBLK
  5
21
330
1F
100
AcDbEntity
  8
0
100
AcDbBlockEnd
  0
BLOCK
  5
1C
330
1B
100
AcDbEntity
 67
     1
  8
0
100
AcDbBlockBegin
  2
*Paper_Space
 70
     0
 10
0.0
 20
0.0
 30
0.0
  3
*Paper_Space
  1

  0
ENDBLK
  5
1D
330
1B
100
AcDbEntity
 67
     1
  8
0
100
AcDbBlockEnd
  0
BLOCK
  5
24
330
23
100
AcDbEntity
  8
0
100
AcDbBlockBegin
  2
*Paper_Space0
 70
     0
 10
0.0
 20
0.0
 30
0.0
  3
*Paper_Space0
  1

  0
ENDBLK
  5
25
330
23
100
AcDbEntity
  8
0
100
AcDbBlockEnd
  0
BLOCK
  5
64
330
63
100
AcDbEntity
  8
0
100
AcDbBlockBegin
  2
ACO-Logo
 70
     0
 10
0.0
 20
0.0
 30
0.0
  3
ACO-Logo
  1

  0
ARC
  5
66
330
63
100
AcDbEntity
  8
0
  6
Continuous
 62
     7
370
    18
100
AcDbCircle
 10
80.3853261169
 20
4.9940995715
 30
0.0
 40
0.3000000000000441
100
AcDbArc
 50
181.9349323096
 51
274.6062978506
  0
ARC
  5
67
330
63
100
AcDbEntity
  8
0
  6
Continuous
 62
     7
370
    18
100
AcDbCircle
 10
81.2359083165
 20
2.1946665956
 30
0.0
 40
1.000000000000021
100
AcDbArc
 50
221.4087409628
 51
276.0561297228
  0
ARC
  5
68
330
63
100
AcDbEntity
  8
0
  6
Continuous
 62
     7
370
    18
100
AcDbCircle
 10
79.1360017163
 20
3.654242048
 30
0.0
 40
0.300000000000004
100
AcDbArc
 50
181.2730300201
 51
274.4996077095
  0
ARC
  5
69
330
63
100
AcDbEntity
  8
0
  6
Continuous
 62
     7
370
    18
100
AcDbCircle
 10
78.7699033484
 20
3.2873137407
 30
0.0
 40
0.4000000000000358
100
AcDbArc
 50
221.0090869016
 51
274.5606296317
  0
ARC
  5
6A
330
63
100
AcDbEntity
  8
0
  6
Continuous
 62
     7
370
    18
100
AcDbCircle
 10
91.2333953062
 20
4.6062442307
 30
0.0
 40
0.3000000000000493
100
AcDbArc
 50
274.4996077095
 51
3.7249371334
  0
ARC
  5
6B
330
63
100
AcDbEntity
  8
0
  6
Continuous
 62
     7
370
    18
100
AcDbCircle
 10
81.5287571045
 20
9.7648973508
 30
0.0
 40
1.00000000000002
100
AcDbArc
 50
93.1134387481
 51
181.9414863909
  0
ARC
  5
6C
330
63
100
AcDbEntity
  8
0
  6
Continuous
 62
     7
370
    18
100
AcDbCircle
 10
81.6051675115
 20
7.5107903456
 30
0.0
 40
1.0
100
AcDbArc
 50
181.9414863909
 51
274.398705355
  0
ARC
  5
6D
330
63
100
AcDbEntity
  8
0
  6
Continuous
 62
     7
370
    18
100
AcDbCircle
 10
80.1506905656
 20
11.9393118923
 30
0.0
 40
0.300000000000045
100
AcDbArc
 50
93.0418421566
 51
181.9349323096
  0
ARC
  5
6E
330
63
100
AcDbEntity
  8
0
  6
Continuous
 62
     7
370
    18
100
AcDbCircle
 10
78.1879722102
 20
12.3499352608
 30
0.0
 40
0.7999999999953393
100
AcDbArc
 50
92.6995697565
 51
148.2554209065
  0
ARC
  5
6F
330
63
100
AcDbEntity
  8
0
  6
Continuous
 62
     7
370
    18
100
AcDbCircle
 10
78.930862229
 20
12.8855189761
 30
0.0
 40
0.3000000000000031
100
AcDbArc
 50
92.6995697565
 51
181.2730300201
  0
ARC
  5
70
330
63
100
AcDbEntity
  8
0
  6
Continuous
 62
     7
370
    18
100
AcDbCircle
 10
82.327743407
 20
9.8083568568
 30
0.0
 40
1.000000000000034
100
AcDbArc
 50
1.9414863909
 51
93.1134387481
  0
ARC
  5
71
330
63
100
AcDbEntity
  8
0
  6
Continuous
 62
     7
370
    18
100
AcDbCircle
 10
81.5287571045
 20
9.7648973508
 30
0.0
 40
0.3625000000000009
100
AcDbArc
 50
93.1134387481
 51
181.9414863909
  0
ARC
  5
72
330
63
100
AcDbEntity
  8
0
  6
Continuous
 62
     7
370
    18
100
AcDbCircle
 10
82.327743407
 20
9.8083568568
 30
0.0
 40
0.3625000000000146
100
AcDbArc
 50
1.9414863909
 51
93.1134387481
  0
ARC
  5
73
330
63
100
AcDbEntity
  8
0
  6
Continuous
 62
     7
370
    18
100
AcDbCircle
 10
82.4035451983
 20
7.5722040138
 30
0.0
 40
1.000000000000008
100
AcDbArc
 50
274.398705355
 51
1.9414863909
  0
ARC
  5
74
330
63
100
AcDbEntity
  8
0
  6
Continuous
 62
     7
370
    18
100
AcDbCircle
 10
82.4035451983
 20
7.5722040138
 30
0.0
 40
0.3625000000000068
100
AcDbArc
 50
274.398705355
 51
1.9414863909
  0
ARC
  5
75
330
63
100
AcDbEntity
  8
0
  6
Continuous
 62
     7
370
    18
100
AcDbCircle
 10
81.6051675115
 20
7.5107903456
 30
0.0
 40
0.3625000000000111
100
AcDbArc
 50
181.9414863909
 51
274.398705355
  0
ARC
  5
76
330
63
100
AcDbEntity
  8
0
  6
Continuous
 62
     7
370
    18
100
AcDbCircle
 10
88.825822761
 20
8.0662148274
 30
0.0
 40
0.9999999999999997
100
AcDbArc
 50
274.398705355
 51
2.6541955134
  0
ARC
  5
77
330
63
100
AcDbEntity
  8
0
  6
Continuous
 62
     7
370
    18
100
AcDbCircle
 10
90.1578295581
 20
5.7814576687
 30
0.0
 40
0.3000000000000043
100
AcDbArc
 50
274.6062978507
 51
2.5147526475
  0
ARC
  5
78
330
63
100
AcDbEntity
  8
0
  6
Continuous
 62
     7
370
    18
100
AcDbCircle
 10
88.825822761
 20
8.0662148274
 30
0.0
 40
0.3625000000000083
100
AcDbArc
 50
274.398705355
 51
2.6541955134
  0
ARC
  5
79
330
63
100
AcDbEntity
  8
0
  6
Continuous
 62
     7
370
    18
100
AcDbCircle
 10
88.728529747
 20
10.16496413
 30
0.0
 40
1.000000000000001
100
AcDbArc
 50
2.6541955134
 51
93.1134387481
  0
ARC
  5
7A
330
63
100
AcDbEntity
  8
0
  6
Continuous
 62
     7
370
    18
100
AcDbCircle
 10
88.728529747
 20
10.16496413
 30
0.0
 40
0.3625000000000085
100
AcDbArc
 50
2.6541955134
 51
93.1134387481
  0
ARC
  5
7B
330
63
100
AcDbEntity
  8
0
  6
Continuous
 62
     7
370
    18
100
AcDbCircle
 10
89.8647121341
 20
12.455515937
 30
0.0
 40
0.2999999999999984
100
AcDbArc
 50
2.5147526475
 51
93.0418421566
  0
ARC
  5
7C
330
63
100
AcDbEntity
  8
0
  6
Continuous
 62
     7
370
    18
100
AcDbCircle
 10
90.6583795404
 20
13.4384863935
 30
0.0
 40
0.2999999999999911
100
AcDbArc
 50
3.7249371334
 51
92.6995697565
  0
CIRCLE
  5
7D
330
63
100
AcDbEntity
  8
0
  6
Continuous
 62
     7
370
    18
100
AcDbCircle
 10
15.7233972286
 20
6.4054930194
 30
0.0
 40
1.579500000000014
  0
CIRCLE
  5
7E
330
63
100
AcDbEntity
  8
0
  6
Continuous
 62
     7
370
    18
100
AcDbCircle
 10
15.7233972286
 20
6.4054930194
 30
0.0
 40
2.281499999999994
  0
ARC
  5
7F
330
63
100
AcDbEntity
  8
0
  6
Continuous
 62
     7
370
    18
100
AcDbCircle
 10
89.7681336026
 20
2.3106616691
 30
0.0
 40
0.098384530246548
100
AcDbArc
 50
332.3802627259
 51
4.9765441602
  0
ARC
  5
80
330
63
100
AcDbEntity
  8
0
  6
Continuous
 62
     7
370
    18
100
AcDbCircle
 10
89.6886560089
 20
2.3522464185
 30
0.0
 40
0.1880839130754018
100
AcDbArc
 50
303.690067526
 51
332.3802627258
  0
ARC
  5
81
330
63
100
AcDbEntity
  8
0
  6
Continuous
 62
     7
370
    18
100
AcDbCircle
 10
89.4849700869
 20
2.6577753016
 30
0.0
 40
0.5552839311631531
100
AcDbArc
 50
287.108652213
 51
303.690067526
  0
ARC
  5
82
330
63
100
AcDbEntity
  8
0
  6
Continuous
 62
     7
370
    18
100
AcDbCircle
 10
88.0513010646
 20
7.3154864882
 30
0.0
 40
5.428648309393203
100
AcDbArc
 50
285.2551187031
 51
287.108652213
  0
ARC
  5
83
330
63
100
AcDbEntity
  8
0
  6
Continuous
 62
     7
370
    18
100
AcDbCircle
 10
89.1317168954
 20
3.3539617753
 30
0.0
 40
1.322436378825653
100
AcDbArc
 50
281.4991866428
 51
285.255118703
  0
ARC
  5
84
330
63
100
AcDbEntity
  8
0
  6
Continuous
 62
     7
370
    18
100
AcDbCircle
 10
89.3198255509
 20
2.4293110075
 30
0.0
 40
0.3788454141584939
100
AcDbArc
 50
279.1917900003
 51
281.499186643
  0
ARC
  5
85
330
63
100
AcDbEntity
  8
0
  6
Continuous
 62
     7
370
    18
100
AcDbCircle
 10
89.0487250788
 20
4.1046569124
 30
0.0
 40
2.07598399629105
100
AcDbArc
 50
277.7634675038
 51
279.1917900002
  0
ARC
  5
86
330
63
100
AcDbEntity
  8
0
  6
Continuous
 62
     7
370
    18
100
AcDbCircle
 10
9.2588909915
 20
6.4054930194
 30
0.0
 40
1.579500000000074
100
AcDbArc
 50
31.0558004991
 51
330.0
  0
ARC
  5
87
330
63
100
AcDbEntity
  8
0
  6
Continuous
 62
     7
370
    18
100
AcDbCircle
 10
9.2588909915
 20
6.4054930194
 30
0.0
 40
2.281500000000107
100
AcDbArc
 50
30.7309172659
 51
330.0
  0
ARC
  5
88
330
63
100
AcDbEntity
  8
0
  6
Continuous
 62
     7
370
    18
100
AcDbCircle
 10
6.1288847544
 20
4.0685261312
 30
0.0
 40
4.914000000000307
100
AcDbArc
 50
172.3058370354
 51
179.7113029221
  0
ARC
  5
89
330
63
100
AcDbEntity
  8
0
  6
Continuous
 62
     7
370
    18
100
AcDbCircle
 10
-0.5401152456
 20
4.0685261312
 30
0.0
 40
4.91400000000019
100
AcDbArc
 50
0.2886970779
 51
7.6941629646
  0
ARC
  5
8A
330
63
100
AcDbEntity
  8
0
  6
Continuous
 62
     7
370
    18
100
AcDbCircle
 10
-0.5401152456
 20
4.0685261312
 30
0.0
 40
5.616000000000127
100
AcDbArc
 50
0.2526096926
 51
53.5764263577
  0
ARC
  5
8B
330
63
100
AcDbEntity
  8
0
  6
Continuous
 62
     7
370
    18
100
AcDbCircle
 10
6.1288847544
 20
4.0685261312
 30
0.0
 40
5.61600000000074
100
AcDbArc
 50
126.4235736423
 51
179.7473903073
  0
ARC
  5
8C
330
63
100
AcDbEntity
  8
0
  6
Continuous
 62
     7
370
    18
100
AcDbCircle
 10
-0.5401152456
 20
4.0685261312
 30
0.0
 40
4.914000000000161
100
AcDbArc
 50
16.0658750272
 51
47.2678899574
  0
ARC
  5
8D
330
63
100
AcDbEntity
  8
0
  6
Continuous
 62
     7
370
    18
100
AcDbCircle
 10
6.1288847544
 20
4.0685261312
 30
0.0
 40
4.914000000000584
100
AcDbArc
 50
132.7321100426
 51
163.9341249728
  0
LINE
  5
8E
330
63
100
AcDbEntity
  8
0
  6
Continuous
 62
     7
370
    18
100
AcDbLine
 10
78.8017089389
 20
2.8885802402
 30
0.0
 11
90.7982178739
 21
3.8455002136
 31
0.0
  0
LINE
  5
8F
330
63
100
AcDbEntity
  8
0
  6
Continuous
 62
     7
370
    18
100
AcDbLine
 10
76.6545490427
 20
5.8693097374
 30
0.0
 11
78.0344191726
 21
3.5235305166
 31
0.0
  0
LINE
  5
90
330
63
100
AcDbEntity
  8
0
  6
Continuous
 62
     7
370
    18
100
AcDbLine
 10
91.5327615373
 20
4.6257342197
 30
0.0
 11
90.9577457715
 21
13.4579763825
 31
0.0
  0
LINE
  5
91
330
63
100
AcDbEntity
  8
0
  6
Continuous
 62
     7
370
    18
100
AcDbLine
 10
78.6309362756
 20
12.8788539549
 30
0.0
 11
78.8360757629
 21
3.6475770268
 31
0.0
  0
LINE
  5
92
330
63
100
AcDbEntity
  8
0
  6
Continuous
 62
     7
370
    18
100
AcDbLine
 10
80.4094186633
 20
4.6950685544
 30
0.0
 11
90.1819221045
 21
5.4824266516
 31
0.0
  0
LINE
  5
93
330
63
100
AcDbEntity
  8
0
  6
Continuous
 62
     7
370
    18
100
AcDbLine
 10
79.1595373973
 20
3.3551666867
 30
0.0
 11
91.2569309872
 21
4.3071688694
 31
0.0
  0
LINE
  5
94
330
63
100
AcDbEntity
  8
0
  6
Continuous
 62
     7
370
    18
100
AcDbLine
 10
79.2585043218
 20
2.925017226
 30
0.0
 11
80.4858981444
 21
1.533240302
 31
0.0
  0
LINE
  5
95
330
63
100
AcDbEntity
  8
0
  6
Continuous
 62
     7
370
    18
100
AcDbLine
 10
78.0344191726
 20
3.5235305166
 30
0.0
 11
78.3638740472
 21
3.1446574108
 31
0.0
  0
LINE
  5
96
330
63
100
AcDbEntity
  8
0
  6
Continuous
 62
     7
370
    18
100
AcDbLine
 10
78.3638740472
 20
3.1446574108
 30
0.0
 11
78.4680611395
 21
3.0248422547
 31
0.0
  0
LINE
  5
97
330
63
100
AcDbEntity
  8
0
  6
Continuous
 62
     7
370
    18
100
AcDbLine
 10
81.3414110113
 20
1.2002475785
 30
0.0
 11
89.3291569519
 21
2.0477010263
 31
0.0
  0
LINE
  5
98
330
63
100
AcDbEntity
  8
0
  6
Continuous
 62
     7
370
    18
100
AcDbLine
 10
89.8661472522
 20
2.5197759309
 30
0.0
 11
89.8661472522
 21
2.3090867337
 31
0.0
  0
LINE
  5
99
330
63
100
AcDbEntity
  8
0
  6
Continuous
 62
     7
370
    18
100
AcDbLine
 10
88.676842368
 20
3.6762854359
 30
0.0
 11
89.6713239345
 21
2.7875997807
 31
0.0
  0
LINE
  5
9A
330
63
100
AcDbEntity
  8
0
  6
Continuous
 62
     7
370
    18
100
AcDbLine
 10
89.6713239345
 20
2.7875997807
 30
0.0
 11
89.7459749087
 21
2.7242700694
 31
0.0
  0
LINE
  5
9B
330
63
100
AcDbEntity
  8
0
  6
Continuous
 62
     7
370
    18
100
AcDbLine
 10
90.7982178739
 20
3.8455002136
 30
0.0
 11
91.3961615969
 21
4.3514525945
 31
0.0
  0
LINE
  5
9C
330
63
100
AcDbEntity
  8
0
  6
Continuous
 62
     7
370
    18
100
AcDbLine
 10
90.6442498554
 20
13.7381534621
 30
0.0
 11
78.1502930503
 21
13.1490474438
 31
0.0
  0
LINE
  5
9D
330
63
100
AcDbEntity
  8
0
  6
Continuous
 62
     7
370
    18
100
AcDbLine
 10
80.1347709981
 20
12.2388892068
 30
0.0
 11
89.8487925667
 21
12.7550932515
 31
0.0
  0
LINE
  5
9E
330
63
100
AcDbEntity
  8
0
  6
Continuous
 62
     7
370
    18
100
AcDbLine
 10
76.4935641943
 20
11.7567556248
 30
0.0
 11
76.6545490427
 21
5.8693097374
 31
0.0
  0
LINE
  5
9F
330
63
100
AcDbEntity
  8
0
  6
Continuous
 62
     7
370
    18
100
AcDbLine
 10
79.8508616208
 20
11.929182536
 30
0.0
 11
80.0854971721
 21
4.9839702153
 31
0.0
  0
LINE
  5
A0
330
63
100
AcDbEntity
  8
0
  6
Continuous
 62
     7
370
    18
100
AcDbLine
 10
80.5293311574
 20
9.7310185051
 30
0.0
 11
80.6057415643
 21
7.4769115
 31
0.0
  0
LINE
  5
A1
330
63
100
AcDbEntity
  8
0
  6
Continuous
 62
     7
370
    18
100
AcDbLine
 10
77.507650604
 20
12.7708420346
 30
0.0
 11
76.4935641943
 21
11.7567556248
 31
0.0
  0
LINE
  5
A2
330
63
100
AcDbEntity
  8
0
  6
Continuous
 62
     7
370
    18
100
AcDbLine
 10
86.8848195129
 20
11.0661568594
 30
0.0
 11
88.6742167283
 21
11.1634880887
 31
0.0
  0
LINE
  5
A3
330
63
100
AcDbEntity
  8
0
  6
Continuous
 62
     7
370
    18
100
AcDbLine
 10
87.0766213517
 20
6.9287171941
 30
0.0
 11
88.90708891
 21
7.0695223909
 31
0.0
  0
LINE
  5
A4
330
63
100
AcDbEntity
  8
0
  6
Continuous
 62
     7
370
    18
100
AcDbLine
 10
87.6830038473
 20
7.6147347768
 30
0.0
 11
88.8536252418
 21
7.7047825764
 31
0.0
  0
LINE
  5
A5
330
63
100
AcDbEntity
  8
0
  6
Continuous
 62
     7
370
    18
100
AcDbLine
 10
87.5509212094
 20
10.4639459651
 30
0.0
 11
88.7088412777
 21
10.5269290651
 31
0.0
  0
LINE
  5
A6
330
63
100
AcDbEntity
  8
0
  6
Continuous
 62
     7
370
    18
100
AcDbLine
 10
87.0766218384
 20
6.9287066941
 30
0.0
 11
86.8848195129
 21
11.0661568594
 31
0.0
  0
LINE
  5
A7
330
63
100
AcDbEntity
  8
0
  6
Continuous
 62
     7
370
    18
100
AcDbLine
 10
83.7004598825
 20
6.6667911093
 30
0.0
 11
84.5054929504
 21
10.9267193262
 31
0.0
  0
LINE
  5
A8
330
63
100
AcDbEntity
  8
0
  6
Continuous
 62
     7
370
    18
100
AcDbLine
 10
85.3543248406
 20
10.9728900984
 30
0.0
 11
86.4940946704
 21
6.8816860929
 31
0.0
  0
LINE
  5
A9
330
63
100
AcDbEntity
  8
0
  6
Continuous
 62
     7
370
    18
100
AcDbLine
 10
84.9728575427
 20
9.9667192298
 30
0.0
 11
85.4540299774
 21
8.2395506903
 31
0.0
  0
LINE
  5
AA
330
63
100
AcDbEntity
  8
0
  6
Continuous
 62
     7
370
    18
100
AcDbLine
 10
84.6363094629
 20
8.1858350416
 30
0.0
 11
84.9728575427
 21
9.9667192298
 31
0.0
  0
LINE
  5
AB
330
63
100
AcDbEntity
  8
0
  6
Continuous
 62
     7
370
    18
100
AcDbLine
 10
87.6830038473
 20
7.6147347768
 30
0.0
 11
87.5509212094
 21
10.4639459651
 31
0.0
  0
LINE
  5
AC
330
63
100
AcDbEntity
  8
0
  6
Continuous
 62
     7
370
    18
100
AcDbLine
 10
84.6363094629
 20
8.1858350416
 30
0.0
 11
85.4540299774
 21
8.2395506903
 31
0.0
  0
LINE
  5
AD
330
63
100
AcDbEntity
  8
0
  6
Continuous
 62
     7
370
    18
100
AcDbLine
 10
84.5140586807
 20
7.5389304886
 30
0.0
 11
85.6288154243
 21
7.6121582976
 31
0.0
  0
LINE
  5
AE
330
63
100
AcDbEntity
  8
0
  6
Continuous
 62
     7
370
    18
100
AcDbLine
 10
84.3588137958
 20
6.717433718
 30
0.0
 11
84.5140586807
 21
7.5389304886
 31
0.0
  0
LINE
  5
AF
330
63
100
AcDbEntity
  8
0
  6
Continuous
 62
     7
370
    18
100
AcDbLine
 10
81.6818640104
 20
6.5137358601
 30
0.0
 11
82.4802416972
 21
6.5751495283
 31
0.0
  0
LINE
  5
B0
330
63
100
AcDbEntity
  8
0
  6
Continuous
 62
     7
370
    18
100
AcDbLine
 10
81.6329699923
 20
7.1493580946
 30
0.0
 11
82.4313476791
 21
7.2107717628
 31
0.0
  0
LINE
  5
B1
330
63
100
AcDbEntity
  8
0
  6
Continuous
 62
     7
370
    18
100
AcDbLine
 10
83.7004598825
 20
6.6667911093
 30
0.0
 11
84.3588137958
 21
6.717433718
 31
0.0
  0
LINE
  5
B2
330
63
100
AcDbEntity
  8
0
  6
Continuous
 62
     7
370
    18
100
AcDbLine
 10
82.7059483815
 20
9.3512024135
 30
0.0
 11
83.3423973297
 21
9.3930104243
 31
0.0
  0
LINE
  5
B3
330
63
100
AcDbEntity
  8
0
  6
Continuous
 62
     7
370
    18
100
AcDbLine
 10
82.7491656358
 20
8.0762934118
 30
0.0
 11
83.385614584
 21
8.1181014226
 31
0.0
  0
LINE
  5
B4
330
63
100
AcDbEntity
  8
0
  6
Continuous
 62
     7
370
    18
100
AcDbLine
 10
81.1664651987
 20
9.7526162692
 30
0.0
 11
81.2428756056
 21
7.4985092641
 31
0.0
  0
LINE
  5
B5
330
63
100
AcDbEntity
  8
0
  6
Continuous
 62
     7
370
    18
100
AcDbLine
 10
82.6900353128
 20
9.8206379383
 30
0.0
 11
82.7052632884
 21
9.3714126602
 31
0.0
  0
LINE
  5
B6
330
63
100
AcDbEntity
  8
0
  6
Continuous
 62
     7
370
    18
100
AcDbLine
 10
82.7491656358
 20
8.0762934118
 30
0.0
 11
82.7658371041
 21
7.5844850954
 31
0.0
  0
LINE
  5
B7
330
63
100
AcDbEntity
  8
0
  6
Continuous
 62
     7
370
    18
100
AcDbLine
 10
83.3271693541
 20
9.8422357024
 30
0.0
 11
83.3423973297
 21
9.3930104243
 31
0.0
  0
LINE
  5
B8
330
63
100
AcDbEntity
  8
0
  6
Continuous
 62
     7
370
    18
100
AcDbLine
 10
83.385614584
 20
8.1181014226
 30
0.0
 11
83.4029711454
 21
7.6060828595
 31
0.0
  0
LINE
  5
B9
330
63
100
AcDbEntity
  8
0
  6
Continuous
 62
     7
370
    18
100
AcDbLine
 10
85.6288154243
 20
7.6121582976
 30
0.0
 11
85.8462022593
 21
6.8318482152
 31
0.0
  0
LINE
  5
BA
330
63
100
AcDbEntity
  8
0
  6
Continuous
 62
     7
370
    18
100
AcDbLine
 10
85.8462022593
 20
6.8318482152
 30
0.0
 11
86.4940946704
 21
6.8816860929
 31
0.0
  0
LINE
  5
BB
330
63
100
AcDbEntity
  8
0
  6
Continuous
 62
     7
370
    18
100
AcDbLine
 10
84.5054929504
 20
10.9267193262
 30
0.0
 11
85.3543248406
 21
10.9728900984
 31
0.0
  0
LINE
  5
BC
330
63
100
AcDbEntity
  8
0
  6
Continuous
 62
     7
370
    18
100
AcDbLine
 10
81.4744440858
 20
10.7634213094
 30
0.0
 11
82.2734303883
 21
10.8068808154
 31
0.0
  0
LINE
  5
BD
330
63
100
AcDbEntity
  8
0
  6
Continuous
 62
     7
370
    18
100
AcDbLine
 10
81.5090686352
 20
10.1268622858
 30
0.0
 11
82.3080549377
 21
10.1703217918
 31
0.0
  0
LINE
  5
BE
330
63
100
AcDbEntity
  8
0
  6
Continuous
 62
     7
370
    18
100
AcDbLine
 10
90.4575406452
 20
5.7946206556
 30
0.0
 11
90.1644232213
 21
12.4686789239
 31
0.0
  0
LINE
  5
BF
330
63
100
AcDbEntity
  8
0
  6
Continuous
 62
     7
370
    18
100
AcDbLine
 10
89.8247499755
 20
8.1125227115
 30
0.0
 11
89.7274569615
 21
10.2112720142
 31
0.0
  0
LINE
  5
C0
330
63
100
AcDbEntity
  8
0
  6
Continuous
 62
     7
370
    18
100
AcDbLine
 10
89.1879338763
 20
8.0830014354
 30
0.0
 11
89.0906408622
 21
10.181750738
 31
0.0
  0
LINE
  5
C1
330
63
100
AcDbEntity
  8
0
  6
Continuous
 62
     7
370
    18
100
AcDbLine
 10
89.7459749087
 20
2.7242700694
 30
0.0
 11
89.7974962577
 21
2.6659765769
 31
0.0
  0
LINE
  5
C2
330
63
100
AcDbEntity
  8
0
  6
Continuous
 62
     7
370
    18
100
AcDbLine
 10
89.7974962577
 20
2.6659765769
 30
0.0
 11
89.8351851379
 21
2.60192886
 31
0.0
  0
LINE
  5
C3
330
63
100
AcDbEntity
  8
0
  6
Continuous
 62
     7
370
    18
100
AcDbLine
 10
89.8351851379
 20
2.60192886
 30
0.0
 11
89.8661472522
 21
2.5197759309
 31
0.0
  0
LINE
  5
C4
330
63
100
AcDbEntity
  8
0
  6
Continuous
 62
     7
370
    18
100
AcDbLine
 10
10.6119938288
 20
7.2203138351
 30
0.0
 11
11.2200151261
 21
7.5713550947
 31
0.0
  0
LINE
  5
C5
330
63
100
AcDbEntity
  8
0
  6
Continuous
 62
     7
370
    18
100
AcDbLine
 10
11.2347279503
 20
5.2647430194
 30
0.0
 11
10.6267781168
 21
5.6157430194
 31
0.0
  0
LINE
  5
C6
330
63
100
AcDbEntity
  8
0
  6
Continuous
 62
     7
370
    18
100
AcDbLine
 10
6.4645062371
 20
16.1712617198
 30
0.0
 11
6.4645062371
 21
2.9364593988
 31
0.0
  0
LINE
  5
C7
330
63
100
AcDbEntity
  8
0
  6
Continuous
 62
     7
370
    18
100
AcDbLine
 10
6.4645062371
 20
2.9364593988
 30
0.0
 11
12.0532757459
 21
2.9364593988
 31
0.0
  0
LINE
  5
C8
330
63
100
AcDbEntity
  8
0
  6
Continuous
 62
     7
370
    18
100
AcDbLine
 10
12.0532757459
 20
2.9364593988
 30
0.0
 11
12.0532757459
 21
16.1712617198
 31
0.0
  0
LINE
  5
C9
330
63
100
AcDbEntity
  8
0
  6
Continuous
 62
     7
370
    18
100
AcDbLine
 10
12.0532757459
 20
16.1712617198
 30
0.0
 11
6.4645062371
 21
16.1712617198
 31
0.0
  0
LINE
  5
CA
330
63
100
AcDbEntity
  8
0
  6
Continuous
 62
     7
370
    18
100
AcDbLine
 10
0.0
 20
16.1712617198
 30
0.0
 11
0.0
 21
2.9364593988
 31
0.0
  0
LINE
  5
CB
330
63
100
AcDbEntity
  8
0
  6
Continuous
 62
     7
370
    18
100
AcDbLine
 10
0.0
 20
2.9364593988
 30
0.0
 11
5.5887695089
 21
2.9364593988
 31
0.0
  0
LINE
  5
CC
330
63
100
AcDbEntity
  8
0
  6
Continuous
 62
     7
370
    18
100
AcDbLine
 10
5.5887695089
 20
2.9364593988
 30
0.0
 11
5.5887695089
 21
16.1712617198
 31
0.0
  0
LINE
  5
CD
330
63
100
AcDbEntity
  8
0
  6
Continuous
 62
     7
370
    18
100
AcDbLine
 10
5.5887695089
 20
16.1712617198
 30
0.0
 11
0.0
 21
16.1712617198
 31
0.0
  0
LINE
  5
CE
330
63
100
AcDbEntity
  8
0
  6
Continuous
 62
     7
370
    18
100
AcDbLine
 10
1.2591262606
 20
4.7264381407
 30
0.0
 11
4.3296432482
 21
4.7264381407
 31
0.0
  0
LINE
  5
CF
330
63
100
AcDbEntity
  8
0
  6
Continuous
 62
     7
370
    18
100
AcDbLine
 10
4.3738223747
 20
4.0932862697
 30
0.0
 11
5.0758301722
 21
4.0932862697
 31
0.0
  0
LINE
  5
D0
330
63
100
AcDbEntity
  8
0
  6
Continuous
 62
     7
370
    18
100
AcDbLine
 10
0.5129393366
 20
4.0932862697
 30
0.0
 11
1.2149471342
 21
4.0932862697
 31
0.0
  0
LINE
  5
D1
330
63
100
AcDbEntity
  8
0
  6
Continuous
 62
     7
370
    18
100
AcDbLine
 10
4.1819643097
 20
5.4284381407
 30
0.0
 11
1.4068051992
 21
5.4284381407
 31
0.0
  0
LINE
  5
D2
330
63
100
AcDbEntity
  8
0
  6
Continuous
 62
     7
370
    18
100
AcDbLine
 10
18.517781983
 20
16.1712617198
 30
0.0
 11
18.517781983
 21
2.9364593988
 31
0.0
  0
LINE
  5
D3
330
63
100
AcDbEntity
  8
0
  6
Continuous
 62
     7
370
    18
100
AcDbLine
 10
18.517781983
 20
2.9364593988
 30
0.0
 11
12.9290124742
 21
2.9364593988
 31
0.0
  0
LINE
  5
D4
330
63
100
AcDbEntity
  8
0
  6
Continuous
 62
     7
370
    18
100
AcDbLine
 10
12.9290124742
 20
2.9364593988
 30
0.0
 11
12.9290124742
 21
16.1712617198
 31
0.0
  0
LINE
  5
D5
330
63
100
AcDbEntity
  8
0
  6
Continuous
 62
     7
370
    18
100
AcDbLine
 10
12.9290124742
 20
16.1712617198
 30
0.0
 11
18.517781983
 21
16.1712617198
 31
0.0
  0
INSERT
  5
DB
330
63
100
AcDbEntity
  8
0
  6
Continuous
 62
     7
370
     0
100
AcDbBlockReference
  2
SW_NOTE_0
 10
1.8998941161
 20
-0.3226565443
 30
0.0
  0
INSERT
  5
E0
330
63
100
AcDbEntity
  8
0
  6
Continuous
 62
     7
370
     0
100
AcDbBlockReference
  2
SW_NOTE_0_1
 10
29.1164837035
 20
12.7459167441
 30
0.0
  0
INSERT
  5
E8
330
63
100
AcDbEntity
  8
0
  6
Continuous
 62
     7
370
     0
100
AcDbBlockReference
  2
SW_NOTE_0_2
 10
28.8863479825
 20
8.6365742194
 30
0.0
  0
ENDBLK
  5
65
330
63
100
AcDbEntity
  8
0
100
AcDbBlockEnd
  0
BLOCK
  5
D7
330
D6
100
AcDbEntity
  8
0
100
AcDbBlockBegin
  2
SW_NOTE_0
 70
     0
 10
0.0
 20
0.0
 30
0.0
  3
SW_NOTE_0
  1

  0
MTEXT
  5
DA
330
D6
100
AcDbEntity
  8
0
  6
Continuous
 62
     0
370
     0
100
AcDbMText
 10
7.46875
 20
2.5781354795
 30
0.0
 40
2.0
 41
0.0
 71
     2
 72
     1
  1
www.aco.ch
  7
SLDTEXTSTYLE0
 73
     1
 44
1.0
  0
ENDBLK
  5
D8
330
D6
100
AcDbEntity
  8
0
100
AcDbBlockEnd
  0
BLOCK
  5
DD
330
DC
100
AcDbEntity
  8
0
100
AcDbBlockBegin
  2
SW_NOTE_0_1
 70
     0
 10
0.0
 20
0.0
 30
0.0
  3
SW_NOTE_0_1
  1

  0
MTEXT
  5
DF
330
DC
100
AcDbEntity
  8
0
  6
Continuous
 62
     0
370
     0
100
AcDbMText
 10
0.0
 20
3.8672032193
 30
0.0
 40
3.0
 41
0.0
 71
     1
 72
     1
  1
ACO AG
  7
SLDTEXTSTYLE0
 73
     1
 44
1.0
  0
ENDBLK
  5
DE
330
DC
100
AcDbEntity
  8
0
100
AcDbBlockEnd
  0
BLOCK
  5
E2
330
E1
100
AcDbEntity
  8
0
100
AcDbBlockBegin
  2
SW_NOTE_0_2
 70
     0
 10
0.0
 20
0.0
 30
0.0
  3
SW_NOTE_0_2
  1

  0
MTEXT
  5
E4
330
E1
100
AcDbEntity
  8
0
  6
Continuous
 62
     0
370
     0
100
AcDbMText
 10
0.0
 20
2.5781354795
 30
0.0
 40
2.0
 41
0.0
 71
     1
 72
     1
  1
Industrie Kleinzaun
  7
SLDTEXTSTYLE0
 73
     1
 44
1.0
  0
MTEXT
  5
E5
330
E1
100
AcDbEntity
  8
0
  6
Continuous
 62
     0
370
     0
100
AcDbMText
 10
0.0
 20
-0.4218645465
 30
0.0
 40
2.0
 41
0.0
 71
     1
 72
     1
  1
CH-8754 Netstal
  7
SLDTEXTSTYLE0
 73
     1
 44
1.0
  0
MTEXT
  5
E6
330
E1
100
AcDbEntity
  8
0
  6
Continuous
 62
     0
370
     0
100
AcDbMText
 10
0.0
 20
-3.4218645726
 30
0.0
 40
2.0
 41
0.0
 71
     1
 72
     1
  1
Tel. 055 / 645 53 00
  7
SLDTEXTSTYLE0
 73
     1
 44
1.0
  0
MTEXT
  5
E7
330
E1
100
AcDbEntity
  8
0
  6
Continuous
 62
     0
370
     0
100
AcDbMText
 10
0.0
 20
-6.4218645987
 30
0.0
 40
2.0
 41
0.0
 71
     1
 72
     1
  1
E-Mail: aco@aco.ch
  7
SLDTEXTSTYLE0
 73
     1
 44
1.0
  0
ENDBLK
  5
E3
330
E1
100
AcDbEntity
  8
0
100
AcDbBlockEnd
  0
BLOCK
  5
2A2
330
2A1
100
AcDbEntity
  8
0
100
AcDbBlockBegin
  2
_D
 70
     0
 10
0.0
 20
0.0
 30
0.0
  3
_D
  1

  0
SOLID
  5
2A4
330
2A1
100
AcDbEntity
  8
0
  6
Continuous
 62
     7
370
    18
100
AcDbTrace
 10
72.6563515629
 20
227.3033715107
 30
0.0
 11
75.1563515629
 21
226.9283715107
 31
0.0
 12
75.1563515629
 22
227.6783715107
 32
0.0
 13
75.1563515629
 23
227.6783715107
 33
0.0
  0
SOLID
  5
2A5
330
2A1
100
AcDbEntity
  8
0
  6
Continuous
 62
     7
370
    18
100
AcDbTrace
 10
189.1563515629
 20
227.3033715107
 30
0.0
 11
186.6563515629
 21
227.6783715107
 31
0.0
 12
186.6563515629
 22
226.9283715107
 32
0.0
 13
186.6563515629
 23
226.9283715107
 33
0.0
  0
LINE
  5
2A6
330
2A1
100
AcDbEntity
  8
0
  6
Continuous
 62
     7
370
     0
100
AcDbLine
 10
72.6563515629
 20
217.6033715107
 30
0.0
 11
72.6563515629
 21
228.3033715107
 31
0.0
  0
LINE
  5
2A7
330
2A1
100
AcDbEntity
  8
0
  6
Continuous
 62
     7
370
     0
100
AcDbLine
 10
189.1563515629
 20
217.6033715107
 30
0.0
 11
189.1563515629
 21
228.3033715107
 31
0.0
  0
LINE
  5
2A8
330
2A1
100
AcDbEntity
  8
0
  6
Continuous
 62
     7
370
     0
100
AcDbLine
 10
72.6563515629
 20
227.3033715107
 30
0.0
 11
189.1563515629
 21
227.3033715107
 31
0.0
  0
INSERT
  5
2B0
330
2A1
100
AcDbEntity
  8
0
  6
Continuous
 62
     7
370
    18
100
AcDbBlockReference
  2
SW_SYMBOL_MOD_BOX
 10
124.721715879
 20
227.6857842161
 30
0.0
 41
0.0034106584
 42
0.0034106584
 43
0.0034106584
 50
0.0
  0
MTEXT
  5
2B1
330
2A1
100
AcDbEntity
  8
0
  6
Continuous
 62
     7
370
    18
100
AcDbMText
 10
128.2715422104
 20
230.7140300801
 30
0.0
 40
2.6458333333
 41
0.0
 71
     1
 72
     1
  1
116.5
  7
SLDTEXTSTYLE0
 73
     1
 44
1.0
  0
ENDBLK
  5
2A3
330
2A1
100
AcDbEntity
  8
0
100
AcDbBlockEnd
  0
BLOCK
  5
2AA
330
2A9
100
AcDbEntity
  8
0
100
AcDbBlockBegin
  2
SW_SYMBOL_MOD_BOX
 70
     0
 10
0.0
 20
0.0
 30
0.0
  3
SW_SYMBOL_MOD_BOX
  1

  0
LINE
  5
2AC
330
2A9
100
AcDbEntity
  8
0
  6
Continuous
 62
     0
370
    18
100
AcDbLine
 10
200.0
 20
200.0
 30
0.0
 11
800.0
 21
200.0
 31
0.0
  0
LINE
  5
2AD
330
2A9
100
AcDbEntity
  8
0
  6
Continuous
 62
     0
370
    18
100
AcDbLine
 10
200.0
 20
200.0
 30
0.0
 11
200.0
 21
800.0
 31
0.0
  0
LINE
  5
2AE
330
2A9
100
AcDbEntity
  8
0
  6
Continuous
 62
     0
370
    18
100
AcDbLine
 10
200.0
 20
800.0
 30
0.0
 11
800.0
 21
800.0
 31
0.0
  0
LINE
  5
2AF
330
2A9
100
AcDbEntity
  8
0
  6
Continuous
 62
     0
370
    18
100
AcDbLine
 10
800.0
 20
800.0
 30
0.0
 11
800.0
 21
200.0
 31
0.0
  0
ENDBLK
  5
2AB
330
2A9
100
AcDbEntity
  8
0
100
AcDbBlockEnd
  0
BLOCK
  5
2B5
330
2B4
100
AcDbEntity
  8
0
100
AcDbBlockBegin
  2
_D_1
 70
     0
 10
0.0
 20
0.0
 30
0.0
  3
_D_1
  1

  0
SOLID
  5
2B7
330
2B4
100
AcDbEntity
  8
0
  6
Continuous
 62
     7
370
    18
100
AcDbTrace
 10
196.1563515629
 20
212.8033715107
 30
0.0
 11
195.7813515629
 21
210.3033715107
 31
0.0
 12
196.5313515629
 22
210.3033715107
 32
0.0
 13
196.5313515629
 23
210.3033715107
 33
0.0
  0
SOLID
  5
2B8
330
2B4
100
AcDbEntity
  8
0
  6
Continuous
 62
     7
370
    18
100
AcDbTrace
 10
196.1563515629
 20
220.3033715107
 30
0.0
 11
196.5313515629
 21
222.8033715107
 31
0.0
 12
195.7813515629
 22
222.8033715107
 32
0.0
 13
195.7813515629
 23
222.8033715107
 33
0.0
  0
LINE
  5
2B9
330
2B4
100
AcDbEntity
  8
0
  6
Continuous
 62
     7
370
     0
100
AcDbLine
 10
189.4563515629
 20
212.8033715107
 30
0.0
 11
197.1563515629
 21
212.8033715107
 31
0.0
  0
LINE
  5
2BA
330
2B4
100
AcDbEntity
  8
0
  6
Continuous
 62
     7
370
     0
100
AcDbLine
 10
186.4563515629
 20
220.3033715107
 30
0.0
 11
197.1563515629
 21
220.3033715107
 31
0.0
  0
LINE
  5
2BB
330
2B4
100
AcDbEntity
  8
0
  6
Continuous
 62
     7
370
     0
100
AcDbLine
 10
196.1563515629
 20
212.8033715107
 30
0.0
 11
196.1563515629
 21
207.8033715107
 31
0.0
  0
LINE
  5
2BC
330
2B4
100
AcDbEntity
  8
0
  6
Continuous
 62
     7
370
     0
100
AcDbLine
 10
196.1563515629
 20
212.8033715107
 30
0.0
 11
196.1563515629
 21
220.3033715107
 31
0.0
  0
LINE
  5
2BD
330
2B4
100
AcDbEntity
  8
0
  6
Continuous
 62
     7
370
     0
100
AcDbLine
 10
196.1563515629
 20
220.3033715107
 30
0.0
 11
196.1563515629
 21
225.3033715107
 31
0.0
  0
MTEXT
  5
2BE
330
2B4
100
AcDbEntity
  8
0
  6
Continuous
 62
     7
370
    18
100
AcDbMText
 10
192.7456929935
 20
214.1035256155
 30
0.0
 40
2.6458333333
 41
0.0
 71
     1
 72
     1
  1
7.5
  7
SLDTEXTSTYLE0
 11
6.123233995736766E-17
 21
1.0
 31
0.0
 73
     1
 44
1.0
  0
ENDBLK
  5
2B6
330
2B4
100
AcDbEntity
  8
0
100
AcDbBlockEnd
  0
ENDSEC
  0
SECTION
  2
ENTITIES
  0
LINE
  5
E9
330
1F
100
AcDbEntity
  8
0
  6
CENTERX2
 62
     7
370
    18
100
AcDbLine
 10
352.6174545849
 20
46.9080238789
 30
0.0
 11
352.6174545849
 21
39.4621586124
 31
0.0
  0
LINE
  5
EA
330
1F
100
AcDbEntity
  8
0
  6
Continuous
 62
     7
370
    18
100
AcDbLine
 10
357.7661698132
 20
46.3720107039
 30
0.0
 11
357.7661698132
 21
39.9353173413
 31
0.0
  0
LINE
  5
EB
330
1F
100
AcDbEntity
  8
0
  6
Continuous
 62
     7
370
    18
100
AcDbLine
 10
364.6059427486
 20
44.7376225767
 30
0.0
 11
364.6059427486
 21
41.5697054685
 31
0.0
  0
LINE
  5
EC
330
1F
100
AcDbEntity
  8
0
  6
Continuous
 62
     7
370
    18
100
AcDbLine
 10
364.6059427486
 20
44.7376225767
 30
0.0
 11
357.7661698132
 21
46.3720107039
 31
0.0
  0
LINE
  5
ED
330
1F
100
AcDbEntity
  8
0
  6
Continuous
 62
     7
370
    18
100
AcDbLine
 10
15.0
 20
198.5
 30
0.0
 11
20.0
 21
198.5
 31
0.0
  0
LINE
  5
EE
330
1F
100
AcDbEntity
  8
0
  6
Continuous
 62
     7
370
    18
100
AcDbLine
 10
12.0
 20
148.5
 30
0.0
 11
0.0
 21
148.5
 31
0.0
  0
LINE
  5
EF
330
1F
100
AcDbEntity
  8
0
  6
Continuous
 62
     7
370
    18
100
AcDbLine
 10
357.7661698132
 20
39.9353173413
 30
0.0
 11
364.6059427486
 21
41.5697054685
 31
0.0
  0
LINE
  5
F0
330
1F
100
AcDbEntity
  8
0
  6
CENTERX2
 62
     7
370
    18
100
AcDbLine
 10
348.6240467841
 20
43.1536640226
 30
0.0
 11
356.6108623857
 21
43.1536640226
 31
0.0
  0
LINE
  5
F1
330
1F
100
AcDbEntity
  8
0
  6
CENTERX2
 62
     7
370
    18
100
AcDbLine
 10
357.1289238876
 20
43.1536640226
 30
0.0
 11
365.6255362296
 21
43.1536640226
 31
0.0
  0
LINE
  5
F2
330
1F
100
AcDbEntity
  8
0
  6
Continuous
 62
     7
370
    18
100
AcDbLine
 10
0.0
 20
0.0
 30
0.0
 11
420.0
 21
0.0
 31
0.0
  0
LINE
  5
F3
330
1F
100
AcDbEntity
  8
0
  6
Continuous
 62
     7
370
    18
100
AcDbLine
 10
0.0
 20
0.0
 30
0.0
 11
0.0
 21
297.0
 31
0.0
  0
LINE
  5
F4
330
1F
100
AcDbEntity
  8
0
  6
Continuous
 62
     7
370
    18
100
AcDbLine
 10
0.0
 20
297.0
 30
0.0
 11
420.0
 21
297.0
 31
0.0
  0
LINE
  5
F5
330
1F
100
AcDbEntity
  8
0
  6
Continuous
 62
     7
370
    18
100
AcDbLine
 10
420.0
 20
0.0
 30
0.0
 11
420.0
 21
297.0
 31
0.0
  0
LINE
  5
F6
330
1F
100
AcDbEntity
  8
0
  6
Continuous
 62
     7
370
    25
100
AcDbLine
 10
228.0
 20
35.0
 30
0.0
 11
410.0
 21
35.0
 31
0.0
  0
LINE
  5
F7
330
1F
100
AcDbEntity
  8
0
  6
Continuous
 62
     7
370
    18
100
AcDbLine
 10
410.0
 20
198.5
 30
0.0
 11
415.0
 21
198.5
 31
0.0
  0
LINE
  5
F8
330
1F
100
AcDbEntity
  8
0
  6
Continuous
 62
     7
370
    18
100
AcDbLine
 10
15.0
 20
148.5
 30
0.0
 11
20.0
 21
148.5
 31
0.0
  0
LINE
  5
F9
330
1F
100
AcDbEntity
  8
0
  6
Continuous
 62
     7
370
    18
100
AcDbLine
 10
228.0
 20
40.0
 30
0.0
 11
296.6
 21
40.0
 31
0.0
  0
LINE
  5
FA
330
1F
100
AcDbEntity
  8
0
  6
Continuous
 62
     7
370
    18
100
AcDbLine
 10
15.0
 20
248.5
 30
0.0
 11
20.0
 21
248.5
 31
0.0
  0
LINE
  5
FB
330
1F
100
AcDbEntity
  8
0
  6
Continuous
 62
     7
370
    35
100
AcDbLine
 10
20.0
 20
287.0
 30
0.0
 11
20.0
 21
10.0
 31
0.0
  0
LINE
  5
FC
330
1F
100
AcDbEntity
  8
0
  6
Continuous
 62
     7
370
    35
100
AcDbLine
 10
410.0
 20
287.0
 30
0.0
 11
20.0
 21
287.0
 31
0.0
  0
LINE
  5
FD
330
1F
100
AcDbEntity
  8
0
  6
Continuous
 62
     7
370
    35
100
AcDbLine
 10
410.0
 20
5.0
 30
0.0
 11
410.0
 21
287.0
 31
0.0
  0
LINE
  5
FE
330
1F
100
AcDbEntity
  8
0
  6
Continuous
 62
     7
370
    35
100
AcDbLine
 10
20.0
 20
10.0
 30
0.0
 11
415.0
 21
10.0
 31
0.0
  0
LINE
  5
FF
330
1F
100
AcDbEntity
  8
0
  6
Continuous
 62
     7
370
    18
100
AcDbLine
 10
410.0
 20
148.5
 30
0.0
 11
415.0
 21
148.5
 31
0.0
  0
LINE
  5
100
330
1F
100
AcDbEntity
  8
0
  6
Continuous
 62
     7
370
    18
100
AcDbLine
 10
228.0
 20
50.0
 30
0.0
 11
296.6
 21
50.0
 31
0.0
  0
LINE
  5
101
330
1F
100
AcDbEntity
  8
0
  6
Continuous
 62
     7
370
    18
100
AcDbLine
 10
15.0
 20
98.5
 30
0.0
 11
20.0
 21
98.5
 31
0.0
  0
LINE
  5
102
330
1F
100
AcDbEntity
  8
0
  6
Continuous
 62
     7
370
    18
100
AcDbLine
 10
296.6
 20
45.0
 30
0.0
 11
228.0
 21
45.0
 31
0.0
  0
LINE
  5
103
330
1F
100
AcDbEntity
  8
0
  6
Continuous
 62
     7
370
    18
100
AcDbLine
 10
65.0
 20
292.0
 30
0.0
 11
65.0
 21
287.0
 31
0.0
  0
LINE
  5
104
330
1F
100
AcDbEntity
  8
0
  6
Continuous
 62
     7
370
    18
100
AcDbLine
 10
230.0
 20
292.0
 30
0.0
 11
230.0
 21
297.0
 31
0.0
  0
LINE
  5
105
330
1F
100
AcDbEntity
  8
0
  6
Continuous
 62
     7
370
    25
100
AcDbLine
 10
296.6
 20
55.0
 30
0.0
 11
296.6
 21
35.0
 31
0.0
  0
LINE
  5
106
330
1F
100
AcDbEntity
  8
0
  6
Continuous
 62
     7
370
    18
100
AcDbLine
 10
410.0
 20
98.5
 30
0.0
 11
415.0
 21
98.5
 31
0.0
  0
LINE
  5
107
330
1F
100
AcDbEntity
  8
0
100
AcDbLine
 10
230.0
 20
5.0
 30
0.0
 11
230.0
 21
0.0
 31
0.0
  0
LINE
  5
108
330
1F
100
AcDbEntity
  8
0
  6
Continuous
 62
     7
370
    18
100
AcDbLine
 10
125.0
 20
292.0
 30
0.0
 11
125.0
 21
297.0
 31
0.0
  0
LINE
  5
109
330
1F
100
AcDbEntity
  8
0
  6
Continuous
 62
     7
370
    18
100
AcDbLine
 10
125.0
 20
5.0
 30
0.0
 11
125.0
 21
0.0
 31
0.0
  0
LINE
  5
10A
330
1F
100
AcDbEntity
  8
0
  6
Continuous
 62
     7
370
    25
100
AcDbLine
 10
410.0
 20
55.0
 30
0.0
 11
228.0
 21
55.0
 31
0.0
  0
LINE
  5
10B
330
1F
100
AcDbEntity
  8
0
  6
Continuous
 62
     7
370
    18
100
AcDbLine
 10
228.0
 20
55.0
 30
0.0
 11
410.0
 21
55.0
 31
0.0
  0
LINE
  5
10C
330
1F
100
AcDbEntity
  8
0
  6
Continuous
 62
     7
370
    18
100
AcDbLine
 10
410.0
 20
55.0
 30
0.0
 11
228.0
 21
55.0
 31
0.0
  0
LINE
  5
10D
330
1F
100
AcDbEntity
  8
0
  6
Continuous
 62
     7
370
    18
100
AcDbLine
 10
268.0
 20
76.5
 30
0.0
 11
268.0
 21
55.0
 31
0.0
  0
LINE
  5
10E
330
1F
100
AcDbEntity
  8
0
  6
Continuous
 62
     7
370
    18
100
AcDbLine
 10
271.6
 20
55.0
 30
0.0
 11
271.6
 21
40.0
 31
0.0
  0
LINE
  5
10F
330
1F
100
AcDbEntity
  8
0
  6
Continuous
 62
     7
370
    18
100
AcDbLine
 10
247.0
 20
55.0
 30
0.0
 11
247.0
 21
35.0
 31
0.0
  0
LINE
  5
110
330
1F
100
AcDbEntity
  8
0
  6
Continuous
 62
     7
370
    35
100
AcDbLine
 10
228.0
 20
76.5
 30
0.0
 11
228.0
 21
10.0
 31
0.0
  0
LINE
  5
111
330
1F
100
AcDbEntity
  8
0
  6
Continuous
 62
     7
370
    18
100
AcDbLine
 10
15.0
 20
292.0
 30
0.0
 11
415.0
 21
292.0
 31
0.0
  0
LINE
  5
112
330
1F
100
AcDbEntity
  8
0
  6
Continuous
 62
     7
370
    18
100
AcDbLine
 10
228.0
 20
65.75
 30
0.0
 11
310.0
 21
65.75
 31
0.0
  0
LINE
  5
113
330
1F
100
AcDbEntity
  8
0
  6
Continuous
 62
     7
370
    35
100
AcDbLine
 10
228.0
 20
76.5
 30
0.0
 11
410.0
 21
76.5
 31
0.0
  0
LINE
  5
114
330
1F
100
AcDbEntity
  8
0
  6
Continuous
 62
     7
370
    18
100
AcDbLine
 10
15.0
 20
48.5
 30
0.0
 11
20.0
 21
48.5
 31
0.0
  0
LINE
  5
115
330
1F
100
AcDbEntity
  8
0
  6
Continuous
 62
     7
370
    18
100
AcDbLine
 10
410.0
 20
48.5
 30
0.0
 11
415.0
 21
48.5
 31
0.0
  0
LINE
  5
116
330
1F
100
AcDbEntity
  8
0
  6
Continuous
 62
     7
370
    18
100
AcDbLine
 10
332.6610845472
 20
20.0
 30
0.0
 11
332.6610845472
 21
10.0
 31
0.0
  0
LINE
  5
117
330
1F
100
AcDbEntity
  8
0
  6
Continuous
 62
     7
370
    18
100
AcDbLine
 10
410.0
 20
248.5
 30
0.0
 11
415.0
 21
248.5
 31
0.0
  0
LINE
  5
118
330
1F
100
AcDbEntity
  8
0
  6
Continuous
 62
     7
370
    18
100
AcDbLine
 10
65.0
 20
10.0
 30
0.0
 11
65.0
 21
5.0
 31
0.0
  0
LINE
  5
119
330
1F
100
AcDbEntity
  8
0
  6
Continuous
 62
     7
370
    18
100
AcDbLine
 10
115.0
 20
10.0
 30
0.0
 11
115.0
 21
5.0
 31
0.0
  0
LINE
  5
11A
330
1F
100
AcDbEntity
  8
0
  6
Continuous
 62
     7
370
    18
100
AcDbLine
 10
115.0
 20
292.0
 30
0.0
 11
115.0
 21
287.0
 31
0.0
  0
LINE
  5
11B
330
1F
100
AcDbEntity
  8
0
  6
Continuous
 62
     7
370
    18
100
AcDbLine
 10
165.0
 20
10.0
 30
0.0
 11
165.0
 21
5.0
 31
0.0
  0
LINE
  5
11C
330
1F
100
AcDbEntity
  8
0
  6
Continuous
 62
     7
370
    18
100
AcDbLine
 10
165.0
 20
292.0
 30
0.0
 11
165.0
 21
287.0
 31
0.0
  0
LINE
  5
11D
330
1F
100
AcDbEntity
  8
0
  6
Continuous
 62
     7
370
    18
100
AcDbLine
 10
215.0
 20
10.0
 30
0.0
 11
215.0
 21
5.0
 31
0.0
  0
LINE
  5
11E
330
1F
100
AcDbEntity
  8
0
  6
Continuous
 62
     7
370
    18
100
AcDbLine
 10
215.0
 20
292.0
 30
0.0
 11
215.0
 21
287.0
 31
0.0
  0
LINE
  5
11F
330
1F
100
AcDbEntity
  8
0
  6
Continuous
 62
     7
370
    18
100
AcDbLine
 10
265.0
 20
10.0
 30
0.0
 11
265.0
 21
5.0
 31
0.0
  0
LINE
  5
120
330
1F
100
AcDbEntity
  8
0
  6
Continuous
 62
     7
370
    18
100
AcDbLine
 10
265.0
 20
292.0
 30
0.0
 11
265.0
 21
287.0
 31
0.0
  0
LINE
  5
121
330
1F
100
AcDbEntity
  8
0
  6
Continuous
 62
     7
370
    18
100
AcDbLine
 10
347.6610845472
 20
20.0
 30
0.0
 11
347.6610845472
 21
10.0
 31
0.0
  0
LINE
  5
122
330
1F
100
AcDbEntity
  8
0
  6
Continuous
 62
     7
370
    18
100
AcDbLine
 10
362.6610845472
 20
20.0
 30
0.0
 11
362.6610845472
 21
10.0
 31
0.0
  0
LINE
  5
123
330
1F
100
AcDbEntity
  8
0
  6
Continuous
 62
     7
370
    25
100
AcDbLine
 10
327.6610845472
 20
10.0
 30
0.0
 11
327.6610845472
 21
55.0
 31
0.0
  0
LINE
  5
124
330
1F
100
AcDbEntity
  8
0
  6
Continuous
 62
     7
370
    18
100
AcDbLine
 10
20.0
 20
292.0
 30
0.0
 11
20.0
 21
297.0
 31
0.0
  0
LINE
  5
125
330
1F
100
AcDbEntity
  8
0
  6
Continuous
 62
     7
370
    18
100
AcDbLine
 10
20.0
 20
5.0
 30
0.0
 11
20.0
 21
0.0
 31
0.0
  0
LINE
  5
126
330
1F
100
AcDbEntity
  8
0
  6
Continuous
 62
     7
370
    18
100
AcDbLine
 10
315.0
 20
10.0
 30
0.0
 11
315.0
 21
5.0
 31
0.0
  0
LINE
  5
127
330
1F
100
AcDbEntity
  8
0
  6
Continuous
 62
     7
370
    18
100
AcDbLine
 10
315.0
 20
292.0
 30
0.0
 11
315.0
 21
287.0
 31
0.0
  0
LINE
  5
128
330
1F
100
AcDbEntity
  8
0
  6
Continuous
 62
     7
370
    18
100
AcDbLine
 10
365.0
 20
10.0
 30
0.0
 11
365.0
 21
5.0
 31
0.0
  0
LINE
  5
129
330
1F
100
AcDbEntity
  8
0
  6
Continuous
 62
     7
370
    18
100
AcDbLine
 10
365.0
 20
292.0
 30
0.0
 11
365.0
 21
287.0
 31
0.0
  0
LINE
  5
12A
330
1F
100
AcDbEntity
  8
0
  6
Continuous
 62
     7
370
    18
100
AcDbLine
 10
15.0
 20
292.0
 30
0.0
 11
15.0
 21
5.0
 31
0.0
  0
LINE
  5
12B
330
1F
100
AcDbEntity
  8
0
  6
Continuous
 62
     7
370
    18
100
AcDbLine
 10
15.0
 20
5.0
 30
0.0
 11
415.0
 21
5.0
 31
0.0
  0
LINE
  5
12C
330
1F
100
AcDbEntity
  8
0
  6
Continuous
 62
     7
370
    18
100
AcDbLine
 10
415.0
 20
292.0
 30
0.0
 11
415.0
 21
5.0
 31
0.0
  0
LINE
  5
12D
330
1F
100
AcDbEntity
  8
0
  6
Continuous
 62
     7
370
    18
100
AcDbLine
 10
347.6610845472
 20
44.213444
 30
0.0
 11
327.6610845472
 21
44.213444
 31
0.0
  0
LINE
  5
12E
330
1F
100
AcDbEntity
  8
0
  6
Continuous
 62
     7
370
    18
100
AcDbLine
 10
347.6610845472
 20
35.0
 30
0.0
 11
347.6610845472
 21
55.0
 31
0.0
  0
LINE
  5
12F
330
1F
100
AcDbEntity
  8
0
  6
Continuous
 62
     7
370
    18
100
AcDbLine
 10
370.057188
 20
55.012032
 30
0.0
 11
370.057188
 21
35.0
 31
0.0
  0
LINE
  5
130
330
1F
100
AcDbEntity
  8
0
  6
Continuous
 62
     7
370
    18
100
AcDbLine
 10
398.0
 20
35.0
 30
0.0
 11
398.0
 21
20.0
 31
0.0
  0
LINE
  5
131
330
1F
100
AcDbEntity
  8
0
  6
Continuous
 62
     7
370
    18
100
AcDbLine
 10
410.0
 20
15.0
 30
0.0
 11
327.6610845472
 21
15.0
 31
0.0
  0
LINE
  5
132
330
1F
100
AcDbEntity
  8
0
  6
Continuous
 62
     7
370
    18
100
AcDbLine
 10
327.6610845472
 20
20.0
 30
0.0
 11
410.0
 21
20.0
 31
0.0
  0
LINE
  5
133
330
1F
100
AcDbEntity
  8
0
  6
Continuous
 62
     7
370
    18
100
AcDbLine
 10
341.485486
 20
20.0
 30
0.0
 11
341.485486
 21
27.564675
 31
0.0
  0
LINE
  5
134
330
1F
100
AcDbEntity
  8
0
  6
Continuous
 62
     7
370
    25
100
AcDbLine
 10
310.0
 20
76.5
 30
0.0
 11
310.0
 21
55.0
 31
0.0
  0
CIRCLE
  5
135
330
1F
100
AcDbEntity
  8
0
  6
Continuous
 62
     7
370
    18
100
AcDbCircle
 10
11.0
 20
108.5
 30
0.0
 40
2.750000000000001
  0
CIRCLE
  5
136
330
1F
100
AcDbEntity
  8
0
  6
Continuous
 62
     7
370
    18
100
AcDbCircle
 10
11.0
 20
188.5
 30
0.0
 40
2.750000000000001
  0
CIRCLE
  5
137
330
1F
100
AcDbEntity
  8
0
  6
Continuous
 62
     7
370
    18
100
AcDbCircle
 10
352.6174545849
 20
43.1536640226
 30
0.0
 40
3.218346681300138
  0
CIRCLE
  5
138
330
1F
100
AcDbEntity
  8
0
  6
Continuous
 62
     7
370
    18
100
AcDbCircle
 10
352.6174545849
 20
43.1536640226
 30
0.0
 40
1.583958554121555
  0
INSERT
  5
139
330
1F
100
AcDbEntity
  8
0
  6
Continuous
 62
     7
100
AcDbBlockReference
  2
ACO-Logo
 10
314.3510726297
 20
57.6366106772
 30
0.0
  0
POINT
  5
13A
330
1F
100
AcDbEntity
  8
0
100
AcDbPoint
 10
0.0
 20
0.0
 30
0.0
  0
POINT
  5
13B
330
1F
100
AcDbEntity
  8
0
100
AcDbPoint
 10
410.0
 20
10.0
 30
0.0
  0
MTEXT
  5
13C
330
1F
100
AcDbEntity
  8
0
  6
Continuous
 62
     7
370
    18
100
AcDbMText
 10
17.7359443114
 20
124.8017866468
 30
0.0
 40
2.0
 41
0.0
 71
     2
 72
     1
  1
D
  7
SLDTEXTSTYLE0
 73
     1
 44
1.0
  0
MTEXT
  5
13D
330
1F
100
AcDbEntity
  8
0
  6
Continuous
 62
     7
370
    18
100
AcDbMText
 10
17.6274822413
 20
174.7261854936
 30
0.0
 40
2.0
 41
0.0
 71
     2
 72
     1
  1
C
  7
SLDTEXTSTYLE0
 73
     1
 44
1.0
  0
MTEXT
  5
13E
330
1F
100
AcDbEntity
  8
0
  6
Continuous
 62
     7
370
    18
100
AcDbMText
 10
17.5516905072
 20
224.4926420442
 30
0.0
 40
2.0
 41
0.0
 71
     2
 72
     1
  1
B
  7
SLDTEXTSTYLE0
 73
     1
 44
1.0
  0
MTEXT
  5
13F
330
1F
100
AcDbEntity
  8
0
  6
Continuous
 62
     7
370
    18
100
AcDbMText
 10
290.0344258799
 20
290.5428789914
 30
0.0
 40
2.0
 41
0.0
 71
     2
 72
     1
  1
6
  7
SLDTEXTSTYLE0
 73
     1
 44
1.0
  0
MTEXT
  5
140
330
1F
100
AcDbEntity
  8
0
  6
Continuous
 62
     7
370
    18
100
AcDbMText
 10
240.0417859812
 20
290.6369260235
 30
0.0
 40
2.0
 41
0.0
 71
     2
 72
     1
  1
5
  7
SLDTEXTSTYLE0
 73
     1
 44
1.0
  0
MTEXT
  5
141
330
1F
100
AcDbEntity
  8
0
  6
Continuous
 62
     7
370
    18
100
AcDbMText
 10
190.0300404524
 20
290.6343268032
 30
0.0
 40
2.0
 41
0.0
 71
     2
 72
     1
  1
4
  7
SLDTEXTSTYLE0
 73
     1
 44
1.0
  0
MTEXT
  5
142
330
1F
100
AcDbEntity
  8
0
  6
Continuous
 62
     7
370
    18
100
AcDbMText
 10
140.0165868337
 20
290.6378887952
 30
0.0
 40
2.0
 41
0.0
 71
     2
 72
     1
  1
3
  7
SLDTEXTSTYLE0
 73
     1
 44
1.0
  0
MTEXT
  5
143
330
1F
100
AcDbEntity
  8
0
  6
Continuous
 62
     7
370
    18
100
AcDbMText
 10
90.033223
 20
290.5566702875
 30
0.0
 40
2.0
 41
0.0
 71
     2
 72
     1
  1
2
  7
SLDTEXTSTYLE0
 73
     1
 44
1.0
  0
MTEXT
  5
144
330
1F
100
AcDbEntity
  8
0
  6
Continuous
 62
     7
370
    18
100
AcDbMText
 10
40.0509551097
 20
290.5530165805
 30
0.0
 40
2.0
 41
0.0
 71
     2
 72
     1
  1
1
  7
SLDTEXTSTYLE0
 73
     1
 44
1.0
  0
MTEXT
  5
145
330
1F
100
AcDbEntity
  8
0
  6
Continuous
 62
     7
370
    18
100
AcDbMText
 10
17.5609786315
 20
271.2966048816
 30
0.0
 40
2.0
 41
0.0
 71
     2
 72
     1
  1
A
  7
SLDTEXTSTYLE0
 73
     1
 44
1.0
  0
MTEXT
  5
146
330
1F
100
AcDbEntity
  8
0
  6
Continuous
 62
     7
370
    18
100
AcDbMText
 10
89.9333968896
 20
8.5904490253
 30
0.0
 40
2.0
 41
0.0
 71
     2
 72
     1
  1
2
  7
SLDTEXTSTYLE0
 73
     1
 44
1.0
  0
MTEXT
  5
147
330
1F
100
AcDbEntity
  8
0
  6
Continuous
 62
     7
370
    18
100
AcDbMText
 10
39.9009486579
 20
8.6623118453
 30
0.0
 40
2.0
 41
0.0
 71
     2
 72
     1
  1
1
  7
SLDTEXTSTYLE0
 73
     1
 44
1.0
  0
MTEXT
  5
148
330
1F
100
AcDbEntity
  8
0
  6
Continuous
 62
     7
370
    18
100
AcDbMText
 10
190.0227230239
 20
8.7073169286
 30
0.0
 40
2.0
 41
0.0
 71
     2
 72
     1
  1
4
  7
SLDTEXTSTYLE0
 73
     1
 44
1.0
  0
MTEXT
  5
149
330
1F
100
AcDbEntity
  8
0
  6
Continuous
 62
     7
370
    18
100
AcDbMText
 10
140.0453427777
 20
8.5647154541
 30
0.0
 40
2.0
 41
0.0
 71
     2
 72
     1
  1
3
  7
SLDTEXTSTYLE0
 73
     1
 44
1.0
  0
MTEXT
  5
14A
330
1F
100
AcDbEntity
  8
0
  6
Continuous
 62
     7
370
    18
100
AcDbMText
 10
239.8749782531
 20
8.5637526825
 30
0.0
 40
2.0
 41
0.0
 71
     2
 72
     1
  1
5
  7
SLDTEXTSTYLE0
 73
     1
 44
1.0
  0
MTEXT
  5
14B
330
1F
100
AcDbEntity
  8
0
  6
Continuous
 62
     7
370
    18
100
AcDbMText
 10
412.6717254925
 20
224.51208263
 30
0.0
 40
2.0
 41
0.0
 71
     2
 72
     1
  1
B
  7
SLDTEXTSTYLE0
 73
     1
 44
1.0
  0
MTEXT
  5
14C
330
1F
100
AcDbEntity
  8
0
  6
Continuous
 62
     7
370
    18
100
AcDbMText
 10
412.5951211154
 20
271.2798202564
 30
0.0
 40
2.0
 41
0.0
 71
     2
 72
     1
  1
A
  7
SLDTEXTSTYLE0
 73
     1
 44
1.0
  0
MTEXT
  5
14D
330
1F
100
AcDbEntity
  8
0
  6
Continuous
 62
     7
370
    18
100
AcDbMText
 10
412.6491448679
 20
174.7279841048
 30
0.0
 40
2.0
 41
0.0
 71
     2
 72
     1
  1
C
  7
SLDTEXTSTYLE0
 73
     1
 44
1.0
  0
MTEXT
  5
14E
330
1F
100
AcDbEntity
  8
0
  6
Continuous
 62
     7
370
    18
100
AcDbMText
 10
340.0216466634
 20
290.5954278102
 30
0.0
 40
2.0
 41
0.0
 71
     2
 72
     1
  1
7
  7
SLDTEXTSTYLE0
 73
     1
 44
1.0
  0
MTEXT
  5
14F
330
1F
100
AcDbEntity
  8
0
  6
Continuous
 62
     7
370
    18
100
AcDbMText
 10
390.037657264
 20
290.6215496941
 30
0.0
 40
2.0
 41
0.0
 71
     2
 72
     1
  1
8
  7
SLDTEXTSTYLE0
 73
     1
 44
1.0
  0
MTEXT
  5
150
330
1F
100
AcDbEntity
  8
0
  6
Continuous
 62
     7
370
    18
100
AcDbMText
 10
17.6897935208
 20
74.7267628143
 30
0.0
 40
2.0
 41
0.0
 71
     2
 72
     1
  1
E
  7
SLDTEXTSTYLE0
 73
     1
 44
1.0
  0
MTEXT
  5
151
330
1F
100
AcDbEntity
  8
0
  6
Continuous
 62
     7
370
    18
100
AcDbMText
 10
17.5936930126
 20
27.773321616
 30
0.0
 40
2.0
 41
0.0
 71
     2
 72
     1
  1
F
  7
SLDTEXTSTYLE0
 73
     1
 44
1.0
  0
MTEXT
  5
152
330
1F
100
AcDbEntity
  8
0
  6
Continuous
 62
     7
370
    18
100
AcDbMText
 10
339.8003474583
 20
8.7205095051
 30
0.0
 40
2.0
 41
0.0
 71
     2
 72
     1
  1
7
  7
SLDTEXTSTYLE0
 73
     1
 44
1.0
  0
MTEXT
  5
153
330
1F
100
AcDbEntity
  8
0
  6
Continuous
 62
     7
370
    18
100
AcDbMText
 10
289.7886477179
 20
8.6884673623
 30
0.0
 40
2.0
 41
0.0
 71
     2
 72
     1
  1
6
  7
SLDTEXTSTYLE0
 73
     1
 44
1.0
  0
MTEXT
  5
154
330
1F
100
AcDbEntity
  8
0
  6
Continuous
 62
     7
370
    18
100
AcDbMText
 10
412.5160699095
 20
74.5096307526
 30
0.0
 40
2.0
 41
0.0
 71
     2
 72
     1
  1
E
  7
SLDTEXTSTYLE0
 73
     1
 44
1.0
  0
MTEXT
  5
155
330
1F
100
AcDbEntity
  8
0
  6
Continuous
 62
     7
370
    18
100
AcDbMText
 10
412.6234021365
 20
124.4517683275
 30
0.0
 40
2.0
 41
0.0
 71
     2
 72
     1
  1
D
  7
SLDTEXTSTYLE0
 73
     1
 44
1.0
  0
MTEXT
  5
156
330
1F
100
AcDbEntity
  8
0
  6
Continuous
 62
     7
370
    18
100
AcDbMText
 10
411.7952690469
 20
41.8539133846
 30
0.0
 40
1.8
 41
0.0
 71
     3
 72
     1
  1
Plotdatum: 06.10.2025
  7
SLDTEXTSTYLE0
 11
-3.269436733918102E-15
 21
1.0
 31
0.0
 73
     1
 44
1.0
  0
MTEXT
  5
157
330
1F
100
AcDbEntity
  8
0
  6
Continuous
 62
     7
370
    18
100
AcDbMText
 10
412.557933251
 20
8.2549718046
 30
0.0
 40
1.8
 41
0.0
 71
     2
 72
     1
  1
A3
  7
SLDTEXTSTYLE0
 73
     1
 44
1.0
  0
MTEXT
  5
158
330
1F
100
AcDbEntity
  8
0
  6
Continuous
 62
     7
370
    18
100
AcDbMText
 10
390.594604279
 20
8.3847467643
 30
0.0
 40
1.8
 41
0.0
 71
     2
 72
     1
  1
CAD-System: SolidWorks
  7
SLDTEXTSTYLE0
 73
     1
 44
1.0
  0
MTEXT
  5
159
330
1F
100
AcDbEntity
  8
0
  6
Continuous
 62
     7
370
    18
100
AcDbMText
 10
404.0541923444
 20
28.4394692021
 30
0.0
 40
5.0
 41
0.0
 71
     2
 72
     1
  1
-
  7
SLDTEXTSTYLE0
 73
     1
 44
1.0
  0
MTEXT
  5
15A
330
1F
100
AcDbEntity
  8
0
  6
Continuous
 62
     7
370
    18
100
AcDbMText
 10
249.556836311
 20
38.5581729516
 30
0.0
 40
2.0
 41
0.0
 71
     1
 72
     1
  1
Freigegeben
  7
SLDTEXTSTYLE0
 73
     1
 44
1.0
  0
MTEXT
  5
15B
330
1F
100
AcDbEntity
  8
0
  6
Continuous
 62
     7
370
    18
100
AcDbMText
 10
284.1136255556
 20
43.5473338598
 30
0.0
 40
2.0
 41
0.0
 71
     2
 72
     1
  1
bae
  7
SLDTEXTSTYLE0
 73
     1
 44
1.0
  0
MTEXT
  5
15C
330
1F
100
AcDbEntity
  8
0
  6
Continuous
 62
     7
370
    18
100
AcDbMText
 10
249.5284668163
 20
43.5603133928
 30
0.0
 40
2.0
 41
0.0
 71
     1
 72
     1
  1
06.10.2025
  7
SLDTEXTSTYLE0
 73
     1
 44
1.0
  0
MTEXT
  5
15D
330
1F
100
AcDbEntity
  8
0
  6
Continuous
 62
     7
370
    18
100
AcDbMText
 10
284.1413255212
 20
48.5138972561
 30
0.0
 40
2.0
 41
0.0
 71
     2
 72
     1
  1
bae
  7
SLDTEXTSTYLE0
 73
     1
 44
1.0
  0
MTEXT
  5
15E
330
1F
100
AcDbEntity
  8
0
  6
Continuous
 62
     7
370
    18
100
AcDbMText
 10
249.5284668163
 20
48.4989062069
 30
0.0
 40
2.0
 41
0.0
 71
     1
 72
     1
  1
03.10.2025
  7
SLDTEXTSTYLE0
 73
     1
 44
1.0
  0
MTEXT
  5
15F
330
1F
100
AcDbEntity
  8
0
  6
Continuous
 62
     7
370
     0
100
AcDbMText
 10
372.2007348103
 20
38.8723054925
 30
0.0
 40
1.5
 41
0.0
 71
     1
 72
     1
  1
Copyright reserved! © ACO AG
  7
SLDTEXTSTYLE0
 73
     1
 44
1.0
  0
MTEXT
  5
160
330
1F
100
AcDbEntity
  8
0
  6
Continuous
 62
     7
370
     0
100
AcDbMText
 10
372.2203831445
 20
53.1538938951
 30
0.0
 40
1.5
 41
0.0
 71
     1
 72
     1
  1
Diese Zeichnung darf weder kopiert^Jnoch dritten Personen, insbesondere^Jzum Zweck anderweitiger Benutzung^Jmitgeteilt werden und bleibt unser^JEigentum.
  7
SLDTEXTSTYLE0
 73
     1
 44
1.0
  0
MTEXT
  5
161
330
1F
100
AcDbEntity
  8
0
  6
Continuous
 62
     7
370
    18
100
AcDbMText
 10
364.9468572407
 20
18.4594173137
 30
0.0
 40
2.0
 41
0.0
 71
     1
 72
     1
  1
Erstausgabe
  7
SLDTEXTSTYLE0
 73
     1
 44
1.0
  0
MTEXT
  5
162
330
1F
100
AcDbEntity
  8
0
  6
Continuous
 62
     7
370
    18
100
AcDbMText
 10
330.2607505021
 20
18.524501801
 30
0.0
 40
2.0
 41
0.0
 71
     2
 72
     1
  1
-
  7
SLDTEXTSTYLE0
 73
     1
 44
1.0
  0
MTEXT
  5
163
330
1F
100
AcDbEntity
  8
0
  6
Continuous
 62
     7
370
    18
100
AcDbMText
 10
311.764909851
 20
46.3490312465
 30
0.0
 40
5.0
 41
0.0
 71
     2
 72
     1
  1
1:1
  7
SLDTEXTSTYLE0
 73
     1
 44
1.0
  0
MTEXT
  5
164
330
1F
100
AcDbEntity
  8
0
  6
Continuous
 62
     7
370
    18
100
AcDbMText
 10
230.1851195342
 20
38.7793829468
 30
0.0
 40
2.0
 41
0.0
 71
     1
 72
     1
  1
Status:
  7
SLDTEXTSTYLE0
 73
     1
 44
1.0
  0
MTEXT
  5
165
330
1F
100
AcDbEntity
  8
0
  6
Continuous
 62
     7
370
    18
100
AcDbMText
 10
344.926838705
 20
28.2772828851
 30
0.0
 40
5.0
 41
0.0
 71
     1
 72
     1
  1
2023204
  7
SLDTEXTSTYLE0
 73
     1
 44
1.0
  0
MTEXT
  5
166
330
1F
100
AcDbEntity
  8
0
  6
Continuous
 62
     7
370
    18
100
AcDbMText
 10
231.1132118803
 20
14.9211049657
 30
0.0
 40
2.5
 41
0.0
 71
     1
 72
     1
  1
Art. Nr.: 2023204
  7
SLDTEXTSTYLE0
 73
     1
 44
1.0
  0
MTEXT
  5
167
330
1F
100
AcDbEntity
  8
0
  6
Continuous
 62
     7
370
    18
100
AcDbMText
 10
231.1475981734
 20
21.4529560996
 30
0.0
 40
2.5
 41
0.0
 71
     1
 72
     1
  1
zu Dachablauf
  7
SLDTEXTSTYLE0
 73
     1
 44
1.0
  0
MTEXT
  5
168
330
1F
100
AcDbEntity
  8
0
  6
Continuous
 62
     7
370
    18
100
AcDbMText
 10
231.1159560181
 20
33.0904969858
 30
0.0
 40
2.5
 41
0.0
 71
     1
 72
     1
  1
ACO-Standard
  7
SLDTEXTSTYLE0
 73
     1
 44
1.0
  0
MTEXT
  5
169
330
1F
100
AcDbEntity
  8
0
  6
Continuous
 62
     7
370
    18
100
AcDbMText
 10
231.1475981734
 20
28.0307932366
 30
0.0
 40
3.5
 41
0.0
 71
     1
 72
     1
  1
Rost 117x117 V2A DN50/70
  7
SLDTEXTSTYLE0
 73
     1
 44
1.0
  0
MTEXT
  5
16A
330
1F
100
AcDbEntity
  8
0
  6
Continuous
 62
     7
370
    18
100
AcDbMText
 10
348.2746465368
 20
53.819119072
 30
0.0
 40
2.0
 41
0.0
 71
     1
 72
     1
  1
Projektion: ISO-E
  7
SLDTEXTSTYLE0
 73
     1
 44
1.0
  0
MTEXT
  5
16B
330
1F
100
AcDbEntity
  8
0
  6
Continuous
 62
     7
370
    18
100
AcDbMText
 10
337.7677091855
 20
49.3670227094
 30
0.0
 40
2.5
 41
0.0
 71
     2
 72
     1
  1
Millimeter
  7
SLDTEXTSTYLE0
 73
     1
 44
1.0
  0
MTEXT
  5
16C
330
1F
100
AcDbEntity
  8
0
  6
Continuous
 62
     7
370
    18
100
AcDbMText
 10
337.6323777421
 20
53.855374072
 30
0.0
 40
2.0
 41
0.0
 71
     2
 72
     1
  1
Masseinheit:
  7
SLDTEXTSTYLE0
 73
     1
 44
1.0
  0
MTEXT
  5
16D
330
1F
100
AcDbEntity
  8
0
  6
Continuous
 62
     7
370
    18
100
AcDbMText
 10
337.6114490186
 20
43.5452078816
 30
0.0
 40
2.0
 41
0.0
 71
     2
 72
     1
  1
Blatt / Anz.:
  7
SLDTEXTSTYLE0
 73
     1
 44
1.0
  0
MTEXT
  5
16E
330
1F
100
AcDbEntity
  8
0
  6
Continuous
 62
     7
370
    18
100
AcDbMText
 10
329.2895578243
 20
28.4139191092
 30
0.0
 40
5.0
 41
0.0
 71
     1
 72
     1
  1
CH
  7
SLDTEXTSTYLE0
 73
     1
 44
1.0
  0
MTEXT
  5
16F
330
1F
100
AcDbEntity
  8
0
  6
Continuous
 62
     7
370
    18
100
AcDbMText
 10
330.40704
 20
33.692638072
 30
0.0
 40
2.0
 41
0.0
 71
     1
 72
     1
  1
Zeichnung Nr.:
  7
SLDTEXTSTYLE0
 73
     1
 44
1.0
  0
MTEXT
  5
170
330
1F
100
AcDbEntity
  8
0
  6
Continuous
 62
     7
370
    18
100
AcDbMText
 10
269.897953
 20
75.161075072
 30
0.0
 40
2.0
 41
0.0
 71
     1
 72
     1
  1
Gewicht:
  7
SLDTEXTSTYLE0
 73
     1
 44
1.0
  0
MTEXT
  5
171
330
1F
100
AcDbEntity
  8
0
  6
Continuous
 62
     7
370
    18
100
AcDbMText
 10
230.0
 20
64.542328072
 30
0.0
 40
2.0
 41
0.0
 71
     1
 72
     1
  1
zul. Abweichung:
  7
SLDTEXTSTYLE0
 73
     1
 44
1.0
  0
MTEXT
  5
172
330
1F
100
AcDbEntity
  8
0
  6
Continuous
 62
     7
370
    18
100
AcDbMText
 10
269.612607
 20
64.542328072
 30
0.0
 40
2.0
 41
0.0
 71
     1
 72
     1
  1
Oberfläche:
  7
SLDTEXTSTYLE0
 73
     1
 44
1.0
  0
MTEXT
  5
173
330
1F
100
AcDbEntity
  8
0
  6
Continuous
 62
     7
370
    18
100
AcDbMText
 10
230.261411
 20
43.4433838912
 30
0.0
 40
2.0
 41
0.0
 71
     1
 72
     1
  1
Freigegeben:
  7
SLDTEXTSTYLE0
 73
     1
 44
1.0
  0
MTEXT
  5
174
330
1F
100
AcDbEntity
  8
0
  6
Continuous
 62
     7
370
    18
100
AcDbMText
 10
230.0
 20
75.161075072
 30
0.0
 40
2.0
 41
0.0
 71
     1
 72
     1
  1
Werkstoff:
  7
SLDTEXTSTYLE0
 73
     1
 44
1.0
  0
MTEXT
  5
175
330
1F
100
AcDbEntity
  8
0
  6
Continuous
 62
     7
370
    18
100
AcDbMText
 10
254.035545
 20
53.129475072
 30
0.0
 40
2.0
 41
0.0
 71
     1
 72
     1
  1
Datum:
  7
SLDTEXTSTYLE0
 73
     1
 44
1.0
  0
MTEXT
  5
176
330
1F
100
AcDbEntity
  8
0
  6
Continuous
 62
     7
370
    18
100
AcDbMText
 10
279.934928
 20
53.136060072
 30
0.0
 40
2.0
 41
0.0
 71
     1
 72
     1
  1
Name:
  7
SLDTEXTSTYLE0
 73
     1
 44
1.0
  0
MTEXT
  5
177
330
1F
100
AcDbEntity
  8
0
  6
Continuous
 62
     7
370
    18
100
AcDbMText
 10
312.162455406
 20
53.881591072
 30
0.0
 40
2.0
 41
0.0
 71
     2
 72
     1
  1
Massstab:
  7
SLDTEXTSTYLE0
 73
     1
 44
1.0
  0
MTEXT
  5
178
330
1F
100
AcDbEntity
  8
0
  6
Continuous
 62
     7
370
    18
100
AcDbMText
 10
403.9552944035
 20
33.324874072
 30
0.0
 40
2.0
 41
0.0
 71
     2
 72
     1
  1
Index:
  7
SLDTEXTSTYLE0
 73
     1
 44
1.0
  0
MTEXT
  5
179
330
1F
100
AcDbEntity
  8
0
  6
Continuous
 62
     7
370
    18
100
AcDbMText
 10
230.261411
 20
48.4499477886
 30
0.0
 40
2.0
 41
0.0
 71
     1
 72
     1
  1
Erstellt:
  7
SLDTEXTSTYLE0
 73
     1
 44
1.0
  0
MTEXT
  5
17B
330
1F
100
AcDbEntity
  8
0
  6
Continuous
 62
     7
370
    18
100
AcDbMText
 10
337.6348165843
 20
39.869706576
 30
0.0
 40
2.5
 41
0.0
 71
     2
 72
     1
  1
1 / 1
  7
SLDTEXTSTYLE1
 73
     1
 44
1.0
  0
MTEXT
  5
17C
330
1F
100
AcDbEntity
  8
0
  6
Continuous
 62
     7
370
    18
100
AcDbMText
 10
269.612607
 20
60.8119428599
 30
0.0
 40
3.0
 41
0.0
 71
     1
 72
     1
  1
DIN ISO 1302
  7
SLDTEXTSTYLE0
 73
     1
 44
1.0
  0
MTEXT
  5
17D
330
1F
100
AcDbEntity
  8
0
  6
Continuous
 62
     7
370
    18
100
AcDbMText
 10
230.0
 20
60.8119428599
 30
0.0
 40
3.0
 41
0.0
 71
     1
 72
     1
  1
Norm
  7
SLDTEXTSTYLE0
 73
     1
 44
1.0
  0
MTEXT
  5
17E
330
1F
100
AcDbEntity
  8
0
  6
Continuous
 62
     7
370
    18
100
AcDbMText
 10
269.612607
 20
71.2121947186
 30
0.0
 40
3.0
 41
0.0
 71
     1
 72
     1
  1
0.20 kg
  7
SLDTEXTSTYLE0
 73
     1
 44
1.0
  0
MTEXT
  5
17F
330
1F
100
AcDbEntity
  8
0
  6
Continuous
 62
     7
370
    18
100
AcDbMText
 10
230.0
 20
71.2121947186
 30
0.0
 40
3.0
 41
0.0
 71
     1
 72
     1
  1
1.4301 (X5CrNi18-10)
  7
SLDTEXTSTYLE0
 73
     1
 44
1.0
  0
ARC
  5
180
330
1F
100
AcDbEntity
  8
0
  6
Continuous
 62
     7
370
    25
100
AcDbCircle
 10
390.4479676529
 20
171.3932692707
 30
0.0
 40
3.0
100
AcDbArc
 50
0.0
 51
60.0026882664
  0
ARC
  5
181
330
1F
100
AcDbEntity
  8
0
  6
Continuous
 62
     7
370
    25
100
AcDbCircle
 10
234.1773690107
 20
171.3932692707
 30
0.0
 40
3.0
100
AcDbArc
 50
119.9973117336
 51
180.0
  0
LINE
  5
182
330
1F
100
AcDbEntity
  8
0
  6
Continuous
 62
     7
370
    25
100
AcDbLine
 10
393.4479676529
 20
167.7188356172
 30
0.0
 11
393.4479676529
 21
171.3932692707
 31
0.0
  0
LINE
  5
183
330
1F
100
AcDbEntity
  8
0
  6
Continuous
 62
     7
370
    25
100
AcDbLine
 10
231.1773690107
 20
171.3932692707
 30
0.0
 11
231.1773690107
 21
167.7188356172
 31
0.0
  0
LINE
  5
184
330
1F
100
AcDbEntity
  8
0
  6
Continuous
 62
     7
370
    25
100
AcDbLine
 10
391.9478457519
 20
173.9914158578
 30
0.0
 11
313.8125464308
 21
219.097964036
 31
0.0
  0
LINE
  5
185
330
1F
100
AcDbEntity
  8
0
  6
Continuous
 62
     7
370
    25
100
AcDbLine
 10
310.8127902329
 20
219.097964036
 30
0.0
 11
232.6774909117
 21
173.9914158578
 31
0.0
  0
ARC
  5
186
330
1F
100
AcDbEntity
  8
0
  6
Continuous
 62
     7
370
    25
100
AcDbCircle
 10
312.3126683318
 20
216.4998174489
 30
0.0
 40
3.0
100
AcDbArc
 50
60.0026882663
 51
119.9973117337
  0
ARC
  5
187
330
1F
100
AcDbEntity
  8
0
  6
Continuous
 62
     7
370
    25
100
AcDbCircle
 10
314.7969962923
 20
124.852526368
 30
0.0
 40
4.610414422716111
100
AcDbArc
 50
122.60547834
 51
177.3945215143
  0
ARC
  5
188
330
1F
100
AcDbEntity
  8
0
  6
Continuous
 62
     7
370
    25
100
AcDbCircle
 10
309.8283403713
 20
124.852526368
 30
0.0
 40
4.610414422716285
100
AcDbArc
 50
2.6054784857
 51
57.39452166
  0
ARC
  5
189
330
1F
100
AcDbEntity
  8
0
  6
Continuous
 62
     7
370
    25
100
AcDbCircle
 10
312.3126683318
 20
129.1562421796
 30
0.0
 40
4.611065723735011
100
AcDbArc
 50
242.6096722366
 51
297.3903277634
  0
LINE
  5
18A
330
1F
100
AcDbEntity
  8
0
  6
Continuous
 62
     7
370
    25
100
AcDbLine
 10
310.1913479882
 20
121.3876752713
 30
0.0
 11
310.1913479882
 21
125.0621089247
 31
0.0
  0
LINE
  5
18B
330
1F
100
AcDbEntity
  8
0
  6
Continuous
 62
     7
370
    25
100
AcDbLine
 10
314.4339886754
 20
125.0621089247
 30
0.0
 11
314.4339886754
 21
121.3876752713
 31
0.0
  0
ARC
  5
18C
330
1F
100
AcDbEntity
  8
0
  6
Continuous
 62
     7
370
    25
100
AcDbCircle
 10
312.3126683318
 20
125.4818085261
 30
0.0
 40
4.61106572373505
100
AcDbArc
 50
242.6096722366
 51
297.3903277634
  0
LINE
  5
18D
330
1F
100
AcDbEntity
  8
0
  6
Continuous
 62
     7
370
    25
100
AcDbLine
 10
312.3126683318
 20
128.7363435281
 30
0.0
 11
390.4479676529
 21
173.8428917063
 31
0.0
  0
ARC
  5
18E
330
1F
100
AcDbEntity
  8
0
  6
Continuous
 62
     7
370
    25
100
AcDbCircle
 10
387.9636396924
 20
169.9590745462
 30
0.0
 40
4.610414422716166
100
AcDbArc
 50
2.6054784857
 51
57.39452166
  0
LINE
  5
18F
330
1F
100
AcDbEntity
  8
0
  6
Continuous
 62
     7
370
    25
100
AcDbLine
 10
392.5692879965
 20
170.1686571029
 30
0.0
 11
314.4339886754
 21
125.0621089247
 31
0.0
  0
LINE
  5
190
330
1F
100
AcDbEntity
  8
0
  6
Continuous
 62
     7
370
    25
100
AcDbLine
 10
310.1913479882
 20
125.0621089247
 30
0.0
 11
232.0560486671
 21
170.1686571029
 31
0.0
  0
ARC
  5
191
330
1F
100
AcDbEntity
  8
0
  6
Continuous
 62
     7
370
    25
100
AcDbCircle
 10
236.6616969712
 20
169.9590745462
 30
0.0
 40
4.61041442271629
100
AcDbArc
 50
122.60547834
 51
177.3945215143
  0
LINE
  5
192
330
1F
100
AcDbEntity
  8
0
  6
Continuous
 62
     7
370
    25
100
AcDbLine
 10
234.1773690107
 20
173.8428917063
 30
0.0
 11
312.3126683318
 21
128.7363435281
 31
0.0
  0
LINE
  5
193
330
1F
100
AcDbEntity
  8
0
  6
Continuous
 62
     7
370
    25
100
AcDbLine
 10
232.0560486671
 20
170.1686571029
 30
0.0
 11
232.0560486671
 21
166.4942234495
 31
0.0
  0
LINE
  5
194
330
1F
100
AcDbEntity
  8
0
  6
Continuous
 62
     7
370
    25
100
AcDbLine
 10
232.0560486671
 20
166.4942234495
 30
0.0
 11
310.1913479882
 21
121.3876752713
 31
0.0
  0
LINE
  5
195
330
1F
100
AcDbEntity
  8
0
  6
Continuous
 62
     7
370
    25
100
AcDbLine
 10
392.5692879965
 20
166.4942234495
 30
0.0
 11
392.5692879965
 21
170.1686571029
 31
0.0
  0
LINE
  5
196
330
1F
100
AcDbEntity
  8
0
  6
Continuous
 62
     7
370
    25
100
AcDbLine
 10
314.4339886754
 20
121.3876752713
 30
0.0
 11
392.5692879965
 21
166.4942234495
 31
0.0
  0
LINE
  5
197
330
1F
100
AcDbEntity
  8
0
  6
Continuous
 62
     7
370
    25
100
AcDbLine
 10
312.3126683318
 20
218.9494398845
 30
0.0
 11
234.1773690107
 21
173.8428917063
 31
0.0
  0
LINE
  5
198
330
1F
100
AcDbEntity
  8
0
  6
Continuous
 62
     7
370
    25
100
AcDbLine
 10
390.4479676529
 20
173.8428917063
 30
0.0
 11
312.3126683318
 21
218.9494398845
 31
0.0
  0
LWPOLYLINE
  5
199
330
1F
100
AcDbEntity
  8
0
  6
Continuous
 62
     7
370
    25
100
AcDbPolyline
 90
       29
 70
   128
 43
0.0
 10
345.5466870476
 20
193.0284823342
 10
345.2122191303
 20
193.2010329415
 10
344.8463882289
 20
193.3508800135
 10
344.4537948793
 20
193.4761391362
 10
344.0393761706
 20
193.5752351034
 10
343.6083436587
 20
193.646921726
 10
343.1661178272
 20
193.690297503
 10
342.7182599228
 20
193.7048169589
 10
342.2704020184
 20
193.690297503
 10
341.828176187
 20
193.646921726
 10
341.397143675
 20
193.5752351034
 10
340.9827249664
 20
193.4761391362
 10
340.5901316168
 20
193.3508800135
 10
340.2243007154
 20
193.2010329415
 10
339.8898327981
 20
193.0284823342
 10
339.590933993
 20
192.8353981154
 10
339.3313631259
 20
192.6242084314
 10
339.1143844512
 20
192.3975691148
 10
338.9427266016
 20
192.1583302866
 10
338.8185482741
 20
191.9095005139
 10
338.7434110833
 20
191.6542089755
 10
338.7182599228
 20
191.3956661105
 10
338.7434110833
 20
191.1371232455
 10
338.8185482741
 20
190.8818317071
 10
338.9427266016
 20
190.6330019344
 10
339.1143844512
 20
190.3937631063
 10
339.3313631259
 20
190.1671237897
 10
339.590933993
 20
189.9559341056
 10
339.8898327981
 20
189.7628498869
  0
LWPOLYLINE
  5
19A
330
1F
100
AcDbEntity
  8
0
  6
Continuous
 62
     7
370
    25
100
AcDbPolyline
 90
       29
 70
   128
 43
0.0
 10
339.8898327981
 20
189.7628498869
 10
340.2243007154
 20
189.5902992795
 10
340.5901316168
 20
189.4404522076
 10
340.9827249664
 20
189.3151930849
 10
341.397143675
 20
189.2160971176
 10
341.828176187
 20
189.144410495
 10
342.2704020184
 20
189.101034718
 10
342.7182599228
 20
189.0865152622
 10
343.1661178272
 20
189.101034718
 10
343.6083436587
 20
189.144410495
 10
344.0393761706
 20
189.2160971176
 10
344.4537948793
 20
189.3151930849
 10
344.8463882289
 20
189.4404522076
 10
345.2122191303
 20
189.5902992795
 10
345.5466870476
 20
189.7628498869
 10
345.8455858527
 20
189.9559341056
 10
346.1051567197
 20
190.1671237897
 10
346.3221353944
 20
190.3937631063
 10
346.4937932441
 20
190.6330019344
 10
346.6179715716
 20
190.8818317071
 10
346.6931087624
 20
191.1371232455
 10
346.7182599228
 20
191.3956661105
 10
346.6931087624
 20
191.6542089755
 10
346.6179715716
 20
191.9095005139
 10
346.4937932441
 20
192.1583302866
 10
346.3221353944
 20
192.3975691148
 10
346.1051567197
 20
192.6242084314
 10
345.8455858527
 20
192.8353981154
 10
345.5466870476
 20
193.0284823342
  0
LWPOLYLINE
  5
19B
330
1F
100
AcDbEntity
  8
0
  6
Continuous
 62
     7
370
    25
100
AcDbPolyline
 90
       29
 70
   128
 43
0.0
 10
284.7355038655
 20
157.9229335258
 10
284.4010359482
 20
158.0954841331
 10
284.0352050468
 20
158.2453312051
 10
283.6426116973
 20
158.3705903278
 10
283.2281929886
 20
158.4696862951
 10
282.7971604766
 20
158.5413729176
 10
282.3549346452
 20
158.5847486946
 10
281.9070767408
 20
158.5992681505
 10
281.4592188364
 20
158.5847486946
 10
281.016993005
 20
158.5413729176
 10
280.585960493
 20
158.4696862951
 10
280.1715417843
 20
158.3705903278
 10
279.7789484347
 20
158.2453312051
 10
279.4131175333
 20
158.0954841331
 10
279.078649616
 20
157.9229335258
 10
278.7797508109
 20
157.729849307
 10
278.5201799439
 20
157.518659623
 10
278.3032012692
 20
157.2920203064
 10
278.1315434195
 20
157.0527814782
 10
278.0073650921
 20
156.8039517056
 10
277.9322279012
 20
156.5486601671
 10
277.9070767408
 20
156.2901173021
 10
277.9322279012
 20
156.0315744372
 10
278.0073650921
 20
155.7762828987
 10
278.1315434195
 20
155.527453126
 10
278.3032012692
 20
155.2882142979
 10
278.5201799439
 20
155.0615749813
 10
278.7797508109
 20
154.8503852973
 10
279.078649616
 20
154.6573010785
  0
LWPOLYLINE
  5
19C
330
1F
100
AcDbEntity
  8
0
  6
Continuous
 62
     7
370
    25
100
AcDbPolyline
 90
       29
 70
   128
 43
0.0
 10
279.078649616
 20
154.6573010785
 10
279.4131175333
 20
154.4847504711
 10
279.7789484347
 20
154.3349033992
 10
280.1715417843
 20
154.2096442765
 10
280.585960493
 20
154.1105483092
 10
281.016993005
 20
154.0388616867
 10
281.4592188364
 20
153.9954859097
 10
281.9070767408
 20
153.9809664538
 10
282.3549346452
 20
153.9954859097
 10
282.7971604766
 20
154.0388616867
 10
283.2281929886
 20
154.1105483092
 10
283.6426116973
 20
154.2096442765
 10
284.0352050468
 20
154.3349033992
 10
284.4010359482
 20
154.4847504711
 10
284.7355038655
 20
154.6573010785
 10
285.0344026707
 20
154.8503852973
 10
285.2939735377
 20
155.0615749813
 10
285.5109522124
 20
155.2882142979
 10
285.682610062
 20
155.527453126
 10
285.8067883895
 20
155.7762828987
 10
285.8819255804
 20
156.0315744372
 10
285.9070767408
 20
156.2901173021
 10
285.8819255804
 20
156.5486601671
 10
285.8067883895
 20
156.8039517056
 10
285.682610062
 20
157.0527814782
 10
285.5109522124
 20
157.2920203064
 10
285.2939735377
 20
157.518659623
 10
285.0344026707
 20
157.729849307
 10
284.7355038655
 20
157.9229335258
  0
ARC
  5
19D
330
1F
100
AcDbEntity
  8
0
  6
Continuous
 62
     7
370
    25
100
AcDbCircle
 10
265.7721260382
 20
186.6131171121
 30
0.0
 40
5.410885785381453
100
AcDbArc
 50
241.9597608846
 51
271.1440967458
  0
LINE
  5
19E
330
1F
100
AcDbEntity
  8
0
  6
Continuous
 62
     7
370
    25
100
AcDbLine
 10
265.8801648062
 20
181.2033100354
 30
0.0
 11
283.438299661
 21
181.2033100354
 31
0.0
  0
LWPOLYLINE
  5
19F
330
1F
100
AcDbEntity
  8
0
  6
Continuous
 62
     7
370
    25
100
AcDbPolyline
 90
       28
 70
   128
 43
0.0
 10
283.438299661
 20
181.2033100354
 10
283.873648089
 20
181.2179478341
 10
284.3031091763
 20
181.2616632791
 10
284.7208751985
 20
181.3338651941
 10
285.1212965868
 20
181.4335771718
 10
285.4989583288
 20
181.559450779
 10
285.8487531974
 20
181.709783791
 10
286.1659508169
 20
181.8825432118
 10
286.4462616339
 20
182.0753927664
 10
286.6858949252
 20
182.2857244956
 10
286.8816100618
 20
182.5106940235
 10
287.0307603322
 20
182.7472590231
 10
287.1313287348
 20
182.9922203588
 10
287.1819552546
 20
183.2422653486
 10
287.1819552546
 20
183.4940125629
 10
287.1313287348
 20
183.7440575527
 10
287.0307603322
 20
183.9890188884
 10
286.8816100618
 20
184.225583888
 10
286.6858949252
 20
184.4505534159
 10
286.4462616339
 20
184.6608851451
 10
286.1659508169
 20
184.8537346997
 10
285.8487531974
 20
185.0264941205
 10
285.4989583288
 20
185.1768271325
 10
285.1212965868
 20
185.3027007397
 10
284.7208751985
 20
185.4024127174
 10
284.3031091763
 20
185.4746146323
 10
283.873648089
 20
185.5183300774
 10
283.438299661
 20
185.5329678761
  0
LINE
  5
1A0
330
1F
100
AcDbEntity
  8
0
  6
Continuous
 62
     7
370
    25
100
AcDbLine
 10
283.438299661
 20
185.5329678761
 30
0.0
 11
265.8801648062
 21
185.5329678761
 31
0.0
  0
LWPOLYLINE
  5
1A1
330
1F
100
AcDbEntity
  8
0
  6
Continuous
 62
     7
370
    25
100
AcDbPolyline
 90
       21
 70
   128
 43
0.0
 10
265.8801648062
 20
185.5329678761
 10
265.4393995657
 20
185.5179622712
 10
265.0047446917
 20
185.4731534807
 10
264.5822258422
 20
185.3991626925
 10
264.1777004322
 20
185.2970156475
 10
263.7967764324
 20
185.1681284188
 10
263.444734625
 20
185.0142877813
 10
263.1264553958
 20
184.8376264408
 10
262.8463510773
 20
184.6405934688
 10
262.6083047797
 20
184.4259203504
 10
262.4156165593
 20
184.1965831175
 10
262.2709576695
 20
183.9557610918
 10
262.176333529
 20
183.7067928098
 10
262.1330559203
 20
183.4531297403
 10
262.1417248047
 20
183.1982884363
 10
262.2022200047
 20
182.9458017846
 10
262.3137028701
 20
182.6991700295
 10
262.4746279044
 20
182.4618122482
 10
262.6827641899
 20
182.237018952
 10
262.9352263154
 20
182.0279064699
 10
263.2285143768
 20
181.8373737461
  0
ARC
  5
1A2
330
1F
100
AcDbEntity
  8
0
  6
Continuous
 62
     7
370
    25
100
AcDbCircle
 10
265.7721260382
 20
167.5626226133
 30
0.0
 40
5.410885785382062
100
AcDbArc
 50
241.9597608846
 51
271.1440967458
  0
LINE
  5
1A3
330
1F
100
AcDbEntity
  8
0
  6
Continuous
 62
     7
370
    25
100
AcDbLine
 10
265.8801648062
 20
162.1528155366
 30
0.0
 11
283.438299661
 21
162.1528155366
 31
0.0
  0
LWPOLYLINE
  5
1A4
330
1F
100
AcDbEntity
  8
0
  6
Continuous
 62
     7
370
    25
100
AcDbPolyline
 90
       28
 70
   128
 43
0.0
 10
283.438299661
 20
162.1528155366
 10
283.873648089
 20
162.1674533353
 10
284.3031091763
 20
162.2111687803
 10
284.7208751985
 20
162.2833706952
 10
285.1212965868
 20
162.383082673
 10
285.4989583288
 20
162.5089562802
 10
285.8487531974
 20
162.6592892922
 10
286.1659508169
 20
162.8320487129
 10
286.4462616339
 20
163.0248982676
 10
286.6858949252
 20
163.2352299968
 10
286.8816100618
 20
163.4601995246
 10
287.0307603322
 20
163.6967645243
 10
287.1313287348
 20
163.9417258599
 10
287.1819552546
 20
164.1917708497
 10
287.1819552546
 20
164.4435180641
 10
287.1313287348
 20
164.6935630539
 10
287.0307603322
 20
164.9385243895
 10
286.8816100618
 20
165.1750893892
 10
286.6858949252
 20
165.4000589171
 10
286.4462616339
 20
165.6103906463
 10
286.1659508169
 20
165.8032402009
 10
285.8487531974
 20
165.9759996216
 10
285.4989583288
 20
166.1263326336
 10
285.1212965868
 20
166.2522062408
 10
284.7208751985
 20
166.3519182186
 10
284.3031091763
 20
166.4241201335
 10
283.873648089
 20
166.4678355785
 10
283.438299661
 20
166.4824733772
  0
LINE
  5
1A5
330
1F
100
AcDbEntity
  8
0
  6
Continuous
 62
     7
370
    25
100
AcDbLine
 10
283.438299661
 20
166.4824733772
 30
0.0
 11
265.8801648062
 21
166.4824733772
 31
0.0
  0
LWPOLYLINE
  5
1A6
330
1F
100
AcDbEntity
  8
0
  6
Continuous
 62
     7
370
    25
100
AcDbPolyline
 90
       21
 70
   128
 43
0.0
 10
265.8801648062
 20
166.4824733772
 10
265.4393995657
 20
166.4674677724
 10
265.0047446917
 20
166.4226589818
 10
264.5822258422
 20
166.3486681937
 10
264.1777004322
 20
166.2465211487
 10
263.7967764324
 20
166.11763392
 10
263.444734625
 20
165.9637932824
 10
263.1264553958
 20
165.787131942
 10
262.8463510773
 20
165.59009897
 10
262.6083047797
 20
165.3754258516
 10
262.4156165593
 20
165.1460886186
 10
262.2709576695
 20
164.9052665929
 10
262.176333529
 20
164.656298311
 10
262.1330559203
 20
164.4026352415
 10
262.1417248047
 20
164.1477939374
 10
262.2022200047
 20
163.8953072857
 10
262.3137028701
 20
163.6486755306
 10
262.4746279044
 20
163.4113177493
 10
262.6827641899
 20
163.1865244532
 10
262.9352263154
 20
162.9774119711
 10
263.2285143768
 20
162.7868792473
  0
ARC
  5
1A7
330
1F
100
AcDbEntity
  8
0
  6
Continuous
 62
     7
370
    25
100
AcDbCircle
 10
249.2721260382
 20
177.0878698627
 30
0.0
 40
5.410885785381757
100
AcDbArc
 50
241.9597608846
 51
271.1440967458
  0
LINE
  5
1A8
330
1F
100
AcDbEntity
  8
0
  6
Continuous
 62
     7
370
    25
100
AcDbLine
 10
249.3801648062
 20
171.678062786
 30
0.0
 11
299.938299661
 21
171.678062786
 31
0.0
  0
LWPOLYLINE
  5
1A9
330
1F
100
AcDbEntity
  8
0
  6
Continuous
 62
     7
370
    25
100
AcDbPolyline
 90
       28
 70
   128
 43
0.0
 10
299.938299661
 20
171.678062786
 10
300.373648089
 20
171.6927005847
 10
300.8031091763
 20
171.7364160297
 10
301.2208751985
 20
171.8086179446
 10
301.6212965868
 20
171.9083299224
 10
301.9989583288
 20
172.0342035296
 10
302.3487531974
 20
172.1845365416
 10
302.6659508169
 20
172.3572959623
 10
302.9462616339
 20
172.550145517
 10
303.1858949252
 20
172.7604772462
 10
303.3816100618
 20
172.9854467741
 10
303.5307603322
 20
173.2220117737
 10
303.6313287348
 20
173.4669731094
 10
303.6819552546
 20
173.7170180991
 10
303.6819552546
 20
173.9687653135
 10
303.6313287348
 20
174.2188103033
 10
303.5307603322
 20
174.4637716389
 10
303.3816100618
 20
174.7003366386
 10
303.1858949252
 20
174.9253061665
 10
302.9462616339
 20
175.1356378957
 10
302.6659508169
 20
175.3284874503
 10
302.3487531974
 20
175.501246871
 10
301.9989583288
 20
175.6515798831
 10
301.6212965868
 20
175.7774534902
 10
301.2208751985
 20
175.877165468
 10
300.8031091763
 20
175.9493673829
 10
300.373648089
 20
175.9930828279
 10
299.938299661
 20
176.0077206267
  0
LINE
  5
1AA
330
1F
100
AcDbEntity
  8
0
  6
Continuous
 62
     7
370
    25
100
AcDbLine
 10
299.938299661
 20
176.0077206267
 30
0.0
 11
249.3801648062
 21
176.0077206267
 31
0.0
  0
LWPOLYLINE
  5
1AB
330
1F
100
AcDbEntity
  8
0
  6
Continuous
 62
     7
370
    25
100
AcDbPolyline
 90
       21
 70
   128
 43
0.0
 10
249.3801648062
 20
176.0077206267
 10
248.9393995657
 20
175.9927150218
 10
248.5047446917
 20
175.9479062313
 10
248.0822258422
 20
175.8739154431
 10
247.6777004322
 20
175.7717683981
 10
247.2967764324
 20
175.6428811694
 10
246.944734625
 20
175.4890405318
 10
246.6264553958
 20
175.3123791914
 10
246.3463510773
 20
175.1153462194
 10
246.1083047797
 20
174.900673101
 10
245.9156165593
 20
174.671335868
 10
245.7709576695
 20
174.4305138423
 10
245.676333529
 20
174.1815455604
 10
245.6330559203
 20
173.9278824909
 10
245.6417248047
 20
173.6730411868
 10
245.7022200047
 20
173.4205545352
 10
245.8137028701
 20
173.17392278
 10
245.9746279044
 20
172.9365649987
 10
246.1827641899
 20
172.7117717026
 10
246.4352263154
 20
172.5026592205
 10
246.7285143768
 20
172.3121264967
  0
LINE
  5
1AC
330
1F
100
AcDbEntity
  8
0
  6
Continuous
 62
     7
370
    25
100
AcDbLine
 10
358.7451718574
 20
166.4824733772
 30
0.0
 11
341.1870370026
 21
166.4824733772
 31
0.0
  0
LWPOLYLINE
  5
1AD
330
1F
100
AcDbEntity
  8
0
  6
Continuous
 62
     7
370
    25
100
AcDbPolyline
 90
       21
 70
   128
 43
0.0
 10
341.1870370026
 20
166.4824733772
 10
340.7462717621
 20
166.4674677724
 10
340.3116168881
 20
166.4226589818
 10
339.8890980385
 20
166.3486681937
 10
339.4845726285
 20
166.2465211487
 10
339.1036486287
 20
166.11763392
 10
338.7516068213
 20
165.9637932824
 10
338.4333275922
 20
165.787131942
 10
338.1532232737
 20
165.59009897
 10
337.915176976
 20
165.3754258516
 10
337.7224887557
 20
165.1460886186
 10
337.5778298659
 20
164.9052665929
 10
337.4832057253
 20
164.656298311
 10
337.4399281167
 20
164.4026352415
 10
337.4485970011
 20
164.1477939374
 10
337.5090922011
 20
163.8953072857
 10
337.6205750665
 20
163.6486755306
 10
337.7815001007
 20
163.4113177493
 10
337.9896363862
 20
163.1865244532
 10
338.2420985118
 20
162.9774119711
 10
338.5353865731
 20
162.7868792473
  0
ARC
  5
1AE
330
1F
100
AcDbEntity
  8
0
  6
Continuous
 62
     7
370
    25
100
AcDbCircle
 10
341.0789982345
 20
167.5626226133
 30
0.0
 40
5.410885785382112
100
AcDbArc
 50
241.9597608846
 51
271.1440967458
  0
LINE
  5
1AF
330
1F
100
AcDbEntity
  8
0
  6
Continuous
 62
     7
370
    25
100
AcDbLine
 10
341.1870370026
 20
162.1528155366
 30
0.0
 11
358.7451718574
 21
162.1528155366
 31
0.0
  0
LWPOLYLINE
  5
1B0
330
1F
100
AcDbEntity
  8
0
  6
Continuous
 62
     7
370
    25
100
AcDbPolyline
 90
       28
 70
   128
 43
0.0
 10
358.7451718574
 20
162.1528155366
 10
359.1805202854
 20
162.1674533353
 10
359.6099813727
 20
162.2111687803
 10
360.0277473949
 20
162.2833706952
 10
360.4281687832
 20
162.383082673
 10
360.8058305252
 20
162.5089562802
 10
361.1556253937
 20
162.6592892922
 10
361.4728230133
 20
162.8320487129
 10
361.7531338302
 20
163.0248982676
 10
361.9927671216
 20
163.2352299968
 10
362.1884822582
 20
163.4601995246
 10
362.3376325286
 20
163.6967645243
 10
362.4382009312
 20
163.9417258599
 10
362.4888274509
 20
164.1917708497
 10
362.4888274509
 20
164.4435180641
 10
362.4382009312
 20
164.6935630539
 10
362.3376325286
 20
164.9385243895
 10
362.1884822582
 20
165.1750893892
 10
361.9927671216
 20
165.4000589171
 10
361.7531338302
 20
165.6103906463
 10
361.4728230133
 20
165.8032402009
 10
361.1556253937
 20
165.9759996216
 10
360.8058305252
 20
166.1263326336
 10
360.4281687832
 20
166.2522062408
 10
360.0277473949
 20
166.3519182186
 10
359.6099813727
 20
166.4241201335
 10
359.1805202854
 20
166.4678355785
 10
358.7451718574
 20
166.4824733772
  0
LINE
  5
1B1
330
1F
100
AcDbEntity
  8
0
  6
Continuous
 62
     7
370
    25
100
AcDbLine
 10
358.7451718574
 20
185.5329678761
 30
0.0
 11
341.1870370026
 21
185.5329678761
 31
0.0
  0
LWPOLYLINE
  5
1B2
330
1F
100
AcDbEntity
  8
0
  6
Continuous
 62
     7
370
    25
100
AcDbPolyline
 90
       21
 70
   128
 43
0.0
 10
341.1870370026
 20
185.5329678761
 10
340.7462717621
 20
185.5179622712
 10
340.3116168881
 20
185.4731534807
 10
339.8890980385
 20
185.3991626925
 10
339.4845726285
 20
185.2970156475
 10
339.1036486287
 20
185.1681284188
 10
338.7516068213
 20
185.0142877813
 10
338.4333275922
 20
184.8376264408
 10
338.1532232737
 20
184.6405934688
 10
337.915176976
 20
184.4259203504
 10
337.7224887557
 20
184.1965831175
 10
337.5778298659
 20
183.9557610918
 10
337.4832057253
 20
183.7067928098
 10
337.4399281167
 20
183.4531297403
 10
337.4485970011
 20
183.1982884363
 10
337.5090922011
 20
182.9458017846
 10
337.6205750665
 20
182.6991700295
 10
337.7815001007
 20
182.4618122481
 10
337.9896363862
 20
182.237018952
 10
338.2420985118
 20
182.0279064699
 10
338.5353865731
 20
181.8373737461
  0
ARC
  5
1B3
330
1F
100
AcDbEntity
  8
0
  6
Continuous
 62
     7
370
    25
100
AcDbCircle
 10
341.0789982345
 20
186.6131171121
 30
0.0
 40
5.410885785381682
100
AcDbArc
 50
241.9597608846
 51
271.1440967458
  0
LINE
  5
1B4
330
1F
100
AcDbEntity
  8
0
  6
Continuous
 62
     7
370
    25
100
AcDbLine
 10
341.1870370026
 20
181.2033100354
 30
0.0
 11
358.7451718574
 21
181.2033100354
 31
0.0
  0
LWPOLYLINE
  5
1B5
330
1F
100
AcDbEntity
  8
0
  6
Continuous
 62
     7
370
    25
100
AcDbPolyline
 90
       28
 70
   128
 43
0.0
 10
358.7451718574
 20
181.2033100354
 10
359.1805202854
 20
181.2179478341
 10
359.6099813727
 20
181.2616632791
 10
360.0277473949
 20
181.3338651941
 10
360.4281687832
 20
181.4335771718
 10
360.8058305252
 20
181.559450779
 10
361.1556253937
 20
181.709783791
 10
361.4728230133
 20
181.8825432118
 10
361.7531338302
 20
182.0753927664
 10
361.9927671216
 20
182.2857244956
 10
362.1884822582
 20
182.5106940235
 10
362.3376325286
 20
182.7472590231
 10
362.4382009312
 20
182.9922203588
 10
362.4888274509
 20
183.2422653486
 10
362.4888274509
 20
183.4940125629
 10
362.4382009312
 20
183.7440575527
 10
362.3376325286
 20
183.9890188884
 10
362.1884822582
 20
184.225583888
 10
361.9927671216
 20
184.4505534159
 10
361.7531338302
 20
184.6608851451
 10
361.4728230133
 20
184.8537346997
 10
361.1556253937
 20
185.0264941205
 10
360.8058305252
 20
185.1768271325
 10
360.4281687832
 20
185.3027007397
 10
360.0277473949
 20
185.4024127174
 10
359.6099813727
 20
185.4746146323
 10
359.1805202854
 20
185.5183300774
 10
358.7451718574
 20
185.5329678761
  0
LINE
  5
1B6
330
1F
100
AcDbEntity
  8
0
  6
Continuous
 62
     7
370
    25
100
AcDbLine
 10
375.2451718574
 20
176.0077206267
 30
0.0
 11
324.6870370026
 21
176.0077206267
 31
0.0
  0
LWPOLYLINE
  5
1B7
330
1F
100
AcDbEntity
  8
0
  6
Continuous
 62
     7
370
    25
100
AcDbPolyline
 90
       21
 70
   128
 43
0.0
 10
324.6870370026
 20
176.0077206267
 10
324.2462717621
 20
175.9927150218
 10
323.8116168881
 20
175.9479062313
 10
323.3890980385
 20
175.8739154431
 10
322.9845726285
 20
175.7717683981
 10
322.6036486287
 20
175.6428811694
 10
322.2516068213
 20
175.4890405318
 10
321.9333275922
 20
175.3123791914
 10
321.6532232737
 20
175.1153462194
 10
321.415176976
 20
174.900673101
 10
321.2224887557
 20
174.671335868
 10
321.0778298659
 20
174.4305138423
 10
320.9832057253
 20
174.1815455604
 10
320.9399281167
 20
173.9278824909
 10
320.9485970011
 20
173.6730411868
 10
321.0090922011
 20
173.4205545352
 10
321.1205750665
 20
173.17392278
 10
321.2815001007
 20
172.9365649987
 10
321.4896363862
 20
172.7117717026
 10
321.7420985118
 20
172.5026592205
 10
322.0353865731
 20
172.3121264967
  0
ARC
  5
1B8
330
1F
100
AcDbEntity
  8
0
  6
Continuous
 62
     7
370
    25
100
AcDbCircle
 10
324.5789982345
 20
177.0878698627
 30
0.0
 40
5.410885785381657
100
AcDbArc
 50
241.9597608846
 51
271.1440967458
  0
LINE
  5
1B9
330
1F
100
AcDbEntity
  8
0
  6
Continuous
 62
     7
370
    25
100
AcDbLine
 10
324.6870370026
 20
171.678062786
 30
0.0
 11
375.2451718574
 21
171.678062786
 31
0.0
  0
LWPOLYLINE
  5
1BA
330
1F
100
AcDbEntity
  8
0
  6
Continuous
 62
     7
370
    25
100
AcDbPolyline
 90
       28
 70
   128
 43
0.0
 10
375.2451718574
 20
171.678062786
 10
375.6805202854
 20
171.6927005847
 10
376.1099813727
 20
171.7364160297
 10
376.5277473949
 20
171.8086179446
 10
376.9281687832
 20
171.9083299224
 10
377.3058305252
 20
172.0342035296
 10
377.6556253937
 20
172.1845365416
 10
377.9728230133
 20
172.3572959623
 10
378.2531338302
 20
172.550145517
 10
378.4927671216
 20
172.7604772462
 10
378.6884822582
 20
172.9854467741
 10
378.8376325286
 20
173.2220117737
 10
378.9382009312
 20
173.4669731094
 10
378.9888274509
 20
173.7170180991
 10
378.9888274509
 20
173.9687653135
 10
378.9382009312
 20
174.2188103033
 10
378.8376325286
 20
174.4637716389
 10
378.6884822582
 20
174.7003366386
 10
378.4927671216
 20
174.9253061665
 10
378.2531338302
 20
175.1356378957
 10
377.9728230133
 20
175.3284874503
 10
377.6556253937
 20
175.501246871
 10
377.3058305252
 20
175.6515798831
 10
376.9281687832
 20
175.7774534902
 10
376.5277473949
 20
175.877165468
 10
376.1099813727
 20
175.9493673829
 10
375.6805202854
 20
175.9930828279
 10
375.2451718574
 20
176.0077206267
  0
ARC
  5
1BB
330
1F
100
AcDbEntity
  8
0
  6
Continuous
 62
     7
370
    25
100
AcDbCircle
 10
310.4393823161
 20
181.1736115982
 30
0.0
 40
1.8860222943517
100
AcDbArc
 50
185.6947992512
 51
245.6253417064
  0
LWPOLYLINE
  5
1BC
330
1F
100
AcDbEntity
  8
0
  6
Continuous
 62
     7
370
    25
100
AcDbPolyline
 90
       21
 70
   128
 43
0.0
 10
316.0626683318
 20
180.9864626848
 10
316.0366750454
 20
180.7320143275
 10
315.9590555333
 20
180.4810934098
 10
315.8308858415
 20
180.2371784698
 10
315.6539427975
 20
180.0036509214
 10
315.4306793779
 20
179.7837481771
 10
315.1641907028
 20
179.5805187675
 10
314.8581711276
 20
179.3967800795
 10
314.5168630279
 20
179.2350792983
 10
314.1449979874
 20
179.0976580958
 10
313.7477312032
 20
178.9864215539
 10
313.3305700188
 20
178.9029117544
 10
312.8992975757
 20
178.8482864008
 10
312.4598926409
 20
178.8233027691
 10
312.0184467228
 20
178.8283072095
 10
311.5810796242
 20
178.8632303451
 10
311.1538546029
 20
178.9275880334
 10
310.742694316
 20
179.0204880783
 10
310.3532987141
 20
179.1406425984
 10
309.9910660219
 20
179.2863858812
 10
309.6610179024
 20
179.4556974751
  0
LINE
  5
1BD
330
1F
100
AcDbEntity
  8
0
  6
Continuous
 62
     7
370
    25
100
AcDbLine
 10
316.0626683318
 20
210.1730526824
 30
0.0
 11
316.0626683318
 21
180.9864626848
 31
0.0
  0
LWPOLYLINE
  5
1BE
330
1F
100
AcDbEntity
  8
0
  6
Continuous
 62
     7
370
    25
100
AcDbPolyline
 90
       28
 70
   128
 43
0.0
 10
308.5626683318
 20
210.1730526824
 10
308.5880244903
 20
210.4243739804
 10
308.6637500671
 20
210.6722965889
 10
308.7888210039
 20
210.91346778
 10
308.9615459306
 20
211.1446261272
 10
309.179589039
 20
211.3626456101
 10
309.4400016701
 20
211.5645778895
 10
309.7392621898
 20
211.7476921776
 10
310.0733236129
 20
211.9095121678
 10
310.4376683318
 20
212.0478495223
 10
310.8273692092
 20
212.1608334657
 10
311.2371562091
 20
212.2469360841
 10
311.6614876656
 20
212.3049929871
 10
312.0946252234
 20
212.3342190549
 10
312.5307114402
 20
212.3342190549
 10
312.9638489981
 20
212.3049929871
 10
313.3881804545
 20
212.2469360841
 10
313.7979674545
 20
212.1608334657
 10
314.1876683318
 20
212.0478495223
 10
314.5520130507
 20
211.9095121678
 10
314.8860744738
 20
211.7476921776
 10
315.1853349935
 20
211.5645778895
 10
315.4457476246
 20
211.3626456101
 10
315.663790733
 20
211.1446261272
 10
315.8365156598
 20
210.91346778
 10
315.9615865965
 20
210.6722965889
 10
316.0373121733
 20
210.4243739804
 10
316.0626683318
 20
210.1730526824
  0
LINE
  5
1BF
330
1F
100
AcDbEntity
  8
0
  6
Continuous
 62
     7
370
    25
100
AcDbLine
 10
308.5626683318
 20
180.9864626848
 30
0.0
 11
308.5626683318
 21
210.1730526824
 31
0.0
  0
ARC
  5
1C0
330
1F
100
AcDbEntity
  8
0
  6
Continuous
 62
     7
370
    25
100
AcDbCircle
 10
326.9393823161
 20
190.6988588476
 30
0.0
 40
1.886022294351859
100
AcDbArc
 50
185.6947992512
 51
245.6253417064
  0
LWPOLYLINE
  5
1C1
330
1F
100
AcDbEntity
  8
0
  6
Continuous
 62
     7
370
    25
100
AcDbPolyline
 90
       21
 70
   128
 43
0.0
 10
332.5626683318
 20
190.5117099342
 10
332.5366750454
 20
190.257261577
 10
332.4590555333
 20
190.0063406592
 10
332.3308858415
 20
189.7624257192
 10
332.1539427975
 20
189.5288981708
 10
331.9306793779
 20
189.3089954265
 10
331.6641907028
 20
189.1057660169
 10
331.3581711276
 20
188.9220273289
 10
331.0168630279
 20
188.7603265477
 10
330.6449979874
 20
188.6229053452
 10
330.2477312032
 20
188.5116688033
 10
329.8305700188
 20
188.4281590038
 10
329.3992975757
 20
188.3735336502
 10
328.9598926409
 20
188.3485500185
 10
328.5184467228
 20
188.353554459
 10
328.0810796242
 20
188.3884775946
 10
327.6538546029
 20
188.4528352829
 10
327.242694316
 20
188.5457353277
 10
326.8532987141
 20
188.6658898478
 10
326.4910660219
 20
188.8116331306
 10
326.1610179024
 20
188.9809447245
  0
LINE
  5
1C2
330
1F
100
AcDbEntity
  8
0
  6
Continuous
 62
     7
370
    25
100
AcDbLine
 10
332.5626683318
 20
200.647805433
 30
0.0
 11
332.5626683318
 21
190.5117099342
 31
0.0
  0
LWPOLYLINE
  5
1C3
330
1F
100
AcDbEntity
  8
0
  6
Continuous
 62
     7
370
    25
100
AcDbPolyline
 90
       28
 70
   128
 43
0.0
 10
325.0626683318
 20
200.647805433
 10
325.0880244903
 20
200.899126731
 10
325.1637500671
 20
201.1470493395
 10
325.2888210039
 20
201.3882205306
 10
325.4615459306
 20
201.6193788777
 10
325.679589039
 20
201.8373983607
 10
325.9400016701
 20
202.0393306401
 10
326.2392621898
 20
202.2224449282
 10
326.5733236129
 20
202.3842649184
 10
326.9376683318
 20
202.5226022729
 10
327.3273692092
 20
202.6355862163
 10
327.7371562091
 20
202.7216888347
 10
328.1614876656
 20
202.7797457377
 10
328.5946252234
 20
202.8089718055
 10
329.0307114402
 20
202.8089718055
 10
329.4638489981
 20
202.7797457377
 10
329.8881804545
 20
202.7216888347
 10
330.2979674545
 20
202.6355862163
 10
330.6876683318
 20
202.5226022729
 10
331.0520130507
 20
202.3842649184
 10
331.3860744738
 20
202.2224449282
 10
331.6853349935
 20
202.0393306401
 10
331.9457476246
 20
201.8373983607
 10
332.163790733
 20
201.6193788777
 10
332.3365156598
 20
201.3882205306
 10
332.4615865965
 20
201.1470493395
 10
332.5373121733
 20
200.899126731
 10
332.5626683318
 20
200.647805433
  0
LINE
  5
1C4
330
1F
100
AcDbEntity
  8
0
  6
Continuous
 62
     7
370
    25
100
AcDbLine
 10
325.0626683318
 20
190.5117099342
 30
0.0
 11
325.0626683318
 21
200.647805433
 31
0.0
  0
ARC
  5
1C5
330
1F
100
AcDbEntity
  8
0
  6
Continuous
 62
     7
370
    25
100
AcDbCircle
 10
293.9393823161
 20
190.6988588476
 30
0.0
 40
1.886022294351749
100
AcDbArc
 50
185.6947992512
 51
245.6253417064
  0
LWPOLYLINE
  5
1C6
330
1F
100
AcDbEntity
  8
0
  6
Continuous
 62
     7
370
    25
100
AcDbPolyline
 90
       21
 70
   128
 43
0.0
 10
299.5626683318
 20
190.5117099342
 10
299.5366750454
 20
190.257261577
 10
299.4590555333
 20
190.0063406592
 10
299.3308858415
 20
189.7624257192
 10
299.1539427975
 20
189.5288981708
 10
298.9306793779
 20
189.3089954265
 10
298.6641907028
 20
189.1057660169
 10
298.3581711276
 20
188.9220273289
 10
298.0168630279
 20
188.7603265477
 10
297.6449979874
 20
188.6229053452
 10
297.2477312032
 20
188.5116688033
 10
296.8305700188
 20
188.4281590038
 10
296.3992975757
 20
188.3735336502
 10
295.9598926409
 20
188.3485500185
 10
295.5184467228
 20
188.353554459
 10
295.0810796242
 20
188.3884775946
 10
294.6538546029
 20
188.4528352829
 10
294.242694316
 20
188.5457353277
 10
293.8532987141
 20
188.6658898478
 10
293.4910660219
 20
188.8116331306
 10
293.1610179024
 20
188.9809447245
  0
LINE
  5
1C7
330
1F
100
AcDbEntity
  8
0
  6
Continuous
 62
     7
370
    25
100
AcDbLine
 10
299.5626683318
 20
200.647805433
 30
0.0
 11
299.5626683318
 21
190.5117099342
 31
0.0
  0
LWPOLYLINE
  5
1C8
330
1F
100
AcDbEntity
  8
0
  6
Continuous
 62
     7
370
    25
100
AcDbPolyline
 90
       28
 70
   128
 43
0.0
 10
292.0626683318
 20
200.647805433
 10
292.0880244903
 20
200.899126731
 10
292.1637500671
 20
201.1470493395
 10
292.2888210039
 20
201.3882205306
 10
292.4615459306
 20
201.6193788777
 10
292.679589039
 20
201.8373983607
 10
292.9400016701
 20
202.0393306401
 10
293.2392621898
 20
202.2224449282
 10
293.5733236129
 20
202.3842649184
 10
293.9376683318
 20
202.5226022729
 10
294.3273692092
 20
202.6355862163
 10
294.7371562091
 20
202.7216888347
 10
295.1614876656
 20
202.7797457377
 10
295.5946252234
 20
202.8089718055
 10
296.0307114402
 20
202.8089718055
 10
296.4638489981
 20
202.7797457377
 10
296.8881804545
 20
202.7216888347
 10
297.2979674545
 20
202.6355862163
 10
297.6876683318
 20
202.5226022729
 10
298.0520130507
 20
202.3842649184
 10
298.3860744738
 20
202.2224449282
 10
298.6853349935
 20
202.0393306401
 10
298.9457476246
 20
201.8373983607
 10
299.163790733
 20
201.6193788777
 10
299.3365156598
 20
201.3882205306
 10
299.4615865965
 20
201.1470493395
 10
299.5373121733
 20
200.899126731
 10
299.5626683318
 20
200.647805433
  0
LINE
  5
1C9
330
1F
100
AcDbEntity
  8
0
  6
Continuous
 62
     7
370
    25
100
AcDbLine
 10
292.0626683318
 20
190.5117099342
 30
0.0
 11
292.0626683318
 21
200.647805433
 31
0.0
  0
LWPOLYLINE
  5
1CA
330
1F
100
AcDbEntity
  8
0
  6
Continuous
 62
     7
370
    25
100
AcDbPolyline
 90
       28
 70
   128
 43
0.0
 10
308.5626683318
 20
166.6993207279
 10
308.5880244903
 20
166.9506420258
 10
308.6637500671
 20
167.1985646344
 10
308.7888210039
 20
167.4397358255
 10
308.9615459306
 20
167.6708941726
 10
309.179589039
 20
167.8889136556
 10
309.4400016701
 20
168.090845935
 10
309.7392621898
 20
168.273960223
 10
310.0733236129
 20
168.4357802132
 10
310.4376683318
 20
168.5741175677
 10
310.8273692092
 20
168.6871015112
 10
311.2371562091
 20
168.7732041295
 10
311.6614876656
 20
168.8312610326
 10
312.0946252234
 20
168.8604871003
 10
312.5307114402
 20
168.8604871003
 10
312.9638489981
 20
168.8312610326
 10
313.3881804545
 20
168.7732041295
 10
313.7979674545
 20
168.6871015112
 10
314.1876683318
 20
168.5741175677
 10
314.5520130507
 20
168.4357802132
 10
314.8860744738
 20
168.273960223
 10
315.1853349935
 20
168.090845935
 10
315.4457476246
 20
167.8889136556
 10
315.663790733
 20
167.6708941726
 10
315.8365156598
 20
167.4397358255
 10
315.9615865965
 20
167.1985646344
 10
316.0373121733
 20
166.9506420258
 10
316.0626683318
 20
166.6993207279
  0
LINE
  5
1CB
330
1F
100
AcDbEntity
  8
0
  6
Continuous
 62
     7
370
    25
100
AcDbLine
 10
308.5626683318
 20
137.5127307302
 30
0.0
 11
308.5626683318
 21
166.6993207279
 31
0.0
  0
ARC
  5
1CC
330
1F
100
AcDbEntity
  8
0
  6
Continuous
 62
     7
370
    25
100
AcDbCircle
 10
310.4393823161
 20
137.6998796436
 30
0.0
 40
1.88602229435167
100
AcDbArc
 50
185.6947992512
 51
245.6253417064
  0
LWPOLYLINE
  5
1CD
330
1F
100
AcDbEntity
  8
0
  6
Continuous
 62
     7
370
    25
100
AcDbPolyline
 90
       21
 70
   128
 43
0.0
 10
316.0626683318
 20
137.5127307302
 10
316.0366750454
 20
137.258282373
 10
315.9590555333
 20
137.0073614552
 10
315.8308858415
 20
136.7634465152
 10
315.6539427975
 20
136.5299189668
 10
315.4306793779
 20
136.3100162225
 10
315.1641907028
 20
136.106786813
 10
314.8581711276
 20
135.923048125
 10
314.5168630279
 20
135.7613473438
 10
314.1449979874
 20
135.6239261412
 10
313.7477312032
 20
135.5126895994
 10
313.3305700188
 20
135.4291797998
 10
312.8992975757
 20
135.3745544462
 10
312.4598926409
 20
135.3495708145
 10
312.0184467228
 20
135.354575255
 10
311.5810796242
 20
135.3894983906
 10
311.1538546029
 20
135.4538560789
 10
310.742694316
 20
135.5467561237
 10
310.3532987141
 20
135.6669106438
 10
309.9910660219
 20
135.8126539266
 10
309.6610179024
 20
135.9819655206
  0
LINE
  5
1CE
330
1F
100
AcDbEntity
  8
0
  6
Continuous
 62
     7
370
    25
100
AcDbLine
 10
316.0626683318
 20
166.6993207279
 30
0.0
 11
316.0626683318
 21
137.5127307302
 31
0.0
  0
LWPOLYLINE
  5
1CF
330
1F
100
AcDbEntity
  8
0
  6
Continuous
 62
     7
370
    25
100
AcDbPolyline
 90
       28
 70
   128
 43
0.0
 10
292.0626683318
 20
157.1740734785
 10
292.0880244903
 20
157.4253947764
 10
292.1637500671
 20
157.6733173849
 10
292.2888210039
 20
157.9144885761
 10
292.4615459306
 20
158.1456469232
 10
292.679589039
 20
158.3636664062
 10
292.9400016701
 20
158.5655986855
 10
293.2392621898
 20
158.7487129736
 10
293.5733236129
 20
158.9105329638
 10
293.9376683318
 20
159.0488703183
 10
294.3273692092
 20
159.1618542618
 10
294.7371562091
 20
159.2479568801
 10
295.1614876656
 20
159.3060137832
 10
295.5946252234
 20
159.3352398509
 10
296.0307114402
 20
159.3352398509
 10
296.4638489981
 20
159.3060137832
 10
296.8881804545
 20
159.2479568801
 10
297.2979674545
 20
159.1618542618
 10
297.6876683318
 20
159.0488703183
 10
298.0520130507
 20
158.9105329638
 10
298.3860744738
 20
158.7487129736
 10
298.6853349935
 20
158.5655986855
 10
298.9457476246
 20
158.3636664062
 10
299.163790733
 20
158.1456469232
 10
299.3365156598
 20
157.9144885761
 10
299.4615865965
 20
157.6733173849
 10
299.5373121733
 20
157.4253947764
 10
299.5626683318
 20
157.1740734785
  0
LINE
  5
1D0
330
1F
100
AcDbEntity
  8
0
  6
Continuous
 62
     7
370
    25
100
AcDbLine
 10
292.0626683318
 20
147.0379779796
 30
0.0
 11
292.0626683318
 21
157.1740734785
 31
0.0
  0
ARC
  5
1D1
330
1F
100
AcDbEntity
  8
0
  6
Continuous
 62
     7
370
    25
100
AcDbCircle
 10
293.9393823161
 20
147.225126893
 30
0.0
 40
1.886022294351752
100
AcDbArc
 50
185.6947992512
 51
245.6253417064
  0
LWPOLYLINE
  5
1D2
330
1F
100
AcDbEntity
  8
0
  6
Continuous
 62
     7
370
    25
100
AcDbPolyline
 90
       21
 70
   128
 43
0.0
 10
299.5626683318
 20
147.0379779796
 10
299.5366750454
 20
146.7835296224
 10
299.4590555333
 20
146.5326087046
 10
299.3308858415
 20
146.2886937647
 10
299.1539427975
 20
146.0551662162
 10
298.9306793779
 20
145.8352634719
 10
298.6641907028
 20
145.6320340624
 10
298.3581711276
 20
145.4482953744
 10
298.0168630279
 20
145.2865945932
 10
297.6449979874
 20
145.1491733907
 10
297.2477312032
 20
145.0379368488
 10
296.8305700188
 20
144.9544270492
 10
296.3992975757
 20
144.8998016957
 10
295.9598926409
 20
144.874818064
 10
295.5184467228
 20
144.8798225044
 10
295.0810796242
 20
144.91474564
 10
294.6538546029
 20
144.9791033283
 10
294.242694316
 20
145.0720033731
 10
293.8532987141
 20
145.1921578932
 10
293.4910660219
 20
145.337901176
 10
293.1610179024
 20
145.50721277
  0
LINE
  5
1D3
330
1F
100
AcDbEntity
  8
0
  6
Continuous
 62
     7
370
    25
100
AcDbLine
 10
299.5626683318
 20
157.1740734785
 30
0.0
 11
299.5626683318
 21
147.0379779796
 31
0.0
  0
LWPOLYLINE
  5
1D4
330
1F
100
AcDbEntity
  8
0
  6
Continuous
 62
     7
370
    25
100
AcDbPolyline
 90
       28
 70
   128
 43
0.0
 10
325.0626683318
 20
157.1740734785
 10
325.0880244903
 20
157.4253947764
 10
325.1637500671
 20
157.6733173849
 10
325.2888210039
 20
157.9144885761
 10
325.4615459306
 20
158.1456469232
 10
325.679589039
 20
158.3636664062
 10
325.9400016701
 20
158.5655986855
 10
326.2392621898
 20
158.7487129736
 10
326.5733236129
 20
158.9105329638
 10
326.9376683318
 20
159.0488703183
 10
327.3273692092
 20
159.1618542618
 10
327.7371562091
 20
159.2479568801
 10
328.1614876656
 20
159.3060137832
 10
328.5946252234
 20
159.3352398509
 10
329.0307114402
 20
159.3352398509
 10
329.4638489981
 20
159.3060137832
 10
329.8881804545
 20
159.2479568801
 10
330.2979674545
 20
159.1618542618
 10
330.6876683318
 20
159.0488703183
 10
331.0520130507
 20
158.9105329638
 10
331.3860744738
 20
158.7487129736
 10
331.6853349935
 20
158.5655986855
 10
331.9457476246
 20
158.3636664062
 10
332.163790733
 20
158.1456469232
 10
332.3365156598
 20
157.9144885761
 10
332.4615865965
 20
157.6733173849
 10
332.5373121733
 20
157.4253947764
 10
332.5626683318
 20
157.1740734785
  0
LINE
  5
1D5
330
1F
100
AcDbEntity
  8
0
  6
Continuous
 62
     7
370
    25
100
AcDbLine
 10
325.0626683318
 20
147.0379779796
 30
0.0
 11
325.0626683318
 21
157.1740734785
 31
0.0
  0
ARC
  5
1D6
330
1F
100
AcDbEntity
  8
0
  6
Continuous
 62
     7
370
    25
100
AcDbCircle
 10
326.9393823161
 20
147.225126893
 30
0.0
 40
1.886022294351373
100
AcDbArc
 50
185.6947992512
 51
245.6253417064
  0
LWPOLYLINE
  5
1D7
330
1F
100
AcDbEntity
  8
0
  6
Continuous
 62
     7
370
    25
100
AcDbPolyline
 90
       21
 70
   128
 43
0.0
 10
332.5626683318
 20
147.0379779796
 10
332.5366750454
 20
146.7835296224
 10
332.4590555333
 20
146.5326087046
 10
332.3308858415
 20
146.2886937647
 10
332.1539427975
 20
146.0551662162
 10
331.9306793779
 20
145.8352634719
 10
331.6641907028
 20
145.6320340624
 10
331.3581711276
 20
145.4482953744
 10
331.0168630279
 20
145.2865945932
 10
330.6449979874
 20
145.1491733907
 10
330.2477312032
 20
145.0379368488
 10
329.8305700188
 20
144.9544270492
 10
329.3992975757
 20
144.8998016957
 10
328.9598926409
 20
144.874818064
 10
328.5184467228
 20
144.8798225044
 10
328.0810796242
 20
144.91474564
 10
327.6538546029
 20
144.9791033283
 10
327.242694316
 20
145.0720033731
 10
326.8532987141
 20
145.1921578932
 10
326.4910660219
 20
145.337901176
 10
326.1610179024
 20
145.50721277
  0
LINE
  5
1D8
330
1F
100
AcDbEntity
  8
0
  6
Continuous
 62
     7
370
    25
100
AcDbLine
 10
332.5626683318
 20
157.1740734785
 30
0.0
 11
332.5626683318
 21
147.0379779796
 31
0.0
  0
LWPOLYLINE
  5
1D9
330
1F
100
AcDbEntity
  8
0
  6
Continuous
 62
     7
370
    25
100
AcDbPolyline
 90
       11
 70
   128
 43
0.0
 10
284.079656009
 20
154.3512641141
 10
284.1012742147
 20
154.3736447067
 10
284.2494510533
 20
154.5609526426
 10
284.3499439057
 20
154.7585277601
 10
284.4007070273
 20
154.9623479997
 10
284.4007070273
 20
155.1682641689
 10
284.3499439057
 20
155.3720844085
 10
284.2494510533
 20
155.5696595261
 10
284.1012742147
 20
155.756967462
 10
283.9084298431
 20
155.9301951668
 10
283.6748436937
 20
156.0858162241
  0
LINE
  5
1DA
330
1F
100
AcDbEntity
  8
0
  6
Continuous
 62
     7
370
    25
100
AcDbLine
 10
283.6748436937
 20
156.0858162241
 30
0.0
 11
284.7355038655
 21
157.9229335258
 31
0.0
  0
LWPOLYLINE
  5
1DB
330
1F
100
AcDbEntity
  8
0
  6
Continuous
 62
     7
370
    25
100
AcDbPolyline
 90
       22
 70
   128
 43
0.0
 10
283.6748436937
 20
156.0858162241
 10
283.4052709071
 20
156.2206626378
 10
283.1051992076
 20
156.3319893239
 10
282.7807371898
 20
156.417529992
 10
282.4384899647
 20
156.4755432809
 10
282.0854246988
 20
156.5048482072
 10
281.7287287828
 20
156.5048482072
 10
281.3756635169
 20
156.4755432809
 10
281.0334162918
 20
156.417529992
 10
280.708954274
 20
156.3319893239
 10
280.4088825745
 20
156.2206626378
 10
280.1393097878
 20
156.0858162241
 10
279.9057236385
 20
155.9301951668
 10
279.7128792669
 20
155.756967462
 10
279.5647024283
 20
155.5696595261
 10
279.4642095759
 20
155.3720844085
 10
279.4134464543
 20
155.1682641689
 10
279.4134464543
 20
154.9623479997
 10
279.4642095759
 20
154.7585277601
 10
279.5647024283
 20
154.5609526426
 10
279.7128792669
 20
154.3736447067
 10
279.7344974726
 20
154.3512641141
  0
LINE
  5
1DC
330
1F
100
AcDbEntity
  8
0
  6
Continuous
 62
     7
370
    25
100
AcDbLine
 10
283.6748436937
 20
155.6775458182
 30
0.0
 11
283.6748436937
 21
156.0858162241
 31
0.0
  0
ARC
  5
1DD
330
1F
100
AcDbEntity
  8
0
  6
Continuous
 62
     7
370
    25
100
AcDbCircle
 10
283.0609247226
 20
154.4313911476
 30
0.0
 40
1.389171683448323
100
AcDbArc
 50
18.0217749012
 51
63.7728052037
  0
LWPOLYLINE
  5
1DE
330
1F
100
AcDbEntity
  8
0
  6
Continuous
 62
     7
370
    25
100
AcDbPolyline
 90
       28
 70
   128
 43
0.0
 10
325.0626683318
 20
155.5409918547
 10
325.0880244903
 20
155.7923131526
 10
325.1637500671
 20
156.0402357612
 10
325.2888210039
 20
156.2814069523
 10
325.4615459306
 20
156.5125652994
 10
325.679589039
 20
156.7305847824
 10
325.9400016701
 20
156.9325170618
 10
326.2392621898
 20
157.1156313499
 10
326.5733236129
 20
157.27745134
 10
326.9376683318
 20
157.4157886945
 10
327.3273692092
 20
157.528772638
 10
327.7371562091
 20
157.6148752563
 10
328.1614876656
 20
157.6729321594
 10
328.5946252234
 20
157.7021582271
 10
329.0307114402
 20
157.7021582271
 10
329.4638489981
 20
157.6729321594
 10
329.8881804545
 20
157.6148752563
 10
330.2979674545
 20
157.528772638
 10
330.6876683318
 20
157.4157886945
 10
331.0520130507
 20
157.27745134
 10
331.3860744738
 20
157.1156313499
 10
331.6853349935
 20
156.9325170618
 10
331.9457476246
 20
156.7305847824
 10
332.163790733
 20
156.5125652994
 10
332.3365156598
 20
156.2814069523
 10
332.4615865965
 20
156.0402357612
 10
332.5373121733
 20
155.7923131526
 10
332.5626683318
 20
155.5409918547
  0
LWPOLYLINE
  5
1DF
330
1F
100
AcDbEntity
  8
0
  6
Continuous
 62
     7
370
    25
100
AcDbPolyline
 90
       28
 70
   128
 43
0.0
 10
292.0626683318
 20
155.5409918547
 10
292.0880244903
 20
155.7923131526
 10
292.1637500671
 20
156.0402357612
 10
292.2888210039
 20
156.2814069523
 10
292.4615459306
 20
156.5125652994
 10
292.679589039
 20
156.7305847824
 10
292.9400016701
 20
156.9325170618
 10
293.2392621898
 20
157.1156313499
 10
293.5733236129
 20
157.27745134
 10
293.9376683318
 20
157.4157886945
 10
294.3273692092
 20
157.528772638
 10
294.7371562091
 20
157.6148752563
 10
295.1614876656
 20
157.6729321594
 10
295.5946252234
 20
157.7021582271
 10
296.0307114402
 20
157.7021582271
 10
296.4638489981
 20
157.6729321594
 10
296.8881804545
 20
157.6148752563
 10
297.2979674545
 20
157.528772638
 10
297.6876683318
 20
157.4157886945
 10
298.0520130507
 20
157.27745134
 10
298.3860744738
 20
157.1156313499
 10
298.6853349935
 20
156.9325170618
 10
298.9457476246
 20
156.7305847824
 10
299.163790733
 20
156.5125652994
 10
299.3365156598
 20
156.2814069523
 10
299.4615865965
 20
156.0402357612
 10
299.5373121733
 20
155.7923131526
 10
299.5626683318
 20
155.5409918547
  0
LWPOLYLINE
  5
1E0
330
1F
100
AcDbEntity
  8
0
  6
Continuous
 62
     7
370
    25
100
AcDbPolyline
 90
       17
 70
   128
 43
0.0
 10
283.6748436937
 20
155.6775458182
 10
283.4052709071
 20
155.8123922319
 10
283.1051992076
 20
155.923718918
 10
282.7807371898
 20
156.0092595861
 10
282.4384899647
 20
156.0672728749
 10
282.0854246988
 20
156.0965778013
 10
281.7287287828
 20
156.0965778013
 10
281.3756635169
 20
156.0672728749
 10
281.0334162918
 20
156.0092595861
 10
280.708954274
 20
155.923718918
 10
280.4088825745
 20
155.8123922319
 10
280.1393097878
 20
155.6775458182
 10
279.9057236385
 20
155.5219247609
 10
279.7128792669
 20
155.348697056
 10
279.5647024283
 20
155.1613891201
 10
279.4642095759
 20
154.9638140026
 10
279.4322112169
 20
154.8611708813
  0
LINE
  5
1E1
330
1F
100
AcDbEntity
  8
0
  6
Continuous
 62
     7
370
    25
100
AcDbLine
 10
341.1870370026
 20
164.8493917535
 30
0.0
 11
341.1870370026
 21
166.4824733772
 31
0.0
  0
LINE
  5
1E2
330
1F
100
AcDbEntity
  8
0
  6
Continuous
 62
     7
370
    25
100
AcDbLine
 10
358.7451718574
 20
164.8493917535
 30
0.0
 11
358.7451718574
 21
166.4824733772
 31
0.0
  0
LINE
  5
1E3
330
1F
100
AcDbEntity
  8
0
  6
Continuous
 62
     7
370
    25
100
AcDbLine
 10
358.7451718574
 20
164.8493917535
 30
0.0
 11
341.1870370026
 21
164.8493917535
 31
0.0
  0
LINE
  5
1E4
330
1F
100
AcDbEntity
  8
0
  6
Continuous
 62
     7
370
    25
100
AcDbLine
 10
324.6870370026
 20
174.3746390029
 30
0.0
 11
324.6870370026
 21
176.0077206267
 31
0.0
  0
LINE
  5
1E5
330
1F
100
AcDbEntity
  8
0
  6
Continuous
 62
     7
370
    25
100
AcDbLine
 10
375.2451718574
 20
174.3746390029
 30
0.0
 11
375.2451718574
 21
176.0077206267
 31
0.0
  0
LINE
  5
1E6
330
1F
100
AcDbEntity
  8
0
  6
Continuous
 62
     7
370
    25
100
AcDbLine
 10
375.2451718574
 20
174.3746390029
 30
0.0
 11
324.6870370026
 21
174.3746390029
 31
0.0
  0
LINE
  5
1E7
330
1F
100
AcDbEntity
  8
0
  6
Continuous
 62
     7
370
    25
100
AcDbLine
 10
265.8801648062
 20
164.8493917535
 30
0.0
 11
265.8801648062
 21
166.4824733772
 31
0.0
  0
LINE
  5
1E8
330
1F
100
AcDbEntity
  8
0
  6
Continuous
 62
     7
370
    25
100
AcDbLine
 10
283.438299661
 20
164.8493917535
 30
0.0
 11
283.438299661
 21
166.4824733772
 31
0.0
  0
LINE
  5
1E9
330
1F
100
AcDbEntity
  8
0
  6
Continuous
 62
     7
370
    25
100
AcDbLine
 10
283.438299661
 20
164.8493917535
 30
0.0
 11
265.8801648062
 21
164.8493917535
 31
0.0
  0
LINE
  5
1EA
330
1F
100
AcDbEntity
  8
0
  6
Continuous
 62
     7
370
    25
100
AcDbLine
 10
249.3801648062
 20
174.3746390029
 30
0.0
 11
249.3801648062
 21
176.0077206267
 31
0.0
  0
LINE
  5
1EB
330
1F
100
AcDbEntity
  8
0
  6
Continuous
 62
     7
370
    25
100
AcDbLine
 10
299.938299661
 20
174.3746390029
 30
0.0
 11
299.938299661
 21
176.0077206267
 31
0.0
  0
LINE
  5
1EC
330
1F
100
AcDbEntity
  8
0
  6
Continuous
 62
     7
370
    25
100
AcDbLine
 10
299.938299661
 20
174.3746390029
 30
0.0
 11
249.3801648062
 21
174.3746390029
 31
0.0
  0
ARC
  5
1ED
330
1F
100
AcDbEntity
  8
0
  6
Continuous
 62
     7
370
    25
100
AcDbCircle
 10
359.0651773222
 20
160.5265169002
 30
0.0
 40
4.334703045750947
100
AcDbArc
 50
43.3321163053
 51
94.2336597405
  0
ARC
  5
1EE
330
1F
100
AcDbEntity
  8
0
  6
Continuous
 62
     7
370
    25
100
AcDbCircle
 10
283.7583051258
 20
160.5265169002
 30
0.0
 40
4.334703045751441
100
AcDbArc
 50
43.3321163053
 51
94.2336597405
  0
ARC
  5
1EF
330
1F
100
AcDbEntity
  8
0
  6
Continuous
 62
     7
370
    25
100
AcDbCircle
 10
340.7877844977
 20
160.7306471201
 30
0.0
 40
4.138050255512763
100
AcDbArc
 50
84.4633044668
 51
137.9709194875
  0
ARC
  5
1F0
330
1F
100
AcDbEntity
  8
0
  6
Continuous
 62
     7
370
    25
100
AcDbCircle
 10
265.4809123014
 20
160.7306471201
 30
0.0
 40
4.138050255512927
100
AcDbArc
 50
84.4633044668
 51
137.9709194875
  0
LWPOLYLINE
  5
1F1
330
1F
100
AcDbEntity
  8
0
  6
Continuous
 62
     7
370
    25
100
AcDbPolyline
 90
       28
 70
   128
 43
0.0
 10
308.5626683318
 20
165.0662391041
 10
308.5880244903
 20
165.3175604021
 10
308.6637500671
 20
165.5654830106
 10
308.7888210039
 20
165.8066542017
 10
308.9615459306
 20
166.0378125488
 10
309.179589039
 20
166.2558320318
 10
309.4400016701
 20
166.4577643112
 10
309.7392621898
 20
166.6408785993
 10
310.0733236129
 20
166.8026985894
 10
310.4376683318
 20
166.941035944
 10
310.8273692092
 20
167.0540198874
 10
311.2371562091
 20
167.1401225057
 10
311.6614876656
 20
167.1981794088
 10
312.0946252234
 20
167.2274054765
 10
312.5307114402
 20
167.2274054765
 10
312.9638489981
 20
167.1981794088
 10
313.3881804545
 20
167.1401225057
 10
313.7979674545
 20
167.0540198874
 10
314.1876683318
 20
166.941035944
 10
314.5520130507
 20
166.8026985894
 10
314.8860744738
 20
166.6408785993
 10
315.1853349935
 20
166.4577643112
 10
315.4457476246
 20
166.2558320318
 10
315.663790733
 20
166.0378125488
 10
315.8365156598
 20
165.8066542017
 10
315.9615865965
 20
165.5654830106
 10
316.0373121733
 20
165.3175604021
 10
316.0626683318
 20
165.0662391041
  0
ARC
  5
1F2
330
1F
100
AcDbEntity
  8
0
  6
Continuous
 62
     7
370
    25
100
AcDbCircle
 10
375.5651773222
 20
170.0517641496
 30
0.0
 40
4.334703045750922
100
AcDbArc
 50
43.3321163053
 51
94.2336597405
  0
ARC
  5
1F3
330
1F
100
AcDbEntity
  8
0
  6
Continuous
 62
     7
370
    25
100
AcDbCircle
 10
300.2583051258
 20
170.0517641496
 30
0.0
 40
4.334703045751085
100
AcDbArc
 50
43.3321163053
 51
94.2336597405
  0
ARC
  5
1F4
330
1F
100
AcDbEntity
  8
0
  6
Continuous
 62
     7
370
    25
100
AcDbCircle
 10
324.2877844977
 20
170.2558943696
 30
0.0
 40
4.138050255512705
100
AcDbArc
 50
84.4633044668
 51
137.9709194875
  0
ARC
  5
1F5
330
1F
100
AcDbEntity
  8
0
  6
Continuous
 62
     7
370
    25
100
AcDbCircle
 10
248.9809123014
 20
170.2558943696
 30
0.0
 40
4.13805025551251
100
AcDbArc
 50
84.4633044668
 51
137.9709194875
  0
ARC
  5
1F6
330
1F
100
AcDbEntity
  8
0
  6
Continuous
 62
     7
370
    25
100
AcDbCircle
 10
391.9401241601
 20
167.8731987349
 30
0.0
 40
1.515724239711897
100
AcDbArc
 50
294.5250616912
 51
354.1547973512
  0
ARC
  5
1F7
330
1F
100
AcDbEntity
  8
0
  6
Continuous
 62
     7
370
    25
100
AcDbCircle
 10
232.6852125035
 20
167.8731987349
 30
0.0
 40
1.515724239711784
100
AcDbArc
 50
185.8452026488
 51
245.4749383088
  0
LINE
  5
1F8
330
1F
100
AcDbEntity
  8
0
  6
Continuous
 62
     7
370
    25
100
AcDbLine
 10
341.1870370026
 20
183.8998862523
 30
0.0
 11
341.1870370026
 21
185.5329678761
 31
0.0
  0
LINE
  5
1F9
330
1F
100
AcDbEntity
  8
0
  6
Continuous
 62
     7
370
    25
100
AcDbLine
 10
358.7451718574
 20
183.8998862523
 30
0.0
 11
358.7451718574
 21
185.5329678761
 31
0.0
  0
LINE
  5
1FA
330
1F
100
AcDbEntity
  8
0
  6
Continuous
 62
     7
370
    25
100
AcDbLine
 10
358.7451718574
 20
183.8998862523
 30
0.0
 11
341.1870370026
 21
183.8998862523
 31
0.0
  0
LINE
  5
1FB
330
1F
100
AcDbEntity
  8
0
  6
Continuous
 62
     7
370
    25
100
AcDbLine
 10
265.8801648062
 20
183.8998862523
 30
0.0
 11
265.8801648062
 21
185.5329678761
 31
0.0
  0
LINE
  5
1FC
330
1F
100
AcDbEntity
  8
0
  6
Continuous
 62
     7
370
    25
100
AcDbLine
 10
283.438299661
 20
183.8998862523
 30
0.0
 11
283.438299661
 21
185.5329678761
 31
0.0
  0
LINE
  5
1FD
330
1F
100
AcDbEntity
  8
0
  6
Continuous
 62
     7
370
    25
100
AcDbLine
 10
283.438299661
 20
183.8998862523
 30
0.0
 11
265.8801648062
 21
183.8998862523
 31
0.0
  0
ARC
  5
1FE
330
1F
100
AcDbEntity
  8
0
  6
Continuous
 62
     7
370
    25
100
AcDbCircle
 10
359.0651773222
 20
179.577011399
 30
0.0
 40
4.334703045751137
100
AcDbArc
 50
43.3321163053
 51
94.2336597405
  0
ARC
  5
1FF
330
1F
100
AcDbEntity
  8
0
  6
Continuous
 62
     7
370
    25
100
AcDbCircle
 10
283.7583051258
 20
179.577011399
 30
0.0
 40
4.334703045751657
100
AcDbArc
 50
43.3321163053
 51
94.2336597405
  0
ARC
  5
200
330
1F
100
AcDbEntity
  8
0
  6
Continuous
 62
     7
370
    25
100
AcDbCircle
 10
340.7877844977
 20
179.781141619
 30
0.0
 40
4.13805025551251
100
AcDbArc
 50
84.4633044668
 51
137.9709194875
  0
ARC
  5
201
330
1F
100
AcDbEntity
  8
0
  6
Continuous
 62
     7
370
    25
100
AcDbCircle
 10
265.4809123014
 20
179.781141619
 30
0.0
 40
4.138050255512058
100
AcDbArc
 50
84.4633044668
 51
137.9709194875
  0
LWPOLYLINE
  5
202
330
1F
100
AcDbEntity
  8
0
  6
Continuous
 62
     7
370
    25
100
AcDbPolyline
 90
       11
 70
   128
 43
0.0
 10
344.890839191
 20
189.4568129225
 10
344.9124573967
 20
189.479193515
 10
345.0606342353
 20
189.666501451
 10
345.1611270878
 20
189.8640765685
 10
345.2118902094
 20
190.0678968081
 10
345.2118902094
 20
190.2738129773
 10
345.1611270878
 20
190.4776332169
 10
345.0606342353
 20
190.6752083344
 10
344.9124573967
 20
190.8625162704
 10
344.7196130251
 20
191.0357439752
 10
344.4860268758
 20
191.1913650325
  0
LINE
  5
203
330
1F
100
AcDbEntity
  8
0
  6
Continuous
 62
     7
370
    25
100
AcDbLine
 10
344.4860268758
 20
191.1913650325
 30
0.0
 11
345.5466870476
 21
193.0284823342
 31
0.0
  0
LWPOLYLINE
  5
204
330
1F
100
AcDbEntity
  8
0
  6
Continuous
 62
     7
370
    25
100
AcDbPolyline
 90
       22
 70
   128
 43
0.0
 10
344.4860268758
 20
191.1913650325
 10
344.2164540891
 20
191.3262114462
 10
343.9163823896
 20
191.4375381323
 10
343.5919203718
 20
191.5230788004
 10
343.2496731467
 20
191.5810920893
 10
342.8966078808
 20
191.6103970156
 10
342.5399119648
 20
191.6103970156
 10
342.1868466989
 20
191.5810920893
 10
341.8445994738
 20
191.5230788004
 10
341.520137456
 20
191.4375381323
 10
341.2200657565
 20
191.3262114462
 10
340.9504929699
 20
191.1913650325
 10
340.7169068205
 20
191.0357439752
 10
340.5240624489
 20
190.8625162704
 10
340.3758856103
 20
190.6752083344
 10
340.2753927579
 20
190.4776332169
 10
340.2246296363
 20
190.2738129773
 10
340.2246296363
 20
190.0678968081
 10
340.2753927579
 20
189.8640765685
 10
340.3758856103
 20
189.666501451
 10
340.5240624489
 20
189.479193515
 10
340.5456806546
 20
189.4568129225
  0
LINE
  5
205
330
1F
100
AcDbEntity
  8
0
  6
Continuous
 62
     7
370
    25
100
AcDbLine
 10
344.4860268758
 20
190.7830946265
 30
0.0
 11
344.4860268758
 21
191.1913650325
 31
0.0
  0
ARC
  5
206
330
1F
100
AcDbEntity
  8
0
  6
Continuous
 62
     7
370
    25
100
AcDbCircle
 10
343.8721079046
 20
189.536939956
 30
0.0
 40
1.389171683447252
100
AcDbArc
 50
18.0217749012
 51
63.7728052037
  0
LWPOLYLINE
  5
207
330
1F
100
AcDbEntity
  8
0
  6
Continuous
 62
     7
370
    25
100
AcDbPolyline
 90
       17
 70
   128
 43
0.0
 10
344.4860268758
 20
190.7830946265
 10
344.2164540891
 20
190.9179410403
 10
343.9163823896
 20
191.0292677263
 10
343.5919203718
 20
191.1148083945
 10
343.2496731467
 20
191.1728216833
 10
342.8966078808
 20
191.2021266096
 10
342.5399119648
 20
191.2021266096
 10
342.1868466989
 20
191.1728216833
 10
341.8445994738
 20
191.1148083945
 10
341.520137456
 20
191.0292677263
 10
341.2200657565
 20
190.9179410403
 10
340.9504929699
 20
190.7830946265
 10
340.7169068205
 20
190.6274735693
 10
340.5240624489
 20
190.4542458644
 10
340.3758856103
 20
190.2669379285
 10
340.2753927579
 20
190.0693628109
 10
340.2433943989
 20
189.9667196897
  0
LWPOLYLINE
  5
208
330
1F
100
AcDbEntity
  8
0
  6
Continuous
 62
     7
370
    25
100
AcDbPolyline
 90
       28
 70
   128
 43
0.0
 10
325.0626683318
 20
199.0147238093
 10
325.0880244903
 20
199.2660451072
 10
325.1637500671
 20
199.5139677157
 10
325.2888210039
 20
199.7551389069
 10
325.4615459306
 20
199.986297254
 10
325.679589039
 20
200.204316737
 10
325.9400016701
 20
200.4062490163
 10
326.2392621898
 20
200.5893633044
 10
326.5733236129
 20
200.7511832946
 10
326.9376683318
 20
200.8895206491
 10
327.3273692092
 20
201.0025045925
 10
327.7371562091
 20
201.0886072109
 10
328.1614876656
 20
201.1466641139
 10
328.5946252234
 20
201.1758901817
 10
329.0307114402
 20
201.1758901817
 10
329.4638489981
 20
201.1466641139
 10
329.8881804545
 20
201.0886072109
 10
330.2979674545
 20
201.0025045925
 10
330.6876683318
 20
200.8895206491
 10
331.0520130507
 20
200.7511832946
 10
331.3860744738
 20
200.5893633044
 10
331.6853349935
 20
200.4062490163
 10
331.9457476246
 20
200.204316737
 10
332.163790733
 20
199.986297254
 10
332.3365156598
 20
199.7551389069
 10
332.4615865965
 20
199.5139677157
 10
332.5373121733
 20
199.2660451072
 10
332.5626683318
 20
199.0147238093
  0
LWPOLYLINE
  5
209
330
1F
100
AcDbEntity
  8
0
  6
Continuous
 62
     7
370
    25
100
AcDbPolyline
 90
       28
 70
   128
 43
0.0
 10
292.0626683318
 20
199.0147238093
 10
292.0880244903
 20
199.2660451072
 10
292.1637500671
 20
199.5139677157
 10
292.2888210039
 20
199.7551389069
 10
292.4615459306
 20
199.986297254
 10
292.679589039
 20
200.204316737
 10
292.9400016701
 20
200.4062490163
 10
293.2392621898
 20
200.5893633044
 10
293.5733236129
 20
200.7511832946
 10
293.9376683318
 20
200.8895206491
 10
294.3273692092
 20
201.0025045925
 10
294.7371562091
 20
201.0886072109
 10
295.1614876656
 20
201.1466641139
 10
295.5946252234
 20
201.1758901817
 10
296.0307114402
 20
201.1758901817
 10
296.4638489981
 20
201.1466641139
 10
296.8881804545
 20
201.0886072109
 10
297.2979674545
 20
201.0025045925
 10
297.6876683318
 20
200.8895206491
 10
298.0520130507
 20
200.7511832946
 10
298.3860744738
 20
200.5893633044
 10
298.6853349935
 20
200.4062490163
 10
298.9457476246
 20
200.204316737
 10
299.163790733
 20
199.986297254
 10
299.3365156598
 20
199.7551389069
 10
299.4615865965
 20
199.5139677157
 10
299.5373121733
 20
199.2660451072
 10
299.5626683318
 20
199.0147238093
  0
LWPOLYLINE
  5
20A
330
1F
100
AcDbEntity
  8
0
  6
Continuous
 62
     7
370
    25
100
AcDbPolyline
 90
       28
 70
   128
 43
0.0
 10
308.5626683318
 20
208.5399710587
 10
308.5880244903
 20
208.7912923566
 10
308.6637500671
 20
209.0392149651
 10
308.7888210039
 20
209.2803861563
 10
308.9615459306
 20
209.5115445034
 10
309.179589039
 20
209.7295639864
 10
309.4400016701
 20
209.9314962657
 10
309.7392621898
 20
210.1146105538
 10
310.0733236129
 20
210.276430544
 10
310.4376683318
 20
210.4147678985
 10
310.8273692092
 20
210.527751842
 10
311.2371562091
 20
210.6138544603
 10
311.6614876656
 20
210.6719113633
 10
312.0946252234
 20
210.7011374311
 10
312.5307114402
 20
210.7011374311
 10
312.9638489981
 20
210.6719113633
 10
313.3881804545
 20
210.6138544603
 10
313.7979674545
 20
210.527751842
 10
314.1876683318
 20
210.4147678985
 10
314.5520130507
 20
210.276430544
 10
314.8860744738
 20
210.1146105538
 10
315.1853349935
 20
209.9314962657
 10
315.4457476246
 20
209.7295639864
 10
315.663790733
 20
209.5115445034
 10
315.8365156598
 20
209.2803861563
 10
315.9615865965
 20
209.0392149651
 10
316.0373121733
 20
208.7912923566
 10
316.0626683318
 20
208.5399710587
  0
ARC
  5
20B
330
1F
100
AcDbEntity
  8
0
  6
Continuous
 62
     7
370
    25
100
AcDbCircle
 10
391.327512713
 20
172.6083214143
 30
0.0
 40
1.515837497467721
100
AcDbArc
 50
65.8432420499
 51
125.4672163792
  0
ARC
  5
20C
330
1F
100
AcDbEntity
  8
0
  6
Continuous
 62
     7
370
    25
100
AcDbCircle
 10
391.9401241601
 20
171.5476323884
 30
0.0
 40
1.515724239711878
100
AcDbArc
 50
294.5250616912
 51
354.1547973512
  0
ARC
  5
20D
330
1F
100
AcDbEntity
  8
0
  6
Continuous
 62
     7
370
    25
100
AcDbCircle
 10
233.2978239506
 20
172.6083214143
 30
0.0
 40
1.515837497467688
100
AcDbArc
 50
54.5327836208
 51
114.1567579501
  0
ARC
  5
20E
330
1F
100
AcDbEntity
  8
0
  6
Continuous
 62
     7
370
    25
100
AcDbCircle
 10
232.6852125035
 20
171.5476323884
 30
0.0
 40
1.515724239711946
100
AcDbArc
 50
185.8452026488
 51
245.4749383088
  0
ARC
  5
20F
330
1F
100
AcDbEntity
  8
0
  6
Continuous
 62
     7
370
    25
100
AcDbCircle
 10
313.1922133919
 20
217.7148695925
 30
0.0
 40
1.515837497467723
100
AcDbArc
 50
65.8432420499
 51
125.4672163792
  0
ARC
  5
210
330
1F
100
AcDbEntity
  8
0
  6
Continuous
 62
     7
370
    25
100
AcDbCircle
 10
311.4331232717
 20
217.7148695925
 30
0.0
 40
1.515837497467573
100
AcDbArc
 50
54.5327836208
 51
114.1567579501
  0
LINE
  5
211
330
1F
100
AcDbEntity
  8
0
  6
Continuous
 62
     7
370
    25
100
AcDbLine
 10
75.6563515629
 20
170.9289619908
 30
0.0
 11
72.6563515629
 21
170.9289619908
 31
0.0
  0
ARC
  5
212
330
1F
100
AcDbEntity
  8
0
  6
Continuous
 62
     7
370
    25
100
AcDbCircle
 10
75.6563515629
 20
170.9289619908
 30
0.0
 40
3.0
100
AcDbArc
 50
90.0
 51
180.0
  0
LINE
  5
213
330
1F
100
AcDbEntity
  8
0
  6
Continuous
 62
     7
370
    25
100
AcDbLine
 10
75.6563515629
 20
170.9289619908
 30
0.0
 11
75.6563515629
 21
173.9289619908
 31
0.0
  0
LINE
  5
214
330
1F
100
AcDbEntity
  8
0
  6
Continuous
 62
     7
370
    25
100
AcDbLine
 10
75.6563515629
 20
170.9289619908
 30
0.0
 11
75.6563515629
 21
60.4289619908
 31
0.0
  0
LINE
  5
215
330
1F
100
AcDbEntity
  8
0
  6
Continuous
 62
     7
370
    25
100
AcDbLine
 10
75.6563515629
 20
60.4289619908
 30
0.0
 11
72.6563515629
 21
60.4289619908
 31
0.0
  0
LINE
  5
216
330
1F
100
AcDbEntity
  8
0
  6
Continuous
 62
     7
370
    25
100
AcDbLine
 10
72.6563515629
 20
60.4289619908
 30
0.0
 11
72.6563515629
 21
170.9289619908
 31
0.0
  0
LINE
  5
217
330
1F
100
AcDbEntity
  8
0
  6
Continuous
 62
     7
370
    25
100
AcDbLine
 10
75.6563515629
 20
60.4289619908
 30
0.0
 11
75.6563515629
 21
57.4289619908
 31
0.0
  0
ARC
  5
218
330
1F
100
AcDbEntity
  8
0
  6
Continuous
 62
     7
370
    25
100
AcDbCircle
 10
75.6563515629
 20
60.4289619908
 30
0.0
 40
3.0
100
AcDbArc
 50
180.0
 51
270.0
  0
LINE
  5
219
330
1F
100
AcDbEntity
  8
0
  6
Continuous
 62
     7
370
    25
100
AcDbLine
 10
186.1563515629
 20
170.9289619908
 30
0.0
 11
75.6563515629
 21
170.9289619908
 31
0.0
  0
LINE
  5
21A
330
1F
100
AcDbEntity
  8
0
  6
Continuous
 62
     7
370
    25
100
AcDbLine
 10
75.6563515629
 20
173.9289619908
 30
0.0
 11
186.1563515629
 21
173.9289619908
 31
0.0
  0
LINE
  5
21B
330
1F
100
AcDbEntity
  8
0
  6
Continuous
 62
     7
370
    25
100
AcDbLine
 10
186.1563515629
 20
173.9289619908
 30
0.0
 11
186.1563515629
 21
170.9289619908
 31
0.0
  0
LINE
  5
21C
330
1F
100
AcDbEntity
  8
0
  6
Continuous
 62
     7
370
    25
100
AcDbLine
 10
75.6563515629
 20
60.4289619908
 30
0.0
 11
186.1563515629
 21
60.4289619908
 31
0.0
  0
LINE
  5
21D
330
1F
100
AcDbEntity
  8
0
  6
Continuous
 62
     7
370
    25
100
AcDbLine
 10
186.1563515629
 20
57.4289619908
 30
0.0
 11
186.1563515629
 21
60.4289619908
 31
0.0
  0
LINE
  5
21E
330
1F
100
AcDbEntity
  8
0
  6
Continuous
 62
     7
370
    25
100
AcDbLine
 10
186.1563515629
 20
57.4289619908
 30
0.0
 11
75.6563515629
 21
57.4289619908
 31
0.0
  0
LINE
  5
21F
330
1F
100
AcDbEntity
  8
0
  6
Continuous
 62
     7
370
    25
100
AcDbLine
 10
186.1563515629
 20
60.4289619908
 30
0.0
 11
186.1563515629
 21
170.9289619908
 31
0.0
  0
ARC
  5
220
330
1F
100
AcDbEntity
  8
0
  6
Continuous
 62
     7
370
    25
100
AcDbCircle
 10
87.9063515629
 20
115.6789619908
 30
0.0
 40
4.000000000000014
100
AcDbArc
 50
180.0
 51
0.0
  0
ARC
  5
221
330
1F
100
AcDbEntity
  8
0
  6
Continuous
 62
     7
370
    25
100
AcDbCircle
 10
87.9063515629
 20
115.6789619908
 30
0.0
 40
4.000000000000014
100
AcDbArc
 50
0.0
 51
180.0
  0
ARC
  5
222
330
1F
100
AcDbEntity
  8
0
  6
Continuous
 62
     7
370
    25
100
AcDbCircle
 10
173.9063515629
 20
115.6789619908
 30
0.0
 40
4.0
100
AcDbArc
 50
180.0
 51
0.0
  0
ARC
  5
223
330
1F
100
AcDbEntity
  8
0
  6
Continuous
 62
     7
370
    25
100
AcDbCircle
 10
173.9063515629
 20
115.6789619908
 30
0.0
 40
4.0
100
AcDbArc
 50
0.0
 51
180.0
  0
ARC
  5
224
330
1F
100
AcDbEntity
  8
0
  6
Continuous
 62
     7
370
    25
100
AcDbCircle
 10
152.0718277837
 20
71.1789619908
 30
0.0
 40
3.75
100
AcDbArc
 50
0.0
 51
45.0
  0
LINE
  5
225
330
1F
100
AcDbEntity
  8
0
  6
Continuous
 62
     7
370
    25
100
AcDbLine
 10
154.7234782132
 20
73.8306124203
 30
0.0
 11
142.3080019924
 21
86.2460886411
 31
0.0
  0
ARC
  5
226
330
1F
100
AcDbEntity
  8
0
  6
Continuous
 62
     7
370
    25
100
AcDbCircle
 10
139.6563515629
 20
83.5944382117
 30
0.0
 40
3.75000000000001
100
AcDbArc
 50
45.0
 51
225.0
  0
LINE
  5
227
330
1F
100
AcDbEntity
  8
0
  6
Continuous
 62
     7
370
    25
100
AcDbLine
 10
137.0047011335
 20
80.9427877822
 30
0.0
 11
149.4201773543
 21
68.5273115614
 31
0.0
  0
ARC
  5
228
330
1F
100
AcDbEntity
  8
0
  6
Continuous
 62
     7
370
    25
100
AcDbCircle
 10
152.0718277837
 20
71.1789619908
 30
0.0
 40
3.75000000000006
100
AcDbArc
 50
225.0
 51
0.0
  0
ARC
  5
229
330
1F
100
AcDbEntity
  8
0
  6
Continuous
 62
     7
370
    25
100
AcDbCircle
 10
175.4063515629
 20
94.51348577
 30
0.0
 40
3.750000000000071
100
AcDbArc
 50
0.0
 51
45.0
  0
LINE
  5
22A
330
1F
100
AcDbEntity
  8
0
  6
Continuous
 62
     7
370
    25
100
AcDbLine
 10
178.0580019924
 20
97.1651361994
 30
0.0
 11
165.6425257715
 21
109.5806124203
 31
0.0
  0
ARC
  5
22B
330
1F
100
AcDbEntity
  8
0
  6
Continuous
 62
     7
370
    25
100
AcDbCircle
 10
162.9908753421
 20
106.9289619908
 30
0.0
 40
3.75
100
AcDbArc
 50
45.0
 51
225.0
  0
LINE
  5
22C
330
1F
100
AcDbEntity
  8
0
  6
Continuous
 62
     7
370
    25
100
AcDbLine
 10
160.3392249126
 20
104.2773115614
 30
0.0
 11
172.7547011335
 21
91.8618353405
 31
0.0
  0
ARC
  5
22D
330
1F
100
AcDbEntity
  8
0
  6
Continuous
 62
     7
370
    25
100
AcDbCircle
 10
175.4063515629
 20
94.51348577
 30
0.0
 40
3.75
100
AcDbArc
 50
225.0
 51
0.0
  0
ARC
  5
22E
330
1F
100
AcDbEntity
  8
0
  6
Continuous
 62
     7
370
    25
100
AcDbCircle
 10
175.4063515629
 20
71.1789619908
 30
0.0
 40
3.75000000000005
100
AcDbArc
 50
0.0
 51
45.0
  0
LINE
  5
22F
330
1F
100
AcDbEntity
  8
0
  6
Continuous
 62
     7
370
    25
100
AcDbLine
 10
178.0580019924
 20
73.8306124203
 30
0.0
 11
142.3080019924
 21
109.5806124203
 31
0.0
  0
ARC
  5
230
330
1F
100
AcDbEntity
  8
0
  6
Continuous
 62
     7
370
    25
100
AcDbCircle
 10
139.6563515629
 20
106.9289619908
 30
0.0
 40
3.74999999999999
100
AcDbArc
 50
45.0
 51
225.0
  0
LINE
  5
231
330
1F
100
AcDbEntity
  8
0
  6
Continuous
 62
     7
370
    25
100
AcDbLine
 10
137.0047011335
 20
104.2773115614
 30
0.0
 11
172.7547011335
 21
68.5273115614
 31
0.0
  0
ARC
  5
232
330
1F
100
AcDbEntity
  8
0
  6
Continuous
 62
     7
370
    25
100
AcDbCircle
 10
175.4063515629
 20
71.1789619908
 30
0.0
 40
3.75000000000006
100
AcDbArc
 50
225.0
 51
0.0
  0
LINE
  5
233
330
1F
100
AcDbEntity
  8
0
  6
Continuous
 62
     7
370
    25
100
AcDbLine
 10
107.0892249126
 20
157.5273115614
 30
0.0
 11
119.5047011335
 21
145.1118353405
 31
0.0
  0
ARC
  5
234
330
1F
100
AcDbEntity
  8
0
  6
Continuous
 62
     7
370
    25
100
AcDbCircle
 10
122.1563515629
 20
147.76348577
 30
0.0
 40
3.75
100
AcDbArc
 50
225.0
 51
0.0
  0
ARC
  5
235
330
1F
100
AcDbEntity
  8
0
  6
Continuous
 62
     7
370
    25
100
AcDbCircle
 10
122.1563515629
 20
147.76348577
 30
0.0
 40
3.75000000000002
100
AcDbArc
 50
0.0
 51
45.0
  0
LINE
  5
236
330
1F
100
AcDbEntity
  8
0
  6
Continuous
 62
     7
370
    25
100
AcDbLine
 10
124.8080019924
 20
150.4151361994
 30
0.0
 11
112.3925257715
 21
162.8306124203
 31
0.0
  0
ARC
  5
237
330
1F
100
AcDbEntity
  8
0
  6
Continuous
 62
     7
370
    25
100
AcDbCircle
 10
109.7408753421
 20
160.1789619908
 30
0.0
 40
3.750000000000071
100
AcDbArc
 50
45.0
 51
225.0
  0
LINE
  5
238
330
1F
100
AcDbEntity
  8
0
  6
Continuous
 62
     7
370
    25
100
AcDbLine
 10
83.7547011335
 20
134.1927877822
 30
0.0
 11
96.1701773543
 21
121.7773115614
 31
0.0
  0
ARC
  5
239
330
1F
100
AcDbEntity
  8
0
  6
Continuous
 62
     7
370
    25
100
AcDbCircle
 10
98.8218277837
 20
124.4289619908
 30
0.0
 40
3.75
100
AcDbArc
 50
225.0
 51
0.0
  0
ARC
  5
23A
330
1F
100
AcDbEntity
  8
0
  6
Continuous
 62
     7
370
    25
100
AcDbCircle
 10
98.8218277837
 20
124.4289619908
 30
0.0
 40
3.75
100
AcDbArc
 50
0.0
 51
45.0
  0
LINE
  5
23B
330
1F
100
AcDbEntity
  8
0
  6
Continuous
 62
     7
370
    25
100
AcDbLine
 10
101.4734782132
 20
127.0806124203
 30
0.0
 11
89.0580019924
 21
139.4960886411
 31
0.0
  0
ARC
  5
23C
330
1F
100
AcDbEntity
  8
0
  6
Continuous
 62
     7
370
    25
100
AcDbCircle
 10
86.4063515629
 20
136.8444382117
 30
0.0
 40
3.750000000000051
100
AcDbArc
 50
45.0
 51
225.0
  0
LINE
  5
23D
330
1F
100
AcDbEntity
  8
0
  6
Continuous
 62
     7
370
    25
100
AcDbLine
 10
83.7547011335
 20
157.5273115614
 30
0.0
 11
119.5047011335
 21
121.7773115614
 31
0.0
  0
ARC
  5
23E
330
1F
100
AcDbEntity
  8
0
  6
Continuous
 62
     7
370
    25
100
AcDbCircle
 10
122.1563515629
 20
124.4289619908
 30
0.0
 40
3.75
100
AcDbArc
 50
225.0
 51
0.0
  0
ARC
  5
23F
330
1F
100
AcDbEntity
  8
0
  6
Continuous
 62
     7
370
    25
100
AcDbCircle
 10
122.1563515629
 20
124.4289619908
 30
0.0
 40
3.75
100
AcDbArc
 50
0.0
 51
45.0
  0
LINE
  5
240
330
1F
100
AcDbEntity
  8
0
  6
Continuous
 62
     7
370
    25
100
AcDbLine
 10
124.8080019924
 20
127.0806124203
 30
0.0
 11
89.0580019924
 21
162.8306124203
 31
0.0
  0
ARC
  5
241
330
1F
100
AcDbEntity
  8
0
  6
Continuous
 62
     7
370
    25
100
AcDbCircle
 10
86.4063515629
 20
160.1789619908
 30
0.0
 40
3.75000000000006
100
AcDbArc
 50
45.0
 51
225.0
  0
ARC
  5
242
330
1F
100
AcDbEntity
  8
0
  6
Continuous
 62
     7
370
    25
100
AcDbCircle
 10
122.1563515629
 20
106.9289619908
 30
0.0
 40
3.75
100
AcDbArc
 50
315.0
 51
0.0
  0
ARC
  5
243
330
1F
100
AcDbEntity
  8
0
  6
Continuous
 62
     7
370
    25
100
AcDbCircle
 10
122.1563515629
 20
106.9289619908
 30
0.0
 40
3.75
100
AcDbArc
 50
0.0
 51
135.0
  0
LINE
  5
244
330
1F
100
AcDbEntity
  8
0
  6
Continuous
 62
     7
370
    25
100
AcDbLine
 10
83.7547011335
 20
73.8306124203
 30
0.0
 11
119.5047011335
 21
109.5806124203
 31
0.0
  0
ARC
  5
245
330
1F
100
AcDbEntity
  8
0
  6
Continuous
 62
     7
370
    25
100
AcDbCircle
 10
86.4063515629
 20
71.1789619908
 30
0.0
 40
3.75000000000005
100
AcDbArc
 50
135.0
 51
315.0
  0
LINE
  5
246
330
1F
100
AcDbEntity
  8
0
  6
Continuous
 62
     7
370
    25
100
AcDbLine
 10
124.8080019924
 20
104.2773115614
 30
0.0
 11
89.0580019924
 21
68.5273115614
 31
0.0
  0
ARC
  5
247
330
1F
100
AcDbEntity
  8
0
  6
Continuous
 62
     7
370
    25
100
AcDbCircle
 10
98.8218277837
 20
106.9289619908
 30
0.0
 40
3.75
100
AcDbArc
 50
315.0
 51
0.0
  0
ARC
  5
248
330
1F
100
AcDbEntity
  8
0
  6
Continuous
 62
     7
370
    25
100
AcDbCircle
 10
98.8218277837
 20
106.9289619908
 30
0.0
 40
3.75
100
AcDbArc
 50
0.0
 51
135.0
  0
LINE
  5
249
330
1F
100
AcDbEntity
  8
0
  6
Continuous
 62
     7
370
    25
100
AcDbLine
 10
83.7547011335
 20
97.1651361994
 30
0.0
 11
96.1701773543
 21
109.5806124203
 31
0.0
  0
ARC
  5
24A
330
1F
100
AcDbEntity
  8
0
  6
Continuous
 62
     7
370
    25
100
AcDbCircle
 10
86.4063515629
 20
94.51348577
 30
0.0
 40
3.750000000000051
100
AcDbArc
 50
135.0
 51
315.0
  0
LINE
  5
24B
330
1F
100
AcDbEntity
  8
0
  6
Continuous
 62
     7
370
    25
100
AcDbLine
 10
101.4734782132
 20
104.2773115614
 30
0.0
 11
89.0580019924
 21
91.8618353405
 31
0.0
  0
ARC
  5
24C
330
1F
100
AcDbEntity
  8
0
  6
Continuous
 62
     7
370
    25
100
AcDbCircle
 10
122.1563515629
 20
83.5944382117
 30
0.0
 40
3.75
100
AcDbArc
 50
315.0
 51
0.0
  0
ARC
  5
24D
330
1F
100
AcDbEntity
  8
0
  6
Continuous
 62
     7
370
    25
100
AcDbCircle
 10
122.1563515629
 20
83.5944382117
 30
0.0
 40
3.75
100
AcDbArc
 50
0.0
 51
135.0
  0
LINE
  5
24E
330
1F
100
AcDbEntity
  8
0
  6
Continuous
 62
     7
370
    25
100
AcDbLine
 10
107.0892249126
 20
73.8306124203
 30
0.0
 11
119.5047011335
 21
86.2460886411
 31
0.0
  0
ARC
  5
24F
330
1F
100
AcDbEntity
  8
0
  6
Continuous
 62
     7
370
    25
100
AcDbCircle
 10
109.7408753421
 20
71.1789619908
 30
0.0
 40
3.75000000000006
100
AcDbArc
 50
135.0
 51
315.0
  0
LINE
  5
250
330
1F
100
AcDbEntity
  8
0
  6
Continuous
 62
     7
370
    25
100
AcDbLine
 10
124.8080019924
 20
80.9427877822
 30
0.0
 11
112.3925257715
 21
68.5273115614
 31
0.0
  0
ARC
  5
251
330
1F
100
AcDbEntity
  8
0
  6
Continuous
 62
     7
370
    25
100
AcDbCircle
 10
139.6563515629
 20
124.4289619908
 30
0.0
 40
3.74999999999998
100
AcDbArc
 50
135.0
 51
315.0
  0
LINE
  5
252
330
1F
100
AcDbEntity
  8
0
  6
Continuous
 62
     7
370
    25
100
AcDbLine
 10
178.0580019924
 20
157.5273115614
 30
0.0
 11
142.3080019924
 21
121.7773115614
 31
0.0
  0
ARC
  5
253
330
1F
100
AcDbEntity
  8
0
  6
Continuous
 62
     7
370
    25
100
AcDbCircle
 10
175.4063515629
 20
160.1789619908
 30
0.0
 40
3.75
100
AcDbArc
 50
315.0
 51
0.0
  0
ARC
  5
254
330
1F
100
AcDbEntity
  8
0
  6
Continuous
 62
     7
370
    25
100
AcDbCircle
 10
175.4063515629
 20
160.1789619908
 30
0.0
 40
3.750000000000071
100
AcDbArc
 50
0.0
 51
135.0
  0
LINE
  5
255
330
1F
100
AcDbEntity
  8
0
  6
Continuous
 62
     7
370
    25
100
AcDbLine
 10
137.0047011335
 20
127.0806124203
 30
0.0
 11
172.7547011335
 21
162.8306124203
 31
0.0
  0
ARC
  5
256
330
1F
100
AcDbEntity
  8
0
  6
Continuous
 62
     7
370
    25
100
AcDbCircle
 10
162.9908753421
 20
124.4289619908
 30
0.0
 40
3.75
100
AcDbArc
 50
135.0
 51
315.0
  0
LINE
  5
257
330
1F
100
AcDbEntity
  8
0
  6
Continuous
 62
     7
370
    25
100
AcDbLine
 10
178.0580019924
 20
134.1927877822
 30
0.0
 11
165.6425257715
 21
121.7773115614
 31
0.0
  0
ARC
  5
258
330
1F
100
AcDbEntity
  8
0
  6
Continuous
 62
     7
370
    25
100
AcDbCircle
 10
175.4063515629
 20
136.8444382117
 30
0.0
 40
3.750000000000071
100
AcDbArc
 50
315.0
 51
0.0
  0
ARC
  5
259
330
1F
100
AcDbEntity
  8
0
  6
Continuous
 62
     7
370
    25
100
AcDbCircle
 10
175.4063515629
 20
136.8444382117
 30
0.0
 40
3.75
100
AcDbArc
 50
0.0
 51
135.0
  0
LINE
  5
25A
330
1F
100
AcDbEntity
  8
0
  6
Continuous
 62
     7
370
    25
100
AcDbLine
 10
160.3392249126
 20
127.0806124203
 30
0.0
 11
172.7547011335
 21
139.4960886411
 31
0.0
  0
ARC
  5
25B
330
1F
100
AcDbEntity
  8
0
  6
Continuous
 62
     7
370
    25
100
AcDbCircle
 10
139.6563515629
 20
147.76348577
 30
0.0
 40
3.75000000000003
100
AcDbArc
 50
135.0
 51
315.0
  0
LINE
  5
25C
330
1F
100
AcDbEntity
  8
0
  6
Continuous
 62
     7
370
    25
100
AcDbLine
 10
154.7234782132
 20
157.5273115614
 30
0.0
 11
142.3080019924
 21
145.1118353405
 31
0.0
  0
ARC
  5
25D
330
1F
100
AcDbEntity
  8
0
  6
Continuous
 62
     7
370
    25
100
AcDbCircle
 10
152.0718277837
 20
160.1789619908
 30
0.0
 40
3.75
100
AcDbArc
 50
315.0
 51
0.0
  0
ARC
  5
25E
330
1F
100
AcDbEntity
  8
0
  6
Continuous
 62
     7
370
    25
100
AcDbCircle
 10
152.0718277837
 20
160.1789619908
 30
0.0
 40
3.750000000000071
100
AcDbArc
 50
0.0
 51
135.0
  0
LINE
  5
25F
330
1F
100
AcDbEntity
  8
0
  6
Continuous
 62
     7
370
    25
100
AcDbLine
 10
137.0047011335
 20
150.4151361994
 30
0.0
 11
149.4201773543
 21
162.8306124203
 31
0.0
  0
LINE
  5
260
330
1F
100
AcDbEntity
  8
0
  6
Continuous
 62
     7
370
    25
100
AcDbLine
 10
90.4063515629
 20
115.6789619908
 30
0.0
 11
91.9063515629
 21
115.6789619908
 31
0.0
  0
LINE
  5
261
330
1F
100
AcDbEntity
  8
0
  6
Continuous
 62
     7
370
    25
100
AcDbLine
 10
85.4063515629
 20
115.6789619908
 30
0.0
 11
83.9063515629
 21
115.6789619908
 31
0.0
  0
ARC
  5
262
330
1F
100
AcDbEntity
  8
0
  6
Continuous
 62
     7
370
    25
100
AcDbCircle
 10
87.9063515629
 20
115.6789619908
 30
0.0
 40
2.500000000000014
100
AcDbArc
 50
180.0
 51
0.0
  0
ARC
  5
263
330
1F
100
AcDbEntity
  8
0
  6
Continuous
 62
     7
370
    25
100
AcDbCircle
 10
87.9063515629
 20
115.6789619908
 30
0.0
 40
2.500000000000014
100
AcDbArc
 50
0.0
 51
180.0
  0
LINE
  5
264
330
1F
100
AcDbEntity
  8
0
  6
Continuous
 62
     7
370
    25
100
AcDbLine
 10
176.4063515629
 20
115.6789619908
 30
0.0
 11
177.9063515629
 21
115.6789619908
 31
0.0
  0
ARC
  5
265
330
1F
100
AcDbEntity
  8
0
  6
Continuous
 62
     7
370
    25
100
AcDbCircle
 10
173.9063515629
 20
115.6789619908
 30
0.0
 40
2.5
100
AcDbArc
 50
0.0
 51
180.0
  0
LINE
  5
266
330
1F
100
AcDbEntity
  8
0
  6
Continuous
 62
     7
370
    25
100
AcDbLine
 10
171.4063515629
 20
115.6789619908
 30
0.0
 11
169.9063515629
 21
115.6789619908
 31
0.0
  0
ARC
  5
267
330
1F
100
AcDbEntity
  8
0
  6
Continuous
 62
     7
370
    25
100
AcDbCircle
 10
173.9063515629
 20
115.6789619908
 30
0.0
 40
2.5
100
AcDbArc
 50
180.0
 51
0.0
  0
LINE
  5
268
330
1F
100
AcDbEntity
  8
0
  6
Continuous
 62
     7
370
    25
100
AcDbLine
 10
189.1563515629
 20
170.9289619908
 30
0.0
 11
189.1563515629
 21
60.4289619908
 31
0.0
  0
LINE
  5
269
330
1F
100
AcDbEntity
  8
0
  6
Continuous
 62
     7
370
    25
100
AcDbLine
 10
189.1563515629
 20
60.4289619908
 30
0.0
 11
186.1563515629
 21
60.4289619908
 31
0.0
  0
LINE
  5
26A
330
1F
100
AcDbEntity
  8
0
  6
Continuous
 62
     7
370
    25
100
AcDbLine
 10
189.1563515629
 20
170.9289619908
 30
0.0
 11
186.1563515629
 21
170.9289619908
 31
0.0
  0
ARC
  5
26B
330
1F
100
AcDbEntity
  8
0
  6
Continuous
 62
     7
370
    25
100
AcDbCircle
 10
186.1563515629
 20
170.9289619908
 30
0.0
 40
3.000000000000028
100
AcDbArc
 50
0.0
 51
90.0
  0
ARC
  5
26C
330
1F
100
AcDbEntity
  8
0
  6
Continuous
 62
     7
370
    25
100
AcDbCircle
 10
186.1563515629
 20
60.4289619908
 30
0.0
 40
3.000000000000028
100
AcDbArc
 50
270.0
 51
0.0
  0
LINE
  5
26D
330
1F
100
AcDbEntity
  8
0
  6
CENTER
 62
     7
370
    25
100
AcDbLine
 10
194.4238777647
 20
115.6789619908
 30
0.0
 11
67.9622699314
 21
115.6789619908
 31
0.0
  0
LINE
  5
26E
330
1F
100
AcDbEntity
  8
0
  6
Continuous
 62
     7
370
    25
100
AcDbLine
 10
192.4238777647
 20
105.6789619908
 30
0.0
 11
192.4238777647
 21
115.6789619908
 31
0.0
  0
SOLID
  5
26F
330
1F
100
AcDbEntity
  8
0
  6
Continuous
 62
     7
370
    25
100
AcDbTrace
 10
192.4238777647
 20
115.6789619908
 30
0.0
 11
191.4238777647
 21
111.6789619908
 31
0.0
 12
193.4238777647
 22
111.6789619908
 32
0.0
 13
193.4238777647
 23
111.6789619908
 33
0.0
  0
LINE
  5
270
330
1F
100
AcDbEntity
  8
0
  6
Continuous
 62
     7
370
    25
100
AcDbLine
 10
69.9622699314
 20
105.6789619908
 30
0.0
 11
69.9622699314
 21
115.6789619908
 31
0.0
  0
SOLID
  5
271
330
1F
100
AcDbEntity
  8
0
  6
Continuous
 62
     7
370
    25
100
AcDbTrace
 10
69.9622699314
 20
115.6789619908
 30
0.0
 11
68.9622699314
 21
111.6789619908
 31
0.0
 12
70.9622699314
 22
111.6789619908
 32
0.0
 13
70.9622699314
 23
111.6789619908
 33
0.0
  0
MTEXT
  5
272
330
1F
100
AcDbEntity
  8
0
  6
Continuous
 62
     7
100
AcDbMText
 10
193.7413254126
 20
111.1943431391
 30
0.0
 40
3.5956461589
 41
0.0
 71
     1
 72
     1
  1
A
  7
SLDTEXTSTYLE0
 73
     1
 44
1.0
  0
MTEXT
  5
273
330
1F
100
AcDbEntity
  8
0
  6
Continuous
 62
     7
100
AcDbMText
 10
65.3512031639
 20
111.1943431391
 30
0.0
 40
3.5956461589
 41
0.0
 71
     1
 72
     1
  1
A
  7
SLDTEXTSTYLE0
 73
     1
 44
1.0
  0
ARC
  5
274
330
1F
100
AcDbEntity
  8
0
  6
Continuous
 62
     7
370
    25
100
AcDbCircle
 10
75.6563515629
 20
217.3033715107
 30
0.0
 40
3.0
100
AcDbArc
 50
90.0
 51
180.0
  0
LINE
  5
275
330
1F
100
AcDbEntity
  8
0
  6
Continuous
 62
     7
370
    25
100
AcDbLine
 10
75.6563515629
 20
220.3033715107
 30
0.0
 11
83.9063515629
 21
220.3033715107
 31
0.0
  0
LINE
  5
276
330
1F
100
AcDbEntity
  8
0
  6
Continuous
 62
     7
370
    25
100
AcDbLine
 10
85.4063515629
 20
218.8033715107
 30
0.0
 11
83.9063515629
 21
220.3033715107
 31
0.0
  0
LINE
  5
277
330
1F
100
AcDbEntity
  8
0
  6
Continuous
 62
     7
370
    25
100
AcDbLine
 10
85.4063515629
 20
218.3033715107
 30
0.0
 11
85.4063515629
 21
218.8033715107
 31
0.0
  0
LINE
  5
278
330
1F
100
AcDbEntity
  8
0
  6
Continuous
 62
     7
370
    25
100
AcDbLine
 10
75.6563515629
 20
218.3033715107
 30
0.0
 11
85.4063515629
 21
218.3033715107
 31
0.0
  0
ARC
  5
279
330
1F
100
AcDbEntity
  8
0
  6
Continuous
 62
     7
370
    25
100
AcDbCircle
 10
75.6563515629
 20
217.3033715107
 30
0.0
 40
1.0
100
AcDbArc
 50
90.0
 51
180.0
  0
LINE
  5
27A
330
1F
100
AcDbEntity
  8
0
  6
Continuous
 62
     7
370
    25
100
AcDbLine
 10
74.6563515629
 20
212.8033715107
 30
0.0
 11
74.6563515629
 21
217.3033715107
 31
0.0
  0
LINE
  5
27B
330
1F
100
AcDbEntity
  8
0
  6
Continuous
 62
     7
370
    25
100
AcDbLine
 10
72.6563515629
 20
212.8033715107
 30
0.0
 11
74.6563515629
 21
212.8033715107
 31
0.0
  0
LINE
  5
27C
330
1F
100
AcDbEntity
  8
0
  6
Continuous
 62
     7
370
    25
100
AcDbLine
 10
72.6563515629
 20
212.8033715107
 30
0.0
 11
72.6563515629
 21
217.3033715107
 31
0.0
  0
LINE
  5
27D
330
1F
100
AcDbEntity
  8
0
  6
Continuous
 62
     7
370
    25
100
AcDbLine
 10
176.4063515629
 20
218.3033715107
 30
0.0
 11
186.1563515629
 21
218.3033715107
 31
0.0
  0
LINE
  5
27E
330
1F
100
AcDbEntity
  8
0
  6
Continuous
 62
     7
370
    25
100
AcDbLine
 10
176.4063515629
 20
218.8033715107
 30
0.0
 11
176.4063515629
 21
218.3033715107
 31
0.0
  0
LINE
  5
27F
330
1F
100
AcDbEntity
  8
0
  6
Continuous
 62
     7
370
    25
100
AcDbLine
 10
176.4063515629
 20
218.8033715107
 30
0.0
 11
177.9063515629
 21
220.3033715107
 31
0.0
  0
LINE
  5
280
330
1F
100
AcDbEntity
  8
0
  6
Continuous
 62
     7
370
    25
100
AcDbLine
 10
177.9063515629
 20
220.3033715107
 30
0.0
 11
186.1563515629
 21
220.3033715107
 31
0.0
  0
ARC
  5
281
330
1F
100
AcDbEntity
  8
0
  6
Continuous
 62
     7
370
    25
100
AcDbCircle
 10
186.1563515629
 20
217.3033715107
 30
0.0
 40
3.000000000000028
100
AcDbArc
 50
0.0
 51
90.0
  0
ARC
  5
282
330
1F
100
AcDbEntity
  8
0
  6
Continuous
 62
     7
370
    25
100
AcDbCircle
 10
186.1563515629
 20
217.3033715107
 30
0.0
 40
1.0
100
AcDbArc
 50
0.0
 51
90.0
  0
LINE
  5
283
330
1F
100
AcDbEntity
  8
0
  6
Continuous
 62
     7
370
    25
100
AcDbLine
 10
187.1563515629
 20
212.8033715107
 30
0.0
 11
189.1563515629
 21
212.8033715107
 31
0.0
  0
LINE
  5
284
330
1F
100
AcDbEntity
  8
0
  6
Continuous
 62
     7
370
    25
100
AcDbLine
 10
187.1563515629
 20
217.3033715107
 30
0.0
 11
187.1563515629
 21
212.8033715107
 31
0.0
  0
LINE
  5
285
330
1F
100
AcDbEntity
  8
0
  6
Continuous
 62
     7
370
    25
100
AcDbLine
 10
189.1563515629
 20
217.3033715107
 30
0.0
 11
189.1563515629
 21
212.8033715107
 31
0.0
  0
LINE
  5
286
330
1F
100
AcDbEntity
  8
0
  6
Continuous
 62
     7
370
    25
100
AcDbLine
 10
90.4063515629
 20
218.3033715107
 30
0.0
 11
171.4063515629
 21
218.3033715107
 31
0.0
  0
LINE
  5
287
330
1F
100
AcDbEntity
  8
0
  6
Continuous
 62
     7
370
    25
100
AcDbLine
 10
90.4063515629
 20
218.8033715107
 30
0.0
 11
90.4063515629
 21
218.3033715107
 31
0.0
  0
LINE
  5
288
330
1F
100
AcDbEntity
  8
0
  6
Continuous
 62
     7
370
    25
100
AcDbLine
 10
90.4063515629
 20
218.8033715107
 30
0.0
 11
91.9063515629
 21
220.3033715107
 31
0.0
  0
LINE
  5
289
330
1F
100
AcDbEntity
  8
0
  6
Continuous
 62
     7
370
    25
100
AcDbLine
 10
91.9063515629
 20
220.3033715107
 30
0.0
 11
169.9063515629
 21
220.3033715107
 31
0.0
  0
LINE
  5
28A
330
1F
100
AcDbEntity
  8
0
  6
Continuous
 62
     7
370
    25
100
AcDbLine
 10
171.4063515629
 20
218.8033715107
 30
0.0
 11
169.9063515629
 21
220.3033715107
 31
0.0
  0
LINE
  5
28B
330
1F
100
AcDbEntity
  8
0
  6
Continuous
 62
     7
370
    25
100
AcDbLine
 10
171.4063515629
 20
218.3033715107
 30
0.0
 11
171.4063515629
 21
218.8033715107
 31
0.0
  0
LINE
  5
28C
330
1F
100
AcDbEntity
  8
0
  6
Continuous
 62
     7
370
    25
100
AcDbLine
 10
90.4063515629
 20
218.8033715107
 30
0.0
 11
85.4063515629
 21
218.8033715107
 31
0.0
  0
LINE
  5
28D
330
1F
100
AcDbEntity
  8
0
  6
Continuous
 62
     7
370
    25
100
AcDbLine
 10
90.4063515629
 20
218.3033715107
 30
0.0
 11
85.4063515629
 21
218.3033715107
 31
0.0
  0
LINE
  5
28E
330
1F
100
AcDbEntity
  8
0
  6
Continuous
 62
     7
370
    25
100
AcDbLine
 10
176.4063515629
 20
218.8033715107
 30
0.0
 11
171.4063515629
 21
218.8033715107
 31
0.0
  0
LINE
  5
28F
330
1F
100
AcDbEntity
  8
0
  6
Continuous
 62
     7
370
    25
100
AcDbLine
 10
176.4063515629
 20
218.3033715107
 30
0.0
 11
171.4063515629
 21
218.3033715107
 31
0.0
  0
LINE
  5
290
330
1F
100
AcDbEntity
  8
0
  6
Continuous
 62
     7
370
    25
100
AcDbLine
 10
91.9063515629
 20
220.3033715107
 30
0.0
 11
83.9063515629
 21
220.3033715107
 31
0.0
  0
LINE
  5
291
330
1F
100
AcDbEntity
  8
0
  6
Continuous
 62
     7
370
    25
100
AcDbLine
 10
177.9063515629
 20
220.3033715107
 30
0.0
 11
169.9063515629
 21
220.3033715107
 31
0.0
  0
LINE
  5
292
330
1F
100
AcDbEntity
  8
0
  6
Continuous
 62
     7
370
    25
100
AcDbLine
 10
186.1563515629
 20
212.8033715107
 30
0.0
 11
186.1563515629
 21
217.3033715107
 31
0.0
  0
LINE
  5
293
330
1F
100
AcDbEntity
  8
0
  6
Continuous
 62
     7
370
    25
100
AcDbLine
 10
187.1563515629
 20
217.3033715107
 30
0.0
 11
186.1563515629
 21
217.3033715107
 31
0.0
  0
LINE
  5
294
330
1F
100
AcDbEntity
  8
0
  6
Continuous
 62
     7
370
    25
100
AcDbLine
 10
187.1563515629
 20
212.8033715107
 30
0.0
 11
186.1563515629
 21
212.8033715107
 31
0.0
  0
LINE
  5
295
330
1F
100
AcDbEntity
  8
0
  6
Continuous
 62
     7
370
    25
100
AcDbLine
 10
74.6563515629
 20
217.3033715107
 30
0.0
 11
75.6563515629
 21
217.3033715107
 31
0.0
  0
LINE
  5
296
330
1F
100
AcDbEntity
  8
0
  6
Continuous
 62
     7
370
    25
100
AcDbLine
 10
75.6563515629
 20
217.3033715107
 30
0.0
 11
75.6563515629
 21
212.8033715107
 31
0.0
  0
LINE
  5
297
330
1F
100
AcDbEntity
  8
0
  6
Continuous
 62
     7
370
    25
100
AcDbLine
 10
75.6563515629
 20
212.8033715107
 30
0.0
 11
74.6563515629
 21
212.8033715107
 31
0.0
  0
LINE
  5
298
330
1F
100
AcDbEntity
  8
0
  6
Continuous
 62
     7
370
    25
100
AcDbLine
 10
186.1563515629
 20
218.3033715107
 30
0.0
 11
186.1563515629
 21
217.3033715107
 31
0.0
  0
LINE
  5
299
330
1F
100
AcDbEntity
  8
0
  6
Continuous
 62
     7
370
    25
100
AcDbLine
 10
186.1563515629
 20
217.3033715107
 30
0.0
 11
75.6563515629
 21
217.3033715107
 31
0.0
  0
LINE
  5
29A
330
1F
100
AcDbEntity
  8
0
  6
Continuous
 62
     7
370
    25
100
AcDbLine
 10
75.6563515629
 20
218.3033715107
 30
0.0
 11
75.6563515629
 21
217.3033715107
 31
0.0
  0
LINE
  5
29B
330
1F
100
AcDbEntity
  8
0
  6
Continuous
 62
     7
370
    25
100
AcDbLine
 10
186.1563515629
 20
212.8033715107
 30
0.0
 11
75.6563515629
 21
212.8033715107
 31
0.0
  0
HATCH
  5
29C
330
1F
100
AcDbEntity
  8
0
  6
Continuous
 62
     7
370
    18
100
AcDbHatch
 10
0.0
 20
0.0
 30
0.0
210
0.0
220
0.0
230
1.0
  2
DIN 201 Stahl und Stahlguss
 70
     0
 71
     0
 91
        1
 92
        0
 93
        9
 72
     1
 10
72.65635156290315
 20
212.8033715106999
 11
74.65635156290315
 21
212.8033715106999
 72
     1
 10
74.65635156290315
 20
212.8033715106999
 11
74.65635156290315
 21
217.3033715106999
 72
     2
 10
75.65635156290315
 20
217.3033715106999
 40
1.0
 50
180.0
 51
270.0000000000008
 73
     0
 72
     1
 10
75.65635156290315
 20
218.3033715106999
 11
85.40635156290314
 21
218.3033715106999
 72
     1
 10
85.40635156290314
 20
218.3033715106999
 11
85.40635156290314
 21
218.8033715106999
 72
     1
 10
85.40635156290314
 20
218.8033715106999
 11
83.90635156290314
 21
220.3033715106999
 72
     1
 10
83.90635156290314
 20
220.3033715106999
 11
75.65635156290315
 21
220.3033715106999
 72
     2
 10
75.65635156290315
 20
217.3033715106999
 40
3.0
 50
90.0
 51
180.0
 73
     1
 72
     1
 10
72.65635156290315
 20
217.3033715106999
 11
72.65635156290315
 21
212.8033715106999
 97
        0
 75
     0
 76
     2
 52
0.0
 41
1.0
 77
     0
 78
     4
 53
45.00000209717174
 43
0.0
 44
0.0
 45
-13.47038467465416
 46
13.47038368855329
 79
     0
 53
45.00000209717174
 43
4.490128
 44
0.0
 45
-13.47038467465416
 46
13.47038368855329
 79
     0
 53
45.00000209717174
 43
8.980256
 44
0.0
 45
-13.47038467465416
 46
13.47038368855329
 79
     0
 53
45.00000209717174
 43
13.47038
 44
0.0
 45
-13.47038467465416
 46
13.47038368855329
 79
     0
 98
        1
 10
0.0
 20
0.0
  0
HATCH
  5
29D
330
1F
100
AcDbEntity
  8
0
  6
Continuous
 62
     7
370
    18
100
AcDbHatch
 10
0.0
 20
0.0
 30
0.0
210
0.0
220
0.0
230
1.0
  2
DIN 201 Stahl und Stahlguss
 70
     0
 71
     0
 91
        1
 92
        0
 93
        6
 72
     1
 10
171.4063515629031
 20
218.3033715106999
 11
171.4063515629031
 21
218.8033715106999
 72
     1
 10
171.4063515629031
 20
218.8033715106999
 11
169.9063515629031
 21
220.3033715106999
 72
     1
 10
169.9063515629031
 20
220.3033715106999
 11
91.90635156290314
 21
220.3033715106999
 72
     1
 10
91.90635156290314
 20
220.3033715106999
 11
90.40635156290315
 21
218.8033715106999
 72
     1
 10
90.40635156290315
 20
218.8033715106999
 11
90.40635156290315
 21
218.3033715106999
 72
     1
 10
90.40635156290315
 20
218.3033715106999
 11
171.4063515629031
 21
218.3033715106999
 97
        0
 75
     0
 76
     2
 52
0.0
 41
1.0
 77
     0
 78
     4
 53
45.00000209717174
 43
0.0
 44
0.0
 45
-13.47038467465416
 46
13.47038368855329
 79
     0
 53
45.00000209717174
 43
4.490128
 44
0.0
 45
-13.47038467465416
 46
13.47038368855329
 79
     0
 53
45.00000209717174
 43
8.980256
 44
0.0
 45
-13.47038467465416
 46
13.47038368855329
 79
     0
 53
45.00000209717174
 43
13.47038
 44
0.0
 45
-13.47038467465416
 46
13.47038368855329
 79
     0
 98
        1
 10
0.0
 20
0.0
  0
HATCH
  5
29E
330
1F
100
AcDbEntity
  8
0
  6
Continuous
 62
     7
370
    18
100
AcDbHatch
 10
0.0
 20
0.0
 30
0.0
210
0.0
220
0.0
230
1.0
  2
DIN 201 Stahl und Stahlguss
 70
     0
 71
     0
 91
        1
 92
        0
 93
        9
 72
     2
 10
186.1563515629031
 20
217.3033715106999
 40
1.0
 50
270.0000000000008
 51
360.0000000000008
 73
     0
 72
     1
 10
187.1563515629031
 20
217.3033715106999
 11
187.1563515629031
 21
212.8033715106999
 72
     1
 10
187.1563515629031
 20
212.8033715106999
 11
189.1563515629032
 21
212.8033715106999
 72
     1
 10
189.1563515629032
 20
212.8033715106999
 11
189.1563515629032
 21
217.3033715106999
 72
     2
 10
186.1563515629031
 20
217.3033715106999
 40
3.0
 50
0.0
 51
90.0
 73
     1
 72
     1
 10
186.1563515629031
 20
220.3033715106999
 11
177.9063515629031
 21
220.3033715106999
 72
     1
 10
177.9063515629031
 20
220.3033715106999
 11
176.4063515629031
 21
218.8033715106999
 72
     1
 10
176.4063515629031
 20
218.8033715106999
 11
176.4063515629031
 21
218.3033715106999
 72
     1
 10
176.4063515629031
 20
218.3033715106999
 11
186.1563515629031
 21
218.3033715106999
 97
        0
 75
     0
 76
     2
 52
0.0
 41
1.0
 77
     0
 78
     4
 53
45.00000209717174
 43
0.0
 44
0.0
 45
-13.47038467465416
 46
13.47038368855329
 79
     0
 53
45.00000209717174
 43
4.490128
 44
0.0
 45
-13.47038467465416
 46
13.47038368855329
 79
     0
 53
45.00000209717174
 43
8.980256
 44
0.0
 45
-13.47038467465416
 46
13.47038368855329
 79
     0
 53
45.00000209717174
 43
13.47038
 44
0.0
 45
-13.47038467465416
 46
13.47038368855329
 79
     0
 98
        1
 10
0.0
 20
0.0
  0
DIMENSION
  5
29F
330
1F
100
AcDbEntity
  8
0
  6
Continuous
 62
     7
370
    18
100
AcDbDimension
  2
_D
 10
189.1563515629
 20
227.3033715107
 30
0.0
 11
130.9063515629
 21
227.3033715107
 31
0.0
 70
   160
  1
{\fGDT;o}<>
 71
     2
 42
-1.0
  3
SLDDIMSTYLE0
100
AcDbAlignedDimension
 13
72.6563515629
 23
217.3033715107
 33
0.0
 14
189.1563515629
 24
217.3033715107
 34
0.0
100
AcDbRotatedDimension
  0
DIMENSION
  5
2B2
330
1F
100
AcDbEntity
  8
0
  6
Continuous
 62
     7
370
    18
100
AcDbDimension
  2
_D_1
 10
196.1563515629
 20
220.3033715107
 30
0.0
 11
196.1563515629
 21
216.5533715107
 31
0.0
 70
   160
  1
<>
 71
     2
 42
-1.0
  3
SLDDIMSTYLE1
100
AcDbAlignedDimension
 13
189.1563515629
 23
212.8033715107
 33
0.0
 14
186.1563515629
 24
220.3033715107
 34
0.0
 50
90.0
100
AcDbRotatedDimension
  0
MTEXT
  5
2BF
330
1F
100
AcDbEntity
  8
0
  6
Continuous
 62
     7
370
     0
100
AcDbMText
 10
131.0156758985
 20
239.6792340011
 30
0.0
 40
3.7041666667
 41
0.0
 71
     2
 72
     1
  1
A-A
  7
SLDTEXTSTYLE0
 73
     1
 44
1.0
  0
ENDSEC
  0
SECTION
  2
OBJECTS
  0
DICTIONARY
  5
C
330
0
100
AcDbDictionary
281
     1
  3
ACAD_GROUP
350
D
  3
ACAD_LAYOUT
350
1A
  3
ACAD_MLINESTYLE
350
17
  3
ACAD_PLOTSETTINGS
350
19
  3
ACAD_PLOTSTYLENAME
350
E
  3
ACAD_SCALELIST
350
47
  3
DWGPROPS
350
2C0
  0
DICTIONARY
  5
D
102
{ACAD_REACTORS
330
C
102
}
330
C
100
AcDbDictionary
281
     1
  0
DICTIONARY
  5
1A
102
{ACAD_REACTORS
330
C
102
}
330
C
100
AcDbDictionary
281
     1
  3
Layout1
350
1E
  3
Layout2
350
26
  3
Model
350
22
  0
DICTIONARY
  5
17
102
{ACAD_REACTORS
330
C
102
}
330
C
100
AcDbDictionary
281
     1
  3
Standard
350
18
  0
DICTIONARY
  5
19
102
{ACAD_REACTORS
330
C
102
}
330
C
100
AcDbDictionary
281
     1
  0
ACDBDICTIONARYWDFLT
  5
E
102
{ACAD_REACTORS
330
C
102
}
330
C
100
AcDbDictionary
281
     1
  3
Normal
350
F
100
AcDbDictionaryWithDefault
340
F
  0
DICTIONARY
  5
47
102
{ACAD_REACTORS
330
C
102
}
330
C
100
AcDbDictionary
281
     1
  3
A0
350
48
  3
A1
350
49
  3
A2
350
4A
  3
A3
350
4B
  3
A4
350
4C
  3
A5
350
4D
  3
A6
350
4E
  3
A7
350
4F
  3
A8
350
50
  3
A9
350
51
  3
B0
350
52
  3
B1
350
53
  3
B2
350
54
  3
B3
350
55
  3
B4
350
56
  3
B5
350
57
  3
B6
350
58
  0
XRECORD
  5
2C0
102
{ACAD_REACTORS
330
C
102
}
330
C
100
AcDbXrecord
280
     1
  1
DWGPROPS COOKIE
  2

  3

  4

  6

  7

  8
CH-NTL-RS-WSCAD
  9

300
=
301
=
302
=
303
=
304
=
305
=
306
=
307
=
308
=
309
=
 40
0.0
 41
2460955.502320799
 42
2460955.502324526
  1

 90
        0
  0
LAYOUT
  5
1E
102
{ACAD_REACTORS
330
1A
102
}
330
1A
100
AcDbPlotSettings
  1

  2
none_device
  4

  6

 40
0.0
 41
0.0
 42
0.0
 43
0.0
 44
0.0
 45
0.0
 46
0.0
 47
0.0
 48
0.0
 49
0.0
140
0.0
141
0.0
142
1.0
143
1.0
 70
   688
 72
     1
 73
     0
 74
     5
  7

 75
    16
147
1.0
148
0.0
149
0.0
100
AcDbLayout
  1
Layout1
 70
     1
 71
     1
 10
0.0
 20
0.0
 11
420.0
 21
297.0
 12
0.0
 22
0.0
 32
0.0
 14
1.0000000000E+20
 24
1.0000000000E+20
 34
1.0000000000E+20
 15
-1.0000000000E+20
 25
-1.0000000000E+20
 35
-1.0000000000E+20
146
0.0
 13
0.0
 23
0.0
 33
0.0
 16
1.0
 26
0.0
 36
0.0
 17
0.0
 27
1.0
 37
0.0
 76
     0
330
1B
  0
LAYOUT
  5
26
102
{ACAD_REACTORS
330
1A
102
}
330
1A
100
AcDbPlotSettings
  1

  2
none_device
  4

  6

 40
0.0
 41
0.0
 42
0.0
 43
0.0
 44
0.0
 45
0.0
 46
0.0
 47
0.0
 48
0.0
 49
0.0
140
0.0
141
0.0
142
1.0
143
1.0
 70
   688
 72
     1
 73
     0
 74
     5
  7

 75
    16
147
1.0
148
0.0
149
0.0
100
AcDbLayout
  1
Layout2
 70
     1
 71
     2
 10
0.0
 20
0.0
 11
0.0
 21
0.0
 12
0.0
 22
0.0
 32
0.0
 14
0.0
 24
0.0
 34
0.0
 15
0.0
 25
0.0
 35
0.0
146
0.0
 13
0.0
 23
0.0
 33
0.0
 16
1.0
 26
0.0
 36
0.0
 17
0.0
 27
1.0
 37
0.0
 76
     0
330
23
  0
LAYOUT
  5
22
102
{ACAD_REACTORS
330
1A
102
}
330
1A
100
AcDbPlotSettings
  1

  2
none_device
  4
Letter_(8.50_x_11.00_Inches)
  6

 40
6.35
 41
6.35
 42
6.35000508
 43
6.35000508
 44
215.9
 45
279.4
 46
0.0
 47
0.0
 48
0.0
 49
0.0
140
0.0
141
0.0
142
1.0
143
1.0
 70
  1712
 72
     1
 73
     0
 74
     0
  7

 75
     0
147
1.0
148
0.0
149
0.0
100
AcDbLayout
  1
Model
 70
     1
 71
     0
 10
0.0
 20
0.0
 11
420.0
 21
297.0
 12
0.0
 22
0.0
 32
0.0
 14
0.0
 24
0.0
 34
0.0
 15
420.0
 25
297.0
 35
0.0
146
0.0
 13
0.0
 23
0.0
 33
0.0
 16
1.0
 26
0.0
 36
0.0
 17
0.0
 27
1.0
 37
0.0
 76
     0
330
1F
331
29
  0
MLINESTYLE
  5
18
102
{ACAD_REACTORS
330
17
102
}
330
17
100
AcDbMlineStyle
  2
Standard
 70
     0
  3

 62
   256
 51
90.0
 52
90.0
 71
     2
 49
0.5
 62
   256
  6
BYLAYER
 49
-0.5
 62
   256
  6
BYLAYER
  0
ACDBPLACEHOLDER
  5
F
102
{ACAD_REACTORS
330
E
102
}
330
E
  0
SCALE
  5
48
102
{ACAD_REACTORS
330
47
102
}
330
47
100
AcDbScale
 70
     0
300
1:1
140
1.0
141
1.0
290
     1
  0
SCALE
  5
49
102
{ACAD_REACTORS
330
47
102
}
330
47
100
AcDbScale
 70
     0
300
1:2
140
1.0
141
2.0
290
     0
  0
SCALE
  5
4A
102
{ACAD_REACTORS
330
47
102
}
330
47
100
AcDbScale
 70
     0
300
1:4
140
1.0
141
4.0
290
     0
  0
SCALE
  5
4B
102
{ACAD_REACTORS
330
47
102
}
330
47
100
AcDbScale
 70
     0
300
1:5
140
1.0
141
5.0
290
     0
  0
SCALE
  5
4C
102
{ACAD_REACTORS
330
47
102
}
330
47
100
AcDbScale
 70
     0
300
1:8
140
1.0
141
8.0
290
     0
  0
SCALE
  5
4D
102
{ACAD_REACTORS
330
47
102
}
330
47
100
AcDbScale
 70
     0
300
1:10
140
1.0
141
10.0
290
     0
  0
SCALE
  5
4E
102
{ACAD_REACTORS
330
47
102
}
330
47
100
AcDbScale
 70
     0
300
1:16
140
1.0
141
16.0
290
     0
  0
SCALE
  5
4F
102
{ACAD_REACTORS
330
47
102
}
330
47
100
AcDbScale
 70
     0
300
1:20
140
1.0
141
20.0
290
     0
  0
SCALE
  5
50
102
{ACAD_REACTORS
330
47
102
}
330
47
100
AcDbScale
 70
     0
300
1:30
140
1.0
141
30.0
290
     0
  0
SCALE
  5
51
102
{ACAD_REACTORS
330
47
102
}
330
47
100
AcDbScale
 70
     0
300
1:40
140
1.0
141
40.0
290
     0
  0
SCALE
  5
52
102
{ACAD_REACTORS
330
47
102
}
330
47
100
AcDbScale
 70
     0
300
1:50
140
1.0
141
50.0
290
     0
  0
SCALE
  5
53
102
{ACAD_REACTORS
330
47
102
}
330
47
100
AcDbScale
 70
     0
300
1:100
140
1.0
141
100.0
290
     0
  0
SCALE
  5
54
102
{ACAD_REACTORS
330
47
102
}
330
47
100
AcDbScale
 70
     0
300
2:1
140
2.0
141
1.0
290
     0
  0
SCALE
  5
55
102
{ACAD_REACTORS
330
47
102
}
330
47
100
AcDbScale
 70
     0
300
4:1
140
4.0
141
1.0
290
     0
  0
SCALE
  5
56
102
{ACAD_REACTORS
330
47
102
}
330
47
100
AcDbScale
 70
     0
300
8:1
140
8.0
141
1.0
290
     0
  0
SCALE
  5
57
102
{ACAD_REACTORS
330
47
102
}
330
47
100
AcDbScale
 70
     0
300
10:1
140
10.0
141
1.0
290
     0
  0
SCALE
  5
58
102
{ACAD_REACTORS
330
47
102
}
330
47
100
AcDbScale
 70
     0
300
100:1
140
100.0
141
1.0
290
     0
  0
ENDSEC
  0
EOF
