  0
SECTION
  2
HEADER
  9
$ACADVER
  1
AC1015
  9
$ACADMAINTVER
 70
     6
  9
$DWGCODEPAGE
  3
ANSI_1252
  9
$INSBASE
 10
0.0
 20
0.0
 30
0.0
  9
$EXTMIN
 10
0.0
 20
0.0
 30
0.0
  9
$EXTMAX
 10
420.0
 20
297.0
 30
0.0
  9
$LIMMIN
 10
0.0
 20
0.0
  9
$LIMMAX
 10
420.0
 20
297.0
  9
$ORTHOMODE
 70
     0
  9
$REGENMODE
 70
     1
  9
$FILLMODE
 70
     1
  9
$QTEXTMODE
 70
     0
  9
$MIRRTEXT
 70
     1
  9
$LTSCALE
 40
1.0
  9
$ATTMODE
 70
     1
  9
$TEXTSIZE
 40
3.5
  9
$TRACEWID
 40
1.0
  9
$TEXTSTYLE
  7
Standard
  9
$CLAYER
  8
0
  9
$CELTYPE
  6
ByLayer
  9
$CECOLOR
 62
   256
  9
$CELTSCALE
 40
1.0
  9
$DISPSILH
 70
     0
  9
$DIMSCALE
 40
1.0
  9
$DIMASZ
 40
2.5
  9
$DIMEXO
 40
0.3
  9
$DIMDLI
 40
3.75
  9
$DIMRND
 40
0.0
  9
$DIMDLE
 40
0.0
  9
$DIMEXE
 40
1.0
  9
$DIMTP
 40
0.0
  9
$DIMTM
 40
0.0
  9
$DIMTXT
 40
3.5277777778
  9
$DIMCEN
 40
2.5
  9
$DIMTSZ
 40
0.0
  9
$DIMTOL
 70
     0
  9
$DIMLIM
 70
     0
  9
$DIMTIH
 70
     1
  9
$DIMTOH
 70
     1
  9
$DIMSE1
 70
     0
  9
$DIMSE2
 70
     0
  9
$DIMTAD
 70
     1
  9
$DIMZIN
 70
     0
  9
$DIMBLK
  1

  9
$DIMASO
 70
     1
  9
$DIMSHO
 70
     1
  9
$DIMPOST
  1

  9
$DIMAPOST
  1

  9
$DIMALT
 70
     0
  9
$DIMALTD
 70
     3
  9
$DIMALTF
 40
0.0393700787
  9
$DIMLFAC
 40
1.0
  9
$DIMTOFL
 70
     1
  9
$DIMTVP
 40
0.0
  9
$DIMTIX
 70
     0
  9
$DIMSOXD
 70
     0
  9
$DIMSAH
 70
     0
  9
$DIMBLK1
  1

  9
$DIMBLK2
  1

  9
$DIMSTYLE
  2
ISO-25
  9
$DIMCLRD
 70
     0
  9
$DIMCLRE
 70
     0
  9
$DIMCLRT
 70
     0
  9
$DIMTFAC
 40
1.0
  9
$DIMGAP
 40
1.52
  9
$DIMJUST
 70
     0
  9
$DIMSD1
 70
     0
  9
$DIMSD2
 70
     0
  9
$DIMTOLJ
 70
     0
  9
$DIMTZIN
 70
     0
  9
$DIMALTZ
 70
     0
  9
$DIMALTTZ
 70
     0
  9
$DIMUPT
 70
     0
  9
$DIMDEC
 70
     1
  9
$DIMTDEC
 70
     1
  9
$DIMALTU
 70
     2
  9
$DIMALTTD
 70
     3
  9
$DIMTXSTY
  7
Standard
  9
$DIMAUNIT
 70
     0
  9
$DIMADEC
 70
     1
  9
$DIMALTRND
 40
0.0
  9
$DIMAZIN
 70
     0
  9
$DIMDSEP
 70
    44
  9
$DIMATFIT
 70
     3
  9
$DIMFRAC
 70
     0
  9
$DIMLDRBLK
  1

  9
$DIMLUNIT
 70
     2
  9
$DIMLWD
 70
    -2
  9
$DIMLWE
 70
    -2
  9
$DIMTMOVE
 70
     0
  9
$LUNITS
 70
     2
  9
$LUPREC
 70
     2
  9
$SKETCHINC
 40
1.0
  9
$FILLETRAD
 40
0.0
  9
$AUNITS
 70
     0
  9
$AUPREC
 70
     2
  9
$MENU
  1
.
  9
$ELEVATION
 40
0.0
  9
$PELEVATION
 40
0.0
  9
$THICKNESS
 40
0.0
  9
$LIMCHECK
 70
     0
  9
$CHAMFERA
 40
0.0
  9
$CHAMFERB
 40
0.0
  9
$CHAMFERC
 40
0.0
  9
$CHAMFERD
 40
0.0
  9
$SKPOLY
 70
     0
  9
$TDCREATE
 40
2460955.585854398
  9
$TDUCREATE
 40
2460955.502521065
  9
$TDUPDATE
 40
2460955.585858218
  9
$TDUUPDATE
 40
2460955.502524885
  9
$TDINDWG
 40
0.0000000116
  9
$TDUSRTIMER
 40
0.0000000116
  9
$USRTIMER
 70
     1
  9
$ANGBASE
 50
0.0
  9
$ANGDIR
 70
     0
  9
$PDMODE
 70
     0
  9
$PDSIZE
 40
-1.0
  9
$PLINEWID
 40
0.0
  9
$SPLFRAME
 70
     0
  9
$SPLINETYPE
 70
     6
  9
$SPLINESEGS
 70
     8
  9
$HANDSEED
  5
2DA
  9
$SURFTAB1
 70
     6
  9
$SURFTAB2
 70
     6
  9
$SURFTYPE
 70
     6
  9
$SURFU
 70
     6
  9
$SURFV
 70
     6
  9
$UCSBASE
  2

  9
$UCSNAME
  2

  9
$UCSORG
 10
0.0
 20
0.0
 30
0.0
  9
$UCSXDIR
 10
1.0
 20
0.0
 30
0.0
  9
$UCSYDIR
 10
0.0
 20
1.0
 30
0.0
  9
$UCSORTHOREF
  2

  9
$UCSORTHOVIEW
 70
     0
  9
$UCSORGTOP
 10
0.0
 20
0.0
 30
0.0
  9
$UCSORGBOTTOM
 10
0.0
 20
0.0
 30
0.0
  9
$UCSORGLEFT
 10
0.0
 20
0.0
 30
0.0
  9
$UCSORGRIGHT
 10
0.0
 20
0.0
 30
0.0
  9
$UCSORGFRONT
 10
0.0
 20
0.0
 30
0.0
  9
$UCSORGBACK
 10
0.0
 20
0.0
 30
0.0
  9
$PUCSBASE
  2

  9
$PUCSNAME
  2

  9
$PUCSORG
 10
0.0
 20
0.0
 30
0.0
  9
$PUCSXDIR
 10
1.0
 20
0.0
 30
0.0
  9
$PUCSYDIR
 10
0.0
 20
1.0
 30
0.0
  9
$PUCSORTHOREF
  2

  9
$PUCSORTHOVIEW
 70
     0
  9
$PUCSORGTOP
 10
0.0
 20
0.0
 30
0.0
  9
$PUCSORGBOTTOM
 10
0.0
 20
0.0
 30
0.0
  9
$PUCSORGLEFT
 10
0.0
 20
0.0
 30
0.0
  9
$PUCSORGRIGHT
 10
0.0
 20
0.0
 30
0.0
  9
$PUCSORGFRONT
 10
0.0
 20
0.0
 30
0.0
  9
$PUCSORGBACK
 10
0.0
 20
0.0
 30
0.0
  9
$USERI1
 70
     0
  9
$USERI2
 70
     0
  9
$USERI3
 70
     0
  9
$USERI4
 70
     0
  9
$USERI5
 70
     0
  9
$USERR1
 40
0.0
  9
$USERR2
 40
0.0
  9
$USERR3
 40
0.0
  9
$USERR4
 40
0.0
  9
$USERR5
 40
0.0
  9
$WORLDVIEW
 70
     1
  9
$SHADEDGE
 70
     3
  9
$SHADEDIF
 70
    70
  9
$TILEMODE
 70
     1
  9
$MAXACTVP
 70
    64
  9
$PINSBASE
 10
0.0
 20
0.0
 30
0.0
  9
$PLIMCHECK
 70
     0
  9
$PEXTMIN
 10
1.0000000000E+20
 20
1.0000000000E+20
 30
1.0000000000E+20
  9
$PEXTMAX
 10
-1.0000000000E+20
 20
-1.0000000000E+20
 30
-1.0000000000E+20
  9
$PLIMMIN
 10
0.0
 20
0.0
  9
$PLIMMAX
 10
420.0
 20
297.0
  9
$UNITMODE
 70
     0
  9
$VISRETAIN
 70
     1
  9
$PLINEGEN
 70
     0
  9
$PSLTSCALE
 70
     1
  9
$TREEDEPTH
 70
  3020
  9
$CMLSTYLE
  2
Standard
  9
$CMLJUST
 70
     0
  9
$CMLSCALE
 40
20.0
  9
$PROXYGRAPHICS
 70
     1
  9
$MEASUREMENT
 70
     1
  9
$CELWEIGHT
370
    -1
  9
$ENDCAPS
280
     0
  9
$JOINSTYLE
280
     0
  9
$LWDISPLAY
290
     1
  9
$INSUNITS
 70
     4
  9
$HYPERLINKBASE
  1

  9
$STYLESHEET
  1

  9
$XEDIT
290
     1
  9
$CEPSNTYPE
380
     0
  9
$PSTYLEMODE
290
     1
  9
$FINGERPRINTGUID
  2
{f2903d75-2674-48f5-bdc7-2b25e57eea87}
  9
$VERSIONGUID
  2
{FAEB1C32-E019-11D5-929B-00C0DF256EC4}
  9
$EXTNAMES
290
     1
  9
$PSVPSCALE
 40
0.0
  9
$OLESTARTUP
290
     0
  0
ENDSEC
  0
SECTION
  2
CLASSES
  0
CLASS
  1
ACDBDICTIONARYWDFLT
  2
AcDbDictionaryWithDefault
  3
ObjectDBX Classes
 90
        0
280
     0
281
     0
  0
CLASS
  1
VISUALSTYLE
  2
AcDbVisualStyle
  3
ObjectDBX Classes
 90
     4095
280
     0
281
     0
  0
CLASS
  1
MATERIAL
  2
AcDbMaterial
  3
ObjectDBX Classes
 90
     1153
280
     0
281
     0
  0
CLASS
  1
SCALE
  2
AcDbScale
  3
ObjectDBX Classes
 90
     1153
280
     0
281
     0
  0
CLASS
  1
TABLESTYLE
  2
AcDbTableStyle
  3
ObjectDBX Classes
 90
     4095
280
     0
281
     0
  0
CLASS
  1
MLEADERSTYLE
  2
AcDbMLeaderStyle
  3
ACDB_MLEADERSTYLE_CLASS
 90
     4095
280
     0
281
     0
  0
CLASS
  1
SUN
  2
AcDbSun
  3
SCENEOE
 90
     1153
280
     0
281
     0
  0
CLASS
  1
ACDBPLACEHOLDER
  2
AcDbPlaceHolder
  3
ObjectDBX Classes
 90
        0
280
     0
281
     0
  0
CLASS
  1
LAYOUT
  2
AcDbLayout
  3
ObjectDBX Classes
 90
        0
280
     0
281
     0
  0
ENDSEC
  0
SECTION
  2
TABLES
  0
TABLE
  2
VPORT
  5
8
330
0
100
AcDbSymbolTable
 70
     1
  0
VPORT
  5
29
330
8
100
AcDbSymbolTableRecord
100
AcDbViewportTableRecord
  2
*Active
 70
     0
 10
0.0
 20
0.0
 11
1.0
 21
1.0
 12
210.0
 22
148.5
 13
0.0
 23
0.0
 14
10.0
 24
10.0
 15
10.0
 25
10.0
 16
0.0
 26
0.0
 36
1.0
 17
0.0
 27
0.0
 37
0.0
 40
297.0
 41
1.4141414141
 42
50.0
 43
0.0
 44
0.0
 50
0.0
 51
0.0
 71
     0
 72
  2000
 73
     1
 74
     3
 75
     0
 76
     0
 77
     0
 78
     0
281
     0
 65
     1
110
0.0
120
0.0
130
0.0
111
1.0
121
0.0
131
0.0
112
0.0
122
1.0
132
0.0
 79
     0
146
0.0
  0
ENDTAB
  0
TABLE
  2
LTYPE
  5
5
330
0
100
AcDbSymbolTable
 70
     6
  0
LTYPE
  5
14
330
5
100
AcDbSymbolTableRecord
100
AcDbLinetypeTableRecord
  2
ByBlock
 70
     0
  3

 72
    65
 73
     0
 40
0.0
  0
LTYPE
  5
15
330
5
100
AcDbSymbolTableRecord
100
AcDbLinetypeTableRecord
  2
ByLayer
 70
     0
  3

 72
    65
 73
     0
 40
0.0
  0
LTYPE
  5
16
330
5
100
AcDbSymbolTableRecord
100
AcDbLinetypeTableRecord
  2
Continuous
 70
     0
  3
Solid line
 72
    65
 73
     0
 40
0.0
  0
LTYPE
  5
5E
330
5
100
AcDbSymbolTableRecord
100
AcDbLinetypeTableRecord
  2
HIDDEN
 70
     0
  3
Hidden __ __ __ __ __ __ __ __ __ __ __ __ __ __
 72
    65
 73
     2
 40
1.905
 49
1.27
 74
     0
 49
-0.635
 74
     0
  0
LTYPE
  5
5F
330
5
100
AcDbSymbolTableRecord
100
AcDbLinetypeTableRecord
  2
PHANTOM
 70
     0
  3
Phantom ______  __  __  ______  __  __  ______
 72
    65
 73
     6
 40
12.7
 49
6.35
 74
     0
 49
-1.27
 74
     0
 49
1.27
 74
     0
 49
-1.27
 74
     0
 49
1.27
 74
     0
 49
-1.27
 74
     0
  0
LTYPE
  5
60
330
5
100
AcDbSymbolTableRecord
100
AcDbLinetypeTableRecord
  2
CENTER
 70
     0
  3
Center ____ _ ____ _ ____ _ ____ _ ____ _ ____
 72
    65
 73
     4
 40
10.16
 49
6.35
 74
     0
 49
-1.27
 74
     0
 49
1.27
 74
     0
 49
-1.27
 74
     0
  0
LTYPE
  5
61
330
5
100
AcDbSymbolTableRecord
100
AcDbLinetypeTableRecord
  2
CENTERX2
 70
     0
  3
Center (2x) ________  __  ________  __  _____
 72
    65
 73
     4
 40
20.32
 49
12.7
 74
     0
 49
-2.54
 74
     0
 49
2.54
 74
     0
 49
-2.54
 74
     0
  0
LTYPE
  5
62
330
5
100
AcDbSymbolTableRecord
100
AcDbLinetypeTableRecord
  2
DOT2
 70
     0
  3
Dot (.5x) ........................................
 72
    65
 73
     2
 40
0.635
 49
0.0
 74
     0
 49
-0.635
 74
     0
  0
ENDTAB
  0
TABLE
  2
LAYER
  5
2
330
0
100
AcDbSymbolTable
 70
     1
  0
LAYER
  5
10
330
2
100
AcDbSymbolTableRecord
100
AcDbLayerTableRecord
  2
0
 70
     0
 62
     7
  6
Continuous
370
    -3
390
F
  0
ENDTAB
  0
TABLE
  2
STYLE
  5
3
330
0
100
AcDbSymbolTable
 70
     3
  0
STYLE
  5
11
330
3
100
AcDbSymbolTableRecord
100
AcDbTextStyleTableRecord
  2
Standard
 70
     0
 40
0.0
 41
1.0
 50
0.0
 71
     0
 42
3.5
  3
txt
  4

  0
STYLE
  5
D9
330
3
100
AcDbSymbolTableRecord
100
AcDbTextStyleTableRecord
  2
SLDTEXTSTYLE0
 70
     0
 40
0.0
 41
0.605
 50
0.0
 71
     0
 42
3.5
  3
TXT
  4

  0
STYLE
  5
17A
330
3
100
AcDbSymbolTableRecord
100
AcDbTextStyleTableRecord
  2
SLDTEXTSTYLE1
 70
     0
 40
0.0
 41
0.563
 50
0.0
 71
     0
 42
3.5
  3
TXT
  4

  0
ENDTAB
  0
TABLE
  2
VIEW
  5
6
330
0
100
AcDbSymbolTable
 70
     0
  0
ENDTAB
  0
TABLE
  2
UCS
  5
7
330
0
100
AcDbSymbolTable
 70
     0
  0
ENDTAB
  0
TABLE
  2
APPID
  5
9
330
0
100
AcDbSymbolTable
 70
     1
  0
APPID
  5
12
330
9
100
AcDbSymbolTableRecord
100
AcDbRegAppTableRecord
  2
ACAD
 70
     0
  0
ENDTAB
  0
TABLE
  2
DIMSTYLE
  5
A
330
0
100
AcDbSymbolTable
 70
     3
100
AcDbDimStyleTable
  0
DIMSTYLE
105
27
330
A
100
AcDbSymbolTableRecord
100
AcDbDimStyleTableRecord
  2
ISO-25
 70
     0
 41
2.5
 42
0.625
 43
3.75
 44
1.25
 73
     0
 74
     0
 77
     1
 78
     8
140
2.5
141
2.5
143
0.0393700787
147
0.625
171
     3
172
     1
178
     0
271
     2
272
     2
274
     3
278
    44
283
     0
284
     8
340
11
  0
DIMSTYLE
105
2C0
102
{ACAD_REACTORS
330
2BF
102
}
330
A
100
AcDbSymbolTableRecord
100
AcDbDimStyleTableRecord
  2
SLDDIMSTYLE0
 70
     0
 41
2.5
 44
0.0
 45
0.000000001
 73
     0
 74
     0
 77
     1
 78
    12
 79
     3
140
2.5683186849
147
0.6420796712
173
     1
178
     0
271
     1
272
     1
276
     2
284
    12
340
D9
  0
DIMSTYLE
105
2CC
102
{ACAD_REACTORS
330
2CB
102
}
330
A
100
AcDbSymbolTableRecord
100
AcDbDimStyleTableRecord
  2
SLDDIMSTYLE1
 70
     0
 41
2.5
 44
0.0
 45
0.000000001
 73
     0
 74
     0
 77
     1
 78
    12
 79
     3
140
2.5683186849
147
0.6420796712
172
     1
173
     1
178
     0
271
     1
272
     1
276
     2
284
    12
289
     0
340
D9
  0
ENDTAB
  0
TABLE
  2
BLOCK_RECORD
  5
1
330
0
100
AcDbSymbolTable
 70
     7
  0
BLOCK_RECORD
  5
1F
330
1
100
AcDbSymbolTableRecord
100
AcDbBlockTableRecord
  2
*Model_Space
340
22
  0
BLOCK_RECORD
  5
1B
330
1
100
AcDbSymbolTableRecord
100
AcDbBlockTableRecord
  2
*Paper_Space
340
1E
  0
BLOCK_RECORD
  5
23
330
1
100
AcDbSymbolTableRecord
100
AcDbBlockTableRecord
  2
*Paper_Space0
340
26
  0
BLOCK_RECORD
  5
63
330
1
100
AcDbSymbolTableRecord
100
AcDbBlockTableRecord
  2
ACO-Logo
340
0
102
{BLKREFS
331
139
102
}
  0
BLOCK_RECORD
  5
D6
330
1
100
AcDbSymbolTableRecord
100
AcDbBlockTableRecord
  2
SW_NOTE_0
340
0
102
{BLKREFS
331
DB
102
}
  0
BLOCK_RECORD
  5
DC
330
1
100
AcDbSymbolTableRecord
100
AcDbBlockTableRecord
  2
SW_NOTE_0_1
340
0
102
{BLKREFS
331
E0
102
}
  0
BLOCK_RECORD
  5
E1
330
1
100
AcDbSymbolTableRecord
100
AcDbBlockTableRecord
  2
SW_NOTE_0_2
340
0
102
{BLKREFS
331
E8
102
}
  0
BLOCK_RECORD
  5
2C1
330
1
100
AcDbSymbolTableRecord
100
AcDbBlockTableRecord
  2
_D
340
0
  0
BLOCK_RECORD
  5
2CD
330
1
100
AcDbSymbolTableRecord
100
AcDbBlockTableRecord
  2
_D_1
340
0
  0
ENDTAB
  0
ENDSEC
  0
SECTION
  2
BLOCKS
  0
BLOCK
  5
20
330
1F
100
AcDbEntity
  8
0
100
AcDbBlockBegin
  2
*Model_Space
 70
     0
 10
0.0
 20
0.0
 30
0.0
  3
*Model_Space
  1

  0
ENDBLK
  5
21
330
1F
100
AcDbEntity
  8
0
100
AcDbBlockEnd
  0
BLOCK
  5
1C
330
1B
100
AcDbEntity
 67
     1
  8
0
100
AcDbBlockBegin
  2
*Paper_Space
 70
     0
 10
0.0
 20
0.0
 30
0.0
  3
*Paper_Space
  1

  0
ENDBLK
  5
1D
330
1B
100
AcDbEntity
 67
     1
  8
0
100
AcDbBlockEnd
  0
BLOCK
  5
24
330
23
100
AcDbEntity
  8
0
100
AcDbBlockBegin
  2
*Paper_Space0
 70
     0
 10
0.0
 20
0.0
 30
0.0
  3
*Paper_Space0
  1

  0
ENDBLK
  5
25
330
23
100
AcDbEntity
  8
0
100
AcDbBlockEnd
  0
BLOCK
  5
64
330
63
100
AcDbEntity
  8
0
100
AcDbBlockBegin
  2
ACO-Logo
 70
     0
 10
0.0
 20
0.0
 30
0.0
  3
ACO-Logo
  1

  0
ARC
  5
66
330
63
100
AcDbEntity
  8
0
  6
Continuous
 62
     7
370
    18
100
AcDbCircle
 10
80.3853261169
 20
4.9940995715
 30
0.0
 40
0.3000000000000441
100
AcDbArc
 50
181.9349323096
 51
274.6062978506
  0
ARC
  5
67
330
63
100
AcDbEntity
  8
0
  6
Continuous
 62
     7
370
    18
100
AcDbCircle
 10
81.2359083165
 20
2.1946665956
 30
0.0
 40
1.000000000000021
100
AcDbArc
 50
221.4087409628
 51
276.0561297228
  0
ARC
  5
68
330
63
100
AcDbEntity
  8
0
  6
Continuous
 62
     7
370
    18
100
AcDbCircle
 10
79.1360017163
 20
3.654242048
 30
0.0
 40
0.300000000000004
100
AcDbArc
 50
181.2730300201
 51
274.4996077095
  0
ARC
  5
69
330
63
100
AcDbEntity
  8
0
  6
Continuous
 62
     7
370
    18
100
AcDbCircle
 10
78.7699033484
 20
3.2873137407
 30
0.0
 40
0.4000000000000358
100
AcDbArc
 50
221.0090869016
 51
274.5606296317
  0
ARC
  5
6A
330
63
100
AcDbEntity
  8
0
  6
Continuous
 62
     7
370
    18
100
AcDbCircle
 10
91.2333953062
 20
4.6062442307
 30
0.0
 40
0.3000000000000493
100
AcDbArc
 50
274.4996077095
 51
3.7249371334
  0
ARC
  5
6B
330
63
100
AcDbEntity
  8
0
  6
Continuous
 62
     7
370
    18
100
AcDbCircle
 10
81.5287571045
 20
9.7648973508
 30
0.0
 40
1.00000000000002
100
AcDbArc
 50
93.1134387481
 51
181.9414863909
  0
ARC
  5
6C
330
63
100
AcDbEntity
  8
0
  6
Continuous
 62
     7
370
    18
100
AcDbCircle
 10
81.6051675115
 20
7.5107903456
 30
0.0
 40
1.0
100
AcDbArc
 50
181.9414863909
 51
274.398705355
  0
ARC
  5
6D
330
63
100
AcDbEntity
  8
0
  6
Continuous
 62
     7
370
    18
100
AcDbCircle
 10
80.1506905656
 20
11.9393118923
 30
0.0
 40
0.300000000000045
100
AcDbArc
 50
93.0418421566
 51
181.9349323096
  0
ARC
  5
6E
330
63
100
AcDbEntity
  8
0
  6
Continuous
 62
     7
370
    18
100
AcDbCircle
 10
78.1879722102
 20
12.3499352608
 30
0.0
 40
0.7999999999953393
100
AcDbArc
 50
92.6995697565
 51
148.2554209065
  0
ARC
  5
6F
330
63
100
AcDbEntity
  8
0
  6
Continuous
 62
     7
370
    18
100
AcDbCircle
 10
78.930862229
 20
12.8855189761
 30
0.0
 40
0.3000000000000031
100
AcDbArc
 50
92.6995697565
 51
181.2730300201
  0
ARC
  5
70
330
63
100
AcDbEntity
  8
0
  6
Continuous
 62
     7
370
    18
100
AcDbCircle
 10
82.327743407
 20
9.8083568568
 30
0.0
 40
1.000000000000034
100
AcDbArc
 50
1.9414863909
 51
93.1134387481
  0
ARC
  5
71
330
63
100
AcDbEntity
  8
0
  6
Continuous
 62
     7
370
    18
100
AcDbCircle
 10
81.5287571045
 20
9.7648973508
 30
0.0
 40
0.3625000000000009
100
AcDbArc
 50
93.1134387481
 51
181.9414863909
  0
ARC
  5
72
330
63
100
AcDbEntity
  8
0
  6
Continuous
 62
     7
370
    18
100
AcDbCircle
 10
82.327743407
 20
9.8083568568
 30
0.0
 40
0.3625000000000146
100
AcDbArc
 50
1.9414863909
 51
93.1134387481
  0
ARC
  5
73
330
63
100
AcDbEntity
  8
0
  6
Continuous
 62
     7
370
    18
100
AcDbCircle
 10
82.4035451983
 20
7.5722040138
 30
0.0
 40
1.000000000000008
100
AcDbArc
 50
274.398705355
 51
1.9414863909
  0
ARC
  5
74
330
63
100
AcDbEntity
  8
0
  6
Continuous
 62
     7
370
    18
100
AcDbCircle
 10
82.4035451983
 20
7.5722040138
 30
0.0
 40
0.3625000000000068
100
AcDbArc
 50
274.398705355
 51
1.9414863909
  0
ARC
  5
75
330
63
100
AcDbEntity
  8
0
  6
Continuous
 62
     7
370
    18
100
AcDbCircle
 10
81.6051675115
 20
7.5107903456
 30
0.0
 40
0.3625000000000111
100
AcDbArc
 50
181.9414863909
 51
274.398705355
  0
ARC
  5
76
330
63
100
AcDbEntity
  8
0
  6
Continuous
 62
     7
370
    18
100
AcDbCircle
 10
88.825822761
 20
8.0662148274
 30
0.0
 40
0.9999999999999997
100
AcDbArc
 50
274.398705355
 51
2.6541955134
  0
ARC
  5
77
330
63
100
AcDbEntity
  8
0
  6
Continuous
 62
     7
370
    18
100
AcDbCircle
 10
90.1578295581
 20
5.7814576687
 30
0.0
 40
0.3000000000000043
100
AcDbArc
 50
274.6062978507
 51
2.5147526475
  0
ARC
  5
78
330
63
100
AcDbEntity
  8
0
  6
Continuous
 62
     7
370
    18
100
AcDbCircle
 10
88.825822761
 20
8.0662148274
 30
0.0
 40
0.3625000000000083
100
AcDbArc
 50
274.398705355
 51
2.6541955134
  0
ARC
  5
79
330
63
100
AcDbEntity
  8
0
  6
Continuous
 62
     7
370
    18
100
AcDbCircle
 10
88.728529747
 20
10.16496413
 30
0.0
 40
1.000000000000001
100
AcDbArc
 50
2.6541955134
 51
93.1134387481
  0
ARC
  5
7A
330
63
100
AcDbEntity
  8
0
  6
Continuous
 62
     7
370
    18
100
AcDbCircle
 10
88.728529747
 20
10.16496413
 30
0.0
 40
0.3625000000000085
100
AcDbArc
 50
2.6541955134
 51
93.1134387481
  0
ARC
  5
7B
330
63
100
AcDbEntity
  8
0
  6
Continuous
 62
     7
370
    18
100
AcDbCircle
 10
89.8647121341
 20
12.455515937
 30
0.0
 40
0.2999999999999984
100
AcDbArc
 50
2.5147526475
 51
93.0418421566
  0
ARC
  5
7C
330
63
100
AcDbEntity
  8
0
  6
Continuous
 62
     7
370
    18
100
AcDbCircle
 10
90.6583795404
 20
13.4384863935
 30
0.0
 40
0.2999999999999911
100
AcDbArc
 50
3.7249371334
 51
92.6995697565
  0
CIRCLE
  5
7D
330
63
100
AcDbEntity
  8
0
  6
Continuous
 62
     7
370
    18
100
AcDbCircle
 10
15.7233972286
 20
6.4054930194
 30
0.0
 40
1.579500000000014
  0
CIRCLE
  5
7E
330
63
100
AcDbEntity
  8
0
  6
Continuous
 62
     7
370
    18
100
AcDbCircle
 10
15.7233972286
 20
6.4054930194
 30
0.0
 40
2.281499999999994
  0
ARC
  5
7F
330
63
100
AcDbEntity
  8
0
  6
Continuous
 62
     7
370
    18
100
AcDbCircle
 10
89.7681336026
 20
2.3106616691
 30
0.0
 40
0.098384530246548
100
AcDbArc
 50
332.3802627259
 51
4.9765441602
  0
ARC
  5
80
330
63
100
AcDbEntity
  8
0
  6
Continuous
 62
     7
370
    18
100
AcDbCircle
 10
89.6886560089
 20
2.3522464185
 30
0.0
 40
0.1880839130754018
100
AcDbArc
 50
303.690067526
 51
332.3802627258
  0
ARC
  5
81
330
63
100
AcDbEntity
  8
0
  6
Continuous
 62
     7
370
    18
100
AcDbCircle
 10
89.4849700869
 20
2.6577753016
 30
0.0
 40
0.5552839311631531
100
AcDbArc
 50
287.108652213
 51
303.690067526
  0
ARC
  5
82
330
63
100
AcDbEntity
  8
0
  6
Continuous
 62
     7
370
    18
100
AcDbCircle
 10
88.0513010646
 20
7.3154864882
 30
0.0
 40
5.428648309393203
100
AcDbArc
 50
285.2551187031
 51
287.108652213
  0
ARC
  5
83
330
63
100
AcDbEntity
  8
0
  6
Continuous
 62
     7
370
    18
100
AcDbCircle
 10
89.1317168954
 20
3.3539617753
 30
0.0
 40
1.322436378825653
100
AcDbArc
 50
281.4991866428
 51
285.255118703
  0
ARC
  5
84
330
63
100
AcDbEntity
  8
0
  6
Continuous
 62
     7
370
    18
100
AcDbCircle
 10
89.3198255509
 20
2.4293110075
 30
0.0
 40
0.3788454141584939
100
AcDbArc
 50
279.1917900003
 51
281.499186643
  0
ARC
  5
85
330
63
100
AcDbEntity
  8
0
  6
Continuous
 62
     7
370
    18
100
AcDbCircle
 10
89.0487250788
 20
4.1046569124
 30
0.0
 40
2.07598399629105
100
AcDbArc
 50
277.7634675038
 51
279.1917900002
  0
ARC
  5
86
330
63
100
AcDbEntity
  8
0
  6
Continuous
 62
     7
370
    18
100
AcDbCircle
 10
9.2588909915
 20
6.4054930194
 30
0.0
 40
1.579500000000074
100
AcDbArc
 50
31.0558004991
 51
330.0
  0
ARC
  5
87
330
63
100
AcDbEntity
  8
0
  6
Continuous
 62
     7
370
    18
100
AcDbCircle
 10
9.2588909915
 20
6.4054930194
 30
0.0
 40
2.281500000000107
100
AcDbArc
 50
30.7309172659
 51
330.0
  0
ARC
  5
88
330
63
100
AcDbEntity
  8
0
  6
Continuous
 62
     7
370
    18
100
AcDbCircle
 10
6.1288847544
 20
4.0685261312
 30
0.0
 40
4.914000000000307
100
AcDbArc
 50
172.3058370354
 51
179.7113029221
  0
ARC
  5
89
330
63
100
AcDbEntity
  8
0
  6
Continuous
 62
     7
370
    18
100
AcDbCircle
 10
-0.5401152456
 20
4.0685261312
 30
0.0
 40
4.91400000000019
100
AcDbArc
 50
0.2886970779
 51
7.6941629646
  0
ARC
  5
8A
330
63
100
AcDbEntity
  8
0
  6
Continuous
 62
     7
370
    18
100
AcDbCircle
 10
-0.5401152456
 20
4.0685261312
 30
0.0
 40
5.616000000000127
100
AcDbArc
 50
0.2526096926
 51
53.5764263577
  0
ARC
  5
8B
330
63
100
AcDbEntity
  8
0
  6
Continuous
 62
     7
370
    18
100
AcDbCircle
 10
6.1288847544
 20
4.0685261312
 30
0.0
 40
5.61600000000074
100
AcDbArc
 50
126.4235736423
 51
179.7473903073
  0
ARC
  5
8C
330
63
100
AcDbEntity
  8
0
  6
Continuous
 62
     7
370
    18
100
AcDbCircle
 10
-0.5401152456
 20
4.0685261312
 30
0.0
 40
4.914000000000161
100
AcDbArc
 50
16.0658750272
 51
47.2678899574
  0
ARC
  5
8D
330
63
100
AcDbEntity
  8
0
  6
Continuous
 62
     7
370
    18
100
AcDbCircle
 10
6.1288847544
 20
4.0685261312
 30
0.0
 40
4.914000000000584
100
AcDbArc
 50
132.7321100426
 51
163.9341249728
  0
LINE
  5
8E
330
63
100
AcDbEntity
  8
0
  6
Continuous
 62
     7
370
    18
100
AcDbLine
 10
78.8017089389
 20
2.8885802402
 30
0.0
 11
90.7982178739
 21
3.8455002136
 31
0.0
  0
LINE
  5
8F
330
63
100
AcDbEntity
  8
0
  6
Continuous
 62
     7
370
    18
100
AcDbLine
 10
76.6545490427
 20
5.8693097374
 30
0.0
 11
78.0344191726
 21
3.5235305166
 31
0.0
  0
LINE
  5
90
330
63
100
AcDbEntity
  8
0
  6
Continuous
 62
     7
370
    18
100
AcDbLine
 10
91.5327615373
 20
4.6257342197
 30
0.0
 11
90.9577457715
 21
13.4579763825
 31
0.0
  0
LINE
  5
91
330
63
100
AcDbEntity
  8
0
  6
Continuous
 62
     7
370
    18
100
AcDbLine
 10
78.6309362756
 20
12.8788539549
 30
0.0
 11
78.8360757629
 21
3.6475770268
 31
0.0
  0
LINE
  5
92
330
63
100
AcDbEntity
  8
0
  6
Continuous
 62
     7
370
    18
100
AcDbLine
 10
80.4094186633
 20
4.6950685544
 30
0.0
 11
90.1819221045
 21
5.4824266516
 31
0.0
  0
LINE
  5
93
330
63
100
AcDbEntity
  8
0
  6
Continuous
 62
     7
370
    18
100
AcDbLine
 10
79.1595373973
 20
3.3551666867
 30
0.0
 11
91.2569309872
 21
4.3071688694
 31
0.0
  0
LINE
  5
94
330
63
100
AcDbEntity
  8
0
  6
Continuous
 62
     7
370
    18
100
AcDbLine
 10
79.2585043218
 20
2.925017226
 30
0.0
 11
80.4858981444
 21
1.533240302
 31
0.0
  0
LINE
  5
95
330
63
100
AcDbEntity
  8
0
  6
Continuous
 62
     7
370
    18
100
AcDbLine
 10
78.0344191726
 20
3.5235305166
 30
0.0
 11
78.3638740472
 21
3.1446574108
 31
0.0
  0
LINE
  5
96
330
63
100
AcDbEntity
  8
0
  6
Continuous
 62
     7
370
    18
100
AcDbLine
 10
78.3638740472
 20
3.1446574108
 30
0.0
 11
78.4680611395
 21
3.0248422547
 31
0.0
  0
LINE
  5
97
330
63
100
AcDbEntity
  8
0
  6
Continuous
 62
     7
370
    18
100
AcDbLine
 10
81.3414110113
 20
1.2002475785
 30
0.0
 11
89.3291569519
 21
2.0477010263
 31
0.0
  0
LINE
  5
98
330
63
100
AcDbEntity
  8
0
  6
Continuous
 62
     7
370
    18
100
AcDbLine
 10
89.8661472522
 20
2.5197759309
 30
0.0
 11
89.8661472522
 21
2.3090867337
 31
0.0
  0
LINE
  5
99
330
63
100
AcDbEntity
  8
0
  6
Continuous
 62
     7
370
    18
100
AcDbLine
 10
88.676842368
 20
3.6762854359
 30
0.0
 11
89.6713239345
 21
2.7875997807
 31
0.0
  0
LINE
  5
9A
330
63
100
AcDbEntity
  8
0
  6
Continuous
 62
     7
370
    18
100
AcDbLine
 10
89.6713239345
 20
2.7875997807
 30
0.0
 11
89.7459749087
 21
2.7242700694
 31
0.0
  0
LINE
  5
9B
330
63
100
AcDbEntity
  8
0
  6
Continuous
 62
     7
370
    18
100
AcDbLine
 10
90.7982178739
 20
3.8455002136
 30
0.0
 11
91.3961615969
 21
4.3514525945
 31
0.0
  0
LINE
  5
9C
330
63
100
AcDbEntity
  8
0
  6
Continuous
 62
     7
370
    18
100
AcDbLine
 10
90.6442498554
 20
13.7381534621
 30
0.0
 11
78.1502930503
 21
13.1490474438
 31
0.0
  0
LINE
  5
9D
330
63
100
AcDbEntity
  8
0
  6
Continuous
 62
     7
370
    18
100
AcDbLine
 10
80.1347709981
 20
12.2388892068
 30
0.0
 11
89.8487925667
 21
12.7550932515
 31
0.0
  0
LINE
  5
9E
330
63
100
AcDbEntity
  8
0
  6
Continuous
 62
     7
370
    18
100
AcDbLine
 10
76.4935641943
 20
11.7567556248
 30
0.0
 11
76.6545490427
 21
5.8693097374
 31
0.0
  0
LINE
  5
9F
330
63
100
AcDbEntity
  8
0
  6
Continuous
 62
     7
370
    18
100
AcDbLine
 10
79.8508616208
 20
11.929182536
 30
0.0
 11
80.0854971721
 21
4.9839702153
 31
0.0
  0
LINE
  5
A0
330
63
100
AcDbEntity
  8
0
  6
Continuous
 62
     7
370
    18
100
AcDbLine
 10
80.5293311574
 20
9.7310185051
 30
0.0
 11
80.6057415643
 21
7.4769115
 31
0.0
  0
LINE
  5
A1
330
63
100
AcDbEntity
  8
0
  6
Continuous
 62
     7
370
    18
100
AcDbLine
 10
77.507650604
 20
12.7708420346
 30
0.0
 11
76.4935641943
 21
11.7567556248
 31
0.0
  0
LINE
  5
A2
330
63
100
AcDbEntity
  8
0
  6
Continuous
 62
     7
370
    18
100
AcDbLine
 10
86.8848195129
 20
11.0661568594
 30
0.0
 11
88.6742167283
 21
11.1634880887
 31
0.0
  0
LINE
  5
A3
330
63
100
AcDbEntity
  8
0
  6
Continuous
 62
     7
370
    18
100
AcDbLine
 10
87.0766213517
 20
6.9287171941
 30
0.0
 11
88.90708891
 21
7.0695223909
 31
0.0
  0
LINE
  5
A4
330
63
100
AcDbEntity
  8
0
  6
Continuous
 62
     7
370
    18
100
AcDbLine
 10
87.6830038473
 20
7.6147347768
 30
0.0
 11
88.8536252418
 21
7.7047825764
 31
0.0
  0
LINE
  5
A5
330
63
100
AcDbEntity
  8
0
  6
Continuous
 62
     7
370
    18
100
AcDbLine
 10
87.5509212094
 20
10.4639459651
 30
0.0
 11
88.7088412777
 21
10.5269290651
 31
0.0
  0
LINE
  5
A6
330
63
100
AcDbEntity
  8
0
  6
Continuous
 62
     7
370
    18
100
AcDbLine
 10
87.0766218384
 20
6.9287066941
 30
0.0
 11
86.8848195129
 21
11.0661568594
 31
0.0
  0
LINE
  5
A7
330
63
100
AcDbEntity
  8
0
  6
Continuous
 62
     7
370
    18
100
AcDbLine
 10
83.7004598825
 20
6.6667911093
 30
0.0
 11
84.5054929504
 21
10.9267193262
 31
0.0
  0
LINE
  5
A8
330
63
100
AcDbEntity
  8
0
  6
Continuous
 62
     7
370
    18
100
AcDbLine
 10
85.3543248406
 20
10.9728900984
 30
0.0
 11
86.4940946704
 21
6.8816860929
 31
0.0
  0
LINE
  5
A9
330
63
100
AcDbEntity
  8
0
  6
Continuous
 62
     7
370
    18
100
AcDbLine
 10
84.9728575427
 20
9.9667192298
 30
0.0
 11
85.4540299774
 21
8.2395506903
 31
0.0
  0
LINE
  5
AA
330
63
100
AcDbEntity
  8
0
  6
Continuous
 62
     7
370
    18
100
AcDbLine
 10
84.6363094629
 20
8.1858350416
 30
0.0
 11
84.9728575427
 21
9.9667192298
 31
0.0
  0
LINE
  5
AB
330
63
100
AcDbEntity
  8
0
  6
Continuous
 62
     7
370
    18
100
AcDbLine
 10
87.6830038473
 20
7.6147347768
 30
0.0
 11
87.5509212094
 21
10.4639459651
 31
0.0
  0
LINE
  5
AC
330
63
100
AcDbEntity
  8
0
  6
Continuous
 62
     7
370
    18
100
AcDbLine
 10
84.6363094629
 20
8.1858350416
 30
0.0
 11
85.4540299774
 21
8.2395506903
 31
0.0
  0
LINE
  5
AD
330
63
100
AcDbEntity
  8
0
  6
Continuous
 62
     7
370
    18
100
AcDbLine
 10
84.5140586807
 20
7.5389304886
 30
0.0
 11
85.6288154243
 21
7.6121582976
 31
0.0
  0
LINE
  5
AE
330
63
100
AcDbEntity
  8
0
  6
Continuous
 62
     7
370
    18
100
AcDbLine
 10
84.3588137958
 20
6.717433718
 30
0.0
 11
84.5140586807
 21
7.5389304886
 31
0.0
  0
LINE
  5
AF
330
63
100
AcDbEntity
  8
0
  6
Continuous
 62
     7
370
    18
100
AcDbLine
 10
81.6818640104
 20
6.5137358601
 30
0.0
 11
82.4802416972
 21
6.5751495283
 31
0.0
  0
LINE
  5
B0
330
63
100
AcDbEntity
  8
0
  6
Continuous
 62
     7
370
    18
100
AcDbLine
 10
81.6329699923
 20
7.1493580946
 30
0.0
 11
82.4313476791
 21
7.2107717628
 31
0.0
  0
LINE
  5
B1
330
63
100
AcDbEntity
  8
0
  6
Continuous
 62
     7
370
    18
100
AcDbLine
 10
83.7004598825
 20
6.6667911093
 30
0.0
 11
84.3588137958
 21
6.717433718
 31
0.0
  0
LINE
  5
B2
330
63
100
AcDbEntity
  8
0
  6
Continuous
 62
     7
370
    18
100
AcDbLine
 10
82.7059483815
 20
9.3512024135
 30
0.0
 11
83.3423973297
 21
9.3930104243
 31
0.0
  0
LINE
  5
B3
330
63
100
AcDbEntity
  8
0
  6
Continuous
 62
     7
370
    18
100
AcDbLine
 10
82.7491656358
 20
8.0762934118
 30
0.0
 11
83.385614584
 21
8.1181014226
 31
0.0
  0
LINE
  5
B4
330
63
100
AcDbEntity
  8
0
  6
Continuous
 62
     7
370
    18
100
AcDbLine
 10
81.1664651987
 20
9.7526162692
 30
0.0
 11
81.2428756056
 21
7.4985092641
 31
0.0
  0
LINE
  5
B5
330
63
100
AcDbEntity
  8
0
  6
Continuous
 62
     7
370
    18
100
AcDbLine
 10
82.6900353128
 20
9.8206379383
 30
0.0
 11
82.7052632884
 21
9.3714126602
 31
0.0
  0
LINE
  5
B6
330
63
100
AcDbEntity
  8
0
  6
Continuous
 62
     7
370
    18
100
AcDbLine
 10
82.7491656358
 20
8.0762934118
 30
0.0
 11
82.7658371041
 21
7.5844850954
 31
0.0
  0
LINE
  5
B7
330
63
100
AcDbEntity
  8
0
  6
Continuous
 62
     7
370
    18
100
AcDbLine
 10
83.3271693541
 20
9.8422357024
 30
0.0
 11
83.3423973297
 21
9.3930104243
 31
0.0
  0
LINE
  5
B8
330
63
100
AcDbEntity
  8
0
  6
Continuous
 62
     7
370
    18
100
AcDbLine
 10
83.385614584
 20
8.1181014226
 30
0.0
 11
83.4029711454
 21
7.6060828595
 31
0.0
  0
LINE
  5
B9
330
63
100
AcDbEntity
  8
0
  6
Continuous
 62
     7
370
    18
100
AcDbLine
 10
85.6288154243
 20
7.6121582976
 30
0.0
 11
85.8462022593
 21
6.8318482152
 31
0.0
  0
LINE
  5
BA
330
63
100
AcDbEntity
  8
0
  6
Continuous
 62
     7
370
    18
100
AcDbLine
 10
85.8462022593
 20
6.8318482152
 30
0.0
 11
86.4940946704
 21
6.8816860929
 31
0.0
  0
LINE
  5
BB
330
63
100
AcDbEntity
  8
0
  6
Continuous
 62
     7
370
    18
100
AcDbLine
 10
84.5054929504
 20
10.9267193262
 30
0.0
 11
85.3543248406
 21
10.9728900984
 31
0.0
  0
LINE
  5
BC
330
63
100
AcDbEntity
  8
0
  6
Continuous
 62
     7
370
    18
100
AcDbLine
 10
81.4744440858
 20
10.7634213094
 30
0.0
 11
82.2734303883
 21
10.8068808154
 31
0.0
  0
LINE
  5
BD
330
63
100
AcDbEntity
  8
0
  6
Continuous
 62
     7
370
    18
100
AcDbLine
 10
81.5090686352
 20
10.1268622858
 30
0.0
 11
82.3080549377
 21
10.1703217918
 31
0.0
  0
LINE
  5
BE
330
63
100
AcDbEntity
  8
0
  6
Continuous
 62
     7
370
    18
100
AcDbLine
 10
90.4575406452
 20
5.7946206556
 30
0.0
 11
90.1644232213
 21
12.4686789239
 31
0.0
  0
LINE
  5
BF
330
63
100
AcDbEntity
  8
0
  6
Continuous
 62
     7
370
    18
100
AcDbLine
 10
89.8247499755
 20
8.1125227115
 30
0.0
 11
89.7274569615
 21
10.2112720142
 31
0.0
  0
LINE
  5
C0
330
63
100
AcDbEntity
  8
0
  6
Continuous
 62
     7
370
    18
100
AcDbLine
 10
89.1879338763
 20
8.0830014354
 30
0.0
 11
89.0906408622
 21
10.181750738
 31
0.0
  0
LINE
  5
C1
330
63
100
AcDbEntity
  8
0
  6
Continuous
 62
     7
370
    18
100
AcDbLine
 10
89.7459749087
 20
2.7242700694
 30
0.0
 11
89.7974962577
 21
2.6659765769
 31
0.0
  0
LINE
  5
C2
330
63
100
AcDbEntity
  8
0
  6
Continuous
 62
     7
370
    18
100
AcDbLine
 10
89.7974962577
 20
2.6659765769
 30
0.0
 11
89.8351851379
 21
2.60192886
 31
0.0
  0
LINE
  5
C3
330
63
100
AcDbEntity
  8
0
  6
Continuous
 62
     7
370
    18
100
AcDbLine
 10
89.8351851379
 20
2.60192886
 30
0.0
 11
89.8661472522
 21
2.5197759309
 31
0.0
  0
LINE
  5
C4
330
63
100
AcDbEntity
  8
0
  6
Continuous
 62
     7
370
    18
100
AcDbLine
 10
10.6119938288
 20
7.2203138351
 30
0.0
 11
11.2200151261
 21
7.5713550947
 31
0.0
  0
LINE
  5
C5
330
63
100
AcDbEntity
  8
0
  6
Continuous
 62
     7
370
    18
100
AcDbLine
 10
11.2347279503
 20
5.2647430194
 30
0.0
 11
10.6267781168
 21
5.6157430194
 31
0.0
  0
LINE
  5
C6
330
63
100
AcDbEntity
  8
0
  6
Continuous
 62
     7
370
    18
100
AcDbLine
 10
6.4645062371
 20
16.1712617198
 30
0.0
 11
6.4645062371
 21
2.9364593988
 31
0.0
  0
LINE
  5
C7
330
63
100
AcDbEntity
  8
0
  6
Continuous
 62
     7
370
    18
100
AcDbLine
 10
6.4645062371
 20
2.9364593988
 30
0.0
 11
12.0532757459
 21
2.9364593988
 31
0.0
  0
LINE
  5
C8
330
63
100
AcDbEntity
  8
0
  6
Continuous
 62
     7
370
    18
100
AcDbLine
 10
12.0532757459
 20
2.9364593988
 30
0.0
 11
12.0532757459
 21
16.1712617198
 31
0.0
  0
LINE
  5
C9
330
63
100
AcDbEntity
  8
0
  6
Continuous
 62
     7
370
    18
100
AcDbLine
 10
12.0532757459
 20
16.1712617198
 30
0.0
 11
6.4645062371
 21
16.1712617198
 31
0.0
  0
LINE
  5
CA
330
63
100
AcDbEntity
  8
0
  6
Continuous
 62
     7
370
    18
100
AcDbLine
 10
0.0
 20
16.1712617198
 30
0.0
 11
0.0
 21
2.9364593988
 31
0.0
  0
LINE
  5
CB
330
63
100
AcDbEntity
  8
0
  6
Continuous
 62
     7
370
    18
100
AcDbLine
 10
0.0
 20
2.9364593988
 30
0.0
 11
5.5887695089
 21
2.9364593988
 31
0.0
  0
LINE
  5
CC
330
63
100
AcDbEntity
  8
0
  6
Continuous
 62
     7
370
    18
100
AcDbLine
 10
5.5887695089
 20
2.9364593988
 30
0.0
 11
5.5887695089
 21
16.1712617198
 31
0.0
  0
LINE
  5
CD
330
63
100
AcDbEntity
  8
0
  6
Continuous
 62
     7
370
    18
100
AcDbLine
 10
5.5887695089
 20
16.1712617198
 30
0.0
 11
0.0
 21
16.1712617198
 31
0.0
  0
LINE
  5
CE
330
63
100
AcDbEntity
  8
0
  6
Continuous
 62
     7
370
    18
100
AcDbLine
 10
1.2591262606
 20
4.7264381407
 30
0.0
 11
4.3296432482
 21
4.7264381407
 31
0.0
  0
LINE
  5
CF
330
63
100
AcDbEntity
  8
0
  6
Continuous
 62
     7
370
    18
100
AcDbLine
 10
4.3738223747
 20
4.0932862697
 30
0.0
 11
5.0758301722
 21
4.0932862697
 31
0.0
  0
LINE
  5
D0
330
63
100
AcDbEntity
  8
0
  6
Continuous
 62
     7
370
    18
100
AcDbLine
 10
0.5129393366
 20
4.0932862697
 30
0.0
 11
1.2149471342
 21
4.0932862697
 31
0.0
  0
LINE
  5
D1
330
63
100
AcDbEntity
  8
0
  6
Continuous
 62
     7
370
    18
100
AcDbLine
 10
4.1819643097
 20
5.4284381407
 30
0.0
 11
1.4068051992
 21
5.4284381407
 31
0.0
  0
LINE
  5
D2
330
63
100
AcDbEntity
  8
0
  6
Continuous
 62
     7
370
    18
100
AcDbLine
 10
18.517781983
 20
16.1712617198
 30
0.0
 11
18.517781983
 21
2.9364593988
 31
0.0
  0
LINE
  5
D3
330
63
100
AcDbEntity
  8
0
  6
Continuous
 62
     7
370
    18
100
AcDbLine
 10
18.517781983
 20
2.9364593988
 30
0.0
 11
12.9290124742
 21
2.9364593988
 31
0.0
  0
LINE
  5
D4
330
63
100
AcDbEntity
  8
0
  6
Continuous
 62
     7
370
    18
100
AcDbLine
 10
12.9290124742
 20
2.9364593988
 30
0.0
 11
12.9290124742
 21
16.1712617198
 31
0.0
  0
LINE
  5
D5
330
63
100
AcDbEntity
  8
0
  6
Continuous
 62
     7
370
    18
100
AcDbLine
 10
12.9290124742
 20
16.1712617198
 30
0.0
 11
18.517781983
 21
16.1712617198
 31
0.0
  0
INSERT
  5
DB
330
63
100
AcDbEntity
  8
0
  6
Continuous
 62
     7
370
     0
100
AcDbBlockReference
  2
SW_NOTE_0
 10
1.8998941161
 20
-0.3226565443
 30
0.0
  0
INSERT
  5
E0
330
63
100
AcDbEntity
  8
0
  6
Continuous
 62
     7
370
     0
100
AcDbBlockReference
  2
SW_NOTE_0_1
 10
29.1164837035
 20
12.7459167441
 30
0.0
  0
INSERT
  5
E8
330
63
100
AcDbEntity
  8
0
  6
Continuous
 62
     7
370
     0
100
AcDbBlockReference
  2
SW_NOTE_0_2
 10
28.8863479825
 20
8.6365742194
 30
0.0
  0
ENDBLK
  5
65
330
63
100
AcDbEntity
  8
0
100
AcDbBlockEnd
  0
BLOCK
  5
D7
330
D6
100
AcDbEntity
  8
0
100
AcDbBlockBegin
  2
SW_NOTE_0
 70
     0
 10
0.0
 20
0.0
 30
0.0
  3
SW_NOTE_0
  1

  0
MTEXT
  5
DA
330
D6
100
AcDbEntity
  8
0
  6
Continuous
 62
     0
370
     0
100
AcDbMText
 10
7.46875
 20
2.5781354795
 30
0.0
 40
2.0
 41
0.0
 71
     2
 72
     1
  1
www.aco.ch
  7
SLDTEXTSTYLE0
 73
     1
 44
1.0
  0
ENDBLK
  5
D8
330
D6
100
AcDbEntity
  8
0
100
AcDbBlockEnd
  0
BLOCK
  5
DD
330
DC
100
AcDbEntity
  8
0
100
AcDbBlockBegin
  2
SW_NOTE_0_1
 70
     0
 10
0.0
 20
0.0
 30
0.0
  3
SW_NOTE_0_1
  1

  0
MTEXT
  5
DF
330
DC
100
AcDbEntity
  8
0
  6
Continuous
 62
     0
370
     0
100
AcDbMText
 10
0.0
 20
3.8672032193
 30
0.0
 40
3.0
 41
0.0
 71
     1
 72
     1
  1
ACO AG
  7
SLDTEXTSTYLE0
 73
     1
 44
1.0
  0
ENDBLK
  5
DE
330
DC
100
AcDbEntity
  8
0
100
AcDbBlockEnd
  0
BLOCK
  5
E2
330
E1
100
AcDbEntity
  8
0
100
AcDbBlockBegin
  2
SW_NOTE_0_2
 70
     0
 10
0.0
 20
0.0
 30
0.0
  3
SW_NOTE_0_2
  1

  0
MTEXT
  5
E4
330
E1
100
AcDbEntity
  8
0
  6
Continuous
 62
     0
370
     0
100
AcDbMText
 10
0.0
 20
2.5781354795
 30
0.0
 40
2.0
 41
0.0
 71
     1
 72
     1
  1
Industrie Kleinzaun
  7
SLDTEXTSTYLE0
 73
     1
 44
1.0
  0
MTEXT
  5
E5
330
E1
100
AcDbEntity
  8
0
  6
Continuous
 62
     0
370
     0
100
AcDbMText
 10
0.0
 20
-0.4218645465
 30
0.0
 40
2.0
 41
0.0
 71
     1
 72
     1
  1
CH-8754 Netstal
  7
SLDTEXTSTYLE0
 73
     1
 44
1.0
  0
MTEXT
  5
E6
330
E1
100
AcDbEntity
  8
0
  6
Continuous
 62
     0
370
     0
100
AcDbMText
 10
0.0
 20
-3.4218645726
 30
0.0
 40
2.0
 41
0.0
 71
     1
 72
     1
  1
Tel. 055 / 645 53 00
  7
SLDTEXTSTYLE0
 73
     1
 44
1.0
  0
MTEXT
  5
E7
330
E1
100
AcDbEntity
  8
0
  6
Continuous
 62
     0
370
     0
100
AcDbMText
 10
0.0
 20
-6.4218645987
 30
0.0
 40
2.0
 41
0.0
 71
     1
 72
     1
  1
E-Mail: aco@aco.ch
  7
SLDTEXTSTYLE0
 73
     1
 44
1.0
  0
ENDBLK
  5
E3
330
E1
100
AcDbEntity
  8
0
100
AcDbBlockEnd
  0
BLOCK
  5
2C2
330
2C1
100
AcDbEntity
  8
0
100
AcDbBlockBegin
  2
_D
 70
     0
 10
0.0
 20
0.0
 30
0.0
  3
_D
  1

  0
SOLID
  5
2C4
330
2C1
100
AcDbEntity
  8
0
  6
Continuous
 62
     7
370
    18
100
AcDbTrace
 10
63.5292403886
 20
237.2090361511
 30
0.0
 11
66.0292403886
 21
236.8340361511
 31
0.0
 12
66.0292403886
 22
237.5840361511
 32
0.0
 13
66.0292403886
 23
237.5840361511
 33
0.0
  0
SOLID
  5
2C5
330
2C1
100
AcDbEntity
  8
0
  6
Continuous
 62
     7
370
    18
100
AcDbTrace
 10
180.0292403886
 20
237.2090361511
 30
0.0
 11
177.5292403886
 21
237.5840361511
 31
0.0
 12
177.5292403886
 22
236.8340361511
 32
0.0
 13
177.5292403886
 23
236.8340361511
 33
0.0
  0
LINE
  5
2C6
330
2C1
100
AcDbEntity
  8
0
  6
Continuous
 62
     7
370
     0
100
AcDbLine
 10
63.5292403886
 20
228.0090361511
 30
0.0
 11
63.5292403886
 21
238.2090361511
 31
0.0
  0
LINE
  5
2C7
330
2C1
100
AcDbEntity
  8
0
  6
Continuous
 62
     7
370
     0
100
AcDbLine
 10
180.0292403886
 20
228.0090361511
 30
0.0
 11
180.0292403886
 21
238.2090361511
 31
0.0
  0
LINE
  5
2C8
330
2C1
100
AcDbEntity
  8
0
  6
Continuous
 62
     7
370
     0
100
AcDbLine
 10
63.5292403886
 20
237.2090361511
 30
0.0
 11
180.0292403886
 21
237.2090361511
 31
0.0
  0
MTEXT
  5
2C9
330
2C1
100
AcDbEntity
  8
0
  6
Continuous
 62
     7
370
    18
100
AcDbMText
 10
115.4959981332
 20
240.6196947206
 30
0.0
 40
2.6458333333
 41
0.0
 71
     1
 72
     1
  1
%%c
  7
SLDTEXTSTYLE0
 73
     1
 44
1.0
  0
MTEXT
  5
2CA
330
2C1
100
AcDbEntity
  8
0
  6
Continuous
 62
     7
370
    18
100
AcDbMText
 10
119.2430371421
 20
240.6196947206
 30
0.0
 40
2.6458333333
 41
0.0
 71
     1
 72
     1
  1
116.5
  7
SLDTEXTSTYLE0
 73
     1
 44
1.0
  0
ENDBLK
  5
2C3
330
2C1
100
AcDbEntity
  8
0
100
AcDbBlockEnd
  0
BLOCK
  5
2CE
330
2CD
100
AcDbEntity
  8
0
100
AcDbBlockBegin
  2
_D_1
 70
     0
 10
0.0
 20
0.0
 30
0.0
  3
_D_1
  1

  0
SOLID
  5
2D0
330
2CD
100
AcDbEntity
  8
0
  6
Continuous
 62
     7
370
    18
100
AcDbTrace
 10
187.0292403886
 20
230.2090361511
 30
0.0
 11
187.4042403886
 21
232.7090361511
 31
0.0
 12
186.6542403886
 22
232.7090361511
 32
0.0
 13
186.6542403886
 23
232.7090361511
 33
0.0
  0
SOLID
  5
2D1
330
2CD
100
AcDbEntity
  8
0
  6
Continuous
 62
     7
370
    18
100
AcDbTrace
 10
187.0292403886
 20
222.7090361511
 30
0.0
 11
186.6542403886
 21
220.2090361511
 31
0.0
 12
187.4042403886
 22
220.2090361511
 32
0.0
 13
187.4042403886
 23
220.2090361511
 33
0.0
  0
LINE
  5
2D2
330
2CD
100
AcDbEntity
  8
0
  6
Continuous
 62
     7
370
     0
100
AcDbLine
 10
177.8292403886
 20
230.2090361511
 30
0.0
 11
188.0292403886
 21
230.2090361511
 31
0.0
  0
LINE
  5
2D3
330
2CD
100
AcDbEntity
  8
0
  6
Continuous
 62
     7
370
     0
100
AcDbLine
 10
180.3292403886
 20
222.7090361511
 30
0.0
 11
188.0292403886
 21
222.7090361511
 31
0.0
  0
LINE
  5
2D4
330
2CD
100
AcDbEntity
  8
0
  6
Continuous
 62
     7
370
     0
100
AcDbLine
 10
187.0292403886
 20
230.2090361511
 30
0.0
 11
187.0292403886
 21
235.2090361511
 31
0.0
  0
LINE
  5
2D5
330
2CD
100
AcDbEntity
  8
0
  6
Continuous
 62
     7
370
     0
100
AcDbLine
 10
187.0292403886
 20
230.2090361511
 30
0.0
 11
187.0292403886
 21
222.7090361511
 31
0.0
  0
LINE
  5
2D6
330
2CD
100
AcDbEntity
  8
0
  6
Continuous
 62
     7
370
     0
100
AcDbLine
 10
187.0292403886
 20
222.7090361511
 30
0.0
 11
187.0292403886
 21
217.7090361511
 31
0.0
  0
MTEXT
  5
2D7
330
2CD
100
AcDbEntity
  8
0
  6
Continuous
 62
     7
370
    18
100
AcDbMText
 10
183.6185818192
 20
224.009190256
 30
0.0
 40
2.6458333333
 41
0.0
 71
     1
 72
     1
  1
7.5
  7
SLDTEXTSTYLE0
 11
-7.044195017643634E-15
 21
1.0
 31
0.0
 73
     1
 44
1.0
  0
ENDBLK
  5
2CF
330
2CD
100
AcDbEntity
  8
0
100
AcDbBlockEnd
  0
ENDSEC
  0
SECTION
  2
ENTITIES
  0
LINE
  5
E9
330
1F
100
AcDbEntity
  8
0
  6
CENTERX2
 62
     7
370
    18
100
AcDbLine
 10
352.6174545849
 20
46.9080238789
 30
0.0
 11
352.6174545849
 21
39.4621586124
 31
0.0
  0
LINE
  5
EA
330
1F
100
AcDbEntity
  8
0
  6
Continuous
 62
     7
370
    18
100
AcDbLine
 10
357.7661698132
 20
46.3720107039
 30
0.0
 11
357.7661698132
 21
39.9353173413
 31
0.0
  0
LINE
  5
EB
330
1F
100
AcDbEntity
  8
0
  6
Continuous
 62
     7
370
    18
100
AcDbLine
 10
364.6059427486
 20
44.7376225767
 30
0.0
 11
364.6059427486
 21
41.5697054685
 31
0.0
  0
LINE
  5
EC
330
1F
100
AcDbEntity
  8
0
  6
Continuous
 62
     7
370
    18
100
AcDbLine
 10
364.6059427486
 20
44.7376225767
 30
0.0
 11
357.7661698132
 21
46.3720107039
 31
0.0
  0
LINE
  5
ED
330
1F
100
AcDbEntity
  8
0
  6
Continuous
 62
     7
370
    18
100
AcDbLine
 10
15.0
 20
198.5
 30
0.0
 11
20.0
 21
198.5
 31
0.0
  0
LINE
  5
EE
330
1F
100
AcDbEntity
  8
0
  6
Continuous
 62
     7
370
    18
100
AcDbLine
 10
12.0
 20
148.5
 30
0.0
 11
0.0
 21
148.5
 31
0.0
  0
LINE
  5
EF
330
1F
100
AcDbEntity
  8
0
  6
Continuous
 62
     7
370
    18
100
AcDbLine
 10
357.7661698132
 20
39.9353173413
 30
0.0
 11
364.6059427486
 21
41.5697054685
 31
0.0
  0
LINE
  5
F0
330
1F
100
AcDbEntity
  8
0
  6
CENTERX2
 62
     7
370
    18
100
AcDbLine
 10
348.6240467841
 20
43.1536640226
 30
0.0
 11
356.6108623857
 21
43.1536640226
 31
0.0
  0
LINE
  5
F1
330
1F
100
AcDbEntity
  8
0
  6
CENTERX2
 62
     7
370
    18
100
AcDbLine
 10
357.1289238876
 20
43.1536640226
 30
0.0
 11
365.6255362296
 21
43.1536640226
 31
0.0
  0
LINE
  5
F2
330
1F
100
AcDbEntity
  8
0
  6
Continuous
 62
     7
370
    18
100
AcDbLine
 10
0.0
 20
0.0
 30
0.0
 11
420.0
 21
0.0
 31
0.0
  0
LINE
  5
F3
330
1F
100
AcDbEntity
  8
0
  6
Continuous
 62
     7
370
    18
100
AcDbLine
 10
0.0
 20
0.0
 30
0.0
 11
0.0
 21
297.0
 31
0.0
  0
LINE
  5
F4
330
1F
100
AcDbEntity
  8
0
  6
Continuous
 62
     7
370
    18
100
AcDbLine
 10
0.0
 20
297.0
 30
0.0
 11
420.0
 21
297.0
 31
0.0
  0
LINE
  5
F5
330
1F
100
AcDbEntity
  8
0
  6
Continuous
 62
     7
370
    18
100
AcDbLine
 10
420.0
 20
0.0
 30
0.0
 11
420.0
 21
297.0
 31
0.0
  0
LINE
  5
F6
330
1F
100
AcDbEntity
  8
0
  6
Continuous
 62
     7
370
    25
100
AcDbLine
 10
228.0
 20
35.0
 30
0.0
 11
410.0
 21
35.0
 31
0.0
  0
LINE
  5
F7
330
1F
100
AcDbEntity
  8
0
  6
Continuous
 62
     7
370
    18
100
AcDbLine
 10
410.0
 20
198.5
 30
0.0
 11
415.0
 21
198.5
 31
0.0
  0
LINE
  5
F8
330
1F
100
AcDbEntity
  8
0
  6
Continuous
 62
     7
370
    18
100
AcDbLine
 10
15.0
 20
148.5
 30
0.0
 11
20.0
 21
148.5
 31
0.0
  0
LINE
  5
F9
330
1F
100
AcDbEntity
  8
0
  6
Continuous
 62
     7
370
    18
100
AcDbLine
 10
228.0
 20
40.0
 30
0.0
 11
296.6
 21
40.0
 31
0.0
  0
LINE
  5
FA
330
1F
100
AcDbEntity
  8
0
  6
Continuous
 62
     7
370
    18
100
AcDbLine
 10
15.0
 20
248.5
 30
0.0
 11
20.0
 21
248.5
 31
0.0
  0
LINE
  5
FB
330
1F
100
AcDbEntity
  8
0
  6
Continuous
 62
     7
370
    35
100
AcDbLine
 10
20.0
 20
287.0
 30
0.0
 11
20.0
 21
10.0
 31
0.0
  0
LINE
  5
FC
330
1F
100
AcDbEntity
  8
0
  6
Continuous
 62
     7
370
    35
100
AcDbLine
 10
410.0
 20
287.0
 30
0.0
 11
20.0
 21
287.0
 31
0.0
  0
LINE
  5
FD
330
1F
100
AcDbEntity
  8
0
  6
Continuous
 62
     7
370
    35
100
AcDbLine
 10
410.0
 20
5.0
 30
0.0
 11
410.0
 21
287.0
 31
0.0
  0
LINE
  5
FE
330
1F
100
AcDbEntity
  8
0
  6
Continuous
 62
     7
370
    35
100
AcDbLine
 10
20.0
 20
10.0
 30
0.0
 11
415.0
 21
10.0
 31
0.0
  0
LINE
  5
FF
330
1F
100
AcDbEntity
  8
0
  6
Continuous
 62
     7
370
    18
100
AcDbLine
 10
410.0
 20
148.5
 30
0.0
 11
415.0
 21
148.5
 31
0.0
  0
LINE
  5
100
330
1F
100
AcDbEntity
  8
0
  6
Continuous
 62
     7
370
    18
100
AcDbLine
 10
228.0
 20
50.0
 30
0.0
 11
296.6
 21
50.0
 31
0.0
  0
LINE
  5
101
330
1F
100
AcDbEntity
  8
0
  6
Continuous
 62
     7
370
    18
100
AcDbLine
 10
15.0
 20
98.5
 30
0.0
 11
20.0
 21
98.5
 31
0.0
  0
LINE
  5
102
330
1F
100
AcDbEntity
  8
0
  6
Continuous
 62
     7
370
    18
100
AcDbLine
 10
296.6
 20
45.0
 30
0.0
 11
228.0
 21
45.0
 31
0.0
  0
LINE
  5
103
330
1F
100
AcDbEntity
  8
0
  6
Continuous
 62
     7
370
    18
100
AcDbLine
 10
65.0
 20
292.0
 30
0.0
 11
65.0
 21
287.0
 31
0.0
  0
LINE
  5
104
330
1F
100
AcDbEntity
  8
0
  6
Continuous
 62
     7
370
    18
100
AcDbLine
 10
230.0
 20
292.0
 30
0.0
 11
230.0
 21
297.0
 31
0.0
  0
LINE
  5
105
330
1F
100
AcDbEntity
  8
0
  6
Continuous
 62
     7
370
    25
100
AcDbLine
 10
296.6
 20
55.0
 30
0.0
 11
296.6
 21
35.0
 31
0.0
  0
LINE
  5
106
330
1F
100
AcDbEntity
  8
0
  6
Continuous
 62
     7
370
    18
100
AcDbLine
 10
410.0
 20
98.5
 30
0.0
 11
415.0
 21
98.5
 31
0.0
  0
LINE
  5
107
330
1F
100
AcDbEntity
  8
0
100
AcDbLine
 10
230.0
 20
5.0
 30
0.0
 11
230.0
 21
0.0
 31
0.0
  0
LINE
  5
108
330
1F
100
AcDbEntity
  8
0
  6
Continuous
 62
     7
370
    18
100
AcDbLine
 10
125.0
 20
292.0
 30
0.0
 11
125.0
 21
297.0
 31
0.0
  0
LINE
  5
109
330
1F
100
AcDbEntity
  8
0
  6
Continuous
 62
     7
370
    18
100
AcDbLine
 10
125.0
 20
5.0
 30
0.0
 11
125.0
 21
0.0
 31
0.0
  0
LINE
  5
10A
330
1F
100
AcDbEntity
  8
0
  6
Continuous
 62
     7
370
    25
100
AcDbLine
 10
410.0
 20
55.0
 30
0.0
 11
228.0
 21
55.0
 31
0.0
  0
LINE
  5
10B
330
1F
100
AcDbEntity
  8
0
  6
Continuous
 62
     7
370
    18
100
AcDbLine
 10
228.0
 20
55.0
 30
0.0
 11
410.0
 21
55.0
 31
0.0
  0
LINE
  5
10C
330
1F
100
AcDbEntity
  8
0
  6
Continuous
 62
     7
370
    18
100
AcDbLine
 10
410.0
 20
55.0
 30
0.0
 11
228.0
 21
55.0
 31
0.0
  0
LINE
  5
10D
330
1F
100
AcDbEntity
  8
0
  6
Continuous
 62
     7
370
    18
100
AcDbLine
 10
268.0
 20
76.5
 30
0.0
 11
268.0
 21
55.0
 31
0.0
  0
LINE
  5
10E
330
1F
100
AcDbEntity
  8
0
  6
Continuous
 62
     7
370
    18
100
AcDbLine
 10
271.6
 20
55.0
 30
0.0
 11
271.6
 21
40.0
 31
0.0
  0
LINE
  5
10F
330
1F
100
AcDbEntity
  8
0
  6
Continuous
 62
     7
370
    18
100
AcDbLine
 10
247.0
 20
55.0
 30
0.0
 11
247.0
 21
35.0
 31
0.0
  0
LINE
  5
110
330
1F
100
AcDbEntity
  8
0
  6
Continuous
 62
     7
370
    35
100
AcDbLine
 10
228.0
 20
76.5
 30
0.0
 11
228.0
 21
10.0
 31
0.0
  0
LINE
  5
111
330
1F
100
AcDbEntity
  8
0
  6
Continuous
 62
     7
370
    18
100
AcDbLine
 10
15.0
 20
292.0
 30
0.0
 11
415.0
 21
292.0
 31
0.0
  0
LINE
  5
112
330
1F
100
AcDbEntity
  8
0
  6
Continuous
 62
     7
370
    18
100
AcDbLine
 10
228.0
 20
65.75
 30
0.0
 11
310.0
 21
65.75
 31
0.0
  0
LINE
  5
113
330
1F
100
AcDbEntity
  8
0
  6
Continuous
 62
     7
370
    35
100
AcDbLine
 10
228.0
 20
76.5
 30
0.0
 11
410.0
 21
76.5
 31
0.0
  0
LINE
  5
114
330
1F
100
AcDbEntity
  8
0
  6
Continuous
 62
     7
370
    18
100
AcDbLine
 10
15.0
 20
48.5
 30
0.0
 11
20.0
 21
48.5
 31
0.0
  0
LINE
  5
115
330
1F
100
AcDbEntity
  8
0
  6
Continuous
 62
     7
370
    18
100
AcDbLine
 10
410.0
 20
48.5
 30
0.0
 11
415.0
 21
48.5
 31
0.0
  0
LINE
  5
116
330
1F
100
AcDbEntity
  8
0
  6
Continuous
 62
     7
370
    18
100
AcDbLine
 10
332.6610845472
 20
20.0
 30
0.0
 11
332.6610845472
 21
10.0
 31
0.0
  0
LINE
  5
117
330
1F
100
AcDbEntity
  8
0
  6
Continuous
 62
     7
370
    18
100
AcDbLine
 10
410.0
 20
248.5
 30
0.0
 11
415.0
 21
248.5
 31
0.0
  0
LINE
  5
118
330
1F
100
AcDbEntity
  8
0
  6
Continuous
 62
     7
370
    18
100
AcDbLine
 10
65.0
 20
10.0
 30
0.0
 11
65.0
 21
5.0
 31
0.0
  0
LINE
  5
119
330
1F
100
AcDbEntity
  8
0
  6
Continuous
 62
     7
370
    18
100
AcDbLine
 10
115.0
 20
10.0
 30
0.0
 11
115.0
 21
5.0
 31
0.0
  0
LINE
  5
11A
330
1F
100
AcDbEntity
  8
0
  6
Continuous
 62
     7
370
    18
100
AcDbLine
 10
115.0
 20
292.0
 30
0.0
 11
115.0
 21
287.0
 31
0.0
  0
LINE
  5
11B
330
1F
100
AcDbEntity
  8
0
  6
Continuous
 62
     7
370
    18
100
AcDbLine
 10
165.0
 20
10.0
 30
0.0
 11
165.0
 21
5.0
 31
0.0
  0
LINE
  5
11C
330
1F
100
AcDbEntity
  8
0
  6
Continuous
 62
     7
370
    18
100
AcDbLine
 10
165.0
 20
292.0
 30
0.0
 11
165.0
 21
287.0
 31
0.0
  0
LINE
  5
11D
330
1F
100
AcDbEntity
  8
0
  6
Continuous
 62
     7
370
    18
100
AcDbLine
 10
215.0
 20
10.0
 30
0.0
 11
215.0
 21
5.0
 31
0.0
  0
LINE
  5
11E
330
1F
100
AcDbEntity
  8
0
  6
Continuous
 62
     7
370
    18
100
AcDbLine
 10
215.0
 20
292.0
 30
0.0
 11
215.0
 21
287.0
 31
0.0
  0
LINE
  5
11F
330
1F
100
AcDbEntity
  8
0
  6
Continuous
 62
     7
370
    18
100
AcDbLine
 10
265.0
 20
10.0
 30
0.0
 11
265.0
 21
5.0
 31
0.0
  0
LINE
  5
120
330
1F
100
AcDbEntity
  8
0
  6
Continuous
 62
     7
370
    18
100
AcDbLine
 10
265.0
 20
292.0
 30
0.0
 11
265.0
 21
287.0
 31
0.0
  0
LINE
  5
121
330
1F
100
AcDbEntity
  8
0
  6
Continuous
 62
     7
370
    18
100
AcDbLine
 10
347.6610845472
 20
20.0
 30
0.0
 11
347.6610845472
 21
10.0
 31
0.0
  0
LINE
  5
122
330
1F
100
AcDbEntity
  8
0
  6
Continuous
 62
     7
370
    18
100
AcDbLine
 10
362.6610845472
 20
20.0
 30
0.0
 11
362.6610845472
 21
10.0
 31
0.0
  0
LINE
  5
123
330
1F
100
AcDbEntity
  8
0
  6
Continuous
 62
     7
370
    25
100
AcDbLine
 10
327.6610845472
 20
10.0
 30
0.0
 11
327.6610845472
 21
55.0
 31
0.0
  0
LINE
  5
124
330
1F
100
AcDbEntity
  8
0
  6
Continuous
 62
     7
370
    18
100
AcDbLine
 10
20.0
 20
292.0
 30
0.0
 11
20.0
 21
297.0
 31
0.0
  0
LINE
  5
125
330
1F
100
AcDbEntity
  8
0
  6
Continuous
 62
     7
370
    18
100
AcDbLine
 10
20.0
 20
5.0
 30
0.0
 11
20.0
 21
0.0
 31
0.0
  0
LINE
  5
126
330
1F
100
AcDbEntity
  8
0
  6
Continuous
 62
     7
370
    18
100
AcDbLine
 10
315.0
 20
10.0
 30
0.0
 11
315.0
 21
5.0
 31
0.0
  0
LINE
  5
127
330
1F
100
AcDbEntity
  8
0
  6
Continuous
 62
     7
370
    18
100
AcDbLine
 10
315.0
 20
292.0
 30
0.0
 11
315.0
 21
287.0
 31
0.0
  0
LINE
  5
128
330
1F
100
AcDbEntity
  8
0
  6
Continuous
 62
     7
370
    18
100
AcDbLine
 10
365.0
 20
10.0
 30
0.0
 11
365.0
 21
5.0
 31
0.0
  0
LINE
  5
129
330
1F
100
AcDbEntity
  8
0
  6
Continuous
 62
     7
370
    18
100
AcDbLine
 10
365.0
 20
292.0
 30
0.0
 11
365.0
 21
287.0
 31
0.0
  0
LINE
  5
12A
330
1F
100
AcDbEntity
  8
0
  6
Continuous
 62
     7
370
    18
100
AcDbLine
 10
15.0
 20
292.0
 30
0.0
 11
15.0
 21
5.0
 31
0.0
  0
LINE
  5
12B
330
1F
100
AcDbEntity
  8
0
  6
Continuous
 62
     7
370
    18
100
AcDbLine
 10
15.0
 20
5.0
 30
0.0
 11
415.0
 21
5.0
 31
0.0
  0
LINE
  5
12C
330
1F
100
AcDbEntity
  8
0
  6
Continuous
 62
     7
370
    18
100
AcDbLine
 10
415.0
 20
292.0
 30
0.0
 11
415.0
 21
5.0
 31
0.0
  0
LINE
  5
12D
330
1F
100
AcDbEntity
  8
0
  6
Continuous
 62
     7
370
    18
100
AcDbLine
 10
347.6610845472
 20
44.213444
 30
0.0
 11
327.6610845472
 21
44.213444
 31
0.0
  0
LINE
  5
12E
330
1F
100
AcDbEntity
  8
0
  6
Continuous
 62
     7
370
    18
100
AcDbLine
 10
347.6610845472
 20
35.0
 30
0.0
 11
347.6610845472
 21
55.0
 31
0.0
  0
LINE
  5
12F
330
1F
100
AcDbEntity
  8
0
  6
Continuous
 62
     7
370
    18
100
AcDbLine
 10
370.057188
 20
55.012032
 30
0.0
 11
370.057188
 21
35.0
 31
0.0
  0
LINE
  5
130
330
1F
100
AcDbEntity
  8
0
  6
Continuous
 62
     7
370
    18
100
AcDbLine
 10
398.0
 20
35.0
 30
0.0
 11
398.0
 21
20.0
 31
0.0
  0
LINE
  5
131
330
1F
100
AcDbEntity
  8
0
  6
Continuous
 62
     7
370
    18
100
AcDbLine
 10
410.0
 20
15.0
 30
0.0
 11
327.6610845472
 21
15.0
 31
0.0
  0
LINE
  5
132
330
1F
100
AcDbEntity
  8
0
  6
Continuous
 62
     7
370
    18
100
AcDbLine
 10
327.6610845472
 20
20.0
 30
0.0
 11
410.0
 21
20.0
 31
0.0
  0
LINE
  5
133
330
1F
100
AcDbEntity
  8
0
  6
Continuous
 62
     7
370
    18
100
AcDbLine
 10
341.485486
 20
20.0
 30
0.0
 11
341.485486
 21
27.564675
 31
0.0
  0
LINE
  5
134
330
1F
100
AcDbEntity
  8
0
  6
Continuous
 62
     7
370
    25
100
AcDbLine
 10
310.0
 20
76.5
 30
0.0
 11
310.0
 21
55.0
 31
0.0
  0
CIRCLE
  5
135
330
1F
100
AcDbEntity
  8
0
  6
Continuous
 62
     7
370
    18
100
AcDbCircle
 10
11.0
 20
108.5
 30
0.0
 40
2.750000000000001
  0
CIRCLE
  5
136
330
1F
100
AcDbEntity
  8
0
  6
Continuous
 62
     7
370
    18
100
AcDbCircle
 10
11.0
 20
188.5
 30
0.0
 40
2.750000000000001
  0
CIRCLE
  5
137
330
1F
100
AcDbEntity
  8
0
  6
Continuous
 62
     7
370
    18
100
AcDbCircle
 10
352.6174545849
 20
43.1536640226
 30
0.0
 40
3.218346681300138
  0
CIRCLE
  5
138
330
1F
100
AcDbEntity
  8
0
  6
Continuous
 62
     7
370
    18
100
AcDbCircle
 10
352.6174545849
 20
43.1536640226
 30
0.0
 40
1.583958554121555
  0
INSERT
  5
139
330
1F
100
AcDbEntity
  8
0
  6
Continuous
 62
     7
100
AcDbBlockReference
  2
ACO-Logo
 10
314.3510726297
 20
57.6366106772
 30
0.0
  0
POINT
  5
13A
330
1F
100
AcDbEntity
  8
0
100
AcDbPoint
 10
0.0
 20
0.0
 30
0.0
  0
POINT
  5
13B
330
1F
100
AcDbEntity
  8
0
100
AcDbPoint
 10
410.0
 20
10.0
 30
0.0
  0
MTEXT
  5
13C
330
1F
100
AcDbEntity
  8
0
  6
Continuous
 62
     7
370
    18
100
AcDbMText
 10
17.7359443114
 20
124.8017866468
 30
0.0
 40
2.0
 41
0.0
 71
     2
 72
     1
  1
D
  7
SLDTEXTSTYLE0
 73
     1
 44
1.0
  0
MTEXT
  5
13D
330
1F
100
AcDbEntity
  8
0
  6
Continuous
 62
     7
370
    18
100
AcDbMText
 10
17.6274822413
 20
174.7261854936
 30
0.0
 40
2.0
 41
0.0
 71
     2
 72
     1
  1
C
  7
SLDTEXTSTYLE0
 73
     1
 44
1.0
  0
MTEXT
  5
13E
330
1F
100
AcDbEntity
  8
0
  6
Continuous
 62
     7
370
    18
100
AcDbMText
 10
17.5516905072
 20
224.4926420442
 30
0.0
 40
2.0
 41
0.0
 71
     2
 72
     1
  1
B
  7
SLDTEXTSTYLE0
 73
     1
 44
1.0
  0
MTEXT
  5
13F
330
1F
100
AcDbEntity
  8
0
  6
Continuous
 62
     7
370
    18
100
AcDbMText
 10
290.0344258799
 20
290.5428789914
 30
0.0
 40
2.0
 41
0.0
 71
     2
 72
     1
  1
6
  7
SLDTEXTSTYLE0
 73
     1
 44
1.0
  0
MTEXT
  5
140
330
1F
100
AcDbEntity
  8
0
  6
Continuous
 62
     7
370
    18
100
AcDbMText
 10
240.0417859812
 20
290.6369260235
 30
0.0
 40
2.0
 41
0.0
 71
     2
 72
     1
  1
5
  7
SLDTEXTSTYLE0
 73
     1
 44
1.0
  0
MTEXT
  5
141
330
1F
100
AcDbEntity
  8
0
  6
Continuous
 62
     7
370
    18
100
AcDbMText
 10
190.0300404524
 20
290.6343268032
 30
0.0
 40
2.0
 41
0.0
 71
     2
 72
     1
  1
4
  7
SLDTEXTSTYLE0
 73
     1
 44
1.0
  0
MTEXT
  5
142
330
1F
100
AcDbEntity
  8
0
  6
Continuous
 62
     7
370
    18
100
AcDbMText
 10
140.0165868337
 20
290.6378887952
 30
0.0
 40
2.0
 41
0.0
 71
     2
 72
     1
  1
3
  7
SLDTEXTSTYLE0
 73
     1
 44
1.0
  0
MTEXT
  5
143
330
1F
100
AcDbEntity
  8
0
  6
Continuous
 62
     7
370
    18
100
AcDbMText
 10
90.033223
 20
290.5566702875
 30
0.0
 40
2.0
 41
0.0
 71
     2
 72
     1
  1
2
  7
SLDTEXTSTYLE0
 73
     1
 44
1.0
  0
MTEXT
  5
144
330
1F
100
AcDbEntity
  8
0
  6
Continuous
 62
     7
370
    18
100
AcDbMText
 10
40.0509551097
 20
290.5530165805
 30
0.0
 40
2.0
 41
0.0
 71
     2
 72
     1
  1
1
  7
SLDTEXTSTYLE0
 73
     1
 44
1.0
  0
MTEXT
  5
145
330
1F
100
AcDbEntity
  8
0
  6
Continuous
 62
     7
370
    18
100
AcDbMText
 10
17.5609786315
 20
271.2966048816
 30
0.0
 40
2.0
 41
0.0
 71
     2
 72
     1
  1
A
  7
SLDTEXTSTYLE0
 73
     1
 44
1.0
  0
MTEXT
  5
146
330
1F
100
AcDbEntity
  8
0
  6
Continuous
 62
     7
370
    18
100
AcDbMText
 10
89.9333968896
 20
8.5904490253
 30
0.0
 40
2.0
 41
0.0
 71
     2
 72
     1
  1
2
  7
SLDTEXTSTYLE0
 73
     1
 44
1.0
  0
MTEXT
  5
147
330
1F
100
AcDbEntity
  8
0
  6
Continuous
 62
     7
370
    18
100
AcDbMText
 10
39.9009486579
 20
8.6623118453
 30
0.0
 40
2.0
 41
0.0
 71
     2
 72
     1
  1
1
  7
SLDTEXTSTYLE0
 73
     1
 44
1.0
  0
MTEXT
  5
148
330
1F
100
AcDbEntity
  8
0
  6
Continuous
 62
     7
370
    18
100
AcDbMText
 10
190.0227230239
 20
8.7073169286
 30
0.0
 40
2.0
 41
0.0
 71
     2
 72
     1
  1
4
  7
SLDTEXTSTYLE0
 73
     1
 44
1.0
  0
MTEXT
  5
149
330
1F
100
AcDbEntity
  8
0
  6
Continuous
 62
     7
370
    18
100
AcDbMText
 10
140.0453427777
 20
8.5647154541
 30
0.0
 40
2.0
 41
0.0
 71
     2
 72
     1
  1
3
  7
SLDTEXTSTYLE0
 73
     1
 44
1.0
  0
MTEXT
  5
14A
330
1F
100
AcDbEntity
  8
0
  6
Continuous
 62
     7
370
    18
100
AcDbMText
 10
239.8749782531
 20
8.5637526825
 30
0.0
 40
2.0
 41
0.0
 71
     2
 72
     1
  1
5
  7
SLDTEXTSTYLE0
 73
     1
 44
1.0
  0
MTEXT
  5
14B
330
1F
100
AcDbEntity
  8
0
  6
Continuous
 62
     7
370
    18
100
AcDbMText
 10
412.6717254925
 20
224.51208263
 30
0.0
 40
2.0
 41
0.0
 71
     2
 72
     1
  1
B
  7
SLDTEXTSTYLE0
 73
     1
 44
1.0
  0
MTEXT
  5
14C
330
1F
100
AcDbEntity
  8
0
  6
Continuous
 62
     7
370
    18
100
AcDbMText
 10
412.5951211154
 20
271.2798202564
 30
0.0
 40
2.0
 41
0.0
 71
     2
 72
     1
  1
A
  7
SLDTEXTSTYLE0
 73
     1
 44
1.0
  0
MTEXT
  5
14D
330
1F
100
AcDbEntity
  8
0
  6
Continuous
 62
     7
370
    18
100
AcDbMText
 10
412.6491448679
 20
174.7279841048
 30
0.0
 40
2.0
 41
0.0
 71
     2
 72
     1
  1
C
  7
SLDTEXTSTYLE0
 73
     1
 44
1.0
  0
MTEXT
  5
14E
330
1F
100
AcDbEntity
  8
0
  6
Continuous
 62
     7
370
    18
100
AcDbMText
 10
340.0216466634
 20
290.5954278102
 30
0.0
 40
2.0
 41
0.0
 71
     2
 72
     1
  1
7
  7
SLDTEXTSTYLE0
 73
     1
 44
1.0
  0
MTEXT
  5
14F
330
1F
100
AcDbEntity
  8
0
  6
Continuous
 62
     7
370
    18
100
AcDbMText
 10
390.037657264
 20
290.6215496941
 30
0.0
 40
2.0
 41
0.0
 71
     2
 72
     1
  1
8
  7
SLDTEXTSTYLE0
 73
     1
 44
1.0
  0
MTEXT
  5
150
330
1F
100
AcDbEntity
  8
0
  6
Continuous
 62
     7
370
    18
100
AcDbMText
 10
17.6897935208
 20
74.7267628143
 30
0.0
 40
2.0
 41
0.0
 71
     2
 72
     1
  1
E
  7
SLDTEXTSTYLE0
 73
     1
 44
1.0
  0
MTEXT
  5
151
330
1F
100
AcDbEntity
  8
0
  6
Continuous
 62
     7
370
    18
100
AcDbMText
 10
17.5936930126
 20
27.773321616
 30
0.0
 40
2.0
 41
0.0
 71
     2
 72
     1
  1
F
  7
SLDTEXTSTYLE0
 73
     1
 44
1.0
  0
MTEXT
  5
152
330
1F
100
AcDbEntity
  8
0
  6
Continuous
 62
     7
370
    18
100
AcDbMText
 10
339.8003474583
 20
8.7205095051
 30
0.0
 40
2.0
 41
0.0
 71
     2
 72
     1
  1
7
  7
SLDTEXTSTYLE0
 73
     1
 44
1.0
  0
MTEXT
  5
153
330
1F
100
AcDbEntity
  8
0
  6
Continuous
 62
     7
370
    18
100
AcDbMText
 10
289.7886477179
 20
8.6884673623
 30
0.0
 40
2.0
 41
0.0
 71
     2
 72
     1
  1
6
  7
SLDTEXTSTYLE0
 73
     1
 44
1.0
  0
MTEXT
  5
154
330
1F
100
AcDbEntity
  8
0
  6
Continuous
 62
     7
370
    18
100
AcDbMText
 10
412.5160699095
 20
74.5096307526
 30
0.0
 40
2.0
 41
0.0
 71
     2
 72
     1
  1
E
  7
SLDTEXTSTYLE0
 73
     1
 44
1.0
  0
MTEXT
  5
155
330
1F
100
AcDbEntity
  8
0
  6
Continuous
 62
     7
370
    18
100
AcDbMText
 10
412.6234021365
 20
124.4517683275
 30
0.0
 40
2.0
 41
0.0
 71
     2
 72
     1
  1
D
  7
SLDTEXTSTYLE0
 73
     1
 44
1.0
  0
MTEXT
  5
156
330
1F
100
AcDbEntity
  8
0
  6
Continuous
 62
     7
370
    18
100
AcDbMText
 10
411.7952690469
 20
41.8539133846
 30
0.0
 40
1.8
 41
0.0
 71
     3
 72
     1
  1
Plotdatum: 06.10.2025
  7
SLDTEXTSTYLE0
 11
-3.269436733918102E-15
 21
1.0
 31
0.0
 73
     1
 44
1.0
  0
MTEXT
  5
157
330
1F
100
AcDbEntity
  8
0
  6
Continuous
 62
     7
370
    18
100
AcDbMText
 10
412.557933251
 20
8.2549718046
 30
0.0
 40
1.8
 41
0.0
 71
     2
 72
     1
  1
A3
  7
SLDTEXTSTYLE0
 73
     1
 44
1.0
  0
MTEXT
  5
158
330
1F
100
AcDbEntity
  8
0
  6
Continuous
 62
     7
370
    18
100
AcDbMText
 10
390.594604279
 20
8.3847467643
 30
0.0
 40
1.8
 41
0.0
 71
     2
 72
     1
  1
CAD-System: SolidWorks
  7
SLDTEXTSTYLE0
 73
     1
 44
1.0
  0
MTEXT
  5
159
330
1F
100
AcDbEntity
  8
0
  6
Continuous
 62
     7
370
    18
100
AcDbMText
 10
404.0541923444
 20
28.4394692021
 30
0.0
 40
5.0
 41
0.0
 71
     2
 72
     1
  1
-
  7
SLDTEXTSTYLE0
 73
     1
 44
1.0
  0
MTEXT
  5
15A
330
1F
100
AcDbEntity
  8
0
  6
Continuous
 62
     7
370
    18
100
AcDbMText
 10
249.556836311
 20
38.5581729516
 30
0.0
 40
2.0
 41
0.0
 71
     1
 72
     1
  1
Freigegeben
  7
SLDTEXTSTYLE0
 73
     1
 44
1.0
  0
MTEXT
  5
15B
330
1F
100
AcDbEntity
  8
0
  6
Continuous
 62
     7
370
    18
100
AcDbMText
 10
284.1136255556
 20
43.5473338598
 30
0.0
 40
2.0
 41
0.0
 71
     2
 72
     1
  1
bae
  7
SLDTEXTSTYLE0
 73
     1
 44
1.0
  0
MTEXT
  5
15C
330
1F
100
AcDbEntity
  8
0
  6
Continuous
 62
     7
370
    18
100
AcDbMText
 10
249.5284668163
 20
43.5603133928
 30
0.0
 40
2.0
 41
0.0
 71
     1
 72
     1
  1
06.10.2025
  7
SLDTEXTSTYLE0
 73
     1
 44
1.0
  0
MTEXT
  5
15D
330
1F
100
AcDbEntity
  8
0
  6
Continuous
 62
     7
370
    18
100
AcDbMText
 10
284.1413255212
 20
48.5138972561
 30
0.0
 40
2.0
 41
0.0
 71
     2
 72
     1
  1
bae
  7
SLDTEXTSTYLE0
 73
     1
 44
1.0
  0
MTEXT
  5
15E
330
1F
100
AcDbEntity
  8
0
  6
Continuous
 62
     7
370
    18
100
AcDbMText
 10
249.5284668163
 20
48.4989062069
 30
0.0
 40
2.0
 41
0.0
 71
     1
 72
     1
  1
03.10.2025
  7
SLDTEXTSTYLE0
 73
     1
 44
1.0
  0
MTEXT
  5
15F
330
1F
100
AcDbEntity
  8
0
  6
Continuous
 62
     7
370
     0
100
AcDbMText
 10
372.2007348103
 20
38.8723054925
 30
0.0
 40
1.5
 41
0.0
 71
     1
 72
     1
  1
Copyright reserved! © ACO AG
  7
SLDTEXTSTYLE0
 73
     1
 44
1.0
  0
MTEXT
  5
160
330
1F
100
AcDbEntity
  8
0
  6
Continuous
 62
     7
370
     0
100
AcDbMText
 10
372.2203831445
 20
53.1538938951
 30
0.0
 40
1.5
 41
0.0
 71
     1
 72
     1
  1
Diese Zeichnung darf weder kopiert^Jnoch dritten Personen, insbesondere^Jzum Zweck anderweitiger Benutzung^Jmitgeteilt werden und bleibt unser^JEigentum.
  7
SLDTEXTSTYLE0
 73
     1
 44
1.0
  0
MTEXT
  5
161
330
1F
100
AcDbEntity
  8
0
  6
Continuous
 62
     7
370
    18
100
AcDbMText
 10
364.9468572407
 20
18.4594173137
 30
0.0
 40
2.0
 41
0.0
 71
     1
 72
     1
  1
Erstausgabe
  7
SLDTEXTSTYLE0
 73
     1
 44
1.0
  0
MTEXT
  5
162
330
1F
100
AcDbEntity
  8
0
  6
Continuous
 62
     7
370
    18
100
AcDbMText
 10
330.2607505021
 20
18.524501801
 30
0.0
 40
2.0
 41
0.0
 71
     2
 72
     1
  1
-
  7
SLDTEXTSTYLE0
 73
     1
 44
1.0
  0
MTEXT
  5
163
330
1F
100
AcDbEntity
  8
0
  6
Continuous
 62
     7
370
    18
100
AcDbMText
 10
311.764909851
 20
46.3490312465
 30
0.0
 40
5.0
 41
0.0
 71
     2
 72
     1
  1
1:1
  7
SLDTEXTSTYLE0
 73
     1
 44
1.0
  0
MTEXT
  5
164
330
1F
100
AcDbEntity
  8
0
  6
Continuous
 62
     7
370
    18
100
AcDbMText
 10
230.1851195342
 20
38.7793829468
 30
0.0
 40
2.0
 41
0.0
 71
     1
 72
     1
  1
Status:
  7
SLDTEXTSTYLE0
 73
     1
 44
1.0
  0
MTEXT
  5
165
330
1F
100
AcDbEntity
  8
0
  6
Continuous
 62
     7
370
    18
100
AcDbMText
 10
344.926838705
 20
28.2772828851
 30
0.0
 40
5.0
 41
0.0
 71
     1
 72
     1
  1
2023206
  7
SLDTEXTSTYLE0
 73
     1
 44
1.0
  0
MTEXT
  5
166
330
1F
100
AcDbEntity
  8
0
  6
Continuous
 62
     7
370
    18
100
AcDbMText
 10
231.1132118803
 20
14.9211049657
 30
0.0
 40
2.5
 41
0.0
 71
     1
 72
     1
  1
Art. Nr.: 2023206
  7
SLDTEXTSTYLE0
 73
     1
 44
1.0
  0
MTEXT
  5
167
330
1F
100
AcDbEntity
  8
0
  6
Continuous
 62
     7
370
    18
100
AcDbMText
 10
231.1475981734
 20
21.4529560996
 30
0.0
 40
2.5
 41
0.0
 71
     1
 72
     1
  1
zu Dachablauf
  7
SLDTEXTSTYLE0
 73
     1
 44
1.0
  0
MTEXT
  5
168
330
1F
100
AcDbEntity
  8
0
  6
Continuous
 62
     7
370
    18
100
AcDbMText
 10
231.1159560181
 20
33.0904969858
 30
0.0
 40
2.5
 41
0.0
 71
     1
 72
     1
  1
ACO-Standard
  7
SLDTEXTSTYLE0
 73
     1
 44
1.0
  0
MTEXT
  5
169
330
1F
100
AcDbEntity
  8
0
  6
Continuous
 62
     7
370
    18
100
AcDbMText
 10
231.1475981734
 20
28.0307932366
 30
0.0
 40
3.5
 41
0.0
 71
     1
 72
     1
  1
Rost 117x117  für DN70
  7
SLDTEXTSTYLE0
 73
     1
 44
1.0
  0
MTEXT
  5
16A
330
1F
100
AcDbEntity
  8
0
  6
Continuous
 62
     7
370
    18
100
AcDbMText
 10
348.2746465368
 20
53.819119072
 30
0.0
 40
2.0
 41
0.0
 71
     1
 72
     1
  1
Projektion: ISO-E
  7
SLDTEXTSTYLE0
 73
     1
 44
1.0
  0
MTEXT
  5
16B
330
1F
100
AcDbEntity
  8
0
  6
Continuous
 62
     7
370
    18
100
AcDbMText
 10
337.7677091855
 20
49.3670227094
 30
0.0
 40
2.5
 41
0.0
 71
     2
 72
     1
  1
Millimeter
  7
SLDTEXTSTYLE0
 73
     1
 44
1.0
  0
MTEXT
  5
16C
330
1F
100
AcDbEntity
  8
0
  6
Continuous
 62
     7
370
    18
100
AcDbMText
 10
337.6323777421
 20
53.855374072
 30
0.0
 40
2.0
 41
0.0
 71
     2
 72
     1
  1
Masseinheit:
  7
SLDTEXTSTYLE0
 73
     1
 44
1.0
  0
MTEXT
  5
16D
330
1F
100
AcDbEntity
  8
0
  6
Continuous
 62
     7
370
    18
100
AcDbMText
 10
337.6114490186
 20
43.5452078816
 30
0.0
 40
2.0
 41
0.0
 71
     2
 72
     1
  1
Blatt / Anz.:
  7
SLDTEXTSTYLE0
 73
     1
 44
1.0
  0
MTEXT
  5
16E
330
1F
100
AcDbEntity
  8
0
  6
Continuous
 62
     7
370
    18
100
AcDbMText
 10
329.2895578243
 20
28.4139191092
 30
0.0
 40
5.0
 41
0.0
 71
     1
 72
     1
  1
CH
  7
SLDTEXTSTYLE0
 73
     1
 44
1.0
  0
MTEXT
  5
16F
330
1F
100
AcDbEntity
  8
0
  6
Continuous
 62
     7
370
    18
100
AcDbMText
 10
330.40704
 20
33.692638072
 30
0.0
 40
2.0
 41
0.0
 71
     1
 72
     1
  1
Zeichnung Nr.:
  7
SLDTEXTSTYLE0
 73
     1
 44
1.0
  0
MTEXT
  5
170
330
1F
100
AcDbEntity
  8
0
  6
Continuous
 62
     7
370
    18
100
AcDbMText
 10
269.897953
 20
75.161075072
 30
0.0
 40
2.0
 41
0.0
 71
     1
 72
     1
  1
Gewicht:
  7
SLDTEXTSTYLE0
 73
     1
 44
1.0
  0
MTEXT
  5
171
330
1F
100
AcDbEntity
  8
0
  6
Continuous
 62
     7
370
    18
100
AcDbMText
 10
230.0
 20
64.542328072
 30
0.0
 40
2.0
 41
0.0
 71
     1
 72
     1
  1
zul. Abweichung:
  7
SLDTEXTSTYLE0
 73
     1
 44
1.0
  0
MTEXT
  5
172
330
1F
100
AcDbEntity
  8
0
  6
Continuous
 62
     7
370
    18
100
AcDbMText
 10
269.612607
 20
64.542328072
 30
0.0
 40
2.0
 41
0.0
 71
     1
 72
     1
  1
Oberfläche:
  7
SLDTEXTSTYLE0
 73
     1
 44
1.0
  0
MTEXT
  5
173
330
1F
100
AcDbEntity
  8
0
  6
Continuous
 62
     7
370
    18
100
AcDbMText
 10
230.261411
 20
43.4433838912
 30
0.0
 40
2.0
 41
0.0
 71
     1
 72
     1
  1
Freigegeben:
  7
SLDTEXTSTYLE0
 73
     1
 44
1.0
  0
MTEXT
  5
174
330
1F
100
AcDbEntity
  8
0
  6
Continuous
 62
     7
370
    18
100
AcDbMText
 10
230.0
 20
75.161075072
 30
0.0
 40
2.0
 41
0.0
 71
     1
 72
     1
  1
Werkstoff:
  7
SLDTEXTSTYLE0
 73
     1
 44
1.0
  0
MTEXT
  5
175
330
1F
100
AcDbEntity
  8
0
  6
Continuous
 62
     7
370
    18
100
AcDbMText
 10
254.035545
 20
53.129475072
 30
0.0
 40
2.0
 41
0.0
 71
     1
 72
     1
  1
Datum:
  7
SLDTEXTSTYLE0
 73
     1
 44
1.0
  0
MTEXT
  5
176
330
1F
100
AcDbEntity
  8
0
  6
Continuous
 62
     7
370
    18
100
AcDbMText
 10
279.934928
 20
53.136060072
 30
0.0
 40
2.0
 41
0.0
 71
     1
 72
     1
  1
Name:
  7
SLDTEXTSTYLE0
 73
     1
 44
1.0
  0
MTEXT
  5
177
330
1F
100
AcDbEntity
  8
0
  6
Continuous
 62
     7
370
    18
100
AcDbMText
 10
312.162455406
 20
53.881591072
 30
0.0
 40
2.0
 41
0.0
 71
     2
 72
     1
  1
Massstab:
  7
SLDTEXTSTYLE0
 73
     1
 44
1.0
  0
MTEXT
  5
178
330
1F
100
AcDbEntity
  8
0
  6
Continuous
 62
     7
370
    18
100
AcDbMText
 10
403.9552944035
 20
33.324874072
 30
0.0
 40
2.0
 41
0.0
 71
     2
 72
     1
  1
Index:
  7
SLDTEXTSTYLE0
 73
     1
 44
1.0
  0
MTEXT
  5
179
330
1F
100
AcDbEntity
  8
0
  6
Continuous
 62
     7
370
    18
100
AcDbMText
 10
230.261411
 20
48.4499477886
 30
0.0
 40
2.0
 41
0.0
 71
     1
 72
     1
  1
Erstellt:
  7
SLDTEXTSTYLE0
 73
     1
 44
1.0
  0
MTEXT
  5
17B
330
1F
100
AcDbEntity
  8
0
  6
Continuous
 62
     7
370
    18
100
AcDbMText
 10
337.6348165843
 20
39.869706576
 30
0.0
 40
2.5
 41
0.0
 71
     2
 72
     1
  1
1 / 1
  7
SLDTEXTSTYLE1
 73
     1
 44
1.0
  0
MTEXT
  5
17C
330
1F
100
AcDbEntity
  8
0
  6
Continuous
 62
     7
370
    18
100
AcDbMText
 10
269.612607
 20
60.8119428599
 30
0.0
 40
3.0
 41
0.0
 71
     1
 72
     1
  1
DIN ISO 1302
  7
SLDTEXTSTYLE0
 73
     1
 44
1.0
  0
MTEXT
  5
17D
330
1F
100
AcDbEntity
  8
0
  6
Continuous
 62
     7
370
    18
100
AcDbMText
 10
230.0
 20
60.8119428599
 30
0.0
 40
3.0
 41
0.0
 71
     1
 72
     1
  1
Norm
  7
SLDTEXTSTYLE0
 73
     1
 44
1.0
  0
MTEXT
  5
17E
330
1F
100
AcDbEntity
  8
0
  6
Continuous
 62
     7
370
    18
100
AcDbMText
 10
269.612607
 20
71.2121947186
 30
0.0
 40
3.0
 41
0.0
 71
     1
 72
     1
  1
0.08 kg
  7
SLDTEXTSTYLE0
 73
     1
 44
1.0
  0
MTEXT
  5
17F
330
1F
100
AcDbEntity
  8
0
  6
Continuous
 62
     7
370
    18
100
AcDbMText
 10
230.0
 20
71.2121947186
 30
0.0
 40
3.0
 41
0.0
 71
     1
 72
     1
  1
1.4301 (X5CrNi18-10)
  7
SLDTEXTSTYLE0
 73
     1
 44
1.0
  0
SPLINE
  5
180
330
1F
100
AcDbEntity
  8
0
  6
Continuous
 62
     7
370
    25
100
AcDbSpline
210
0.0
220
0.0
230
1.0
 70
     8
 71
     3
 72
    74
 73
    70
 74
     0
 42
0.00000001
 43
0.00000001
 40
0.0
 40
0.0
 40
0.0
 40
0.0
 40
0.0079425807768038
 40
0.0230540086981997
 40
0.0381672690705481
 40
0.0532818460943645
 40
0.0683979573015602
 40
0.083515747872543
 40
0.098635303349223
 40
0.1137566605977299
 40
0.1288798170802128
 40
0.1440047386185424
 40
0.159131365837022
 40
0.1742596194644868
 40
0.1893894046625739
 40
0.2045206145304443
 40
0.2196531329185034
 40
0.2347868366665604
 40
0.2499215973656922
 40
0.2650572827286297
 40
0.2801937576407704
 40
0.2953308849529356
 40
0.3104685260678147
 40
0.32560654136436
 40
0.3407447904982702
 40
0.3558831326118858
 40
0.3710214100973934
 40
0.3861594507922929
 40
0.4012971131350255
 40
0.4164342556047237
 40
0.4315707369103953
 40
0.4467064162665599
 40
0.4618411537847657
 40
0.4769748110182059
 40
0.4921072517025214
 40
0.507238342743235
 40
0.5223679555093156
 40
0.5374959675029963
 40
0.552622264488486
 40
0.5677467431765008
 40
0.5828693145776219
 40
0.5979899081546937
 40
0.6131084769225459
 40
0.6282250036608684
 40
0.6433395084207613
 40
0.6584520575151999
 40
0.673562774182868
 40
0.6886718510978452
 40
0.7037795648549932
 40
0.7188862924805215
 40
0.73399252988279
 40
0.7490987462593623
 40
0.7642056206986926
 40
0.7793140675816614
 40
0.7944251959810227
 40
0.8095403268498674
 40
0.8246610041473356
 40
0.839788995935545
 40
0.8549262804168493
 40
0.8700750109247131
 40
0.8852374533255408
 40
0.9004158895731559
 40
0.9156124828683144
 40
0.9308291036688484
 40
0.9460671222049537
 40
0.9613271822317503
 40
0.9766089815831595
 40
0.9919110953368664
 40
1.0
 40
1.0
 40
1.0
 40
1.0
 10
332.3496703835158
 20
162.148185538695
 30
0.0
 10
332.1901500711652
 20
162.0571028819294
 30
0.0
 10
331.727128948458
 20
161.792727810358
 30
0.0
 10
330.9365501527559
 20
161.3688300159526
 30
0.0
 10
329.968879271143
 20
160.8831933795767
 30
0.0
 10
328.9716807404102
 20
160.4171753019516
 30
0.0
 10
327.946723471933
 20
159.9710747252264
 30
0.0
 10
326.895092865877
 20
159.5455407549047
 30
0.0
 10
325.8180984890166
 20
159.1410942858049
 30
0.0
 10
324.7170330531313
 20
158.7582572309894
 30
0.0
 10
323.5932345082366
 20
158.3975167254437
 30
0.0
 10
322.4480668888373
 20
158.0593336973138
 30
0.0
 10
321.2829229300631
 20
157.744139673362
 30
0.0
 10
320.0992208516995
 20
157.452336846458
 30
0.0
 10
318.8984027107307
 20
157.1842973642017
 30
0.0
 10
317.6819323405992
 20
156.9403629102148
 30
0.0
 10
316.4512934086438
 20
156.7208442814496
 30
0.0
 10
315.2079874489179
 20
156.5260210332348
 30
0.0
 10
313.9535319079066
 20
156.3561411665326
 30
0.0
 10
312.6894581921915
 20
156.2114208591906
 30
0.0
 10
311.4173097201137
 20
156.0920442366915
 30
0.0
 10
310.1386399761017
 20
155.9981631804376
 30
0.0
 10
308.8550105673989
 20
155.9298971716232
 30
0.0
 10
307.567989282804
 20
155.8873331692947
 30
0.0
 10
306.2791481532691
 20
155.8705255214998
 30
0.0
 10
304.990061979299
 20
155.879495905463
 30
0.0
 10
303.7023067982858
 20
155.9142332405685
 30
0.0
 10
302.4174570625123
 20
155.9746936401423
 30
0.0
 10
301.137083225091
 20
156.0608004951255
 30
0.0
 10
299.8627494075791
 20
156.1724446422112
 30
0.0
 10
298.596012340982
 20
156.3094844409124
 30
0.0
 10
297.3384194378579
 20
156.471745905472
 30
0.0
 10
296.0915068654223
 20
156.6590228686869
 30
0.0
 10
294.85679761944
 20
156.8710771784574
 30
0.0
 10
293.6357995983117
 20
157.1076389282257
 30
0.0
 10
292.4300036765873
 20
157.3684067229101
 30
0.0
 10
291.2408817769137
 20
157.6530479825028
 30
0.0
 10
290.0698849392344
 20
157.9611992862054
 30
0.0
 10
288.9184413859133
 20
158.2924667608494
 30
0.0
 10
287.7879545813925
 20
158.6464265184353
 30
0.0
 10
286.679801285081
 20
159.0226251489328
 30
0.0
 10
285.5953295964723
 20
159.4205802760563
 30
0.0
 10
284.5358569921163
 20
159.8397811855842
 30
0.0
 10
283.5026683551407
 20
160.2796895379127
 30
0.0
 10
282.497013999706
 20
160.7397401789163
 30
0.0
 10
281.5201076952894
 20
161.2193420657407
 30
0.0
 10
280.573124699248
 20
161.7178793267447
 30
0.0
 10
279.657199811044
 20
162.2347124771669
 30
0.0
 10
278.7734254679613
 20
162.7691798139227
 30
0.0
 10
277.9228499108668
 20
163.3205990132908
 30
0.0
 10
277.1064784427295
 20
163.8882668791948
 30
0.0
 10
276.3252703000759
 20
164.4714617366143
 30
0.0
 10
275.5801358685572
 20
165.0694462946618
 30
0.0
 10
274.871933020949
 20
165.6814723943625
 30
0.0
 10
274.2014676278581
 20
166.3067832269827
 30
0.0
 10
273.5694943162624
 20
166.944615560132
 30
0.0
 10
272.9767167882023
 20
167.5942028458168
 30
0.0
 10
272.423788806822
 20
168.2547782714572
 30
0.0
 10
271.9113161242848
 20
168.9255775359982
 30
0.0
 10
271.4398586655986
 20
169.605841031266
 30
0.0
 10
271.0099355720699
 20
170.2948151381722
 30
0.0
 10
270.6220229298134
 20
170.9917519335973
 30
0.0
 10
270.2765810781796
 20
171.6959080001114
 30
0.0
 10
269.9739715601696
 20
172.4065379601933
 30
0.0
 10
269.7147840306335
 20
173.1228979342452
 30
0.0
 10
269.4986235645376
 20
173.8442021416453
 30
0.0
 10
269.3286455131151
 20
174.5697469425151
 30
0.0
 10
269.2156998933422
 20
175.1836248317567
 30
0.0
 10
269.176860436066
 20
175.5559328876565
 30
0.0
 10
269.1634292693902
 20
175.6846816371048
 30
0.0
  0
SPLINE
  5
181
330
1F
100
AcDbEntity
  8
0
  6
Continuous
 62
     7
370
    25
100
AcDbSpline
210
0.0
220
0.0
230
1.0
 70
     8
 71
     3
 72
    28
 73
    24
 74
     0
 42
0.00000001
 43
0.00000001
 40
0.0
 40
0.0
 40
0.0
 40
0.0
 40
0.035714481510218
 40
0.0847802897918854
 40
0.1338004774301567
 40
0.1827635709700597
 40
0.2316619451577807
 40
0.2804918209599933
 40
0.3292528910839901
 40
0.3779477050120432
 40
0.4265809478672249
 40
0.4751587229931944
 40
0.5236879123228091
 40
0.5721756534805795
 40
0.6206289447653096
 40
0.6690543706726158
 40
0.7174579305428262
 40
0.7658449491414804
 40
0.8142200482516273
 40
0.8625871608331165
 40
0.9109495726789139
 40
0.9593099799660872
 40
1.0
 40
1.0
 40
1.0
 40
1.0
 10
342.9961722622989
 20
175.6164693355308
 30
0.0
 10
342.9747967847029
 20
175.4389189075349
 30
0.0
 10
342.9240549257034
 20
175.0174434695151
 30
0.0
 10
342.7918000357339
 20
174.3543040244344
 30
0.0
 10
342.6076728221767
 20
173.6279603881237
 30
0.0
 10
342.3778201936976
 20
172.9059033700915
 30
0.0
 10
342.104565391254
 20
172.1889675899162
 30
0.0
 10
341.7877819451556
 20
171.4780321183434
 30
0.0
 10
341.428053126396
 20
170.7739223878351
 30
0.0
 10
341.0258186373128
 20
170.0774426314913
 30
0.0
 10
340.5815981227121
 20
169.389375092349
 30
0.0
 10
340.0959300740446
 20
168.7104881417105
 30
0.0
 10
339.5693893538729
 20
168.0415408943358
 30
0.0
 10
339.0025854565744
 20
167.3832869060109
 30
0.0
 10
338.3961661768105
 20
166.7364764347005
 30
0.0
 10
337.7508217664014
 20
166.1018562040673
 30
0.0
 10
337.0672815761896
 20
165.4801722271454
 30
0.0
 10
336.3463380169135
 20
164.8721560625986
 30
0.0
 10
335.5887654133904
 20
164.2785691881178
 30
0.0
 10
334.7956279837196
 20
163.7000281733771
 30
0.0
 10
333.9671329420848
 20
163.1376464198221
 30
0.0
 10
333.1523897439332
 20
162.6195492633765
 30
0.0
 10
332.6014243085475
 20
162.29601761259
 30
0.0
 10
332.3496703835158
 20
162.148185538695
 30
0.0
  0
ARC
  5
182
330
1F
100
AcDbEntity
  8
0
  6
Continuous
 62
     7
370
    25
100
AcDbCircle
 10
227.2407396699
 20
175.3897315804
 30
0.0
 40
2.5
100
AcDbArc
 50
119.9973117337
 51
180.0
  0
ARC
  5
183
330
1F
100
AcDbEntity
  8
0
  6
Continuous
 62
     7
370
    25
100
AcDbCircle
 10
384.9255518745
 20
175.3897315804
 30
0.0
 40
2.500000000000007
100
AcDbArc
 50
0.0
 51
60.0026882663
  0
LINE
  5
184
330
1F
100
AcDbEntity
  8
0
  6
Continuous
 62
     7
370
    25
100
AcDbLine
 10
224.7407396699
 20
175.3897315804
 30
0.0
 11
224.7407396699
 21
171.307027521
 31
0.0
  0
LINE
  5
185
330
1F
100
AcDbEntity
  8
0
  6
Continuous
 62
     7
370
    25
100
AcDbLine
 10
387.4255518745
 20
171.307027521
 30
0.0
 11
387.4255518745
 21
175.3897315804
 31
0.0
  0
LINE
  5
186
330
1F
100
AcDbEntity
  8
0
  6
Continuous
 62
     7
370
    25
100
AcDbLine
 10
304.8332473564
 20
223.0696059705
 30
0.0
 11
225.9908412541
 21
177.5548537364
 31
0.0
  0
LINE
  5
187
330
1F
100
AcDbEntity
  8
0
  6
Continuous
 62
     7
370
    25
100
AcDbLine
 10
386.1754502903
 20
177.5548537364
 30
0.0
 11
307.333044188
 21
223.0696059705
 31
0.0
  0
ARC
  5
188
330
1F
100
AcDbEntity
  8
0
  6
Continuous
 62
     7
370
    25
100
AcDbCircle
 10
306.0831457722
 20
220.9044838145
 30
0.0
 40
2.500000000000007
100
AcDbArc
 50
60.0026882664
 51
119.9973117337
  0
ARC
  5
189
330
1F
100
AcDbEntity
  8
0
  6
Continuous
 62
     7
370
    25
100
AcDbCircle
 10
304.0277231739
 20
128.6883911328
 30
0.0
 40
3.826795039126736
100
AcDbArc
 50
2.4873457163
 51
57.5126544293
  0
ARC
  5
18A
330
1F
100
AcDbEntity
  8
0
  6
Continuous
 62
     7
370
    25
100
AcDbCircle
 10
306.0831457722
 20
132.2490774995
 30
0.0
 40
3.827318312185695
100
AcDbArc
 50
242.4914255688
 51
297.5085744312
  0
ARC
  5
18B
330
1F
100
AcDbEntity
  8
0
  6
Continuous
 62
     7
370
    25
100
AcDbCircle
 10
308.1385411332
 20
128.6884068582
 30
0.0
 40
3.826767145048876
100
AcDbArc
 50
122.4871280433
 51
177.512871811
  0
ARC
  5
18C
330
1F
100
AcDbEntity
  8
0
  6
Continuous
 62
     7
370
    25
100
AcDbCircle
 10
306.0831457722
 20
128.1663734401
 30
0.0
 40
3.827318312185645
100
AcDbArc
 50
242.4914255688
 51
297.5085744312
  0
LINE
  5
18D
330
1F
100
AcDbEntity
  8
0
  6
Continuous
 62
     7
370
    25
100
AcDbLine
 10
304.3153788192
 20
124.7717651471
 30
0.0
 11
304.3153788192
 21
128.8544692065
 31
0.0
  0
LINE
  5
18E
330
1F
100
AcDbEntity
  8
0
  6
Continuous
 62
     7
370
    25
100
AcDbLine
 10
307.8509127251
 20
128.8544692065
 30
0.0
 11
307.8509127251
 21
124.7717651471
 31
0.0
  0
LINE
  5
18F
330
1F
100
AcDbEntity
  8
0
  6
Continuous
 62
     7
370
    25
100
AcDbLine
 10
304.3153788192
 20
128.8544692065
 30
0.0
 11
225.4729727169
 21
174.3692214406
 31
0.0
  0
ARC
  5
190
330
1F
100
AcDbEntity
  8
0
  6
Continuous
 62
     7
370
    25
100
AcDbCircle
 10
229.2961350309
 20
174.2031590924
 30
0.0
 40
3.826767145048499
100
AcDbArc
 50
122.4871280433
 51
177.512871811
  0
LINE
  5
191
330
1F
100
AcDbEntity
  8
0
  6
Continuous
 62
     7
370
    25
100
AcDbLine
 10
227.2407396699
 20
177.4310836101
 30
0.0
 11
306.0831457722
 21
131.916331376
 31
0.0
  0
LINE
  5
192
330
1F
100
AcDbEntity
  8
0
  6
Continuous
 62
     7
370
    25
100
AcDbLine
 10
306.0831457722
 20
131.916331376
 30
0.0
 11
384.9255518745
 21
177.4310836101
 31
0.0
  0
ARC
  5
193
330
1F
100
AcDbEntity
  8
0
  6
Continuous
 62
     7
370
    25
100
AcDbCircle
 10
382.8701292762
 20
174.2031433669
 30
0.0
 40
3.826795039127384
100
AcDbArc
 50
2.4873457163
 51
57.5126544293
  0
LINE
  5
194
330
1F
100
AcDbEntity
  8
0
  6
Continuous
 62
     7
370
    25
100
AcDbLine
 10
386.6933188274
 20
174.3692214406
 30
0.0
 11
307.8509127251
 21
128.8544692065
 31
0.0
  0
LINE
  5
195
330
1F
100
AcDbEntity
  8
0
  6
Continuous
 62
     7
370
    25
100
AcDbLine
 10
304.3153788192
 20
124.7717651471
 30
0.0
 11
225.4729727169
 21
170.2865173812
 31
0.0
  0
LINE
  5
196
330
1F
100
AcDbEntity
  8
0
  6
Continuous
 62
     7
370
    25
100
AcDbLine
 10
225.4729727169
 20
174.3692214406
 30
0.0
 11
225.4729727169
 21
170.2865173812
 31
0.0
  0
LINE
  5
197
330
1F
100
AcDbEntity
  8
0
  6
Continuous
 62
     7
370
    25
100
AcDbLine
 10
386.6933188274
 20
170.2865173812
 30
0.0
 11
307.8509127251
 21
124.7717651471
 31
0.0
  0
LINE
  5
198
330
1F
100
AcDbEntity
  8
0
  6
Continuous
 62
     7
370
    25
100
AcDbLine
 10
386.6933188274
 20
170.2865173812
 30
0.0
 11
386.6933188274
 21
174.3692214406
 31
0.0
  0
LINE
  5
199
330
1F
100
AcDbEntity
  8
0
  6
Continuous
 62
     7
370
    25
100
AcDbLine
 10
306.0831457722
 20
222.9458358442
 30
0.0
 11
227.2407396699
 21
177.4310836101
 31
0.0
  0
LINE
  5
19A
330
1F
100
AcDbEntity
  8
0
  6
Continuous
 62
     7
370
    25
100
AcDbLine
 10
384.9255518745
 20
177.4310836101
 30
0.0
 11
306.0831457722
 21
222.9458358442
 31
0.0
  0
LWPOLYLINE
  5
19B
330
1F
100
AcDbEntity
  8
0
  6
Continuous
 62
     7
370
    25
100
AcDbPolyline
 90
       87
 70
   128
 43
0.0
 10
332.5996500667
 20
162.1234315134
 10
331.6135231564
 20
161.5745776157
 10
330.5933309803
 20
161.0468811055
 10
329.5404347842
 20
160.5410460902
 10
328.4562394509
 20
160.0577475069
 10
327.3421916259
 20
159.5976302227
 10
326.1997777866
 20
159.1613081734
 10
325.0305222596
 20
158.7493635451
 10
323.8359851865
 20
158.3623459967
 10
322.6177604419
 20
158.0007719271
 10
321.377473507
 20
157.6651237857
 10
320.1167793007
 20
157.3558494289
 10
318.8373599715
 20
157.0733615225
 10
317.5409226528
 20
156.8180369911
 10
316.229197185
 20
156.590216515
 10
314.9039338077
 20
156.3902040757
 10
313.5669008242
 20
156.2182665506
 10
312.2198822419
 20
156.0746333564
 10
310.8646753921
 20
155.9594961435
 10
309.5030885318
 20
155.8730085396
 10
308.1369384308
 20
155.8152859456
 10
306.7680479474
 20
155.7864053809
 10
305.3982435969
 20
155.7864053809
 10
304.0293531136
 20
155.8152859456
 10
302.6632030125
 20
155.8730085396
 10
301.3016161522
 20
155.9594961435
 10
299.9464093025
 20
156.0746333564
 10
298.5993907202
 20
156.2182665506
 10
297.2623577367
 20
156.3902040757
 10
295.9370943594
 20
156.590216515
 10
294.6253688916
 20
156.8180369911
 10
293.3289315728
 20
157.0733615225
 10
292.0495122436
 20
157.3558494289
 10
290.7888180374
 20
157.6651237857
 10
289.5485311025
 20
158.0007719271
 10
288.3303063579
 20
158.3623459967
 10
287.1357692847
 20
158.7493635451
 10
285.9665137578
 20
159.1613081734
 10
284.8240999185
 20
159.5976302227
 10
283.7100520934
 20
160.0577475069
 10
282.6258567601
 20
160.5410460902
 10
281.5729605641
 20
161.0468811055
 10
280.552768388
 20
161.5745776157
 10
279.5666414777
 20
162.1234315134
 10
278.6158956255
 20
162.6927104613
 10
277.7017994147
 20
163.2816548685
 10
276.8255725269
 20
163.8894789046
 10
275.9883841144
 20
164.515371548
 10
275.1913512404
 20
165.1584976681
 10
274.4355373887
 20
165.8179991397
 10
273.7219510439
 20
166.4929959876
 10
273.0515443467
 20
167.1825875616
 10
272.425211823
 20
167.8858537372
 10
271.8437891903
 20
168.6018561442
 10
271.3080522427
 20
169.3296394182
 10
270.8187158157
 20
170.0682324755
 10
270.3764328325
 20
170.8166498091
 10
269.9817934328
 20
171.5738928033
 10
269.6353241852
 20
172.3389510663
 10
269.3374873848
 20
173.1108037784
 10
269.0886804361
 20
173.8884210539
 10
268.8892353231
 20
174.6707653156
 10
268.7394181661
 20
175.4567926789
 10
268.6394288665
 20
176.2454543452
 10
268.5894008404
 20
177.0356980004
 10
268.5894008404
 20
177.8264692199
 10
268.6394288665
 20
178.6167128751
 10
268.7394181661
 20
179.4053745413
 10
268.8892353231
 20
180.1914019047
 10
269.0886804361
 20
180.9737461664
 10
269.3374873848
 20
181.7513634419
 10
269.6353241852
 20
182.5232161539
 10
269.9817934328
 20
183.2882744169
 10
270.3764328325
 20
184.0455174111
 10
270.8187158157
 20
184.7939347447
 10
271.3080522427
 20
185.5325278021
 10
271.8437891903
 20
186.260311076
 10
272.425211823
 20
186.976313483
 10
273.0515443467
 20
187.6795796586
 10
273.7219510439
 20
188.3691712326
 10
274.4355373887
 20
189.0441680806
 10
275.1913512404
 20
189.7036695521
 10
275.9883841144
 20
190.3467956722
 10
276.8255725269
 20
190.9726883156
 10
277.7017994147
 20
191.5805123517
 10
278.6158956255
 20
192.1694567589
 10
279.5666414777
 20
192.7387357068
  0
LWPOLYLINE
  5
19C
330
1F
100
AcDbEntity
  8
0
  6
Continuous
 62
     7
370
    25
100
AcDbPolyline
 90
       87
 70
   128
 43
0.0
 10
279.5666414777
 20
192.7387357068
 10
280.552768388
 20
193.2875896046
 10
281.5729605641
 20
193.8152861147
 10
282.6258567601
 20
194.3211211301
 10
283.7100520934
 20
194.8044197133
 10
284.8240999185
 20
195.2645369976
 10
285.9665137578
 20
195.7008590468
 10
287.1357692847
 20
196.1128036752
 10
288.3303063579
 20
196.4998212235
 10
289.5485311025
 20
196.8613952932
 10
290.7888180374
 20
197.1970434346
 10
292.0495122436
 20
197.5063177913
 10
293.3289315728
 20
197.7888056977
 10
294.6253688916
 20
198.0441302291
 10
295.9370943594
 20
198.2719507053
 10
297.2623577367
 20
198.4719631445
 10
298.5993907202
 20
198.6439006697
 10
299.9464093025
 20
198.7875338638
 10
301.3016161522
 20
198.9026710768
 10
302.6632030125
 20
198.9891586806
 10
304.0293531136
 20
199.0468812746
 10
305.3982435969
 20
199.0757618393
 10
306.7680479474
 20
199.0757618393
 10
308.1369384308
 20
199.0468812746
 10
309.5030885318
 20
198.9891586806
 10
310.8646753921
 20
198.9026710768
 10
312.2198822419
 20
198.7875338638
 10
313.5669008242
 20
198.6439006697
 10
314.9039338077
 20
198.4719631445
 10
316.229197185
 20
198.2719507053
 10
317.5409226528
 20
198.0441302291
 10
318.8373599715
 20
197.7888056977
 10
320.1167793007
 20
197.5063177913
 10
321.377473507
 20
197.1970434346
 10
322.6177604419
 20
196.8613952932
 10
323.8359851865
 20
196.4998212235
 10
325.0305222596
 20
196.1128036752
 10
326.1997777866
 20
195.7008590468
 10
327.3421916259
 20
195.2645369976
 10
328.4562394509
 20
194.8044197133
 10
329.5404347842
 20
194.3211211301
 10
330.5933309803
 20
193.8152861147
 10
331.6135231564
 20
193.2875896046
 10
332.5996500667
 20
192.7387357068
 10
333.5503959189
 20
192.1694567589
 10
334.4644921297
 20
191.5805123517
 10
335.3407190175
 20
190.9726883156
 10
336.17790743
 20
190.3467956722
 10
336.9749403039
 20
189.7036695521
 10
337.7307541557
 20
189.0441680806
 10
338.4443405005
 20
188.3691712326
 10
339.1147471976
 20
187.6795796586
 10
339.7410797213
 20
186.976313483
 10
340.3225023541
 20
186.260311076
 10
340.8582393017
 20
185.5325278021
 10
341.3475757287
 20
184.7939347447
 10
341.7898587118
 20
184.0455174111
 10
342.1844981115
 20
183.2882744169
 10
342.5309673591
 20
182.5232161539
 10
342.8288041596
 20
181.7513634419
 10
343.0776111082
 20
180.9737461664
 10
343.2770562213
 20
180.1914019047
 10
343.4268733783
 20
179.4053745413
 10
343.5268626779
 20
178.6167128751
 10
343.576890704
 20
177.8264692199
 10
343.576890704
 20
177.0356980004
 10
343.5268626779
 20
176.2454543452
 10
343.4268733783
 20
175.4567926789
 10
343.2770562213
 20
174.6707653156
 10
343.0776111082
 20
173.8884210539
 10
342.8288041596
 20
173.1108037784
 10
342.5309673591
 20
172.3389510663
 10
342.1844981115
 20
171.5738928033
 10
341.7898587118
 20
170.8166498091
 10
341.3475757287
 20
170.0682324755
 10
340.8582393017
 20
169.3296394182
 10
340.3225023541
 20
168.6018561442
 10
339.7410797213
 20
167.8858537372
 10
339.1147471976
 20
167.1825875616
 10
338.4443405005
 20
166.4929959876
 10
337.7307541557
 20
165.8179991397
 10
336.9749403039
 20
165.1584976681
 10
336.17790743
 20
164.515371548
 10
335.3407190175
 20
163.8894789046
 10
334.4644921297
 20
163.2816548685
 10
333.5503959189
 20
162.6927104613
 10
332.5996500667
 20
162.1234315134
  0
LWPOLYLINE
  5
19D
330
1F
100
AcDbEntity
  8
0
  6
Continuous
 62
     7
370
    25
100
AcDbPolyline
 90
       29
 70
   128
 43
0.0
 10
333.6603102385
 20
196.616674238
 10
333.3614114333
 20
196.4235900192
 10
333.1018405663
 20
196.2124003351
 10
332.8848618916
 20
195.9857610186
 10
332.713204042
 20
195.7465221904
 10
332.5890257145
 20
195.4976924177
 10
332.5138885236
 20
195.2424008793
 10
332.4887373632
 20
194.9838580143
 10
332.5138885236
 20
194.7253151493
 10
332.5890257145
 20
194.4700236109
 10
332.713204042
 20
194.2211938382
 10
332.8848618916
 20
193.98195501
 10
333.1018405663
 20
193.7553156935
 10
333.3614114333
 20
193.5441260094
 10
333.6603102385
 20
193.3510417907
 10
333.9947781558
 20
193.1784911833
 10
334.3606090571
 20
193.0286441114
 10
334.7532024067
 20
192.9033849887
 10
335.1676211154
 20
192.8042890214
 10
335.5986536274
 20
192.7326023988
 10
336.0408794588
 20
192.6892266218
 10
336.4887373632
 20
192.674707166
 10
336.9365952676
 20
192.6892266218
 10
337.378821099
 20
192.7326023988
 10
337.809853611
 20
192.8042890214
 10
338.2242723197
 20
192.9033849887
 10
338.6168656693
 20
193.0286441114
 10
338.9826965706
 20
193.1784911833
 10
339.3171644879
 20
193.3510417907
  0
LWPOLYLINE
  5
19E
330
1F
100
AcDbEntity
  8
0
  6
Continuous
 62
     7
370
    25
100
AcDbPolyline
 90
       29
 70
   128
 43
0.0
 10
339.3171644879
 20
193.3510417907
 10
339.6160632931
 20
193.5441260094
 10
339.8756341601
 20
193.7553156935
 10
340.0926128348
 20
193.98195501
 10
340.2642706844
 20
194.2211938382
 10
340.3884490119
 20
194.4700236109
 10
340.4635862028
 20
194.7253151493
 10
340.4887373632
 20
194.9838580143
 10
340.4635862028
 20
195.2424008793
 10
340.3884490119
 20
195.4976924177
 10
340.2642706844
 20
195.7465221904
 10
340.0926128348
 20
195.9857610186
 10
339.8756341601
 20
196.2124003351
 10
339.6160632931
 20
196.4235900192
 10
339.3171644879
 20
196.616674238
 10
338.9826965706
 20
196.7892248453
 10
338.6168656693
 20
196.9390719173
 10
338.2242723197
 20
197.06433104
 10
337.809853611
 20
197.1634270072
 10
337.378821099
 20
197.2351136298
 10
336.9365952676
 20
197.2784894068
 10
336.4887373632
 20
197.2930088627
 10
336.0408794588
 20
197.2784894068
 10
335.5986536274
 20
197.2351136298
 10
335.1676211154
 20
197.1634270072
 10
334.7532024067
 20
197.06433104
 10
334.3606090571
 20
196.9390719173
 10
333.9947781558
 20
196.7892248453
 10
333.6603102385
 20
196.616674238
  0
LWPOLYLINE
  5
19F
330
1F
100
AcDbEntity
  8
0
  6
Continuous
 62
     7
370
    25
100
AcDbPolyline
 90
       29
 70
   128
 43
0.0
 10
272.8491270564
 20
161.5111254296
 10
272.5502282513
 20
161.3180412108
 10
272.2906573842
 20
161.1068515268
 10
272.0736787095
 20
160.8802122102
 10
271.9020208599
 20
160.640973382
 10
271.7778425324
 20
160.3921436094
 10
271.7027053416
 20
160.1368520709
 10
271.6775541812
 20
159.8783092059
 10
271.7027053416
 20
159.619766341
 10
271.7778425324
 20
159.3644748025
 10
271.9020208599
 20
159.1156450298
 10
272.0736787095
 20
158.8764062017
 10
272.2906573842
 20
158.6497668851
 10
272.5502282513
 20
158.438577201
 10
272.8491270564
 20
158.2454929823
 10
273.1835949737
 20
158.0729423749
 10
273.5494258751
 20
157.923095303
 10
273.9420192247
 20
157.7978361803
 10
274.3564379333
 20
157.698740213
 10
274.7874704453
 20
157.6270535904
 10
275.2296962767
 20
157.5836778135
 10
275.6775541812
 20
157.5691583576
 10
276.1254120856
 20
157.5836778135
 10
276.567637917
 20
157.6270535904
 10
276.998670429
 20
157.698740213
 10
277.4130891376
 20
157.7978361803
 10
277.8056824872
 20
157.923095303
 10
278.1715133886
 20
158.0729423749
 10
278.5059813059
 20
158.2454929823
  0
LWPOLYLINE
  5
1A0
330
1F
100
AcDbEntity
  8
0
  6
Continuous
 62
     7
370
    25
100
AcDbPolyline
 90
       29
 70
   128
 43
0.0
 10
278.5059813059
 20
158.2454929823
 10
278.804880111
 20
158.438577201
 10
279.0644509781
 20
158.6497668851
 10
279.2814296528
 20
158.8764062017
 10
279.4530875024
 20
159.1156450298
 10
279.5772658299
 20
159.3644748025
 10
279.6524030207
 20
159.619766341
 10
279.6775541812
 20
159.8783092059
 10
279.6524030207
 20
160.1368520709
 10
279.5772658299
 20
160.3921436094
 10
279.4530875024
 20
160.640973382
 10
279.2814296528
 20
160.8802122102
 10
279.0644509781
 20
161.1068515268
 10
278.804880111
 20
161.3180412108
 10
278.5059813059
 20
161.5111254296
 10
278.1715133886
 20
161.6836760369
 10
277.8056824872
 20
161.8335231089
 10
277.4130891376
 20
161.9587822316
 10
276.998670429
 20
162.0578781989
 10
276.567637917
 20
162.1295648214
 10
276.1254120856
 20
162.1729405984
 10
275.6775541812
 20
162.1874600543
 10
275.2296962767
 20
162.1729405984
 10
274.7874704453
 20
162.1295648214
 10
274.3564379333
 20
162.0578781989
 10
273.9420192247
 20
161.9587822316
 10
273.5494258751
 20
161.8335231089
 10
273.1835949737
 20
161.6836760369
 10
272.8491270564
 20
161.5111254296
  0
LINE
  5
1A1
330
1F
100
AcDbEntity
  8
0
  6
Continuous
 62
     7
370
    25
100
AcDbLine
 10
358.4359758664
 20
184.6471800112
 30
0.0
 11
348.4859758664
 21
184.6471800112
 31
0.0
  0
ARC
  5
1A2
330
1F
100
AcDbEntity
  8
0
  6
Continuous
 62
     7
370
    25
100
AcDbCircle
 10
358.551217219
 20
190.417640893
 30
0.0
 40
5.77161150440755
100
AcDbArc
 50
268.8559032542
 51
298.0402391154
  0
LWPOLYLINE
  5
1A3
330
1F
100
AcDbEntity
  8
0
  6
Continuous
 62
     7
370
    25
100
AcDbPolyline
 90
       22
 70
   128
 43
0.0
 10
358.4359758664
 20
189.2654817079
 10
358.8838337708
 20
189.250962252
 10
359.3260596022
 20
189.207586475
 10
359.7570921142
 20
189.1358998525
 10
360.1715108229
 20
189.0368038852
 10
360.5641041725
 20
188.9115447625
 10
360.9299350738
 20
188.7616976905
 10
361.2644029912
 20
188.5891470832
 10
361.5633017963
 20
188.3960628644
 10
361.8228726633
 20
188.1848731804
 10
362.039851338
 20
187.9582338638
 10
362.2115091876
 20
187.7189950356
 10
362.3356875151
 20
187.470165263
 10
362.410824706
 20
187.2148737245
 10
362.4359758664
 20
186.9563308595
 10
362.410824706
 20
186.6977879946
 10
362.3356875151
 20
186.4424964561
 10
362.2115091876
 20
186.1936666834
 10
362.039851338
 20
185.9544278553
 10
361.8228726633
 20
185.7277885387
 10
361.5633017963
 20
185.5165988546
 10
361.2644029912
 20
185.3235146359
  0
LINE
  5
1A4
330
1F
100
AcDbEntity
  8
0
  6
Continuous
 62
     7
370
    25
100
AcDbLine
 10
348.4859758664
 20
189.2654817079
 30
0.0
 11
358.4359758664
 21
189.2654817079
 31
0.0
  0
LWPOLYLINE
  5
1A5
330
1F
100
AcDbEntity
  8
0
  6
Continuous
 62
     7
370
    25
100
AcDbPolyline
 90
       29
 70
   128
 43
0.0
 10
348.4859758664
 20
184.6471800112
 10
348.038117962
 20
184.6616994671
 10
347.5958921306
 20
184.705075244
 10
347.1648596186
 20
184.7767618666
 10
346.7504409099
 20
184.8758578339
 10
346.3578475603
 20
185.0011169566
 10
345.992016659
 20
185.1509640285
 10
345.6575487417
 20
185.3235146359
 10
345.3586499365
 20
185.5165988546
 10
345.0990790695
 20
185.7277885387
 10
344.8821003948
 20
185.9544278553
 10
344.7104425452
 20
186.1936666834
 10
344.5862642177
 20
186.4424964561
 10
344.5111270268
 20
186.6977879946
 10
344.4859758664
 20
186.9563308595
 10
344.5111270268
 20
187.2148737245
 10
344.5862642177
 20
187.470165263
 10
344.7104425452
 20
187.7189950356
 10
344.8821003948
 20
187.9582338638
 10
345.0990790695
 20
188.1848731804
 10
345.3586499365
 20
188.3960628644
 10
345.6575487417
 20
188.5891470832
 10
345.992016659
 20
188.7616976905
 10
346.3578475603
 20
188.9115447625
 10
346.7504409099
 20
189.0368038852
 10
347.1648596186
 20
189.1358998525
 10
347.5958921306
 20
189.207586475
 10
348.038117962
 20
189.250962252
 10
348.4859758664
 20
189.2654817079
  0
LINE
  5
1A6
330
1F
100
AcDbEntity
  8
0
  6
Continuous
 62
     7
370
    25
100
AcDbLine
 10
253.730315678
 20
189.2654817079
 30
0.0
 11
263.680315678
 21
189.2654817079
 31
0.0
  0
LWPOLYLINE
  5
1A7
330
1F
100
AcDbEntity
  8
0
  6
Continuous
 62
     7
370
    25
100
AcDbPolyline
 90
       29
 70
   128
 43
0.0
 10
253.730315678
 20
184.6471800112
 10
253.2824577735
 20
184.6616994671
 10
252.8402319421
 20
184.705075244
 10
252.4091994301
 20
184.7767618666
 10
251.9947807215
 20
184.8758578339
 10
251.6021873719
 20
185.0011169566
 10
251.2363564705
 20
185.1509640285
 10
250.9018885532
 20
185.3235146359
 10
250.6029897481
 20
185.5165988546
 10
250.343418881
 20
185.7277885387
 10
250.1264402063
 20
185.9544278553
 10
249.9547823567
 20
186.1936666834
 10
249.8306040292
 20
186.4424964561
 10
249.7554668384
 20
186.6977879946
 10
249.730315678
 20
186.9563308595
 10
249.7554668384
 20
187.2148737245
 10
249.8306040292
 20
187.470165263
 10
249.9547823567
 20
187.7189950356
 10
250.1264402063
 20
187.9582338638
 10
250.343418881
 20
188.1848731804
 10
250.6029897481
 20
188.3960628644
 10
250.9018885532
 20
188.5891470832
 10
251.2363564705
 20
188.7616976905
 10
251.6021873719
 20
188.9115447625
 10
251.9947807215
 20
189.0368038852
 10
252.4091994301
 20
189.1358998525
 10
252.8402319421
 20
189.207586475
 10
253.2824577735
 20
189.250962252
 10
253.730315678
 20
189.2654817079
  0
LINE
  5
1A8
330
1F
100
AcDbEntity
  8
0
  6
Continuous
 62
     7
370
    25
100
AcDbLine
 10
263.680315678
 20
184.6471800112
 30
0.0
 11
253.730315678
 21
184.6471800112
 31
0.0
  0
ARC
  5
1A9
330
1F
100
AcDbEntity
  8
0
  6
Continuous
 62
     7
370
    25
100
AcDbCircle
 10
263.7955570305
 20
190.417640893
 30
0.0
 40
5.771611504407124
100
AcDbArc
 50
268.8559032542
 51
298.0402391154
  0
LWPOLYLINE
  5
1AA
330
1F
100
AcDbEntity
  8
0
  6
Continuous
 62
     7
370
    25
100
AcDbPolyline
 90
       22
 70
   128
 43
0.0
 10
263.680315678
 20
189.2654817079
 10
264.1281735824
 20
189.250962252
 10
264.5703994138
 20
189.207586475
 10
265.0014319258
 20
189.1358998525
 10
265.4158506344
 20
189.0368038852
 10
265.808443984
 20
188.9115447625
 10
266.1742748854
 20
188.7616976905
 10
266.5087428027
 20
188.5891470832
 10
266.8076416078
 20
188.3960628644
 10
267.0672124749
 20
188.1848731804
 10
267.2841911496
 20
187.9582338638
 10
267.4558489992
 20
187.7189950356
 10
267.5800273267
 20
187.470165263
 10
267.6551645175
 20
187.2148737245
 10
267.680315678
 20
186.9563308595
 10
267.6551645175
 20
186.6977879946
 10
267.5800273267
 20
186.4424964561
 10
267.4558489992
 20
186.1936666834
 10
267.2841911496
 20
185.9544278553
 10
267.0672124749
 20
185.7277885387
 10
266.8076416078
 20
185.5165988546
 10
266.5087428027
 20
185.3235146359
  0
LINE
  5
1AB
330
1F
100
AcDbEntity
  8
0
  6
Continuous
 62
     7
370
    25
100
AcDbLine
 10
240.6757685124
 20
179.7402344585
 30
0.0
 11
260.5831457722
 21
179.7402344585
 31
0.0
  0
LWPOLYLINE
  5
1AC
330
1F
100
AcDbEntity
  8
0
  6
Continuous
 62
     7
370
    25
100
AcDbPolyline
 90
       29
 70
   128
 43
0.0
 10
240.6757685124
 20
175.1219327618
 10
240.227910608
 20
175.1364522176
 10
239.7856847766
 20
175.1798279946
 10
239.3546522646
 20
175.2515146172
 10
238.940233556
 20
175.3506105845
 10
238.5476402064
 20
175.4758697072
 10
238.181809305
 20
175.6257167791
 10
237.8473413877
 20
175.7982673865
 10
237.5484425826
 20
175.9913516052
 10
237.2888717155
 20
176.2025412893
 10
237.0718930408
 20
176.4291806059
 10
236.9002351912
 20
176.668419434
 10
236.7760568637
 20
176.9172492067
 10
236.7009196729
 20
177.1725407451
 10
236.6757685124
 20
177.4310836101
 10
236.7009196729
 20
177.6896264751
 10
236.7760568637
 20
177.9449180135
 10
236.9002351912
 20
178.1937477862
 10
237.0718930408
 20
178.4329866144
 10
237.2888717155
 20
178.659625931
 10
237.5484425826
 20
178.870815615
 10
237.8473413877
 20
179.0638998338
 10
238.181809305
 20
179.2364504411
 10
238.5476402064
 20
179.3862975131
 10
238.940233556
 20
179.5115566358
 10
239.3546522646
 20
179.610652603
 10
239.7856847766
 20
179.6823392256
 10
240.227910608
 20
179.7257150026
 10
240.6757685124
 20
179.7402344585
  0
LINE
  5
1AD
330
1F
100
AcDbEntity
  8
0
  6
Continuous
 62
     7
370
    25
100
AcDbLine
 10
260.5831457722
 20
175.1219327618
 30
0.0
 11
240.6757685124
 21
175.1219327618
 31
0.0
  0
ARC
  5
1AE
330
1F
100
AcDbEntity
  8
0
  6
Continuous
 62
     7
370
    25
100
AcDbCircle
 10
260.6983871247
 20
180.8923936436
 30
0.0
 40
5.771611504406902
100
AcDbArc
 50
268.8559032542
 51
298.0402391154
  0
LWPOLYLINE
  5
1AF
330
1F
100
AcDbEntity
  8
0
  6
Continuous
 62
     7
370
    25
100
AcDbPolyline
 90
       22
 70
   128
 43
0.0
 10
260.5831457722
 20
179.7402344585
 10
261.0310036766
 20
179.7257150026
 10
261.473229508
 20
179.6823392256
 10
261.90426202
 20
179.610652603
 10
262.3186807286
 20
179.5115566358
 10
262.7112740782
 20
179.3862975131
 10
263.0771049796
 20
179.2364504411
 10
263.4115728969
 20
179.0638998338
 10
263.7104717021
 20
178.870815615
 10
263.9700425691
 20
178.659625931
 10
264.1870212438
 20
178.4329866144
 10
264.3586790934
 20
178.1937477862
 10
264.4828574209
 20
177.9449180135
 10
264.5579946118
 20
177.6896264751
 10
264.5831457722
 20
177.4310836101
 10
264.5579946118
 20
177.1725407451
 10
264.4828574209
 20
176.9172492067
 10
264.3586790934
 20
176.668419434
 10
264.1870212438
 20
176.4291806059
 10
263.9700425691
 20
176.2025412893
 10
263.7104717021
 20
175.9913516052
 10
263.4115728969
 20
175.7982673865
  0
LWPOLYLINE
  5
1B0
330
1F
100
AcDbEntity
  8
0
  6
Continuous
 62
     7
370
    25
100
AcDbPolyline
 90
       29
 70
   128
 43
0.0
 10
293.5831457722
 20
207.6537291164
 10
293.5579946118
 20
207.9122719814
 10
293.4828574209
 20
208.1675635198
 10
293.3586790934
 20
208.4163932925
 10
293.1870212438
 20
208.6556321207
 10
292.9700425691
 20
208.8822714373
 10
292.7104717021
 20
209.0934611213
 10
292.4115728969
 20
209.2865453401
 10
292.0771049796
 20
209.4590959474
 10
291.7112740782
 20
209.6089430194
 10
291.3186807286
 20
209.7342021421
 10
290.90426202
 20
209.8332981093
 10
290.473229508
 20
209.9049847319
 10
290.0310036766
 20
209.9483605089
 10
289.5831457722
 20
209.9628799648
 10
289.1352878678
 20
209.9483605089
 10
288.6930620364
 20
209.9049847319
 10
288.2620295244
 20
209.8332981093
 10
287.8476108157
 20
209.7342021421
 10
287.4550174661
 20
209.6089430194
 10
287.0891865647
 20
209.4590959474
 10
286.7547186474
 20
209.2865453401
 10
286.4558198423
 20
209.0934611213
 10
286.1962489753
 20
208.8822714373
 10
285.9792703006
 20
208.6556321207
 10
285.8076124509
 20
208.4163932925
 10
285.6834341235
 20
208.1675635198
 10
285.6082969326
 20
207.9122719814
 10
285.5831457722
 20
207.6537291164
  0
LINE
  5
1B1
330
1F
100
AcDbEntity
  8
0
  6
Continuous
 62
     7
370
    25
100
AcDbLine
 10
285.5831457722
 20
207.6537291164
 30
0.0
 11
285.5831457722
 21
201.9097163812
 31
0.0
  0
LWPOLYLINE
  5
1B2
330
1F
100
AcDbEntity
  8
0
  6
Continuous
 62
     7
370
    25
100
AcDbPolyline
 90
       22
 70
   128
 43
0.0
 10
285.5831457722
 20
201.9097163812
 10
285.6082969326
 20
201.6511735162
 10
285.6834341235
 20
201.3958819778
 10
285.8076124509
 20
201.1470522051
 10
285.9792703006
 20
200.9078133769
 10
286.1962489753
 20
200.6811740603
 10
286.4558198423
 20
200.4699843763
 10
286.7547186474
 20
200.2769001575
 10
287.0891865647
 20
200.1043495502
 10
287.4550174661
 20
199.9545024782
 10
287.8476108157
 20
199.8292433555
 10
288.2620295244
 20
199.7301473883
 10
288.6930620364
 20
199.6584607657
 10
289.1352878678
 20
199.6150849887
 10
289.5831457722
 20
199.6005655328
 10
290.0310036766
 20
199.6150849887
 10
290.473229508
 20
199.6584607657
 10
290.90426202
 20
199.7301473883
 10
291.3186807286
 20
199.8292433555
 10
291.7112740782
 20
199.9545024782
 10
292.0771049796
 20
200.1043495502
 10
292.4115728969
 20
200.2769001575
  0
ARC
  5
1B3
330
1F
100
AcDbEntity
  8
0
  6
Continuous
 62
     7
370
    25
100
AcDbCircle
 10
291.5813175222
 20
202.1093418888
 30
0.0
 40
2.011757113975205
100
AcDbArc
 50
294.3746582936
 51
354.3052007488
  0
LINE
  5
1B4
330
1F
100
AcDbEntity
  8
0
  6
Continuous
 62
     7
370
    25
100
AcDbLine
 10
293.5831457722
 20
201.9097163812
 30
0.0
 11
293.5831457722
 21
207.6537291164
 31
0.0
  0
LWPOLYLINE
  5
1B5
330
1F
100
AcDbEntity
  8
0
  6
Continuous
 62
     7
370
    25
100
AcDbPolyline
 90
       29
 70
   128
 43
0.0
 10
326.5831457722
 20
207.6537291164
 10
326.5579946118
 20
207.9122719814
 10
326.4828574209
 20
208.1675635198
 10
326.3586790934
 20
208.4163932925
 10
326.1870212438
 20
208.6556321207
 10
325.9700425691
 20
208.8822714373
 10
325.7104717021
 20
209.0934611213
 10
325.4115728969
 20
209.2865453401
 10
325.0771049796
 20
209.4590959474
 10
324.7112740782
 20
209.6089430194
 10
324.3186807286
 20
209.7342021421
 10
323.90426202
 20
209.8332981093
 10
323.473229508
 20
209.9049847319
 10
323.0310036766
 20
209.9483605089
 10
322.5831457722
 20
209.9628799648
 10
322.1352878678
 20
209.9483605089
 10
321.6930620364
 20
209.9049847319
 10
321.2620295244
 20
209.8332981093
 10
320.8476108157
 20
209.7342021421
 10
320.4550174661
 20
209.6089430194
 10
320.0891865647
 20
209.4590959474
 10
319.7547186474
 20
209.2865453401
 10
319.4558198423
 20
209.0934611213
 10
319.1962489753
 20
208.8822714373
 10
318.9792703006
 20
208.6556321207
 10
318.8076124509
 20
208.4163932925
 10
318.6834341235
 20
208.1675635198
 10
318.6082969326
 20
207.9122719814
 10
318.5831457722
 20
207.6537291164
  0
LINE
  5
1B6
330
1F
100
AcDbEntity
  8
0
  6
Continuous
 62
     7
370
    25
100
AcDbLine
 10
318.5831457722
 20
207.6537291164
 30
0.0
 11
318.5831457722
 21
201.9097163812
 31
0.0
  0
LWPOLYLINE
  5
1B7
330
1F
100
AcDbEntity
  8
0
  6
Continuous
 62
     7
370
    25
100
AcDbPolyline
 90
       22
 70
   128
 43
0.0
 10
318.5831457722
 20
201.9097163812
 10
318.6082969326
 20
201.6511735162
 10
318.6834341235
 20
201.3958819778
 10
318.8076124509
 20
201.1470522051
 10
318.9792703006
 20
200.9078133769
 10
319.1962489753
 20
200.6811740603
 10
319.4558198423
 20
200.4699843763
 10
319.7547186474
 20
200.2769001575
 10
320.0891865647
 20
200.1043495502
 10
320.4550174661
 20
199.9545024782
 10
320.8476108157
 20
199.8292433555
 10
321.2620295244
 20
199.7301473883
 10
321.6930620364
 20
199.6584607657
 10
322.1352878678
 20
199.6150849887
 10
322.5831457722
 20
199.6005655328
 10
323.0310036766
 20
199.6150849887
 10
323.473229508
 20
199.6584607657
 10
323.90426202
 20
199.7301473883
 10
324.3186807286
 20
199.8292433555
 10
324.7112740782
 20
199.9545024782
 10
325.0771049796
 20
200.1043495502
 10
325.4115728969
 20
200.2769001575
  0
ARC
  5
1B8
330
1F
100
AcDbEntity
  8
0
  6
Continuous
 62
     7
370
    25
100
AcDbCircle
 10
324.5813175222
 20
202.1093418888
 30
0.0
 40
2.011757113975005
100
AcDbArc
 50
294.3746582936
 51
354.3052007488
  0
LINE
  5
1B9
330
1F
100
AcDbEntity
  8
0
  6
Continuous
 62
     7
370
    25
100
AcDbLine
 10
326.5831457722
 20
201.9097163812
 30
0.0
 11
326.5831457722
 21
207.6537291164
 31
0.0
  0
LWPOLYLINE
  5
1BA
330
1F
100
AcDbEntity
  8
0
  6
Continuous
 62
     7
370
    25
100
AcDbPolyline
 90
       29
 70
   128
 43
0.0
 10
310.0831457722
 20
215.1899587819
 10
310.0579946118
 20
215.4485016469
 10
309.9828574209
 20
215.7037931853
 10
309.8586790934
 20
215.952622958
 10
309.6870212438
 20
216.1918617862
 10
309.4700425691
 20
216.4185011028
 10
309.2104717021
 20
216.6296907868
 10
308.9115728969
 20
216.8227750056
 10
308.5771049796
 20
216.9953256129
 10
308.2112740782
 20
217.1451726849
 10
307.8186807286
 20
217.2704318076
 10
307.40426202
 20
217.3695277748
 10
306.973229508
 20
217.4412143974
 10
306.5310036766
 20
217.4845901744
 10
306.0831457722
 20
217.4991096303
 10
305.6352878678
 20
217.4845901744
 10
305.1930620364
 20
217.4412143974
 10
304.7620295244
 20
217.3695277748
 10
304.3476108157
 20
217.2704318076
 10
303.9550174661
 20
217.1451726849
 10
303.5891865647
 20
216.9953256129
 10
303.2547186474
 20
216.8227750056
 10
302.9558198423
 20
216.6296907868
 10
302.6962489753
 20
216.4185011028
 10
302.4792703006
 20
216.1918617862
 10
302.3076124509
 20
215.952622958
 10
302.1834341235
 20
215.7037931853
 10
302.1082969326
 20
215.4485016469
 10
302.0831457722
 20
215.1899587819
  0
LINE
  5
1BB
330
1F
100
AcDbEntity
  8
0
  6
Continuous
 62
     7
370
    25
100
AcDbLine
 10
302.0831457722
 20
215.1899587819
 30
0.0
 11
302.0831457722
 21
203.69767451
 31
0.0
  0
LWPOLYLINE
  5
1BC
330
1F
100
AcDbEntity
  8
0
  6
Continuous
 62
     7
370
    25
100
AcDbPolyline
 90
       22
 70
   128
 43
0.0
 10
302.0831457722
 20
203.69767451
 10
302.1082969326
 20
203.439131645
 10
302.1834341235
 20
203.1838401066
 10
302.3076124509
 20
202.9350103339
 10
302.4792703006
 20
202.6957715057
 10
302.6962489753
 20
202.4691321892
 10
302.9558198423
 20
202.2579425051
 10
303.2547186474
 20
202.0648582864
 10
303.5891865647
 20
201.892307679
 10
303.9550174661
 20
201.7424606071
 10
304.3476108157
 20
201.6172014844
 10
304.7620295244
 20
201.5181055171
 10
305.1930620364
 20
201.4464188945
 10
305.6352878678
 20
201.4030431175
 10
306.0831457722
 20
201.3885236617
 10
306.5310036766
 20
201.4030431175
 10
306.973229508
 20
201.4464188945
 10
307.40426202
 20
201.5181055171
 10
307.8186807286
 20
201.6172014844
 10
308.2112740782
 20
201.7424606071
 10
308.5771049796
 20
201.892307679
 10
308.9115728969
 20
202.0648582864
  0
ARC
  5
1BD
330
1F
100
AcDbEntity
  8
0
  6
Continuous
 62
     7
370
    25
100
AcDbCircle
 10
308.0813175222
 20
203.8973000176
 30
0.0
 40
2.011757113974902
100
AcDbArc
 50
294.3746582936
 51
354.3052007488
  0
LINE
  5
1BE
330
1F
100
AcDbEntity
  8
0
  6
Continuous
 62
     7
370
    25
100
AcDbLine
 10
310.0831457722
 20
203.69767451
 30
0.0
 11
310.0831457722
 21
215.1899587819
 31
0.0
  0
LINE
  5
1BF
330
1F
100
AcDbEntity
  8
0
  6
Continuous
 62
     7
370
    25
100
AcDbLine
 10
253.730315678
 20
170.2149872091
 30
0.0
 11
263.680315678
 21
170.2149872091
 31
0.0
  0
LWPOLYLINE
  5
1C0
330
1F
100
AcDbEntity
  8
0
  6
Continuous
 62
     7
370
    25
100
AcDbPolyline
 90
       29
 70
   128
 43
0.0
 10
253.730315678
 20
165.5966855124
 10
253.2824577735
 20
165.6112049682
 10
252.8402319421
 20
165.6545807452
 10
252.4091994301
 20
165.7262673678
 10
251.9947807215
 20
165.8253633351
 10
251.6021873719
 20
165.9506224578
 10
251.2363564705
 20
166.1004695297
 10
250.9018885532
 20
166.2730201371
 10
250.6029897481
 20
166.4661043558
 10
250.343418881
 20
166.6772940399
 10
250.1264402063
 20
166.9039333564
 10
249.9547823567
 20
167.1431721846
 10
249.8306040292
 20
167.3920019573
 10
249.7554668384
 20
167.6472934957
 10
249.730315678
 20
167.9058363607
 10
249.7554668384
 20
168.1643792257
 10
249.8306040292
 20
168.4196707641
 10
249.9547823567
 20
168.6685005368
 10
250.1264402063
 20
168.907739365
 10
250.343418881
 20
169.1343786815
 10
250.6029897481
 20
169.3455683656
 10
250.9018885532
 20
169.5386525844
 10
251.2363564705
 20
169.7112031917
 10
251.6021873719
 20
169.8610502637
 10
251.9947807215
 20
169.9863093864
 10
252.4091994301
 20
170.0854053536
 10
252.8402319421
 20
170.1570919762
 10
253.2824577735
 20
170.2004677532
 10
253.730315678
 20
170.2149872091
  0
LINE
  5
1C1
330
1F
100
AcDbEntity
  8
0
  6
Continuous
 62
     7
370
    25
100
AcDbLine
 10
263.680315678
 20
165.5966855124
 30
0.0
 11
253.730315678
 21
165.5966855124
 31
0.0
  0
ARC
  5
1C2
330
1F
100
AcDbEntity
  8
0
  6
Continuous
 62
     7
370
    25
100
AcDbCircle
 10
263.7955570305
 20
171.3671463942
 30
0.0
 40
5.77161150440748
100
AcDbArc
 50
268.8559032542
 51
298.0402391154
  0
LWPOLYLINE
  5
1C3
330
1F
100
AcDbEntity
  8
0
  6
Continuous
 62
     7
370
    25
100
AcDbPolyline
 90
       22
 70
   128
 43
0.0
 10
263.680315678
 20
170.2149872091
 10
264.1281735824
 20
170.2004677532
 10
264.5703994138
 20
170.1570919762
 10
265.0014319258
 20
170.0854053536
 10
265.4158506344
 20
169.9863093864
 10
265.808443984
 20
169.8610502637
 10
266.1742748854
 20
169.7112031917
 10
266.5087428027
 20
169.5386525844
 10
266.8076416078
 20
169.3455683656
 10
267.0672124749
 20
169.1343786815
 10
267.2841911496
 20
168.907739365
 10
267.4558489992
 20
168.6685005368
 10
267.5800273267
 20
168.4196707641
 10
267.6551645175
 20
168.1643792257
 10
267.680315678
 20
167.9058363607
 10
267.6551645175
 20
167.6472934957
 10
267.5800273267
 20
167.3920019573
 10
267.4558489992
 20
167.1431721846
 10
267.2841911496
 20
166.9039333564
 10
267.0672124749
 20
166.6772940399
 10
266.8076416078
 20
166.4661043558
 10
266.5087428027
 20
166.2730201371
  0
LWPOLYLINE
  5
1C4
330
1F
100
AcDbEntity
  8
0
  6
Continuous
 62
     7
370
    25
100
AcDbPolyline
 90
       22
 70
   128
 43
0.0
 10
302.0831457722
 20
139.6722084383
 10
302.1082969326
 20
139.4136655733
 10
302.1834341235
 20
139.1583740349
 10
302.3076124509
 20
138.9095442622
 10
302.4792703006
 20
138.6703054341
 10
302.6962489753
 20
138.4436661175
 10
302.9558198423
 20
138.2324764334
 10
303.2547186474
 20
138.0393922147
 10
303.5891865647
 20
137.8668416073
 10
303.9550174661
 20
137.7169945354
 10
304.3476108157
 20
137.5917354127
 10
304.7620295244
 20
137.4926394454
 10
305.1930620364
 20
137.4209528228
 10
305.6352878678
 20
137.3775770458
 10
306.0831457722
 20
137.36305759
 10
306.5310036766
 20
137.3775770458
 10
306.973229508
 20
137.4209528228
 10
307.40426202
 20
137.4926394454
 10
307.8186807286
 20
137.5917354127
 10
308.2112740782
 20
137.7169945354
 10
308.5771049796
 20
137.8668416073
 10
308.9115728969
 20
138.0393922147
  0
ARC
  5
1C5
330
1F
100
AcDbEntity
  8
0
  6
Continuous
 62
     7
370
    25
100
AcDbCircle
 10
308.0813175222
 20
139.8718339459
 30
0.0
 40
2.011757113975005
100
AcDbArc
 50
294.3746582936
 51
354.3052007488
  0
LINE
  5
1C6
330
1F
100
AcDbEntity
  8
0
  6
Continuous
 62
     7
370
    25
100
AcDbLine
 10
310.0831457722
 20
139.6722084383
 30
0.0
 11
310.0831457722
 21
151.1644927102
 31
0.0
  0
LWPOLYLINE
  5
1C7
330
1F
100
AcDbEntity
  8
0
  6
Continuous
 62
     7
370
    25
100
AcDbPolyline
 90
       29
 70
   128
 43
0.0
 10
310.0831457722
 20
151.1644927102
 10
310.0579946118
 20
151.4230355752
 10
309.9828574209
 20
151.6783271137
 10
309.8586790934
 20
151.9271568863
 10
309.6870212438
 20
152.1663957145
 10
309.4700425691
 20
152.3930350311
 10
309.2104717021
 20
152.6042247151
 10
308.9115728969
 20
152.7973089339
 10
308.5771049796
 20
152.9698595412
 10
308.2112740782
 20
153.1197066132
 10
307.8186807286
 20
153.2449657359
 10
307.40426202
 20
153.3440617031
 10
306.973229508
 20
153.4157483257
 10
306.5310036766
 20
153.4591241027
 10
306.0831457722
 20
153.4736435586
 10
305.6352878678
 20
153.4591241027
 10
305.1930620364
 20
153.4157483257
 10
304.7620295244
 20
153.3440617031
 10
304.3476108157
 20
153.2449657359
 10
303.9550174661
 20
153.1197066132
 10
303.5891865647
 20
152.9698595412
 10
303.2547186474
 20
152.7973089339
 10
302.9558198423
 20
152.6042247151
 10
302.6962489753
 20
152.3930350311
 10
302.4792703006
 20
152.1663957145
 10
302.3076124509
 20
151.9271568863
 10
302.1834341235
 20
151.6783271137
 10
302.1082969326
 20
151.4230355752
 10
302.0831457722
 20
151.1644927102
  0
LINE
  5
1C8
330
1F
100
AcDbEntity
  8
0
  6
Continuous
 62
     7
370
    25
100
AcDbLine
 10
302.0831457722
 20
151.1644927102
 30
0.0
 11
302.0831457722
 21
139.6722084383
 31
0.0
  0
LWPOLYLINE
  5
1C9
330
1F
100
AcDbEntity
  8
0
  6
Continuous
 62
     7
370
    25
100
AcDbPolyline
 90
       22
 70
   128
 43
0.0
 10
285.5831457722
 20
147.2084381038
 10
285.6082969326
 20
146.9498952388
 10
285.6834341235
 20
146.6946037004
 10
285.8076124509
 20
146.4457739277
 10
285.9792703006
 20
146.2065350996
 10
286.1962489753
 20
145.979895783
 10
286.4558198423
 20
145.7687060989
 10
286.7547186474
 20
145.5756218802
 10
287.0891865647
 20
145.4030712728
 10
287.4550174661
 20
145.2532242009
 10
287.8476108157
 20
145.1279650782
 10
288.2620295244
 20
145.0288691109
 10
288.6930620364
 20
144.9571824883
 10
289.1352878678
 20
144.9138067113
 10
289.5831457722
 20
144.8992872555
 10
290.0310036766
 20
144.9138067113
 10
290.473229508
 20
144.9571824883
 10
290.90426202
 20
145.0288691109
 10
291.3186807286
 20
145.1279650782
 10
291.7112740782
 20
145.2532242009
 10
292.0771049796
 20
145.4030712728
 10
292.4115728969
 20
145.5756218802
  0
ARC
  5
1CA
330
1F
100
AcDbEntity
  8
0
  6
Continuous
 62
     7
370
    25
100
AcDbCircle
 10
291.5813175222
 20
147.4080636114
 30
0.0
 40
2.011757113975156
100
AcDbArc
 50
294.3746582936
 51
354.3052007488
  0
LINE
  5
1CB
330
1F
100
AcDbEntity
  8
0
  6
Continuous
 62
     7
370
    25
100
AcDbLine
 10
293.5831457722
 20
147.2084381038
 30
0.0
 11
293.5831457722
 21
152.9524508391
 31
0.0
  0
LWPOLYLINE
  5
1CC
330
1F
100
AcDbEntity
  8
0
  6
Continuous
 62
     7
370
    25
100
AcDbPolyline
 90
       29
 70
   128
 43
0.0
 10
293.5831457722
 20
152.9524508391
 10
293.5579946118
 20
153.2109937041
 10
293.4828574209
 20
153.4662852425
 10
293.3586790934
 20
153.7151150152
 10
293.1870212438
 20
153.9543538433
 10
292.9700425691
 20
154.1809931599
 10
292.7104717021
 20
154.392182844
 10
292.4115728969
 20
154.5852670627
 10
292.0771049796
 20
154.7578176701
 10
291.7112740782
 20
154.907664742
 10
291.3186807286
 20
155.0329238647
 10
290.90426202
 20
155.132019832
 10
290.473229508
 20
155.2037064546
 10
290.0310036766
 20
155.2470822316
 10
289.5831457722
 20
155.2616016874
 10
289.1352878678
 20
155.2470822316
 10
288.6930620364
 20
155.2037064546
 10
288.2620295244
 20
155.132019832
 10
287.8476108157
 20
155.0329238647
 10
287.4550174661
 20
154.907664742
 10
287.0891865647
 20
154.7578176701
 10
286.7547186474
 20
154.5852670627
 10
286.4558198423
 20
154.392182844
 10
286.1962489753
 20
154.1809931599
 10
285.9792703006
 20
153.9543538433
 10
285.8076124509
 20
153.7151150152
 10
285.6834341235
 20
153.4662852425
 10
285.6082969326
 20
153.2109937041
 10
285.5831457722
 20
152.9524508391
  0
LINE
  5
1CD
330
1F
100
AcDbEntity
  8
0
  6
Continuous
 62
     7
370
    25
100
AcDbLine
 10
285.5831457722
 20
152.9524508391
 30
0.0
 11
285.5831457722
 21
147.2084381038
 31
0.0
  0
LWPOLYLINE
  5
1CE
330
1F
100
AcDbEntity
  8
0
  6
Continuous
 62
     7
370
    25
100
AcDbPolyline
 90
       22
 70
   128
 43
0.0
 10
318.5831457722
 20
147.2084381038
 10
318.6082969326
 20
146.9498952388
 10
318.6834341235
 20
146.6946037004
 10
318.8076124509
 20
146.4457739277
 10
318.9792703006
 20
146.2065350996
 10
319.1962489753
 20
145.979895783
 10
319.4558198423
 20
145.7687060989
 10
319.7547186474
 20
145.5756218802
 10
320.0891865647
 20
145.4030712728
 10
320.4550174661
 20
145.2532242009
 10
320.8476108157
 20
145.1279650782
 10
321.2620295244
 20
145.0288691109
 10
321.6930620364
 20
144.9571824883
 10
322.1352878678
 20
144.9138067113
 10
322.5831457722
 20
144.8992872555
 10
323.0310036766
 20
144.9138067113
 10
323.473229508
 20
144.9571824883
 10
323.90426202
 20
145.0288691109
 10
324.3186807286
 20
145.1279650782
 10
324.7112740782
 20
145.2532242009
 10
325.0771049796
 20
145.4030712728
 10
325.4115728969
 20
145.5756218802
  0
ARC
  5
1CF
330
1F
100
AcDbEntity
  8
0
  6
Continuous
 62
     7
370
    25
100
AcDbCircle
 10
324.5813175222
 20
147.4080636114
 30
0.0
 40
2.011757113975023
100
AcDbArc
 50
294.3746582936
 51
354.3052007488
  0
LINE
  5
1D0
330
1F
100
AcDbEntity
  8
0
  6
Continuous
 62
     7
370
    25
100
AcDbLine
 10
326.5831457722
 20
147.2084381038
 30
0.0
 11
326.5831457722
 21
152.9524508391
 31
0.0
  0
LWPOLYLINE
  5
1D1
330
1F
100
AcDbEntity
  8
0
  6
Continuous
 62
     7
370
    25
100
AcDbPolyline
 90
       29
 70
   128
 43
0.0
 10
326.5831457722
 20
152.9524508391
 10
326.5579946118
 20
153.2109937041
 10
326.4828574209
 20
153.4662852425
 10
326.3586790934
 20
153.7151150152
 10
326.1870212438
 20
153.9543538433
 10
325.9700425691
 20
154.1809931599
 10
325.7104717021
 20
154.392182844
 10
325.4115728969
 20
154.5852670627
 10
325.0771049796
 20
154.7578176701
 10
324.7112740782
 20
154.907664742
 10
324.3186807286
 20
155.0329238647
 10
323.90426202
 20
155.132019832
 10
323.473229508
 20
155.2037064546
 10
323.0310036766
 20
155.2470822316
 10
322.5831457722
 20
155.2616016874
 10
322.1352878678
 20
155.2470822316
 10
321.6930620364
 20
155.2037064546
 10
321.2620295244
 20
155.132019832
 10
320.8476108157
 20
155.0329238647
 10
320.4550174661
 20
154.907664742
 10
320.0891865647
 20
154.7578176701
 10
319.7547186474
 20
154.5852670627
 10
319.4558198423
 20
154.392182844
 10
319.1962489753
 20
154.1809931599
 10
318.9792703006
 20
153.9543538433
 10
318.8076124509
 20
153.7151150152
 10
318.6834341235
 20
153.4662852425
 10
318.6082969326
 20
153.2109937041
 10
318.5831457722
 20
152.9524508391
  0
LINE
  5
1D2
330
1F
100
AcDbEntity
  8
0
  6
Continuous
 62
     7
370
    25
100
AcDbLine
 10
318.5831457722
 20
152.9524508391
 30
0.0
 11
318.5831457722
 21
147.2084381038
 31
0.0
  0
LINE
  5
1D3
330
1F
100
AcDbEntity
  8
0
  6
Continuous
 62
     7
370
    25
100
AcDbLine
 10
371.4905230319
 20
175.1219327618
 30
0.0
 11
351.5831457722
 21
175.1219327618
 31
0.0
  0
ARC
  5
1D4
330
1F
100
AcDbEntity
  8
0
  6
Continuous
 62
     7
370
    25
100
AcDbCircle
 10
371.6057643845
 20
180.8923936436
 30
0.0
 40
5.771611504407636
100
AcDbArc
 50
268.8559032542
 51
298.0402391154
  0
LWPOLYLINE
  5
1D5
330
1F
100
AcDbEntity
  8
0
  6
Continuous
 62
     7
370
    25
100
AcDbPolyline
 90
       22
 70
   128
 43
0.0
 10
371.4905230319
 20
179.7402344585
 10
371.9383809363
 20
179.7257150026
 10
372.3806067678
 20
179.6823392256
 10
372.8116392798
 20
179.610652603
 10
373.2260579884
 20
179.5115566358
 10
373.618651338
 20
179.3862975131
 10
373.9844822394
 20
179.2364504411
 10
374.3189501567
 20
179.0638998338
 10
374.6178489618
 20
178.870815615
 10
374.8774198288
 20
178.659625931
 10
375.0943985035
 20
178.4329866144
 10
375.2660563532
 20
178.1937477862
 10
375.3902346807
 20
177.9449180135
 10
375.4653718715
 20
177.6896264751
 10
375.4905230319
 20
177.4310836101
 10
375.4653718715
 20
177.1725407451
 10
375.3902346807
 20
176.9172492067
 10
375.2660563532
 20
176.668419434
 10
375.0943985035
 20
176.4291806059
 10
374.8774198288
 20
176.2025412893
 10
374.6178489618
 20
175.9913516052
 10
374.3189501567
 20
175.7982673865
  0
LINE
  5
1D6
330
1F
100
AcDbEntity
  8
0
  6
Continuous
 62
     7
370
    25
100
AcDbLine
 10
351.5831457722
 20
179.7402344585
 30
0.0
 11
371.4905230319
 21
179.7402344585
 31
0.0
  0
LWPOLYLINE
  5
1D7
330
1F
100
AcDbEntity
  8
0
  6
Continuous
 62
     7
370
    25
100
AcDbPolyline
 90
       29
 70
   128
 43
0.0
 10
351.5831457722
 20
175.1219327618
 10
351.1352878678
 20
175.1364522176
 10
350.6930620364
 20
175.1798279946
 10
350.2620295244
 20
175.2515146172
 10
349.8476108157
 20
175.3506105845
 10
349.4550174661
 20
175.4758697072
 10
349.0891865647
 20
175.6257167791
 10
348.7547186474
 20
175.7982673865
 10
348.4558198423
 20
175.9913516052
 10
348.1962489753
 20
176.2025412893
 10
347.9792703006
 20
176.4291806059
 10
347.8076124509
 20
176.668419434
 10
347.6834341235
 20
176.9172492067
 10
347.6082969326
 20
177.1725407451
 10
347.5831457722
 20
177.4310836101
 10
347.6082969326
 20
177.6896264751
 10
347.6834341235
 20
177.9449180135
 10
347.8076124509
 20
178.1937477862
 10
347.9792703006
 20
178.4329866144
 10
348.1962489753
 20
178.659625931
 10
348.4558198423
 20
178.870815615
 10
348.7547186474
 20
179.0638998338
 10
349.0891865647
 20
179.2364504411
 10
349.4550174661
 20
179.3862975131
 10
349.8476108157
 20
179.5115566358
 10
350.2620295244
 20
179.610652603
 10
350.6930620364
 20
179.6823392256
 10
351.1352878678
 20
179.7257150026
 10
351.5831457722
 20
179.7402344585
  0
LINE
  5
1D8
330
1F
100
AcDbEntity
  8
0
  6
Continuous
 62
     7
370
    25
100
AcDbLine
 10
358.4359758664
 20
165.5966855124
 30
0.0
 11
348.4859758664
 21
165.5966855124
 31
0.0
  0
ARC
  5
1D9
330
1F
100
AcDbEntity
  8
0
  6
Continuous
 62
     7
370
    25
100
AcDbCircle
 10
358.551217219
 20
171.3671463942
 30
0.0
 40
5.771611504407382
100
AcDbArc
 50
268.8559032542
 51
298.0402391154
  0
LWPOLYLINE
  5
1DA
330
1F
100
AcDbEntity
  8
0
  6
Continuous
 62
     7
370
    25
100
AcDbPolyline
 90
       22
 70
   128
 43
0.0
 10
358.4359758664
 20
170.2149872091
 10
358.8838337708
 20
170.2004677532
 10
359.3260596022
 20
170.1570919762
 10
359.7570921142
 20
170.0854053536
 10
360.1715108229
 20
169.9863093864
 10
360.5641041725
 20
169.8610502637
 10
360.9299350738
 20
169.7112031917
 10
361.2644029912
 20
169.5386525844
 10
361.5633017963
 20
169.3455683656
 10
361.8228726633
 20
169.1343786815
 10
362.039851338
 20
168.907739365
 10
362.2115091876
 20
168.6685005368
 10
362.3356875151
 20
168.4196707641
 10
362.410824706
 20
168.1643792257
 10
362.4359758664
 20
167.9058363607
 10
362.410824706
 20
167.6472934957
 10
362.3356875151
 20
167.3920019573
 10
362.2115091876
 20
167.1431721846
 10
362.039851338
 20
166.9039333564
 10
361.8228726633
 20
166.6772940399
 10
361.5633017963
 20
166.4661043558
 10
361.2644029912
 20
166.2730201371
  0
LINE
  5
1DB
330
1F
100
AcDbEntity
  8
0
  6
Continuous
 62
     7
370
    25
100
AcDbLine
 10
348.4859758664
 20
170.2149872091
 30
0.0
 11
358.4359758664
 21
170.2149872091
 31
0.0
  0
LWPOLYLINE
  5
1DC
330
1F
100
AcDbEntity
  8
0
  6
Continuous
 62
     7
370
    25
100
AcDbPolyline
 90
       29
 70
   128
 43
0.0
 10
348.4859758664
 20
165.5966855124
 10
348.038117962
 20
165.6112049682
 10
347.5958921306
 20
165.6545807452
 10
347.1648596186
 20
165.7262673678
 10
346.7504409099
 20
165.8253633351
 10
346.3578475603
 20
165.9506224578
 10
345.992016659
 20
166.1004695297
 10
345.6575487417
 20
166.2730201371
 10
345.3586499365
 20
166.4661043558
 10
345.0990790695
 20
166.6772940399
 10
344.8821003948
 20
166.9039333564
 10
344.7104425452
 20
167.1431721846
 10
344.5862642177
 20
167.3920019573
 10
344.5111270268
 20
167.6472934957
 10
344.4859758664
 20
167.9058363607
 10
344.5111270268
 20
168.1643792257
 10
344.5862642177
 20
168.4196707641
 10
344.7104425452
 20
168.6685005368
 10
344.8821003948
 20
168.907739365
 10
345.0990790695
 20
169.1343786815
 10
345.3586499365
 20
169.3455683656
 10
345.6575487417
 20
169.5386525844
 10
345.992016659
 20
169.7112031917
 10
346.3578475603
 20
169.8610502637
 10
346.7504409099
 20
169.9863093864
 10
347.1648596186
 20
170.0854053536
 10
347.5958921306
 20
170.1570919762
 10
348.038117962
 20
170.2004677532
 10
348.4859758664
 20
170.2149872091
  0
ARC
  5
1DD
330
1F
100
AcDbEntity
  8
0
  6
Continuous
 62
     7
370
    25
100
AcDbCircle
 10
279.1525868176
 20
192.0914328468
 30
0.0
 40
0.7684024037858171
100
AcDbArc
 50
2.6054784856
 51
57.39452166
  0
ARC
  5
1DE
330
1F
100
AcDbEntity
  8
0
  6
Continuous
 62
     7
370
    25
100
AcDbCircle
 10
281.4470998522
 20
177.0228716996
 30
0.0
 40
12.36391277718471
100
AcDbArc
 50
173.2874744449
 51
186.386633929
  0
LINE
  5
1DF
330
1F
100
AcDbEntity
  8
0
  6
Continuous
 62
     7
370
    25
100
AcDbLine
 10
279.9201948683
 20
191.718092867
 30
0.0
 11
279.9201948683
 21
192.1263632729
 31
0.0
  0
LWPOLYLINE
  5
1E0
330
1F
100
AcDbEntity
  8
0
  6
Continuous
 62
     7
370
    25
100
AcDbPolyline
 90
       22
 70
   128
 43
0.0
 10
269.0848355491
 20
176.8186780009
 10
269.1226257045
 20
177.6010050958
 10
269.2110097944
 20
178.3887601514
 10
269.3497567869
 20
179.1740918396
 10
269.5386771702
 20
179.9559274916
 10
269.7775129018
 20
180.733199214
 10
270.0659377608
 20
181.5048453472
 10
270.4035577937
 20
182.2698119154
 10
270.7899118519
 20
183.0270540661
 10
271.2244722224
 20
183.7755374979
 10
271.706645348
 20
184.5142398722
 10
272.2357726381
 20
185.2421522106
 10
272.8111313686
 20
185.9582802723
 10
273.4319356686
 20
186.6616459125
 10
274.0973375941
 20
187.3512884184
 10
274.8064282861
 20
188.0262658212
 10
275.558239212
 20
188.6856561831
 10
276.3517434886
 20
189.328558856
 10
277.1858572845
 20
189.9540957124
 10
278.0594413005
 20
190.561412344
 10
278.9713023259
 20
191.1496792295
 10
279.9201948683
 20
191.718092867
  0
LWPOLYLINE
  5
1E1
330
1F
100
AcDbEntity
  8
0
  6
Continuous
 62
     7
370
    25
100
AcDbPolyline
 90
       29
 70
   128
 43
0.0
 10
302.0831457722
 20
150.3479518983
 10
302.1082969326
 20
150.6064947633
 10
302.1834341235
 20
150.8617863018
 10
302.3076124509
 20
151.1106160744
 10
302.4792703006
 20
151.3498549026
 10
302.6962489753
 20
151.5764942192
 10
302.9558198423
 20
151.7876839032
 10
303.2547186474
 20
151.980768122
 10
303.5891865647
 20
152.1533187293
 10
303.9550174661
 20
152.3031658013
 10
304.3476108157
 20
152.428424924
 10
304.7620295244
 20
152.5275208913
 10
305.1930620364
 20
152.5992075138
 10
305.6352878678
 20
152.6425832908
 10
306.0831457722
 20
152.6571027467
 10
306.5310036766
 20
152.6425832908
 10
306.973229508
 20
152.5992075138
 10
307.40426202
 20
152.5275208913
 10
307.8186807286
 20
152.428424924
 10
308.2112740782
 20
152.3031658013
 10
308.5771049796
 20
152.1533187293
 10
308.9115728969
 20
151.980768122
 10
309.2104717021
 20
151.7876839032
 10
309.4700425691
 20
151.5764942192
 10
309.6870212438
 20
151.3498549026
 10
309.8586790934
 20
151.1106160744
 10
309.9828574209
 20
150.8617863018
 10
310.0579946118
 20
150.6064947633
 10
310.0831457722
 20
150.3479518983
  0
LWPOLYLINE
  5
1E2
330
1F
100
AcDbEntity
  8
0
  6
Continuous
 62
     7
370
    25
100
AcDbPolyline
 90
       29
 70
   128
 43
0.0
 10
285.5831457722
 20
152.1359100272
 10
285.6082969326
 20
152.3944528922
 10
285.6834341235
 20
152.6497444306
 10
285.8076124509
 20
152.8985742033
 10
285.9792703006
 20
153.1378130315
 10
286.1962489753
 20
153.364452348
 10
286.4558198423
 20
153.5756420321
 10
286.7547186474
 20
153.7687262508
 10
287.0891865647
 20
153.9412768582
 10
287.4550174661
 20
154.0911239301
 10
287.8476108157
 20
154.2163830528
 10
288.2620295244
 20
154.3154790201
 10
288.6930620364
 20
154.3871656427
 10
289.1352878678
 20
154.4305414197
 10
289.5831457722
 20
154.4450608755
 10
290.0310036766
 20
154.4305414197
 10
290.473229508
 20
154.3871656427
 10
290.90426202
 20
154.3154790201
 10
291.3186807286
 20
154.2163830528
 10
291.7112740782
 20
154.0911239301
 10
292.0771049796
 20
153.9412768582
 10
292.4115728969
 20
153.7687262508
 10
292.7104717021
 20
153.5756420321
 10
292.9700425691
 20
153.364452348
 10
293.1870212438
 20
153.1378130315
 10
293.3586790934
 20
152.8985742033
 10
293.4828574209
 20
152.6497444306
 10
293.5579946118
 20
152.3944528922
 10
293.5831457722
 20
152.1359100272
  0
LWPOLYLINE
  5
1E3
330
1F
100
AcDbEntity
  8
0
  6
Continuous
 62
     7
370
    25
100
AcDbPolyline
 90
       29
 70
   128
 43
0.0
 10
318.5831457722
 20
152.1359100272
 10
318.6082969326
 20
152.3944528922
 10
318.6834341235
 20
152.6497444306
 10
318.8076124509
 20
152.8985742033
 10
318.9792703006
 20
153.1378130315
 10
319.1962489753
 20
153.364452348
 10
319.4558198423
 20
153.5756420321
 10
319.7547186474
 20
153.7687262508
 10
320.0891865647
 20
153.9412768582
 10
320.4550174661
 20
154.0911239301
 10
320.8476108157
 20
154.2163830528
 10
321.2620295244
 20
154.3154790201
 10
321.6930620364
 20
154.3871656427
 10
322.1352878678
 20
154.4305414197
 10
322.5831457722
 20
154.4450608755
 10
323.0310036766
 20
154.4305414197
 10
323.473229508
 20
154.3871656427
 10
323.90426202
 20
154.3154790201
 10
324.3186807286
 20
154.2163830528
 10
324.7112740782
 20
154.0911239301
 10
325.0771049796
 20
153.9412768582
 10
325.4115728969
 20
153.7687262508
 10
325.7104717021
 20
153.5756420321
 10
325.9700425691
 20
153.364452348
 10
326.1870212438
 20
153.1378130315
 10
326.3586790934
 20
152.8985742033
 10
326.4828574209
 20
152.6497444306
 10
326.5579946118
 20
152.3944528922
 10
326.5831457722
 20
152.1359100272
  0
LINE
  5
1E4
330
1F
100
AcDbEntity
  8
0
  6
Continuous
 62
     7
370
    25
100
AcDbLine
 10
273.5562338376
 20
160.2863805618
 30
0.0
 11
272.8491270564
 21
161.5111254296
 31
0.0
  0
ARC
  5
1E5
330
1F
100
AcDbEntity
  8
0
  6
Continuous
 62
     7
370
    25
100
AcDbCircle
 10
273.9939191264
 20
159.0844761974
 30
0.0
 40
1.279117865235807
100
AcDbArc
 50
110.0095917093
 51
234.6212607636
  0
LWPOLYLINE
  5
1E6
330
1F
100
AcDbEntity
  8
0
  6
Continuous
 62
     7
370
    25
100
AcDbPolyline
 90
       24
 70
   128
 43
0.0
 10
273.5562338376
 20
160.2863805618
 10
273.8512698941
 20
160.4357477981
 10
274.1775541812
 20
160.5616058659
 10
274.5295038841
 20
160.6618012987
 10
274.9010970459
 20
160.734619725
 10
275.2859756045
 20
160.7788152011
 10
275.6775541812
 20
160.7936315303
 10
276.0691327578
 20
160.7788152011
 10
276.4540113165
 20
160.734619725
 10
276.8256044783
 20
160.6618012987
 10
277.1775541812
 20
160.5616058659
 10
277.5038384682
 20
160.4357477981
 10
277.7988745247
 20
160.2863805618
 10
278.057614202
 20
160.1160598717
 10
278.2756303925
 20
159.9276999622
 10
278.4491927787
 20
159.7245237234
 10
278.57533166
 20
159.5100075572
 10
278.6518887653
 20
159.2878218947
 10
278.6775541812
 20
159.061768394
 10
278.6518887653
 20
158.8357148934
 10
278.57533166
 20
158.6135292309
 10
278.4491927787
 20
158.3990130647
 10
278.2756303925
 20
158.1958368259
 10
278.101771187
 20
158.0415567917
  0
ARC
  5
1E7
330
1F
100
AcDbEntity
  8
0
  6
Continuous
 62
     7
370
    25
100
AcDbCircle
 10
330.7191916922
 20
177.0227547088
 30
0.0
 40
12.36391277717671
100
AcDbArc
 50
353.2874744449
 51
6.386633929
  0
LWPOLYLINE
  5
1E8
330
1F
100
AcDbEntity
  8
0
  6
Continuous
 62
     7
370
    25
100
AcDbPolyline
 90
       65
 70
   128
 43
0.0
 10
279.9201948683
 20
191.718092867
 10
280.9048228546
 20
192.2658768718
 10
281.9238414014
 20
192.7922830369
 10
282.9758586519
 20
193.2965923548
 10
284.0594376772
 20
193.7781159996
 10
285.1730984385
 20
194.236196268
 10
286.3153198094
 20
194.6702074773
 10
287.4845416527
 20
195.0795568206
 10
288.6791669521
 20
195.4636851758
 10
289.8975639931
 20
195.8220678698
 10
291.1380685919
 20
196.1542153949
 10
292.3989863685
 20
196.4596740776
 10
293.6785950608
 20
196.7380266981
 10
294.9751468772
 20
196.9888930602
 10
296.2868708841
 20
197.2119305105
 10
297.611975424
 20
197.4068344068
 10
298.9486505637
 20
197.5733385338
 10
300.2950705657
 20
197.7112154669
 10
301.6493963822
 20
197.8202768827
 10
303.009778167
 20
197.9003738166
 10
304.3743578023
 20
197.9513968656
 10
305.7412714364
 20
197.9732763385
 10
307.1086520297
 20
197.9659823506
 10
308.4746319049
 20
197.9295248645
 10
309.8373452976
 20
197.8639536768
 10
311.1949309054
 20
197.7693583499
 10
312.5455344296
 20
197.6458680895
 10
313.8873111081
 20
197.4936515686
 10
315.2184282356
 20
197.3129166965
 10
316.5370676661
 20
197.1039103355
 10
317.8414282967
 20
196.8669179629
 10
319.1297285278
 20
196.602263282
 10
320.4002086961
 20
196.3103077791
 10
321.6511334786
 20
195.9914502304
 10
322.8807942625
 20
195.6461261569
 10
324.0875114792
 20
195.2748072298
 10
325.2696368979
 20
194.878000626
 10
326.4255558776
 20
194.4562483357
 10
327.553689572
 20
194.0101264217
 10
328.6524970862
 20
193.540244233
 10
329.7204775813
 20
193.047243572
 10
330.7561723244
 20
192.5317978183
 10
331.758166681
 20
191.994611009
 10
332.7250920474
 20
191.4364168764
 10
333.6556277199
 20
190.8579778468
 10
334.5485026985
 20
190.2600839981
 10
335.4024974237
 20
189.6435519816
 10
336.2164454411
 20
189.0092239057
 10
336.9892349959
 20
188.3579661863
 10
337.7198105503
 20
187.6906683631
 10
338.4071742261
 20
187.0082418848
 10
339.0503871671
 20
186.3116188637
 10
339.648570822
 20
185.6017508031
 10
340.2009081436
 20
184.8796072974
 10
340.7066447057
 20
184.1461747077
 10
341.165089733
 20
183.4024548149
 10
341.5756170448
 20
182.6494634507
 10
341.93766591
 20
181.8882291108
 10
342.2507418135
 20
181.1197915498
 10
342.5144171313
 20
180.3452003609
 10
342.7283317146
 20
179.5655135425
 10
342.8921933817
 20
178.781796053
 10
343.0057783175
 20
177.9951183563
 10
343.0689313785
 20
177.2065549594
 10
343.0814559952
 20
176.8186780009
  0
LINE
  5
1E9
330
1F
100
AcDbEntity
  8
0
  6
Continuous
 62
     7
370
    25
100
AcDbLine
 10
253.730315678
 20
169.3984463972
 30
0.0
 11
253.730315678
 21
170.2149872091
 31
0.0
  0
ARC
  5
1EA
330
1F
100
AcDbEntity
  8
0
  6
Continuous
 62
     7
370
    25
100
AcDbCircle
 10
253.1755106478
 20
165.5200679089
 30
0.0
 40
3.917860171051525
100
AcDbArc
 50
81.8590257879
 51
149.6859511798
  0
LINE
  5
1EB
330
1F
100
AcDbEntity
  8
0
  6
Continuous
 62
     7
370
    25
100
AcDbLine
 10
348.4859758664
 20
169.3984463972
 30
0.0
 11
348.4859758664
 21
170.2149872091
 31
0.0
  0
ARC
  5
1EC
330
1F
100
AcDbEntity
  8
0
  6
Continuous
 62
     7
370
    25
100
AcDbCircle
 10
347.9311708363
 20
165.5200679089
 30
0.0
 40
3.917860171052674
100
AcDbArc
 50
81.8590257879
 51
149.6859511798
  0
LINE
  5
1ED
330
1F
100
AcDbEntity
  8
0
  6
Continuous
 62
     7
370
    25
100
AcDbLine
 10
263.680315678
 20
169.3984463972
 30
0.0
 11
263.680315678
 21
170.2149872091
 31
0.0
  0
ARC
  5
1EE
330
1F
100
AcDbEntity
  8
0
  6
Continuous
 62
     7
370
    25
100
AcDbCircle
 10
264.2034771648
 20
165.4545298042
 30
0.0
 40
3.978464029426959
100
AcDbArc
 50
30.8988377646
 51
97.5561852676
  0
LINE
  5
1EF
330
1F
100
AcDbEntity
  8
0
  6
Continuous
 62
     7
370
    25
100
AcDbLine
 10
358.4359758664
 20
169.3984463972
 30
0.0
 11
358.4359758664
 21
170.2149872091
 31
0.0
  0
ARC
  5
1F0
330
1F
100
AcDbEntity
  8
0
  6
Continuous
 62
     7
370
    25
100
AcDbCircle
 10
358.9591373532
 20
165.4545298042
 30
0.0
 40
3.978464029428987
100
AcDbArc
 50
30.8988377647
 51
97.5561852676
  0
LINE
  5
1F1
330
1F
100
AcDbEntity
  8
0
  6
Continuous
 62
     7
370
    25
100
AcDbLine
 10
263.680315678
 20
169.3984463972
 30
0.0
 11
253.730315678
 21
169.3984463972
 31
0.0
  0
LINE
  5
1F2
330
1F
100
AcDbEntity
  8
0
  6
Continuous
 62
     7
370
    25
100
AcDbLine
 10
358.4359758664
 20
169.3984463972
 30
0.0
 11
348.4859758664
 21
169.3984463972
 31
0.0
  0
LINE
  5
1F3
330
1F
100
AcDbEntity
  8
0
  6
Continuous
 62
     7
370
    25
100
AcDbLine
 10
240.6757685124
 20
178.9236936466
 30
0.0
 11
240.6757685124
 21
179.7402344585
 31
0.0
  0
LINE
  5
1F4
330
1F
100
AcDbEntity
  8
0
  6
Continuous
 62
     7
370
    25
100
AcDbLine
 10
260.5831457722
 20
178.9236936466
 30
0.0
 11
260.5831457722
 21
179.7402344585
 31
0.0
  0
LINE
  5
1F5
330
1F
100
AcDbEntity
  8
0
  6
Continuous
 62
     7
370
    25
100
AcDbLine
 10
260.5831457722
 20
178.9236936466
 30
0.0
 11
240.6757685124
 21
178.9236936466
 31
0.0
  0
LINE
  5
1F6
330
1F
100
AcDbEntity
  8
0
  6
Continuous
 62
     7
370
    25
100
AcDbLine
 10
351.5831457722
 20
178.9236936466
 30
0.0
 11
351.5831457722
 21
179.7402344585
 31
0.0
  0
LINE
  5
1F7
330
1F
100
AcDbEntity
  8
0
  6
Continuous
 62
     7
370
    25
100
AcDbLine
 10
371.4905230319
 20
178.9236936466
 30
0.0
 11
371.4905230319
 21
179.7402344585
 31
0.0
  0
LINE
  5
1F8
330
1F
100
AcDbEntity
  8
0
  6
Continuous
 62
     7
370
    25
100
AcDbLine
 10
371.4905230319
 20
178.9236936466
 30
0.0
 11
351.5831457722
 21
178.9236936466
 31
0.0
  0
ARC
  5
1F9
330
1F
100
AcDbEntity
  8
0
  6
Continuous
 62
     7
370
    25
100
AcDbCircle
 10
240.1209634823
 20
175.0453151583
 30
0.0
 40
3.917860171053074
100
AcDbArc
 50
81.8590257879
 51
149.6859511798
  0
ARC
  5
1FA
330
1F
100
AcDbEntity
  8
0
  6
Continuous
 62
     7
370
    25
100
AcDbCircle
 10
351.028340742
 20
175.0453151583
 30
0.0
 40
3.917860171052876
100
AcDbArc
 50
81.8590257879
 51
149.6859511798
  0
ARC
  5
1FB
330
1F
100
AcDbEntity
  8
0
  6
Continuous
 62
     7
370
    25
100
AcDbCircle
 10
261.106307259
 20
174.9797770536
 30
0.0
 40
3.978464029426877
100
AcDbArc
 50
30.8988377646
 51
97.5561852676
  0
ARC
  5
1FC
330
1F
100
AcDbEntity
  8
0
  6
Continuous
 62
     7
370
    25
100
AcDbCircle
 10
372.0136845188
 20
174.9797770536
 30
0.0
 40
3.978464029426624
100
AcDbArc
 50
30.8988377646
 51
97.5561852676
  0
ARC
  5
1FD
330
1F
100
AcDbEntity
  8
0
  6
Continuous
 62
     7
370
    25
100
AcDbCircle
 10
225.9810401441
 20
171.4240140168
 30
0.0
 40
1.245805404816327
100
AcDbArc
 50
185.3882594289
 51
245.9318815287
  0
ARC
  5
1FE
330
1F
100
AcDbEntity
  8
0
  6
Continuous
 62
     7
370
    25
100
AcDbCircle
 10
386.1852514002
 20
171.4240140168
 30
0.0
 40
1.245805404816175
100
AcDbArc
 50
294.0681184713
 51
354.6117405711
  0
LINE
  5
1FF
330
1F
100
AcDbEntity
  8
0
  6
Continuous
 62
     7
370
    25
100
AcDbLine
 10
250.2522061367
 20
185.8158765171
 30
0.0
 11
254.8133016248
 21
188.448940896
 31
0.0
  0
LINE
  5
200
330
1F
100
AcDbEntity
  8
0
  6
Continuous
 62
     7
370
    25
100
AcDbLine
 10
285.5831457722
 20
206.2119938251
 30
0.0
 11
290.5480159868
 21
209.0781523921
 31
0.0
  0
LINE
  5
201
330
1F
100
AcDbEntity
  8
0
  6
Continuous
 62
     7
370
    25
100
AcDbLine
 10
321.6182755575
 20
209.0781523921
 30
0.0
 11
326.5831457722
 21
206.2119938251
 31
0.0
  0
LINE
  5
202
330
1F
100
AcDbEntity
  8
0
  6
Continuous
 62
     7
370
    25
100
AcDbLine
 10
357.3529899196
 20
188.448940896
 30
0.0
 11
361.9140854077
 21
185.8158765171
 31
0.0
  0
LINE
  5
203
330
1F
100
AcDbEntity
  8
0
  6
Continuous
 62
     7
370
    25
100
AcDbLine
 10
253.730315678
 20
188.448940896
 30
0.0
 11
253.730315678
 21
189.2654817079
 31
0.0
  0
ARC
  5
204
330
1F
100
AcDbEntity
  8
0
  6
Continuous
 62
     7
370
    25
100
AcDbCircle
 10
253.1755106478
 20
184.5705624077
 30
0.0
 40
3.917860171051876
100
AcDbArc
 50
81.8590257879
 51
149.6859511798
  0
LINE
  5
205
330
1F
100
AcDbEntity
  8
0
  6
Continuous
 62
     7
370
    25
100
AcDbLine
 10
348.4859758664
 20
188.448940896
 30
0.0
 11
348.4859758664
 21
189.2654817079
 31
0.0
  0
ARC
  5
206
330
1F
100
AcDbEntity
  8
0
  6
Continuous
 62
     7
370
    25
100
AcDbCircle
 10
347.9311708363
 20
184.5705624077
 30
0.0
 40
3.917860171052764
100
AcDbArc
 50
81.8590257879
 51
149.6859511798
  0
LINE
  5
207
330
1F
100
AcDbEntity
  8
0
  6
Continuous
 62
     7
370
    25
100
AcDbLine
 10
263.680315678
 20
188.448940896
 30
0.0
 11
263.680315678
 21
189.2654817079
 31
0.0
  0
ARC
  5
208
330
1F
100
AcDbEntity
  8
0
  6
Continuous
 62
     7
370
    25
100
AcDbCircle
 10
264.2034771648
 20
184.505024303
 30
0.0
 40
3.978464029426967
100
AcDbArc
 50
30.8988377646
 51
97.5561852676
  0
LINE
  5
209
330
1F
100
AcDbEntity
  8
0
  6
Continuous
 62
     7
370
    25
100
AcDbLine
 10
358.4359758664
 20
188.448940896
 30
0.0
 11
358.4359758664
 21
189.2654817079
 31
0.0
  0
ARC
  5
20A
330
1F
100
AcDbEntity
  8
0
  6
Continuous
 62
     7
370
    25
100
AcDbCircle
 10
358.9591373532
 20
184.505024303
 30
0.0
 40
3.978464029426385
100
AcDbArc
 50
30.8988377646
 51
97.5561852676
  0
LINE
  5
20B
330
1F
100
AcDbEntity
  8
0
  6
Continuous
 62
     7
370
    25
100
AcDbLine
 10
263.680315678
 20
188.448940896
 30
0.0
 11
253.730315678
 21
188.448940896
 31
0.0
  0
LINE
  5
20C
330
1F
100
AcDbEntity
  8
0
  6
Continuous
 62
     7
370
    25
100
AcDbLine
 10
358.4359758664
 20
188.448940896
 30
0.0
 11
348.4859758664
 21
188.448940896
 31
0.0
  0
LINE
  5
20D
330
1F
100
AcDbEntity
  8
0
  6
Continuous
 62
     7
370
    25
100
AcDbLine
 10
334.3674170196
 20
195.3919293702
 30
0.0
 11
333.6603102385
 21
196.616674238
 31
0.0
  0
ARC
  5
20E
330
1F
100
AcDbEntity
  8
0
  6
Continuous
 62
     7
370
    25
100
AcDbCircle
 10
334.8051023085
 20
194.1900250058
 30
0.0
 40
1.279117865235658
100
AcDbArc
 50
110.0095917093
 51
234.6212607634
  0
LWPOLYLINE
  5
20F
330
1F
100
AcDbEntity
  8
0
  6
Continuous
 62
     7
370
    25
100
AcDbPolyline
 90
       24
 70
   128
 43
0.0
 10
334.3674170196
 20
195.3919293702
 10
334.6624530762
 20
195.5412966065
 10
334.9887373632
 20
195.6671546743
 10
335.3406870661
 20
195.7673501071
 10
335.7122802279
 20
195.8401685333
 10
336.0971587865
 20
195.8843640095
 10
336.4887373632
 20
195.8991803387
 10
336.8803159399
 20
195.8843640095
 10
337.2651944985
 20
195.8401685333
 10
337.6367876603
 20
195.7673501071
 10
337.9887373632
 20
195.6671546743
 10
338.3150216502
 20
195.5412966065
 10
338.6100577068
 20
195.3919293702
 10
338.8687973841
 20
195.2216086801
 10
339.0868135746
 20
195.0332487706
 10
339.2603759607
 20
194.8300725318
 10
339.3865148421
 20
194.6155563656
 10
339.4630719473
 20
194.393370703
 10
339.4887373632
 20
194.1673172024
 10
339.4630719473
 20
193.9412637018
 10
339.3865148421
 20
193.7190780393
 10
339.2603759607
 20
193.5045618731
 10
339.0868135746
 20
193.3013856343
 10
338.912954369
 20
193.1471056
  0
LWPOLYLINE
  5
210
330
1F
100
AcDbEntity
  8
0
  6
Continuous
 62
     7
370
    25
100
AcDbPolyline
 90
       29
 70
   128
 43
0.0
 10
285.5831457722
 20
206.8371883045
 10
285.6082969326
 20
207.0957311695
 10
285.6834341235
 20
207.351022708
 10
285.8076124509
 20
207.5998524806
 10
285.9792703006
 20
207.8390913088
 10
286.1962489753
 20
208.0657306254
 10
286.4558198423
 20
208.2769203094
 10
286.7547186474
 20
208.4700045282
 10
287.0891865647
 20
208.6425551355
 10
287.4550174661
 20
208.7924022075
 10
287.8476108157
 20
208.9176613302
 10
288.2620295244
 20
209.0167572975
 10
288.6930620364
 20
209.08844392
 10
289.1352878678
 20
209.131819697
 10
289.5831457722
 20
209.1463391529
 10
290.0310036766
 20
209.131819697
 10
290.473229508
 20
209.08844392
 10
290.90426202
 20
209.0167572975
 10
291.3186807286
 20
208.9176613302
 10
291.7112740782
 20
208.7924022075
 10
292.0771049796
 20
208.6425551355
 10
292.4115728969
 20
208.4700045282
 10
292.7104717021
 20
208.2769203094
 10
292.9700425691
 20
208.0657306254
 10
293.1870212438
 20
207.8390913088
 10
293.3586790934
 20
207.5998524806
 10
293.4828574209
 20
207.351022708
 10
293.5579946118
 20
207.0957311695
 10
293.5831457722
 20
206.8371883045
  0
LWPOLYLINE
  5
211
330
1F
100
AcDbEntity
  8
0
  6
Continuous
 62
     7
370
    25
100
AcDbPolyline
 90
       29
 70
   128
 43
0.0
 10
318.5831457722
 20
206.8371883045
 10
318.6082969326
 20
207.0957311695
 10
318.6834341235
 20
207.351022708
 10
318.8076124509
 20
207.5998524806
 10
318.9792703006
 20
207.8390913088
 10
319.1962489753
 20
208.0657306254
 10
319.4558198423
 20
208.2769203094
 10
319.7547186474
 20
208.4700045282
 10
320.0891865647
 20
208.6425551355
 10
320.4550174661
 20
208.7924022075
 10
320.8476108157
 20
208.9176613302
 10
321.2620295244
 20
209.0167572975
 10
321.6930620364
 20
209.08844392
 10
322.1352878678
 20
209.131819697
 10
322.5831457722
 20
209.1463391529
 10
323.0310036766
 20
209.131819697
 10
323.473229508
 20
209.08844392
 10
323.90426202
 20
209.0167572975
 10
324.3186807286
 20
208.9176613302
 10
324.7112740782
 20
208.7924022075
 10
325.0771049796
 20
208.6425551355
 10
325.4115728969
 20
208.4700045282
 10
325.7104717021
 20
208.2769203094
 10
325.9700425691
 20
208.0657306254
 10
326.1870212438
 20
207.8390913088
 10
326.3586790934
 20
207.5998524806
 10
326.4828574209
 20
207.351022708
 10
326.5579946118
 20
207.0957311695
 10
326.5831457722
 20
206.8371883045
  0
LWPOLYLINE
  5
212
330
1F
100
AcDbEntity
  8
0
  6
Continuous
 62
     7
370
    25
100
AcDbPolyline
 90
       29
 70
   128
 43
0.0
 10
302.0831457722
 20
214.37341797
 10
302.1082969326
 20
214.631960835
 10
302.1834341235
 20
214.8872523735
 10
302.3076124509
 20
215.1360821461
 10
302.4792703006
 20
215.3753209743
 10
302.6962489753
 20
215.6019602909
 10
302.9558198423
 20
215.8131499749
 10
303.2547186474
 20
216.0062341937
 10
303.5891865647
 20
216.178784801
 10
303.9550174661
 20
216.328631873
 10
304.3476108157
 20
216.4538909957
 10
304.7620295244
 20
216.552986963
 10
305.1930620364
 20
216.6246735855
 10
305.6352878678
 20
216.6680493625
 10
306.0831457722
 20
216.6825688184
 10
306.5310036766
 20
216.6680493625
 10
306.973229508
 20
216.6246735855
 10
307.40426202
 20
216.552986963
 10
307.8186807286
 20
216.4538909957
 10
308.2112740782
 20
216.328631873
 10
308.5771049796
 20
216.178784801
 10
308.9115728969
 20
216.0062341937
 10
309.2104717021
 20
215.8131499749
 10
309.4700425691
 20
215.6019602909
 10
309.6870212438
 20
215.3753209743
 10
309.8586790934
 20
215.1360821461
 10
309.9828574209
 20
214.8872523735
 10
310.0579946118
 20
214.631960835
 10
310.0831457722
 20
214.37341797
  0
LWPOLYLINE
  5
213
330
1F
100
AcDbEntity
  8
0
  6
Continuous
 62
     7
370
    25
100
AcDbPolyline
 90
       21
 70
   128
 43
0.0
 10
279.9201948683
 20
192.1263632729
 10
278.9713023259
 20
191.5579496354
 10
278.0594413005
 20
190.96968275
 10
277.1858572845
 20
190.3623661183
 10
276.3517434886
 20
189.736829262
 10
275.558239212
 20
189.093926589
 10
274.8064282861
 20
188.4345362271
 10
274.0973375941
 20
187.7595588243
 10
273.4319356686
 20
187.0699163184
 10
272.8111313686
 20
186.3665506782
 10
272.2357726381
 20
185.6504226165
 10
271.706645348
 20
184.9225102782
 10
271.2244722224
 20
184.1838079038
 10
270.7899118519
 20
183.4353244721
 10
270.4035577937
 20
182.6780823213
 10
270.0659377608
 20
181.9131157532
 10
269.7775129018
 20
181.14146962
 10
269.5386771702
 20
180.3641978975
 10
269.3497567869
 20
179.5823622455
 10
269.2110097944
 20
178.7970305574
 10
269.1679402114
 20
178.468062925
  0
ARC
  5
214
330
1F
100
AcDbEntity
  8
0
  6
Continuous
 62
     7
370
    25
100
AcDbCircle
 10
332.4531806822
 20
161.9189647956
 30
0.0
 40
0.2515152466506509
100
AcDbArc
 50
54.3841461222
 51
114.2873344623
  0
LWPOLYLINE
  5
215
330
1F
100
AcDbEntity
  8
0
  6
Continuous
 62
     7
370
    25
100
AcDbPolyline
 90
       64
 70
   128
 43
0.0
 10
343.0063727384
 20
178.3980805239
 10
343.0057783175
 20
178.4033887622
 10
342.8921933817
 20
179.1900664589
 10
342.7283317146
 20
179.9737839484
 10
342.5144171313
 20
180.7534707668
 10
342.2507418135
 20
181.5280619557
 10
341.93766591
 20
182.2964995168
 10
341.5756170448
 20
183.0577338566
 10
341.165089733
 20
183.8107252208
 10
340.7066447057
 20
184.5544451137
 10
340.2009081436
 20
185.2878777033
 10
339.648570822
 20
186.010021209
 10
339.0503871671
 20
186.7198892696
 10
338.4071742261
 20
187.4165122907
 10
337.7198105503
 20
188.0989387691
 10
336.9892349959
 20
188.7662365922
 10
336.2164454411
 20
189.4174943116
 10
335.4024974237
 20
190.0518223875
 10
334.5485026985
 20
190.6683544041
 10
333.6556277199
 20
191.2662482527
 10
332.7250920474
 20
191.8446872824
 10
331.758166681
 20
192.4028814149
 10
330.7561723244
 20
192.9400682243
 10
329.7204775813
 20
193.4555139779
 10
328.6524970862
 20
193.9485146389
 10
327.553689572
 20
194.4183968277
 10
326.4255558776
 20
194.8645187416
 10
325.2696368979
 20
195.286271032
 10
324.0875114792
 20
195.6830776357
 10
322.8807942625
 20
196.0543965629
 10
321.6511334786
 20
196.3997206363
 10
320.4002086961
 20
196.7185781851
 10
319.1297285278
 20
197.0105336879
 10
317.8414282967
 20
197.2751883689
 10
316.5370676661
 20
197.5121807414
 10
315.2184282356
 20
197.7211871025
 10
313.8873111081
 20
197.9019219745
 10
312.5455344296
 20
198.0541384954
 10
311.1949309054
 20
198.1776287558
 10
309.8373452976
 20
198.2722240828
 10
308.4746319049
 20
198.3377952704
 10
307.1086520297
 20
198.3742527565
 10
305.7412714364
 20
198.3815467445
 10
304.3743578023
 20
198.3596672715
 10
303.009778167
 20
198.3086442225
 10
301.6493963822
 20
198.2285472887
 10
300.2950705657
 20
198.1194858728
 10
298.9486505637
 20
197.9816089398
 10
297.611975424
 20
197.8151048128
 10
296.2868708841
 20
197.6202009165
 10
294.9751468772
 20
197.3971634661
 10
293.6785950608
 20
197.1462971041
 10
292.3989863685
 20
196.8679444836
 10
291.1380685919
 20
196.5624858008
 10
289.8975639931
 20
196.2303382757
 10
288.6791669521
 20
195.8719555817
 10
287.4845416527
 20
195.4878272265
 10
286.3153198094
 20
195.0784778833
 10
285.1730984385
 20
194.6444666739
 10
284.0594376772
 20
194.1863864055
 10
282.9758586519
 20
193.7048627607
 10
281.9238414014
 20
193.2005534428
 10
280.9048228546
 20
192.6741472777
 10
279.9201948683
 20
192.1263632729
  0
ARC
  5
216
330
1F
100
AcDbEntity
  8
0
  6
Continuous
 62
     7
370
    25
100
AcDbCircle
 10
226.5097538037
 20
176.4221525141
 30
0.0
 40
1.245906213557312
100
AcDbArc
 50
54.0761010947
 51
114.6134404762
  0
ARC
  5
217
330
1F
100
AcDbEntity
  8
0
  6
Continuous
 62
     7
370
    25
100
AcDbCircle
 10
225.9810401441
 20
175.5067180763
 30
0.0
 40
1.245805404816387
100
AcDbArc
 50
185.3882594289
 51
245.9318815287
  0
ARC
  5
218
330
1F
100
AcDbEntity
  8
0
  6
Continuous
 62
     7
370
    25
100
AcDbCircle
 10
385.6565377406
 20
176.4221525141
 30
0.0
 40
1.245906213557788
100
AcDbArc
 50
65.3865595238
 51
125.9238989053
  0
ARC
  5
219
330
1F
100
AcDbEntity
  8
0
  6
Continuous
 62
     7
370
    25
100
AcDbCircle
 10
386.1852514002
 20
175.5067180763
 30
0.0
 40
1.24580540481641
100
AcDbArc
 50
294.0681184713
 51
354.6117405711
  0
ARC
  5
21A
330
1F
100
AcDbEntity
  8
0
  6
Continuous
 62
     7
370
    25
100
AcDbCircle
 10
305.352159906
 20
221.9369047483
 30
0.0
 40
1.245906213557858
100
AcDbArc
 50
54.0761010947
 51
114.6134404762
  0
ARC
  5
21B
330
1F
100
AcDbEntity
  8
0
  6
Continuous
 62
     7
370
    25
100
AcDbCircle
 10
306.8141316383
 20
221.9369047483
 30
0.0
 40
1.245906213557426
100
AcDbArc
 50
65.3865595238
 51
125.9238989053
  0
LINE
  5
21C
330
1F
100
AcDbEntity
  8
0
  6
Continuous
 62
     7
370
    25
100
AcDbLine
 10
66.0292403886
 20
58.4499485999
 30
0.0
 11
66.0292403886
 21
55.9499485999
 31
0.0
  0
ARC
  5
21D
330
1F
100
AcDbEntity
  8
0
  6
Continuous
 62
     7
370
    25
100
AcDbCircle
 10
66.0292403886
 20
58.4499485999
 30
0.0
 40
2.5
100
AcDbArc
 50
180.0
 51
270.0
  0
LINE
  5
21E
330
1F
100
AcDbEntity
  8
0
  6
Continuous
 62
     7
370
    25
100
AcDbLine
 10
63.5292403886
 20
58.4499485999
 30
0.0
 11
66.0292403886
 21
58.4499485999
 31
0.0
  0
LINE
  5
21F
330
1F
100
AcDbEntity
  8
0
  6
Continuous
 62
     7
370
    25
100
AcDbLine
 10
66.0292403886
 20
58.4499485999
 30
0.0
 11
177.5292403886
 21
58.4499485999
 31
0.0
  0
LINE
  5
220
330
1F
100
AcDbEntity
  8
0
  6
Continuous
 62
     7
370
    25
100
AcDbLine
 10
177.5292403886
 20
58.4499485999
 30
0.0
 11
177.5292403886
 21
55.9499485999
 31
0.0
  0
LINE
  5
221
330
1F
100
AcDbEntity
  8
0
  6
Continuous
 62
     7
370
    25
100
AcDbLine
 10
177.5292403886
 20
55.9499485999
 30
0.0
 11
66.0292403886
 21
55.9499485999
 31
0.0
  0
LINE
  5
222
330
1F
100
AcDbEntity
  8
0
  6
Continuous
 62
     7
370
    25
100
AcDbLine
 10
177.5292403886
 20
58.4499485999
 30
0.0
 11
180.0292403886
 21
58.4499485999
 31
0.0
  0
ARC
  5
223
330
1F
100
AcDbEntity
  8
0
  6
Continuous
 62
     7
370
    25
100
AcDbCircle
 10
177.5292403886
 20
58.4499485999
 30
0.0
 40
2.5
100
AcDbArc
 50
270.0
 51
0.0
  0
LINE
  5
224
330
1F
100
AcDbEntity
  8
0
  6
Continuous
 62
     7
370
    25
100
AcDbLine
 10
177.5292403886
 20
58.4499485999
 30
0.0
 11
177.5292403886
 21
169.9499485999
 31
0.0
  0
LINE
  5
225
330
1F
100
AcDbEntity
  8
0
  6
Continuous
 62
     7
370
    25
100
AcDbLine
 10
177.5292403886
 20
169.9499485999
 30
0.0
 11
180.0292403886
 21
169.9499485999
 31
0.0
  0
LINE
  5
226
330
1F
100
AcDbEntity
  8
0
  6
Continuous
 62
     7
370
    25
100
AcDbLine
 10
180.0292403886
 20
169.9499485999
 30
0.0
 11
180.0292403886
 21
58.4499485999
 31
0.0
  0
LINE
  5
227
330
1F
100
AcDbEntity
  8
0
  6
Continuous
 62
     7
370
    25
100
AcDbLine
 10
63.5292403886
 20
58.4499485999
 30
0.0
 11
63.5292403886
 21
169.9499485999
 31
0.0
  0
LINE
  5
228
330
1F
100
AcDbEntity
  8
0
  6
Continuous
 62
     7
370
    25
100
AcDbLine
 10
63.5292403886
 20
169.9499485999
 30
0.0
 11
66.0292403886
 21
169.9499485999
 31
0.0
  0
LINE
  5
229
330
1F
100
AcDbEntity
  8
0
  6
Continuous
 62
     7
370
    25
100
AcDbLine
 10
66.0292403886
 20
169.9499485999
 30
0.0
 11
66.0292403886
 21
58.4499485999
 31
0.0
  0
LINE
  5
22A
330
1F
100
AcDbEntity
  8
0
  6
Continuous
 62
     7
370
    25
100
AcDbLine
 10
177.5292403886
 20
169.9499485999
 30
0.0
 11
66.0292403886
 21
169.9499485999
 31
0.0
  0
ARC
  5
22B
330
1F
100
AcDbEntity
  8
0
  6
Continuous
 62
     7
370
    25
100
AcDbCircle
 10
121.7792403886
 20
114.1999485999
 30
0.0
 40
37.50000000000001
100
AcDbArc
 50
90.0
 51
270.0
  0
ARC
  5
22C
330
1F
100
AcDbEntity
  8
0
  6
Continuous
 62
     7
370
    25
100
AcDbCircle
 10
121.7792403886
 20
114.1999485999
 30
0.0
 40
37.50000000000001
100
AcDbArc
 50
270.0
 51
90.0
  0
ARC
  5
22D
330
1F
100
AcDbEntity
  8
0
  6
Continuous
 62
     7
370
    25
100
AcDbCircle
 10
164.7792403886
 20
114.1999485999
 30
0.0
 40
4.000000000000014
100
AcDbArc
 50
90.0
 51
270.0
  0
ARC
  5
22E
330
1F
100
AcDbEntity
  8
0
  6
Continuous
 62
     7
370
    25
100
AcDbCircle
 10
164.7792403886
 20
114.1999485999
 30
0.0
 40
4.000000000000014
100
AcDbArc
 50
270.0
 51
90.0
  0
ARC
  5
22F
330
1F
100
AcDbEntity
  8
0
  6
Continuous
 62
     7
370
    25
100
AcDbCircle
 10
78.7792403886
 20
114.1999485999
 30
0.0
 40
4.000000000000014
100
AcDbArc
 50
90.0
 51
270.0
  0
ARC
  5
230
330
1F
100
AcDbEntity
  8
0
  6
Continuous
 62
     7
370
    25
100
AcDbCircle
 10
78.7792403886
 20
114.1999485999
 30
0.0
 40
4.000000000000014
100
AcDbArc
 50
270.0
 51
90.0
  0
LINE
  5
231
330
1F
100
AcDbEntity
  8
0
  6
Continuous
 62
     7
370
    25
100
AcDbLine
 10
167.6371163274
 20
86.0197421908
 30
0.0
 11
160.6014038546
 21
93.0554546636
 31
0.0
  0
ARC
  5
232
330
1F
100
AcDbEntity
  8
0
  6
Continuous
 62
     7
370
    25
100
AcDbCircle
 10
170.4655434522
 20
88.8481693156
 30
0.0
 40
4.000000000000032
100
AcDbArc
 50
225.0
 51
270.0
  0
ARC
  5
233
330
1F
100
AcDbEntity
  8
0
  6
Continuous
 62
     7
370
    25
100
AcDbCircle
 10
170.4655434522
 20
88.8481693156
 30
0.0
 40
4.0
100
AcDbArc
 50
270.0
 51
45.0
  0
LINE
  5
234
330
1F
100
AcDbEntity
  8
0
  6
Continuous
 62
     7
370
    25
100
AcDbLine
 10
166.2582581041
 20
98.7123089131
 30
0.0
 11
173.2939705769
 21
91.6765964403
 31
0.0
  0
ARC
  5
235
330
1F
100
AcDbEntity
  8
0
  6
Continuous
 62
     7
370
    25
100
AcDbCircle
 10
163.4298309793
 20
95.8838817884
 30
0.0
 40
3.999999999999992
100
AcDbArc
 50
45.0
 51
225.0
  0
LINE
  5
236
330
1F
100
AcDbEntity
  8
0
  6
Continuous
 62
     7
370
    25
100
AcDbLine
 10
99.255888229
 20
165.7146787882
 30
0.0
 11
106.2916007018
 21
158.6789663154
 31
0.0
  0
ARC
  5
237
330
1F
100
AcDbEntity
  8
0
  6
Continuous
 62
     7
370
    25
100
AcDbCircle
 10
96.4274611043
 20
162.8862516634
 30
0.0
 40
4.000000000000022
100
AcDbArc
 50
45.0
 51
225.0
  0
LINE
  5
238
330
1F
100
AcDbEntity
  8
0
  6
Continuous
 62
     7
370
    25
100
AcDbLine
 10
100.6347464523
 20
153.0221120659
 30
0.0
 11
93.5990339795
 21
160.0578245387
 31
0.0
  0
ARC
  5
239
330
1F
100
AcDbEntity
  8
0
  6
Continuous
 62
     7
370
    25
100
AcDbCircle
 10
103.4631735771
 20
155.8505391906
 30
0.0
 40
4.000000000000012
100
AcDbArc
 50
225.0
 51
270.0
  0
ARC
  5
23A
330
1F
100
AcDbEntity
  8
0
  6
Continuous
 62
     7
370
    25
100
AcDbCircle
 10
103.4631735771
 20
155.8505391906
 30
0.0
 40
4.0
100
AcDbArc
 50
270.0
 51
45.0
  0
LINE
  5
23B
330
1F
100
AcDbEntity
  8
0
  6
Continuous
 62
     7
370
    25
100
AcDbLine
 10
78.3576675134
 20
163.2783757247
 30
0.0
 11
92.4343089694
 21
149.2017342687
 31
0.0
  0
ARC
  5
23C
330
1F
100
AcDbEntity
  8
0
  6
Continuous
 62
     7
370
    25
100
AcDbCircle
 10
75.5292403886
 20
160.4499485999
 30
0.0
 40
4.000000000000032
100
AcDbArc
 50
45.0
 51
225.0
  0
LINE
  5
23D
330
1F
100
AcDbEntity
  8
0
  6
Continuous
 62
     7
370
    25
100
AcDbLine
 10
86.7774547199
 20
143.5448800192
 30
0.0
 11
72.7008132639
 21
157.6215214752
 31
0.0
  0
ARC
  5
23E
330
1F
100
AcDbEntity
  8
0
  6
Continuous
 62
     7
370
    25
100
AcDbCircle
 10
89.6058818447
 20
146.3733071439
 30
0.0
 40
4.0
100
AcDbArc
 50
225.0
 51
270.0
  0
ARC
  5
23F
330
1F
100
AcDbEntity
  8
0
  6
Continuous
 62
     7
370
    25
100
AcDbCircle
 10
89.6058818447
 20
146.3733071439
 30
0.0
 40
4.0
100
AcDbArc
 50
270.0
 51
45.0
  0
ARC
  5
240
330
1F
100
AcDbEntity
  8
0
  6
Continuous
 62
     7
370
    25
100
AcDbCircle
 10
147.131019673
 20
162.8862516634
 30
0.0
 40
4.000000000000032
100
AcDbArc
 50
315.0
 51
135.0
  0
LINE
  5
241
330
1F
100
AcDbEntity
  8
0
  6
Continuous
 62
     7
370
    25
100
AcDbLine
 10
144.3025925483
 20
165.7146787882
 30
0.0
 11
137.2668800754
 21
158.6789663154
 31
0.0
  0
ARC
  5
242
330
1F
100
AcDbEntity
  8
0
  6
Continuous
 62
     7
370
    25
100
AcDbCircle
 10
140.0953072002
 20
155.8505391906
 30
0.0
 40
4.0
100
AcDbArc
 50
135.0
 51
270.0
  0
ARC
  5
243
330
1F
100
AcDbEntity
  8
0
  6
Continuous
 62
     7
370
    25
100
AcDbCircle
 10
140.0953072002
 20
155.8505391906
 30
0.0
 40
4.0
100
AcDbArc
 50
270.0
 51
315.0
  0
LINE
  5
244
330
1F
100
AcDbEntity
  8
0
  6
Continuous
 62
     7
370
    25
100
AcDbLine
 10
142.9237343249
 20
153.0221120659
 30
0.0
 11
149.9594467977
 21
160.0578245387
 31
0.0
  0
ARC
  5
245
330
1F
100
AcDbEntity
  8
0
  6
Continuous
 62
     7
370
    25
100
AcDbCircle
 10
170.4655434522
 20
139.5517278843
 30
0.0
 40
4.000000000000032
100
AcDbArc
 50
315.0
 51
135.0
  0
LINE
  5
246
330
1F
100
AcDbEntity
  8
0
  6
Continuous
 62
     7
370
    25
100
AcDbLine
 10
167.6371163274
 20
142.380155009
 30
0.0
 11
160.6014038546
 21
135.3444425362
 31
0.0
  0
ARC
  5
247
330
1F
100
AcDbEntity
  8
0
  6
Continuous
 62
     7
370
    25
100
AcDbCircle
 10
163.4298309793
 20
132.5160154115
 30
0.0
 40
4.000000000000028
100
AcDbArc
 50
135.0
 51
270.0
  0
ARC
  5
248
330
1F
100
AcDbEntity
  8
0
  6
Continuous
 62
     7
370
    25
100
AcDbCircle
 10
163.4298309793
 20
132.5160154115
 30
0.0
 40
4.000000000000028
100
AcDbArc
 50
270.0
 51
315.0
  0
LINE
  5
249
330
1F
100
AcDbEntity
  8
0
  6
Continuous
 62
     7
370
    25
100
AcDbLine
 10
166.2582581041
 20
129.6875882867
 30
0.0
 11
173.2939705769
 21
136.7233007595
 31
0.0
  0
ARC
  5
24A
330
1F
100
AcDbEntity
  8
0
  6
Continuous
 62
     7
370
    25
100
AcDbCircle
 10
168.0292403886
 20
160.4499485999
 30
0.0
 40
4.000000000000032
100
AcDbArc
 50
315.0
 51
135.0
  0
LINE
  5
24B
330
1F
100
AcDbEntity
  8
0
  6
Continuous
 62
     7
370
    25
100
AcDbLine
 10
165.2008132639
 20
163.2783757247
 30
0.0
 11
151.1241718079
 21
149.2017342687
 31
0.0
  0
ARC
  5
24C
330
1F
100
AcDbEntity
  8
0
  6
Continuous
 62
     7
370
    25
100
AcDbCircle
 10
153.9525989326
 20
146.3733071439
 30
0.0
 40
4.0
100
AcDbArc
 50
135.0
 51
270.0
  0
ARC
  5
24D
330
1F
100
AcDbEntity
  8
0
  6
Continuous
 62
     7
370
    25
100
AcDbCircle
 10
153.9525989326
 20
146.3733071439
 30
0.0
 40
4.000000000000012
100
AcDbArc
 50
270.0
 51
315.0
  0
LINE
  5
24E
330
1F
100
AcDbEntity
  8
0
  6
Continuous
 62
     7
370
    25
100
AcDbLine
 10
156.7810260574
 20
143.5448800192
 30
0.0
 11
170.8576675134
 21
157.6215214752
 31
0.0
  0
LINE
  5
24F
330
1F
100
AcDbEntity
  8
0
  6
Continuous
 62
     7
370
    25
100
AcDbLine
 10
75.9213644499
 20
142.380155009
 30
0.0
 11
82.9570769227
 21
135.3444425362
 31
0.0
  0
ARC
  5
250
330
1F
100
AcDbEntity
  8
0
  6
Continuous
 62
     7
370
    25
100
AcDbCircle
 10
73.0929373251
 20
139.5517278843
 30
0.0
 40
4.000000000000022
100
AcDbArc
 50
45.0
 51
225.0
  0
LINE
  5
251
330
1F
100
AcDbEntity
  8
0
  6
Continuous
 62
     7
370
    25
100
AcDbLine
 10
77.3002226732
 20
129.6875882867
 30
0.0
 11
70.2645102004
 21
136.7233007595
 31
0.0
  0
ARC
  5
252
330
1F
100
AcDbEntity
  8
0
  6
Continuous
 62
     7
370
    25
100
AcDbCircle
 10
80.1286497979
 20
132.5160154115
 30
0.0
 40
4.000000000000028
100
AcDbArc
 50
225.0
 51
270.0
  0
ARC
  5
253
330
1F
100
AcDbEntity
  8
0
  6
Continuous
 62
     7
370
    25
100
AcDbCircle
 10
80.1286497979
 20
132.5160154115
 30
0.0
 40
4.000000000000028
100
AcDbArc
 50
270.0
 51
45.0
  0
ARC
  5
254
330
1F
100
AcDbEntity
  8
0
  6
Continuous
 62
     7
370
    25
100
AcDbCircle
 10
75.5292403886
 20
67.9499485999
 30
0.0
 40
4.000000000000012
100
AcDbArc
 50
135.0
 51
270.0
  0
ARC
  5
255
330
1F
100
AcDbEntity
  8
0
  6
Continuous
 62
     7
370
    25
100
AcDbCircle
 10
75.5292403886
 20
67.9499485999
 30
0.0
 40
4.000000000000007
100
AcDbArc
 50
270.0
 51
315.0
  0
LINE
  5
256
330
1F
100
AcDbEntity
  8
0
  6
Continuous
 62
     7
370
    25
100
AcDbLine
 10
78.3576675134
 20
65.1215214752
 30
0.0
 11
92.4343089694
 21
79.1981629312
 31
0.0
  0
ARC
  5
257
330
1F
100
AcDbEntity
  8
0
  6
Continuous
 62
     7
370
    25
100
AcDbCircle
 10
89.6058818447
 20
82.0265900559
 30
0.0
 40
3.999999999999982
100
AcDbArc
 50
315.0
 51
135.0
  0
LINE
  5
258
330
1F
100
AcDbEntity
  8
0
  6
Continuous
 62
     7
370
    25
100
AcDbLine
 10
86.7774547199
 20
84.8550171807
 30
0.0
 11
72.7008132639
 21
70.7783757247
 31
0.0
  0
ARC
  5
259
330
1F
100
AcDbEntity
  8
0
  6
Continuous
 62
     7
370
    25
100
AcDbCircle
 10
73.0929373251
 20
88.8481693156
 30
0.0
 40
4.0
100
AcDbArc
 50
135.0
 51
270.0
  0
ARC
  5
25A
330
1F
100
AcDbEntity
  8
0
  6
Continuous
 62
     7
370
    25
100
AcDbCircle
 10
73.0929373251
 20
88.8481693156
 30
0.0
 40
4.000000000000022
100
AcDbArc
 50
270.0
 51
315.0
  0
LINE
  5
25B
330
1F
100
AcDbEntity
  8
0
  6
Continuous
 62
     7
370
    25
100
AcDbLine
 10
75.9213644499
 20
86.0197421908
 30
0.0
 11
82.9570769227
 21
93.0554546636
 31
0.0
  0
ARC
  5
25C
330
1F
100
AcDbEntity
  8
0
  6
Continuous
 62
     7
370
    25
100
AcDbCircle
 10
80.1286497979
 20
95.8838817884
 30
0.0
 40
3.999999999999992
100
AcDbArc
 50
315.0
 51
135.0
  0
LINE
  5
25D
330
1F
100
AcDbEntity
  8
0
  6
Continuous
 62
     7
370
    25
100
AcDbLine
 10
77.3002226732
 20
98.7123089131
 30
0.0
 11
70.2645102004
 21
91.6765964403
 31
0.0
  0
ARC
  5
25E
330
1F
100
AcDbEntity
  8
0
  6
Continuous
 62
     7
370
    25
100
AcDbCircle
 10
96.4274611043
 20
65.5136455364
 30
0.0
 40
4.000000000000022
100
AcDbArc
 50
135.0
 51
270.0
  0
ARC
  5
25F
330
1F
100
AcDbEntity
  8
0
  6
Continuous
 62
     7
370
    25
100
AcDbCircle
 10
96.4274611043
 20
65.5136455364
 30
0.0
 40
3.999999999999993
100
AcDbArc
 50
270.0
 51
315.0
  0
LINE
  5
260
330
1F
100
AcDbEntity
  8
0
  6
Continuous
 62
     7
370
    25
100
AcDbLine
 10
99.255888229
 20
62.6852184117
 30
0.0
 11
106.2916007018
 21
69.7209308845
 31
0.0
  0
ARC
  5
261
330
1F
100
AcDbEntity
  8
0
  6
Continuous
 62
     7
370
    25
100
AcDbCircle
 10
103.4631735771
 20
72.5493580092
 30
0.0
 40
4.000000000000002
100
AcDbArc
 50
315.0
 51
135.0
  0
LINE
  5
262
330
1F
100
AcDbEntity
  8
0
  6
Continuous
 62
     7
370
    25
100
AcDbLine
 10
100.6347464523
 20
75.377785134
 30
0.0
 11
93.5990339795
 21
68.3420726612
 31
0.0
  0
LINE
  5
263
330
1F
100
AcDbEntity
  8
0
  6
Continuous
 62
     7
370
    25
100
AcDbLine
 10
165.2008132639
 20
65.1215214752
 30
0.0
 11
151.1241718079
 21
79.1981629312
 31
0.0
  0
ARC
  5
264
330
1F
100
AcDbEntity
  8
0
  6
Continuous
 62
     7
370
    25
100
AcDbCircle
 10
168.0292403886
 20
67.9499485999
 30
0.0
 40
4.000000000000007
100
AcDbArc
 50
225.0
 51
270.0
  0
ARC
  5
265
330
1F
100
AcDbEntity
  8
0
  6
Continuous
 62
     7
370
    25
100
AcDbCircle
 10
168.0292403886
 20
67.9499485999
 30
0.0
 40
4.000000000000012
100
AcDbArc
 50
270.0
 51
45.0
  0
LINE
  5
266
330
1F
100
AcDbEntity
  8
0
  6
Continuous
 62
     7
370
    25
100
AcDbLine
 10
156.7810260574
 20
84.8550171807
 30
0.0
 11
170.8576675134
 21
70.7783757247
 31
0.0
  0
ARC
  5
267
330
1F
100
AcDbEntity
  8
0
  6
Continuous
 62
     7
370
    25
100
AcDbCircle
 10
153.9525989326
 20
82.0265900559
 30
0.0
 40
4.000000000000012
100
AcDbArc
 50
45.0
 51
225.0
  0
LINE
  5
268
330
1F
100
AcDbEntity
  8
0
  6
Continuous
 62
     7
370
    25
100
AcDbLine
 10
144.3025925483
 20
62.6852184117
 30
0.0
 11
137.2668800754
 21
69.7209308845
 31
0.0
  0
ARC
  5
269
330
1F
100
AcDbEntity
  8
0
  6
Continuous
 62
     7
370
    25
100
AcDbCircle
 10
147.131019673
 20
65.5136455364
 30
0.0
 40
3.999999999999993
100
AcDbArc
 50
225.0
 51
270.0
  0
ARC
  5
26A
330
1F
100
AcDbEntity
  8
0
  6
Continuous
 62
     7
370
    25
100
AcDbCircle
 10
147.131019673
 20
65.5136455364
 30
0.0
 40
4.000000000000032
100
AcDbArc
 50
270.0
 51
45.0
  0
LINE
  5
26B
330
1F
100
AcDbEntity
  8
0
  6
Continuous
 62
     7
370
    25
100
AcDbLine
 10
142.9237343249
 20
75.377785134
 30
0.0
 11
149.9594467977
 21
68.3420726612
 31
0.0
  0
ARC
  5
26C
330
1F
100
AcDbEntity
  8
0
  6
Continuous
 62
     7
370
    25
100
AcDbCircle
 10
140.0953072002
 20
72.5493580092
 30
0.0
 40
4.000000000000012
100
AcDbArc
 50
45.0
 51
225.0
  0
LINE
  5
26D
330
1F
100
AcDbEntity
  8
0
  6
Continuous
 62
     7
370
    25
100
AcDbLine
 10
121.7792403886
 20
151.1999485999
 30
0.0
 11
121.7792403886
 21
151.6999485999
 31
0.0
  0
LINE
  5
26E
330
1F
100
AcDbEntity
  8
0
  6
Continuous
 62
     7
370
    25
100
AcDbLine
 10
121.7792403886
 20
77.1999485999
 30
0.0
 11
121.7792403886
 21
76.6999485999
 31
0.0
  0
ARC
  5
26F
330
1F
100
AcDbEntity
  8
0
  6
Continuous
 62
     7
370
    25
100
AcDbCircle
 10
121.7792403886
 20
114.1999485999
 30
0.0
 40
37.00000000000001
100
AcDbArc
 50
270.0
 51
90.0
  0
ARC
  5
270
330
1F
100
AcDbEntity
  8
0
  6
Continuous
 62
     7
370
    25
100
AcDbCircle
 10
121.7792403886
 20
114.1999485999
 30
0.0
 40
37.00000000000001
100
AcDbArc
 50
90.0
 51
270.0
  0
LINE
  5
271
330
1F
100
AcDbEntity
  8
0
  6
Continuous
 62
     7
370
    25
100
AcDbLine
 10
78.7792403886
 20
111.1999485999
 30
0.0
 11
78.7792403886
 21
110.1999485999
 31
0.0
  0
LINE
  5
272
330
1F
100
AcDbEntity
  8
0
  6
Continuous
 62
     7
370
    25
100
AcDbLine
 10
78.7792403886
 20
117.1999485999
 30
0.0
 11
78.7792403886
 21
118.1999485999
 31
0.0
  0
ARC
  5
273
330
1F
100
AcDbEntity
  8
0
  6
Continuous
 62
     7
370
    25
100
AcDbCircle
 10
78.7792403886
 20
114.1999485999
 30
0.0
 40
3.0
100
AcDbArc
 50
90.0
 51
270.0
  0
LINE
  5
274
330
1F
100
AcDbEntity
  8
0
  6
Continuous
 62
     7
370
    25
100
AcDbLine
 10
164.7792403886
 20
111.1999485999
 30
0.0
 11
164.7792403886
 21
110.1999485999
 31
0.0
  0
ARC
  5
275
330
1F
100
AcDbEntity
  8
0
  6
Continuous
 62
     7
370
    25
100
AcDbCircle
 10
164.7792403886
 20
114.1999485999
 30
0.0
 40
3.0
100
AcDbArc
 50
270.0
 51
90.0
  0
LINE
  5
276
330
1F
100
AcDbEntity
  8
0
  6
Continuous
 62
     7
370
    25
100
AcDbLine
 10
164.7792403886
 20
117.1999485999
 30
0.0
 11
164.7792403886
 21
118.1999485999
 31
0.0
  0
ARC
  5
277
330
1F
100
AcDbEntity
  8
0
  6
Continuous
 62
     7
370
    25
100
AcDbCircle
 10
164.7792403886
 20
114.1999485999
 30
0.0
 40
3.0
100
AcDbArc
 50
90.0
 51
270.0
  0
ARC
  5
278
330
1F
100
AcDbEntity
  8
0
  6
Continuous
 62
     7
370
    25
100
AcDbCircle
 10
78.7792403886
 20
114.1999485999
 30
0.0
 40
3.0
100
AcDbArc
 50
270.0
 51
90.0
  0
LINE
  5
279
330
1F
100
AcDbEntity
  8
0
  6
Continuous
 62
     7
370
    25
100
AcDbLine
 10
66.0292403886
 20
172.4499485999
 30
0.0
 11
66.0292403886
 21
169.9499485999
 31
0.0
  0
ARC
  5
27A
330
1F
100
AcDbEntity
  8
0
  6
Continuous
 62
     7
370
    25
100
AcDbCircle
 10
66.0292403886
 20
169.9499485999
 30
0.0
 40
2.5
100
AcDbArc
 50
90.0
 51
180.0
  0
LINE
  5
27B
330
1F
100
AcDbEntity
  8
0
  6
Continuous
 62
     7
370
    25
100
AcDbLine
 10
177.5292403886
 20
172.4499485999
 30
0.0
 11
177.5292403886
 21
169.9499485999
 31
0.0
  0
ARC
  5
27C
330
1F
100
AcDbEntity
  8
0
  6
Continuous
 62
     7
370
    25
100
AcDbCircle
 10
177.5292403886
 20
169.9499485999
 30
0.0
 40
2.5
100
AcDbArc
 50
0.0
 51
90.0
  0
LINE
  5
27D
330
1F
100
AcDbEntity
  8
0
  6
Continuous
 62
     7
370
    25
100
AcDbLine
 10
66.0292403886
 20
172.4499485999
 30
0.0
 11
177.5292403886
 21
172.4499485999
 31
0.0
  0
LINE
  5
27E
330
1F
100
AcDbEntity
  8
0
  6
CENTER
 62
     7
370
    25
100
AcDbLine
 10
185.6702618924
 20
114.1999485999
 30
0.0
 11
57.9902900449
 21
114.1999485999
 31
0.0
  0
LINE
  5
27F
330
1F
100
AcDbEntity
  8
0
  6
Continuous
 62
     7
370
    25
100
AcDbLine
 10
183.6702618924
 20
104.1999485999
 30
0.0
 11
183.6702618924
 21
114.1999485999
 31
0.0
  0
SOLID
  5
280
330
1F
100
AcDbEntity
  8
0
  6
Continuous
 62
     7
370
    25
100
AcDbTrace
 10
183.6702618924
 20
114.1999485999
 30
0.0
 11
182.6702618924
 21
110.1999485999
 31
0.0
 12
184.6702618924
 22
110.1999485999
 32
0.0
 13
184.6702618924
 23
110.1999485999
 33
0.0
  0
LINE
  5
281
330
1F
100
AcDbEntity
  8
0
  6
Continuous
 62
     7
370
    25
100
AcDbLine
 10
59.9902900449
 20
104.1999485999
 30
0.0
 11
59.9902900449
 21
114.1999485999
 31
0.0
  0
SOLID
  5
282
330
1F
100
AcDbEntity
  8
0
  6
Continuous
 62
     7
370
    25
100
AcDbTrace
 10
59.9902900449
 20
114.1999485999
 30
0.0
 11
58.9902900449
 21
110.1999485999
 31
0.0
 12
60.9902900449
 22
110.1999485999
 32
0.0
 13
60.9902900449
 23
110.1999485999
 33
0.0
  0
MTEXT
  5
283
330
1F
100
AcDbEntity
  8
0
  6
Continuous
 62
     7
100
AcDbMText
 10
184.9877095403
 20
109.7153297482
 30
0.0
 40
3.5956461589
 41
0.0
 71
     1
 72
     1
  1
A
  7
SLDTEXTSTYLE0
 73
     1
 44
1.0
  0
MTEXT
  5
284
330
1F
100
AcDbEntity
  8
0
  6
Continuous
 62
     7
100
AcDbMText
 10
55.3792232773
 20
109.7153297482
 30
0.0
 40
3.5956461589
 41
0.0
 71
     1
 72
     1
  1
A
  7
SLDTEXTSTYLE0
 73
     1
 44
1.0
  0
LINE
  5
285
330
1F
100
AcDbEntity
  8
0
  6
Continuous
 62
     7
370
    25
100
AcDbLine
 10
158.7792403886
 20
229.7090361511
 30
0.0
 11
158.7792403886
 21
229.2090361511
 31
0.0
  0
ARC
  5
286
330
1F
100
AcDbEntity
  8
0
  6
Continuous
 62
     7
370
    25
100
AcDbCircle
 10
159.2792403886
 20
229.7090361511
 30
0.0
 40
0.5
100
AcDbArc
 50
90.0
 51
180.0
  0
LINE
  5
287
330
1F
100
AcDbEntity
  8
0
  6
Continuous
 62
     7
370
    25
100
AcDbLine
 10
160.7792403886
 20
230.2090361511
 30
0.0
 11
159.2792403886
 21
230.2090361511
 31
0.0
  0
LINE
  5
288
330
1F
100
AcDbEntity
  8
0
  6
Continuous
 62
     7
370
    25
100
AcDbLine
 10
161.7792403886
 20
229.2090361511
 30
0.0
 11
160.7792403886
 21
230.2090361511
 31
0.0
  0
LINE
  5
289
330
1F
100
AcDbEntity
  8
0
  6
Continuous
 62
     7
370
    25
100
AcDbLine
 10
161.7792403886
 20
229.2090361511
 30
0.0
 11
158.7792403886
 21
229.2090361511
 31
0.0
  0
LINE
  5
28A
330
1F
100
AcDbEntity
  8
0
  6
Continuous
 62
     7
370
    25
100
AcDbLine
 10
121.7792403886
 20
229.2090361511
 30
0.0
 11
158.7792403886
 21
229.2090361511
 31
0.0
  0
LINE
  5
28B
330
1F
100
AcDbEntity
  8
0
  6
Continuous
 62
     7
370
    25
100
AcDbLine
 10
121.7792403886
 20
229.2090361511
 30
0.0
 11
121.7792403886
 21
229.7090361511
 31
0.0
  0
LINE
  5
28C
330
1F
100
AcDbEntity
  8
0
  6
Continuous
 62
     7
370
    25
100
AcDbLine
 10
158.7792403886
 20
229.7090361511
 30
0.0
 11
121.7792403886
 21
229.7090361511
 31
0.0
  0
LINE
  5
28D
330
1F
100
AcDbEntity
  8
0
  6
Continuous
 62
     7
370
    25
100
AcDbLine
 10
121.7792403886
 20
229.7090361511
 30
0.0
 11
121.7792403886
 21
230.2090361511
 31
0.0
  0
LINE
  5
28E
330
1F
100
AcDbEntity
  8
0
  6
Continuous
 62
     7
370
    25
100
AcDbLine
 10
121.7792403886
 20
230.2090361511
 30
0.0
 11
159.2792403886
 21
230.2090361511
 31
0.0
  0
LINE
  5
28F
330
1F
100
AcDbEntity
  8
0
  6
Continuous
 62
     7
370
    25
100
AcDbLine
 10
75.7792403886
 20
229.2090361511
 30
0.0
 11
74.7792403886
 21
230.2090361511
 31
0.0
  0
LINE
  5
290
330
1F
100
AcDbEntity
  8
0
  6
Continuous
 62
     7
370
    25
100
AcDbLine
 10
75.7792403886
 20
229.2090361511
 30
0.0
 11
65.5292403886
 21
229.2090361511
 31
0.0
  0
ARC
  5
291
330
1F
100
AcDbEntity
  8
0
  6
Continuous
 62
     7
370
    25
100
AcDbCircle
 10
65.5292403886
 20
228.2090361511
 30
0.0
 40
1.0
100
AcDbArc
 50
90.0
 51
180.0
  0
LINE
  5
292
330
1F
100
AcDbEntity
  8
0
  6
Continuous
 62
     7
370
    25
100
AcDbLine
 10
64.5292403886
 20
228.2090361511
 30
0.0
 11
64.5292403886
 21
222.7090361511
 31
0.0
  0
LINE
  5
293
330
1F
100
AcDbEntity
  8
0
  6
Continuous
 62
     7
370
    25
100
AcDbLine
 10
64.5292403886
 20
222.7090361511
 30
0.0
 11
63.5292403886
 21
222.7090361511
 31
0.0
  0
LINE
  5
294
330
1F
100
AcDbEntity
  8
0
  6
Continuous
 62
     7
370
    25
100
AcDbLine
 10
63.5292403886
 20
227.7090361511
 30
0.0
 11
63.5292403886
 21
222.7090361511
 31
0.0
  0
ARC
  5
295
330
1F
100
AcDbEntity
  8
0
  6
Continuous
 62
     7
370
    25
100
AcDbCircle
 10
66.0292403886
 20
227.7090361511
 30
0.0
 40
2.5
100
AcDbArc
 50
90.0
 51
180.0
  0
LINE
  5
296
330
1F
100
AcDbEntity
  8
0
  6
Continuous
 62
     7
370
    25
100
AcDbLine
 10
74.7792403886
 20
230.2090361511
 30
0.0
 11
66.0292403886
 21
230.2090361511
 31
0.0
  0
LINE
  5
297
330
1F
100
AcDbEntity
  8
0
  6
Continuous
 62
     7
370
    25
100
AcDbLine
 10
179.0292403886
 20
222.7090361511
 30
0.0
 11
179.0292403886
 21
228.2090361511
 31
0.0
  0
ARC
  5
298
330
1F
100
AcDbEntity
  8
0
  6
Continuous
 62
     7
370
    25
100
AcDbCircle
 10
178.0292403886
 20
228.2090361511
 30
0.0
 40
1.0
100
AcDbArc
 50
0.0
 51
90.0
  0
LINE
  5
299
330
1F
100
AcDbEntity
  8
0
  6
Continuous
 62
     7
370
    25
100
AcDbLine
 10
178.0292403886
 20
229.2090361511
 30
0.0
 11
167.7792403886
 21
229.2090361511
 31
0.0
  0
LINE
  5
29A
330
1F
100
AcDbEntity
  8
0
  6
Continuous
 62
     7
370
    25
100
AcDbLine
 10
168.7792403886
 20
230.2090361511
 30
0.0
 11
167.7792403886
 21
229.2090361511
 31
0.0
  0
ARC
  5
29B
330
1F
100
AcDbEntity
  8
0
  6
Continuous
 62
     7
370
    25
100
AcDbCircle
 10
177.5292403886
 20
227.7090361511
 30
0.0
 40
2.5
100
AcDbArc
 50
0.0
 51
90.0
  0
LINE
  5
29C
330
1F
100
AcDbEntity
  8
0
  6
Continuous
 62
     7
370
    25
100
AcDbLine
 10
180.0292403886
 20
222.7090361511
 30
0.0
 11
180.0292403886
 21
227.7090361511
 31
0.0
  0
LINE
  5
29D
330
1F
100
AcDbEntity
  8
0
  6
Continuous
 62
     7
370
    25
100
AcDbLine
 10
180.0292403886
 20
222.7090361511
 30
0.0
 11
179.0292403886
 21
222.7090361511
 31
0.0
  0
LINE
  5
29E
330
1F
100
AcDbEntity
  8
0
  6
Continuous
 62
     7
370
    25
100
AcDbLine
 10
177.5292403886
 20
230.2090361511
 30
0.0
 11
168.7792403886
 21
230.2090361511
 31
0.0
  0
LINE
  5
29F
330
1F
100
AcDbEntity
  8
0
  6
Continuous
 62
     7
370
    25
100
AcDbLine
 10
164.7792403886
 20
229.2090361511
 30
0.0
 11
164.7792403886
 21
230.2090361511
 31
0.0
  0
LINE
  5
2A0
330
1F
100
AcDbEntity
  8
0
  6
Continuous
 62
     7
370
    25
100
AcDbLine
 10
161.7792403886
 20
229.2090361511
 30
0.0
 11
164.7792403886
 21
229.2090361511
 31
0.0
  0
LINE
  5
2A1
330
1F
100
AcDbEntity
  8
0
  6
Continuous
 62
     7
370
    25
100
AcDbLine
 10
164.7792403886
 20
230.2090361511
 30
0.0
 11
160.7792403886
 21
230.2090361511
 31
0.0
  0
LINE
  5
2A2
330
1F
100
AcDbEntity
  8
0
  6
Continuous
 62
     7
370
    25
100
AcDbLine
 10
78.7792403886
 20
229.2090361511
 30
0.0
 11
81.7792403886
 21
229.2090361511
 31
0.0
  0
LINE
  5
2A3
330
1F
100
AcDbEntity
  8
0
  6
Continuous
 62
     7
370
    25
100
AcDbLine
 10
78.7792403886
 20
229.2090361511
 30
0.0
 11
78.7792403886
 21
230.2090361511
 31
0.0
  0
LINE
  5
2A4
330
1F
100
AcDbEntity
  8
0
  6
Continuous
 62
     7
370
    25
100
AcDbLine
 10
82.7792403886
 20
230.2090361511
 30
0.0
 11
81.7792403886
 21
229.2090361511
 31
0.0
  0
LINE
  5
2A5
330
1F
100
AcDbEntity
  8
0
  6
Continuous
 62
     7
370
    25
100
AcDbLine
 10
82.7792403886
 20
230.2090361511
 30
0.0
 11
78.7792403886
 21
230.2090361511
 31
0.0
  0
LINE
  5
2A6
330
1F
100
AcDbEntity
  8
0
  6
Continuous
 62
     7
370
    25
100
AcDbLine
 10
164.7792403886
 20
229.2090361511
 30
0.0
 11
167.7792403886
 21
229.2090361511
 31
0.0
  0
LINE
  5
2A7
330
1F
100
AcDbEntity
  8
0
  6
Continuous
 62
     7
370
    25
100
AcDbLine
 10
168.7792403886
 20
230.2090361511
 30
0.0
 11
164.7792403886
 21
230.2090361511
 31
0.0
  0
LINE
  5
2A8
330
1F
100
AcDbEntity
  8
0
  6
Continuous
 62
     7
370
    25
100
AcDbLine
 10
75.7792403886
 20
229.2090361511
 30
0.0
 11
78.7792403886
 21
229.2090361511
 31
0.0
  0
LINE
  5
2A9
330
1F
100
AcDbEntity
  8
0
  6
Continuous
 62
     7
370
    25
100
AcDbLine
 10
78.7792403886
 20
230.2090361511
 30
0.0
 11
74.7792403886
 21
230.2090361511
 31
0.0
  0
LINE
  5
2AA
330
1F
100
AcDbEntity
  8
0
  6
Continuous
 62
     7
370
    25
100
AcDbLine
 10
84.7792403886
 20
229.2090361511
 30
0.0
 11
84.7792403886
 21
229.7090361511
 31
0.0
  0
LINE
  5
2AB
330
1F
100
AcDbEntity
  8
0
  6
Continuous
 62
     7
370
    25
100
AcDbLine
 10
84.7792403886
 20
229.2090361511
 30
0.0
 11
81.7792403886
 21
229.2090361511
 31
0.0
  0
ARC
  5
2AC
330
1F
100
AcDbEntity
  8
0
  6
Continuous
 62
     7
370
    25
100
AcDbCircle
 10
84.2792403886
 20
229.7090361511
 30
0.0
 40
0.5000000000001563
100
AcDbArc
 50
0.0
 51
90.0
  0
LINE
  5
2AD
330
1F
100
AcDbEntity
  8
0
  6
Continuous
 62
     7
370
    25
100
AcDbLine
 10
84.2792403886
 20
230.2090361511
 30
0.0
 11
82.7792403886
 21
230.2090361511
 31
0.0
  0
LINE
  5
2AE
330
1F
100
AcDbEntity
  8
0
  6
Continuous
 62
     7
370
    25
100
AcDbLine
 10
121.7792403886
 20
229.7090361511
 30
0.0
 11
84.7792403886
 21
229.7090361511
 31
0.0
  0
LINE
  5
2AF
330
1F
100
AcDbEntity
  8
0
  6
Continuous
 62
     7
370
    25
100
AcDbLine
 10
84.2792403886
 20
230.2090361511
 30
0.0
 11
121.7792403886
 21
230.2090361511
 31
0.0
  0
LINE
  5
2B0
330
1F
100
AcDbEntity
  8
0
  6
Continuous
 62
     7
370
    25
100
AcDbLine
 10
84.7792403886
 20
229.2090361511
 30
0.0
 11
121.7792403886
 21
229.2090361511
 31
0.0
  0
LINE
  5
2B1
330
1F
100
AcDbEntity
  8
0
  6
Continuous
 62
     7
370
    25
100
AcDbLine
 10
176.5292403886
 20
222.7090361511
 30
0.0
 11
176.5292403886
 21
228.2090361511
 31
0.0
  0
LINE
  5
2B2
330
1F
100
AcDbEntity
  8
0
  6
Continuous
 62
     7
370
    25
100
AcDbLine
 10
179.0292403886
 20
228.2090361511
 30
0.0
 11
176.5292403886
 21
228.2090361511
 31
0.0
  0
LINE
  5
2B3
330
1F
100
AcDbEntity
  8
0
  6
Continuous
 62
     7
370
    25
100
AcDbLine
 10
179.0292403886
 20
222.7090361511
 30
0.0
 11
176.5292403886
 21
222.7090361511
 31
0.0
  0
LINE
  5
2B4
330
1F
100
AcDbEntity
  8
0
  6
Continuous
 62
     7
370
    25
100
AcDbLine
 10
67.0292403886
 20
228.2090361511
 30
0.0
 11
64.5292403886
 21
228.2090361511
 31
0.0
  0
LINE
  5
2B5
330
1F
100
AcDbEntity
  8
0
  6
Continuous
 62
     7
370
    25
100
AcDbLine
 10
67.0292403886
 20
228.2090361511
 30
0.0
 11
67.0292403886
 21
222.7090361511
 31
0.0
  0
LINE
  5
2B6
330
1F
100
AcDbEntity
  8
0
  6
Continuous
 62
     7
370
    25
100
AcDbLine
 10
67.0292403886
 20
222.7090361511
 30
0.0
 11
64.5292403886
 21
222.7090361511
 31
0.0
  0
LINE
  5
2B7
330
1F
100
AcDbEntity
  8
0
  6
Continuous
 62
     7
370
    25
100
AcDbLine
 10
176.5292403886
 20
228.2090361511
 30
0.0
 11
176.5292403886
 21
229.2090361511
 31
0.0
  0
LINE
  5
2B8
330
1F
100
AcDbEntity
  8
0
  6
Continuous
 62
     7
370
    25
100
AcDbLine
 10
67.0292403886
 20
228.2090361511
 30
0.0
 11
67.0292403886
 21
229.2090361511
 31
0.0
  0
LINE
  5
2B9
330
1F
100
AcDbEntity
  8
0
  6
Continuous
 62
     7
370
    25
100
AcDbLine
 10
176.5292403886
 20
228.2090361511
 30
0.0
 11
67.0292403886
 21
228.2090361511
 31
0.0
  0
LINE
  5
2BA
330
1F
100
AcDbEntity
  8
0
  6
Continuous
 62
     7
370
    25
100
AcDbLine
 10
67.0292403886
 20
222.7090361511
 30
0.0
 11
176.5292403886
 21
222.7090361511
 31
0.0
  0
HATCH
  5
2BB
330
1F
100
AcDbEntity
  8
0
  6
Continuous
 62
     7
370
    18
100
AcDbHatch
 10
0.0
 20
0.0
 30
0.0
210
0.0
220
0.0
230
1.0
  2
ANSI31
 70
     0
 71
     0
 91
        1
 92
        0
 93
        5
 72
     2
 10
84.27924038864082
 20
229.7090361511438
 40
0.5
 50
0.0
 51
89.99999999998371
 73
     1
 72
     1
 10
84.27924038864096
 20
230.2090361511438
 11
82.77924038863937
 21
230.2090361511438
 72
     1
 10
82.77924038863937
 20
230.2090361511438
 11
81.77924038863887
 21
229.2090361511438
 72
     1
 10
81.77924038863887
 20
229.2090361511438
 11
84.77924038864097
 21
229.2090361511438
 72
     1
 10
84.77924038864097
 20
229.2090361511438
 11
84.77924038864097
 21
229.7090361511438
 97
        0
 75
     0
 76
     1
 52
0.0
 41
1.0
 77
     0
 78
     1
 53
45.0
 43
0.0
 44
0.0
 45
-2.245064030267288
 46
2.245064030267288
 79
     0
 98
        1
 10
0.0
 20
0.0
  0
HATCH
  5
2BC
330
1F
100
AcDbEntity
  8
0
  6
Continuous
 62
     7
370
    18
100
AcDbHatch
 10
0.0
 20
0.0
 30
0.0
210
0.0
220
0.0
230
1.0
  2
ANSI31
 70
     0
 71
     0
 91
        1
 92
        0
 93
        8
 72
     1
 10
179.0292403886408
 20
222.7090361511438
 11
180.0292403886408
 21
222.7090361511438
 72
     1
 10
180.0292403886408
 20
222.7090361511438
 11
180.0292403886408
 21
227.7090361511438
 72
     2
 10
177.5292403886408
 20
227.7090361511438
 40
2.5
 50
0.0
 51
90.0
 73
     1
 72
     1
 10
177.5292403886408
 20
230.2090361511438
 11
168.7792403886394
 21
230.2090361511438
 72
     1
 10
168.7792403886394
 20
230.2090361511438
 11
167.7792403886389
 21
229.2090361511438
 72
     1
 10
167.7792403886389
 20
229.2090361511438
 11
178.0292403886408
 21
229.2090361511438
 72
     2
 10
178.0292403886408
 20
228.2090361511438
 40
1.0
 50
270.0000000000008
 51
360.0000000000008
 73
     0
 72
     1
 10
179.0292403886408
 20
228.2090361511438
 11
179.0292403886408
 21
222.7090361511438
 97
        0
 75
     0
 76
     1
 52
0.0
 41
1.0
 77
     0
 78
     1
 53
45.0
 43
0.0
 44
0.0
 45
-2.245064030267288
 46
2.245064030267288
 79
     0
 98
        1
 10
0.0
 20
0.0
  0
HATCH
  5
2BD
330
1F
100
AcDbEntity
  8
0
  6
Continuous
 62
     7
370
    18
100
AcDbHatch
 10
0.0
 20
0.0
 30
0.0
210
0.0
220
0.0
230
1.0
  2
ANSI31
 70
     0
 71
     0
 91
        1
 92
        0
 93
        5
 72
     1
 10
158.7792403886407
 20
229.2090361511438
 11
161.7792403886408
 21
229.2090361511438
 72
     1
 10
161.7792403886408
 20
229.2090361511438
 11
160.7792403886423
 21
230.2090361511438
 72
     1
 10
160.7792403886423
 20
230.2090361511438
 11
159.2792403886408
 21
230.2090361511438
 72
     2
 10
159.2792403886408
 20
229.7090361511438
 40
0.5
 50
90.0
 51
180.0
 73
     1
 72
     1
 10
158.7792403886408
 20
229.7090361511438
 11
158.7792403886407
 21
229.2090361511438
 97
        0
 75
     0
 76
     1
 52
0.0
 41
1.0
 77
     0
 78
     1
 53
45.0
 43
0.0
 44
0.0
 45
-2.245064030267288
 46
2.245064030267288
 79
     0
 98
        1
 10
0.0
 20
0.0
  0
HATCH
  5
2BE
330
1F
100
AcDbEntity
  8
0
  6
Continuous
 62
     7
370
    18
100
AcDbHatch
 10
0.0
 20
0.0
 30
0.0
210
0.0
220
0.0
230
1.0
  2
ANSI31
 70
     0
 71
     0
 91
        1
 92
        0
 93
        8
 72
     2
 10
66.0292403886408
 20
227.7090361511438
 40
2.5
 50
90.0
 51
180.0
 73
     1
 72
     1
 10
63.52924038864082
 20
227.7090361511438
 11
63.52924038864082
 21
222.7090361511438
 72
     1
 10
63.52924038864082
 20
222.7090361511438
 11
64.52924038864082
 21
222.7090361511438
 72
     1
 10
64.52924038864082
 20
222.7090361511438
 11
64.52924038864082
 21
228.2090361511438
 72
     2
 10
65.52924038864082
 20
228.2090361511438
 40
1.0
 50
180.0
 51
270.0000000000008
 73
     0
 72
     1
 10
65.52924038864082
 20
229.2090361511438
 11
75.77924038864275
 21
229.2090361511438
 72
     1
 10
75.77924038864275
 20
229.2090361511438
 11
74.77924038864082
 21
230.2090361511438
 72
     1
 10
74.77924038864082
 20
230.2090361511438
 11
66.0292403886408
 21
230.2090361511438
 97
        0
 75
     0
 76
     1
 52
0.0
 41
1.0
 77
     0
 78
     1
 53
45.0
 43
0.0
 44
0.0
 45
-2.245064030267288
 46
2.245064030267288
 79
     0
 98
        1
 10
0.0
 20
0.0
  0
DIMENSION
  5
2BF
330
1F
100
AcDbEntity
  8
0
  6
Continuous
 62
     7
370
    18
100
AcDbDimension
  2
_D
 10
180.0292403886
 20
237.2090361511
 30
0.0
 11
121.7792403886
 21
237.2090361511
 31
0.0
 70
   160
  1
%%c<>
 71
     2
 42
-1.0
  3
SLDDIMSTYLE0
100
AcDbAlignedDimension
 13
63.5292403886
 23
227.7090361511
 33
0.0
 14
180.0292403886
 24
227.7090361511
 34
0.0
100
AcDbRotatedDimension
  0
DIMENSION
  5
2CB
330
1F
100
AcDbEntity
  8
0
  6
Continuous
 62
     7
370
    18
100
AcDbDimension
  2
_D_1
 10
187.0292403886
 20
222.7090361511
 30
0.0
 11
187.0292403886
 21
226.4590361511
 31
0.0
 70
   160
  1
<>
 71
     2
 42
-1.0
  3
SLDDIMSTYLE1
100
AcDbAlignedDimension
 13
177.5292403886
 23
230.2090361511
 33
0.0
 14
180.0292403886
 24
222.7090361511
 34
0.0
 50
90.0
100
AcDbRotatedDimension
  0
MTEXT
  5
2D8
330
1F
100
AcDbEntity
  8
0
  6
Continuous
 62
     7
370
     0
100
AcDbMText
 10
121.8885647242
 20
246.8467303362
 30
0.0
 40
3.7041666667
 41
0.0
 71
     2
 72
     1
  1
A-A
  7
SLDTEXTSTYLE0
 73
     1
 44
1.0
  0
ENDSEC
  0
SECTION
  2
OBJECTS
  0
DICTIONARY
  5
C
330
0
100
AcDbDictionary
281
     1
  3
ACAD_GROUP
350
D
  3
ACAD_LAYOUT
350
1A
  3
ACAD_MLINESTYLE
350
17
  3
ACAD_PLOTSETTINGS
350
19
  3
ACAD_PLOTSTYLENAME
350
E
  3
ACAD_SCALELIST
350
47
  3
DWGPROPS
350
2D9
  0
DICTIONARY
  5
D
102
{ACAD_REACTORS
330
C
102
}
330
C
100
AcDbDictionary
281
     1
  0
DICTIONARY
  5
1A
102
{ACAD_REACTORS
330
C
102
}
330
C
100
AcDbDictionary
281
     1
  3
Layout1
350
1E
  3
Layout2
350
26
  3
Model
350
22
  0
DICTIONARY
  5
17
102
{ACAD_REACTORS
330
C
102
}
330
C
100
AcDbDictionary
281
     1
  3
Standard
350
18
  0
DICTIONARY
  5
19
102
{ACAD_REACTORS
330
C
102
}
330
C
100
AcDbDictionary
281
     1
  0
ACDBDICTIONARYWDFLT
  5
E
102
{ACAD_REACTORS
330
C
102
}
330
C
100
AcDbDictionary
281
     1
  3
Normal
350
F
100
AcDbDictionaryWithDefault
340
F
  0
DICTIONARY
  5
47
102
{ACAD_REACTORS
330
C
102
}
330
C
100
AcDbDictionary
281
     1
  3
A0
350
48
  3
A1
350
49
  3
A2
350
4A
  3
A3
350
4B
  3
A4
350
4C
  3
A5
350
4D
  3
A6
350
4E
  3
A7
350
4F
  3
A8
350
50
  3
A9
350
51
  3
B0
350
52
  3
B1
350
53
  3
B2
350
54
  3
B3
350
55
  3
B4
350
56
  3
B5
350
57
  3
B6
350
58
  0
XRECORD
  5
2D9
102
{ACAD_REACTORS
330
C
102
}
330
C
100
AcDbXrecord
280
     1
  1
DWGPROPS COOKIE
  2

  3

  4

  6

  7

  8
CH-NTL-RS-WSCAD
  9

300
=
301
=
302
=
303
=
304
=
305
=
306
=
307
=
308
=
309
=
 40
0.0
 41
2460955.502521065
 42
2460955.502524885
  1

 90
        0
  0
LAYOUT
  5
1E
102
{ACAD_REACTORS
330
1A
102
}
330
1A
100
AcDbPlotSettings
  1

  2
none_device
  4

  6

 40
0.0
 41
0.0
 42
0.0
 43
0.0
 44
0.0
 45
0.0
 46
0.0
 47
0.0
 48
0.0
 49
0.0
140
0.0
141
0.0
142
1.0
143
1.0
 70
   688
 72
     1
 73
     0
 74
     5
  7

 75
    16
147
1.0
148
0.0
149
0.0
100
AcDbLayout
  1
Layout1
 70
     1
 71
     1
 10
0.0
 20
0.0
 11
420.0
 21
297.0
 12
0.0
 22
0.0
 32
0.0
 14
1.0000000000E+20
 24
1.0000000000E+20
 34
1.0000000000E+20
 15
-1.0000000000E+20
 25
-1.0000000000E+20
 35
-1.0000000000E+20
146
0.0
 13
0.0
 23
0.0
 33
0.0
 16
1.0
 26
0.0
 36
0.0
 17
0.0
 27
1.0
 37
0.0
 76
     0
330
1B
  0
LAYOUT
  5
26
102
{ACAD_REACTORS
330
1A
102
}
330
1A
100
AcDbPlotSettings
  1

  2
none_device
  4

  6

 40
0.0
 41
0.0
 42
0.0
 43
0.0
 44
0.0
 45
0.0
 46
0.0
 47
0.0
 48
0.0
 49
0.0
140
0.0
141
0.0
142
1.0
143
1.0
 70
   688
 72
     1
 73
     0
 74
     5
  7

 75
    16
147
1.0
148
0.0
149
0.0
100
AcDbLayout
  1
Layout2
 70
     1
 71
     2
 10
0.0
 20
0.0
 11
0.0
 21
0.0
 12
0.0
 22
0.0
 32
0.0
 14
0.0
 24
0.0
 34
0.0
 15
0.0
 25
0.0
 35
0.0
146
0.0
 13
0.0
 23
0.0
 33
0.0
 16
1.0
 26
0.0
 36
0.0
 17
0.0
 27
1.0
 37
0.0
 76
     0
330
23
  0
LAYOUT
  5
22
102
{ACAD_REACTORS
330
1A
102
}
330
1A
100
AcDbPlotSettings
  1

  2
none_device
  4
Letter_(8.50_x_11.00_Inches)
  6

 40
6.35
 41
6.35
 42
6.35000508
 43
6.35000508
 44
215.9
 45
279.4
 46
0.0
 47
0.0
 48
0.0
 49
0.0
140
0.0
141
0.0
142
1.0
143
1.0
 70
  1712
 72
     1
 73
     0
 74
     0
  7

 75
     0
147
1.0
148
0.0
149
0.0
100
AcDbLayout
  1
Model
 70
     1
 71
     0
 10
0.0
 20
0.0
 11
420.0
 21
297.0
 12
0.0
 22
0.0
 32
0.0
 14
0.0
 24
0.0
 34
0.0
 15
420.0
 25
297.0
 35
0.0
146
0.0
 13
0.0
 23
0.0
 33
0.0
 16
1.0
 26
0.0
 36
0.0
 17
0.0
 27
1.0
 37
0.0
 76
     0
330
1F
331
29
  0
MLINESTYLE
  5
18
102
{ACAD_REACTORS
330
17
102
}
330
17
100
AcDbMlineStyle
  2
Standard
 70
     0
  3

 62
   256
 51
90.0
 52
90.0
 71
     2
 49
0.5
 62
   256
  6
BYLAYER
 49
-0.5
 62
   256
  6
BYLAYER
  0
ACDBPLACEHOLDER
  5
F
102
{ACAD_REACTORS
330
E
102
}
330
E
  0
SCALE
  5
48
102
{ACAD_REACTORS
330
47
102
}
330
47
100
AcDbScale
 70
     0
300
1:1
140
1.0
141
1.0
290
     1
  0
SCALE
  5
49
102
{ACAD_REACTORS
330
47
102
}
330
47
100
AcDbScale
 70
     0
300
1:2
140
1.0
141
2.0
290
     0
  0
SCALE
  5
4A
102
{ACAD_REACTORS
330
47
102
}
330
47
100
AcDbScale
 70
     0
300
1:4
140
1.0
141
4.0
290
     0
  0
SCALE
  5
4B
102
{ACAD_REACTORS
330
47
102
}
330
47
100
AcDbScale
 70
     0
300
1:5
140
1.0
141
5.0
290
     0
  0
SCALE
  5
4C
102
{ACAD_REACTORS
330
47
102
}
330
47
100
AcDbScale
 70
     0
300
1:8
140
1.0
141
8.0
290
     0
  0
SCALE
  5
4D
102
{ACAD_REACTORS
330
47
102
}
330
47
100
AcDbScale
 70
     0
300
1:10
140
1.0
141
10.0
290
     0
  0
SCALE
  5
4E
102
{ACAD_REACTORS
330
47
102
}
330
47
100
AcDbScale
 70
     0
300
1:16
140
1.0
141
16.0
290
     0
  0
SCALE
  5
4F
102
{ACAD_REACTORS
330
47
102
}
330
47
100
AcDbScale
 70
     0
300
1:20
140
1.0
141
20.0
290
     0
  0
SCALE
  5
50
102
{ACAD_REACTORS
330
47
102
}
330
47
100
AcDbScale
 70
     0
300
1:30
140
1.0
141
30.0
290
     0
  0
SCALE
  5
51
102
{ACAD_REACTORS
330
47
102
}
330
47
100
AcDbScale
 70
     0
300
1:40
140
1.0
141
40.0
290
     0
  0
SCALE
  5
52
102
{ACAD_REACTORS
330
47
102
}
330
47
100
AcDbScale
 70
     0
300
1:50
140
1.0
141
50.0
290
     0
  0
SCALE
  5
53
102
{ACAD_REACTORS
330
47
102
}
330
47
100
AcDbScale
 70
     0
300
1:100
140
1.0
141
100.0
290
     0
  0
SCALE
  5
54
102
{ACAD_REACTORS
330
47
102
}
330
47
100
AcDbScale
 70
     0
300
2:1
140
2.0
141
1.0
290
     0
  0
SCALE
  5
55
102
{ACAD_REACTORS
330
47
102
}
330
47
100
AcDbScale
 70
     0
300
4:1
140
4.0
141
1.0
290
     0
  0
SCALE
  5
56
102
{ACAD_REACTORS
330
47
102
}
330
47
100
AcDbScale
 70
     0
300
8:1
140
8.0
141
1.0
290
     0
  0
SCALE
  5
57
102
{ACAD_REACTORS
330
47
102
}
330
47
100
AcDbScale
 70
     0
300
10:1
140
10.0
141
1.0
290
     0
  0
SCALE
  5
58
102
{ACAD_REACTORS
330
47
102
}
330
47
100
AcDbScale
 70
     0
300
100:1
140
100.0
141
1.0
290
     0
  0
ENDSEC
  0
EOF
