  0
SECTION
  2
HEADER
  9
$ACADVER
  1
AC1015
  9
$ACADMAINTVER
 70
     6
  9
$DWGCODEPAGE
  3
ANSI_1252
  9
$INSBASE
 10
0.0
 20
0.0
 30
0.0
  9
$EXTMIN
 10
0.0
 20
0.0
 30
0.0
  9
$EXTMAX
 10
420.0
 20
297.0
 30
0.0
  9
$LIMMIN
 10
0.0
 20
0.0
  9
$LIMMAX
 10
420.0
 20
297.0
  9
$ORTHOMODE
 70
     0
  9
$REGENMODE
 70
     1
  9
$FILLMODE
 70
     1
  9
$QTEXTMODE
 70
     0
  9
$MIRRTEXT
 70
     1
  9
$LTSCALE
 40
1.0
  9
$ATTMODE
 70
     1
  9
$TEXTSIZE
 40
3.5
  9
$TRACEWID
 40
1.0
  9
$TEXTSTYLE
  7
Standard
  9
$CLAYER
  8
0
  9
$CELTYPE
  6
ByLayer
  9
$CECOLOR
 62
   256
  9
$CELTSCALE
 40
1.0
  9
$DISPSILH
 70
     0
  9
$DIMSCALE
 40
1.0
  9
$DIMASZ
 40
2.5
  9
$DIMEXO
 40
0.3
  9
$DIMDLI
 40
3.75
  9
$DIMRND
 40
0.0
  9
$DIMDLE
 40
0.0
  9
$DIMEXE
 40
1.0
  9
$DIMTP
 40
0.0
  9
$DIMTM
 40
0.0
  9
$DIMTXT
 40
3.5277777778
  9
$DIMCEN
 40
2.5
  9
$DIMTSZ
 40
0.0
  9
$DIMTOL
 70
     0
  9
$DIMLIM
 70
     0
  9
$DIMTIH
 70
     1
  9
$DIMTOH
 70
     1
  9
$DIMSE1
 70
     0
  9
$DIMSE2
 70
     0
  9
$DIMTAD
 70
     1
  9
$DIMZIN
 70
     0
  9
$DIMBLK
  1

  9
$DIMASO
 70
     1
  9
$DIMSHO
 70
     1
  9
$DIMPOST
  1

  9
$DIMAPOST
  1

  9
$DIMALT
 70
     0
  9
$DIMALTD
 70
     3
  9
$DIMALTF
 40
0.0393700787
  9
$DIMLFAC
 40
1.0
  9
$DIMTOFL
 70
     1
  9
$DIMTVP
 40
0.0
  9
$DIMTIX
 70
     0
  9
$DIMSOXD
 70
     0
  9
$DIMSAH
 70
     0
  9
$DIMBLK1
  1

  9
$DIMBLK2
  1

  9
$DIMSTYLE
  2
ISO-25
  9
$DIMCLRD
 70
     0
  9
$DIMCLRE
 70
     0
  9
$DIMCLRT
 70
     0
  9
$DIMTFAC
 40
1.0
  9
$DIMGAP
 40
1.52
  9
$DIMJUST
 70
     0
  9
$DIMSD1
 70
     0
  9
$DIMSD2
 70
     0
  9
$DIMTOLJ
 70
     0
  9
$DIMTZIN
 70
     0
  9
$DIMALTZ
 70
     0
  9
$DIMALTTZ
 70
     0
  9
$DIMUPT
 70
     0
  9
$DIMDEC
 70
     1
  9
$DIMTDEC
 70
     1
  9
$DIMALTU
 70
     2
  9
$DIMALTTD
 70
     3
  9
$DIMTXSTY
  7
Standard
  9
$DIMAUNIT
 70
     0
  9
$DIMADEC
 70
     1
  9
$DIMALTRND
 40
0.0
  9
$DIMAZIN
 70
     0
  9
$DIMDSEP
 70
    44
  9
$DIMATFIT
 70
     3
  9
$DIMFRAC
 70
     0
  9
$DIMLDRBLK
  1

  9
$DIMLUNIT
 70
     2
  9
$DIMLWD
 70
    -2
  9
$DIMLWE
 70
    -2
  9
$DIMTMOVE
 70
     0
  9
$LUNITS
 70
     2
  9
$LUPREC
 70
     2
  9
$SKETCHINC
 40
1.0
  9
$FILLETRAD
 40
0.0
  9
$AUNITS
 70
     0
  9
$AUPREC
 70
     2
  9
$MENU
  1
.
  9
$ELEVATION
 40
0.0
  9
$PELEVATION
 40
0.0
  9
$THICKNESS
 40
0.0
  9
$LIMCHECK
 70
     0
  9
$CHAMFERA
 40
0.0
  9
$CHAMFERB
 40
0.0
  9
$CHAMFERC
 40
0.0
  9
$CHAMFERD
 40
0.0
  9
$SKPOLY
 70
     0
  9
$TDCREATE
 40
2460955.585786273
  9
$TDUCREATE
 40
2460955.50245294
  9
$TDUPDATE
 40
2460955.585790359
  9
$TDUUPDATE
 40
2460955.502457026
  9
$TDINDWG
 40
0.0000000116
  9
$TDUSRTIMER
 40
0.0000000116
  9
$USRTIMER
 70
     1
  9
$ANGBASE
 50
0.0
  9
$ANGDIR
 70
     0
  9
$PDMODE
 70
     0
  9
$PDSIZE
 40
-1.0
  9
$PLINEWID
 40
0.0
  9
$SPLFRAME
 70
     0
  9
$SPLINETYPE
 70
     6
  9
$SPLINESEGS
 70
     8
  9
$HANDSEED
  5
2EC
  9
$SURFTAB1
 70
     6
  9
$SURFTAB2
 70
     6
  9
$SURFTYPE
 70
     6
  9
$SURFU
 70
     6
  9
$SURFV
 70
     6
  9
$UCSBASE
  2

  9
$UCSNAME
  2

  9
$UCSORG
 10
0.0
 20
0.0
 30
0.0
  9
$UCSXDIR
 10
1.0
 20
0.0
 30
0.0
  9
$UCSYDIR
 10
0.0
 20
1.0
 30
0.0
  9
$UCSORTHOREF
  2

  9
$UCSORTHOVIEW
 70
     0
  9
$UCSORGTOP
 10
0.0
 20
0.0
 30
0.0
  9
$UCSORGBOTTOM
 10
0.0
 20
0.0
 30
0.0
  9
$UCSORGLEFT
 10
0.0
 20
0.0
 30
0.0
  9
$UCSORGRIGHT
 10
0.0
 20
0.0
 30
0.0
  9
$UCSORGFRONT
 10
0.0
 20
0.0
 30
0.0
  9
$UCSORGBACK
 10
0.0
 20
0.0
 30
0.0
  9
$PUCSBASE
  2

  9
$PUCSNAME
  2

  9
$PUCSORG
 10
0.0
 20
0.0
 30
0.0
  9
$PUCSXDIR
 10
1.0
 20
0.0
 30
0.0
  9
$PUCSYDIR
 10
0.0
 20
1.0
 30
0.0
  9
$PUCSORTHOREF
  2

  9
$PUCSORTHOVIEW
 70
     0
  9
$PUCSORGTOP
 10
0.0
 20
0.0
 30
0.0
  9
$PUCSORGBOTTOM
 10
0.0
 20
0.0
 30
0.0
  9
$PUCSORGLEFT
 10
0.0
 20
0.0
 30
0.0
  9
$PUCSORGRIGHT
 10
0.0
 20
0.0
 30
0.0
  9
$PUCSORGFRONT
 10
0.0
 20
0.0
 30
0.0
  9
$PUCSORGBACK
 10
0.0
 20
0.0
 30
0.0
  9
$USERI1
 70
     0
  9
$USERI2
 70
     0
  9
$USERI3
 70
     0
  9
$USERI4
 70
     0
  9
$USERI5
 70
     0
  9
$USERR1
 40
0.0
  9
$USERR2
 40
0.0
  9
$USERR3
 40
0.0
  9
$USERR4
 40
0.0
  9
$USERR5
 40
0.0
  9
$WORLDVIEW
 70
     1
  9
$SHADEDGE
 70
     3
  9
$SHADEDIF
 70
    70
  9
$TILEMODE
 70
     1
  9
$MAXACTVP
 70
    64
  9
$PINSBASE
 10
0.0
 20
0.0
 30
0.0
  9
$PLIMCHECK
 70
     0
  9
$PEXTMIN
 10
1.0000000000E+20
 20
1.0000000000E+20
 30
1.0000000000E+20
  9
$PEXTMAX
 10
-1.0000000000E+20
 20
-1.0000000000E+20
 30
-1.0000000000E+20
  9
$PLIMMIN
 10
0.0
 20
0.0
  9
$PLIMMAX
 10
420.0
 20
297.0
  9
$UNITMODE
 70
     0
  9
$VISRETAIN
 70
     1
  9
$PLINEGEN
 70
     0
  9
$PSLTSCALE
 70
     1
  9
$TREEDEPTH
 70
  3020
  9
$CMLSTYLE
  2
Standard
  9
$CMLJUST
 70
     0
  9
$CMLSCALE
 40
20.0
  9
$PROXYGRAPHICS
 70
     1
  9
$MEASUREMENT
 70
     1
  9
$CELWEIGHT
370
    -1
  9
$ENDCAPS
280
     0
  9
$JOINSTYLE
280
     0
  9
$LWDISPLAY
290
     1
  9
$INSUNITS
 70
     4
  9
$HYPERLINKBASE
  1

  9
$STYLESHEET
  1

  9
$XEDIT
290
     1
  9
$CEPSNTYPE
380
     0
  9
$PSTYLEMODE
290
     1
  9
$FINGERPRINTGUID
  2
{fa64493b-637a-471d-bd1f-2ab5d7032c18}
  9
$VERSIONGUID
  2
{FAEB1C32-E019-11D5-929B-00C0DF256EC4}
  9
$EXTNAMES
290
     1
  9
$PSVPSCALE
 40
0.0
  9
$OLESTARTUP
290
     0
  0
ENDSEC
  0
SECTION
  2
CLASSES
  0
CLASS
  1
ACDBDICTIONARYWDFLT
  2
AcDbDictionaryWithDefault
  3
ObjectDBX Classes
 90
        0
280
     0
281
     0
  0
CLASS
  1
VISUALSTYLE
  2
AcDbVisualStyle
  3
ObjectDBX Classes
 90
     4095
280
     0
281
     0
  0
CLASS
  1
MATERIAL
  2
AcDbMaterial
  3
ObjectDBX Classes
 90
     1153
280
     0
281
     0
  0
CLASS
  1
SCALE
  2
AcDbScale
  3
ObjectDBX Classes
 90
     1153
280
     0
281
     0
  0
CLASS
  1
TABLESTYLE
  2
AcDbTableStyle
  3
ObjectDBX Classes
 90
     4095
280
     0
281
     0
  0
CLASS
  1
MLEADERSTYLE
  2
AcDbMLeaderStyle
  3
ACDB_MLEADERSTYLE_CLASS
 90
     4095
280
     0
281
     0
  0
CLASS
  1
SUN
  2
AcDbSun
  3
SCENEOE
 90
     1153
280
     0
281
     0
  0
CLASS
  1
ACDBPLACEHOLDER
  2
AcDbPlaceHolder
  3
ObjectDBX Classes
 90
        0
280
     0
281
     0
  0
CLASS
  1
LAYOUT
  2
AcDbLayout
  3
ObjectDBX Classes
 90
        0
280
     0
281
     0
  0
ENDSEC
  0
SECTION
  2
TABLES
  0
TABLE
  2
VPORT
  5
8
330
0
100
AcDbSymbolTable
 70
     1
  0
VPORT
  5
29
330
8
100
AcDbSymbolTableRecord
100
AcDbViewportTableRecord
  2
*Active
 70
     0
 10
0.0
 20
0.0
 11
1.0
 21
1.0
 12
210.0
 22
148.5
 13
0.0
 23
0.0
 14
10.0
 24
10.0
 15
10.0
 25
10.0
 16
0.0
 26
0.0
 36
1.0
 17
0.0
 27
0.0
 37
0.0
 40
297.0
 41
1.4141414141
 42
50.0
 43
0.0
 44
0.0
 50
0.0
 51
0.0
 71
     0
 72
  2000
 73
     1
 74
     3
 75
     0
 76
     0
 77
     0
 78
     0
281
     0
 65
     1
110
0.0
120
0.0
130
0.0
111
1.0
121
0.0
131
0.0
112
0.0
122
1.0
132
0.0
 79
     0
146
0.0
  0
ENDTAB
  0
TABLE
  2
LTYPE
  5
5
330
0
100
AcDbSymbolTable
 70
     6
  0
LTYPE
  5
14
330
5
100
AcDbSymbolTableRecord
100
AcDbLinetypeTableRecord
  2
ByBlock
 70
     0
  3

 72
    65
 73
     0
 40
0.0
  0
LTYPE
  5
15
330
5
100
AcDbSymbolTableRecord
100
AcDbLinetypeTableRecord
  2
ByLayer
 70
     0
  3

 72
    65
 73
     0
 40
0.0
  0
LTYPE
  5
16
330
5
100
AcDbSymbolTableRecord
100
AcDbLinetypeTableRecord
  2
Continuous
 70
     0
  3
Solid line
 72
    65
 73
     0
 40
0.0
  0
LTYPE
  5
5E
330
5
100
AcDbSymbolTableRecord
100
AcDbLinetypeTableRecord
  2
HIDDEN
 70
     0
  3
Hidden __ __ __ __ __ __ __ __ __ __ __ __ __ __
 72
    65
 73
     2
 40
1.905
 49
1.27
 74
     0
 49
-0.635
 74
     0
  0
LTYPE
  5
5F
330
5
100
AcDbSymbolTableRecord
100
AcDbLinetypeTableRecord
  2
PHANTOM
 70
     0
  3
Phantom ______  __  __  ______  __  __  ______
 72
    65
 73
     6
 40
12.7
 49
6.35
 74
     0
 49
-1.27
 74
     0
 49
1.27
 74
     0
 49
-1.27
 74
     0
 49
1.27
 74
     0
 49
-1.27
 74
     0
  0
LTYPE
  5
60
330
5
100
AcDbSymbolTableRecord
100
AcDbLinetypeTableRecord
  2
CENTER
 70
     0
  3
Center ____ _ ____ _ ____ _ ____ _ ____ _ ____
 72
    65
 73
     4
 40
10.16
 49
6.35
 74
     0
 49
-1.27
 74
     0
 49
1.27
 74
     0
 49
-1.27
 74
     0
  0
LTYPE
  5
61
330
5
100
AcDbSymbolTableRecord
100
AcDbLinetypeTableRecord
  2
CENTERX2
 70
     0
  3
Center (2x) ________  __  ________  __  _____
 72
    65
 73
     4
 40
20.32
 49
12.7
 74
     0
 49
-2.54
 74
     0
 49
2.54
 74
     0
 49
-2.54
 74
     0
  0
LTYPE
  5
62
330
5
100
AcDbSymbolTableRecord
100
AcDbLinetypeTableRecord
  2
DOT2
 70
     0
  3
Dot (.5x) ........................................
 72
    65
 73
     2
 40
0.635
 49
0.0
 74
     0
 49
-0.635
 74
     0
  0
ENDTAB
  0
TABLE
  2
LAYER
  5
2
330
0
100
AcDbSymbolTable
 70
     1
  0
LAYER
  5
10
330
2
100
AcDbSymbolTableRecord
100
AcDbLayerTableRecord
  2
0
 70
     0
 62
     7
  6
Continuous
370
    -3
390
F
  0
ENDTAB
  0
TABLE
  2
STYLE
  5
3
330
0
100
AcDbSymbolTable
 70
     3
  0
STYLE
  5
11
330
3
100
AcDbSymbolTableRecord
100
AcDbTextStyleTableRecord
  2
Standard
 70
     0
 40
0.0
 41
1.0
 50
0.0
 71
     0
 42
3.5
  3
txt
  4

  0
STYLE
  5
D9
330
3
100
AcDbSymbolTableRecord
100
AcDbTextStyleTableRecord
  2
SLDTEXTSTYLE0
 70
     0
 40
0.0
 41
0.605
 50
0.0
 71
     0
 42
3.5
  3
TXT
  4

  0
STYLE
  5
17A
330
3
100
AcDbSymbolTableRecord
100
AcDbTextStyleTableRecord
  2
SLDTEXTSTYLE1
 70
     0
 40
0.0
 41
0.563
 50
0.0
 71
     0
 42
3.5
  3
TXT
  4

  0
ENDTAB
  0
TABLE
  2
VIEW
  5
6
330
0
100
AcDbSymbolTable
 70
     0
  0
ENDTAB
  0
TABLE
  2
UCS
  5
7
330
0
100
AcDbSymbolTable
 70
     0
  0
ENDTAB
  0
TABLE
  2
APPID
  5
9
330
0
100
AcDbSymbolTable
 70
     1
  0
APPID
  5
12
330
9
100
AcDbSymbolTableRecord
100
AcDbRegAppTableRecord
  2
ACAD
 70
     0
  0
ENDTAB
  0
TABLE
  2
DIMSTYLE
  5
A
330
0
100
AcDbSymbolTable
 70
     3
100
AcDbDimStyleTable
  0
DIMSTYLE
105
27
330
A
100
AcDbSymbolTableRecord
100
AcDbDimStyleTableRecord
  2
ISO-25
 70
     0
 41
2.5
 42
0.625
 43
3.75
 44
1.25
 73
     0
 74
     0
 77
     1
 78
     8
140
2.5
141
2.5
143
0.0393700787
147
0.625
171
     3
172
     1
178
     0
271
     2
272
     2
274
     3
278
    44
283
     0
284
     8
340
11
  0
DIMSTYLE
105
2D2
102
{ACAD_REACTORS
330
2D1
102
}
330
A
100
AcDbSymbolTableRecord
100
AcDbDimStyleTableRecord
  2
SLDDIMSTYLE0
 70
     0
 41
2.5
 44
0.0
 45
0.000000001
 73
     0
 74
     0
 77
     1
 78
    12
 79
     3
140
2.5683186849
147
0.6420796712
173
     1
178
     0
271
     1
272
     1
276
     2
284
    12
340
D9
  0
DIMSTYLE
105
2DE
102
{ACAD_REACTORS
330
2DD
102
}
330
A
100
AcDbSymbolTableRecord
100
AcDbDimStyleTableRecord
  2
SLDDIMSTYLE1
 70
     0
 41
2.5
 44
0.0
 45
0.000000001
 73
     0
 74
     0
 77
     1
 78
    12
 79
     3
140
2.5683186849
147
0.6420796712
172
     1
173
     1
178
     0
271
     1
272
     1
276
     2
284
    12
289
     0
340
D9
  0
ENDTAB
  0
TABLE
  2
BLOCK_RECORD
  5
1
330
0
100
AcDbSymbolTable
 70
     7
  0
BLOCK_RECORD
  5
1F
330
1
100
AcDbSymbolTableRecord
100
AcDbBlockTableRecord
  2
*Model_Space
340
22
  0
BLOCK_RECORD
  5
1B
330
1
100
AcDbSymbolTableRecord
100
AcDbBlockTableRecord
  2
*Paper_Space
340
1E
  0
BLOCK_RECORD
  5
23
330
1
100
AcDbSymbolTableRecord
100
AcDbBlockTableRecord
  2
*Paper_Space0
340
26
  0
BLOCK_RECORD
  5
63
330
1
100
AcDbSymbolTableRecord
100
AcDbBlockTableRecord
  2
ACO-Logo
340
0
102
{BLKREFS
331
139
102
}
  0
BLOCK_RECORD
  5
D6
330
1
100
AcDbSymbolTableRecord
100
AcDbBlockTableRecord
  2
SW_NOTE_0
340
0
102
{BLKREFS
331
DB
102
}
  0
BLOCK_RECORD
  5
DC
330
1
100
AcDbSymbolTableRecord
100
AcDbBlockTableRecord
  2
SW_NOTE_0_1
340
0
102
{BLKREFS
331
E0
102
}
  0
BLOCK_RECORD
  5
E1
330
1
100
AcDbSymbolTableRecord
100
AcDbBlockTableRecord
  2
SW_NOTE_0_2
340
0
102
{BLKREFS
331
E8
102
}
  0
BLOCK_RECORD
  5
2D3
330
1
100
AcDbSymbolTableRecord
100
AcDbBlockTableRecord
  2
_D
340
0
  0
BLOCK_RECORD
  5
2DF
330
1
100
AcDbSymbolTableRecord
100
AcDbBlockTableRecord
  2
_D_1
340
0
  0
ENDTAB
  0
ENDSEC
  0
SECTION
  2
BLOCKS
  0
BLOCK
  5
20
330
1F
100
AcDbEntity
  8
0
100
AcDbBlockBegin
  2
*Model_Space
 70
     0
 10
0.0
 20
0.0
 30
0.0
  3
*Model_Space
  1

  0
ENDBLK
  5
21
330
1F
100
AcDbEntity
  8
0
100
AcDbBlockEnd
  0
BLOCK
  5
1C
330
1B
100
AcDbEntity
 67
     1
  8
0
100
AcDbBlockBegin
  2
*Paper_Space
 70
     0
 10
0.0
 20
0.0
 30
0.0
  3
*Paper_Space
  1

  0
ENDBLK
  5
1D
330
1B
100
AcDbEntity
 67
     1
  8
0
100
AcDbBlockEnd
  0
BLOCK
  5
24
330
23
100
AcDbEntity
  8
0
100
AcDbBlockBegin
  2
*Paper_Space0
 70
     0
 10
0.0
 20
0.0
 30
0.0
  3
*Paper_Space0
  1

  0
ENDBLK
  5
25
330
23
100
AcDbEntity
  8
0
100
AcDbBlockEnd
  0
BLOCK
  5
64
330
63
100
AcDbEntity
  8
0
100
AcDbBlockBegin
  2
ACO-Logo
 70
     0
 10
0.0
 20
0.0
 30
0.0
  3
ACO-Logo
  1

  0
ARC
  5
66
330
63
100
AcDbEntity
  8
0
  6
Continuous
 62
     7
370
    18
100
AcDbCircle
 10
80.3853261169
 20
4.9940995715
 30
0.0
 40
0.3000000000000441
100
AcDbArc
 50
181.9349323096
 51
274.6062978506
  0
ARC
  5
67
330
63
100
AcDbEntity
  8
0
  6
Continuous
 62
     7
370
    18
100
AcDbCircle
 10
81.2359083165
 20
2.1946665956
 30
0.0
 40
1.000000000000021
100
AcDbArc
 50
221.4087409628
 51
276.0561297228
  0
ARC
  5
68
330
63
100
AcDbEntity
  8
0
  6
Continuous
 62
     7
370
    18
100
AcDbCircle
 10
79.1360017163
 20
3.654242048
 30
0.0
 40
0.300000000000004
100
AcDbArc
 50
181.2730300201
 51
274.4996077095
  0
ARC
  5
69
330
63
100
AcDbEntity
  8
0
  6
Continuous
 62
     7
370
    18
100
AcDbCircle
 10
78.7699033484
 20
3.2873137407
 30
0.0
 40
0.4000000000000358
100
AcDbArc
 50
221.0090869016
 51
274.5606296317
  0
ARC
  5
6A
330
63
100
AcDbEntity
  8
0
  6
Continuous
 62
     7
370
    18
100
AcDbCircle
 10
91.2333953062
 20
4.6062442307
 30
0.0
 40
0.3000000000000493
100
AcDbArc
 50
274.4996077095
 51
3.7249371334
  0
ARC
  5
6B
330
63
100
AcDbEntity
  8
0
  6
Continuous
 62
     7
370
    18
100
AcDbCircle
 10
81.5287571045
 20
9.7648973508
 30
0.0
 40
1.00000000000002
100
AcDbArc
 50
93.1134387481
 51
181.9414863909
  0
ARC
  5
6C
330
63
100
AcDbEntity
  8
0
  6
Continuous
 62
     7
370
    18
100
AcDbCircle
 10
81.6051675115
 20
7.5107903456
 30
0.0
 40
1.0
100
AcDbArc
 50
181.9414863909
 51
274.398705355
  0
ARC
  5
6D
330
63
100
AcDbEntity
  8
0
  6
Continuous
 62
     7
370
    18
100
AcDbCircle
 10
80.1506905656
 20
11.9393118923
 30
0.0
 40
0.300000000000045
100
AcDbArc
 50
93.0418421566
 51
181.9349323096
  0
ARC
  5
6E
330
63
100
AcDbEntity
  8
0
  6
Continuous
 62
     7
370
    18
100
AcDbCircle
 10
78.1879722102
 20
12.3499352608
 30
0.0
 40
0.7999999999953393
100
AcDbArc
 50
92.6995697565
 51
148.2554209065
  0
ARC
  5
6F
330
63
100
AcDbEntity
  8
0
  6
Continuous
 62
     7
370
    18
100
AcDbCircle
 10
78.930862229
 20
12.8855189761
 30
0.0
 40
0.3000000000000031
100
AcDbArc
 50
92.6995697565
 51
181.2730300201
  0
ARC
  5
70
330
63
100
AcDbEntity
  8
0
  6
Continuous
 62
     7
370
    18
100
AcDbCircle
 10
82.327743407
 20
9.8083568568
 30
0.0
 40
1.000000000000034
100
AcDbArc
 50
1.9414863909
 51
93.1134387481
  0
ARC
  5
71
330
63
100
AcDbEntity
  8
0
  6
Continuous
 62
     7
370
    18
100
AcDbCircle
 10
81.5287571045
 20
9.7648973508
 30
0.0
 40
0.3625000000000009
100
AcDbArc
 50
93.1134387481
 51
181.9414863909
  0
ARC
  5
72
330
63
100
AcDbEntity
  8
0
  6
Continuous
 62
     7
370
    18
100
AcDbCircle
 10
82.327743407
 20
9.8083568568
 30
0.0
 40
0.3625000000000146
100
AcDbArc
 50
1.9414863909
 51
93.1134387481
  0
ARC
  5
73
330
63
100
AcDbEntity
  8
0
  6
Continuous
 62
     7
370
    18
100
AcDbCircle
 10
82.4035451983
 20
7.5722040138
 30
0.0
 40
1.000000000000008
100
AcDbArc
 50
274.398705355
 51
1.9414863909
  0
ARC
  5
74
330
63
100
AcDbEntity
  8
0
  6
Continuous
 62
     7
370
    18
100
AcDbCircle
 10
82.4035451983
 20
7.5722040138
 30
0.0
 40
0.3625000000000068
100
AcDbArc
 50
274.398705355
 51
1.9414863909
  0
ARC
  5
75
330
63
100
AcDbEntity
  8
0
  6
Continuous
 62
     7
370
    18
100
AcDbCircle
 10
81.6051675115
 20
7.5107903456
 30
0.0
 40
0.3625000000000111
100
AcDbArc
 50
181.9414863909
 51
274.398705355
  0
ARC
  5
76
330
63
100
AcDbEntity
  8
0
  6
Continuous
 62
     7
370
    18
100
AcDbCircle
 10
88.825822761
 20
8.0662148274
 30
0.0
 40
0.9999999999999997
100
AcDbArc
 50
274.398705355
 51
2.6541955134
  0
ARC
  5
77
330
63
100
AcDbEntity
  8
0
  6
Continuous
 62
     7
370
    18
100
AcDbCircle
 10
90.1578295581
 20
5.7814576687
 30
0.0
 40
0.3000000000000043
100
AcDbArc
 50
274.6062978507
 51
2.5147526475
  0
ARC
  5
78
330
63
100
AcDbEntity
  8
0
  6
Continuous
 62
     7
370
    18
100
AcDbCircle
 10
88.825822761
 20
8.0662148274
 30
0.0
 40
0.3625000000000083
100
AcDbArc
 50
274.398705355
 51
2.6541955134
  0
ARC
  5
79
330
63
100
AcDbEntity
  8
0
  6
Continuous
 62
     7
370
    18
100
AcDbCircle
 10
88.728529747
 20
10.16496413
 30
0.0
 40
1.000000000000001
100
AcDbArc
 50
2.6541955134
 51
93.1134387481
  0
ARC
  5
7A
330
63
100
AcDbEntity
  8
0
  6
Continuous
 62
     7
370
    18
100
AcDbCircle
 10
88.728529747
 20
10.16496413
 30
0.0
 40
0.3625000000000085
100
AcDbArc
 50
2.6541955134
 51
93.1134387481
  0
ARC
  5
7B
330
63
100
AcDbEntity
  8
0
  6
Continuous
 62
     7
370
    18
100
AcDbCircle
 10
89.8647121341
 20
12.455515937
 30
0.0
 40
0.2999999999999984
100
AcDbArc
 50
2.5147526475
 51
93.0418421566
  0
ARC
  5
7C
330
63
100
AcDbEntity
  8
0
  6
Continuous
 62
     7
370
    18
100
AcDbCircle
 10
90.6583795404
 20
13.4384863935
 30
0.0
 40
0.2999999999999911
100
AcDbArc
 50
3.7249371334
 51
92.6995697565
  0
CIRCLE
  5
7D
330
63
100
AcDbEntity
  8
0
  6
Continuous
 62
     7
370
    18
100
AcDbCircle
 10
15.7233972286
 20
6.4054930194
 30
0.0
 40
1.579500000000014
  0
CIRCLE
  5
7E
330
63
100
AcDbEntity
  8
0
  6
Continuous
 62
     7
370
    18
100
AcDbCircle
 10
15.7233972286
 20
6.4054930194
 30
0.0
 40
2.281499999999994
  0
ARC
  5
7F
330
63
100
AcDbEntity
  8
0
  6
Continuous
 62
     7
370
    18
100
AcDbCircle
 10
89.7681336026
 20
2.3106616691
 30
0.0
 40
0.098384530246548
100
AcDbArc
 50
332.3802627259
 51
4.9765441602
  0
ARC
  5
80
330
63
100
AcDbEntity
  8
0
  6
Continuous
 62
     7
370
    18
100
AcDbCircle
 10
89.6886560089
 20
2.3522464185
 30
0.0
 40
0.1880839130754018
100
AcDbArc
 50
303.690067526
 51
332.3802627258
  0
ARC
  5
81
330
63
100
AcDbEntity
  8
0
  6
Continuous
 62
     7
370
    18
100
AcDbCircle
 10
89.4849700869
 20
2.6577753016
 30
0.0
 40
0.5552839311631531
100
AcDbArc
 50
287.108652213
 51
303.690067526
  0
ARC
  5
82
330
63
100
AcDbEntity
  8
0
  6
Continuous
 62
     7
370
    18
100
AcDbCircle
 10
88.0513010646
 20
7.3154864882
 30
0.0
 40
5.428648309393203
100
AcDbArc
 50
285.2551187031
 51
287.108652213
  0
ARC
  5
83
330
63
100
AcDbEntity
  8
0
  6
Continuous
 62
     7
370
    18
100
AcDbCircle
 10
89.1317168954
 20
3.3539617753
 30
0.0
 40
1.322436378825653
100
AcDbArc
 50
281.4991866428
 51
285.255118703
  0
ARC
  5
84
330
63
100
AcDbEntity
  8
0
  6
Continuous
 62
     7
370
    18
100
AcDbCircle
 10
89.3198255509
 20
2.4293110075
 30
0.0
 40
0.3788454141584939
100
AcDbArc
 50
279.1917900003
 51
281.499186643
  0
ARC
  5
85
330
63
100
AcDbEntity
  8
0
  6
Continuous
 62
     7
370
    18
100
AcDbCircle
 10
89.0487250788
 20
4.1046569124
 30
0.0
 40
2.07598399629105
100
AcDbArc
 50
277.7634675038
 51
279.1917900002
  0
ARC
  5
86
330
63
100
AcDbEntity
  8
0
  6
Continuous
 62
     7
370
    18
100
AcDbCircle
 10
9.2588909915
 20
6.4054930194
 30
0.0
 40
1.579500000000074
100
AcDbArc
 50
31.0558004991
 51
330.0
  0
ARC
  5
87
330
63
100
AcDbEntity
  8
0
  6
Continuous
 62
     7
370
    18
100
AcDbCircle
 10
9.2588909915
 20
6.4054930194
 30
0.0
 40
2.281500000000107
100
AcDbArc
 50
30.7309172659
 51
330.0
  0
ARC
  5
88
330
63
100
AcDbEntity
  8
0
  6
Continuous
 62
     7
370
    18
100
AcDbCircle
 10
6.1288847544
 20
4.0685261312
 30
0.0
 40
4.914000000000307
100
AcDbArc
 50
172.3058370354
 51
179.7113029221
  0
ARC
  5
89
330
63
100
AcDbEntity
  8
0
  6
Continuous
 62
     7
370
    18
100
AcDbCircle
 10
-0.5401152456
 20
4.0685261312
 30
0.0
 40
4.91400000000019
100
AcDbArc
 50
0.2886970779
 51
7.6941629646
  0
ARC
  5
8A
330
63
100
AcDbEntity
  8
0
  6
Continuous
 62
     7
370
    18
100
AcDbCircle
 10
-0.5401152456
 20
4.0685261312
 30
0.0
 40
5.616000000000127
100
AcDbArc
 50
0.2526096926
 51
53.5764263577
  0
ARC
  5
8B
330
63
100
AcDbEntity
  8
0
  6
Continuous
 62
     7
370
    18
100
AcDbCircle
 10
6.1288847544
 20
4.0685261312
 30
0.0
 40
5.61600000000074
100
AcDbArc
 50
126.4235736423
 51
179.7473903073
  0
ARC
  5
8C
330
63
100
AcDbEntity
  8
0
  6
Continuous
 62
     7
370
    18
100
AcDbCircle
 10
-0.5401152456
 20
4.0685261312
 30
0.0
 40
4.914000000000161
100
AcDbArc
 50
16.0658750272
 51
47.2678899574
  0
ARC
  5
8D
330
63
100
AcDbEntity
  8
0
  6
Continuous
 62
     7
370
    18
100
AcDbCircle
 10
6.1288847544
 20
4.0685261312
 30
0.0
 40
4.914000000000584
100
AcDbArc
 50
132.7321100426
 51
163.9341249728
  0
LINE
  5
8E
330
63
100
AcDbEntity
  8
0
  6
Continuous
 62
     7
370
    18
100
AcDbLine
 10
78.8017089389
 20
2.8885802402
 30
0.0
 11
90.7982178739
 21
3.8455002136
 31
0.0
  0
LINE
  5
8F
330
63
100
AcDbEntity
  8
0
  6
Continuous
 62
     7
370
    18
100
AcDbLine
 10
76.6545490427
 20
5.8693097374
 30
0.0
 11
78.0344191726
 21
3.5235305166
 31
0.0
  0
LINE
  5
90
330
63
100
AcDbEntity
  8
0
  6
Continuous
 62
     7
370
    18
100
AcDbLine
 10
91.5327615373
 20
4.6257342197
 30
0.0
 11
90.9577457715
 21
13.4579763825
 31
0.0
  0
LINE
  5
91
330
63
100
AcDbEntity
  8
0
  6
Continuous
 62
     7
370
    18
100
AcDbLine
 10
78.6309362756
 20
12.8788539549
 30
0.0
 11
78.8360757629
 21
3.6475770268
 31
0.0
  0
LINE
  5
92
330
63
100
AcDbEntity
  8
0
  6
Continuous
 62
     7
370
    18
100
AcDbLine
 10
80.4094186633
 20
4.6950685544
 30
0.0
 11
90.1819221045
 21
5.4824266516
 31
0.0
  0
LINE
  5
93
330
63
100
AcDbEntity
  8
0
  6
Continuous
 62
     7
370
    18
100
AcDbLine
 10
79.1595373973
 20
3.3551666867
 30
0.0
 11
91.2569309872
 21
4.3071688694
 31
0.0
  0
LINE
  5
94
330
63
100
AcDbEntity
  8
0
  6
Continuous
 62
     7
370
    18
100
AcDbLine
 10
79.2585043218
 20
2.925017226
 30
0.0
 11
80.4858981444
 21
1.533240302
 31
0.0
  0
LINE
  5
95
330
63
100
AcDbEntity
  8
0
  6
Continuous
 62
     7
370
    18
100
AcDbLine
 10
78.0344191726
 20
3.5235305166
 30
0.0
 11
78.3638740472
 21
3.1446574108
 31
0.0
  0
LINE
  5
96
330
63
100
AcDbEntity
  8
0
  6
Continuous
 62
     7
370
    18
100
AcDbLine
 10
78.3638740472
 20
3.1446574108
 30
0.0
 11
78.4680611395
 21
3.0248422547
 31
0.0
  0
LINE
  5
97
330
63
100
AcDbEntity
  8
0
  6
Continuous
 62
     7
370
    18
100
AcDbLine
 10
81.3414110113
 20
1.2002475785
 30
0.0
 11
89.3291569519
 21
2.0477010263
 31
0.0
  0
LINE
  5
98
330
63
100
AcDbEntity
  8
0
  6
Continuous
 62
     7
370
    18
100
AcDbLine
 10
89.8661472522
 20
2.5197759309
 30
0.0
 11
89.8661472522
 21
2.3090867337
 31
0.0
  0
LINE
  5
99
330
63
100
AcDbEntity
  8
0
  6
Continuous
 62
     7
370
    18
100
AcDbLine
 10
88.676842368
 20
3.6762854359
 30
0.0
 11
89.6713239345
 21
2.7875997807
 31
0.0
  0
LINE
  5
9A
330
63
100
AcDbEntity
  8
0
  6
Continuous
 62
     7
370
    18
100
AcDbLine
 10
89.6713239345
 20
2.7875997807
 30
0.0
 11
89.7459749087
 21
2.7242700694
 31
0.0
  0
LINE
  5
9B
330
63
100
AcDbEntity
  8
0
  6
Continuous
 62
     7
370
    18
100
AcDbLine
 10
90.7982178739
 20
3.8455002136
 30
0.0
 11
91.3961615969
 21
4.3514525945
 31
0.0
  0
LINE
  5
9C
330
63
100
AcDbEntity
  8
0
  6
Continuous
 62
     7
370
    18
100
AcDbLine
 10
90.6442498554
 20
13.7381534621
 30
0.0
 11
78.1502930503
 21
13.1490474438
 31
0.0
  0
LINE
  5
9D
330
63
100
AcDbEntity
  8
0
  6
Continuous
 62
     7
370
    18
100
AcDbLine
 10
80.1347709981
 20
12.2388892068
 30
0.0
 11
89.8487925667
 21
12.7550932515
 31
0.0
  0
LINE
  5
9E
330
63
100
AcDbEntity
  8
0
  6
Continuous
 62
     7
370
    18
100
AcDbLine
 10
76.4935641943
 20
11.7567556248
 30
0.0
 11
76.6545490427
 21
5.8693097374
 31
0.0
  0
LINE
  5
9F
330
63
100
AcDbEntity
  8
0
  6
Continuous
 62
     7
370
    18
100
AcDbLine
 10
79.8508616208
 20
11.929182536
 30
0.0
 11
80.0854971721
 21
4.9839702153
 31
0.0
  0
LINE
  5
A0
330
63
100
AcDbEntity
  8
0
  6
Continuous
 62
     7
370
    18
100
AcDbLine
 10
80.5293311574
 20
9.7310185051
 30
0.0
 11
80.6057415643
 21
7.4769115
 31
0.0
  0
LINE
  5
A1
330
63
100
AcDbEntity
  8
0
  6
Continuous
 62
     7
370
    18
100
AcDbLine
 10
77.507650604
 20
12.7708420346
 30
0.0
 11
76.4935641943
 21
11.7567556248
 31
0.0
  0
LINE
  5
A2
330
63
100
AcDbEntity
  8
0
  6
Continuous
 62
     7
370
    18
100
AcDbLine
 10
86.8848195129
 20
11.0661568594
 30
0.0
 11
88.6742167283
 21
11.1634880887
 31
0.0
  0
LINE
  5
A3
330
63
100
AcDbEntity
  8
0
  6
Continuous
 62
     7
370
    18
100
AcDbLine
 10
87.0766213517
 20
6.9287171941
 30
0.0
 11
88.90708891
 21
7.0695223909
 31
0.0
  0
LINE
  5
A4
330
63
100
AcDbEntity
  8
0
  6
Continuous
 62
     7
370
    18
100
AcDbLine
 10
87.6830038473
 20
7.6147347768
 30
0.0
 11
88.8536252418
 21
7.7047825764
 31
0.0
  0
LINE
  5
A5
330
63
100
AcDbEntity
  8
0
  6
Continuous
 62
     7
370
    18
100
AcDbLine
 10
87.5509212094
 20
10.4639459651
 30
0.0
 11
88.7088412777
 21
10.5269290651
 31
0.0
  0
LINE
  5
A6
330
63
100
AcDbEntity
  8
0
  6
Continuous
 62
     7
370
    18
100
AcDbLine
 10
87.0766218384
 20
6.9287066941
 30
0.0
 11
86.8848195129
 21
11.0661568594
 31
0.0
  0
LINE
  5
A7
330
63
100
AcDbEntity
  8
0
  6
Continuous
 62
     7
370
    18
100
AcDbLine
 10
83.7004598825
 20
6.6667911093
 30
0.0
 11
84.5054929504
 21
10.9267193262
 31
0.0
  0
LINE
  5
A8
330
63
100
AcDbEntity
  8
0
  6
Continuous
 62
     7
370
    18
100
AcDbLine
 10
85.3543248406
 20
10.9728900984
 30
0.0
 11
86.4940946704
 21
6.8816860929
 31
0.0
  0
LINE
  5
A9
330
63
100
AcDbEntity
  8
0
  6
Continuous
 62
     7
370
    18
100
AcDbLine
 10
84.9728575427
 20
9.9667192298
 30
0.0
 11
85.4540299774
 21
8.2395506903
 31
0.0
  0
LINE
  5
AA
330
63
100
AcDbEntity
  8
0
  6
Continuous
 62
     7
370
    18
100
AcDbLine
 10
84.6363094629
 20
8.1858350416
 30
0.0
 11
84.9728575427
 21
9.9667192298
 31
0.0
  0
LINE
  5
AB
330
63
100
AcDbEntity
  8
0
  6
Continuous
 62
     7
370
    18
100
AcDbLine
 10
87.6830038473
 20
7.6147347768
 30
0.0
 11
87.5509212094
 21
10.4639459651
 31
0.0
  0
LINE
  5
AC
330
63
100
AcDbEntity
  8
0
  6
Continuous
 62
     7
370
    18
100
AcDbLine
 10
84.6363094629
 20
8.1858350416
 30
0.0
 11
85.4540299774
 21
8.2395506903
 31
0.0
  0
LINE
  5
AD
330
63
100
AcDbEntity
  8
0
  6
Continuous
 62
     7
370
    18
100
AcDbLine
 10
84.5140586807
 20
7.5389304886
 30
0.0
 11
85.6288154243
 21
7.6121582976
 31
0.0
  0
LINE
  5
AE
330
63
100
AcDbEntity
  8
0
  6
Continuous
 62
     7
370
    18
100
AcDbLine
 10
84.3588137958
 20
6.717433718
 30
0.0
 11
84.5140586807
 21
7.5389304886
 31
0.0
  0
LINE
  5
AF
330
63
100
AcDbEntity
  8
0
  6
Continuous
 62
     7
370
    18
100
AcDbLine
 10
81.6818640104
 20
6.5137358601
 30
0.0
 11
82.4802416972
 21
6.5751495283
 31
0.0
  0
LINE
  5
B0
330
63
100
AcDbEntity
  8
0
  6
Continuous
 62
     7
370
    18
100
AcDbLine
 10
81.6329699923
 20
7.1493580946
 30
0.0
 11
82.4313476791
 21
7.2107717628
 31
0.0
  0
LINE
  5
B1
330
63
100
AcDbEntity
  8
0
  6
Continuous
 62
     7
370
    18
100
AcDbLine
 10
83.7004598825
 20
6.6667911093
 30
0.0
 11
84.3588137958
 21
6.717433718
 31
0.0
  0
LINE
  5
B2
330
63
100
AcDbEntity
  8
0
  6
Continuous
 62
     7
370
    18
100
AcDbLine
 10
82.7059483815
 20
9.3512024135
 30
0.0
 11
83.3423973297
 21
9.3930104243
 31
0.0
  0
LINE
  5
B3
330
63
100
AcDbEntity
  8
0
  6
Continuous
 62
     7
370
    18
100
AcDbLine
 10
82.7491656358
 20
8.0762934118
 30
0.0
 11
83.385614584
 21
8.1181014226
 31
0.0
  0
LINE
  5
B4
330
63
100
AcDbEntity
  8
0
  6
Continuous
 62
     7
370
    18
100
AcDbLine
 10
81.1664651987
 20
9.7526162692
 30
0.0
 11
81.2428756056
 21
7.4985092641
 31
0.0
  0
LINE
  5
B5
330
63
100
AcDbEntity
  8
0
  6
Continuous
 62
     7
370
    18
100
AcDbLine
 10
82.6900353128
 20
9.8206379383
 30
0.0
 11
82.7052632884
 21
9.3714126602
 31
0.0
  0
LINE
  5
B6
330
63
100
AcDbEntity
  8
0
  6
Continuous
 62
     7
370
    18
100
AcDbLine
 10
82.7491656358
 20
8.0762934118
 30
0.0
 11
82.7658371041
 21
7.5844850954
 31
0.0
  0
LINE
  5
B7
330
63
100
AcDbEntity
  8
0
  6
Continuous
 62
     7
370
    18
100
AcDbLine
 10
83.3271693541
 20
9.8422357024
 30
0.0
 11
83.3423973297
 21
9.3930104243
 31
0.0
  0
LINE
  5
B8
330
63
100
AcDbEntity
  8
0
  6
Continuous
 62
     7
370
    18
100
AcDbLine
 10
83.385614584
 20
8.1181014226
 30
0.0
 11
83.4029711454
 21
7.6060828595
 31
0.0
  0
LINE
  5
B9
330
63
100
AcDbEntity
  8
0
  6
Continuous
 62
     7
370
    18
100
AcDbLine
 10
85.6288154243
 20
7.6121582976
 30
0.0
 11
85.8462022593
 21
6.8318482152
 31
0.0
  0
LINE
  5
BA
330
63
100
AcDbEntity
  8
0
  6
Continuous
 62
     7
370
    18
100
AcDbLine
 10
85.8462022593
 20
6.8318482152
 30
0.0
 11
86.4940946704
 21
6.8816860929
 31
0.0
  0
LINE
  5
BB
330
63
100
AcDbEntity
  8
0
  6
Continuous
 62
     7
370
    18
100
AcDbLine
 10
84.5054929504
 20
10.9267193262
 30
0.0
 11
85.3543248406
 21
10.9728900984
 31
0.0
  0
LINE
  5
BC
330
63
100
AcDbEntity
  8
0
  6
Continuous
 62
     7
370
    18
100
AcDbLine
 10
81.4744440858
 20
10.7634213094
 30
0.0
 11
82.2734303883
 21
10.8068808154
 31
0.0
  0
LINE
  5
BD
330
63
100
AcDbEntity
  8
0
  6
Continuous
 62
     7
370
    18
100
AcDbLine
 10
81.5090686352
 20
10.1268622858
 30
0.0
 11
82.3080549377
 21
10.1703217918
 31
0.0
  0
LINE
  5
BE
330
63
100
AcDbEntity
  8
0
  6
Continuous
 62
     7
370
    18
100
AcDbLine
 10
90.4575406452
 20
5.7946206556
 30
0.0
 11
90.1644232213
 21
12.4686789239
 31
0.0
  0
LINE
  5
BF
330
63
100
AcDbEntity
  8
0
  6
Continuous
 62
     7
370
    18
100
AcDbLine
 10
89.8247499755
 20
8.1125227115
 30
0.0
 11
89.7274569615
 21
10.2112720142
 31
0.0
  0
LINE
  5
C0
330
63
100
AcDbEntity
  8
0
  6
Continuous
 62
     7
370
    18
100
AcDbLine
 10
89.1879338763
 20
8.0830014354
 30
0.0
 11
89.0906408622
 21
10.181750738
 31
0.0
  0
LINE
  5
C1
330
63
100
AcDbEntity
  8
0
  6
Continuous
 62
     7
370
    18
100
AcDbLine
 10
89.7459749087
 20
2.7242700694
 30
0.0
 11
89.7974962577
 21
2.6659765769
 31
0.0
  0
LINE
  5
C2
330
63
100
AcDbEntity
  8
0
  6
Continuous
 62
     7
370
    18
100
AcDbLine
 10
89.7974962577
 20
2.6659765769
 30
0.0
 11
89.8351851379
 21
2.60192886
 31
0.0
  0
LINE
  5
C3
330
63
100
AcDbEntity
  8
0
  6
Continuous
 62
     7
370
    18
100
AcDbLine
 10
89.8351851379
 20
2.60192886
 30
0.0
 11
89.8661472522
 21
2.5197759309
 31
0.0
  0
LINE
  5
C4
330
63
100
AcDbEntity
  8
0
  6
Continuous
 62
     7
370
    18
100
AcDbLine
 10
10.6119938288
 20
7.2203138351
 30
0.0
 11
11.2200151261
 21
7.5713550947
 31
0.0
  0
LINE
  5
C5
330
63
100
AcDbEntity
  8
0
  6
Continuous
 62
     7
370
    18
100
AcDbLine
 10
11.2347279503
 20
5.2647430194
 30
0.0
 11
10.6267781168
 21
5.6157430194
 31
0.0
  0
LINE
  5
C6
330
63
100
AcDbEntity
  8
0
  6
Continuous
 62
     7
370
    18
100
AcDbLine
 10
6.4645062371
 20
16.1712617198
 30
0.0
 11
6.4645062371
 21
2.9364593988
 31
0.0
  0
LINE
  5
C7
330
63
100
AcDbEntity
  8
0
  6
Continuous
 62
     7
370
    18
100
AcDbLine
 10
6.4645062371
 20
2.9364593988
 30
0.0
 11
12.0532757459
 21
2.9364593988
 31
0.0
  0
LINE
  5
C8
330
63
100
AcDbEntity
  8
0
  6
Continuous
 62
     7
370
    18
100
AcDbLine
 10
12.0532757459
 20
2.9364593988
 30
0.0
 11
12.0532757459
 21
16.1712617198
 31
0.0
  0
LINE
  5
C9
330
63
100
AcDbEntity
  8
0
  6
Continuous
 62
     7
370
    18
100
AcDbLine
 10
12.0532757459
 20
16.1712617198
 30
0.0
 11
6.4645062371
 21
16.1712617198
 31
0.0
  0
LINE
  5
CA
330
63
100
AcDbEntity
  8
0
  6
Continuous
 62
     7
370
    18
100
AcDbLine
 10
0.0
 20
16.1712617198
 30
0.0
 11
0.0
 21
2.9364593988
 31
0.0
  0
LINE
  5
CB
330
63
100
AcDbEntity
  8
0
  6
Continuous
 62
     7
370
    18
100
AcDbLine
 10
0.0
 20
2.9364593988
 30
0.0
 11
5.5887695089
 21
2.9364593988
 31
0.0
  0
LINE
  5
CC
330
63
100
AcDbEntity
  8
0
  6
Continuous
 62
     7
370
    18
100
AcDbLine
 10
5.5887695089
 20
2.9364593988
 30
0.0
 11
5.5887695089
 21
16.1712617198
 31
0.0
  0
LINE
  5
CD
330
63
100
AcDbEntity
  8
0
  6
Continuous
 62
     7
370
    18
100
AcDbLine
 10
5.5887695089
 20
16.1712617198
 30
0.0
 11
0.0
 21
16.1712617198
 31
0.0
  0
LINE
  5
CE
330
63
100
AcDbEntity
  8
0
  6
Continuous
 62
     7
370
    18
100
AcDbLine
 10
1.2591262606
 20
4.7264381407
 30
0.0
 11
4.3296432482
 21
4.7264381407
 31
0.0
  0
LINE
  5
CF
330
63
100
AcDbEntity
  8
0
  6
Continuous
 62
     7
370
    18
100
AcDbLine
 10
4.3738223747
 20
4.0932862697
 30
0.0
 11
5.0758301722
 21
4.0932862697
 31
0.0
  0
LINE
  5
D0
330
63
100
AcDbEntity
  8
0
  6
Continuous
 62
     7
370
    18
100
AcDbLine
 10
0.5129393366
 20
4.0932862697
 30
0.0
 11
1.2149471342
 21
4.0932862697
 31
0.0
  0
LINE
  5
D1
330
63
100
AcDbEntity
  8
0
  6
Continuous
 62
     7
370
    18
100
AcDbLine
 10
4.1819643097
 20
5.4284381407
 30
0.0
 11
1.4068051992
 21
5.4284381407
 31
0.0
  0
LINE
  5
D2
330
63
100
AcDbEntity
  8
0
  6
Continuous
 62
     7
370
    18
100
AcDbLine
 10
18.517781983
 20
16.1712617198
 30
0.0
 11
18.517781983
 21
2.9364593988
 31
0.0
  0
LINE
  5
D3
330
63
100
AcDbEntity
  8
0
  6
Continuous
 62
     7
370
    18
100
AcDbLine
 10
18.517781983
 20
2.9364593988
 30
0.0
 11
12.9290124742
 21
2.9364593988
 31
0.0
  0
LINE
  5
D4
330
63
100
AcDbEntity
  8
0
  6
Continuous
 62
     7
370
    18
100
AcDbLine
 10
12.9290124742
 20
2.9364593988
 30
0.0
 11
12.9290124742
 21
16.1712617198
 31
0.0
  0
LINE
  5
D5
330
63
100
AcDbEntity
  8
0
  6
Continuous
 62
     7
370
    18
100
AcDbLine
 10
12.9290124742
 20
16.1712617198
 30
0.0
 11
18.517781983
 21
16.1712617198
 31
0.0
  0
INSERT
  5
DB
330
63
100
AcDbEntity
  8
0
  6
Continuous
 62
     7
370
     0
100
AcDbBlockReference
  2
SW_NOTE_0
 10
1.8998941161
 20
-0.3226565443
 30
0.0
  0
INSERT
  5
E0
330
63
100
AcDbEntity
  8
0
  6
Continuous
 62
     7
370
     0
100
AcDbBlockReference
  2
SW_NOTE_0_1
 10
29.1164837035
 20
12.7459167441
 30
0.0
  0
INSERT
  5
E8
330
63
100
AcDbEntity
  8
0
  6
Continuous
 62
     7
370
     0
100
AcDbBlockReference
  2
SW_NOTE_0_2
 10
28.8863479825
 20
8.6365742194
 30
0.0
  0
ENDBLK
  5
65
330
63
100
AcDbEntity
  8
0
100
AcDbBlockEnd
  0
BLOCK
  5
D7
330
D6
100
AcDbEntity
  8
0
100
AcDbBlockBegin
  2
SW_NOTE_0
 70
     0
 10
0.0
 20
0.0
 30
0.0
  3
SW_NOTE_0
  1

  0
MTEXT
  5
DA
330
D6
100
AcDbEntity
  8
0
  6
Continuous
 62
     0
370
     0
100
AcDbMText
 10
7.46875
 20
2.5781354795
 30
0.0
 40
2.0
 41
0.0
 71
     2
 72
     1
  1
www.aco.ch
  7
SLDTEXTSTYLE0
 73
     1
 44
1.0
  0
ENDBLK
  5
D8
330
D6
100
AcDbEntity
  8
0
100
AcDbBlockEnd
  0
BLOCK
  5
DD
330
DC
100
AcDbEntity
  8
0
100
AcDbBlockBegin
  2
SW_NOTE_0_1
 70
     0
 10
0.0
 20
0.0
 30
0.0
  3
SW_NOTE_0_1
  1

  0
MTEXT
  5
DF
330
DC
100
AcDbEntity
  8
0
  6
Continuous
 62
     0
370
     0
100
AcDbMText
 10
0.0
 20
3.8672032193
 30
0.0
 40
3.0
 41
0.0
 71
     1
 72
     1
  1
ACO AG
  7
SLDTEXTSTYLE0
 73
     1
 44
1.0
  0
ENDBLK
  5
DE
330
DC
100
AcDbEntity
  8
0
100
AcDbBlockEnd
  0
BLOCK
  5
E2
330
E1
100
AcDbEntity
  8
0
100
AcDbBlockBegin
  2
SW_NOTE_0_2
 70
     0
 10
0.0
 20
0.0
 30
0.0
  3
SW_NOTE_0_2
  1

  0
MTEXT
  5
E4
330
E1
100
AcDbEntity
  8
0
  6
Continuous
 62
     0
370
     0
100
AcDbMText
 10
0.0
 20
2.5781354795
 30
0.0
 40
2.0
 41
0.0
 71
     1
 72
     1
  1
Industrie Kleinzaun
  7
SLDTEXTSTYLE0
 73
     1
 44
1.0
  0
MTEXT
  5
E5
330
E1
100
AcDbEntity
  8
0
  6
Continuous
 62
     0
370
     0
100
AcDbMText
 10
0.0
 20
-0.4218645465
 30
0.0
 40
2.0
 41
0.0
 71
     1
 72
     1
  1
CH-8754 Netstal
  7
SLDTEXTSTYLE0
 73
     1
 44
1.0
  0
MTEXT
  5
E6
330
E1
100
AcDbEntity
  8
0
  6
Continuous
 62
     0
370
     0
100
AcDbMText
 10
0.0
 20
-3.4218645726
 30
0.0
 40
2.0
 41
0.0
 71
     1
 72
     1
  1
Tel. 055 / 645 53 00
  7
SLDTEXTSTYLE0
 73
     1
 44
1.0
  0
MTEXT
  5
E7
330
E1
100
AcDbEntity
  8
0
  6
Continuous
 62
     0
370
     0
100
AcDbMText
 10
0.0
 20
-6.4218645987
 30
0.0
 40
2.0
 41
0.0
 71
     1
 72
     1
  1
E-Mail: aco@aco.ch
  7
SLDTEXTSTYLE0
 73
     1
 44
1.0
  0
ENDBLK
  5
E3
330
E1
100
AcDbEntity
  8
0
100
AcDbBlockEnd
  0
BLOCK
  5
2D4
330
2D3
100
AcDbEntity
  8
0
100
AcDbBlockBegin
  2
_D
 70
     0
 10
0.0
 20
0.0
 30
0.0
  3
_D
  1

  0
SOLID
  5
2D6
330
2D3
100
AcDbEntity
  8
0
  6
Continuous
 62
     7
370
    18
100
AcDbTrace
 10
50.5292403886
 20
237.2117348779
 30
0.0
 11
53.0292403886
 21
236.8367348779
 31
0.0
 12
53.0292403886
 22
237.5867348779
 32
0.0
 13
53.0292403886
 23
237.5867348779
 33
0.0
  0
SOLID
  5
2D7
330
2D3
100
AcDbEntity
  8
0
  6
Continuous
 62
     7
370
    18
100
AcDbTrace
 10
193.0292403886
 20
237.2117348779
 30
0.0
 11
190.5292403886
 21
237.5867348779
 31
0.0
 12
190.5292403886
 22
236.8367348779
 32
0.0
 13
190.5292403886
 23
236.8367348779
 33
0.0
  0
LINE
  5
2D8
330
2D3
100
AcDbEntity
  8
0
  6
Continuous
 62
     7
370
     0
100
AcDbLine
 10
50.5292403886
 20
227.5090361511
 30
0.0
 11
50.5292403886
 21
238.2117348779
 31
0.0
  0
LINE
  5
2D9
330
2D3
100
AcDbEntity
  8
0
  6
Continuous
 62
     7
370
     0
100
AcDbLine
 10
193.0292403886
 20
227.5090361511
 30
0.0
 11
193.0292403886
 21
238.2117348779
 31
0.0
  0
LINE
  5
2DA
330
2D3
100
AcDbEntity
  8
0
  6
Continuous
 62
     7
370
     0
100
AcDbLine
 10
50.5292403886
 20
237.2117348779
 30
0.0
 11
193.0292403886
 21
237.2117348779
 31
0.0
  0
MTEXT
  5
2DB
330
2D3
100
AcDbEntity
  8
0
  6
Continuous
 62
     7
370
    18
100
AcDbMText
 10
115.4959981332
 20
240.6223934473
 30
0.0
 40
2.6458333333
 41
0.0
 71
     1
 72
     1
  1
%%c
  7
SLDTEXTSTYLE0
 73
     1
 44
1.0
  0
MTEXT
  5
2DC
330
2D3
100
AcDbEntity
  8
0
  6
Continuous
 62
     7
370
    18
100
AcDbMText
 10
119.2430371421
 20
240.6223934473
 30
0.0
 40
2.6458333333
 41
0.0
 71
     1
 72
     1
  1
142.5
  7
SLDTEXTSTYLE0
 73
     1
 44
1.0
  0
ENDBLK
  5
2D5
330
2D3
100
AcDbEntity
  8
0
100
AcDbBlockEnd
  0
BLOCK
  5
2E0
330
2DF
100
AcDbEntity
  8
0
100
AcDbBlockBegin
  2
_D_1
 70
     0
 10
0.0
 20
0.0
 30
0.0
  3
_D_1
  1

  0
SOLID
  5
2E2
330
2DF
100
AcDbEntity
  8
0
  6
Continuous
 62
     7
370
    18
100
AcDbTrace
 10
207.0319391154
 20
230.2090361511
 30
0.0
 11
207.4069391154
 21
232.7090361511
 31
0.0
 12
206.6569391154
 22
232.7090361511
 32
0.0
 13
206.6569391154
 23
232.7090361511
 33
0.0
  0
SOLID
  5
2E3
330
2DF
100
AcDbEntity
  8
0
  6
Continuous
 62
     7
370
    18
100
AcDbTrace
 10
207.0319391154
 20
222.7090361511
 30
0.0
 11
206.6569391154
 21
220.2090361511
 31
0.0
 12
207.4069391154
 22
220.2090361511
 32
0.0
 13
207.4069391154
 23
220.2090361511
 33
0.0
  0
LINE
  5
2E4
330
2DF
100
AcDbEntity
  8
0
  6
Continuous
 62
     7
370
     0
100
AcDbLine
 10
190.3292403886
 20
230.2090361511
 30
0.0
 11
208.0319391154
 21
230.2090361511
 31
0.0
  0
LINE
  5
2E5
330
2DF
100
AcDbEntity
  8
0
  6
Continuous
 62
     7
370
     0
100
AcDbLine
 10
193.3292403886
 20
222.7090361511
 30
0.0
 11
208.0319391154
 21
222.7090361511
 31
0.0
  0
LINE
  5
2E6
330
2DF
100
AcDbEntity
  8
0
  6
Continuous
 62
     7
370
     0
100
AcDbLine
 10
207.0319391154
 20
230.2090361511
 30
0.0
 11
207.0319391154
 21
235.2090361511
 31
0.0
  0
LINE
  5
2E7
330
2DF
100
AcDbEntity
  8
0
  6
Continuous
 62
     7
370
     0
100
AcDbLine
 10
207.0319391154
 20
230.2090361511
 30
0.0
 11
207.0319391154
 21
222.7090361511
 31
0.0
  0
LINE
  5
2E8
330
2DF
100
AcDbEntity
  8
0
  6
Continuous
 62
     7
370
     0
100
AcDbLine
 10
207.0319391154
 20
222.7090361511
 30
0.0
 11
207.0319391154
 21
217.7090361511
 31
0.0
  0
MTEXT
  5
2E9
330
2DF
100
AcDbEntity
  8
0
  6
Continuous
 62
     7
370
    18
100
AcDbMText
 10
203.6212805459
 20
224.009190256
 30
0.0
 40
2.6458333333
 41
0.0
 71
     1
 72
     1
  1
7.5
  7
SLDTEXTSTYLE0
 11
-7.044195017643634E-15
 21
1.0
 31
0.0
 73
     1
 44
1.0
  0
ENDBLK
  5
2E1
330
2DF
100
AcDbEntity
  8
0
100
AcDbBlockEnd
  0
ENDSEC
  0
SECTION
  2
ENTITIES
  0
LINE
  5
E9
330
1F
100
AcDbEntity
  8
0
  6
CENTERX2
 62
     7
370
    18
100
AcDbLine
 10
352.6174545849
 20
46.9080238789
 30
0.0
 11
352.6174545849
 21
39.4621586124
 31
0.0
  0
LINE
  5
EA
330
1F
100
AcDbEntity
  8
0
  6
Continuous
 62
     7
370
    18
100
AcDbLine
 10
357.7661698132
 20
46.3720107039
 30
0.0
 11
357.7661698132
 21
39.9353173413
 31
0.0
  0
LINE
  5
EB
330
1F
100
AcDbEntity
  8
0
  6
Continuous
 62
     7
370
    18
100
AcDbLine
 10
364.6059427486
 20
44.7376225767
 30
0.0
 11
364.6059427486
 21
41.5697054685
 31
0.0
  0
LINE
  5
EC
330
1F
100
AcDbEntity
  8
0
  6
Continuous
 62
     7
370
    18
100
AcDbLine
 10
364.6059427486
 20
44.7376225767
 30
0.0
 11
357.7661698132
 21
46.3720107039
 31
0.0
  0
LINE
  5
ED
330
1F
100
AcDbEntity
  8
0
  6
Continuous
 62
     7
370
    18
100
AcDbLine
 10
15.0
 20
198.5
 30
0.0
 11
20.0
 21
198.5
 31
0.0
  0
LINE
  5
EE
330
1F
100
AcDbEntity
  8
0
  6
Continuous
 62
     7
370
    18
100
AcDbLine
 10
12.0
 20
148.5
 30
0.0
 11
0.0
 21
148.5
 31
0.0
  0
LINE
  5
EF
330
1F
100
AcDbEntity
  8
0
  6
Continuous
 62
     7
370
    18
100
AcDbLine
 10
357.7661698132
 20
39.9353173413
 30
0.0
 11
364.6059427486
 21
41.5697054685
 31
0.0
  0
LINE
  5
F0
330
1F
100
AcDbEntity
  8
0
  6
CENTERX2
 62
     7
370
    18
100
AcDbLine
 10
348.6240467841
 20
43.1536640226
 30
0.0
 11
356.6108623857
 21
43.1536640226
 31
0.0
  0
LINE
  5
F1
330
1F
100
AcDbEntity
  8
0
  6
CENTERX2
 62
     7
370
    18
100
AcDbLine
 10
357.1289238876
 20
43.1536640226
 30
0.0
 11
365.6255362296
 21
43.1536640226
 31
0.0
  0
LINE
  5
F2
330
1F
100
AcDbEntity
  8
0
  6
Continuous
 62
     7
370
    18
100
AcDbLine
 10
0.0
 20
0.0
 30
0.0
 11
420.0
 21
0.0
 31
0.0
  0
LINE
  5
F3
330
1F
100
AcDbEntity
  8
0
  6
Continuous
 62
     7
370
    18
100
AcDbLine
 10
0.0
 20
0.0
 30
0.0
 11
0.0
 21
297.0
 31
0.0
  0
LINE
  5
F4
330
1F
100
AcDbEntity
  8
0
  6
Continuous
 62
     7
370
    18
100
AcDbLine
 10
0.0
 20
297.0
 30
0.0
 11
420.0
 21
297.0
 31
0.0
  0
LINE
  5
F5
330
1F
100
AcDbEntity
  8
0
  6
Continuous
 62
     7
370
    18
100
AcDbLine
 10
420.0
 20
0.0
 30
0.0
 11
420.0
 21
297.0
 31
0.0
  0
LINE
  5
F6
330
1F
100
AcDbEntity
  8
0
  6
Continuous
 62
     7
370
    25
100
AcDbLine
 10
228.0
 20
35.0
 30
0.0
 11
410.0
 21
35.0
 31
0.0
  0
LINE
  5
F7
330
1F
100
AcDbEntity
  8
0
  6
Continuous
 62
     7
370
    18
100
AcDbLine
 10
410.0
 20
198.5
 30
0.0
 11
415.0
 21
198.5
 31
0.0
  0
LINE
  5
F8
330
1F
100
AcDbEntity
  8
0
  6
Continuous
 62
     7
370
    18
100
AcDbLine
 10
15.0
 20
148.5
 30
0.0
 11
20.0
 21
148.5
 31
0.0
  0
LINE
  5
F9
330
1F
100
AcDbEntity
  8
0
  6
Continuous
 62
     7
370
    18
100
AcDbLine
 10
228.0
 20
40.0
 30
0.0
 11
296.6
 21
40.0
 31
0.0
  0
LINE
  5
FA
330
1F
100
AcDbEntity
  8
0
  6
Continuous
 62
     7
370
    18
100
AcDbLine
 10
15.0
 20
248.5
 30
0.0
 11
20.0
 21
248.5
 31
0.0
  0
LINE
  5
FB
330
1F
100
AcDbEntity
  8
0
  6
Continuous
 62
     7
370
    35
100
AcDbLine
 10
20.0
 20
287.0
 30
0.0
 11
20.0
 21
10.0
 31
0.0
  0
LINE
  5
FC
330
1F
100
AcDbEntity
  8
0
  6
Continuous
 62
     7
370
    35
100
AcDbLine
 10
410.0
 20
287.0
 30
0.0
 11
20.0
 21
287.0
 31
0.0
  0
LINE
  5
FD
330
1F
100
AcDbEntity
  8
0
  6
Continuous
 62
     7
370
    35
100
AcDbLine
 10
410.0
 20
5.0
 30
0.0
 11
410.0
 21
287.0
 31
0.0
  0
LINE
  5
FE
330
1F
100
AcDbEntity
  8
0
  6
Continuous
 62
     7
370
    35
100
AcDbLine
 10
20.0
 20
10.0
 30
0.0
 11
415.0
 21
10.0
 31
0.0
  0
LINE
  5
FF
330
1F
100
AcDbEntity
  8
0
  6
Continuous
 62
     7
370
    18
100
AcDbLine
 10
410.0
 20
148.5
 30
0.0
 11
415.0
 21
148.5
 31
0.0
  0
LINE
  5
100
330
1F
100
AcDbEntity
  8
0
  6
Continuous
 62
     7
370
    18
100
AcDbLine
 10
228.0
 20
50.0
 30
0.0
 11
296.6
 21
50.0
 31
0.0
  0
LINE
  5
101
330
1F
100
AcDbEntity
  8
0
  6
Continuous
 62
     7
370
    18
100
AcDbLine
 10
15.0
 20
98.5
 30
0.0
 11
20.0
 21
98.5
 31
0.0
  0
LINE
  5
102
330
1F
100
AcDbEntity
  8
0
  6
Continuous
 62
     7
370
    18
100
AcDbLine
 10
296.6
 20
45.0
 30
0.0
 11
228.0
 21
45.0
 31
0.0
  0
LINE
  5
103
330
1F
100
AcDbEntity
  8
0
  6
Continuous
 62
     7
370
    18
100
AcDbLine
 10
65.0
 20
292.0
 30
0.0
 11
65.0
 21
287.0
 31
0.0
  0
LINE
  5
104
330
1F
100
AcDbEntity
  8
0
  6
Continuous
 62
     7
370
    18
100
AcDbLine
 10
230.0
 20
292.0
 30
0.0
 11
230.0
 21
297.0
 31
0.0
  0
LINE
  5
105
330
1F
100
AcDbEntity
  8
0
  6
Continuous
 62
     7
370
    25
100
AcDbLine
 10
296.6
 20
55.0
 30
0.0
 11
296.6
 21
35.0
 31
0.0
  0
LINE
  5
106
330
1F
100
AcDbEntity
  8
0
  6
Continuous
 62
     7
370
    18
100
AcDbLine
 10
410.0
 20
98.5
 30
0.0
 11
415.0
 21
98.5
 31
0.0
  0
LINE
  5
107
330
1F
100
AcDbEntity
  8
0
100
AcDbLine
 10
230.0
 20
5.0
 30
0.0
 11
230.0
 21
0.0
 31
0.0
  0
LINE
  5
108
330
1F
100
AcDbEntity
  8
0
  6
Continuous
 62
     7
370
    18
100
AcDbLine
 10
125.0
 20
292.0
 30
0.0
 11
125.0
 21
297.0
 31
0.0
  0
LINE
  5
109
330
1F
100
AcDbEntity
  8
0
  6
Continuous
 62
     7
370
    18
100
AcDbLine
 10
125.0
 20
5.0
 30
0.0
 11
125.0
 21
0.0
 31
0.0
  0
LINE
  5
10A
330
1F
100
AcDbEntity
  8
0
  6
Continuous
 62
     7
370
    25
100
AcDbLine
 10
410.0
 20
55.0
 30
0.0
 11
228.0
 21
55.0
 31
0.0
  0
LINE
  5
10B
330
1F
100
AcDbEntity
  8
0
  6
Continuous
 62
     7
370
    18
100
AcDbLine
 10
228.0
 20
55.0
 30
0.0
 11
410.0
 21
55.0
 31
0.0
  0
LINE
  5
10C
330
1F
100
AcDbEntity
  8
0
  6
Continuous
 62
     7
370
    18
100
AcDbLine
 10
410.0
 20
55.0
 30
0.0
 11
228.0
 21
55.0
 31
0.0
  0
LINE
  5
10D
330
1F
100
AcDbEntity
  8
0
  6
Continuous
 62
     7
370
    18
100
AcDbLine
 10
268.0
 20
76.5
 30
0.0
 11
268.0
 21
55.0
 31
0.0
  0
LINE
  5
10E
330
1F
100
AcDbEntity
  8
0
  6
Continuous
 62
     7
370
    18
100
AcDbLine
 10
271.6
 20
55.0
 30
0.0
 11
271.6
 21
40.0
 31
0.0
  0
LINE
  5
10F
330
1F
100
AcDbEntity
  8
0
  6
Continuous
 62
     7
370
    18
100
AcDbLine
 10
247.0
 20
55.0
 30
0.0
 11
247.0
 21
35.0
 31
0.0
  0
LINE
  5
110
330
1F
100
AcDbEntity
  8
0
  6
Continuous
 62
     7
370
    35
100
AcDbLine
 10
228.0
 20
76.5
 30
0.0
 11
228.0
 21
10.0
 31
0.0
  0
LINE
  5
111
330
1F
100
AcDbEntity
  8
0
  6
Continuous
 62
     7
370
    18
100
AcDbLine
 10
15.0
 20
292.0
 30
0.0
 11
415.0
 21
292.0
 31
0.0
  0
LINE
  5
112
330
1F
100
AcDbEntity
  8
0
  6
Continuous
 62
     7
370
    18
100
AcDbLine
 10
228.0
 20
65.75
 30
0.0
 11
310.0
 21
65.75
 31
0.0
  0
LINE
  5
113
330
1F
100
AcDbEntity
  8
0
  6
Continuous
 62
     7
370
    35
100
AcDbLine
 10
228.0
 20
76.5
 30
0.0
 11
410.0
 21
76.5
 31
0.0
  0
LINE
  5
114
330
1F
100
AcDbEntity
  8
0
  6
Continuous
 62
     7
370
    18
100
AcDbLine
 10
15.0
 20
48.5
 30
0.0
 11
20.0
 21
48.5
 31
0.0
  0
LINE
  5
115
330
1F
100
AcDbEntity
  8
0
  6
Continuous
 62
     7
370
    18
100
AcDbLine
 10
410.0
 20
48.5
 30
0.0
 11
415.0
 21
48.5
 31
0.0
  0
LINE
  5
116
330
1F
100
AcDbEntity
  8
0
  6
Continuous
 62
     7
370
    18
100
AcDbLine
 10
332.6610845472
 20
20.0
 30
0.0
 11
332.6610845472
 21
10.0
 31
0.0
  0
LINE
  5
117
330
1F
100
AcDbEntity
  8
0
  6
Continuous
 62
     7
370
    18
100
AcDbLine
 10
410.0
 20
248.5
 30
0.0
 11
415.0
 21
248.5
 31
0.0
  0
LINE
  5
118
330
1F
100
AcDbEntity
  8
0
  6
Continuous
 62
     7
370
    18
100
AcDbLine
 10
65.0
 20
10.0
 30
0.0
 11
65.0
 21
5.0
 31
0.0
  0
LINE
  5
119
330
1F
100
AcDbEntity
  8
0
  6
Continuous
 62
     7
370
    18
100
AcDbLine
 10
115.0
 20
10.0
 30
0.0
 11
115.0
 21
5.0
 31
0.0
  0
LINE
  5
11A
330
1F
100
AcDbEntity
  8
0
  6
Continuous
 62
     7
370
    18
100
AcDbLine
 10
115.0
 20
292.0
 30
0.0
 11
115.0
 21
287.0
 31
0.0
  0
LINE
  5
11B
330
1F
100
AcDbEntity
  8
0
  6
Continuous
 62
     7
370
    18
100
AcDbLine
 10
165.0
 20
10.0
 30
0.0
 11
165.0
 21
5.0
 31
0.0
  0
LINE
  5
11C
330
1F
100
AcDbEntity
  8
0
  6
Continuous
 62
     7
370
    18
100
AcDbLine
 10
165.0
 20
292.0
 30
0.0
 11
165.0
 21
287.0
 31
0.0
  0
LINE
  5
11D
330
1F
100
AcDbEntity
  8
0
  6
Continuous
 62
     7
370
    18
100
AcDbLine
 10
215.0
 20
10.0
 30
0.0
 11
215.0
 21
5.0
 31
0.0
  0
LINE
  5
11E
330
1F
100
AcDbEntity
  8
0
  6
Continuous
 62
     7
370
    18
100
AcDbLine
 10
215.0
 20
292.0
 30
0.0
 11
215.0
 21
287.0
 31
0.0
  0
LINE
  5
11F
330
1F
100
AcDbEntity
  8
0
  6
Continuous
 62
     7
370
    18
100
AcDbLine
 10
265.0
 20
10.0
 30
0.0
 11
265.0
 21
5.0
 31
0.0
  0
LINE
  5
120
330
1F
100
AcDbEntity
  8
0
  6
Continuous
 62
     7
370
    18
100
AcDbLine
 10
265.0
 20
292.0
 30
0.0
 11
265.0
 21
287.0
 31
0.0
  0
LINE
  5
121
330
1F
100
AcDbEntity
  8
0
  6
Continuous
 62
     7
370
    18
100
AcDbLine
 10
347.6610845472
 20
20.0
 30
0.0
 11
347.6610845472
 21
10.0
 31
0.0
  0
LINE
  5
122
330
1F
100
AcDbEntity
  8
0
  6
Continuous
 62
     7
370
    18
100
AcDbLine
 10
362.6610845472
 20
20.0
 30
0.0
 11
362.6610845472
 21
10.0
 31
0.0
  0
LINE
  5
123
330
1F
100
AcDbEntity
  8
0
  6
Continuous
 62
     7
370
    25
100
AcDbLine
 10
327.6610845472
 20
10.0
 30
0.0
 11
327.6610845472
 21
55.0
 31
0.0
  0
LINE
  5
124
330
1F
100
AcDbEntity
  8
0
  6
Continuous
 62
     7
370
    18
100
AcDbLine
 10
20.0
 20
292.0
 30
0.0
 11
20.0
 21
297.0
 31
0.0
  0
LINE
  5
125
330
1F
100
AcDbEntity
  8
0
  6
Continuous
 62
     7
370
    18
100
AcDbLine
 10
20.0
 20
5.0
 30
0.0
 11
20.0
 21
0.0
 31
0.0
  0
LINE
  5
126
330
1F
100
AcDbEntity
  8
0
  6
Continuous
 62
     7
370
    18
100
AcDbLine
 10
315.0
 20
10.0
 30
0.0
 11
315.0
 21
5.0
 31
0.0
  0
LINE
  5
127
330
1F
100
AcDbEntity
  8
0
  6
Continuous
 62
     7
370
    18
100
AcDbLine
 10
315.0
 20
292.0
 30
0.0
 11
315.0
 21
287.0
 31
0.0
  0
LINE
  5
128
330
1F
100
AcDbEntity
  8
0
  6
Continuous
 62
     7
370
    18
100
AcDbLine
 10
365.0
 20
10.0
 30
0.0
 11
365.0
 21
5.0
 31
0.0
  0
LINE
  5
129
330
1F
100
AcDbEntity
  8
0
  6
Continuous
 62
     7
370
    18
100
AcDbLine
 10
365.0
 20
292.0
 30
0.0
 11
365.0
 21
287.0
 31
0.0
  0
LINE
  5
12A
330
1F
100
AcDbEntity
  8
0
  6
Continuous
 62
     7
370
    18
100
AcDbLine
 10
15.0
 20
292.0
 30
0.0
 11
15.0
 21
5.0
 31
0.0
  0
LINE
  5
12B
330
1F
100
AcDbEntity
  8
0
  6
Continuous
 62
     7
370
    18
100
AcDbLine
 10
15.0
 20
5.0
 30
0.0
 11
415.0
 21
5.0
 31
0.0
  0
LINE
  5
12C
330
1F
100
AcDbEntity
  8
0
  6
Continuous
 62
     7
370
    18
100
AcDbLine
 10
415.0
 20
292.0
 30
0.0
 11
415.0
 21
5.0
 31
0.0
  0
LINE
  5
12D
330
1F
100
AcDbEntity
  8
0
  6
Continuous
 62
     7
370
    18
100
AcDbLine
 10
347.6610845472
 20
44.213444
 30
0.0
 11
327.6610845472
 21
44.213444
 31
0.0
  0
LINE
  5
12E
330
1F
100
AcDbEntity
  8
0
  6
Continuous
 62
     7
370
    18
100
AcDbLine
 10
347.6610845472
 20
35.0
 30
0.0
 11
347.6610845472
 21
55.0
 31
0.0
  0
LINE
  5
12F
330
1F
100
AcDbEntity
  8
0
  6
Continuous
 62
     7
370
    18
100
AcDbLine
 10
370.057188
 20
55.012032
 30
0.0
 11
370.057188
 21
35.0
 31
0.0
  0
LINE
  5
130
330
1F
100
AcDbEntity
  8
0
  6
Continuous
 62
     7
370
    18
100
AcDbLine
 10
398.0
 20
35.0
 30
0.0
 11
398.0
 21
20.0
 31
0.0
  0
LINE
  5
131
330
1F
100
AcDbEntity
  8
0
  6
Continuous
 62
     7
370
    18
100
AcDbLine
 10
410.0
 20
15.0
 30
0.0
 11
327.6610845472
 21
15.0
 31
0.0
  0
LINE
  5
132
330
1F
100
AcDbEntity
  8
0
  6
Continuous
 62
     7
370
    18
100
AcDbLine
 10
327.6610845472
 20
20.0
 30
0.0
 11
410.0
 21
20.0
 31
0.0
  0
LINE
  5
133
330
1F
100
AcDbEntity
  8
0
  6
Continuous
 62
     7
370
    18
100
AcDbLine
 10
341.485486
 20
20.0
 30
0.0
 11
341.485486
 21
27.564675
 31
0.0
  0
LINE
  5
134
330
1F
100
AcDbEntity
  8
0
  6
Continuous
 62
     7
370
    25
100
AcDbLine
 10
310.0
 20
76.5
 30
0.0
 11
310.0
 21
55.0
 31
0.0
  0
CIRCLE
  5
135
330
1F
100
AcDbEntity
  8
0
  6
Continuous
 62
     7
370
    18
100
AcDbCircle
 10
11.0
 20
108.5
 30
0.0
 40
2.750000000000001
  0
CIRCLE
  5
136
330
1F
100
AcDbEntity
  8
0
  6
Continuous
 62
     7
370
    18
100
AcDbCircle
 10
11.0
 20
188.5
 30
0.0
 40
2.750000000000001
  0
CIRCLE
  5
137
330
1F
100
AcDbEntity
  8
0
  6
Continuous
 62
     7
370
    18
100
AcDbCircle
 10
352.6174545849
 20
43.1536640226
 30
0.0
 40
3.218346681300138
  0
CIRCLE
  5
138
330
1F
100
AcDbEntity
  8
0
  6
Continuous
 62
     7
370
    18
100
AcDbCircle
 10
352.6174545849
 20
43.1536640226
 30
0.0
 40
1.583958554121555
  0
INSERT
  5
139
330
1F
100
AcDbEntity
  8
0
  6
Continuous
 62
     7
100
AcDbBlockReference
  2
ACO-Logo
 10
314.3510726297
 20
57.6366106772
 30
0.0
  0
POINT
  5
13A
330
1F
100
AcDbEntity
  8
0
100
AcDbPoint
 10
0.0
 20
0.0
 30
0.0
  0
POINT
  5
13B
330
1F
100
AcDbEntity
  8
0
100
AcDbPoint
 10
410.0
 20
10.0
 30
0.0
  0
MTEXT
  5
13C
330
1F
100
AcDbEntity
  8
0
  6
Continuous
 62
     7
370
    18
100
AcDbMText
 10
17.7359443114
 20
124.8017866468
 30
0.0
 40
2.0
 41
0.0
 71
     2
 72
     1
  1
D
  7
SLDTEXTSTYLE0
 73
     1
 44
1.0
  0
MTEXT
  5
13D
330
1F
100
AcDbEntity
  8
0
  6
Continuous
 62
     7
370
    18
100
AcDbMText
 10
17.6274822413
 20
174.7261854936
 30
0.0
 40
2.0
 41
0.0
 71
     2
 72
     1
  1
C
  7
SLDTEXTSTYLE0
 73
     1
 44
1.0
  0
MTEXT
  5
13E
330
1F
100
AcDbEntity
  8
0
  6
Continuous
 62
     7
370
    18
100
AcDbMText
 10
17.5516905072
 20
224.4926420442
 30
0.0
 40
2.0
 41
0.0
 71
     2
 72
     1
  1
B
  7
SLDTEXTSTYLE0
 73
     1
 44
1.0
  0
MTEXT
  5
13F
330
1F
100
AcDbEntity
  8
0
  6
Continuous
 62
     7
370
    18
100
AcDbMText
 10
290.0344258799
 20
290.5428789914
 30
0.0
 40
2.0
 41
0.0
 71
     2
 72
     1
  1
6
  7
SLDTEXTSTYLE0
 73
     1
 44
1.0
  0
MTEXT
  5
140
330
1F
100
AcDbEntity
  8
0
  6
Continuous
 62
     7
370
    18
100
AcDbMText
 10
240.0417859812
 20
290.6369260235
 30
0.0
 40
2.0
 41
0.0
 71
     2
 72
     1
  1
5
  7
SLDTEXTSTYLE0
 73
     1
 44
1.0
  0
MTEXT
  5
141
330
1F
100
AcDbEntity
  8
0
  6
Continuous
 62
     7
370
    18
100
AcDbMText
 10
190.0300404524
 20
290.6343268032
 30
0.0
 40
2.0
 41
0.0
 71
     2
 72
     1
  1
4
  7
SLDTEXTSTYLE0
 73
     1
 44
1.0
  0
MTEXT
  5
142
330
1F
100
AcDbEntity
  8
0
  6
Continuous
 62
     7
370
    18
100
AcDbMText
 10
140.0165868337
 20
290.6378887952
 30
0.0
 40
2.0
 41
0.0
 71
     2
 72
     1
  1
3
  7
SLDTEXTSTYLE0
 73
     1
 44
1.0
  0
MTEXT
  5
143
330
1F
100
AcDbEntity
  8
0
  6
Continuous
 62
     7
370
    18
100
AcDbMText
 10
90.033223
 20
290.5566702875
 30
0.0
 40
2.0
 41
0.0
 71
     2
 72
     1
  1
2
  7
SLDTEXTSTYLE0
 73
     1
 44
1.0
  0
MTEXT
  5
144
330
1F
100
AcDbEntity
  8
0
  6
Continuous
 62
     7
370
    18
100
AcDbMText
 10
40.0509551097
 20
290.5530165805
 30
0.0
 40
2.0
 41
0.0
 71
     2
 72
     1
  1
1
  7
SLDTEXTSTYLE0
 73
     1
 44
1.0
  0
MTEXT
  5
145
330
1F
100
AcDbEntity
  8
0
  6
Continuous
 62
     7
370
    18
100
AcDbMText
 10
17.5609786315
 20
271.2966048816
 30
0.0
 40
2.0
 41
0.0
 71
     2
 72
     1
  1
A
  7
SLDTEXTSTYLE0
 73
     1
 44
1.0
  0
MTEXT
  5
146
330
1F
100
AcDbEntity
  8
0
  6
Continuous
 62
     7
370
    18
100
AcDbMText
 10
89.9333968896
 20
8.5904490253
 30
0.0
 40
2.0
 41
0.0
 71
     2
 72
     1
  1
2
  7
SLDTEXTSTYLE0
 73
     1
 44
1.0
  0
MTEXT
  5
147
330
1F
100
AcDbEntity
  8
0
  6
Continuous
 62
     7
370
    18
100
AcDbMText
 10
39.9009486579
 20
8.6623118453
 30
0.0
 40
2.0
 41
0.0
 71
     2
 72
     1
  1
1
  7
SLDTEXTSTYLE0
 73
     1
 44
1.0
  0
MTEXT
  5
148
330
1F
100
AcDbEntity
  8
0
  6
Continuous
 62
     7
370
    18
100
AcDbMText
 10
190.0227230239
 20
8.7073169286
 30
0.0
 40
2.0
 41
0.0
 71
     2
 72
     1
  1
4
  7
SLDTEXTSTYLE0
 73
     1
 44
1.0
  0
MTEXT
  5
149
330
1F
100
AcDbEntity
  8
0
  6
Continuous
 62
     7
370
    18
100
AcDbMText
 10
140.0453427777
 20
8.5647154541
 30
0.0
 40
2.0
 41
0.0
 71
     2
 72
     1
  1
3
  7
SLDTEXTSTYLE0
 73
     1
 44
1.0
  0
MTEXT
  5
14A
330
1F
100
AcDbEntity
  8
0
  6
Continuous
 62
     7
370
    18
100
AcDbMText
 10
239.8749782531
 20
8.5637526825
 30
0.0
 40
2.0
 41
0.0
 71
     2
 72
     1
  1
5
  7
SLDTEXTSTYLE0
 73
     1
 44
1.0
  0
MTEXT
  5
14B
330
1F
100
AcDbEntity
  8
0
  6
Continuous
 62
     7
370
    18
100
AcDbMText
 10
412.6717254925
 20
224.51208263
 30
0.0
 40
2.0
 41
0.0
 71
     2
 72
     1
  1
B
  7
SLDTEXTSTYLE0
 73
     1
 44
1.0
  0
MTEXT
  5
14C
330
1F
100
AcDbEntity
  8
0
  6
Continuous
 62
     7
370
    18
100
AcDbMText
 10
412.5951211154
 20
271.2798202564
 30
0.0
 40
2.0
 41
0.0
 71
     2
 72
     1
  1
A
  7
SLDTEXTSTYLE0
 73
     1
 44
1.0
  0
MTEXT
  5
14D
330
1F
100
AcDbEntity
  8
0
  6
Continuous
 62
     7
370
    18
100
AcDbMText
 10
412.6491448679
 20
174.7279841048
 30
0.0
 40
2.0
 41
0.0
 71
     2
 72
     1
  1
C
  7
SLDTEXTSTYLE0
 73
     1
 44
1.0
  0
MTEXT
  5
14E
330
1F
100
AcDbEntity
  8
0
  6
Continuous
 62
     7
370
    18
100
AcDbMText
 10
340.0216466634
 20
290.5954278102
 30
0.0
 40
2.0
 41
0.0
 71
     2
 72
     1
  1
7
  7
SLDTEXTSTYLE0
 73
     1
 44
1.0
  0
MTEXT
  5
14F
330
1F
100
AcDbEntity
  8
0
  6
Continuous
 62
     7
370
    18
100
AcDbMText
 10
390.037657264
 20
290.6215496941
 30
0.0
 40
2.0
 41
0.0
 71
     2
 72
     1
  1
8
  7
SLDTEXTSTYLE0
 73
     1
 44
1.0
  0
MTEXT
  5
150
330
1F
100
AcDbEntity
  8
0
  6
Continuous
 62
     7
370
    18
100
AcDbMText
 10
17.6897935208
 20
74.7267628143
 30
0.0
 40
2.0
 41
0.0
 71
     2
 72
     1
  1
E
  7
SLDTEXTSTYLE0
 73
     1
 44
1.0
  0
MTEXT
  5
151
330
1F
100
AcDbEntity
  8
0
  6
Continuous
 62
     7
370
    18
100
AcDbMText
 10
17.5936930126
 20
27.773321616
 30
0.0
 40
2.0
 41
0.0
 71
     2
 72
     1
  1
F
  7
SLDTEXTSTYLE0
 73
     1
 44
1.0
  0
MTEXT
  5
152
330
1F
100
AcDbEntity
  8
0
  6
Continuous
 62
     7
370
    18
100
AcDbMText
 10
339.8003474583
 20
8.7205095051
 30
0.0
 40
2.0
 41
0.0
 71
     2
 72
     1
  1
7
  7
SLDTEXTSTYLE0
 73
     1
 44
1.0
  0
MTEXT
  5
153
330
1F
100
AcDbEntity
  8
0
  6
Continuous
 62
     7
370
    18
100
AcDbMText
 10
289.7886477179
 20
8.6884673623
 30
0.0
 40
2.0
 41
0.0
 71
     2
 72
     1
  1
6
  7
SLDTEXTSTYLE0
 73
     1
 44
1.0
  0
MTEXT
  5
154
330
1F
100
AcDbEntity
  8
0
  6
Continuous
 62
     7
370
    18
100
AcDbMText
 10
412.5160699095
 20
74.5096307526
 30
0.0
 40
2.0
 41
0.0
 71
     2
 72
     1
  1
E
  7
SLDTEXTSTYLE0
 73
     1
 44
1.0
  0
MTEXT
  5
155
330
1F
100
AcDbEntity
  8
0
  6
Continuous
 62
     7
370
    18
100
AcDbMText
 10
412.6234021365
 20
124.4517683275
 30
0.0
 40
2.0
 41
0.0
 71
     2
 72
     1
  1
D
  7
SLDTEXTSTYLE0
 73
     1
 44
1.0
  0
MTEXT
  5
156
330
1F
100
AcDbEntity
  8
0
  6
Continuous
 62
     7
370
    18
100
AcDbMText
 10
411.7952690469
 20
41.8539133846
 30
0.0
 40
1.8
 41
0.0
 71
     3
 72
     1
  1
Plotdatum: 06.10.2025
  7
SLDTEXTSTYLE0
 11
-3.269436733918102E-15
 21
1.0
 31
0.0
 73
     1
 44
1.0
  0
MTEXT
  5
157
330
1F
100
AcDbEntity
  8
0
  6
Continuous
 62
     7
370
    18
100
AcDbMText
 10
412.557933251
 20
8.2549718046
 30
0.0
 40
1.8
 41
0.0
 71
     2
 72
     1
  1
A3
  7
SLDTEXTSTYLE0
 73
     1
 44
1.0
  0
MTEXT
  5
158
330
1F
100
AcDbEntity
  8
0
  6
Continuous
 62
     7
370
    18
100
AcDbMText
 10
390.594604279
 20
8.3847467643
 30
0.0
 40
1.8
 41
0.0
 71
     2
 72
     1
  1
CAD-System: SolidWorks
  7
SLDTEXTSTYLE0
 73
     1
 44
1.0
  0
MTEXT
  5
159
330
1F
100
AcDbEntity
  8
0
  6
Continuous
 62
     7
370
    18
100
AcDbMText
 10
404.0541923444
 20
28.4394692021
 30
0.0
 40
5.0
 41
0.0
 71
     2
 72
     1
  1
-
  7
SLDTEXTSTYLE0
 73
     1
 44
1.0
  0
MTEXT
  5
15A
330
1F
100
AcDbEntity
  8
0
  6
Continuous
 62
     7
370
    18
100
AcDbMText
 10
249.556836311
 20
38.5581729516
 30
0.0
 40
2.0
 41
0.0
 71
     1
 72
     1
  1
Freigegeben
  7
SLDTEXTSTYLE0
 73
     1
 44
1.0
  0
MTEXT
  5
15B
330
1F
100
AcDbEntity
  8
0
  6
Continuous
 62
     7
370
    18
100
AcDbMText
 10
284.1136255556
 20
43.5473338598
 30
0.0
 40
2.0
 41
0.0
 71
     2
 72
     1
  1
bae
  7
SLDTEXTSTYLE0
 73
     1
 44
1.0
  0
MTEXT
  5
15C
330
1F
100
AcDbEntity
  8
0
  6
Continuous
 62
     7
370
    18
100
AcDbMText
 10
249.5284668163
 20
43.5603133928
 30
0.0
 40
2.0
 41
0.0
 71
     1
 72
     1
  1
06.10.2025
  7
SLDTEXTSTYLE0
 73
     1
 44
1.0
  0
MTEXT
  5
15D
330
1F
100
AcDbEntity
  8
0
  6
Continuous
 62
     7
370
    18
100
AcDbMText
 10
284.1413255212
 20
48.5138972561
 30
0.0
 40
2.0
 41
0.0
 71
     2
 72
     1
  1
bae
  7
SLDTEXTSTYLE0
 73
     1
 44
1.0
  0
MTEXT
  5
15E
330
1F
100
AcDbEntity
  8
0
  6
Continuous
 62
     7
370
    18
100
AcDbMText
 10
249.5284668163
 20
48.4989062069
 30
0.0
 40
2.0
 41
0.0
 71
     1
 72
     1
  1
03.10.2025
  7
SLDTEXTSTYLE0
 73
     1
 44
1.0
  0
MTEXT
  5
15F
330
1F
100
AcDbEntity
  8
0
  6
Continuous
 62
     7
370
     0
100
AcDbMText
 10
372.2007348103
 20
38.8723054925
 30
0.0
 40
1.5
 41
0.0
 71
     1
 72
     1
  1
Copyright reserved! © ACO AG
  7
SLDTEXTSTYLE0
 73
     1
 44
1.0
  0
MTEXT
  5
160
330
1F
100
AcDbEntity
  8
0
  6
Continuous
 62
     7
370
     0
100
AcDbMText
 10
372.2203831445
 20
53.1538938951
 30
0.0
 40
1.5
 41
0.0
 71
     1
 72
     1
  1
Diese Zeichnung darf weder kopiert^Jnoch dritten Personen, insbesondere^Jzum Zweck anderweitiger Benutzung^Jmitgeteilt werden und bleibt unser^JEigentum.
  7
SLDTEXTSTYLE0
 73
     1
 44
1.0
  0
MTEXT
  5
161
330
1F
100
AcDbEntity
  8
0
  6
Continuous
 62
     7
370
    18
100
AcDbMText
 10
364.9468572407
 20
18.4594173137
 30
0.0
 40
2.0
 41
0.0
 71
     1
 72
     1
  1
Erstausgabe
  7
SLDTEXTSTYLE0
 73
     1
 44
1.0
  0
MTEXT
  5
162
330
1F
100
AcDbEntity
  8
0
  6
Continuous
 62
     7
370
    18
100
AcDbMText
 10
330.2607505021
 20
18.524501801
 30
0.0
 40
2.0
 41
0.0
 71
     2
 72
     1
  1
-
  7
SLDTEXTSTYLE0
 73
     1
 44
1.0
  0
MTEXT
  5
163
330
1F
100
AcDbEntity
  8
0
  6
Continuous
 62
     7
370
    18
100
AcDbMText
 10
311.764909851
 20
46.3490312465
 30
0.0
 40
5.0
 41
0.0
 71
     2
 72
     1
  1
1:1
  7
SLDTEXTSTYLE0
 73
     1
 44
1.0
  0
MTEXT
  5
164
330
1F
100
AcDbEntity
  8
0
  6
Continuous
 62
     7
370
    18
100
AcDbMText
 10
230.1851195342
 20
38.7793829468
 30
0.0
 40
2.0
 41
0.0
 71
     1
 72
     1
  1
Status:
  7
SLDTEXTSTYLE0
 73
     1
 44
1.0
  0
MTEXT
  5
165
330
1F
100
AcDbEntity
  8
0
  6
Continuous
 62
     7
370
    18
100
AcDbMText
 10
344.926838705
 20
28.2772828851
 30
0.0
 40
5.0
 41
0.0
 71
     1
 72
     1
  1
2023207
  7
SLDTEXTSTYLE0
 73
     1
 44
1.0
  0
MTEXT
  5
166
330
1F
100
AcDbEntity
  8
0
  6
Continuous
 62
     7
370
    18
100
AcDbMText
 10
231.1132118803
 20
14.9211049657
 30
0.0
 40
2.5
 41
0.0
 71
     1
 72
     1
  1
Art. Nr.: 2023207
  7
SLDTEXTSTYLE0
 73
     1
 44
1.0
  0
MTEXT
  5
167
330
1F
100
AcDbEntity
  8
0
  6
Continuous
 62
     7
370
    18
100
AcDbMText
 10
231.1475981734
 20
21.4529560996
 30
0.0
 40
2.5
 41
0.0
 71
     1
 72
     1
  1
zu Dachablauf
  7
SLDTEXTSTYLE0
 73
     1
 44
1.0
  0
MTEXT
  5
168
330
1F
100
AcDbEntity
  8
0
  6
Continuous
 62
     7
370
    18
100
AcDbMText
 10
231.1159560181
 20
33.0904969858
 30
0.0
 40
2.5
 41
0.0
 71
     1
 72
     1
  1
ACO-Standard
  7
SLDTEXTSTYLE0
 73
     1
 44
1.0
  0
MTEXT
  5
169
330
1F
100
AcDbEntity
  8
0
  6
Continuous
 62
     7
370
    18
100
AcDbMText
 10
231.1475981734
 20
28.0307932366
 30
0.0
 40
3.5
 41
0.0
 71
     1
 72
     1
  1
Rost 142x142  für DN100
  7
SLDTEXTSTYLE0
 73
     1
 44
1.0
  0
MTEXT
  5
16A
330
1F
100
AcDbEntity
  8
0
  6
Continuous
 62
     7
370
    18
100
AcDbMText
 10
348.2746465368
 20
53.819119072
 30
0.0
 40
2.0
 41
0.0
 71
     1
 72
     1
  1
Projektion: ISO-E
  7
SLDTEXTSTYLE0
 73
     1
 44
1.0
  0
MTEXT
  5
16B
330
1F
100
AcDbEntity
  8
0
  6
Continuous
 62
     7
370
    18
100
AcDbMText
 10
337.7677091855
 20
49.3670227094
 30
0.0
 40
2.5
 41
0.0
 71
     2
 72
     1
  1
Millimeter
  7
SLDTEXTSTYLE0
 73
     1
 44
1.0
  0
MTEXT
  5
16C
330
1F
100
AcDbEntity
  8
0
  6
Continuous
 62
     7
370
    18
100
AcDbMText
 10
337.6323777421
 20
53.855374072
 30
0.0
 40
2.0
 41
0.0
 71
     2
 72
     1
  1
Masseinheit:
  7
SLDTEXTSTYLE0
 73
     1
 44
1.0
  0
MTEXT
  5
16D
330
1F
100
AcDbEntity
  8
0
  6
Continuous
 62
     7
370
    18
100
AcDbMText
 10
337.6114490186
 20
43.5452078816
 30
0.0
 40
2.0
 41
0.0
 71
     2
 72
     1
  1
Blatt / Anz.:
  7
SLDTEXTSTYLE0
 73
     1
 44
1.0
  0
MTEXT
  5
16E
330
1F
100
AcDbEntity
  8
0
  6
Continuous
 62
     7
370
    18
100
AcDbMText
 10
329.2895578243
 20
28.4139191092
 30
0.0
 40
5.0
 41
0.0
 71
     1
 72
     1
  1
CH
  7
SLDTEXTSTYLE0
 73
     1
 44
1.0
  0
MTEXT
  5
16F
330
1F
100
AcDbEntity
  8
0
  6
Continuous
 62
     7
370
    18
100
AcDbMText
 10
330.40704
 20
33.692638072
 30
0.0
 40
2.0
 41
0.0
 71
     1
 72
     1
  1
Zeichnung Nr.:
  7
SLDTEXTSTYLE0
 73
     1
 44
1.0
  0
MTEXT
  5
170
330
1F
100
AcDbEntity
  8
0
  6
Continuous
 62
     7
370
    18
100
AcDbMText
 10
269.897953
 20
75.161075072
 30
0.0
 40
2.0
 41
0.0
 71
     1
 72
     1
  1
Gewicht:
  7
SLDTEXTSTYLE0
 73
     1
 44
1.0
  0
MTEXT
  5
171
330
1F
100
AcDbEntity
  8
0
  6
Continuous
 62
     7
370
    18
100
AcDbMText
 10
230.0
 20
64.542328072
 30
0.0
 40
2.0
 41
0.0
 71
     1
 72
     1
  1
zul. Abweichung:
  7
SLDTEXTSTYLE0
 73
     1
 44
1.0
  0
MTEXT
  5
172
330
1F
100
AcDbEntity
  8
0
  6
Continuous
 62
     7
370
    18
100
AcDbMText
 10
269.612607
 20
64.542328072
 30
0.0
 40
2.0
 41
0.0
 71
     1
 72
     1
  1
Oberfläche:
  7
SLDTEXTSTYLE0
 73
     1
 44
1.0
  0
MTEXT
  5
173
330
1F
100
AcDbEntity
  8
0
  6
Continuous
 62
     7
370
    18
100
AcDbMText
 10
230.261411
 20
43.4433838912
 30
0.0
 40
2.0
 41
0.0
 71
     1
 72
     1
  1
Freigegeben:
  7
SLDTEXTSTYLE0
 73
     1
 44
1.0
  0
MTEXT
  5
174
330
1F
100
AcDbEntity
  8
0
  6
Continuous
 62
     7
370
    18
100
AcDbMText
 10
230.0
 20
75.161075072
 30
0.0
 40
2.0
 41
0.0
 71
     1
 72
     1
  1
Werkstoff:
  7
SLDTEXTSTYLE0
 73
     1
 44
1.0
  0
MTEXT
  5
175
330
1F
100
AcDbEntity
  8
0
  6
Continuous
 62
     7
370
    18
100
AcDbMText
 10
254.035545
 20
53.129475072
 30
0.0
 40
2.0
 41
0.0
 71
     1
 72
     1
  1
Datum:
  7
SLDTEXTSTYLE0
 73
     1
 44
1.0
  0
MTEXT
  5
176
330
1F
100
AcDbEntity
  8
0
  6
Continuous
 62
     7
370
    18
100
AcDbMText
 10
279.934928
 20
53.136060072
 30
0.0
 40
2.0
 41
0.0
 71
     1
 72
     1
  1
Name:
  7
SLDTEXTSTYLE0
 73
     1
 44
1.0
  0
MTEXT
  5
177
330
1F
100
AcDbEntity
  8
0
  6
Continuous
 62
     7
370
    18
100
AcDbMText
 10
312.162455406
 20
53.881591072
 30
0.0
 40
2.0
 41
0.0
 71
     2
 72
     1
  1
Massstab:
  7
SLDTEXTSTYLE0
 73
     1
 44
1.0
  0
MTEXT
  5
178
330
1F
100
AcDbEntity
  8
0
  6
Continuous
 62
     7
370
    18
100
AcDbMText
 10
403.9552944035
 20
33.324874072
 30
0.0
 40
2.0
 41
0.0
 71
     2
 72
     1
  1
Index:
  7
SLDTEXTSTYLE0
 73
     1
 44
1.0
  0
MTEXT
  5
179
330
1F
100
AcDbEntity
  8
0
  6
Continuous
 62
     7
370
    18
100
AcDbMText
 10
230.261411
 20
48.4499477886
 30
0.0
 40
2.0
 41
0.0
 71
     1
 72
     1
  1
Erstellt:
  7
SLDTEXTSTYLE0
 73
     1
 44
1.0
  0
MTEXT
  5
17B
330
1F
100
AcDbEntity
  8
0
  6
Continuous
 62
     7
370
    18
100
AcDbMText
 10
337.6348165843
 20
39.869706576
 30
0.0
 40
2.5
 41
0.0
 71
     2
 72
     1
  1
1 / 1
  7
SLDTEXTSTYLE1
 73
     1
 44
1.0
  0
MTEXT
  5
17C
330
1F
100
AcDbEntity
  8
0
  6
Continuous
 62
     7
370
    18
100
AcDbMText
 10
269.612607
 20
60.8119428599
 30
0.0
 40
3.0
 41
0.0
 71
     1
 72
     1
  1
DIN ISO 1302
  7
SLDTEXTSTYLE0
 73
     1
 44
1.0
  0
MTEXT
  5
17D
330
1F
100
AcDbEntity
  8
0
  6
Continuous
 62
     7
370
    18
100
AcDbMText
 10
230.0
 20
60.8119428599
 30
0.0
 40
3.0
 41
0.0
 71
     1
 72
     1
  1
Norm
  7
SLDTEXTSTYLE0
 73
     1
 44
1.0
  0
MTEXT
  5
17E
330
1F
100
AcDbEntity
  8
0
  6
Continuous
 62
     7
370
    18
100
AcDbMText
 10
269.612607
 20
71.2121947186
 30
0.0
 40
3.0
 41
0.0
 71
     1
 72
     1
  1
0.20 kg
  7
SLDTEXTSTYLE0
 73
     1
 44
1.0
  0
MTEXT
  5
17F
330
1F
100
AcDbEntity
  8
0
  6
Continuous
 62
     7
370
    18
100
AcDbMText
 10
230.0
 20
71.2121947186
 30
0.0
 40
3.0
 41
0.0
 71
     1
 72
     1
  1
1.4301 (X5CrNi18-10)
  7
SLDTEXTSTYLE0
 73
     1
 44
1.0
  0
SPLINE
  5
180
330
1F
100
AcDbEntity
  8
0
  6
Continuous
 62
     7
370
    25
100
AcDbSpline
210
0.0
220
0.0
230
1.0
 70
     8
 71
     3
 72
    78
 73
    74
 74
     0
 42
0.00000001
 43
0.00000001
 40
0.0
 40
0.0
 40
0.0
 40
0.0
 40
0.0074871953766897
 40
0.021727167114801
 40
0.0359683954199621
 40
0.0502104353054544
 40
0.06445342267147
 40
0.0786974519537307
 40
0.0929425829036061
 40
0.1071888465272709
 40
0.1214362501825633
 40
0.1356847819120401
 40
0.1499344140959046
 40
0.1641851065079795
 40
0.1784368088537596
 40
0.1926894628632218
 40
0.2069430040040295
 40
0.2211973628732316
 40
0.2354524663183866
 40
0.2497082383323282
 40
0.2639646007597064
 40
0.2782214738480083
 40
0.2924787766711512
 40
0.3067364274497013
 40
0.3209943437884471
 40
0.3352524428493033
 40
0.3495106414753102
 40
0.3637688562798895
 40
0.3780269811422686
 40
0.3922849271600888
 40
0.4065426106725255
 40
0.420799948077353
 40
0.4350568559417865
 40
0.4493132511580774
 40
0.4635690511587807
 40
0.4778241742089891
 40
0.4920785397955564
 40
0.5063320691364597
 40
0.5205846858373431
 40
0.5348363167267581
 40
0.5490868929069089
 40
0.5633363510626475
 40
0.5775846350781189
 40
0.5918316980176913
 40
0.6060775045353471
 40
0.6203220337842608
 40
0.6345652829051516
 40
0.6488072711772561
 40
0.663048044917979
 40
0.6772876832145859
 40
0.6915263045606885
 40
0.7057640744481702
 40
0.7200012139266913
 40
0.7342380090814206
 40
0.748474747480426
 40
0.7627117922117137
 40
0.7769496545012242
 40
0.7911889493901304
 40
0.8054304049418622
 40
0.8196748689546054
 40
0.8339233115504355
 40
0.8481768215856312
 40
0.862436594422727
 40
0.8767039083135586
 40
0.890980086597572
 40
0.9052664433007434
 40
0.9195642107383145
 40
0.933874449582413
 40
0.9481979446709828
 40
0.9625350935257667
 40
0.9768857987012388
 40
0.9912493788593859
 40
1.0
 40
1.0
 40
1.0
 40
1.0
 10
342.7794954060173
 20
156.1271757140026
 30
0.0
 10
342.570509570715
 20
156.0077664393062
 30
0.0
 10
341.9640514859727
 20
155.661251471303
 30
0.0
 10
340.9307239088934
 20
155.1045954964476
 30
0.0
 10
339.6683577579042
 20
154.4653814720719
 30
0.0
 10
338.3697370704118
 20
153.8502040601837
 30
0.0
 10
337.0369234831707
 20
153.2593743374573
 30
0.0
 10
335.6711407953707
 20
152.6936411189612
 30
0.0
 10
334.2738804380073
 20
152.1535995003548
 30
0.0
 10
332.8466079120495
 20
151.6398506614769
 30
0.0
 10
331.3908391052711
 20
151.1529579471626
 30
0.0
 10
329.9081174651058
 20
150.6934576526668
 30
0.0
 10
328.4000177239762
 20
150.2618552494392
 30
0.0
 10
326.8681424983898
 20
149.8586256022647
 30
0.0
 10
325.3141207905729
 20
149.4842121973127
 30
0.0
 10
323.7396059752813
 20
149.1390267078965
 30
0.0
 10
322.1462739208501
 20
148.823448535732
 30
0.0
 10
320.5358210712063
 20
148.5378244192095
 30
0.0
 10
318.9099625355868
 20
148.282468079578
 30
0.0
 10
317.2704301735616
 20
148.0576599091065
 30
0.0
 10
315.618970678755
 20
147.8636466971192
 30
0.0
 10
313.9573436604448
 20
147.7006413925888
 30
0.0
 10
312.2873197234276
 20
147.5688229017219
 30
0.0
 10
310.6106785463089
 20
147.4683359194417
 30
0.0
 10
308.9292069585579
 20
147.3992907938767
 30
0.0
 10
307.2446970167068
 20
147.3617634231686
 30
0.0
 10
305.5589440802425
 20
147.3557951840706
 30
0.0
 10
303.8737457767367
 20
147.3813928784327
 30
0.0
 10
302.1908993909118
 20
147.4385286558588
 30
0.0
 10
300.5121997189374
 20
147.5271400258425
 30
0.0
 10
298.8394362569884
 20
147.6471299998943
 30
0.0
 10
297.1743919665955
 20
147.7983671869425
 30
0.0
 10
295.5188415665641
 20
147.9806859015975
 30
0.0
 10
293.8745496210204
 20
148.1938863105308
 30
0.0
 10
292.2432686310561
 20
148.4377346102722
 30
0.0
 10
290.6267371302775
 20
148.7119632369174
 30
0.0
 10
289.0266777844292
 20
149.0162711084388
 30
0.0
 10
287.4447954951358
 20
149.3503239005557
 30
0.0
 10
285.8827755076721
 20
149.7137543574361
 30
0.0
 10
284.3422815225527
 20
150.1061626389111
 30
0.0
 10
282.8249538106326
 20
150.5271167063761
 30
0.0
 10
281.3324073313567
 20
150.9761527501636
 30
0.0
 10
279.8662298538157
 20
151.4527756619025
 30
0.0
 10
278.427980080391
 20
151.956459556256
 30
0.0
 10
277.0191857730597
 20
152.4866483474501
 30
0.0
 10
275.6413418829343
 20
153.0427563871852
 30
0.0
 10
274.295908684416
 20
153.6241691718472
 30
0.0
 10
272.9843099165432
 20
154.2302441283747
 30
0.0
 10
271.7079309358293
 20
154.8603114896475
 30
0.0
 10
270.4681168872412
 20
155.5136752717336
 30
0.0
 10
269.2661709031387
 20
156.1896143666065
 30
0.0
 10
268.1033523440607
 20
156.8873837648338
 30
0.0
 10
266.9808751005656
 20
157.6062159227311
 30
0.0
 10
265.8999078491622
 20
158.3453210105009
 30
0.0
 10
264.8615724116316
 20
159.1038882331647
 30
0.0
 10
263.8669407279034
 20
159.8810884487772
 30
0.0
 10
262.9170320451261
 20
160.6760775290628
 30
0.0
 10
262.012812099326
 20
161.4879988240846
 30
0.0
 10
261.1551938236498
 20
162.3159845381556
 30
0.0
 10
260.3450371114257
 20
163.15915816706
 30
0.0
 10
259.5831490500414
 20
164.0166369397585
 30
0.0
 10
258.8702846298916
 20
164.8875341404269
 30
0.0
 10
258.2071481659702
 20
165.7709611552302
 30
0.0
 10
257.5943946615498
 20
166.6660290093297
 30
0.0
 10
257.0326338809468
 20
167.5718492690416
 30
0.0
 10
256.5224263511141
 20
168.4875336447479
 30
0.0
 10
256.0643106852399
 20
169.4121936302975
 30
0.0
 10
255.6587136477501
 20
170.3449342185091
 30
0.0
 10
255.3062962741231
 20
171.2848634416144
 30
0.0
 10
255.0066659600772
 20
172.2310367022214
 30
0.0
 10
254.7631885589184
 20
173.1826400646674
 30
0.0
 10
254.5908651042597
 20
174.0135377098323
 30
0.0
 10
254.5222940301841
 20
174.5278630731588
 30
0.0
 10
254.4963342540844
 20
174.7225774108643
 30
0.0
  0
SPLINE
  5
181
330
1F
100
AcDbEntity
  8
0
  6
Continuous
 62
     7
370
    25
100
AcDbSpline
210
0.0
220
0.0
230
1.0
 70
     8
 71
     3
 72
    30
 73
    26
 74
     0
 42
0.00000001
 43
0.00000001
 40
0.0
 40
0.0
 40
0.0
 40
0.0
 40
0.023616703281804
 40
0.0702709390616528
 40
0.1168956379295307
 40
0.1634842937604057
 40
0.2100324562285902
 40
0.2565377383940096
 40
0.3029996520383785
 40
0.3494193234438261
 40
0.395799145885088
 40
0.442142418288634
 40
0.488453007029403
 40
0.534735053982051
 40
0.5809927416344328
 40
0.6272301167268625
 40
0.6734509677656064
 40
0.719658748453897
 40
0.7658565378881689
 40
0.8120470285635741
 40
0.8582325342205727
 40
0.9044150109025104
 40
0.950596085994804
 40
0.9943424003393789
 40
1.0
 40
1.0
 40
1.0
 40
1.0
 10
357.6557585863634
 20
174.6231526023855
 30
0.0
 10
357.6339879044604
 20
174.4611168419608
 30
0.0
 10
357.569209758117
 20
173.9789832896718
 30
0.0
 10
357.4021425944448
 20
173.1796239305784
 30
0.0
 10
357.1583834833014
 20
172.2263042848546
 30
0.0
 10
356.8577407579702
 20
171.2782951585743
 30
0.0
 10
356.504195085748
 20
170.3364728083497
 30
0.0
 10
356.0972137798882
 20
169.4018690742964
 30
0.0
 10
355.6375349833694
 20
168.4754399743062
 30
0.0
 10
355.1256134281214
 20
167.5581312660707
 30
0.0
 10
354.5620323591815
 20
166.6508658197074
 30
0.0
 10
353.9473915521144
 20
165.7545521818076
 30
0.0
 10
353.2823373384725
 20
164.8700869542145
 30
0.0
 10
352.5675559186969
 20
163.9983578134962
 30
0.0
 10
351.8037772228989
 20
163.1402451268598
 30
0.0
 10
350.9917762425059
 20
162.2966226676707
 30
0.0
 10
350.1323747726647
 20
161.4683575426853
 30
0.0
 10
349.2264432389206
 20
160.6563090698016
 30
0.0
 10
348.2748999023129
 20
159.8613285359998
 30
0.0
 10
347.2787179982129
 20
159.0842534595255
 30
0.0
 10
346.2389010916145
 20
158.3259209374264
 30
0.0
 10
345.1565749933582
 20
157.5871090099927
 30
0.0
 10
344.0523940989906
 20
156.8813704191315
 30
0.0
 10
343.2503366421905
 20
156.3996841943323
 30
0.0
 10
342.8278745921426
 20
156.1551761045329
 30
0.0
 10
342.7794954060173
 20
156.1271757140026
 30
0.0
  0
SPLINE
  5
182
330
1F
100
AcDbEntity
  8
0
  6
Continuous
 62
     7
370
    25
100
AcDbSpline
210
0.0
220
0.0
230
1.0
 70
     8
 71
     3
 72
    11
 73
     7
 74
     0
 42
0.00000001
 43
0.00000001
 40
0.0
 40
0.0
 40
0.0
 40
0.0
 40
0.243227569402008
 40
0.5015846106800622
 40
0.7554818656293749
 40
1.0
 40
1.0
 40
1.0
 40
1.0
 10
406.0174349641163
 20
174.98151773389
 30
0.0
 10
405.9982378717552
 20
175.2138089799298
 30
0.0
 10
405.9586495712934
 20
175.6928406723307
 30
0.0
 10
405.6431651004482
 20
176.3523783533174
 30
0.0
 10
405.1777739830414
 20
176.9120620573316
 30
0.0
 10
404.7922119128736
 20
177.166273602328
 30
0.0
 10
404.6030586080165
 20
177.290987513756
 30
0.0
  0
SPLINE
  5
183
330
1F
100
AcDbEntity
  8
0
  6
Continuous
 62
     7
370
    25
100
AcDbSpline
210
0.0
220
0.0
230
1.0
 70
     8
 71
     3
 72
    14
 73
    10
 74
     0
 42
0.00000001
 43
0.00000001
 40
0.0
 40
0.0
 40
0.0
 40
0.0
 40
0.1068228358312698
 40
0.2326173551335616
 40
0.3820217716222085
 40
0.5123458286529508
 40
0.6595437863918596
 40
0.8230521337679091
 40
1.0
 40
1.0
 40
1.0
 40
1.0
 10
207.5632329363418
 20
177.2909875137558
 30
0.0
 10
207.4778408463736
 20
177.2386364723262
 30
0.0
 10
207.2918910729646
 20
177.1246368700775
 30
0.0
 10
207.0095844084023
 20
176.8971489951153
 30
0.0
 10
206.7422692003383
 20
176.6190674737085
 30
0.0
 10
206.5063888589914
 20
176.2881758260023
 30
0.0
 10
206.3177394986679
 20
175.9139377053396
 30
0.0
 10
206.177582569036
 20
175.4702625917242
 30
0.0
 10
206.1586806280619
 20
175.1486643859851
 30
0.0
 10
206.1488565802422
 20
174.9815177338898
 30
0.0
  0
LINE
  5
184
330
1F
100
AcDbEntity
  8
0
  6
Continuous
 62
     7
370
    25
100
AcDbLine
 10
404.6030563989
 20
177.2909887891
 30
0.0
 11
307.0830669748
 21
233.5880803664
 31
0.0
  0
LINE
  5
185
330
1F
100
AcDbEntity
  8
0
  6
Continuous
 62
     7
370
    25
100
AcDbLine
 10
305.0832245691
 20
233.5880803661
 30
0.0
 11
207.5632345566
 21
177.2909884491
 31
0.0
  0
LINE
  5
186
330
1F
100
AcDbEntity
  8
0
  6
Continuous
 62
     7
370
    25
100
AcDbLine
 10
406.0174349665
 20
171.307027521
 30
0.0
 11
406.0174349665
 21
174.9814611745
 31
0.0
  0
LINE
  5
187
330
1F
100
AcDbEntity
  8
0
  6
Continuous
 62
     7
370
    25
100
AcDbLine
 10
206.1488565778
 20
174.9814611745
 30
0.0
 11
206.1488565778
 21
171.307027521
 31
0.0
  0
SPLINE
  5
188
330
1F
100
AcDbEntity
  8
0
  6
Continuous
 62
     7
370
    25
100
AcDbSpline
210
0.0
220
0.0
230
1.0
 70
     8
 71
     3
 72
    11
 73
     7
 74
     0
 42
0.00000001
 43
0.00000001
 40
0.0
 40
0.0
 40
0.0
 40
0.0
 40
0.2456676955156961
 40
0.4999999999999868
 40
0.754332304484278
 40
1.0
 40
1.0
 40
1.0
 40
1.0
 10
307.0830639802492
 20
233.5880820950127
 30
0.0
 10
306.9280870076184
 20
233.6628095678851
 30
0.0
 10
306.6126670817192
 20
233.8149001240236
 30
0.0
 10
306.083145772179
 20
233.8768820155707
 30
0.0
 10
305.5536244626389
 20
233.8149001240236
 30
0.0
 10
305.2382045367397
 20
233.6628095678851
 30
0.0
 10
305.0832275641089
 20
233.5880820950127
 30
0.0
  0
SPLINE
  5
189
330
1F
100
AcDbEntity
  8
0
  6
Continuous
 62
     7
370
    25
100
AcDbSpline
210
0.0
220
0.0
230
1.0
 70
     8
 71
     3
 72
    23
 73
    19
 74
     0
 42
0.00000001
 43
0.00000001
 40
0.0
 40
0.0
 40
0.0
 40
0.0
 40
0.0342948755680967
 40
0.0656087191435276
 40
0.0939414163326083
 40
0.1192928774556844
 40
0.1416630433788807
 40
0.1610518958288846
 40
0.204951027679532
 40
0.2459162177403319
 40
0.384589552320542
 40
0.5084365219442372
 40
0.6405443181284481
 40
0.7656393368217987
 40
0.8249484017565757
 40
0.8837419651567044
 40
0.9420740573249942
 40
1.0
 40
1.0
 40
1.0
 40
1.0
 10
306.0831457721793
 20
121.7112299782239
 30
0.0
 10
306.1078805474979
 20
121.6820425391325
 30
0.0
 10
306.1552000639
 20
121.6262047364828
 30
0.0
 10
306.2228325218272
 20
121.5389198565061
 30
0.0
 10
306.2837302293631
 20
121.4557799111549
 30
0.0
 10
306.3378824272453
 20
121.3777533355354
 30
0.0
 10
306.3853404466
 20
121.306221354291
 30
0.0
 10
306.4455581808277
 20
121.2120085096082
 30
0.0
 10
306.5181515426391
 20
121.0920683648648
 30
0.0
 10
306.6706528402501
 20
120.8208783714832
 30
0.0
 10
306.8684588685862
 20
120.4134372401894
 30
0.0
 10
307.0937102209395
 20
119.831689736164
 30
0.0
 10
307.2740172264415
 20
119.2401310404755
 30
0.0
 10
307.3838721332025
 20
118.7444734504037
 30
0.0
 10
307.4435200702536
 20
118.374156508723
 30
0.0
 10
307.4744953776619
 20
118.1128694526642
 30
0.0
 10
307.4938035866081
 20
117.8622830951429
 30
0.0
 10
307.4961768489156
 20
117.7064404312977
 30
0.0
 10
307.4973593345524
 20
117.6287913189212
 30
0.0
  0
ARC
  5
18A
330
1F
100
AcDbEntity
  8
0
  6
Continuous
 62
     7
370
    25
100
AcDbCircle
 10
306.0831457722
 20
120.3582134888
 30
0.0
 40
3.074043815823467
100
AcDbArc
 50
242.6096722366
 51
297.3903277634
  0
SPLINE
  5
18B
330
1F
100
AcDbEntity
  8
0
  6
Continuous
 62
     7
370
    25
100
AcDbSpline
210
0.0
220
0.0
230
1.0
 70
     8
 71
     3
 72
    22
 73
    18
 74
     0
 42
0.00000001
 43
0.00000001
 40
0.0
 40
0.0
 40
0.0
 40
0.0
 40
0.0330617599465551
 40
0.0662490712289365
 40
0.0995723988381084
 40
0.133042080176366
 40
0.16666831766585
 40
0.200461171927181
 40
0.2344305555380825
 40
0.3595196279602445
 40
0.4916395659602593
 40
0.6154805449903815
 40
0.7541661895118981
 40
0.7951233290558883
 40
0.8390325559893949
 40
0.9061149278986302
 40
1.0
 40
1.0
 40
1.0
 40
1.0
 10
304.6689322098063
 20
117.6287913189212
 30
0.0
 10
304.6693166610251
 20
117.6727592476784
 30
0.0
 10
304.670087023408
 20
117.7608620724746
 30
0.0
 10
304.6763467148496
 20
117.8987788156652
 30
0.0
 10
304.6863895974328
 20
118.0407513113224
 30
0.0
 10
304.7006014651977
 20
118.1868335015732
 30
0.0
 10
304.7188831388811
 20
118.3365164800681
 30
0.0
 10
304.7412468687227
 20
118.4894439938298
 30
0.0
 10
304.7911770975276
 20
118.7840351999804
 30
0.0
 10
304.8922850938318
 20
119.240161950007
 30
0.0
 10
305.0725679673192
 20
119.8316470786796
 30
0.0
 10
305.2978292945833
 20
120.4134434567738
 30
0.0
 10
305.4956239270967
 20
120.8208079396843
 30
0.0
 10
305.6481364568733
 20
121.0921050063862
 30
0.0
 10
305.7539220297745
 20
121.2666244019161
 30
0.0
 10
305.8990883365944
 20
121.486093841607
 30
0.0
 10
306.0153408869292
 20
121.6282921177649
 30
0.0
 10
306.0831457721793
 20
121.7112299782239
 30
0.0
  0
LINE
  5
18C
330
1F
100
AcDbEntity
  8
0
  6
Continuous
 62
     7
370
    25
100
AcDbLine
 10
306.0831457722
 20
121.7112299782
 30
0.0
 11
402.6032214041
 21
177.4310836101
 31
0.0
  0
SPLINE
  5
18D
330
1F
100
AcDbEntity
  8
0
  6
Continuous
 62
     7
370
    25
100
AcDbSpline
210
0.0
220
0.0
230
1.0
 70
     8
 71
     3
 72
    14
 73
    10
 74
     0
 42
0.00000001
 43
0.00000001
 40
0.0
 40
0.0
 40
0.0
 40
0.0
 40
0.25
 40
0.25
 40
0.5
 40
0.5
 40
0.75
 40
0.75
 40
1.0
 40
1.0
 40
1.0
 40
1.0
 10
402.603221404143
 20
177.4310836101232
 30
0.0
 10
402.9735283791958
 20
177.3241967769245
 30
0.0
 10
403.3435562508686
 20
177.1536333789937
 30
0.0
 10
404.027670958002
 20
176.7107493144206
 30
0.0
 10
404.3414220454324
 20
176.438622051785
 30
0.0
 10
404.8650207628535
 20
175.8340141441758
 30
0.0
 10
405.0746625467955
 20
175.5017711833401
 30
0.0
 10
405.3580321209959
 20
174.8274855195652
 30
0.0
 10
405.4316485288659
 20
174.4857114891468
 30
0.0
 10
405.4316485288891
 20
174.1650530626433
 30
0.0
  0
LINE
  5
18E
330
1F
100
AcDbEntity
  8
0
  6
Continuous
 62
     7
370
    25
100
AcDbLine
 10
405.4316485289
 20
174.1650530626
 30
0.0
 11
307.4973593346
 21
117.6287913189
 31
0.0
  0
LINE
  5
18F
330
1F
100
AcDbEntity
  8
0
  6
Continuous
 62
     7
370
    25
100
AcDbLine
 10
304.6689322098
 20
117.6287913189
 30
0.0
 11
206.7346430155
 21
174.1650530626
 31
0.0
  0
SPLINE
  5
190
330
1F
100
AcDbEntity
  8
0
  6
Continuous
 62
     7
370
    25
100
AcDbSpline
210
0.0
220
0.0
230
1.0
 70
     8
 71
     3
 72
    14
 73
    10
 74
     0
 42
0.00000001
 43
0.00000001
 40
0.0
 40
0.0
 40
0.0
 40
0.0
 40
0.25
 40
0.25
 40
0.5
 40
0.5
 40
0.75
 40
0.75
 40
1.0
 40
1.0
 40
1.0
 40
1.0
 10
206.7346430154693
 20
174.1650530626431
 30
0.0
 10
206.7346430154925
 20
174.4857114891466
 30
0.0
 10
206.8082594233625
 20
174.827485519565
 30
0.0
 10
207.0916289975629
 20
175.50177118334
 30
0.0
 10
207.3012707815049
 20
175.8340141441756
 30
0.0
 10
207.8248694989261
 20
176.4386220517849
 30
0.0
 10
208.1386205863564
 20
176.7107493144204
 30
0.0
 10
208.8227352934898
 20
177.1536333789935
 30
0.0
 10
209.1927631651625
 20
177.3241967769243
 30
0.0
 10
209.5630701402155
 20
177.4310836101231
 30
0.0
  0
LINE
  5
191
330
1F
100
AcDbEntity
  8
0
  6
Continuous
 62
     7
370
    25
100
AcDbLine
 10
209.5630701402
 20
177.4310836101
 30
0.0
 11
306.0831457722
 21
121.7112299782
 31
0.0
  0
ARC
  5
192
330
1F
100
AcDbEntity
  8
0
  6
Continuous
 62
     7
370
    25
100
AcDbCircle
 10
306.0831457722
 20
116.6837798353
 30
0.0
 40
3.074043815823441
100
AcDbArc
 50
242.6096722366
 51
297.3903277634
  0
LINE
  5
193
330
1F
100
AcDbEntity
  8
0
  6
Continuous
 62
     7
370
    25
100
AcDbLine
 10
304.6689322098
 20
113.9543576654
 30
0.0
 11
304.6689322098
 21
117.6287913189
 31
0.0
  0
LINE
  5
194
330
1F
100
AcDbEntity
  8
0
  6
Continuous
 62
     7
370
    25
100
AcDbLine
 10
307.4973593346
 20
117.6287913189
 30
0.0
 11
307.4973593346
 21
113.9543576654
 31
0.0
  0
LINE
  5
195
330
1F
100
AcDbEntity
  8
0
  6
Continuous
 62
     7
370
    25
100
AcDbLine
 10
405.4316485289
 20
170.4906194092
 30
0.0
 11
307.4973593346
 21
113.9543576654
 31
0.0
  0
LINE
  5
196
330
1F
100
AcDbEntity
  8
0
  6
Continuous
 62
     7
370
    25
100
AcDbLine
 10
405.4316485289
 20
170.4906194092
 30
0.0
 11
405.4316485289
 21
174.1650530626
 31
0.0
  0
LINE
  5
197
330
1F
100
AcDbEntity
  8
0
  6
Continuous
 62
     7
370
    25
100
AcDbLine
 10
304.6689322098
 20
113.9543576654
 30
0.0
 11
206.7346430155
 21
170.4906194092
 31
0.0
  0
LINE
  5
198
330
1F
100
AcDbEntity
  8
0
  6
Continuous
 62
     7
370
    25
100
AcDbLine
 10
206.7346430155
 20
174.1650530626
 30
0.0
 11
206.7346430155
 21
170.4906194092
 31
0.0
  0
LINE
  5
199
330
1F
100
AcDbEntity
  8
0
  6
Continuous
 62
     7
370
    25
100
AcDbLine
 10
306.0831457722
 20
233.150937242
 30
0.0
 11
209.5630701402
 21
177.4310836101
 31
0.0
  0
LINE
  5
19A
330
1F
100
AcDbEntity
  8
0
  6
Continuous
 62
     7
370
    25
100
AcDbLine
 10
402.6032214041
 20
177.4310836101
 30
0.0
 11
306.0831457722
 21
233.150937242
 31
0.0
  0
LWPOLYLINE
  5
19B
330
1F
100
AcDbEntity
  8
0
  6
Continuous
 62
     7
370
    25
100
AcDbPolyline
 90
       93
 70
   128
 43
0.0
 10
343.0294750892
 20
156.1024216888
 10
341.7465475054
 20
155.3866716248
 10
340.4220379904
 20
154.6966243592
 10
339.0574908632
 20
154.0330844561
 10
337.6544971247
 20
153.3968255733
 10
336.2146926027
 20
152.7885895603
 10
334.739756045
 20
152.2090855931
 10
333.2314071615
 20
151.6589893473
 10
331.6914046197
 20
151.1389422106
 10
330.1215439936
 20
150.6495505346
 10
328.5236556705
 20
150.1913849282
 10
326.8996027166
 20
149.7649795919
 10
325.2512787052
 20
149.3708316954
 10
323.5806055081
 20
149.0094007974
 10
321.8895310557
 20
148.6811083102
 10
320.1800270651
 20
148.3863370082
 10
318.4540867416
 20
148.1254305814
 10
316.7137224542
 20
147.8986932352
 10
314.9609633899
 20
147.7063893351
 10
313.1978531875
 20
147.5487430988
 10
311.4264475544
 20
147.4259383349
 10
309.6488118705
 20
147.3381182282
 10
307.8670187794
 20
147.285385173
 10
306.0831457722
 20
147.2678006537
 10
304.299272765
 20
147.285385173
 10
302.5174796739
 20
147.3381182282
 10
300.73984399
 20
147.4259383349
 10
298.9684383569
 20
147.5487430988
 10
297.2053281544
 20
147.7063893351
 10
295.4525690902
 20
147.8986932352
 10
293.7122048028
 20
148.1254305814
 10
291.9862644792
 20
148.3863370082
 10
290.2767604886
 20
148.6811083102
 10
288.5856860362
 20
149.0094007974
 10
286.9150128392
 20
149.3708316954
 10
285.2666888277
 20
149.7649795919
 10
283.6426358739
 20
150.1913849282
 10
282.0447475507
 20
150.6495505346
 10
280.4748869246
 20
151.1389422106
 10
278.9348843828
 20
151.6589893473
 10
277.4265354994
 20
152.2090855931
 10
275.9515989417
 20
152.7885895603
 10
274.5117944197
 20
153.3968255733
 10
273.1088006811
 20
154.0330844561
 10
271.7442535539
 20
154.6966243592
 10
270.419744039
 20
155.3866716248
 10
269.1368164552
 20
156.1024216888
 10
267.8969666386
 20
156.8430400184
 10
266.7016401988
 20
157.6076630859
 10
265.5522308329
 20
158.395399375
 10
264.4500787007
 20
159.2053304204
 10
263.3964688624
 20
160.0365118787
 10
262.3926297799
 20
160.8879746296
 10
261.4397318846
 20
161.7587259056
 10
260.538886213
 20
162.6477504495
 10
259.6911431107
 20
163.5540116987
 10
258.8974910082
 20
164.4764529929
 10
258.1588552685
 20
165.4139988069
 10
257.4760971078
 20
166.3655560043
 10
256.8500125915
 20
167.3300151119
 10
256.2813317061
 20
168.3062516134
 10
255.7707175083
 20
169.293127261
 10
255.3187653511
 20
170.2894914016
 10
254.9260021908
 20
171.2941823192
 10
254.5928859715
 20
172.3060285893
 10
254.3198050918
 20
173.3238504442
 10
254.1070779518
 20
174.3464611493
 10
253.954952582
 20
175.3726683862
 10
253.8636063535
 20
176.4012756431
 10
253.8331457722
 20
177.4310836101
 10
253.8636063535
 20
178.4608915771
 10
253.954952582
 20
179.4894988341
 10
254.1070779518
 20
180.515706071
 10
254.3198050918
 20
181.538316776
 10
254.5928859715
 20
182.556138631
 10
254.9260021908
 20
183.567984901
 10
255.3187653511
 20
184.5726758187
 10
255.7707175083
 20
185.5690399593
 10
256.2813317061
 20
186.5559156068
 10
256.8500125915
 20
187.5321521084
 10
257.4760971078
 20
188.496611216
 10
258.1588552685
 20
189.4481684133
 10
258.8974910082
 20
190.3857142274
 10
259.6911431107
 20
191.3081555216
 10
260.538886213
 20
192.2144167707
 10
261.4397318846
 20
193.1034413147
 10
262.3926297799
 20
193.9741925906
 10
263.3964688624
 20
194.8256553415
 10
264.4500787007
 20
195.6568367998
 10
265.5522308329
 20
196.4667678452
 10
266.7016401988
 20
197.2545041343
 10
267.8969666386
 20
198.0191272019
 10
269.1368164552
 20
198.7597455315
  0
LWPOLYLINE
  5
19C
330
1F
100
AcDbEntity
  8
0
  6
Continuous
 62
     7
370
    25
100
AcDbPolyline
 90
       93
 70
   128
 43
0.0
 10
269.1368164552
 20
198.7597455315
 10
270.419744039
 20
199.4754955954
 10
271.7442535539
 20
200.165542861
 10
273.1088006811
 20
200.8290827642
 10
274.5117944197
 20
201.4653416469
 10
275.9515989417
 20
202.0735776599
 10
277.4265354994
 20
202.6530816272
 10
278.9348843828
 20
203.203177873
 10
280.4748869246
 20
203.7232250097
 10
282.0447475507
 20
204.2126166857
 10
283.6426358739
 20
204.6707822921
 10
285.2666888277
 20
205.0971876283
 10
286.9150128392
 20
205.4913355248
 10
288.5856860362
 20
205.8527664228
 10
290.2767604886
 20
206.18105891
 10
291.9862644792
 20
206.4758302121
 10
293.7122048028
 20
206.7367366388
 10
295.4525690902
 20
206.9634739851
 10
297.2053281544
 20
207.1557778852
 10
298.9684383569
 20
207.3134241214
 10
300.73984399
 20
207.4362288853
 10
302.5174796739
 20
207.524048992
 10
304.299272765
 20
207.5767820473
 10
306.0831457722
 20
207.5943665666
 10
307.8670187794
 20
207.5767820473
 10
309.6488118705
 20
207.524048992
 10
311.4264475544
 20
207.4362288853
 10
313.1978531875
 20
207.3134241214
 10
314.9609633899
 20
207.1557778852
 10
316.7137224542
 20
206.9634739851
 10
318.4540867416
 20
206.7367366388
 10
320.1800270651
 20
206.4758302121
 10
321.8895310557
 20
206.18105891
 10
323.5806055081
 20
205.8527664228
 10
325.2512787052
 20
205.4913355248
 10
326.8996027166
 20
205.0971876283
 10
328.5236556705
 20
204.6707822921
 10
330.1215439936
 20
204.2126166857
 10
331.6914046197
 20
203.7232250097
 10
333.2314071615
 20
203.203177873
 10
334.739756045
 20
202.6530816272
 10
336.2146926027
 20
202.0735776599
 10
337.6544971247
 20
201.4653416469
 10
339.0574908632
 20
200.8290827642
 10
340.4220379904
 20
200.165542861
 10
341.7465475054
 20
199.4754955954
 10
343.0294750892
 20
198.7597455315
 10
344.2693249057
 20
198.0191272019
 10
345.4646513455
 20
197.2545041343
 10
346.6140607115
 20
196.4667678452
 10
347.7162128437
 20
195.6568367998
 10
348.769822682
 20
194.8256553415
 10
349.7736617645
 20
193.9741925906
 10
350.7265596597
 20
193.1034413147
 10
351.6274053314
 20
192.2144167707
 10
352.4751484337
 20
191.3081555216
 10
353.2688005361
 20
190.3857142274
 10
354.0074362758
 20
189.4481684133
 10
354.6901944366
 20
188.496611216
 10
355.3162789529
 20
187.5321521084
 10
355.8849598382
 20
186.5559156068
 10
356.3955740361
 20
185.5690399593
 10
356.8475261932
 20
184.5726758187
 10
357.2402893536
 20
183.567984901
 10
357.5734055729
 20
182.556138631
 10
357.8464864526
 20
181.538316776
 10
358.0592135925
 20
180.515706071
 10
358.2113389624
 20
179.4894988341
 10
358.3026851908
 20
178.4608915771
 10
358.3331457722
 20
177.4310836101
 10
358.3026851908
 20
176.4012756431
 10
358.2113389624
 20
175.3726683862
 10
358.0592135925
 20
174.3464611493
 10
357.8464864526
 20
173.3238504442
 10
357.5734055729
 20
172.3060285893
 10
357.2402893536
 20
171.2941823192
 10
356.8475261932
 20
170.2894914016
 10
356.3955740361
 20
169.293127261
 10
355.8849598382
 20
168.3062516134
 10
355.3162789529
 20
167.3300151119
 10
354.6901944366
 20
166.3655560043
 10
354.0074362758
 20
165.4139988069
 10
353.2688005361
 20
164.4764529929
 10
352.4751484337
 20
163.5540116987
 10
351.6274053314
 20
162.6477504495
 10
350.7265596597
 20
161.7587259056
 10
349.7736617645
 20
160.8879746296
 10
348.769822682
 20
160.0365118787
 10
347.7162128437
 20
159.2053304204
 10
346.6140607115
 20
158.395399375
 10
345.4646513455
 20
157.6076630859
 10
344.2693249057
 20
156.8430400184
 10
343.0294750892
 20
156.1024216888
  0
LWPOLYLINE
  5
19D
330
1F
100
AcDbEntity
  8
0
  6
Continuous
 62
     7
370
    25
100
AcDbPolyline
 90
       26
 70
   128
 43
0.0
 10
348.1559992528
 20
204.9848573841
 10
347.823806328
 20
204.7673360034
 10
347.5414582695
 20
204.5274945775
 10
347.3134078748
 20
204.2691155491
 10
347.1432516348
 20
203.9962737097
 10
347.0336730151
 20
203.7132719382
 10
346.9864001361
 20
203.4245733415
 10
347.0021785191
 20
203.134730869
 10
347.0807593298
 20
202.8483155096
 10
347.2209033017
 20
202.5698442046
 10
347.4204002808
 20
202.3037086129
 10
347.6761040804
 20
202.0541058517
 10
347.983982099
 20
201.8249723057
 10
348.3391789162
 20
201.6199215477
 10
348.7360928661
 20
201.4421873508
 10
349.1684643786
 20
201.2945726893
 10
349.6294746965
 20
201.1794055347
 10
350.1118534119
 20
201.0985021418
 10
350.6079931243
 20
201.0531384054
 10
351.1100694138
 20
201.0440297387
 10
351.6101642377
 20
201.0713197909
 10
352.1003908017
 20
201.1345781816
 10
352.5730179401
 20
201.232807288
 10
353.0205920405
 20
201.3644579786
 10
353.4360545921
 20
201.5274540433
 10
353.8128535023
 20
201.7192249368
  0
LWPOLYLINE
  5
19E
330
1F
100
AcDbEntity
  8
0
  6
Continuous
 62
     7
370
    25
100
AcDbPolyline
 90
       26
 70
   128
 43
0.0
 10
353.8128535023
 20
201.7192249368
 10
354.145046427
 20
201.9367463176
 10
354.4273944855
 20
202.1765877435
 10
354.6554448803
 20
202.4349667719
 10
354.8256011202
 20
202.7078086113
 10
354.9351797399
 20
202.9908103828
 10
354.982452619
 20
203.2795089795
 10
354.9666742359
 20
203.569351452
 10
354.8880934253
 20
203.8557668114
 10
354.7479494533
 20
204.1342381164
 10
354.5484524743
 20
204.4003737081
 10
354.2927486746
 20
204.6499764693
 10
353.984870656
 20
204.8791100153
 10
353.6296738388
 20
205.0841607733
 10
353.2327598889
 20
205.2618949702
 10
352.8003883765
 20
205.4095096317
 10
352.3393780585
 20
205.5246767863
 10
351.8569993431
 20
205.6055801792
 10
351.3608596308
 20
205.6509439156
 10
350.8587833412
 20
205.6600525823
 10
350.3586885174
 20
205.6327625301
 10
349.8684619534
 20
205.5695041394
 10
349.395834815
 20
205.471275033
 10
348.9482607145
 20
205.3396243424
 10
348.5327981629
 20
205.1766282776
 10
348.1559992528
 20
204.9848573841
  0
LINE
  5
19F
330
1F
100
AcDbEntity
  8
0
  6
Continuous
 62
     7
370
    25
100
AcDbLine
 10
373.2694978572
 20
185.5131115793
 30
0.0
 11
363.3194978572
 21
185.5131115793
 31
0.0
  0
ARC
  5
1A0
330
1F
100
AcDbEntity
  8
0
  6
Continuous
 62
     7
370
    25
100
AcDbCircle
 10
373.3847392098
 20
191.2835724611
 30
0.0
 40
5.771611504408267
100
AcDbArc
 50
268.8559032542
 51
298.0402391154
  0
LWPOLYLINE
  5
1A1
330
1F
100
AcDbEntity
  8
0
  6
Continuous
 62
     7
370
    25
100
AcDbPolyline
 90
       20
 70
   128
 43
0.0
 10
373.2694978572
 20
190.131413276
 10
373.7642683823
 20
190.1136803362
 10
374.2514398058
 20
190.0607538741
 10
374.7235297395
 20
189.9734467789
 10
375.1732874293
 20
189.8530999864
 10
375.5938051188
 20
189.7015618836
 10
375.9786241437
 20
189.5211599201
 10
376.32183413
 20
189.3146648611
 10
376.6181637702
 20
189.085248231
 10
376.8630617848
 20
188.8364336034
 10
377.052766824
 20
188.5720424824
 10
377.1843652385
 20
188.2961356092
 10
377.2558358292
 20
188.0129505933
 10
377.2660808907
 20
187.7268368283
 10
377.2149430708
 20
187.4421886899
 10
377.103207787
 20
187.1633780434
 10
376.9325911638
 20
186.8946870971
 10
376.7057136747
 20
186.6402426323
 10
376.4260598948
 20
186.4039526211
 10
376.0979249819
 20
186.189446204
  0
LINE
  5
1A2
330
1F
100
AcDbEntity
  8
0
  6
Continuous
 62
     7
370
    25
100
AcDbLine
 10
363.3194978572
 20
190.131413276
 30
0.0
 11
373.2694978572
 21
190.131413276
 31
0.0
  0
LWPOLYLINE
  5
1A3
330
1F
100
AcDbEntity
  8
0
  6
Continuous
 62
     7
370
    25
100
AcDbPolyline
 90
       26
 70
   128
 43
0.0
 10
363.3194978572
 20
185.5131115793
 10
362.8181649229
 20
185.5313199235
 10
362.3247383085
 20
185.5856577995
 10
361.8469996465
 20
185.6752682665
 10
361.3924831608
 20
185.798738114
 10
360.968356848
 20
185.9541201488
 10
360.5813094335
 20
186.1389639032
 10
360.2374448861
 20
186.350354281
 10
359.9421861552
 20
186.5849575295
 10
359.7001896473
 20
186.8390738153
 10
359.515271792
 20
187.1086955729
 10
359.3903488543
 20
187.3895707061
 10
359.3273909435
 20
187.6772696462
 10
359.3273909435
 20
187.9672552091
 10
359.3903488543
 20
188.2549541492
 10
359.515271792
 20
188.5358292824
 10
359.7001896473
 20
188.80545104
 10
359.9421861552
 20
189.0595673259
 10
360.2374448861
 20
189.2941705743
 10
360.5813094335
 20
189.5055609521
 10
360.968356848
 20
189.6904047065
 10
361.3924831608
 20
189.8457867413
 10
361.8469996465
 20
189.9692565888
 10
362.3247383085
 20
190.0588670559
 10
362.8181649229
 20
190.1132049319
 10
363.3194978572
 20
190.131413276
  0
LINE
  5
1A4
330
1F
100
AcDbEntity
  8
0
  6
Continuous
 62
     7
370
    25
100
AcDbLine
 10
238.8967936872
 20
190.131413276
 30
0.0
 11
248.8467936872
 21
190.131413276
 31
0.0
  0
LWPOLYLINE
  5
1A5
330
1F
100
AcDbEntity
  8
0
  6
Continuous
 62
     7
370
    25
100
AcDbPolyline
 90
       26
 70
   128
 43
0.0
 10
238.8967936872
 20
185.5131115793
 10
238.3954607529
 20
185.5313199235
 10
237.9020341385
 20
185.5856577995
 10
237.4242954764
 20
185.6752682665
 10
236.9697789908
 20
185.798738114
 10
236.545652678
 20
185.9541201488
 10
236.1586052634
 20
186.1389639032
 10
235.8147407161
 20
186.350354281
 10
235.5194819852
 20
186.5849575295
 10
235.2774854773
 20
186.8390738153
 10
235.092567622
 20
187.1086955729
 10
234.9676446842
 20
187.3895707061
 10
234.9046867734
 20
187.6772696462
 10
234.9046867734
 20
187.9672552091
 10
234.9676446842
 20
188.2549541492
 10
235.092567622
 20
188.5358292824
 10
235.2774854773
 20
188.80545104
 10
235.5194819852
 20
189.0595673259
 10
235.8147407161
 20
189.2941705743
 10
236.1586052634
 20
189.5055609521
 10
236.545652678
 20
189.6904047065
 10
236.9697789908
 20
189.8457867413
 10
237.4242954764
 20
189.9692565888
 10
237.9020341385
 20
190.0588670559
 10
238.3954607529
 20
190.1132049319
 10
238.8967936872
 20
190.131413276
  0
LINE
  5
1A6
330
1F
100
AcDbEntity
  8
0
  6
Continuous
 62
     7
370
    25
100
AcDbLine
 10
248.8467936872
 20
185.5131115793
 30
0.0
 11
238.8967936872
 21
185.5131115793
 31
0.0
  0
ARC
  5
1A7
330
1F
100
AcDbEntity
  8
0
  6
Continuous
 62
     7
370
    25
100
AcDbCircle
 10
248.9620350397
 20
191.2835724611
 30
0.0
 40
5.771611504407724
100
AcDbArc
 50
268.8559032542
 51
298.0402391154
  0
LWPOLYLINE
  5
1A8
330
1F
100
AcDbEntity
  8
0
  6
Continuous
 62
     7
370
    25
100
AcDbPolyline
 90
       20
 70
   128
 43
0.0
 10
248.8467936872
 20
190.131413276
 10
249.3415642122
 20
190.1136803362
 10
249.8287356357
 20
190.0607538741
 10
250.3008255694
 20
189.9734467789
 10
250.7505832593
 20
189.8530999864
 10
251.1711009488
 20
189.7015618836
 10
251.5559199737
 20
189.5211599201
 10
251.89912996
 20
189.3146648611
 10
252.1954596002
 20
189.085248231
 10
252.4403576147
 20
188.8364336034
 10
252.630062654
 20
188.5720424824
 10
252.7616610685
 20
188.2961356092
 10
252.8331316592
 20
188.0129505933
 10
252.8433767207
 20
187.7268368283
 10
252.7922389008
 20
187.4421886899
 10
252.680503617
 20
187.1633780434
 10
252.5098869938
 20
186.8946870971
 10
252.2830095046
 20
186.6402426323
 10
252.0033557247
 20
186.4039526211
 10
251.6752208119
 20
186.189446204
  0
LINE
  5
1A9
330
1F
100
AcDbEntity
  8
0
  6
Continuous
 62
     7
370
    25
100
AcDbLine
 10
222.2909922016
 20
179.7402344585
 30
0.0
 11
246.0831457722
 21
179.7402344585
 31
0.0
  0
LWPOLYLINE
  5
1AA
330
1F
100
AcDbEntity
  8
0
  6
Continuous
 62
     7
370
    25
100
AcDbPolyline
 90
       26
 70
   128
 43
0.0
 10
222.2909922016
 20
175.1219327618
 10
221.7896592673
 20
175.1401411059
 10
221.2962326529
 20
175.1944789819
 10
220.8184939908
 20
175.284089449
 10
220.3639775052
 20
175.4075592965
 10
219.9398511924
 20
175.5629413312
 10
219.5528037779
 20
175.7477850857
 10
219.2089392305
 20
175.9591754634
 10
218.9136804996
 20
176.1937787119
 10
218.6716839917
 20
176.4478949978
 10
218.4867661364
 20
176.7175167554
 10
218.3618431987
 20
176.9983918886
 10
218.2988852879
 20
177.2860908287
 10
218.2988852879
 20
177.5760763916
 10
218.3618431987
 20
177.8637753317
 10
218.4867661364
 20
178.1446504648
 10
218.6716839917
 20
178.4142722224
 10
218.9136804996
 20
178.6683885083
 10
219.2089392305
 20
178.9029917568
 10
219.5528037779
 20
179.1143821345
 10
219.9398511924
 20
179.299225889
 10
220.3639775052
 20
179.4546079238
 10
220.8184939908
 20
179.5780777713
 10
221.2962326529
 20
179.6676882383
 10
221.7896592673
 20
179.7220261143
 10
222.2909922016
 20
179.7402344585
  0
LINE
  5
1AB
330
1F
100
AcDbEntity
  8
0
  6
Continuous
 62
     7
370
    25
100
AcDbLine
 10
246.0831457722
 20
175.1219327618
 30
0.0
 11
222.2909922016
 21
175.1219327618
 31
0.0
  0
ARC
  5
1AC
330
1F
100
AcDbEntity
  8
0
  6
Continuous
 62
     7
370
    25
100
AcDbCircle
 10
246.1983871247
 20
180.8923936436
 30
0.0
 40
5.771611504406813
100
AcDbArc
 50
268.8559032542
 51
298.0402391154
  0
LWPOLYLINE
  5
1AD
330
1F
100
AcDbEntity
  8
0
  6
Continuous
 62
     7
370
    25
100
AcDbPolyline
 90
       20
 70
   128
 43
0.0
 10
246.0831457722
 20
179.7402344585
 10
246.5779162973
 20
179.7225015187
 10
247.0650877207
 20
179.6695750566
 10
247.5371776544
 20
179.5822679614
 10
247.9869353443
 20
179.4619211688
 10
248.4074530338
 20
179.310383066
 10
248.7922720587
 20
179.1299811026
 10
249.135482045
 20
178.9234860435
 10
249.4318116852
 20
178.6940694135
 10
249.6767096997
 20
178.4452547858
 10
249.866414739
 20
178.1808636649
 10
249.9980131535
 20
177.9049567916
 10
250.0694837442
 20
177.6217717758
 10
250.0797288057
 20
177.3356580108
 10
250.0285909858
 20
177.0510098723
 10
249.916855702
 20
176.7721992258
 10
249.7462390788
 20
176.5035082795
 10
249.5193615897
 20
176.2490638148
 10
249.2397078098
 20
176.0127738036
 10
248.9115728969
 20
175.7982673865
  0
LWPOLYLINE
  5
1AE
330
1F
100
AcDbEntity
  8
0
  6
Continuous
 62
     7
370
    25
100
AcDbPolyline
 90
       26
 70
   128
 43
0.0
 10
292.0831457722
 20
216.2169390887
 10
292.0516045774
 20
216.5063524313
 10
291.9574784167
 20
216.7912015526
 10
291.8022517157
 20
217.0669942118
 10
291.5883724924
 20
217.3293809939
 10
291.3192137497
 20
217.5742239026
 10
290.9990202819
 20
217.797661619
 10
290.6328417312
 20
217.9961703969
 10
290.2264529521
 20
218.1666196341
 10
289.7862629384
 20
218.3063212445
 10
289.3192137497
 20
218.4130720501
 10
288.8326710305
 20
218.485188527
 10
288.3343078503
 20
218.5215333553
 10
287.8319836941
 20
218.5215333553
 10
287.3336205138
 20
218.485188527
 10
286.8470777947
 20
218.4130720501
 10
286.3800286059
 20
218.3063212445
 10
285.9398385923
 20
218.1666196341
 10
285.5334498132
 20
217.9961703969
 10
285.1672712625
 20
217.797661619
 10
284.8470777947
 20
217.5742239026
 10
284.577919052
 20
217.3293809939
 10
284.3640398286
 20
217.0669942118
 10
284.2088131277
 20
216.7912015526
 10
284.1146869669
 20
216.5063524313
 10
284.0831457722
 20
216.2169390887
  0
LINE
  5
1AF
330
1F
100
AcDbEntity
  8
0
  6
Continuous
 62
     7
370
    25
100
AcDbLine
 10
284.0831457722
 20
216.2169390887
 30
0.0
 11
284.0831457722
 21
210.4729263534
 31
0.0
  0
LWPOLYLINE
  5
1B0
330
1F
100
AcDbEntity
  8
0
  6
Continuous
 62
     7
370
    25
100
AcDbPolyline
 90
       20
 70
   128
 43
0.0
 10
284.0831457722
 20
210.4729263534
 10
284.1138634532
 20
210.187301409
 10
284.2055447084
 20
209.9060633325
 10
284.35678142
 20
209.6335316148
 10
284.5652507674
 20
209.373892027
 10
284.8277509031
 20
209.1311323322
 10
285.1402501295
 20
208.9089810377
 10
285.4979488207
 20
208.71085013
 10
285.8953531397
 20
208.5397826699
 10
286.3263594168
 20
208.3984060554
 10
286.7843478954
 20
208.2888916674
 10
287.2622844034
 20
208.2129215197
 10
287.7528283903
 20
208.1716624259
 10
288.2484456692
 20
208.1657480778
 10
288.7415241333
 20
208.1952693129
 10
289.2244906692
 20
208.2597727192
 10
289.6899274708
 20
208.3582675993
 10
290.1306859685
 20
208.4892411859
 10
290.5399966229
 20
208.6506818767
 10
290.9115728969
 20
208.8401101298
  0
ARC
  5
1B1
330
1F
100
AcDbEntity
  8
0
  6
Continuous
 62
     7
370
    25
100
AcDbCircle
 10
290.0813175222
 20
210.672551861
 30
0.0
 40
2.011757113975031
100
AcDbArc
 50
294.3746582936
 51
354.3052007488
  0
LINE
  5
1B2
330
1F
100
AcDbEntity
  8
0
  6
Continuous
 62
     7
370
    25
100
AcDbLine
 10
292.0831457722
 20
210.4729263534
 30
0.0
 11
292.0831457722
 21
216.2169390887
 31
0.0
  0
LWPOLYLINE
  5
1B3
330
1F
100
AcDbEntity
  8
0
  6
Continuous
 62
     7
370
    25
100
AcDbPolyline
 90
       26
 70
   128
 43
0.0
 10
328.0831457722
 20
216.2169390887
 10
328.0516045774
 20
216.5063524313
 10
327.9574784167
 20
216.7912015526
 10
327.8022517157
 20
217.0669942118
 10
327.5883724924
 20
217.3293809939
 10
327.3192137497
 20
217.5742239026
 10
326.9990202819
 20
217.797661619
 10
326.6328417312
 20
217.9961703969
 10
326.2264529521
 20
218.1666196341
 10
325.7862629384
 20
218.3063212445
 10
325.3192137497
 20
218.4130720501
 10
324.8326710305
 20
218.485188527
 10
324.3343078503
 20
218.5215333553
 10
323.8319836941
 20
218.5215333553
 10
323.3336205138
 20
218.485188527
 10
322.8470777947
 20
218.4130720501
 10
322.3800286059
 20
218.3063212445
 10
321.9398385923
 20
218.1666196341
 10
321.5334498132
 20
217.9961703969
 10
321.1672712625
 20
217.797661619
 10
320.8470777947
 20
217.5742239026
 10
320.577919052
 20
217.3293809939
 10
320.3640398286
 20
217.0669942118
 10
320.2088131277
 20
216.7912015526
 10
320.1146869669
 20
216.5063524313
 10
320.0831457722
 20
216.2169390887
  0
LINE
  5
1B4
330
1F
100
AcDbEntity
  8
0
  6
Continuous
 62
     7
370
    25
100
AcDbLine
 10
320.0831457722
 20
216.2169390887
 30
0.0
 11
320.0831457722
 21
210.4729263534
 31
0.0
  0
LWPOLYLINE
  5
1B5
330
1F
100
AcDbEntity
  8
0
  6
Continuous
 62
     7
370
    25
100
AcDbPolyline
 90
       20
 70
   128
 43
0.0
 10
320.0831457722
 20
210.4729263534
 10
320.1138634532
 20
210.187301409
 10
320.2055447084
 20
209.9060633325
 10
320.35678142
 20
209.6335316148
 10
320.5652507674
 20
209.373892027
 10
320.8277509031
 20
209.1311323322
 10
321.1402501295
 20
208.9089810377
 10
321.4979488207
 20
208.71085013
 10
321.8953531397
 20
208.5397826699
 10
322.3263594168
 20
208.3984060554
 10
322.7843478954
 20
208.2888916674
 10
323.2622844034
 20
208.2129215197
 10
323.7528283903
 20
208.1716624259
 10
324.2484456692
 20
208.1657480778
 10
324.7415241333
 20
208.1952693129
 10
325.2244906692
 20
208.2597727192
 10
325.6899274708
 20
208.3582675993
 10
326.1306859685
 20
208.4892411859
 10
326.5399966229
 20
208.6506818767
 10
326.9115728969
 20
208.8401101298
  0
ARC
  5
1B6
330
1F
100
AcDbEntity
  8
0
  6
Continuous
 62
     7
370
    25
100
AcDbCircle
 10
326.0813175222
 20
210.672551861
 30
0.0
 40
2.011757113975078
100
AcDbArc
 50
294.3746582936
 51
354.3052007488
  0
LINE
  5
1B7
330
1F
100
AcDbEntity
  8
0
  6
Continuous
 62
     7
370
    25
100
AcDbLine
 10
328.0831457722
 20
210.4729263534
 30
0.0
 11
328.0831457722
 21
216.2169390887
 31
0.0
  0
LWPOLYLINE
  5
1B8
330
1F
100
AcDbEntity
  8
0
  6
Continuous
 62
     7
370
    25
100
AcDbPolyline
 90
       26
 70
   128
 43
0.0
 10
310.0831457722
 20
225.8032642356
 10
310.0516045774
 20
226.0926775782
 10
309.9574784167
 20
226.3775266995
 10
309.8022517157
 20
226.6533193587
 10
309.5883724924
 20
226.9157061409
 10
309.3192137497
 20
227.1605490496
 10
308.9990202819
 20
227.383986766
 10
308.6328417312
 20
227.5824955438
 10
308.2264529521
 20
227.7529447811
 10
307.7862629384
 20
227.8926463914
 10
307.3192137497
 20
227.999397197
 10
306.8326710305
 20
228.071513674
 10
306.3343078503
 20
228.1078585022
 10
305.8319836941
 20
228.1078585022
 10
305.3336205138
 20
228.071513674
 10
304.8470777947
 20
227.999397197
 10
304.3800286059
 20
227.8926463914
 10
303.9398385923
 20
227.7529447811
 10
303.5334498132
 20
227.5824955438
 10
303.1672712625
 20
227.383986766
 10
302.8470777947
 20
227.1605490496
 10
302.577919052
 20
226.9157061409
 10
302.3640398286
 20
226.6533193587
 10
302.2088131277
 20
226.3775266995
 10
302.1146869669
 20
226.0926775782
 10
302.0831457722
 20
225.8032642356
  0
LINE
  5
1B9
330
1F
100
AcDbEntity
  8
0
  6
Continuous
 62
     7
370
    25
100
AcDbLine
 10
302.0831457722
 20
225.8032642356
 30
0.0
 11
302.0831457722
 21
212.0683463353
 31
0.0
  0
LWPOLYLINE
  5
1BA
330
1F
100
AcDbEntity
  8
0
  6
Continuous
 62
     7
370
    25
100
AcDbPolyline
 90
       20
 70
   128
 43
0.0
 10
302.0831457722
 20
212.0683463353
 10
302.1138634532
 20
211.7827213908
 10
302.2055447084
 20
211.5014833144
 10
302.35678142
 20
211.2289515966
 10
302.5652507674
 20
210.9693120089
 10
302.8277509031
 20
210.726552314
 10
303.1402501295
 20
210.5044010196
 10
303.4979488207
 20
210.3062701118
 10
303.8953531397
 20
210.1352026518
 10
304.3263594168
 20
209.9938260373
 10
304.7843478954
 20
209.8843116492
 10
305.2622844034
 20
209.8083415016
 10
305.7528283903
 20
209.7670824078
 10
306.2484456692
 20
209.7611680597
 10
306.7415241333
 20
209.7906892947
 10
307.2244906692
 20
209.8551927011
 10
307.6899274708
 20
209.9536875811
 10
308.1306859685
 20
210.0846611678
 10
308.5399966229
 20
210.2461018585
 10
308.9115728969
 20
210.4355301116
  0
ARC
  5
1BB
330
1F
100
AcDbEntity
  8
0
  6
Continuous
 62
     7
370
    25
100
AcDbCircle
 10
308.0813175222
 20
212.2679718429
 30
0.0
 40
2.0117571139752
100
AcDbArc
 50
294.3746582936
 51
354.3052007488
  0
LINE
  5
1BC
330
1F
100
AcDbEntity
  8
0
  6
Continuous
 62
     7
370
    25
100
AcDbLine
 10
310.0831457722
 20
212.0683463353
 30
0.0
 11
310.0831457722
 21
225.8032642356
 31
0.0
  0
LINE
  5
1BD
330
1F
100
AcDbEntity
  8
0
  6
Continuous
 62
     7
370
    25
100
AcDbLine
 10
238.8967936872
 20
169.3490556409
 30
0.0
 11
248.8467936872
 21
169.3490556409
 31
0.0
  0
LWPOLYLINE
  5
1BE
330
1F
100
AcDbEntity
  8
0
  6
Continuous
 62
     7
370
    25
100
AcDbPolyline
 90
       26
 70
   128
 43
0.0
 10
238.8967936872
 20
164.7307539442
 10
238.3954607529
 20
164.7489622884
 10
237.9020341385
 20
164.8033001644
 10
237.4242954764
 20
164.8929106314
 10
236.9697789908
 20
165.016380479
 10
236.545652678
 20
165.1717625137
 10
236.1586052634
 20
165.3566062682
 10
235.8147407161
 20
165.5679966459
 10
235.5194819852
 20
165.8025998944
 10
235.2774854773
 20
166.0567161803
 10
235.092567622
 20
166.3263379379
 10
234.9676446842
 20
166.607213071
 10
234.9046867734
 20
166.8949120111
 10
234.9046867734
 20
167.184897574
 10
234.9676446842
 20
167.4725965141
 10
235.092567622
 20
167.7534716473
 10
235.2774854773
 20
168.0230934049
 10
235.5194819852
 20
168.2772096908
 10
235.8147407161
 20
168.5118129393
 10
236.1586052634
 20
168.723203317
 10
236.545652678
 20
168.9080470715
 10
236.9697789908
 20
169.0634291062
 10
237.4242954764
 20
169.1868989537
 10
237.9020341385
 20
169.2765094208
 10
238.3954607529
 20
169.3308472968
 10
238.8967936872
 20
169.3490556409
  0
LINE
  5
1BF
330
1F
100
AcDbEntity
  8
0
  6
Continuous
 62
     7
370
    25
100
AcDbLine
 10
248.8467936872
 20
164.7307539442
 30
0.0
 11
238.8967936872
 21
164.7307539442
 31
0.0
  0
ARC
  5
1C0
330
1F
100
AcDbEntity
  8
0
  6
Continuous
 62
     7
370
    25
100
AcDbCircle
 10
248.9620350397
 20
170.501214826
 30
0.0
 40
5.771611504407619
100
AcDbArc
 50
268.8559032542
 51
298.0402391154
  0
LWPOLYLINE
  5
1C1
330
1F
100
AcDbEntity
  8
0
  6
Continuous
 62
     7
370
    25
100
AcDbPolyline
 90
       20
 70
   128
 43
0.0
 10
248.8467936872
 20
169.3490556409
 10
249.3415642122
 20
169.3313227011
 10
249.8287356357
 20
169.2783962391
 10
250.3008255694
 20
169.1910891439
 10
250.7505832593
 20
169.0707423513
 10
251.1711009488
 20
168.9192042485
 10
251.5559199737
 20
168.7388022851
 10
251.89912996
 20
168.532307226
 10
252.1954596002
 20
168.3028905959
 10
252.4403576147
 20
168.0540759683
 10
252.630062654
 20
167.7896848474
 10
252.7616610685
 20
167.5137779741
 10
252.8331316592
 20
167.2305929582
 10
252.8433767207
 20
166.9444791932
 10
252.7922389008
 20
166.6598310548
 10
252.680503617
 20
166.3810204083
 10
252.5098869938
 20
166.112329462
 10
252.2830095046
 20
165.8578849972
 10
252.0033557247
 20
165.621594986
 10
251.6752208119
 20
165.4070885689
  0
LWPOLYLINE
  5
1C2
330
1F
100
AcDbEntity
  8
0
  6
Continuous
 62
     7
370
    25
100
AcDbPolyline
 90
       20
 70
   128
 43
0.0
 10
302.0831457722
 20
129.0589029846
 10
302.1138634532
 20
128.7732780402
 10
302.2055447084
 20
128.4920399637
 10
302.35678142
 20
128.219508246
 10
302.5652507674
 20
127.9598686582
 10
302.8277509031
 20
127.7171089634
 10
303.1402501295
 20
127.4949576689
 10
303.4979488207
 20
127.2968267612
 10
303.8953531397
 20
127.1257593011
 10
304.3263594168
 20
126.9843826866
 10
304.7843478954
 20
126.8748682986
 10
305.2622844034
 20
126.798898151
 10
305.7528283903
 20
126.7576390572
 10
306.2484456692
 20
126.751724709
 10
306.7415241333
 20
126.7812459441
 10
307.2244906692
 20
126.8457493504
 10
307.6899274708
 20
126.9442442305
 10
308.1306859685
 20
127.0752178171
 10
308.5399966229
 20
127.2366585079
 10
308.9115728969
 20
127.426086761
  0
ARC
  5
1C3
330
1F
100
AcDbEntity
  8
0
  6
Continuous
 62
     7
370
    25
100
AcDbCircle
 10
308.0813175222
 20
129.2585284922
 30
0.0
 40
2.011757113975104
100
AcDbArc
 50
294.3746582936
 51
354.3052007488
  0
LINE
  5
1C4
330
1F
100
AcDbEntity
  8
0
  6
Continuous
 62
     7
370
    25
100
AcDbLine
 10
310.0831457722
 20
129.0589029846
 30
0.0
 11
310.0831457722
 21
142.793820885
 31
0.0
  0
LWPOLYLINE
  5
1C5
330
1F
100
AcDbEntity
  8
0
  6
Continuous
 62
     7
370
    25
100
AcDbPolyline
 90
       26
 70
   128
 43
0.0
 10
310.0831457722
 20
142.793820885
 10
310.0516045774
 20
143.0832342276
 10
309.9574784167
 20
143.3680833489
 10
309.8022517157
 20
143.6438760081
 10
309.5883724924
 20
143.9062627902
 10
309.3192137497
 20
144.151105699
 10
308.9990202819
 20
144.3745434154
 10
308.6328417312
 20
144.5730521932
 10
308.2264529521
 20
144.7435014304
 10
307.7862629384
 20
144.8832030408
 10
307.3192137497
 20
144.9899538464
 10
306.8326710305
 20
145.0620703233
 10
306.3343078503
 20
145.0984151516
 10
305.8319836941
 20
145.0984151516
 10
305.3336205138
 20
145.0620703233
 10
304.8470777947
 20
144.9899538464
 10
304.3800286059
 20
144.8832030408
 10
303.9398385923
 20
144.7435014304
 10
303.5334498132
 20
144.5730521932
 10
303.1672712625
 20
144.3745434154
 10
302.8470777947
 20
144.151105699
 10
302.577919052
 20
143.9062627902
 10
302.3640398286
 20
143.6438760081
 10
302.2088131277
 20
143.3680833489
 10
302.1146869669
 20
143.0832342276
 10
302.0831457722
 20
142.793820885
  0
LINE
  5
1C6
330
1F
100
AcDbEntity
  8
0
  6
Continuous
 62
     7
370
    25
100
AcDbLine
 10
302.0831457722
 20
142.793820885
 30
0.0
 11
302.0831457722
 21
129.0589029846
 31
0.0
  0
LWPOLYLINE
  5
1C7
330
1F
100
AcDbEntity
  8
0
  6
Continuous
 62
     7
370
    25
100
AcDbPolyline
 90
       20
 70
   128
 43
0.0
 10
284.0831457722
 20
138.6452281316
 10
284.1138634532
 20
138.3596031872
 10
284.2055447084
 20
138.0783651107
 10
284.35678142
 20
137.805833393
 10
284.5652507674
 20
137.5461938052
 10
284.8277509031
 20
137.3034341104
 10
285.1402501295
 20
137.0812828159
 10
285.4979488207
 20
136.8831519082
 10
285.8953531397
 20
136.7120844481
 10
286.3263594168
 20
136.5707078336
 10
286.7843478954
 20
136.4611934455
 10
287.2622844034
 20
136.3852232979
 10
287.7528283903
 20
136.3439642041
 10
288.2484456692
 20
136.338049856
 10
288.7415241333
 20
136.3675710911
 10
289.2244906692
 20
136.4320744974
 10
289.6899274708
 20
136.5305693775
 10
290.1306859685
 20
136.6615429641
 10
290.5399966229
 20
136.8229836549
 10
290.9115728969
 20
137.0124119079
  0
ARC
  5
1C8
330
1F
100
AcDbEntity
  8
0
  6
Continuous
 62
     7
370
    25
100
AcDbCircle
 10
290.0813175222
 20
138.8448536392
 30
0.0
 40
2.011757113975075
100
AcDbArc
 50
294.3746582936
 51
354.3052007488
  0
LINE
  5
1C9
330
1F
100
AcDbEntity
  8
0
  6
Continuous
 62
     7
370
    25
100
AcDbLine
 10
292.0831457722
 20
138.6452281316
 30
0.0
 11
292.0831457722
 21
144.3892408668
 31
0.0
  0
LWPOLYLINE
  5
1CA
330
1F
100
AcDbEntity
  8
0
  6
Continuous
 62
     7
370
    25
100
AcDbPolyline
 90
       26
 70
   128
 43
0.0
 10
292.0831457722
 20
144.3892408668
 10
292.0516045774
 20
144.6786542095
 10
291.9574784167
 20
144.9635033308
 10
291.8022517157
 20
145.23929599
 10
291.5883724924
 20
145.5016827721
 10
291.3192137497
 20
145.7465256808
 10
290.9990202819
 20
145.9699633972
 10
290.6328417312
 20
146.1684721751
 10
290.2264529521
 20
146.3389214123
 10
289.7862629384
 20
146.4786230226
 10
289.3192137497
 20
146.5853738283
 10
288.8326710305
 20
146.6574903052
 10
288.3343078503
 20
146.6938351335
 10
287.8319836941
 20
146.6938351335
 10
287.3336205138
 20
146.6574903052
 10
286.8470777947
 20
146.5853738283
 10
286.3800286059
 20
146.4786230226
 10
285.9398385923
 20
146.3389214123
 10
285.5334498132
 20
146.1684721751
 10
285.1672712625
 20
145.9699633972
 10
284.8470777947
 20
145.7465256808
 10
284.577919052
 20
145.5016827721
 10
284.3640398286
 20
145.23929599
 10
284.2088131277
 20
144.9635033308
 10
284.1146869669
 20
144.6786542095
 10
284.0831457722
 20
144.3892408668
  0
LINE
  5
1CB
330
1F
100
AcDbEntity
  8
0
  6
Continuous
 62
     7
370
    25
100
AcDbLine
 10
284.0831457722
 20
144.3892408668
 30
0.0
 11
284.0831457722
 21
138.6452281316
 31
0.0
  0
LWPOLYLINE
  5
1CC
330
1F
100
AcDbEntity
  8
0
  6
Continuous
 62
     7
370
    25
100
AcDbPolyline
 90
       20
 70
   128
 43
0.0
 10
320.0831457722
 20
138.6452281316
 10
320.1138634532
 20
138.3596031872
 10
320.2055447084
 20
138.0783651107
 10
320.35678142
 20
137.805833393
 10
320.5652507674
 20
137.5461938052
 10
320.8277509031
 20
137.3034341104
 10
321.1402501295
 20
137.0812828159
 10
321.4979488207
 20
136.8831519082
 10
321.8953531397
 20
136.7120844481
 10
322.3263594168
 20
136.5707078336
 10
322.7843478954
 20
136.4611934455
 10
323.2622844034
 20
136.3852232979
 10
323.7528283903
 20
136.3439642041
 10
324.2484456692
 20
136.338049856
 10
324.7415241333
 20
136.3675710911
 10
325.2244906692
 20
136.4320744974
 10
325.6899274708
 20
136.5305693775
 10
326.1306859685
 20
136.6615429641
 10
326.5399966229
 20
136.8229836549
 10
326.9115728969
 20
137.0124119079
  0
ARC
  5
1CD
330
1F
100
AcDbEntity
  8
0
  6
Continuous
 62
     7
370
    25
100
AcDbCircle
 10
326.0813175222
 20
138.8448536392
 30
0.0
 40
2.011757113975196
100
AcDbArc
 50
294.3746582936
 51
354.3052007488
  0
LINE
  5
1CE
330
1F
100
AcDbEntity
  8
0
  6
Continuous
 62
     7
370
    25
100
AcDbLine
 10
328.0831457722
 20
138.6452281316
 30
0.0
 11
328.0831457722
 21
144.3892408668
 31
0.0
  0
LWPOLYLINE
  5
1CF
330
1F
100
AcDbEntity
  8
0
  6
Continuous
 62
     7
370
    25
100
AcDbPolyline
 90
       26
 70
   128
 43
0.0
 10
328.0831457722
 20
144.3892408668
 10
328.0516045774
 20
144.6786542095
 10
327.9574784167
 20
144.9635033308
 10
327.8022517157
 20
145.23929599
 10
327.5883724924
 20
145.5016827721
 10
327.3192137497
 20
145.7465256808
 10
326.9990202819
 20
145.9699633972
 10
326.6328417312
 20
146.1684721751
 10
326.2264529521
 20
146.3389214123
 10
325.7862629384
 20
146.4786230226
 10
325.3192137497
 20
146.5853738283
 10
324.8326710305
 20
146.6574903052
 10
324.3343078503
 20
146.6938351335
 10
323.8319836941
 20
146.6938351335
 10
323.3336205138
 20
146.6574903052
 10
322.8470777947
 20
146.5853738283
 10
322.3800286059
 20
146.4786230226
 10
321.9398385923
 20
146.3389214123
 10
321.5334498132
 20
146.1684721751
 10
321.1672712625
 20
145.9699633972
 10
320.8470777947
 20
145.7465256808
 10
320.577919052
 20
145.5016827721
 10
320.3640398286
 20
145.23929599
 10
320.2088131277
 20
144.9635033308
 10
320.1146869669
 20
144.6786542095
 10
320.0831457722
 20
144.3892408668
  0
LINE
  5
1D0
330
1F
100
AcDbEntity
  8
0
  6
Continuous
 62
     7
370
    25
100
AcDbLine
 10
320.0831457722
 20
144.3892408668
 30
0.0
 11
320.0831457722
 21
138.6452281316
 31
0.0
  0
LINE
  5
1D1
330
1F
100
AcDbEntity
  8
0
  6
Continuous
 62
     7
370
    25
100
AcDbLine
 10
389.8752993428
 20
175.1219327618
 30
0.0
 11
366.0831457722
 21
175.1219327618
 31
0.0
  0
ARC
  5
1D2
330
1F
100
AcDbEntity
  8
0
  6
Continuous
 62
     7
370
    25
100
AcDbCircle
 10
389.9905406953
 20
180.8923936436
 30
0.0
 40
5.771611504408189
100
AcDbArc
 50
268.8559032542
 51
298.0402391154
  0
LWPOLYLINE
  5
1D3
330
1F
100
AcDbEntity
  8
0
  6
Continuous
 62
     7
370
    25
100
AcDbPolyline
 90
       20
 70
   128
 43
0.0
 10
389.8752993428
 20
179.7402344585
 10
390.3700698679
 20
179.7225015187
 10
390.8572412913
 20
179.6695750566
 10
391.329331225
 20
179.5822679614
 10
391.7790889149
 20
179.4619211688
 10
392.1996066044
 20
179.310383066
 10
392.5844256293
 20
179.1299811026
 10
392.9276356156
 20
178.9234860435
 10
393.2239652558
 20
178.6940694135
 10
393.4688632704
 20
178.4452547858
 10
393.6585683096
 20
178.1808636649
 10
393.7901667241
 20
177.9049567916
 10
393.8616373148
 20
177.6217717758
 10
393.8718823763
 20
177.3356580108
 10
393.8207445564
 20
177.0510098723
 10
393.7090092726
 20
176.7721992258
 10
393.5383926494
 20
176.5035082795
 10
393.3115151603
 20
176.2490638148
 10
393.0318613804
 20
176.0127738036
 10
392.7037264675
 20
175.7982673865
  0
LINE
  5
1D4
330
1F
100
AcDbEntity
  8
0
  6
Continuous
 62
     7
370
    25
100
AcDbLine
 10
366.0831457722
 20
179.7402344585
 30
0.0
 11
389.8752993428
 21
179.7402344585
 31
0.0
  0
LWPOLYLINE
  5
1D5
330
1F
100
AcDbEntity
  8
0
  6
Continuous
 62
     7
370
    25
100
AcDbPolyline
 90
       26
 70
   128
 43
0.0
 10
366.0831457722
 20
175.1219327618
 10
365.5818128379
 20
175.1401411059
 10
365.0883862235
 20
175.1944789819
 10
364.6106475614
 20
175.284089449
 10
364.1561310758
 20
175.4075592965
 10
363.732004763
 20
175.5629413312
 10
363.3449573485
 20
175.7477850857
 10
363.0010928011
 20
175.9591754634
 10
362.7058340702
 20
176.1937787119
 10
362.4638375623
 20
176.4478949978
 10
362.278919707
 20
176.7175167554
 10
362.1539967693
 20
176.9983918886
 10
362.0910388585
 20
177.2860908287
 10
362.0910388585
 20
177.5760763916
 10
362.1539967693
 20
177.8637753317
 10
362.278919707
 20
178.1446504648
 10
362.4638375623
 20
178.4142722224
 10
362.7058340702
 20
178.6683885083
 10
363.0010928011
 20
178.9029917568
 10
363.3449573485
 20
179.1143821345
 10
363.732004763
 20
179.299225889
 10
364.1561310758
 20
179.4546079238
 10
364.6106475614
 20
179.5780777713
 10
365.0883862235
 20
179.6676882383
 10
365.5818128379
 20
179.7220261143
 10
366.0831457722
 20
179.7402344585
  0
LINE
  5
1D6
330
1F
100
AcDbEntity
  8
0
  6
Continuous
 62
     7
370
    25
100
AcDbLine
 10
373.2694978572
 20
164.7307539442
 30
0.0
 11
363.3194978572
 21
164.7307539442
 31
0.0
  0
ARC
  5
1D7
330
1F
100
AcDbEntity
  8
0
  6
Continuous
 62
     7
370
    25
100
AcDbCircle
 10
373.3847392098
 20
170.501214826
 30
0.0
 40
5.771611504408011
100
AcDbArc
 50
268.8559032542
 51
298.0402391154
  0
LWPOLYLINE
  5
1D8
330
1F
100
AcDbEntity
  8
0
  6
Continuous
 62
     7
370
    25
100
AcDbPolyline
 90
       20
 70
   128
 43
0.0
 10
373.2694978572
 20
169.3490556409
 10
373.7642683823
 20
169.3313227011
 10
374.2514398058
 20
169.2783962391
 10
374.7235297395
 20
169.1910891439
 10
375.1732874293
 20
169.0707423513
 10
375.5938051188
 20
168.9192042485
 10
375.9786241437
 20
168.7388022851
 10
376.32183413
 20
168.532307226
 10
376.6181637702
 20
168.3028905959
 10
376.8630617848
 20
168.0540759683
 10
377.052766824
 20
167.7896848474
 10
377.1843652385
 20
167.5137779741
 10
377.2558358292
 20
167.2305929582
 10
377.2660808907
 20
166.9444791932
 10
377.2149430708
 20
166.6598310548
 10
377.103207787
 20
166.3810204083
 10
376.9325911638
 20
166.112329462
 10
376.7057136747
 20
165.8578849972
 10
376.4260598948
 20
165.621594986
 10
376.0979249819
 20
165.4070885689
  0
LINE
  5
1D9
330
1F
100
AcDbEntity
  8
0
  6
Continuous
 62
     7
370
    25
100
AcDbLine
 10
363.3194978572
 20
169.3490556409
 30
0.0
 11
373.2694978572
 21
169.3490556409
 31
0.0
  0
LWPOLYLINE
  5
1DA
330
1F
100
AcDbEntity
  8
0
  6
Continuous
 62
     7
370
    25
100
AcDbPolyline
 90
       26
 70
   128
 43
0.0
 10
363.3194978572
 20
164.7307539442
 10
362.8181649229
 20
164.7489622884
 10
362.3247383085
 20
164.8033001644
 10
361.8469996465
 20
164.8929106314
 10
361.3924831608
 20
165.016380479
 10
360.968356848
 20
165.1717625137
 10
360.5813094335
 20
165.3566062682
 10
360.2374448861
 20
165.5679966459
 10
359.9421861552
 20
165.8025998944
 10
359.7001896473
 20
166.0567161803
 10
359.515271792
 20
166.3263379379
 10
359.3903488543
 20
166.607213071
 10
359.3273909435
 20
166.8949120111
 10
359.3273909435
 20
167.184897574
 10
359.3903488543
 20
167.4725965141
 10
359.515271792
 20
167.7534716473
 10
359.7001896473
 20
168.0230934049
 10
359.9421861552
 20
168.2772096908
 10
360.2374448861
 20
168.5118129393
 10
360.5813094335
 20
168.723203317
 10
360.968356848
 20
168.9080470715
 10
361.3924831608
 20
169.0634291062
 10
361.8469996465
 20
169.1868989537
 10
362.3247383085
 20
169.2765094208
 10
362.8181649229
 20
169.3308472968
 10
363.3194978572
 20
169.3490556409
  0
LWPOLYLINE
  5
1DB
330
1F
100
AcDbEntity
  8
0
  6
Continuous
 62
     7
370
    25
100
AcDbPolyline
 90
       26
 70
   128
 43
0.0
 10
258.3534380421
 20
153.1429422834
 10
258.0212451173
 20
152.9254209027
 10
257.7388970588
 20
152.6855794768
 10
257.5108466641
 20
152.4272004483
 10
257.3406904241
 20
152.1543586089
 10
257.2311118045
 20
151.8713568374
 10
257.1838389254
 20
151.5826582407
 10
257.1996173084
 20
151.2928157682
 10
257.2781981191
 20
151.0064004088
 10
257.418342091
 20
150.7279291039
 10
257.6178390701
 20
150.4617935121
 10
257.8735428697
 20
150.2121907509
 10
258.1814208883
 20
149.9830572049
 10
258.5366177055
 20
149.778006447
 10
258.9335316554
 20
149.60027225
 10
259.3659031679
 20
149.4526575885
 10
259.8269134859
 20
149.3374904339
 10
260.3092922012
 20
149.256587041
 10
260.8054319136
 20
149.2112233046
 10
261.3075082031
 20
149.202114638
 10
261.807603027
 20
149.2294046902
 10
262.297829591
 20
149.2926630808
 10
262.7704567294
 20
149.3908921873
 10
263.2180308298
 20
149.5225428779
 10
263.6334933814
 20
149.6855389426
 10
264.0102922916
 20
149.8773098361
  0
LWPOLYLINE
  5
1DC
330
1F
100
AcDbEntity
  8
0
  6
Continuous
 62
     7
370
    25
100
AcDbPolyline
 90
       26
 70
   128
 43
0.0
 10
264.0102922916
 20
149.8773098361
 10
264.3424852163
 20
150.0948312169
 10
264.6248332748
 20
150.3346726427
 10
264.8528836696
 20
150.5930516712
 10
265.0230399095
 20
150.8658935106
 10
265.1326185292
 20
151.1488952821
 10
265.1798914083
 20
151.4375938788
 10
265.1641130252
 20
151.7274363513
 10
265.0855322146
 20
152.0138517107
 10
264.9453882427
 20
152.2923230157
 10
264.7458912636
 20
152.5584586074
 10
264.4901874639
 20
152.8080613686
 10
264.1823094454
 20
153.0371949146
 10
263.8271126281
 20
153.2422456725
 10
263.4301986782
 20
153.4199798695
 10
262.9978271658
 20
153.567594531
 10
262.5368168478
 20
153.6827616856
 10
262.0544381324
 20
153.7636650785
 10
261.5582984201
 20
153.8090288149
 10
261.0562221305
 20
153.8181374815
 10
260.5561273067
 20
153.7908474293
 10
260.0659007427
 20
153.7275890387
 10
259.5932736043
 20
153.6293599322
 10
259.1456995038
 20
153.4977092416
 10
258.7302369522
 20
153.3347131769
 10
258.3534380421
 20
153.1429422834
  0
ARC
  5
1DD
330
1F
100
AcDbEntity
  8
0
  6
Continuous
 62
     7
370
    25
100
AcDbCircle
 10
268.7227617951
 20
198.1124426715
 30
0.0
 40
0.7684024037861427
100
AcDbArc
 50
2.6054784857
 51
57.39452166
  0
ARC
  5
1DE
330
1F
100
AcDbEntity
  8
0
  6
Continuous
 62
     7
370
    25
100
AcDbCircle
 10
271.6628556677
 20
177.0228950582
 30
0.0
 40
17.32944262998228
100
AcDbArc
 50
171.8833515642
 51
187.7787899149
  0
LINE
  5
1DF
330
1F
100
AcDbEntity
  8
0
  6
Continuous
 62
     7
370
    25
100
AcDbLine
 10
269.4903698458
 20
196.9225618798
 30
0.0
 11
269.4903698458
 21
198.1473730976
 31
0.0
  0
LWPOLYLINE
  5
1E0
330
1F
100
AcDbEntity
  8
0
  6
Continuous
 62
     7
370
    25
100
AcDbPolyline
 90
       24
 70
   128
 43
0.0
 10
254.3440200137
 20
176.4104075953
 10
254.350491622
 20
176.571437099
 10
254.4275608411
 20
177.6017878063
 10
254.5661889969
 20
178.6299889079
 10
254.7662108837
 20
179.6548150772
 10
255.0273881316
 20
180.6750450095
 10
255.3494094907
 20
181.6894628774
 10
255.731891202
 20
182.6968597801
 10
256.174377455
 20
183.6960351835
 10
256.6763409304
 20
184.6857983516
 10
257.2371834287
 20
185.6649697647
 10
257.8562365835
 20
186.6323825259
 10
258.5327626573
 20
187.586883751
 10
259.2659554213
 20
188.527335943
 10
260.0549411158
 20
189.4526183471
 10
260.8987794916
 20
190.3616282868
 10
261.7964649306
 20
191.2532824779
 10
262.746927644
 20
192.1265183192
 10
263.7490349476
 20
192.9802951589
 10
264.8015926111
 20
193.8135955352
 10
265.9033462816
 20
194.6254263882
 10
267.0529829785
 20
195.4148202437
 10
268.2491326579
 20
196.1808363662
 10
269.4903698458
 20
196.9225618798
  0
LWPOLYLINE
  5
1E1
330
1F
100
AcDbEntity
  8
0
  6
Continuous
 62
     7
370
    25
100
AcDbPolyline
 90
       26
 70
   128
 43
0.0
 10
302.0831457722
 20
141.1607392612
 10
302.1146869669
 20
141.4501526038
 10
302.2088131277
 20
141.7350017251
 10
302.3640398286
 20
142.0107943843
 10
302.577919052
 20
142.2731811665
 10
302.8470777947
 20
142.5180240752
 10
303.1672712625
 20
142.7414617916
 10
303.5334498132
 20
142.9399705694
 10
303.9398385923
 20
143.1104198067
 10
304.3800286059
 20
143.250121417
 10
304.8470777947
 20
143.3568722226
 10
305.3336205138
 20
143.4289886996
 10
305.8319836941
 20
143.4653335278
 10
306.3343078503
 20
143.4653335278
 10
306.8326710305
 20
143.4289886996
 10
307.3192137497
 20
143.3568722226
 10
307.7862629384
 20
143.250121417
 10
308.2264529521
 20
143.1104198067
 10
308.6328417312
 20
142.9399705694
 10
308.9990202819
 20
142.7414617916
 10
309.3192137497
 20
142.5180240752
 10
309.5883724924
 20
142.2731811665
 10
309.8022517157
 20
142.0107943843
 10
309.9574784167
 20
141.7350017251
 10
310.0516045774
 20
141.4501526038
 10
310.0831457722
 20
141.1607392612
  0
LWPOLYLINE
  5
1E2
330
1F
100
AcDbEntity
  8
0
  6
Continuous
 62
     7
370
    25
100
AcDbPolyline
 90
       26
 70
   128
 43
0.0
 10
320.0831457722
 20
142.7561592431
 10
320.1146869669
 20
143.0455725857
 10
320.2088131277
 20
143.330421707
 10
320.3640398286
 20
143.6062143662
 10
320.577919052
 20
143.8686011483
 10
320.8470777947
 20
144.113444057
 10
321.1672712625
 20
144.3368817735
 10
321.5334498132
 20
144.5353905513
 10
321.9398385923
 20
144.7058397885
 10
322.3800286059
 20
144.8455413989
 10
322.8470777947
 20
144.9522922045
 10
323.3336205138
 20
145.0244086814
 10
323.8319836941
 20
145.0607535097
 10
324.3343078503
 20
145.0607535097
 10
324.8326710305
 20
145.0244086814
 10
325.3192137497
 20
144.9522922045
 10
325.7862629384
 20
144.8455413989
 10
326.2264529521
 20
144.7058397885
 10
326.6328417312
 20
144.5353905513
 10
326.9990202819
 20
144.3368817735
 10
327.3192137497
 20
144.113444057
 10
327.5883724924
 20
143.8686011483
 10
327.8022517157
 20
143.6062143662
 10
327.9574784167
 20
143.330421707
 10
328.0516045774
 20
143.0455725857
 10
328.0831457722
 20
142.7561592431
  0
LWPOLYLINE
  5
1E3
330
1F
100
AcDbEntity
  8
0
  6
Continuous
 62
     7
370
    25
100
AcDbPolyline
 90
       26
 70
   128
 43
0.0
 10
284.0831457722
 20
142.7561592431
 10
284.1146869669
 20
143.0455725857
 10
284.2088131277
 20
143.330421707
 10
284.3640398286
 20
143.6062143662
 10
284.577919052
 20
143.8686011483
 10
284.8470777947
 20
144.113444057
 10
285.1672712625
 20
144.3368817735
 10
285.5334498132
 20
144.5353905513
 10
285.9398385923
 20
144.7058397885
 10
286.3800286059
 20
144.8455413989
 10
286.8470777947
 20
144.9522922045
 10
287.3336205138
 20
145.0244086814
 10
287.8319836941
 20
145.0607535097
 10
288.3343078503
 20
145.0607535097
 10
288.8326710305
 20
145.0244086814
 10
289.3192137497
 20
144.9522922045
 10
289.7862629384
 20
144.8455413989
 10
290.2264529521
 20
144.7058397885
 10
290.6328417312
 20
144.5353905513
 10
290.9990202819
 20
144.3368817735
 10
291.3192137497
 20
144.113444057
 10
291.5883724924
 20
143.8686011483
 10
291.8022517157
 20
143.6062143662
 10
291.9574784167
 20
143.330421707
 10
292.0516045774
 20
143.0455725857
 10
292.0831457722
 20
142.7561592431
  0
LINE
  5
1E4
330
1F
100
AcDbEntity
  8
0
  6
Continuous
 62
     7
370
    25
100
AcDbLine
 10
259.0605448233
 20
151.9181974156
 30
0.0
 11
258.3534380421
 21
153.1429422834
 31
0.0
  0
ARC
  5
1E5
330
1F
100
AcDbEntity
  8
0
  6
Continuous
 62
     7
370
    25
100
AcDbCircle
 10
259.4975766197
 20
150.7163812277
 30
0.0
 40
1.278811534396852
100
AcDbArc
 50
109.9834319232
 51
234.6474205374
  0
LINE
  5
1E6
330
1F
100
AcDbEntity
  8
0
  6
Continuous
 62
     7
370
    25
100
AcDbLine
 10
259.0605448233
 20
151.1016566037
 30
0.0
 11
259.0605448233
 21
151.9181974156
 31
0.0
  0
ARC
  5
1E7
330
1F
100
AcDbEntity
  8
0
  6
Continuous
 62
     7
370
    25
100
AcDbCircle
 10
259.8827624749
 20
149.5073829144
 30
0.0
 40
1.793808926062051
100
AcDbArc
 50
117.2815974992
 51
154.2989227211
  0
LWPOLYLINE
  5
1E8
330
1F
100
AcDbEntity
  8
0
  6
Continuous
 62
     7
370
    25
100
AcDbPolyline
 90
       22
 70
   128
 43
0.0
 10
263.6060821728
 20
149.6733736456
 10
263.8149021355
 20
149.8635915947
 10
263.9927143418
 20
150.0883611178
 10
264.1133057647
 20
150.3254512588
 10
264.1742215107
 20
150.5700355463
 10
264.1742215107
 20
150.8171349494
 10
264.1133057647
 20
151.0617192369
 10
263.9927143418
 20
151.298809378
 10
263.8149021355
 20
151.5235789011
 10
263.5834888896
 20
151.7314521469
 10
263.3031855104
 20
151.9181974156
 10
262.9796981664
 20
152.0800131121
 10
262.619612127
 20
152.2136051354
 10
262.2302577056
 20
152.3162539371
 10
261.8195610355
 20
152.3858698838
 10
261.3958827164
 20
152.4210357953
 10
260.9678476172
 20
152.4210357953
 10
260.5441692982
 20
152.3858698838
 10
260.133472628
 20
152.3162539371
 10
259.7441182067
 20
152.2136051354
 10
259.3840321673
 20
152.0800131121
 10
259.0605448233
 20
151.9181974156
  0
ARC
  5
1E9
330
1F
100
AcDbEntity
  8
0
  6
Continuous
 62
     7
370
    25
100
AcDbCircle
 10
261.1007158935
 20
147.7429459706
 30
0.0
 40
3.929788176596203
100
AcDbArc
 50
40.3118925911
 51
121.2756198515
  0
ARC
  5
1EA
330
1F
100
AcDbEntity
  8
0
  6
Continuous
 62
     7
370
    25
100
AcDbCircle
 10
340.5034358766
 20
177.0227313501
 30
0.0
 40
17.32944263007442
100
AcDbArc
 50
351.8833515642
 51
7.7787899149
  0
LWPOLYLINE
  5
1EB
330
1F
100
AcDbEntity
  8
0
  6
Continuous
 62
     7
370
    25
100
AcDbPolyline
 90
       69
 70
   128
 43
0.0
 10
269.4903698458
 20
196.9225618798
 10
270.7752153362
 20
197.6391128561
 10
272.1021379546
 20
198.3296353679
 10
273.4695563822
 20
198.9933065063
 10
274.8758410406
 20
199.6293353621
 10
276.3193160338
 20
200.2369639674
 10
277.7982611454
 20
200.8154682
 10
279.3109138885
 20
201.3641586453
 10
280.8554716063
 20
201.8823814185
 10
282.4300936201
 20
202.3695189438
 10
284.0329034232
 20
202.8249906903
 10
285.6619909167
 20
203.2482538635
 10
287.3154146865
 20
203.6388040528
 10
288.991204316
 20
203.9961758322
 10
290.6873627352
 20
204.3199433149
 10
292.4018685999
 20
204.6097206612
 10
294.1326787013
 20
204.8651625378
 10
295.8777304
 20
205.0859645299
 10
297.6349440851
 20
205.2718635035
 10
299.4022256519
 20
205.4226379194
 10
301.1774689974
 20
205.5381080967
 10
302.9585585306
 20
205.6181364276
 10
304.7433716934
 20
205.6626275408
 10
306.5297814904
 20
205.6715284153
 10
308.3156590231
 20
205.6448284438
 10
310.0988760277
 20
205.5825594452
 10
311.8773074105
 20
205.4847956266
 10
313.6488337815
 20
205.351653495
 10
315.411343979
 20
205.1832917184
 10
317.1627375865
 20
204.9799109367
 10
318.9009274351
 20
204.7417535226
 10
320.623842091
 20
204.4691032929
 10
322.3294283243
 20
204.1622851699
 10
324.0156535557
 20
203.8216647946
 10
325.6805082786
 20
203.4476480907
 10
327.3220084544
 20
203.0406807811
 10
328.9381978761
 20
202.6012478563
 10
330.5271505002
 20
202.1298729969
 10
332.0869727421
 20
201.6271179492
 10
333.6158057318
 20
201.0935818559
 10
335.1118275305
 20
200.529900542
 10
336.5732553004
 20
199.9367457573
 10
337.9983474307
 20
199.3148243754
 10
339.385405612
 20
198.6648775518
 10
340.7327768609
 20
197.9876798405
 10
342.0388554897
 20
197.2840382708
 10
343.3020850197
 20
196.5547913856
 10
344.5209600364
 20
195.8008082422
 10
345.6940279835
 20
195.0229873766
 10
346.8198908937
 20
194.2222557326
 10
347.8972070549
 20
193.3995675572
 10
348.9246926091
 20
192.5559032635
 10
349.9011230822
 20
191.6922682621
 10
350.8253348438
 20
190.8096917633
 10
351.6962264931
 20
189.90922555
 10
352.5127601721
 20
188.991942725
 10
353.2739628023
 20
188.0589364314
 10
353.9789272439
 20
187.1113185506
 10
354.6268133777
 20
186.1502183766
 10
355.2168491054
 20
185.1767812708
 10
355.7483312703
 20
184.1921672964
 10
356.2206264951
 20
183.1975498365
 10
356.6331719366
 20
182.1941141957
 10
356.9854759567
 20
181.1830561871
 10
357.2771187079
 20
180.1655807076
 10
357.5077526342
 20
179.142900302
 10
357.6771028846
 20
178.1162337179
 10
357.7849676413
 20
177.0868044532
 10
357.8222715307
 20
176.4104075953
  0
LINE
  5
1EC
330
1F
100
AcDbEntity
  8
0
  6
Continuous
 62
     7
370
    25
100
AcDbLine
 10
238.8967936872
 20
167.7159740172
 30
0.0
 11
238.8967936872
 21
169.3490556409
 31
0.0
  0
ARC
  5
1ED
330
1F
100
AcDbEntity
  8
0
  6
Continuous
 62
     7
370
    25
100
AcDbCircle
 10
238.5126035732
 20
163.2431762382
 30
0.0
 40
4.489267425204158
100
AcDbArc
 50
85.0906398799
 51
138.4060513552
  0
LINE
  5
1EE
330
1F
100
AcDbEntity
  8
0
  6
Continuous
 62
     7
370
    25
100
AcDbLine
 10
363.3194978572
 20
167.7159740172
 30
0.0
 11
363.3194978572
 21
169.3490556409
 31
0.0
  0
ARC
  5
1EF
330
1F
100
AcDbEntity
  8
0
  6
Continuous
 62
     7
370
    25
100
AcDbCircle
 10
362.9353077432
 20
163.2431762382
 30
0.0
 40
4.489267425204153
100
AcDbArc
 50
85.0906398799
 51
138.4060513552
  0
LINE
  5
1F0
330
1F
100
AcDbEntity
  8
0
  6
Continuous
 62
     7
370
    25
100
AcDbLine
 10
248.8467936872
 20
167.7159740172
 30
0.0
 11
248.8467936872
 21
169.3490556409
 31
0.0
  0
ARC
  5
1F1
330
1F
100
AcDbEntity
  8
0
  6
Continuous
 62
     7
370
    25
100
AcDbCircle
 10
249.2250446366
 20
163.2282883559
 30
0.0
 40
4.503598158683412
100
AcDbArc
 50
41.6854402438
 51
94.8178685211
  0
LINE
  5
1F2
330
1F
100
AcDbEntity
  8
0
  6
Continuous
 62
     7
370
    25
100
AcDbLine
 10
373.2694978572
 20
167.7159740172
 30
0.0
 11
373.2694978572
 21
169.3490556409
 31
0.0
  0
ARC
  5
1F3
330
1F
100
AcDbEntity
  8
0
  6
Continuous
 62
     7
370
    25
100
AcDbCircle
 10
373.6477488067
 20
163.2282883559
 30
0.0
 40
4.503598158683675
100
AcDbArc
 50
41.6854402438
 51
94.8178685211
  0
LINE
  5
1F4
330
1F
100
AcDbEntity
  8
0
  6
Continuous
 62
     7
370
    25
100
AcDbLine
 10
248.8467936872
 20
167.7159740172
 30
0.0
 11
238.8967936872
 21
167.7159740172
 31
0.0
  0
LINE
  5
1F5
330
1F
100
AcDbEntity
  8
0
  6
Continuous
 62
     7
370
    25
100
AcDbLine
 10
373.2694978572
 20
167.7159740172
 30
0.0
 11
363.3194978572
 21
167.7159740172
 31
0.0
  0
LINE
  5
1F6
330
1F
100
AcDbEntity
  8
0
  6
Continuous
 62
     7
370
    25
100
AcDbLine
 10
222.2909922016
 20
178.1071528347
 30
0.0
 11
222.2909922016
 21
179.7402344585
 31
0.0
  0
LINE
  5
1F7
330
1F
100
AcDbEntity
  8
0
  6
Continuous
 62
     7
370
    25
100
AcDbLine
 10
246.0831457722
 20
178.1071528347
 30
0.0
 11
246.0831457722
 21
179.7402344585
 31
0.0
  0
LINE
  5
1F8
330
1F
100
AcDbEntity
  8
0
  6
Continuous
 62
     7
370
    25
100
AcDbLine
 10
246.0831457722
 20
178.1071528347
 30
0.0
 11
222.2909922016
 21
178.1071528347
 31
0.0
  0
LINE
  5
1F9
330
1F
100
AcDbEntity
  8
0
  6
Continuous
 62
     7
370
    25
100
AcDbLine
 10
366.0831457722
 20
178.1071528347
 30
0.0
 11
366.0831457722
 21
179.7402344585
 31
0.0
  0
LINE
  5
1FA
330
1F
100
AcDbEntity
  8
0
  6
Continuous
 62
     7
370
    25
100
AcDbLine
 10
389.8752993428
 20
178.1071528347
 30
0.0
 11
389.8752993428
 21
179.7402344585
 31
0.0
  0
LINE
  5
1FB
330
1F
100
AcDbEntity
  8
0
  6
Continuous
 62
     7
370
    25
100
AcDbLine
 10
389.8752993428
 20
178.1071528347
 30
0.0
 11
366.0831457722
 21
178.1071528347
 31
0.0
  0
ARC
  5
1FC
330
1F
100
AcDbEntity
  8
0
  6
Continuous
 62
     7
370
    25
100
AcDbCircle
 10
221.9068020876
 20
173.6343550557
 30
0.0
 40
4.489267425204466
100
AcDbArc
 50
85.0906398799
 51
138.4060513552
  0
ARC
  5
1FD
330
1F
100
AcDbEntity
  8
0
  6
Continuous
 62
     7
370
    25
100
AcDbCircle
 10
365.6989556582
 20
173.6343550557
 30
0.0
 40
4.489267425204317
100
AcDbArc
 50
85.0906398799
 51
138.4060513552
  0
ARC
  5
1FE
330
1F
100
AcDbEntity
  8
0
  6
Continuous
 62
     7
370
    25
100
AcDbCircle
 10
246.4613967217
 20
173.6194671735
 30
0.0
 40
4.503598158683435
100
AcDbArc
 50
41.6854402438
 51
94.8178685211
  0
ARC
  5
1FF
330
1F
100
AcDbEntity
  8
0
  6
Continuous
 62
     7
370
    25
100
AcDbCircle
 10
390.2535502923
 20
173.6194671735
 30
0.0
 40
4.503598158683405
100
AcDbArc
 50
41.6854402438
 51
94.8178685211
  0
LINE
  5
200
330
1F
100
AcDbEntity
  8
0
  6
Continuous
 62
     7
370
    25
100
AcDbLine
 10
406.0062679788
 20
175.1032993143
 30
0.0
 11
406.0174320478
 21
174.9834336795
 31
0.0
  0
ARC
  5
201
330
1F
100
AcDbEntity
  8
0
  6
Continuous
 62
     7
370
    25
100
AcDbCircle
 10
405.0165208415
 20
171.4068402748
 30
0.0
 40
1.005878556987438
100
AcDbArc
 50
294.3746582936
 51
354.3052007488
  0
ARC
  5
202
330
1F
100
AcDbEntity
  8
0
  6
Continuous
 62
     7
370
    25
100
AcDbCircle
 10
207.1497707028
 20
171.4068402748
 30
0.0
 40
1.00587855698764
100
AcDbArc
 50
185.6947992512
 51
245.6253417064
  0
LINE
  5
203
330
1F
100
AcDbEntity
  8
0
  6
Continuous
 62
     7
370
    25
100
AcDbLine
 10
235.2086840068
 20
186.9283333868
 30
0.0
 11
237.7647672945
 21
188.4039288599
 31
0.0
  0
LINE
  5
204
330
1F
100
AcDbEntity
  8
0
  6
Continuous
 62
     7
370
    25
100
AcDbLine
 10
284.2466739234
 20
215.2373623911
 30
0.0
 11
286.9511193795
 21
216.7986055209
 31
0.0
  0
LINE
  5
205
330
1F
100
AcDbEntity
  8
0
  6
Continuous
 62
     7
370
    25
100
AcDbLine
 10
325.2151721648
 20
216.7986055209
 30
0.0
 11
327.9196176209
 21
215.2373623911
 31
0.0
  0
LINE
  5
206
330
1F
100
AcDbEntity
  8
0
  6
Continuous
 62
     7
370
    25
100
AcDbLine
 10
349.0465763529
 20
203.0410287214
 30
0.0
 11
352.2890816731
 21
201.1691702437
 31
0.0
  0
LINE
  5
207
330
1F
100
AcDbEntity
  8
0
  6
Continuous
 62
     7
370
    25
100
AcDbLine
 10
374.4015242498
 20
188.4039288599
 30
0.0
 11
376.9576075376
 21
186.9283333868
 31
0.0
  0
LINE
  5
208
330
1F
100
AcDbEntity
  8
0
  6
Continuous
 62
     7
370
    25
100
AcDbLine
 10
238.8967936872
 20
188.4983316522
 30
0.0
 11
238.8967936872
 21
190.131413276
 31
0.0
  0
ARC
  5
209
330
1F
100
AcDbEntity
  8
0
  6
Continuous
 62
     7
370
    25
100
AcDbCircle
 10
238.5126035732
 20
184.0255338733
 30
0.0
 40
4.489267425204283
100
AcDbArc
 50
85.0906398799
 51
138.4060513552
  0
LINE
  5
20A
330
1F
100
AcDbEntity
  8
0
  6
Continuous
 62
     7
370
    25
100
AcDbLine
 10
363.3194978572
 20
188.4983316522
 30
0.0
 11
363.3194978572
 21
190.131413276
 31
0.0
  0
ARC
  5
20B
330
1F
100
AcDbEntity
  8
0
  6
Continuous
 62
     7
370
    25
100
AcDbCircle
 10
362.9353077432
 20
184.0255338733
 30
0.0
 40
4.489267425203492
100
AcDbArc
 50
85.0906398799
 51
138.4060513552
  0
LINE
  5
20C
330
1F
100
AcDbEntity
  8
0
  6
Continuous
 62
     7
370
    25
100
AcDbLine
 10
248.8467936872
 20
188.4983316522
 30
0.0
 11
248.8467936872
 21
190.131413276
 31
0.0
  0
ARC
  5
20D
330
1F
100
AcDbEntity
  8
0
  6
Continuous
 62
     7
370
    25
100
AcDbCircle
 10
249.2250446366
 20
184.010645991
 30
0.0
 40
4.503598158683259
100
AcDbArc
 50
41.6854402438
 51
94.8178685211
  0
LINE
  5
20E
330
1F
100
AcDbEntity
  8
0
  6
Continuous
 62
     7
370
    25
100
AcDbLine
 10
373.2694978572
 20
188.4983316522
 30
0.0
 11
373.2694978572
 21
190.131413276
 31
0.0
  0
ARC
  5
20F
330
1F
100
AcDbEntity
  8
0
  6
Continuous
 62
     7
370
    25
100
AcDbCircle
 10
373.6477488067
 20
184.010645991
 30
0.0
 40
4.503598158682984
100
AcDbArc
 50
41.6854402438
 51
94.8178685211
  0
LINE
  5
210
330
1F
100
AcDbEntity
  8
0
  6
Continuous
 62
     7
370
    25
100
AcDbLine
 10
248.8467936872
 20
188.4983316522
 30
0.0
 11
238.8967936872
 21
188.4983316522
 31
0.0
  0
LINE
  5
211
330
1F
100
AcDbEntity
  8
0
  6
Continuous
 62
     7
370
    25
100
AcDbLine
 10
373.2694978572
 20
188.4983316522
 30
0.0
 11
363.3194978572
 21
188.4983316522
 31
0.0
  0
LINE
  5
212
330
1F
100
AcDbEntity
  8
0
  6
Continuous
 62
     7
370
    25
100
AcDbLine
 10
348.863106034
 20
203.7601125163
 30
0.0
 11
348.1559992528
 21
204.9848573841
 31
0.0
  0
ARC
  5
213
330
1F
100
AcDbEntity
  8
0
  6
Continuous
 62
     7
370
    25
100
AcDbCircle
 10
349.3001378304
 20
202.5582963285
 30
0.0
 40
1.278811534398486
100
AcDbArc
 50
109.9834319233
 51
234.6474205383
  0
LINE
  5
214
330
1F
100
AcDbEntity
  8
0
  6
Continuous
 62
     7
370
    25
100
AcDbLine
 10
348.863106034
 20
202.9435717045
 30
0.0
 11
348.863106034
 21
203.7601125163
 31
0.0
  0
ARC
  5
215
330
1F
100
AcDbEntity
  8
0
  6
Continuous
 62
     7
370
    25
100
AcDbCircle
 10
349.6853236856
 20
201.3492980151
 30
0.0
 40
1.793808926061347
100
AcDbArc
 50
117.2815974992
 51
154.2989227211
  0
LWPOLYLINE
  5
216
330
1F
100
AcDbEntity
  8
0
  6
Continuous
 62
     7
370
    25
100
AcDbPolyline
 90
       22
 70
   128
 43
0.0
 10
353.4086433836
 20
201.5152887464
 10
353.6174633462
 20
201.7055066954
 10
353.7952755525
 20
201.9302762185
 10
353.9158669754
 20
202.1673663596
 10
353.9767827214
 20
202.4119506471
 10
353.9767827214
 20
202.6590500502
 10
353.9158669754
 20
202.9036343376
 10
353.7952755525
 20
203.1407244787
 10
353.6174633462
 20
203.3654940018
 10
353.3860501003
 20
203.5733672476
 10
353.1057467211
 20
203.7601125163
 10
352.7822593771
 20
203.9219282128
 10
352.4221733377
 20
204.0555202361
 10
352.0328189163
 20
204.1581690379
 10
351.6221222462
 20
204.2277849845
 10
351.1984439271
 20
204.2629508961
 10
350.7704088279
 20
204.2629508961
 10
350.3467305089
 20
204.2277849845
 10
349.9360338387
 20
204.1581690379
 10
349.5466794174
 20
204.0555202361
 10
349.186593378
 20
203.9219282128
 10
348.863106034
 20
203.7601125163
  0
ARC
  5
217
330
1F
100
AcDbEntity
  8
0
  6
Continuous
 62
     7
370
    25
100
AcDbCircle
 10
350.9032771042
 20
199.5848610713
 30
0.0
 40
3.929788176595901
100
AcDbArc
 50
40.3118925911
 51
121.2756198515
  0
LWPOLYLINE
  5
218
330
1F
100
AcDbEntity
  8
0
  6
Continuous
 62
     7
370
    25
100
AcDbPolyline
 90
       26
 70
   128
 43
0.0
 10
284.0831457722
 20
214.5838574649
 10
284.1146869669
 20
214.8732708075
 10
284.2088131277
 20
215.1581199288
 10
284.3640398286
 20
215.433912588
 10
284.577919052
 20
215.6962993701
 10
284.8470777947
 20
215.9411422789
 10
285.1672712625
 20
216.1645799953
 10
285.5334498132
 20
216.3630887731
 10
285.9398385923
 20
216.5335380103
 10
286.3800286059
 20
216.6732396207
 10
286.8470777947
 20
216.7799904263
 10
287.3336205138
 20
216.8521069032
 10
287.8319836941
 20
216.8884517315
 10
288.3343078503
 20
216.8884517315
 10
288.8326710305
 20
216.8521069032
 10
289.3192137497
 20
216.7799904263
 10
289.7862629384
 20
216.6732396207
 10
290.2264529521
 20
216.5335380103
 10
290.6328417312
 20
216.3630887731
 10
290.9990202819
 20
216.1645799953
 10
291.3192137497
 20
215.9411422789
 10
291.5883724924
 20
215.6962993701
 10
291.8022517157
 20
215.433912588
 10
291.9574784167
 20
215.1581199288
 10
292.0516045774
 20
214.8732708075
 10
292.0831457722
 20
214.5838574649
  0
LWPOLYLINE
  5
219
330
1F
100
AcDbEntity
  8
0
  6
Continuous
 62
     7
370
    25
100
AcDbPolyline
 90
       26
 70
   128
 43
0.0
 10
320.0831457722
 20
214.5838574649
 10
320.1146869669
 20
214.8732708075
 10
320.2088131277
 20
215.1581199288
 10
320.3640398286
 20
215.433912588
 10
320.577919052
 20
215.6962993701
 10
320.8470777947
 20
215.9411422789
 10
321.1672712625
 20
216.1645799953
 10
321.5334498132
 20
216.3630887731
 10
321.9398385923
 20
216.5335380103
 10
322.3800286059
 20
216.6732396207
 10
322.8470777947
 20
216.7799904263
 10
323.3336205138
 20
216.8521069032
 10
323.8319836941
 20
216.8884517315
 10
324.3343078503
 20
216.8884517315
 10
324.8326710305
 20
216.8521069032
 10
325.3192137497
 20
216.7799904263
 10
325.7862629384
 20
216.6732396207
 10
326.2264529521
 20
216.5335380103
 10
326.6328417312
 20
216.3630887731
 10
326.9990202819
 20
216.1645799953
 10
327.3192137497
 20
215.9411422789
 10
327.5883724924
 20
215.6962993701
 10
327.8022517157
 20
215.433912588
 10
327.9574784167
 20
215.1581199288
 10
328.0516045774
 20
214.8732708075
 10
328.0831457722
 20
214.5838574649
  0
LWPOLYLINE
  5
21A
330
1F
100
AcDbEntity
  8
0
  6
Continuous
 62
     7
370
    25
100
AcDbPolyline
 90
       26
 70
   128
 43
0.0
 10
302.0831457722
 20
224.1701826118
 10
302.1146869669
 20
224.4595959545
 10
302.2088131277
 20
224.7444450758
 10
302.3640398286
 20
225.020237735
 10
302.577919052
 20
225.2826245171
 10
302.8470777947
 20
225.5274674258
 10
303.1672712625
 20
225.7509051422
 10
303.5334498132
 20
225.9494139201
 10
303.9398385923
 20
226.1198631573
 10
304.3800286059
 20
226.2595647677
 10
304.8470777947
 20
226.3663155733
 10
305.3336205138
 20
226.4384320502
 10
305.8319836941
 20
226.4747768785
 10
306.3343078503
 20
226.4747768785
 10
306.8326710305
 20
226.4384320502
 10
307.3192137497
 20
226.3663155733
 10
307.7862629384
 20
226.2595647677
 10
308.2264529521
 20
226.1198631573
 10
308.6328417312
 20
225.9494139201
 10
308.9990202819
 20
225.7509051422
 10
309.3192137497
 20
225.5274674258
 10
309.5883724924
 20
225.2826245171
 10
309.8022517157
 20
225.020237735
 10
309.9574784167
 20
224.7444450758
 10
310.0516045774
 20
224.4595959545
 10
310.0831457722
 20
224.1701826118
  0
LWPOLYLINE
  5
21B
330
1F
100
AcDbEntity
  8
0
  6
Continuous
 62
     7
370
    25
100
AcDbPolyline
 90
       22
 70
   128
 43
0.0
 10
269.4903698458
 20
198.1473730976
 10
268.2491326579
 20
197.405647584
 10
267.0529829785
 20
196.6396314615
 10
265.9033462816
 20
195.850237606
 10
264.8015926111
 20
195.038406753
 10
263.7490349476
 20
194.2051063767
 10
262.746927644
 20
193.351329537
 10
261.7964649306
 20
192.4780936957
 10
260.8987794916
 20
191.5864395047
 10
260.0549411158
 20
190.6774295649
 10
259.2659554213
 20
189.7521471608
 10
258.5327626573
 20
188.8116949688
 10
257.8562365835
 20
187.8571937437
 10
257.2371834287
 20
186.8897809825
 10
256.6763409304
 20
185.9106095694
 10
256.174377455
 20
184.9208464014
 10
255.731891202
 20
183.9216709979
 10
255.3494094907
 20
182.9142740953
 10
255.0273881316
 20
181.8998562273
 10
254.7662108837
 20
180.8796262951
 10
254.5661889969
 20
179.8548001257
 10
254.5070077096
 20
179.4696199519
  0
ARC
  5
21C
330
1F
100
AcDbEntity
  8
0
  6
Continuous
 62
     7
370
    25
100
AcDbCircle
 10
342.8823774073
 20
155.896204612
 30
0.0
 40
0.2533045810457887
100
AcDbArc
 50
54.4991767567
 51
112.9782391601
  0
LWPOLYLINE
  5
21D
330
1F
100
AcDbEntity
  8
0
  6
Continuous
 62
     7
370
    25
100
AcDbPolyline
 90
       67
 70
   128
 43
0.0
 10
357.6734131933
 20
179.3682506554
 10
357.5077526342
 20
180.3677115198
 10
357.2771187079
 20
181.3903919254
 10
356.9854759567
 20
182.4078674049
 10
356.6331719366
 20
183.4189254135
 10
356.2206264951
 20
184.4223610544
 10
355.7483312703
 20
185.4169785142
 10
355.2168491054
 20
186.4015924886
 10
354.6268133777
 20
187.3750295945
 10
353.9789272439
 20
188.3361297684
 10
353.2739628023
 20
189.2837476493
 10
352.5127601721
 20
190.2167539428
 10
351.6962264931
 20
191.1340367678
 10
350.8253348438
 20
192.0345029811
 10
349.9011230822
 20
192.9170794799
 10
348.9246926091
 20
193.7807144813
 10
347.8972070549
 20
194.624378775
 10
346.8198908937
 20
195.4470669504
 10
345.6940279835
 20
196.2477985944
 10
344.5209600364
 20
197.02561946
 10
343.3020850197
 20
197.7796026034
 10
342.0388554897
 20
198.5088494886
 10
340.7327768609
 20
199.2124910584
 10
339.385405612
 20
199.8896887696
 10
337.9983474307
 20
200.5396355932
 10
336.5732553004
 20
201.1615569751
 10
335.1118275305
 20
201.7547117598
 10
333.6158057318
 20
202.3183930737
 10
332.0869727421
 20
202.851929167
 10
330.5271505002
 20
203.3546842147
 10
328.9381978761
 20
203.8260590741
 10
327.3220084544
 20
204.2654919989
 10
325.6805082786
 20
204.6724593086
 10
324.0156535557
 20
205.0464760124
 10
322.3294283243
 20
205.3870963877
 10
320.623842091
 20
205.6939145107
 10
318.9009274351
 20
205.9665647405
 10
317.1627375865
 20
206.2047221545
 10
315.411343979
 20
206.4081029362
 10
313.6488337815
 20
206.5764647128
 10
311.8773074105
 20
206.7096068444
 10
310.0988760277
 20
206.807370663
 10
308.3156590231
 20
206.8696396616
 10
306.5297814904
 20
206.8963396331
 10
304.7433716934
 20
206.8874387586
 10
302.9585585306
 20
206.8429476455
 10
301.1774689974
 20
206.7629193146
 10
299.4022256519
 20
206.6474491372
 10
297.6349440851
 20
206.4966747213
 10
295.8777304
 20
206.3107757477
 10
294.1326787013
 20
206.0899737556
 10
292.4018685999
 20
205.834531879
 10
290.6873627352
 20
205.5447545328
 10
288.991204316
 20
205.2209870501
 10
287.3154146865
 20
204.8636152707
 10
285.6619909167
 20
204.4730650813
 10
284.0329034231
 20
204.0498019081
 10
282.4300936201
 20
203.5943301617
 10
280.8554716063
 20
203.1071926363
 10
279.3109138885
 20
202.5889698631
 10
277.7982611454
 20
202.0402794178
 10
276.3193160338
 20
201.4617751853
 10
274.8758410406
 20
200.8541465799
 10
273.4695563822
 20
200.2181177242
 10
272.1021379546
 20
199.5544465857
 10
270.7752153362
 20
198.8639240739
 10
269.4903698458
 20
198.1473730976
  0
SPLINE
  5
21E
330
1F
100
AcDbEntity
  8
0
  6
Continuous
 62
     7
370
    25
100
AcDbSpline
210
0.0
220
0.0
230
1.0
 70
     8
 71
     3
 72
    13
 73
     9
 74
     0
 42
0.00000001
 43
0.00000001
 40
0.0
 40
0.0
 40
0.0
 40
0.0
 40
0.1846151286692115
 40
0.3165458289295859
 40
0.4833560381066855
 40
0.6686068699303974
 40
0.8408262543445869
 40
1.0
 40
1.0
 40
1.0
 40
1.0
 10
402.603221404143
 20
177.4310836101232
 30
0.0
 10
402.7386581756217
 20
177.465459091043
 30
0.0
 10
402.9708815335031
 20
177.5244001712298
 30
0.0
 10
403.3197595382841
 20
177.563246175827
 30
0.0
 10
403.6601351458218
 20
177.5673817273281
 30
0.0
 10
404.0101648612261
 20
177.5213336161252
 30
0.0
 10
404.332735287225
 20
177.4303540822885
 30
0.0
 10
404.5153424396495
 20
177.3361984881093
 30
0.0
 10
404.6030517546517
 20
177.2909739579666
 30
0.0
  0
ARC
  5
21F
330
1F
100
AcDbEntity
  8
0
  6
Continuous
 62
     7
370
    25
100
AcDbCircle
 10
405.0359903984
 20
175.0670961698
 30
0.0
 40
0.9850010778543136
100
AcDbArc
 50
293.6834295214
 51
355.1276297527
  0
SPLINE
  5
220
330
1F
100
AcDbEntity
  8
0
  6
Continuous
 62
     7
370
    25
100
AcDbSpline
210
0.0
220
0.0
230
1.0
 70
     8
 71
     3
 72
    18
 73
    14
 74
     0
 42
0.00000001
 43
0.00000001
 40
0.0
 40
0.0
 40
0.0
 40
0.0
 40
0.0666723144798793
 40
0.1357160772415656
 40
0.2071398141053061
 40
0.2809512203314534
 40
0.3571572620283245
 40
0.4357642628435345
 40
0.5167779783735065
 40
0.5972851802648013
 40
0.6835951346299347
 40
0.8154552699469675
 40
1.0
 40
1.0
 40
1.0
 40
1.0
 10
207.5631513573397
 20
177.2909404163742
 30
0.0
 10
207.5991569811129
 20
177.3107816972332
 30
0.0
 10
207.6724489022836
 20
177.351169987735
 30
0.0
 10
207.7911240417156
 20
177.4037822181216
 30
0.0
 10
207.918696608516
 20
177.4509248832175
 30
0.0
 10
208.0557679476879
 20
177.4910621983861
 30
0.0
 10
208.2021981274534
 20
177.5234833937359
 30
0.0
 10
208.3579671614689
 20
177.5472473662358
 30
0.0
 10
208.5209531372924
 20
177.5612941945702
 30
0.0
 10
208.6930961980808
 20
177.5653202903261
 30
0.0
 10
208.9045427638725
 20
177.5566898866718
 30
0.0
 10
209.1954256005308
 20
177.5244402745225
 30
0.0
 10
209.4276336353226
 20
177.465475254687
 30
0.0
 10
209.5630701402155
 20
177.4310836101231
 30
0.0
  0
ARC
  5
221
330
1F
100
AcDbEntity
  8
0
  6
Continuous
 62
     7
370
    25
100
AcDbCircle
 10
207.1052310788
 20
175.0493057414
 30
0.0
 40
0.9587691654182384
100
AcDbArc
 50
184.0503672556
 51
247.2615653945
  0
SPLINE
  5
222
330
1F
100
AcDbEntity
  8
0
  6
Continuous
 62
     7
370
    25
100
AcDbSpline
210
0.0
220
0.0
230
1.0
 70
     8
 71
     3
 72
    13
 73
     9
 74
     0
 42
0.00000001
 43
0.00000001
 40
0.0
 40
0.0
 40
0.0
 40
0.0
 40
0.1846272243522408
 40
0.3165463022219697
 40
0.4833567677938404
 40
0.6686236045575872
 40
0.8408432536806559
 40
1.0
 40
1.0
 40
1.0
 40
1.0
 10
306.0831457721791
 20
233.1509372420225
 30
0.0
 10
306.1509505013691
 20
233.2243628189724
 30
0.0
 10
306.2672027841706
 20
233.3502521343406
 30
0.0
 10
306.4413618745182
 20
233.489959614488
 30
0.0
 10
306.6115777712201
 20
233.5923278651791
 30
0.0
 10
306.7868348357414
 20
233.6471759407804
 30
0.0
 10
306.9481003883341
 20
233.6493094982417
 30
0.0
 10
307.0392712967085
 20
233.607937369617
 30
0.0
 10
307.0830597660607
 20
233.5880667527875
 30
0.0
  0
SPLINE
  5
223
330
1F
100
AcDbEntity
  8
0
  6
Continuous
 62
     7
370
    25
100
AcDbSpline
210
0.0
220
0.0
230
1.0
 70
     8
 71
     3
 72
    13
 73
     9
 74
     0
 42
0.00000001
 43
0.00000001
 40
0.0
 40
0.0
 40
0.0
 40
0.0
 40
0.1591724682158145
 40
0.3313921142865368
 40
0.5166432275222632
 40
0.6834536901376306
 40
0.8153845890905663
 40
1.0
 40
1.0
 40
1.0
 40
1.0
 10
305.0832317784362
 20
233.5880667511314
 30
0.0
 10
305.1270244152261
 20
233.607938756478
 30
0.0
 10
305.2181993191442
 20
233.649311651808
 30
0.0
 10
305.3794677531309
 20
233.6471737244108
 30
0.0
 10
305.5547191270994
 20
233.5923244708509
 30
0.0
 10
305.7249338892331
 20
233.4899571492604
 30
0.0
 10
305.8990929789298
 20
233.3502480633876
 30
0.0
 10
306.0153453384141
 20
233.2243583507383
 30
0.0
 10
306.0831457721791
 20
233.1509372420225
 30
0.0
  0
LINE
  5
224
330
1F
100
AcDbEntity
  8
0
  6
Continuous
 62
     7
370
    25
100
AcDbLine
 10
53.5292403886
 20
45.9499485999
 30
0.0
 11
190.0292403886
 21
45.9499485999
 31
0.0
  0
SPLINE
  5
225
330
1F
100
AcDbEntity
  8
0
  6
Continuous
 62
     7
370
    25
100
AcDbSpline
210
0.0
220
0.0
230
1.0
 70
    24
 71
     3
 72
    14
 73
    10
 74
     0
 42
0.00000001
 43
0.00000001
 40
0.0
 40
0.0
 40
0.0
 40
0.0
 40
0.25
 40
0.25
 40
0.5
 40
0.5
 40
0.75
 40
0.75
 40
1.0
 40
1.0
 40
1.0
 40
1.0
 10
190.0292403886408
 20
45.94994859992099
 30
0.0
 10
190.1601636752311
 20
45.5571787401501
 30
0.0
 10
190.290988283875
 20
45.16470491421835
 30
0.0
 10
190.5328593581368
 20
44.43909169143309
 30
0.0
 10
190.6437871189
 20
44.10630840914302
 30
0.0
 10
190.8289072207547
 20
43.55094810357965
 30
0.0
 10
190.9030267842772
 20
43.32858941301127
 30
0.0
 10
191.0032130580271
 20
43.02803059176301
 30
0.0
 10
191.029240388608
 20
42.949948599921
 30
0.0
 10
191.0292403886408
 20
42.949948599921
 30
0.0
  0
LINE
  5
226
330
1F
100
AcDbEntity
  8
0
  6
Continuous
 62
     7
370
    25
100
AcDbLine
 10
191.0292403886
 20
42.9499485999
 30
0.0
 11
52.5292403886
 21
42.9499485999
 31
0.0
  0
SPLINE
  5
227
330
1F
100
AcDbEntity
  8
0
  6
Continuous
 62
     7
370
    25
100
AcDbSpline
210
0.0
220
0.0
230
1.0
 70
     8
 71
     3
 72
    23
 73
    19
 74
     0
 42
0.00000001
 43
0.00000001
 40
0.0
 40
0.0
 40
0.0
 40
0.0
 40
0.0342948755680967
 40
0.0656087191435276
 40
0.0939414163326083
 40
0.1192928774556844
 40
0.1416630433788807
 40
0.1610518958288846
 40
0.204951027679532
 40
0.2459162177403319
 40
0.384589552320542
 40
0.5084365219442372
 40
0.6405443181284481
 40
0.7656393368217987
 40
0.8249484017565757
 40
0.8837419651567044
 40
0.9420740573249942
 40
1.0
 40
1.0
 40
1.0
 40
1.0
 10
53.52924038864082
 20
45.94994859992099
 30
0.0
 10
53.51176828580065
 20
45.89749624236305
 30
0.0
 10
53.47834281715269
 20
45.79715087185428
 30
0.0
 10
53.43064008140971
 20
45.65380139685397
 30
0.0
 10
53.38761263937228
 20
45.52465159090201
 30
0.0
 10
53.34927098757236
 20
45.40972716642465
 30
0.0
 10
53.31560477524333
 20
45.30894517948088
 30
0.0
 10
53.2729444440361
 20
45.18112411183335
 30
0.0
 10
53.22167017746815
 20
45.02718732845349
 30
0.0
 10
53.11375096034158
 20
44.70359870796604
 30
0.0
 10
52.9744892232799
 20
44.28459700291225
 30
0.0
 10
52.81444517523967
 20
43.80599943743109
 30
0.0
 10
52.68749358085658
 20
43.42405523047617
 30
0.0
 10
52.60942426966731
 20
43.19062762025231
 30
0.0
 10
52.56736194244336
 20
43.06421037148311
 30
0.0
 10
52.54550537313528
 20
42.99854810233958
 30
0.0
 10
52.53179853514843
 20
42.95753533339583
 30
0.0
 10
52.53009111584356
 20
42.9524716143487
 30
0.0
 10
52.52924038864082
 20
42.94994859992099
 30
0.0
  0
LINE
  5
228
330
1F
100
AcDbEntity
  8
0
  6
Continuous
 62
     7
370
    25
100
AcDbLine
 10
50.5292403886
 20
44.9499485999
 30
0.0
 11
50.5292403886
 21
183.4499485999
 31
0.0
  0
SPLINE
  5
229
330
1F
100
AcDbEntity
  8
0
  6
Continuous
 62
     7
370
    25
100
AcDbSpline
210
0.0
220
0.0
230
1.0
 70
    24
 71
     3
 72
    14
 73
    10
 74
     0
 42
0.00000001
 43
0.00000001
 40
0.0
 40
0.0
 40
0.0
 40
0.0
 40
0.25
 40
0.25
 40
0.5
 40
0.5
 40
0.75
 40
0.75
 40
1.0
 40
1.0
 40
1.0
 40
1.0
 10
50.52924038864082
 20
183.449948599921
 30
0.0
 10
50.52924038864082
 20
183.4499485998882
 30
0.0
 10
50.60732238048282
 20
183.4239212693073
 30
0.0
 10
50.90788120173109
 20
183.3237349955573
 30
0.0
 10
51.13023989229941
 20
183.2496154320349
 30
0.0
 10
51.68560019786297
 20
183.0644953301802
 30
0.0
 10
52.01838348015291
 20
182.9535675694169
 30
0.0
 10
52.74399670293817
 20
182.7116964951552
 30
0.0
 10
53.13647052886991
 20
182.5808718865113
 30
0.0
 10
53.52924038864081
 20
182.449948599921
 30
0.0
  0
LINE
  5
22A
330
1F
100
AcDbEntity
  8
0
  6
Continuous
 62
     7
370
    25
100
AcDbLine
 10
53.5292403886
 20
182.4499485999
 30
0.0
 11
53.5292403886
 21
45.9499485999
 31
0.0
  0
SPLINE
  5
22B
330
1F
100
AcDbEntity
  8
0
  6
Continuous
 62
     7
370
    25
100
AcDbSpline
210
0.0
220
0.0
230
1.0
 70
     8
 71
     3
 72
    22
 73
    18
 74
     0
 42
0.00000001
 43
0.00000001
 40
0.0
 40
0.0
 40
0.0
 40
0.0
 40
0.0330617599465551
 40
0.0662490712289365
 40
0.0995723988381084
 40
0.133042080176366
 40
0.16666831766585
 40
0.200461171927181
 40
0.2344305555380825
 40
0.3595196279602445
 40
0.4916395659602593
 40
0.6154805449903815
 40
0.7541661895118981
 40
0.7951233290558883
 40
0.8390325559893949
 40
0.9061149278986302
 40
1.0
 40
1.0
 40
1.0
 40
1.0
 10
50.5292403886408
 20
44.94994859992101
 30
0.0
 10
50.53006094209412
 20
44.95022545724662
 30
0.0
 10
50.53170516503523
 20
44.95078022325773
 30
0.0
 10
50.54502643204354
 20
44.95524894973314
 30
0.0
 10
50.56635660301524
 20
44.96237633995032
 30
0.0
 10
50.59650546088398
 20
44.97242658167935
 30
0.0
 10
50.63526046183908
 20
44.98532739176843
 30
0.0
 10
50.68266215117689
 20
45.00110199105903
 30
0.0
 10
50.78852226802892
 20
45.03635010116272
 30
0.0
 10
51.00337221613255
 20
45.10821174962852
 30
0.0
 10
51.3852625147667
 20
45.2351435635133
 30
0.0
 10
51.8638809338811
 20
45.39519435853268
 30
0.0
 10
52.28286009643508
 20
45.53444966922153
 30
0.0
 10
52.60647068094562
 20
45.64237496569018
 30
0.0
 10
52.83079801061988
 20
45.7170989034642
 30
0.0
 10
53.13912683448432
 20
45.82013156742426
 30
0.0
 10
53.38552652731244
 20
45.9021253269085
 30
0.0
 10
53.52924038864081
 20
45.94994859992101
 30
0.0
  0
LINE
  5
22C
330
1F
100
AcDbEntity
  8
0
  6
Continuous
 62
     7
370
    25
100
AcDbLine
 10
190.0292403886
 20
182.4499485999
 30
0.0
 11
53.5292403886
 21
182.4499485999
 31
0.0
  0
LINE
  5
22D
330
1F
100
AcDbEntity
  8
0
  6
Continuous
 62
     7
370
    25
100
AcDbLine
 10
190.0292403886
 20
45.9499485999
 30
0.0
 11
190.0292403886
 21
182.4499485999
 31
0.0
  0
ARC
  5
22E
330
1F
100
AcDbEntity
  8
0
  6
Continuous
 62
     7
370
    25
100
AcDbCircle
 10
121.7792403886
 20
114.1999485999
 30
0.0
 40
52.25
100
AcDbArc
 50
90.0
 51
270.0
  0
ARC
  5
22F
330
1F
100
AcDbEntity
  8
0
  6
Continuous
 62
     7
370
    25
100
AcDbCircle
 10
121.7792403886
 20
114.1999485999
 30
0.0
 40
52.25
100
AcDbArc
 50
270.0
 51
90.0
  0
ARC
  5
230
330
1F
100
AcDbEntity
  8
0
  6
Continuous
 62
     7
370
    25
100
AcDbCircle
 10
185.2792403886
 20
114.1999485999
 30
0.0
 40
4.000000000000014
100
AcDbArc
 50
90.0
 51
270.0
  0
ARC
  5
231
330
1F
100
AcDbEntity
  8
0
  6
Continuous
 62
     7
370
    25
100
AcDbCircle
 10
185.2792403886
 20
114.1999485999
 30
0.0
 40
4.000000000000014
100
AcDbArc
 50
270.0
 51
90.0
  0
LINE
  5
232
330
1F
100
AcDbEntity
  8
0
  6
Continuous
 62
     7
370
    25
100
AcDbLine
 10
179.1866604878
 20
76.591518374
 30
0.0
 11
172.1509480149
 21
83.6272308468
 31
0.0
  0
ARC
  5
233
330
1F
100
AcDbEntity
  8
0
  6
Continuous
 62
     7
370
    25
100
AcDbCircle
 10
182.0150876125
 20
79.4199454988
 30
0.0
 40
4.000000000000014
100
AcDbArc
 50
225.0
 51
270.0
  0
ARC
  5
234
330
1F
100
AcDbEntity
  8
0
  6
Continuous
 62
     7
370
    25
100
AcDbCircle
 10
182.0150876125
 20
79.4199454988
 30
0.0
 40
4.000000000000014
100
AcDbArc
 50
270.0
 51
45.0
  0
LINE
  5
235
330
1F
100
AcDbEntity
  8
0
  6
Continuous
 62
     7
370
    25
100
AcDbLine
 10
177.8078022644
 20
89.2840850963
 30
0.0
 11
184.8435147372
 21
82.2483726235
 31
0.0
  0
ARC
  5
236
330
1F
100
AcDbEntity
  8
0
  6
Continuous
 62
     7
370
    25
100
AcDbCircle
 10
174.9793751397
 20
86.4556579716
 30
0.0
 40
4.000000000000032
100
AcDbArc
 50
45.0
 51
225.0
  0
LINE
  5
237
330
1F
100
AcDbEntity
  8
0
  6
Continuous
 62
     7
370
    25
100
AcDbLine
 10
89.8276644122
 20
177.2642229485
 30
0.0
 11
96.863376885
 21
170.2285104757
 31
0.0
  0
ARC
  5
238
330
1F
100
AcDbEntity
  8
0
  6
Continuous
 62
     7
370
    25
100
AcDbCircle
 10
86.9992372875
 20
174.4357958238
 30
0.0
 40
3.999999999999992
100
AcDbArc
 50
45.0
 51
225.0
  0
LINE
  5
239
330
1F
100
AcDbEntity
  8
0
  6
Continuous
 62
     7
370
    25
100
AcDbLine
 10
91.2065226356
 20
164.5716562262
 30
0.0
 11
84.1708101628
 21
171.607368699
 31
0.0
  0
ARC
  5
23A
330
1F
100
AcDbEntity
  8
0
  6
Continuous
 62
     7
370
    25
100
AcDbCircle
 10
94.0349497603
 20
167.400083351
 30
0.0
 40
4.000000000000022
100
AcDbArc
 50
225.0
 51
270.0
  0
ARC
  5
23B
330
1F
100
AcDbEntity
  8
0
  6
Continuous
 62
     7
370
    25
100
AcDbCircle
 10
94.0349497603
 20
167.400083351
 30
0.0
 40
4.000000000000012
100
AcDbArc
 50
270.0
 51
45.0
  0
LINE
  5
23C
330
1F
100
AcDbEntity
  8
0
  6
Continuous
 62
     7
370
    25
100
AcDbLine
 10
65.3576675134
 20
176.2783757247
 30
0.0
 11
82.1812606422
 21
159.4547825959
 31
0.0
  0
ARC
  5
23D
330
1F
100
AcDbEntity
  8
0
  6
Continuous
 62
     7
370
    25
100
AcDbCircle
 10
62.5292403886
 20
173.4499485999
 30
0.0
 40
4.000000000000028
100
AcDbArc
 50
45.0
 51
225.0
  0
LINE
  5
23E
330
1F
100
AcDbEntity
  8
0
  6
Continuous
 62
     7
370
    25
100
AcDbLine
 10
76.5244063927
 20
153.7979283464
 30
0.0
 11
59.7008132639
 21
170.6215214752
 31
0.0
  0
ARC
  5
23F
330
1F
100
AcDbEntity
  8
0
  6
Continuous
 62
     7
370
    25
100
AcDbCircle
 10
79.3528335174
 20
156.6263554711
 30
0.0
 40
3.999999999999972
100
AcDbArc
 50
225.0
 51
270.0
  0
ARC
  5
240
330
1F
100
AcDbEntity
  8
0
  6
Continuous
 62
     7
370
    25
100
AcDbCircle
 10
79.3528335174
 20
156.6263554711
 30
0.0
 40
3.999999999999982
100
AcDbArc
 50
270.0
 51
45.0
  0
ARC
  5
241
330
1F
100
AcDbEntity
  8
0
  6
Continuous
 62
     7
370
    25
100
AcDbCircle
 10
156.5592434898
 20
174.4357958238
 30
0.0
 40
3.999999999999992
100
AcDbArc
 50
315.0
 51
135.0
  0
LINE
  5
242
330
1F
100
AcDbEntity
  8
0
  6
Continuous
 62
     7
370
    25
100
AcDbLine
 10
153.730816365
 20
177.2642229485
 30
0.0
 11
146.6951038922
 21
170.2285104757
 31
0.0
  0
ARC
  5
243
330
1F
100
AcDbEntity
  8
0
  6
Continuous
 62
     7
370
    25
100
AcDbCircle
 10
149.523531017
 20
167.400083351
 30
0.0
 40
4.0
100
AcDbArc
 50
135.0
 51
270.0
  0
ARC
  5
244
330
1F
100
AcDbEntity
  8
0
  6
Continuous
 62
     7
370
    25
100
AcDbCircle
 10
149.523531017
 20
167.400083351
 30
0.0
 40
4.000000000000032
100
AcDbArc
 50
270.0
 51
315.0
  0
LINE
  5
245
330
1F
100
AcDbEntity
  8
0
  6
Continuous
 62
     7
370
    25
100
AcDbLine
 10
152.3519581417
 20
164.5716562262
 30
0.0
 11
159.3876706145
 21
171.607368699
 31
0.0
  0
ARC
  5
246
330
1F
100
AcDbEntity
  8
0
  6
Continuous
 62
     7
370
    25
100
AcDbCircle
 10
182.0150876125
 20
148.9799517011
 30
0.0
 40
4.000000000000012
100
AcDbArc
 50
315.0
 51
135.0
  0
LINE
  5
247
330
1F
100
AcDbEntity
  8
0
  6
Continuous
 62
     7
370
    25
100
AcDbLine
 10
179.1866604878
 20
151.8083788258
 30
0.0
 11
172.1509480149
 21
144.772666353
 31
0.0
  0
ARC
  5
248
330
1F
100
AcDbEntity
  8
0
  6
Continuous
 62
     7
370
    25
100
AcDbCircle
 10
174.9793751397
 20
141.9442392283
 30
0.0
 40
4.0
100
AcDbArc
 50
135.0
 51
270.0
  0
ARC
  5
249
330
1F
100
AcDbEntity
  8
0
  6
Continuous
 62
     7
370
    25
100
AcDbCircle
 10
174.9793751397
 20
141.9442392283
 30
0.0
 40
4.0
100
AcDbArc
 50
270.0
 51
315.0
  0
LINE
  5
24A
330
1F
100
AcDbEntity
  8
0
  6
Continuous
 62
     7
370
    25
100
AcDbLine
 10
177.8078022644
 20
139.1158121035
 30
0.0
 11
184.8435147372
 21
146.1515245763
 31
0.0
  0
ARC
  5
24B
330
1F
100
AcDbEntity
  8
0
  6
Continuous
 62
     7
370
    25
100
AcDbCircle
 10
181.0292403886
 20
173.4499485999
 30
0.0
 40
4.000000000000032
100
AcDbArc
 50
315.0
 51
135.0
  0
LINE
  5
24C
330
1F
100
AcDbEntity
  8
0
  6
Continuous
 62
     7
370
    25
100
AcDbLine
 10
178.2008132639
 20
176.2783757247
 30
0.0
 11
161.3772201351
 21
159.4547825959
 31
0.0
  0
ARC
  5
24D
330
1F
100
AcDbEntity
  8
0
  6
Continuous
 62
     7
370
    25
100
AcDbCircle
 10
164.2056472598
 20
156.6263554711
 30
0.0
 40
3.999999999999972
100
AcDbArc
 50
135.0
 51
270.0
  0
ARC
  5
24E
330
1F
100
AcDbEntity
  8
0
  6
Continuous
 62
     7
370
    25
100
AcDbCircle
 10
164.2056472598
 20
156.6263554711
 30
0.0
 40
3.999999999999972
100
AcDbArc
 50
270.0
 51
315.0
  0
LINE
  5
24F
330
1F
100
AcDbEntity
  8
0
  6
Continuous
 62
     7
370
    25
100
AcDbLine
 10
167.0340743846
 20
153.7979283464
 30
0.0
 11
183.8576675134
 21
170.6215214752
 31
0.0
  0
LINE
  5
250
330
1F
100
AcDbEntity
  8
0
  6
Continuous
 62
     7
370
    25
100
AcDbLine
 10
64.3718202895
 20
151.8083788258
 30
0.0
 11
71.4075327623
 21
144.772666353
 31
0.0
  0
ARC
  5
251
330
1F
100
AcDbEntity
  8
0
  6
Continuous
 62
     7
370
    25
100
AcDbCircle
 10
61.5433931648
 20
148.9799517011
 30
0.0
 40
4.000000000000022
100
AcDbArc
 50
45.0
 51
225.0
  0
LINE
  5
252
330
1F
100
AcDbEntity
  8
0
  6
Continuous
 62
     7
370
    25
100
AcDbLine
 10
65.7506785128
 20
139.1158121035
 30
0.0
 11
58.71496604
 21
146.1515245763
 31
0.0
  0
ARC
  5
253
330
1F
100
AcDbEntity
  8
0
  6
Continuous
 62
     7
370
    25
100
AcDbCircle
 10
68.5791056376
 20
141.9442392283
 30
0.0
 40
4.000000000000032
100
AcDbArc
 50
225.0
 51
270.0
  0
ARC
  5
254
330
1F
100
AcDbEntity
  8
0
  6
Continuous
 62
     7
370
    25
100
AcDbCircle
 10
68.5791056376
 20
141.9442392283
 30
0.0
 40
4.0
100
AcDbArc
 50
270.0
 51
45.0
  0
ARC
  5
255
330
1F
100
AcDbEntity
  8
0
  6
Continuous
 62
     7
370
    25
100
AcDbCircle
 10
62.5292403886
 20
54.9499485999
 30
0.0
 40
4.000000000000012
100
AcDbArc
 50
135.0
 51
270.0
  0
ARC
  5
256
330
1F
100
AcDbEntity
  8
0
  6
Continuous
 62
     7
370
    25
100
AcDbCircle
 10
62.5292403886
 20
54.9499485999
 30
0.0
 40
4.000000000000012
100
AcDbArc
 50
270.0
 51
315.0
  0
LINE
  5
257
330
1F
100
AcDbEntity
  8
0
  6
Continuous
 62
     7
370
    25
100
AcDbLine
 10
65.3576675134
 20
52.1215214752
 30
0.0
 11
82.1812606422
 21
68.945114604
 31
0.0
  0
ARC
  5
258
330
1F
100
AcDbEntity
  8
0
  6
Continuous
 62
     7
370
    25
100
AcDbCircle
 10
79.3528335174
 20
71.7735417287
 30
0.0
 40
3.999999999999982
100
AcDbArc
 50
315.0
 51
135.0
  0
LINE
  5
259
330
1F
100
AcDbEntity
  8
0
  6
Continuous
 62
     7
370
    25
100
AcDbLine
 10
76.5244063927
 20
74.6019688535
 30
0.0
 11
59.7008132639
 21
57.7783757247
 31
0.0
  0
ARC
  5
25A
330
1F
100
AcDbEntity
  8
0
  6
Continuous
 62
     7
370
    25
100
AcDbCircle
 10
61.5433931648
 20
79.4199454988
 30
0.0
 40
4.000000000000014
100
AcDbArc
 50
135.0
 51
270.0
  0
ARC
  5
25B
330
1F
100
AcDbEntity
  8
0
  6
Continuous
 62
     7
370
    25
100
AcDbCircle
 10
61.5433931648
 20
79.4199454988
 30
0.0
 40
4.000000000000022
100
AcDbArc
 50
270.0
 51
315.0
  0
LINE
  5
25C
330
1F
100
AcDbEntity
  8
0
  6
Continuous
 62
     7
370
    25
100
AcDbLine
 10
64.3718202895
 20
76.591518374
 30
0.0
 11
71.4075327623
 21
83.6272308468
 31
0.0
  0
ARC
  5
25D
330
1F
100
AcDbEntity
  8
0
  6
Continuous
 62
     7
370
    25
100
AcDbCircle
 10
68.5791056376
 20
86.4556579716
 30
0.0
 40
3.999999999999992
100
AcDbArc
 50
315.0
 51
135.0
  0
LINE
  5
25E
330
1F
100
AcDbEntity
  8
0
  6
Continuous
 62
     7
370
    25
100
AcDbLine
 10
65.7506785128
 20
89.2840850963
 30
0.0
 11
58.71496604
 21
82.2483726235
 31
0.0
  0
ARC
  5
25F
330
1F
100
AcDbEntity
  8
0
  6
Continuous
 62
     7
370
    25
100
AcDbCircle
 10
86.9992372875
 20
53.9641013761
 30
0.0
 40
3.999999999999993
100
AcDbArc
 50
135.0
 51
270.0
  0
ARC
  5
260
330
1F
100
AcDbEntity
  8
0
  6
Continuous
 62
     7
370
    25
100
AcDbCircle
 10
86.9992372875
 20
53.9641013761
 30
0.0
 40
4.000000000000002
100
AcDbArc
 50
270.0
 51
315.0
  0
LINE
  5
261
330
1F
100
AcDbEntity
  8
0
  6
Continuous
 62
     7
370
    25
100
AcDbLine
 10
89.8276644122
 20
51.1356742513
 30
0.0
 11
96.863376885
 21
58.1713867241
 31
0.0
  0
ARC
  5
262
330
1F
100
AcDbEntity
  8
0
  6
Continuous
 62
     7
370
    25
100
AcDbCircle
 10
94.0349497603
 20
60.9998138489
 30
0.0
 40
4.000000000000028
100
AcDbArc
 50
315.0
 51
135.0
  0
LINE
  5
263
330
1F
100
AcDbEntity
  8
0
  6
Continuous
 62
     7
370
    25
100
AcDbLine
 10
91.2065226356
 20
63.8282409736
 30
0.0
 11
84.1708101628
 21
56.7925285008
 31
0.0
  0
LINE
  5
264
330
1F
100
AcDbEntity
  8
0
  6
Continuous
 62
     7
370
    25
100
AcDbLine
 10
178.2008132639
 20
52.1215214752
 30
0.0
 11
161.3772201351
 21
68.945114604
 31
0.0
  0
ARC
  5
265
330
1F
100
AcDbEntity
  8
0
  6
Continuous
 62
     7
370
    25
100
AcDbCircle
 10
181.0292403886
 20
54.9499485999
 30
0.0
 40
4.000000000000022
100
AcDbArc
 50
225.0
 51
270.0
  0
ARC
  5
266
330
1F
100
AcDbEntity
  8
0
  6
Continuous
 62
     7
370
    25
100
AcDbCircle
 10
181.0292403886
 20
54.9499485999
 30
0.0
 40
4.000000000000007
100
AcDbArc
 50
270.0
 51
45.0
  0
LINE
  5
267
330
1F
100
AcDbEntity
  8
0
  6
Continuous
 62
     7
370
    25
100
AcDbLine
 10
167.0340743846
 20
74.6019688535
 30
0.0
 11
183.8576675134
 21
57.7783757247
 31
0.0
  0
ARC
  5
268
330
1F
100
AcDbEntity
  8
0
  6
Continuous
 62
     7
370
    25
100
AcDbCircle
 10
164.2056472598
 20
71.7735417287
 30
0.0
 40
3.999999999999972
100
AcDbArc
 50
45.0
 51
225.0
  0
LINE
  5
269
330
1F
100
AcDbEntity
  8
0
  6
Continuous
 62
     7
370
    25
100
AcDbLine
 10
153.730816365
 20
51.1356742513
 30
0.0
 11
146.6951038922
 21
58.1713867241
 31
0.0
  0
ARC
  5
26A
330
1F
100
AcDbEntity
  8
0
  6
Continuous
 62
     7
370
    25
100
AcDbCircle
 10
156.5592434898
 20
53.9641013761
 30
0.0
 40
4.000000000000002
100
AcDbArc
 50
225.0
 51
270.0
  0
ARC
  5
26B
330
1F
100
AcDbEntity
  8
0
  6
Continuous
 62
     7
370
    25
100
AcDbCircle
 10
156.5592434898
 20
53.9641013761
 30
0.0
 40
3.999999999999993
100
AcDbArc
 50
270.0
 51
45.0
  0
LINE
  5
26C
330
1F
100
AcDbEntity
  8
0
  6
Continuous
 62
     7
370
    25
100
AcDbLine
 10
152.3519581417
 20
63.8282409736
 30
0.0
 11
159.3876706145
 21
56.7925285008
 31
0.0
  0
ARC
  5
26D
330
1F
100
AcDbEntity
  8
0
  6
Continuous
 62
     7
370
    25
100
AcDbCircle
 10
149.523531017
 20
60.9998138489
 30
0.0
 40
4.000000000000022
100
AcDbArc
 50
45.0
 51
225.0
  0
ARC
  5
26E
330
1F
100
AcDbEntity
  8
0
  6
Continuous
 62
     7
370
    25
100
AcDbCircle
 10
58.2792403886
 20
114.1999485999
 30
0.0
 40
4.000000000000014
100
AcDbArc
 50
90.0
 51
270.0
  0
ARC
  5
26F
330
1F
100
AcDbEntity
  8
0
  6
Continuous
 62
     7
370
    25
100
AcDbCircle
 10
58.2792403886
 20
114.1999485999
 30
0.0
 40
4.000000000000014
100
AcDbArc
 50
270.0
 51
90.0
  0
SPLINE
  5
270
330
1F
100
AcDbEntity
  8
0
  6
Continuous
 62
     7
370
    25
100
AcDbSpline
210
0.0
220
0.0
230
1.0
 70
    24
 71
     3
 72
    14
 73
    10
 74
     0
 42
0.00000001
 43
0.00000001
 40
0.0
 40
0.0
 40
0.0
 40
0.0
 40
0.25
 40
0.25
 40
0.5
 40
0.5
 40
0.75
 40
0.75
 40
1.0
 40
1.0
 40
1.0
 40
1.0
 10
190.0292403886408
 20
182.449948599921
 30
0.0
 10
190.4220102484117
 20
182.5808718865113
 30
0.0
 10
190.8144840743434
 20
182.7116964951552
 30
0.0
 10
191.5400972971289
 20
182.9535675694169
 30
0.0
 10
191.8728805794188
 20
183.0644953301802
 30
0.0
 10
192.4282408849822
 20
183.2496154320349
 30
0.0
 10
192.6505995755507
 20
183.3237349955573
 30
0.0
 10
192.9511583967987
 20
183.4239212693073
 30
0.0
 10
193.0292403886408
 20
183.4499485998882
 30
0.0
 10
193.0292403886408
 20
183.449948599921
 30
0.0
  0
LINE
  5
271
330
1F
100
AcDbEntity
  8
0
  6
Continuous
 62
     7
370
    25
100
AcDbLine
 10
193.0292403886
 20
183.4499485999
 30
0.0
 11
193.0292403886
 21
44.9499485999
 31
0.0
  0
SPLINE
  5
272
330
1F
100
AcDbEntity
  8
0
  6
Continuous
 62
     7
370
    25
100
AcDbSpline
210
0.0
220
0.0
230
1.0
 70
     8
 71
     3
 72
    23
 73
    19
 74
     0
 42
0.00000001
 43
0.00000001
 40
0.0
 40
0.0
 40
0.0
 40
0.0
 40
0.0342948755680967
 40
0.0656087191435276
 40
0.0939414163326083
 40
0.1192928774556844
 40
0.1416630433788807
 40
0.1610518958288846
 40
0.204951027679532
 40
0.2459162177403319
 40
0.384589552320542
 40
0.5084365219442372
 40
0.6405443181284481
 40
0.7656393368217987
 40
0.8249484017565757
 40
0.8837419651567044
 40
0.9420740573249942
 40
1.0
 40
1.0
 40
1.0
 40
1.0
 10
190.0292403886408
 20
45.94994859992101
 30
0.0
 10
190.0816927461987
 20
45.93247649708083
 30
0.0
 10
190.1820381167075
 20
45.89905102843288
 30
0.0
 10
190.3253875917078
 20
45.8513482926899
 30
0.0
 10
190.4545373976598
 20
45.80832085065246
 30
0.0
 10
190.5694618221372
 20
45.76997919885255
 30
0.0
 10
190.6702438090809
 20
45.73631298652352
 30
0.0
 10
190.7980648767285
 20
45.69365265531629
 30
0.0
 10
190.9520016601084
 20
45.64237838874833
 30
0.0
 10
191.2755902805958
 20
45.53445917162177
 30
0.0
 10
191.6945919856496
 20
45.39519743456008
 30
0.0
 10
192.1731895511307
 20
45.23515338651985
 30
0.0
 10
192.5551337580856
 20
45.10820179213676
 30
0.0
 10
192.7885613683095
 20
45.03013248094751
 30
0.0
 10
192.9149786170787
 20
44.98807015372354
 30
0.0
 10
192.9806408862222
 20
44.96621358441546
 30
0.0
 10
193.021653655166
 20
44.95250674642862
 30
0.0
 10
193.0267173742131
 20
44.95079932712375
 30
0.0
 10
193.0292403886408
 20
44.94994859992101
 30
0.0
  0
LINE
  5
273
330
1F
100
AcDbEntity
  8
0
  6
Continuous
 62
     7
370
    25
100
AcDbLine
 10
52.5292403886
 20
185.4499485999
 30
0.0
 11
191.0292403886
 21
185.4499485999
 31
0.0
  0
SPLINE
  5
274
330
1F
100
AcDbEntity
  8
0
  6
Continuous
 62
     7
370
    25
100
AcDbSpline
210
0.0
220
0.0
230
1.0
 70
    24
 71
     3
 72
    14
 73
    10
 74
     0
 42
0.00000001
 43
0.00000001
 40
0.0
 40
0.0
 40
0.0
 40
0.0
 40
0.25
 40
0.25
 40
0.5
 40
0.5
 40
0.75
 40
0.75
 40
1.0
 40
1.0
 40
1.0
 40
1.0
 10
191.0292403886408
 20
185.449948599921
 30
0.0
 10
191.0292403886082
 20
185.449948599921
 30
0.0
 10
191.0032130580271
 20
185.371866608079
 30
0.0
 10
190.9030267842772
 20
185.0713077868307
 30
0.0
 10
190.8289072207547
 20
184.8489490962623
 30
0.0
 10
190.6437871189
 20
184.2935887906989
 30
0.0
 10
190.5328593581367
 20
183.9608055084089
 30
0.0
 10
190.2909882838752
 20
183.2351922856236
 30
0.0
 10
190.1601636752311
 20
182.8427184596919
 30
0.0
 10
190.0292403886408
 20
182.449948599921
 30
0.0
  0
SPLINE
  5
275
330
1F
100
AcDbEntity
  8
0
  6
Continuous
 62
     7
370
    25
100
AcDbSpline
210
0.0
220
0.0
230
1.0
 70
     8
 71
     3
 72
    22
 73
    18
 74
     0
 42
0.00000001
 43
0.00000001
 40
0.0
 40
0.0
 40
0.0
 40
0.0
 40
0.0330617600611079
 40
0.066249071419812
 40
0.0995723990670886
 40
0.1330420804052828
 40
0.1666683178566157
 40
0.200461172041825
 40
0.2344305555387822
 40
0.3595196282173834
 40
0.4916395659597811
 40
0.6154805454461726
 40
0.7541661895119873
 40
0.7951233299710422
 40
0.8390325559893622
 40
0.9061149282027439
 40
1.0
 40
1.0
 40
1.0
 40
1.0
 10
52.52924038864082
 20
185.449948599921
 30
0.0
 10
52.52951724596608
 20
185.4491280464621
 30
0.0
 10
52.53007201197617
 20
185.4474838235107
 30
0.0
 10
52.53454073844949
 20
185.4341625564307
 30
0.0
 10
52.54166812866531
 20
185.4128323853808
 30
0.0
 10
52.55171837039242
 20
185.3826835274531
 30
0.0
 10
52.56461918048105
 20
185.3439285264888
 30
0.0
 10
52.58039377976617
 20
185.29652683722
 30
0.0
 10
52.61564189002623
 20
185.1906667203108
 30
0.0
 10
52.68750353850766
 20
184.9758167722024
 30
0.0
 10
52.81443535250561
 20
184.5939264730353
 30
0.0
 10
52.97448614731854
 20
184.1153080540307
 30
0.0
 10
53.11374145856944
 20
183.6963288902044
 30
0.0
 10
53.22166675487786
 20
183.3727183062788
 30
0.0
 10
53.29639069278351
 20
183.1483909761139
 30
0.0
 10
53.39942335631112
 20
182.8400621536126
 30
0.0
 10
53.48141711578771
 20
182.5936624607841
 30
0.0
 10
53.52924038864082
 20
182.449948599921
 30
0.0
  0
ARC
  5
276
330
1F
100
AcDbEntity
  8
0
  6
Continuous
 62
     7
370
    25
100
AcDbCircle
 10
52.5292403886
 20
44.9499485999
 30
0.0
 40
1.999999999999993
100
AcDbArc
 50
180.0
 51
270.0
  0
ARC
  5
277
330
1F
100
AcDbEntity
  8
0
  6
Continuous
 62
     7
370
    25
100
AcDbCircle
 10
191.0292403886
 20
44.9499485999
 30
0.0
 40
1.999999999999993
100
AcDbArc
 50
270.0
 51
0.0
  0
ARC
  5
278
330
1F
100
AcDbEntity
  8
0
  6
Continuous
 62
     7
370
    25
100
AcDbCircle
 10
191.0292403886
 20
183.4499485999
 30
0.0
 40
1.999999999999972
100
AcDbArc
 50
0.0
 51
90.0
  0
ARC
  5
279
330
1F
100
AcDbEntity
  8
0
  6
Continuous
 62
     7
370
    25
100
AcDbCircle
 10
52.5292403886
 20
183.4499485999
 30
0.0
 40
1.999999999999993
100
AcDbArc
 50
90.0
 51
180.0
  0
LINE
  5
27A
330
1F
100
AcDbEntity
  8
0
  6
Continuous
 62
     7
370
    25
100
AcDbLine
 10
121.7792403886
 20
165.9499485999
 30
0.0
 11
121.7792403886
 21
166.4499485999
 31
0.0
  0
LINE
  5
27B
330
1F
100
AcDbEntity
  8
0
  6
Continuous
 62
     7
370
    25
100
AcDbLine
 10
121.7792403886
 20
62.4499485999
 30
0.0
 11
121.7792403886
 21
61.9499485999
 31
0.0
  0
ARC
  5
27C
330
1F
100
AcDbEntity
  8
0
  6
Continuous
 62
     7
370
    25
100
AcDbCircle
 10
121.7792403886
 20
114.1999485999
 30
0.0
 40
51.75
100
AcDbArc
 50
270.0
 51
90.0
  0
ARC
  5
27D
330
1F
100
AcDbEntity
  8
0
  6
Continuous
 62
     7
370
    25
100
AcDbCircle
 10
121.7792403886
 20
114.1999485999
 30
0.0
 40
51.75
100
AcDbArc
 50
90.0
 51
270.0
  0
LINE
  5
27E
330
1F
100
AcDbEntity
  8
0
  6
Continuous
 62
     7
370
    25
100
AcDbLine
 10
58.2792403886
 20
111.1999485999
 30
0.0
 11
58.2792403886
 21
110.1999485999
 31
0.0
  0
LINE
  5
27F
330
1F
100
AcDbEntity
  8
0
  6
Continuous
 62
     7
370
    25
100
AcDbLine
 10
58.2792403886
 20
117.1999485999
 30
0.0
 11
58.2792403886
 21
118.1999485999
 31
0.0
  0
ARC
  5
280
330
1F
100
AcDbEntity
  8
0
  6
Continuous
 62
     7
370
    25
100
AcDbCircle
 10
58.2792403886
 20
114.1999485999
 30
0.0
 40
3.0
100
AcDbArc
 50
90.0
 51
270.0
  0
ARC
  5
281
330
1F
100
AcDbEntity
  8
0
  6
Continuous
 62
     7
370
    25
100
AcDbCircle
 10
58.2792403886
 20
114.1999485999
 30
0.0
 40
3.0
100
AcDbArc
 50
270.0
 51
90.0
  0
LINE
  5
282
330
1F
100
AcDbEntity
  8
0
  6
Continuous
 62
     7
370
    25
100
AcDbLine
 10
185.2792403886
 20
111.1999485999
 30
0.0
 11
185.2792403886
 21
110.1999485999
 31
0.0
  0
LINE
  5
283
330
1F
100
AcDbEntity
  8
0
  6
Continuous
 62
     7
370
    25
100
AcDbLine
 10
185.2792403886
 20
117.1999485999
 30
0.0
 11
185.2792403886
 21
118.1999485999
 31
0.0
  0
ARC
  5
284
330
1F
100
AcDbEntity
  8
0
  6
Continuous
 62
     7
370
    25
100
AcDbCircle
 10
185.2792403886
 20
114.1999485999
 30
0.0
 40
3.0
100
AcDbArc
 50
90.0
 51
270.0
  0
ARC
  5
285
330
1F
100
AcDbEntity
  8
0
  6
Continuous
 62
     7
370
    25
100
AcDbCircle
 10
185.2792403886
 20
114.1999485999
 30
0.0
 40
3.0
100
AcDbArc
 50
270.0
 51
90.0
  0
LINE
  5
286
330
1F
100
AcDbEntity
  8
0
  6
CENTER
 62
     7
370
    25
100
AcDbLine
 10
198.7088022917
 20
114.1999485999
 30
0.0
 11
44.9071253912
 21
114.1999485999
 31
0.0
  0
LINE
  5
287
330
1F
100
AcDbEntity
  8
0
  6
Continuous
 62
     7
370
    25
100
AcDbLine
 10
196.7088022917
 20
104.1999485999
 30
0.0
 11
196.7088022917
 21
114.1999485999
 31
0.0
  0
SOLID
  5
288
330
1F
100
AcDbEntity
  8
0
  6
Continuous
 62
     7
370
    25
100
AcDbTrace
 10
196.7088022917
 20
114.1999485999
 30
0.0
 11
195.7088022917
 21
110.1999485999
 31
0.0
 12
197.7088022917
 22
110.1999485999
 32
0.0
 13
197.7088022917
 23
110.1999485999
 33
0.0
  0
LINE
  5
289
330
1F
100
AcDbEntity
  8
0
  6
Continuous
 62
     7
370
    25
100
AcDbLine
 10
46.9071253912
 20
104.1999485999
 30
0.0
 11
46.9071253912
 21
114.1999485999
 31
0.0
  0
SOLID
  5
28A
330
1F
100
AcDbEntity
  8
0
  6
Continuous
 62
     7
370
    25
100
AcDbTrace
 10
46.9071253912
 20
114.1999485999
 30
0.0
 11
45.9071253912
 21
110.1999485999
 31
0.0
 12
47.9071253912
 22
110.1999485999
 32
0.0
 13
47.9071253912
 23
110.1999485999
 33
0.0
  0
MTEXT
  5
28B
330
1F
100
AcDbEntity
  8
0
  6
Continuous
 62
     7
100
AcDbMText
 10
198.0262499396
 20
109.7153297482
 30
0.0
 40
3.5956461589
 41
0.0
 71
     1
 72
     1
  1
A
  7
SLDTEXTSTYLE0
 73
     1
 44
1.0
  0
MTEXT
  5
28C
330
1F
100
AcDbEntity
  8
0
  6
Continuous
 62
     7
100
AcDbMText
 10
42.2960586236
 20
109.7153297482
 30
0.0
 40
3.5956461589
 41
0.0
 71
     1
 72
     1
  1
A
  7
SLDTEXTSTYLE0
 73
     1
 44
1.0
  0
LINE
  5
28D
330
1F
100
AcDbEntity
  8
0
  6
Continuous
 62
     7
370
    25
100
AcDbLine
 10
52.5292403886
 20
222.7090361511
 30
0.0
 11
50.5292403886
 21
222.7090361511
 31
0.0
  0
LINE
  5
28E
330
1F
100
AcDbEntity
  8
0
  6
Continuous
 62
     7
370
    25
100
AcDbLine
 10
55.2792403886
 20
229.2090361511
 30
0.0
 11
54.2792403886
 21
230.2090361511
 31
0.0
  0
LINE
  5
28F
330
1F
100
AcDbEntity
  8
0
  6
Continuous
 62
     7
370
    25
100
AcDbLine
 10
55.2792403886
 20
228.2090361511
 30
0.0
 11
55.2792403886
 21
229.2090361511
 31
0.0
  0
LINE
  5
290
330
1F
100
AcDbEntity
  8
0
  6
Continuous
 62
     7
370
    25
100
AcDbLine
 10
55.2792403886
 20
228.2090361511
 30
0.0
 11
53.5292403886
 21
228.2090361511
 31
0.0
  0
ARC
  5
291
330
1F
100
AcDbEntity
  8
0
  6
Continuous
 62
     7
370
    25
100
AcDbCircle
 10
53.5292403886
 20
227.2090361511
 30
0.0
 40
1.0
100
AcDbArc
 50
90.0
 51
180.0
  0
LINE
  5
292
330
1F
100
AcDbEntity
  8
0
  6
Continuous
 62
     7
370
    25
100
AcDbLine
 10
52.5292403886
 20
227.2090361511
 30
0.0
 11
52.5292403886
 21
222.7090361511
 31
0.0
  0
LINE
  5
293
330
1F
100
AcDbEntity
  8
0
  6
Continuous
 62
     7
370
    25
100
AcDbLine
 10
54.2792403886
 20
230.2090361511
 30
0.0
 11
53.5292403886
 21
230.2090361511
 31
0.0
  0
ARC
  5
294
330
1F
100
AcDbEntity
  8
0
  6
Continuous
 62
     7
370
    25
100
AcDbCircle
 10
53.5292403886
 20
227.2090361511
 30
0.0
 40
3.0
100
AcDbArc
 50
90.0
 51
180.0
  0
LINE
  5
295
330
1F
100
AcDbEntity
  8
0
  6
Continuous
 62
     7
370
    25
100
AcDbLine
 10
50.5292403886
 20
227.2090361511
 30
0.0
 11
50.5292403886
 21
222.7090361511
 31
0.0
  0
LINE
  5
296
330
1F
100
AcDbEntity
  8
0
  6
Continuous
 62
     7
370
    25
100
AcDbLine
 10
188.2792403886
 20
229.2090361511
 30
0.0
 11
188.2792403886
 21
228.2090361511
 31
0.0
  0
LINE
  5
297
330
1F
100
AcDbEntity
  8
0
  6
Continuous
 62
     7
370
    25
100
AcDbLine
 10
189.2792403886
 20
230.2090361511
 30
0.0
 11
188.2792403886
 21
229.2090361511
 31
0.0
  0
LINE
  5
298
330
1F
100
AcDbEntity
  8
0
  6
Continuous
 62
     7
370
    25
100
AcDbLine
 10
193.0292403886
 20
222.7090361511
 30
0.0
 11
191.0292403886
 21
222.7090361511
 31
0.0
  0
LINE
  5
299
330
1F
100
AcDbEntity
  8
0
  6
Continuous
 62
     7
370
    25
100
AcDbLine
 10
191.0292403886
 20
222.7090361511
 30
0.0
 11
191.0292403886
 21
227.2090361511
 31
0.0
  0
ARC
  5
29A
330
1F
100
AcDbEntity
  8
0
  6
Continuous
 62
     7
370
    25
100
AcDbCircle
 10
190.0292403886
 20
227.2090361511
 30
0.0
 40
1.0
100
AcDbArc
 50
0.0
 51
90.0
  0
LINE
  5
29B
330
1F
100
AcDbEntity
  8
0
  6
Continuous
 62
     7
370
    25
100
AcDbLine
 10
190.0292403886
 20
228.2090361511
 30
0.0
 11
188.2792403886
 21
228.2090361511
 31
0.0
  0
LINE
  5
29C
330
1F
100
AcDbEntity
  8
0
  6
Continuous
 62
     7
370
    25
100
AcDbLine
 10
190.0292403886
 20
230.2090361511
 30
0.0
 11
189.2792403886
 21
230.2090361511
 31
0.0
  0
ARC
  5
29D
330
1F
100
AcDbEntity
  8
0
  6
Continuous
 62
     7
370
    25
100
AcDbCircle
 10
190.0292403886
 20
227.2090361511
 30
0.0
 40
3.0
100
AcDbArc
 50
0.0
 51
90.0
  0
LINE
  5
29E
330
1F
100
AcDbEntity
  8
0
  6
Continuous
 62
     7
370
    25
100
AcDbLine
 10
193.0292403886
 20
222.7090361511
 30
0.0
 11
193.0292403886
 21
227.2090361511
 31
0.0
  0
LINE
  5
29F
330
1F
100
AcDbEntity
  8
0
  6
Continuous
 62
     7
370
    25
100
AcDbLine
 10
173.5292403886
 20
229.7090361511
 30
0.0
 11
173.5292403886
 21
228.2090361511
 31
0.0
  0
ARC
  5
2A0
330
1F
100
AcDbEntity
  8
0
  6
Continuous
 62
     7
370
    25
100
AcDbCircle
 10
174.0292403886
 20
229.7090361511
 30
0.0
 40
0.5000000000000284
100
AcDbArc
 50
90.0
 51
180.0
  0
LINE
  5
2A1
330
1F
100
AcDbEntity
  8
0
  6
Continuous
 62
     7
370
    25
100
AcDbLine
 10
182.2792403886
 20
229.2090361511
 30
0.0
 11
181.2792403886
 21
230.2090361511
 31
0.0
  0
LINE
  5
2A2
330
1F
100
AcDbEntity
  8
0
  6
Continuous
 62
     7
370
    25
100
AcDbLine
 10
182.2792403886
 20
228.2090361511
 30
0.0
 11
182.2792403886
 21
229.2090361511
 31
0.0
  0
LINE
  5
2A3
330
1F
100
AcDbEntity
  8
0
  6
Continuous
 62
     7
370
    25
100
AcDbLine
 10
182.2792403886
 20
228.2090361511
 30
0.0
 11
173.5292403886
 21
228.2090361511
 31
0.0
  0
LINE
  5
2A4
330
1F
100
AcDbEntity
  8
0
  6
Continuous
 62
     7
370
    25
100
AcDbLine
 10
181.2792403886
 20
230.2090361511
 30
0.0
 11
174.0292403886
 21
230.2090361511
 31
0.0
  0
LINE
  5
2A5
330
1F
100
AcDbEntity
  8
0
  6
Continuous
 62
     7
370
    25
100
AcDbLine
 10
121.7792403886
 20
228.2090361511
 30
0.0
 11
173.5292403886
 21
228.2090361511
 31
0.0
  0
LINE
  5
2A6
330
1F
100
AcDbEntity
  8
0
  6
Continuous
 62
     7
370
    25
100
AcDbLine
 10
121.7792403886
 20
228.2090361511
 30
0.0
 11
121.7792403886
 21
229.7090361511
 31
0.0
  0
LINE
  5
2A7
330
1F
100
AcDbEntity
  8
0
  6
Continuous
 62
     7
370
    25
100
AcDbLine
 10
173.5292403886
 20
229.7090361511
 30
0.0
 11
121.7792403886
 21
229.7090361511
 31
0.0
  0
LINE
  5
2A8
330
1F
100
AcDbEntity
  8
0
  6
Continuous
 62
     7
370
    25
100
AcDbLine
 10
188.2792403886
 20
228.2090361511
 30
0.0
 11
185.2792403886
 21
228.2090361511
 31
0.0
  0
LINE
  5
2A9
330
1F
100
AcDbEntity
  8
0
  6
Continuous
 62
     7
370
    25
100
AcDbLine
 10
185.2792403886
 20
228.2090361511
 30
0.0
 11
185.2792403886
 21
229.2090361511
 31
0.0
  0
LINE
  5
2AA
330
1F
100
AcDbEntity
  8
0
  6
Continuous
 62
     7
370
    25
100
AcDbLine
 10
188.2792403886
 20
229.2090361511
 30
0.0
 11
185.2792403886
 21
229.2090361511
 31
0.0
  0
LINE
  5
2AB
330
1F
100
AcDbEntity
  8
0
  6
Continuous
 62
     7
370
    25
100
AcDbLine
 10
58.2792403886
 20
229.2090361511
 30
0.0
 11
55.2792403886
 21
229.2090361511
 31
0.0
  0
LINE
  5
2AC
330
1F
100
AcDbEntity
  8
0
  6
Continuous
 62
     7
370
    25
100
AcDbLine
 10
58.2792403886
 20
228.2090361511
 30
0.0
 11
58.2792403886
 21
229.2090361511
 31
0.0
  0
LINE
  5
2AD
330
1F
100
AcDbEntity
  8
0
  6
Continuous
 62
     7
370
    25
100
AcDbLine
 10
58.2792403886
 20
228.2090361511
 30
0.0
 11
55.2792403886
 21
228.2090361511
 31
0.0
  0
LINE
  5
2AE
330
1F
100
AcDbEntity
  8
0
  6
Continuous
 62
     7
370
    25
100
AcDbLine
 10
185.2792403886
 20
229.2090361511
 30
0.0
 11
182.2792403886
 21
229.2090361511
 31
0.0
  0
LINE
  5
2AF
330
1F
100
AcDbEntity
  8
0
  6
Continuous
 62
     7
370
    25
100
AcDbLine
 10
185.2792403886
 20
228.2090361511
 30
0.0
 11
182.2792403886
 21
228.2090361511
 31
0.0
  0
LINE
  5
2B0
330
1F
100
AcDbEntity
  8
0
  6
Continuous
 62
     7
370
    25
100
AcDbLine
 10
61.2792403886
 20
229.2090361511
 30
0.0
 11
58.2792403886
 21
229.2090361511
 31
0.0
  0
LINE
  5
2B1
330
1F
100
AcDbEntity
  8
0
  6
Continuous
 62
     7
370
    25
100
AcDbLine
 10
61.2792403886
 20
229.2090361511
 30
0.0
 11
61.2792403886
 21
228.2090361511
 31
0.0
  0
LINE
  5
2B2
330
1F
100
AcDbEntity
  8
0
  6
Continuous
 62
     7
370
    25
100
AcDbLine
 10
61.2792403886
 20
228.2090361511
 30
0.0
 11
58.2792403886
 21
228.2090361511
 31
0.0
  0
LINE
  5
2B3
330
1F
100
AcDbEntity
  8
0
  6
Continuous
 62
     7
370
    25
100
AcDbLine
 10
70.0292403886
 20
228.2090361511
 30
0.0
 11
70.0292403886
 21
229.7090361511
 31
0.0
  0
LINE
  5
2B4
330
1F
100
AcDbEntity
  8
0
  6
Continuous
 62
     7
370
    25
100
AcDbLine
 10
62.2792403886
 20
230.2090361511
 30
0.0
 11
61.2792403886
 21
229.2090361511
 31
0.0
  0
ARC
  5
2B5
330
1F
100
AcDbEntity
  8
0
  6
Continuous
 62
     7
370
    25
100
AcDbCircle
 10
69.5292403886
 20
229.7090361511
 30
0.0
 40
0.5
100
AcDbArc
 50
0.0
 51
90.0
  0
LINE
  5
2B6
330
1F
100
AcDbEntity
  8
0
  6
Continuous
 62
     7
370
    25
100
AcDbLine
 10
70.0292403886
 20
228.2090361511
 30
0.0
 11
61.2792403886
 21
228.2090361511
 31
0.0
  0
LINE
  5
2B7
330
1F
100
AcDbEntity
  8
0
  6
Continuous
 62
     7
370
    25
100
AcDbLine
 10
69.5292403886
 20
230.2090361511
 30
0.0
 11
62.2792403886
 21
230.2090361511
 31
0.0
  0
LINE
  5
2B8
330
1F
100
AcDbEntity
  8
0
  6
Continuous
 62
     7
370
    25
100
AcDbLine
 10
185.2792403886
 20
229.2090361511
 30
0.0
 11
185.2792403886
 21
230.2090361511
 31
0.0
  0
LINE
  5
2B9
330
1F
100
AcDbEntity
  8
0
  6
Continuous
 62
     7
370
    25
100
AcDbLine
 10
189.2792403886
 20
230.2090361511
 30
0.0
 11
185.2792403886
 21
230.2090361511
 31
0.0
  0
LINE
  5
2BA
330
1F
100
AcDbEntity
  8
0
  6
Continuous
 62
     7
370
    25
100
AcDbLine
 10
58.2792403886
 20
229.2090361511
 30
0.0
 11
58.2792403886
 21
230.2090361511
 31
0.0
  0
LINE
  5
2BB
330
1F
100
AcDbEntity
  8
0
  6
Continuous
 62
     7
370
    25
100
AcDbLine
 10
62.2792403886
 20
230.2090361511
 30
0.0
 11
58.2792403886
 21
230.2090361511
 31
0.0
  0
LINE
  5
2BC
330
1F
100
AcDbEntity
  8
0
  6
Continuous
 62
     7
370
    25
100
AcDbLine
 10
58.2792403886
 20
230.2090361511
 30
0.0
 11
54.2792403886
 21
230.2090361511
 31
0.0
  0
LINE
  5
2BD
330
1F
100
AcDbEntity
  8
0
  6
Continuous
 62
     7
370
    25
100
AcDbLine
 10
185.2792403886
 20
230.2090361511
 30
0.0
 11
181.2792403886
 21
230.2090361511
 31
0.0
  0
LINE
  5
2BE
330
1F
100
AcDbEntity
  8
0
  6
Continuous
 62
     7
370
    25
100
AcDbLine
 10
121.7792403886
 20
229.7090361511
 30
0.0
 11
121.7792403886
 21
230.2090361511
 31
0.0
  0
LINE
  5
2BF
330
1F
100
AcDbEntity
  8
0
  6
Continuous
 62
     7
370
    25
100
AcDbLine
 10
121.7792403886
 20
230.2090361511
 30
0.0
 11
174.0292403886
 21
230.2090361511
 31
0.0
  0
LINE
  5
2C0
330
1F
100
AcDbEntity
  8
0
  6
Continuous
 62
     7
370
    25
100
AcDbLine
 10
121.7792403886
 20
229.7090361511
 30
0.0
 11
70.0292403886
 21
229.7090361511
 31
0.0
  0
LINE
  5
2C1
330
1F
100
AcDbEntity
  8
0
  6
Continuous
 62
     7
370
    25
100
AcDbLine
 10
69.5292403886
 20
230.2090361511
 30
0.0
 11
121.7792403886
 21
230.2090361511
 31
0.0
  0
LINE
  5
2C2
330
1F
100
AcDbEntity
  8
0
  6
Continuous
 62
     7
370
    25
100
AcDbLine
 10
70.0292403886
 20
228.2090361511
 30
0.0
 11
121.7792403886
 21
228.2090361511
 31
0.0
  0
LINE
  5
2C3
330
1F
100
AcDbEntity
  8
0
  6
Continuous
 62
     7
370
    25
100
AcDbLine
 10
188.0292403886
 20
222.7090361511
 30
0.0
 11
188.0292403886
 21
227.2090361511
 31
0.0
  0
LINE
  5
2C4
330
1F
100
AcDbEntity
  8
0
  6
Continuous
 62
     7
370
    25
100
AcDbLine
 10
191.0292403886
 20
227.2090361511
 30
0.0
 11
188.0292403886
 21
227.2090361511
 31
0.0
  0
LINE
  5
2C5
330
1F
100
AcDbEntity
  8
0
  6
Continuous
 62
     7
370
    25
100
AcDbLine
 10
191.0292403886
 20
222.7090361511
 30
0.0
 11
188.0292403886
 21
222.7090361511
 31
0.0
  0
LINE
  5
2C6
330
1F
100
AcDbEntity
  8
0
  6
Continuous
 62
     7
370
    25
100
AcDbLine
 10
55.5292403886
 20
227.2090361511
 30
0.0
 11
52.5292403886
 21
227.2090361511
 31
0.0
  0
LINE
  5
2C7
330
1F
100
AcDbEntity
  8
0
  6
Continuous
 62
     7
370
    25
100
AcDbLine
 10
55.5292403886
 20
227.2090361511
 30
0.0
 11
55.5292403886
 21
222.7090361511
 31
0.0
  0
LINE
  5
2C8
330
1F
100
AcDbEntity
  8
0
  6
Continuous
 62
     7
370
    25
100
AcDbLine
 10
55.5292403886
 20
222.7090361511
 30
0.0
 11
52.5292403886
 21
222.7090361511
 31
0.0
  0
LINE
  5
2C9
330
1F
100
AcDbEntity
  8
0
  6
Continuous
 62
     7
370
    25
100
AcDbLine
 10
55.5292403886
 20
228.2090361511
 30
0.0
 11
55.5292403886
 21
227.2090361511
 31
0.0
  0
LINE
  5
2CA
330
1F
100
AcDbEntity
  8
0
  6
Continuous
 62
     7
370
    25
100
AcDbLine
 10
188.0292403886
 20
228.2090361511
 30
0.0
 11
188.0292403886
 21
227.2090361511
 31
0.0
  0
LINE
  5
2CB
330
1F
100
AcDbEntity
  8
0
  6
Continuous
 62
     7
370
    25
100
AcDbLine
 10
188.0292403886
 20
227.2090361511
 30
0.0
 11
55.5292403886
 21
227.2090361511
 31
0.0
  0
LINE
  5
2CC
330
1F
100
AcDbEntity
  8
0
  6
Continuous
 62
     7
370
    25
100
AcDbLine
 10
55.5292403886
 20
222.7090361511
 30
0.0
 11
188.0292403886
 21
222.7090361511
 31
0.0
  0
HATCH
  5
2CD
330
1F
100
AcDbEntity
  8
0
  6
Continuous
 62
     7
370
    18
100
AcDbHatch
 10
0.0
 20
0.0
 30
0.0
210
0.0
220
0.0
230
1.0
  2
ANSI31
 70
     0
 71
     0
 91
        1
 92
        0
 93
        9
 72
     1
 10
188.2792403886408
 20
228.2090361511438
 11
190.0292403886408
 21
228.2090361511438
 72
     2
 10
190.0292403886408
 20
227.2090361511438
 40
1.0
 50
270.0000000000008
 51
360.0000000000008
 73
     0
 72
     1
 10
191.0292403886408
 20
227.2090361511438
 11
191.0292403886408
 21
222.7090361511438
 72
     1
 10
191.0292403886408
 20
222.7090361511438
 11
193.0292403886408
 21
222.7090361511438
 72
     1
 10
193.0292403886408
 20
222.7090361511438
 11
193.0292403886408
 21
227.2090361511438
 72
     2
 10
190.0292403886408
 20
227.2090361511438
 40
3.0
 50
0.0
 51
90.0
 73
     1
 72
     1
 10
190.0292403886408
 20
230.2090361511438
 11
189.2792403886408
 21
230.2090361511438
 72
     1
 10
189.2792403886408
 20
230.2090361511438
 11
188.2792403886408
 21
229.2090361511438
 72
     1
 10
188.2792403886408
 20
229.2090361511438
 11
188.2792403886408
 21
228.2090361511438
 97
        0
 75
     0
 76
     1
 52
0.0
 41
1.0
 77
     0
 78
     1
 53
45.0
 43
0.0
 44
0.0
 45
-2.245064030267288
 46
2.245064030267288
 79
     0
 98
        1
 10
0.0
 20
0.0
  0
HATCH
  5
2CE
330
1F
100
AcDbEntity
  8
0
  6
Continuous
 62
     7
370
    18
100
AcDbHatch
 10
0.0
 20
0.0
 30
0.0
210
0.0
220
0.0
230
1.0
  2
ANSI31
 70
     0
 71
     0
 91
        1
 92
        0
 93
        6
 72
     1
 10
173.5292403886408
 20
228.2090361511438
 11
182.2792403886408
 21
228.2090361511438
 72
     1
 10
182.2792403886408
 20
228.2090361511438
 11
182.2792403886408
 21
229.2090361511438
 72
     1
 10
182.2792403886408
 20
229.2090361511438
 11
181.2792403886408
 21
230.2090361511438
 72
     1
 10
181.2792403886408
 20
230.2090361511438
 11
174.0292403886408
 21
230.2090361511438
 72
     2
 10
174.0292403886408
 20
229.7090361511438
 40
0.5
 50
90.0
 51
180.0
 73
     1
 72
     1
 10
173.5292403886408
 20
229.7090361511438
 11
173.5292403886408
 21
228.2090361511438
 97
        0
 75
     0
 76
     1
 52
0.0
 41
1.0
 77
     0
 78
     1
 53
45.0
 43
0.0
 44
0.0
 45
-2.245064030267288
 46
2.245064030267288
 79
     0
 98
        1
 10
0.0
 20
0.0
  0
HATCH
  5
2CF
330
1F
100
AcDbEntity
  8
0
  6
Continuous
 62
     7
370
    18
100
AcDbHatch
 10
0.0
 20
0.0
 30
0.0
210
0.0
220
0.0
230
1.0
  2
ANSI31
 70
     0
 71
     0
 91
        1
 92
        0
 93
        9
 72
     1
 10
52.52924038864082
 20
222.7090361511438
 11
52.52924038864082
 21
227.2090361511438
 72
     2
 10
53.52924038864081
 20
227.2090361511438
 40
1.0
 50
180.0
 51
270.0
 73
     0
 72
     1
 10
53.52924038864079
 20
228.2090361511438
 11
55.27924038864081
 21
228.2090361511438
 72
     1
 10
55.27924038864081
 20
228.2090361511438
 11
55.27924038864081
 21
229.2090361511438
 72
     1
 10
55.27924038864081
 20
229.2090361511438
 11
54.27924038864081
 21
230.2090361511438
 72
     1
 10
54.27924038864081
 20
230.2090361511438
 11
53.52924038864081
 21
230.2090361511438
 72
     2
 10
53.52924038864081
 20
227.2090361511438
 40
3.0
 50
90.0
 51
180.0
 73
     1
 72
     1
 10
50.52924038864083
 20
227.2090361511438
 11
50.52924038864083
 21
222.7090361511438
 72
     1
 10
50.52924038864083
 20
222.7090361511438
 11
52.52924038864082
 21
222.7090361511438
 97
        0
 75
     0
 76
     1
 52
0.0
 41
1.0
 77
     0
 78
     1
 53
45.0
 43
0.0
 44
0.0
 45
-2.245064030267288
 46
2.245064030267288
 79
     0
 98
        1
 10
0.0
 20
0.0
  0
HATCH
  5
2D0
330
1F
100
AcDbEntity
  8
0
  6
Continuous
 62
     7
370
    18
100
AcDbHatch
 10
0.0
 20
0.0
 30
0.0
210
0.0
220
0.0
230
1.0
  2
ANSI31
 70
     0
 71
     0
 91
        1
 92
        0
 93
        6
 72
     2
 10
69.5292403886408
 20
229.7090361511438
 40
0.5
 50
0.0
 51
90.0
 73
     1
 72
     1
 10
69.5292403886408
 20
230.2090361511438
 11
62.27924038864082
 21
230.2090361511438
 72
     1
 10
62.27924038864082
 20
230.2090361511438
 11
61.27924038864082
 21
229.2090361511438
 72
     1
 10
61.27924038864082
 20
229.2090361511438
 11
61.27924038864082
 21
228.2090361511438
 72
     1
 10
61.27924038864082
 20
228.2090361511438
 11
70.0292403886408
 21
228.2090361511438
 72
     1
 10
70.0292403886408
 20
228.2090361511438
 11
70.0292403886408
 21
229.7090361511438
 97
        0
 75
     0
 76
     1
 52
0.0
 41
1.0
 77
     0
 78
     1
 53
45.0
 43
0.0
 44
0.0
 45
-2.245064030267288
 46
2.245064030267288
 79
     0
 98
        1
 10
0.0
 20
0.0
  0
DIMENSION
  5
2D1
330
1F
100
AcDbEntity
  8
0
  6
Continuous
 62
     7
370
    18
100
AcDbDimension
  2
_D
 10
193.0292403886
 20
237.2117348779
 30
0.0
 11
121.7792403886
 21
237.2117348779
 31
0.0
 70
   160
  1
%%c<>
 71
     2
 42
-1.0
  3
SLDDIMSTYLE0
100
AcDbAlignedDimension
 13
50.5292403886
 23
227.2090361511
 33
0.0
 14
193.0292403886
 24
227.2090361511
 34
0.0
100
AcDbRotatedDimension
  0
DIMENSION
  5
2DD
330
1F
100
AcDbEntity
  8
0
  6
Continuous
 62
     7
370
    18
100
AcDbDimension
  2
_D_1
 10
207.0319391154
 20
222.7090361511
 30
0.0
 11
207.0319391154
 21
226.4590361511
 31
0.0
 70
   160
  1
<>
 71
     2
 42
-1.0
  3
SLDDIMSTYLE1
100
AcDbAlignedDimension
 13
190.0292403886
 23
230.2090361511
 33
0.0
 14
193.0292403886
 24
222.7090361511
 34
0.0
 50
90.0
100
AcDbRotatedDimension
  0
MTEXT
  5
2EA
330
1F
100
AcDbEntity
  8
0
  6
Continuous
 62
     7
370
     0
100
AcDbMText
 10
121.8885681315
 20
246.849429063
 30
0.0
 40
3.7041666667
 41
0.0
 71
     2
 72
     1
  1
A-A
  7
SLDTEXTSTYLE0
 73
     1
 44
1.0
  0
ENDSEC
  0
SECTION
  2
OBJECTS
  0
DICTIONARY
  5
C
330
0
100
AcDbDictionary
281
     1
  3
ACAD_GROUP
350
D
  3
ACAD_LAYOUT
350
1A
  3
ACAD_MLINESTYLE
350
17
  3
ACAD_PLOTSETTINGS
350
19
  3
ACAD_PLOTSTYLENAME
350
E
  3
ACAD_SCALELIST
350
47
  3
DWGPROPS
350
2EB
  0
DICTIONARY
  5
D
102
{ACAD_REACTORS
330
C
102
}
330
C
100
AcDbDictionary
281
     1
  0
DICTIONARY
  5
1A
102
{ACAD_REACTORS
330
C
102
}
330
C
100
AcDbDictionary
281
     1
  3
Layout1
350
1E
  3
Layout2
350
26
  3
Model
350
22
  0
DICTIONARY
  5
17
102
{ACAD_REACTORS
330
C
102
}
330
C
100
AcDbDictionary
281
     1
  3
Standard
350
18
  0
DICTIONARY
  5
19
102
{ACAD_REACTORS
330
C
102
}
330
C
100
AcDbDictionary
281
     1
  0
ACDBDICTIONARYWDFLT
  5
E
102
{ACAD_REACTORS
330
C
102
}
330
C
100
AcDbDictionary
281
     1
  3
Normal
350
F
100
AcDbDictionaryWithDefault
340
F
  0
DICTIONARY
  5
47
102
{ACAD_REACTORS
330
C
102
}
330
C
100
AcDbDictionary
281
     1
  3
A0
350
48
  3
A1
350
49
  3
A2
350
4A
  3
A3
350
4B
  3
A4
350
4C
  3
A5
350
4D
  3
A6
350
4E
  3
A7
350
4F
  3
A8
350
50
  3
A9
350
51
  3
B0
350
52
  3
B1
350
53
  3
B2
350
54
  3
B3
350
55
  3
B4
350
56
  3
B5
350
57
  3
B6
350
58
  0
XRECORD
  5
2EB
102
{ACAD_REACTORS
330
C
102
}
330
C
100
AcDbXrecord
280
     1
  1
DWGPROPS COOKIE
  2

  3

  4

  6

  7

  8
CH-NTL-RS-WSCAD
  9

300
=
301
=
302
=
303
=
304
=
305
=
306
=
307
=
308
=
309
=
 40
0.0
 41
2460955.50245294
 42
2460955.502457026
  1

 90
        0
  0
LAYOUT
  5
1E
102
{ACAD_REACTORS
330
1A
102
}
330
1A
100
AcDbPlotSettings
  1

  2
none_device
  4

  6

 40
0.0
 41
0.0
 42
0.0
 43
0.0
 44
0.0
 45
0.0
 46
0.0
 47
0.0
 48
0.0
 49
0.0
140
0.0
141
0.0
142
1.0
143
1.0
 70
   688
 72
     1
 73
     0
 74
     5
  7

 75
    16
147
1.0
148
0.0
149
0.0
100
AcDbLayout
  1
Layout1
 70
     1
 71
     1
 10
0.0
 20
0.0
 11
420.0
 21
297.0
 12
0.0
 22
0.0
 32
0.0
 14
1.0000000000E+20
 24
1.0000000000E+20
 34
1.0000000000E+20
 15
-1.0000000000E+20
 25
-1.0000000000E+20
 35
-1.0000000000E+20
146
0.0
 13
0.0
 23
0.0
 33
0.0
 16
1.0
 26
0.0
 36
0.0
 17
0.0
 27
1.0
 37
0.0
 76
     0
330
1B
  0
LAYOUT
  5
26
102
{ACAD_REACTORS
330
1A
102
}
330
1A
100
AcDbPlotSettings
  1

  2
none_device
  4

  6

 40
0.0
 41
0.0
 42
0.0
 43
0.0
 44
0.0
 45
0.0
 46
0.0
 47
0.0
 48
0.0
 49
0.0
140
0.0
141
0.0
142
1.0
143
1.0
 70
   688
 72
     1
 73
     0
 74
     5
  7

 75
    16
147
1.0
148
0.0
149
0.0
100
AcDbLayout
  1
Layout2
 70
     1
 71
     2
 10
0.0
 20
0.0
 11
0.0
 21
0.0
 12
0.0
 22
0.0
 32
0.0
 14
0.0
 24
0.0
 34
0.0
 15
0.0
 25
0.0
 35
0.0
146
0.0
 13
0.0
 23
0.0
 33
0.0
 16
1.0
 26
0.0
 36
0.0
 17
0.0
 27
1.0
 37
0.0
 76
     0
330
23
  0
LAYOUT
  5
22
102
{ACAD_REACTORS
330
1A
102
}
330
1A
100
AcDbPlotSettings
  1

  2
none_device
  4
Letter_(8.50_x_11.00_Inches)
  6

 40
6.35
 41
6.35
 42
6.35000508
 43
6.35000508
 44
215.9
 45
279.4
 46
0.0
 47
0.0
 48
0.0
 49
0.0
140
0.0
141
0.0
142
1.0
143
1.0
 70
  1712
 72
     1
 73
     0
 74
     0
  7

 75
     0
147
1.0
148
0.0
149
0.0
100
AcDbLayout
  1
Model
 70
     1
 71
     0
 10
0.0
 20
0.0
 11
420.0
 21
297.0
 12
0.0
 22
0.0
 32
0.0
 14
0.0
 24
0.0
 34
0.0
 15
420.0
 25
297.0
 35
0.0
146
0.0
 13
0.0
 23
0.0
 33
0.0
 16
1.0
 26
0.0
 36
0.0
 17
0.0
 27
1.0
 37
0.0
 76
     0
330
1F
331
29
  0
MLINESTYLE
  5
18
102
{ACAD_REACTORS
330
17
102
}
330
17
100
AcDbMlineStyle
  2
Standard
 70
     0
  3

 62
   256
 51
90.0
 52
90.0
 71
     2
 49
0.5
 62
   256
  6
BYLAYER
 49
-0.5
 62
   256
  6
BYLAYER
  0
ACDBPLACEHOLDER
  5
F
102
{ACAD_REACTORS
330
E
102
}
330
E
  0
SCALE
  5
48
102
{ACAD_REACTORS
330
47
102
}
330
47
100
AcDbScale
 70
     0
300
1:1
140
1.0
141
1.0
290
     1
  0
SCALE
  5
49
102
{ACAD_REACTORS
330
47
102
}
330
47
100
AcDbScale
 70
     0
300
1:2
140
1.0
141
2.0
290
     0
  0
SCALE
  5
4A
102
{ACAD_REACTORS
330
47
102
}
330
47
100
AcDbScale
 70
     0
300
1:4
140
1.0
141
4.0
290
     0
  0
SCALE
  5
4B
102
{ACAD_REACTORS
330
47
102
}
330
47
100
AcDbScale
 70
     0
300
1:5
140
1.0
141
5.0
290
     0
  0
SCALE
  5
4C
102
{ACAD_REACTORS
330
47
102
}
330
47
100
AcDbScale
 70
     0
300
1:8
140
1.0
141
8.0
290
     0
  0
SCALE
  5
4D
102
{ACAD_REACTORS
330
47
102
}
330
47
100
AcDbScale
 70
     0
300
1:10
140
1.0
141
10.0
290
     0
  0
SCALE
  5
4E
102
{ACAD_REACTORS
330
47
102
}
330
47
100
AcDbScale
 70
     0
300
1:16
140
1.0
141
16.0
290
     0
  0
SCALE
  5
4F
102
{ACAD_REACTORS
330
47
102
}
330
47
100
AcDbScale
 70
     0
300
1:20
140
1.0
141
20.0
290
     0
  0
SCALE
  5
50
102
{ACAD_REACTORS
330
47
102
}
330
47
100
AcDbScale
 70
     0
300
1:30
140
1.0
141
30.0
290
     0
  0
SCALE
  5
51
102
{ACAD_REACTORS
330
47
102
}
330
47
100
AcDbScale
 70
     0
300
1:40
140
1.0
141
40.0
290
     0
  0
SCALE
  5
52
102
{ACAD_REACTORS
330
47
102
}
330
47
100
AcDbScale
 70
     0
300
1:50
140
1.0
141
50.0
290
     0
  0
SCALE
  5
53
102
{ACAD_REACTORS
330
47
102
}
330
47
100
AcDbScale
 70
     0
300
1:100
140
1.0
141
100.0
290
     0
  0
SCALE
  5
54
102
{ACAD_REACTORS
330
47
102
}
330
47
100
AcDbScale
 70
     0
300
2:1
140
2.0
141
1.0
290
     0
  0
SCALE
  5
55
102
{ACAD_REACTORS
330
47
102
}
330
47
100
AcDbScale
 70
     0
300
4:1
140
4.0
141
1.0
290
     0
  0
SCALE
  5
56
102
{ACAD_REACTORS
330
47
102
}
330
47
100
AcDbScale
 70
     0
300
8:1
140
8.0
141
1.0
290
     0
  0
SCALE
  5
57
102
{ACAD_REACTORS
330
47
102
}
330
47
100
AcDbScale
 70
     0
300
10:1
140
10.0
141
1.0
290
     0
  0
SCALE
  5
58
102
{ACAD_REACTORS
330
47
102
}
330
47
100
AcDbScale
 70
     0
300
100:1
140
100.0
141
1.0
290
     0
  0
ENDSEC
  0
EOF
