  0
SECTION
  2
HEADER
  9
$ACADVER
  1
AC1015
  9
$ACADMAINTVER
 70
    20
  9
$DWGCODEPAGE
  3
ANSI_1252
  9
$INSBASE
 10
0.0
 20
0.0
 30
0.0
  9
$EXTMIN
 10
77.17987167320666
 20
270.0252284425749
 30
-0.0000000000000058
  9
$EXTMAX
 10
299.6255501541607
 20
441.6647764497993
 30
0.0000000000000104
  9
$LIMMIN
 10
0.0
 20
0.0
  9
$LIMMAX
 10
420.0
 20
297.0
  9
$ORTHOMODE
 70
     0
  9
$REGENMODE
 70
     1
  9
$FILLMODE
 70
     1
  9
$QTEXTMODE
 70
     0
  9
$MIRRTEXT
 70
     1
  9
$LTSCALE
 40
1.0
  9
$ATTMODE
 70
     1
  9
$TEXTSIZE
 40
0.0
  9
$TRACEWID
 40
1.0
  9
$TEXTSTYLE
  7
STANDARD
  9
$CLAYER
  8
0
  9
$CELTYPE
  6
BYLAYER
  9
$CECOLOR
 62
   256
  9
$CELTSCALE
 40
1.0
  9
$DISPSILH
 70
     0
  9
$DIMSCALE
 40
1.0
  9
$DIMASZ
 40
2.5
  9
$DIMEXO
 40
0.625
  9
$DIMDLI
 40
3.75
  9
$DIMRND
 40
0.0
  9
$DIMDLE
 40
0.0
  9
$DIMEXE
 40
1.25
  9
$DIMTP
 40
0.0
  9
$DIMTM
 40
0.0
  9
$DIMTXT
 40
2.5
  9
$DIMCEN
 40
2.5
  9
$DIMTSZ
 40
0.0
  9
$DIMTOL
 70
     0
  9
$DIMLIM
 70
     0
  9
$DIMTIH
 70
     0
  9
$DIMTOH
 70
     0
  9
$DIMSE1
 70
     0
  9
$DIMSE2
 70
     0
  9
$DIMTAD
 70
     1
  9
$DIMZIN
 70
     8
  9
$DIMBLK
  1

  9
$DIMASO
 70
     1
  9
$DIMSHO
 70
     1
  9
$DIMPOST
  1

  9
$DIMAPOST
  1

  9
$DIMALT
 70
     0
  9
$DIMALTD
 70
     3
  9
$DIMALTF
 40
0.03937
  9
$DIMLFAC
 40
1.0
  9
$DIMTOFL
 70
     1
  9
$DIMTVP
 40
0.0
  9
$DIMTIX
 70
     0
  9
$DIMSOXD
 70
     0
  9
$DIMSAH
 70
     0
  9
$DIMBLK1
  1

  9
$DIMBLK2
  1

  9
$DIMSTYLE
  2
STANDARD
  9
$DIMCLRD
 70
     0
  9
$DIMCLRE
 70
     0
  9
$DIMCLRT
 70
     0
  9
$DIMTFAC
 40
1.0
  9
$DIMGAP
 40
0.625
  9
$DIMJUST
 70
     0
  9
$DIMSD1
 70
     0
  9
$DIMSD2
 70
     0
  9
$DIMTOLJ
 70
     0
  9
$DIMTZIN
 70
     8
  9
$DIMALTZ
 70
     0
  9
$DIMALTTZ
 70
     0
  9
$DIMUPT
 70
     0
  9
$DIMDEC
 70
     2
  9
$DIMTDEC
 70
     2
  9
$DIMALTU
 70
     2
  9
$DIMALTTD
 70
     3
  9
$DIMTXSTY
  7
STANDARD
  9
$DIMAUNIT
 70
     0
  9
$DIMADEC
 70
     0
  9
$DIMALTRND
 40
0.0
  9
$DIMAZIN
 70
     0
  9
$DIMDSEP
 70
    46
  9
$DIMATFIT
 70
     3
  9
$DIMFRAC
 70
     0
  9
$DIMLDRBLK
  1

  9
$DIMLUNIT
 70
     2
  9
$DIMLWD
 70
    -2
  9
$DIMLWE
 70
    -2
  9
$DIMTMOVE
 70
     0
  9
$LUNITS
 70
     2
  9
$LUPREC
 70
     2
  9
$SKETCHINC
 40
1.0
  9
$FILLETRAD
 40
2.5
  9
$AUNITS
 70
     0
  9
$AUPREC
 70
     0
  9
$MENU
  1
.
  9
$ELEVATION
 40
0.0
  9
$PELEVATION
 40
0.0
  9
$THICKNESS
 40
0.0
  9
$LIMCHECK
 70
     0
  9
$CHAMFERA
 40
2.5
  9
$CHAMFERB
 40
2.5
  9
$CHAMFERC
 40
0.0
  9
$CHAMFERD
 40
0.0
  9
$SKPOLY
 70
     0
  9
$TDCREATE
 40
2305814.083842720
  9
$TDUCREATE
 40
6.0000000000
  9
$TDUPDATE
 40
2454109.636058495
  9
$TDUUPDATE
 40
2454109.594391829
  9
$TDINDWG
 40
0.0149571528
  9
$TDUSRTIMER
 40
0.0149563426
  9
$USRTIMER
 70
     1
  9
$ANGBASE
 50
0.0
  9
$ANGDIR
 70
     0
  9
$PDMODE
 70
     0
  9
$PDSIZE
 40
0.0
  9
$PLINEWID
 40
0.0
  9
$SPLFRAME
 70
     0
  9
$SPLINETYPE
 70
     6
  9
$SPLINESEGS
 70
     8
  9
$HANDSEED
  5
23B0
  9
$SURFTAB1
 70
     6
  9
$SURFTAB2
 70
     6
  9
$SURFTYPE
 70
     6
  9
$SURFU
 70
     6
  9
$SURFV
 70
     6
  9
$UCSBASE
  2

  9
$UCSNAME
  2

  9
$UCSORG
 10
0.0
 20
0.0
 30
0.0
  9
$UCSXDIR
 10
1.0
 20
0.0
 30
0.0
  9
$UCSYDIR
 10
0.0
 20
1.0
 30
0.0
  9
$UCSORTHOREF
  2

  9
$UCSORTHOVIEW
 70
     0
  9
$UCSORGTOP
 10
0.0
 20
0.0
 30
0.0
  9
$UCSORGBOTTOM
 10
0.0
 20
0.0
 30
0.0
  9
$UCSORGLEFT
 10
0.0
 20
0.0
 30
0.0
  9
$UCSORGRIGHT
 10
0.0
 20
0.0
 30
0.0
  9
$UCSORGFRONT
 10
0.0
 20
0.0
 30
0.0
  9
$UCSORGBACK
 10
0.0
 20
0.0
 30
0.0
  9
$PUCSBASE
  2

  9
$PUCSNAME
  2

  9
$PUCSORG
 10
0.0
 20
0.0
 30
0.0
  9
$PUCSXDIR
 10
1.0
 20
0.0
 30
0.0
  9
$PUCSYDIR
 10
0.0
 20
1.0
 30
0.0
  9
$PUCSORTHOREF
  2

  9
$PUCSORTHOVIEW
 70
     0
  9
$PUCSORGTOP
 10
0.0
 20
0.0
 30
0.0
  9
$PUCSORGBOTTOM
 10
0.0
 20
0.0
 30
0.0
  9
$PUCSORGLEFT
 10
0.0
 20
0.0
 30
0.0
  9
$PUCSORGRIGHT
 10
0.0
 20
0.0
 30
0.0
  9
$PUCSORGFRONT
 10
0.0
 20
0.0
 30
0.0
  9
$PUCSORGBACK
 10
0.0
 20
0.0
 30
0.0
  9
$USERI1
 70
     0
  9
$USERI2
 70
     0
  9
$USERI3
 70
     0
  9
$USERI4
 70
     0
  9
$USERI5
 70
     0
  9
$USERR1
 40
0.0
  9
$USERR2
 40
0.0
  9
$USERR3
 40
0.0
  9
$USERR4
 40
0.0
  9
$USERR5
 40
0.0
  9
$WORLDVIEW
 70
     1
  9
$SHADEDGE
 70
     3
  9
$SHADEDIF
 70
    70
  9
$TILEMODE
 70
     1
  9
$MAXACTVP
 70
    48
  9
$PINSBASE
 10
0.0
 20
0.0
 30
0.0
  9
$PLIMCHECK
 70
     0
  9
$PEXTMIN
 10
0.0
 20
0.0
 30
0.0
  9
$PEXTMAX
 10
16490.085938
 20
525.8782959999999
 30
2.0
  9
$PLIMMIN
 10
0.0
 20
0.0
  9
$PLIMMAX
 10
420.0
 20
297.0
  9
$UNITMODE
 70
     0
  9
$VISRETAIN
 70
     0
  9
$PLINEGEN
 70
     0
  9
$PSLTSCALE
 70
     1
  9
$TREEDEPTH
 70
  3020
  9
$CMLSTYLE
  2
STANDARD
  9
$CMLJUST
 70
     0
  9
$CMLSCALE
 40
20.0
  9
$PROXYGRAPHICS
 70
     1
  9
$MEASUREMENT
 70
     1
  9
$CELWEIGHT
370
    -1
  9
$ENDCAPS
280
     0
  9
$JOINSTYLE
280
     0
  9
$LWDISPLAY
290
     0
  9
$INSUNITS
 70
     0
  9
$HYPERLINKBASE
  1

  9
$STYLESHEET
  1

  9
$XEDIT
290
     1
  9
$CEPSNTYPE
380
     0
  9
$PSTYLEMODE
290
     1
  9
$FINGERPRINTGUID
  2
{F149B142-F9E4-451B-AA58-1FBE2BDC90ED}
  9
$VERSIONGUID
  2
{832591F1-A77B-4DC0-A06D-4ABE452F25EB}
  9
$EXTNAMES
290
     1
  9
$PSVPSCALE
 40
0.0
  9
$OLESTARTUP
290
     0
  0
ENDSEC
  0
SECTION
  2
CLASSES
  0
CLASS
  1
IMAGE
  2
AcDbRasterImage
  3
ISM
 90
    32895
280
     0
281
     1
  0
CLASS
  1
DICTIONARYVAR
  2
AcDbDictionaryVar
  3
ObjectDBX Classes
 90
        0
280
     0
281
     0
  0
CLASS
  1
RASTERVARIABLES
  2
AcDbRasterVariables
  3
ISM
 90
    32768
280
     0
281
     0
  0
CLASS
  1
IMAGEDEF
  2
AcDbRasterImageDef
  3
ISM
 90
    32768
280
     0
281
     0
  0
CLASS
  1
IMAGEDEF_REACTOR
  2
AcDbRasterImageDefReactor
  3
ISM
 90
    32769
280
     0
281
     0
  0
CLASS
  1
IDBUFFER
  2
AcDbIdBuffer
  3
ObjectDBX Classes
 90
    32768
280
     0
281
     0
  0
CLASS
  1
SPATIAL_FILTER
  2
AcDbSpatialFilter
  3
ObjectDBX Classes
 90
    32768
280
     0
281
     0
  0
CLASS
  1
SORTENTSTABLE
  2
AcDbSortentsTable
  3
ObjectDBX Classes
 90
        0
280
     0
281
     0
  0
CLASS
  1
LAYER_INDEX
  2
AcDbLayerIndex
  3
ObjectDBX Classes
 90
    32768
280
     0
281
     0
  0
CLASS
  1
SPATIAL_INDEX
  2
AcDbSpatialIndex
  3
ObjectDBX Classes
 90
    32768
280
     0
281
     0
  0
CLASS
  1
OBJECT_PTR
  2
CAseDLPNTableRecord
  3
ASE-LPNTableRecord
 90
    32769
280
     0
281
     0
  0
CLASS
  1
LAYOUT
  2
AcDbLayout
  3
ObjectDBX Classes
 90
        0
280
     0
281
     0
  0
CLASS
  1
PLOTSETTINGS
  2
AcDbPlotSettings
  3
ObjectDBX Classes
 90
    32768
280
     0
281
     0
  0
CLASS
  1
ACDBDICTIONARYWDFLT
  2
AcDbDictionaryWithDefault
  3
ObjectDBX Classes
 90
        0
280
     0
281
     0
  0
CLASS
  1
ACDBPLACEHOLDER
  2
AcDbPlaceHolder
  3
ObjectDBX Classes
 90
        0
280
     0
281
     0
  0
CLASS
  1
VBA_PROJECT
  2
AcDbVbaProject
  3
acad
 90
    32768
280
     0
281
     0
  0
CLASS
  1
WIPEOUT
  2
AcDbWipeout
  3
"WipeOut|Product Desc: Object Enabler for WipeOut entity^I^I^I^I^I^I|Company: Autodesk, Inc.^I^I^I^I^I^I|WEB Address: www.autodesk.com"
 90
    32895
280
     0
281
     1
  0
CLASS
  1
WIPEOUTVARIABLES
  2
AcDbWipeoutVariables
  3
"WipeOut|Product Desc:     WipeOut Dbx Application|Company:          Autodesk, Inc.|WEB Address:      www.autodesk.com"
 90
    32768
280
     0
281
     0
  0
CLASS
  1
RTEXT
  2
RText
  3
RText|AutoCAD Express Tool|expresstools@autodesk.com
 90
    32768
280
     0
281
     1
  0
CLASS
  1
ARCALIGNEDTEXT
  2
AcDbArcAlignedText
  3
ATEXT|AutoCAD Express Tool|expresstools@autodesk.com
 90
    32768
280
     0
281
     1
  0
CLASS
  1
TABLESTYLE
  2
AcDbTableStyle
  3
ObjectDBX Classes
 90
     2047
280
     0
281
     0
  0
CLASS
  1
AMGSETTINGSOBJ
  2
AmgSettingsObj
  3
"AcadM|Product Description: AutoCAD Mechanical 2000|Company: Autodesk"
 90
        0
280
     0
281
     0
  0
CLASS
  1
ACME_DOCUMENT
  2
AcMeDbDoc
  3
AcMeServices
 90
        0
280
     0
281
     0
  0
CLASS
  1
ACMESCOPE
  2
AcMeScope
  3
AcMeServices
 90
        0
280
     0
281
     0
  0
CLASS
  1
ACMECOMMANDHISTORY
  2
AcMeCommandHistory
  3
AcMeServices
 90
        0
280
     0
281
     0
  0
CLASS
  1
ACIMSYSVARMAN
  2
AcImSysVarManager
  3
AcMeServices
 90
        0
280
     0
281
     0
  0
CLASS
  1
ACIMINTSYSVAR
  2
AcImIntSysVar
  3
AcMeServices
 90
        0
280
     0
281
     0
  0
CLASS
  1
ACMEDRAWINGMAN
  2
AcMeDrawingMan
  3
AcMeServices
 90
        0
280
     0
281
     0
  0
CLASS
  1
ACMEVIEW
  2
AcMeView
  3
AcMeServices
 90
        0
280
     0
281
     0
  0
CLASS
  1
ACDBENTITYCACHE
  2
AcMeEntityCache
  3
AcMeServices
 90
        0
280
     0
281
     0
  0
CLASS
  1
GSMANAGER
  2
AcMeGSManager
  3
AcMeServices
 90
        0
280
     0
281
     0
  0
CLASS
  1
AMDTINTERNALREACTOR
  2
AmdtInternalReactor
  3
AcMeServices
 90
        0
280
     0
281
     0
  0
CLASS
  1
ACMESTATEMGR
  2
AcMeStateMgr
  3
AcMeServices
 90
        0
280
     0
281
     0
  0
CLASS
  1
ACGREFMASTER
  2
AcGrefMaster
  3
AcAttribServices
 90
        0
280
     0
281
     0
  0
CLASS
  1
AM_DRAWING_MGR
  2
AcDmDwgMgr
  3
AcMechDwgViewMgmt
 90
        0
280
     0
281
     0
  0
CLASS
  1
AM_DWG_DOCUMENT
  2
AcDmDwgDocument
  3
AcMechDwgViewMgmt
 90
        0
280
     0
281
     0
  0
CLASS
  1
AM_DWG_SHEET
  2
AcDmSheet
  3
AcMechDwgViewMgmt
 90
        0
280
     0
281
     0
  0
CLASS
  1
AM_VIEWDIMPARMAP
  2
AcDmViewDimParMap
  3
AcMechDwgViewMgmt
 90
        0
280
     0
281
     0
  0
CLASS
  1
ACIMREALSYSVAR
  2
AcImRealSysVar
  3
AcMeServices
 90
        0
280
     0
281
     0
  0
CLASS
  1
AM_DWGMGR_NAME
  2
AcDmDwgMgrName
  3
AcMechDwgViewMgmt
 90
        0
280
     0
281
     0
  0
CLASS
  1
ACME_DATABASE
  2
AcMeDbDatabase
  3
AcMeServices
 90
        0
280
     0
281
     0
  0
CLASS
  1
ACRFINSADJUSTERMGR
  2
AcRfInsAdjusterMgr
  3
AcMeServices
 90
        0
280
     0
281
     0
  0
CLASS
  1
ACGREFACADMASTER
  2
AcGrefacadMaster
  3
AcGrefServices
 90
        0
280
     0
281
     0
  0
CLASS
  1
AMDTMENUSTATEMGR
  2
AmdtMenuStateMgr
  3
McadcomServices
 90
        0
280
     0
281
     0
  0
CLASS
  1
AMDTMCOMMENUSTATE
  2
AmdtMcomMenuState
  3
McadcomServices
 90
        0
280
     0
281
     0
  0
CLASS
  1
AMIMASTER
  2
AmiMaster
  3
AmiServices
 90
        0
280
     0
281
     0
  0
CLASS
  1
MAPIAMMOUDLE
  2
MApiAmModule
  3
MApiAmServices
 90
        0
280
     0
281
     0
  0
CLASS
  1
AMDTADMENUSTATE
  2
AmdtAdMenuState
  3
DesignerServices
 90
        0
280
     0
281
     0
  0
CLASS
  1
ADAPPL
  2
AcAdAppl
  3
DesignerServices
 90
        0
280
     0
281
     0
  0
CLASS
  1
DEPMGR
  2
AcAdDepMgr
  3
DesignerServices
 90
        0
280
     0
281
     0
  0
CLASS
  1
PARAMMGR
  2
AcAdParamMgr
  3
DesignerServices
 90
        0
280
     0
281
     0
  0
CLASS
  1
PARAMSCOPE
  2
AcAdParamScope
  3
DesignerServices
 90
        0
280
     0
281
     0
  0
CLASS
  1
NAMEDAPPL
  2
AcAdNamedAppl
  3
DesignerServices
 90
        0
280
     0
281
     0
  0
CLASS
  1
AMDTDMMENUSTATE
  2
AmdtDmMenuState
  3
AcMechDwgViewMgmt
 90
        0
280
     0
281
     0
  0
CLASS
  1
AMDTAMMENUSTATE
  2
AmdtAmMenuState
  3
DesignerAssemblies
 90
        0
280
     0
281
     0
  0
CLASS
  1
ACIMSTRSYSVAR
  2
AcImStrSysVar
  3
AcMeServices
 90
        0
280
     0
281
     0
  0
CLASS
  1
ACAMPROJECT
  2
AcAmProject
  3
DesignerAssemblies
 90
        0
280
     0
281
     0
  0
CLASS
  1
ACAMGRCOMPDEF
  2
AcAmGrCompDef
  3
DesignerAssemblies
 90
        0
280
     0
281
     0
  0
CLASS
  1
ACCMCONTEXT
  2
AcCmContext
  3
DesignerAssemblies
 90
        0
280
     0
281
     0
  0
CLASS
  1
ACAMCOMPDEF
  2
AcAmCompDef
  3
DesignerAssemblies
 90
        0
280
     0
281
     0
  0
CLASS
  1
ACAMCOMPDEFMGR
  2
AcAmCompDefMgr
  3
DesignerAssemblies
 90
        0
280
     0
281
     0
  0
CLASS
  1
AMCONTEXTMGR
  2
AcAmContextMgr
  3
DesignerAssemblies
 90
        0
280
     0
281
     0
  0
CLASS
  1
ACAMCONTEXTMODELER
  2
AcAmContextModeler
  3
DesignerAssemblies
 90
        0
280
     0
281
     0
  0
CLASS
  1
ACMDATADICTIONARY
  2
AcmDataDictionary
  3
"AcmSymBB|Product Description: AutoCAD Mechanical 2004 DX|Company: Autodesk"
 90
        0
280
     0
281
     0
  0
CLASS
  1
CATALOGSTATE
  2
AcAmCatalogState
  3
DesignerAssemblies
 90
        0
280
     0
281
     0
  0
CLASS
  1
ACAMGRCOMPDEFSET
  2
AcAmGrCompDefSet
  3
DesignerAssemblies
 90
        0
280
     0
281
     0
  0
CLASS
  1
AMDTBROWSERDBTAB
  2
AmdtBrowserDbTab
  3
McadcomServices
 90
        0
280
     0
281
     0
  0
CLASS
  1
CBROWSERAPPOBJECT
  2
CBrowserAppObject
  3
McadcomServices
 90
        0
280
     0
281
     0
  0
CLASS
  1
DM_PLACEHOLDER
  2
AcDmSelsetPlaceholder
  3
AcMechDwgViewMgmt
 90
        0
280
     0
281
     0
  0
CLASS
  1
ACMSTANDARDDIN
  2
AcmStandardDIN
  3
"Amdt_StdImp|Product Description: AutoCAD Mechanical 2004 DX|Company: Autodesk"
 90
        0
280
     0
281
     0
  0
CLASS
  1
AMGOBJPROPCFG
  2
AmgObjPropCfg
  3
"AmgLay|Product Description: AutoCAD Mechanical 2000|Company: Autodesk"
 90
        1
280
     0
281
     0
  0
CLASS
  1
AMDTEDGESTANDARDDIN13715
  2
AmdtEdgeStdDIN13715
  3
"Amdt_StdImp|Product Description: AutoCAD Mechanical 2004 DX|Company: Autodesk"
 90
        0
280
     0
281
     0
  0
CLASS
  1
ACMSURFSTANDARDDIN
  2
AcmSurfTextStdDIN
  3
"Amdt_StdImp|Product Description: AutoCAD Mechanical 2004 DX|Company: Autodesk"
 90
        0
280
     0
281
     0
  0
CLASS
  1
ACMFCFSTANDARDDIN
  2
AcmFCFStdDIN
  3
"Amdt_StdImp|Product Description: AutoCAD Mechanical 2004 DX|Company: Autodesk"
 90
        0
280
     0
281
     0
  0
CLASS
  1
ACMWELDSTANDARDDIN
  2
AcmWeldingStdDIN
  3
"Amdt_StdImp|Product Description: AutoCAD Mechanical 2004 DX|Company: Autodesk"
 90
        0
280
     0
281
     0
  0
CLASS
  1
ACMIDSTANDARDDIN
  2
AcmIdStdDIN
  3
"Amdt_StdImp|Product Description: AutoCAD Mechanical 2004 DX|Company: Autodesk"
 90
        0
280
     0
281
     0
  0
CLASS
  1
ACMDATUMSTANDARDDIN
  2
AcmDatumStdDIN
  3
"Amdt_StdImp|Product Description: AutoCAD Mechanical 2004 DX|Company: Autodesk"
 90
        0
280
     0
281
     0
  0
CLASS
  1
ACMBOMSTANDARDDIN
  2
AcmBOMStdDIN
  3
"Amdt_StdImp|Product Description: AutoCAD Mechanical 2004 DX|Company: Autodesk"
 90
        0
280
     0
281
     0
  0
CLASS
  1
ACMDETAILSTANDARDDIN
  2
AmdtDetailSymStdDIN
  3
"Amdt_StdImp|Product Description: AutoCAD Mechanical 2004 DX|Company: Autodesk"
 90
        0
280
     0
281
     0
  0
CLASS
  1
ACMSECTIONSTANDARDDIN
  2
AmdtSectionSymStdDIN
  3
"Amdt_StdImp|Product Description: AutoCAD Mechanical 2004 DX|Company: Autodesk"
 90
        0
280
     0
281
     0
  0
CLASS
  1
ACMCENTERLINESTANDARDDIN
  2
AmdtCenterLineStdDIN
  3
"Amdt_StdImp|Product Description: AutoCAD Mechanical 2004 DX|Company: Autodesk"
 90
        0
280
     0
281
     0
  0
CLASS
  1
ACMTHREADLINESTANDARDDIN
  2
AmdtThreadLineStdDIN
  3
"Amdt_StdImp|Product Description: AutoCAD Mechanical 2004 DX|Company: Autodesk"
 90
        0
280
     0
281
     0
  0
CLASS
  1
ACMNOTESTANDARDDIN
  2
AmdtNoteStdDIN
  3
"Amdt_StdImp|Product Description: AutoCAD Mechanical 2004 DX|Company: Autodesk"
 90
        0
280
     0
281
     0
  0
CLASS
  1
AMDTNOTETEMPLATEDB
  2
AmdtNoteTemplateDB
  3
AMDT_STDIMP_MODULE_NAME
 90
        0
280
     0
281
     0
  0
CLASS
  1
ACAMGLAYSTD
  2
AcAmgLayStd
  3
"AcAmgLayStd|Product Description: AutoCAD Mechanical 2000|Company: Autodesk"
 90
        0
280
     0
281
     0
  0
CLASS
  1
ACAMGDIMSTD
  2
AcAmgDimStd
  3
"AcAmgDimStd|Product Description: AutoCAD Mechanical 2000|Company: Autodesk"
 90
        0
280
     0
281
     0
  0
CLASS
  1
ACAMGHOLECHARTSTDDIN
  2
AcAmgHoleChartStdDIN
  3
ACMSYMBB_MODULE_NAME
 90
        0
280
     0
281
     0
  0
CLASS
  1
ACAMGTITLESTD
  2
AcAmgTitleStd
  3
"TITLEAPP"
 90
        0
280
     0
281
     0
  0
CLASS
  1
ACAMGFILTERDAT
  2
AcAmgFilterDat
  3
"AcadM|Product Description: AutoCAD Mechanical 2000|Company: Autodesk"
 90
        0
280
     0
281
     0
  0
ENDSEC
  0
SECTION
  2
TABLES
  0
TABLE
  2
VPORT
  5
7
330
0
100
AcDbSymbolTable
 70
    25
  0
VPORT
  5
23A8
330
7
100
AcDbSymbolTableRecord
100
AcDbViewportTableRecord
  2
*Active
 70
     0
 10
0.0
 20
0.0
 11
1.0
 21
1.0
 12
188.4027107873746
 22
355.8450019135218
 13
0.0
 23
0.0
 14
1.0
 24
1.0
 15
0.0
 25
0.0
 16
0.0
 26
0.0
 36
1.0
 17
0.0
 27
0.0
 37
0.0
 40
264.5253586039595
 41
1.501827040194884
 42
50.0
 43
0.0
 44
0.0
 50
0.0
 51
0.0
 71
     0
 72
   100
 73
     1
 74
     1
 75
     0
 76
     0
 77
     0
 78
     0
281
     0
 65
     0
110
0.0
120
0.0
130
0.0
111
1.0
121
0.0
131
0.0
112
0.0
122
1.0
132
0.0
 79
     0
146
0.0
  0
ENDTAB
  0
TABLE
  2
LTYPE
  5
4
330
0
100
AcDbSymbolTable
 70
    14
  0
LTYPE
  5
11
330
4
100
AcDbSymbolTableRecord
100
AcDbLinetypeTableRecord
  2
BYBLOCK
 70
     0
  3

 72
    65
 73
     0
 40
0.0
  0
LTYPE
  5
12
330
4
100
AcDbSymbolTableRecord
100
AcDbLinetypeTableRecord
  2
BYLAYER
 70
     0
  3

 72
    65
 73
     0
 40
0.0
  0
LTYPE
  5
13
330
4
100
AcDbSymbolTableRecord
100
AcDbLinetypeTableRecord
  2
CONTINUOUS
 70
     0
  3
Solid line
 72
    65
 73
     0
 40
0.0
  0
LTYPE
  5
1F36
330
4
100
AcDbSymbolTableRecord
100
AcDbLinetypeTableRecord
  2
HIDDEN
 70
     0
  3
Verdeckt
 72
    65
 73
     2
 40
9.525
 49
6.349999999999999
 74
     0
 49
-3.174999999999999
 74
     0
  0
LTYPE
  5
1F37
330
4
100
AcDbSymbolTableRecord
100
AcDbLinetypeTableRecord
  2
PHANTOM2
 70
     0
  3
Phantom (.5x) ___ _ _ ___ _ _ ___ _ _ ___ _ _
 72
    65
 73
     6
 40
31.75
 49
15.875
 74
     0
 49
-3.174999999999999
 74
     0
 49
3.174999999999999
 74
     0
 49
-3.174999999999999
 74
     0
 49
3.174999999999999
 74
     0
 49
-3.174999999999999
 74
     0
  0
LTYPE
  5
1F38
330
4
100
AcDbSymbolTableRecord
100
AcDbLinetypeTableRecord
  2
CENTER
 70
     0
  3
Mitte ____ _ ____ _ ____ _ ____ _ ____ _ ____
 72
    65
 73
     4
 40
50.8
 49
31.75
 74
     0
 49
-6.349999999999999
 74
     0
 49
6.349999999999999
 74
     0
 49
-6.349999999999999
 74
     0
  0
LTYPE
  5
1F6F
330
4
100
AcDbSymbolTableRecord
100
AcDbLinetypeTableRecord
  2
Amconstr
 70
     0
  3
_______________________
 72
    65
 73
     2
 40
9999.0
 49
9999.0
 74
     0
 49
0.0
 74
     0
  0
LTYPE
  5
1F74
330
4
100
AcDbSymbolTableRecord
100
AcDbLinetypeTableRecord
  2
Amzigzag
 70
     0
  3
/\/-/\/-/\/-/\/-/\/-/\/
 72
    65
 73
     2
 40
11.0001
 49
0.0001
 74
     4
 75
   135
340
1F73
 46
0.04
 50
0.0
 44
0.0
 45
0.0
 49
-11.0
 74
     0
  0
LTYPE
  5
1F75
330
4
100
AcDbSymbolTableRecord
100
AcDbLinetypeTableRecord
  2
AM_DIN_F_W050
 70
     0
  3
__ __ __ __ __ __ __ __ __ __ __ __ __ __ __
 72
    65
 73
     2
 40
6.25
 49
4.75
 74
     0
 49
-1.5
 74
     0
  0
LTYPE
  5
1F76
330
4
100
AcDbSymbolTableRecord
100
AcDbLinetypeTableRecord
  2
AM_DIN_G_W050
 70
     0
  3
____ . ____ . ____ . ____ . ____ . ____ . ____
 72
    65
 73
     4
 40
13.75
 49
9.75
 74
     0
 49
-1.5
 74
     0
 49
1.0
 74
     0
 49
-1.5
 74
     0
  0
LTYPE
  5
1F77
330
4
100
AcDbSymbolTableRecord
100
AcDbLinetypeTableRecord
  2
AM_DIN_K_W050
 70
     0
  3
_____ . . _____ . . _____ . . ____ .. ____
 72
    65
 73
     6
 40
16.25
 49
9.75
 74
     0
 49
-1.5
 74
     0
 49
1.0
 74
     0
 49
-1.5
 74
     0
 49
1.0
 74
     0
 49
-1.5
 74
     0
  0
LTYPE
  5
1F78
330
4
100
AcDbSymbolTableRecord
100
AcDbLinetypeTableRecord
  2
AM_DIN_G_W050x2
 70
     0
  3
__ . __ . __ . __ . __ . __
 72
    65
 73
     4
 40
6.875
 49
4.75
 74
     0
 49
-0.875
 74
     0
 49
0.375
 74
     0
 49
-0.875
 74
     0
  0
LTYPE
  5
1F79
330
4
100
AcDbSymbolTableRecord
100
AcDbLinetypeTableRecord
  2
AM_DIN_F_W050x2
 70
     0
  3
 _ _ _ _ _ _ _ _ _ _ _ _
 72
    65
 73
     2
 40
3.125
 49
2.25
 74
     0
 49
-0.875
 74
     0
  0
LTYPE
  5
1F88
330
4
100
AcDbSymbolTableRecord
100
AcDbLinetypeTableRecord
  2
ACDINWELD
 70
     0
  3
_ _ _ _ _
 72
    65
 73
     2
 40
2.0
 49
2.0
 74
     0
 49
-1.0
 74
     0
  0
LTYPE
  5
1F89
330
4
100
AcDbSymbolTableRecord
100
AcDbLinetypeTableRecord
  2
ACDINTGB
 70
     0
  3
__ . . __ . .
 72
    65
 73
     6
 40
9.0
 49
4.0
 74
     0
 49
-1.0
 74
     0
 49
1.0
 74
     0
 49
-1.0
 74
     0
 49
1.0
 74
     0
 49
-1.0
 74
     0
  0
LTYPE
  5
1F8A
330
4
100
AcDbSymbolTableRecord
100
AcDbLinetypeTableRecord
  2
ACDINTGL
 70
     0
  3
_ _ _ _ _
 72
    65
 73
     2
 40
3.0
 49
2.0
 74
     0
 49
-1.0
 74
     0
  0
ENDTAB
  0
TABLE
  2
LAYER
  5
2
102
{ACAD_XDICTIONARY
360
22E3
102
}
330
0
100
AcDbSymbolTable
 70
     5
  0
LAYER
  5
14
330
2
100
AcDbSymbolTableRecord
100
AcDbLayerTableRecord
  2
0
 70
     0
 62
     7
  6
CONTINUOUS
370
    -3
390
1EF9
  0
LAYER
  5
1FBB
330
2
100
AcDbSymbolTableRecord
100
AcDbLayerTableRecord
  2
AM_7
 70
     0
 62
     4
  6
AM_DIN_G_W050
370
    25
390
1EF9
  0
LAYER
  5
1FD2
330
2
100
AcDbSymbolTableRecord
100
AcDbLayerTableRecord
  2
Defpoints
 70
     0
 62
     7
  6
CONTINUOUS
290
     0
370
    -3
390
1EF9
  0
LAYER
  5
22E8
330
2
100
AcDbSymbolTableRecord
100
AcDbLayerTableRecord
  2
AM_8
 70
     0
 62
     1
  6
CONTINUOUS
370
    25
390
1EF9
1001
AcAecLayerStandard
1000

1000

  0
ENDTAB
  0
TABLE
  2
STYLE
  5
3
330
0
100
AcDbSymbolTable
 70
     4
  0
STYLE
  5
17
330
3
100
AcDbSymbolTableRecord
100
AcDbTextStyleTableRecord
  2
STANDARD
 70
     0
 40
0.0
 41
1.0
 50
0.0
 71
     0
 42
0.0
  3
txt
  4

  0
STYLE
  5
1F73
330
3
100
AcDbSymbolTableRecord
100
AcDbTextStyleTableRecord
  2

 70
     1
 40
0.0
 41
1.0
 50
0.0
 71
     0
 42
2.5
  3
ltypeshp.shx
  4

  0
STYLE
  5
1F7A
330
3
100
AcDbSymbolTableRecord
100
AcDbTextStyleTableRecord
  2
ACDINTS
 70
     0
 40
1.0
 41
1.0
 50
0.0
 71
     0
 42
2.5
  3
isocp.shx
  4

  0
STYLE
  5
1F87
330
3
100
AcDbSymbolTableRecord
100
AcDbTextStyleTableRecord
  2
ACDINGDT
 70
     0
 40
0.0
 41
1.0
 50
0.0
 71
     0
 42
2.5
  3
amgdt.shx
  4

  0
ENDTAB
  0
TABLE
  2
VIEW
  5
5
330
0
100
AcDbSymbolTable
 70
     0
  0
ENDTAB
  0
TABLE
  2
UCS
  5
6
330
0
100
AcDbSymbolTable
 70
     0
  0
ENDTAB
  0
TABLE
  2
APPID
  5
8
330
0
100
AcDbSymbolTable
 70
    21
  0
APPID
  5
16
330
8
100
AcDbSymbolTableRecord
100
AcDbRegAppTableRecord
  2
ACAD
 70
     0
  0
APPID
  5
1F09
330
8
100
AcDbSymbolTableRecord
100
AcDbRegAppTableRecord
  2
MCAD_NO_VIS
 70
     0
  0
APPID
  5
1F0A
330
8
100
AcDbSymbolTableRecord
100
AcDbRegAppTableRecord
  2
ACAD_TEMP_GRAPHIC
 70
     0
  0
APPID
  5
1F3A
330
8
100
AcDbSymbolTableRecord
100
AcDbRegAppTableRecord
  2
AD_DRAW
 70
     0
  0
APPID
  5
1F3D
330
8
100
AcDbSymbolTableRecord
100
AcDbRegAppTableRecord
  2
ACATTRIBSERVICES
 70
     0
  0
APPID
  5
1F5B
330
8
100
AcDbSymbolTableRecord
100
AcDbRegAppTableRecord
  2
DESIGNERASSEMBLIES
 70
     0
  0
APPID
  5
1F61
330
8
100
AcDbSymbolTableRecord
100
AcDbRegAppTableRecord
  2
ACADM_DIM_EDIT
 70
     0
  0
APPID
  5
1F62
330
8
100
AcDbSymbolTableRecord
100
AcDbRegAppTableRecord
  2
AMDT_DM_ADJ
 70
     0
  0
APPID
  5
1FA1
330
8
100
AcDbSymbolTableRecord
100
AcDbRegAppTableRecord
  2
GENIUS_GENSCREG_15
 70
     0
  0
APPID
  5
1FA2
330
8
100
AcDbSymbolTableRecord
100
AcDbRegAppTableRecord
  2
GENIUS_GENODEF_13
 70
     0
  0
APPID
  5
1FA3
330
8
100
AcDbSymbolTableRecord
100
AcDbRegAppTableRecord
  2
GENIUS_GENOBJ-N-SDF_13
 70
     0
  0
APPID
  5
1FBD
330
8
100
AcDbSymbolTableRecord
100
AcDbRegAppTableRecord
  2
GENIUS_GENOBJ-N-CEN_13
 70
     0
  0
APPID
  5
1FBE
330
8
100
AcDbSymbolTableRecord
100
AcDbRegAppTableRecord
  2
GENIUS_GENCEN_19
 70
     0
  0
APPID
  5
1FE8
330
8
100
AcDbSymbolTableRecord
100
AcDbRegAppTableRecord
  2
GENIUS_GENDTOL_13
 70
     0
  0
APPID
  5
20ED
330
8
100
AcDbSymbolTableRecord
100
AcDbRegAppTableRecord
  2
DCO15
 70
     0
  0
APPID
  5
2152
330
8
100
AcDbSymbolTableRecord
100
AcDbRegAppTableRecord
  2
GENIUS_GENDIMSH_14
 70
     0
  0
APPID
  5
2174
330
8
100
AcDbSymbolTableRecord
100
AcDbRegAppTableRecord
  2
ACAD_DSTYLE_DIMARC_LENGTH_SYMBOL
 70
     0
  0
APPID
  5
2175
330
8
100
AcDbSymbolTableRecord
100
AcDbRegAppTableRecord
  2
ACAD_DSTYLE_DIMJOGGED_JOGANGLE_SYMBOL
 70
     0
  0
APPID
  5
21CD
330
8
100
AcDbSymbolTableRecord
100
AcDbRegAppTableRecord
  2
AcAecLayerStandard
 70
     0
  0
APPID
  5
22E9
330
8
100
AcDbSymbolTableRecord
100
AcDbRegAppTableRecord
  2
GENIUS_GENOBJ-N-HTC_13
 70
     0
  0
APPID
  5
22EA
330
8
100
AcDbSymbolTableRecord
100
AcDbRegAppTableRecord
  2
GENIUS_GENHATCH_13
 70
     0
  0
ENDTAB
  0
TABLE
  2
DIMSTYLE
  5
9
330
0
100
AcDbSymbolTable
 70
     9
100
AcDbDimStyleTable
 71
     1
340
18
  0
DIMSTYLE
105
18
330
9
100
AcDbSymbolTableRecord
100
AcDbDimStyleTableRecord
  2
STANDARD
 70
     0
340
17
  0
DIMSTYLE
105
1F94
330
9
100
AcDbSymbolTableRecord
100
AcDbDimStyleTableRecord
  2
AM_DIN
 70
     0
  4
"
 41
2.5
 42
1.0
 43
10.0
 44
1.0
 47
0.1
 48
0.1
 73
     0
 74
     0
 77
     1
 78
     8
 79
     2
140
3.5
141
0.0
143
0.0393701
146
0.71
147
1.5
172
     1
176
   256
177
   256
178
     2
271
     2
272
     3
274
     4
283
     0
284
     8
340
17
371
    -1
372
    -1
1001
ACAD_DSTYLE_DIMARC_LENGTH_SYMBOL
1070
   379
1070
     0
1001
ACAD_DSTYLE_DIMJOGGED_JOGANGLE_SYMBOL
1070
   384
1040
1.570796326794896
  0
DIMSTYLE
105
1F95
330
9
100
AcDbSymbolTableRecord
100
AcDbDimStyleTableRecord
  2
AM_DIN$3
 70
     0
  4
"
 41
2.5
 42
1.0
 43
10.0
 44
1.0
 47
0.1
 48
0.1
 73
     0
 77
     1
 78
     8
 79
     2
140
3.5
141
0.0
143
0.0393701
146
0.71
147
1.5
176
   256
177
   256
178
     2
271
     2
272
     3
274
     4
283
     0
284
     8
288
     1
289
     0
340
17
371
    -1
372
    -1
1001
ACAD_DSTYLE_DIMARC_LENGTH_SYMBOL
1070
   379
1070
     0
1001
ACAD_DSTYLE_DIMJOGGED_JOGANGLE_SYMBOL
1070
   384
1040
1.570796326794896
  0
DIMSTYLE
105
1F96
330
9
100
AcDbSymbolTableRecord
100
AcDbDimStyleTableRecord
  2
AM_DIN$4
 70
     0
  4
"
 41
2.5
 42
1.0
 43
10.0
 44
1.0
 47
0.1
 48
0.1
 73
     0
 77
     1
 78
     8
 79
     2
140
3.5
141
0.0
143
0.0393701
146
0.71
147
1.5
176
   256
177
   256
178
     2
271
     2
272
     3
274
     4
283
     0
284
     8
288
     1
289
     0
340
17
371
    -1
372
    -1
1001
ACAD_DSTYLE_DIMARC_LENGTH_SYMBOL
1070
   379
1070
     0
1001
ACAD_DSTYLE_DIMJOGGED_JOGANGLE_SYMBOL
1070
   384
1040
1.570796326794896
  0
DIMSTYLE
105
1F97
330
9
100
AcDbSymbolTableRecord
100
AcDbDimStyleTableRecord
  2
AM_DIN$6
 70
     0
  4
"
 41
2.5
 42
1.0
 43
10.0
 44
1.0
 47
0.1
 48
0.1
 73
     0
 74
     0
 78
     8
 79
     2
140
3.5
141
0.0
143
0.0393701
146
0.71
147
1.5
172
     1
176
   256
177
   256
178
     2
271
     2
272
     3
274
     4
283
     0
284
     8
340
17
371
    -1
372
    -1
1001
ACAD_DSTYLE_DIMARC_LENGTH_SYMBOL
1070
   379
1070
     0
1001
ACAD_DSTYLE_DIMJOGGED_JOGANGLE_SYMBOL
1070
   384
1040
1.570796326794896
  0
DIMSTYLE
105
1F98
330
9
100
AcDbSymbolTableRecord
100
AcDbDimStyleTableRecord
  2
AM_DIN$7
 70
     0
  4
"
 41
2.5
 42
1.0
 43
10.0
 44
1.0
 47
0.1
 48
0.1
 73
     0
 74
     0
 77
     1
 78
     8
 79
     2
140
5.0
141
0.0
143
0.0393701
146
0.71
147
1.5
172
     1
176
   256
177
   256
178
     2
271
     2
272
     3
274
     4
283
     0
284
     8
340
17
371
    -1
372
    -1
1001
ACAD_DSTYLE_DIMARC_LENGTH_SYMBOL
1070
   379
1070
     0
1001
ACAD_DSTYLE_DIMJOGGED_JOGANGLE_SYMBOL
1070
   384
1040
1.570796326794896
  0
DIMSTYLE
105
1F99
330
9
100
AcDbSymbolTableRecord
100
AcDbDimStyleTableRecord
  2
AM_DIN$SF
 70
     0
  4
"
 41
2.5
 42
1.0
 43
10.0
 44
1.0
 47
0.1
 48
0.1
 73
     0
 74
     0
 75
     1
 76
     1
 77
     1
 78
     8
 79
     2
140
3.5
141
0.0
143
0.0393701
146
0.71
147
1.5
172
     1
176
   256
177
   256
178
     2
271
     2
272
     3
274
     4
283
     0
284
     8
340
17
371
    -1
372
    -1
1001
ACAD_DSTYLE_DIMARC_LENGTH_SYMBOL
1070
   379
1070
     0
1001
ACAD_DSTYLE_DIMJOGGED_JOGANGLE_SYMBOL
1070
   384
1040
1.570796326794896
  0
DIMSTYLE
105
1F9E
330
9
100
AcDbSymbolTableRecord
100
AcDbDimStyleTableRecord
  2
AM_DIN$SH
 70
     0
  4
"
 41
2.5
 42
1.0
 43
10.0
 44
1.0
 47
0.1
 48
0.1
 73
     0
 74
     0
 75
     1
 76
     1
 77
     1
 78
     8
 79
     2
140
3.5
141
0.0
143
0.0393701
144
2.0
146
0.71
147
1.5
172
     1
173
     1
176
   256
177
   256
178
     2
271
     2
272
     3
274
     4
283
     0
284
     8
340
17
343
1F9A
371
    -1
372
    -1
1001
ACAD_DSTYLE_DIMARC_LENGTH_SYMBOL
1070
   379
1070
     0
1001
ACAD_DSTYLE_DIMJOGGED_JOGANGLE_SYMBOL
1070
   384
1040
1.570796326794896
  0
DIMSTYLE
105
1FCD
102
{ACAD_REACTORS
330
224B
330
2379
102
}
330
9
100
AcDbSymbolTableRecord
100
AcDbDimStyleTableRecord
  2
STANDARD$0
 70
     0
340
17
  0
ENDTAB
  0
TABLE
  2
BLOCK_RECORD
  5
1
330
0
100
AcDbSymbolTable
 70
     6
  0
BLOCK_RECORD
  5
A
102
{ACAD_XDICTIONARY
360
21E4
102
}
330
1
100
AcDbSymbolTableRecord
100
AcDbBlockTableRecord
  2
*MODEL_SPACE
340
1F00
  0
BLOCK_RECORD
  5
B
330
1
100
AcDbSymbolTableRecord
100
AcDbBlockTableRecord
  2
*PAPER_SPACE
340
1F01
  0
BLOCK_RECORD
  5
1F9A
330
1
100
AcDbSymbolTableRecord
100
AcDbBlockTableRecord
  2
GENAXEH
340
0
  0
BLOCK_RECORD
  5
224C
330
1
100
AcDbSymbolTableRecord
100
AcDbBlockTableRecord
  2
*D2
340
0
  0
BLOCK_RECORD
  5
237A
330
1
100
AcDbSymbolTableRecord
100
AcDbBlockTableRecord
  2
*D5
340
0
  0
ENDTAB
  0
ENDSEC
  0
SECTION
  2
BLOCKS
  0
BLOCK
  5
D
330
A
100
AcDbEntity
  8
0
100
AcDbBlockBegin
  2
*MODEL_SPACE
 70
     0
 10
0.0
 20
0.0
 30
0.0
  3
*MODEL_SPACE
  1

  0
ENDBLK
  5
E
330
A
100
AcDbEntity
  8
0
100
AcDbBlockEnd
  0
BLOCK
  5
F
330
B
100
AcDbEntity
 67
     1
  8
0
100
AcDbBlockBegin
  2
*PAPER_SPACE
 70
     0
 10
0.0
 20
0.0
 30
0.0
  3
*PAPER_SPACE
  1

  0
ENDBLK
  5
10
330
B
100
AcDbEntity
 67
     1
  8
0
100
AcDbBlockEnd
  0
BLOCK
  5
1F9C
330
1F9A
100
AcDbEntity
  8
0
100
AcDbBlockBegin
  2
GENAXEH
 70
     0
 10
0.0
 20
0.0
 30
0.0
  3
GENAXEH
  1

  0
LINE
  5
1F9B
330
1F9A
100
AcDbEntity
  8
0
100
AcDbLine
 10
-1.0
 20
0.0
 30
0.0
 11
1.0
 21
0.0
 31
0.0
  0
ENDBLK
  5
1F9D
330
1F9A
100
AcDbEntity
  8
0
100
AcDbBlockEnd
  0
BLOCK
  5
2256
330
224C
100
AcDbEntity
  8
0
100
AcDbBlockBegin
  2
*D2
 70
     1
 10
0.0
 20
0.0
 30
0.0
  3
*D2
  1

  0
LINE
  5
235F
330
224C
100
AcDbEntity
  8
0
 62
     0
 48
0.063882
370
    -2
100
AcDbLine
 10
152.5894935541576
 20
298.6515199999999
 30
0.0
 11
87.95632487398245
 21
298.65152
 31
0.0
  0
LINE
  5
2360
330
224C
100
AcDbEntity
  8
0
 62
     0
 48
0.063882
370
    -2
100
AcDbLine
 10
214.1625272620228
 20
438.6515199999999
 30
0.0
 11
87.95632487398249
 21
438.6515199999999
 31
0.0
  0
LINE
  5
2361
330
224C
100
AcDbEntity
  8
0
 62
     0
 48
0.063882
370
    -2
100
AcDbLine
 10
89.20632487398245
 20
308.65152
 30
0.0
 11
89.20632487398249
 21
428.65152
 31
0.0
  0
SOLID
  5
2362
330
224C
100
AcDbEntity
  8
0
 62
     0
 48
0.063882
100
AcDbTrace
 10
87.53965820731577
 20
308.65152
 30
0.0
 11
90.87299154064913
 21
308.65152
 31
0.0
 12
89.20632487398245
 22
298.65152
 32
0.0
 13
89.20632487398245
 23
298.65152
 33
0.0
  0
SOLID
  5
2363
330
224C
100
AcDbEntity
  8
0
 62
     0
 48
0.063882
100
AcDbTrace
 10
87.53965820731581
 20
428.65152
 30
0.0
 11
90.87299154064915
 21
428.65152
 31
0.0
 12
89.20632487398249
 22
438.6515199999999
 32
0.0
 13
89.20632487398249
 23
438.6515199999999
 33
0.0
  0
MTEXT
  5
2364
330
224C
100
AcDbEntity
  8
0
 62
     2
 48
0.063882
100
AcDbMText
 10
82.20632487398241
 20
368.65152
 30
0.0
 40
10.0
 41
0.0
 71
     5
 72
     1
  1
140
 11
0.0000000000000001
 21
1.0
 31
0.0
 73
     1
 44
1.0
1001
ACAD
1000
MTEXTBEGIN
1070
    73
1070
     1
1070
    44
1040
1.0
1070
    74
1070
     0
1000
MTEXTEND
  0
POINT
  5
2365
330
224C
100
AcDbEntity
  8
Defpoints
 62
     0
 48
0.063882
100
AcDbPoint
 10
153.2144935541575
 20
298.6515199999999
 30
0.0
  0
POINT
  5
2366
330
224C
100
AcDbEntity
  8
Defpoints
 62
     0
 48
0.063882
100
AcDbPoint
 10
214.7875272620228
 20
438.6515199999999
 30
0.0
  0
POINT
  5
2367
330
224C
100
AcDbEntity
  8
Defpoints
 62
     0
 48
0.063882
100
AcDbPoint
 10
89.20632487398249
 20
438.6515199999999
 30
0.0
  0
ENDBLK
  5
2257
330
224C
100
AcDbEntity
  8
0
100
AcDbBlockEnd
  0
BLOCK
  5
2384
330
237A
100
AcDbEntity
  8
0
100
AcDbBlockBegin
  2
*D5
 70
     1
 10
0.0
 20
0.0
 30
0.0
  3
*D5
  1

  0
LINE
  5
239B
330
237A
100
AcDbEntity
  8
0
 62
     0
 48
0.063882
370
    -2
100
AcDbLine
 10
294.7875272620228
 20
298.0265199999998
 30
0.0
 11
294.7875272620228
 21
270.4625506521366
 31
0.0
  0
LINE
  5
239C
330
237A
100
AcDbEntity
  8
0
 62
     0
 48
0.063882
370
    -2
100
AcDbLine
 10
134.7875272620228
 20
298.0265199999998
 30
0.0
 11
134.7875272620228
 21
270.4625506521366
 31
0.0
  0
LINE
  5
239D
330
237A
100
AcDbEntity
  8
0
 62
     0
 48
0.063882
370
    -2
100
AcDbLine
 10
284.7875272620228
 20
271.7125506521366
 30
0.0
 11
144.7875272620228
 21
271.7125506521366
 31
0.0
  0
SOLID
  5
239E
330
237A
100
AcDbEntity
  8
0
 62
     0
 48
0.063882
100
AcDbTrace
 10
284.7875272620228
 20
273.3792173188033
 30
0.0
 11
284.7875272620228
 21
270.0458839854699
 31
0.0
 12
294.7875272620228
 22
271.7125506521366
 32
0.0
 13
294.7875272620228
 23
271.7125506521366
 33
0.0
  0
SOLID
  5
239F
330
237A
100
AcDbEntity
  8
0
 62
     0
 48
0.063882
100
AcDbTrace
 10
144.7875272620228
 20
273.3792173188033
 30
0.0
 11
144.7875272620228
 21
270.0458839854699
 31
0.0
 12
134.7875272620228
 22
271.7125506521366
 32
0.0
 13
134.7875272620228
 23
271.7125506521366
 33
0.0
  0
MTEXT
  5
23A0
330
237A
100
AcDbEntity
  8
0
 62
     2
 48
0.063882
100
AcDbMText
 10
214.7875272620228
 20
278.7125506521366
 30
0.0
 40
10.0
 41
0.0
 71
     5
 72
     1
  1
%%c160
 73
     1
 44
1.0
1001
ACAD
1000
MTEXTBEGIN
1070
    73
1070
     1
1070
    44
1040
1.0
1070
    74
1070
     0
1000
MTEXTEND
  0
POINT
  5
23A1
330
237A
100
AcDbEntity
  8
Defpoints
 62
     0
 48
0.063882
100
AcDbPoint
 10
294.7875272620228
 20
298.6515199999999
 30
0.0
  0
POINT
  5
23A2
330
237A
100
AcDbEntity
  8
Defpoints
 62
     0
 48
0.063882
100
AcDbPoint
 10
134.7875272620228
 20
298.6515199999999
 30
0.0
  0
POINT
  5
23A3
330
237A
100
AcDbEntity
  8
Defpoints
 62
     0
 48
0.063882
100
AcDbPoint
 10
134.7875272620228
 20
271.7125506521366
 30
0.0
  0
ENDBLK
  5
2385
330
237A
100
AcDbEntity
  8
0
100
AcDbBlockEnd
  0
ENDSEC
  0
SECTION
  2
ENTITIES
  0
LINE
  5
1888
330
A
100
AcDbEntity
  8
0
 62
     7
 48
0.225983
100
AcDbLine
 10
135.835678
 20
435.530945
 30
0.0
 11
136.034576
 21
435.729858
 31
0.0
  0
LINE
  5
188C
330
A
100
AcDbEntity
  8
0
 62
     7
 48
0.225983
100
AcDbLine
 10
295.722198
 20
435.530945
 30
0.0
 11
295.523285
 21
435.729858
 31
0.0
  0
ARC
  5
188E
330
A
100
AcDbEntity
  8
0
 62
     7
 48
0.225983
100
AcDbCircle
 10
295.666748
 20
435.8733219999999
 30
0.0
 40
0.202878
100
AcDbArc
 50
179.999995
 51
225.0
  0
ARC
  5
1891
330
A
100
AcDbEntity
  8
0
 62
     7
 48
0.225983
100
AcDbCircle
 10
135.891129
 20
435.8733219999999
 30
0.0
 40
0.202878
100
AcDbArc
 50
314.9999990000001
 51
0.0
  0
ARC
  5
1893
330
A
100
AcDbEntity
  8
0
 62
     7
 48
0.225983
100
AcDbCircle
 10
295.666748
 20
435.8733219999999
 30
0.0
 40
0.202878
100
AcDbArc
 50
134.9999999999999
 51
180.000005
  0
ARC
  5
1894
330
A
100
AcDbEntity
  8
0
 62
     7
 48
0.225983
100
AcDbCircle
 10
135.891129
 20
435.8733219999999
 30
0.0
 40
0.202878
100
AcDbArc
 50
0.0
 51
45.00000099999994
  0
LINE
  5
1896
330
A
100
AcDbEntity
  8
0
 62
     7
 48
0.225983
100
AcDbLine
 10
136.034576
 20
436.0167849999998
 30
0.0
 11
135.835678
 21
436.2156679999999
 31
0.0
  0
LINE
  5
189A
330
A
100
AcDbEntity
  8
0
 62
     7
 48
0.225983
100
AcDbLine
 10
295.523285
 20
436.0167849999999
 30
0.0
 11
295.722198
 21
436.215668
 31
0.0
  0
LINE
  5
18A6
330
A
100
AcDbEntity
  8
0
 62
     7
 48
0.225983
100
AcDbLine
 10
135.778595
 20
436.3535159999999
 30
0.0
 11
135.840729
 21
436.3535159999999
 31
0.0
  0
ARC
  5
18A7
330
A
100
AcDbEntity
  8
0
 62
     7
 48
0.225983
100
AcDbCircle
 10
295.584351
 20
436.353516
 30
0.0
 40
0.194922
100
AcDbArc
 50
314.9999990000001
 51
0.0
  0
ARC
  5
18A9
330
A
100
AcDbEntity
  8
0
 62
     7
 48
0.225983
100
AcDbCircle
 10
135.973511
 20
436.3535159999999
 30
0.0
 40
0.194922
100
AcDbArc
 50
179.999995
 51
225.0
  0
ARC
  5
1C03
330
A
100
AcDbEntity
  8
0
 62
     7
 48
0.225983
100
AcDbCircle
 10
135.973511
 20
435.3931269999998
 30
0.0
 40
0.194922
100
AcDbArc
 50
134.9999999999999
 51
180.000005
  0
ARC
  5
1C06
330
A
100
AcDbEntity
  8
0
 62
     7
 48
0.225983
100
AcDbCircle
 10
295.584351
 20
435.3931269999999
 30
0.0
 40
0.194922
100
AcDbArc
 50
0.0
 51
45.00000099999994
  0
LINE
  5
1C53
330
A
100
AcDbEntity
  8
0
 62
     7
 48
0.225983
100
AcDbLine
 10
296.029114
 20
438.375854
 30
0.0
 11
297.351685
 21
438.375854
 31
0.0
  0
LINE
  5
1C54
330
A
100
AcDbEntity
  8
0
 62
     7
 48
0.225983
100
AcDbLine
 10
297.351685
 20
438.375854
 30
0.0
 11
298.282898
 21
438.375854
 31
0.0
  0
LINE
  5
1C55
330
A
100
AcDbEntity
  8
0
 62
     7
 48
0.225983
100
AcDbLine
 10
298.282898
 20
438.375854
 30
0.0
 11
298.4045145879162
 21
424.4391190124259
 31
0.0
  0
LINE
  5
1C56
330
A
100
AcDbEntity
  8
0
 62
     7
 48
0.225983
100
AcDbLine
 10
133.274796
 20
438.3758539999999
 30
0.0
 11
135.52951
 21
438.3758539999999
 31
0.0
  0
LINE
  5
1C59
330
A
100
AcDbEntity
  8
0
 62
     7
 48
0.225983
100
AcDbLine
 10
133.1531629105116
 20
424.439119012426
 30
0.0
 11
133.274796
 21
438.3758539999999
 31
0.0
  0
LINE
  5
1C5A
330
A
100
AcDbEntity
  8
0
 62
     7
 48
0.225983
100
AcDbLine
 10
133.77478
 20
438.8714599999999
 30
0.0
 11
133.777344
 21
438.8714599999999
 31
0.0
  0
LINE
  5
1C5B
330
A
100
AcDbEntity
  8
0
 62
     7
 48
0.225983
100
AcDbLine
 10
133.777344
 20
438.8714599999999
 30
0.0
 11
135.778976
 21
438.8713989999999
 31
0.0
  0
LINE
  5
1C5C
330
A
100
AcDbEntity
  8
0
 62
     7
 48
0.225983
100
AcDbLine
 10
135.121979
 20
438.3758539999999
 30
0.0
 11
135.529526
 21
438.3758539999999
 31
0.0
  0
LINE
  5
1C5D
330
A
100
AcDbEntity
  8
0
 62
     7
 48
0.225983
100
AcDbLine
 10
133.274796
 20
438.3758539999999
 30
0.0
 11
135.121979
 21
438.3758539999999
 31
0.0
  0
ARC
  5
1C5E
330
A
100
AcDbEntity
  8
0
 62
     7
 48
0.225983
100
AcDbCircle
 10
133.774628
 20
438.3716429999998
 30
0.0
 40
0.499801
100
AcDbArc
 50
89.98306400000009
 51
179.517056
  0
LINE
  5
1C5F
330
A
100
AcDbEntity
  8
0
 62
     7
 48
0.225983
100
AcDbLine
 10
296.028809
 20
438.375854
 30
0.0
 11
298.282898
 21
438.375854
 31
0.0
  0
LINE
  5
1C60
330
A
100
AcDbEntity
  8
0
 62
     7
 48
0.225983
100
AcDbLine
 10
296.6283259999999
 20
438.8714599999999
 30
0.0
 11
296.858795
 21
438.8714599999999
 31
0.0
  0
LINE
  5
1C61
330
A
100
AcDbEntity
  8
0
 62
     7
 48
0.225983
100
AcDbLine
 10
296.858856
 20
438.8714599999999
 30
0.0
 11
297.784149
 21
438.8714599999999
 31
0.0
  0
ARC
  5
1C62
330
A
100
AcDbEntity
  8
0
 62
     7
 48
0.225983
100
AcDbCircle
 10
297.783051
 20
438.3716429999999
 30
0.0
 40
0.499798
100
AcDbArc
 50
0.4827819999999996
 51
89.87533799999997
  0
LINE
  5
1C63
330
A
100
AcDbEntity
  8
0
 62
     7
 48
0.225983
100
AcDbLine
 10
133.774734
 20
438.8714599999999
 30
0.0
 11
134.928894
 21
438.8714599999999
 31
0.0
  0
LINE
  5
1C64
330
A
100
AcDbEntity
  8
0
 62
     7
 48
0.225983
100
AcDbLine
 10
134.928894
 20
438.8714599999999
 30
0.0
 11
135.470856
 21
438.8714599999999
 31
0.0
  0
LINE
  5
1C65
330
A
100
AcDbEntity
  8
0
 62
     7
 48
0.225983
100
AcDbLine
 10
135.470856
 20
438.8714599999999
 30
0.0
 11
135.778656
 21
438.8714599999999
 31
0.0
  0
LINE
  5
1C67
330
A
100
AcDbEntity
  8
0
 62
     7
 48
0.225983
100
AcDbLine
 10
295.778961
 20
438.8714599999999
 30
0.0
 11
296.086823
 21
438.8714599999999
 31
0.0
  0
LINE
  5
1C68
330
A
100
AcDbEntity
  8
0
 62
     7
 48
0.225983
100
AcDbLine
 10
296.086823
 20
438.8714599999999
 30
0.0
 11
296.628784
 21
438.8714599999999
 31
0.0
  0
LINE
  5
1C69
330
A
100
AcDbEntity
  8
0
 62
     7
 48
0.225983
100
AcDbLine
 10
296.628784
 20
438.8714599999999
 30
0.0
 11
297.782959
 21
438.8714599999999
 31
0.0
  0
LINE
  5
1C6A
330
A
100
AcDbEntity
  8
0
 62
     7
 48
0.225983
100
AcDbLine
 10
134.931396
 20
438.8714599999999
 30
0.0
 11
135.778595
 21
438.8714599999999
 31
0.0
  0
LINE
  5
1C6B
330
A
100
AcDbEntity
  8
0
 62
     7
 48
0.225983
100
AcDbLine
 10
134.931396
 20
438.8714599999999
 30
0.0
 11
135.778625
 21
438.8714599999999
 31
0.0
  0
LINE
  5
1C6C
330
A
100
AcDbEntity
  8
0
 62
     7
 48
0.225983
100
AcDbLine
 10
135.343155
 20
438.6515199999999
 30
0.0
 11
135.778625
 21
438.6515199999999
 31
0.0
  0
LINE
  5
1C6E
330
A
100
AcDbEntity
  8
0
 62
     7
 48
0.225983
100
AcDbLine
 10
134.929337
 20
438.8714599999999
 30
0.0
 11
134.931458
 21
438.8714599999999
 31
0.0
  0
ARC
  5
1C6F
330
A
100
AcDbEntity
  8
0
 62
     7
 48
0.225983
100
AcDbCircle
 10
134.928833
 20
438.3713069999999
 30
0.0
 40
0.500188
100
AcDbArc
 50
34.07072899999997
 51
89.98962699999996
  0
LINE
  5
1C70
330
A
100
AcDbEntity
  8
0
 62
     7
 48
0.225983
100
AcDbLine
 10
296.512787
 20
438.8714599999999
 30
0.0
 11
296.628754
 21
438.8714599999999
 31
0.0
  0
LINE
  5
1C71
330
A
100
AcDbEntity
  8
0
 62
     7
 48
0.225983
100
AcDbLine
 10
295.779266
 20
438.8714599999999
 30
0.0
 11
296.512787
 21
438.8714599999999
 31
0.0
  0
LINE
  5
1C72
330
A
100
AcDbEntity
  8
0
 62
     7
 48
0.225983
100
AcDbLine
 10
295.779297
 20
438.6515199999999
 30
0.0
 11
296.214539
 21
438.6515199999999
 31
0.0
  0
ARC
  5
1C73
330
A
100
AcDbEntity
  8
0
 62
     7
 48
0.225983
100
AcDbCircle
 10
296.628845
 20
438.3713069999999
 30
0.0
 40
0.500188
100
AcDbArc
 50
90.01037100000003
 51
145.929273
  0
LINE
  5
1C74
330
A
100
AcDbEntity
  8
0
 62
     7
 48
0.225983
100
AcDbLine
 10
135.744904
 20
438.0572509999999
 30
0.0
 11
135.77887
 21
438.0572509999999
 31
0.0
  0
LINE
  5
1C75
330
A
100
AcDbEntity
  8
0
 62
     7
 48
0.225983
100
AcDbLine
 10
133.360538753011
 20
438.65152
 30
0.0
 11
298.1971366260184
 21
438.6515199999998
 31
0.0
  0
LINE
  5
1C76
330
A
100
AcDbEntity
  8
0
 62
     7
 48
0.225983
100
AcDbLine
 10
135.744904
 20
438.0572509999999
 30
0.0
 11
135.343155
 21
438.6515199999999
 31
0.0
  0
LINE
  5
1C77
330
A
100
AcDbEntity
  8
0
 62
     7
 48
0.225983
100
AcDbLine
 10
295.779297
 20
438.6515199999999
 30
0.0
 11
296.214539
 21
438.6515199999999
 31
0.0
  0
LINE
  5
1C78
330
A
100
AcDbEntity
  8
0
 62
     7
 48
0.225983
100
AcDbLine
 10
295.778992
 20
438.0572509999999
 30
0.0
 11
295.812775
 21
438.0572509999999
 31
0.0
  0
LINE
  5
1C79
330
A
100
AcDbEntity
  8
0
 62
     7
 48
0.225983
100
AcDbLine
 10
295.812775
 20
438.0572509999999
 30
0.0
 11
296.214539
 21
438.6515199999999
 31
0.0
  0
ARC
  5
1C7D
330
A
100
AcDbEntity
  8
0
 62
     7
 48
0.225983
100
AcDbCircle
 10
296.703217
 20
437.455688
 30
0.0
 40
1.074743
100
AcDbArc
 50
180.004571
 51
199.041784
  0
ARC
  5
1C81
330
A
100
AcDbEntity
  8
0
 62
     7
 48
0.225983
100
AcDbCircle
 10
134.854507
 20
437.455658
 30
0.0
 40
1.074693
100
AcDbArc
 50
340.971991
 51
359.995971
  0
LINE
  5
1C83
330
A
100
AcDbEntity
  8
0
 62
     7
 48
0.225983
100
AcDbLine
 10
135.745041
 20
438.0570679999999
 30
0.0
 11
135.778061
 21
438.0577389999999
 31
0.0
  0
ARC
  5
1C84
330
A
100
AcDbEntity
  8
0
 62
     7
 48
0.225983
100
AcDbCircle
 10
134.852142
 20
437.4547119999999
 30
0.0
 40
1.077166
100
AcDbArc
 50
0.047363
 51
34.00326000000004
  0
ARC
  5
1C87
330
A
100
AcDbEntity
  8
0
 62
     7
 48
0.225983
100
AcDbCircle
 10
296.705566
 20
437.4546809999999
 30
0.0
 40
1.077191
100
AcDbArc
 50
145.942332
 51
179.951839
  0
LINE
  5
1C88
330
A
100
AcDbEntity
  8
0
 62
     7
 48
0.225983
100
AcDbLine
 10
135.32338
 20
433.8430179999999
 30
0.0
 11
135.778595
 21
433.8430179999999
 31
0.0
  0
ARC
  5
1C8B
330
A
100
AcDbEntity
  8
0
 62
     7
 48
0.225983
100
AcDbCircle
 10
145.330078
 20
433.8418579999999
 30
0.0
 40
10.006773
100
AcDbArc
 50
160.968981
 51
179.993352
  0
LINE
  5
1C8D
330
A
100
AcDbEntity
  8
0
 62
     7
 48
0.225983
100
AcDbLine
 10
295.779297
 20
433.8430179999999
 30
0.0
 11
296.234283
 21
433.8430179999999
 31
0.0
  0
ARC
  5
1C8E
330
A
100
AcDbEntity
  8
0
 62
     7
 48
0.225983
100
AcDbCircle
 10
286.2276
 20
433.8418579999999
 30
0.0
 40
10.006773
100
AcDbArc
 50
0.006642
 51
19.03101899999997
  0
LINE
  5
1C8F
330
A
100
AcDbEntity
  8
0
 62
     7
 48
0.225983
100
AcDbLine
 10
295.779266
 20
433.8430179999999
 30
0.0
 11
296.234283
 21
433.8430179999999
 31
0.0
  0
LINE
  5
1C90
330
A
100
AcDbEntity
  8
0
 62
     7
 48
0.225983
100
AcDbLine
 10
295.779297
 20
433.7557369999999
 30
0.0
 11
296.233917
 21
433.7557369999999
 31
0.0
  0
LINE
  5
1C91
330
A
100
AcDbEntity
  8
0
 62
     7
 48
0.225983
100
AcDbLine
 10
296.233917
 20
433.755676
 30
0.0
 11
296.234283
 21
433.8430179999999
 31
0.0
  0
LINE
  5
1C92
330
A
100
AcDbEntity
  8
0
 62
     7
 48
0.225983
100
AcDbLine
 10
135.323761
 20
433.7557369999999
 30
0.0
 11
135.778595
 21
433.7557369999999
 31
0.0
  0
LINE
  5
1C94
330
A
100
AcDbEntity
  8
0
 62
     7
 48
0.225983
100
AcDbLine
 10
135.323761
 20
433.7556759999999
 30
0.0
 11
135.32338
 21
433.8430179999999
 31
0.0
  0
LINE
  5
1C9D
330
A
100
AcDbEntity
  8
0
 62
     7
 48
0.225983
100
AcDbLine
 10
133.2344738510168
 20
433.755737
 30
0.0
 11
298.3232146786061
 21
433.7557369999999
 31
0.0
  0
LINE
  5
1C9E
330
A
100
AcDbEntity
  8
0
 62
     7
 48
0.225983
100
AcDbLine
 10
135.4050572981065
 20
424.439119012426
 30
0.0
 11
135.323761
 21
433.7557369999999
 31
0.0
  0
LINE
  5
1CA3
330
A
100
AcDbEntity
  8
0
 62
     7
 48
0.225983
100
AcDbLine
 10
296.1526207018935
 20
424.4391190124259
 30
0.0
 11
296.233917
 21
433.7557369999999
 31
0.0
  0
LINE
  5
21E3
330
A
100
AcDbEntity
  8
0
 62
     7
 48
0.225983
100
AcDbLine
 10
129.9546834834312
 20
421.65152
 30
0.0
 11
299.6203710406143
 21
421.6515199999998
 31
0.0
  0
LINE
  5
21E6
330
A
100
AcDbEntity
  8
0
 62
     7
 48
0.225983
100
AcDbLine
 10
129.9546834834312
 20
424.439119012426
 30
0.0
 11
299.6203710406143
 21
424.439119012426
 31
0.0
  0
LINE
  5
21F3
330
A
100
AcDbEntity
  8
AM_7
  6
AM_DIN_G_W050x2
100
AcDbLine
 10
214.7875272620228
 20
441.6515199999999
 30
0.0
 11
214.7875272620228
 21
298.6515199999999
 31
0.0
1001
GENIUS_GENODEF_13
1002
{
1000
HIER
1070
     0
1002
}
1002
{
1000
MANEDIT
1070
     0
1002
}
1002
{
1000
NOSEL
1070
     0
1002
}
1002
{
1000
BEHIND
1070
     0
1002
}
1002
{
1000
OTHER
1070
     0
1002
}
1002
{
1000
REACTOR
1002
}
1001
GENIUS_GENOBJ-N-CEN_13
1002
{
1000
OWNER
1000
GEN
1002
}
1001
GENIUS_GENCEN_19
1002
{
1040
3.0
1002
}
  0
LINE
  5
21F4
330
A
100
AcDbEntity
  8
0
 62
     7
 48
0.225983
100
AcDbLine
 10
129.9546834834312
 20
424.4391190124259
 30
0.0
 11
129.9546834834312
 21
421.6515200000001
 31
0.0
1001
GENIUS_GENODEF_13
1002
{
1000
HIER
1070
     0
1002
}
1002
{
1000
MANEDIT
1070
     0
1002
}
1002
{
1000
NOSEL
1070
     0
1002
}
1002
{
1000
BEHIND
1070
     0
1002
}
1002
{
1000
OTHER
1070
     0
1002
}
1002
{
1000
REACTOR
1002
}
1001
GENIUS_GENOBJ-N-CEN_13
1002
{
1000
OWNER
1000
GEN
1002
}
1001
GENIUS_GENCEN_19
1002
{
1040
3.0
1002
}
  0
LINE
  5
21F5
330
A
100
AcDbEntity
  8
0
 62
     7
 48
0.225983
100
AcDbLine
 10
299.6203710406143
 20
424.4391190124259
 30
0.0
 11
299.6203710406143
 21
421.6515199999998
 31
0.0
1001
GENIUS_GENODEF_13
1002
{
1000
HIER
1070
     0
1002
}
1002
{
1000
MANEDIT
1070
     0
1002
}
1002
{
1000
NOSEL
1070
     0
1002
}
1002
{
1000
BEHIND
1070
     0
1002
}
1002
{
1000
OTHER
1070
     0
1002
}
1002
{
1000
REACTOR
1002
}
1001
GENIUS_GENOBJ-N-CEN_13
1002
{
1000
OWNER
1000
GEN
1002
}
1001
GENIUS_GENCEN_19
1002
{
1040
3.0
1002
}
  0
LINE
  5
21F7
330
A
100
AcDbEntity
  8
0
 62
     7
 48
0.225983
100
AcDbLine
 10
134.7875272620227
 20
421.6515199999999
 30
0.0
 11
134.7875272620227
 21
298.6515199999999
 31
0.0
1001
GENIUS_GENODEF_13
1002
{
1000
HIER
1070
     0
1002
}
1002
{
1000
MANEDIT
1070
     0
1002
}
1002
{
1000
NOSEL
1070
     0
1002
}
1002
{
1000
BEHIND
1070
     0
1002
}
1002
{
1000
OTHER
1070
     0
1002
}
1002
{
1000
REACTOR
1002
}
1001
GENIUS_GENOBJ-N-CEN_13
1002
{
1000
OWNER
1000
GEN
1002
}
1001
GENIUS_GENCEN_19
1002
{
1040
3.0
1002
}
  0
LINE
  5
21F8
330
A
100
AcDbEntity
  8
0
 62
     7
 48
0.225983
100
AcDbLine
 10
137.7875272620227
 20
421.6515199999999
 30
0.0
 11
137.7875272620227
 21
298.6515199999999
 31
0.0
1001
GENIUS_GENODEF_13
1002
{
1000
HIER
1070
     0
1002
}
1002
{
1000
MANEDIT
1070
     0
1002
}
1002
{
1000
NOSEL
1070
     0
1002
}
1002
{
1000
BEHIND
1070
     0
1002
}
1002
{
1000
OTHER
1070
     0
1002
}
1002
{
1000
REACTOR
1002
}
1001
GENIUS_GENOBJ-N-CEN_13
1002
{
1000
OWNER
1000
GEN
1002
}
1001
GENIUS_GENCEN_19
1002
{
1040
3.0
1002
}
  0
LINE
  5
21F9
330
A
100
AcDbEntity
  8
0
 62
     7
 48
0.225983
100
AcDbLine
 10
294.7875272620228
 20
421.65152
 30
0.0
 11
294.7875272620228
 21
298.6515199999999
 31
0.0
1001
GENIUS_GENODEF_13
1002
{
1000
HIER
1070
     0
1002
}
1002
{
1000
MANEDIT
1070
     0
1002
}
1002
{
1000
NOSEL
1070
     0
1002
}
1002
{
1000
BEHIND
1070
     0
1002
}
1002
{
1000
OTHER
1070
     0
1002
}
1002
{
1000
REACTOR
1002
}
1001
GENIUS_GENOBJ-N-CEN_13
1002
{
1000
OWNER
1000
GEN
1002
}
1001
GENIUS_GENCEN_19
1002
{
1040
3.0
1002
}
  0
LINE
  5
21FA
330
A
100
AcDbEntity
  8
0
 62
     7
 48
0.225983
100
AcDbLine
 10
291.7875272620228
 20
421.65152
 30
0.0
 11
291.7875272620228
 21
298.6515199999999
 31
0.0
1001
GENIUS_GENODEF_13
1002
{
1000
HIER
1070
     0
1002
}
1002
{
1000
MANEDIT
1070
     0
1002
}
1002
{
1000
NOSEL
1070
     0
1002
}
1002
{
1000
BEHIND
1070
     0
1002
}
1002
{
1000
OTHER
1070
     0
1002
}
1002
{
1000
REACTOR
1002
}
1001
GENIUS_GENOBJ-N-CEN_13
1002
{
1000
OWNER
1000
GEN
1002
}
1001
GENIUS_GENCEN_19
1002
{
1040
3.0
1002
}
  0
DIMENSION
  5
224B
330
A
100
AcDbEntity
  8
0
 62
     3
 48
0.063882
100
AcDbDimension
  2
*D2
 10
89.20632487398249
 20
438.6515199999999
 30
0.0
 11
82.20632487398241
 21
368.65152
 31
0.0
 70
    32
 71
     5
 42
140.0
  3
STANDARD$0
100
AcDbAlignedDimension
 13
153.2144935541575
 23
298.6515199999999
 33
0.0
 14
214.7875272620228
 24
438.6515199999999
 34
0.0
 50
90.0
100
AcDbRotatedDimension
1001
ACAD
1000
DSTYLE
1002
{
1070
    41
1040
10.0
1070
    42
1040
0.625
1070
    43
1040
3.75
1070
    44
1040
1.25
1070
    73
1070
     0
1070
    74
1070
     0
1070
    77
1070
     1
1070
    78
1070
     8
1070
   140
1040
10.0
1070
   141
1040
2.5
1070
   143
1040
0.03937
1070
   147
1040
2.0
1070
   171
1070
     3
1070
   172
1070
     1
1070
   178
1070
     2
1070
   271
1070
     2
1070
   272
1070
     2
1070
   274
1070
     3
1070
   283
1070
     0
1070
   284
1070
     8
1002
}
  0
HATCH
  5
22E7
330
A
100
AcDbEntity
  8
AM_8
100
AcDbHatch
 10
0.0
 20
0.0
 30
0.0
210
0.0
220
0.0
230
1.0
  2
_U
 70
     0
 71
     0
 91
        1
 92
        1
 93
        4
 72
     1
 10
134.7875272620228
 20
298.6515199999999
 11
137.7875272620228
 21
298.6515199999999
 72
     1
 10
137.7875272620228
 20
298.6515199999999
 11
137.7875272620227
 21
421.6515199999999
 72
     1
 10
137.7875272620227
 20
421.6515199999999
 11
134.7875272620227
 21
421.6515199999999
 72
     1
 10
134.7875272620227
 20
421.6515199999999
 11
134.7875272620228
 21
298.6515199999999
 97
        0
 75
     0
 76
     0
 52
45.0
 41
2.5
 77
     0
 78
     1
 53
45.0
 43
-17.5
 44
-0.0000000000000568
 45
-1.767766952966368
 46
1.767766952966368
 79
     0
 98
        1
 10
-17.5
 20
-0.0000000000000568
1001
GENIUS_GENODEF_13
1002
{
1000
HIER
1070
     0
1002
}
1002
{
1000
MANEDIT
1070
     0
1002
}
1002
{
1000
NOSEL
1070
     0
1002
}
1002
{
1000
BEHIND
1070
     0
1002
}
1002
{
1000
OTHER
1070
     0
1002
}
1002
{
1000
REACTOR
1002
}
1001
GENIUS_GENOBJ-N-HTC_13
1002
{
1000
OWNER
1000
GEN
1002
}
1001
GENIUS_GENHATCH_13
1002
{
1000
DATA
1040
45.0
1042
2.5
1000
_U
1070
     0
1011
136.0730954597388
1021
295.6465257684378
1031
0.0
1002
}
1002
{
1000
UCS
1010
0.0
1020
0.0
1030
0.0
1010
1.0
1020
0.0
1030
0.0
1010
0.0
1020
1.0
1030
0.0
1002
}
  0
HATCH
  5
22F3
330
A
100
AcDbEntity
  8
AM_8
100
AcDbHatch
 10
0.0
 20
0.0
 30
0.0
210
0.0
220
0.0
230
1.0
  2
_U
 70
     0
 71
     0
 91
        1
 92
        1
 93
        4
 72
     1
 10
291.7875272620228
 20
298.6515199999998
 11
294.7875272620228
 21
298.6515199999999
 72
     1
 10
294.7875272620228
 20
298.6515199999999
 11
294.7875272620228
 21
421.65152
 72
     1
 10
294.7875272620228
 20
421.65152
 11
291.7875272620228
 21
421.65152
 72
     1
 10
291.7875272620228
 20
421.65152
 11
291.7875272620228
 21
298.6515199999998
 97
        0
 75
     0
 76
     0
 52
45.0
 41
2.5
 77
     0
 78
     1
 53
45.0
 43
17.5
 44
0.0
 45
-1.767766952966368
 46
1.767766952966368
 79
     0
 98
        1
 10
17.5
 20
0.0
1001
GENIUS_GENOBJ-N-HTC_13
1002
{
1000
OWNER
1000
GEN
1002
}
1001
GENIUS_GENODEF_13
1002
{
1000
HIER
1070
     0
1002
}
1002
{
1000
MANEDIT
1070
     0
1002
}
1002
{
1000
NOSEL
1070
     0
1002
}
1002
{
1000
BEHIND
1070
     0
1002
}
1002
{
1000
OTHER
1070
     0
1002
}
1002
{
1000
REACTOR
1002
}
1001
GENIUS_GENHATCH_13
1002
{
1000
DATA
1040
45.0
1042
2.5
1000
_U
1070
     0
1011
293.257929262791
1021
311.8332094005357
1031
0.0
1002
}
1002
{
1000
UCS
1010
0.0
1020
0.0
1030
0.0
1010
1.0
1020
0.0
1030
0.0
1010
0.0
1020
1.0
1030
0.0
1002
}
  0
LINE
  5
2319
102
{ACAD_REACTORS
330
22E7
330
22F3
102
}
330
A
100
AcDbEntity
  8
0
 62
     7
 48
0.225983
100
AcDbLine
 10
134.7875272620227
 20
298.65152
 30
0.0
 11
294.7875272620228
 21
298.6515199999999
 31
0.0
  0
DIMENSION
  5
2379
330
A
100
AcDbEntity
  8
0
 62
     3
 48
0.063882
100
AcDbDimension
  2
*D5
 10
134.7875272620228
 20
271.7125506521366
 30
0.0
 11
214.7875272620228
 21
278.7125506521366
 31
0.0
 70
    32
  1
%%c<>
 71
     5
 42
159.9999999999999
  3
STANDARD$0
100
AcDbAlignedDimension
 13
294.7875272620228
 23
298.6515199999999
 33
0.0
 14
134.7875272620228
 24
298.6515199999999
 34
0.0
 50
0.0000000000001132
100
AcDbRotatedDimension
1001
ACAD
1000
DSTYLE
1002
{
1070
    41
1040
10.0
1070
    42
1040
0.625
1070
    43
1040
3.75
1070
    44
1040
1.25
1070
    73
1070
     0
1070
    74
1070
     0
1070
    77
1070
     1
1070
    78
1070
     8
1070
   140
1040
10.0
1070
   141
1040
2.5
1070
   143
1040
0.03937
1070
   147
1040
2.0
1070
   171
1070
     3
1070
   172
1070
     1
1070
   178
1070
     2
1070
   271
1070
     2
1070
   272
1070
     2
1070
   274
1070
     3
1070
   283
1070
     0
1070
   284
1070
     8
1002
}
  0
VIEWPORT
  5
1EF3
102
{ACAD_XDICTIONARY
360
23AA
102
}
330
B
100
AcDbEntity
 67
     1
  8
0
 62
     0
100
AcDbViewport
 10
0.0
 20
0.0
 30
0.0
 40
1000.0
 41
1000.0
 68
     1
 69
     1
 12
0.0
 22
0.0
 13
0.0
 23
0.0
 14
1.0
 24
1.0
 15
1.0
 25
1.0
 16
0.0
 26
0.0
 36
1.0
 17
0.0
 27
0.0
 37
0.0
 42
50.0
 43
0.0
 44
0.0
 45
1000.0
 50
0.0
 51
0.0
 72
   100
 90
    32800
  1

281
     0
 71
     1
 74
     0
110
0.0
120
0.0
130
0.0
111
1.0
121
0.0
131
0.0
112
0.0
122
1.0
132
0.0
 79
     0
146
0.0
1001
GENIUS_GENSCREG_15
1000
PF
1040
1.0
1000
DF
1040
1.0
1000
MIN
1011
-500.0
1021
-500.0
1031
0.0
1000
MAX
1011
500.0
1021
500.0
1031
0.0
1000
FLAGS
1070
     4
1001
GENIUS_GENODEF_13
1002
{
1000
HIER
1070
     0
1002
}
1002
{
1000
MANEDIT
1070
     0
1002
}
1002
{
1000
NOSEL
1070
     0
1002
}
1002
{
1000
BEHIND
1070
     0
1002
}
1002
{
1000
OTHER
1070
     0
1002
}
1002
{
1000
REACTOR
1002
}
1001
GENIUS_GENOBJ-N-SDF_13
1002
{
1000
OWNER
1000
GEN
1002
}
  0
ENDSEC
  0
SECTION
  2
OBJECTS
  0
DICTIONARY
  5
19
330
0
100
AcDbDictionary
281
     1
  3
ACAD_COLOR
350
1EFB
  3
ACAD_GROUP
350
1A
  3
ACAD_LAYOUT
350
1EFE
  3
ACAD_MATERIAL
350
1EFA
  3
ACAD_MLINESTYLE
350
1B
  3
ACAD_PLOTSETTINGS
350
1EFF
  3
ACAD_PLOTSTYLENAME
350
1EF8
  3
ACAD_TABLESTYLE
350
1EFC
  3
ACDBHEADERROUNDTRIPXREC
350
23A9
  3
AcDbVariableDictionary
350
20F0
  3
AcmDictionary
350
1F5C
  3
AMG
350
1F04
  3
AMGSNAPSETTINGS
350
1FA5
  3
ASE_INDEX_DICTIONARY
350
20EC
  0
DICTIONARY
  5
22E3
330
2
100
AcDbDictionary
280
     1
281
     1
  3
AMLAYER_GROUPCOLORS
360
22E4
  0
DICTIONARY
  5
21E4
330
A
100
AcDbDictionary
280
     1
281
     1
  3
ACAD_SORTENTS
360
21E5
  0
DICTIONARY
  5
23AA
330
1EF3
100
AcDbDictionary
280
     1
281
     1
  3
ACAD_XREC_ROUNDTRIP
360
23AB
  0
DICTIONARY
  5
1EFB
102
{ACAD_REACTORS
330
19
102
}
330
19
100
AcDbDictionary
281
     1
  0
DICTIONARY
  5
1A
102
{ACAD_REACTORS
330
19
102
}
330
19
100
AcDbDictionary
281
     1
  0
DICTIONARY
  5
1EFE
102
{ACAD_REACTORS
330
19
102
}
330
19
100
AcDbDictionary
281
     1
  3
Layout1
350
1F01
  3
Model
350
1F00
  0
DICTIONARY
  5
1EFA
102
{ACAD_REACTORS
330
19
102
}
330
19
100
AcDbDictionary
281
     1
  0
DICTIONARY
  5
1B
102
{ACAD_REACTORS
330
19
102
}
330
19
100
AcDbDictionary
281
     1
  3
STANDARD
350
1C
  0
DICTIONARY
  5
1EFF
102
{ACAD_REACTORS
330
19
102
}
330
19
100
AcDbDictionary
281
     1
  0
ACDBDICTIONARYWDFLT
  5
1EF8
102
{ACAD_REACTORS
330
19
102
}
330
19
100
AcDbDictionary
281
     1
  3
Normal
350
1EF9
100
AcDbDictionaryWithDefault
340
1EF9
  0
DICTIONARY
  5
1EFC
102
{ACAD_REACTORS
330
19
102
}
330
19
100
AcDbDictionary
281
     1
  3
Standard
350
1EFD
  0
DICTIONARY
  5
23A9
102
{ACAD_REACTORS
330
19
102
}
330
19
100
AcDbDictionary
281
     1
  0
DICTIONARY
  5
20F0
102
{ACAD_REACTORS
330
19
102
}
330
19
100
AcDbDictionary
281
     1
  3
CTABLESTYLE
350
20F1
  3
DIMASSOC
350
23A6
  3
PROJECTNAME
350
23A7
  0
DICTIONARY
  5
1F5C
102
{ACAD_REACTORS
330
19
102
}
330
19
100
AcDbDictionary
281
     1
  3
AcmStdDictionary
350
1F69
  3
AMDTSECTSYM_ARROWCOLOR
350
1F8C
  0
DICTIONARY
  5
1F04
102
{ACAD_REACTORS
330
19
102
}
330
19
100
AcDbDictionary
281
     1
  0
DICTIONARY
  5
1FA5
102
{ACAD_REACTORS
330
19
102
}
330
19
100
AcDbDictionary
281
     1
  0
DICTIONARY
  5
20EC
102
{ACAD_REACTORS
330
19
102
}
330
19
100
AcDbDictionary
281
     1
  3
ASEBlockHierarchyIndexRecord
350
20EE
1001
DCO15
1040
1543826139.623
  0
DICTIONARY
  5
22E4
102
{ACAD_REACTORS
330
22E3
102
}
330
22E3
100
AcDbDictionary
280
     1
281
     1
  0
SORTENTSTABLE
  5
21E5
102
{ACAD_REACTORS
330
21E4
102
}
330
21E4
100
AcDbSortentsTable
330
A
331
1C8B
  5
1C8F
331
1C88
  5
1C8E
331
1C87
  5
1C8D
331
1C84
  5
1C8B
331
1C83
  5
1C88
331
1C81
  5
1C87
331
224B
  5
22E5
331
1C7D
  5
1C84
331
1CA3
  5
21F3
331
18A7
  5
18A7
331
18A6
  5
18A6
331
22F3
  5
231B
331
1C79
  5
1C83
331
1C78
  5
1C81
331
1C9E
  5
21E3
331
1C9D
  5
2062
331
1C5F
  5
1C5F
331
1C5E
  5
1C5E
331
1C5D
  5
1C5D
331
2319
  5
1C76
331
1C5C
  5
1C5C
331
1C5B
  5
1C5B
331
1C5A
  5
1C5A
331
189A
  5
189A
331
1C59
  5
1C59
331
22E7
  5
231A
331
1C56
  5
1C56
331
1896
  5
1896
331
1C55
  5
1C55
331
1C54
  5
1C54
331
1894
  5
1894
331
1C53
  5
1C53
331
1893
  5
1893
331
1C77
  5
1C7D
331
1891
  5
1891
331
1C76
  5
1C79
331
1C06
  5
1C06
331
1C75
  5
1C75
331
188E
  5
188E
331
1C74
  5
1C74
331
1C73
  5
1C73
331
188C
  5
188C
331
1C03
  5
1C03
331
1C72
  5
1C72
331
1C71
  5
1C71
331
1C70
  5
1C70
331
1C6F
  5
1C6F
331
1C6E
  5
1C6E
331
1888
  5
1888
331
1C6C
  5
1C6C
331
1C6B
  5
1C6B
331
1C6A
  5
1C6A
331
1C69
  5
1C69
331
18A9
  5
18A9
331
1C68
  5
1C68
331
1C67
  5
1C67
331
1C65
  5
1C65
331
1C64
  5
1C64
331
1C63
  5
1C63
331
1C62
  5
1C62
331
1C61
  5
1C61
331
1C60
  5
1C60
331
21FA
  5
22B0
331
21F9
  5
2273
331
21F8
  5
21F9
331
21F7
  5
21F8
331
21F5
  5
224B
331
21F4
  5
21FA
331
21F3
  5
21F5
331
1C94
  5
1CA3
331
1C92
  5
1C9E
331
21E6
  5
21F4
331
1C91
  5
1C9D
331
1C90
  5
1C94
331
1C8F
  5
1C92
331
1C8E
  5
1C91
331
21E3
  5
1C77
331
1C8D
  5
1C90
  0
XRECORD
  5
23AB
102
{ACAD_REACTORS
330
23AA
102
}
330
23AA
100
AcDbXrecord
280
     1
102
SHADEPLOT
 70
     0
  0
LAYOUT
  5
1F01
102
{ACAD_XDICTIONARY
360
23AE
102
}
102
{ACAD_REACTORS
330
1EFE
102
}
330
1EFE
100
AcDbPlotSettings
  1

  2
\\RD-SR-200\PH-PR-011
  4

  6

 40
0.0
 41
0.0
 42
0.0
 43
0.0
 44
0.0
 45
0.0
 46
0.0
 47
0.0
 48
0.0
 49
0.0
140
0.0
141
0.0
142
1.0
143
1.0
 70
   688
 72
     0
 73
     0
 74
     5
  7

 75
    16
147
1.0
148
0.0
149
0.0
100
AcDbLayout
  1
Layout1
 70
     1
 71
     1
 10
0.0
 20
0.0
 11
420.0
 21
297.0
 12
0.0
 22
0.0
 32
0.0
 14
0.0
 24
0.0
 34
0.0
 15
16490.085938
 25
525.8782959999999
 35
2.0
146
0.0
 13
0.0
 23
0.0
 33
0.0
 16
1.0
 26
0.0
 36
0.0
 17
0.0
 27
1.0
 37
0.0
 76
     0
330
B
331
1EF3
  0
LAYOUT
  5
1F00
102
{ACAD_XDICTIONARY
360
23AC
102
}
102
{ACAD_REACTORS
330
1EFE
102
}
330
1EFE
100
AcDbPlotSettings
  1

  2
\\RD-SR-200\PH-PR-011
  4

  6

 40
0.0
 41
0.0
 42
0.0
 43
0.0
 44
0.0
 45
0.0
 46
0.0
 47
0.0
 48
0.0
 49
0.0
140
0.0
141
0.0
142
1.0
143
1.0
 70
  1712
 72
     0
 73
     0
 74
     0
  7

 75
     0
147
1.0
148
0.0
149
0.0
100
AcDbLayout
  1
Model
 70
     1
 71
     0
 10
0.0
 20
0.0
 11
12.0
 21
9.0
 12
0.0
 22
0.0
 32
0.0
 14
0.0
 24
0.0
 34
0.0
 15
0.0
 25
0.0
 35
0.0
146
0.0
 13
0.0
 23
0.0
 33
0.0
 16
1.0
 26
0.0
 36
0.0
 17
0.0
 27
1.0
 37
0.0
 76
     0
330
A
  0
MLINESTYLE
  5
1C
102
{ACAD_REACTORS
330
1B
102
}
330
1B
100
AcDbMlineStyle
  2
STANDARD
 70
     0
  3

 62
     0
 51
90.0
 52
90.0
 71
     2
 49
0.5
 62
   256
  6
BYLAYER
 49
-0.5
 62
   256
  6
BYLAYER
  0
ACDBPLACEHOLDER
  5
1EF9
102
{ACAD_REACTORS
330
1EF8
102
}
330
1EF8
  0
TABLESTYLE
  5
1EFD
102
{ACAD_REACTORS
330
1EFC
102
}
330
1EFC
100
AcDbTableStyle
  3
Standard
 70
     0
 71
     0
 40
1.5
 41
1.5
280
     0
281
     0
  7
STANDARD
140
4.5
170
     2
 62
     0
 63
     7
283
     0
274
    -2
284
     1
 64
     0
275
    -2
285
     1
 65
     0
276
    -2
286
     1
 66
     0
277
    -2
287
     1
 67
     0
278
    -2
288
     1
 68
     0
279
    -2
289
     1
 69
     0
  7
STANDARD
140
6.0
170
     5
 62
     0
 63
     7
283
     0
274
    -2
284
     1
 64
     0
275
    -2
285
     1
 65
     0
276
    -2
286
     1
 66
     0
277
    -2
287
     1
 67
     0
278
    -2
288
     1
 68
     0
279
    -2
289
     1
 69
     0
  7
STANDARD
140
4.5
170
     5
 62
     0
 63
     7
283
     0
274
    -2
284
     1
 64
     0
275
    -2
285
     1
 65
     0
276
    -2
286
     1
 66
     0
277
    -2
287
     1
 67
     0
278
    -2
288
     1
 68
     0
279
    -2
289
     1
 69
     0
  0
DICTIONARYVAR
  5
20F1
102
{ACAD_REACTORS
330
20F0
102
}
330
20F0
100
DictionaryVariables
280
     0
  1
STANDARD
  0
DICTIONARYVAR
  5
23A6
102
{ACAD_REACTORS
330
20F0
102
}
330
20F0
100
DictionaryVariables
280
     0
  1
1
  0
DICTIONARYVAR
  5
23A7
102
{ACAD_REACTORS
330
20F0
102
}
330
20F0
100
DictionaryVariables
280
     0
  1

  0
DICTIONARY
  5
1F69
102
{ACAD_REACTORS
330
1F5C
102
}
330
1F5C
100
AcDbDictionary
281
     1
  0
XRECORD
  5
1F8C
102
{ACAD_REACTORS
330
1F5C
102
}
330
1F5C
100
AcDbXrecord
280
     1
 90
-1023410169
  0
XRECORD
  5
20EE
102
{ACAD_REACTORS
330
20EC
102
}
330
20EC
100
AcDbXrecord
280
     1
  0
DICTIONARY
  5
23AE
330
1F01
100
AcDbDictionary
280
     1
281
     1
  3
ACAD_XREC_ROUNDTRIP
360
23AF
  0
DICTIONARY
  5
23AC
330
1F00
100
AcDbDictionary
280
     1
281
     1
  3
ACAD_XREC_ROUNDTRIP
360
23AD
  0
XRECORD
  5
23AF
102
{ACAD_REACTORS
330
23AE
102
}
330
23AE
100
AcDbXrecord
280
     1
102
SHADEPLOT
 70
     0
102
SHADEPLOTRESLEVEL
 70
     2
102
SHADEPLOTCUSTOMDPI
 70
   300
  0
XRECORD
  5
23AD
102
{ACAD_REACTORS
330
23AC
102
}
330
23AC
100
AcDbXrecord
280
     1
102
SHADEPLOT
 70
     0
102
SHADEPLOTRESLEVEL
 70
     2
102
SHADEPLOTCUSTOMDPI
 70
   300
  0
ENDSEC
  0
EOF
