  0
SECTION
  2
HEADER
  9
$ACADVER
  1
AC1015
  9
$ACADMAINTVER
 70
    20
  9
$DWGCODEPAGE
  3
ANSI_1252
  9
$INSBASE
 10
0.0
 20
0.0
 30
0.0
  9
$EXTMIN
 10
15561.29882274156
 20
-233.8205281458938
 30
-0.0000000349181948
  9
$EXTMAX
 10
17053.59933163715
 20
632.6225964739269
 30
0.0000000814935746
  9
$LIMMIN
 10
0.0
 20
0.0
  9
$LIMMAX
 10
420.0
 20
297.0
  9
$ORTHOMODE
 70
     0
  9
$REGENMODE
 70
     1
  9
$FILLMODE
 70
     1
  9
$QTEXTMODE
 70
     0
  9
$MIRRTEXT
 70
     1
  9
$LTSCALE
 40
8.0
  9
$ATTMODE
 70
     1
  9
$TEXTSIZE
 40
2.5
  9
$TRACEWID
 40
1.0
  9
$TEXTSTYLE
  7
STANDARD
  9
$CLAYER
  8
0
  9
$CELTYPE
  6
ByLayer
  9
$CECOLOR
 62
   256
  9
$CELTSCALE
 40
1.0
  9
$DISPSILH
 70
     0
  9
$DIMSCALE
 40
1.0
  9
$DIMASZ
 40
65.0
  9
$DIMEXO
 40
1.0
  9
$DIMDLI
 40
10.0
  9
$DIMRND
 40
0.0
  9
$DIMDLE
 40
0.0
  9
$DIMEXE
 40
25.0
  9
$DIMTP
 40
0.1
  9
$DIMTM
 40
0.1
  9
$DIMTXT
 40
50.0
  9
$DIMCEN
 40
0.0
  9
$DIMTSZ
 40
0.0
  9
$DIMTOL
 70
     0
  9
$DIMLIM
 70
     0
  9
$DIMTIH
 70
     0
  9
$DIMTOH
 70
     0
  9
$DIMSE1
 70
     0
  9
$DIMSE2
 70
     0
  9
$DIMTAD
 70
     1
  9
$DIMZIN
 70
     8
  9
$DIMBLK
  1

  9
$DIMASO
 70
     1
  9
$DIMSHO
 70
     1
  9
$DIMPOST
  1

  9
$DIMAPOST
  1
"
  9
$DIMALT
 70
     0
  9
$DIMALTD
 70
     2
  9
$DIMALTF
 40
0.0393701
  9
$DIMLFAC
 40
1.0
  9
$DIMTOFL
 70
     1
  9
$DIMTVP
 40
0.0
  9
$DIMTIX
 70
     0
  9
$DIMSOXD
 70
     0
  9
$DIMSAH
 70
     0
  9
$DIMBLK1
  1

  9
$DIMBLK2
  1

  9
$DIMSTYLE
  2
AM_DIN
  9
$DIMCLRD
 70
   256
  9
$DIMCLRE
 70
   256
  9
$DIMCLRT
 70
     2
  9
$DIMTFAC
 40
0.71
  9
$DIMGAP
 40
15.0
  9
$DIMJUST
 70
     0
  9
$DIMSD1
 70
     0
  9
$DIMSD2
 70
     0
  9
$DIMTOLJ
 70
     0
  9
$DIMTZIN
 70
     8
  9
$DIMALTZ
 70
     0
  9
$DIMALTTZ
 70
     0
  9
$DIMUPT
 70
     0
  9
$DIMDEC
 70
     0
  9
$DIMTDEC
 70
     0
  9
$DIMALTU
 70
     2
  9
$DIMALTTD
 70
     2
  9
$DIMTXSTY
  7
STANDARD
  9
$DIMAUNIT
 70
     0
  9
$DIMADEC
 70
     0
  9
$DIMALTRND
 40
0.0
  9
$DIMAZIN
 70
     2
  9
$DIMDSEP
 70
    46
  9
$DIMATFIT
 70
     3
  9
$DIMFRAC
 70
     0
  9
$DIMLDRBLK
  1

  9
$DIMLUNIT
 70
     2
  9
$DIMLWD
 70
    -1
  9
$DIMLWE
 70
    -1
  9
$DIMTMOVE
 70
     0
  9
$LUNITS
 70
     2
  9
$LUPREC
 70
     2
  9
$SKETCHINC
 40
1.0
  9
$FILLETRAD
 40
2.5
  9
$AUNITS
 70
     0
  9
$AUPREC
 70
     0
  9
$MENU
  1
.
  9
$ELEVATION
 40
0.0
  9
$PELEVATION
 40
0.0
  9
$THICKNESS
 40
0.0
  9
$LIMCHECK
 70
     0
  9
$CHAMFERA
 40
2.5
  9
$CHAMFERB
 40
2.5
  9
$CHAMFERC
 40
20.0
  9
$CHAMFERD
 40
0.0
  9
$SKPOLY
 70
     0
  9
$TDCREATE
 40
2454167.418644826
  9
$TDUCREATE
 40
2454167.335311493
  9
$TDUPDATE
 40
2454666.431091030
  9
$TDUUPDATE
 40
2454666.347757697
  9
$TDINDWG
 40
0.8020608218
  9
$TDUSRTIMER
 40
0.8019010301
  9
$USRTIMER
 70
     1
  9
$ANGBASE
 50
0.0
  9
$ANGDIR
 70
     0
  9
$PDMODE
 70
     0
  9
$PDSIZE
 40
0.0
  9
$PLINEWID
 40
0.0
  9
$SPLFRAME
 70
     0
  9
$SPLINETYPE
 70
     6
  9
$SPLINESEGS
 70
     8
  9
$HANDSEED
  5
1865F
  9
$SURFTAB1
 70
     6
  9
$SURFTAB2
 70
     6
  9
$SURFTYPE
 70
     6
  9
$SURFU
 70
     6
  9
$SURFV
 70
     6
  9
$UCSBASE
  2

  9
$UCSNAME
  2

  9
$UCSORG
 10
0.0
 20
0.0
 30
0.0
  9
$UCSXDIR
 10
1.0
 20
0.0
 30
0.0
  9
$UCSYDIR
 10
0.0
 20
1.0
 30
0.0
  9
$UCSORTHOREF
  2

  9
$UCSORTHOVIEW
 70
     0
  9
$UCSORGTOP
 10
0.0
 20
0.0
 30
0.0
  9
$UCSORGBOTTOM
 10
0.0
 20
0.0
 30
0.0
  9
$UCSORGLEFT
 10
0.0
 20
0.0
 30
0.0
  9
$UCSORGRIGHT
 10
0.0
 20
0.0
 30
0.0
  9
$UCSORGFRONT
 10
0.0
 20
0.0
 30
0.0
  9
$UCSORGBACK
 10
0.0
 20
0.0
 30
0.0
  9
$PUCSBASE
  2

  9
$PUCSNAME
  2

  9
$PUCSORG
 10
0.0
 20
0.0
 30
0.0
  9
$PUCSXDIR
 10
1.0
 20
0.0
 30
0.0
  9
$PUCSYDIR
 10
0.0
 20
1.0
 30
0.0
  9
$PUCSORTHOREF
  2

  9
$PUCSORTHOVIEW
 70
     0
  9
$PUCSORGTOP
 10
0.0
 20
0.0
 30
0.0
  9
$PUCSORGBOTTOM
 10
0.0
 20
0.0
 30
0.0
  9
$PUCSORGLEFT
 10
0.0
 20
0.0
 30
0.0
  9
$PUCSORGRIGHT
 10
0.0
 20
0.0
 30
0.0
  9
$PUCSORGFRONT
 10
0.0
 20
0.0
 30
0.0
  9
$PUCSORGBACK
 10
0.0
 20
0.0
 30
0.0
  9
$USERI1
 70
     0
  9
$USERI2
 70
     0
  9
$USERI3
 70
     0
  9
$USERI4
 70
     0
  9
$USERI5
 70
     0
  9
$USERR1
 40
0.0
  9
$USERR2
 40
0.0
  9
$USERR3
 40
0.0
  9
$USERR4
 40
0.0
  9
$USERR5
 40
0.0
  9
$WORLDVIEW
 70
     1
  9
$SHADEDGE
 70
     3
  9
$SHADEDIF
 70
    70
  9
$TILEMODE
 70
     1
  9
$MAXACTVP
 70
    64
  9
$PINSBASE
 10
0.0
 20
0.0
 30
0.0
  9
$PLIMCHECK
 70
     0
  9
$PEXTMIN
 10
1.000000000000000E+20
 20
1.000000000000000E+20
 30
1.000000000000000E+20
  9
$PEXTMAX
 10
-1.000000000000000E+20
 20
-1.000000000000000E+20
 30
-1.000000000000000E+20
  9
$PLIMMIN
 10
0.0
 20
0.0
  9
$PLIMMAX
 10
420.0
 20
297.0
  9
$UNITMODE
 70
     0
  9
$VISRETAIN
 70
     1
  9
$PLINEGEN
 70
     0
  9
$PSLTSCALE
 70
     1
  9
$TREEDEPTH
 70
  3020
  9
$CMLSTYLE
  2
Standard
  9
$CMLJUST
 70
     0
  9
$CMLSCALE
 40
20.0
  9
$PROXYGRAPHICS
 70
     1
  9
$MEASUREMENT
 70
     1
  9
$CELWEIGHT
370
    -1
  9
$ENDCAPS
280
     0
  9
$JOINSTYLE
280
     0
  9
$LWDISPLAY
290
     0
  9
$INSUNITS
 70
     4
  9
$HYPERLINKBASE
  1

  9
$STYLESHEET
  1
monochrome uw.ctb
  9
$XEDIT
290
     1
  9
$CEPSNTYPE
380
     0
  9
$PSTYLEMODE
290
     1
  9
$FINGERPRINTGUID
  2
{1344C3A2-CD10-4B1D-A761-DD320F23370E}
  9
$VERSIONGUID
  2
{31FC8CCB-9B53-4B40-893A-9ADE0A3F5700}
  9
$EXTNAMES
290
     1
  9
$PSVPSCALE
 40
0.0
  9
$OLESTARTUP
290
     0
  0
ENDSEC
  0
SECTION
  2
CLASSES
  0
CLASS
  1
ACDBDICTIONARYWDFLT
  2
AcDbDictionaryWithDefault
  3
ObjectDBX Classes
 90
        0
280
     0
281
     0
  0
CLASS
  1
ACDBPLACEHOLDER
  2
AcDbPlaceHolder
  3
ObjectDBX Classes
 90
        0
280
     0
281
     0
  0
CLASS
  1
LAYOUT
  2
AcDbLayout
  3
ObjectDBX Classes
 90
        0
280
     0
281
     0
  0
CLASS
  1
ACME_DOCUMENT
  2
AcMeDbDoc
  3
AcMeServices
 90
        0
280
     0
281
     0
  0
CLASS
  1
AMGSETTINGSOBJ
  2
AmgSettingsObj
  3
"AcadM|Product Description: AutoCAD Mechanical 2000|Company: Autodesk"
 90
        0
280
     0
281
     0
  0
CLASS
  1
ACMESCOPE
  2
AcMeScope
  3
AcMeServices
 90
        0
280
     0
281
     0
  0
CLASS
  1
ACMECOMMANDHISTORY
  2
AcMeCommandHistory
  3
AcMeServices
 90
        0
280
     0
281
     0
  0
CLASS
  1
ACIMSYSVARMAN
  2
AcImSysVarManager
  3
AcMeServices
 90
        0
280
     0
281
     0
  0
CLASS
  1
ACIMREALSYSVAR
  2
AcImRealSysVar
  3
AcMeServices
 90
        0
280
     0
281
     0
  0
CLASS
  1
ACIMINTSYSVAR
  2
AcImIntSysVar
  3
AcMeServices
 90
        0
280
     0
281
     0
  0
CLASS
  1
ACMEDRAWINGMAN
  2
AcMeDrawingMan
  3
AcMeServices
 90
        0
280
     0
281
     0
  0
CLASS
  1
ACMEVIEW
  2
AcMeView
  3
AcMeServices
 90
        0
280
     0
281
     0
  0
CLASS
  1
ACDBENTITYCACHE
  2
AcMeEntityCache
  3
AcMeServices
 90
        0
280
     0
281
     0
  0
CLASS
  1
GSMANAGER
  2
AcMeGSManager
  3
AcMeServices
 90
        0
280
     0
281
     0
  0
CLASS
  1
AMDTINTERNALREACTOR
  2
AmdtInternalReactor
  3
AcMeServices
 90
        0
280
     0
281
     0
  0
CLASS
  1
ACMESTATEMGR
  2
AcMeStateMgr
  3
AcMeServices
 90
        0
280
     0
281
     0
  0
CLASS
  1
ACGREFMASTER
  2
AcGrefMaster
  3
AcAttribServices
 90
        0
280
     0
281
     0
  0
CLASS
  1
ACME_DATABASE
  2
AcMeDbDatabase
  3
AcMeServices
 90
        0
280
     0
281
     0
  0
CLASS
  1
ACRFINSADJUSTERMGR
  2
AcRfInsAdjusterMgr
  3
AcMeServices
 90
        0
280
     0
281
     0
  0
CLASS
  1
ACGREFACADMASTER
  2
AcGrefacadMaster
  3
AcGrefServices
 90
        0
280
     0
281
     0
  0
CLASS
  1
AMIMASTER
  2
AmiMaster
  3
AmiServices
 90
        0
280
     0
281
     0
  0
CLASS
  1
ACMDATADICTIONARY
  2
AcmDataDictionary
  3
"AcmSymBB|Product Description: AutoCAD Mechanical 2004 DX|Company: Autodesk"
 90
        0
280
     0
281
     0
  0
CLASS
  1
ACMDATAENTRYBLOCK
  2
AcmDataEntryBlock
  3
"AcmSymBB|Product Description: AutoCAD Mechanical 2004 DX|Company: Autodesk"
 90
        0
280
     0
281
     0
  0
CLASS
  1
ACIMSTRSYSVAR
  2
AcImStrSysVar
  3
AcMeServices
 90
        0
280
     0
281
     0
  0
CLASS
  1
ACMSTANDARDISO
  2
AcmStandardISO
  3
"Amdt_StdImp|Product Description: AutoCAD Mechanical 2004 DX|Company: Autodesk"
 90
        0
280
     0
281
     0
  0
CLASS
  1
AMGOBJPROPCFG
  2
AmgObjPropCfg
  3
"AmgLay|Product Description: AutoCAD Mechanical 2000|Company: Autodesk"
 90
        1
280
     0
281
     0
  0
CLASS
  1
AMDTEDGESTANDARDISO
  2
AmdtEdgeStdISO
  3
"Amdt_StdImp|Product Description: AutoCAD Mechanical 2004 DX|Company: Autodesk"
 90
        0
280
     0
281
     0
  0
CLASS
  1
ACMSURFSTANDARDISO
  2
AcmSurfTextStdISO
  3
"Amdt_StdImp|Product Description: AutoCAD Mechanical 2004 DX|Company: Autodesk"
 90
        0
280
     0
281
     0
  0
CLASS
  1
ACMFCFSTANDARDISO
  2
AcmFCFStdISO
  3
"Amdt_StdImp|Product Description: AutoCAD Mechanical 2004 DX|Company: Autodesk"
 90
        0
280
     0
281
     0
  0
CLASS
  1
ACMWELDSTANDARDISO
  2
AcmWeldingStdISO
  3
"Amdt_StdImp|Product Description: AutoCAD Mechanical 2004 DX|Company: Autodesk"
 90
        0
280
     0
281
     0
  0
CLASS
  1
ACMIDSTANDARDISO
  2
AcmIdStdISO
  3
"Amdt_StdImp|Product Description: AutoCAD Mechanical 2004 DX|Company: Autodesk"
 90
        0
280
     0
281
     0
  0
CLASS
  1
ACMDATUMSTANDARDISO
  2
AcmDatumStdISO
  3
"Amdt_StdImp|Product Description: AutoCAD Mechanical 2004 DX|Company: Autodesk"
 90
        0
280
     0
281
     0
  0
CLASS
  1
ACMBOMSTANDARDISO
  2
AcmBOMStdISO
  3
"Amdt_StdImp|Product Description: AutoCAD Mechanical 2004 DX|Company: Autodesk"
 90
        0
280
     0
281
     0
  0
CLASS
  1
ACMDETAILSTANDARDISO
  2
AmdtDetailSymStdISO
  3
"Amdt_StdImp|Product Description: AutoCAD Mechanical 2004 DX|Company: Autodesk"
 90
        0
280
     0
281
     0
  0
CLASS
  1
ACMSECTIONSTANDARDISO
  2
AmdtSectionSymStdISO
  3
"Amdt_StdImp|Product Description: AutoCAD Mechanical 2004 DX|Company: Autodesk"
 90
        0
280
     0
281
     0
  0
CLASS
  1
ACMCENTERLINESTANDARDISO
  2
AmdtCenterLineStdISO
  3
"Amdt_StdImp|Product Description: AutoCAD Mechanical 2004 DX|Company: Autodesk"
 90
        0
280
     0
281
     0
  0
CLASS
  1
ACMNOTESTANDARDISO
  2
AmdtNoteStdISO
  3
"Amdt_StdImp|Product Description: AutoCAD Mechanical 2004 DX|Company: Autodesk"
 90
        0
280
     0
281
     0
  0
CLASS
  1
ACAMGLAYSTD
  2
AcAmgLayStd
  3
"AcAmgLayStd|Product Description: AutoCAD Mechanical 2000|Company: Autodesk"
 90
        0
280
     0
281
     0
  0
CLASS
  1
ACAMGDIMSTD
  2
AcAmgDimStd
  3
"AcAmgDimStd|Product Description: AutoCAD Mechanical 2000|Company: Autodesk"
 90
        0
280
     0
281
     0
  0
CLASS
  1
ACAMGHOLECHARTSTDISO
  2
AcAmgHoleChartStdISO
  3
ACMSYMBB_MODULE_NAME
 90
        0
280
     0
281
     0
  0
CLASS
  1
ACAMGTITLESTD
  2
AcAmgTitleStd
  3
"TITLEAPP"
 90
        0
280
     0
281
     0
  0
CLASS
  1
LAYER_INDEX
  2
AcDbLayerIndex
  3
ObjectDBX Classes
 90
    32768
280
     0
281
     0
  0
CLASS
  1
IDBUFFER
  2
AcDbIdBuffer
  3
ObjectDBX Classes
 90
    32768
280
     0
281
     0
  0
CLASS
  1
DICTIONARYVAR
  2
AcDbDictionaryVar
  3
ObjectDBX Classes
 90
        0
280
     0
281
     0
  0
CLASS
  1
AM_DRAWING_MGR
  2
AcDmDwgMgr
  3
AcMechDwgViewMgmt
 90
        0
280
     0
281
     0
  0
CLASS
  1
AM_DWG_DOCUMENT
  2
AcDmDwgDocument
  3
AcMechDwgViewMgmt
 90
        0
280
     0
281
     0
  0
CLASS
  1
AM_DWG_SHEET
  2
AcDmSheet
  3
AcMechDwgViewMgmt
 90
        0
280
     0
281
     0
  0
CLASS
  1
AM_VIEWDIMPARMAP
  2
AcDmViewDimParMap
  3
AcMechDwgViewMgmt
 90
        0
280
     0
281
     0
  0
CLASS
  1
AM_DWGMGR_NAME
  2
AcDmDwgMgrName
  3
AcMechDwgViewMgmt
 90
        0
280
     0
281
     0
  0
CLASS
  1
AMDTMENUSTATEMGR
  2
AmdtMenuStateMgr
  3
McadcomServices
 90
        0
280
     0
281
     0
  0
CLASS
  1
AMDTMCOMMENUSTATE
  2
AmdtMcomMenuState
  3
McadcomServices
 90
        0
280
     0
281
     0
  0
CLASS
  1
MAPIAMMOUDLE
  2
MApiAmModule
  3
MApiAmServices
 90
        0
280
     0
281
     0
  0
CLASS
  1
AMDTADMENUSTATE
  2
AmdtAdMenuState
  3
DesignerServices
 90
        0
280
     0
281
     0
  0
CLASS
  1
ADAPPL
  2
AcAdAppl
  3
DesignerServices
 90
        0
280
     0
281
     0
  0
CLASS
  1
DEPMGR
  2
AcAdDepMgr
  3
DesignerServices
 90
        0
280
     0
281
     0
  0
CLASS
  1
PARAMMGR
  2
AcAdParamMgr
  3
DesignerServices
 90
        0
280
     0
281
     0
  0
CLASS
  1
PARAMSCOPE
  2
AcAdParamScope
  3
DesignerServices
 90
        0
280
     0
281
     0
  0
CLASS
  1
NAMEDAPPL
  2
AcAdNamedAppl
  3
DesignerServices
 90
        0
280
     0
281
     0
  0
CLASS
  1
AMDTDMMENUSTATE
  2
AmdtDmMenuState
  3
AcMechDwgViewMgmt
 90
        0
280
     0
281
     0
  0
CLASS
  1
AMDTAMMENUSTATE
  2
AmdtAmMenuState
  3
DesignerAssemblies
 90
        0
280
     0
281
     0
  0
CLASS
  1
ACAMPROJECT
  2
AcAmProject
  3
DesignerAssemblies
 90
        0
280
     0
281
     0
  0
CLASS
  1
ACAMGRCOMPDEF
  2
AcAmGrCompDef
  3
DesignerAssemblies
 90
        0
280
     0
281
     0
  0
CLASS
  1
ACCMCONTEXT
  2
AcCmContext
  3
DesignerAssemblies
 90
        0
280
     0
281
     0
  0
CLASS
  1
ACAMCOMPDEF
  2
AcAmCompDef
  3
DesignerAssemblies
 90
        0
280
     0
281
     0
  0
CLASS
  1
ACAMCOMPDEFMGR
  2
AcAmCompDefMgr
  3
DesignerAssemblies
 90
        0
280
     0
281
     0
  0
CLASS
  1
AMCONTEXTMGR
  2
AcAmContextMgr
  3
DesignerAssemblies
 90
        0
280
     0
281
     0
  0
CLASS
  1
ACAMCONTEXTMODELER
  2
AcAmContextModeler
  3
DesignerAssemblies
 90
        0
280
     0
281
     0
  0
CLASS
  1
ACMTHREADLINESTANDARDISO
  2
AmdtThreadLineStdISO
  3
"Amdt_StdImp|Product Description: AutoCAD Mechanical 2004 DX|Company: Autodesk"
 90
        0
280
     0
281
     0
  0
CLASS
  1
CATALOGSTATE
  2
AcAmCatalogState
  3
DesignerAssemblies
 90
        0
280
     0
281
     0
  0
CLASS
  1
ACAMGRCOMPDEFSET
  2
AcAmGrCompDefSet
  3
DesignerAssemblies
 90
        0
280
     0
281
     0
  0
CLASS
  1
AMDTBROWSERDBTAB
  2
AmdtBrowserDbTab
  3
McadcomServices
 90
        0
280
     0
281
     0
  0
CLASS
  1
CBROWSERAPPOBJECT
  2
CBrowserAppObject
  3
McadcomServices
 90
        0
280
     0
281
     0
  0
CLASS
  1
DM_PLACEHOLDER
  2
AcDmSelsetPlaceholder
  3
AcMechDwgViewMgmt
 90
        0
280
     0
281
     0
  0
CLASS
  1
TABLESTYLE
  2
AcDbTableStyle
  3
ObjectDBX Classes
 90
     2047
280
     0
281
     0
  0
CLASS
  1
VAACXREFPANELOBJECT
  2
VaAcXREFPanelObject
  3
VAAC_ADDIN
 90
    32768
280
     0
281
     0
  0
CLASS
  1
VAACIMAGEINVENTORY
  2
VaAcImageInventory
  3
VAAC_ADDIN
 90
    32768
280
     0
281
     0
  0
CLASS
  1
AMDTNOTETEMPLATEDB
  2
AmdtNoteTemplateDB
  3
AMDT_STDIMP_MODULE_NAME
 90
        0
280
     0
281
     0
  0
CLASS
  1
ACAMGFILTERDAT
  2
AcAmgFilterDat
  3
"AcadM|Product Description: AutoCAD Mechanical 2000|Company: Autodesk"
 90
    32768
280
     0
281
     0
  0
CLASS
  1
ACMBOM
  2
AcmBom
  3
"AcmSymBB|Product Description: AutoCAD Mechanical 2004 DX|Company: Autodesk"
 90
    32768
280
     0
281
     0
  0
CLASS
  1
AMDTFORMULAUPDATEDISPATCHER
  2
AmdtFormulaUpdateDispatcher
  3
AcMeServices
 90
    32768
280
     0
281
     0
  0
CLASS
  1
ACMSTANDARDDIN
  2
AcmStandardDIN
  3
"Amdt_StdImp|Product Description: AutoCAD Mechanical 2004 DX|Company: Autodesk"
 90
        0
280
     0
281
     0
  0
CLASS
  1
AMDTEDGESTANDARDDIN13715
  2
AmdtEdgeStdDIN13715
  3
"Amdt_StdImp|Product Description: AutoCAD Mechanical 2004 DX|Company: Autodesk"
 90
        0
280
     0
281
     0
  0
CLASS
  1
ACMSURFSTANDARDDIN
  2
AcmSurfTextStdDIN
  3
"Amdt_StdImp|Product Description: AutoCAD Mechanical 2004 DX|Company: Autodesk"
 90
        0
280
     0
281
     0
  0
CLASS
  1
ACMFCFSTANDARDDIN
  2
AcmFCFStdDIN
  3
"Amdt_StdImp|Product Description: AutoCAD Mechanical 2004 DX|Company: Autodesk"
 90
        0
280
     0
281
     0
  0
CLASS
  1
ACMWELDSTANDARDDIN
  2
AcmWeldingStdDIN
  3
"Amdt_StdImp|Product Description: AutoCAD Mechanical 2004 DX|Company: Autodesk"
 90
        0
280
     0
281
     0
  0
CLASS
  1
ACMIDSTANDARDDIN
  2
AcmIdStdDIN
  3
"Amdt_StdImp|Product Description: AutoCAD Mechanical 2004 DX|Company: Autodesk"
 90
        0
280
     0
281
     0
  0
CLASS
  1
ACMDATUMSTANDARDDIN
  2
AcmDatumStdDIN
  3
"Amdt_StdImp|Product Description: AutoCAD Mechanical 2004 DX|Company: Autodesk"
 90
        0
280
     0
281
     0
  0
CLASS
  1
ACMBOMSTANDARDDIN
  2
AcmBOMStdDIN
  3
"Amdt_StdImp|Product Description: AutoCAD Mechanical 2004 DX|Company: Autodesk"
 90
        0
280
     0
281
     0
  0
CLASS
  1
ACMDETAILSTANDARDDIN
  2
AmdtDetailSymStdDIN
  3
"Amdt_StdImp|Product Description: AutoCAD Mechanical 2004 DX|Company: Autodesk"
 90
        0
280
     0
281
     0
  0
CLASS
  1
ACMSECTIONSTANDARDDIN
  2
AmdtSectionSymStdDIN
  3
"Amdt_StdImp|Product Description: AutoCAD Mechanical 2004 DX|Company: Autodesk"
 90
        0
280
     0
281
     0
  0
CLASS
  1
ACMCENTERLINESTANDARDDIN
  2
AmdtCenterLineStdDIN
  3
"Amdt_StdImp|Product Description: AutoCAD Mechanical 2004 DX|Company: Autodesk"
 90
        0
280
     0
281
     0
  0
CLASS
  1
ACMTHREADLINESTANDARDDIN
  2
AmdtThreadLineStdDIN
  3
"Amdt_StdImp|Product Description: AutoCAD Mechanical 2004 DX|Company: Autodesk"
 90
        0
280
     0
281
     0
  0
CLASS
  1
ACMNOTESTANDARDDIN
  2
AmdtNoteStdDIN
  3
"Amdt_StdImp|Product Description: AutoCAD Mechanical 2004 DX|Company: Autodesk"
 90
        0
280
     0
281
     0
  0
CLASS
  1
ACAMGHOLECHARTSTDDIN
  2
AcAmgHoleChartStdDIN
  3
ACMSYMBB_MODULE_NAME
 90
        0
280
     0
281
     0
  0
CLASS
  1
ACRFATTGENMGR
  2
AcRfAttGeneralMgr
  3
AcAttribServices
 90
        0
280
     0
281
     0
  0
CLASS
  1
SORTENTSTABLE
  2
AcDbSortentsTable
  3
ObjectDBX Classes
 90
        0
280
     0
281
     0
  0
CLASS
  1
DIMASSOC
  2
AcDbDimAssoc
  3
"AcDbDimAssoc|Product Desc:     AcDim ARX App For Dimension|Company:          Autodesk, Inc.|WEB Address:      www.autodesk.com"
 90
    32768
280
     0
281
     0
  0
CLASS
  1
AC_AM_MVD_DEP_MGR
  2
AcAmMVDdepMgr
  3
DesignerAssemblies
 90
    32768
280
     0
281
     0
  0
CLASS
  1
AC_AM_MASTER_VIEW_DEF
  2
AcAmMasterViewDef
  3
DesignerAssemblies
 90
    32768
280
     0
281
     0
  0
CLASS
  1
AC_AM_DIRTY_NODES
  2
AcAmDirtyNodes
  3
DesignerAssemblies
 90
    32768
280
     0
281
     0
  0
CLASS
  1
AC_AM_MAPPER_CACHE
  2
AcAmMapperCache
  3
DesignerAssemblies
 90
    32768
280
     0
281
     0
  0
CLASS
  1
ACAMMVDBACKUPOBJECT
  2
AcAmMVDBackupObject
  3
DesignerAssemblies
 90
    32768
280
     0
281
     0
  0
CLASS
  1
AC_AM_2D_XREF_MGR
  2
AcAmXrefMgr2d
  3
DesignerAssemblies
 90
    32768
280
     0
281
     0
  0
CLASS
  1
AC_AM_HIDE_SITUATION
  2
AcAmHideSituation
  3
DesignerAssemblies
 90
    32768
280
     0
281
     0
  0
CLASS
  1
ACAMWBLOCKTEMPENTS
  2
AcAmStructInOutTempObjsHolder
  3
DesignerAssemblies
 90
    32768
280
     0
281
     0
  0
CLASS
  1
STDPART2D
  2
AmgStdPart
  3
"AmgStdPart|Product Description: AutoCAD Mechanical 2000|Company: Autodesk"
 90
    33791
280
     0
281
     1
  0
CLASS
  1
ACMDATAENTRYPART
  2
AcmDataEntryPart
  3
"AcmSymBB|Product Description: AutoCAD Mechanical 2004 DX|Company: Autodesk"
 90
    32768
280
     0
281
     0
  0
CLASS
  1
ACMPARTREF
  2
AcmPartRef
  3
"AcmSymBB|Product Description: AutoCAD Mechanical 2004 DX|Company: Autodesk"
 90
    33791
280
     0
281
     1
  0
CLASS
  1
ACDBSTDPARTRES_LINE
  2
AcDbStdPartRes_Line
  3
"AcDbStdPartRes_Line|Product Description: AutoCAD Mechanical 2000|Company: Autodesk"
 90
    32768
280
     0
281
     0
  0
CLASS
  1
ACAD_EVALUATION_GRAPH
  2
AcDbEvalGraph
  3
ObjectDBX Classes
 90
    33921
280
     0
281
     0
  0
CLASS
  1
ACAECUSTOBJ
  2
AcAeEditorObj
  3
AcAeEditorObj
 90
    33792
280
     0
281
     0
  0
CLASS
  1
ACDB_DYNAMICBLOCKPURGEPREVENTER_VERSION
  2
AcDbDynamicBlockPurgePreventer
  3
ObjectDBX Classes
 90
    33921
280
     0
281
     0
  0
ENDSEC
  0
SECTION
  2
TABLES
  0
TABLE
  2
VPORT
  5
8
330
0
100
AcDbSymbolTable
 70
     5
  0
VPORT
  5
18656
330
8
100
AcDbSymbolTableRecord
100
AcDbViewportTableRecord
  2
*Active
 70
     0
 10
0.0
 20
0.0
 11
1.0
 21
1.0
 12
16307.44907718935
 22
199.4010341640165
 13
0.0
 23
0.0
 14
2.5
 24
2.5
 15
10.0
 25
10.0
 16
0.0
 26
0.0
 36
1.0
 17
0.0
 27
0.0
 37
0.0
 40
1077.808791182793
 41
1.391353811149032
 42
50.0
 43
0.0
 44
0.0
 50
0.0
 51
0.0
 71
     0
 72
   100
 73
     1
 74
     3
 75
     0
 76
     0
 77
     0
 78
     0
281
     0
 65
     0
110
0.0
120
0.0
130
0.0
111
1.0
121
0.0
131
0.0
112
0.0
122
1.0
132
0.0
 79
     0
146
0.0
  0
ENDTAB
  0
TABLE
  2
LTYPE
  5
5
330
0
100
AcDbSymbolTable
 70
    18
  0
LTYPE
  5
14
330
5
100
AcDbSymbolTableRecord
100
AcDbLinetypeTableRecord
  2
ByBlock
 70
     0
  3

 72
    65
 73
     0
 40
0.0
  0
LTYPE
  5
15
330
5
100
AcDbSymbolTableRecord
100
AcDbLinetypeTableRecord
  2
ByLayer
 70
     0
  3

 72
    65
 73
     0
 40
0.0
  0
LTYPE
  5
16
330
5
100
AcDbSymbolTableRecord
100
AcDbLinetypeTableRecord
  2
Continuous
 70
     0
  3
Solid line
 72
    65
 73
     0
 40
0.0
  0
LTYPE
  5
67
330
5
100
AcDbSymbolTableRecord
100
AcDbLinetypeTableRecord
  2
Amconstr
 70
     0
  3
_______________________
 72
    65
 73
     2
 40
9999.0
 49
9999.0
 74
     0
 49
0.0
 74
     0
  0
LTYPE
  5
6C
330
5
100
AcDbSymbolTableRecord
100
AcDbLinetypeTableRecord
  2
Amzigzag
 70
     0
  3
/\/-/\/-/\/-/\/-/\/-/\/
 72
    65
 73
     2
 40
11.0001
 49
0.0001
 74
     4
 75
   136
340
22C
 46
0.04
 50
0.0
 44
0.0
 45
0.0
 49
-11.0
 74
     0
  0
LTYPE
  5
7E
330
5
100
AcDbSymbolTableRecord
100
AcDbLinetypeTableRecord
  2
CENTER
 70
     0
  3
__ . __
 72
    65
 73
     4
 40
7.0
 49
4.0
 74
     0
 49
-1.0
 74
     0
 49
1.0
 74
     0
 49
-1.0
 74
     0
  0
LTYPE
  5
D8
330
5
100
AcDbSymbolTableRecord
100
AcDbLinetypeTableRecord
  2
HIDDEN
 70
     0
  3
Hidden __ __ __ __ __ __ __ __ __ __ __ __ __ _
 72
    65
 73
     2
 40
9.524999999999996
 49
6.349999999999997
 74
     0
 49
-3.174999999999998
 74
     0
  0
LTYPE
  5
D9
330
5
100
AcDbSymbolTableRecord
100
AcDbLinetypeTableRecord
  2
PHANTOM2
 70
     0
  3
Phantom (.5x) ___ _ _ ___ _ _ ___ _ _ ___ _ _
 72
    65
 73
     6
 40
31.75
 49
15.875
 74
     0
 49
-3.174999999999998
 74
     0
 49
3.174999999999998
 74
     0
 49
-3.174999999999998
 74
     0
 49
3.174999999999998
 74
     0
 49
-3.174999999999998
 74
     0
  0
LTYPE
  5
2E3
330
5
100
AcDbSymbolTableRecord
100
AcDbLinetypeTableRecord
  2
ACDINWELD
 70
     0
  3
_ _ _ _ _
 72
    65
 73
     2
 40
2.0
 49
2.0
 74
     0
 49
-1.0
 74
     0
  0
LTYPE
  5
2E4
330
5
100
AcDbSymbolTableRecord
100
AcDbLinetypeTableRecord
  2
ACDINTGB
 70
     0
  3
__ . . __ . .
 72
    65
 73
     6
 40
9.0
 49
4.0
 74
     0
 49
-1.0
 74
     0
 49
1.0
 74
     0
 49
-1.0
 74
     0
 49
1.0
 74
     0
 49
-1.0
 74
     0
  0
LTYPE
  5
2E5
330
5
100
AcDbSymbolTableRecord
100
AcDbLinetypeTableRecord
  2
ACDINTGL
 70
     0
  3
_ _ _ _ _
 72
    65
 73
     2
 40
3.0
 49
2.0
 74
     0
 49
-1.0
 74
     0
  0
LTYPE
  5
31F
330
5
100
AcDbSymbolTableRecord
100
AcDbLinetypeTableRecord
  2
AM_DIN_F_W050
 70
     0
  3
__ __ __ __ __ __ __ __ __ __ __ __ __ __ __
 72
    65
 73
     2
 40
6.25
 49
4.75
 74
     0
 49
-1.5
 74
     0
  0
LTYPE
  5
320
330
5
100
AcDbSymbolTableRecord
100
AcDbLinetypeTableRecord
  2
AM_DIN_G_W050
 70
     0
  3
____ . ____ . ____ . ____ . ____ . ____ . ____
 72
    65
 73
     4
 40
13.75
 49
9.75
 74
     0
 49
-1.5
 74
     0
 49
1.0
 74
     0
 49
-1.5
 74
     0
  0
LTYPE
  5
321
330
5
100
AcDbSymbolTableRecord
100
AcDbLinetypeTableRecord
  2
AM_DIN_K_W050
 70
     0
  3
_____ . . _____ . . _____ . . ____ .. ____
 72
    65
 73
     6
 40
16.25
 49
9.75
 74
     0
 49
-1.5
 74
     0
 49
1.0
 74
     0
 49
-1.5
 74
     0
 49
1.0
 74
     0
 49
-1.5
 74
     0
  0
LTYPE
  5
322
330
5
100
AcDbSymbolTableRecord
100
AcDbLinetypeTableRecord
  2
AM_DIN_G_W050x2
 70
     0
  3
__ . __ . __ . __ . __ . __
 72
    65
 73
     4
 40
6.875
 49
4.75
 74
     0
 49
-0.875
 74
     0
 49
0.375
 74
     0
 49
-0.875
 74
     0
  0
LTYPE
  5
323
330
5
100
AcDbSymbolTableRecord
100
AcDbLinetypeTableRecord
  2
AM_DIN_F_W050x2
 70
     0
  3
 _ _ _ _ _ _ _ _ _ _ _ _
 72
    65
 73
     2
 40
3.125
 49
2.25
 74
     0
 49
-0.875
 74
     0
  0
LTYPE
  5
1669E
330
5
100
AcDbSymbolTableRecord
100
AcDbLinetypeTableRecord
  2
ACISOWELD
 70
     0
  3
_ _ _ _ _
 72
    65
 73
     2
 40
2.0
 49
2.0
 74
     0
 49
-1.0
 74
     0
  0
LTYPE
  5
1669F
330
5
100
AcDbSymbolTableRecord
100
AcDbLinetypeTableRecord
  2
ACISOTGB
 70
     0
  3
__ . . __ . .
 72
    65
 73
     6
 40
9.0
 49
4.0
 74
     0
 49
-1.0
 74
     0
 49
1.0
 74
     0
 49
-1.0
 74
     0
 49
1.0
 74
     0
 49
-1.0
 74
     0
  0
LTYPE
  5
166A0
330
5
100
AcDbSymbolTableRecord
100
AcDbLinetypeTableRecord
  2
ACISOTGL
 70
     0
  3
_ _ _ _ _
 72
    65
 73
     2
 40
3.0
 49
2.0
 74
     0
 49
-1.0
 74
     0
  0
LTYPE
  5
17C79
330
5
100
AcDbSymbolTableRecord
100
AcDbLinetypeTableRecord
  2
gen7a
 70
     0
  3
__ . __ . __
 72
    65
 73
     4
 40
6.875
 49
4.75
 74
     0
 49
-0.875
 74
     0
 49
0.375
 74
     0
 49
-0.875
 74
     0
  0
ENDTAB
  0
TABLE
  2
LAYER
  5
2
102
{ACAD_XDICTIONARY
360
5E1
102
}
330
0
100
AcDbSymbolTable
 70
     7
  0
LAYER
  5
10
330
2
100
AcDbSymbolTableRecord
100
AcDbLayerTableRecord
  2
0
 70
     0
 62
     7
  6
Continuous
370
    -3
390
F
  0
LAYER
  5
1080A
330
2
100
AcDbSymbolTableRecord
100
AcDbLayerTableRecord
  2
AM_5
 70
     0
 62
     3
  6
Continuous
370
    25
390
F
1001
AcAecLayerStandard
1000

1000

  0
LAYER
  5
1081A
330
2
100
AcDbSymbolTableRecord
100
AcDbLayerTableRecord
  2
Defpoints
 70
     0
 62
     7
  6
Continuous
290
     0
370
    -3
390
F
  0
LAYER
  5
10B76
330
2
100
AcDbSymbolTableRecord
100
AcDbLayerTableRecord
  2
Beschriftung
 70
     0
 62
     2
  6
Continuous
370
    50
390
F
1001
AcAecLayerStandard
1000

1000

  0
LAYER
  5
10B7B
330
2
100
AcDbSymbolTableRecord
100
AcDbLayerTableRecord
  2
bezugslinien
 70
     0
 62
     3
  6
Continuous
370
    25
390
F
1001
AcAecLayerStandard
1000

1000

  0
LAYER
  5
17C7A
330
2
100
AcDbSymbolTableRecord
100
AcDbLayerTableRecord
  2
7A
 70
     0
 62
     4
  6
gen7a
370
    -3
390
F
  0
LAYER
  5
18649
330
2
100
AcDbSymbolTableRecord
100
AcDbLayerTableRecord
  2
AM_4
 70
     0
 62
     3
  6
Continuous
370
    25
390
F
1001
AcAecLayerStandard
1000

1000

  0
ENDTAB
  0
TABLE
  2
STYLE
  5
3
330
0
100
AcDbSymbolTable
 70
     6
  0
STYLE
  5
11
330
3
100
AcDbSymbolTableRecord
100
AcDbTextStyleTableRecord
  2
STANDARD
 70
     0
 40
0.0
 41
1.0
 50
0.0
 71
     0
 42
2.5
  3
ARIAL.TTF
  4

1001
ACAD
1000
Arial
1071
       34
  0
STYLE
  5
22C
330
3
100
AcDbSymbolTableRecord
100
AcDbTextStyleTableRecord
  2

 70
     1
 40
0.0
 41
1.0
 50
0.0
 71
     0
 42
2.5
  3
genltshp.shx
  4

  0
STYLE
  5
2D5
330
3
100
AcDbSymbolTableRecord
100
AcDbTextStyleTableRecord
  2
ACDINTS
 70
     0
 40
1.0
 41
1.0
 50
0.0
 71
     0
 42
2.5
  3
isocp.shx
  4

  0
STYLE
  5
2E2
330
3
100
AcDbSymbolTableRecord
100
AcDbTextStyleTableRecord
  2
ACDINGDT
 70
     0
 40
0.0
 41
1.0
 50
0.0
 71
     0
 42
2.5
  3
AMGDT
  4

  0
STYLE
  5
166A3
330
3
100
AcDbSymbolTableRecord
100
AcDbTextStyleTableRecord
  2
ACISOTS
 70
     0
 40
1.0
 41
1.0
 50
0.0
 71
     0
 42
2.5
  3
isocp.shx
  4
bigfont.shx
  0
STYLE
  5
166A4
330
3
100
AcDbSymbolTableRecord
100
AcDbTextStyleTableRecord
  2
ACISOGDT
 70
     0
 40
0.0
 41
1.0
 50
0.0
 71
     0
 42
2.5
  3
AMGDT
  4
bigfont.shx
  0
ENDTAB
  0
TABLE
  2
VIEW
  5
6
330
0
100
AcDbSymbolTable
 70
     0
  0
ENDTAB
  0
TABLE
  2
UCS
  5
7
330
0
100
AcDbSymbolTable
 70
     0
  0
ENDTAB
  0
TABLE
  2
APPID
  5
9
330
0
100
AcDbSymbolTable
 70
    74
  0
APPID
  5
12
330
9
100
AcDbSymbolTableRecord
100
AcDbRegAppTableRecord
  2
ACAD
 70
     0
  0
APPID
  5
46
330
9
100
AcDbSymbolTableRecord
100
AcDbRegAppTableRecord
  2
MCAD_NO_VIS
 70
     0
  0
APPID
  5
47
330
9
100
AcDbSymbolTableRecord
100
AcDbRegAppTableRecord
  2
ACAD_TEMP_GRAPHIC
 70
     0
  0
APPID
  5
58
330
9
100
AcDbSymbolTableRecord
100
AcDbRegAppTableRecord
  2
ACATTRIBSERVICES
 70
     0
  0
APPID
  5
EE
330
9
100
AcDbSymbolTableRecord
100
AcDbRegAppTableRecord
  2
AD_DRAW
 70
     0
  0
APPID
  5
10C
330
9
100
AcDbSymbolTableRecord
100
AcDbRegAppTableRecord
  2
DESIGNERASSEMBLIES
 70
     0
  0
APPID
  5
111
330
9
100
AcDbSymbolTableRecord
100
AcDbRegAppTableRecord
  2
ACADM_DIM_EDIT
 70
     0
  0
APPID
  5
112
330
9
100
AcDbSymbolTableRecord
100
AcDbRegAppTableRecord
  2
AMDT_DM_ADJ
 70
     0
  0
APPID
  5
1A3
330
9
100
AcDbSymbolTableRecord
100
AcDbRegAppTableRecord
  2
ACAD_DSTYLE_DIMARC_LENGTH_SYMBOL
 70
     0
  0
APPID
  5
1A4
330
9
100
AcDbSymbolTableRecord
100
AcDbRegAppTableRecord
  2
ACAD_DSTYLE_DIMJOGGED_JOGANGLE_SYMBOL
 70
     0
  0
APPID
  5
5D4
330
9
100
AcDbSymbolTableRecord
100
AcDbRegAppTableRecord
  2
ACAD_PSEXT
 70
     0
  0
APPID
  5
5D5
330
9
100
AcDbSymbolTableRecord
100
AcDbRegAppTableRecord
  2
GENIUS_GENOENT_13
 70
     0
  0
APPID
  5
5D6
330
9
100
AcDbSymbolTableRecord
100
AcDbRegAppTableRecord
  2
GENIUS_VERSION2
 70
     0
  0
APPID
  5
5D7
330
9
100
AcDbSymbolTableRecord
100
AcDbRegAppTableRecord
  2
GENIUS_GENREC_14
 70
     0
  0
APPID
  5
5D8
330
9
100
AcDbSymbolTableRecord
100
AcDbRegAppTableRecord
  2
GENIUS_GENODEF_13
 70
     0
  0
APPID
  5
5D9
330
9
100
AcDbSymbolTableRecord
100
AcDbRegAppTableRecord
  2
GENIUS_GENOBJ-N-REC_13
 70
     0
  0
APPID
  5
5DA
330
9
100
AcDbSymbolTableRecord
100
AcDbRegAppTableRecord
  2
GENIUS_GENTRA_14
 70
     0
  0
APPID
  5
5DB
330
9
100
AcDbSymbolTableRecord
100
AcDbRegAppTableRecord
  2
GENIUS_GENOBJ-N-TIT_13
 70
     0
  0
APPID
  5
5DC
330
9
100
AcDbSymbolTableRecord
100
AcDbRegAppTableRecord
  2
GENIUS_GENTITLE_13
 70
     0
  0
APPID
  5
5DD
330
9
100
AcDbSymbolTableRecord
100
AcDbRegAppTableRecord
  2
GENIUS_GENOREF_13
 70
     0
  0
APPID
  5
5DE
330
9
100
AcDbSymbolTableRecord
100
AcDbRegAppTableRecord
  2
GENIUS_GENOLIS_13
 70
     0
  0
APPID
  5
5DF
330
9
100
AcDbSymbolTableRecord
100
AcDbRegAppTableRecord
  2
GENIUS_GENOBJ-N-SDF_13
 70
     0
  0
APPID
  5
5E0
330
9
100
AcDbSymbolTableRecord
100
AcDbRegAppTableRecord
  2
GENIUS_GENSCREG_15
 70
     0
  0
APPID
  5
2FBB
330
9
100
AcDbSymbolTableRecord
100
AcDbRegAppTableRecord
  2
GENIUS_GENOBJ-N-CRS_13
 70
     0
  0
APPID
  5
2FBC
330
9
100
AcDbSymbolTableRecord
100
AcDbRegAppTableRecord
  2
GENIUS_GENOBJ-N-CEN_13
 70
     0
  0
APPID
  5
2FBD
330
9
100
AcDbSymbolTableRecord
100
AcDbRegAppTableRecord
  2
GENIUS_GENOBJ-N-HTC_13
 70
     0
  0
APPID
  5
2FBE
330
9
100
AcDbSymbolTableRecord
100
AcDbRegAppTableRecord
  2
GENIUS_GENHATCH_13
 70
     0
  0
APPID
  5
2FBF
330
9
100
AcDbSymbolTableRecord
100
AcDbRegAppTableRecord
  2
GENIUS_GENBH_13
 70
     0
  0
APPID
  5
2FC0
330
9
100
AcDbSymbolTableRecord
100
AcDbRegAppTableRecord
  2
GENIUS_GENOBJ-NBEHI-BHF_13
 70
     0
  0
APPID
  5
2FC1
330
9
100
AcDbSymbolTableRecord
100
AcDbRegAppTableRecord
  2
GENIUS_GENOBJ-F-PART_13
 70
     0
  0
APPID
  5
2FC2
330
9
100
AcDbSymbolTableRecord
100
AcDbRegAppTableRecord
  2
GENIUS_GEFSTDP_13
 70
     0
  0
APPID
  5
2FC3
330
9
100
AcDbSymbolTableRecord
100
AcDbRegAppTableRecord
  2
GEVPT
 70
     0
  0
APPID
  5
2FC4
330
9
100
AcDbSymbolTableRecord
100
AcDbRegAppTableRecord
  2
GEVIT
 70
     0
  0
APPID
  5
2FC5
330
9
100
AcDbSymbolTableRecord
100
AcDbRegAppTableRecord
  2
VCC
 70
     0
  0
APPID
  5
2FC6
330
9
100
AcDbSymbolTableRecord
100
AcDbRegAppTableRecord
  2
GENBH
 70
     0
  0
APPID
  5
2FC7
330
9
100
AcDbSymbolTableRecord
100
AcDbRegAppTableRecord
  2
GEVMK
 70
     0
  0
APPID
  5
2FC8
330
9
100
AcDbSymbolTableRecord
100
AcDbRegAppTableRecord
  2
GENIUS_GEFPARTINS_13
 70
     0
  0
APPID
  5
2FC9
330
9
100
AcDbSymbolTableRecord
100
AcDbRegAppTableRecord
  2
GENIUS_GENOBJ-N-CRC_13
 70
     0
  0
APPID
  5
2FCA
330
9
100
AcDbSymbolTableRecord
100
AcDbRegAppTableRecord
  2
GENIUS_GENCRC_14
 70
     0
  0
APPID
  5
2FCB
330
9
100
AcDbSymbolTableRecord
100
AcDbRegAppTableRecord
  2
GEVID978597865
 70
     0
  0
APPID
  5
2FCC
330
9
100
AcDbSymbolTableRecord
100
AcDbRegAppTableRecord
  2
GEVID978597866
 70
     0
  0
APPID
  5
2FCD
330
9
100
AcDbSymbolTableRecord
100
AcDbRegAppTableRecord
  2
GEVID978597868
 70
     0
  0
APPID
  5
2FCE
330
9
100
AcDbSymbolTableRecord
100
AcDbRegAppTableRecord
  2
GENIUS_GENCEN_19
 70
     0
  0
APPID
  5
2FCF
330
9
100
AcDbSymbolTableRecord
100
AcDbRegAppTableRecord
  2
AcAecLayerStandard
 70
     0
  0
APPID
  5
5580
330
9
100
AcDbSymbolTableRecord
100
AcDbRegAppTableRecord
  2
GENIUS_FIRSTVISTXT_14
 70
     0
  0
APPID
  5
5581
330
9
100
AcDbSymbolTableRecord
100
AcDbRegAppTableRecord
  2
GENIUS_SECONDVISTXT_14
 70
     0
  0
APPID
  5
5582
330
9
100
AcDbSymbolTableRecord
100
AcDbRegAppTableRecord
  2
GENIUS_GENOBJ-N-FIL_13
 70
     0
  0
APPID
  5
5583
330
9
100
AcDbSymbolTableRecord
100
AcDbRegAppTableRecord
  2
GENIUS_GEFWELD_13
 70
     0
  0
APPID
  5
5584
330
9
100
AcDbSymbolTableRecord
100
AcDbRegAppTableRecord
  2
GENIUS_GENOBJ-NBEHI-BHB_13
 70
     0
  0
APPID
  5
5585
330
9
100
AcDbSymbolTableRecord
100
AcDbRegAppTableRecord
  2
GENIUS_GENOBJ-F-WELS_13
 70
     0
  0
APPID
  5
5586
330
9
100
AcDbSymbolTableRecord
100
AcDbRegAppTableRecord
  2
AMG_2DHIDE
 70
     0
  0
APPID
  5
5587
330
9
100
AcDbSymbolTableRecord
100
AcDbRegAppTableRecord
  2
GEVID992928022
 70
     0
  0
APPID
  5
5588
330
9
100
AcDbSymbolTableRecord
100
AcDbRegAppTableRecord
  2
GENIUS_GENOBJ-F-DESC_13
 70
     0
  0
APPID
  5
5589
330
9
100
AcDbSymbolTableRecord
100
AcDbRegAppTableRecord
  2
GENIUS_GEFDESC_14
 70
     0
  0
APPID
  5
558A
330
9
100
AcDbSymbolTableRecord
100
AcDbRegAppTableRecord
  2
GEVID992928023
 70
     0
  0
APPID
  5
558B
330
9
100
AcDbSymbolTableRecord
100
AcDbRegAppTableRecord
  2
GENIUS_GENOBJ-F-FEAT_13
 70
     0
  0
APPID
  5
558C
330
9
100
AcDbSymbolTableRecord
100
AcDbRegAppTableRecord
  2
GENIUS_GEFFEAT_14
 70
     0
  0
APPID
  5
7580
330
9
100
AcDbSymbolTableRecord
100
AcDbRegAppTableRecord
  2
ACAD_EXEMPT_FROM_CAD_STANDARDS
 70
     0
  0
APPID
  5
9403
330
9
100
AcDbSymbolTableRecord
100
AcDbRegAppTableRecord
  2
AMG_2DSTRUCT_BTR
 70
     0
  0
APPID
  5
B4E8
330
9
100
AcDbSymbolTableRecord
100
AcDbRegAppTableRecord
  2
ACAD_DSTYLE_DIMEXT_LENGTH
 70
     0
  0
APPID
  5
B4E9
330
9
100
AcDbSymbolTableRecord
100
AcDbRegAppTableRecord
  2
ACAD_DSTYLE_DIMEXT_ENABLED
 70
     0
  0
APPID
  5
DE63
330
9
100
AcDbSymbolTableRecord
100
AcDbRegAppTableRecord
  2
GENIUS_GENDIMSH_14
 70
     0
  0
APPID
  5
E2FA
330
9
100
AcDbSymbolTableRecord
100
AcDbRegAppTableRecord
  2
GEVID1210230727
 70
     0
  0
APPID
  5
E2FB
330
9
100
AcDbSymbolTableRecord
100
AcDbRegAppTableRecord
  2
GEVDC
 70
     0
  0
APPID
  5
10068
330
9
100
AcDbSymbolTableRecord
100
AcDbRegAppTableRecord
  2
ACAUTHENVIRON
 70
     0
  0
APPID
  5
1011A
330
9
100
AcDbSymbolTableRecord
100
AcDbRegAppTableRecord
  2
AcDbDynamicBlockTrueName
 70
     0
  0
APPID
  5
1011B
330
9
100
AcDbSymbolTableRecord
100
AcDbRegAppTableRecord
  2
AcDbDynamicBlockGUID
 70
     0
  0
APPID
  5
1011D
330
9
100
AcDbSymbolTableRecord
100
AcDbRegAppTableRecord
  2
ACDBBLOCKREPETAG
 70
     0
  0
APPID
  5
107E4
330
9
100
AcDbSymbolTableRecord
100
AcDbRegAppTableRecord
  2
ACAD_DSTYLE_DIMTEXT_FILL
 70
     0
  0
APPID
  5
107E7
330
9
100
AcDbSymbolTableRecord
100
AcDbRegAppTableRecord
  2
ACAD_DSTYLE_DIM_LINETYPE
 70
     0
  0
APPID
  5
107E8
330
9
100
AcDbSymbolTableRecord
100
AcDbRegAppTableRecord
  2
ACAD_DSTYLE_DIM_EXT1_LINETYPE
 70
     0
  0
APPID
  5
107E9
330
9
100
AcDbSymbolTableRecord
100
AcDbRegAppTableRecord
  2
ACAD_DSTYLE_DIM_EXT2_LINETYPE
 70
     0
  0
APPID
  5
10B47
330
9
100
AcDbSymbolTableRecord
100
AcDbRegAppTableRecord
  2
GEVID1210230728
 70
     0
  0
APPID
  5
11657
330
9
100
AcDbSymbolTableRecord
100
AcDbRegAppTableRecord
  2
GENIUS_GENDTOL_13
 70
     0
  0
ENDTAB
  0
TABLE
  2
DIMSTYLE
  5
A
330
0
100
AcDbSymbolTable
 70
    15
100
AcDbDimStyleTable
 71
     1
340
2EE
  0
DIMSTYLE
105
2EE
330
A
100
AcDbSymbolTableRecord
100
AcDbDimStyleTableRecord
  2
AM_DIN
 70
     0
  4
"
 41
65.0
 42
1.0
 43
10.0
 44
25.0
 47
0.1
 48
0.1
 73
     0
 74
     0
 77
     1
 78
     8
 79
     2
140
50.0
141
0.0
143
0.0393701
146
0.71
147
15.0
172
     1
176
   256
177
   256
178
     2
271
     0
272
     0
283
     0
284
     8
340
11
371
    -1
372
    -1
1001
ACAD_DSTYLE_DIMEXT_LENGTH
1070
   378
1040
1.0
1001
ACAD_DSTYLE_DIMEXT_ENABLED
1070
   383
1070
     0
1001
ACAD_DSTYLE_DIMARC_LENGTH_SYMBOL
1070
   379
1070
     0
1001
ACAD_DSTYLE_DIMJOGGED_JOGANGLE_SYMBOL
1070
   384
1040
1.570796326794896
  0
DIMSTYLE
105
2FF
330
A
100
AcDbSymbolTableRecord
100
AcDbDimStyleTableRecord
  2
AM_DIN$3
 70
     0
  4
"
 41
65.0
 42
1.0
 43
10.0
 44
25.0
 47
0.1
 48
0.1
 73
     0
 77
     1
 78
     8
 79
     2
140
50.0
141
0.0
143
0.0393701
146
0.71
147
15.0
176
   256
177
   256
178
     2
271
     0
272
     0
283
     0
284
     8
288
     1
289
     0
340
11
371
    -1
372
    -1
1001
ACAD_DSTYLE_DIMARC_LENGTH_SYMBOL
1070
   379
1070
     0
1001
ACAD_DSTYLE_DIMJOGGED_JOGANGLE_SYMBOL
1070
   384
1040
1.570796326794896
  0
DIMSTYLE
105
304
330
A
100
AcDbSymbolTableRecord
100
AcDbDimStyleTableRecord
  2
AM_DIN$4
 70
     0
  4
"
 41
65.0
 42
1.0
 43
10.0
 44
25.0
 47
0.1
 48
0.1
 73
     0
 77
     1
 78
     8
 79
     2
140
50.0
141
0.0
143
0.0393701
146
0.71
147
15.0
176
   256
177
   256
178
     2
271
     0
272
     0
283
     0
284
     8
288
     1
289
     0
340
11
371
    -1
372
    -1
1001
ACAD_DSTYLE_DIMARC_LENGTH_SYMBOL
1070
   379
1070
     0
1001
ACAD_DSTYLE_DIMJOGGED_JOGANGLE_SYMBOL
1070
   384
1040
1.570796326794896
  0
DIMSTYLE
105
309
330
A
100
AcDbSymbolTableRecord
100
AcDbDimStyleTableRecord
  2
AM_DIN$6
 70
     0
  4
"
 41
65.0
 42
1.0
 43
10.0
 44
25.0
 47
0.1
 48
0.1
 73
     0
 74
     0
 78
     8
 79
     2
140
50.0
141
0.0
143
0.0393701
146
0.71
147
15.0
172
     1
176
   256
177
   256
178
     2
271
     0
272
     0
283
     0
284
     8
340
11
371
    -1
372
    -1
1001
ACAD_DSTYLE_DIMARC_LENGTH_SYMBOL
1070
   379
1070
     0
1001
ACAD_DSTYLE_DIMJOGGED_JOGANGLE_SYMBOL
1070
   384
1040
1.570796326794896
  0
DIMSTYLE
105
30E
330
A
100
AcDbSymbolTableRecord
100
AcDbDimStyleTableRecord
  2
AM_DIN$7
 70
     0
  4
"
 41
65.0
 42
1.0
 43
10.0
 44
25.0
 47
0.1
 48
0.1
 73
     0
 74
     0
 77
     1
 78
     8
 79
     2
140
5.0
141
0.0
143
0.0393701
146
0.71
147
15.0
172
     1
176
   256
177
   256
178
     2
271
     0
272
     0
283
     0
284
     8
340
11
371
    -1
372
    -1
1001
ACAD_DSTYLE_DIMARC_LENGTH_SYMBOL
1070
   379
1070
     0
1001
ACAD_DSTYLE_DIMJOGGED_JOGANGLE_SYMBOL
1070
   384
1040
1.570796326794896
  0
DIMSTYLE
105
313
330
A
100
AcDbSymbolTableRecord
100
AcDbDimStyleTableRecord
  2
AM_DIN$SF
 70
     0
  4
"
 41
2.5
 42
1.0
 43
10.0
 44
1.0
 47
0.1
 48
0.1
 73
     0
 74
     0
 75
     1
 76
     1
 77
     1
 78
     8
 79
     2
140
3.5
141
0.0
143
0.0393701
146
0.71
147
1.5
172
     1
176
   256
177
   256
178
     2
271
     2
272
     3
274
     4
283
     0
284
     8
340
11
371
    -1
372
    -1
1001
ACAD_DSTYLE_DIMARC_LENGTH_SYMBOL
1070
   379
1070
     0
1001
ACAD_DSTYLE_DIMJOGGED_JOGANGLE_SYMBOL
1070
   384
1040
1.570796326794896
  0
DIMSTYLE
105
318
330
A
100
AcDbSymbolTableRecord
100
AcDbDimStyleTableRecord
  2
AM_DIN$SH
 70
     0
  4
"
 41
2.5
 42
1.0
 43
10.0
 44
1.0
 47
0.1
 48
0.1
 73
     0
 74
     0
 75
     1
 76
     1
 77
     1
 78
     8
 79
     2
140
3.5
141
0.0
143
0.0393701
144
2.0
146
0.71
147
1.5
172
     1
173
     1
176
   256
177
   256
178
     2
271
     2
272
     3
274
     4
283
     0
284
     8
340
11
343
87
371
    -1
372
    -1
1001
ACAD_DSTYLE_DIMARC_LENGTH_SYMBOL
1070
   379
1070
     0
1001
ACAD_DSTYLE_DIMJOGGED_JOGANGLE_SYMBOL
1070
   384
1040
1.570796326794896
  0
DIMSTYLE
105
7C7E
102
{ACAD_REACTORS
330
15ABB
330
15AB9
330
15ABD
330
15ABA
330
15AB8
102
}
330
A
100
AcDbSymbolTableRecord
100
AcDbDimStyleTableRecord
  2
AM_DIN$0
 70
     0
  4
"
 41
65.0
 42
1.0
 43
10.0
 44
25.0
 47
0.1
 48
0.1
 73
     0
 74
     0
 77
     1
 78
     8
 79
     2
140
50.0
141
0.0
143
0.0393701
146
0.71
147
15.0
172
     1
176
   256
177
   256
178
     2
271
     0
272
     0
283
     0
284
     8
340
11
371
    -1
372
    -1
1001
ACAD_DSTYLE_DIMARC_LENGTH_SYMBOL
1070
   379
1070
     0
1001
ACAD_DSTYLE_DIMJOGGED_JOGANGLE_SYMBOL
1070
   384
1040
1.570796326794896
  0
DIMSTYLE
105
166A5
330
A
100
AcDbSymbolTableRecord
100
AcDbDimStyleTableRecord
  2
AM_ISO
 70
     0
  4
"
 41
2.5
 42
1.0
 43
10.0
 44
1.0
 47
0.1
 48
0.1
 73
     0
 74
     0
 77
     1
 78
     8
 79
     2
140
3.5
141
0.0
143
0.0393701
146
0.71
147
1.5
172
     1
176
   256
177
   256
178
     2
271
     2
272
     3
274
     4
283
     0
284
     8
340
11
371
    -1
372
    -1
1001
ACAD_DSTYLE_DIMARC_LENGTH_SYMBOL
1070
   379
1070
     1
1001
ACAD_DSTYLE_DIMJOGGED_JOGANGLE_SYMBOL
1070
   384
1040
0.7853981633974483
  0
DIMSTYLE
105
166A6
330
A
100
AcDbSymbolTableRecord
100
AcDbDimStyleTableRecord
  2
AM_ISO$3
 70
     0
  4
"
 41
2.5
 42
1.0
 43
10.0
 44
1.0
 47
0.1
 48
0.1
 73
     0
 77
     1
 78
     8
 79
     2
140
3.5
141
0.0
143
0.0393701
146
0.71
147
1.5
176
   256
177
   256
178
     2
271
     2
272
     3
274
     4
283
     0
284
     8
288
     1
289
     0
340
11
371
    -1
372
    -1
1001
ACAD_DSTYLE_DIMARC_LENGTH_SYMBOL
1070
   379
1070
     1
1001
ACAD_DSTYLE_DIMJOGGED_JOGANGLE_SYMBOL
1070
   384
1040
0.7853981633974483
  0
DIMSTYLE
105
166A7
330
A
100
AcDbSymbolTableRecord
100
AcDbDimStyleTableRecord
  2
AM_ISO$4
 70
     0
  4
"
 41
2.5
 42
1.0
 43
10.0
 44
1.0
 47
0.1
 48
0.1
 73
     0
 77
     1
 78
     8
 79
     2
140
3.5
141
0.0
143
0.0393701
146
0.71
147
1.5
176
   256
177
   256
178
     2
271
     2
272
     3
274
     4
283
     0
284
     8
288
     1
289
     0
340
11
371
    -1
372
    -1
1001
ACAD_DSTYLE_DIMARC_LENGTH_SYMBOL
1070
   379
1070
     1
1001
ACAD_DSTYLE_DIMJOGGED_JOGANGLE_SYMBOL
1070
   384
1040
0.7853981633974483
  0
DIMSTYLE
105
166A8
330
A
100
AcDbSymbolTableRecord
100
AcDbDimStyleTableRecord
  2
AM_ISO$6
 70
     0
  4
"
 41
2.5
 42
1.0
 43
10.0
 44
1.0
 47
0.1
 48
0.1
 73
     0
 74
     0
 78
     8
 79
     2
140
3.5
141
0.0
143
0.0393701
146
0.71
147
1.5
172
     1
176
   256
177
   256
178
     2
271
     2
272
     3
274
     4
283
     0
284
     8
340
11
371
    -1
372
    -1
1001
ACAD_DSTYLE_DIMARC_LENGTH_SYMBOL
1070
   379
1070
     1
1001
ACAD_DSTYLE_DIMJOGGED_JOGANGLE_SYMBOL
1070
   384
1040
0.7853981633974483
  0
DIMSTYLE
105
166A9
330
A
100
AcDbSymbolTableRecord
100
AcDbDimStyleTableRecord
  2
AM_ISO$7
 70
     0
  4
"
 41
2.5
 42
1.0
 43
10.0
 44
1.0
 47
0.1
 48
0.1
 73
     0
 74
     0
 77
     1
 78
     8
 79
     2
140
5.0
141
0.0
143
0.0393701
146
0.71
147
1.5
172
     1
176
   256
177
   256
178
     2
271
     2
272
     3
274
     4
283
     0
284
     8
340
11
371
    -1
372
    -1
1001
ACAD_DSTYLE_DIMARC_LENGTH_SYMBOL
1070
   379
1070
     1
1001
ACAD_DSTYLE_DIMJOGGED_JOGANGLE_SYMBOL
1070
   384
1040
0.7853981633974483
  0
DIMSTYLE
105
166AA
330
A
100
AcDbSymbolTableRecord
100
AcDbDimStyleTableRecord
  2
AM_ISO$SF
 70
     0
  4
"
 41
2.5
 42
1.0
 43
10.0
 44
1.0
 47
0.1
 48
0.1
 73
     0
 74
     0
 75
     1
 76
     1
 77
     1
 78
     8
 79
     2
140
3.5
141
0.0
143
0.0393701
146
0.71
147
1.5
172
     1
176
   256
177
   256
178
     2
271
     2
272
     3
274
     4
283
     0
284
     8
340
11
371
    -1
372
    -1
1001
ACAD_DSTYLE_DIMARC_LENGTH_SYMBOL
1070
   379
1070
     1
1001
ACAD_DSTYLE_DIMJOGGED_JOGANGLE_SYMBOL
1070
   384
1040
0.7853981633974483
  0
DIMSTYLE
105
166AB
330
A
100
AcDbSymbolTableRecord
100
AcDbDimStyleTableRecord
  2
AM_ISO$SH
 70
     0
  4
"
 41
2.5
 42
1.0
 43
10.0
 44
1.0
 47
0.1
 48
0.1
 73
     0
 74
     0
 75
     1
 76
     1
 77
     1
 78
     8
 79
     2
140
3.5
141
0.0
143
0.0393701
144
2.0
146
0.71
147
1.5
172
     1
173
     1
176
   256
177
   256
178
     2
271
     2
272
     3
274
     4
283
     0
284
     8
340
11
343
87
371
    -1
372
    -1
1001
ACAD_DSTYLE_DIMARC_LENGTH_SYMBOL
1070
   379
1070
     1
1001
ACAD_DSTYLE_DIMJOGGED_JOGANGLE_SYMBOL
1070
   384
1040
0.7853981633974483
  0
ENDTAB
  0
TABLE
  2
BLOCK_RECORD
  5
1
330
0
100
AcDbSymbolTable
 70
     9
  0
BLOCK_RECORD
  5
1F
102
{ACAD_XDICTIONARY
360
8F
102
}
330
1
100
AcDbSymbolTableRecord
100
AcDbBlockTableRecord
  2
*Model_Space
340
22
  0
BLOCK_RECORD
  5
1B
330
1
100
AcDbSymbolTableRecord
100
AcDbBlockTableRecord
  2
*Paper_Space
340
1E
  0
BLOCK_RECORD
  5
23
330
1
100
AcDbSymbolTableRecord
100
AcDbBlockTableRecord
  2
*Paper_Space0
340
26
  0
BLOCK_RECORD
  5
87
102
{ACAD_XDICTIONARY
360
10117
102
}
330
1
100
AcDbSymbolTableRecord
100
AcDbBlockTableRecord
  2
GENAXEH
340
0
1001
AcDbDynamicBlockGUID
1000
{D68C792B-0B99-4E0B-8B7B-1EAC83B216F4}
1001
ACDBBLOCKREPETAG
1070
     1
1071
        0
  0
BLOCK_RECORD
  5
15B28
330
1
100
AcDbSymbolTableRecord
100
AcDbBlockTableRecord
  2
*D3
340
0
  0
BLOCK_RECORD
  5
15B36
330
1
100
AcDbSymbolTableRecord
100
AcDbBlockTableRecord
  2
*D4
340
0
  0
BLOCK_RECORD
  5
15B44
330
1
100
AcDbSymbolTableRecord
100
AcDbBlockTableRecord
  2
*D5
340
0
  0
BLOCK_RECORD
  5
15B52
330
1
100
AcDbSymbolTableRecord
100
AcDbBlockTableRecord
  2
*D6
340
0
  0
BLOCK_RECORD
  5
15B6E
330
1
100
AcDbSymbolTableRecord
100
AcDbBlockTableRecord
  2
*D7
340
0
  0
ENDTAB
  0
ENDSEC
  0
SECTION
  2
BLOCKS
  0
BLOCK
  5
20
330
1F
100
AcDbEntity
  8
0
100
AcDbBlockBegin
  2
*Model_Space
 70
     0
 10
0.0
 20
0.0
 30
0.0
  3
*Model_Space
  1

  0
ENDBLK
  5
21
330
1F
100
AcDbEntity
  8
0
100
AcDbBlockEnd
  0
BLOCK
  5
1C
330
1B
100
AcDbEntity
 67
     1
  8
0
100
AcDbBlockBegin
  2
*Paper_Space
 70
     0
 10
0.0
 20
0.0
 30
0.0
  3
*Paper_Space
  1

  0
ENDBLK
  5
1D
330
1B
100
AcDbEntity
 67
     1
  8
0
100
AcDbBlockEnd
  0
BLOCK
  5
24
330
23
100
AcDbEntity
 67
     1
  8
0
100
AcDbBlockBegin
  2
*Paper_Space0
 70
     0
 10
0.0
 20
0.0
 30
0.0
  3
*Paper_Space0
  1

  0
ENDBLK
  5
25
330
23
100
AcDbEntity
 67
     1
  8
0
100
AcDbBlockEnd
  0
BLOCK
  5
2ADE
330
87
100
AcDbEntity
  8
0
100
AcDbBlockBegin
  2
GENAXEH
 70
     0
 10
0.0
 20
0.0
 30
0.0
  3
GENAXEH
  1

  0
ENDBLK
  5
2AE0
330
87
100
AcDbEntity
  8
0
100
AcDbBlockEnd
  0
BLOCK
  5
15B34
330
15B28
100
AcDbEntity
  8
0
100
AcDbBlockBegin
  2
*D3
 70
     1
 10
0.0
 20
0.0
 30
0.0
  3
*D3
  1

  0
LINE
  5
185E4
330
15B28
100
AcDbEntity
  8
AM_5
100
AcDbLine
 10
16040.40866785923
 20
369.772745590494
 30
0.0
 11
16040.40866785923
 21
590.3858487176181
 31
0.0
  0
LINE
  5
185E5
330
15B28
100
AcDbEntity
  8
AM_5
100
AcDbLine
 10
16495.44673832189
 20
369.6930991953558
 30
0.0
 11
16495.44673832189
 21
590.3858487176181
 31
0.0
  0
LINE
  5
185E6
330
15B28
100
AcDbEntity
  8
AM_5
100
AcDbLine
 10
16080.40866785923
 20
565.3858487176181
 30
0.0
 11
16455.44673832189
 21
565.3858487176181
 31
0.0
  0
SOLID
  5
185E7
330
15B28
100
AcDbEntity
  8
AM_5
100
AcDbTrace
 10
16080.40866785923
 20
572.0525153842848
 30
0.0
 11
16080.40866785923
 21
558.7191820509515
 31
0.0
 12
16040.40866785923
 22
565.3858487176181
 32
0.0
 13
16040.40866785923
 23
565.3858487176181
 33
0.0
  0
SOLID
  5
185E8
330
15B28
100
AcDbEntity
  8
AM_5
100
AcDbTrace
 10
16455.44673832189
 20
572.0525153842848
 30
0.0
 11
16455.44673832189
 21
558.7191820509515
 31
0.0
 12
16495.44673832189
 22
565.3858487176181
 32
0.0
 13
16495.44673832189
 23
565.3858487176181
 33
0.0
  0
MTEXT
  5
185E9
330
15B28
100
AcDbEntity
  8
AM_5
 62
     2
100
AcDbMText
 10
16280.7280734128
 20
601.9274585402648
 30
0.0
 40
40.0
 41
0.0
 71
     5
 72
     1
  1
li. %%c 455
 73
     1
 44
1.0
1001
ACAD
1000
MTEXTBEGIN
1070
    73
1070
     1
1070
    44
1040
1.0
1070
    74
1070
     0
1000
MTEXTEND
  0
POINT
  5
185EA
330
15B28
100
AcDbEntity
  8
Defpoints
 62
     0
100
AcDbPoint
 10
16040.40866785923
 20
368.772745590494
 30
0.0
  0
POINT
  5
185EB
330
15B28
100
AcDbEntity
  8
Defpoints
 62
     0
100
AcDbPoint
 10
16495.44673832189
 20
368.6930991953557
 30
0.0
  0
POINT
  5
185EC
330
15B28
100
AcDbEntity
  8
Defpoints
 62
     0
100
AcDbPoint
 10
16495.44673832189
 20
565.3858487176181
 30
0.0
  0
ENDBLK
  5
15B35
330
15B28
100
AcDbEntity
  8
0
100
AcDbBlockEnd
  0
BLOCK
  5
15B42
330
15B36
100
AcDbEntity
  8
0
100
AcDbBlockBegin
  2
*D4
 70
     1
 10
0.0
 20
0.0
 30
0.0
  3
*D4
  1

  0
LINE
  5
185D2
330
15B36
100
AcDbEntity
  8
AM_5
100
AcDbLine
 10
16049.45725540613
 20
-39.17232305625248
 30
0.0
 11
15602.59957012504
 21
-39.17232305625235
 31
0.0
  0
LINE
  5
185D3
330
15B36
100
AcDbEntity
  8
AM_5
100
AcDbLine
 10
16267.42958977609
 20
485.8485800401099
 30
0.0
 11
15602.59957012504
 21
485.84858004011
 31
0.0
  0
LINE
  5
185D4
330
15B36
100
AcDbEntity
  8
AM_5
100
AcDbLine
 10
15627.59957012503
 20
0.8276769437476449
 30
0.0
 11
15627.59957012503
 21
445.8485800401101
 31
0.0
  0
SOLID
  5
185D5
330
15B36
100
AcDbEntity
  8
AM_5
100
AcDbTrace
 10
15620.93290345837
 20
0.8276769437476463
 30
0.0
 11
15634.2662367917
 21
0.8276769437476433
 31
0.0
 12
15627.59957012503
 22
-39.17232305625235
 32
0.0
 13
15627.59957012503
 23
-39.17232305625235
 33
0.0
  0
SOLID
  5
185D6
330
15B36
100
AcDbEntity
  8
AM_5
100
AcDbTrace
 10
15620.93290345837
 20
445.8485800401101
 30
0.0
 11
15634.2662367917
 21
445.8485800401101
 31
0.0
 12
15627.59957012503
 22
485.84858004011
 32
0.0
 13
15627.59957012503
 23
485.84858004011
 33
0.0
  0
MTEXT
  5
185D7
330
15B36
100
AcDbEntity
  8
AM_5
 62
     2
100
AcDbMText
 10
15592.17665061616
 20
259.0562127454588
 30
0.0
 40
40.0
 41
0.0
 71
     5
 72
     1
  1
525
 11
0.0000000000000001
 21
1.0
 31
0.0
 73
     1
 44
1.0
1001
ACAD
1000
MTEXTBEGIN
1070
    73
1070
     1
1070
    44
1040
1.0
1070
    74
1070
     0
1000
MTEXTEND
  0
POINT
  5
185D8
330
15B36
100
AcDbEntity
  8
Defpoints
 62
     0
100
AcDbPoint
 10
16050.45725540613
 20
-39.17232305625248
 30
0.0
  0
POINT
  5
185D9
330
15B36
100
AcDbEntity
  8
Defpoints
 62
     0
100
AcDbPoint
 10
16268.42958977609
 20
485.8485800401099
 30
0.0
  0
POINT
  5
185DA
330
15B36
100
AcDbEntity
  8
Defpoints
 62
     0
100
AcDbPoint
 10
15627.59957012503
 20
485.84858004011
 30
0.0
  0
ENDBLK
  5
15B43
330
15B36
100
AcDbEntity
  8
0
100
AcDbBlockEnd
  0
BLOCK
  5
15B50
330
15B44
100
AcDbEntity
  8
0
100
AcDbBlockBegin
  2
*D5
 70
     1
 10
0.0
 20
0.0
 30
0.0
  3
*D5
  1

  0
LINE
  5
18601
330
15B44
100
AcDbEntity
  8
AM_5
100
AcDbLine
 10
16655.30204384398
 20
66.82767694695917
 30
0.0
 11
16760.19270088921
 21
66.82767694695915
 31
0.0
  0
LINE
  5
18602
330
15B44
100
AcDbEntity
  8
AM_5
100
AcDbLine
 10
16487.40610011435
 20
-39.17232305625248
 30
0.0
 11
16760.19270088921
 21
-39.17232305625256
 31
0.0
  0
LINE
  5
18603
330
15B44
100
AcDbEntity
  8
AM_5
100
AcDbLine
 10
16735.19270088921
 20
106.8276769469591
 30
0.0
 11
16735.19270088921
 21
146.8276769469591
 31
0.0
  0
LINE
  5
18604
330
15B44
100
AcDbEntity
  8
AM_5
100
AcDbLine
 10
16735.19270088921
 20
-79.17232305625255
 30
0.0
 11
16735.19270088921
 21
-233.756224829786
 31
0.0
  0
LINE
  5
18605
330
15B44
100
AcDbEntity
  8
AM_5
100
AcDbLine
 10
16735.19270088921
 20
66.82767694695916
 30
0.0
 11
16735.19270088921
 21
-39.17232305625255
 31
0.0
  0
SOLID
  5
18606
330
15B44
100
AcDbEntity
  8
AM_5
100
AcDbTrace
 10
16728.52603422254
 20
106.8276769469591
 30
0.0
 11
16741.85936755588
 21
106.8276769469591
 31
0.0
 12
16735.19270088921
 22
66.82767694695916
 32
0.0
 13
16735.19270088921
 23
66.82767694695916
 33
0.0
  0
SOLID
  5
18607
330
15B44
100
AcDbEntity
  8
AM_5
100
AcDbTrace
 10
16728.52603422254
 20
-79.17232305625255
 30
0.0
 11
16741.85936755588
 21
-79.17232305625256
 31
0.0
 12
16735.19270088921
 22
-39.17232305625255
 32
0.0
 13
16735.19270088921
 23
-39.17232305625255
 33
0.0
  0
MTEXT
  5
18608
330
15B44
100
AcDbEntity
  8
AM_5
 62
     2
100
AcDbMText
 10
16699.76978138034
 20
-176.4642739430165
 30
0.0
 40
40.0
 41
0.0
 71
     5
 72
     1
  1
106
 11
0.0000000000000001
 21
1.0
 31
0.0
 73
     1
 44
1.0
1001
ACAD
1000
MTEXTBEGIN
1070
    73
1070
     1
1070
    44
1040
1.0
1070
    74
1070
     0
1000
MTEXTEND
  0
POINT
  5
18609
330
15B44
100
AcDbEntity
  8
Defpoints
 62
     0
100
AcDbPoint
 10
16654.30204384398
 20
66.82767694695917
 30
0.0
  0
POINT
  5
1860A
330
15B44
100
AcDbEntity
  8
Defpoints
 62
     0
100
AcDbPoint
 10
16486.40610011435
 20
-39.17232305625248
 30
0.0
  0
POINT
  5
1860B
330
15B44
100
AcDbEntity
  8
Defpoints
 62
     0
100
AcDbPoint
 10
16735.19270088921
 20
-39.17232305625255
 30
0.0
  0
ENDBLK
  5
15B51
330
15B44
100
AcDbEntity
  8
0
100
AcDbBlockEnd
  0
BLOCK
  5
15B5E
330
15B52
100
AcDbEntity
  8
0
100
AcDbBlockBegin
  2
*D6
 70
     1
 10
0.0
 20
0.0
 30
0.0
  3
*D6
  1

  0
LINE
  5
185C9
330
15B52
100
AcDbEntity
  8
AM_5
100
AcDbLine
 10
16049.45725540613
 20
-39.17232305625248
 30
0.0
 11
15859.23389348024
 21
-39.17232305625243
 31
0.0
  0
LINE
  5
185CA
330
15B52
100
AcDbEntity
  8
AM_5
100
AcDbLine
 10
15949.50376038949
 20
229.5676617095561
 30
0.0
 11
15859.23389348024
 21
229.5676617095561
 31
0.0
  0
LINE
  5
185CB
330
15B52
100
AcDbEntity
  8
AM_5
100
AcDbLine
 10
15884.23389348024
 20
0.8276769437475666
 30
0.0
 11
15884.23389348024
 21
189.5676617095561
 31
0.0
  0
SOLID
  5
185CC
330
15B52
100
AcDbEntity
  8
AM_5
100
AcDbTrace
 10
15877.56722681358
 20
0.827676943747568
 30
0.0
 11
15890.90056014691
 21
0.827676943747565
 31
0.0
 12
15884.23389348024
 22
-39.17232305625243
 32
0.0
 13
15884.23389348024
 23
-39.17232305625243
 33
0.0
  0
SOLID
  5
185CD
330
15B52
100
AcDbEntity
  8
AM_5
100
AcDbTrace
 10
15877.56722681358
 20
189.5676617095561
 30
0.0
 11
15890.90056014691
 21
189.5676617095561
 31
0.0
 12
15884.23389348024
 22
229.5676617095561
 32
0.0
 13
15884.23389348024
 23
229.5676617095561
 33
0.0
  0
MTEXT
  5
185CE
330
15B52
100
AcDbEntity
  8
AM_5
 62
     2
100
AcDbMText
 10
15848.81097397138
 20
115.5257531458566
 30
0.0
 40
40.0
 41
0.0
 71
     5
 72
     1
  1
269
 11
0.0000000000000001
 21
1.0
 31
0.0
 73
     1
 44
1.0
1001
ACAD
1000
MTEXTBEGIN
1070
    73
1070
     1
1070
    44
1040
1.0
1070
    74
1070
     0
1000
MTEXTEND
  0
POINT
  5
185CF
330
15B52
100
AcDbEntity
  8
Defpoints
 62
     0
100
AcDbPoint
 10
16050.45725540613
 20
-39.17232305625248
 30
0.0
  0
POINT
  5
185D0
330
15B52
100
AcDbEntity
  8
Defpoints
 62
     0
100
AcDbPoint
 10
15950.50376038949
 20
229.5676617095561
 30
0.0
  0
POINT
  5
185D1
330
15B52
100
AcDbEntity
  8
Defpoints
 62
     0
100
AcDbPoint
 10
15884.23389348024
 20
229.5676617095561
 30
0.0
  0
ENDBLK
  5
15B5F
330
15B52
100
AcDbEntity
  8
0
100
AcDbBlockEnd
  0
BLOCK
  5
15B7A
330
15B6E
100
AcDbEntity
  8
0
100
AcDbBlockBegin
  2
*D7
 70
     1
 10
0.0
 20
0.0
 30
0.0
  3
*D7
  1

  0
LINE
  5
18621
330
15B6E
100
AcDbEntity
  8
AM_5
100
AcDbLine
 10
15980.11327800813
 20
120.119196228651
 30
0.0
 11
15980.11327800813
 21
-203.758402189937
 31
0.0
  0
LINE
  5
18622
330
15B6E
100
AcDbEntity
  8
AM_5
100
AcDbLine
 10
16635.43167775773
 20
-34.17232305463472
 30
0.0
 11
16635.43167775773
 21
-203.758402189937
 31
0.0
  0
LINE
  5
18623
330
15B6E
100
AcDbEntity
  8
AM_5
100
AcDbLine
 10
16020.11327800813
 20
-178.758402189937
 30
0.0
 11
16595.43167775773
 21
-178.758402189937
 31
0.0
  0
SOLID
  5
18624
330
15B6E
100
AcDbEntity
  8
AM_5
100
AcDbTrace
 10
16020.11327800813
 20
-172.0917355232703
 30
0.0
 11
16020.11327800813
 21
-185.4250688566036
 31
0.0
 12
15980.11327800813
 22
-178.758402189937
 32
0.0
 13
15980.11327800813
 23
-178.758402189937
 33
0.0
  0
SOLID
  5
18625
330
15B6E
100
AcDbEntity
  8
AM_5
100
AcDbTrace
 10
16595.43167775773
 20
-172.0917355232703
 30
0.0
 11
16595.43167775773
 21
-185.4250688566036
 31
0.0
 12
16635.43167775773
 22
-178.758402189937
 32
0.0
 13
16635.43167775773
 23
-178.758402189937
 33
0.0
  0
MTEXT
  5
18626
330
15B6E
100
AcDbEntity
  8
AM_5
 62
     2
100
AcDbMText
 10
16307.90971949011
 20
-143.3354826810693
 30
0.0
 40
40.0
 41
0.0
 71
     5
 72
     1
  1
655
 73
     1
 44
1.0
1001
ACAD
1000
MTEXTBEGIN
1070
    73
1070
     1
1070
    44
1040
1.0
1070
    74
1070
     0
1000
MTEXTEND
  0
POINT
  5
18627
330
15B6E
100
AcDbEntity
  8
Defpoints
 62
     0
100
AcDbPoint
 10
15980.11327800813
 20
121.119196228651
 30
0.0
  0
POINT
  5
18628
330
15B6E
100
AcDbEntity
  8
Defpoints
 62
     0
100
AcDbPoint
 10
16635.43167775773
 20
-33.17232305463472
 30
0.0
  0
POINT
  5
18629
330
15B6E
100
AcDbEntity
  8
Defpoints
 62
     0
100
AcDbPoint
 10
16635.43167775773
 20
-178.758402189937
 30
0.0
  0
ENDBLK
  5
15B7B
330
15B6E
100
AcDbEntity
  8
0
100
AcDbBlockEnd
  0
ENDSEC
  0
SECTION
  2
ENTITIES
  0
LINE
  5
10BB2
330
1F
100
AcDbEntity
  8
bezugslinien
100
AcDbLine
 10
15763.18998398484
 20
229.567661709557
 30
0.0
 11
15688.18998398484
 21
229.567661709557
 31
0.0
  0
SOLID
  5
10BB3
330
1F
100
AcDbEntity
  8
bezugslinien
100
AcDbTrace
 10
15763.18998398484
 20
240.4009950428914
 30
0.0
 11
15763.18998398484
 21
218.734328376224
 31
0.0
 12
15828.18998398484
 22
229.567661709557
 32
0.0
 13
15828.18998398484
 23
229.567661709557
 33
0.0
  0
LINE
  5
10BBB
330
1F
100
AcDbEntity
  8
bezugslinien
100
AcDbLine
 10
16855.66986352712
 20
66.82767694695917
 30
0.0
 11
16780.66986352712
 21
66.82767694695917
 31
0.0
  0
SOLID
  5
10BBC
330
1F
100
AcDbEntity
  8
bezugslinien
100
AcDbTrace
 10
16855.66986352712
 20
77.66101028029265
 30
0.0
 11
16855.66986352712
 21
55.99434361362614
 31
0.0
 12
16920.66986352712
 22
66.82767694695917
 32
0.0
 13
16920.66986352712
 23
66.82767694695917
 33
0.0
  0
DIMENSION
  5
15AB8
330
1F
100
AcDbEntity
  8
AM_5
100
AcDbDimension
  2
*D3
 10
16495.44673832189
 20
565.3858487176181
 30
0.0
 11
16280.7280734128
 21
565.3858487176181
 31
0.0
 70
   160
  1
li. %%c 455
 71
     5
 42
455.038070462655
  3
AM_DIN$0
100
AcDbAlignedDimension
 13
16040.40866785923
 23
368.772745590494
 33
0.0
 14
16495.44673832189
 24
368.6930991953557
 34
0.0
100
AcDbRotatedDimension
1001
ACAD
1000
DSTYLE
1002
{
1070
    41
1040
40.0
1070
   140
1040
40.0
1002
}
  0
DIMENSION
  5
15AB9
330
1F
100
AcDbEntity
  8
AM_5
100
AcDbDimension
  2
*D4
 10
15627.59957012503
 20
485.84858004011
 30
0.0
 11
15627.59957012503
 21
259.0562127454588
 31
0.0
 70
   160
  1
<>
 71
     5
 42
525.0209030963624
  3
AM_DIN$0
100
AcDbAlignedDimension
 13
16050.45725540613
 23
-39.17232305625248
 33
0.0
 14
16268.42958977609
 24
485.8485800401099
 34
0.0
 50
90.0
100
AcDbRotatedDimension
1001
ACAD
1000
DSTYLE
1002
{
1070
    41
1040
40.0
1070
   140
1040
40.0
1002
}
  0
DIMENSION
  5
15ABA
330
1F
100
AcDbEntity
  8
AM_5
100
AcDbDimension
  2
*D5
 10
16735.19270088921
 20
-39.17232305625255
 30
0.0
 11
16735.19270088921
 21
-176.4642739430165
 31
0.0
 70
   160
  1
<>
 71
     5
 42
106.0000000032117
  3
AM_DIN$0
100
AcDbAlignedDimension
 13
16654.30204384398
 23
66.82767694695917
 33
0.0
 14
16486.40610011435
 24
-39.17232305625248
 34
0.0
 50
90.0
100
AcDbRotatedDimension
1001
ACAD
1000
DSTYLE
1002
{
1070
    41
1040
40.0
1070
   140
1040
40.0
1002
}
  0
DIMENSION
  5
15ABB
330
1F
100
AcDbEntity
  8
AM_5
100
AcDbDimension
  2
*D6
 10
15884.23389348024
 20
229.5676617095561
 30
0.0
 11
15884.23389348024
 21
115.5257531458566
 31
0.0
 70
   160
  1
<>
 71
     5
 42
268.7399847658086
  3
AM_DIN$0
100
AcDbAlignedDimension
 13
16050.45725540613
 23
-39.17232305625248
 33
0.0
 14
15950.50376038949
 24
229.5676617095561
 34
0.0
 50
90.0
100
AcDbRotatedDimension
1001
ACAD
1000
DSTYLE
1002
{
1070
   140
1040
40.0
1070
    41
1040
40.0
1002
}
  0
DIMENSION
  5
15ABD
330
1F
100
AcDbEntity
  8
AM_5
100
AcDbDimension
  2
*D7
 10
16635.43167775773
 20
-178.758402189937
 30
0.0
 11
16307.90971949011
 21
-178.758402189937
 31
0.0
 70
   160
  1
<>
 71
     5
 42
655.3183997496017
  3
AM_DIN$0
100
AcDbAlignedDimension
 13
15980.11327800813
 23
121.119196228651
 33
0.0
 14
16635.43167775773
 24
-33.17232305463472
 34
0.0
100
AcDbRotatedDimension
1001
ACAD
1000
DSTYLE
1002
{
1070
    41
1040
40.0
1070
   140
1040
40.0
1002
}
  0
MTEXT
  5
16671
330
1F
100
AcDbEntity
  8
Beschriftung
100
AcDbMText
 10
15687.92516916104
 20
348.008297036176
 30
0.0
 40
30.0
 41
1190.293354815057
 71
     1
 72
     5
  1
Zulauf DN 200\P/ %%C OD 200
 73
     1
 44
1.0
1001
ACAD
1000
ACAD_MTEXT_DEFINED_HEIGHT_BEGIN
1070
    46
1040
0.0
1000
ACAD_MTEXT_DEFINED_HEIGHT_END
1000
MTEXTBEGIN
1070
    73
1070
     1
1070
    44
1040
1.0
1070
    74
1070
     0
1000
MTEXTEND
  0
MTEXT
  5
17BE7
330
1F
100
AcDbEntity
  8
Beschriftung
100
AcDbMText
 10
16780.40504870332
 20
185.2683122735782
 30
0.0
 40
30.0
 41
1190.293354815057
 71
     1
 72
     5
  1
Ablauf DN 200\P/ %%C OD 200
 73
     1
 44
1.0
1001
ACAD
1000
ACAD_MTEXT_DEFINED_HEIGHT_BEGIN
1070
    46
1040
0.0
1000
ACAD_MTEXT_DEFINED_HEIGHT_END
1000
MTEXTBEGIN
1070
    73
1070
     1
1070
    44
1040
1.0
1070
    74
1070
     0
1000
MTEXTEND
  0
LINE
  5
18330
330
1F
100
AcDbEntity
  8
0
  6
Continuous
 62
     7
100
AcDbLine
 10
16486.40610011435
 20
-39.17232305625248
 30
0.0
 11
16050.45725540613
 21
-39.17232305625248
 31
0.0
  0
LINE
  5
18331
330
1F
100
AcDbEntity
  8
0
  6
Continuous
 62
     7
100
AcDbLine
 10
16530.29024932923
 20
-36.17232304909999
 30
0.0
 11
16498.5304557617
 21
-36.17232304909999
 31
0.0
  0
LINE
  5
18332
330
1F
100
AcDbEntity
  8
0
  6
Continuous
 62
     7
100
AcDbLine
 10
16635.43167775773
 20
-33.17232305463472
 30
0.0
 11
16537.43167775668
 21
-33.17232305463472
 31
0.0
  0
LINE
  5
18333
330
1F
100
AcDbEntity
  8
0
  6
Continuous
 62
     7
100
AcDbLine
 10
16486.40610011435
 20
-31.17232305409834
 30
0.0
 11
16050.45725540613
 21
-31.17232305409834
 31
0.0
  0
LINE
  5
18334
330
1F
100
AcDbEntity
  8
0
  6
Continuous
 62
     7
100
AcDbLine
 10
16528.7713390447
 20
-28.17232304693675
 30
0.0
 11
16498.53090328429
 21
-28.17232304693675
 31
0.0
  0
LINE
  5
18335
330
1F
100
AcDbEntity
  8
0
  6
Continuous
 62
     7
100
AcDbLine
 10
16635.43167775773
 20
-25.17232305247126
 30
0.0
 11
16537.43167775668
 21
-25.17232305247126
 31
0.0
  0
LINE
  5
18336
330
1F
100
AcDbEntity
  8
0
  6
Continuous
 62
     2
100
AcDbLine
 10
16058.76239673349
 20
-39.17232305625248
 30
0.0
 11
16045.83356215153
 21
-30.11945561447396
 31
0.0
  0
LINE
  5
18337
330
1F
100
AcDbEntity
  8
0
  6
Continuous
 62
     2
100
AcDbLine
 10
16041.38223023625
 20
-27.00259945290895
 30
0.0
 11
16030.29490291874
 21
-19.23916928496032
 31
0.0
  0
LINE
  5
18338
330
1F
100
AcDbEntity
  8
0
  6
Continuous
 62
     2
100
AcDbLine
 10
16074.4651877691
 20
-39.17232305625248
 30
0.0
 11
16063.04000372318
 21
-31.17232305409834
 31
0.0
  0
LINE
  5
18339
330
1F
100
AcDbEntity
  8
0
  6
Continuous
 62
     2
100
AcDbLine
 10
16037.58042077097
 20
-13.34533114874102
 30
0.0
 11
16028.68442125269
 21
-7.1162852247121
 31
0.0
  0
LINE
  5
1833A
330
1F
100
AcDbEntity
  8
0
  6
Continuous
 62
     2
100
AcDbLine
 10
16090.16797881743
 20
-39.17232305625248
 30
0.0
 11
16078.7427947588
 21
-31.17232305409834
 31
0.0
  0
LINE
  5
1833B
330
1F
100
AcDbEntity
  8
0
  6
Continuous
 62
     2
100
AcDbLine
 10
16035.96993910494
 20
-1.222447088501667
 30
0.0
 11
16027.07393958666
 21
5.006598835527256
 31
0.0
  0
LINE
  5
1833C
330
1F
100
AcDbEntity
  8
0
  6
Continuous
 62
     2
100
AcDbLine
 10
15992.74782965058
 20
353.8276769546032
 30
0.0
 11
15986.03381558293
 21
347.1136628869658
 31
0.0
  0
LINE
  5
1833D
330
1F
100
AcDbEntity
  8
0
  6
Continuous
 62
     7
100
AcDbLine
 10
16032.19418598835
 20
433.1471476031961
 30
0.0
 11
16022.19418598567
 21
425.6116071115439
 31
0.0
  0
LINE
  5
1833E
330
1F
100
AcDbEntity
  8
0
  6
Continuous
 62
     7
100
AcDbLine
 10
16038.5976922188
 20
-21.00283153109717
 30
0.0
 11
16489.13322662609
 21
-21.00105848408748
 31
0.0
  0
LINE
  5
1833F
330
1F
100
AcDbEntity
  8
0
  6
Continuous
 62
     2
100
AcDbLine
 10
16105.87076986574
 20
-39.17232305625248
 30
0.0
 11
16094.44558580712
 21
-31.17232305409834
 31
0.0
  0
LINE
  5
18340
330
1F
100
AcDbEntity
  8
0
  6
Continuous
 62
     2
100
AcDbLine
 10
16034.35945743889
 20
10.90043697174678
 30
0.0
 11
16025.46345793332
 21
17.12948289577582
 31
0.0
  0
LINE
  5
18341
330
1F
100
AcDbEntity
  8
0
  6
Continuous
 62
     2
100
AcDbLine
 10
16121.57356090135
 20
-39.17232305625248
 30
0.0
 11
16110.14837685543
 21
-31.17232305409834
 31
0.0
  0
LINE
  5
18342
330
1F
100
AcDbEntity
  8
0
  6
Continuous
 62
     2
100
AcDbLine
 10
16032.74897577288
 20
23.02332103198614
 30
0.0
 11
16023.9147936951
 21
29.20908192700961
 31
0.0
  0
LINE
  5
18343
330
1F
100
AcDbEntity
  8
0
  6
Continuous
 62
     2
100
AcDbLine
 10
16137.27635194967
 20
-39.17232305625248
 30
0.0
 11
16125.85116789104
 21
-31.17232305409834
 31
0.0
  0
LINE
  5
18344
330
1F
100
AcDbEntity
  8
0
  6
Continuous
 62
     2
100
AcDbLine
 10
16031.42819501334
 20
34.94335434222433
 30
0.0
 11
16022.85599296788
 21
40.94567483704929
 31
0.0
  0
LINE
  5
18345
330
1F
100
AcDbEntity
  8
0
  6
Continuous
 62
     2
100
AcDbLine
 10
16152.97914299798
 20
-39.17232305625248
 30
0.0
 11
16141.55395893935
 21
-31.17232305409834
 31
0.0
  0
LINE
  5
18346
330
1F
100
AcDbEntity
  8
0
  6
Continuous
 62
     2
100
AcDbLine
 10
16030.36939428613
 20
46.67994725226401
 30
0.0
 11
16021.79719224067
 21
52.68226774707989
 31
0.0
  0
LINE
  5
18347
330
1F
100
AcDbEntity
  8
0
  6
Continuous
 62
     7
100
AcDbLine
 10
15980.11327800813
 20
121.119196228651
 30
0.0
 11
15980.11327800813
 21
330.5361576749392
 31
0.0
  0
LINE
  5
18348
330
1F
100
AcDbEntity
  8
0
  6
Continuous
 62
     7
100
AcDbLine
 10
15983.43144567969
 20
125.8276769565495
 30
0.0
 11
15983.43144567969
 21
325.8276769597464
 31
0.0
  0
LINE
  5
18349
330
1F
100
AcDbEntity
  8
0
  6
Continuous
 62
     7
100
AcDbLine
 10
15980.11327800813
 20
330.5361576749392
 30
0.0
 11
15988.43167775449
 21
353.8276769546032
 31
0.0
  0
LINE
  5
1834A
330
1F
100
AcDbEntity
  8
0
  6
Continuous
 62
     2
100
AcDbLine
 10
15998.4316777445
 20
344.6622826487208
 30
0.0
 11
15981.84633891847
 21
328.076943822683
 31
0.0
  0
LINE
  5
1834B
330
1F
100
AcDbEntity
  8
0
  6
Continuous
 62
     2
100
AcDbLine
 10
16007.44631446517
 20
338.827676956902
 30
0.0
 11
15994.44631445531
 21
325.8276769597464
 31
0.0
  0
LINE
  5
1834C
330
1F
100
AcDbEntity
  8
0
  6
Continuous
 62
     2
100
AcDbLine
 10
16022.29555686496
 20
338.827676956902
 30
0.0
 11
16014.29555686281
 21
330.8276769547481
 31
0.0
  0
LINE
  5
1834D
330
1F
100
AcDbEntity
  8
0
  6
Continuous
 62
     2
100
AcDbLine
 10
16011.84595566596
 20
328.3780757578954
 30
0.0
 11
16010.57800647463
 21
327.1101265665752
 31
0.0
  0
LINE
  5
1834E
330
1F
100
AcDbEntity
  8
0
  6
Continuous
 62
     2
100
AcDbLine
 10
16168.68193403359
 20
-39.17232305625248
 30
0.0
 11
16157.25674998767
 21
-31.17232305409834
 31
0.0
  0
LINE
  5
1834F
330
1F
100
AcDbEntity
  8
0
  6
Continuous
 62
     2
100
AcDbLine
 10
16029.31059355891
 20
58.41654016229461
 30
0.0
 11
16020.73839152613
 21
64.41886064441394
 31
0.0
  0
LINE
  5
18350
330
1F
100
AcDbEntity
  8
0
  6
Continuous
 62
     2
100
AcDbLine
 10
16184.38472508192
 20
-39.17232305625248
 30
0.0
 11
16172.95954102329
 21
-31.17232305409834
 31
0.0
  0
LINE
  5
18351
330
1F
100
AcDbEntity
  8
0
  6
Continuous
 62
     2
100
AcDbLine
 10
16028.25179284437
 20
70.15313307232509
 30
0.0
 11
16019.67959079891
 21
76.15545355444453
 31
0.0
  0
LINE
  5
18352
330
1F
100
AcDbEntity
  8
0
  6
Continuous
 62
     2
100
AcDbLine
 10
16010.15066825133
 20
82.82767695128587
 30
0.0
 11
15998.4316777445
 21
91.03340243734203
 31
0.0
  0
LINE
  5
18353
330
1F
100
AcDbEntity
  8
0
  6
Continuous
 62
     2
100
AcDbLine
 10
16200.08751611753
 20
-39.17232305625248
 30
0.0
 11
16188.66233207159
 21
-31.17232305409834
 31
0.0
  0
LINE
  5
18354
330
1F
100
AcDbEntity
  8
0
  6
Continuous
 62
     2
100
AcDbLine
 10
16026.66178555956
 20
82.2616808010763
 30
0.0
 11
16014.42827524102
 21
90.82767695344012
 31
0.0
  0
LINE
  5
18355
330
1F
100
AcDbEntity
  8
0
  6
Continuous
 62
     2
100
AcDbLine
 10
16006.43167774666
 20
96.42695479485178
 30
0.0
 11
15998.4316777445
 21
102.0286151054712
 31
0.0
  0
LINE
  5
18356
330
1F
100
AcDbEntity
  8
0
  6
Continuous
 62
     2
100
AcDbLine
 10
16215.79030716584
 20
-39.17232305625248
 30
0.0
 11
16204.3651231072
 21
-31.17232305409834
 31
0.0
  0
LINE
  5
18357
330
1F
100
AcDbEntity
  8
0
  6
Continuous
 62
     2
100
AcDbLine
 10
16010.20218709674
 20
104.7820283947191
 30
0.0
 11
15999.28914581621
 21
112.4234221671781
 31
0.0
  0
LINE
  5
18358
330
1F
100
AcDbEntity
  8
0
  6
Continuous
 62
     7
100
AcDbLine
 10
15980.11327800813
 20
121.119196228651
 30
0.0
 11
15988.43167775449
 21
97.82767694897779
 31
0.0
  0
LINE
  5
18359
330
1F
100
AcDbEntity
  8
0
  6
Continuous
 62
     7
100
AcDbLine
 10
15998.4316777445
 20
84.82767695182213
 30
0.0
 11
15998.4316777445
 21
112.8276769466882
 31
0.0
  0
LINE
  5
1835A
330
1F
100
AcDbEntity
  8
0
  6
Continuous
 62
     7
100
AcDbLine
 10
15998.4316777445
 20
338.827676956902
 30
0.0
 11
15998.4316777445
 21
366.8276769517683
 31
0.0
  0
LINE
  5
1835B
330
1F
100
AcDbEntity
  8
0
  6
Continuous
 62
     7
100
AcDbLine
 10
16006.43167774666
 20
356.827676961765
 30
0.0
 11
16006.43167774666
 21
350.827676960138
 31
0.0
  0
LINE
  5
1835C
330
1F
100
AcDbEntity
  8
0
  6
Continuous
 62
     7
100
AcDbLine
 10
16006.43167774666
 20
100.8276769561488
 30
0.0
 11
16006.43167774666
 21
94.82767695452162
 31
0.0
  0
LINE
  5
1835D
330
1F
100
AcDbEntity
  8
AM_4
100
AcDbLine
 10
16007.31842909738
 20
125.8276769565495
 30
0.0
 11
16007.31842909738
 21
325.8276769597464
 31
0.0
  0
LINE
  5
1835E
330
1F
100
AcDbEntity
  8
AM_4
100
AcDbLine
 10
16008.43167774719
 20
120.8276769488423
 30
0.0
 11
16008.43167774719
 21
330.8276769547481
 31
0.0
  0
LINE
  5
1835F
330
1F
100
AcDbEntity
  8
0
  6
Continuous
 62
     7
100
AcDbLine
 10
16010.43167774773
 20
360.8276769628467
 30
0.0
 11
16010.43167774773
 21
346.8276769590655
 31
0.0
  0
LINE
  5
18360
330
1F
100
AcDbEntity
  8
0
  6
Continuous
 62
     7
100
AcDbLine
 10
16010.43167774773
 20
104.8276769572212
 30
0.0
 11
16010.43167774773
 21
90.82767695344012
 31
0.0
  0
LINE
  5
18361
330
1F
100
AcDbEntity
  8
AM_4
100
AcDbLine
 10
16011.31842909845
 20
125.8276769565495
 30
0.0
 11
16011.31842909845
 21
325.8276769597464
 31
0.0
  0
LINE
  5
18362
330
1F
100
AcDbEntity
  8
AM_4
100
AcDbLine
 10
16013.31842909899
 20
125.8276769565495
 30
0.0
 11
16013.31842909899
 21
325.8276769597464
 31
0.0
  0
LINE
  5
18363
330
1F
100
AcDbEntity
  8
AM_4
100
AcDbLine
 10
16014.43167774882
 20
120.8276769488423
 30
0.0
 11
16014.43167774882
 21
330.8276769547481
 31
0.0
  0
LINE
  5
18364
330
1F
100
AcDbEntity
  8
AM_4
100
AcDbLine
 10
16017.31842910006
 20
125.8276769565495
 30
0.0
 11
16017.31842910006
 21
325.8276769597464
 31
0.0
  0
LINE
  5
18365
330
1F
100
AcDbEntity
  8
AM_4
100
AcDbLine
 10
16019.31842910061
 20
125.8276769565495
 30
0.0
 11
16019.31842910061
 21
325.8276769597464
 31
0.0
  0
LINE
  5
18366
330
1F
100
AcDbEntity
  8
AM_4
100
AcDbLine
 10
16020.43167775043
 20
120.8276769488423
 30
0.0
 11
16020.43167775043
 21
330.8276769547481
 31
0.0
  0
LINE
  5
18367
330
1F
100
AcDbEntity
  8
0
  6
Continuous
 62
     7
100
AcDbLine
 10
16021.37541176593
 20
423.9694000708086
 30
0.0
 11
16021.37541176593
 21
393.9694000754061
 31
0.0
  0
LINE
  5
18368
330
1F
100
AcDbEntity
  8
0
  6
Continuous
 62
     2
100
AcDbLine
 10
16037.14479927746
 20
338.827676956902
 30
0.0
 11
16029.14479927531
 21
330.8276769547481
 31
0.0
  0
LINE
  5
18369
330
1F
100
AcDbEntity
  8
0
  6
Continuous
 62
     2
100
AcDbLine
 10
16028.692698338
 20
330.3755760301292
 30
0.0
 11
16027.42474914667
 21
329.1076268388088
 31
0.0
  0
LINE
  5
1836A
330
1F
100
AcDbEntity
  8
0
  6
Continuous
 62
     2
100
AcDbLine
 10
16024.88885076401
 20
326.5717284561588
 30
0.0
 11
16024.1447992676
 21
325.8276769597464
 31
0.0
  0
LINE
  5
1836B
330
1F
100
AcDbEntity
  8
0
  6
Continuous
 62
     2
100
AcDbLine
 10
16048.4316777453
 20
335.2653130249334
 30
0.0
 11
16040.46764425743
 21
327.3012795370723
 31
0.0
  0
LINE
  5
1836C
330
1F
100
AcDbEntity
  8
0
  6
Continuous
 62
     7
100
AcDbLine
 10
16257.15304046847
 20
438.648874191901
 30
0.0
 11
16256.50178874836
 21
438.2836962963901
 31
0.0
  0
LINE
  5
1836D
330
1F
100
AcDbEntity
  8
7A
100
AcDbLine
 10
16453.37870257656
 20
66.82767694695917
 30
0.0
 11
16655.30204384398
 21
66.82767694695917
 31
0.0
  0
LINE
  5
1836E
330
1F
100
AcDbEntity
  8
0
  6
Continuous
 62
     7
100
AcDbLine
 10
16000.43167774503
 20
82.82767695128587
 30
0.0
 11
16014.50953913742
 21
82.82767695128587
 31
0.0
  0
LINE
  5
1836F
330
1F
100
AcDbEntity
  8
0
  6
Continuous
 62
     2
100
AcDbLine
 10
16231.49309821415
 20
-39.17232305625248
 30
0.0
 11
16220.06791415553
 21
-31.17232305409834
 31
0.0
  0
LINE
  5
18370
330
1F
100
AcDbEntity
  8
0
  6
Continuous
 62
     2
100
AcDbLine
 10
16025.83978523505
 20
104.8276769572212
 30
0.0
 11
16014.41460117641
 21
112.8276769466882
 31
0.0
  0
LINE
  5
18371
330
1F
100
AcDbEntity
  8
0
  6
Continuous
 62
     2
100
AcDbLine
 10
16247.19588924978
 20
-39.17232305625248
 30
0.0
 11
16235.77070520384
 21
-31.17232305409834
 31
0.0
  0
LINE
  5
18372
330
1F
100
AcDbEntity
  8
0
  6
Continuous
 62
     2
100
AcDbLine
 10
16041.54257628335
 20
104.8276769572212
 30
0.0
 11
16030.11739222474
 21
112.8276769466882
 31
0.0
  0
LINE
  5
18373
330
1F
100
AcDbEntity
  8
0
  6
Continuous
 62
     2
100
AcDbLine
 10
16262.89868029808
 20
-39.17232305625248
 30
0.0
 11
16251.47349623945
 21
-31.17232305409834
 31
0.0
  0
LINE
  5
18374
330
1F
100
AcDbEntity
  8
0
  6
Continuous
 62
     2
100
AcDbLine
 10
16057.24536731896
 20
104.8276769572212
 30
0.0
 11
16045.82018327305
 21
112.8276769466882
 31
0.0
  0
LINE
  5
18375
330
1F
100
AcDbEntity
  8
0
  6
Continuous
 62
     2
100
AcDbLine
 10
16278.6014713337
 20
-39.17232305625248
 30
0.0
 11
16267.17628728777
 21
-31.17232305409834
 31
0.0
  0
LINE
  5
18376
330
1F
100
AcDbEntity
  8
0
  6
Continuous
 62
     2
100
AcDbLine
 10
16072.94815836729
 20
104.8276769572212
 30
0.0
 11
16061.52297430866
 21
112.8276769466882
 31
0.0
  0
LINE
  5
18377
330
1F
100
AcDbEntity
  8
0
  6
Continuous
 62
     7
100
AcDbLine
 10
16019.49766402282
 20
78.17207528958795
 30
0.0
 11
16030.69131676903
 21
-22.22317050521451
 31
0.0
  0
LINE
  5
18378
330
1F
100
AcDbEntity
  8
AM_4
100
AcDbLine
 10
16023.31842910169
 20
125.8276769565495
 30
0.0
 11
16023.31842910169
 21
325.8276769597464
 31
0.0
  0
LINE
  5
18379
330
1F
100
AcDbEntity
  8
AM_4
100
AcDbLine
 10
16025.31842908953
 20
125.8276769565495
 30
0.0
 11
16025.31842908953
 21
325.8276769597464
 31
0.0
  0
LINE
  5
1837A
330
1F
100
AcDbEntity
  8
AM_4
100
AcDbLine
 10
16026.43167775205
 20
120.8276769488423
 30
0.0
 11
16026.43167775205
 21
330.8276769547481
 31
0.0
  0
LINE
  5
1837B
330
1F
100
AcDbEntity
  8
AM_4
100
AcDbLine
 10
16029.31842909061
 20
125.8276769565495
 30
0.0
 11
16029.31842909061
 21
325.8276769597464
 31
0.0
  0
LINE
  5
1837C
330
1F
100
AcDbEntity
  8
AM_4
100
AcDbLine
 10
16031.31842909115
 20
125.8276769565495
 30
0.0
 11
16031.31842909115
 21
325.8276769597464
 31
0.0
  0
LINE
  5
1837D
330
1F
100
AcDbEntity
  8
AM_4
100
AcDbLine
 10
16032.43167775368
 20
120.8276769488423
 30
0.0
 11
16032.43167775368
 21
330.8276769547481
 31
0.0
  0
LINE
  5
1837E
330
1F
100
AcDbEntity
  8
0
  6
Continuous
 62
     7
100
AcDbLine
 10
16033.43167774759
 20
384.7916525430187
 30
0.0
 11
16033.43167774759
 21
373.8276769600024
 31
0.0
  0
LINE
  5
1837F
330
1F
100
AcDbEntity
  8
AM_4
100
AcDbLine
 10
16035.31842909223
 20
125.8276769565495
 30
0.0
 11
16035.31842909223
 21
325.8276769597464
 31
0.0
  0
LINE
  5
18380
330
1F
100
AcDbEntity
  8
AM_4
100
AcDbLine
 10
16037.31842909276
 20
125.8276769565495
 30
0.0
 11
16037.31842909276
 21
325.8276769597464
 31
0.0
  0
LINE
  5
18381
330
1F
100
AcDbEntity
  8
AM_4
100
AcDbLine
 10
16038.43167775529
 20
120.8276769488423
 30
0.0
 11
16038.43167775529
 21
330.8276769547481
 31
0.0
  0
LINE
  5
18382
330
1F
100
AcDbEntity
  8
AM_4
100
AcDbLine
 10
16041.31842909385
 20
125.8276769565495
 30
0.0
 11
16041.31842909385
 21
325.8276769597464
 31
0.0
  0
LINE
  5
18383
330
1F
100
AcDbEntity
  8
0
  6
Continuous
 62
     7
100
AcDbLine
 10
16048.4316777453
 20
112.8276769466882
 30
0.0
 11
16048.4316777453
 21
338.827676956902
 31
0.0
  0
LINE
  5
18384
330
1F
100
AcDbEntity
  8
0
  6
Continuous
 62
     7
100
AcDbLine
 10
16010.43167774773
 20
90.82767695344012
 30
0.0
 11
16014.50953913742
 21
90.82767695344012
 31
0.0
  0
LINE
  5
18385
330
1F
100
AcDbEntity
  8
0
  6
Continuous
 62
     7
100
AcDbLine
 10
15988.43167775449
 20
97.82767694897779
 30
0.0
 11
15998.4316777445
 21
97.82767694897779
 31
0.0
  0
LINE
  5
18386
330
1F
100
AcDbEntity
  8
0
  6
Continuous
 62
     7
100
AcDbLine
 10
16096.43167774554
 20
104.8276769572212
 30
0.0
 11
16010.43167774773
 21
104.8276769572212
 31
0.0
  0
LINE
  5
18387
330
1F
100
AcDbEntity
  8
0
  6
Continuous
 62
     7
100
AcDbLine
 10
15998.4316777445
 20
112.8276769466882
 30
0.0
 11
16096.43167774554
 21
112.8276769466882
 31
0.0
  0
LINE
  5
18388
330
1F
100
AcDbEntity
  8
0
  6
Continuous
 62
     2
100
AcDbLine
 10
16294.304262382
 20
-39.17232305625248
 30
0.0
 11
16282.87907832339
 21
-31.17232305409834
 31
0.0
  0
LINE
  5
18389
330
1F
100
AcDbEntity
  8
0
  6
Continuous
 62
     2
100
AcDbLine
 10
16088.65094940288
 20
104.8276769572212
 30
0.0
 11
16077.22576535697
 21
112.8276769466882
 31
0.0
  0
LINE
  5
1838A
330
1F
100
AcDbEntity
  8
0
  6
Continuous
 62
     2
100
AcDbLine
 10
16310.00705343033
 20
-39.17232305625248
 30
0.0
 11
16298.5818693717
 21
-31.17232305409834
 31
0.0
  0
LINE
  5
1838B
330
1F
100
AcDbEntity
  8
0
  6
Continuous
 62
     2
100
AcDbLine
 10
16096.43167774554
 20
110.3747649741375
 30
0.0
 11
16092.92855639258
 21
112.8276769466882
 31
0.0
  0
LINE
  5
1838C
330
1F
100
AcDbEntity
  8
0
  6
Continuous
 62
     2
100
AcDbLine
 10
16325.70984446594
 20
-39.17232305625248
 30
0.0
 11
16314.28466042
 21
-31.17232305409834
 31
0.0
  0
LINE
  5
1838D
330
1F
100
AcDbEntity
  8
0
  6
Continuous
 62
     2
100
AcDbLine
 10
16341.41263551425
 20
-39.17232305625248
 30
0.0
 11
16329.98745145563
 21
-31.17232305409834
 31
0.0
  0
LINE
  5
1838E
330
1F
100
AcDbEntity
  8
0
  6
Continuous
 62
     7
100
AcDbLine
 10
16088.43167775608
 20
318.8276769515028
 30
0.0
 11
16088.43167775608
 21
338.827676956902
 31
0.0
  0
LINE
  5
1838F
330
1F
100
AcDbEntity
  8
0
  6
Continuous
 62
     7
100
AcDbLine
 10
16004.4316777461
 20
120.8276769488423
 30
0.0
 11
16007.31842909738
 21
125.8276769565495
 31
0.0
  0
LINE
  5
18390
330
1F
100
AcDbEntity
  8
0
  6
Continuous
 62
     7
100
AcDbLine
 10
16008.43167774719
 20
120.8276769488423
 30
0.0
 11
16011.31842909845
 21
125.8276769565495
 31
0.0
  0
LINE
  5
18391
330
1F
100
AcDbEntity
  8
0
  6
Continuous
 62
     7
100
AcDbLine
 10
16010.43167774773
 20
120.8276769488423
 30
0.0
 11
16013.31842909899
 21
125.8276769565495
 31
0.0
  0
LINE
  5
18392
330
1F
100
AcDbEntity
  8
0
  6
Continuous
 62
     7
100
AcDbLine
 10
16014.43167774882
 20
120.8276769488423
 30
0.0
 11
16017.31842910006
 21
125.8276769565495
 31
0.0
  0
LINE
  5
18393
330
1F
100
AcDbEntity
  8
0
  6
Continuous
 62
     7
100
AcDbLine
 10
16016.43167774934
 20
120.8276769488423
 30
0.0
 11
16019.31842910061
 21
125.8276769565495
 31
0.0
  0
LINE
  5
18394
330
1F
100
AcDbEntity
  8
0
  6
Continuous
 62
     7
100
AcDbLine
 10
16020.43167775043
 20
120.8276769488423
 30
0.0
 11
16023.31842910169
 21
125.8276769565495
 31
0.0
  0
LINE
  5
18395
330
1F
100
AcDbEntity
  8
0
  6
Continuous
 62
     7
100
AcDbLine
 10
16022.43167775097
 20
120.8276769488423
 30
0.0
 11
16025.31842908953
 21
125.8276769565495
 31
0.0
  0
LINE
  5
18396
330
1F
100
AcDbEntity
  8
0
  6
Continuous
 62
     7
100
AcDbLine
 10
15983.43144567969
 20
125.8276769565495
 30
0.0
 11
15980.11327800813
 21
121.119196228651
 31
0.0
  0
LINE
  5
18397
330
1F
100
AcDbEntity
  8
0
  6
Continuous
 62
     7
100
AcDbLine
 10
16004.4316777461
 20
120.8276769488423
 30
0.0
 11
16008.43167774719
 21
120.8276769488423
 31
0.0
  0
LINE
  5
18398
330
1F
100
AcDbEntity
  8
0
  6
Continuous
 62
     7
100
AcDbLine
 10
16010.43167774773
 20
120.8276769488423
 30
0.0
 11
16014.43167774882
 21
120.8276769488423
 31
0.0
  0
LINE
  5
18399
330
1F
100
AcDbEntity
  8
0
  6
Continuous
 62
     7
100
AcDbLine
 10
16016.43167774934
 20
120.8276769488423
 30
0.0
 11
16020.43167775043
 21
120.8276769488423
 31
0.0
  0
LINE
  5
1839A
330
1F
100
AcDbEntity
  8
0
  6
Continuous
 62
     7
100
AcDbLine
 10
16022.43167775097
 20
120.8276769488423
 30
0.0
 11
16026.43167775205
 21
120.8276769488423
 31
0.0
  0
LINE
  5
1839B
330
1F
100
AcDbEntity
  8
0
  6
Continuous
 62
     7
100
AcDbLine
 10
16028.43167775259
 20
120.8276769488423
 30
0.0
 11
16032.43167775368
 21
120.8276769488423
 31
0.0
  0
LINE
  5
1839C
330
1F
100
AcDbEntity
  8
0
  6
Continuous
 62
     7
100
AcDbLine
 10
16034.4316777542
 20
120.8276769488423
 30
0.0
 11
16038.43167775529
 21
120.8276769488423
 31
0.0
  0
LINE
  5
1839D
330
1F
100
AcDbEntity
  8
0
  6
Continuous
 62
     7
100
AcDbLine
 10
15983.43144567969
 20
125.8276769565495
 30
0.0
 11
16007.31842909738
 21
125.8276769565495
 31
0.0
  0
LINE
  5
1839E
330
1F
100
AcDbEntity
  8
0
  6
Continuous
 62
     7
100
AcDbLine
 10
16011.31842909845
 20
125.8276769565495
 30
0.0
 11
16013.31842909899
 21
125.8276769565495
 31
0.0
  0
LINE
  5
1839F
330
1F
100
AcDbEntity
  8
0
  6
Continuous
 62
     7
100
AcDbLine
 10
16017.31842910006
 20
125.8276769565495
 30
0.0
 11
16019.31842910061
 21
125.8276769565495
 31
0.0
  0
LINE
  5
183A0
330
1F
100
AcDbEntity
  8
0
  6
Continuous
 62
     7
100
AcDbLine
 10
16023.31842910169
 20
125.8276769565495
 30
0.0
 11
16025.31842908953
 21
125.8276769565495
 31
0.0
  0
LINE
  5
183A1
330
1F
100
AcDbEntity
  8
0
  6
Continuous
 62
     7
100
AcDbLine
 10
16029.31842909061
 20
125.8276769565495
 30
0.0
 11
16031.31842909115
 21
125.8276769565495
 31
0.0
  0
LINE
  5
183A2
330
1F
100
AcDbEntity
  8
0
  6
Continuous
 62
     7
100
AcDbLine
 10
16035.31842909223
 20
125.8276769565495
 30
0.0
 11
16037.31842909276
 21
125.8276769565495
 31
0.0
  0
LINE
  5
183A3
330
1F
100
AcDbEntity
  8
0
  6
Continuous
 62
     7
100
AcDbLine
 10
16041.31842909385
 20
125.8276769565495
 30
0.0
 11
16048.4316777453
 21
125.8276769565495
 31
0.0
  0
LINE
  5
183A4
330
1F
100
AcDbEntity
  8
0
  6
Continuous
 62
     2
100
AcDbLine
 10
16357.11542656256
 20
-39.17232305625248
 30
0.0
 11
16345.69024250394
 21
-31.17232305409834
 31
0.0
  0
LINE
  5
183A5
330
1F
100
AcDbEntity
  8
0
  6
Continuous
 62
     2
100
AcDbLine
 10
16372.81821759819
 20
-39.17232305625248
 30
0.0
 11
16361.39303355225
 21
-31.17232305409834
 31
0.0
  0
LINE
  5
183A6
330
1F
100
AcDbEntity
  8
0
  6
Continuous
 62
     2
100
AcDbLine
 10
16388.52100864649
 20
-39.17232305625248
 30
0.0
 11
16377.09582458788
 21
-31.17232305409834
 31
0.0
  0
LINE
  5
183A7
330
1F
100
AcDbEntity
  8
0
  6
Continuous
 62
     2
100
AcDbLine
 10
16404.2237996821
 20
-39.17232305625248
 30
0.0
 11
16392.79861563619
 21
-31.17232305409834
 31
0.0
  0
LINE
  5
183A8
330
1F
100
AcDbEntity
  8
0
  6
Continuous
 62
     7
100
AcDbLine
 10
15983.43144567969
 20
325.8276769597464
 30
0.0
 11
15980.11327800813
 21
330.5361576749392
 31
0.0
  0
LINE
  5
183A9
330
1F
100
AcDbEntity
  8
0
  6
Continuous
 62
     7
100
AcDbLine
 10
16004.4316777461
 20
330.8276769547481
 30
0.0
 11
16007.31842909738
 21
325.8276769597464
 31
0.0
  0
LINE
  5
183AA
330
1F
100
AcDbEntity
  8
0
  6
Continuous
 62
     7
100
AcDbLine
 10
16008.43167774719
 20
330.8276769547481
 30
0.0
 11
16011.31842909845
 21
325.8276769597464
 31
0.0
  0
LINE
  5
183AB
330
1F
100
AcDbEntity
  8
0
  6
Continuous
 62
     7
100
AcDbLine
 10
16010.43167774773
 20
330.8276769547481
 30
0.0
 11
16013.31842909899
 21
325.8276769597464
 31
0.0
  0
LINE
  5
183AC
330
1F
100
AcDbEntity
  8
0
  6
Continuous
 62
     7
100
AcDbLine
 10
16014.43167774882
 20
330.8276769547481
 30
0.0
 11
16017.31842910006
 21
325.8276769597464
 31
0.0
  0
LINE
  5
183AD
330
1F
100
AcDbEntity
  8
0
  6
Continuous
 62
     7
100
AcDbLine
 10
16016.43167774934
 20
330.8276769547481
 30
0.0
 11
16019.31842910061
 21
325.8276769597464
 31
0.0
  0
LINE
  5
183AE
330
1F
100
AcDbEntity
  8
0
  6
Continuous
 62
     7
100
AcDbLine
 10
16020.43167775043
 20
330.8276769547481
 30
0.0
 11
16023.31842910169
 21
325.8276769597464
 31
0.0
  0
LINE
  5
183AF
330
1F
100
AcDbEntity
  8
0
  6
Continuous
 62
     7
100
AcDbLine
 10
16104.17265445319
 20
433.1471476031961
 30
0.0
 11
16104.1089647787
 21
434.309317821408
 31
0.0
  0
LINE
  5
183B0
330
1F
100
AcDbEntity
  8
0
  6
Continuous
 62
     7
100
AcDbLine
 10
16096.43167774554
 20
104.8276769572212
 30
0.0
 11
16096.43167774554
 21
346.8276769590655
 31
0.0
  0
LINE
  5
183B1
330
1F
100
AcDbEntity
  8
0
  6
Continuous
 62
     7
100
AcDbLine
 10
16026.43167775205
 20
120.8276769488423
 30
0.0
 11
16029.31842909061
 21
125.8276769565495
 31
0.0
  0
LINE
  5
183B2
330
1F
100
AcDbEntity
  8
0
  6
Continuous
 62
     7
100
AcDbLine
 10
16028.43167775259
 20
120.8276769488423
 30
0.0
 11
16031.31842909115
 21
125.8276769565495
 31
0.0
  0
LINE
  5
183B3
330
1F
100
AcDbEntity
  8
0
  6
Continuous
 62
     7
100
AcDbLine
 10
16032.43167775368
 20
120.8276769488423
 30
0.0
 11
16035.31842909223
 21
125.8276769565495
 31
0.0
  0
LINE
  5
183B4
330
1F
100
AcDbEntity
  8
0
  6
Continuous
 62
     7
100
AcDbLine
 10
16034.4316777542
 20
120.8276769488423
 30
0.0
 11
16037.31842909276
 21
125.8276769565495
 31
0.0
  0
LINE
  5
183B5
330
1F
100
AcDbEntity
  8
0
  6
Continuous
 62
     7
100
AcDbLine
 10
16038.43167775529
 20
120.8276769488423
 30
0.0
 11
16041.31842909385
 21
125.8276769565495
 31
0.0
  0
LWPOLYLINE
  5
183B6
330
1F
100
AcDbEntity
  8
0
  6
Continuous
 62
     7
100
AcDbPolyline
 90
        3
 70
     0
 43
0.0
 10
16256.50178874836
 20
438.2836962963901
 10
16256.01710899635
 20
437.6812063913832
 10
16255.86004476895
 20
437.2830107310692
  0
LINE
  5
183B7
330
1F
100
AcDbEntity
  8
0
  6
Continuous
 62
     2
100
AcDbLine
 10
15987.48646572568
 20
125.8276769565495
 30
0.0
 11
15980.81451668694
 21
119.1557279178071
 31
0.0
  0
LINE
  5
183B8
330
1F
100
AcDbEntity
  8
0
  6
Continuous
 62
     2
100
AcDbLine
 10
16002.33570812547
 20
125.8276769565495
 30
0.0
 11
15984.72221205933
 21
108.2141808776929
 31
0.0
  0
LINE
  5
183B9
330
1F
100
AcDbEntity
  8
0
  6
Continuous
 62
     2
100
AcDbLine
 10
16012.18495053026
 20
120.8276769488423
 30
0.0
 11
16004.18495054079
 21
112.8276769466882
 31
0.0
  0
LINE
  5
183BA
330
1F
100
AcDbEntity
  8
0
  6
Continuous
 62
     2
100
AcDbLine
 10
15998.4316777445
 20
107.0744041630619
 30
0.0
 11
15989.18495053041
 21
97.82767694897779
 31
0.0
  0
LINE
  5
183BB
330
1F
100
AcDbEntity
  8
0
  6
Continuous
 62
     7
100
AcDbLine
 10
16635.43167775773
 20
158.8276769591044
 30
0.0
 11
16537.43167775668
 21
158.8276769591044
 31
0.0
  0
LINE
  5
183BC
330
1F
100
AcDbEntity
  8
0
  6
Continuous
 62
     7
100
AcDbLine
 10
16635.43167775773
 20
166.8276769485621
 30
0.0
 11
16537.43167775668
 21
166.8276769485621
 31
0.0
  0
LINE
  5
183BD
330
1F
100
AcDbEntity
  8
0
  6
Continuous
 62
     2
100
AcDbLine
 10
16419.92659073043
 20
-39.17232305625248
 30
0.0
 11
16408.5014066718
 21
-31.17232305409834
 31
0.0
  0
LINE
  5
183BE
330
1F
100
AcDbEntity
  8
0
  6
Continuous
 62
     2
100
AcDbLine
 10
16435.62938177874
 20
-39.17232305625248
 30
0.0
 11
16424.20419772011
 21
-31.17232305409834
 31
0.0
  0
LINE
  5
183BF
330
1F
100
AcDbEntity
  8
0
  6
Continuous
 62
     2
100
AcDbLine
 10
16451.33217281435
 20
-39.17232305625248
 30
0.0
 11
16439.90698876841
 21
-31.17232305409834
 31
0.0
  0
LINE
  5
183C0
330
1F
100
AcDbEntity
  8
0
  6
Continuous
 62
     2
100
AcDbLine
 10
16467.03496386266
 20
-39.17232305625248
 30
0.0
 11
16455.60977980404
 21
-31.17232305409834
 31
0.0
  0
LINE
  5
183C1
330
1F
100
AcDbEntity
  8
0
  6
Continuous
 62
     7
100
AcDbLine
 10
16022.43167775097
 20
330.8276769547481
 30
0.0
 11
16025.31842908953
 21
325.8276769597464
 31
0.0
  0
LINE
  5
183C2
330
1F
100
AcDbEntity
  8
0
  6
Continuous
 62
     7
100
AcDbLine
 10
16026.43167775205
 20
330.8276769547481
 30
0.0
 11
16029.31842909061
 21
325.8276769597464
 31
0.0
  0
LINE
  5
183C3
330
1F
100
AcDbEntity
  8
0
  6
Continuous
 62
     7
100
AcDbLine
 10
16028.43167775259
 20
330.8276769547481
 30
0.0
 11
16031.31842909115
 21
325.8276769597464
 31
0.0
  0
LINE
  5
183C4
330
1F
100
AcDbEntity
  8
0
  6
Continuous
 62
     7
100
AcDbLine
 10
16032.43167775368
 20
330.8276769547481
 30
0.0
 11
16035.31842909223
 21
325.8276769597464
 31
0.0
  0
LINE
  5
183C5
330
1F
100
AcDbEntity
  8
0
  6
Continuous
 62
     7
100
AcDbLine
 10
16034.4316777542
 20
330.8276769547481
 30
0.0
 11
16037.31842909276
 21
325.8276769597464
 31
0.0
  0
LINE
  5
183C6
330
1F
100
AcDbEntity
  8
0
  6
Continuous
 62
     7
100
AcDbLine
 10
16038.43167775529
 20
330.8276769547481
 30
0.0
 11
16041.31842909385
 21
325.8276769597464
 31
0.0
  0
LINE
  5
183C7
330
1F
100
AcDbEntity
  8
0
  6
Continuous
 62
     2
100
AcDbLine
 10
16030.34067750333
 20
124.1341615094107
 30
0.0
 11
16019.03419294061
 21
112.8276769466882
 31
0.0
  0
LINE
  5
183C8
330
1F
100
AcDbEntity
  8
0
  6
Continuous
 62
     2
100
AcDbLine
 10
16046.88343535026
 20
125.8276769565495
 30
0.0
 11
16033.8834353404
 21
112.8276769466882
 31
0.0
  0
LINE
  5
183C9
330
1F
100
AcDbEntity
  8
0
  6
Continuous
 62
     7
100
AcDbLine
 10
16527.43167775396
 20
213.8276769549075
 30
0.0
 11
16524.77165590862
 21
213.8276769549075
 31
0.0
  0
LINE
  5
183CA
330
1F
100
AcDbEntity
  8
0
  6
Continuous
 62
     2
100
AcDbLine
 10
16482.73775491096
 20
-39.17232305625248
 30
0.0
 11
16471.31257085235
 21
-31.17232305409834
 31
0.0
  0
LINE
  5
183CB
330
1F
100
AcDbEntity
  8
0
  6
Continuous
 62
     2
100
AcDbLine
 10
16495.36770922963
 20
-37.02069960991457
 30
0.0
 11
16486.92491544705
 21
-31.10899176089743
 31
0.0
  0
LINE
  5
183CC
330
1F
100
AcDbEntity
  8
0
  6
Continuous
 62
     2
100
AcDbLine
 10
16509.85889297291
 20
-36.17232304909999
 30
0.0
 11
16498.44365919918
 21
-28.17929030503751
 31
0.0
  0
LINE
  5
183CD
330
1F
100
AcDbEntity
  8
0
  6
Continuous
 62
     2
100
AcDbLine
 10
16525.56168400854
 20
-36.17232304909999
 30
0.0
 11
16514.1364999626
 21
-28.17232304693675
 31
0.0
  0
LINE
  5
183CE
330
1F
100
AcDbEntity
  8
0
  6
Continuous
 62
     7
100
AcDbLine
 10
16211.79736417376
 20
435.2989438203319
 30
0.0
 11
16211.79975183726
 21
435.3140032390333
 31
0.0
  0
LINE
  5
183CF
330
1F
100
AcDbEntity
  8
0
  6
Continuous
 62
     2
100
AcDbLine
 10
16537.05297164337
 20
-33.22339661264073
 30
0.0
 11
16529.63214649252
 21
-28.02727889963126
 31
0.0
  0
LINE
  5
183D0
330
1F
100
AcDbEntity
  8
0
  6
Continuous
 62
     2
100
AcDbLine
 10
16005.70897252453
 20
338.827676956902
 30
0.0
 11
15998.4316777445
 21
343.9232936136086
 31
0.0
  0
LINE
  5
183D1
330
1F
100
AcDbEntity
  8
0
  6
Continuous
 62
     2
100
AcDbLine
 10
16552.68282208318
 20
-33.17232305463472
 30
0.0
 11
16541.25763802456
 21
-25.17232305247126
 31
0.0
  0
LINE
  5
183D2
330
1F
100
AcDbEntity
  8
0
  6
Continuous
 62
     2
100
AcDbLine
 10
16021.41176356014
 20
338.827676956902
 30
0.0
 11
16009.80996574502
 21
346.9513432471633
 31
0.0
  0
LINE
  5
183D3
330
1F
100
AcDbEntity
  8
0
  6
Continuous
 62
     2
100
AcDbLine
 10
16006.97887531875
 20
348.9336941085069
 30
0.0
 11
15998.4316777445
 21
354.9185062690231
 31
0.0
  0
LINE
  5
183D4
330
1F
100
AcDbEntity
  8
0
  6
Continuous
 62
     2
100
AcDbLine
 10
16568.38561311879
 20
-33.17232305463472
 30
0.0
 11
16556.96042907287
 21
-25.17232305247126
 31
0.0
  0
LINE
  5
183D5
330
1F
100
AcDbEntity
  8
0
  6
Continuous
 62
     2
100
AcDbLine
 10
16037.11455460845
 20
338.827676956902
 30
0.0
 11
16025.68937054984
 21
346.8276769590655
 31
0.0
  0
LINE
  5
183D6
330
1F
100
AcDbEntity
  8
0
  6
Continuous
 62
     2
100
AcDbLine
 10
16007.52841934286
 20
359.5441119023198
 30
0.0
 11
15998.4316777445
 21
365.9137189371522
 31
0.0
  0
LINE
  5
183D7
330
1F
100
AcDbEntity
  8
0
  6
Continuous
 62
     2
100
AcDbLine
 10
16584.08840416711
 20
-33.17232305463472
 30
0.0
 11
16572.66322010848
 21
-25.17232305247126
 31
0.0
  0
LINE
  5
183D8
330
1F
100
AcDbEntity
  8
0
  6
Continuous
 62
     2
100
AcDbLine
 10
16052.81734564408
 20
338.827676956902
 30
0.0
 11
16041.39216159814
 21
346.8276769590655
 31
0.0
  0
LINE
  5
183D9
330
1F
100
AcDbEntity
  8
0
  6
Continuous
 62
     2
100
AcDbLine
 10
16021.39808949555
 20
360.8276769628467
 30
0.0
 11
16009.97290544962
 21
368.8276769523045
 31
0.0
  0
LINE
  5
183DA
330
1F
100
AcDbEntity
  8
0
  6
Continuous
 62
     7
100
AcDbLine
 10
16205.72404888823
 20
435.1531632889303
 30
0.0
 11
16205.66134126665
 21
438.1524678694932
 31
0.0
  0
LINE
  5
183DB
330
1F
100
AcDbEntity
  8
0
  6
Continuous
 62
     7
100
AcDbLine
 10
16441.04463637883
 20
355.3156997977317
 30
0.0
 11
16503.43167776019
 21
370.6565844324473
 31
0.0
  0
LINE
  5
183DC
330
1F
100
AcDbEntity
  8
0
  6
Continuous
 62
     2
100
AcDbLine
 10
16599.79119521542
 20
-33.17232305463472
 30
0.0
 11
16588.36601115678
 21
-25.17232305247126
 31
0.0
  0
LINE
  5
183DD
330
1F
100
AcDbEntity
  8
0
  6
Continuous
 62
     2
100
AcDbLine
 10
16096.43167774554
 20
319.283805503308
 30
0.0
 11
16088.43167775608
 21
324.8854658139276
 31
0.0
  0
LINE
  5
183DE
330
1F
100
AcDbEntity
  8
0
  6
Continuous
 62
     2
100
AcDbLine
 10
16068.52013669239
 20
338.827676956902
 30
0.0
 11
16057.09495263375
 21
346.8276769590655
 31
0.0
  0
LINE
  5
183DF
330
1F
100
AcDbEntity
  8
0
  6
Continuous
 62
     2
100
AcDbLine
 10
16034.72982066822
 20
362.4879109550723
 30
0.0
 11
16025.67569648523
 21
368.8276769523045
 31
0.0
  0
LINE
  5
183E0
330
1F
100
AcDbEntity
  8
0
  6
Continuous
 62
     2
100
AcDbLine
 10
16615.49398625103
 20
-33.17232305463472
 30
0.0
 11
16604.06880220509
 21
-25.17232305247126
 31
0.0
  0
LINE
  5
183E1
330
1F
100
AcDbEntity
  8
0
  6
Continuous
 62
     2
100
AcDbLine
 10
16096.43167774554
 20
330.2790181587316
 30
0.0
 11
16088.43167775608
 21
335.880678469342
 31
0.0
  0
LINE
  5
183E2
330
1F
100
AcDbEntity
  8
0
  6
Continuous
 62
     2
100
AcDbLine
 10
16084.2229277407
 20
338.827676956902
 30
0.0
 11
16072.79774368208
 21
346.8276769590655
 31
0.0
  0
LINE
  5
183E3
330
1F
100
AcDbEntity
  8
0
  6
Continuous
 62
     2
100
AcDbLine
 10
16631.19677729934
 20
-33.17232305463472
 30
0.0
 11
16619.77159324072
 21
-25.17232305247126
 31
0.0
  0
LINE
  5
183E4
330
1F
100
AcDbEntity
  8
0
  6
Continuous
 62
     2
100
AcDbLine
 10
16096.43167774554
 20
341.2742308268516
 30
0.0
 11
16088.50053473039
 21
346.8276769590655
 31
0.0
  0
LINE
  5
183E5
330
1F
100
AcDbEntity
  8
0
  6
Continuous
 62
     7
100
AcDbLine
 10
16022.19418598567
 20
392.3271930346709
 30
0.0
 11
16032.19418598835
 21
384.7916525430187
 31
0.0
  0
LINE
  5
183E6
330
1F
100
AcDbEntity
  8
0
  6
Continuous
 62
     7
100
AcDbLine
 10
16253.9413379764
 20
435.8135848408482
 30
0.0
 11
16253.9413379764
 21
433.1471476031961
 31
0.0
  0
LINE
  5
183E7
330
1F
100
AcDbEntity
  8
0
  6
Continuous
 62
     7
100
AcDbLine
 10
16255.93167776004
 20
436.7524600522656
 30
0.0
 11
16255.93167776004
 21
433.1471476031961
 31
0.0
  0
LINE
  5
183E8
330
1F
100
AcDbEntity
  8
0
  6
Continuous
 62
     7
100
AcDbLine
 10
16257.93167776058
 20
438.7524600528017
 30
0.0
 11
16257.93170279228
 21
433.1471476031961
 31
0.0
  0
LINE
  5
183E9
330
1F
100
AcDbEntity
  8
0
  6
Continuous
 62
     7
100
AcDbLine
 10
16264.43167775281
 20
384.8365885466265
 30
0.0
 11
16264.43167775281
 21
384.7916525430187
 31
0.0
  0
LINE
  5
183EB
330
1F
100
AcDbEntity
  8
0
  6
Continuous
 62
     7
100
AcDbLine
 10
16272.43167775497
 20
384.7916525430187
 30
0.0
 11
16272.43167775497
 21
384.8365885466265
 31
0.0
  0
LINE
  5
183EC
330
1F
100
AcDbEntity
  8
0
  6
Continuous
 62
     7
100
AcDbLine
 10
16302.33351971707
 20
466.8491484623655
 30
0.0
 11
16301.98088382086
 21
463.8699458863102
 31
0.0
  0
LINE
  5
183ED
330
1F
100
AcDbEntity
  8
0
  6
Continuous
 62
     7
100
AcDbLine
 10
16514.66916952211
 20
392.3271930346709
 30
0.0
 11
16504.66916951941
 21
384.7916525430187
 31
0.0
  0
LINE
  5
183EE
330
1F
100
AcDbEntity
  8
0
  6
Continuous
 62
     7
100
AcDbLine
 10
16096.43167774554
 20
318.8276769515028
 30
0.0
 11
16088.43167775608
 21
318.8276769515028
 31
0.0
  0
LINE
  5
183EF
330
1F
100
AcDbEntity
  8
0
  6
Continuous
 62
     7
100
AcDbLine
 10
15983.43144567969
 20
325.8276769597464
 30
0.0
 11
16007.31842909738
 21
325.8276769597464
 31
0.0
  0
LINE
  5
183F0
330
1F
100
AcDbEntity
  8
0
  6
Continuous
 62
     7
100
AcDbLine
 10
16011.31842909845
 20
325.8276769597464
 30
0.0
 11
16013.31842909899
 21
325.8276769597464
 31
0.0
  0
LINE
  5
183F1
330
1F
100
AcDbEntity
  8
0
  6
Continuous
 62
     7
100
AcDbLine
 10
16017.31842910006
 20
325.8276769597464
 30
0.0
 11
16019.31842910061
 21
325.8276769597464
 31
0.0
  0
LINE
  5
183F2
330
1F
100
AcDbEntity
  8
0
  6
Continuous
 62
     7
100
AcDbLine
 10
16023.31842910169
 20
325.8276769597464
 30
0.0
 11
16025.31842908953
 21
325.8276769597464
 31
0.0
  0
LINE
  5
183F3
330
1F
100
AcDbEntity
  8
0
  6
Continuous
 62
     7
100
AcDbLine
 10
16029.31842909061
 20
325.8276769597464
 30
0.0
 11
16031.31842909115
 21
325.8276769597464
 31
0.0
  0
LINE
  5
183F4
330
1F
100
AcDbEntity
  8
0
  6
Continuous
 62
     7
100
AcDbLine
 10
16035.31842909223
 20
325.8276769597464
 30
0.0
 11
16037.31842909276
 21
325.8276769597464
 31
0.0
  0
LINE
  5
183F5
330
1F
100
AcDbEntity
  8
0
  6
Continuous
 62
     7
100
AcDbLine
 10
16041.31842909385
 20
325.8276769597464
 30
0.0
 11
16048.4316777453
 21
325.8276769597464
 31
0.0
  0
LINE
  5
183F6
330
1F
100
AcDbEntity
  8
0
  6
Continuous
 62
     7
100
AcDbLine
 10
16004.4316777461
 20
330.8276769547481
 30
0.0
 11
16008.43167774719
 21
330.8276769547481
 31
0.0
  0
LINE
  5
183F7
330
1F
100
AcDbEntity
  8
0
  6
Continuous
 62
     7
100
AcDbLine
 10
16010.43167774773
 20
330.8276769547481
 30
0.0
 11
16014.43167774882
 21
330.8276769547481
 31
0.0
  0
LINE
  5
183F8
330
1F
100
AcDbEntity
  8
0
  6
Continuous
 62
     7
100
AcDbLine
 10
16016.43167774934
 20
330.8276769547481
 30
0.0
 11
16020.43167775043
 21
330.8276769547481
 31
0.0
  0
LINE
  5
183F9
330
1F
100
AcDbEntity
  8
0
  6
Continuous
 62
     7
100
AcDbLine
 10
16022.43167775097
 20
330.8276769547481
 30
0.0
 11
16026.43167775205
 21
330.8276769547481
 31
0.0
  0
LINE
  5
183FA
330
1F
100
AcDbEntity
  8
0
  6
Continuous
 62
     7
100
AcDbLine
 10
16028.43167775259
 20
330.8276769547481
 30
0.0
 11
16032.43167775368
 21
330.8276769547481
 31
0.0
  0
LINE
  5
183FB
330
1F
100
AcDbEntity
  8
0
  6
Continuous
 62
     7
100
AcDbLine
 10
16034.4316777542
 20
330.8276769547481
 30
0.0
 11
16038.43167775529
 21
330.8276769547481
 31
0.0
  0
LWPOLYLINE
  5
183FC
330
1F
100
AcDbEntity
  8
0
  6
Continuous
 62
     2
100
AcDbPolyline
 90
        3
 70
     0
 43
0.0
 10
16128.26716328769
 20
345.0930068190237
 10
16135.25343741533
 20
343.2979835611934
 10
16142.24735676516
 20
341.5546082315588
  0
LINE
  5
183FD
330
1F
100
AcDbEntity
  8
0
  6
Continuous
 62
     7
100
AcDbLine
 10
16033.43167774759
 20
370.6565844324473
 30
0.0
 11
16091.46078237864
 21
354.9882977474247
 31
0.0
  0
LINE
  5
183FE
330
1F
100
AcDbEntity
  8
0
  6
Continuous
 62
     7
100
AcDbLine
 10
16212.36797763757
 20
384.8365885466265
 30
0.0
 11
16210.48886962283
 21
390.8276769582398
 31
0.0
  0
LINE
  5
183FF
330
1F
100
AcDbEntity
  8
0
  6
Continuous
 62
     7
100
AcDbLine
 10
16234.52983579071
 20
466.8491484623655
 30
0.0
 11
16234.88247168693
 21
463.8699458863102
 31
0.0
  0
LINE
  5
18400
330
1F
100
AcDbEntity
  8
0
  6
Continuous
 62
     7
100
AcDbLine
 10
16280.93167776044
 20
436.7524600522656
 30
0.0
 11
16280.93167776044
 21
433.1471476031961
 31
0.0
  0
LINE
  5
18401
330
1F
100
AcDbEntity
  8
0
  6
Continuous
 62
     7
100
AcDbLine
 10
16282.92201753138
 20
433.1471476031961
 30
0.0
 11
16282.92201753138
 21
435.8135848408482
 31
0.0
  0
LINE
  5
18402
330
1F
100
AcDbEntity
  8
0
  6
Continuous
 62
     7
100
AcDbLine
 10
16278.93167775988
 20
438.7524600528017
 30
0.0
 11
16278.93142188029
 21
433.1471476031961
 31
0.0
  0
LINE
  5
18403
330
1F
100
AcDbEntity
  8
0
  6
Continuous
 62
     7
100
AcDbLine
 10
15998.4316777445
 20
338.827676956902
 30
0.0
 11
16088.43167775608
 21
338.827676956902
 31
0.0
  0
LINE
  5
18404
330
1F
100
AcDbEntity
  8
0
  6
Continuous
 62
     7
100
AcDbLine
 10
16096.43167774554
 20
346.8276769590655
 30
0.0
 11
16010.43167774773
 21
346.8276769590655
 31
0.0
  0
LINE
  5
18405
330
1F
100
AcDbEntity
  8
0
  6
Continuous
 62
     7
100
AcDbLine
 10
16051.65827587685
 20
350.3112173377326
 30
0.0
 11
16108.77153532408
 21
350.3095388549368
 31
0.0
  0
LINE
  5
18406
330
1F
100
AcDbEntity
  8
0
  6
Continuous
 62
     7
100
AcDbLine
 10
16365.30807705572
 20
350.3095388549368
 30
0.0
 11
16497.05922136605
 21
350.3095388549368
 31
0.0
  0
LINE
  5
18407
330
1F
100
AcDbEntity
  8
0
  6
Continuous
 62
     7
100
AcDbLine
 10
16372.45417542557
 20
351.5812291995596
 30
0.0
 11
16104.01964628831
 21
351.5812291995596
 31
0.0
  0
LINE
  5
18408
330
1F
100
AcDbEntity
  8
0
  6
Continuous
 62
     7
100
AcDbLine
 10
15988.43167775449
 20
353.8276769546032
 30
0.0
 11
15998.4316777445
 21
353.8276769546032
 31
0.0
  0
LINE
  5
18409
330
1F
100
AcDbEntity
  8
0
  6
Continuous
 62
     7
100
AcDbLine
 10
16010.43167774773
 20
360.8276769628467
 30
0.0
 11
16028.43167775259
 21
360.8276769628467
 31
0.0
  0
LINE
  5
1840A
330
1F
100
AcDbEntity
  8
0
  6
Continuous
 62
     7
100
AcDbLine
 10
16000.43167774503
 20
368.8276769523045
 30
0.0
 11
16028.43167775259
 21
368.8276769523045
 31
0.0
  0
LINE
  5
1840B
330
1F
100
AcDbEntity
  8
0
  6
Continuous
 62
     7
100
AcDbLine
 10
16503.43167776019
 20
370.6565844324473
 30
0.0
 11
16035.33362851573
 21
370.6565844324473
 31
0.0
  0
LINE
  5
1840C
330
1F
100
AcDbEntity
  8
0
  6
Continuous
 62
     7
100
AcDbLine
 10
16032.29747653617
 20
370.6565844324473
 30
0.0
 11
16033.43167774759
 21
370.6565844324473
 31
0.0
  0
LWPOLYLINE
  5
1840D
330
1F
100
AcDbEntity
  8
0
  6
Continuous
 62
     2
100
AcDbPolyline
 90
        3
 70
     0
 43
0.0
 10
16392.11341199007
 20
352.9758891356903
 10
16399.29761794181
 20
352.9120203657847
 10
16406.50760974495
 20
352.7566413140832
  0
LINE
  5
1840E
330
1F
100
AcDbEntity
  8
0
  6
Continuous
 62
     7
100
AcDbLine
 10
16331.13930661955
 20
435.1531632889303
 30
0.0
 11
16331.20201425385
 21
438.1524678694932
 31
0.0
  0
LINE
  5
1840F
330
1F
100
AcDbEntity
  8
0
  6
Continuous
 62
     7
100
AcDbLine
 10
16032.19418598835
 20
384.7916525430187
 30
0.0
 11
16264.43167775281
 21
384.7916525430187
 31
0.0
  0
LINE
  5
18410
330
1F
100
AcDbEntity
  8
0
  6
Continuous
 62
     7
100
AcDbLine
 10
16272.43167775497
 20
384.7916525430187
 30
0.0
 11
16504.66916951941
 21
384.7916525430187
 31
0.0
  0
LINE
  5
18411
330
1F
100
AcDbEntity
  8
0
  6
Continuous
 62
     7
100
AcDbLine
 10
16293.38611087819
 20
384.8365885466265
 30
0.0
 11
16212.36797763757
 21
384.8365885466265
 31
0.0
  0
LINE
  5
18412
330
1F
100
AcDbEntity
  8
0
  6
Continuous
 62
     7
100
AcDbLine
 10
16514.66916952211
 20
392.3271930346709
 30
0.0
 11
16272.43167775497
 21
392.3271930346709
 31
0.0
  0
LINE
  5
18413
330
1F
100
AcDbEntity
  8
0
  6
Continuous
 62
     7
100
AcDbLine
 10
16210.01854562064
 20
392.3271930346709
 30
0.0
 11
16022.19418598567
 21
392.3271930346709
 31
0.0
  0
LINE
  5
18414
330
1F
100
AcDbEntity
  8
0
  6
Continuous
 62
     7
100
AcDbLine
 10
16021.37541176593
 20
393.9694000754061
 30
0.0
 11
16264.43167775281
 21
393.9694000754061
 31
0.0
  0
LINE
  5
18415
330
1F
100
AcDbEntity
  8
0
  6
Continuous
 62
     7
100
AcDbLine
 10
16272.43167775497
 20
393.9694000754061
 30
0.0
 11
16515.48794374183
 21
393.9694000754061
 31
0.0
  0
LINE
  5
18416
330
1F
100
AcDbEntity
  8
0
  6
Continuous
 62
     2
100
AcDbLine
 10
16545.42585252284
 20
158.8276769591044
 30
0.0
 11
16527.43167775396
 21
171.4273337640566
 31
0.0
  0
LINE
  5
18417
330
1F
100
AcDbEntity
  8
0
  6
Continuous
 62
     2
100
AcDbLine
 10
16561.12864355844
 20
158.8276769591044
 30
0.0
 11
16549.70345951252
 21
166.8276769485621
 31
0.0
  0
LINE
  5
18418
330
1F
100
AcDbEntity
  8
0
  6
Continuous
 62
     2
100
AcDbLine
 10
16535.43167775613
 20
176.820886121557
 30
0.0
 11
16527.43167775396
 21
182.4225464194801
 31
0.0
  0
LINE
  5
18419
330
1F
100
AcDbEntity
  8
0
  6
Continuous
 62
     2
100
AcDbLine
 10
16576.83143460676
 20
158.8276769591044
 30
0.0
 11
16565.40625054813
 21
166.8276769485621
 31
0.0
  0
LINE
  5
1841A
330
1F
100
AcDbEntity
  8
0
  6
Continuous
 62
     2
100
AcDbLine
 10
16535.43167775613
 20
187.8160987769806
 30
0.0
 11
16527.43167775396
 21
193.4177590875907
 31
0.0
  0
LINE
  5
1841B
330
1F
100
AcDbEntity
  8
0
  6
Continuous
 62
     7
100
AcDbLine
 10
16257.78841124497
 20
438.7524808299994
 30
0.0
 11
16257.15304046847
 21
438.648874191901
 31
0.0
  0
LINE
  5
1841C
330
1F
100
AcDbEntity
  8
0
  6
Continuous
 62
     7
100
AcDbLine
 10
16253.9413379764
 20
435.8135848408482
 30
0.0
 11
16211.79975183726
 21
435.3140032390333
 31
0.0
  0
LINE
  5
1841D
330
1F
100
AcDbEntity
  8
0
  6
Continuous
 62
     7
100
AcDbLine
 10
16257.78839246167
 20
438.7524815666031
 30
0.0
 11
16257.75585502356
 21
438.7522166191984
 31
0.0
  0
LINE
  5
1841E
330
1F
100
AcDbEntity
  8
0
  6
Continuous
 62
     7
100
AcDbLine
 10
16257.81006751358
 20
438.7524791409068
 30
0.0
 11
16257.78066924876
 21
438.7524674696066
 31
0.0
  0
LINE
  5
1841F
330
1F
100
AcDbEntity
  8
0
  6
Continuous
 62
     7
100
AcDbLine
 10
16515.48794374183
 20
423.9694000708086
 30
0.0
 11
16272.43167775497
 21
423.9694000708086
 31
0.0
  0
LINE
  5
18420
330
1F
100
AcDbEntity
  8
0
  6
Continuous
 62
     7
100
AcDbLine
 10
16264.43167775281
 20
423.9694000708086
 30
0.0
 11
16021.37541176593
 21
423.9694000708086
 31
0.0
  0
LINE
  5
18421
330
1F
100
AcDbEntity
  8
0
  6
Continuous
 62
     7
100
AcDbLine
 10
16022.19418598567
 20
425.6116071115439
 30
0.0
 11
16264.43167775281
 21
425.6116071115439
 31
0.0
  0
LINE
  5
18422
330
1F
100
AcDbEntity
  8
0
  6
Continuous
 62
     7
100
AcDbLine
 10
16272.43167775497
 20
425.6116071115439
 30
0.0
 11
16514.66916952211
 21
425.6116071115439
 31
0.0
  0
LINE
  5
18423
330
1F
100
AcDbEntity
  8
0
  6
Continuous
 62
     7
100
AcDbLine
 10
16032.19418598835
 20
433.1471476031961
 30
0.0
 11
16264.43167775281
 21
433.1471476031961
 31
0.0
  0
LINE
  5
18424
330
1F
100
AcDbEntity
  8
0
  6
Continuous
 62
     7
100
AcDbLine
 10
16272.43167775497
 20
433.1471476031961
 30
0.0
 11
16504.66916951941
 21
433.1471476031961
 31
0.0
  0
LINE
  5
18425
330
1F
100
AcDbEntity
  8
0
  6
Continuous
 62
     7
100
AcDbLine
 10
16280.93167776044
 20
436.7524600522656
 30
0.0
 11
16255.93167776004
 21
436.7524600522656
 31
0.0
  0
LINE
  5
18426
330
1F
100
AcDbEntity
  8
0
  6
Continuous
 62
     7
100
AcDbLine
 10
16257.87753294888
 20
438.7524600655074
 30
0.0
 11
16257.83158521248
 21
438.752464269199
 31
0.0
  0
LINE
  5
18427
330
1F
100
AcDbEntity
  8
0
  6
Continuous
 62
     7
100
AcDbLine
 10
16257.79765656557
 20
438.7524639263038
 30
0.0
 11
16257.78956495109
 21
438.7524829889973
 31
0.0
  0
LINE
  5
18428
330
1F
100
AcDbEntity
  8
0
  6
Continuous
 62
     7
100
AcDbLine
 10
16282.92201753138
 20
435.8135848408482
 30
0.0
 11
16325.06360367051
 21
435.3140032390333
 31
0.0
  0
LINE
  5
18429
330
1F
100
AcDbEntity
  8
0
  6
Continuous
 62
     7
100
AcDbLine
 10
16279.07495378779
 20
438.7524811348052
 30
0.0
 11
16279.14028961091
 21
438.7514134966018
 31
0.0
  0
LWPOLYLINE
  5
1842A
330
1F
100
AcDbEntity
  8
0
  6
Continuous
 62
     7
100
AcDbPolyline
 90
        4
 70
     0
 43
0.0
 10
16279.14028961091
 20
438.7514134966018
 10
16279.09959279111
 20
438.7523298905052
 10
16279.0854935813
 20
438.7524544648056
 10
16257.93167776058
 20
438.7524600528017
  0
LINE
  5
1842B
330
1F
100
AcDbEntity
  8
0
  6
Continuous
 62
     2
100
AcDbLine
 10
16592.53422565507
 20
158.8276769591044
 30
0.0
 11
16581.10904159643
 21
166.8276769485621
 31
0.0
  0
LINE
  5
1842C
330
1F
100
AcDbEntity
  8
0
  6
Continuous
 62
     2
100
AcDbLine
 10
16535.43167775613
 20
198.811311432404
 30
0.0
 11
16511.49566480735
 21
215.571488135838
 31
0.0
  0
LINE
  5
1842D
330
1F
100
AcDbEntity
  8
0
  6
Continuous
 62
     2
100
AcDbLine
 10
16608.23701669068
 20
158.8276769591044
 30
0.0
 11
16596.81183264476
 21
166.8276769485621
 31
0.0
  0
LINE
  5
1842E
330
1F
100
AcDbEntity
  8
0
  6
Continuous
 62
     2
100
AcDbLine
 10
16532.74839092047
 20
211.6853817728628
 30
0.0
 11
16531.16794443694
 21
212.7920223078815
 31
0.0
  0
LINE
  5
1842F
330
1F
100
AcDbEntity
  8
0
  6
Continuous
 62
     2
100
AcDbLine
 10
16518.6220615021
 20
221.5767441086626
 30
0.0
 11
16510.14606588092
 21
227.5117001331747
 31
0.0
  0
LINE
  5
18430
330
1F
100
AcDbEntity
  8
0
  6
Continuous
 62
     2
100
AcDbLine
 10
16623.93980773901
 20
158.8276769591044
 30
0.0
 11
16612.51462368037
 21
166.8276769485621
 31
0.0
  0
LINE
  5
18431
330
1F
100
AcDbEntity
  8
0
  6
Continuous
 62
     2
100
AcDbLine
 10
16517.73019635669
 20
233.1964474632945
 30
0.0
 11
16509.25420073551
 21
239.1314035005121
 31
0.0
  0
LINE
  5
18432
330
1F
100
AcDbEntity
  8
0
  6
Continuous
 62
     2
100
AcDbLine
 10
16635.43167775773
 20
161.7761955985634
 30
0.0
 11
16628.2174147287
 21
166.8276769485621
 31
0.0
  0
LINE
  5
18433
330
1F
100
AcDbEntity
  8
0
  6
Continuous
 62
     2
100
AcDbLine
 10
16516.83833121125
 20
244.8161508306226
 30
0.0
 11
16508.36233559009
 21
250.7511068551439
 31
0.0
  0
LWPOLYLINE
  5
18434
330
1F
100
AcDbEntity
  8
0
  6
Continuous
 62
     7
100
AcDbPolyline
 90
        3
 70
     0
 43
0.0
 10
16281.00331073884
 20
437.2830107310692
 10
16280.84624651143
 20
437.6812063913832
 10
16280.36156675944
 20
438.2836962963901
  0
LINE
  5
18435
330
1F
100
AcDbEntity
  8
0
  6
Continuous
 62
     7
100
AcDbLine
 10
16325.06360367051
 20
435.3140032390333
 30
0.0
 11
16325.06599133402
 21
435.2989438203319
 31
0.0
  0
LWPOLYLINE
  5
18436
330
1F
100
AcDbEntity
  8
0
  6
Continuous
 62
     7
100
AcDbPolyline
 90
        3
 70
     0
 43
0.0
 10
16280.36156675944
 20
438.2836962963901
 10
16279.71031503932
 20
438.648874191901
 10
16279.07494426279
 20
438.7524808299994
  0
LINE
  5
18437
330
1F
100
AcDbEntity
  8
0
  6
Continuous
 62
     2
100
AcDbLine
 10
16515.94646606584
 20
256.4358541852544
 30
0.0
 11
16507.47047044468
 21
262.3708102097757
 31
0.0
  0
LINE
  5
18438
330
1F
100
AcDbEntity
  8
0
  6
Continuous
 62
     2
100
AcDbLine
 10
16515.05460092042
 20
268.0555575398862
 30
0.0
 11
16506.57860529925
 21
273.9905135644074
 31
0.0
  0
LINE
  5
18439
330
1F
100
AcDbEntity
  8
0
  6
Continuous
 62
     2
100
AcDbLine
 10
16514.16273577501
 20
279.6752608945179
 30
0.0
 11
16505.64223888395
 21
285.6413770548355
 31
0.0
  0
LINE
  5
1843A
330
1F
100
AcDbEntity
  8
0
  6
Continuous
 62
     2
100
AcDbLine
 10
16512.92697475907
 20
291.5357627388607
 30
0.0
 11
16504.03339318111
 21
297.7631156004863
 31
0.0
  0
LINE
  5
1843B
330
1F
100
AcDbEntity
  8
0
  6
Continuous
 62
     7
100
AcDbLine
 10
16432.69070095298
 20
433.1471476031961
 30
0.0
 11
16432.75439072908
 21
434.309317821408
 31
0.0
  0
LINE
  5
1843C
330
1F
100
AcDbEntity
  8
0
  6
Continuous
 62
     2
100
AcDbLine
 10
16511.31812905624
 20
303.6575012845022
 30
0.0
 11
16502.42454747826
 21
309.8848541588242
 31
0.0
  0
LINE
  5
1843D
330
1F
100
AcDbEntity
  8
0
  6
Continuous
 62
     2
100
AcDbLine
 10
16509.70928335341
 20
315.7792398428402
 30
0.0
 11
16500.81570176273
 21
322.0065927044657
 31
0.0
  0
LINE
  5
1843E
330
1F
100
AcDbEntity
  8
0
  6
Continuous
 62
     2
100
AcDbLine
 10
16508.10043765059
 20
327.9009783884817
 30
0.0
 11
16499.20685605992
 21
334.1283312501073
 31
0.0
  0
LINE
  5
1843F
330
1F
100
AcDbEntity
  8
0
  6
Continuous
 62
     2
100
AcDbLine
 10
16506.49159193504
 20
340.0227169341233
 30
0.0
 11
16497.59801035707
 21
346.2500698084546
 31
0.0
  0
LINE
  5
18440
330
1F
100
AcDbEntity
  8
0
  6
Continuous
 62
     2
100
AcDbLine
 10
16504.88206360721
 20
352.1449334696656
 30
0.0
 11
16496.05922428043
 21
358.3227520767987
 31
0.0
  0
LINE
  5
18441
330
1F
100
AcDbEntity
  8
0
  6
Continuous
 62
     2
100
AcDbLine
 10
16503.6216395469
 20
364.0227045581023
 30
0.0
 11
16496.56049587125
 21
368.9669705904075
 31
0.0
  0
LINE
  5
18442
330
1F
100
AcDbEntity
  8
0
  6
Continuous
 62
     7
100
AcDbLine
 10
16504.95749988003
 20
351.5812291995596
 30
0.0
 11
16503.43167776019
 21
370.6565844324473
 31
0.0
  0
LINE
  5
18443
330
1F
100
AcDbEntity
  8
0
  6
Continuous
 62
     7
100
AcDbLine
 10
16503.43167776019
 20
384.7916525430187
 30
0.0
 11
16503.43167776019
 21
370.6565844324473
 31
0.0
  0
LINE
  5
18444
330
1F
100
AcDbEntity
  8
0
  6
Continuous
 62
     7
100
AcDbLine
 10
16515.48794374183
 20
423.9694000708086
 30
0.0
 11
16515.48794374183
 21
393.9694000754061
 31
0.0
  0
LINE
  5
18445
330
1F
100
AcDbEntity
  8
0
  6
Continuous
 62
     7
100
AcDbLine
 10
16523.43167404449
 20
203.2194194183903
 30
0.0
 11
16523.43167776559
 21
21.78564155406252
 31
0.0
  0
LINE
  5
18446
330
1F
100
AcDbEntity
  8
0
  6
Continuous
 62
     7
100
AcDbLine
 10
16527.43167775396
 20
24.07813002220803
 30
0.0
 11
16527.43167775396
 21
201.8775032553668
 31
0.0
  0
LINE
  5
18447
330
1F
100
AcDbEntity
  8
0
  6
Continuous
 62
     7
100
AcDbLine
 10
16535.43167775613
 20
205.8276769527441
 30
0.0
 11
16535.43167775613
 21
168.8276769490984
 31
0.0
  0
LINE
  5
18448
330
1F
100
AcDbEntity
  8
0
  6
Continuous
 62
     7
100
AcDbLine
 10
16537.43167775668
 20
-25.17232305247126
 30
0.0
 11
16537.43167775668
 21
158.8276769591044
 31
0.0
  0
LINE
  5
18449
330
1F
100
AcDbEntity
  8
0
  6
Continuous
 62
     7
100
AcDbLine
 10
16504.66916951941
 20
433.1471476031961
 30
0.0
 11
16514.66916952211
 21
425.6116071115439
 31
0.0
  0
LINE
  5
1844A
330
1F
100
AcDbEntity
  8
0
  6
Continuous
 62
     7
100
AcDbLine
 10
16635.43167775773
 20
-33.17232305463472
 30
0.0
 11
16635.43167775773
 21
166.8276769485621
 31
0.0
  0
ARC
  5
1844B
330
1F
100
AcDbEntity
  8
0
  6
Continuous
 62
     7
100
AcDbCircle
 10
16513.43167776289
 20
423.9694000708086
 30
0.0
 40
2.056265978941125
100
AcDbArc
 50
0.0
 51
52.9999999999963
  0
ARC
  5
1844C
330
1F
100
AcDbEntity
  8
0
  6
Continuous
 62
     7
100
AcDbCircle
 10
16023.43167774489
 20
423.9694000708086
 30
0.0
 40
2.056265978941125
100
AcDbArc
 50
127.0000000000037
 51
180.0
  0
ARC
  5
1844D
330
1F
100
AcDbEntity
  8
0
  6
Continuous
 62
     7
100
AcDbCircle
 10
16513.43167776289
 20
393.9694000754061
 30
0.0
 40
2.056265978941125
100
AcDbArc
 50
307.0000000000037
 51
0.0
  0
ARC
  5
1844E
330
1F
100
AcDbEntity
  8
0
  6
Continuous
 62
     7
100
AcDbCircle
 10
16023.43167774489
 20
393.9694000754061
 30
0.0
 40
2.056265978941125
100
AcDbArc
 50
180.0
 51
232.9999999999963
  0
ARC
  5
1844F
330
1F
100
AcDbEntity
  8
0
  6
Continuous
 62
     7
100
AcDbCircle
 10
16268.4316777539
 20
-2564.151420014253
 30
0.0
 40
2999.9600380883
100
AcDbArc
 50
87.58954645552035
 51
88.80226932307619
  0
ARC
  5
18450
330
1F
100
AcDbEntity
  8
0
  6
Continuous
 62
     7
100
AcDbCircle
 10
16268.4316777539
 20
-2564.151420014253
 30
0.0
 40
2999.9600380883
100
AcDbArc
 50
91.1977306769238
 51
92.41204636686889
  0
ARC
  5
18451
330
1F
100
AcDbEntity
  8
0
  6
Continuous
 62
     7
100
AcDbCircle
 10
16253.9316777595
 20
437.8135615114806
 30
0.0
 40
2.000000000539999
100
AcDbArc
 50
270.2767461803081
 51
344.837488710112
  0
ARC
  5
18452
330
1F
100
AcDbEntity
  8
0
  6
Continuous
 62
     7
100
AcDbCircle
 10
16282.93167776098
 20
437.8135615114806
 30
0.0
 40
2.000000000539999
100
AcDbArc
 50
195.162511289888
 51
269.7232538196919
  0
ARC
  5
18453
330
1F
100
AcDbEntity
  8
0
  6
Continuous
 62
     7
100
AcDbCircle
 10
16238.40883066169
 20
434.0779202400076
 30
0.0
 40
29.9999999954
100
AcDbArc
 50
96.75045588926458
 51
171.0069981299023
  0
ARC
  5
18454
330
1F
100
AcDbEntity
  8
0
  6
Continuous
 62
     7
100
AcDbCircle
 10
16268.4316777539
 20
180.4334563793388
 30
0.0
 40
285.4151236625083
100
AcDbArc
 50
83.24954411073541
 51
96.75045588926458
  0
ARC
  5
18455
330
1F
100
AcDbEntity
  8
0
  6
Continuous
 62
     7
100
AcDbCircle
 10
16298.45452485877
 20
434.0779202400076
 30
0.0
 40
29.9999999954
100
AcDbArc
 50
8.993002014102978
 51
83.24954411073541
  0
ARC
  5
18456
330
1F
100
AcDbEntity
  8
0
  6
Continuous
 62
     7
100
AcDbCircle
 10
16325.12023559943
 20
438.3134686650923
 30
0.0
 40
2.999999994459999
100
AcDbArc
 50
268.9183456166863
 51
9.019202123807351
  0
ARC
  5
18457
330
1F
100
AcDbEntity
  8
0
  6
Continuous
 62
     7
100
AcDbCircle
 10
16211.74311990835
 20
438.3134686650923
 30
0.0
 40
2.999999994459999
100
AcDbArc
 50
170.9808010279037
 51
271.0816543864409
  0
ARC
  5
18458
330
1F
100
AcDbEntity
  8
0
  6
Continuous
 62
     7
100
AcDbCircle
 10
16268.4316777539
 20
180.4334563793388
 30
0.0
 40
305.4151236679083
100
AcDbArc
 50
55.8243587717594
 51
124.1764246361799
  0
ARC
  5
18459
330
1F
100
AcDbEntity
  8
0
  6
Continuous
 62
     7
100
AcDbCircle
 10
16257.93169066378
 20
436.7524600522656
 30
0.0
 40
2.00000645214
100
AcDbArc
 50
90.00036989753645
 51
180.0
  0
ARC
  5
1845A
330
1F
100
AcDbEntity
  8
0
  6
Continuous
 62
     7
100
AcDbCircle
 10
16278.93167775988
 20
436.7524600522656
 30
0.0
 40
2.000000000539999
100
AcDbArc
 50
0.0
 51
90.0
  0
ARC
  5
1845B
330
1F
100
AcDbEntity
  8
0
  6
Continuous
 62
     7
100
AcDbCircle
 10
16268.4316777539
 20
-2564.151420014253
 30
0.0
 40
3002.959998128559
100
AcDbArc
 50
91.19771888514248
 51
93.13680596554583
  0
ARC
  5
1845C
330
1F
100
AcDbEntity
  8
0
  6
Continuous
 62
     7
100
AcDbCircle
 10
16268.4316777539
 20
180.4334563793388
 30
0.0
 40
302.4151236607483
100
AcDbArc
 50
57.08678841301303
 51
122.913211586987
  0
ARC
  5
1845D
330
1F
100
AcDbEntity
  8
0
  6
Continuous
 62
     7
100
AcDbCircle
 10
16268.4316777539
 20
-2564.151420014253
 30
0.0
 40
3002.959998128559
100
AcDbArc
 50
86.86319403445414
 51
88.802279840693
  0
ARC
  5
1845E
330
1F
100
AcDbEntity
  8
0
  6
Continuous
 62
     7
100
AcDbCircle
 10
16298.45452485877
 20
434.0779202400076
 30
0.0
 40
33.00000000255999
100
AcDbArc
 50
7.092613655600731
 51
83.24954411073541
  0
ARC
  5
1845F
330
1F
100
AcDbEntity
  8
0
  6
Continuous
 62
     7
100
AcDbCircle
 10
16268.4316777539
 20
180.4334563793388
 30
0.0
 40
288.4151266160683
100
AcDbArc
 50
83.24954411073541
 51
96.75045588926458
  0
ARC
  5
18460
330
1F
100
AcDbEntity
  8
0
  6
Continuous
 62
     7
100
AcDbCircle
 10
16238.40883066169
 20
434.0779202400076
 30
0.0
 40
33.00000000255999
100
AcDbArc
 50
96.75045588926458
 51
172.9073696100052
  0
ARC
  5
18461
330
1F
100
AcDbEntity
  8
0
  6
Continuous
 62
     7
100
AcDbCircle
 10
16000.43167774503
 20
110.8276769461427
 30
0.0
 40
2.000000000539999
100
AcDbArc
 50
90.0
 51
179.9999999816963
  0
ARC
  5
18462
330
1F
100
AcDbEntity
  8
0
  6
Continuous
 62
     7
100
AcDbCircle
 10
16000.43167774503
 20
340.8276769574477
 30
0.0
 40
2.000000000539999
100
AcDbArc
 50
180.0000000186033
 51
270.0
  0
ARC
  5
18463
330
1F
100
AcDbEntity
  8
0
  6
Continuous
 62
     7
100
AcDbCircle
 10
16010.43167774773
 20
100.8276769561488
 30
0.0
 40
4.000000001079999
100
AcDbArc
 50
90.0
 51
179.9999999918968
  0
ARC
  5
18464
330
1F
100
AcDbEntity
  8
0
  6
Continuous
 62
     7
100
AcDbCircle
 10
16010.43167774773
 20
350.827676960138
 30
0.0
 40
4.000000001079999
100
AcDbArc
 50
180.0000000079989
 51
270.0
  0
ARC
  5
18465
330
1F
100
AcDbEntity
  8
0
  6
Continuous
 62
     7
100
AcDbCircle
 10
16010.43167774773
 20
356.827676961765
 30
0.0
 40
4.000000001079999
100
AcDbArc
 50
90.0
 51
179.9999999893955
  0
ARC
  5
18466
330
1F
100
AcDbEntity
  8
0
  6
Continuous
 62
     7
100
AcDbCircle
 10
16010.43167774773
 20
94.82767695452162
 30
0.0
 40
4.000000001079999
100
AcDbArc
 50
180.0000000106044
 51
270.0
  0
ARC
  5
18467
330
1F
100
AcDbEntity
  8
0
  6
Continuous
 62
     7
100
AcDbCircle
 10
15320.21572110993
 20
160.8276769469443
 30
0.0
 40
1200.0000000192
100
AcDbArc
 50
2.804146675095509
 51
9.146611136599227
  0
ARC
  5
18468
330
1F
100
AcDbEntity
  8
0
  6
Continuous
 62
     7
100
AcDbCircle
 10
17216.64763439785
 20
160.8276769469443
 30
0.0
 40
1200.0000000192
100
AcDbArc
 50
183.9496416010996
 51
188.774289647806
  0
ARC
  5
18469
330
1F
100
AcDbEntity
  8
0
  6
Continuous
 62
     7
100
AcDbCircle
 10
16486.40610011435
 20
-19.17232305085326
 30
0.0
 40
12.00000000323999
100
AcDbArc
 50
270.0
 51
297.7957810665528
  0
ARC
  5
1846A
330
1F
100
AcDbEntity
  8
0
  6
Continuous
 62
     7
100
AcDbCircle
 10
16498.53074849669
 20
-42.17230637562216
 30
0.0
 40
5.99999923962
100
AcDbArc
 50
90.00279469431733
 51
117.798317870695
  0
ARC
  5
1846B
330
1F
100
AcDbEntity
  8
0
  6
Continuous
 62
     7
100
AcDbCircle
 10
16524.77160181931
 20
219.8275904060224
 30
0.0
 40
5.999996039219999
100
AcDbArc
 50
182.8033464202023
 51
270.0005165596321
  0
ARC
  5
1846C
330
1F
100
AcDbEntity
  8
0
  6
Continuous
 62
     7
100
AcDbCircle
 10
16623.43167776719
 20
370.6565844324473
 30
0.0
 40
120.000000007
100
AcDbArc
 50
180.0
 51
189.1466111365992
  0
ARC
  5
1846D
330
1F
100
AcDbEntity
  8
0
  6
Continuous
 62
     7
100
AcDbCircle
 10
16014.50959279492
 20
77.8277563947886
 30
0.0
 40
4.999997315299999
100
AcDbArc
 50
3.948781649695713
 51
90.00060453302316
  0
ARC
  5
1846E
330
1F
100
AcDbEntity
  8
0
  6
Continuous
 62
     7
100
AcDbCircle
 10
16530.29023449564
 20
-28.17231703983907
 30
0.0
 40
8.000003926459998
100
AcDbArc
 50
270.0001064801228
 51
315.573039297967
  0
ARC
  5
1846F
330
1F
100
AcDbEntity
  8
0
  6
Continuous
 62
     7
100
AcDbCircle
 10
16527.43167775396
 20
205.8276769527441
 30
0.0
 40
8.000000002159998
100
AcDbArc
 50
0.0
 51
90.0
  0
ARC
  5
18470
330
1F
100
AcDbEntity
  8
0
  6
Continuous
 62
     7
100
AcDbCircle
 10
16000.43167774503
 20
366.8276769517683
 30
0.0
 40
2.000000000539999
100
AcDbArc
 50
90.0
 51
179.9999999788042
  0
ARC
  5
18471
330
1F
100
AcDbEntity
  8
0
  6
Continuous
 62
     7
100
AcDbCircle
 10
16000.43167774503
 20
84.82767695182213
 30
0.0
 40
2.000000000539999
100
AcDbArc
 50
180.0000000211958
 51
270.0
  0
ARC
  5
18472
330
1F
100
AcDbEntity
  8
0
  6
Continuous
 62
     7
100
AcDbCircle
 10
15320.21572110993
 20
160.8276769469443
 30
0.0
 40
1192.00000002974
100
AcDbArc
 50
2.804146675095509
 51
9.146611136599227
  0
ARC
  5
18473
330
1F
100
AcDbEntity
  8
0
  6
Continuous
 62
     7
100
AcDbCircle
 10
16028.43169397048
 20
373.8276583418028
 30
0.0
 40
4.999999372699999
100
AcDbArc
 50
269.9998113001827
 51
0.0002007961989678
  0
ARC
  5
18474
330
1F
100
AcDbEntity
  8
0
  6
Continuous
 62
     7
100
AcDbCircle
 10
17216.64763439785
 20
160.8276769469443
 30
0.0
 40
1192.00000002974
100
AcDbArc
 50
183.9496416010996
 51
188.774289647806
  0
ARC
  5
18475
330
1F
100
AcDbEntity
  8
0
  6
Continuous
 62
     7
100
AcDbCircle
 10
16537.43167775668
 20
-35.17232305517996
 30
0.0
 40
2.000000000539999
100
AcDbArc
 50
90.0
 51
135.5729959995733
  0
ARC
  5
18476
330
1F
100
AcDbEntity
  8
0
  6
Continuous
 62
     7
100
AcDbCircle
 10
16537.43167775668
 20
168.8276769490984
 30
0.0
 40
2.000000000539999
100
AcDbArc
 50
180.0
 51
270.0
  0
ARC
  5
18477
330
1F
100
AcDbEntity
  8
0
  6
Continuous
 62
     7
100
AcDbCircle
 10
16050.45725540613
 20
-19.17232305085326
 30
0.0
 40
12.00000000323999
100
AcDbArc
 50
188.7742894927989
 51
270.0
  0
ARC
  5
18478
330
1F
100
AcDbEntity
  8
0
  6
Continuous
 62
     7
100
AcDbCircle
 10
16486.40610011435
 20
-19.17232305085326
 30
0.0
 40
20.0000000054
100
AcDbArc
 50
270.0
 51
297.7957724986067
  0
ARC
  5
18479
330
1F
100
AcDbEntity
  8
0
  6
Continuous
 62
     7
100
AcDbCircle
 10
16050.45725540613
 20
-19.17232305085326
 30
0.0
 40
20.0000000054
100
AcDbArc
 50
188.7742896479089
 51
270.0
  0
ARC
  5
1847A
330
1F
100
AcDbEntity
  8
0
  6
Continuous
 62
     7
100
AcDbCircle
 10
16537.43167775668
 20
-35.17232305517996
 30
0.0
 40
10.0000000027
100
AcDbArc
 50
90.0
 51
128.213206069885
  0
ARC
  5
1847B
330
1F
100
AcDbEntity
  8
0
  6
Continuous
 62
     7
100
AcDbCircle
 10
16537.43167775668
 20
168.8276769490984
 30
0.0
 40
10.0000000027
100
AcDbArc
 50
180.0000000100963
 51
270.0
  0
ARC
  5
1847C
330
1F
100
AcDbEntity
  8
0
  6
Continuous
 62
     7
100
AcDbCircle
 10
16498.53074850939
 20
-42.17230637562216
 30
0.0
 40
13.99999820038
100
AcDbArc
 50
90.00364340921015
 51
117.7990920002933
  0
ARC
  5
1847D
330
1F
100
AcDbEntity
  8
0
  6
Continuous
 62
     7
100
AcDbCircle
 10
16524.77160181931
 20
219.8275904060224
 30
0.0
 40
13.99999320928
100
AcDbArc
 50
182.8033482880975
 51
265.7309260213899
  0
ARC
  5
1847E
330
1F
100
AcDbEntity
  8
0
  6
Continuous
 62
     7
100
AcDbCircle
 10
16623.43167776719
 20
370.6565844324473
 30
0.0
 40
127.99999999646
100
AcDbArc
 50
180.8789361702933
 51
189.1466111365992
  0
ARC
  5
1847F
330
1F
100
AcDbEntity
  8
0
  6
Continuous
 62
     7
100
AcDbCircle
 10
16028.43169657398
 20
373.8276554335048
 30
0.0
 40
12.99999825726
100
AcDbArc
 50
270.0000183431058
 51
337.11770124309
  0
ARC
  5
18480
330
1F
100
AcDbEntity
  8
0
  6
Continuous
 62
     7
100
AcDbCircle
 10
16014.50959279492
 20
77.8277563947886
 30
0.0
 40
12.99999498065999
100
AcDbArc
 50
3.948777413800866
 51
90.00060611488063
  0
ARC
  5
18481
330
1F
100
AcDbEntity
  8
0
  6
Continuous
 62
     7
100
AcDbCircle
 10
16528.7713428928
 20
-24.17226640385798
 30
0.0
 40
4.00000044558
100
AcDbArc
 50
270.001051497701
 51
308.2136169233113
  0
ARC
  5
18482
330
1F
100
AcDbEntity
  8
0
  6
Continuous
 62
     7
100
AcDbCircle
 10
16523.43167776559
 20
201.8775143424662
 30
0.0
 40
4.000000001079999
100
AcDbArc
 50
0.0002777233983354
 51
85.73100064796703
  0
SPLINE
  5
18483
330
1F
100
AcDbEntity
  8
0
  6
Continuous
 62
     7
100
AcDbSpline
210
0.0
220
0.0
230
1.0
 70
     8
 71
     3
 72
    10
 73
     6
 74
     4
 42
0.0000000001
 43
0.0000000001
 44
0.0000000001
 12
-0.9842170747931916
 22
-0.1769653912083745
 32
0.0
 13
-0.9831596071253455
 23
-0.1827489724106166
 33
0.0
 40
0.0
 40
0.0
 40
0.0
 40
0.0
 40
10.58448612901147
 40
21.96930010890397
 40
33.31626926971383
 40
33.31626926971383
 40
33.31626926971383
 40
33.31626926971383
 10
16326.15910218075
 20
390.8284168705254
 30
0.0
 10
16322.68662485538
 20
390.2040542943387
 30
0.0
 10
16315.48030536187
 20
388.901431472938
 30
0.0
 10
16304.55580570561
 20
386.9049644950457
 30
0.0
 10
16297.10473813742
 20
385.5278042872116
 30
0.0
 10
16293.38611089002
 20
384.8365886358406
 30
0.0
 11
16326.15910218075
 21
390.8284168705254
 31
0.0
 11
16315.74341278688
 21
388.945663284472
 31
0.0
 11
16304.54408580097
 21
386.898942878717
 31
0.0
 11
16293.38611089002
 21
384.8365886358406
 31
0.0
  0
SPLINE
  5
18484
330
1F
100
AcDbEntity
  8
0
  6
Continuous
 62
     7
100
AcDbSpline
210
0.0
220
0.0
230
1.0
 70
     8
 71
     3
 72
    11
 73
     7
 74
     5
 42
0.0000000001
 43
0.0000000001
 44
0.0000000001
 12
-0.9998218244600815
 22
-0.0188764226831788
 32
0.0
 13
0.1563138508922483
 23
0.9877074364503066
 33
0.0
 40
0.0
 40
0.0
 40
0.0
 40
0.0
 40
1.299591718503558
 40
2.599182038748884
 40
3.898769520103935
 40
5.19835481759402
 40
5.19835481759402
 40
5.19835481759402
 40
5.19835481759402
 10
16211.79736405268
 20
435.2989439297561
 30
0.0
 10
16211.36424399833
 20
435.2907667155582
 30
0.0
 10
16210.48265440764
 20
435.4677561139729
 30
0.0
 10
16209.40556278256
 20
436.2652991491956
 30
0.0
 10
16208.76385660896
 20
437.4419085251835
 30
0.0
 10
16208.70989318261
 20
438.3394656963554
 30
0.0
 10
16208.77760757675
 20
438.767335717233
 30
0.0
 11
16211.79736405268
 21
435.2989439297561
 31
0.0
 11
16210.52353594129
 21
435.5564329148201
 31
0.0
 11
16209.47812617012
 21
436.3284778687041
 31
0.0
 11
16208.85731647108
 21
437.4701971596314
 31
0.0
 11
16208.77760757675
 21
438.767335717233
 31
0.0
  0
SPLINE
  5
18485
330
1F
100
AcDbEntity
  8
0
  6
Continuous
 62
     7
100
AcDbSpline
210
0.0
220
0.0
230
1.0
 70
     8
 71
     3
 72
    11
 73
     7
 74
     5
 42
0.0000000001
 43
0.0000000001
 44
0.0000000001
 12
0.9998217855983806
 22
-0.018878480946982
 32
0.0
 13
-0.1563145714312391
 23
0.9877073224180675
 33
0.0
 40
0.0
 40
0.0
 40
0.0
 40
0.0
 40
1.299592225637308
 40
2.599181297605429
 40
3.898764358123392
 40
5.198342575008634
 40
5.198342575008634
 40
5.198342575008634
 40
5.198342575008634
 10
16325.06599171833
 20
435.2989668179628
 30
0.0
 10
16325.49911192486
 20
435.2907887089393
 30
0.0
 10
16326.38070147562
 20
435.4677757124477
 30
0.0
 10
16327.45779515985
 20
436.2653126021419
 30
0.0
 10
16328.09950457335
 20
437.4419155919484
 30
0.0
 10
16328.15346896891
 20
438.3394692690361
 30
0.0
 10
16328.08575463158
 20
438.767336909327
 30
0.0
 11
16325.06599171833
 21
435.2989668179628
 31
0.0
 11
16326.33982102182
 21
435.5564524651631
 31
0.0
 11
16327.38523293876
 21
436.328492412252
 31
0.0
 11
16328.00604478357
 21
437.4702055042899
 31
0.0
 11
16328.08575463158
 21
438.767336909327
 31
0.0
  0
SPLINE
  5
18486
330
1F
100
AcDbEntity
  8
0
  6
Continuous
 62
     7
100
AcDbSpline
210
0.0
220
0.0
230
1.0
 70
     8
 71
     3
 72
    10
 73
     6
 74
     4
 42
0.0000000001
 43
0.0000000001
 44
0.0000000001
 12
0.9553424400131989
 22
0.2955009683734177
 32
0.0
 13
0.9565757903385859
 23
0.2914837171063071
 33
0.0
 40
0.0
 40
0.0
 40
0.0
 40
0.0
 40
0.4639487857170313
 40
2.123560234352353
 40
3.958897548662579
 40
3.958897548662579
 40
3.958897548662579
 40
3.958897548662579
 10
16100.32443372605
 20
433.1473473777109
 30
0.0
 10
16100.47217704771
 20
433.1930464828626
 30
0.0
 10
16101.14846532011
 20
433.4020695946295
 30
0.0
 10
16102.40971348662
 20
433.7902510365217
 30
0.0
 10
16103.52375173179
 20
434.1309943154922
 30
0.0
 10
16104.10896481244
 20
434.3093179629986
 30
0.0
 11
16100.32443372605
 21
433.1473473777109
 31
0.0
 11
16100.76769555429
 21
433.2843416381665
 31
0.0
 11
16102.353864476
 21
433.7725816531651
 31
0.0
 11
16104.10896481244
 21
434.3093179629986
 31
0.0
  0
SPLINE
  5
18487
330
1F
100
AcDbEntity
  8
0
  6
Continuous
 62
     7
100
AcDbSpline
210
0.0
220
0.0
230
1.0
 70
     8
 71
     3
 72
    13
 73
     9
 74
     7
 42
0.0000000001
 43
0.0000000001
 44
0.0000000001
 12
0.9997854440821051
 22
0.0207139035806408
 32
0.0
 13
0.1369721440932054
 23
0.9905748996125987
 33
0.0
 40
0.0
 40
0.0
 40
0.0
 40
0.0
 40
1.668083574887832
 40
3.166439690814262
 40
4.398723904211003
 40
5.314184363799606
 40
5.880880074275208
 40
6.075123586888797
 40
6.075123586888797
 40
6.075123586888797
 40
6.075123586888797
 10
16205.72404879612
 20
435.1531632206183
 30
0.0
 10
16206.27995735535
 20
435.1646807280632
 30
0.0
 10
16207.33247160542
 20
435.1902442841779
 30
0.0
 10
16208.80893036845
 20
435.2114322361442
 30
0.0
 10
16209.99506537918
 20
435.2706263675694
 30
0.0
 10
16210.96853487444
 20
435.2193246010743
 30
0.0
 10
16211.40147079727
 20
435.3690334948479
 30
0.0
 10
16211.78849540255
 20
435.2348063470869
 30
0.0
 10
16211.79736405268
 20
435.2989439297561
 30
0.0
 11
16205.72404879612
 21
435.1531632206183
 31
0.0
 11
16207.39175266189
 21
435.1887529511855
 31
0.0
 11
16208.88973761556
 21
435.2221015448678
 31
0.0
 11
16210.12168460063
 21
435.2509287640948
 31
0.0
 11
16211.0368564238
 21
435.273915437549
 31
0.0
 11
16211.60331926864
 21
435.2901596268434
 31
0.0
 11
16211.79736405268
 21
435.2989439297561
 31
0.0
  0
SPLINE
  5
18488
330
1F
100
AcDbEntity
  8
0
  6
Continuous
 62
     7
100
AcDbSpline
210
0.0
220
0.0
230
1.0
 70
     8
 71
     3
 72
    10
 73
     6
 74
     4
 42
0.0000000001
 43
0.0000000001
 44
0.0000000001
 12
-0.0000450168462047
 22
0.9999999989867419
 32
0.0
 13
-0.966554700648623
 23
0.2564605440492766
 33
0.0
 40
0.0
 40
0.0
 40
0.0
 40
0.0
 40
0.1835657761509903
 40
0.3401878257689537
 40
0.525396831278134
 40
0.525396831278134
 40
0.525396831278134
 40
0.525396831278134
 10
16280.93167763036
 20
436.7524599592598
 30
0.0
 10
16280.93167487585
 20
436.8136485512481
 30
0.0
 10
16280.94616810103
 20
436.9324865572436
 30
0.0
 10
16280.93030568812
 20
437.0838447314916
 30
0.0
 10
16281.06000998007
 20
437.256167139355
 30
0.0
 10
16281.00033843511
 20
437.2720000734602
 30
0.0
 11
16280.93167763036
 21
436.7524599592598
 31
0.0
 11
16280.94010549714
 21
436.9358321633569
 31
0.0
 11
16280.96056469271
 21
437.0911121934418
 31
0.0
 11
16281.00033843511
 21
437.2720000734602
 31
0.0
  0
SPLINE
  5
18489
330
1F
100
AcDbEntity
  8
0
  6
Continuous
 62
     7
100
AcDbSpline
210
0.0
220
0.0
230
1.0
 70
     8
 71
     3
 72
    10
 73
     6
 74
     4
 42
0.0000000001
 43
0.0000000001
 44
0.0000000001
 12
0.0000450168462047
 22
0.9999999989867419
 32
0.0
 13
0.9665739471554372
 23
0.2563879963655833
 33
0.0
 40
0.0
 40
0.0
 40
0.0
 40
0.0
 40
0.1835657761510739
 40
0.3401878257687996
 40
0.5253968312783706
 40
0.5253968312783706
 40
0.5253968312783706
 40
0.5253968312783706
 10
16255.93167766381
 20
436.7524599592598
 30
0.0
 10
16255.93168041833
 20
436.8136485512481
 30
0.0
 10
16255.91718704761
 20
436.9324871058212
 30
0.0
 10
16255.93305006885
 20
437.0838429870624
 30
0.0
 10
16255.8033441259
 20
437.2561716181831
 30
0.0
 10
16255.86301685907
 20
437.2720000734602
 30
0.0
 11
16255.93167766381
 21
436.7524599592598
 31
0.0
 11
16255.92324979703
 21
436.9358321633569
 31
0.0
 11
16255.90279060147
 21
437.0911121934418
 31
0.0
 11
16255.86301685907
 21
437.2720000734602
 31
0.0
  0
SPLINE
  5
1848A
330
1F
100
AcDbEntity
  8
0
  6
Continuous
 62
     7
100
AcDbSpline
210
0.0
220
0.0
230
1.0
 70
     8
 71
     3
 72
    10
 73
     6
 74
     4
 42
0.0000000001
 43
0.0000000001
 44
0.0000000001
 12
0.95657575817198
 22
-0.291483822668946
 32
0.0
 13
0.9553426758945608
 23
-0.2955002057776277
 33
0.0
 40
0.0
 40
0.0
 40
0.0
 40
0.0
 40
1.832861094727372
 40
3.488391656782392
 40
3.958895745826722
 40
3.958895745826722
 40
3.958895745826722
 40
3.958895745826722
 10
16432.75439072015
 20
434.3093179629986
 30
0.0
 10
16433.33881421726
 20
434.1312348435612
 30
0.0
 10
16434.45076276748
 20
433.7911322579047
 30
0.0
 10
16435.71201233429
 20
433.4029574215525
 30
0.0
 10
16436.38908925913
 20
433.1936927780111
 30
0.0
 10
16436.53892013761
 20
433.1473480929671
 30
0.0
 11
16432.75439072015
 21
434.3093179629986
 31
0.0
 11
16434.50712379616
 21
433.7733081153021
 31
0.0
 11
16436.08939480863
 21
433.2862764068709
 31
0.0
 11
16436.53892013761
 21
433.1473480929671
 31
0.0
  0
SPLINE
  5
1848B
330
1F
100
AcDbEntity
  8
0
  6
Continuous
 62
     7
100
AcDbSpline
210
0.0
220
0.0
230
1.0
 70
     8
 71
     3
 72
    12
 73
     8
 74
     6
 42
0.0000000001
 43
0.0000000001
 44
0.0000000001
 12
0.1515538527406607
 22
-0.9884490020832952
 32
0.0
 13
0.9874235141912757
 23
-0.1580974497648572
 33
0.0
 40
0.0
 40
0.0
 40
0.0
 40
0.0
 40
0.4059672304802286
 40
0.8895532992218393
 40
1.536305683152613
 40
2.316416506185937
 40
3.176695830125799
 40
3.176695830125799
 40
3.176695830125799
 40
3.176695830125799
 10
16328.08574962478
 20
438.7673242731298
 30
0.0
 10
16328.1062582574
 20
438.6335649718476
 30
0.0
 10
16328.56550652715
 20
438.7171343103349
 30
0.0
 10
16328.98135538316
 20
438.5329541618067
 30
0.0
 10
16329.63832634055
 20
438.4359733713889
 30
0.0
 10
16330.37614360842
 20
438.2866073824915
 30
0.0
 10
16330.9182991642
 20
438.1979011559089
 30
0.0
 10
16331.20145250861
 20
438.1525651668421
 30
0.0
 11
16328.08574962478
 21
438.7673242731298
 31
0.0
 11
16328.4799338931
 21
438.6702255870854
 31
0.0
 11
16328.95233407712
 21
438.5668159549416
 31
0.0
 11
16329.58622557826
 21
438.4384796354252
 31
0.0
 11
16330.35321653005
 21
438.2960093715687
 31
0.0
 11
16331.20145250861
 21
438.1525651668421
 31
0.0
  0
SPLINE
  5
1848C
330
1F
100
AcDbEntity
  8
0
  6
Continuous
 62
     7
100
AcDbSpline
210
0.0
220
0.0
230
1.0
 70
     8
 71
     3
 72
    12
 73
     8
 74
     6
 42
0.0000000001
 43
0.0000000001
 44
0.0000000001
 12
0.9874125322324005
 22
0.1581660241341317
 32
0.0
 13
0.1509502849636399
 23
0.9885413554674363
 33
0.0
 40
0.0
 40
0.0
 40
0.0
 40
0.0
 40
0.8609716488893244
 40
1.641462593151572
 40
2.287893265784328
 40
2.771330891458791
 40
3.17662648048599
 40
3.17662648048599
 40
3.17662648048599
 40
3.17662648048599
 10
16205.66197097335
 20
438.1525768493643
 30
0.0
 10
16205.94534903868
 20
438.1979690035633
 30
0.0
 10
16206.48786936809
 20
438.2867003813599
 30
0.0
 10
16207.22590441264
 20
438.4361560652317
 30
0.0
 10
16207.88287724712
 20
438.5331297366299
 30
0.0
 10
16208.29830544984
 20
438.7172278557286
 30
0.0
 10
16208.75721226943
 20
438.6337725973882
 30
0.0
 10
16208.77760543098
 20
438.7673230810356
 30
0.0
 11
16205.66197097335
 21
438.1525768493643
 31
0.0
 11
16206.51088906815
 21
438.2961395482429
 31
0.0
 11
16207.27825052278
 21
438.4386965965493
 31
0.0
 11
16207.91182421164
 21
438.566981417601
 31
0.0
 11
16208.38407729124
 21
438.6703688767948
 31
0.0
 11
16208.77760543098
 21
438.7673230810356
 31
0.0
  0
SPLINE
  5
1848D
330
1F
100
AcDbEntity
  8
0
  6
Continuous
 62
     7
100
AcDbSpline
210
0.0
220
0.0
230
1.0
 70
     8
 71
     3
 72
    13
 73
     9
 74
     7
 42
0.0000000001
 43
0.0000000001
 44
0.0000000001
 12
0.1404515231033551
 22
-0.9900875565615134
 32
0.0
 13
0.9997850242717149
 23
-0.0207341564093302
 33
0.0
 40
0.0
 40
0.0
 40
0.0
 40
0.0
 40
0.1948391195907726
 40
0.7621266841409146
 40
1.677860858026348
 40
2.910788683318121
 40
4.408543321629229
 40
6.075123544438318
 40
6.075123544438318
 40
6.075123544438318
 40
6.075123544438318
 10
16325.0659912415
 20
435.2989439297561
 30
0.0
 10
16325.07511305853
 20
435.2346413338101
 30
0.0
 10
16325.46224101331
 20
435.3690609016953
 30
0.0
 10
16325.89610425161
 20
435.2193293803992
 30
0.0
 10
16326.86978584906
 20
435.2705748801758
 30
0.0
 10
16328.05615441845
 20
435.2114078417153
 30
0.0
 10
16329.53206974919
 20
435.190206460106
 30
0.0
 10
16330.58389918188
 20
435.1646815989544
 30
0.0
 10
16331.13930649805
 20
435.1531632206183
 30
0.0
 11
16325.0659912415
 21
435.2989439297561
 31
0.0
 11
16325.26063135733
 21
435.2901400765004
 31
0.0
 11
16325.82768595767
 21
435.2738839662651
 31
0.0
 11
16326.74313148564
 21
435.2508934781099
 31
0.0
 11
16327.9757219631
 21
435.2220536226854
 31
0.0
 11
16329.47310562451
 21
435.1887200493885
 31
0.0
 11
16331.13930649805
 21
435.1531632206183
 31
0.0
  0
SPLINE
  5
1848E
330
1F
100
AcDbEntity
  8
0
  6
Continuous
 62
     7
100
AcDbSpline
210
0.0
220
0.0
230
1.0
 70
     8
 71
     3
 72
    10
 73
     6
 74
     4
 42
0.0000000001
 43
0.0000000001
 44
0.0000000001
 12
0.9650149735476942
 22
-0.2621947765092647
 32
0.0
 13
0.9897972991829993
 23
0.1424826534355687
 33
0.0
 40
0.0
 40
0.0
 40
0.0
 40
0.0
 40
100.6604738469433
 40
211.0817354293247
 40
272.6677323450636
 40
272.6677323450636
 40
272.6677323450636
 40
272.6677323450636
 10
16104.01964620925
 20
351.5812293471777
 30
0.0
 10
16136.39926771149
 20
342.7836791993057
 30
0.0
 10
16204.74014504253
 20
324.4055292402125
 30
0.0
 10
16297.73111110955
 20
329.4368858351131
 30
0.0
 10
16352.13495745102
 20
348.6562505955013
 30
0.0
 10
16372.45417525592
 20
351.5812293471777
 30
0.0
 11
16104.01964620925
 21
351.5812293471777
 31
0.0
 11
16202.40925737816
 21
330.3205753327261
 31
0.0
 11
16312.63130358989
 21
336.9504726430691
 31
0.0
 11
16372.45417525592
 21
351.5812293471777
 31
0.0
  0
SPLINE
  5
1848F
330
1F
100
AcDbEntity
  8
0
  6
Continuous
 62
     7
100
AcDbSpline
210
0.0
220
0.0
230
1.0
 70
     8
 71
     3
 72
     9
 73
     5
 74
     3
 42
0.0000000001
 43
0.0000000001
 44
0.0000000001
 12
0.9897972991855615
 22
0.1424826534177683
 32
0.0
 13
0.9710723828912199
 23
0.238785316102076
 33
0.0
 40
0.0
 40
0.0
 40
0.0
 40
0.0
 40
10.6781883490874
 40
68.70800068552256
 40
68.70800068552256
 40
68.70800068552256
 40
68.70800068552256
 10
16372.45417525592
 20
351.5812293471777
 30
0.0
 10
16375.97725591863
 20
352.0883815504019
 30
0.0
 10
16398.7517920757
 20
354.532791983733
 30
0.0
 10
16422.26092038923
 20
350.6968108455093
 30
0.0
 10
16441.04463643732
 20
355.315699872876
 30
0.0
 11
16372.45417525592
 21
351.5812293471777
 31
0.0
 11
16383.07396450904
 21
352.6964793809834
 31
0.0
 11
16441.04463643732
 21
355.315699872876
 31
0.0
  0
SPLINE
  5
18490
330
1F
100
AcDbEntity
  8
0
  6
Continuous
 62
     7
100
AcDbSpline
210
0.0
220
0.0
230
1.0
 70
     8
 71
     3
 72
     9
 73
     5
 74
     3
 42
0.0000000001
 43
0.0000000001
 44
0.0000000001
 12
0.965427288730059
 22
-0.2606724960085493
 32
0.0
 13
0.9650149735979384
 23
-0.2621947763243386
 33
0.0
 40
0.0
 40
0.0
 40
0.0
 40
0.0
 40
6.34867491014547
 40
13.01280919376739
 40
13.01280919376739
 40
13.01280919376739
 40
13.01280919376739
 10
16091.46078240808
 20
354.9882979074364
 30
0.0
 10
16093.50384374325
 20
354.4366562623782
 30
0.0
 10
16097.69037907003
 20
353.3018710389214
 30
0.0
 10
16101.875983086
 20
352.1636630798075
 30
0.0
 10
16104.01964620925
 20
351.5812293471777
 30
0.0
 11
16091.46078240808
 21
354.9882979074364
 31
0.0
 11
16097.58866648675
 21
353.3285660516721
 31
0.0
 11
16104.01964620925
 21
351.5812293471777
 31
0.0
  0
SPLINE
  5
18491
330
1F
100
AcDbEntity
  8
0
  6
Continuous
 62
     7
100
AcDbSpline
210
0.0
220
0.0
230
1.0
 70
     8
 71
     3
 72
     8
 73
     4
 74
     2
 42
0.0000000001
 43
0.0000000001
 44
0.0000000001
 12
-0.4914740262835854
 22
0.8708922329936131
 32
0.0
 13
-0.4936834336429114
 23
0.869641689057364
 33
0.0
 40
0.0
 40
0.0
 40
0.0
 40
0.0
 40
0.3605274510077245
 40
0.3605274510077245
 40
0.3605274510077245
 40
0.3605274510077245
 10
16035.67785943081
 20
370.0500986674754
 30
0.0
 10
16035.61879613817
 20
370.1547588530965
 30
0.0
 10
16035.55960746819
 20
370.2593484076941
 30
0.0
 10
16035.50027865821
 20
370.3638583081761
 30
0.0
 11
16035.67785943081
 21
370.0500986674754
 31
0.0
 11
16035.50027865821
 21
370.3638583081761
 31
0.0
  0
SPLINE
  5
18492
330
1F
100
AcDbEntity
  8
0
  6
Continuous
 62
     7
100
AcDbSpline
210
0.0
220
0.0
230
1.0
 70
     8
 71
     3
 72
     8
 73
     4
 74
     2
 42
0.0000000001
 43
0.0000000001
 44
0.0000000001
 12
-0.4936834323682023
 22
0.8696416897809985
 32
0.0
 13
-0.4957822500452532
 23
0.8684468668491277
 33
0.0
 40
0.0
 40
0.0
 40
0.0
 40
0.0
 40
0.3368395214574137
 40
0.3368395214574137
 40
0.3368395214574137
 40
0.3368395214574137
 10
16035.50027865821
 20
370.3638583081761
 30
0.0
 10
16035.44484796118
 20
370.4615015383845
 30
0.0
 10
16035.38929478667
 20
370.5590753266956
 30
0.0
 10
16035.33362843472
 20
370.6565844023757
 30
0.0
 11
16035.50027865821
 21
370.3638583081761
 31
0.0
 11
16035.33362843472
 21
370.6565844023757
 31
0.0
  0
SPLINE
  5
18493
330
1F
100
AcDbEntity
  8
0
  6
Continuous
 62
     7
100
AcDbSpline
210
0.0
220
0.0
230
1.0
 70
     8
 71
     3
 72
    13
 73
     9
 74
     7
 42
0.0000000001
 43
0.0000000001
 44
0.0000000001
 12
0.8299105775761555
 22
0.5578964359334191
 32
0.0
 13
-0.3351616880071759
 23
0.9421606247833649
 33
0.0
 40
0.0
 40
0.0
 40
0.0
 40
0.0
 40
0.5162764716689229
 40
2.073056152334011
 40
4.562468664306255
 40
8.046031876546001
 40
12.84937862016764
 40
18.80850646547331
 40
18.80850646547331
 40
18.80850646547331
 40
18.80850646547331
 10
16498.53045580516
 20
-28.17232305000198
 30
0.0
 10
16498.67327690676
 20
-28.07631344883519
 30
0.0
 10
16499.2386764582
 20
-27.67874852133768
 30
0.0
 10
16500.4065940173
 20
-26.69778703267644
 30
0.0
 10
16502.02559109215
 20
-24.75144533252232
 30
0.0
 10
16503.50996707049
 20
-21.41538099732679
 30
0.0
 10
16503.90953582316
 20
-16.5925927291803
 30
0.0
 10
16503.08578132486
 20
-13.04406710484936
 30
0.0
 10
16502.42002420897
 20
-11.17258190021698
 30
0.0
 11
16498.53045580516
 21
-28.17232305000198
 31
0.0
 11
16498.95273844639
 21
-27.87530660918083
 31
0.0
 11
16500.14331499824
 21
-26.87226600765507
 31
0.0
 11
16501.73166616739
 21
-24.95541566966949
 31
0.0
 11
16503.16753682021
 21
-21.78153978645582
 31
0.0
 11
16503.65290913367
 21
-17.00277910435579
 31
0.0
 11
16502.42002420897
 21
-11.17258190021698
 31
0.0
  0
SPLINE
  5
18494
330
1F
100
AcDbEntity
  8
0
  6
Continuous
 62
     7
100
AcDbSpline
210
0.0
220
0.0
230
1.0
 70
     8
 71
     3
 72
    24
 73
    20
 74
    18
 42
0.0000000001
 43
0.0000000001
 44
0.0000000001
 12
-0.335257346112986
 22
0.9421265901551009
 32
0.0
 13
0.454363625446881
 23
0.8908163087139607
 33
0.0
 40
0.0
 40
0.0
 40
0.0
 40
0.0
 40
10.25431226920356
 40
22.23292057438386
 40
35.53047929581253
 40
49.76942510363579
 40
64.66477207899065
 40
80.02079882120279
 40
95.69928992747312
 40
111.599394799407
 40
127.6496616942141
 40
143.7948690717755
 40
159.6554803927751
 40
174.7181277087882
 40
188.4662299315136
 40
200.3890143866303
 40
210.0982490454749
 40
217.4208066717473
 40
222.3398787234517
 40
222.3398787234517
 40
222.3398787234517
 40
222.3398787234517
 10
16502.42002420897
 20
-11.17258190021698
 30
0.0
 10
16501.27407970311
 20
-7.952295149360192
 30
0.0
 10
16498.90426232523
 20
-0.9287356076558054
 30
0.0
 10
16495.54774907833
 20
10.43282951476196
 30
0.0
 10
16492.41141163175
 20
23.23166530173324
 30
0.0
 10
16489.8056953571
 20
37.14186015391068
 30
0.0
 10
16487.98494349882
 20
51.87038254640945
 30
0.0
 10
16487.13523182713
 20
67.16910422564807
 30
0.0
 10
16487.3725773986
 20
82.82549269311104
 30
0.0
 10
16488.74374030155
 20
98.65573619789351
 30
0.0
 10
16491.23107016597
 20
114.5057972598598
 30
0.0
 10
16494.74241484894
 20
130.1456628975394
 30
0.0
 10
16499.08094742911
 20
145.2318039798666
 30
0.0
 10
16503.92832811095
 20
159.3170341499938
 30
0.0
 10
16508.89355046539
 20
171.9580690736148
 30
0.0
 10
16513.57908234382
 20
182.7826455359129
 30
0.0
 10
16517.64398847339
 20
191.5373073640083
 30
0.0
 10
16520.85120837902
 20
198.1142287611658
 30
0.0
 10
16522.68665828349
 20
201.7587561073425
 30
0.0
 10
16523.43167408724
 20
203.2194193098082
 30
0.0
 11
16502.42002420897
 21
-11.17258190021698
 31
0.0
 11
16499.145386573
 21
-1.455191897369559
 31
0.0
 11
16495.75805622981
 21
10.03450131328725
 31
0.0
 11
16492.60146714138
 21
22.95197061948829
 31
0.0
 11
16489.98855950293
 21
36.94912359397199
 31
0.0
 11
16488.16826354083
 21
51.7328269231981
 31
0.0
 11
16487.3201901639
 21
67.06541733887411
 31
0.0
 11
16487.5561885536
 21
82.74213217743204
 31
0.0
 11
16488.92083873724
 21
98.58356723915461
 31
0.0
 11
16491.39700150131
 21
114.4416782666502
 31
0.0
 11
16494.9188267605
 21
130.1980886480859
 31
0.0
 11
16499.2874012185
 21
145.4452047255849
 31
0.0
 11
16504.17636384643
 21
159.6923584269116
 31
0.0
 11
16509.19364348196
 21
172.4922498243185
 31
0.0
 11
16513.92450749255
 21
183.4362762714935
 31
0.0
 11
16518.01071133927
 21
192.2437830573868
 31
0.0
 11
16521.21913792385
 21
198.8260204461065
 31
0.0
 11
16523.43167408724
 21
203.2194193098082
 31
0.0
  0
SPLINE
  5
18495
330
1F
100
AcDbEntity
  8
0
  6
Continuous
 62
     7
100
AcDbSpline
210
0.0
220
0.0
230
1.0
 70
     8
 71
     3
 72
    14
 73
    10
 74
     8
 42
0.0000000001
 43
0.0000000001
 44
0.0000000001
 12
0.0000035291901445
 22
-0.9999999999937724
 32
0.0
 13
0.2842418759572476
 23
-0.9587526041436888
 33
0.0
 40
0.0
 40
0.0
 40
0.0
 40
0.0
 40
12.69815452556284
 40
23.84569676167038
 40
33.20203895770278
 40
40.62614849130253
 40
46.01534516147729
 40
49.28692213468053
 40
50.38702716254415
 40
50.38702716254415
 40
50.38702716254415
 40
50.38702716254415
 10
16523.43167790194
 20
21.78564149979741
 30
0.0
 10
16523.43169284001
 20
17.55292332463615
 30
0.0
 10
16523.5865036377
 20
9.603182089474792
 30
0.0
 10
16524.26363358212
 20
-1.446692657838765
 30
0.0
 10
16525.245178584
 20
-10.70751696312099
 30
0.0
 10
16526.3754004406
 20
-18.01354640662653
 30
0.0
 10
16527.45943908967
 20
-23.26676385563136
 30
0.0
 10
16528.26437799896
 20
-26.42023575665515
 30
0.0
 10
16528.66719154584
 20
-27.82074686323671
 30
0.0
 10
16528.77142351813
 20
-28.17232305000198
 30
0.0
 11
16523.43167790194
 21
21.78564149979741
 31
0.0
 11
16523.69057522696
 21
9.090126522839227
 31
0.0
 11
16524.38956698622
 21
-2.035479457343853
 31
0.0
 11
16525.39569701878
 21
-11.33756748352562
 31
0.0
 11
16526.54974876146
 21
-18.67143187701526
 31
0.0
 11
16527.65269543061
 21
-23.9465574105775
 31
0.0
 11
16528.46713935649
 21
-27.11513705817856
 31
0.0
 11
16528.77142351813
 21
-28.17232305000198
 31
0.0
  0
SPLINE
  5
18496
330
1F
100
AcDbEntity
  8
0
  6
Continuous
 62
     7
100
AcDbSpline
210
0.0
220
0.0
230
1.0
 70
     8
 71
     3
 72
    14
 73
    10
 74
     8
 42
0.0000000001
 43
0.0000000001
 44
0.0000000001
 12
-0.0000020407945508
 22
-0.9999999999979175
 32
0.0
 13
0.1934463976349519
 23
-0.9811108455429796
 33
0.0
 40
0.0
 40
0.0
 40
0.0
 40
0.0
 40
12.68821659244382
 40
24.00657966300896
 40
33.64039785572754
 40
41.36704307856138
 40
47.01248359195528
 40
50.44728299657219
 40
51.60166640666909
 40
51.60166640666909
 40
51.60166640666909
 40
51.60166640666909
 10
16527.43167761048
 20
24.07767698737428
 30
0.0
 10
16527.43166897914
 20
19.84827145656847
 30
0.0
 10
16527.54511591857
 20
11.84551662636331
 30
0.0
 10
16528.03037195839
 20
0.6410043331884361
 30
0.0
 10
16528.73131546107
 20
-8.894435882387465
 30
0.0
 10
16529.53718530133
 20
-16.52200574436125
 30
0.0
 10
16530.30960205078
 20
-22.07184395651748
 30
0.0
 10
16530.88362592309
 20
-25.43519822573005
 30
0.0
 10
16531.17134482453
 20
-26.93765395498128
 30
0.0
 10
16531.24578192859
 20
-27.31517998283493
 30
0.0
 11
16527.43167761048
 21
24.07767698737428
 31
0.0
 11
16527.61663291553
 21
11.3908085072527
 31
0.0
 11
16528.11591291387
 21
0.0834630150345675
 31
0.0
 11
16528.83453154861
 21
-9.523515710254741
 31
0.0
 11
16529.65888344529
 21
-17.20606023339155
 31
0.0
 11
16530.4467484414
 21
-22.79625408854418
 31
0.0
 11
16531.02851562855
 21
-26.18142674143883
 31
0.0
 11
16531.24578192859
 21
-27.31517998283493
 31
0.0
  0
SPLINE
  5
18497
330
1F
100
AcDbEntity
  8
0
  6
Continuous
 62
     7
100
AcDbSpline
210
0.0
220
0.0
230
1.0
 70
     8
 71
     3
 72
    10
 73
     6
 74
     4
 42
0.0000000001
 43
0.0000000001
 44
0.0000000001
 12
0.5601076913968882
 22
-0.8284198054356549
 32
0.0
 13
0.5548784884329329
 23
-0.8319314052699199
 33
0.0
 40
0.0
 40
0.0
 40
0.0
 40
0.0
 40
0.3826046855748609
 40
1.543559881413974
 40
3.484231255040952
 40
3.484231255040952
 40
3.484231255040952
 40
3.484231255040952
 10
16028.43167761059
 20
360.8276770970756
 30
0.0
 10
16028.50311088631
 20
360.7220246640147
 30
0.0
 10
16028.79114946955
 20
360.2956860558156
 30
0.0
 10
16029.43998153862
 20
359.3324141286164
 30
0.0
 10
16030.01514990628
 20
358.4732950847216
 30
0.0
 10
16030.37409550573
 20
357.9351265970454
 30
0.0
 11
16028.43167761059
 21
360.8276770970756
 31
0.0
 11
16028.6458673542
 21
360.5106453965232
 31
0.0
 11
16029.29444473924
 21
359.547751662843
 31
0.0
 11
16030.37409550573
 21
357.9351265970454
 31
0.0
  0
SPLINE
  5
18498
330
1F
100
AcDbEntity
  8
0
  6
Continuous
 62
     7
100
AcDbSpline
210
0.0
220
0.0
230
1.0
 70
     8
 71
     3
 72
     9
 73
     5
 74
     3
 42
0.0000000001
 43
0.0000000001
 44
0.0000000001
 12
-0.1117947515878096
 22
-0.9937313185753078
 32
0.0
 13
-0.1117581749791924
 23
-0.9937354327613162
 33
0.0
 40
0.0
 40
0.0
 40
0.0
 40
0.0
 40
0.6087380165095393
 40
2.663846392272148
 40
2.663846392272148
 40
2.663846392272148
 40
2.663846392272148
 10
16523.72943558686
 20
205.866440866337
 30
0.0
 10
16523.70675101508
 20
205.664800189066
 30
0.0
 10
16523.60748478331
 20
204.7824174591564
 30
0.0
 10
16523.50822889811
 20
203.9000335651016
 30
0.0
 10
16523.43167051095
 20
203.219288894715
 30
0.0
 11
16523.72943558686
 21
205.866440866337
 31
0.0
 11
16523.66138322694
 21
205.2615186820418
 31
0.0
 11
16523.43167051095
 21
203.219288894715
 31
0.0
  0
SPLINE
  5
18499
330
1F
100
AcDbEntity
  8
0
  6
Continuous
 62
     7
100
AcDbSpline
210
0.0
220
0.0
230
1.0
 70
     8
 71
     3
 72
    11
 73
     7
 74
     5
 42
0.0000000001
 43
0.0000000001
 44
0.0000000001
 12
0.3041867925393234
 22
0.9526124055693577
 32
0.0
 13
0.9963541061689189
 23
0.0853140968441617
 33
0.0
 40
0.0
 40
0.0
 40
0.0
 40
0.0
 40
4.110237614291308
 40
8.439073591341614
 40
12.91544006412976
 40
17.41728411910758
 40
17.41728411910758
 40
17.41728411910758
 40
17.41728411910758
 10
16489.13347494384
 20
-21.00296287222818
 30
0.0
 10
16489.55023494266
 20
-19.69780842515761
 30
0.0
 10
16490.89302107142
 20
-17.15755227204845
 30
0.0
 10
16494.01259282314
 20
-14.10575410502558
 30
0.0
 10
16497.96425187868
 20
-11.97504713752414
 30
0.0
 10
16500.9249654829
 20
-11.30047292591567
 30
0.0
 10
16502.42010908607
 20
-11.17244933935444
 30
0.0
 11
16489.13347494384
 21
-21.00296287222818
 31
0.0
 11
16491.02323971206
 21
-17.35291597297782
 31
0.0
 11
16494.09490449452
 21
-14.3027198513555
 31
0.0
 11
16498.02990503452
 21
-12.16879680941565
 31
0.0
 11
16502.42010908607
 21
-11.17244933935444
 31
0.0
  0
SPLINE
  5
1849A
330
1F
100
AcDbEntity
  8
0
  6
Continuous
 62
     7
100
AcDbSpline
210
0.0
220
0.0
230
1.0
 70
     8
 71
     3
 72
    11
 73
     7
 74
     5
 42
0.0000000001
 43
0.0000000001
 44
0.0000000001
 12
0.554866234379011
 22
-0.8319395783024489
 32
0.0
 13
0.4522774399824737
 23
-0.8918772994548634
 33
0.0
 40
0.0
 40
0.0
 40
0.0
 40
0.0
 40
2.535145176383902
 40
6.287718898559807
 40
11.64310223229291
 40
12.87185793396995
 40
12.87185793396995
 40
12.87185793396995
 40
12.87185793396995
 10
16030.37409550573
 20
357.9351265970454
 30
0.0
 10
16030.84298432494
 20
357.2320973940533
 30
0.0
 10
16031.98853655154
 20
355.4767460254656
 30
0.0
 10
16034.02364547343
 20
352.1714365018715
 30
0.0
 10
16035.70735991603
 20
349.1630668804352
 30
0.0
 10
16036.71291921766
 20
347.2122302089827
 30
0.0
 10
16036.8981653787
 20
346.8469304366822
 30
0.0
 11
16030.37409550573
 21
357.9351265970454
 31
0.0
 11
16031.75917293682
 21
355.8117986489374
 31
0.0
 11
16033.72508390699
 21
352.6153938563993
 31
0.0
 11
16036.33526665676
 21
347.9391692398958
 31
0.0
 11
16036.8981653787
 21
346.8469304366822
 31
0.0
  0
SPLINE
  5
1849B
330
1F
100
AcDbEntity
  8
0
  6
Continuous
 62
     7
100
AcDbSpline
210
0.0
220
0.0
230
1.0
 70
     8
 71
     3
 72
     8
 73
     4
 74
     2
 42
0.0000000001
 43
0.0000000001
 44
0.0000000001
 12
0.4374369824208951
 22
-0.8992490680620701
 32
0.0
 13
0.4253559459950138
 23
-0.9050261428305191
 33
0.0
 40
0.0
 40
0.0
 40
0.0
 40
0.0
 40
1.807314394438492
 40
1.807314394438492
 40
1.807314394438492
 40
1.807314394438492
 10
16044.80722518306
 20
367.5906755270034
 30
0.0
 10
16045.07075390139
 20
367.0489335987054
 30
0.0
 10
16045.33071231719
 20
366.5054394689193
 30
0.0
 10
16045.58696295851
 20
365.9602172104924
 30
0.0
 11
16044.80722518306
 21
367.5906755270034
 31
0.0
 11
16045.58696295851
 21
365.9602172104924
 31
0.0
  0
SPLINE
  5
1849C
330
1F
100
AcDbEntity
  8
0
  6
Continuous
 62
     7
100
AcDbSpline
210
0.0
220
0.0
230
1.0
 70
     8
 71
     3
 72
    10
 73
     6
 74
     4
 42
0.0000000001
 43
0.0000000001
 44
0.0000000001
 12
0.425355947462048
 22
-0.9050261421410233
 32
0.0
 13
0.2899231709856398
 23
-0.9570499229014291
 33
0.0
 40
0.0
 40
0.0
 40
0.0
 40
0.0
 40
4.135744478921889
 40
9.632202460662323
 40
16.7980325993401
 40
16.7980325993401
 40
16.7980325993401
 40
16.7980325993401
 10
16045.58696295851
 20
365.9602172104924
 30
0.0
 10
16046.17335079561
 20
364.7125649202791
 30
0.0
 10
16047.49401453547
 20
361.7853094462583
 30
0.0
 10
16049.59834245912
 20
356.5946826524827
 30
0.0
 10
16050.96561976212
 20
352.5973604057449
 30
0.0
 10
16051.65813316097
 20
350.3113413451629
 30
0.0
 11
16045.58696295851
 21
365.9602172104924
 31
0.0
 11
16047.28642874072
 21
362.1897797756576
 31
0.0
 11
16049.34795924659
 21
357.0945719959454
 31
0.0
 11
16051.65813316097
 21
350.3113413451629
 31
0.0
  0
SPLINE
  5
1849D
330
1F
100
AcDbEntity
  8
0
  6
Continuous
 62
     7
100
AcDbSpline
210
0.0
220
0.0
230
1.0
 70
     8
 71
     3
 72
    11
 73
     7
 74
     5
 42
0.0000000001
 43
0.0000000001
 44
0.0000000001
 12
-0.4660130548531517
 22
-0.884777843702267
 32
0.0
 13
-0.4907839959412747
 23
-0.8712812802579401
 33
0.0
 40
0.0
 40
0.0
 40
0.0
 40
0.0
 40
2.722777875869611
 40
10.11470220926663
 40
14.4973370159804
 40
15.93570881414756
 40
15.93570881414756
 40
15.93570881414756
 40
15.93570881414756
 10
16022.13817733083
 20
104.8182460203449
 30
0.0
 10
16021.71522731896
 20
104.0152281743808
 30
0.0
 10
16020.13634201459
 20
101.036190964849
 30
0.0
 10
16017.83340920335
 20
96.78758347478087
 30
0.0
 10
16015.6951245057
 20
92.93713028640118
 30
0.0
 10
16014.74484901684
 20
91.24541936052393
 30
0.0
 10
16014.50953906392
 20
90.82767721992594
 30
0.0
 11
16022.13817733083
 21
104.8182460203449
 31
0.0
 11
16020.86316809262
 21
102.4124466097976
 31
0.0
 11
16017.34154548943
 21
95.91331439146495
 31
0.0
 11
16015.21397201744
 21
92.08174565656031
 31
0.0
 11
16014.50953906392
 21
90.82767721992594
 31
0.0
  0
SPLINE
  5
1849E
330
1F
100
AcDbEntity
  8
0
  6
Continuous
 62
     7
100
AcDbSpline
210
0.0
220
0.0
230
1.0
 70
     8
 71
     3
 72
     9
 73
     5
 74
     3
 42
0.0000000001
 43
0.0000000001
 44
0.0000000001
 12
-0.0264713213011518
 22
-0.9996495731748058
 32
0.0
 13
-0.1300262135092438
 23
-0.9915105565753945
 33
0.0
 40
0.0
 40
0.0
 40
0.0
 40
0.0
 40
0.2521161122427348
 40
0.5045948895480647
 40
0.5045948895480647
 40
0.5045948895480647
 40
0.5045948895480647
 10
16035.3336978146
 20
370.6565844023757
 30
0.0
 10
16035.33147319906
 20
370.5725751477111
 30
0.0
 10
16035.32263501043
 20
370.4045236024386
 30
0.0
 10
16035.30507921808
 20
370.2371587025577
 30
0.0
 10
16035.29413626495
 20
370.1537135782212
 30
0.0
 11
16035.3336978146
 21
370.6565844023757
 31
0.0
 11
16035.32046509339
 21
370.404815800001
 31
0.0
 11
16035.29413626495
 21
370.1537135782212
 31
0.0
  0
SPLINE
  5
1849F
330
1F
100
AcDbEntity
  8
0
  6
Continuous
 62
     7
100
AcDbSpline
210
0.0
220
0.0
230
1.0
 70
     8
 71
     3
 72
     8
 73
     4
 74
     2
 42
0.0000000001
 43
0.0000000001
 44
0.0000000001
 12
-0.5117782407402568
 22
0.859117589335015
 32
0.0
 13
-0.5131488317911903
 23
0.858299642567406
 33
0.0
 40
0.0
 40
0.0
 40
0.0
 40
0.0
 40
0.9761280536911856
 40
0.9761280536911856
 40
0.9761280536911856
 40
0.9761280536911856
 10
16035.33362843472
 20
370.6565844023757
 30
0.0
 10
16035.1671080687
 20
370.9361206624989
 30
0.0
 10
16035.00036442245
 20
371.2155240345445
 30
0.0
 10
16034.83339809897
 20
371.4947941544056
 30
0.0
 11
16035.33362843472
 21
370.6565844023757
 31
0.0
 11
16034.83339809897
 21
371.4947941544056
 31
0.0
  0
SPLINE
  5
184A0
330
1F
100
AcDbEntity
  8
0
  6
Continuous
 62
     7
100
AcDbSpline
210
0.0
220
0.0
230
1.0
 70
     8
 71
     3
 72
    10
 73
     6
 74
     4
 42
0.0000000001
 43
0.0000000001
 44
0.0000000001
 12
-0.5131488313506655
 22
0.858299642830781
 32
0.0
 13
-0.5168588665513483
 23
0.8560706232941623
 33
0.0
 40
0.0
 40
0.0
 40
0.0
 40
0.0
 40
1.084801943911044
 40
2.31624484793321
 40
2.721611979189977
 40
2.721611979189977
 40
2.721611979189977
 40
2.721611979189977
 10
16034.83339809897
 20
371.4947941544056
 30
0.0
 10
16034.64784314905
 20
371.8051558614059
 30
0.0
 10
16034.25106336049
 20
372.4674824593636
 30
0.0
 10
16033.78337482519
 20
373.2448418764211
 30
0.0
 10
16033.50151704098
 20
373.7120026867411
 30
0.0
 10
16033.43167784232
 20
373.8276769843137
 30
0.0
 11
16034.83339809897
 21
371.4947941544056
 31
0.0
 11
16034.27590933842
 21
372.4253861914308
 31
0.0
 11
16033.64108919599
 21
373.4805899692053
 31
0.0
 11
16033.43167784232
 21
373.8276769843137
 31
0.0
  0
SPLINE
  5
184A1
330
1F
100
AcDbEntity
  8
0
  6
Continuous
 62
     7
100
AcDbSpline
210
0.0
220
0.0
230
1.0
 70
     8
 71
     3
 72
     8
 73
     4
 74
     2
 42
0.0000000001
 43
0.0000000001
 44
0.0000000001
 12
-0.2282316873698079
 22
-0.9736068492365543
 32
0.0
 13
-0.3298717405797906
 23
-0.9440257595886139
 33
0.0
 40
0.0
 40
0.0
 40
0.0
 40
0.0
 40
1.361750835779819
 40
1.361750835779819
 40
1.361750835779819
 40
1.361750835779819
 10
16042.93637084177
 20
368.0950064279964
 30
0.0
 10
16042.83277261143
 20
367.6530697811068
 30
0.0
 10
16042.70565744643
 20
367.2159894899733
 30
0.0
 10
16042.55592307362
 20
366.7874802009342
 30
0.0
 11
16042.93637084177
 21
368.0950064279964
 31
0.0
 11
16042.55592307362
 21
366.7874802009342
 31
0.0
  0
SPLINE
  5
184A2
330
1F
100
AcDbEntity
  8
0
  6
Continuous
 62
     7
100
AcDbSpline
210
0.0
220
0.0
230
1.0
 70
     8
 71
     3
 72
    11
 73
     7
 74
     5
 42
0.0000000001
 43
0.0000000001
 44
0.0000000001
 12
-0.3298717372035234
 22
-0.9440257607683857
 32
0.0
 13
-0.9996675757383709
 23
-0.0257825137907232
 33
0.0
 40
0.0
 40
0.0
 40
0.0
 40
0.0
 40
3.969034167798803
 40
7.962801910739401
 40
11.96240857139212
 40
15.94681622483773
 40
15.94681622483773
 40
15.94681622483773
 40
15.94681622483773
 10
16042.55592307362
 20
366.7874802009342
 30
0.0
 10
16042.1194990083
 20
365.5385233676768
 30
0.0
 10
16040.84597674242
 20
363.1542498014309
 30
0.0
 10
16037.96304118223
 20
360.3160168810557
 30
0.0
 10
16034.36836446877
 20
358.4488797639435
 30
0.0
 10
16031.70178917036
 20
357.9693690403844
 30
0.0
 10
16030.37409479047
 20
357.9351263586268
 30
0.0
 11
16042.55592307362
 21
366.7874802009342
 31
0.0
 11
16040.68955601289
 21
363.2846376095817
 31
0.0
 11
16037.8464938684
 21
360.4797885179028
 31
0.0
 11
16034.29592626708
 21
358.6385055009696
 31
0.0
 11
16030.37409479047
 21
357.9351263586268
 31
0.0
  0
SPLINE
  5
184A3
330
1F
100
AcDbEntity
  8
0
  6
Continuous
 62
     7
100
AcDbSpline
210
0.0
220
0.0
230
1.0
 70
     8
 71
     3
 72
     9
 73
     5
 74
     3
 42
0.0000000001
 43
0.0000000001
 44
0.0000000001
 12
-0.3270894176307738
 22
-0.9449933930319096
 32
0.0
 13
-0.6157214158397452
 23
-0.7879639192731477
 33
0.0
 40
0.0
 40
0.0
 40
0.0
 40
0.0
 40
3.777486358477621
 40
3.998963505174307
 40
3.998963505174307
 40
3.998963505174307
 40
3.998963505174307
 10
16051.65887845819
 20
350.3096457105325
 30
0.0
 10
16051.24701985382
 20
349.119745826856
 30
0.0
 10
16050.58861985193
 20
347.923865344119
 30
0.0
 10
16049.77696587134
 20
346.8670367268754
 30
0.0
 10
16049.73150979723
 20
346.8088647266952
 30
0.0
 11
16051.65887845819
 21
350.3096457105325
 31
0.0
 11
16049.86640048846
 21
346.9845252741395
 31
0.0
 11
16049.73150979723
 21
346.8088647266952
 31
0.0
  0
SPLINE
  5
184A4
330
1F
100
AcDbEntity
  8
0
  6
Continuous
 62
     7
100
AcDbSpline
210
0.0
220
0.0
230
1.0
 70
     8
 71
     3
 72
     8
 73
     4
 74
     2
 42
0.0000000001
 43
0.0000000001
 44
0.0000000001
 12
0.3387127903745025
 22
-0.9408898158853236
 32
0.0
 13
0.3306005321375933
 23
-0.9437707815726975
 33
0.0
 40
0.0
 40
0.0
 40
0.0
 40
0.0
 40
3.682897896950259
 40
3.682897896950259
 40
3.682897896950259
 40
3.682897896950259
 10
16051.65827573542
 20
350.3112173673776
 30
0.0
 10
16052.07409060986
 20
349.1561503259823
 30
0.0
 10
16052.48500234354
 20
347.999305792379
 30
0.0
 10
16052.89085834506
 20
346.8407019834933
 30
0.0
 11
16051.65827573542
 21
350.3112173673776
 31
0.0
 11
16052.89085834506
 21
346.8407019834933
 31
0.0
  0
SPLINE
  5
184A5
330
1F
100
AcDbEntity
  8
0
  6
Continuous
 62
     7
100
AcDbSpline
210
0.0
220
0.0
230
1.0
 70
     8
 71
     3
 72
    12
 73
     8
 74
     6
 42
0.0000000001
 43
0.0000000001
 44
0.0000000001
 12
-0.3984007134499654
 22
-0.9172114649973357
 32
0.0
 13
-0.4400429733171965
 23
-0.8979767155300638
 33
0.0
 40
0.0
 40
0.0
 40
0.0
 40
0.0
 40
6.367882227701691
 40
16.27016560248329
 40
23.25413257029858
 40
27.39389048015947
 40
28.75253381976633
 40
28.75253381976633
 40
28.75253381976633
 40
28.75253381976633
 10
16039.55684704592
 20
104.8131705605574
 30
0.0
 10
16038.71119077169
 20
102.8662723648905
 30
0.0
 10
16036.52230730967
 20
97.90409528007865
 30
0.0
 10
16033.29626876372
 20
90.85553336519438
 30
0.0
 10
16030.29551668419
 20
84.52160491055286
 30
0.0
 10
16028.48288510263
 20
80.77637405447132
 30
0.0
 10
16027.6779508659
 20
79.12978930227767
 30
0.0
 10
16027.47866371429
 20
78.72311260771869
 30
0.0
 11
16039.55684704592
 21
104.8131705605574
 31
0.0
 11
16036.98734498372
 21
98.98671510134079
 31
0.0
 11
16032.86826270522
 21
89.98180659445166
 31
0.0
 11
16029.87864355992
 21
83.67007371246314
 31
0.0
 11
16028.07535019737
 21
79.94371777121944
 31
0.0
 11
16027.47866371429
 21
78.72311260771869
 31
0.0
  0
SPLINE
  5
184A6
330
1F
100
AcDbEntity
  8
0
  6
Continuous
 62
     7
100
AcDbSpline
210
0.0
220
0.0
230
1.0
 70
     8
 71
     3
 72
    12
 73
     8
 74
     6
 42
0.0000000001
 43
0.0000000001
 44
0.0000000001
 12
0.5751423416053305
 22
0.8180533521065342
 32
0.0
 13
-0.6267557380659651
 23
0.7792157883419634
 33
0.0
 40
0.0
 40
0.0
 40
0.0
 40
0.0
 40
0.2608053307329833
 40
1.08356297482009
 40
2.624237076995741
 40
5.444940596389731
 40
9.737675408336716
 40
9.737675408336716
 40
9.737675408336716
 40
9.737675408336716
 10
16492.0019565874
 20
-29.78770757519351
 30
0.0
 10
16492.05195665027
 20
-29.71659001684239
 30
0.0
 10
16492.24260006869
 20
-29.40901127836618
 30
0.0
 10
16492.53535075187
 20
-28.56836505865779
 30
0.0
 10
16492.4612759507
 20
-26.80048205738447
 30
0.0
 10
16491.38205417761
 20
-24.08381548858673
 30
0.0
 10
16490.02952665751
 20
-22.11674943967617
 30
0.0
 10
16489.13269459905
 20
-21.00176052613142
 30
0.0
 11
16492.0019565874
 21
-29.78770757519351
 31
0.0
 11
16492.13968780042
 21
-29.56623628247462
 31
0.0
 11
16492.41921812833
 21
-28.79241916151978
 31
0.0
 11
16492.41947132911
 21
-27.25174508015016
 31
0.0
 11
16491.49244150764
 21
-24.58772855347047
 31
0.0
 11
16489.13269459905
 21
-21.00176052613142
 31
0.0
  0
SPLINE
  5
184A7
330
1F
100
AcDbEntity
  8
0
  6
Continuous
 62
     7
100
AcDbSpline
210
0.0
220
0.0
230
1.0
 70
     8
 71
     3
 72
     9
 73
     5
 74
     3
 42
0.0000000001
 43
0.0000000001
 44
0.0000000001
 12
0.9999999999992542
 22
0.0000012211920639
 32
0.0
 13
0.7149807081666605
 23
-0.699144181803368
 33
0.0
 40
0.0
 40
0.0
 40
0.0
 40
0.0
 40
1.559421993010698
 40
3.109502421798307
 40
3.109502421798307
 40
3.109502421798307
 40
3.109502421798307
 10
16523.43167790194
 20
203.2194200250647
 30
0.0
 10
16523.95148523294
 20
203.2194206598493
 30
0.0
 10
16524.99792559092
 20
203.0184983691989
 30
0.0
 10
16525.89069695959
 20
202.4351943590989
 30
0.0
 10
16526.26012282715
 20
202.0739511213942
 30
0.0
 11
16523.43167790194
 21
203.2194200250647
 31
0.0
 11
16524.96242088588
 21
202.9217240906135
 31
0.0
 11
16526.26012282715
 21
202.0739511213942
 31
0.0
  0
SPLINE
  5
184A8
330
1F
100
AcDbEntity
  8
0
  6
Continuous
 62
     7
100
AcDbSpline
210
0.0
220
0.0
230
1.0
 70
     8
 71
     3
 72
     8
 73
     4
 74
     2
 42
0.0000000001
 43
0.0000000001
 44
0.0000000001
 12
0.7149807082999385
 22
-0.6991441816670711
 32
0.0
 13
0.3894769527998925
 23
-0.9210362116864409
 33
0.0
 40
0.0
 40
0.0
 40
0.0
 40
0.0
 40
1.536768371328808
 40
1.536768371328808
 40
1.536768371328808
 40
1.536768371328808
 10
16526.26012282715
 20
202.0739511213942
 30
0.0
 10
16526.62637607336
 20
201.7158102329327
 30
0.0
 10
16526.92770053482
 20
201.2769736765793
 30
0.0
 10
16527.12721248896
 20
200.8051672369232
 30
0.0
 11
16526.26012282715
 21
202.0739511213942
 31
0.0
 11
16527.12721248896
 21
200.8051672369232
 31
0.0
  0
SPLINE
  5
184A9
330
1F
100
AcDbEntity
  8
0
  6
Continuous
 62
     7
100
AcDbSpline
210
0.0
220
0.0
230
1.0
 70
     8
 71
     3
 72
     8
 73
     4
 74
     2
 42
0.0000000001
 43
0.0000000001
 44
0.0000000001
 12
0.3894769554353435
 22
-0.9210362105719925
 32
0.0
 13
0.0000004739968528
 23
-0.9999999999998877
 33
0.0
 40
0.0
 40
0.0
 40
0.0
 40
0.0
 40
1.52722526872019
 40
1.52722526872019
 40
1.52722526872019
 40
1.52722526872019
 10
16527.12721248896
 20
200.8051672369232
 30
0.0
 10
16527.32548550494
 20
200.336290645526
 30
0.0
 10
16527.43167736918
 20
199.8176735805998
 30
0.0
 10
16527.43167761048
 20
199.3085984910265
 30
0.0
 11
16527.12721248896
 21
200.8051672369232
 31
0.0
 11
16527.43167761048
 21
199.3085984910265
 31
0.0
  0
SPLINE
  5
184AA
330
1F
100
AcDbEntity
  8
0
  6
Continuous
 62
     7
100
AcDbSpline
210
0.0
220
0.0
230
1.0
 70
     8
 71
     3
 72
    26
 73
    22
 74
    20
 42
0.0000000001
 43
0.0000000001
 44
0.0000000001
 12
-0.2842460842313903
 22
0.9587513565044492
 32
0.0
 13
0.4025497883852357
 23
0.9153980925646514
 33
0.0
 40
0.0
 40
0.0
 40
0.0
 40
0.0
 40
10.88248164257066
 40
23.60558867227592
 40
37.78119017658094
 40
53.02867585189057
 40
69.04143499451871
 40
85.59980273537943
 40
102.5366439067748
 40
119.7175990573946
 40
137.0514820594409
 40
154.4447023296565
 40
171.5869371851359
 40
187.9624490953298
 40
203.0479309057865
 40
216.3301369586962
 40
227.354904042338
 40
235.9220539176258
 40
242.0002724938652
 40
245.6140050702072
 40
246.8023212076413
 40
246.8023212076413
 40
246.8023212076413
 40
246.8023212076413
 10
16489.13322651143
 20
-21.00105862113264
 30
0.0
 10
16488.10212558022
 20
-17.52319394214951
 30
0.0
 10
16485.96946377412
 20
-9.947942435663929
 30
0.0
 10
16482.94468016479
 20
2.279809791392748
 30
0.0
 10
16480.10411306657
 20
16.04269756706472
 30
0.0
 10
16477.71929538319
 20
31.00506966131824
 30
0.0
 10
16476.01770558267
 20
46.86120860065694
 30
0.0
 10
16475.16870292776
 20
63.35102145367315
 30
0.0
 10
16475.28324327057
 20
80.2525038832295
 30
0.0
 10
16476.41230385394
 20
97.37578226608668
 30
0.0
 10
16478.55018340171
 20
114.5552894282549
 30
0.0
 10
16481.63145142232
 20
131.5766826001243
 30
0.0
 10
16485.50377007339
 20
148.1061436457513
 30
0.0
 10
16489.91035785348
 20
163.7013897666569
 30
0.0
 10
16494.51605071134
 20
177.8900476418224
 30
0.0
 10
16498.96170706188
 20
190.2472180830773
 30
0.0
 10
16502.92432356604
 20
200.4645876673039
 30
0.0
 10
16506.16488566583
 20
208.384302525197
 30
0.0
 10
16508.5419819528
 20
213.9873924505171
 30
0.0
 10
16509.98598591696
 20
217.3143081407643
 30
0.0
 10
16510.62896742485
 20
218.7801740545631
 30
0.0
 10
16510.7884195614
 20
219.1427681630868
 30
0.0
 11
16489.13322651143
 21
-21.00105862113264
 31
0.0
 11
16486.18735602705
 21
-10.52488308851889
 31
0.0
 11
16483.13717182637
 21
1.827194827008042
 31
0.0
 11
16480.2781875964
 21
15.71149845310538
 31
0.0
 11
16477.88517458704
 21
30.77002786854905
 31
0.0
 11
16476.18224934778
 21
46.69197815704421
 31
0.0
 11
16475.33406868238
 21
63.22860815836031
 31
0.0
 11
16475.44818999516
 21
80.16506484773435
 31
0.0
 11
16476.57351179349
 21
97.30912710665677
 31
0.0
 11
16478.70536869796
 21
114.5114143402634
 31
0.0
 11
16481.79226605868
 21
131.6285161993
 31
0.0
 11
16485.69012261583
 21
148.3217163149226
 31
0.0
 11
16490.13191501586
 21
164.0833111135453
 31
0.0
 11
16494.78124837394
 21
178.4344595267941
 31
0.0
 11
16499.2722377817
 21
190.9343799973931
 31
0.0
 11
16503.25592153689
 21
201.2142512508281
 31
0.0
 11
16506.49887211992
 21
209.1438999505938
 31
0.0
 11
16508.87247283074
 21
214.7395018597842
 31
0.0
 11
16510.3110895915
 21
218.0545350344265
 31
0.0
 11
16510.7884195614
 21
219.1427681630868
 31
0.0
  0
SPLINE
  5
184AB
330
1F
100
AcDbEntity
  8
0
  6
Continuous
 62
     7
100
AcDbSpline
210
0.0
220
0.0
230
1.0
 70
     8
 71
     3
 72
    11
 73
     7
 74
     5
 42
0.0000000001
 43
0.0000000001
 44
0.0000000001
 12
0.9999999999456628
 22
-0.000010424718629
 32
0.0
 13
0.0
 23
1.0
 33
0.0
 40
0.0
 40
0.0
 40
0.0
 40
0.0
 40
1.540688941874759
 40
2.930262481955703
 40
4.072512169524891
 40
5.000950050769207
 40
5.000950050769207
 40
5.000950050769207
 40
5.000950050769207
 10
16523.43167790194
 20
21.78564149979741
 30
0.0
 10
16523.94524088253
 20
21.78563614604783
 30
0.0
 10
16524.92673784245
 20
21.891022926189
 30
0.0
 10
16526.21593695474
 20
22.35749708970156
 30
0.0
 10
16527.1567459517
 20
23.07666932783972
 30
0.0
 10
16527.43167761048
 20
23.76819769362617
 30
0.0
 10
16527.43167761048
 20
24.07767698737428
 30
0.0
 11
16523.43167790194
 21
21.78564149979741
 31
0.0
 11
16524.96245641029
 21
21.96011090682941
 31
0.0
 11
16526.26016097416
 21
22.45697858357755
 31
0.0
 11
16527.12722226414
 21
23.20057731150519
 31
0.0
 11
16527.43167761048
 21
24.07767698737428
 31
0.0
  0
LINE
  5
184B8
330
1F
100
AcDbEntity
  8
7A
100
AcDbLine
 10
15950.50376038949
 20
229.5676617095561
 30
0.0
 11
16121.94911931702
 21
229.5676617095561
 31
0.0
  0
ENDSEC
  0
SECTION
  2
OBJECTS
  0
DICTIONARY
  5
C
330
0
100
AcDbDictionary
281
     1
  3
ACAD_COLOR
350
BE
  3
ACAD_GROUP
350
D
  3
ACAD_LAYOUT
350
1A
  3
ACAD_MATERIAL
350
BD
  3
ACAD_MLINESTYLE
350
17
  3
ACAD_PLOTSETTINGS
350
19
  3
ACAD_PLOTSTYLENAME
350
E
  3
ACAD_TABLESTYLE
350
11A
  3
ACDBHEADERROUNDTRIPXREC
350
18658
  3
AcDbVariableDictionary
350
94
  3
AcmDictionary
350
5B
  3
AMG
350
41
  3
AMGSNAPSETTINGS
350
26B
  3
DWGPROPS
350
18657
  0
DICTIONARY
  5
5E1
330
2
100
AcDbDictionary
280
     1
281
     1
  3
ACAD_LAYERFILTERS
360
10B7F
  3
ACAD_LAYERSTATES
360
5E2
  3
ACLYDICTIONARY
360
10B7E
  0
DICTIONARY
  5
8F
330
1F
100
AcDbDictionary
280
     1
281
     1
  3
ACAD_SORTENTS
360
9429
  0
DICTIONARY
  5
10117
330
87
100
AcDbDictionary
280
     1
281
     1
  0
DICTIONARY
  5
BE
102
{ACAD_REACTORS
330
C
102
}
330
C
100
AcDbDictionary
281
     1
  0
DICTIONARY
  5
D
102
{ACAD_REACTORS
330
C
102
}
330
C
100
AcDbDictionary
281
     1
  0
DICTIONARY
  5
1A
102
{ACAD_REACTORS
330
C
102
}
330
C
100
AcDbDictionary
281
     1
  3
Layout1
350
1E
  3
Layout2
350
26
  3
Model
350
22
  0
DICTIONARY
  5
BD
102
{ACAD_REACTORS
330
C
102
}
330
C
100
AcDbDictionary
281
     1
  0
DICTIONARY
  5
17
102
{ACAD_REACTORS
330
C
102
}
330
C
100
AcDbDictionary
281
     1
  3
Standard
350
18
  0
DICTIONARY
  5
19
102
{ACAD_REACTORS
330
C
102
}
330
C
100
AcDbDictionary
281
     1
  0
ACDBDICTIONARYWDFLT
  5
E
102
{ACAD_REACTORS
330
C
102
}
330
C
100
AcDbDictionary
281
     1
  3
Normal
350
F
100
AcDbDictionaryWithDefault
340
F
  0
DICTIONARY
  5
11A
102
{ACAD_REACTORS
330
C
102
}
330
C
100
AcDbDictionary
281
     1
  3
Standard
350
11B
  0
DICTIONARY
  5
18658
102
{ACAD_REACTORS
330
C
102
}
330
C
100
AcDbDictionary
281
     1
  0
DICTIONARY
  5
94
102
{ACAD_REACTORS
330
C
102
}
330
C
100
AcDbDictionary
281
     1
  3
CTABLESTYLE
350
138
  3
DIMASSOC
350
96
  3
INDEXCTL
350
95
  3
PROJECTNAME
350
B168
  0
DICTIONARY
  5
5B
102
{ACAD_REACTORS
330
C
102
}
330
C
100
AcDbDictionary
281
     1
  3
AcmBOM
350
272
  3
AcmStdDictionary
350
61
  3
AMDTSECTSYM_ARROWCOLOR
350
123
  0
DICTIONARY
  5
41
102
{ACAD_REACTORS
330
C
102
}
330
C
100
AcDbDictionary
281
     1
  0
DICTIONARY
  5
26B
102
{ACAD_REACTORS
330
C
102
}
330
C
100
AcDbDictionary
281
     1
  0
XRECORD
  5
18657
102
{ACAD_REACTORS
330
C
102
}
330
C
100
AcDbXrecord
280
     1
  1
DWGPROPS COOKIE
  2

  3

  4

  6

  7

  8

  9

300
AmdtFileType=84
301
=
302
=
303
=
304
=
305
=
306
=
307
=
308
=
309
=
 40
0.8020608217592592
 41
2454167.418644826
 42
2454666.43109103
  1

 90
        1
  0
DICTIONARY
  5
10B7F
102
{ACAD_REACTORS
330
5E1
102
}
330
5E1
100
AcDbDictionary
281
     1
  0
DICTIONARY
  5
5E2
102
{ACAD_REACTORS
330
5E1
102
}
330
5E1
100
AcDbDictionary
281
     1
  0
DICTIONARY
  5
10B7E
102
{ACAD_REACTORS
330
5E1
102
}
330
5E1
100
AcDbDictionary
281
     1
1001
ACAD
1000
<All
  0
SORTENTSTABLE
  5
9429
102
{ACAD_REACTORS
330
8F
102
}
330
8F
100
AcDbSortentsTable
330
1F
331
15ABD
  5
15AD6
331
15ABB
  5
15AD5
331
16671
  5
1686A
331
15ABA
  5
15AD4
331
15AB9
  5
15AD3
331
10BB3
  5
15A01
331
10BBC
  5
15A03
331
15AB8
  5
15AD2
331
10BB2
  5
15A00
331
10BBB
  5
15A02
  0
LAYOUT
  5
1E
102
{ACAD_XDICTIONARY
360
18659
102
}
102
{ACAD_REACTORS
330
1A
102
}
330
1A
100
AcDbPlotSettings
  1

  2

  4

  6

 40
0.0
 41
0.0
 42
0.0
 43
0.0
 44
0.0
 45
0.0
 46
0.0
 47
0.0
 48
0.0
 49
0.0
140
0.0
141
0.0
142
1.0
143
1.0
 70
   688
 72
     0
 73
     0
 74
     5
  7
monochrome uw.ctb
 75
    16
147
1.0
148
0.0
149
0.0
100
AcDbLayout
  1
Layout1
 70
     1
 71
     1
 10
0.0
 20
0.0
 11
420.0
 21
297.0
 12
0.0
 22
0.0
 32
0.0
 14
1.000000000000000E+20
 24
1.000000000000000E+20
 34
1.000000000000000E+20
 15
-1.000000000000000E+20
 25
-1.000000000000000E+20
 35
-1.000000000000000E+20
146
0.0
 13
0.0
 23
0.0
 33
0.0
 16
1.0
 26
0.0
 36
0.0
 17
0.0
 27
1.0
 37
0.0
 76
     0
330
1B
  0
LAYOUT
  5
26
102
{ACAD_XDICTIONARY
360
1865D
102
}
102
{ACAD_REACTORS
330
1A
102
}
330
1A
100
AcDbPlotSettings
  1

  2

  4

  6

 40
0.0
 41
0.0
 42
0.0
 43
0.0
 44
0.0
 45
0.0
 46
0.0
 47
0.0
 48
0.0
 49
0.0
140
0.0
141
0.0
142
1.0
143
1.0
 70
   688
 72
     0
 73
     0
 74
     5
  7
monochrome uw.ctb
 75
    16
147
1.0
148
0.0
149
0.0
100
AcDbLayout
  1
Layout2
 70
     1
 71
     2
 10
0.0
 20
0.0
 11
12.0
 21
9.0
 12
0.0
 22
0.0
 32
0.0
 14
0.0
 24
0.0
 34
0.0
 15
0.0
 25
0.0
 35
0.0
146
0.0
 13
0.0
 23
0.0
 33
0.0
 16
1.0
 26
0.0
 36
0.0
 17
0.0
 27
1.0
 37
0.0
 76
     0
330
23
  0
LAYOUT
  5
22
102
{ACAD_XDICTIONARY
360
1865B
102
}
102
{ACAD_REACTORS
330
1A
102
}
330
1A
100
AcDbPlotSettings
  1

  2
Adobe PDF
  4
A4
  6

 40
3.174999952316284
 41
3.174999952316284
 42
3.175003051757812
 43
3.17498779296875
 44
209.9733276367187
 45
297.0318298339844
 46
-0.0000000000000142
 47
78.97617299601188
 48
10891.18827994032
 49
2118.525542180123
140
12323.87549195795
141
3052.406039703264
142
1.0
143
7.035968077833545
 70
 11956
 72
     1
 73
     0
 74
     4
  7
monochrome uw.ctb
 75
     0
147
0.1421268528989562
148
-10891.18827994032
149
-2118.525542180123
100
AcDbLayout
  1
Model
 70
     1
 71
     0
 10
0.0
 20
0.0
 11
12.0
 21
9.0
 12
0.0
 22
0.0
 32
0.0
 14
0.0
 24
0.0
 34
0.0
 15
0.0
 25
0.0
 35
0.0
146
0.0
 13
0.0
 23
0.0
 33
0.0
 16
1.0
 26
0.0
 36
0.0
 17
0.0
 27
1.0
 37
0.0
 76
     0
330
1F
1001
ACAD_PSEXT
1000
Adobe PDF
1000
Adobe PDF Converter
1000
Eigene Dateien
1000

1070
     0
  0
MLINESTYLE
  5
18
102
{ACAD_REACTORS
330
17
102
}
330
17
100
AcDbMlineStyle
  2
STANDARD
 70
     0
  3

 62
   256
 51
90.0
 52
90.0
 71
     2
 49
0.5
 62
   256
  6
BYLAYER
 49
-0.5
 62
   256
  6
BYLAYER
  0
ACDBPLACEHOLDER
  5
F
102
{ACAD_REACTORS
330
E
102
}
330
E
  0
TABLESTYLE
  5
11B
102
{ACAD_REACTORS
330
11A
102
}
330
11A
100
AcDbTableStyle
  3
Standard
 70
     0
 71
     0
 40
1.5
 41
1.5
280
     0
281
     0
  7
STANDARD
140
4.5
170
     2
 62
     0
 63
     7
283
     0
274
    -2
284
     1
 64
     0
275
    -2
285
     1
 65
     0
276
    -2
286
     1
 66
     0
277
    -2
287
     1
 67
     0
278
    -2
288
     1
 68
     0
279
    -2
289
     1
 69
     0
  7
STANDARD
140
6.0
170
     5
 62
     0
 63
     7
283
     0
274
    -2
284
     1
 64
     0
275
    -2
285
     1
 65
     0
276
    -2
286
     1
 66
     0
277
    -2
287
     1
 67
     0
278
    -2
288
     1
 68
     0
279
    -2
289
     1
 69
     0
  7
STANDARD
140
4.5
170
     5
 62
     0
 63
     7
283
     0
274
    -2
284
     1
 64
     0
275
    -2
285
     1
 65
     0
276
    -2
286
     1
 66
     0
277
    -2
287
     1
 67
     0
278
    -2
288
     1
 68
     0
279
    -2
289
     1
 69
     0
  0
DICTIONARYVAR
  5
138
102
{ACAD_REACTORS
330
94
102
}
330
94
100
DictionaryVariables
280
     0
  1
STANDARD
  0
DICTIONARYVAR
  5
96
102
{ACAD_REACTORS
330
94
102
}
330
94
100
DictionaryVariables
280
     0
  1
2
  0
DICTIONARYVAR
  5
95
102
{ACAD_REACTORS
330
94
102
}
330
94
100
DictionaryVariables
280
     0
  1
0
  0
DICTIONARYVAR
  5
B168
102
{ACAD_REACTORS
330
94
102
}
330
94
100
DictionaryVariables
280
     0
  1

  0
DICTIONARY
  5
272
102
{ACAD_REACTORS
330
5B
102
}
330
5B
100
AcDbDictionary
281
     1
  0
DICTIONARY
  5
61
102
{ACAD_REACTORS
330
5B
102
}
330
5B
100
AcDbDictionary
281
     1
  0
XRECORD
  5
123
102
{ACAD_REACTORS
330
5B
102
}
330
5B
100
AcDbXrecord
280
     1
 90
-1023410169
  0
DICTIONARY
  5
18659
330
1E
100
AcDbDictionary
280
     1
281
     1
  3
ACAD_XREC_ROUNDTRIP
360
1865A
  0
DICTIONARY
  5
1865D
330
26
100
AcDbDictionary
280
     1
281
     1
  3
ACAD_XREC_ROUNDTRIP
360
1865E
  0
DICTIONARY
  5
1865B
330
22
100
AcDbDictionary
280
     1
281
     1
  3
ACAD_XREC_ROUNDTRIP
360
1865C
  0
XRECORD
  5
1865A
102
{ACAD_REACTORS
330
18659
102
}
330
18659
100
AcDbXrecord
280
     1
102
SHADEPLOT
 70
     0
102
SHADEPLOTRESLEVEL
 70
     2
102
SHADEPLOTCUSTOMDPI
 70
   300
  0
XRECORD
  5
1865E
102
{ACAD_REACTORS
330
1865D
102
}
330
1865D
100
AcDbXrecord
280
     1
102
SHADEPLOT
 70
     0
102
SHADEPLOTRESLEVEL
 70
     2
102
SHADEPLOTCUSTOMDPI
 70
   300
  0
XRECORD
  5
1865C
102
{ACAD_REACTORS
330
1865B
102
}
330
1865B
100
AcDbXrecord
280
     1
102
SHADEPLOT
 70
     0
102
SHADEPLOTRESLEVEL
 70
     2
102
SHADEPLOTCUSTOMDPI
 70
   300
  0
ENDSEC
  0
EOF
