  0
SECTION
  2
HEADER
  9
$ACADVER
  1
AC1015
  9
$ACADMAINTVER
 70
    20
  9
$DWGCODEPAGE
  3
ANSI_1252
  9
$INSBASE
 10
0.0
 20
0.0
 30
0.0
  9
$EXTMIN
 10
16820.22877329889
 20
-1447.085838600067
 30
0.0
  9
$EXTMAX
 10
17806.67012797153
 20
-337.6140561409578
 30
0.0
  9
$LIMMIN
 10
0.0
 20
0.0
  9
$LIMMAX
 10
420.0
 20
297.0
  9
$ORTHOMODE
 70
     0
  9
$REGENMODE
 70
     1
  9
$FILLMODE
 70
     1
  9
$QTEXTMODE
 70
     0
  9
$MIRRTEXT
 70
     1
  9
$LTSCALE
 40
8.0
  9
$ATTMODE
 70
     1
  9
$TEXTSIZE
 40
2.5
  9
$TRACEWID
 40
1.0
  9
$TEXTSTYLE
  7
STANDARD
  9
$CLAYER
  8
0
  9
$CELTYPE
  6
ByLayer
  9
$CECOLOR
 62
   256
  9
$CELTSCALE
 40
1.0
  9
$DISPSILH
 70
     0
  9
$DIMSCALE
 40
1.0
  9
$DIMASZ
 40
65.0
  9
$DIMEXO
 40
1.0
  9
$DIMDLI
 40
10.0
  9
$DIMRND
 40
0.0
  9
$DIMDLE
 40
0.0
  9
$DIMEXE
 40
25.0
  9
$DIMTP
 40
0.1
  9
$DIMTM
 40
0.1
  9
$DIMTXT
 40
50.0
  9
$DIMCEN
 40
0.0
  9
$DIMTSZ
 40
0.0
  9
$DIMTOL
 70
     0
  9
$DIMLIM
 70
     0
  9
$DIMTIH
 70
     0
  9
$DIMTOH
 70
     0
  9
$DIMSE1
 70
     0
  9
$DIMSE2
 70
     0
  9
$DIMTAD
 70
     1
  9
$DIMZIN
 70
     8
  9
$DIMBLK
  1

  9
$DIMASO
 70
     1
  9
$DIMSHO
 70
     1
  9
$DIMPOST
  1

  9
$DIMAPOST
  1
"
  9
$DIMALT
 70
     0
  9
$DIMALTD
 70
     2
  9
$DIMALTF
 40
0.0393701
  9
$DIMLFAC
 40
1.0
  9
$DIMTOFL
 70
     1
  9
$DIMTVP
 40
0.0
  9
$DIMTIX
 70
     0
  9
$DIMSOXD
 70
     0
  9
$DIMSAH
 70
     0
  9
$DIMBLK1
  1

  9
$DIMBLK2
  1

  9
$DIMSTYLE
  2
AM_DIN
  9
$DIMCLRD
 70
   256
  9
$DIMCLRE
 70
   256
  9
$DIMCLRT
 70
     2
  9
$DIMTFAC
 40
0.71
  9
$DIMGAP
 40
15.0
  9
$DIMJUST
 70
     0
  9
$DIMSD1
 70
     0
  9
$DIMSD2
 70
     0
  9
$DIMTOLJ
 70
     0
  9
$DIMTZIN
 70
     8
  9
$DIMALTZ
 70
     0
  9
$DIMALTTZ
 70
     0
  9
$DIMUPT
 70
     0
  9
$DIMDEC
 70
     0
  9
$DIMTDEC
 70
     0
  9
$DIMALTU
 70
     2
  9
$DIMALTTD
 70
     2
  9
$DIMTXSTY
  7
STANDARD
  9
$DIMAUNIT
 70
     0
  9
$DIMADEC
 70
     0
  9
$DIMALTRND
 40
0.0
  9
$DIMAZIN
 70
     2
  9
$DIMDSEP
 70
    46
  9
$DIMATFIT
 70
     3
  9
$DIMFRAC
 70
     0
  9
$DIMLDRBLK
  1

  9
$DIMLUNIT
 70
     2
  9
$DIMLWD
 70
    -1
  9
$DIMLWE
 70
    -1
  9
$DIMTMOVE
 70
     0
  9
$LUNITS
 70
     2
  9
$LUPREC
 70
     2
  9
$SKETCHINC
 40
1.0
  9
$FILLETRAD
 40
2.5
  9
$AUNITS
 70
     0
  9
$AUPREC
 70
     0
  9
$MENU
  1
.
  9
$ELEVATION
 40
0.0
  9
$PELEVATION
 40
0.0
  9
$THICKNESS
 40
0.0
  9
$LIMCHECK
 70
     0
  9
$CHAMFERA
 40
2.5
  9
$CHAMFERB
 40
2.5
  9
$CHAMFERC
 40
20.0
  9
$CHAMFERD
 40
0.0
  9
$SKPOLY
 70
     0
  9
$TDCREATE
 40
2454167.418644826
  9
$TDUCREATE
 40
2454167.335311493
  9
$TDUPDATE
 40
2454666.431840637
  9
$TDUUPDATE
 40
2454666.348507303
  9
$TDINDWG
 40
0.8055840394
  9
$TDUSRTIMER
 40
0.8054242477
  9
$USRTIMER
 70
     1
  9
$ANGBASE
 50
0.0
  9
$ANGDIR
 70
     0
  9
$PDMODE
 70
     0
  9
$PDSIZE
 40
0.0
  9
$PLINEWID
 40
0.0
  9
$SPLFRAME
 70
     0
  9
$SPLINETYPE
 70
     6
  9
$SPLINESEGS
 70
     8
  9
$HANDSEED
  5
18F5B
  9
$SURFTAB1
 70
     6
  9
$SURFTAB2
 70
     6
  9
$SURFTYPE
 70
     6
  9
$SURFU
 70
     6
  9
$SURFV
 70
     6
  9
$UCSBASE
  2

  9
$UCSNAME
  2

  9
$UCSORG
 10
0.0
 20
0.0
 30
0.0
  9
$UCSXDIR
 10
1.0
 20
0.0
 30
0.0
  9
$UCSYDIR
 10
0.0
 20
1.0
 30
0.0
  9
$UCSORTHOREF
  2

  9
$UCSORTHOVIEW
 70
     0
  9
$UCSORGTOP
 10
0.0
 20
0.0
 30
0.0
  9
$UCSORGBOTTOM
 10
0.0
 20
0.0
 30
0.0
  9
$UCSORGLEFT
 10
0.0
 20
0.0
 30
0.0
  9
$UCSORGRIGHT
 10
0.0
 20
0.0
 30
0.0
  9
$UCSORGFRONT
 10
0.0
 20
0.0
 30
0.0
  9
$UCSORGBACK
 10
0.0
 20
0.0
 30
0.0
  9
$PUCSBASE
  2

  9
$PUCSNAME
  2

  9
$PUCSORG
 10
0.0
 20
0.0
 30
0.0
  9
$PUCSXDIR
 10
1.0
 20
0.0
 30
0.0
  9
$PUCSYDIR
 10
0.0
 20
1.0
 30
0.0
  9
$PUCSORTHOREF
  2

  9
$PUCSORTHOVIEW
 70
     0
  9
$PUCSORGTOP
 10
0.0
 20
0.0
 30
0.0
  9
$PUCSORGBOTTOM
 10
0.0
 20
0.0
 30
0.0
  9
$PUCSORGLEFT
 10
0.0
 20
0.0
 30
0.0
  9
$PUCSORGRIGHT
 10
0.0
 20
0.0
 30
0.0
  9
$PUCSORGFRONT
 10
0.0
 20
0.0
 30
0.0
  9
$PUCSORGBACK
 10
0.0
 20
0.0
 30
0.0
  9
$USERI1
 70
     0
  9
$USERI2
 70
     0
  9
$USERI3
 70
     0
  9
$USERI4
 70
     0
  9
$USERI5
 70
     0
  9
$USERR1
 40
0.0
  9
$USERR2
 40
0.0
  9
$USERR3
 40
0.0
  9
$USERR4
 40
0.0
  9
$USERR5
 40
0.0
  9
$WORLDVIEW
 70
     1
  9
$SHADEDGE
 70
     3
  9
$SHADEDIF
 70
    70
  9
$TILEMODE
 70
     1
  9
$MAXACTVP
 70
    64
  9
$PINSBASE
 10
0.0
 20
0.0
 30
0.0
  9
$PLIMCHECK
 70
     0
  9
$PEXTMIN
 10
1.000000000000000E+20
 20
1.000000000000000E+20
 30
1.000000000000000E+20
  9
$PEXTMAX
 10
-1.000000000000000E+20
 20
-1.000000000000000E+20
 30
-1.000000000000000E+20
  9
$PLIMMIN
 10
0.0
 20
0.0
  9
$PLIMMAX
 10
420.0
 20
297.0
  9
$UNITMODE
 70
     0
  9
$VISRETAIN
 70
     1
  9
$PLINEGEN
 70
     0
  9
$PSLTSCALE
 70
     1
  9
$TREEDEPTH
 70
  3020
  9
$CMLSTYLE
  2
Standard
  9
$CMLJUST
 70
     0
  9
$CMLSCALE
 40
20.0
  9
$PROXYGRAPHICS
 70
     1
  9
$MEASUREMENT
 70
     1
  9
$CELWEIGHT
370
    -1
  9
$ENDCAPS
280
     0
  9
$JOINSTYLE
280
     0
  9
$LWDISPLAY
290
     0
  9
$INSUNITS
 70
     4
  9
$HYPERLINKBASE
  1

  9
$STYLESHEET
  1
monochrome uw.ctb
  9
$XEDIT
290
     1
  9
$CEPSNTYPE
380
     0
  9
$PSTYLEMODE
290
     1
  9
$FINGERPRINTGUID
  2
{1344C3A2-CD10-4B1D-A761-DD320F23370E}
  9
$VERSIONGUID
  2
{E560E7B9-AFEC-43E1-B3D6-CEA62A64BBD7}
  9
$EXTNAMES
290
     1
  9
$PSVPSCALE
 40
0.0
  9
$OLESTARTUP
290
     0
  0
ENDSEC
  0
SECTION
  2
CLASSES
  0
CLASS
  1
ACDBDICTIONARYWDFLT
  2
AcDbDictionaryWithDefault
  3
ObjectDBX Classes
 90
        0
280
     0
281
     0
  0
CLASS
  1
ACDBPLACEHOLDER
  2
AcDbPlaceHolder
  3
ObjectDBX Classes
 90
        0
280
     0
281
     0
  0
CLASS
  1
LAYOUT
  2
AcDbLayout
  3
ObjectDBX Classes
 90
        0
280
     0
281
     0
  0
CLASS
  1
ACME_DOCUMENT
  2
AcMeDbDoc
  3
AcMeServices
 90
        0
280
     0
281
     0
  0
CLASS
  1
AMGSETTINGSOBJ
  2
AmgSettingsObj
  3
"AcadM|Product Description: AutoCAD Mechanical 2000|Company: Autodesk"
 90
        0
280
     0
281
     0
  0
CLASS
  1
ACMESCOPE
  2
AcMeScope
  3
AcMeServices
 90
        0
280
     0
281
     0
  0
CLASS
  1
ACMECOMMANDHISTORY
  2
AcMeCommandHistory
  3
AcMeServices
 90
        0
280
     0
281
     0
  0
CLASS
  1
ACIMSYSVARMAN
  2
AcImSysVarManager
  3
AcMeServices
 90
        0
280
     0
281
     0
  0
CLASS
  1
ACIMREALSYSVAR
  2
AcImRealSysVar
  3
AcMeServices
 90
        0
280
     0
281
     0
  0
CLASS
  1
ACIMINTSYSVAR
  2
AcImIntSysVar
  3
AcMeServices
 90
        0
280
     0
281
     0
  0
CLASS
  1
ACMEDRAWINGMAN
  2
AcMeDrawingMan
  3
AcMeServices
 90
        0
280
     0
281
     0
  0
CLASS
  1
ACMEVIEW
  2
AcMeView
  3
AcMeServices
 90
        0
280
     0
281
     0
  0
CLASS
  1
ACDBENTITYCACHE
  2
AcMeEntityCache
  3
AcMeServices
 90
        0
280
     0
281
     0
  0
CLASS
  1
GSMANAGER
  2
AcMeGSManager
  3
AcMeServices
 90
        0
280
     0
281
     0
  0
CLASS
  1
AMDTINTERNALREACTOR
  2
AmdtInternalReactor
  3
AcMeServices
 90
        0
280
     0
281
     0
  0
CLASS
  1
ACMESTATEMGR
  2
AcMeStateMgr
  3
AcMeServices
 90
        0
280
     0
281
     0
  0
CLASS
  1
ACGREFMASTER
  2
AcGrefMaster
  3
AcAttribServices
 90
        0
280
     0
281
     0
  0
CLASS
  1
ACME_DATABASE
  2
AcMeDbDatabase
  3
AcMeServices
 90
        0
280
     0
281
     0
  0
CLASS
  1
ACRFINSADJUSTERMGR
  2
AcRfInsAdjusterMgr
  3
AcMeServices
 90
        0
280
     0
281
     0
  0
CLASS
  1
ACGREFACADMASTER
  2
AcGrefacadMaster
  3
AcGrefServices
 90
        0
280
     0
281
     0
  0
CLASS
  1
AMIMASTER
  2
AmiMaster
  3
AmiServices
 90
        0
280
     0
281
     0
  0
CLASS
  1
ACMDATADICTIONARY
  2
AcmDataDictionary
  3
"AcmSymBB|Product Description: AutoCAD Mechanical 2004 DX|Company: Autodesk"
 90
        0
280
     0
281
     0
  0
CLASS
  1
ACMDATAENTRYBLOCK
  2
AcmDataEntryBlock
  3
"AcmSymBB|Product Description: AutoCAD Mechanical 2004 DX|Company: Autodesk"
 90
    32768
280
     0
281
     0
  0
CLASS
  1
ACIMSTRSYSVAR
  2
AcImStrSysVar
  3
AcMeServices
 90
        0
280
     0
281
     0
  0
CLASS
  1
ACMSTANDARDISO
  2
AcmStandardISO
  3
"Amdt_StdImp|Product Description: AutoCAD Mechanical 2004 DX|Company: Autodesk"
 90
        0
280
     0
281
     0
  0
CLASS
  1
AMGOBJPROPCFG
  2
AmgObjPropCfg
  3
"AmgLay|Product Description: AutoCAD Mechanical 2000|Company: Autodesk"
 90
        1
280
     0
281
     0
  0
CLASS
  1
AMDTEDGESTANDARDISO
  2
AmdtEdgeStdISO
  3
"Amdt_StdImp|Product Description: AutoCAD Mechanical 2004 DX|Company: Autodesk"
 90
        0
280
     0
281
     0
  0
CLASS
  1
ACMSURFSTANDARDISO
  2
AcmSurfTextStdISO
  3
"Amdt_StdImp|Product Description: AutoCAD Mechanical 2004 DX|Company: Autodesk"
 90
        0
280
     0
281
     0
  0
CLASS
  1
ACMFCFSTANDARDISO
  2
AcmFCFStdISO
  3
"Amdt_StdImp|Product Description: AutoCAD Mechanical 2004 DX|Company: Autodesk"
 90
        0
280
     0
281
     0
  0
CLASS
  1
ACMWELDSTANDARDISO
  2
AcmWeldingStdISO
  3
"Amdt_StdImp|Product Description: AutoCAD Mechanical 2004 DX|Company: Autodesk"
 90
        0
280
     0
281
     0
  0
CLASS
  1
ACMIDSTANDARDISO
  2
AcmIdStdISO
  3
"Amdt_StdImp|Product Description: AutoCAD Mechanical 2004 DX|Company: Autodesk"
 90
        0
280
     0
281
     0
  0
CLASS
  1
ACMDATUMSTANDARDISO
  2
AcmDatumStdISO
  3
"Amdt_StdImp|Product Description: AutoCAD Mechanical 2004 DX|Company: Autodesk"
 90
        0
280
     0
281
     0
  0
CLASS
  1
ACMBOMSTANDARDISO
  2
AcmBOMStdISO
  3
"Amdt_StdImp|Product Description: AutoCAD Mechanical 2004 DX|Company: Autodesk"
 90
        0
280
     0
281
     0
  0
CLASS
  1
ACMDETAILSTANDARDISO
  2
AmdtDetailSymStdISO
  3
"Amdt_StdImp|Product Description: AutoCAD Mechanical 2004 DX|Company: Autodesk"
 90
        0
280
     0
281
     0
  0
CLASS
  1
ACMSECTIONSTANDARDISO
  2
AmdtSectionSymStdISO
  3
"Amdt_StdImp|Product Description: AutoCAD Mechanical 2004 DX|Company: Autodesk"
 90
        0
280
     0
281
     0
  0
CLASS
  1
ACMCENTERLINESTANDARDISO
  2
AmdtCenterLineStdISO
  3
"Amdt_StdImp|Product Description: AutoCAD Mechanical 2004 DX|Company: Autodesk"
 90
        0
280
     0
281
     0
  0
CLASS
  1
ACMNOTESTANDARDISO
  2
AmdtNoteStdISO
  3
"Amdt_StdImp|Product Description: AutoCAD Mechanical 2004 DX|Company: Autodesk"
 90
        0
280
     0
281
     0
  0
CLASS
  1
ACAMGLAYSTD
  2
AcAmgLayStd
  3
"AcAmgLayStd|Product Description: AutoCAD Mechanical 2000|Company: Autodesk"
 90
        0
280
     0
281
     0
  0
CLASS
  1
ACAMGDIMSTD
  2
AcAmgDimStd
  3
"AcAmgDimStd|Product Description: AutoCAD Mechanical 2000|Company: Autodesk"
 90
        0
280
     0
281
     0
  0
CLASS
  1
ACAMGHOLECHARTSTDISO
  2
AcAmgHoleChartStdISO
  3
ACMSYMBB_MODULE_NAME
 90
        0
280
     0
281
     0
  0
CLASS
  1
ACAMGTITLESTD
  2
AcAmgTitleStd
  3
"TITLEAPP"
 90
        0
280
     0
281
     0
  0
CLASS
  1
LAYER_INDEX
  2
AcDbLayerIndex
  3
ObjectDBX Classes
 90
    32768
280
     0
281
     0
  0
CLASS
  1
IDBUFFER
  2
AcDbIdBuffer
  3
ObjectDBX Classes
 90
    32768
280
     0
281
     0
  0
CLASS
  1
DICTIONARYVAR
  2
AcDbDictionaryVar
  3
ObjectDBX Classes
 90
        0
280
     0
281
     0
  0
CLASS
  1
AM_DRAWING_MGR
  2
AcDmDwgMgr
  3
AcMechDwgViewMgmt
 90
        0
280
     0
281
     0
  0
CLASS
  1
AM_DWG_DOCUMENT
  2
AcDmDwgDocument
  3
AcMechDwgViewMgmt
 90
        0
280
     0
281
     0
  0
CLASS
  1
AM_DWG_SHEET
  2
AcDmSheet
  3
AcMechDwgViewMgmt
 90
        0
280
     0
281
     0
  0
CLASS
  1
AM_VIEWDIMPARMAP
  2
AcDmViewDimParMap
  3
AcMechDwgViewMgmt
 90
        0
280
     0
281
     0
  0
CLASS
  1
AM_DWGMGR_NAME
  2
AcDmDwgMgrName
  3
AcMechDwgViewMgmt
 90
        0
280
     0
281
     0
  0
CLASS
  1
AMDTMENUSTATEMGR
  2
AmdtMenuStateMgr
  3
McadcomServices
 90
        0
280
     0
281
     0
  0
CLASS
  1
AMDTMCOMMENUSTATE
  2
AmdtMcomMenuState
  3
McadcomServices
 90
        0
280
     0
281
     0
  0
CLASS
  1
MAPIAMMOUDLE
  2
MApiAmModule
  3
MApiAmServices
 90
        0
280
     0
281
     0
  0
CLASS
  1
AMDTADMENUSTATE
  2
AmdtAdMenuState
  3
DesignerServices
 90
        0
280
     0
281
     0
  0
CLASS
  1
ADAPPL
  2
AcAdAppl
  3
DesignerServices
 90
        0
280
     0
281
     0
  0
CLASS
  1
DEPMGR
  2
AcAdDepMgr
  3
DesignerServices
 90
        0
280
     0
281
     0
  0
CLASS
  1
PARAMMGR
  2
AcAdParamMgr
  3
DesignerServices
 90
        0
280
     0
281
     0
  0
CLASS
  1
PARAMSCOPE
  2
AcAdParamScope
  3
DesignerServices
 90
        0
280
     0
281
     0
  0
CLASS
  1
NAMEDAPPL
  2
AcAdNamedAppl
  3
DesignerServices
 90
        0
280
     0
281
     0
  0
CLASS
  1
AMDTDMMENUSTATE
  2
AmdtDmMenuState
  3
AcMechDwgViewMgmt
 90
        0
280
     0
281
     0
  0
CLASS
  1
AMDTAMMENUSTATE
  2
AmdtAmMenuState
  3
DesignerAssemblies
 90
        0
280
     0
281
     0
  0
CLASS
  1
ACAMPROJECT
  2
AcAmProject
  3
DesignerAssemblies
 90
        0
280
     0
281
     0
  0
CLASS
  1
ACAMGRCOMPDEF
  2
AcAmGrCompDef
  3
DesignerAssemblies
 90
        0
280
     0
281
     0
  0
CLASS
  1
ACCMCONTEXT
  2
AcCmContext
  3
DesignerAssemblies
 90
        0
280
     0
281
     0
  0
CLASS
  1
ACAMCOMPDEF
  2
AcAmCompDef
  3
DesignerAssemblies
 90
        0
280
     0
281
     0
  0
CLASS
  1
ACAMCOMPDEFMGR
  2
AcAmCompDefMgr
  3
DesignerAssemblies
 90
        0
280
     0
281
     0
  0
CLASS
  1
AMCONTEXTMGR
  2
AcAmContextMgr
  3
DesignerAssemblies
 90
        0
280
     0
281
     0
  0
CLASS
  1
ACAMCONTEXTMODELER
  2
AcAmContextModeler
  3
DesignerAssemblies
 90
        0
280
     0
281
     0
  0
CLASS
  1
ACMTHREADLINESTANDARDISO
  2
AmdtThreadLineStdISO
  3
"Amdt_StdImp|Product Description: AutoCAD Mechanical 2004 DX|Company: Autodesk"
 90
        0
280
     0
281
     0
  0
CLASS
  1
CATALOGSTATE
  2
AcAmCatalogState
  3
DesignerAssemblies
 90
        0
280
     0
281
     0
  0
CLASS
  1
ACAMGRCOMPDEFSET
  2
AcAmGrCompDefSet
  3
DesignerAssemblies
 90
        0
280
     0
281
     0
  0
CLASS
  1
AMDTBROWSERDBTAB
  2
AmdtBrowserDbTab
  3
McadcomServices
 90
        0
280
     0
281
     0
  0
CLASS
  1
CBROWSERAPPOBJECT
  2
CBrowserAppObject
  3
McadcomServices
 90
        0
280
     0
281
     0
  0
CLASS
  1
DM_PLACEHOLDER
  2
AcDmSelsetPlaceholder
  3
AcMechDwgViewMgmt
 90
        0
280
     0
281
     0
  0
CLASS
  1
TABLESTYLE
  2
AcDbTableStyle
  3
ObjectDBX Classes
 90
     2047
280
     0
281
     0
  0
CLASS
  1
VAACXREFPANELOBJECT
  2
VaAcXREFPanelObject
  3
VAAC_ADDIN
 90
    32768
280
     0
281
     0
  0
CLASS
  1
VAACIMAGEINVENTORY
  2
VaAcImageInventory
  3
VAAC_ADDIN
 90
    32768
280
     0
281
     0
  0
CLASS
  1
AMDTNOTETEMPLATEDB
  2
AmdtNoteTemplateDB
  3
AMDT_STDIMP_MODULE_NAME
 90
        0
280
     0
281
     0
  0
CLASS
  1
ACAMGFILTERDAT
  2
AcAmgFilterDat
  3
"AcadM|Product Description: AutoCAD Mechanical 2000|Company: Autodesk"
 90
    32768
280
     0
281
     0
  0
CLASS
  1
ACMBOM
  2
AcmBom
  3
"AcmSymBB|Product Description: AutoCAD Mechanical 2004 DX|Company: Autodesk"
 90
    32768
280
     0
281
     0
  0
CLASS
  1
AMDTFORMULAUPDATEDISPATCHER
  2
AmdtFormulaUpdateDispatcher
  3
AcMeServices
 90
    32768
280
     0
281
     0
  0
CLASS
  1
ACMSTANDARDDIN
  2
AcmStandardDIN
  3
"Amdt_StdImp|Product Description: AutoCAD Mechanical 2004 DX|Company: Autodesk"
 90
        0
280
     0
281
     0
  0
CLASS
  1
AMDTEDGESTANDARDDIN13715
  2
AmdtEdgeStdDIN13715
  3
"Amdt_StdImp|Product Description: AutoCAD Mechanical 2004 DX|Company: Autodesk"
 90
        0
280
     0
281
     0
  0
CLASS
  1
ACMSURFSTANDARDDIN
  2
AcmSurfTextStdDIN
  3
"Amdt_StdImp|Product Description: AutoCAD Mechanical 2004 DX|Company: Autodesk"
 90
        0
280
     0
281
     0
  0
CLASS
  1
ACMFCFSTANDARDDIN
  2
AcmFCFStdDIN
  3
"Amdt_StdImp|Product Description: AutoCAD Mechanical 2004 DX|Company: Autodesk"
 90
        0
280
     0
281
     0
  0
CLASS
  1
ACMWELDSTANDARDDIN
  2
AcmWeldingStdDIN
  3
"Amdt_StdImp|Product Description: AutoCAD Mechanical 2004 DX|Company: Autodesk"
 90
        0
280
     0
281
     0
  0
CLASS
  1
ACMIDSTANDARDDIN
  2
AcmIdStdDIN
  3
"Amdt_StdImp|Product Description: AutoCAD Mechanical 2004 DX|Company: Autodesk"
 90
        0
280
     0
281
     0
  0
CLASS
  1
ACMDATUMSTANDARDDIN
  2
AcmDatumStdDIN
  3
"Amdt_StdImp|Product Description: AutoCAD Mechanical 2004 DX|Company: Autodesk"
 90
        0
280
     0
281
     0
  0
CLASS
  1
ACMBOMSTANDARDDIN
  2
AcmBOMStdDIN
  3
"Amdt_StdImp|Product Description: AutoCAD Mechanical 2004 DX|Company: Autodesk"
 90
        0
280
     0
281
     0
  0
CLASS
  1
ACMDETAILSTANDARDDIN
  2
AmdtDetailSymStdDIN
  3
"Amdt_StdImp|Product Description: AutoCAD Mechanical 2004 DX|Company: Autodesk"
 90
        0
280
     0
281
     0
  0
CLASS
  1
ACMSECTIONSTANDARDDIN
  2
AmdtSectionSymStdDIN
  3
"Amdt_StdImp|Product Description: AutoCAD Mechanical 2004 DX|Company: Autodesk"
 90
        0
280
     0
281
     0
  0
CLASS
  1
ACMCENTERLINESTANDARDDIN
  2
AmdtCenterLineStdDIN
  3
"Amdt_StdImp|Product Description: AutoCAD Mechanical 2004 DX|Company: Autodesk"
 90
        0
280
     0
281
     0
  0
CLASS
  1
ACMTHREADLINESTANDARDDIN
  2
AmdtThreadLineStdDIN
  3
"Amdt_StdImp|Product Description: AutoCAD Mechanical 2004 DX|Company: Autodesk"
 90
        0
280
     0
281
     0
  0
CLASS
  1
ACMNOTESTANDARDDIN
  2
AmdtNoteStdDIN
  3
"Amdt_StdImp|Product Description: AutoCAD Mechanical 2004 DX|Company: Autodesk"
 90
        0
280
     0
281
     0
  0
CLASS
  1
ACAMGHOLECHARTSTDDIN
  2
AcAmgHoleChartStdDIN
  3
ACMSYMBB_MODULE_NAME
 90
        0
280
     0
281
     0
  0
CLASS
  1
ACRFATTGENMGR
  2
AcRfAttGeneralMgr
  3
AcAttribServices
 90
    32768
280
     0
281
     0
  0
CLASS
  1
SORTENTSTABLE
  2
AcDbSortentsTable
  3
ObjectDBX Classes
 90
        0
280
     0
281
     0
  0
CLASS
  1
DIMASSOC
  2
AcDbDimAssoc
  3
"AcDbDimAssoc|Product Desc:     AcDim ARX App For Dimension|Company:          Autodesk, Inc.|WEB Address:      www.autodesk.com"
 90
    32768
280
     0
281
     0
  0
CLASS
  1
AC_AM_MVD_DEP_MGR
  2
AcAmMVDdepMgr
  3
DesignerAssemblies
 90
    32768
280
     0
281
     0
  0
CLASS
  1
AC_AM_MASTER_VIEW_DEF
  2
AcAmMasterViewDef
  3
DesignerAssemblies
 90
    32768
280
     0
281
     0
  0
CLASS
  1
AC_AM_DIRTY_NODES
  2
AcAmDirtyNodes
  3
DesignerAssemblies
 90
    32768
280
     0
281
     0
  0
CLASS
  1
AC_AM_MAPPER_CACHE
  2
AcAmMapperCache
  3
DesignerAssemblies
 90
    32768
280
     0
281
     0
  0
CLASS
  1
ACAMMVDBACKUPOBJECT
  2
AcAmMVDBackupObject
  3
DesignerAssemblies
 90
    32768
280
     0
281
     0
  0
CLASS
  1
AC_AM_2D_XREF_MGR
  2
AcAmXrefMgr2d
  3
DesignerAssemblies
 90
    32768
280
     0
281
     0
  0
CLASS
  1
AC_AM_HIDE_SITUATION
  2
AcAmHideSituation
  3
DesignerAssemblies
 90
    32768
280
     0
281
     0
  0
CLASS
  1
ACAMWBLOCKTEMPENTS
  2
AcAmStructInOutTempObjsHolder
  3
DesignerAssemblies
 90
    32768
280
     0
281
     0
  0
CLASS
  1
STDPART2D
  2
AmgStdPart
  3
"AmgStdPart|Product Description: AutoCAD Mechanical 2000|Company: Autodesk"
 90
    33791
280
     0
281
     1
  0
CLASS
  1
ACMDATAENTRYPART
  2
AcmDataEntryPart
  3
"AcmSymBB|Product Description: AutoCAD Mechanical 2004 DX|Company: Autodesk"
 90
    32768
280
     0
281
     0
  0
CLASS
  1
ACMPARTREF
  2
AcmPartRef
  3
"AcmSymBB|Product Description: AutoCAD Mechanical 2004 DX|Company: Autodesk"
 90
    33791
280
     0
281
     1
  0
CLASS
  1
ACDBSTDPARTRES_LINE
  2
AcDbStdPartRes_Line
  3
"AcDbStdPartRes_Line|Product Description: AutoCAD Mechanical 2000|Company: Autodesk"
 90
    32768
280
     0
281
     0
  0
CLASS
  1
ACAD_EVALUATION_GRAPH
  2
AcDbEvalGraph
  3
ObjectDBX Classes
 90
    33921
280
     0
281
     0
  0
CLASS
  1
ACAECUSTOBJ
  2
AcAeEditorObj
  3
AcAeEditorObj
 90
    33792
280
     0
281
     0
  0
CLASS
  1
ACDB_DYNAMICBLOCKPURGEPREVENTER_VERSION
  2
AcDbDynamicBlockPurgePreventer
  3
ObjectDBX Classes
 90
    33921
280
     0
281
     0
  0
ENDSEC
  0
SECTION
  2
TABLES
  0
TABLE
  2
VPORT
  5
8
330
0
100
AcDbSymbolTable
 70
     3
  0
VPORT
  5
18F52
330
8
100
AcDbSymbolTableRecord
100
AcDbViewportTableRecord
  2
*Active
 70
     0
 10
0.0
 20
0.0
 11
1.0
 21
1.0
 12
17313.55807639939
 22
-892.3625102240025
 13
0.0
 23
0.0
 14
2.5
 24
2.5
 15
10.0
 25
10.0
 16
0.0
 26
0.0
 36
1.0
 17
0.0
 27
0.0
 37
0.0
 40
1117.283610986809
 41
1.391353811149032
 42
50.0
 43
0.0
 44
0.0
 50
0.0
 51
0.0
 71
     0
 72
   100
 73
     1
 74
     3
 75
     0
 76
     0
 77
     0
 78
     0
281
     0
 65
     0
110
0.0
120
0.0
130
0.0
111
1.0
121
0.0
131
0.0
112
0.0
122
1.0
132
0.0
 79
     0
146
0.0
  0
ENDTAB
  0
TABLE
  2
LTYPE
  5
5
330
0
100
AcDbSymbolTable
 70
    18
  0
LTYPE
  5
14
330
5
100
AcDbSymbolTableRecord
100
AcDbLinetypeTableRecord
  2
ByBlock
 70
     0
  3

 72
    65
 73
     0
 40
0.0
  0
LTYPE
  5
15
330
5
100
AcDbSymbolTableRecord
100
AcDbLinetypeTableRecord
  2
ByLayer
 70
     0
  3

 72
    65
 73
     0
 40
0.0
  0
LTYPE
  5
16
330
5
100
AcDbSymbolTableRecord
100
AcDbLinetypeTableRecord
  2
Continuous
 70
     0
  3
Solid line
 72
    65
 73
     0
 40
0.0
  0
LTYPE
  5
67
330
5
100
AcDbSymbolTableRecord
100
AcDbLinetypeTableRecord
  2
Amconstr
 70
     0
  3
_______________________
 72
    65
 73
     2
 40
9999.0
 49
9999.0
 74
     0
 49
0.0
 74
     0
  0
LTYPE
  5
6C
330
5
100
AcDbSymbolTableRecord
100
AcDbLinetypeTableRecord
  2
Amzigzag
 70
     0
  3
/\/-/\/-/\/-/\/-/\/-/\/
 72
    65
 73
     2
 40
11.0001
 49
0.0001
 74
     4
 75
   136
340
22C
 46
0.04
 50
0.0
 44
0.0
 45
0.0
 49
-11.0
 74
     0
  0
LTYPE
  5
7E
330
5
100
AcDbSymbolTableRecord
100
AcDbLinetypeTableRecord
  2
CENTER
 70
     0
  3
__ . __
 72
    65
 73
     4
 40
7.0
 49
4.0
 74
     0
 49
-1.0
 74
     0
 49
1.0
 74
     0
 49
-1.0
 74
     0
  0
LTYPE
  5
D8
330
5
100
AcDbSymbolTableRecord
100
AcDbLinetypeTableRecord
  2
HIDDEN
 70
     0
  3
Hidden __ __ __ __ __ __ __ __ __ __ __ __ __ _
 72
    65
 73
     2
 40
9.524999999999996
 49
6.349999999999997
 74
     0
 49
-3.174999999999998
 74
     0
  0
LTYPE
  5
D9
330
5
100
AcDbSymbolTableRecord
100
AcDbLinetypeTableRecord
  2
PHANTOM2
 70
     0
  3
Phantom (.5x) ___ _ _ ___ _ _ ___ _ _ ___ _ _
 72
    65
 73
     6
 40
31.75
 49
15.875
 74
     0
 49
-3.174999999999998
 74
     0
 49
3.174999999999998
 74
     0
 49
-3.174999999999998
 74
     0
 49
3.174999999999998
 74
     0
 49
-3.174999999999998
 74
     0
  0
LTYPE
  5
2E3
330
5
100
AcDbSymbolTableRecord
100
AcDbLinetypeTableRecord
  2
ACDINWELD
 70
     0
  3
_ _ _ _ _
 72
    65
 73
     2
 40
2.0
 49
2.0
 74
     0
 49
-1.0
 74
     0
  0
LTYPE
  5
2E4
330
5
100
AcDbSymbolTableRecord
100
AcDbLinetypeTableRecord
  2
ACDINTGB
 70
     0
  3
__ . . __ . .
 72
    65
 73
     6
 40
9.0
 49
4.0
 74
     0
 49
-1.0
 74
     0
 49
1.0
 74
     0
 49
-1.0
 74
     0
 49
1.0
 74
     0
 49
-1.0
 74
     0
  0
LTYPE
  5
2E5
330
5
100
AcDbSymbolTableRecord
100
AcDbLinetypeTableRecord
  2
ACDINTGL
 70
     0
  3
_ _ _ _ _
 72
    65
 73
     2
 40
3.0
 49
2.0
 74
     0
 49
-1.0
 74
     0
  0
LTYPE
  5
31F
330
5
100
AcDbSymbolTableRecord
100
AcDbLinetypeTableRecord
  2
AM_DIN_F_W050
 70
     0
  3
__ __ __ __ __ __ __ __ __ __ __ __ __ __ __
 72
    65
 73
     2
 40
6.25
 49
4.75
 74
     0
 49
-1.5
 74
     0
  0
LTYPE
  5
320
330
5
100
AcDbSymbolTableRecord
100
AcDbLinetypeTableRecord
  2
AM_DIN_G_W050
 70
     0
  3
____ . ____ . ____ . ____ . ____ . ____ . ____
 72
    65
 73
     4
 40
13.75
 49
9.75
 74
     0
 49
-1.5
 74
     0
 49
1.0
 74
     0
 49
-1.5
 74
     0
  0
LTYPE
  5
321
330
5
100
AcDbSymbolTableRecord
100
AcDbLinetypeTableRecord
  2
AM_DIN_K_W050
 70
     0
  3
_____ . . _____ . . _____ . . ____ .. ____
 72
    65
 73
     6
 40
16.25
 49
9.75
 74
     0
 49
-1.5
 74
     0
 49
1.0
 74
     0
 49
-1.5
 74
     0
 49
1.0
 74
     0
 49
-1.5
 74
     0
  0
LTYPE
  5
322
330
5
100
AcDbSymbolTableRecord
100
AcDbLinetypeTableRecord
  2
AM_DIN_G_W050x2
 70
     0
  3
__ . __ . __ . __ . __ . __
 72
    65
 73
     4
 40
6.875
 49
4.75
 74
     0
 49
-0.875
 74
     0
 49
0.375
 74
     0
 49
-0.875
 74
     0
  0
LTYPE
  5
323
330
5
100
AcDbSymbolTableRecord
100
AcDbLinetypeTableRecord
  2
AM_DIN_F_W050x2
 70
     0
  3
 _ _ _ _ _ _ _ _ _ _ _ _
 72
    65
 73
     2
 40
3.125
 49
2.25
 74
     0
 49
-0.875
 74
     0
  0
LTYPE
  5
1669E
330
5
100
AcDbSymbolTableRecord
100
AcDbLinetypeTableRecord
  2
ACISOWELD
 70
     0
  3
_ _ _ _ _
 72
    65
 73
     2
 40
2.0
 49
2.0
 74
     0
 49
-1.0
 74
     0
  0
LTYPE
  5
1669F
330
5
100
AcDbSymbolTableRecord
100
AcDbLinetypeTableRecord
  2
ACISOTGB
 70
     0
  3
__ . . __ . .
 72
    65
 73
     6
 40
9.0
 49
4.0
 74
     0
 49
-1.0
 74
     0
 49
1.0
 74
     0
 49
-1.0
 74
     0
 49
1.0
 74
     0
 49
-1.0
 74
     0
  0
LTYPE
  5
166A0
330
5
100
AcDbSymbolTableRecord
100
AcDbLinetypeTableRecord
  2
ACISOTGL
 70
     0
  3
_ _ _ _ _
 72
    65
 73
     2
 40
3.0
 49
2.0
 74
     0
 49
-1.0
 74
     0
  0
LTYPE
  5
17C79
330
5
100
AcDbSymbolTableRecord
100
AcDbLinetypeTableRecord
  2
gen7a
 70
     0
  3
__ . __ . __
 72
    65
 73
     4
 40
6.875
 49
4.75
 74
     0
 49
-0.875
 74
     0
 49
0.375
 74
     0
 49
-0.875
 74
     0
  0
ENDTAB
  0
TABLE
  2
LAYER
  5
2
102
{ACAD_XDICTIONARY
360
5E1
102
}
330
0
100
AcDbSymbolTable
 70
     7
  0
LAYER
  5
10
330
2
100
AcDbSymbolTableRecord
100
AcDbLayerTableRecord
  2
0
 70
     0
 62
     7
  6
Continuous
370
    -3
390
F
  0
LAYER
  5
1080A
330
2
100
AcDbSymbolTableRecord
100
AcDbLayerTableRecord
  2
AM_5
 70
     0
 62
     3
  6
Continuous
370
    25
390
F
1001
AcAecLayerStandard
1000

1000

  0
LAYER
  5
1081A
330
2
100
AcDbSymbolTableRecord
100
AcDbLayerTableRecord
  2
Defpoints
 70
     0
 62
     7
  6
Continuous
290
     0
370
    -3
390
F
  0
LAYER
  5
10B76
330
2
100
AcDbSymbolTableRecord
100
AcDbLayerTableRecord
  2
Beschriftung
 70
     0
 62
     2
  6
Continuous
370
    50
390
F
1001
AcAecLayerStandard
1000

1000

  0
LAYER
  5
10B7B
330
2
100
AcDbSymbolTableRecord
100
AcDbLayerTableRecord
  2
bezugslinien
 70
     0
 62
     3
  6
Continuous
370
    25
390
F
1001
AcAecLayerStandard
1000

1000

  0
LAYER
  5
17C7A
330
2
100
AcDbSymbolTableRecord
100
AcDbLayerTableRecord
  2
7A
 70
     0
 62
     4
  6
gen7a
370
    -3
390
F
  0
LAYER
  5
1867A
330
2
100
AcDbSymbolTableRecord
100
AcDbLayerTableRecord
  2
AM_4
 70
     0
 62
     3
  6
Continuous
370
    25
390
F
1001
AcAecLayerStandard
1000

1000

  0
ENDTAB
  0
TABLE
  2
STYLE
  5
3
330
0
100
AcDbSymbolTable
 70
     6
  0
STYLE
  5
11
330
3
100
AcDbSymbolTableRecord
100
AcDbTextStyleTableRecord
  2
STANDARD
 70
     0
 40
0.0
 41
1.0
 50
0.0
 71
     0
 42
2.5
  3
ARIAL.TTF
  4

1001
ACAD
1000
Arial
1071
       34
  0
STYLE
  5
22C
330
3
100
AcDbSymbolTableRecord
100
AcDbTextStyleTableRecord
  2

 70
     1
 40
0.0
 41
1.0
 50
0.0
 71
     0
 42
2.5
  3
genltshp.shx
  4

  0
STYLE
  5
2D5
330
3
100
AcDbSymbolTableRecord
100
AcDbTextStyleTableRecord
  2
ACDINTS
 70
     0
 40
1.0
 41
1.0
 50
0.0
 71
     0
 42
2.5
  3
isocp.shx
  4

  0
STYLE
  5
2E2
330
3
100
AcDbSymbolTableRecord
100
AcDbTextStyleTableRecord
  2
ACDINGDT
 70
     0
 40
0.0
 41
1.0
 50
0.0
 71
     0
 42
2.5
  3
AMGDT
  4

  0
STYLE
  5
166A3
330
3
100
AcDbSymbolTableRecord
100
AcDbTextStyleTableRecord
  2
ACISOTS
 70
     0
 40
1.0
 41
1.0
 50
0.0
 71
     0
 42
2.5
  3
isocp.shx
  4
bigfont.shx
  0
STYLE
  5
166A4
330
3
100
AcDbSymbolTableRecord
100
AcDbTextStyleTableRecord
  2
ACISOGDT
 70
     0
 40
0.0
 41
1.0
 50
0.0
 71
     0
 42
2.5
  3
AMGDT
  4
bigfont.shx
  0
ENDTAB
  0
TABLE
  2
VIEW
  5
6
330
0
100
AcDbSymbolTable
 70
     0
  0
ENDTAB
  0
TABLE
  2
UCS
  5
7
330
0
100
AcDbSymbolTable
 70
     0
  0
ENDTAB
  0
TABLE
  2
APPID
  5
9
330
0
100
AcDbSymbolTable
 70
    74
  0
APPID
  5
12
330
9
100
AcDbSymbolTableRecord
100
AcDbRegAppTableRecord
  2
ACAD
 70
     0
  0
APPID
  5
46
330
9
100
AcDbSymbolTableRecord
100
AcDbRegAppTableRecord
  2
MCAD_NO_VIS
 70
     0
  0
APPID
  5
47
330
9
100
AcDbSymbolTableRecord
100
AcDbRegAppTableRecord
  2
ACAD_TEMP_GRAPHIC
 70
     0
  0
APPID
  5
58
330
9
100
AcDbSymbolTableRecord
100
AcDbRegAppTableRecord
  2
ACATTRIBSERVICES
 70
     0
  0
APPID
  5
EE
330
9
100
AcDbSymbolTableRecord
100
AcDbRegAppTableRecord
  2
AD_DRAW
 70
     0
  0
APPID
  5
10C
330
9
100
AcDbSymbolTableRecord
100
AcDbRegAppTableRecord
  2
DESIGNERASSEMBLIES
 70
     0
  0
APPID
  5
111
330
9
100
AcDbSymbolTableRecord
100
AcDbRegAppTableRecord
  2
ACADM_DIM_EDIT
 70
     0
  0
APPID
  5
112
330
9
100
AcDbSymbolTableRecord
100
AcDbRegAppTableRecord
  2
AMDT_DM_ADJ
 70
     0
  0
APPID
  5
1A3
330
9
100
AcDbSymbolTableRecord
100
AcDbRegAppTableRecord
  2
ACAD_DSTYLE_DIMARC_LENGTH_SYMBOL
 70
     0
  0
APPID
  5
1A4
330
9
100
AcDbSymbolTableRecord
100
AcDbRegAppTableRecord
  2
ACAD_DSTYLE_DIMJOGGED_JOGANGLE_SYMBOL
 70
     0
  0
APPID
  5
5D4
330
9
100
AcDbSymbolTableRecord
100
AcDbRegAppTableRecord
  2
ACAD_PSEXT
 70
     0
  0
APPID
  5
5D5
330
9
100
AcDbSymbolTableRecord
100
AcDbRegAppTableRecord
  2
GENIUS_GENOENT_13
 70
     0
  0
APPID
  5
5D6
330
9
100
AcDbSymbolTableRecord
100
AcDbRegAppTableRecord
  2
GENIUS_VERSION2
 70
     0
  0
APPID
  5
5D7
330
9
100
AcDbSymbolTableRecord
100
AcDbRegAppTableRecord
  2
GENIUS_GENREC_14
 70
     0
  0
APPID
  5
5D8
330
9
100
AcDbSymbolTableRecord
100
AcDbRegAppTableRecord
  2
GENIUS_GENODEF_13
 70
     0
  0
APPID
  5
5D9
330
9
100
AcDbSymbolTableRecord
100
AcDbRegAppTableRecord
  2
GENIUS_GENOBJ-N-REC_13
 70
     0
  0
APPID
  5
5DA
330
9
100
AcDbSymbolTableRecord
100
AcDbRegAppTableRecord
  2
GENIUS_GENTRA_14
 70
     0
  0
APPID
  5
5DB
330
9
100
AcDbSymbolTableRecord
100
AcDbRegAppTableRecord
  2
GENIUS_GENOBJ-N-TIT_13
 70
     0
  0
APPID
  5
5DC
330
9
100
AcDbSymbolTableRecord
100
AcDbRegAppTableRecord
  2
GENIUS_GENTITLE_13
 70
     0
  0
APPID
  5
5DD
330
9
100
AcDbSymbolTableRecord
100
AcDbRegAppTableRecord
  2
GENIUS_GENOREF_13
 70
     0
  0
APPID
  5
5DE
330
9
100
AcDbSymbolTableRecord
100
AcDbRegAppTableRecord
  2
GENIUS_GENOLIS_13
 70
     0
  0
APPID
  5
5DF
330
9
100
AcDbSymbolTableRecord
100
AcDbRegAppTableRecord
  2
GENIUS_GENOBJ-N-SDF_13
 70
     0
  0
APPID
  5
5E0
330
9
100
AcDbSymbolTableRecord
100
AcDbRegAppTableRecord
  2
GENIUS_GENSCREG_15
 70
     0
  0
APPID
  5
2FBB
330
9
100
AcDbSymbolTableRecord
100
AcDbRegAppTableRecord
  2
GENIUS_GENOBJ-N-CRS_13
 70
     0
  0
APPID
  5
2FBC
330
9
100
AcDbSymbolTableRecord
100
AcDbRegAppTableRecord
  2
GENIUS_GENOBJ-N-CEN_13
 70
     0
  0
APPID
  5
2FBD
330
9
100
AcDbSymbolTableRecord
100
AcDbRegAppTableRecord
  2
GENIUS_GENOBJ-N-HTC_13
 70
     0
  0
APPID
  5
2FBE
330
9
100
AcDbSymbolTableRecord
100
AcDbRegAppTableRecord
  2
GENIUS_GENHATCH_13
 70
     0
  0
APPID
  5
2FBF
330
9
100
AcDbSymbolTableRecord
100
AcDbRegAppTableRecord
  2
GENIUS_GENBH_13
 70
     0
  0
APPID
  5
2FC0
330
9
100
AcDbSymbolTableRecord
100
AcDbRegAppTableRecord
  2
GENIUS_GENOBJ-NBEHI-BHF_13
 70
     0
  0
APPID
  5
2FC1
330
9
100
AcDbSymbolTableRecord
100
AcDbRegAppTableRecord
  2
GENIUS_GENOBJ-F-PART_13
 70
     0
  0
APPID
  5
2FC2
330
9
100
AcDbSymbolTableRecord
100
AcDbRegAppTableRecord
  2
GENIUS_GEFSTDP_13
 70
     0
  0
APPID
  5
2FC3
330
9
100
AcDbSymbolTableRecord
100
AcDbRegAppTableRecord
  2
GEVPT
 70
     0
  0
APPID
  5
2FC4
330
9
100
AcDbSymbolTableRecord
100
AcDbRegAppTableRecord
  2
GEVIT
 70
     0
  0
APPID
  5
2FC5
330
9
100
AcDbSymbolTableRecord
100
AcDbRegAppTableRecord
  2
VCC
 70
     0
  0
APPID
  5
2FC6
330
9
100
AcDbSymbolTableRecord
100
AcDbRegAppTableRecord
  2
GENBH
 70
     0
  0
APPID
  5
2FC7
330
9
100
AcDbSymbolTableRecord
100
AcDbRegAppTableRecord
  2
GEVMK
 70
     0
  0
APPID
  5
2FC8
330
9
100
AcDbSymbolTableRecord
100
AcDbRegAppTableRecord
  2
GENIUS_GEFPARTINS_13
 70
     0
  0
APPID
  5
2FC9
330
9
100
AcDbSymbolTableRecord
100
AcDbRegAppTableRecord
  2
GENIUS_GENOBJ-N-CRC_13
 70
     0
  0
APPID
  5
2FCA
330
9
100
AcDbSymbolTableRecord
100
AcDbRegAppTableRecord
  2
GENIUS_GENCRC_14
 70
     0
  0
APPID
  5
2FCB
330
9
100
AcDbSymbolTableRecord
100
AcDbRegAppTableRecord
  2
GEVID978597865
 70
     0
  0
APPID
  5
2FCC
330
9
100
AcDbSymbolTableRecord
100
AcDbRegAppTableRecord
  2
GEVID978597866
 70
     0
  0
APPID
  5
2FCD
330
9
100
AcDbSymbolTableRecord
100
AcDbRegAppTableRecord
  2
GEVID978597868
 70
     0
  0
APPID
  5
2FCE
330
9
100
AcDbSymbolTableRecord
100
AcDbRegAppTableRecord
  2
GENIUS_GENCEN_19
 70
     0
  0
APPID
  5
2FCF
330
9
100
AcDbSymbolTableRecord
100
AcDbRegAppTableRecord
  2
AcAecLayerStandard
 70
     0
  0
APPID
  5
5580
330
9
100
AcDbSymbolTableRecord
100
AcDbRegAppTableRecord
  2
GENIUS_FIRSTVISTXT_14
 70
     0
  0
APPID
  5
5581
330
9
100
AcDbSymbolTableRecord
100
AcDbRegAppTableRecord
  2
GENIUS_SECONDVISTXT_14
 70
     0
  0
APPID
  5
5582
330
9
100
AcDbSymbolTableRecord
100
AcDbRegAppTableRecord
  2
GENIUS_GENOBJ-N-FIL_13
 70
     0
  0
APPID
  5
5583
330
9
100
AcDbSymbolTableRecord
100
AcDbRegAppTableRecord
  2
GENIUS_GEFWELD_13
 70
     0
  0
APPID
  5
5584
330
9
100
AcDbSymbolTableRecord
100
AcDbRegAppTableRecord
  2
GENIUS_GENOBJ-NBEHI-BHB_13
 70
     0
  0
APPID
  5
5585
330
9
100
AcDbSymbolTableRecord
100
AcDbRegAppTableRecord
  2
GENIUS_GENOBJ-F-WELS_13
 70
     0
  0
APPID
  5
5586
330
9
100
AcDbSymbolTableRecord
100
AcDbRegAppTableRecord
  2
AMG_2DHIDE
 70
     0
  0
APPID
  5
5587
330
9
100
AcDbSymbolTableRecord
100
AcDbRegAppTableRecord
  2
GEVID992928022
 70
     0
  0
APPID
  5
5588
330
9
100
AcDbSymbolTableRecord
100
AcDbRegAppTableRecord
  2
GENIUS_GENOBJ-F-DESC_13
 70
     0
  0
APPID
  5
5589
330
9
100
AcDbSymbolTableRecord
100
AcDbRegAppTableRecord
  2
GENIUS_GEFDESC_14
 70
     0
  0
APPID
  5
558A
330
9
100
AcDbSymbolTableRecord
100
AcDbRegAppTableRecord
  2
GEVID992928023
 70
     0
  0
APPID
  5
558B
330
9
100
AcDbSymbolTableRecord
100
AcDbRegAppTableRecord
  2
GENIUS_GENOBJ-F-FEAT_13
 70
     0
  0
APPID
  5
558C
330
9
100
AcDbSymbolTableRecord
100
AcDbRegAppTableRecord
  2
GENIUS_GEFFEAT_14
 70
     0
  0
APPID
  5
7580
330
9
100
AcDbSymbolTableRecord
100
AcDbRegAppTableRecord
  2
ACAD_EXEMPT_FROM_CAD_STANDARDS
 70
     0
  0
APPID
  5
9403
330
9
100
AcDbSymbolTableRecord
100
AcDbRegAppTableRecord
  2
AMG_2DSTRUCT_BTR
 70
     0
  0
APPID
  5
B4E8
330
9
100
AcDbSymbolTableRecord
100
AcDbRegAppTableRecord
  2
ACAD_DSTYLE_DIMEXT_LENGTH
 70
     0
  0
APPID
  5
B4E9
330
9
100
AcDbSymbolTableRecord
100
AcDbRegAppTableRecord
  2
ACAD_DSTYLE_DIMEXT_ENABLED
 70
     0
  0
APPID
  5
DE63
330
9
100
AcDbSymbolTableRecord
100
AcDbRegAppTableRecord
  2
GENIUS_GENDIMSH_14
 70
     0
  0
APPID
  5
E2FA
330
9
100
AcDbSymbolTableRecord
100
AcDbRegAppTableRecord
  2
GEVID1210230727
 70
     0
  0
APPID
  5
E2FB
330
9
100
AcDbSymbolTableRecord
100
AcDbRegAppTableRecord
  2
GEVDC
 70
     0
  0
APPID
  5
10068
330
9
100
AcDbSymbolTableRecord
100
AcDbRegAppTableRecord
  2
ACAUTHENVIRON
 70
     0
  0
APPID
  5
1011A
330
9
100
AcDbSymbolTableRecord
100
AcDbRegAppTableRecord
  2
AcDbDynamicBlockTrueName
 70
     0
  0
APPID
  5
1011B
330
9
100
AcDbSymbolTableRecord
100
AcDbRegAppTableRecord
  2
AcDbDynamicBlockGUID
 70
     0
  0
APPID
  5
1011D
330
9
100
AcDbSymbolTableRecord
100
AcDbRegAppTableRecord
  2
ACDBBLOCKREPETAG
 70
     0
  0
APPID
  5
107E4
330
9
100
AcDbSymbolTableRecord
100
AcDbRegAppTableRecord
  2
ACAD_DSTYLE_DIMTEXT_FILL
 70
     0
  0
APPID
  5
107E7
330
9
100
AcDbSymbolTableRecord
100
AcDbRegAppTableRecord
  2
ACAD_DSTYLE_DIM_LINETYPE
 70
     0
  0
APPID
  5
107E8
330
9
100
AcDbSymbolTableRecord
100
AcDbRegAppTableRecord
  2
ACAD_DSTYLE_DIM_EXT1_LINETYPE
 70
     0
  0
APPID
  5
107E9
330
9
100
AcDbSymbolTableRecord
100
AcDbRegAppTableRecord
  2
ACAD_DSTYLE_DIM_EXT2_LINETYPE
 70
     0
  0
APPID
  5
10B47
330
9
100
AcDbSymbolTableRecord
100
AcDbRegAppTableRecord
  2
GEVID1210230728
 70
     0
  0
APPID
  5
11657
330
9
100
AcDbSymbolTableRecord
100
AcDbRegAppTableRecord
  2
GENIUS_GENDTOL_13
 70
     0
  0
ENDTAB
  0
TABLE
  2
DIMSTYLE
  5
A
330
0
100
AcDbSymbolTable
 70
    15
100
AcDbDimStyleTable
 71
     1
340
2EE
  0
DIMSTYLE
105
2EE
330
A
100
AcDbSymbolTableRecord
100
AcDbDimStyleTableRecord
  2
AM_DIN
 70
     0
  4
"
 41
65.0
 42
1.0
 43
10.0
 44
25.0
 47
0.1
 48
0.1
 73
     0
 74
     0
 77
     1
 78
     8
 79
     2
140
50.0
141
0.0
143
0.0393701
146
0.71
147
15.0
172
     1
176
   256
177
   256
178
     2
271
     0
272
     0
283
     0
284
     8
340
11
371
    -1
372
    -1
1001
ACAD_DSTYLE_DIMEXT_LENGTH
1070
   378
1040
1.0
1001
ACAD_DSTYLE_DIMEXT_ENABLED
1070
   383
1070
     0
1001
ACAD_DSTYLE_DIMARC_LENGTH_SYMBOL
1070
   379
1070
     0
1001
ACAD_DSTYLE_DIMJOGGED_JOGANGLE_SYMBOL
1070
   384
1040
1.570796326794896
  0
DIMSTYLE
105
2FF
330
A
100
AcDbSymbolTableRecord
100
AcDbDimStyleTableRecord
  2
AM_DIN$3
 70
     0
  4
"
 41
65.0
 42
1.0
 43
10.0
 44
25.0
 47
0.1
 48
0.1
 73
     0
 77
     1
 78
     8
 79
     2
140
50.0
141
0.0
143
0.0393701
146
0.71
147
15.0
176
   256
177
   256
178
     2
271
     0
272
     0
283
     0
284
     8
288
     1
289
     0
340
11
371
    -1
372
    -1
1001
ACAD_DSTYLE_DIMARC_LENGTH_SYMBOL
1070
   379
1070
     0
1001
ACAD_DSTYLE_DIMJOGGED_JOGANGLE_SYMBOL
1070
   384
1040
1.570796326794896
  0
DIMSTYLE
105
304
330
A
100
AcDbSymbolTableRecord
100
AcDbDimStyleTableRecord
  2
AM_DIN$4
 70
     0
  4
"
 41
65.0
 42
1.0
 43
10.0
 44
25.0
 47
0.1
 48
0.1
 73
     0
 77
     1
 78
     8
 79
     2
140
50.0
141
0.0
143
0.0393701
146
0.71
147
15.0
176
   256
177
   256
178
     2
271
     0
272
     0
283
     0
284
     8
288
     1
289
     0
340
11
371
    -1
372
    -1
1001
ACAD_DSTYLE_DIMARC_LENGTH_SYMBOL
1070
   379
1070
     0
1001
ACAD_DSTYLE_DIMJOGGED_JOGANGLE_SYMBOL
1070
   384
1040
1.570796326794896
  0
DIMSTYLE
105
309
330
A
100
AcDbSymbolTableRecord
100
AcDbDimStyleTableRecord
  2
AM_DIN$6
 70
     0
  4
"
 41
65.0
 42
1.0
 43
10.0
 44
25.0
 47
0.1
 48
0.1
 73
     0
 74
     0
 78
     8
 79
     2
140
50.0
141
0.0
143
0.0393701
146
0.71
147
15.0
172
     1
176
   256
177
   256
178
     2
271
     0
272
     0
283
     0
284
     8
340
11
371
    -1
372
    -1
1001
ACAD_DSTYLE_DIMARC_LENGTH_SYMBOL
1070
   379
1070
     0
1001
ACAD_DSTYLE_DIMJOGGED_JOGANGLE_SYMBOL
1070
   384
1040
1.570796326794896
  0
DIMSTYLE
105
30E
330
A
100
AcDbSymbolTableRecord
100
AcDbDimStyleTableRecord
  2
AM_DIN$7
 70
     0
  4
"
 41
65.0
 42
1.0
 43
10.0
 44
25.0
 47
0.1
 48
0.1
 73
     0
 74
     0
 77
     1
 78
     8
 79
     2
140
5.0
141
0.0
143
0.0393701
146
0.71
147
15.0
172
     1
176
   256
177
   256
178
     2
271
     0
272
     0
283
     0
284
     8
340
11
371
    -1
372
    -1
1001
ACAD_DSTYLE_DIMARC_LENGTH_SYMBOL
1070
   379
1070
     0
1001
ACAD_DSTYLE_DIMJOGGED_JOGANGLE_SYMBOL
1070
   384
1040
1.570796326794896
  0
DIMSTYLE
105
313
330
A
100
AcDbSymbolTableRecord
100
AcDbDimStyleTableRecord
  2
AM_DIN$SF
 70
     0
  4
"
 41
2.5
 42
1.0
 43
10.0
 44
1.0
 47
0.1
 48
0.1
 73
     0
 74
     0
 75
     1
 76
     1
 77
     1
 78
     8
 79
     2
140
3.5
141
0.0
143
0.0393701
146
0.71
147
1.5
172
     1
176
   256
177
   256
178
     2
271
     2
272
     3
274
     4
283
     0
284
     8
340
11
371
    -1
372
    -1
1001
ACAD_DSTYLE_DIMARC_LENGTH_SYMBOL
1070
   379
1070
     0
1001
ACAD_DSTYLE_DIMJOGGED_JOGANGLE_SYMBOL
1070
   384
1040
1.570796326794896
  0
DIMSTYLE
105
318
330
A
100
AcDbSymbolTableRecord
100
AcDbDimStyleTableRecord
  2
AM_DIN$SH
 70
     0
  4
"
 41
2.5
 42
1.0
 43
10.0
 44
1.0
 47
0.1
 48
0.1
 73
     0
 74
     0
 75
     1
 76
     1
 77
     1
 78
     8
 79
     2
140
3.5
141
0.0
143
0.0393701
144
2.0
146
0.71
147
1.5
172
     1
173
     1
176
   256
177
   256
178
     2
271
     2
272
     3
274
     4
283
     0
284
     8
340
11
343
87
371
    -1
372
    -1
1001
ACAD_DSTYLE_DIMARC_LENGTH_SYMBOL
1070
   379
1070
     0
1001
ACAD_DSTYLE_DIMJOGGED_JOGANGLE_SYMBOL
1070
   384
1040
1.570796326794896
  0
DIMSTYLE
105
7C7E
102
{ACAD_REACTORS
330
18881
330
18882
330
18883
330
18884
330
188E7
330
188E8
102
}
330
A
100
AcDbSymbolTableRecord
100
AcDbDimStyleTableRecord
  2
AM_DIN$0
 70
     0
  4
"
 41
65.0
 42
1.0
 43
10.0
 44
25.0
 47
0.1
 48
0.1
 73
     0
 74
     0
 77
     1
 78
     8
 79
     2
140
50.0
141
0.0
143
0.0393701
146
0.71
147
15.0
172
     1
176
   256
177
   256
178
     2
271
     0
272
     0
283
     0
284
     8
340
11
371
    -1
372
    -1
1001
ACAD_DSTYLE_DIMARC_LENGTH_SYMBOL
1070
   379
1070
     0
1001
ACAD_DSTYLE_DIMJOGGED_JOGANGLE_SYMBOL
1070
   384
1040
1.570796326794896
  0
DIMSTYLE
105
166A5
330
A
100
AcDbSymbolTableRecord
100
AcDbDimStyleTableRecord
  2
AM_ISO
 70
     0
  4
"
 41
2.5
 42
1.0
 43
10.0
 44
1.0
 47
0.1
 48
0.1
 73
     0
 74
     0
 77
     1
 78
     8
 79
     2
140
3.5
141
0.0
143
0.0393701
146
0.71
147
1.5
172
     1
176
   256
177
   256
178
     2
271
     2
272
     3
274
     4
283
     0
284
     8
340
11
371
    -1
372
    -1
1001
ACAD_DSTYLE_DIMARC_LENGTH_SYMBOL
1070
   379
1070
     1
1001
ACAD_DSTYLE_DIMJOGGED_JOGANGLE_SYMBOL
1070
   384
1040
0.7853981633974483
  0
DIMSTYLE
105
166A6
330
A
100
AcDbSymbolTableRecord
100
AcDbDimStyleTableRecord
  2
AM_ISO$3
 70
     0
  4
"
 41
2.5
 42
1.0
 43
10.0
 44
1.0
 47
0.1
 48
0.1
 73
     0
 77
     1
 78
     8
 79
     2
140
3.5
141
0.0
143
0.0393701
146
0.71
147
1.5
176
   256
177
   256
178
     2
271
     2
272
     3
274
     4
283
     0
284
     8
288
     1
289
     0
340
11
371
    -1
372
    -1
1001
ACAD_DSTYLE_DIMARC_LENGTH_SYMBOL
1070
   379
1070
     1
1001
ACAD_DSTYLE_DIMJOGGED_JOGANGLE_SYMBOL
1070
   384
1040
0.7853981633974483
  0
DIMSTYLE
105
166A7
330
A
100
AcDbSymbolTableRecord
100
AcDbDimStyleTableRecord
  2
AM_ISO$4
 70
     0
  4
"
 41
2.5
 42
1.0
 43
10.0
 44
1.0
 47
0.1
 48
0.1
 73
     0
 77
     1
 78
     8
 79
     2
140
3.5
141
0.0
143
0.0393701
146
0.71
147
1.5
176
   256
177
   256
178
     2
271
     2
272
     3
274
     4
283
     0
284
     8
288
     1
289
     0
340
11
371
    -1
372
    -1
1001
ACAD_DSTYLE_DIMARC_LENGTH_SYMBOL
1070
   379
1070
     1
1001
ACAD_DSTYLE_DIMJOGGED_JOGANGLE_SYMBOL
1070
   384
1040
0.7853981633974483
  0
DIMSTYLE
105
166A8
330
A
100
AcDbSymbolTableRecord
100
AcDbDimStyleTableRecord
  2
AM_ISO$6
 70
     0
  4
"
 41
2.5
 42
1.0
 43
10.0
 44
1.0
 47
0.1
 48
0.1
 73
     0
 74
     0
 78
     8
 79
     2
140
3.5
141
0.0
143
0.0393701
146
0.71
147
1.5
172
     1
176
   256
177
   256
178
     2
271
     2
272
     3
274
     4
283
     0
284
     8
340
11
371
    -1
372
    -1
1001
ACAD_DSTYLE_DIMARC_LENGTH_SYMBOL
1070
   379
1070
     1
1001
ACAD_DSTYLE_DIMJOGGED_JOGANGLE_SYMBOL
1070
   384
1040
0.7853981633974483
  0
DIMSTYLE
105
166A9
330
A
100
AcDbSymbolTableRecord
100
AcDbDimStyleTableRecord
  2
AM_ISO$7
 70
     0
  4
"
 41
2.5
 42
1.0
 43
10.0
 44
1.0
 47
0.1
 48
0.1
 73
     0
 74
     0
 77
     1
 78
     8
 79
     2
140
5.0
141
0.0
143
0.0393701
146
0.71
147
1.5
172
     1
176
   256
177
   256
178
     2
271
     2
272
     3
274
     4
283
     0
284
     8
340
11
371
    -1
372
    -1
1001
ACAD_DSTYLE_DIMARC_LENGTH_SYMBOL
1070
   379
1070
     1
1001
ACAD_DSTYLE_DIMJOGGED_JOGANGLE_SYMBOL
1070
   384
1040
0.7853981633974483
  0
DIMSTYLE
105
166AA
330
A
100
AcDbSymbolTableRecord
100
AcDbDimStyleTableRecord
  2
AM_ISO$SF
 70
     0
  4
"
 41
2.5
 42
1.0
 43
10.0
 44
1.0
 47
0.1
 48
0.1
 73
     0
 74
     0
 75
     1
 76
     1
 77
     1
 78
     8
 79
     2
140
3.5
141
0.0
143
0.0393701
146
0.71
147
1.5
172
     1
176
   256
177
   256
178
     2
271
     2
272
     3
274
     4
283
     0
284
     8
340
11
371
    -1
372
    -1
1001
ACAD_DSTYLE_DIMARC_LENGTH_SYMBOL
1070
   379
1070
     1
1001
ACAD_DSTYLE_DIMJOGGED_JOGANGLE_SYMBOL
1070
   384
1040
0.7853981633974483
  0
DIMSTYLE
105
166AB
330
A
100
AcDbSymbolTableRecord
100
AcDbDimStyleTableRecord
  2
AM_ISO$SH
 70
     0
  4
"
 41
2.5
 42
1.0
 43
10.0
 44
1.0
 47
0.1
 48
0.1
 73
     0
 74
     0
 75
     1
 76
     1
 77
     1
 78
     8
 79
     2
140
3.5
141
0.0
143
0.0393701
144
2.0
146
0.71
147
1.5
172
     1
173
     1
176
   256
177
   256
178
     2
271
     2
272
     3
274
     4
283
     0
284
     8
340
11
343
87
371
    -1
372
    -1
1001
ACAD_DSTYLE_DIMARC_LENGTH_SYMBOL
1070
   379
1070
     1
1001
ACAD_DSTYLE_DIMJOGGED_JOGANGLE_SYMBOL
1070
   384
1040
0.7853981633974483
  0
ENDTAB
  0
TABLE
  2
BLOCK_RECORD
  5
1
330
0
100
AcDbSymbolTable
 70
     9
  0
BLOCK_RECORD
  5
1F
102
{ACAD_XDICTIONARY
360
8F
102
}
330
1
100
AcDbSymbolTableRecord
100
AcDbBlockTableRecord
  2
*Model_Space
340
22
  0
BLOCK_RECORD
  5
1B
330
1
100
AcDbSymbolTableRecord
100
AcDbBlockTableRecord
  2
*Paper_Space
340
1E
  0
BLOCK_RECORD
  5
23
330
1
100
AcDbSymbolTableRecord
100
AcDbBlockTableRecord
  2
*Paper_Space0
340
26
  0
BLOCK_RECORD
  5
87
102
{ACAD_XDICTIONARY
360
10117
102
}
330
1
100
AcDbSymbolTableRecord
100
AcDbBlockTableRecord
  2
GENAXEH
340
0
1001
AcDbDynamicBlockGUID
1000
{D68C792B-0B99-4E0B-8B7B-1EAC83B216F4}
1001
ACDBBLOCKREPETAG
1070
     1
1071
        0
  0
BLOCK_RECORD
  5
188EA
330
1
100
AcDbSymbolTableRecord
100
AcDbBlockTableRecord
  2
*D3
340
0
  0
BLOCK_RECORD
  5
188F6
330
1
100
AcDbSymbolTableRecord
100
AcDbBlockTableRecord
  2
*D4
340
0
  0
BLOCK_RECORD
  5
18902
330
1
100
AcDbSymbolTableRecord
100
AcDbBlockTableRecord
  2
*D5
340
0
  0
BLOCK_RECORD
  5
1890E
330
1
100
AcDbSymbolTableRecord
100
AcDbBlockTableRecord
  2
*D6
340
0
  0
BLOCK_RECORD
  5
1891A
330
1
100
AcDbSymbolTableRecord
100
AcDbBlockTableRecord
  2
*D7
340
0
  0
BLOCK_RECORD
  5
18926
330
1
100
AcDbSymbolTableRecord
100
AcDbBlockTableRecord
  2
*D8
340
0
  0
ENDTAB
  0
ENDSEC
  0
SECTION
  2
BLOCKS
  0
BLOCK
  5
20
330
1F
100
AcDbEntity
  8
0
100
AcDbBlockBegin
  2
*Model_Space
 70
     0
 10
0.0
 20
0.0
 30
0.0
  3
*Model_Space
  1

  0
ENDBLK
  5
21
330
1F
100
AcDbEntity
  8
0
100
AcDbBlockEnd
  0
BLOCK
  5
1C
330
1B
100
AcDbEntity
 67
     1
  8
0
100
AcDbBlockBegin
  2
*Paper_Space
 70
     0
 10
0.0
 20
0.0
 30
0.0
  3
*Paper_Space
  1

  0
ENDBLK
  5
1D
330
1B
100
AcDbEntity
 67
     1
  8
0
100
AcDbBlockEnd
  0
BLOCK
  5
24
330
23
100
AcDbEntity
 67
     1
  8
0
100
AcDbBlockBegin
  2
*Paper_Space0
 70
     0
 10
0.0
 20
0.0
 30
0.0
  3
*Paper_Space0
  1

  0
ENDBLK
  5
25
330
23
100
AcDbEntity
 67
     1
  8
0
100
AcDbBlockEnd
  0
BLOCK
  5
2ADE
330
87
100
AcDbEntity
  8
0
100
AcDbBlockBegin
  2
GENAXEH
 70
     0
 10
0.0
 20
0.0
 30
0.0
  3
GENAXEH
  1

  0
ENDBLK
  5
2AE0
330
87
100
AcDbEntity
  8
0
100
AcDbBlockEnd
  0
BLOCK
  5
188F4
330
188EA
100
AcDbEntity
  8
0
100
AcDbBlockBegin
  2
*D3
 70
     1
 10
0.0
 20
0.0
 30
0.0
  3
*D3
  1

  0
LINE
  5
18E70
330
188EA
100
AcDbEntity
  8
AM_5
100
AcDbLine
 10
17312.66201932856
 20
-569.6970251609378
 30
0.0
 11
17312.66201932856
 21
-379.8105090741092
 31
0.0
  0
LINE
  5
18E71
330
188EA
100
AcDbEntity
  8
AM_5
100
AcDbLine
 10
17766.68201937537
 20
-569.6970251609378
 30
0.0
 11
17766.68201937537
 21
-379.8105090741092
 31
0.0
  0
LINE
  5
18E72
330
188EA
100
AcDbEntity
  8
AM_5
100
AcDbLine
 10
17352.66201932856
 20
-404.8105090741091
 30
0.0
 11
17726.68201937537
 21
-404.8105090741091
 31
0.0
  0
SOLID
  5
18E73
330
188EA
100
AcDbEntity
  8
AM_5
100
AcDbTrace
 10
17352.66201932856
 20
-398.1438424074425
 30
0.0
 11
17352.66201932856
 21
-411.4771757407758
 31
0.0
 12
17312.66201932856
 22
-404.8105090741091
 32
0.0
 13
17312.66201932856
 23
-404.8105090741091
 33
0.0
  0
SOLID
  5
18E74
330
188EA
100
AcDbEntity
  8
AM_5
100
AcDbTrace
 10
17726.68201937537
 20
-398.1438424074425
 30
0.0
 11
17726.68201937537
 21
-411.4771757407758
 31
0.0
 12
17766.68201937537
 22
-404.8105090741091
 32
0.0
 13
17766.68201937537
 23
-404.8105090741091
 33
0.0
  0
MTEXT
  5
18E75
330
188EA
100
AcDbEntity
  8
AM_5
 62
     2
100
AcDbMText
 10
17539.67201935197
 20
-368.2688992514625
 30
0.0
 40
40.0
 41
0.0
 71
     5
 72
     1
  1
li. %%c 455
 73
     1
 44
1.0
1001
ACAD
1000
MTEXTBEGIN
1070
    73
1070
     1
1070
    44
1040
1.0
1070
    74
1070
     0
1000
MTEXTEND
  0
POINT
  5
18E76
330
188EA
100
AcDbEntity
  8
Defpoints
 62
     0
100
AcDbPoint
 10
17312.66201932856
 20
-570.6970251609377
 30
0.0
  0
POINT
  5
18E77
330
188EA
100
AcDbEntity
  8
Defpoints
 62
     0
100
AcDbPoint
 10
17766.68201937537
 20
-570.6970251609377
 30
0.0
  0
POINT
  5
18E78
330
188EA
100
AcDbEntity
  8
Defpoints
 62
     0
100
AcDbPoint
 10
17766.68201937537
 20
-404.8105090741091
 30
0.0
  0
ENDBLK
  5
188F5
330
188EA
100
AcDbEntity
  8
0
100
AcDbBlockEnd
  0
BLOCK
  5
18900
330
188F6
100
AcDbEntity
  8
0
100
AcDbBlockBegin
  2
*D4
 70
     1
 10
0.0
 20
0.0
 30
0.0
  3
*D4
  1

  0
LINE
  5
18EB1
330
188F6
100
AcDbEntity
  8
AM_5
100
AcDbLine
 10
17320.65161295442
 20
-986.6073030399892
 30
0.0
 11
16861.49753182549
 21
-986.607303039989
 31
0.0
  0
LINE
  5
18EB2
330
188F6
100
AcDbEntity
  8
AM_5
100
AcDbLine
 10
17538.67227181672
 20
-461.5901770444581
 30
0.0
 11
16861.49753182549
 21
-461.5901770444579
 31
0.0
  0
LINE
  5
18EB3
330
188F6
100
AcDbEntity
  8
AM_5
100
AcDbLine
 10
16886.49753182549
 20
-946.6073030399892
 30
0.0
 11
16886.49753182549
 21
-501.5901770444578
 31
0.0
  0
SOLID
  5
18EB4
330
188F6
100
AcDbEntity
  8
AM_5
100
AcDbTrace
 10
16879.83086515882
 20
-946.6073030399892
 30
0.0
 11
16893.16419849216
 21
-946.6073030399892
 31
0.0
 12
16886.49753182549
 22
-986.607303039989
 32
0.0
 13
16886.49753182549
 23
-986.607303039989
 33
0.0
  0
SOLID
  5
18EB5
330
188F6
100
AcDbEntity
  8
AM_5
100
AcDbTrace
 10
16879.83086515882
 20
-501.5901770444578
 30
0.0
 11
16893.16419849216
 21
-501.5901770444578
 31
0.0
 12
16886.49753182549
 22
-461.5901770444579
 32
0.0
 13
16886.49753182549
 23
-461.5901770444579
 33
0.0
  0
MTEXT
  5
18EB6
330
188F6
100
AcDbEntity
  8
AM_5
 62
     2
100
AcDbMText
 10
16851.07461231662
 20
-736.1203746245118
 30
0.0
 40
40.0
 41
0.0
 71
     5
 72
     1
  1
525
 11
0.0000000000000001
 21
1.0
 31
0.0
 73
     1
 44
1.0
1001
ACAD
1000
MTEXTBEGIN
1070
    73
1070
     1
1070
    44
1040
1.0
1070
    74
1070
     0
1000
MTEXTEND
  0
POINT
  5
18EB7
330
188F6
100
AcDbEntity
  8
Defpoints
 62
     0
100
AcDbPoint
 10
17321.65161295442
 20
-986.6073030399892
 30
0.0
  0
POINT
  5
18EB8
330
188F6
100
AcDbEntity
  8
Defpoints
 62
     0
100
AcDbPoint
 10
17539.67227181672
 20
-461.5901770444581
 30
0.0
  0
POINT
  5
18EB9
330
188F6
100
AcDbEntity
  8
Defpoints
 62
     0
100
AcDbPoint
 10
16886.49753182549
 20
-461.5901770444579
 30
0.0
  0
ENDBLK
  5
18901
330
188F6
100
AcDbEntity
  8
0
100
AcDbBlockEnd
  0
BLOCK
  5
1890C
330
18902
100
AcDbEntity
  8
0
100
AcDbBlockBegin
  2
*D5
 70
     1
 10
0.0
 20
0.0
 30
0.0
  3
*D5
  1

  0
LINE
  5
18EE6
330
18902
100
AcDbEntity
  8
AM_5
100
AcDbLine
 10
17320.69914244515
 20
-986.6073595167804
 30
0.0
 11
17118.1318551807
 21
-986.6073595167804
 31
0.0
  0
LINE
  5
18EE7
330
18902
100
AcDbEntity
  8
AM_5
100
AcDbLine
 10
17164.7887762784
 20
-765.6089256604145
 30
0.0
 11
17118.1318551807
 21
-765.6089256604144
 31
0.0
  0
LINE
  5
18EE8
330
18902
100
AcDbEntity
  8
AM_5
100
AcDbLine
 10
17143.1318551807
 20
-946.6073595167804
 30
0.0
 11
17143.1318551807
 21
-805.6089256604144
 31
0.0
  0
SOLID
  5
18EE9
330
18902
100
AcDbEntity
  8
AM_5
100
AcDbTrace
 10
17136.46518851403
 20
-946.6073595167804
 30
0.0
 11
17149.79852184737
 21
-946.6073595167804
 31
0.0
 12
17143.1318551807
 22
-986.6073595167804
 32
0.0
 13
17143.1318551807
 23
-986.6073595167804
 33
0.0
  0
SOLID
  5
18EEA
330
18902
100
AcDbEntity
  8
AM_5
100
AcDbTrace
 10
17136.46518851403
 20
-805.6089256604144
 30
0.0
 11
17149.79852184737
 21
-805.6089256604144
 31
0.0
 12
17143.1318551807
 22
-765.6089256604144
 32
0.0
 13
17143.1318551807
 23
-765.6089256604144
 33
0.0
  0
MTEXT
  5
18EEB
330
18902
100
AcDbEntity
  8
AM_5
 62
     2
100
AcDbMText
 10
17108.04999979189
 20
-879.6508342241141
 30
0.0
 40
40.0
 41
0.0
 71
     5
 72
     1
  1
221
 11
0.0000000000000001
 21
1.0
 31
0.0
 73
     1
 44
1.0
1001
ACAD
1000
MTEXTBEGIN
1070
    73
1070
     1
1070
    44
1040
1.0
1070
    74
1070
     0
1000
MTEXTEND
  0
POINT
  5
18EEC
330
18902
100
AcDbEntity
  8
Defpoints
 62
     0
100
AcDbPoint
 10
17321.69914244515
 20
-986.6073595167804
 30
0.0
  0
POINT
  5
18EED
330
18902
100
AcDbEntity
  8
Defpoints
 62
     0
100
AcDbPoint
 10
17165.7887762784
 20
-765.6089256604145
 30
0.0
  0
POINT
  5
18EEE
330
18902
100
AcDbEntity
  8
Defpoints
 62
     0
100
AcDbPoint
 10
17143.1318551807
 20
-765.6089256604144
 30
0.0
  0
ENDBLK
  5
1890D
330
18902
100
AcDbEntity
  8
0
100
AcDbBlockEnd
  0
BLOCK
  5
18918
330
1890E
100
AcDbEntity
  8
0
100
AcDbBlockBegin
  2
*D6
 70
     1
 10
0.0
 20
0.0
 30
0.0
  3
*D6
  1

  0
LINE
  5
18F06
330
1890E
100
AcDbEntity
  8
AM_5
100
AcDbLine
 10
17252.15601877342
 20
-851.3688742186658
 30
0.0
 11
17252.15601877342
 21
-1447.085838600067
 31
0.0
  0
LINE
  5
18F07
330
1890E
100
AcDbEntity
  8
AM_5
100
AcDbLine
 10
17806.62603530744
 20
-1001.590975954524
 30
0.0
 11
17806.62603530744
 21
-1447.085838600067
 31
0.0
  0
LINE
  5
18F08
330
1890E
100
AcDbEntity
  8
AM_5
100
AcDbLine
 10
17292.15601877342
 20
-1422.085838600067
 30
0.0
 11
17766.62603530744
 21
-1422.085838600067
 31
0.0
  0
SOLID
  5
18F09
330
1890E
100
AcDbEntity
  8
AM_5
100
AcDbTrace
 10
17292.15601877342
 20
-1415.419171933401
 30
0.0
 11
17292.15601877342
 21
-1428.752505266734
 31
0.0
 12
17252.15601877342
 22
-1422.085838600067
 32
0.0
 13
17252.15601877342
 23
-1422.085838600067
 33
0.0
  0
SOLID
  5
18F0A
330
1890E
100
AcDbEntity
  8
AM_5
100
AcDbTrace
 10
17766.62603530744
 20
-1415.419171933401
 30
0.0
 11
17766.62603530744
 21
-1428.752505266734
 31
0.0
 12
17806.62603530744
 22
-1422.085838600067
 32
0.0
 13
17806.62603530744
 23
-1422.085838600067
 33
0.0
  0
MTEXT
  5
18F0B
330
1890E
100
AcDbEntity
  8
AM_5
 62
     2
100
AcDbMText
 10
17406.40346503222
 20
-1386.744774480012
 30
0.0
 40
40.0
 41
0.0
 71
     5
 72
     1
  1
555
 73
     1
 44
1.0
1001
ACAD
1000
MTEXTBEGIN
1070
    73
1070
     1
1070
    44
1040
1.0
1070
    74
1070
     0
1000
MTEXTEND
  0
POINT
  5
18F0C
330
1890E
100
AcDbEntity
  8
Defpoints
 62
     0
100
AcDbPoint
 10
17252.15601877342
 20
-850.3688742186659
 30
0.0
  0
POINT
  5
18F0D
330
1890E
100
AcDbEntity
  8
Defpoints
 62
     0
100
AcDbPoint
 10
17806.62603530744
 20
-1000.590975954524
 30
0.0
  0
POINT
  5
18F0E
330
1890E
100
AcDbEntity
  8
Defpoints
 62
     0
100
AcDbPoint
 10
17806.62603530744
 20
-1422.085838600067
 30
0.0
  0
ENDBLK
  5
18919
330
1890E
100
AcDbEntity
  8
0
100
AcDbBlockEnd
  0
BLOCK
  5
18924
330
1891A
100
AcDbEntity
  8
0
100
AcDbBlockBegin
  2
*D7
 70
     1
 10
0.0
 20
0.0
 30
0.0
  3
*D7
  1

  0
LINE
  5
18F2D
330
1891A
100
AcDbEntity
  8
AM_5
100
AcDbLine
 10
17252.15601877342
 20
-751.3688742186659
 30
0.0
 11
17252.15601877342
 21
-1206.916676071062
 31
0.0
  0
LINE
  5
18F2E
330
1891A
100
AcDbEntity
  8
AM_5
100
AcDbLine
 10
17694.67092166337
 20
-1073.195725096276
 30
0.0
 11
17694.67092166337
 21
-1206.916676071062
 31
0.0
  0
LINE
  5
18F2F
330
1891A
100
AcDbEntity
  8
AM_5
100
AcDbLine
 10
17292.15601877342
 20
-1181.916676071062
 30
0.0
 11
17654.67092166337
 21
-1181.916676071062
 31
0.0
  0
SOLID
  5
18F30
330
1891A
100
AcDbEntity
  8
AM_5
100
AcDbTrace
 10
17292.15601877342
 20
-1175.250009404395
 30
0.0
 11
17292.15601877342
 21
-1188.583342737729
 31
0.0
 12
17252.15601877342
 22
-1181.916676071062
 32
0.0
 13
17252.15601877342
 23
-1181.916676071062
 33
0.0
  0
SOLID
  5
18F31
330
1891A
100
AcDbEntity
  8
AM_5
100
AcDbTrace
 10
17654.67092166337
 20
-1175.250009404395
 30
0.0
 11
17654.67092166337
 21
-1188.583342737729
 31
0.0
 12
17694.67092166337
 22
-1181.916676071062
 32
0.0
 13
17694.67092166337
 23
-1181.916676071062
 33
0.0
  0
MTEXT
  5
18F32
330
1891A
100
AcDbEntity
  8
AM_5
 62
     2
100
AcDbMText
 10
17459.64102704045
 20
-1146.480113997392
 30
0.0
 40
40.0
 41
0.0
 71
     5
 72
     1
  1
443
 73
     1
 44
1.0
1001
ACAD
1000
MTEXTBEGIN
1070
    73
1070
     1
1070
    44
1040
1.0
1070
    74
1070
     0
1000
MTEXTEND
  0
POINT
  5
18F33
330
1891A
100
AcDbEntity
  8
Defpoints
 62
     0
100
AcDbPoint
 10
17252.15601877342
 20
-750.368874218666
 30
0.0
  0
POINT
  5
18F34
330
1891A
100
AcDbEntity
  8
Defpoints
 62
     0
100
AcDbPoint
 10
17694.67092166337
 20
-1072.195725096276
 30
0.0
  0
POINT
  5
18F35
330
1891A
100
AcDbEntity
  8
Defpoints
 62
     0
100
AcDbPoint
 10
17694.67092166337
 20
-1181.916676071062
 30
0.0
  0
ENDBLK
  5
18925
330
1891A
100
AcDbEntity
  8
0
100
AcDbBlockEnd
  0
BLOCK
  5
18932
330
18926
100
AcDbEntity
  8
0
100
AcDbBlockBegin
  2
*D8
 70
     1
 10
0.0
 20
0.0
 30
0.0
  3
*D8
  1

  0
LINE
  5
18EF0
330
18926
100
AcDbEntity
  8
AM_5
100
AcDbLine
 10
17638.6713114261
 20
-1056.606863445888
 30
0.0
 11
17118.1318551807
 21
-1056.606863445888
 31
0.0
  0
LINE
  5
18EF1
330
18926
100
AcDbEntity
  8
AM_5
100
AcDbLine
 10
17320.69914244515
 20
-986.6073595167804
 30
0.0
 11
17118.1318551807
 21
-986.6073595167804
 31
0.0
  0
LINE
  5
18EF2
330
18926
100
AcDbEntity
  8
AM_5
100
AcDbLine
 10
17143.1318551807
 20
-946.6073595167804
 30
0.0
 11
17143.1318551807
 21
-906.6073595167804
 31
0.0
  0
LINE
  5
18EF3
330
18926
100
AcDbEntity
  8
AM_5
100
AcDbLine
 10
17143.1318551807
 20
-1096.606863445888
 30
0.0
 11
17143.1318551807
 21
-1279.981153301289
 31
0.0
  0
LINE
  5
18EF4
330
18926
100
AcDbEntity
  8
AM_5
100
AcDbLine
 10
17143.1318551807
 20
-986.6073595167804
 30
0.0
 11
17143.1318551807
 21
-1056.606863445888
 31
0.0
  0
SOLID
  5
18EF5
330
18926
100
AcDbEntity
  8
AM_5
100
AcDbTrace
 10
17136.46518851404
 20
-946.6073595167804
 30
0.0
 11
17149.79852184737
 21
-946.6073595167804
 31
0.0
 12
17143.1318551807
 22
-986.6073595167804
 32
0.0
 13
17143.1318551807
 23
-986.6073595167804
 33
0.0
  0
SOLID
  5
18EF6
330
18926
100
AcDbEntity
  8
AM_5
100
AcDbTrace
 10
17136.46518851404
 20
-1096.606863445888
 30
0.0
 11
17149.79852184737
 21
-1096.606863445888
 31
0.0
 12
17143.1318551807
 22
-1056.606863445888
 32
0.0
 13
17143.1318551807
 23
-1056.606863445888
 33
0.0
  0
MTEXT
  5
18EF7
330
18926
100
AcDbEntity
  8
AM_5
 62
     2
100
AcDbMText
 10
17107.70893567184
 20
-1236.563690818339
 30
0.0
 40
40.0
 41
0.0
 71
     5
 72
     1
  1
70
 11
0.0000000000000001
 21
1.0
 31
0.0
 73
     1
 44
1.0
1001
ACAD
1000
MTEXTBEGIN
1070
    73
1070
     1
1070
    44
1040
1.0
1070
    74
1070
     0
1000
MTEXTEND
  0
POINT
  5
18EF8
330
18926
100
AcDbEntity
  8
Defpoints
 62
     0
100
AcDbPoint
 10
17639.6713114261
 20
-1056.606863445888
 30
0.0
  0
POINT
  5
18EF9
330
18926
100
AcDbEntity
  8
Defpoints
 62
     0
100
AcDbPoint
 10
17321.69914244515
 20
-986.6073595167804
 30
0.0
  0
POINT
  5
18EFA
330
18926
100
AcDbEntity
  8
Defpoints
 62
     0
100
AcDbPoint
 10
17143.1318551807
 20
-986.6073595167804
 30
0.0
  0
ENDBLK
  5
18933
330
18926
100
AcDbEntity
  8
0
100
AcDbBlockEnd
  0
ENDSEC
  0
SECTION
  2
ENTITIES
  0
LINE
  5
1887D
330
1F
100
AcDbEntity
  8
bezugslinien
100
AcDbLine
 10
17022.08794568529
 20
-765.6089256604136
 30
0.0
 11
16947.08794568529
 21
-765.6089256604136
 31
0.0
  0
SOLID
  5
1887E
330
1F
100
AcDbEntity
  8
bezugslinien
100
AcDbTrace
 10
17022.08794568529
 20
-754.7755923270792
 30
0.0
 11
17022.08794568529
 21
-776.4422589937467
 31
0.0
 12
17087.08794568529
 22
-765.6089256604136
 32
0.0
 13
17087.08794568529
 23
-765.6089256604136
 33
0.0
  0
LINE
  5
1887F
330
1F
100
AcDbEntity
  8
bezugslinien
100
AcDbLine
 10
17694.67092166337
 20
-1316.441307015955
 30
0.0
 11
17694.67092166337
 21
-1241.441307015954
 31
0.0
  0
SOLID
  5
18880
330
1F
100
AcDbEntity
  8
bezugslinien
100
AcDbTrace
 10
17705.50425499671
 20
-1316.441307015955
 30
0.0
 11
17683.83758833004
 21
-1316.441307015955
 31
0.0
 12
17694.67092166337
 22
-1381.441307015954
 32
0.0
 13
17694.67092166337
 23
-1381.441307015954
 33
0.0
  0
DIMENSION
  5
18881
330
1F
100
AcDbEntity
  8
AM_5
100
AcDbDimension
  2
*D3
 10
17766.68201937537
 20
-404.8105090741091
 30
0.0
 11
17539.67201935197
 21
-404.8105090741091
 31
0.0
 70
   160
  1
li. %%c 455
 71
     5
 42
454.0200000468103
  3
AM_DIN$0
100
AcDbAlignedDimension
 13
17312.66201932856
 23
-570.6970251609377
 33
0.0
 14
17766.68201937537
 24
-570.6970251609377
 34
0.0
100
AcDbRotatedDimension
1001
ACAD
1000
DSTYLE
1002
{
1070
    41
1040
40.0
1070
   140
1040
40.0
1002
}
  0
DIMENSION
  5
18882
330
1F
100
AcDbEntity
  8
AM_5
100
AcDbDimension
  2
*D4
 10
16886.49753182549
 20
-461.5901770444579
 30
0.0
 11
16886.49753182549
 21
-736.1203746245118
 31
0.0
 70
   160
  1
<>
 71
     5
 42
525.0171259955311
  3
AM_DIN$0
100
AcDbAlignedDimension
 13
17321.65161295442
 23
-986.6073030399892
 33
0.0
 14
17539.67227181672
 24
-461.5901770444581
 34
0.0
 50
90.0
100
AcDbRotatedDimension
1001
ACAD
1000
DSTYLE
1002
{
1070
    41
1040
40.0
1070
   140
1040
40.0
1002
}
  0
DIMENSION
  5
18883
330
1F
100
AcDbEntity
  8
AM_5
100
AcDbDimension
  2
*D5
 10
17143.1318551807
 20
-765.6089256604144
 30
0.0
 11
17143.1318551807
 21
-879.6508342241141
 31
0.0
 70
   160
  1
221
 71
     5
 42
220.998433856366
  3
AM_DIN$0
100
AcDbAlignedDimension
 13
17321.69914244515
 23
-986.6073595167804
 33
0.0
 14
17165.7887762784
 24
-765.6089256604145
 34
0.0
 50
90.0
100
AcDbRotatedDimension
1001
ACAD
1000
DSTYLE
1002
{
1070
   140
1040
40.0
1070
    41
1040
40.0
1002
}
  0
DIMENSION
  5
18884
330
1F
100
AcDbEntity
  8
AM_5
100
AcDbDimension
  2
*D6
 10
17806.62603530744
 20
-1422.085838600067
 30
0.0
 11
17406.40346503222
 21
-1422.085838600067
 31
0.0
 70
   160
  1
555
 71
     5
 42
554.4700165340145
  3
AM_DIN$0
100
AcDbAlignedDimension
 13
17252.15601877342
 23
-850.3688742186659
 33
0.0
 14
17806.62603530744
 24
-1000.590975954524
 34
0.0
100
AcDbRotatedDimension
1001
ACAD
1000
DSTYLE
1002
{
1070
    41
1040
40.0
1070
   140
1040
40.0
1002
}
  0
DIMENSION
  5
188E7
330
1F
100
AcDbEntity
  8
AM_5
100
AcDbDimension
  2
*D7
 10
17694.67092166337
 20
-1181.916676071062
 30
0.0
 11
17459.64102704045
 21
-1181.916676071062
 31
0.0
 70
   160
  1
443
 71
     5
 42
442.5149028899467
  3
AM_DIN$0
100
AcDbAlignedDimension
 13
17252.15601877342
 23
-750.368874218666
 33
0.0
 14
17694.67092166337
 24
-1072.195725096276
 34
0.0
100
AcDbRotatedDimension
1001
ACAD
1000
DSTYLE
1002
{
1070
    41
1040
40.0
1070
   140
1040
40.0
1002
}
  0
DIMENSION
  5
188E8
330
1F
100
AcDbEntity
  8
AM_5
100
AcDbDimension
  2
*D8
 10
17143.1318551807
 20
-986.6073595167804
 30
0.0
 11
17143.1318551807
 21
-1236.563690818339
 31
0.0
 70
   160
  1
70
 71
     5
 42
69.99950392910761
  3
AM_DIN$0
100
AcDbAlignedDimension
 13
17639.6713114261
 23
-1056.606863445888
 33
0.0
 14
17321.69914244515
 24
-986.6073595167804
 34
0.0
 50
90.0
100
AcDbRotatedDimension
1001
ACAD
1000
DSTYLE
1002
{
1070
   140
1040
40.0
1070
    41
1040
40.0
1002
}
  0
MTEXT
  5
188E9
330
1F
100
AcDbEntity
  8
Beschriftung
100
AcDbMText
 10
16946.82313086149
 20
-643.9370563905479
 30
0.0
 40
30.0
 41
1190.293354815057
 71
     1
 72
     5
  1
Zulauf DN 100\P/ %%C OD 110
 73
     1
 44
1.0
1001
ACAD
1000
ACAD_MTEXT_DEFINED_HEIGHT_BEGIN
1070
    46
1040
0.0
1000
ACAD_MTEXT_DEFINED_HEIGHT_END
1000
MTEXTBEGIN
1070
    73
1070
     1
1070
    44
1040
1.0
1070
    74
1070
     0
1000
MTEXTEND
  0
LINE
  5
18BA8
330
1F
100
AcDbEntity
  8
0
  6
Continuous
 62
     7
100
AcDbLine
 10
17639.6713114261
 20
-1056.606863445888
 30
0.0
 11
17749.67053190064
 21
-1056.606863445888
 31
0.0
  0
LINE
  5
18BA9
330
1F
100
AcDbEntity
  8
0
  6
Continuous
 62
     7
100
AcDbLine
 10
17303.43620245105
 20
-514.2912360126376
 30
0.0
 11
17293.43627331471
 21
-521.8267231153677
 31
0.0
  0
LINE
  5
18BAA
330
1F
100
AcDbEntity
  8
0
  6
Continuous
 62
     7
100
AcDbLine
 10
17647.67125473517
 20
-992.6073169985956
 30
0.0
 11
17741.67058859153
 21
-992.6073169985956
 31
0.0
  0
LINE
  5
18BAB
330
1F
100
AcDbEntity
  8
0
  6
Continuous
 62
     7
100
AcDbLine
 10
17633.67135394428
 20
-986.6073595167804
 30
0.0
 11
17321.69914244515
 21
-986.6073595167804
 31
0.0
  0
LINE
  5
18BAC
330
1F
100
AcDbEntity
  8
0
  6
Continuous
 62
     7
100
AcDbLine
 10
17755.21032079271
 20
-986.6073595167804
 30
0.0
 11
17757.64489774337
 21
-986.6073595167804
 31
0.0
  0
LINE
  5
18BAD
330
1F
100
AcDbEntity
  8
0
  6
Continuous
 62
     7
100
AcDbLine
 10
17798.67018466244
 20
-983.6073807695235
 30
0.0
 11
17769.76916746985
 21
-983.6073807695235
 31
0.0
  0
LINE
  5
18BAE
330
1F
100
AcDbEntity
  8
0
  6
Continuous
 62
     7
100
AcDbLine
 10
17321.69914244515
 20
-978.6074162076952
 30
0.0
 11
17757.64489774337
 21
-978.6074162076952
 31
0.0
  0
LINE
  5
18BAF
330
1F
100
AcDbEntity
  8
0
  6
Continuous
 62
     7
100
AcDbLine
 10
17794.6702130079
 20
-975.6074374604359
 30
0.0
 11
17769.76961553538
 21
-975.6074374604359
 31
0.0
  0
LINE
  5
18BB0
330
1F
100
AcDbEntity
  8
0
  6
Continuous
 62
     7
100
AcDbLine
 10
17309.83966331488
 20
-968.4379967521577
 30
0.0
 11
17760.37201417453
 21
-968.4362651321283
 31
0.0
  0
LINE
  5
18BB1
330
1F
100
AcDbEntity
  8
0
  6
Continuous
 62
     2
100
AcDbLine
 10
17330.00422294853
 20
-986.6073595167804
 30
0.0
 11
17317.07547643251
 21
-977.5545537401781
 31
0.0
  0
LINE
  5
18BB2
330
1F
100
AcDbEntity
  8
0
  6
Continuous
 62
     2
100
AcDbLine
 10
17312.62418341544
 20
-974.4377248100981
 30
0.0
 11
17301.53690293266
 21
-966.6743274338914
 31
0.0
  0
LINE
  5
18BB3
330
1F
100
AcDbEntity
  8
0
  6
Continuous
 62
     2
100
AcDbLine
 10
17345.7069027169
 20
-986.6073595167804
 30
0.0
 11
17334.28179962439
 21
-978.6074162076952
 31
0.0
  0
LINE
  5
18BB4
330
1F
100
AcDbEntity
  8
0
  6
Continuous
 62
     2
100
AcDbLine
 10
17308.82232198764
 20
-960.7804980453808
 30
0.0
 11
17299.92631034131
 21
-954.5514436358992
 31
0.0
  0
LINE
  5
18BB5
330
1F
100
AcDbEntity
  8
0
  6
Continuous
 62
     2
100
AcDbLine
 10
17361.40958248529
 20
-986.6073595167804
 30
0.0
 11
17349.98447939276
 21
-978.6074162076952
 31
0.0
  0
LINE
  5
18BB6
330
1F
100
AcDbEntity
  8
0
  6
Continuous
 62
     2
100
AcDbLine
 10
17307.21172940899
 20
-948.6576142346901
 30
0.0
 11
17298.31571776263
 21
-942.4285598252083
 31
0.0
  0
LINE
  5
18BB7
330
1F
100
AcDbEntity
  8
0
  6
Continuous
 62
     2
100
AcDbLine
 10
17377.11226224095
 20
-986.6073595167804
 30
0.0
 11
17365.68715916113
 21
-978.6074162076952
 31
0.0
  0
LINE
  5
18BB8
330
1F
100
AcDbEntity
  8
0
  6
Continuous
 62
     2
100
AcDbLine
 10
17305.60113683032
 20
-936.5347304239993
 30
0.0
 11
17296.70512518396
 21
-930.3056760145151
 31
0.0
  0
LINE
  5
18BB9
330
1F
100
AcDbEntity
  8
0
  6
Continuous
 62
     2
100
AcDbLine
 10
17392.81494200934
 20
-986.6073595167804
 30
0.0
 11
17381.38983891681
 21
-978.6074162076952
 31
0.0
  0
LINE
  5
18BBA
330
1F
100
AcDbEntity
  8
0
  6
Continuous
 62
     2
100
AcDbLine
 10
17303.99054423894
 20
-924.411846626007
 30
0.0
 11
17295.15734282957
 21
-918.2267724112527
 31
0.0
  0
LINE
  5
18BBB
330
1F
100
AcDbEntity
  8
0
  6
Continuous
 62
     7
100
AcDbLine
 10
17528.39346273006
 20
-508.7895484126495
 30
0.0
 11
17527.74221562515
 21
-509.1547237202735
 31
0.0
  0
LINE
  5
18BBC
330
1F
100
AcDbEntity
  8
0
  6
Continuous
 62
     2
100
AcDbLine
 10
17408.51762177772
 20
-986.6073595167804
 30
0.0
 11
17397.0925186852
 21
-978.6074162076952
 31
0.0
  0
LINE
  5
18BBD
330
1F
100
AcDbEntity
  8
0
  6
Continuous
 62
     2
100
AcDbLine
 10
17302.67064073845
 20
-912.4925055047775
 30
0.0
 11
17294.09843601769
 21
-906.4901831346231
 31
0.0
  0
LINE
  5
18BBE
330
1F
100
AcDbEntity
  8
0
  6
Continuous
 62
     2
100
AcDbLine
 10
17424.22030153341
 20
-986.6073595167804
 30
0.0
 11
17412.79519845357
 21
-978.6074162076952
 31
0.0
  0
LINE
  5
18BBF
330
1F
100
AcDbEntity
  8
0
  6
Continuous
 62
     2
100
AcDbLine
 10
17301.61173393925
 20
-900.7559162281479
 30
0.0
 11
17293.0395292185
 21
-894.7535938706922
 31
0.0
  0
LINE
  5
18BC0
330
1F
100
AcDbEntity
  8
0
  6
Continuous
 62
     2
100
AcDbLine
 10
17439.92298130178
 20
-986.6073595167804
 30
0.0
 11
17428.49787820923
 21
-978.6074162076952
 31
0.0
  0
LINE
  5
18BC1
330
1F
100
AcDbEntity
  8
0
  6
Continuous
 62
     2
100
AcDbLine
 10
17300.55282712739
 20
-889.0193269642168
 30
0.0
 11
17291.98062240662
 21
-883.0170045940601
 31
0.0
  0
LINE
  5
18BC2
330
1F
100
AcDbEntity
  8
0
  6
Continuous
 62
     2
100
AcDbLine
 10
17455.62566105746
 20
-986.6073595167804
 30
0.0
 11
17444.20055797762
 21
-978.6074162076952
 31
0.0
  0
LINE
  5
18BC3
330
1F
100
AcDbEntity
  8
0
  6
Continuous
 62
     2
100
AcDbLine
 10
17299.49392031552
 20
-877.282737687587
 30
0.0
 11
17290.92171559474
 21
-871.2804153301314
 31
0.0
  0
LINE
  5
18BC4
330
1F
100
AcDbEntity
  8
0
  6
Continuous
 62
     2
100
AcDbLine
 10
17281.39283897258
 20
-864.6082240786112
 30
0.0
 11
17269.67393346973
 21
-856.4025581151124
 31
0.0
  0
LINE
  5
18BC5
330
1F
100
AcDbEntity
  8
0
  6
Continuous
 62
     7
100
AcDbLine
 10
17252.15601877342
 20
-825.383710217374
 30
0.0
 11
17259.67400434609
 21
-849.6083303804226
 31
0.0
  0
LINE
  5
18BC6
330
1F
100
AcDbEntity
  8
0
  6
Continuous
 62
     7
100
AcDbLine
 10
17252.15601877342
 20
-825.383710217374
 30
0.0
 11
17252.15601877342
 21
-705.8341410907496
 31
0.0
  0
LINE
  5
18BC7
330
1F
100
AcDbEntity
  8
0
  6
Continuous
 62
     7
100
AcDbLine
 10
17255.67392428509
 20
-820.6085358913336
 30
0.0
 11
17255.67392428509
 21
-710.6093154167925
 31
0.0
  0
LINE
  5
18BC8
330
1F
100
AcDbEntity
  8
0
  6
Continuous
 62
     7
100
AcDbLine
 10
17269.67393346973
 20
-862.6082382513388
 30
0.0
 11
17269.67393346973
 21
-834.608436682234
 31
0.0
  0
LINE
  5
18BC9
330
1F
100
AcDbEntity
  8
0
  6
Continuous
 62
     7
100
AcDbLine
 10
17269.67393346973
 20
-696.6094146258919
 30
0.0
 11
17269.67393346973
 21
-580.610236682234
 31
0.0
  0
LINE
  5
18BCA
330
1F
100
AcDbEntity
  8
0
  6
Continuous
 62
     7
100
AcDbLine
 10
17252.15601877342
 20
-705.8341410907496
 30
0.0
 11
17259.67400434609
 21
-681.6095209277031
 31
0.0
  0
LINE
  5
18BCB
330
1F
100
AcDbEntity
  8
0
  6
Continuous
 62
     2
100
AcDbLine
 10
17263.34265541458
 20
-681.6095209277031
 30
0.0
 11
17258.0231113589
 21
-686.9290649833815
 31
0.0
  0
LINE
  5
18BCC
330
1F
100
AcDbEntity
  8
0
  6
Continuous
 62
     2
100
AcDbLine
 10
17269.67393346973
 20
-684.4323224685579
 30
0.0
 11
17253.90377553627
 21
-700.2024804020379
 31
0.0
  0
LINE
  5
18BCD
330
1F
100
AcDbEntity
  8
0
  6
Continuous
 62
     2
100
AcDbLine
 10
17269.67393346973
 20
-693.5864020772664
 30
0.0
 11
17254.39161524869
 21
-708.868720298305
 31
0.0
  0
LINE
  5
18BCE
330
1F
100
AcDbEntity
  8
0
  6
Continuous
 62
     2
100
AcDbLine
 10
17275.80500051714
 20
-696.6094146258919
 30
0.0
 11
17261.80509973892
 21
-710.6093154167925
 31
0.0
  0
LINE
  5
18BCF
330
1F
100
AcDbEntity
  8
0
  6
Continuous
 62
     2
100
AcDbLine
 10
17284.95908012585
 20
-696.6094146258919
 30
0.0
 11
17276.95913681674
 21
-704.6093579349772
 31
0.0
  0
LINE
  5
18BD0
330
1F
100
AcDbEntity
  8
0
  6
Continuous
 62
     2
100
AcDbLine
 10
17276.14432359586
 20
-705.4241711685704
 30
0.0
 11
17270.95917933495
 21
-710.6093154167925
 31
0.0
  0
LINE
  5
18BD1
330
1F
100
AcDbEntity
  8
0
  6
Continuous
 62
     2
100
AcDbLine
 10
17294.11315972184
 20
-696.6094146258919
 30
0.0
 11
17285.83465031307
 21
-704.8879240473739
 31
0.0
  0
LINE
  5
18BD2
330
1F
100
AcDbEntity
  8
0
  6
Continuous
 62
     2
100
AcDbLine
 10
17283.29876990139
 20
-707.4238044590397
 30
0.0
 11
17282.03082968287
 21
-708.6917446648726
 31
0.0
  0
LINE
  5
18BD3
330
1F
100
AcDbEntity
  8
0
  6
Continuous
 62
     7
100
AcDbLine
 10
17271.67391929702
 20
-864.6082240786112
 30
0.0
 11
17285.75168092476
 21
-864.6082240786112
 31
0.0
  0
LINE
  5
18BD4
330
1F
100
AcDbEntity
  8
0
  6
Continuous
 62
     2
100
AcDbLine
 10
17471.32834082583
 20
-986.6073595167804
 30
0.0
 11
17459.90323773331
 21
-978.6074162076952
 31
0.0
  0
LINE
  5
18BD5
330
1F
100
AcDbEntity
  8
0
  6
Continuous
 62
     2
100
AcDbLine
 10
17297.90384202846
 20
-865.1742181481999
 30
0.0
 11
17285.67041564844
 21
-856.6082807695236
 31
0.0
  0
LINE
  5
18BD6
330
1F
100
AcDbEntity
  8
0
  6
Continuous
 62
     2
100
AcDbLine
 10
17277.67387677884
 20
-851.0090439797352
 30
0.0
 11
17269.67393346973
 21
-845.4074233787409
 31
0.0
  0
LINE
  5
18BD7
330
1F
100
AcDbEntity
  8
0
  6
Continuous
 62
     2
100
AcDbLine
 10
17487.03102059422
 20
-986.6073595167804
 30
0.0
 11
17475.60591750168
 21
-978.6074162076952
 31
0.0
  0
LINE
  5
18BD8
330
1F
100
AcDbEntity
  8
0
  6
Continuous
 62
     2
100
AcDbLine
 10
17281.4443578847
 20
-842.6540285224252
 30
0.0
 11
17270.53139446162
 21
-835.0126892827333
 31
0.0
  0
LINE
  5
18BD9
330
1F
100
AcDbEntity
  8
0
  6
Continuous
 62
     2
100
AcDbLine
 10
17502.73370034988
 20
-986.6073595167804
 30
0.0
 11
17491.30859727007
 21
-978.6074162076952
 31
0.0
  0
LINE
  5
18BDA
330
1F
100
AcDbEntity
  8
0
  6
Continuous
 62
     2
100
AcDbLine
 10
17297.08184477327
 20
-842.6083799913216
 30
0.0
 11
17285.65674168075
 21
-834.608436682234
 31
0.0
  0
LINE
  5
18BDB
330
1F
100
AcDbEntity
  8
0
  6
Continuous
 62
     2
100
AcDbLine
 10
17518.43638011827
 20
-986.6073595167804
 30
0.0
 11
17507.01127702573
 21
-978.6074162076952
 31
0.0
  0
LINE
  5
18BDC
330
1F
100
AcDbEntity
  8
0
  6
Continuous
 62
     2
100
AcDbLine
 10
17312.78452452895
 20
-842.6083799913216
 30
0.0
 11
17301.35942144913
 21
-834.608436682234
 31
0.0
  0
LINE
  5
18BDD
330
1F
100
AcDbEntity
  8
0
  6
Continuous
 62
     7
100
AcDbLine
 10
17277.67387677884
 20
-590.6101658185941
 30
0.0
 11
17277.67387677884
 21
-684.6094996749625
 31
0.0
  0
LINE
  5
18BDE
330
1F
100
AcDbEntity
  8
0
  6
Continuous
 62
     7
100
AcDbLine
 10
17277.67387677884
 20
-846.6083516458644
 30
0.0
 11
17277.67387677884
 21
-852.6083091149811
 31
0.0
  0
LINE
  5
18BDF
330
1F
100
AcDbEntity
  8
AM_4
100
AcDbLine
 10
17279.1379680217
 20
-820.6085358913336
 30
0.0
 11
17279.1379680217
 21
-710.6093154167925
 31
0.0
  0
LINE
  5
18BE0
330
1F
100
AcDbEntity
  8
AM_4
100
AcDbLine
 10
17279.67386260609
 20
-826.6084933731487
 30
0.0
 11
17279.67386260609
 21
-704.6093579349772
 31
0.0
  0
LINE
  5
18BE1
330
1F
100
AcDbEntity
  8
0
  6
Continuous
 62
     7
100
AcDbLine
 10
17281.67384843336
 20
-586.6101941640493
 30
0.0
 11
17281.67384843336
 21
-688.4658884965283
 31
0.0
  0
LINE
  5
18BE2
330
1F
100
AcDbEntity
  8
0
  6
Continuous
 62
     7
100
AcDbLine
 10
17281.67384843336
 20
-842.6083799913216
 30
0.0
 11
17281.67384843336
 21
-856.6082807695236
 31
0.0
  0
LINE
  5
18BE3
330
1F
100
AcDbEntity
  8
AM_4
100
AcDbLine
 10
17283.13793967626
 20
-820.6085358913336
 30
0.0
 11
17283.13793967626
 21
-710.6093154167925
 31
0.0
  0
LINE
  5
18BE4
330
1F
100
AcDbEntity
  8
AM_4
100
AcDbLine
 10
17285.13792550353
 20
-820.6085358913336
 30
0.0
 11
17285.13792550353
 21
-710.6093154167925
 31
0.0
  0
LINE
  5
18BE5
330
1F
100
AcDbEntity
  8
AM_4
100
AcDbLine
 10
17285.67382008791
 20
-826.6084933731487
 30
0.0
 11
17285.67382008791
 21
-704.6093579349772
 31
0.0
  0
LINE
  5
18BE6
330
1F
100
AcDbEntity
  8
AM_4
100
AcDbLine
 10
17289.13789715808
 20
-820.6085358913336
 30
0.0
 11
17289.13789715808
 21
-710.6093154167925
 31
0.0
  0
LINE
  5
18BE7
330
1F
100
AcDbEntity
  8
AM_4
100
AcDbLine
 10
17291.13788298533
 20
-820.6085358913336
 30
0.0
 11
17291.13788298533
 21
-710.6093154167925
 31
0.0
  0
LINE
  5
18BE8
330
1F
100
AcDbEntity
  8
AM_4
100
AcDbLine
 10
17291.67377756974
 20
-826.6084933731487
 30
0.0
 11
17291.67377756974
 21
-704.6093579349772
 31
0.0
  0
LINE
  5
18BE9
330
1F
100
AcDbEntity
  8
0
  6
Continuous
 62
     7
100
AcDbLine
 10
17292.61750489734
 20
-523.468918505679
 30
0.0
 11
17292.61750489734
 21
-553.4687059020539
 31
0.0
  0
LINE
  5
18BEA
330
1F
100
AcDbEntity
  8
AM_4
100
AcDbLine
 10
17295.13785463988
 20
-820.6085358913336
 30
0.0
 11
17295.13785463988
 21
-710.6093154167925
 31
0.0
  0
LINE
  5
18BEB
330
1F
100
AcDbEntity
  8
AM_4
100
AcDbLine
 10
17297.13784046715
 20
-820.6085358913336
 30
0.0
 11
17297.13784046715
 21
-710.6093154167925
 31
0.0
  0
LINE
  5
18BEC
330
1F
100
AcDbEntity
  8
AM_4
100
AcDbLine
 10
17297.67373505154
 20
-826.6084933731487
 30
0.0
 11
17297.67373505154
 21
-704.6093579349772
 31
0.0
  0
LINE
  5
18BED
330
1F
100
AcDbEntity
  8
AM_4
100
AcDbLine
 10
17301.1378121217
 20
-820.6085358913336
 30
0.0
 11
17301.1378121217
 21
-710.6093154167925
 31
0.0
  0
LINE
  5
18BEE
330
1F
100
AcDbEntity
  8
AM_4
100
AcDbLine
 10
17303.13779794897
 20
-820.6085358913336
 30
0.0
 11
17303.13779794897
 21
-710.6093154167925
 31
0.0
  0
LINE
  5
18BEF
330
1F
100
AcDbEntity
  8
AM_4
100
AcDbLine
 10
17303.67369253336
 20
-826.6084933731487
 30
0.0
 11
17303.67369253336
 21
-704.6093579349772
 31
0.0
  0
LINE
  5
18BF0
330
1F
100
AcDbEntity
  8
0
  6
Continuous
 62
     7
100
AcDbLine
 10
17304.67368544066
 20
-562.6463884077987
 30
0.0
 11
17304.67368544066
 21
-573.6102862804346
 31
0.0
  0
LINE
  5
18BF1
330
1F
100
AcDbEntity
  8
AM_4
100
AcDbLine
 10
17307.13776960351
 20
-820.6085358913336
 30
0.0
 11
17307.13776960351
 21
-710.6093154167925
 31
0.0
  0
LINE
  5
18BF2
330
1F
100
AcDbEntity
  8
AM_4
100
AcDbLine
 10
17309.13775541808
 20
-820.6085358913336
 30
0.0
 11
17309.13775541808
 21
-710.6093154167925
 31
0.0
  0
LINE
  5
18BF3
330
1F
100
AcDbEntity
  8
AM_4
100
AcDbLine
 10
17309.67365001516
 20
-826.6084933731487
 30
0.0
 11
17309.67365001516
 21
-704.6093579349772
 31
0.0
  0
LINE
  5
18BF4
330
1F
100
AcDbEntity
  8
0
  6
Continuous
 62
     2
100
AcDbLine
 10
17303.26723933055
 20
-696.6094146258919
 30
0.0
 11
17295.26729602148
 21
-704.6093579349772
 31
0.0
  0
LINE
  5
18BF5
330
1F
100
AcDbEntity
  8
0
  6
Continuous
 62
     2
100
AcDbLine
 10
17294.25703682442
 20
-705.6196171447091
 30
0.0
 11
17292.9890966186
 21
-706.8875573505443
 31
0.0
  0
LINE
  5
18BF6
330
1F
100
AcDbEntity
  8
0
  6
Continuous
 62
     2
100
AcDbLine
 10
17290.45321619423
 20
-709.4234377622099
 30
0.0
 11
17289.26733853966
 21
-710.6093154167925
 31
0.0
  0
LINE
  5
18BF7
330
1F
100
AcDbEntity
  8
0
  6
Continuous
 62
     2
100
AcDbLine
 10
17312.42131893926
 20
-696.6094146258919
 30
0.0
 11
17303.94736354165
 21
-705.0833700235125
 31
0.0
  0
LINE
  5
18BF8
330
1F
100
AcDbEntity
  8
0
  6
Continuous
 62
     2
100
AcDbLine
 10
17301.41148312999
 20
-707.6192504478792
 30
0.0
 11
17300.14354291146
 21
-708.887190653712
 31
0.0
  0
LINE
  5
18BF9
330
1F
100
AcDbEntity
  8
0
  6
Continuous
 62
     2
100
AcDbLine
 10
17320.6735720588
 20
-697.5112411150494
 30
0.0
 11
17311.10180984719
 21
-707.083003326683
 31
0.0
  0
LINE
  5
18BFA
330
1F
100
AcDbEntity
  8
0
  6
Continuous
 62
     2
100
AcDbLine
 10
17308.56592942282
 20
-709.618883738351
 30
0.0
 11
17307.57549774436
 21
-710.6093154167925
 31
0.0
  0
LINE
  5
18BFB
330
1F
100
AcDbEntity
  8
0
  6
Continuous
 62
     2
100
AcDbLine
 10
17320.6735720588
 20
-706.6653207110594
 30
0.0
 11
17316.72957735307
 21
-710.6093154167925
 31
0.0
  0
LINE
  5
18BFC
330
1F
100
AcDbEntity
  8
0
  6
Continuous
 62
     7
100
AcDbLine
 10
17281.67384843336
 20
-856.6082807695236
 30
0.0
 11
17285.75168092476
 21
-856.6082807695236
 31
0.0
  0
LINE
  5
18BFD
330
1F
100
AcDbEntity
  8
0
  6
Continuous
 62
     7
100
AcDbLine
 10
17259.67400434609
 20
-849.6083303804226
 30
0.0
 11
17269.67393346973
 21
-849.6083303804226
 31
0.0
  0
LINE
  5
18BFE
330
1F
100
AcDbEntity
  8
0
  6
Continuous
 62
     7
100
AcDbLine
 10
17352.67334528246
 20
-842.6083799913216
 30
0.0
 11
17281.67384843336
 21
-842.6083799913216
 31
0.0
  0
LINE
  5
18BFF
330
1F
100
AcDbEntity
  8
0
  6
Continuous
 62
     7
100
AcDbLine
 10
17269.67393346973
 20
-834.608436682234
 30
0.0
 11
17352.67334528246
 21
-834.608436682234
 31
0.0
  0
LINE
  5
18C00
330
1F
100
AcDbEntity
  8
0
  6
Continuous
 62
     7
100
AcDbLine
 10
17275.67389095154
 20
-826.6084933731487
 30
0.0
 11
17279.67386260609
 21
-826.6084933731487
 31
0.0
  0
LINE
  5
18C01
330
1F
100
AcDbEntity
  8
0
  6
Continuous
 62
     7
100
AcDbLine
 10
17281.67384843336
 20
-826.6084933731487
 30
0.0
 11
17285.67382008791
 21
-826.6084933731487
 31
0.0
  0
LINE
  5
18C02
330
1F
100
AcDbEntity
  8
0
  6
Continuous
 62
     7
100
AcDbLine
 10
17287.67380591518
 20
-826.6084933731487
 30
0.0
 11
17291.67377756974
 21
-826.6084933731487
 31
0.0
  0
LINE
  5
18C03
330
1F
100
AcDbEntity
  8
0
  6
Continuous
 62
     7
100
AcDbLine
 10
17293.67376339698
 20
-826.6084933731487
 30
0.0
 11
17297.67373505154
 21
-826.6084933731487
 31
0.0
  0
LINE
  5
18C04
330
1F
100
AcDbEntity
  8
0
  6
Continuous
 62
     7
100
AcDbLine
 10
17299.67372087881
 20
-826.6084933731487
 30
0.0
 11
17303.67369253336
 21
-826.6084933731487
 31
0.0
  0
LINE
  5
18C05
330
1F
100
AcDbEntity
  8
0
  6
Continuous
 62
     7
100
AcDbLine
 10
17305.67367836061
 20
-826.6084933731487
 30
0.0
 11
17309.67365001516
 21
-826.6084933731487
 31
0.0
  0
LINE
  5
18C06
330
1F
100
AcDbEntity
  8
0
  6
Continuous
 62
     2
100
AcDbLine
 10
17534.13905988664
 20
-986.6073595167804
 30
0.0
 11
17522.71395679412
 21
-978.6074162076952
 31
0.0
  0
LINE
  5
18C07
330
1F
100
AcDbEntity
  8
0
  6
Continuous
 62
     2
100
AcDbLine
 10
17328.48720429732
 20
-842.6083799913216
 30
0.0
 11
17317.0621012048
 21
-834.608436682234
 31
0.0
  0
LINE
  5
18C08
330
1F
100
AcDbEntity
  8
0
  6
Continuous
 62
     2
100
AcDbLine
 10
17647.67125473517
 20
-1055.10832344314
 30
0.0
 11
17639.6713114261
 21
-1049.506702829445
 31
0.0
  0
LINE
  5
18C09
330
1F
100
AcDbEntity
  8
0
  6
Continuous
 62
     2
100
AcDbLine
 10
17549.84173964233
 20
-986.6073595167804
 30
0.0
 11
17538.41663654978
 21
-978.6074162076952
 31
0.0
  0
LINE
  5
18C0A
330
1F
100
AcDbEntity
  8
0
  6
Continuous
 62
     2
100
AcDbLine
 10
17344.18988405299
 20
-842.6083799913216
 30
0.0
 11
17332.76478097317
 21
-834.608436682234
 31
0.0
  0
LINE
  5
18C0B
330
1F
100
AcDbEntity
  8
0
  6
Continuous
 62
     2
100
AcDbLine
 10
17647.67125473517
 20
-1044.113188694067
 30
0.0
 11
17639.6713114261
 21
-1038.511568093073
 31
0.0
  0
LINE
  5
18C0C
330
1F
100
AcDbEntity
  8
0
  6
Continuous
 62
     2
100
AcDbLine
 10
17565.5444194107
 20
-986.6073595167804
 30
0.0
 11
17554.11931631817
 21
-978.6074162076952
 31
0.0
  0
LINE
  5
18C0D
330
1F
100
AcDbEntity
  8
0
  6
Continuous
 62
     2
100
AcDbLine
 10
17352.67334528246
 20
-837.5534287434652
 30
0.0
 11
17348.46746072885
 21
-834.608436682234
 31
0.0
  0
LINE
  5
18C0E
330
1F
100
AcDbEntity
  8
0
  6
Continuous
 62
     2
100
AcDbLine
 10
17647.67125473517
 20
-1033.118053957698
 30
0.0
 11
17639.6713114261
 21
-1027.516433356704
 31
0.0
  0
LINE
  5
18C0F
330
1F
100
AcDbEntity
  8
0
  6
Continuous
 62
     2
100
AcDbLine
 10
17581.24709916638
 20
-986.6073595167804
 30
0.0
 11
17569.82199608654
 21
-978.6074162076952
 31
0.0
  0
LINE
  5
18C10
330
1F
100
AcDbEntity
  8
0
  6
Continuous
 62
     7
100
AcDbLine
 10
17255.67392428509
 20
-710.6093154167925
 30
0.0
 11
17252.15601877342
 21
-705.8341410907496
 31
0.0
  0
LINE
  5
18C11
330
1F
100
AcDbEntity
  8
AM_4
100
AcDbLine
 10
17313.13772707264
 20
-820.6085358913336
 30
0.0
 11
17313.13772707264
 21
-710.6093154167925
 31
0.0
  0
LINE
  5
18C12
330
1F
100
AcDbEntity
  8
0
  6
Continuous
 62
     7
100
AcDbLine
 10
17320.6735720588
 20
-834.608436682234
 30
0.0
 11
17320.6735720588
 21
-696.6094146258919
 31
0.0
  0
LINE
  5
18C13
330
1F
100
AcDbEntity
  8
0
  6
Continuous
 62
     7
100
AcDbLine
 10
17344.67340198607
 20
-716.6092728986074
 30
0.0
 11
17344.67340198607
 21
-696.6094146258919
 31
0.0
  0
LINE
  5
18C14
330
1F
100
AcDbEntity
  8
0
  6
Continuous
 62
     7
100
AcDbLine
 10
17275.67389095154
 20
-826.6084933731487
 30
0.0
 11
17279.1379680217
 21
-820.6085358913336
 31
0.0
  0
LINE
  5
18C15
330
1F
100
AcDbEntity
  8
0
  6
Continuous
 62
     7
100
AcDbLine
 10
17279.67386260609
 20
-826.6084933731487
 30
0.0
 11
17283.13793967626
 21
-820.6085358913336
 31
0.0
  0
LINE
  5
18C16
330
1F
100
AcDbEntity
  8
0
  6
Continuous
 62
     7
100
AcDbLine
 10
17281.67384843336
 20
-826.6084933731487
 30
0.0
 11
17285.13792550353
 21
-820.6085358913336
 31
0.0
  0
LINE
  5
18C17
330
1F
100
AcDbEntity
  8
0
  6
Continuous
 62
     7
100
AcDbLine
 10
17285.67382008791
 20
-826.6084933731487
 30
0.0
 11
17289.13789715808
 21
-820.6085358913336
 31
0.0
  0
LINE
  5
18C18
330
1F
100
AcDbEntity
  8
0
  6
Continuous
 62
     7
100
AcDbLine
 10
17287.67380591518
 20
-826.6084933731487
 30
0.0
 11
17291.13788298533
 21
-820.6085358913336
 31
0.0
  0
LINE
  5
18C19
330
1F
100
AcDbEntity
  8
0
  6
Continuous
 62
     7
100
AcDbLine
 10
17291.67377756974
 20
-826.6084933731487
 30
0.0
 11
17295.13785463988
 21
-820.6085358913336
 31
0.0
  0
LINE
  5
18C1A
330
1F
100
AcDbEntity
  8
0
  6
Continuous
 62
     7
100
AcDbLine
 10
17293.67376339698
 20
-826.6084933731487
 30
0.0
 11
17297.13784046715
 21
-820.6085358913336
 31
0.0
  0
LINE
  5
18C1B
330
1F
100
AcDbEntity
  8
0
  6
Continuous
 62
     7
100
AcDbLine
 10
17297.67373505154
 20
-826.6084933731487
 30
0.0
 11
17301.1378121217
 21
-820.6085358913336
 31
0.0
  0
LINE
  5
18C1C
330
1F
100
AcDbEntity
  8
0
  6
Continuous
 62
     7
100
AcDbLine
 10
17299.67372087881
 20
-826.6084933731487
 30
0.0
 11
17303.13779794897
 21
-820.6085358913336
 31
0.0
  0
LINE
  5
18C1D
330
1F
100
AcDbEntity
  8
0
  6
Continuous
 62
     7
100
AcDbLine
 10
17255.67392428509
 20
-820.6085358913336
 30
0.0
 11
17252.15601877342
 21
-825.383710217374
 31
0.0
  0
LWPOLYLINE
  5
18C1E
330
1F
100
AcDbEntity
  8
0
  6
Continuous
 62
     7
100
AcDbPolyline
 90
        3
 70
     0
 43
0.0
 10
17527.74221562515
 20
-509.1547237202735
 10
17527.25753930789
 20
-509.7572093556618
 10
17527.10047620622
 20
-510.1554021941024
  0
LINE
  5
18C1F
330
1F
100
AcDbEntity
  8
0
  6
Continuous
 62
     2
100
AcDbLine
 10
17261.65483450542
 20
-820.6085358913336
 30
0.0
 11
17253.27477594317
 21
-828.9885944408711
 31
0.0
  0
LINE
  5
18C20
330
1F
100
AcDbEntity
  8
0
  6
Continuous
 62
     2
100
AcDbLine
 10
17270.80891410142
 20
-820.6085358913336
 30
0.0
 11
17255.44284742877
 21
-835.9746025639767
 31
0.0
  0
LINE
  5
18C21
330
1F
100
AcDbEntity
  8
0
  6
Continuous
 62
     7
100
AcDbLine
 10
17255.67392428509
 20
-820.6085358913336
 30
0.0
 11
17279.1379680217
 21
-820.6085358913336
 31
0.0
  0
LINE
  5
18C22
330
1F
100
AcDbEntity
  8
0
  6
Continuous
 62
     7
100
AcDbLine
 10
17283.13793967626
 20
-820.6085358913336
 30
0.0
 11
17285.13792550353
 21
-820.6085358913336
 31
0.0
  0
LINE
  5
18C23
330
1F
100
AcDbEntity
  8
0
  6
Continuous
 62
     7
100
AcDbLine
 10
17289.13789715808
 20
-820.6085358913336
 30
0.0
 11
17291.13788298533
 21
-820.6085358913336
 31
0.0
  0
LINE
  5
18C24
330
1F
100
AcDbEntity
  8
0
  6
Continuous
 62
     7
100
AcDbLine
 10
17295.13785463988
 20
-820.6085358913336
 30
0.0
 11
17297.13784046715
 21
-820.6085358913336
 31
0.0
  0
LINE
  5
18C25
330
1F
100
AcDbEntity
  8
0
  6
Continuous
 62
     7
100
AcDbLine
 10
17301.1378121217
 20
-820.6085358913336
 30
0.0
 11
17303.13779794897
 21
-820.6085358913336
 31
0.0
  0
LINE
  5
18C26
330
1F
100
AcDbEntity
  8
0
  6
Continuous
 62
     7
100
AcDbLine
 10
17307.13776960351
 20
-820.6085358913336
 30
0.0
 11
17309.13775541808
 21
-820.6085358913336
 31
0.0
  0
LINE
  5
18C27
330
1F
100
AcDbEntity
  8
0
  6
Continuous
 62
     7
100
AcDbLine
 10
17313.13772707264
 20
-820.6085358913336
 30
0.0
 11
17320.6735720588
 21
-820.6085358913336
 31
0.0
  0
LINE
  5
18C28
330
1F
100
AcDbEntity
  8
0
  6
Continuous
 62
     2
100
AcDbLine
 10
17647.67125473517
 20
-1022.122919221329
 30
0.0
 11
17639.6713114261
 21
-1016.521298607634
 31
0.0
  0
LINE
  5
18C29
330
1F
100
AcDbEntity
  8
0
  6
Continuous
 62
     2
100
AcDbLine
 10
17596.94977893475
 20
-986.6073595167804
 30
0.0
 11
17585.52467584224
 21
-978.6074162076952
 31
0.0
  0
LINE
  5
18C2A
330
1F
100
AcDbEntity
  8
0
  6
Continuous
 62
     2
100
AcDbLine
 10
17647.67125473517
 20
-1011.127784484957
 30
0.0
 11
17639.6713114261
 21
-1005.526163871262
 31
0.0
  0
LINE
  5
18C2B
330
1F
100
AcDbEntity
  8
0
  6
Continuous
 62
     2
100
AcDbLine
 10
17612.65245870314
 20
-986.6073595167804
 30
0.0
 11
17601.22735561061
 21
-978.6074162076952
 31
0.0
  0
LINE
  5
18C2C
330
1F
100
AcDbEntity
  8
0
  6
Continuous
 62
     2
100
AcDbLine
 10
17647.67125473517
 20
-1000.13264973589
 30
0.0
 11
17639.6713114261
 21
-994.5310291348933
 31
0.0
  0
LINE
  5
18C2D
330
1F
100
AcDbEntity
  8
0
  6
Continuous
 62
     2
100
AcDbLine
 10
17628.3551384588
 20
-986.6073595167804
 30
0.0
 11
17616.930035379
 21
-978.6074162076952
 31
0.0
  0
LINE
  5
18C2E
330
1F
100
AcDbEntity
  8
0
  6
Continuous
 62
     2
100
AcDbLine
 10
17744.02747024872
 20
-1056.606863445888
 30
0.0
 11
17741.67058859153
 21
-1054.956557156455
 31
0.0
  0
LINE
  5
18C2F
330
1F
100
AcDbEntity
  8
0
  6
Continuous
 62
     2
100
AcDbLine
 10
17647.08897817449
 20
-988.7298005559543
 30
0.0
 11
17632.63271513466
 21
-978.6074162076952
 31
0.0
  0
LINE
  5
18C30
330
1F
100
AcDbEntity
  8
0
  6
Continuous
 62
     7
100
AcDbLine
 10
17275.67389095154
 20
-704.6093579349772
 30
0.0
 11
17279.1379680217
 21
-710.6093154167925
 31
0.0
  0
LINE
  5
18C31
330
1F
100
AcDbEntity
  8
0
  6
Continuous
 62
     7
100
AcDbLine
 10
17279.67386260609
 20
-704.6093579349772
 30
0.0
 11
17283.13793967626
 21
-710.6093154167925
 31
0.0
  0
LINE
  5
18C32
330
1F
100
AcDbEntity
  8
0
  6
Continuous
 62
     7
100
AcDbLine
 10
17281.67384843336
 20
-704.6093579349772
 30
0.0
 11
17285.13792550353
 21
-710.6093154167925
 31
0.0
  0
LINE
  5
18C33
330
1F
100
AcDbEntity
  8
0
  6
Continuous
 62
     7
100
AcDbLine
 10
17285.67382008791
 20
-704.6093579349772
 30
0.0
 11
17289.13789715808
 21
-710.6093154167925
 31
0.0
  0
LINE
  5
18C34
330
1F
100
AcDbEntity
  8
0
  6
Continuous
 62
     7
100
AcDbLine
 10
17287.67380591518
 20
-704.6093579349772
 30
0.0
 11
17291.13788298533
 21
-710.6093154167925
 31
0.0
  0
LINE
  5
18C35
330
1F
100
AcDbEntity
  8
0
  6
Continuous
 62
     7
100
AcDbLine
 10
17291.67377756974
 20
-704.6093579349772
 30
0.0
 11
17295.13785463988
 21
-710.6093154167925
 31
0.0
  0
LINE
  5
18C36
330
1F
100
AcDbEntity
  8
0
  6
Continuous
 62
     7
100
AcDbLine
 10
17293.67376339698
 20
-704.6093579349772
 30
0.0
 11
17297.13784046715
 21
-710.6093154167925
 31
0.0
  0
LINE
  5
18C37
330
1F
100
AcDbEntity
  8
0
  6
Continuous
 62
     7
100
AcDbLine
 10
17297.67373505154
 20
-704.6093579349772
 30
0.0
 11
17301.1378121217
 21
-710.6093154167925
 31
0.0
  0
LINE
  5
18C38
330
1F
100
AcDbEntity
  8
0
  6
Continuous
 62
     7
100
AcDbLine
 10
17299.67372087881
 20
-704.6093579349772
 30
0.0
 11
17303.13779794897
 21
-710.6093154167925
 31
0.0
  0
LINE
  5
18C39
330
1F
100
AcDbEntity
  8
0
  6
Continuous
 62
     7
100
AcDbLine
 10
17303.67369253336
 20
-704.6093579349772
 30
0.0
 11
17307.13776960351
 21
-710.6093154167925
 31
0.0
  0
LINE
  5
18C3A
330
1F
100
AcDbEntity
  8
0
  6
Continuous
 62
     7
100
AcDbLine
 10
17305.67367836061
 20
-704.6093579349772
 30
0.0
 11
17309.13775541808
 21
-710.6093154167925
 31
0.0
  0
LINE
  5
18C3B
330
1F
100
AcDbEntity
  8
0
  6
Continuous
 62
     7
100
AcDbLine
 10
17352.67334528246
 20
-842.6083799913216
 30
0.0
 11
17352.67334528246
 21
-688.6094713295051
 31
0.0
  0
LINE
  5
18C3C
330
1F
100
AcDbEntity
  8
0
  6
Continuous
 62
     7
100
AcDbLine
 10
17303.67369253336
 20
-826.6084933731487
 30
0.0
 11
17307.13776960351
 21
-820.6085358913336
 31
0.0
  0
LINE
  5
18C3D
330
1F
100
AcDbEntity
  8
0
  6
Continuous
 62
     7
100
AcDbLine
 10
17305.67367836061
 20
-826.6084933731487
 30
0.0
 11
17309.13775541808
 21
-820.6085358913336
 31
0.0
  0
LINE
  5
18C3E
330
1F
100
AcDbEntity
  8
0
  6
Continuous
 62
     7
100
AcDbLine
 10
17309.67365001516
 20
-826.6084933731487
 30
0.0
 11
17313.13772707264
 21
-820.6085358913336
 31
0.0
  0
LINE
  5
18C3F
330
1F
100
AcDbEntity
  8
0
  6
Continuous
 62
     2
100
AcDbLine
 10
17278.01096198102
 20
-822.5605676204404
 30
0.0
 11
17257.61091891439
 21
-842.9606106870803
 31
0.0
  0
LINE
  5
18C40
330
1F
100
AcDbEntity
  8
0
  6
Continuous
 62
     2
100
AcDbLine
 10
17283.11711583701
 20
-826.6084933731487
 30
0.0
 11
17275.11717252794
 21
-834.608436682234
 31
0.0
  0
LINE
  5
18C41
330
1F
100
AcDbEntity
  8
0
  6
Continuous
 62
     2
100
AcDbLine
 10
17269.67393346973
 20
-840.0516757277275
 30
0.0
 11
17260.11727882975
 21
-849.6083303804226
 31
0.0
  0
LINE
  5
18C42
330
1F
100
AcDbEntity
  8
0
  6
Continuous
 62
     2
100
AcDbLine
 10
17295.58970685865
 20
-823.2899819475244
 30
0.0
 11
17284.27125212393
 21
-834.608436682234
 31
0.0
  0
LINE
  5
18C43
330
1F
100
AcDbEntity
  8
0
  6
Continuous
 62
     2
100
AcDbLine
 10
17269.67393346973
 20
-849.2057553364359
 30
0.0
 11
17269.27135842576
 21
-849.6083303804226
 31
0.0
  0
LINE
  5
18C44
330
1F
100
AcDbEntity
  8
0
  6
Continuous
 62
     2
100
AcDbLine
 10
17307.42523252357
 20
-820.6085358913336
 30
0.0
 11
17306.74508794181
 21
-821.2886804730786
 31
0.0
  0
LINE
  5
18C45
330
1F
100
AcDbEntity
  8
0
  6
Continuous
 62
     2
100
AcDbLine
 10
17301.42527504175
 20
-826.6084933731487
 30
0.0
 11
17293.42533173264
 21
-834.608436682234
 31
0.0
  0
LINE
  5
18C46
330
1F
100
AcDbEntity
  8
0
  6
Continuous
 62
     2
100
AcDbLine
 10
17316.57931211956
 20
-820.6085358913336
 30
0.0
 11
17302.57941134135
 21
-834.608436682234
 31
0.0
  0
LINE
  5
18C47
330
1F
100
AcDbEntity
  8
7A
100
AcDbLine
 10
17378.9263669658
 20
-765.6089256604145
 30
0.0
 11
17237.97415811701
 21
-765.6089256604145
 31
0.0
  0
LINE
  5
18C48
330
1F
100
AcDbEntity
  8
0
  6
Continuous
 62
     2
100
AcDbLine
 10
17749.67053190064
 20
-1049.56304302108
 30
0.0
 11
17741.67058859153
 21
-1043.961422407385
 31
0.0
  0
LINE
  5
18C49
330
1F
100
AcDbEntity
  8
0
  6
Continuous
 62
     2
100
AcDbLine
 10
17749.67053190064
 20
-1038.567908284711
 30
0.0
 11
17741.67058859153
 21
-1032.966287671016
 31
0.0
  0
LINE
  5
18C4A
330
1F
100
AcDbEntity
  8
0
  6
Continuous
 62
     2
100
AcDbLine
 10
17749.67053190064
 20
-1027.572773535639
 30
0.0
 11
17741.67058859153
 21
-1021.971152934644
 31
0.0
  0
LINE
  5
18C4B
330
1F
100
AcDbEntity
  8
0
  6
Continuous
 62
     2
100
AcDbLine
 10
17277.00587056786
 20
-696.6094146258919
 30
0.0
 11
17269.67393346973
 21
-691.4755370060584
 31
0.0
  0
LINE
  5
18C4C
330
1F
100
AcDbEntity
  8
0
  6
Continuous
 62
     2
100
AcDbLine
 10
17749.67053190064
 20
-1016.57763879927
 30
0.0
 11
17741.67058859153
 21
-1010.976018185574
 31
0.0
  0
LINE
  5
18C4D
330
1F
100
AcDbEntity
  8
0
  6
Continuous
 62
     2
100
AcDbLine
 10
17292.70855033624
 20
-696.6094146258919
 30
0.0
 11
17281.12853711972
 21
-688.5010020839882
 31
0.0
  0
LINE
  5
18C4E
330
1F
100
AcDbEntity
  8
0
  6
Continuous
 62
     2
100
AcDbLine
 10
17278.17298278462
 20
-686.4315006577522
 30
0.0
 11
17269.67393346973
 21
-680.4804022696892
 31
0.0
  0
LINE
  5
18C4F
330
1F
100
AcDbEntity
  8
0
  6
Continuous
 62
     7
100
AcDbLine
 10
17309.67365001516
 20
-704.6093579349772
 30
0.0
 11
17313.13772707264
 21
-710.6093154167925
 31
0.0
  0
LINE
  5
18C50
330
1F
100
AcDbEntity
  8
0
  6
Continuous
 62
     7
100
AcDbLine
 10
17375.41416083083
 20
-514.2912360126376
 30
0.0
 11
17375.35047162037
 21
-513.1290740302893
 31
0.0
  0
LINE
  5
18C51
330
1F
100
AcDbEntity
  8
0
  6
Continuous
 62
     2
100
AcDbLine
 10
17320.6735720588
 20
-825.6683555607901
 30
0.0
 11
17311.73349093738
 21
-834.608436682234
 31
0.0
  0
LINE
  5
18C52
330
1F
100
AcDbEntity
  8
0
  6
Continuous
 62
     7
100
AcDbLine
 10
17798.67018466244
 20
-733.6091524240664
 30
0.0
 11
17796.0101816677
 21
-733.6091524240664
 31
0.0
  0
LINE
  5
18C53
330
1F
100
AcDbEntity
  8
0
  6
Continuous
 62
     2
100
AcDbLine
 10
17749.67053190064
 20
-1005.5825040629
 30
0.0
 11
17741.67058859153
 21
-999.9808834492053
 31
0.0
  0
LINE
  5
18C54
330
1F
100
AcDbEntity
  8
0
  6
Continuous
 62
     2
100
AcDbLine
 10
17308.41123010461
 20
-696.6094146258919
 30
0.0
 11
17296.98612701209
 21
-688.6094713295051
 31
0.0
  0
LINE
  5
18C55
330
1F
100
AcDbEntity
  8
0
  6
Continuous
 62
     2
100
AcDbLine
 10
17277.67387677884
 20
-675.0868881343121
 30
0.0
 11
17269.67393346973
 21
-669.4852675206191
 31
0.0
  0
LINE
  5
18C56
330
1F
100
AcDbEntity
  8
0
  6
Continuous
 62
     2
100
AcDbLine
 10
17749.67053190064
 20
-994.5873693138281
 30
0.0
 11
17742.10713452319
 21
-989.291421462334
 31
0.0
  0
LINE
  5
18C57
330
1F
100
AcDbEntity
  8
0
  6
Continuous
 62
     2
100
AcDbLine
 10
17352.67334528246
 20
-716.6069466052945
 30
0.0
 11
17344.67340198607
 21
-711.0053259915992
 31
0.0
  0
LINE
  5
18C58
330
1F
100
AcDbEntity
  8
0
  6
Continuous
 62
     2
100
AcDbLine
 10
17324.11390986029
 20
-696.6094146258919
 30
0.0
 11
17312.68880678046
 21
-688.6094713295051
 31
0.0
  0
LINE
  5
18C59
330
1F
100
AcDbEntity
  8
0
  6
Continuous
 62
     2
100
AcDbLine
 10
17277.67387677884
 20
-664.0917533979427
 30
0.0
 11
17269.67393346973
 21
-658.4901327842476
 31
0.0
  0
LINE
  5
18C5A
330
1F
100
AcDbEntity
  8
0
  6
Continuous
 62
     2
100
AcDbLine
 10
17754.28905230342
 20
-986.8261573762334
 30
0.0
 11
17747.02902071146
 21
-981.7426285368972
 31
0.0
  0
LINE
  5
18C5B
330
1F
100
AcDbEntity
  8
0
  6
Continuous
 62
     2
100
AcDbLine
 10
17352.67334528246
 20
-705.6118118562219
 30
0.0
 11
17344.67340198607
 21
-700.0101912552277
 31
0.0
  0
LINE
  5
18C5C
330
1F
100
AcDbEntity
  8
0
  6
Continuous
 62
     2
100
AcDbLine
 10
17339.81658962869
 20
-696.6094146258919
 30
0.0
 11
17328.39148653614
 21
-688.6094713295051
 31
0.0
  0
LINE
  5
18C5D
330
1F
100
AcDbEntity
  8
0
  6
Continuous
 62
     2
100
AcDbLine
 10
17277.67387677884
 20
-653.0966186488726
 30
0.0
 11
17269.67393346973
 21
-647.4949980478784
 31
0.0
  0
LINE
  5
18C5E
330
1F
100
AcDbEntity
  8
0
  6
Continuous
 62
     7
100
AcDbLine
 10
17483.03810786715
 20
-512.1394550444854
 30
0.0
 11
17483.04049550103
 21
-512.1243957325068
 31
0.0
  0
LINE
  5
18C5F
330
1F
100
AcDbEntity
  8
0
  6
Continuous
 62
     7
100
AcDbLine
 10
17352.67334528246
 20
-716.6092728986074
 30
0.0
 11
17344.67340198607
 21
-716.6092728986074
 31
0.0
  0
LINE
  5
18C60
330
1F
100
AcDbEntity
  8
0
  6
Continuous
 62
     7
100
AcDbLine
 10
17255.67392428509
 20
-710.6093154167925
 30
0.0
 11
17279.1379680217
 21
-710.6093154167925
 31
0.0
  0
LINE
  5
18C61
330
1F
100
AcDbEntity
  8
0
  6
Continuous
 62
     7
100
AcDbLine
 10
17283.13793967626
 20
-710.6093154167925
 30
0.0
 11
17285.13792550353
 21
-710.6093154167925
 31
0.0
  0
LINE
  5
18C62
330
1F
100
AcDbEntity
  8
0
  6
Continuous
 62
     7
100
AcDbLine
 10
17289.13789715808
 20
-710.6093154167925
 30
0.0
 11
17291.13788298533
 21
-710.6093154167925
 31
0.0
  0
LINE
  5
18C63
330
1F
100
AcDbEntity
  8
0
  6
Continuous
 62
     7
100
AcDbLine
 10
17295.13785463988
 20
-710.6093154167925
 30
0.0
 11
17297.13784046715
 21
-710.6093154167925
 31
0.0
  0
LINE
  5
18C64
330
1F
100
AcDbEntity
  8
0
  6
Continuous
 62
     7
100
AcDbLine
 10
17301.1378121217
 20
-710.6093154167925
 30
0.0
 11
17303.13779794897
 21
-710.6093154167925
 31
0.0
  0
LINE
  5
18C65
330
1F
100
AcDbEntity
  8
0
  6
Continuous
 62
     7
100
AcDbLine
 10
17307.13776960351
 20
-710.6093154167925
 30
0.0
 11
17309.13775541808
 21
-710.6093154167925
 31
0.0
  0
LINE
  5
18C66
330
1F
100
AcDbEntity
  8
0
  6
Continuous
 62
     7
100
AcDbLine
 10
17313.13772707264
 20
-710.6093154167925
 30
0.0
 11
17320.6735720588
 21
-710.6093154167925
 31
0.0
  0
LINE
  5
18C67
330
1F
100
AcDbEntity
  8
0
  6
Continuous
 62
     7
100
AcDbLine
 10
17275.67389095154
 20
-704.6093579349772
 30
0.0
 11
17279.67386260609
 21
-704.6093579349772
 31
0.0
  0
LINE
  5
18C68
330
1F
100
AcDbEntity
  8
0
  6
Continuous
 62
     7
100
AcDbLine
 10
17281.67384843336
 20
-704.6093579349772
 30
0.0
 11
17285.67382008791
 21
-704.6093579349772
 31
0.0
  0
LINE
  5
18C69
330
1F
100
AcDbEntity
  8
0
  6
Continuous
 62
     7
100
AcDbLine
 10
17287.67380591518
 20
-704.6093579349772
 30
0.0
 11
17291.67377756974
 21
-704.6093579349772
 31
0.0
  0
LINE
  5
18C6A
330
1F
100
AcDbEntity
  8
0
  6
Continuous
 62
     7
100
AcDbLine
 10
17293.67376339698
 20
-704.6093579349772
 30
0.0
 11
17297.67373505154
 21
-704.6093579349772
 31
0.0
  0
LINE
  5
18C6B
330
1F
100
AcDbEntity
  8
0
  6
Continuous
 62
     7
100
AcDbLine
 10
17299.67372087881
 20
-704.6093579349772
 30
0.0
 11
17303.67369253336
 21
-704.6093579349772
 31
0.0
  0
LINE
  5
18C6C
330
1F
100
AcDbEntity
  8
0
  6
Continuous
 62
     7
100
AcDbLine
 10
17305.67367836061
 20
-704.6093579349772
 30
0.0
 11
17309.67365001516
 21
-704.6093579349772
 31
0.0
  0
LINE
  5
18C6D
330
1F
100
AcDbEntity
  8
0
  6
Continuous
 62
     7
100
AcDbLine
 10
17269.67393346973
 20
-696.6094146258919
 30
0.0
 11
17344.67340198607
 21
-696.6094146258919
 31
0.0
  0
LINE
  5
18C6E
330
1F
100
AcDbEntity
  8
0
  6
Continuous
 62
     7
100
AcDbLine
 10
17352.67334528246
 20
-688.6094713295051
 30
0.0
 11
17281.67384843336
 21
-688.6094713295051
 31
0.0
  0
LINE
  5
18C6F
330
1F
100
AcDbEntity
  8
0
  6
Continuous
 62
     2
100
AcDbLine
 10
17766.60644205563
 20
-984.4557518008024
 30
0.0
 11
17758.16370773574
 21
-978.5440855791971
 31
0.0
  0
LINE
  5
18C70
330
1F
100
AcDbEntity
  8
0
  6
Continuous
 62
     2
100
AcDbLine
 10
17352.67334528246
 20
-694.6166771198527
 30
0.0
 11
17344.09416630451
 21
-688.6094713295051
 31
0.0
  0
LINE
  5
18C71
330
1F
100
AcDbEntity
  8
0
  6
Continuous
 62
     2
100
AcDbLine
 10
17277.67387677884
 20
-642.1014839125011
 30
0.0
 11
17269.67393346973
 21
-636.4998632988083
 31
0.0
  0
LINE
  5
18C72
330
1F
100
AcDbEntity
  8
0
  6
Continuous
 62
     2
100
AcDbLine
 10
17781.09752244482
 20
-983.6073807695235
 30
0.0
 11
17769.68236966825
 21
-975.6144047453634
 31
0.0
  0
LINE
  5
18C73
330
1F
100
AcDbEntity
  8
0
  6
Continuous
 62
     2
100
AcDbLine
 10
17277.67387677884
 20
-631.1063491761342
 30
0.0
 11
17269.67393346973
 21
-625.5047285624391
 31
0.0
  0
LINE
  5
18C74
330
1F
100
AcDbEntity
  8
0
  6
Continuous
 62
     2
100
AcDbLine
 10
17796.80020220049
 20
-983.6073807695235
 30
0.0
 11
17785.37509910796
 21
-975.6074374604359
 31
0.0
  0
LINE
  5
18C75
330
1F
100
AcDbEntity
  8
0
  6
Continuous
 62
     2
100
AcDbLine
 10
17277.67387677884
 20
-620.1112144270618
 30
0.0
 11
17269.67393346973
 21
-614.5095938260676
 31
0.0
  0
LINE
  5
18C76
330
1F
100
AcDbEntity
  8
0
  6
Continuous
 62
     2
100
AcDbLine
 10
17805.83937751928
 20
-978.9415447311373
 30
0.0
 11
17798.1061313296
 21
-973.5266674548553
 31
0.0
  0
LINE
  5
18C77
330
1F
100
AcDbEntity
  8
0
  6
Continuous
 62
     2
100
AcDbLine
 10
17277.67387677884
 20
-609.1160796906926
 30
0.0
 11
17269.67393346973
 21
-603.5144590769974
 31
0.0
  0
LINE
  5
18C78
330
1F
100
AcDbEntity
  8
0
  6
Continuous
 62
     7
100
AcDbLine
 10
17476.96483560829
 20
-512.285234555497
 30
0.0
 11
17476.90212843107
 21
-509.2859512172096
 31
0.0
  0
LINE
  5
18C79
330
1F
100
AcDbEntity
  8
0
  6
Continuous
 62
     7
100
AcDbLine
 10
17785.9077668611
 20
-555.1109013050688
 30
0.0
 11
17775.90783772476
 21
-562.6463884077987
 31
0.0
  0
LINE
  5
18C7A
330
1F
100
AcDbEntity
  8
0
  6
Continuous
 62
     7
100
AcDbLine
 10
17712.28375548069
 20
-592.1221322550953
 30
0.0
 11
17774.67035473517
 21
-576.781356335624
 31
0.0
  0
LINE
  5
18C7B
330
1F
100
AcDbEntity
  8
0
  6
Continuous
 62
     7
100
AcDbLine
 10
17259.67400434609
 20
-681.6095209277031
 30
0.0
 11
17269.67393346973
 21
-681.6095209277031
 31
0.0
  0
LINE
  5
18C7C
330
1F
100
AcDbEntity
  8
0
  6
Continuous
 62
     2
100
AcDbLine
 10
17806.67012795884
 20
-968.5281077189722
 30
0.0
 11
17798.67018466244
 21
-962.9264871052768
 31
0.0
  0
LINE
  5
18C7D
330
1F
100
AcDbEntity
  8
0
  6
Continuous
 62
     2
100
AcDbLine
 10
17277.67387677884
 20
-598.1209449543235
 30
0.0
 11
17269.67393346973
 21
-592.5193243406283
 31
0.0
  0
LINE
  5
18C7E
330
1F
100
AcDbEntity
  8
0
  6
Continuous
 62
     2
100
AcDbLine
 10
17806.67012795884
 20
-957.5329729698998
 30
0.0
 11
17798.67018466244
 21
-951.9313523689055
 31
0.0
  0
LINE
  5
18C7F
330
1F
100
AcDbEntity
  8
0
  6
Continuous
 62
     2
100
AcDbLine
 10
17278.77060998056
 20
-587.8937510555117
 30
0.0
 11
17269.67393346973
 21
-581.5241896042569
 31
0.0
  0
LINE
  5
18C80
330
1F
100
AcDbEntity
  8
0
  6
Continuous
 62
     2
100
AcDbLine
 10
17806.67012795884
 20
-946.5378382335305
 30
0.0
 11
17798.67018466244
 21
-940.9362176198376
 31
0.0
  0
LINE
  5
18C81
330
1F
100
AcDbEntity
  8
0
  6
Continuous
 62
     2
100
AcDbLine
 10
17292.64018051047
 20
-586.6101941640493
 30
0.0
 11
17281.21507741795
 21
-578.6102508549638
 31
0.0
  0
LINE
  5
18C82
330
1F
100
AcDbEntity
  8
0
  6
Continuous
 62
     2
100
AcDbLine
 10
17806.67012795884
 20
-935.5427034971613
 30
0.0
 11
17798.67018466244
 21
-929.9410828834661
 31
0.0
  0
LINE
  5
18C83
330
1F
100
AcDbEntity
  8
0
  6
Continuous
 62
     2
100
AcDbLine
 10
17305.97180409972
 20
-584.9499627552518
 30
0.0
 11
17296.91775718633
 21
-578.6102508549638
 31
0.0
  0
LINE
  5
18C84
330
1F
100
AcDbEntity
  8
0
  6
Continuous
 62
     2
100
AcDbLine
 10
17806.67012795884
 20
-924.5475687480888
 30
0.0
 11
17798.67018466244
 21
-918.9459481470946
 31
0.0
  0
LINE
  5
18C85
330
1F
100
AcDbEntity
  8
0
  6
Continuous
 62
     2
100
AcDbLine
 10
17806.67012795884
 20
-913.5524340117196
 30
0.0
 11
17798.67018466244
 21
-907.9508133980269
 31
0.0
  0
LINE
  5
18C86
330
1F
100
AcDbEntity
  8
0
  6
Continuous
 62
     2
100
AcDbLine
 10
17806.67012795884
 20
-902.5572992753504
 30
0.0
 11
17798.67018466244
 21
-896.9556786616553
 31
0.0
  0
LINE
  5
18C87
330
1F
100
AcDbEntity
  8
0
  6
Continuous
 62
     2
100
AcDbLine
 10
17806.67012795884
 20
-891.5621645262804
 30
0.0
 11
17798.67018466244
 21
-885.9605439252838
 31
0.0
  0
LINE
  5
18C88
330
1F
100
AcDbEntity
  8
0
  6
Continuous
 62
     7
100
AcDbLine
 10
17293.43627331471
 20
-555.1109013050688
 30
0.0
 11
17303.43620245105
 21
-562.6463884077987
 31
0.0
  0
LINE
  5
18C89
330
1F
100
AcDbEntity
  8
0
  6
Continuous
 62
     7
100
AcDbLine
 10
17525.18178299815
 20
-511.6248176710487
 30
0.0
 11
17525.18178299815
 21
-514.2912360126376
 31
0.0
  0
LINE
  5
18C8A
330
1F
100
AcDbEntity
  8
0
  6
Continuous
 62
     7
100
AcDbLine
 10
17527.172108677
 20
-510.685949113094
 30
0.0
 11
17527.172108677
 21
-514.2912360126376
 31
0.0
  0
LINE
  5
18C8B
330
1F
100
AcDbEntity
  8
0
  6
Continuous
 62
     7
100
AcDbLine
 10
17529.17209450425
 20
-508.6859632858216
 30
0.0
 11
17529.17211953577
 21
-514.2912360126376
 31
0.0
  0
LINE
  5
18C8C
330
1F
100
AcDbEntity
  8
0
  6
Continuous
 62
     7
100
AcDbLine
 10
17535.67204843336
 20
-562.6014527099417
 30
0.0
 11
17535.67204843336
 21
-562.6463884077987
 31
0.0
  0
LINE
  5
18C8E
330
1F
100
AcDbEntity
  8
0
  6
Continuous
 62
     7
100
AcDbLine
 10
17543.67199174247
 20
-562.6463884077987
 30
0.0
 11
17543.67199174247
 21
-562.6014527099417
 31
0.0
  0
LINE
  5
18C8F
330
1F
100
AcDbEntity
  8
0
  6
Continuous
 62
     7
100
AcDbLine
 10
17552.17193151155
 20
-510.685949113094
 30
0.0
 11
17552.17193151155
 21
-514.2912360126376
 31
0.0
  0
LINE
  5
18C90
330
1F
100
AcDbEntity
  8
0
  6
Continuous
 62
     7
100
AcDbLine
 10
17554.16225717768
 20
-514.2912360126376
 30
0.0
 11
17554.16225717768
 21
-511.6248176710487
 31
0.0
  0
LINE
  5
18C91
330
1F
100
AcDbEntity
  8
0
  6
Continuous
 62
     7
100
AcDbLine
 10
17550.17194568427
 20
-508.6859632858216
 30
0.0
 11
17550.17168980647
 21
-514.2912360126376
 31
0.0
  0
LINE
  5
18C92
330
1F
100
AcDbEntity
  8
0
  6
Continuous
 62
     7
100
AcDbLine
 10
17573.57362181383
 20
-480.5894739999135
 30
0.0
 11
17573.22098840393
 21
-483.5686554507535
 31
0.0
  0
LINE
  5
18C93
330
1F
100
AcDbEntity
  8
0
  6
Continuous
 62
     7
100
AcDbLine
 10
17636.54794021358
 20
-597.1282577210634
 30
0.0
 11
17768.29794350032
 21
-597.1282577210634
 31
0.0
  0
LINE
  5
18C94
330
1F
100
AcDbEntity
  8
0
  6
Continuous
 62
     7
100
AcDbLine
 10
17322.90015440468
 20
-597.1265792628587
 30
0.0
 11
17380.01255496237
 21
-597.1282577210634
 31
0.0
  0
LINE
  5
18C95
330
1F
100
AcDbEntity
  8
0
  6
Continuous
 62
     7
100
AcDbLine
 10
17643.69378059021
 20
-595.8565763884426
 30
0.0
 11
17375.26115375024
 21
-595.8565763884426
 31
0.0
  0
LINE
  5
18C96
330
1F
100
AcDbEntity
  8
0
  6
Continuous
 62
     7
100
AcDbLine
 10
17281.67384843336
 20
-586.6101941640493
 30
0.0
 11
17299.67372087881
 21
-586.6101941640493
 31
0.0
  0
LWPOLYLINE
  5
18C97
330
1F
100
AcDbEntity
  8
0
  6
Continuous
 62
     2
100
AcDbPolyline
 90
        3
 70
     0
 43
0.0
 10
17663.35290493849
 20
-594.46192622146
 10
17670.53704729119
 20
-594.5257949197443
 10
17677.74697522363
 20
-594.6811726290343
  0
LWPOLYLINE
  5
18C98
330
1F
100
AcDbEntity
  8
0
  6
Continuous
 62
     2
100
AcDbPolyline
 90
        3
 70
     0
 43
0.0
 10
17399.51995291438
 20
-602.3477335216898
 10
17406.50058425121
 20
-604.1412482253549
 10
17413.48884998649
 20
-605.8831891660038
  0
LINE
  5
18C99
330
1F
100
AcDbEntity
  8
0
  6
Continuous
 62
     7
100
AcDbLine
 10
17304.67368544066
 20
-576.781356335624
 30
0.0
 11
17362.70237884067
 21
-592.4495319852237
 31
0.0
  0
LINE
  5
18C9A
330
1F
100
AcDbEntity
  8
0
  6
Continuous
 62
     2
100
AcDbLine
 10
17806.67012795884
 20
-880.5670297899089
 30
0.0
 11
17798.67018466244
 21
-874.965409176216
 31
0.0
  0
LINE
  5
18C9B
330
1F
100
AcDbEntity
  8
0
  6
Continuous
 62
     2
100
AcDbLine
 10
17806.67012795884
 20
-869.5718950535397
 30
0.0
 11
17798.67018466244
 21
-863.9702744398444
 31
0.0
  0
LINE
  5
18C9C
330
1F
100
AcDbEntity
  8
0
  6
Continuous
 62
     2
100
AcDbLine
 10
17806.67012795884
 20
-858.5767603044697
 30
0.0
 11
17798.67018466244
 21
-852.9751397034729
 31
0.0
  0
LINE
  5
18C9D
330
1F
100
AcDbEntity
  8
0
  6
Continuous
 62
     2
100
AcDbLine
 10
17806.67012795884
 20
-847.5816255681005
 30
0.0
 11
17798.67018466244
 21
-841.9800049544052
 31
0.0
  0
LINE
  5
18C9E
330
1F
100
AcDbEntity
  8
0
  6
Continuous
 62
     7
100
AcDbLine
 10
17483.60871727453
 20
-562.6014527099417
 30
0.0
 11
17481.72962257633
 21
-556.6104067549758
 31
0.0
  0
LINE
  5
18C9F
330
1F
100
AcDbEntity
  8
0
  6
Continuous
 62
     7
100
AcDbLine
 10
17505.7704183747
 20
-480.5894739999135
 30
0.0
 11
17506.12305177189
 21
-483.5686554507535
 31
0.0
  0
LINE
  5
18CA0
330
1F
100
AcDbEntity
  8
0
  6
Continuous
 62
     7
100
AcDbLine
 10
17271.67391929702
 20
-578.6102508549638
 30
0.0
 11
17299.67372087881
 21
-578.6102508549638
 31
0.0
  0
LINE
  5
18CA1
330
1F
100
AcDbEntity
  8
0
  6
Continuous
 62
     7
100
AcDbLine
 10
17774.67035473517
 20
-576.781356335624
 30
0.0
 11
17306.57562273035
 21
-576.781356335624
 31
0.0
  0
LINE
  5
18CA2
330
1F
100
AcDbEntity
  8
0
  6
Continuous
 62
     7
100
AcDbLine
 10
17303.53949226691
 20
-576.781356335624
 30
0.0
 11
17304.67368544066
 21
-576.781356335624
 31
0.0
  0
LINE
  5
18CA3
330
1F
100
AcDbEntity
  8
0
  6
Continuous
 62
     7
100
AcDbLine
 10
17303.43620245105
 20
-562.6463884077987
 30
0.0
 11
17535.67204843336
 21
-562.6463884077987
 31
0.0
  0
LINE
  5
18CA4
330
1F
100
AcDbEntity
  8
0
  6
Continuous
 62
     7
100
AcDbLine
 10
17543.67199174247
 20
-562.6463884077987
 30
0.0
 11
17775.90783772476
 21
-562.6463884077987
 31
0.0
  0
LINE
  5
18CA5
330
1F
100
AcDbEntity
  8
0
  6
Continuous
 62
     7
100
AcDbLine
 10
17564.62627636929
 20
-562.6014527099417
 30
0.0
 11
17483.60871727453
 21
-562.6014527099417
 31
0.0
  0
LINE
  5
18CA6
330
1F
100
AcDbEntity
  8
0
  6
Continuous
 62
     7
100
AcDbLine
 10
17785.9077668611
 20
-555.1109013050688
 30
0.0
 11
17543.67199174247
 21
-555.1109013050688
 31
0.0
  0
LINE
  5
18CA7
330
1F
100
AcDbEntity
  8
0
  6
Continuous
 62
     7
100
AcDbLine
 10
17481.25930190715
 20
-555.1109013050688
 30
0.0
 11
17293.43627331471
 21
-555.1109013050688
 31
0.0
  0
LINE
  5
18CA8
330
1F
100
AcDbEntity
  8
0
  6
Continuous
 62
     7
100
AcDbLine
 10
17292.61750489734
 20
-553.4687059020539
 30
0.0
 11
17535.67204843336
 21
-553.4687059020539
 31
0.0
  0
LINE
  5
18CA9
330
1F
100
AcDbEntity
  8
0
  6
Continuous
 62
     7
100
AcDbLine
 10
17543.67199174247
 20
-553.4687059020539
 30
0.0
 11
17786.72653527847
 21
-553.4687059020539
 31
0.0
  0
LINE
  5
18CAA
330
1F
100
AcDbEntity
  8
0
  6
Continuous
 62
     2
100
AcDbLine
 10
17806.67012795884
 20
-836.586490831729
 30
0.0
 11
17798.67018466244
 21
-830.9848702180337
 31
0.0
  0
LINE
  5
18CAB
330
1F
100
AcDbEntity
  8
0
  6
Continuous
 62
     2
100
AcDbLine
 10
17806.67012795884
 20
-825.5913560826588
 30
0.0
 11
17798.67018466244
 21
-819.9897354816645
 31
0.0
  0
LINE
  5
18CAC
330
1F
100
AcDbEntity
  8
0
  6
Continuous
 62
     2
100
AcDbLine
 10
17806.67012795884
 20
-814.5962213462896
 30
0.0
 11
17798.67018466244
 21
-808.9946007325945
 31
0.0
  0
LINE
  5
18CAD
330
1F
100
AcDbEntity
  8
0
  6
Continuous
 62
     2
100
AcDbLine
 10
17806.67012795884
 20
-803.6010866099182
 30
0.0
 11
17798.67018466244
 21
-797.9994659962228
 31
0.0
  0
LINE
  5
18CAE
330
1F
100
AcDbEntity
  8
0
  6
Continuous
 62
     7
100
AcDbLine
 10
17602.37920456754
 20
-512.285234555497
 30
0.0
 11
17602.44191175747
 21
-509.2859512172096
 31
0.0
  0
LINE
  5
18CAF
330
1F
100
AcDbEntity
  8
0
  6
Continuous
 62
     7
100
AcDbLine
 10
17529.02882900394
 20
-508.6859425214675
 30
0.0
 11
17528.39346273006
 21
-508.7895484126495
 31
0.0
  0
LINE
  5
18CB0
330
1F
100
AcDbEntity
  8
0
  6
Continuous
 62
     7
100
AcDbLine
 10
17525.18178299815
 20
-511.6248176710487
 30
0.0
 11
17483.04049550103
 21
-512.1243957325068
 31
0.0
  0
LINE
  5
18CB1
330
1F
100
AcDbEntity
  8
0
  6
Continuous
 62
     7
100
AcDbLine
 10
17786.72653527847
 20
-523.468918505679
 30
0.0
 11
17543.67199174247
 21
-523.468918505679
 31
0.0
  0
LINE
  5
18CB2
330
1F
100
AcDbEntity
  8
0
  6
Continuous
 62
     7
100
AcDbLine
 10
17535.67204843336
 20
-523.468918505679
 30
0.0
 11
17292.61750489734
 21
-523.468918505679
 31
0.0
  0
LINE
  5
18CB3
330
1F
100
AcDbEntity
  8
0
  6
Continuous
 62
     7
100
AcDbLine
 10
17293.43627331471
 20
-521.8267231153677
 30
0.0
 11
17535.67204843336
 21
-521.8267231153677
 31
0.0
  0
LINE
  5
18CB4
330
1F
100
AcDbEntity
  8
0
  6
Continuous
 62
     7
100
AcDbLine
 10
17543.67199174247
 20
-521.8267231153677
 30
0.0
 11
17785.9077668611
 21
-521.8267231153677
 31
0.0
  0
LINE
  5
18CB5
330
1F
100
AcDbEntity
  8
0
  6
Continuous
 62
     7
100
AcDbLine
 10
17303.43620245105
 20
-514.2912360126376
 30
0.0
 11
17535.67204843336
 21
-514.2912360126376
 31
0.0
  0
LINE
  5
18CB6
330
1F
100
AcDbEntity
  8
0
  6
Continuous
 62
     7
100
AcDbLine
 10
17543.67199174247
 20
-514.2912360126376
 30
0.0
 11
17775.90783772476
 21
-514.2912360126376
 31
0.0
  0
LINE
  5
18CB7
330
1F
100
AcDbEntity
  8
0
  6
Continuous
 62
     7
100
AcDbLine
 10
17552.17193151155
 20
-510.685949113094
 30
0.0
 11
17527.172108677
 21
-510.685949113094
 31
0.0
  0
LINE
  5
18CB8
330
1F
100
AcDbEntity
  8
0
  6
Continuous
 62
     2
100
AcDbLine
 10
17806.67012795884
 20
-792.605951860848
 30
0.0
 11
17798.67018466244
 21
-787.0043312598538
 31
0.0
  0
LINE
  5
18CB9
330
1F
100
AcDbEntity
  8
0
  6
Continuous
 62
     2
100
AcDbLine
 10
17806.67012795884
 20
-781.6108171244787
 30
0.0
 11
17798.67018466244
 21
-776.0091965107835
 31
0.0
  0
LINE
  5
18CBA
330
1F
100
AcDbEntity
  8
0
  6
Continuous
 62
     2
100
AcDbLine
 10
17806.67012795884
 20
-770.6156823881095
 30
0.0
 11
17798.67018466244
 21
-765.0140617744143
 31
0.0
  0
LINE
  5
18CBB
330
1F
100
AcDbEntity
  8
0
  6
Continuous
 62
     2
100
AcDbLine
 10
17806.67012795884
 20
-759.6205476390372
 30
0.0
 11
17798.67018466244
 21
-754.0189270380428
 31
0.0
  0
LINE
  5
18CBC
330
1F
100
AcDbEntity
  8
0
  6
Continuous
 62
     7
100
AcDbLine
 10
17639.6713114261
 20
-992.6073169985956
 30
0.0
 11
17639.6713114261
 21
-1056.606863445888
 31
0.0
  0
LINE
  5
18CBD
330
1F
100
AcDbEntity
  8
0
  6
Continuous
 62
     7
100
AcDbLine
 10
17647.67125473517
 20
-992.6073169985956
 30
0.0
 11
17647.67125473517
 21
-1056.606863445888
 31
0.0
  0
LINE
  5
18CBE
330
1F
100
AcDbEntity
  8
0
  6
Continuous
 62
     7
100
AcDbLine
 10
17529.02881022078
 20
-508.685941772175
 30
0.0
 11
17528.99627301325
 21
-508.6862067176978
 31
0.0
  0
LINE
  5
18CBF
330
1F
100
AcDbEntity
  8
0
  6
Continuous
 62
     7
100
AcDbLine
 10
17529.05048511906
 20
-508.6859441978588
 30
0.0
 11
17529.02108706261
 21
-508.6859558817748
 31
0.0
  0
LINE
  5
18CC0
330
1F
100
AcDbEntity
  8
0
  6
Continuous
 62
     7
100
AcDbLine
 10
17529.11795007626
 20
-508.6859632731229
 30
0.0
 11
17529.07200266547
 21
-508.6859590694521
 31
0.0
  0
LINE
  5
18CC1
330
1F
100
AcDbEntity
  8
0
  6
Continuous
 62
     7
100
AcDbLine
 10
17529.03807425902
 20
-508.6859594123518
 30
0.0
 11
17529.02998270188
 21
-508.685940349784
 31
0.0
  0
LINE
  5
18CC2
330
1F
100
AcDbEntity
  8
0
  6
Continuous
 62
     7
100
AcDbLine
 10
17554.16225717768
 20
-511.6248176710487
 30
0.0
 11
17596.3035446748
 21
-512.1243957325068
 31
0.0
  0
LINE
  5
18CC3
330
1F
100
AcDbEntity
  8
0
  6
Continuous
 62
     7
100
AcDbLine
 10
17550.31522070953
 20
-508.685942203972
 30
0.0
 11
17550.38055605691
 21
-508.6870098346073
 31
0.0
  0
LWPOLYLINE
  5
18CC4
330
1F
100
AcDbEntity
  8
0
  6
Continuous
 62
     7
100
AcDbPolyline
 90
        4
 70
     0
 43
0.0
 10
17550.38055605691
 20
-508.6870098346073
 10
17550.33985952552
 20
-508.6860934598992
 10
17550.32576041564
 20
-508.6859688737829
 10
17529.17209450425
 20
-508.6859632858216
  0
LINE
  5
18CC5
330
1F
100
AcDbEntity
  8
0
  6
Continuous
 62
     2
100
AcDbLine
 10
17806.67012795884
 20
-748.625412902668
 30
0.0
 11
17782.73428533433
 21
-731.865355455071
 31
0.0
  0
LINE
  5
18CC6
330
1F
100
AcDbEntity
  8
0
  6
Continuous
 62
     2
100
AcDbLine
 10
17803.98686479952
 20
-735.7514370726151
 30
0.0
 11
17802.4064179337
 21
-734.6447962647053
 31
0.0
  0
LINE
  5
18CC7
330
1F
100
AcDbEntity
  8
0
  6
Continuous
 62
     2
100
AcDbLine
 10
17789.86060898455
 20
-725.8601262533147
 30
0.0
 11
17781.38460540895
 21
-719.9251646629955
 31
0.0
  0
LINE
  5
18CC8
330
1F
100
AcDbEntity
  8
0
  6
Continuous
 62
     2
100
AcDbLine
 10
17788.96862523044
 20
-714.2404177662883
 30
0.0
 11
17780.49262166754
 21
-708.305456175969
 31
0.0
  0
LINE
  5
18CC9
330
1F
100
AcDbEntity
  8
0
  6
Continuous
 62
     2
100
AcDbLine
 10
17788.07664148902
 20
-702.620709291963
 30
0.0
 11
17779.60063791343
 21
-696.6857476889454
 31
0.0
  0
LWPOLYLINE
  5
18CCA
330
1F
100
AcDbEntity
  8
0
  6
Continuous
 62
     7
100
AcDbPolyline
 90
        3
 70
     0
 43
0.0
 10
17552.24356398232
 20
-510.1554021941024
 10
17552.08650086794
 20
-509.7572093556618
 10
17551.60182455071
 20
-509.1547237202735
  0
LINE
  5
18CCB
330
1F
100
AcDbEntity
  8
0
  6
Continuous
 62
     7
100
AcDbLine
 10
17596.3035446748
 20
-512.1243957325068
 30
0.0
 11
17596.30593232137
 21
-512.1394550444854
 31
0.0
  0
LINE
  5
18CCC
330
1F
100
AcDbEntity
  8
0
  6
Continuous
 62
     7
100
AcDbLine
 10
17703.92987924339
 20
-514.2912360126376
 30
0.0
 11
17703.99356856816
 21
-513.1290740302893
 31
0.0
  0
LWPOLYLINE
  5
18CCD
330
1F
100
AcDbEntity
  8
0
  6
Continuous
 62
     7
100
AcDbPolyline
 90
        3
 70
     0
 43
0.0
 10
17551.60182455071
 20
-509.1547237202735
 10
17550.95057744577
 20
-508.7895484126495
 10
17550.31521118458
 20
-508.6859425214675
  0
LINE
  5
18CCE
330
1F
100
AcDbEntity
  8
0
  6
Continuous
 62
     2
100
AcDbLine
 10
17787.18465773492
 20
-691.0010008049392
 30
0.0
 11
17778.70865415932
 21
-685.0660392019189
 31
0.0
  0
LINE
  5
18CCF
330
1F
100
AcDbEntity
  8
0
  6
Continuous
 62
     2
100
AcDbLine
 10
17786.29267398081
 20
-679.381292317913
 30
0.0
 11
17777.81667041789
 21
-673.4463307148951
 31
0.0
  0
LINE
  5
18CD0
330
1F
100
AcDbEntity
  8
0
  6
Continuous
 62
     2
100
AcDbLine
 10
17785.40069022669
 20
-667.7615838308866
 30
0.0
 11
17776.88163414671
 21
-661.7964765403999
 31
0.0
  0
LINE
  5
18CD1
330
1F
100
AcDbEntity
  8
0
  6
Continuous
 62
     2
100
AcDbLine
 10
17784.16626595965
 20
-655.9020958995972
 30
0.0
 11
17775.27266230514
 21
-649.6747275809671
 31
0.0
  0
LINE
  5
18CD2
330
1F
100
AcDbEntity
  8
0
  6
Continuous
 62
     2
100
AcDbLine
 10
17782.5572941181
 20
-643.7803469528632
 30
0.0
 11
17773.66369046359
 21
-637.5529786342333
 31
0.0
  0
LINE
  5
18CD3
330
1F
100
AcDbEntity
  8
0
  6
Continuous
 62
     2
100
AcDbLine
 10
17780.94832226381
 20
-631.6585979934306
 30
0.0
 11
17772.05471862202
 21
-625.4312296748008
 31
0.0
  0
LINE
  5
18CD4
330
1F
100
AcDbEntity
  8
0
  6
Continuous
 62
     2
100
AcDbLine
 10
17779.33935042228
 20
-619.5368490466967
 30
0.0
 11
17770.44574678045
 21
-613.3094807280667
 31
0.0
  0
LINE
  5
18CD5
330
1F
100
AcDbEntity
  8
0
  6
Continuous
 62
     7
100
AcDbLine
 10
17741.67058859153
 20
-992.6073169985956
 30
0.0
 11
17741.67058859153
 21
-1056.606863445888
 31
0.0
  0
LINE
  5
18CD6
330
1F
100
AcDbEntity
  8
0
  6
Continuous
 62
     7
100
AcDbLine
 10
17749.67053190064
 20
-992.6073169985956
 30
0.0
 11
17749.67053190064
 21
-1056.606863445888
 31
0.0
  0
LINE
  5
18CD7
330
1F
100
AcDbEntity
  8
0
  6
Continuous
 62
     2
100
AcDbLine
 10
17777.73037858073
 20
-607.4151000872641
 30
0.0
 11
17768.83677493892
 21
-601.1877317686342
 31
0.0
  0
LINE
  5
18CD8
330
1F
100
AcDbEntity
  8
0
  6
Continuous
 62
     2
100
AcDbLine
 10
17776.12073050707
 20
-595.2928776243863
 30
0.0
 11
17767.29795364101
 21
-589.1151027591027
 31
0.0
  0
LINE
  5
18CD9
330
1F
100
AcDbEntity
  8
0
  6
Continuous
 62
     2
100
AcDbLine
 10
17774.8603153027
 20
-583.4151906585669
 30
0.0
 11
17767.799220092
 21
-578.4709585595824
 31
0.0
  0
LINE
  5
18CDA
330
1F
100
AcDbEntity
  8
0
  6
Continuous
 62
     7
100
AcDbLine
 10
17776.19616605477
 20
-595.8565763884426
 30
0.0
 11
17774.67035473517
 21
-576.781356335624
 31
0.0
  0
LINE
  5
18CDB
330
1F
100
AcDbEntity
  8
0
  6
Continuous
 62
     7
100
AcDbLine
 10
17774.67035473517
 20
-562.6463884077987
 30
0.0
 11
17774.67035473517
 21
-576.781356335624
 31
0.0
  0
LINE
  5
18CDC
330
1F
100
AcDbEntity
  8
0
  6
Continuous
 62
     7
100
AcDbLine
 10
17786.72653527847
 20
-523.468918505679
 30
0.0
 11
17786.72653527847
 21
-553.4687059020539
 31
0.0
  0
LINE
  5
18CDD
330
1F
100
AcDbEntity
  8
0
  6
Continuous
 62
     7
100
AcDbLine
 10
17794.67020927412
 20
-744.2173330819501
 30
0.0
 11
17794.6702130079
 21
-975.6074374604359
 31
0.0
  0
LINE
  5
18CDE
330
1F
100
AcDbEntity
  8
0
  6
Continuous
 62
     7
100
AcDbLine
 10
17798.67018466244
 20
-971.6074658185943
 30
0.0
 11
17798.67018466244
 21
-745.5592542640052
 31
0.0
  0
LINE
  5
18CDF
330
1F
100
AcDbEntity
  8
0
  6
Continuous
 62
     7
100
AcDbLine
 10
17806.67012795884
 20
-741.6090957331539
 30
0.0
 11
17806.67012795884
 21
-975.6074374604359
 31
0.0
  0
LINE
  5
18CE0
330
1F
100
AcDbEntity
  8
0
  6
Continuous
 62
     7
100
AcDbLine
 10
17775.90783772476
 20
-514.2912360126376
 30
0.0
 11
17785.9077668611
 21
-521.8267231153677
 31
0.0
  0
ARC
  5
18CE1
330
1F
100
AcDbEntity
  8
0
  6
Continuous
 62
     7
100
AcDbCircle
 10
17784.67028387155
 20
-523.468918505679
 30
0.0
 40
2.05625140693637
100
AcDbArc
 50
0.0
 51
53.00000000007952
  0
ARC
  5
18CE2
330
1F
100
AcDbEntity
  8
0
  6
Continuous
 62
     7
100
AcDbCircle
 10
17294.67375631699
 20
-523.468918505679
 30
0.0
 40
2.05625140693637
100
AcDbArc
 50
126.9999999999205
 51
180.0
  0
ARC
  5
18CE3
330
1F
100
AcDbEntity
  8
0
  6
Continuous
 62
     7
100
AcDbCircle
 10
17784.67028387155
 20
-553.4687059020539
 30
0.0
 40
2.05625140693637
100
AcDbArc
 50
306.9999999999205
 51
0.0
  0
ARC
  5
18CE4
330
1F
100
AcDbEntity
  8
0
  6
Continuous
 62
     7
100
AcDbCircle
 10
17294.67375631699
 20
-553.4687059020539
 30
0.0
 40
2.05625140693637
100
AcDbArc
 50
180.0
 51
233.0000000000795
  0
ARC
  5
18CE5
330
1F
100
AcDbEntity
  8
0
  6
Continuous
 62
     7
100
AcDbCircle
 10
17539.67202008791
 20
-3511.568562884323
 30
0.0
 40
2999.938778468976
100
AcDbArc
 50
87.58954645552021
 51
88.80226932307607
  0
ARC
  5
18CE6
330
1F
100
AcDbEntity
  8
0
  6
Continuous
 62
     7
100
AcDbCircle
 10
17539.67202008791
 20
-3511.568562884323
 30
0.0
 40
2999.938778468976
100
AcDbArc
 50
91.1977306769239
 51
92.41204636697288
  0
ARC
  5
18CE7
330
1F
100
AcDbEntity
  8
0
  6
Continuous
 62
     7
100
AcDbCircle
 10
17525.17212284973
 20
-509.62485517351
 30
0.0
 40
1.999985827271649
100
AcDbArc
 50
270.276746180204
 51
344.837488710112
  0
ARC
  5
18CE8
330
1F
100
AcDbEntity
  8
0
  6
Continuous
 62
     7
100
AcDbCircle
 10
17554.17191733881
 20
-509.62485517351
 30
0.0
 40
1.999985827271649
100
AcDbArc
 50
195.162511289888
 51
269.723253819796
  0
ARC
  5
18CE9
330
1F
100
AcDbEntity
  8
0
  6
Continuous
 62
     7
100
AcDbCircle
 10
17509.64938575663
 20
-513.3604699718621
 30
0.0
 40
29.99978739637484
100
AcDbArc
 50
96.7504558893677
 51
171.0069981298859
  0
ARC
  5
18CEA
330
1F
100
AcDbEntity
  8
0
  6
Continuous
 62
     7
100
AcDbCircle
 10
17539.67202008791
 20
-767.0031363470103
 30
0.0
 40
285.4131010299395
100
AcDbArc
 50
83.24954411063229
 51
96.7504558893677
  0
ARC
  5
18CEB
330
1F
100
AcDbEntity
  8
0
  6
Continuous
 62
     7
100
AcDbCircle
 10
17569.69465443189
 20
-513.3604699718621
 30
0.0
 40
29.99978739637484
100
AcDbArc
 50
8.993002014106403
 51
83.24954411063229
  0
ARC
  5
18CEC
330
1F
100
AcDbEntity
  8
0
  6
Continuous
 62
     7
100
AcDbCircle
 10
17596.36017620237
 20
-509.1249515625597
 30
0.0
 40
2.99997873455752
100
AcDbArc
 50
268.9183456167905
 51
9.019202123794483
  0
ARC
  5
18CED
330
1F
100
AcDbEntity
  8
0
  6
Continuous
 62
     7
100
AcDbCircle
 10
17482.98386397344
 20
-509.1249515625597
 30
0.0
 40
2.99997873455752
100
AcDbArc
 50
170.9808010278873
 51
271.0816543863368
  0
ARC
  5
18CEE
330
1F
100
AcDbEntity
  8
0
  6
Continuous
 62
     7
100
AcDbCircle
 10
17539.67202008791
 20
-767.0031363470103
 30
0.0
 40
305.4129593026559
100
AcDbArc
 50
55.82348091466352
 51
124.1764246361799
  0
ARC
  5
18CEF
330
1F
100
AcDbEntity
  8
0
  6
Continuous
 62
     7
100
AcDbCircle
 10
17529.17210740738
 20
-510.685949113094
 30
0.0
 40
1.99999227882593
100
AcDbArc
 50
90.00036989743223
 51
180.0
  0
ARC
  5
18CF0
330
1F
100
AcDbEntity
  8
0
  6
Continuous
 62
     7
100
AcDbCircle
 10
17550.17194568427
 20
-510.685949113094
 30
0.0
 40
1.999985827271649
100
AcDbArc
 50
0.0
 51
90.0
  0
ARC
  5
18CF1
330
1F
100
AcDbEntity
  8
0
  6
Continuous
 62
     7
100
AcDbCircle
 10
17539.67202008791
 20
-3511.568562884323
 30
0.0
 40
3002.938717249616
100
AcDbArc
 50
91.19771888514257
 51
93.13680596554595
  0
ARC
  5
18CF2
330
1F
100
AcDbEntity
  8
0
  6
Continuous
 62
     7
100
AcDbCircle
 10
17539.67202008791
 20
-767.0031363470103
 30
0.0
 40
302.4129805553986
100
AcDbArc
 50
57.08678841292553
 51
122.9132115870744
  0
ARC
  5
18CF3
330
1F
100
AcDbEntity
  8
0
  6
Continuous
 62
     7
100
AcDbCircle
 10
17539.67202008791
 20
-3511.568562884323
 30
0.0
 40
3002.938717249616
100
AcDbArc
 50
86.86319403445406
 51
88.8022798407972
  0
ARC
  5
18CF4
330
1F
100
AcDbEntity
  8
0
  6
Continuous
 62
     7
100
AcDbCircle
 10
17569.69465443189
 20
-513.3604699718621
 30
0.0
 40
32.99976614363227
100
AcDbArc
 50
7.092613655587864
 51
83.24954411063229
  0
ARC
  5
18CF5
330
1F
100
AcDbEntity
  8
0
  6
Continuous
 62
     7
100
AcDbCircle
 10
17539.67202008791
 20
-767.0031363470103
 30
0.0
 40
288.4130827235761
100
AcDbArc
 50
83.24954411063229
 51
96.7504558893677
  0
ARC
  5
18CF6
330
1F
100
AcDbEntity
  8
0
  6
Continuous
 62
     7
100
AcDbCircle
 10
17509.64938575663
 20
-513.3604699718621
 30
0.0
 40
32.99976614363227
100
AcDbArc
 50
96.7504558893677
 51
172.9073696100052
  0
ARC
  5
18CF7
330
1F
100
AcDbEntity
  8
0
  6
Continuous
 62
     7
100
AcDbCircle
 10
17271.67391929702
 20
-836.6084225095065
 30
0.0
 40
1.999985827271649
100
AcDbArc
 50
90.0
 51
179.9999999825952
  0
ARC
  5
18CF8
330
1F
100
AcDbEntity
  8
0
  6
Continuous
 62
     7
100
AcDbCircle
 10
17271.67391929702
 20
-694.6094288113203
 30
0.0
 40
1.999985827271649
100
AcDbArc
 50
180.0000000183949
 51
270.0
  0
ARC
  5
18CF9
330
1F
100
AcDbEntity
  8
0
  6
Continuous
 62
     7
100
AcDbCircle
 10
17281.67384843336
 20
-846.6083516458644
 30
0.0
 40
3.999971654543299
100
AcDbArc
 50
90.0
 51
179.9999999917014
  0
ARC
  5
18CFA
330
1F
100
AcDbEntity
  8
0
  6
Continuous
 62
     7
100
AcDbCircle
 10
17281.67384843336
 20
-684.6094996749625
 30
0.0
 40
3.999971654543299
100
AcDbArc
 50
180.0000000078947
 51
270.0
  0
ARC
  5
18CFB
330
1F
100
AcDbEntity
  8
0
  6
Continuous
 62
     7
100
AcDbCircle
 10
17281.67384843336
 20
-590.6101658185941
 30
0.0
 40
3.999971654543299
100
AcDbArc
 50
90.0
 51
179.9999999893955
  0
ARC
  5
18CFC
330
1F
100
AcDbEntity
  8
0
  6
Continuous
 62
     7
100
AcDbCircle
 10
17281.67384843336
 20
-852.6083091149811
 30
0.0
 40
3.999971654543299
100
AcDbArc
 50
180.0000000105914
 51
270.0
  0
ARC
  5
18CFD
330
1F
100
AcDbEntity
  8
0
  6
Continuous
 62
     7
100
AcDbCircle
 10
17794.6702130079
 20
-971.6074658185943
 30
0.0
 40
3.999971654543299
100
AcDbArc
 50
270.0
 51
0.0
  0
ARC
  5
18CFE
330
1F
100
AcDbEntity
  8
0
  6
Continuous
 62
     7
100
AcDbCircle
 10
16591.46278311626
 20
-786.608776840416
 30
0.0
 40
1199.991496058192
100
AcDbArc
 50
2.804146674197684
 51
9.146611136582661
  0
ARC
  5
18CFF
330
1F
100
AcDbEntity
  8
0
  6
Continuous
 62
     7
100
AcDbCircle
 10
18487.88125707226
 20
-786.608776840416
 30
0.0
 40
1199.991496058192
100
AcDbArc
 50
183.9496416011964
 51
188.774289647806
  0
ARC
  5
18D00
330
1F
100
AcDbEntity
  8
0
  6
Continuous
 62
     7
100
AcDbCircle
 10
17757.64489774337
 20
-966.6075012440648
 30
0.0
 40
11.9999149636299
100
AcDbArc
 50
270.0
 51
297.7957810664364
  0
ARC
  5
18D01
330
1F
100
AcDbEntity
  8
0
  6
Continuous
 62
     7
100
AcDbCircle
 10
17769.76946062187
 20
-989.6073215509547
 30
0.0
 40
5.99995671982035
100
AcDbArc
 50
90.00279869961211
 51
117.7983215443421
  0
ARC
  5
18D02
330
1F
100
AcDbEntity
  8
0
  6
Continuous
 62
     7
100
AcDbCircle
 10
17796.01012756608
 20
-727.6092814921384
 30
0.0
 40
5.99995351944303
100
AcDbArc
 50
182.8033464201972
 51
270.000516559528
  0
ARC
  5
18D03
330
1F
100
AcDbEntity
  8
0
  6
Continuous
 62
     7
100
AcDbCircle
 10
17894.66950434609
 20
-576.781356335624
 30
0.0
 40
119.9991496108992
100
AcDbArc
 50
180.0
 51
189.1466111365826
  0
ARC
  5
18D04
330
1F
100
AcDbEntity
  8
0
  6
Continuous
 62
     7
100
AcDbCircle
 10
17285.75173458186
 20
-869.608109202503
 30
0.0
 40
4.99996188214816
100
AcDbArc
 50
3.948781649702891
 51
90.00060453302316
  0
ARC
  5
18D05
330
1F
100
AcDbEntity
  8
0
  6
Continuous
 62
     7
100
AcDbCircle
 10
17798.67018466244
 20
-975.6074374604359
 30
0.0
 40
7.999943309086599
100
AcDbArc
 50
270.0
 51
359.9999999994007
  0
ARC
  5
18D06
330
1F
100
AcDbEntity
  8
0
  6
Continuous
 62
     7
100
AcDbCircle
 10
17798.67018466244
 20
-741.6090957331539
 30
0.0
 40
7.999943309086599
100
AcDbArc
 50
0.0000000005992674
 51
90.0
  0
ARC
  5
18D07
330
1F
100
AcDbEntity
  8
0
  6
Continuous
 62
     7
100
AcDbCircle
 10
16591.46278311626
 20
-786.608776840416
 30
0.0
 40
1191.991552761805
100
AcDbArc
 50
2.804146674197684
 51
9.146611136582661
  0
ARC
  5
18D08
330
1F
100
AcDbEntity
  8
0
  6
Continuous
 62
     7
100
AcDbCircle
 10
18487.88125707226
 20
-786.608776840416
 30
0.0
 40
1191.991552761805
100
AcDbArc
 50
183.9496416011964
 51
188.774289647806
  0
ARC
  5
18D09
330
1F
100
AcDbEntity
  8
0
  6
Continuous
 62
     7
100
AcDbCircle
 10
17271.67391929702
 20
-580.610236682234
 30
0.0
 40
1.999985827271649
100
AcDbArc
 50
90.0
 51
179.9999999787911
  0
ARC
  5
18D0A
330
1F
100
AcDbEntity
  8
0
  6
Continuous
 62
     7
100
AcDbCircle
 10
17271.67391929702
 20
-862.6082382513388
 30
0.0
 40
1.999985827271649
100
AcDbArc
 50
180.0000000211958
 51
270.0
  0
ARC
  5
18D0B
330
1F
100
AcDbEntity
  8
0
  6
Continuous
 62
     7
100
AcDbCircle
 10
17299.6737370966
 20
-573.6103048985021
 30
0.0
 40
4.99996393953358
100
AcDbArc
 50
269.9998113001827
 51
0.0002007961989682
  0
ARC
  5
18D0C
330
1F
100
AcDbEntity
  8
0
  6
Continuous
 62
     7
100
AcDbCircle
 10
17321.69914244515
 20
-966.6075012440648
 30
0.0
 40
11.9999149636299
100
AcDbArc
 50
188.7742894963933
 51
270.0
  0
ARC
  5
18D0D
330
1F
100
AcDbEntity
  8
0
  6
Continuous
 62
     7
100
AcDbCircle
 10
17633.67135394428
 20
-992.6073169985956
 30
0.0
 40
13.99990079090155
100
AcDbArc
 50
0.0
 51
89.99999999249613
  0
ARC
  5
18D0E
330
1F
100
AcDbEntity
  8
0
  6
Continuous
 62
     7
100
AcDbCircle
 10
17755.67048938247
 20
-992.6073169985956
 30
0.0
 40
13.99990079090155
100
AcDbArc
 50
90.00000001980188
 51
180.0
  0
ARC
  5
18D0F
330
1F
100
AcDbEntity
  8
0
  6
Continuous
 62
     7
100
AcDbCircle
 10
17769.76946063459
 20
-989.6073215509547
 30
0.0
 40
13.99989898751433
100
AcDbArc
 50
90.00364811059311
 51
117.799096022573
  0
ARC
  5
18D10
330
1F
100
AcDbEntity
  8
0
  6
Continuous
 62
     7
100
AcDbCircle
 10
17796.01012756608
 20
-727.6092814921384
 30
0.0
 40
13.9998939964497
100
AcDbArc
 50
182.8033482881026
 51
265.7309259679844
  0
ARC
  5
18D11
330
1F
100
AcDbEntity
  8
0
  6
Continuous
 62
     7
100
AcDbCircle
 10
17894.66950434609
 20
-576.781356335624
 30
0.0
 40
127.9990929072858
100
AcDbArc
 50
180.8789361702916
 51
189.1466111365826
  0
ARC
  5
18D12
330
1F
100
AcDbEntity
  8
0
  6
Continuous
 62
     7
100
AcDbCircle
 10
17755.67048938247
 20
-992.6073169985956
 30
0.0
 40
5.999957481814949
100
AcDbArc
 50
90.0
 51
180.0
  0
ARC
  5
18D13
330
1F
100
AcDbEntity
  8
0
  6
Continuous
 62
     7
100
AcDbCircle
 10
17633.67135394428
 20
-992.6073169985956
 30
0.0
 40
5.999957481814949
100
AcDbArc
 50
0.0
 51
90.0
  0
ARC
  5
18D14
330
1F
100
AcDbEntity
  8
0
  6
Continuous
 62
     7
100
AcDbCircle
 10
17299.67373970008
 20
-573.6103078067817
 30
0.0
 40
12.9999061310281
100
AcDbArc
 50
270.0000184011567
 51
337.117701243102
  0
ARC
  5
18D15
330
1F
100
AcDbEntity
  8
0
  6
Continuous
 62
     7
100
AcDbCircle
 10
17285.75173458186
 20
-869.608109202503
 30
0.0
 40
12.99990285445132
100
AcDbArc
 50
3.948777413800866
 51
90.00060611488063
  0
ARC
  5
18D16
330
1F
100
AcDbEntity
  8
0
  6
Continuous
 62
     7
100
AcDbCircle
 10
17757.64489774337
 20
-966.6075012440648
 30
0.0
 40
19.9998582727165
100
AcDbArc
 50
270.0
 51
297.7957724985168
  0
ARC
  5
18D17
330
1F
100
AcDbEntity
  8
0
  6
Continuous
 62
     7
100
AcDbCircle
 10
17321.69914244515
 20
-966.6075012440648
 30
0.0
 40
19.9998582727165
100
AcDbArc
 50
188.7742896479089
 51
270.0
  0
ARC
  5
18D18
330
1F
100
AcDbEntity
  8
0
  6
Continuous
 62
     7
100
AcDbCircle
 10
17794.6702130079
 20
-745.5592542259046
 30
0.0
 40
3.999971654543299
100
AcDbArc
 50
0.0006181660045608
 51
85.73101389611965
  0
SPLINE
  5
18D19
330
1F
100
AcDbEntity
  8
0
  6
Continuous
 62
     7
100
AcDbSpline
210
0.0
220
0.0
230
1.0
 70
     8
 71
     3
 72
    10
 73
     6
 74
     4
 42
0.0000000001
 43
0.0000000001
 44
0.0000000001
 12
-0.9842170747931916
 22
-0.1769653912083745
 32
0.0
 13
-0.9831596071253457
 23
-0.1827489724106166
 33
0.0
 40
0.0
 40
0.0
 40
0.0
 40
0.0
 40
10.58441104098516
 40
21.96914457257044
 40
33.31603330190215
 40
33.31603330190215
 40
33.31603330190215
 40
33.31603330190215
 10
17597.39903552053
 20
-556.609666807418
 30
0.0
 10
17593.92658282948
 20
-557.2340249542775
 30
0.0
 10
17586.72031438331
 20
-558.5366387112542
 30
0.0
 10
17575.79589204344
 20
-560.5330912313113
 30
0.0
 10
17568.3448772577
 20
-561.9102419581606
 30
0.0
 10
17564.62627636929
 20
-562.6014527099417
 30
0.0
 11
17597.39903552053
 21
-556.609666807418
 31
0.0
 11
17586.98342002929
 21
-558.4924071036714
 31
0.0
 11
17575.78417216161
 21
-560.5391129407528
 31
0.0
 11
17564.62627636929
 21
-562.6014527099417
 31
0.0
  0
SPLINE
  5
18D1A
330
1F
100
AcDbEntity
  8
0
  6
Continuous
 62
     7
100
AcDbSpline
210
0.0
220
0.0
230
1.0
 70
     8
 71
     3
 72
    11
 73
     7
 74
     5
 42
0.0000000001
 43
0.0000000001
 44
0.0000000001
 12
-0.9998218244600815
 22
-0.0188764226831788
 32
0.0
 13
0.1563138508922483
 23
0.9877074364503062
 33
0.0
 40
0.0
 40
0.0
 40
0.0
 40
0.0
 40
1.299582549312277
 40
2.599163679983841
 40
3.898742030299041
 40
5.19831818969696
 40
5.19831818969696
 40
5.19831818969696
 40
5.19831818969696
 10
17483.03810786715
 20
-512.1394550444854
 30
0.0
 10
17482.60499086865
 20
-512.1476322009896
 30
0.0
 10
17481.72340745454
 20
-511.9706441618346
 30
0.0
 10
17480.64632358901
 20
-511.1731065576135
 30
0.0
 10
17480.00462168475
 20
-509.9965056273328
 30
0.0
 10
17479.9506587139
 20
-509.0989547284307
 30
0.0
 10
17480.01837263189
 20
-508.6710877161404
 30
0.0
 11
17483.03810786715
 21
-512.1394550444854
 31
0.0
 11
17481.76428873325
 21
-511.881967925209
 31
0.0
 11
17480.71888640879
 21
-511.1099283567957
 31
0.0
 11
17480.09808095004
 21
-509.9682171538195
 31
0.0
 11
17480.01837263189
 21
-508.6710877161404
 31
0.0
  0
SPLINE
  5
18D1B
330
1F
100
AcDbEntity
  8
0
  6
Continuous
 62
     7
100
AcDbSpline
210
0.0
220
0.0
230
1.0
 70
     8
 71
     3
 72
    11
 73
     7
 74
     5
 42
0.0000000001
 43
0.0000000001
 44
0.0000000001
 12
0.9998217855983808
 22
-0.018878480946982
 32
0.0
 13
-0.1563145714312391
 23
0.9877073224180673
 33
0.0
 40
0.0
 40
0.0
 40
0.0
 40
0.0
 40
1.299582960037264
 40
2.599162847826751
 40
3.898736666387974
 40
5.198305757954876
 40
5.198305757954876
 40
5.198305757954876
 40
5.198305757954876
 10
17596.30593275318
 20
-512.1394319687492
 30
0.0
 10
17596.73904987173
 20
-512.1476100194659
 30
0.0
 10
17597.6206332495
 20
-511.9706246739728
 30
0.0
 10
17598.69771922586
 20
-511.1730932657395
 30
0.0
 10
17599.33942416519
 20
-509.9964986523466
 30
0.0
 10
17599.39338808594
 20
-509.0989512979583
 30
0.0
 10
17599.32567422407
 20
-508.6710866620487
 30
0.0
 11
17596.30593275318
 21
-512.1394319687492
 31
0.0
 11
17597.57975303003
 21
-511.8819484308487
 31
0.0
 11
17598.62515755163
 21
-511.1099139296982
 31
0.0
 11
17599.24596499157
 21
-509.9682089623775
 31
0.0
 11
17599.32567422407
 21
-508.6710866620487
 31
0.0
  0
SPLINE
  5
18D1C
330
1F
100
AcDbEntity
  8
0
  6
Continuous
 62
     7
100
AcDbSpline
210
0.0
220
0.0
230
1.0
 70
     8
 71
     3
 72
    10
 73
     6
 74
     4
 42
0.0000000001
 43
0.0000000001
 44
0.0000000001
 12
0.9553424400131987
 22
0.2955009683734176
 32
0.0
 13
0.9565757903385859
 23
0.2914837171063071
 33
0.0
 40
0.0
 40
0.0
 40
0.0
 40
0.0
 40
0.4639454132396677
 40
2.123545198323341
 40
3.958869281265436
 40
3.958869281265436
 40
3.958869281265436
 40
3.958869281265436
 10
17371.56596754059
 20
-514.291036268452
 30
0.0
 10
17371.71370978829
 20
-514.2453374954904
 30
0.0
 10
17372.3899932729
 20
-514.036315865971
 30
0.0
 10
17373.65123252619
 20
-513.6481374963127
 30
0.0
 10
17374.76526275864
 20
-513.3073963922194
 30
0.0
 10
17375.35047162037
 20
-513.1290740302893
 30
0.0
 11
17371.56596754059
 21
-514.291036268452
 31
0.0
 11
17372.00922614936
 21
-514.1540430123781
 31
0.0
 11
17373.5953839742
 21
-513.6658065928449
 31
0.0
 11
17375.35047162037
 21
-513.1290740302893
 31
0.0
  0
SPLINE
  5
18D1D
330
1F
100
AcDbEntity
  8
0
  6
Continuous
 62
     7
100
AcDbSpline
210
0.0
220
0.0
230
1.0
 70
     8
 71
     3
 72
    13
 73
     9
 74
     7
 42
0.0000000001
 43
0.0000000001
 44
0.0000000001
 12
0.9997854440821051
 22
0.0207139035806408
 32
0.0
 13
0.1369721440932054
 23
0.9905748996125989
 33
0.0
 40
0.0
 40
0.0
 40
0.0
 40
0.0
 40
1.668071698695519
 40
3.166417324025022
 40
4.398692692773771
 40
5.314146648543538
 40
5.880838409278112
 40
6.075080572388581
 40
6.075080572388581
 40
6.075080572388581
 40
6.075080572388581
 10
17476.96483560829
 20
-512.285234555497
 30
0.0
 10
17477.52074020964
 20
-512.2737171300529
 30
0.0
 10
17478.5732470328
 20
-512.2481541035595
 30
0.0
 10
17480.04969531045
 20
-512.2269658937597
 30
0.0
 10
17481.23582192679
 20
-512.1677725374292
 30
0.0
 10
17482.20928449092
 20
-512.2190736494919
 30
0.0
 10
17482.64221736767
 20
-512.0693659643436
 30
0.0
 10
17483.02923927863
 20
-512.20359218156
 30
0.0
 10
17483.03810786715
 20
-512.1394550444854
 30
0.0
 11
17476.96483560829
 21
-512.285234555497
 31
0.0
 11
17478.6325276046
 21
-512.2496452675043
 31
0.0
 11
17480.13050206766
 21
-512.2162967897345
 31
0.0
 11
17481.36244021305
 21
-512.1874698863214
 31
0.0
 11
17482.27760553197
 21
-512.1644832778206
 31
0.0
 11
17482.84406443095
 21
-512.1482392801349
 31
0.0
 11
17483.03810786715
 21
-512.1394550444854
 31
0.0
  0
SPLINE
  5
18D1E
330
1F
100
AcDbEntity
  8
0
  6
Continuous
 62
     7
100
AcDbSpline
210
0.0
220
0.0
230
1.0
 70
     8
 71
     3
 72
    10
 73
     6
 74
     4
 42
0.0000000001
 43
0.0000000001
 44
0.0000000001
 12
-0.0000450168462047
 22
0.9999999989867419
 32
0.0
 13
-0.966554700648623
 23
0.2564605440492766
 33
0.0
 40
0.0
 40
0.0
 40
0.0
 40
0.0
 40
0.1835642696704164
 40
0.340185305350758
 40
0.52539302286571
 40
0.52539302286571
 40
0.52539302286571
 40
0.52539302286571
 10
17552.17193151155
 20
-510.685949113094
 30
0.0
 10
17552.17192875705
 20
-510.6247610232658
 30
0.0
 10
17552.18642197999
 20
-510.5059239156822
 30
0.0
 10
17552.17055929195
 20
-510.3545667928795
 30
0.0
 10
17552.30026301584
 20
-510.182245611474
 30
0.0
 10
17552.24059188585
 20
-510.1664127874753
 30
0.0
 11
17552.17193151155
 21
-510.685949113094
 31
0.0
 11
17552.18035932422
 21
-510.5025784145809
 31
0.0
 11
17552.20081824424
 21
-510.3472993708915
 31
0.0
 11
17552.24059188585
 21
-510.1664127874753
 31
0.0
  0
SPLINE
  5
18D1F
330
1F
100
AcDbEntity
  8
0
  6
Continuous
 62
     7
100
AcDbSpline
210
0.0
220
0.0
230
1.0
 70
     8
 71
     3
 72
    10
 73
     6
 74
     4
 42
0.0000000001
 43
0.0000000001
 44
0.0000000001
 12
0.0000450168462047
 22
0.9999999989867419
 32
0.0
 13
0.9665739471554372
 23
0.2563879963655832
 33
0.0
 40
0.0
 40
0.0
 40
0.0
 40
0.0
 40
0.1835642696705834
 40
0.340185307011812
 40
0.5253930245267641
 40
0.5253930245267641
 40
0.5253930245267641
 40
0.5253930245267641
 10
17527.172108677
 20
-510.685949113094
 30
0.0
 10
17527.17211143149
 20
-510.6247610232657
 30
0.0
 10
17527.15761806868
 20
-510.505923365771
 30
0.0
 10
17527.17348134128
 20
-510.3545685388052
 30
0.0
 10
17527.04377597178
 20
-510.1822411326771
 30
0.0
 10
17527.10344828997
 20
-510.1664127874753
 30
0.0
 11
17527.172108677
 21
-510.685949113094
 31
0.0
 11
17527.16368086432
 21
-510.5025784145809
 31
0.0
 11
17527.14322193158
 21
-510.3472993708915
 31
0.0
 11
17527.10344828997
 21
-510.1664127874753
 31
0.0
  0
SPLINE
  5
18D20
330
1F
100
AcDbEntity
  8
0
  6
Continuous
 62
     7
100
AcDbSpline
210
0.0
220
0.0
230
1.0
 70
     8
 71
     3
 72
    10
 73
     6
 74
     4
 42
0.0000000001
 43
0.0000000001
 44
0.0000000001
 12
0.95657575817198
 22
-0.2914838226689459
 32
0.0
 13
0.9553426758945608
 23
-0.2955002057776279
 33
0.0
 40
0.0
 40
0.0
 40
0.0
 40
0.0
 40
1.832848091298165
 40
3.488366973781875
 40
3.958867710880879
 40
3.958867710880879
 40
3.958867710880879
 40
3.958867710880879
 10
17703.99356856816
 20
-513.1290740302893
 30
0.0
 10
17704.57798791901
 20
-513.307155886297
 30
0.0
 10
17705.68992866377
 20
-513.647255862345
 30
0.0
 10
17706.95116918775
 20
-514.0354283106688
 30
0.0
 10
17707.6282414018
 20
-514.2446912277777
 30
0.0
 10
17707.77807121287
 20
-514.2910355826548
 30
0.0
 11
17703.99356856816
 21
-513.1290740302893
 31
0.0
 11
17705.7462892305
 21
-513.6650800055945
 31
0.0
 11
17707.32854905927
 21
-514.1521083461891
 31
0.0
 11
17707.77807121287
 21
-514.2910355826548
 31
0.0
  0
SPLINE
  5
18D21
330
1F
100
AcDbEntity
  8
0
  6
Continuous
 62
     7
100
AcDbSpline
210
0.0
220
0.0
230
1.0
 70
     8
 71
     3
 72
    12
 73
     8
 74
     6
 42
0.0000000001
 43
0.0000000001
 44
0.0000000001
 12
0.1515538527406607
 22
-0.9884490020832952
 32
0.0
 13
0.9874235141912757
 23
-0.1580974497648572
 33
0.0
 40
0.0
 40
0.0
 40
0.0
 40
0.0
 40
0.4059642693415452
 40
0.8895469625448019
 40
1.536294618003035
 40
2.316400105685552
 40
3.176673305088089
 40
3.176673305088089
 40
3.176673305088089
 40
3.176673305088089
 10
17599.32566936002
 20
-508.6710991714605
 30
0.0
 10
17599.34617784305
 20
-508.8048574970979
 30
0.0
 10
17599.80542282407
 20
-508.7212887912309
 30
0.0
 10
17600.22126862424
 20
-508.9054678467365
 30
0.0
 10
17600.87823503741
 20
-509.0024475622045
 30
0.0
 10
17601.61604700684
 20
-509.1518128776161
 30
0.0
 10
17602.15819878806
 20
-509.2405184219883
 30
0.0
 10
17602.44135011664
 20
-509.285854088297
 30
0.0
 11
17599.32566936002
 21
-508.6710991714605
 31
0.0
 11
17599.7198507414
 21
-508.7681971969577
 31
0.0
 11
17600.19224760457
 21
-508.8716062141329
 31
0.0
 11
17600.82613450402
 21
-508.9999414335645
 31
0.0
 11
17601.59312018138
 21
-509.1424108781327
 31
0.0
 11
17602.44135011664
 21
-509.285854088297
 31
0.0
  0
SPLINE
  5
18D22
330
1F
100
AcDbEntity
  8
0
  6
Continuous
 62
     7
100
AcDbSpline
210
0.0
220
0.0
230
1.0
 70
     8
 71
     3
 72
    12
 73
     8
 74
     6
 42
0.0000000001
 43
0.0000000001
 44
0.0000000001
 12
0.9874125322324005
 22
0.1581660241341317
 32
0.0
 13
0.1509502849636399
 23
0.9885413554674361
 33
0.0
 40
0.0
 40
0.0
 40
0.0
 40
0.0
 40
0.8609654865569586
 40
1.641450859743528
 40
2.287877220164922
 40
2.771311342277128
 40
3.176604037800516
 40
3.176604037800516
 40
3.176604037800516
 40
3.176604037800516
 10
17476.90275811799
 20
-509.2858423154814
 30
0.0
 10
17477.18613415507
 20
-509.2404504861729
 30
0.0
 10
17477.72865055352
 20
-509.1517194415963
 30
0.0
 10
17478.46668051757
 20
-509.0022653244293
 30
0.0
 10
17479.12364871048
 20
-508.9052920923561
 30
0.0
 10
17479.53907400994
 20
-508.7211952157893
 30
0.0
 10
17479.99797758393
 20
-508.8046500986475
 30
0.0
 10
17480.01837059989
 20
-508.6711005684496
 30
0.0
 11
17476.90275811799
 21
-509.2858423154814
 31
0.0
 11
17477.75167011465
 21
-509.1422805135549
 31
0.0
 11
17478.51902613406
 21
-508.9997247096018
 31
0.0
 11
17479.15259557387
 21
-508.8714406327064
 31
0.0
 11
17479.62484523239
 21
-508.7680539292737
 31
0.0
 11
17480.01837059989
 21
-508.6711005684496
 31
0.0
  0
SPLINE
  5
18D23
330
1F
100
AcDbEntity
  8
0
  6
Continuous
 62
     7
100
AcDbSpline
210
0.0
220
0.0
230
1.0
 70
     8
 71
     3
 72
    13
 73
     9
 74
     7
 42
0.0000000001
 43
0.0000000001
 44
0.0000000001
 12
0.140451523103355
 22
-0.9900875565615132
 32
0.0
 13
0.9997850242717149
 23
-0.0207341564093302
 33
0.0
 40
0.0
 40
0.0
 40
0.0
 40
0.0
 40
0.1948378173151104
 40
0.7621212930837009
 40
1.677848902573124
 40
2.910767808727371
 40
4.408511902260547
 40
6.075080515209326
 40
6.075080515209326
 40
6.075080515209326
 40
6.075080515209326
 10
17596.30593232137
 20
-512.1394550444854
 30
0.0
 10
17596.31505407744
 20
-512.2037572106425
 30
0.0
 10
17596.70217931765
 20
-512.0693382713584
 30
0.0
 10
17597.13603946422
 20
-512.2190690843154
 30
0.0
 10
17598.10971404419
 20
-512.1678238625618
 30
0.0
 10
17599.29607414655
 20
-512.226990550277
 30
0.0
 10
17600.77197905298
 20
-512.2481915390517
 30
0.0
 10
17601.82380112049
 20
-512.2737162574011
 30
0.0
 10
17602.37920456754
 20
-512.285234555497
 30
0.0
 11
17596.30593232137
 21
-512.1394550444854
 31
0.0
 11
17596.50057114204
 21
-512.1482587109972
 31
0.0
 11
17597.06762165366
 21
-512.164514760896
 31
0.0
 11
17597.98306061755
 21
-512.1875051539693
 31
0.0
 11
17599.21564217843
 21
-512.2163447953925
 31
0.0
 11
17600.71301530077
 21
-512.2496779951716
 31
0.0
 11
17602.37920456754
 21
-512.285234555497
 31
0.0
  0
SPLINE
  5
18D24
330
1F
100
AcDbEntity
  8
0
  6
Continuous
 62
     7
100
AcDbSpline
210
0.0
220
0.0
230
1.0
 70
     8
 71
     3
 72
    10
 73
     6
 74
     4
 42
0.0000000001
 43
0.0000000001
 44
0.0000000001
 12
0.965014973547694
 22
-0.2621947765092647
 32
0.0
 13
0.9897972991829991
 23
0.1424826534355687
 33
0.0
 40
0.0
 40
0.0
 40
0.0
 40
0.0
 40
100.6597605697918
 40
211.0802394158163
 40
272.6658000737389
 40
272.6658000737389
 40
272.6658000737389
 40
272.6658000737389
 10
17375.26115375024
 20
-595.8565763884426
 30
0.0
 10
17407.64054581144
 20
-604.6540641971335
 30
0.0
 10
17475.98093883101
 20
-623.0320839670537
 30
0.0
 10
17568.97124580277
 20
-618.0007624221777
 30
0.0
 10
17623.37470672092
 20
-598.7815344203952
 30
0.0
 10
17643.69378059021
 20
-595.8565763884426
 30
0.0
 11
17375.26115375024
 21
-595.8565763884426
 31
0.0
 11
17473.65006774784
 21
-617.1170796830911
 31
0.0
 11
17583.87133262333
 21
-610.487229169515
 31
0.0
 11
17643.69378059021
 21
-595.8565763884426
 31
0.0
  0
SPLINE
  5
18D25
330
1F
100
AcDbEntity
  8
0
  6
Continuous
 62
     7
100
AcDbSpline
210
0.0
220
0.0
230
1.0
 70
     8
 71
     3
 72
     9
 73
     5
 74
     3
 42
0.0000000001
 43
0.0000000001
 44
0.0000000001
 12
0.9897972991855615
 22
0.1424826534177682
 32
0.0
 13
0.9710723828912197
 23
0.2387853161020759
 33
0.0
 40
0.0
 40
0.0
 40
0.0
 40
0.0
 40
10.6781124924987
 40
68.70751357028621
 40
68.70751357028621
 40
68.70751357028621
 40
68.70751357028621
 10
17643.69378059021
 20
-595.8565763884426
 30
0.0
 10
17647.21683622537
 20
-595.3494277879676
 30
0.0
 10
17669.9912108841
 20
-592.9050343506095
 30
0.0
 10
17693.50017255324
 20
-596.7409885482864
 30
0.0
 10
17712.28375548069
 20
-592.1221322550953
 30
0.0
 11
17643.69378059021
 21
-595.8565763884426
 31
0.0
 11
17654.31349439197
 21
-594.7413341854885
 31
0.0
 11
17712.28375548069
 21
-592.1221322550953
 31
0.0
  0
SPLINE
  5
18D26
330
1F
100
AcDbEntity
  8
0
  6
Continuous
 62
     7
100
AcDbSpline
210
0.0
220
0.0
230
1.0
 70
     8
 71
     3
 72
     9
 73
     5
 74
     3
 42
0.0000000001
 43
0.0000000001
 44
0.0000000001
 12
0.9654272887300592
 22
-0.2606724960085492
 32
0.0
 13
0.9650149735979384
 23
-0.2621947763243387
 33
0.0
 40
0.0
 40
0.0
 40
0.0
 40
0.0
 40
6.348629803803766
 40
13.012717078346
 40
13.012717078346
 40
13.012717078346
 40
13.012717078346
 10
17362.70237884067
 20
-592.4495319852237
 30
0.0
 10
17364.74542566021
 20
-593.0011697109543
 30
0.0
 10
17368.93193145856
 20
-594.1359465054611
 30
0.0
 10
17373.11750574848
 20
-595.2741467643244
 30
0.0
 10
17375.26115375024
 20
-595.8565763884426
 30
0.0
 11
17362.70237884067
 21
-592.4495319852237
 31
0.0
 11
17368.83021943781
 21
-594.109251841646
 31
0.0
 11
17375.26115375024
 21
-595.8565763884426
 31
0.0
  0
SPLINE
  5
18D27
330
1F
100
AcDbEntity
  8
0
  6
Continuous
 62
     7
100
AcDbSpline
210
0.0
220
0.0
230
1.0
 70
     8
 71
     3
 72
     8
 73
     4
 74
     2
 42
0.0000000001
 43
0.0000000001
 44
0.0000000001
 12
-0.0000004740163686
 22
0.9999999999998877
 32
0.0
 13
-0.3894598913108103
 23
0.921043426261852
 33
0.0
 40
0.0
 40
0.0
 40
0.0
 40
0.0
 40
1.527151480216119
 40
1.527151480216119
 40
1.527151480216119
 40
1.527151480216119
 10
17798.67018466244
 20
-748.1281280893577
 30
0.0
 10
17798.67018442114
 20
-747.6190775959524
 30
0.0
 10
17798.56400327842
 20
-747.1004863568337
 30
0.0
 10
17798.36574852859
 20
-746.6316287462473
 30
0.0
 11
17798.67018466244
 21
-748.1281280893577
 31
0.0
 11
17798.36574852859
 21
-746.6316287462473
 31
0.0
  0
SPLINE
  5
18D28
330
1F
100
AcDbEntity
  8
0
  6
Continuous
 62
     7
100
AcDbSpline
210
0.0
220
0.0
230
1.0
 70
     8
 71
     3
 72
     8
 73
     4
 74
     2
 42
0.0000000001
 43
0.0000000001
 44
0.0000000001
 12
-0.3894598894177958
 22
0.9210434270623062
 32
0.0
 13
-0.7149669493198263
 23
0.699158252029039
 33
0.0
 40
0.0
 40
0.0
 40
0.0
 40
0.0
 40
1.536743487960382
 40
1.536743487960382
 40
1.536743487960382
 40
1.536743487960382
 10
17798.36574852859
 20
-746.6316287462473
 30
0.0
 10
17798.16624854562
 20
-746.159826250025
 30
0.0
 10
17797.864938166
 20
-745.7209906240215
 30
0.0
 10
17797.49869789817
 20
-745.3628483270684
 30
0.0
 11
17798.36574852859
 21
-746.6316287462473
 31
0.0
 11
17797.49869789817
 21
-745.3628483270684
 31
0.0
  0
SPLINE
  5
18D29
330
1F
100
AcDbEntity
  8
0
  6
Continuous
 62
     7
100
AcDbSpline
210
0.0
220
0.0
230
1.0
 70
     8
 71
     3
 72
     9
 73
     5
 74
     3
 42
0.0000000001
 43
0.0000000001
 44
0.0000000001
 12
-0.7149669519310558
 22
0.699158249358767
 32
0.0
 13
-0.9999999999996958
 23
-0.0000007800726703
 33
0.0
 40
0.0
 40
0.0
 40
0.0
 40
0.0
 40
1.550096763720602
 40
3.10956004372087
 40
3.10956004372087
 40
3.10956004372087
 40
3.10956004372087
 10
17797.49869789817
 20
-745.3628483270684
 30
0.0
 10
17797.12927524539
 20
-745.0015940138485
 30
0.0
 10
17796.23649421391
 20
-744.4182665805758
 30
0.0
 10
17795.19003410124
 20
-744.2173340353429
 30
0.0
 10
17794.6702130079
 20
-744.2173344408411
 30
0.0
 11
17797.49869789817
 21
-745.3628483270684
 31
0.0
 11
17796.20099475478
 21
-744.5150473312499
 31
0.0
 11
17794.6702130079
 21
-744.2173344408411
 31
0.0
  0
SPLINE
  5
18D2A
330
1F
100
AcDbEntity
  8
0
  6
Continuous
 62
     7
100
AcDbSpline
210
0.0
220
0.0
230
1.0
 70
     8
 71
     3
 72
     9
 73
     5
 74
     3
 42
0.0000000001
 43
0.0000000001
 44
0.0000000001
 12
0.1117630804530836
 22
0.9937348810661916
 32
0.0
 13
0.1118011774178885
 23
0.9937305956485257
 33
0.0
 40
0.0
 40
0.0
 40
0.0
 40
0.0
 40
2.050402687190242
 40
2.663827241064813
 40
2.663827241064813
 40
2.663827241064813
 40
2.663827241064813
 10
17794.67020594674
 20
-744.2174651102135
 30
0.0
 10
17794.7465923869
 20
-743.5382795533826
 30
0.0
 10
17794.8458404593
 20
-742.6559012045802
 30
0.0
 10
17794.94510832029
 20
-741.7735250819252
 30
0.0
 10
17794.96796884942
 20
-741.5703321661562
 30
0.0
 11
17794.67020594674
 21
-744.2174651102135
 31
0.0
 11
17794.89939068159
 21
-742.1799112981759
 31
0.0
 11
17794.96796884942
 21
-741.5703321661562
 31
0.0
  0
SPLINE
  5
18D2B
330
1F
100
AcDbEntity
  8
0
  6
Continuous
 62
     7
100
AcDbSpline
210
0.0
220
0.0
230
1.0
 70
     8
 71
     3
 72
    11
 73
     7
 74
     5
 42
0.0000000001
 43
0.0000000001
 44
0.0000000001
 12
0.3041867743345254
 22
0.952612411382487
 32
0.0
 13
0.9963541065567257
 23
0.0853140923150976
 33
0.0
 40
0.0
 40
0.0
 40
0.0
 40
0.0
 40
4.110210425122874
 40
8.439014750636934
 40
12.91534797740703
 40
17.41716073525114
 40
17.41716073525114
 40
17.41716073525114
 40
17.41716073525114
 10
17760.37225322493
 20
-968.4381281454255
 30
0.0
 10
17760.78901044195
 20
-967.1329823239702
 30
0.0
 10
17762.13178766218
 20
-964.5927440587909
 30
0.0
 10
17765.25133720038
 20
-961.5409678118332
 30
0.0
 10
17769.20296772176
 20
-959.4102762605958
 30
0.0
 10
17772.16366009267
 20
-958.7357071031179
 30
0.0
 10
17773.65879330208
 20
-958.607684413382
 30
0.0
 11
17760.37225322493
 21
-968.4381281454255
 31
0.0
 11
17762.2620058654
 21
-964.7881055843113
 31
0.0
 11
17765.33364840139
 21
-961.737931979467
 31
0.0
 11
17769.26861974487
 21
-959.6040248392521
 31
0.0
 11
17773.65879330208
 21
-958.607684413382
 31
0.0
  0
SPLINE
  5
18D2C
330
1F
100
AcDbEntity
  8
0
  6
Continuous
 62
     7
100
AcDbSpline
210
0.0
220
0.0
230
1.0
 70
     8
 71
     3
 72
     8
 73
     4
 74
     2
 42
0.0000000001
 43
0.0000000001
 44
0.0000000001
 12
-0.4914740262835855
 22
0.8708922329936131
 32
0.0
 13
-0.4936834336429114
 23
0.869641689057364
 33
0.0
 40
0.0
 40
0.0
 40
0.0
 40
0.0
 40
0.3605249841773022
 40
0.3605249841773022
 40
0.3605249841773022
 40
0.3605249841773022
 10
17306.91985127632
 20
-577.3878378960946
 30
0.0
 10
17306.86078838781
 20
-577.2831784265879
 30
0.0
 10
17306.8015999757
 20
-577.1785896708829
 30
0.0
 10
17306.74227157167
 20
-577.0740804854872
 30
0.0
 11
17306.91985127632
 21
-577.3878378960946
 31
0.0
 11
17306.74227157167
 21
-577.0740804854872
 31
0.0
  0
SPLINE
  5
18D2D
330
1F
100
AcDbEntity
  8
0
  6
Continuous
 62
     7
100
AcDbSpline
210
0.0
220
0.0
230
1.0
 70
     8
 71
     3
 72
     8
 73
     4
 74
     2
 42
0.0000000001
 43
0.0000000001
 44
0.0000000001
 12
-0.4936834323682022
 22
0.8696416897809985
 32
0.0
 13
-0.4957822500452531
 23
0.8684468668491275
 33
0.0
 40
0.0
 40
0.0
 40
0.0
 40
0.0
 40
0.3368371479300311
 40
0.3368371479300311
 40
0.3368371479300311
 40
0.3368371479300311
 10
17306.74227157167
 20
-577.0740804854872
 30
0.0
 10
17306.68684126522
 20
-576.9764379433182
 30
0.0
 10
17306.63128869005
 20
-576.87886472421
 30
0.0
 10
17306.57562273035
 20
-576.781356335624
 30
0.0
 11
17306.74227157167
 21
-577.0740804854872
 31
0.0
 11
17306.57562273035
 21
-576.781356335624
 31
0.0
  0
SPLINE
  5
18D2E
330
1F
100
AcDbEntity
  8
0
  6
Continuous
 62
     7
100
AcDbSpline
210
0.0
220
0.0
230
1.0
 70
     8
 71
     3
 72
     8
 73
     4
 74
     2
 42
0.0000000001
 43
0.0000000001
 44
0.0000000001
 12
0.4374369824208952
 22
-0.8992490680620701
 32
0.0
 13
0.4253559459950138
 23
-0.9050261428305191
 33
0.0
 40
0.0
 40
0.0
 40
0.0
 40
0.0
 40
1.807301772240821
 40
1.807301772240821
 40
1.807301772240821
 40
1.807301772240821
 10
17316.04915244623
 20
-579.8472435645123
 30
0.0
 10
17316.31267932409
 20
-580.3889817093105
 30
0.0
 10
17316.57263589215
 20
-580.9324720587597
 30
0.0
 10
17316.82888474383
 20
-581.4776905093804
 30
0.0
 11
17316.04915244623
 21
-579.8472435645123
 31
0.0
 11
17316.82888474383
 21
-581.4776905093804
 31
0.0
  0
SPLINE
  5
18D2F
330
1F
100
AcDbEntity
  8
0
  6
Continuous
 62
     7
100
AcDbSpline
210
0.0
220
0.0
230
1.0
 70
     8
 71
     3
 72
    10
 73
     6
 74
     4
 42
0.0000000001
 43
0.0000000001
 44
0.0000000001
 12
0.4253559474620479
 22
-0.9050261421410231
 32
0.0
 13
0.2899231709856398
 23
-0.9570499229014293
 33
0.0
 40
0.0
 40
0.0
 40
0.0
 40
0.0
 40
4.135714925078453
 40
9.632134136793052
 40
16.79791336262869
 40
16.79791336262869
 40
16.79791336262869
 40
16.79791336262869
 10
17316.82888474383
 20
-581.4776905093804
 30
0.0
 10
17317.41526839062
 20
-582.7253338839266
 30
0.0
 10
17318.73592256168
 20
-585.6525686846736
 30
0.0
 10
17320.84023569273
 20
-590.8431585689217
 30
0.0
 10
17322.2075033569
 20
-594.8404524931977
 30
0.0
 10
17322.90001183548
 20
-597.1264553117359
 30
0.0
 11
17316.82888474383
 21
-581.4776905093804
 31
0.0
 11
17318.52833826258
 21
-585.2481010545459
 31
0.0
 11
17320.5898542648
 21
-590.3432728792745
 31
0.0
 11
17322.90001183548
 21
-597.1264553117359
 31
0.0
  0
SPLINE
  5
18D30
330
1F
100
AcDbEntity
  8
0
  6
Continuous
 62
     7
100
AcDbSpline
210
0.0
220
0.0
230
1.0
 70
     8
 71
     3
 72
     8
 73
     4
 74
     2
 42
0.0000000001
 43
0.0000000001
 44
0.0000000001
 12
-0.5117782407402567
 22
0.859117589335015
 32
0.0
 13
-0.5131488317911901
 23
0.8582996425674059
 33
0.0
 40
0.0
 40
0.0
 40
0.0
 40
0.0
 40
0.9761209516122908
 40
0.9761209516122908
 40
0.9761209516122908
 40
0.9761209516122908
 10
17306.57562273035
 20
-576.781356335624
 30
0.0
 10
17306.40910357589
 20
-576.5018221093411
 30
0.0
 10
17306.24236102808
 20
-576.2224208386499
 30
0.0
 10
17306.07539591941
 20
-575.9431527506928
 30
0.0
 11
17306.57562273035
 21
-576.781356335624
 31
0.0
 11
17306.07539591941
 21
-575.9431527506928
 31
0.0
  0
SPLINE
  5
18D31
330
1F
100
AcDbEntity
  8
0
  6
Continuous
 62
     7
100
AcDbSpline
210
0.0
220
0.0
230
1.0
 70
     8
 71
     3
 72
    10
 73
     6
 74
     4
 42
0.0000000001
 43
0.0000000001
 44
0.0000000001
 12
-0.5131488313506655
 22
0.858299642830781
 32
0.0
 13
-0.5168588665513482
 23
0.8560706232941623
 33
0.0
 40
0.0
 40
0.0
 40
0.0
 40
0.0
 40
1.084794484767177
 40
2.316228707306481
 40
2.721592920477698
 40
2.721592920477698
 40
2.721592920477698
 40
2.721592920477698
 10
17306.07539591941
 20
-575.9431527506928
 30
0.0
 10
17305.88984224537
 20
-575.6327931777527
 30
0.0
 10
17305.49306509983
 20
-574.9704712686621
 30
0.0
 10
17305.02538031108
 20
-574.1931170110994
 30
0.0
 10
17304.74352413658
 20
-573.7259597453114
 30
0.0
 10
17304.67368544066
 20
-573.6102862804346
 30
0.0
 11
17306.07539591941
 21
-575.9431527506928
 31
0.0
 11
17305.5179109927
 21
-575.0125671121404
 31
0.0
 11
17304.88309543773
 21
-573.9573707059618
 31
0.0
 11
17304.67368544066
 21
-573.6102862804346
 31
0.0
  0
SPLINE
  5
18D32
330
1F
100
AcDbEntity
  8
0
  6
Continuous
 62
     7
100
AcDbSpline
210
0.0
220
0.0
230
1.0
 70
     8
 71
     3
 72
    10
 73
     6
 74
     4
 42
0.0000000001
 43
0.0000000001
 44
0.0000000001
 12
0.560107691396888
 22
-0.8284198054356549
 32
0.0
 13
0.5548784884329328
 23
-0.8319314052699199
 33
0.0
 40
0.0
 40
0.0
 40
0.0
 40
0.0
 40
0.3826019834240188
 40
1.543548748979367
 40
3.484206610390944
 40
3.484206610390944
 40
3.484206610390944
 40
3.484206610390944
 10
17299.67372087881
 20
-586.6101941640493
 30
0.0
 10
17299.74515365003
 20
-586.7158458509384
 30
0.0
 10
17300.03319014458
 20
-587.1421813919567
 30
0.0
 10
17300.68201754904
 20
-588.1054465564801
 30
0.0
 10
17301.25718182023
 20
-588.9645595407629
 30
0.0
 10
17301.61612492046
 20
-589.5027242813603
 30
0.0
 11
17299.67372087881
 21
-586.6101941640493
 31
0.0
 11
17299.88790910273
 21
-586.9272236302683
 31
0.0
 11
17300.53648172093
 21
-587.8901104104141
 31
0.0
 11
17301.61612492046
 21
-589.5027242813603
 31
0.0
  0
SPLINE
  5
18D33
330
1F
100
AcDbEntity
  8
0
  6
Continuous
 62
     7
100
AcDbSpline
210
0.0
220
0.0
230
1.0
 70
     8
 71
     3
 72
    11
 73
     7
 74
     5
 42
0.0000000001
 43
0.0000000001
 44
0.0000000001
 12
0.5548662346889488
 22
-0.8319395780957343
 32
0.0
 13
0.3870610565747326
 23
-0.9220540865281449
 33
0.0
 40
0.0
 40
0.0
 40
0.0
 40
0.0
 40
2.535127096985215
 40
6.287673919414892
 40
11.64301967909133
 40
19.02921797717715
 40
19.02921797717715
 40
19.02921797717715
 40
19.02921797717715
 10
17301.61612492046
 20
-589.5027242813603
 30
0.0
 10
17302.08501039605
 20
-590.2057484705219
 30
0.0
 10
17303.23054304033
 20
-591.9610649783519
 30
0.0
 10
17305.26572160106
 20
-595.2665142721669
 30
0.0
 10
17307.95185961137
 20
-600.0658783426388
 30
0.0
 10
17309.77853267636
 20
-603.9072728849897
 30
0.0
 10
17310.73150258213
 20
-606.1774309932088
 30
0.0
 11
17301.61612492046
 21
-589.5027242813603
 31
0.0
 11
17303.00119252276
 21
-591.626037055056
 31
0.0
 11
17304.96708940399
 21
-594.8224189325701
 31
0.0
 11
17307.57725401491
 21
-599.4986106426677
 31
0.0
 11
17310.73150258213
 21
-606.1774309932088
 31
0.0
  0
SPLINE
  5
18D34
330
1F
100
AcDbEntity
  8
0
  6
Continuous
 62
     7
100
AcDbSpline
210
0.0
220
0.0
230
1.0
 70
     8
 71
     3
 72
    13
 73
     9
 74
     7
 42
0.0000000001
 43
0.0000000001
 44
0.0000000001
 12
0.3871264597008464
 22
-0.9220266287908874
 32
0.0
 13
0.0783878839630171
 23
-0.9969229356614285
 33
0.0
 40
0.0
 40
0.0
 40
0.0
 40
0.0
 40
12.57050350154143
 40
27.40236034272237
 40
43.89444536348724
 40
61.35738547651437
 40
79.23359713089862
 40
85.44406055917852
 40
85.44406055917852
 40
85.44406055917852
 40
85.44406055917852
 10
17310.73150258213
 20
-606.1774309932088
 30
0.0
 10
17312.3536274212
 20
-610.040877315119
 30
0.0
 10
17315.74329519926
 20
-618.5252017167438
 30
0.0
 10
17320.60184601484
 20
-632.3321384658584
 30
0.0
 10
17325.17692840978
 20
-647.9477498881997
 30
0.0
 10
17328.95736561235
 20
-664.8199776938326
 30
0.0
 10
17330.98059002356
 20
-678.5371831852278
 30
0.0
 10
17331.72232069868
 20
-686.532576976129
 30
0.0
 10
17331.88459572754
 20
-688.5963614537086
 30
0.0
 11
17310.73150258213
 21
-606.1774309932088
 31
0.0
 11
17315.38852751186
 21
-617.8534610157027
 31
0.0
 11
17320.29932162409
 21
-631.8487487420971
 31
0.0
 11
17324.91895490731
 21
-647.6806108139028
 31
0.0
 11
17328.71801890051
 21
-664.7252988476193
 31
0.0
 11
17331.31116470499
 21
-682.4124280083704
 31
0.0
 11
17331.88459572754
 21
-688.5963614537086
 31
0.0
  0
SPLINE
  5
18D35
330
1F
100
AcDbEntity
  8
0
  6
Continuous
 62
     7
100
AcDbSpline
210
0.0
220
0.0
230
1.0
 70
     8
 71
     3
 72
    11
 73
     7
 74
     5
 42
0.0000000001
 43
0.0000000001
 44
0.0000000001
 12
-0.4660130548531517
 22
-0.884777843702267
 32
0.0
 13
-0.4907839959412747
 23
-0.8712812802579399
 33
0.0
 40
0.0
 40
0.0
 40
0.0
 40
0.0
 40
2.72275867999059
 40
10.11463058812514
 40
14.4972341450626
 40
15.93559615526505
 40
15.93559615526505
 40
15.93559615526505
 40
15.93559615526505
 10
17293.38026536541
 20
-842.617810931787
 30
0.0
 10
17292.95731833538
 20
-843.4208231163882
 30
0.0
 10
17291.3784438919
 20
-846.3998390620805
 30
0.0
 10
17289.07552781916
 20
-850.6484166198234
 30
0.0
 10
17286.93725788785
 20
-854.4988423723307
 30
0.0
 10
17285.98698927641
 20
-856.1905414716157
 30
0.0
 10
17285.75168092476
 20
-856.6082807695236
 30
0.0
 11
17293.38026536541
 21
-842.617810931787
 31
0.0
 11
17292.10526498752
 21
-845.0235933130169
 31
0.0
 11
17288.58366739611
 21
-851.5226794572734
 31
0.0
 11
17286.4561090171
 21
-855.354220828725
 31
0.0
 11
17285.75168092476
 21
-856.6082807695236
 31
0.0
  0
SPLINE
  5
18D36
330
1F
100
AcDbEntity
  8
0
  6
Continuous
 62
     7
100
AcDbSpline
210
0.0
220
0.0
230
1.0
 70
     8
 71
     3
 72
     8
 73
     4
 74
     2
 42
0.0000000001
 43
0.0000000001
 44
0.0000000001
 12
-0.2282316873698079
 22
-0.9736068492365541
 32
0.0
 13
-0.3298717405797907
 23
-0.9440257595886139
 33
0.0
 40
0.0
 40
0.0
 40
0.0
 40
0.0
 40
1.361741265509119
 40
1.361741265509119
 40
1.361741265509119
 40
1.361741265509119
 10
17314.17831106394
 20
-579.342916079609
 30
0.0
 10
17314.07471356168
 20
-579.7848496206049
 30
0.0
 10
17313.94759950515
 20
-580.2219269025656
 30
0.0
 10
17313.79786618466
 20
-580.6504331800774
 30
0.0
 11
17314.17831106394
 21
-579.342916079609
 31
0.0
 11
17313.79786618466
 21
-580.6504331800774
 31
0.0
  0
SPLINE
  5
18D37
330
1F
100
AcDbEntity
  8
0
  6
Continuous
 62
     7
100
AcDbSpline
210
0.0
220
0.0
230
1.0
 70
     8
 71
     3
 72
    11
 73
     7
 74
     5
 42
0.0000000001
 43
0.0000000001
 44
0.0000000001
 12
-0.3298717372035234
 22
-0.9440257607683857
 32
0.0
 13
-0.9996675757383707
 23
-0.0257825137907232
 33
0.0
 40
0.0
 40
0.0
 40
0.0
 40
0.0
 40
3.969005853821385
 40
7.96274541889966
 40
11.96232384865496
 40
15.94670334172247
 40
15.94670334172247
 40
15.94670334172247
 40
15.94670334172247
 10
17313.79786618466
 20
-580.6504331800774
 30
0.0
 10
17313.36144523267
 20
-581.8993811036267
 30
0.0
 10
17312.08793204464
 20
-584.2836378043044
 30
0.0
 10
17309.2050167743
 20
-587.1218504248856
 30
0.0
 10
17305.6103656977
 20
-588.9889748929626
 30
0.0
 10
17302.94380914199
 20
-589.4684819178165
 30
0.0
 10
17301.61612414576
 20
-589.5027243575589
 30
0.0
 11
17313.79786618466
 21
-580.6504331800774
 31
0.0
 11
17311.93151245525
 21
-584.1532507922829
 31
0.0
 11
17309.08847034395
 21
-586.9580800682001
 31
0.0
 11
17305.53792793043
 21
-588.7993503323364
 31
0.0
 11
17301.61612414576
 21
-589.5027243575589
 31
0.0
  0
SPLINE
  5
18D38
330
1F
100
AcDbEntity
  8
0
  6
Continuous
 62
     7
100
AcDbSpline
210
0.0
220
0.0
230
1.0
 70
     8
 71
     3
 72
     9
 73
     5
 74
     3
 42
0.0000000001
 43
0.0000000001
 44
0.0000000001
 12
-0.0264713213011518
 22
-0.9996495731748058
 32
0.0
 13
-0.1300262135092438
 23
-0.9915105565753947
 33
0.0
 40
0.0
 40
0.0
 40
0.0
 40
0.0
 40
0.2521144676802309
 40
0.5045916063587939
 40
0.5045916063587939
 40
0.5045916063587939
 40
0.5045916063587939
 10
17306.57569216076
 20
-576.781356335624
 30
0.0
 10
17306.57346755973
 20
-576.8653650422931
 30
0.0
 10
17306.56462960063
 20
-577.0334155040489
 30
0.0
 10
17306.54707381992
 20
-577.2007793069071
 30
0.0
 10
17306.53613093781
 20
-577.2842238896717
 30
0.0
 11
17306.57569216076
 21
-576.781356335624
 31
0.0
 11
17306.56245962925
 21
-577.0331233011366
 31
0.0
 11
17306.53613093781
 21
-577.2842238896717
 31
0.0
  0
SPLINE
  5
18D39
330
1F
100
AcDbEntity
  8
0
  6
Continuous
 62
     7
100
AcDbSpline
210
0.0
220
0.0
230
1.0
 70
     8
 71
     3
 72
    11
 73
     7
 74
     5
 42
0.0000000001
 43
0.0000000001
 44
0.0000000001
 12
-0.3270894175539488
 22
-0.9449933930585011
 32
0.0
 13
-0.9947420540138145
 23
-0.1024121378371616
 33
0.0
 40
0.0
 40
0.0
 40
0.0
 40
0.0
 40
3.777459632972078
 40
7.747187807159209
 40
11.83315769190388
 40
15.92147647848589
 40
15.92147647848589
 40
15.92147647848589
 40
15.92147647848589
 10
17322.90075709161
 20
-597.1281509021191
 30
0.0
 10
17322.48890140121
 20
-598.3180423673537
 30
0.0
 10
17321.22067267822
 20
-600.6253352892622
 30
0.0
 10
17318.35935086754
 20
-603.4118194906502
 30
0.0
 10
17314.77138751052
 20
-605.3834188841777
 30
0.0
 10
17312.0870151673
 20
-606.037969348049
 30
0.0
 10
17310.73140762489
 20
-606.1775338370803
 30
0.0
 11
17322.90075709161
 21
-597.1281509021191
 31
0.0
 11
17321.10829180691
 21
-600.4532478152753
 31
0.0
 11
17318.28251582014
 21
-603.2413891046521
 31
0.0
 11
17314.70480277468
 21
-605.2149947550715
 31
0.0
 11
17310.73140762489
 21
-606.1775338370803
 31
0.0
  0
SPLINE
  5
18D3A
330
1F
100
AcDbEntity
  8
0
  6
Continuous
 62
     7
100
AcDbSpline
210
0.0
220
0.0
230
1.0
 70
     8
 71
     3
 72
    12
 73
     8
 74
     6
 42
0.0000000001
 43
0.0000000001
 44
0.0000000001
 12
0.5751465828493233
 22
0.8180503702320208
 32
0.0
 13
-0.6267549039747972
 23
0.7792164592355215
 33
0.0
 40
0.0
 40
0.0
 40
0.0
 40
0.0
 40
0.2610017898808372
 40
1.084646650734896
 40
2.627873471894493
 40
5.455608765320551
 40
9.737577392799824
 40
9.737577392799824
 40
9.737577392799824
 40
9.737577392799824
 10
17763.24071453632
 20
-977.2228106281296
 30
0.0
 10
17763.29075263217
 20
-977.1516397578485
 30
0.0
 10
17763.48157327222
 20
-976.8437435303939
 30
0.0
 10
17763.77451435279
 20
-976.0018265302301
 30
0.0
 10
17763.69917811478
 20
-974.2303630833276
 30
0.0
 10
17762.61800593947
 20
-971.5148613886707
 30
0.0
 10
17761.2660765126
 20
-969.5491443285582
 30
0.0
 10
17760.37149490062
 20
-968.4369508510709
 30
0.0
 11
17763.24071453632
 21
-977.2228106281296
 31
0.0
 11
17763.37854003019
 21
-977.001166617245
 31
0.0
 11
17763.65819173088
 21
-976.2264500348031
 31
0.0
 11
17763.65762984877
 21
-974.6832233159329
 31
0.0
 11
17762.72637728713
 21
-972.0132316387688
 31
0.0
 11
17760.37149490062
 21
-968.4369508510709
 31
0.0
  0
SPLINE
  5
18D3B
330
1F
100
AcDbEntity
  8
0
  6
Continuous
 62
     7
100
AcDbSpline
210
0.0
220
0.0
230
1.0
 70
     8
 71
     3
 72
    14
 73
    10
 74
     8
 42
0.0000000001
 43
0.0000000001
 44
0.0000000001
 12
0.3387127897136426
 22
-0.9408898161232279
 32
0.0
 13
0.058206377078684
 23
-0.9983045715949486
 33
0.0
 40
0.0
 40
0.0
 40
0.0
 40
0.0
 40
11.92424659621829
 40
25.87985081694313
 40
41.44009627579184
 40
58.08657781809469
 40
75.32380372313544
 40
92.81355192028255
 40
93.91138961956922
 40
93.91138961956922
 40
93.91138961956922
 40
93.91138961956922
 10
17322.90015440468
 20
-597.1265792628587
 30
0.0
 10
17324.24645268129
 20
-600.8663799919666
 30
0.0
 10
17327.05683672849
 20
-609.0237755768839
 30
0.0
 10
17331.13190803122
 20
-622.2255049809791
 30
0.0
 10
17335.07166226341
 20
-637.1053381263668
 30
0.0
 10
17338.51438852864
 20
-653.2309111383044
 30
0.0
 10
17341.15677702332
 20
-670.1596755594717
 30
0.0
 10
17342.27986065867
 20
-682.0576086086082
 30
0.0
 10
17342.65288079096
 20
-688.2422006449989
 30
0.0
 10
17342.67418117599
 20
-688.607526109688
 30
0.0
 11
17322.90015440468
 21
-597.1265792628587
 31
0.0
 11
17326.77989055029
 21
-608.4020084931753
 31
0.0
 11
17330.88839428951
 21
-621.739140350899
 31
0.0
 11
17334.86080228797
 21
-636.783781038978
 31
0.0
 11
17338.32446306777
 21
-653.0659308276474
 31
0.0
 11
17340.97193756321
 21
-670.0986298415273
 31
0.0
 11
17342.60808596757
 21
-687.5116798442846
 31
0.0
 11
17342.67418117599
 21
-688.607526109688
 31
0.0
  0
SPLINE
  5
18D3C
330
1F
100
AcDbEntity
  8
0
  6
Continuous
 62
     7
100
AcDbSpline
210
0.0
220
0.0
230
1.0
 70
     8
 71
     3
 72
    12
 73
     8
 74
     6
 42
0.0000000001
 43
0.0000000001
 44
0.0000000001
 12
-0.3983856104175143
 22
-0.9172180250149168
 32
0.0
 13
-0.4400021288826033
 23
-0.8979967297149677
 33
0.0
 40
0.0
 40
0.0
 40
0.0
 40
0.0
 40
8.591898225577351
 40
17.50704079130013
 40
23.80137483882905
 40
27.53300616074763
 40
28.75849379288522
 40
28.75849379288522
 40
28.75849379288522
 40
28.75849379288522
 10
17310.80129850622
 20
-842.6172423568159
 30
0.0
 10
17309.66033563314
 20
-845.2441236640137
 30
0.0
 10
17307.2945321054
 20
-850.5790156942808
 30
0.0
 10
17303.97257865425
 20
-857.7841464044151
 30
0.0
 10
17301.26183358032
 20
-863.486417148969
 30
0.0
 10
17299.62624387899
 20
-866.8614901224046
 30
0.0
 10
17298.90045275723
 20
-868.3459313498566
 30
0.0
 10
17298.72071370154
 20
-868.7127593118452
 30
0.0
 11
17310.80129850622
 21
-842.6172423568159
 31
0.0
 11
17307.31951105597
 21
-850.472041607591
 31
0.0
 11
17303.58827010662
 21
-858.5688068842326
 31
0.0
 11
17300.88617261247
 21
-864.253638476639
 31
0.0
 11
17299.25899242737
 21
-867.6118161026616
 31
0.0
 11
17298.72071370154
 21
-868.7127593118452
 31
0.0
  0
SPLINE
  5
18D3D
330
1F
100
AcDbEntity
  8
0
  6
Continuous
 62
     7
100
AcDbSpline
210
0.0
220
0.0
230
1.0
 70
     8
 71
     3
 72
    13
 73
     9
 74
     7
 42
0.0000000001
 43
0.0000000001
 44
0.0000000001
 12
0.8299099455505462
 22
0.5578973761152582
 32
0.0
 13
-0.3351632119530134
 23
0.9421600826575808
 33
0.0
 40
0.0
 40
0.0
 40
0.0
 40
0.0
 40
0.516660534018431
 40
2.074815548008857
 40
4.566784262096056
 40
8.057781026689259
 40
12.86804198092272
 40
18.80843950552768
 40
18.80843950552768
 40
18.80843950552768
 40
18.80843950552768
 10
17769.76916746985
 20
-975.6074374604359
 30
0.0
 10
17769.91209470839
 20
-975.5113562750123
 30
0.0
 10
17770.47796753622
 20
-975.1134441764948
 30
0.0
 10
17771.64690673588
 20
-974.1314435576901
 30
0.0
 10
17773.26784183952
 20
-972.1816807691926
 30
0.0
 10
17774.75215834718
 20
-968.8390713344002
 30
0.0
 10
17775.14630208195
 20
-964.0172309006585
 30
0.0
 10
17774.32237598742
 20
-960.4734185159443
 30
0.0
 10
17773.65870841588
 20
-958.6078167083442
 30
0.0
 11
17769.76916746985
 21
-975.6074374604359
 31
0.0
 11
17770.19175915947
 21
-975.3101928284085
 31
0.0
 11
17771.38329362069
 21
-974.3061546441921
 31
0.0
 11
17772.97274457027
 21
-972.3868959980338
 31
0.0
 11
17774.40946227473
 21
-969.2052453811237
 31
0.0
 11
17774.89050819571
 21
-964.4190981550419
 31
0.0
 11
17773.65870841588
 21
-958.6078167083442
 31
0.0
  0
SPLINE
  5
18D3E
330
1F
100
AcDbEntity
  8
0
  6
Continuous
 62
     7
100
AcDbSpline
210
0.0
220
0.0
230
1.0
 70
     8
 71
     3
 72
    22
 73
    18
 74
    16
 42
0.0000000001
 43
0.0000000001
 44
0.0000000001
 12
-0.3352573460789338
 22
0.9421265901672184
 32
0.0
 13
0.4543636752933868
 23
0.8908162832895939
 33
0.0
 40
0.0
 40
0.0
 40
0.0
 40
0.0
 40
11.75725198589286
 40
25.66520224401737
 40
41.1334710887128
 40
57.64586497549091
 40
74.85668910249533
 40
92.5361742871547
 40
110.5235429834948
 40
128.7164040714594
 40
146.9983461887916
 40
164.7806393873372
 40
181.3186542146899
 40
195.8661272796819
 40
207.7351758377929
 40
216.5729409995401
 40
222.330431534465
 40
222.330431534465
 40
222.330431534465
 40
222.330431534465
 10
17773.65870841588
 20
-958.6078167083442
 30
0.0
 10
17772.34480671656
 20
-954.9155434672755
 30
0.0
 10
17769.62846020738
 20
-946.8005780857779
 30
0.0
 10
17765.85749716537
 20
-933.6122983566822
 30
0.0
 10
17762.47548240569
 20
-918.6848305045129
 30
0.0
 10
17759.90984256737
 20
-902.475919836443
 30
0.0
 10
17758.48780146496
 20
-885.3836778389169
 30
0.0
 10
17758.42123874296
 20
-867.7387370360225
 30
0.0
 10
17759.80511812009
 20
-849.8194922974352
 30
0.0
 10
17762.62509538005
 20
-831.8678203134027
 30
0.0
 10
17766.73973333818
 20
-814.2411502826613
 30
0.0
 10
17771.83539827105
 20
-797.4526173691397
 30
0.0
 10
17777.4179989202
 20
-782.1427599206296
 30
0.0
 10
17782.90964563076
 20
-768.9157737265656
 30
0.0
 10
17787.77386044766
 20
-758.2166174623572
 30
0.0
 10
17791.61341284594
 20
-750.2740129974966
 30
0.0
 10
17793.79821108748
 20
-745.9269551884158
 30
0.0
 10
17794.67020927412
 20
-744.2173330819501
 30
0.0
 11
17773.65870841588
 21
-958.6078167083442
 31
0.0
 11
17769.93235891307
 21
-947.4567049412302
 31
0.0
 11
17766.11890468995
 21
-934.0817788752426
 31
0.0
 11
17762.71362170074
 21
-918.9929953319877
 31
0.0
 11
17760.14428851965
 21
-902.6817207381171
 31
0.0
 11
17758.72494826712
 21
-885.5295214511967
 31
0.0
 11
17758.65782677902
 21
-867.8501636828718
 31
0.0
 11
17760.0331014553
 21
-849.9154472874881
 31
0.0
 11
17762.83878398736
 21
-831.9402326825029
 31
0.0
 11
17766.97257519046
 21
-814.1317746394657
 31
0.0
 11
17772.11594672962
 21
-797.1095632493665
 31
0.0
 11
17777.76513513563
 21
-781.5663137569599
 31
0.0
 11
17783.33320827664
 21
-768.1266138320007
 31
0.0
 11
17788.24046717845
 21
-757.3195270947977
 31
0.0
 11
17792.08497245295
 21
-749.36177161674
 31
0.0
 11
17794.67020927412
 21
-744.2173330819501
 31
0.0
  0
SPLINE
  5
18D3F
330
1F
100
AcDbEntity
  8
0
  6
Continuous
 62
     7
100
AcDbSpline
210
0.0
220
0.0
230
1.0
 70
     8
 71
     3
 72
    26
 73
    22
 74
    20
 42
0.0000000001
 43
0.0000000001
 44
0.0000000001
 12
-0.2842459286566703
 22
0.9587514026284955
 32
0.0
 13
0.4025497884090439
 23
0.9153980925541818
 33
0.0
 40
0.0
 40
0.0
 40
0.0
 40
0.0
 40
10.88244469482509
 40
23.60546434368833
 40
37.78096481976546
 40
53.02834207159315
 40
69.04098781571102
 40
85.59923809356623
 40
102.5359593039163
 40
119.7167926598821
 40
137.0505529732647
 40
154.4436500613533
 40
171.5857633817578
 40
187.9611592078405
 40
203.0465343436871
 40
216.3286462660447
 40
227.3533350646494
 40
235.9204244282464
 40
241.998599717908
 40
245.6123065994623
 40
246.8006144264002
 40
246.8006144264002
 40
246.8006144264002
 40
246.8006144264002
 10
17760.37201417453
 20
-968.4362651321283
 30
0.0
 10
17759.34091730842
 20
-964.9584120937314
 30
0.0
 10
17757.20826917146
 20
-957.3831998122072
 30
0.0
 10
17754.18350216607
 20
-945.1555209157659
 30
0.0
 10
17751.3429552702
 20
-931.3927299968735
 30
0.0
 10
17748.95815466926
 20
-916.4304642143557
 30
0.0
 10
17747.25657675752
 20
-900.5744377888914
 30
0.0
 10
17746.4075805991
 20
-884.0847417615972
 30
0.0
 10
17746.52211981316
 20
-867.1833791516354
 30
0.0
 10
17747.65117208618
 20
-850.0602220209355
 30
0.0
 10
17749.78903690188
 20
-832.8808365962627
 30
0.0
 10
17752.87028270136
 20
-815.8595639241653
 30
0.0
 10
17756.74257420235
 20
-799.3302200789764
 30
0.0
 10
17761.14913086884
 20
-783.7350844722197
 30
0.0
 10
17765.7547906944
 20
-769.5465269471119
 30
0.0
 10
17770.20041593748
 20
-757.1894441942776
 30
0.0
 10
17774.16300424057
 20
-746.9721469555329
 30
0.0
 10
17777.40354361005
 20
-739.0524883810956
 30
0.0
 10
17779.78062258725
 20
-733.4494380005296
 30
0.0
 10
17781.22461647246
 20
-730.1225460217822
 30
0.0
 10
17781.86759334288
 20
-728.6566904514828
 30
0.0
 10
17782.02704436431
 20
-728.2940988787674
 30
0.0
 11
17760.37201417453
 21
-968.4362651321283
 31
0.0
 11
17757.42615589054
 21
-957.9601245495211
 31
0.0
 11
17754.37599253451
 21
-945.6081314922496
 31
0.0
 11
17751.51702855875
 21
-931.7239268433482
 31
0.0
 11
17749.12403266279
 21
-916.665504492335
 31
0.0
 11
17747.42111945995
 21
-900.743666961754
 31
0.0
 11
17746.5729450487
 21
-884.2071542570698
 31
0.0
 11
17746.68706537316
 21
-867.2708175248049
 31
0.0
 11
17747.81237899845
 21
-850.1268767861594
 31
0.0
 11
17749.9442209682
 21
-832.9247113289323
 31
0.0
 11
17753.03109632236
 21
-815.8077306704287
 31
0.0
 11
17756.92892539473
 21
-799.1146489413952
 31
0.0
 11
17761.37068634197
 21
-783.3531658846375
 31
0.0
 11
17766.01998664033
 21
-769.0021188940914
 31
0.0
 11
17770.51094439732
 21
-756.5022870735049
 31
0.0
 11
17774.49459989331
 21
-746.2224888266855
 31
0.0
 11
17777.73752760135
 21
-738.2928961483478
 31
0.0
 11
17780.11111120227
 21
-732.6973340013182
 31
0.0
 11
17781.54971776434
 21
-729.3823244107787
 31
0.0
 11
17782.02704436431
 21
-728.2940988787674
 31
0.0
  0
LINE
  5
18D48
330
1F
100
AcDbEntity
  8
7A
100
AcDbLine
 10
17694.67092166337
 20
-1072.195725096276
 30
0.0
 11
17694.67092166337
 21
-953.5100492164847
 31
0.0
  0
MTEXT
  5
18EE3
330
1F
100
AcDbEntity
  8
Beschriftung
100
AcDbMText
 10
17394.89861243869
 20
-1243.519795957841
 30
0.0
 40
30.0
 41
1190.293354815057
 71
     1
 72
     5
  1
Ablauf DN 100\P/ %%C OD 110
 73
     1
 44
1.0
1001
ACAD
1000
ACAD_MTEXT_DEFINED_HEIGHT_BEGIN
1070
    46
1040
0.0
1000
ACAD_MTEXT_DEFINED_HEIGHT_END
1000
MTEXTBEGIN
1070
    73
1070
     1
1070
    44
1040
1.0
1070
    74
1070
     0
1000
MTEXTEND
  0
ENDSEC
  0
SECTION
  2
OBJECTS
  0
DICTIONARY
  5
C
330
0
100
AcDbDictionary
281
     1
  3
ACAD_COLOR
350
BE
  3
ACAD_GROUP
350
D
  3
ACAD_LAYOUT
350
1A
  3
ACAD_MATERIAL
350
BD
  3
ACAD_MLINESTYLE
350
17
  3
ACAD_PLOTSETTINGS
350
19
  3
ACAD_PLOTSTYLENAME
350
E
  3
ACAD_TABLESTYLE
350
11A
  3
ACDBHEADERROUNDTRIPXREC
350
18F54
  3
AcDbVariableDictionary
350
94
  3
AcmDictionary
350
5B
  3
AMG
350
41
  3
AMGSNAPSETTINGS
350
26B
  3
DWGPROPS
350
18F53
  0
DICTIONARY
  5
5E1
330
2
100
AcDbDictionary
280
     1
281
     1
  3
ACAD_LAYERFILTERS
360
10B7F
  3
ACAD_LAYERSTATES
360
5E2
  3
ACLYDICTIONARY
360
10B7E
  0
DICTIONARY
  5
8F
330
1F
100
AcDbDictionary
280
     1
281
     1
  3
ACAD_SORTENTS
360
9429
  0
DICTIONARY
  5
10117
330
87
100
AcDbDictionary
280
     1
281
     1
  0
DICTIONARY
  5
BE
102
{ACAD_REACTORS
330
C
102
}
330
C
100
AcDbDictionary
281
     1
  0
DICTIONARY
  5
D
102
{ACAD_REACTORS
330
C
102
}
330
C
100
AcDbDictionary
281
     1
  0
DICTIONARY
  5
1A
102
{ACAD_REACTORS
330
C
102
}
330
C
100
AcDbDictionary
281
     1
  3
Layout1
350
1E
  3
Layout2
350
26
  3
Model
350
22
  0
DICTIONARY
  5
BD
102
{ACAD_REACTORS
330
C
102
}
330
C
100
AcDbDictionary
281
     1
  0
DICTIONARY
  5
17
102
{ACAD_REACTORS
330
C
102
}
330
C
100
AcDbDictionary
281
     1
  3
Standard
350
18
  0
DICTIONARY
  5
19
102
{ACAD_REACTORS
330
C
102
}
330
C
100
AcDbDictionary
281
     1
  0
ACDBDICTIONARYWDFLT
  5
E
102
{ACAD_REACTORS
330
C
102
}
330
C
100
AcDbDictionary
281
     1
  3
Normal
350
F
100
AcDbDictionaryWithDefault
340
F
  0
DICTIONARY
  5
11A
102
{ACAD_REACTORS
330
C
102
}
330
C
100
AcDbDictionary
281
     1
  3
Standard
350
11B
  0
DICTIONARY
  5
18F54
102
{ACAD_REACTORS
330
C
102
}
330
C
100
AcDbDictionary
281
     1
  0
DICTIONARY
  5
94
102
{ACAD_REACTORS
330
C
102
}
330
C
100
AcDbDictionary
281
     1
  3
CTABLESTYLE
350
138
  3
DIMASSOC
350
96
  3
INDEXCTL
350
95
  3
PROJECTNAME
350
B168
  0
DICTIONARY
  5
5B
102
{ACAD_REACTORS
330
C
102
}
330
C
100
AcDbDictionary
281
     1
  3
AcmBOM
350
272
  3
AcmStdDictionary
350
61
  3
AMDTSECTSYM_ARROWCOLOR
350
123
  0
DICTIONARY
  5
41
102
{ACAD_REACTORS
330
C
102
}
330
C
100
AcDbDictionary
281
     1
  0
DICTIONARY
  5
26B
102
{ACAD_REACTORS
330
C
102
}
330
C
100
AcDbDictionary
281
     1
  0
XRECORD
  5
18F53
102
{ACAD_REACTORS
330
C
102
}
330
C
100
AcDbXrecord
280
     1
  1
DWGPROPS COOKIE
  2

  3

  4

  6

  7

  8

  9

300
AmdtFileType=84
301
=
302
=
303
=
304
=
305
=
306
=
307
=
308
=
309
=
 40
0.8055838541666666
 41
2454167.418644826
 42
2454666.431840637
  1

 90
        1
  0
DICTIONARY
  5
10B7F
102
{ACAD_REACTORS
330
5E1
102
}
330
5E1
100
AcDbDictionary
281
     1
  0
DICTIONARY
  5
5E2
102
{ACAD_REACTORS
330
5E1
102
}
330
5E1
100
AcDbDictionary
281
     1
  0
DICTIONARY
  5
10B7E
102
{ACAD_REACTORS
330
5E1
102
}
330
5E1
100
AcDbDictionary
281
     1
1001
ACAD
1000
<All
  0
SORTENTSTABLE
  5
9429
102
{ACAD_REACTORS
330
8F
102
}
330
8F
100
AcDbSortentsTable
330
1F
  0
LAYOUT
  5
1E
102
{ACAD_XDICTIONARY
360
18F55
102
}
102
{ACAD_REACTORS
330
1A
102
}
330
1A
100
AcDbPlotSettings
  1

  2

  4

  6

 40
0.0
 41
0.0
 42
0.0
 43
0.0
 44
0.0
 45
0.0
 46
0.0
 47
0.0
 48
0.0
 49
0.0
140
0.0
141
0.0
142
1.0
143
1.0
 70
   688
 72
     0
 73
     0
 74
     5
  7
monochrome uw.ctb
 75
    16
147
1.0
148
0.0
149
0.0
100
AcDbLayout
  1
Layout1
 70
     1
 71
     1
 10
0.0
 20
0.0
 11
420.0
 21
297.0
 12
0.0
 22
0.0
 32
0.0
 14
1.000000000000000E+20
 24
1.000000000000000E+20
 34
1.000000000000000E+20
 15
-1.000000000000000E+20
 25
-1.000000000000000E+20
 35
-1.000000000000000E+20
146
0.0
 13
0.0
 23
0.0
 33
0.0
 16
1.0
 26
0.0
 36
0.0
 17
0.0
 27
1.0
 37
0.0
 76
     0
330
1B
  0
LAYOUT
  5
26
102
{ACAD_XDICTIONARY
360
18F59
102
}
102
{ACAD_REACTORS
330
1A
102
}
330
1A
100
AcDbPlotSettings
  1

  2

  4

  6

 40
0.0
 41
0.0
 42
0.0
 43
0.0
 44
0.0
 45
0.0
 46
0.0
 47
0.0
 48
0.0
 49
0.0
140
0.0
141
0.0
142
1.0
143
1.0
 70
   688
 72
     0
 73
     0
 74
     5
  7
monochrome uw.ctb
 75
    16
147
1.0
148
0.0
149
0.0
100
AcDbLayout
  1
Layout2
 70
     1
 71
     2
 10
0.0
 20
0.0
 11
12.0
 21
9.0
 12
0.0
 22
0.0
 32
0.0
 14
0.0
 24
0.0
 34
0.0
 15
0.0
 25
0.0
 35
0.0
146
0.0
 13
0.0
 23
0.0
 33
0.0
 16
1.0
 26
0.0
 36
0.0
 17
0.0
 27
1.0
 37
0.0
 76
     0
330
23
  0
LAYOUT
  5
22
102
{ACAD_XDICTIONARY
360
18F57
102
}
102
{ACAD_REACTORS
330
1A
102
}
330
1A
100
AcDbPlotSettings
  1

  2
Adobe PDF
  4
A4
  6

 40
3.174999952316284
 41
3.174999952316284
 42
3.175003051757812
 43
3.17498779296875
 44
209.9733276367187
 45
297.0318298339844
 46
-0.0000000000000142
 47
78.97617299601188
 48
10891.18827994032
 49
2118.525542180123
140
12323.87549195795
141
3052.406039703264
142
1.0
143
7.035968077833545
 70
 11956
 72
     1
 73
     0
 74
     4
  7
monochrome uw.ctb
 75
     0
147
0.1421268528989562
148
-10891.18827994032
149
-2118.525542180123
100
AcDbLayout
  1
Model
 70
     1
 71
     0
 10
0.0
 20
0.0
 11
12.0
 21
9.0
 12
0.0
 22
0.0
 32
0.0
 14
0.0
 24
0.0
 34
0.0
 15
0.0
 25
0.0
 35
0.0
146
0.0
 13
0.0
 23
0.0
 33
0.0
 16
1.0
 26
0.0
 36
0.0
 17
0.0
 27
1.0
 37
0.0
 76
     0
330
1F
1001
ACAD_PSEXT
1000
Adobe PDF
1000
Adobe PDF Converter
1000
Eigene Dateien
1000

1070
     0
  0
MLINESTYLE
  5
18
102
{ACAD_REACTORS
330
17
102
}
330
17
100
AcDbMlineStyle
  2
STANDARD
 70
     0
  3

 62
   256
 51
90.0
 52
90.0
 71
     2
 49
0.5
 62
   256
  6
BYLAYER
 49
-0.5
 62
   256
  6
BYLAYER
  0
ACDBPLACEHOLDER
  5
F
102
{ACAD_REACTORS
330
E
102
}
330
E
  0
TABLESTYLE
  5
11B
102
{ACAD_REACTORS
330
11A
102
}
330
11A
100
AcDbTableStyle
  3
Standard
 70
     0
 71
     0
 40
1.5
 41
1.5
280
     0
281
     0
  7
STANDARD
140
4.5
170
     2
 62
     0
 63
     7
283
     0
274
    -2
284
     1
 64
     0
275
    -2
285
     1
 65
     0
276
    -2
286
     1
 66
     0
277
    -2
287
     1
 67
     0
278
    -2
288
     1
 68
     0
279
    -2
289
     1
 69
     0
  7
STANDARD
140
6.0
170
     5
 62
     0
 63
     7
283
     0
274
    -2
284
     1
 64
     0
275
    -2
285
     1
 65
     0
276
    -2
286
     1
 66
     0
277
    -2
287
     1
 67
     0
278
    -2
288
     1
 68
     0
279
    -2
289
     1
 69
     0
  7
STANDARD
140
4.5
170
     5
 62
     0
 63
     7
283
     0
274
    -2
284
     1
 64
     0
275
    -2
285
     1
 65
     0
276
    -2
286
     1
 66
     0
277
    -2
287
     1
 67
     0
278
    -2
288
     1
 68
     0
279
    -2
289
     1
 69
     0
  0
DICTIONARYVAR
  5
138
102
{ACAD_REACTORS
330
94
102
}
330
94
100
DictionaryVariables
280
     0
  1
STANDARD
  0
DICTIONARYVAR
  5
96
102
{ACAD_REACTORS
330
94
102
}
330
94
100
DictionaryVariables
280
     0
  1
2
  0
DICTIONARYVAR
  5
95
102
{ACAD_REACTORS
330
94
102
}
330
94
100
DictionaryVariables
280
     0
  1
0
  0
DICTIONARYVAR
  5
B168
102
{ACAD_REACTORS
330
94
102
}
330
94
100
DictionaryVariables
280
     0
  1

  0
DICTIONARY
  5
272
102
{ACAD_REACTORS
330
5B
102
}
330
5B
100
AcDbDictionary
281
     1
  0
DICTIONARY
  5
61
102
{ACAD_REACTORS
330
5B
102
}
330
5B
100
AcDbDictionary
281
     1
  0
XRECORD
  5
123
102
{ACAD_REACTORS
330
5B
102
}
330
5B
100
AcDbXrecord
280
     1
 90
-1023410169
  0
DICTIONARY
  5
18F55
330
1E
100
AcDbDictionary
280
     1
281
     1
  3
ACAD_XREC_ROUNDTRIP
360
18F56
  0
DICTIONARY
  5
18F59
330
26
100
AcDbDictionary
280
     1
281
     1
  3
ACAD_XREC_ROUNDTRIP
360
18F5A
  0
DICTIONARY
  5
18F57
330
22
100
AcDbDictionary
280
     1
281
     1
  3
ACAD_XREC_ROUNDTRIP
360
18F58
  0
XRECORD
  5
18F56
102
{ACAD_REACTORS
330
18F55
102
}
330
18F55
100
AcDbXrecord
280
     1
102
SHADEPLOT
 70
     0
102
SHADEPLOTRESLEVEL
 70
     2
102
SHADEPLOTCUSTOMDPI
 70
   300
  0
XRECORD
  5
18F5A
102
{ACAD_REACTORS
330
18F59
102
}
330
18F59
100
AcDbXrecord
280
     1
102
SHADEPLOT
 70
     0
102
SHADEPLOTRESLEVEL
 70
     2
102
SHADEPLOTCUSTOMDPI
 70
   300
  0
XRECORD
  5
18F58
102
{ACAD_REACTORS
330
18F57
102
}
330
18F57
100
AcDbXrecord
280
     1
102
SHADEPLOT
 70
     0
102
SHADEPLOTRESLEVEL
 70
     2
102
SHADEPLOTCUSTOMDPI
 70
   300
  0
ENDSEC
  0
EOF
