  0
SECTION
  2
HEADER
  9
$ACADVER
  1
AC1015
  9
$ACADMAINTVER
 70
    20
  9
$DWGCODEPAGE
  3
ANSI_1252
  9
$INSBASE
 10
0.0
 20
0.0
 30
0.0
  9
$EXTMIN
 10
1119.543712793423
 20
965.3558116510192
 30
0.0
  9
$EXTMAX
 10
2091.324711189626
 20
2306.837301584676
 30
0.0
  9
$LIMMIN
 10
0.0
 20
0.0
  9
$LIMMAX
 10
420.0
 20
297.0
  9
$ORTHOMODE
 70
     0
  9
$REGENMODE
 70
     1
  9
$FILLMODE
 70
     1
  9
$QTEXTMODE
 70
     0
  9
$MIRRTEXT
 70
     1
  9
$LTSCALE
 40
1.0
  9
$ATTMODE
 70
     1
  9
$TEXTSIZE
 40
2.5
  9
$TRACEWID
 40
1.0
  9
$TEXTSTYLE
  7
STANDARD
  9
$CLAYER
  8
0
  9
$CELTYPE
  6
ByLayer
  9
$CECOLOR
 62
   256
  9
$CELTSCALE
 40
1.0
  9
$DISPSILH
 70
     0
  9
$DIMSCALE
 40
1.0
  9
$DIMASZ
 40
2.5
  9
$DIMEXO
 40
1.0
  9
$DIMDLI
 40
10.0
  9
$DIMRND
 40
0.0
  9
$DIMDLE
 40
0.0
  9
$DIMEXE
 40
1.0
  9
$DIMTP
 40
0.1
  9
$DIMTM
 40
0.1
  9
$DIMTXT
 40
3.5
  9
$DIMCEN
 40
0.0
  9
$DIMTSZ
 40
0.0
  9
$DIMTOL
 70
     0
  9
$DIMLIM
 70
     0
  9
$DIMTIH
 70
     0
  9
$DIMTOH
 70
     0
  9
$DIMSE1
 70
     0
  9
$DIMSE2
 70
     0
  9
$DIMTAD
 70
     1
  9
$DIMZIN
 70
     8
  9
$DIMBLK
  1

  9
$DIMASO
 70
     1
  9
$DIMSHO
 70
     1
  9
$DIMPOST
  1

  9
$DIMAPOST
  1
"
  9
$DIMALT
 70
     0
  9
$DIMALTD
 70
     2
  9
$DIMALTF
 40
0.0393701
  9
$DIMLFAC
 40
1.0
  9
$DIMTOFL
 70
     1
  9
$DIMTVP
 40
0.0
  9
$DIMTIX
 70
     0
  9
$DIMSOXD
 70
     0
  9
$DIMSAH
 70
     0
  9
$DIMBLK1
  1

  9
$DIMBLK2
  1

  9
$DIMSTYLE
  2
AM_DIN
  9
$DIMCLRD
 70
   256
  9
$DIMCLRE
 70
   256
  9
$DIMCLRT
 70
     2
  9
$DIMTFAC
 40
0.71
  9
$DIMGAP
 40
1.5
  9
$DIMJUST
 70
     0
  9
$DIMSD1
 70
     0
  9
$DIMSD2
 70
     0
  9
$DIMTOLJ
 70
     0
  9
$DIMTZIN
 70
     8
  9
$DIMALTZ
 70
     0
  9
$DIMALTTZ
 70
     0
  9
$DIMUPT
 70
     0
  9
$DIMDEC
 70
     2
  9
$DIMTDEC
 70
     3
  9
$DIMALTU
 70
     2
  9
$DIMALTTD
 70
     4
  9
$DIMTXSTY
  7
STANDARD
  9
$DIMAUNIT
 70
     0
  9
$DIMADEC
 70
     0
  9
$DIMALTRND
 40
0.0
  9
$DIMAZIN
 70
     2
  9
$DIMDSEP
 70
    46
  9
$DIMATFIT
 70
     3
  9
$DIMFRAC
 70
     0
  9
$DIMLDRBLK
  1

  9
$DIMLUNIT
 70
     2
  9
$DIMLWD
 70
    -1
  9
$DIMLWE
 70
    -1
  9
$DIMTMOVE
 70
     0
  9
$LUNITS
 70
     2
  9
$LUPREC
 70
     2
  9
$SKETCHINC
 40
1.0
  9
$FILLETRAD
 40
2.5
  9
$AUNITS
 70
     0
  9
$AUPREC
 70
     0
  9
$MENU
  1
.
  9
$ELEVATION
 40
0.0
  9
$PELEVATION
 40
0.0
  9
$THICKNESS
 40
0.0
  9
$LIMCHECK
 70
     0
  9
$CHAMFERA
 40
2.5
  9
$CHAMFERB
 40
2.5
  9
$CHAMFERC
 40
20.0
  9
$CHAMFERD
 40
0.0
  9
$SKPOLY
 70
     0
  9
$TDCREATE
 40
2454053.359238090
  9
$TDUCREATE
 40
2454053.317571424
  9
$TDUPDATE
 40
2454053.359420752
  9
$TDUUPDATE
 40
2454053.317754086
  9
$TDINDWG
 40
0.0001828356
  9
$TDUSRTIMER
 40
0.0001828356
  9
$USRTIMER
 70
     1
  9
$ANGBASE
 50
0.0
  9
$ANGDIR
 70
     0
  9
$PDMODE
 70
     0
  9
$PDSIZE
 40
0.0
  9
$PLINEWID
 40
0.0
  9
$SPLFRAME
 70
     0
  9
$SPLINETYPE
 70
     6
  9
$SPLINESEGS
 70
     8
  9
$HANDSEED
  5
620
  9
$SURFTAB1
 70
     6
  9
$SURFTAB2
 70
     6
  9
$SURFTYPE
 70
     6
  9
$SURFU
 70
     6
  9
$SURFV
 70
     6
  9
$UCSBASE
  2

  9
$UCSNAME
  2

  9
$UCSORG
 10
0.0
 20
0.0
 30
0.0
  9
$UCSXDIR
 10
1.0
 20
0.0
 30
0.0
  9
$UCSYDIR
 10
0.0
 20
1.0
 30
0.0
  9
$UCSORTHOREF
  2

  9
$UCSORTHOVIEW
 70
     0
  9
$UCSORGTOP
 10
0.0
 20
0.0
 30
0.0
  9
$UCSORGBOTTOM
 10
0.0
 20
0.0
 30
0.0
  9
$UCSORGLEFT
 10
0.0
 20
0.0
 30
0.0
  9
$UCSORGRIGHT
 10
0.0
 20
0.0
 30
0.0
  9
$UCSORGFRONT
 10
0.0
 20
0.0
 30
0.0
  9
$UCSORGBACK
 10
0.0
 20
0.0
 30
0.0
  9
$PUCSBASE
  2

  9
$PUCSNAME
  2

  9
$PUCSORG
 10
0.0
 20
0.0
 30
0.0
  9
$PUCSXDIR
 10
1.0
 20
0.0
 30
0.0
  9
$PUCSYDIR
 10
0.0
 20
1.0
 30
0.0
  9
$PUCSORTHOREF
  2

  9
$PUCSORTHOVIEW
 70
     0
  9
$PUCSORGTOP
 10
0.0
 20
0.0
 30
0.0
  9
$PUCSORGBOTTOM
 10
0.0
 20
0.0
 30
0.0
  9
$PUCSORGLEFT
 10
0.0
 20
0.0
 30
0.0
  9
$PUCSORGRIGHT
 10
0.0
 20
0.0
 30
0.0
  9
$PUCSORGFRONT
 10
0.0
 20
0.0
 30
0.0
  9
$PUCSORGBACK
 10
0.0
 20
0.0
 30
0.0
  9
$USERI1
 70
     0
  9
$USERI2
 70
     0
  9
$USERI3
 70
     0
  9
$USERI4
 70
     0
  9
$USERI5
 70
     0
  9
$USERR1
 40
0.0
  9
$USERR2
 40
0.0
  9
$USERR3
 40
0.0
  9
$USERR4
 40
0.0
  9
$USERR5
 40
0.0
  9
$WORLDVIEW
 70
     1
  9
$SHADEDGE
 70
     3
  9
$SHADEDIF
 70
    70
  9
$TILEMODE
 70
     1
  9
$MAXACTVP
 70
    64
  9
$PINSBASE
 10
0.0
 20
0.0
 30
0.0
  9
$PLIMCHECK
 70
     0
  9
$PEXTMIN
 10
1.000000000000000E+20
 20
1.000000000000000E+20
 30
1.000000000000000E+20
  9
$PEXTMAX
 10
-1.000000000000000E+20
 20
-1.000000000000000E+20
 30
-1.000000000000000E+20
  9
$PLIMMIN
 10
0.0
 20
0.0
  9
$PLIMMAX
 10
420.0
 20
297.0
  9
$UNITMODE
 70
     0
  9
$VISRETAIN
 70
     1
  9
$PLINEGEN
 70
     0
  9
$PSLTSCALE
 70
     1
  9
$TREEDEPTH
 70
  3020
  9
$CMLSTYLE
  2
Standard
  9
$CMLJUST
 70
     0
  9
$CMLSCALE
 40
20.0
  9
$PROXYGRAPHICS
 70
     1
  9
$MEASUREMENT
 70
     1
  9
$CELWEIGHT
370
    -1
  9
$ENDCAPS
280
     0
  9
$JOINSTYLE
280
     0
  9
$LWDISPLAY
290
     0
  9
$INSUNITS
 70
     4
  9
$HYPERLINKBASE
  1

  9
$STYLESHEET
  1

  9
$XEDIT
290
     1
  9
$CEPSNTYPE
380
     0
  9
$PSTYLEMODE
290
     1
  9
$FINGERPRINTGUID
  2
{F6D55741-6BE0-42A4-806F-54CE58A87414}
  9
$VERSIONGUID
  2
{952D1EC5-AE13-4D2D-AD35-4110E559986B}
  9
$EXTNAMES
290
     1
  9
$PSVPSCALE
 40
0.0
  9
$OLESTARTUP
290
     0
  0
ENDSEC
  0
SECTION
  2
CLASSES
  0
CLASS
  1
ACDBDICTIONARYWDFLT
  2
AcDbDictionaryWithDefault
  3
ObjectDBX Classes
 90
        0
280
     0
281
     0
  0
CLASS
  1
ACDBPLACEHOLDER
  2
AcDbPlaceHolder
  3
ObjectDBX Classes
 90
        0
280
     0
281
     0
  0
CLASS
  1
LAYOUT
  2
AcDbLayout
  3
ObjectDBX Classes
 90
        0
280
     0
281
     0
  0
CLASS
  1
AMGSETTINGSOBJ
  2
AmgSettingsObj
  3
"AcadM|Product Description: AutoCAD Mechanical 2000|Company: Autodesk"
 90
        0
280
     0
281
     0
  0
CLASS
  1
ACME_DOCUMENT
  2
AcMeDbDoc
  3
AcMeServices
 90
        0
280
     0
281
     0
  0
CLASS
  1
ACMESCOPE
  2
AcMeScope
  3
AcMeServices
 90
        0
280
     0
281
     0
  0
CLASS
  1
ACMECOMMANDHISTORY
  2
AcMeCommandHistory
  3
AcMeServices
 90
        0
280
     0
281
     0
  0
CLASS
  1
DICTIONARYVAR
  2
AcDbDictionaryVar
  3
ObjectDBX Classes
 90
        0
280
     0
281
     0
  0
CLASS
  1
ACIMSYSVARMAN
  2
AcImSysVarManager
  3
AcMeServices
 90
        0
280
     0
281
     0
  0
CLASS
  1
ACIMREALSYSVAR
  2
AcImRealSysVar
  3
AcMeServices
 90
        0
280
     0
281
     0
  0
CLASS
  1
ACIMINTSYSVAR
  2
AcImIntSysVar
  3
AcMeServices
 90
        0
280
     0
281
     0
  0
CLASS
  1
ACMEDRAWINGMAN
  2
AcMeDrawingMan
  3
AcMeServices
 90
        0
280
     0
281
     0
  0
CLASS
  1
ACMEVIEW
  2
AcMeView
  3
AcMeServices
 90
        0
280
     0
281
     0
  0
CLASS
  1
ACDBENTITYCACHE
  2
AcMeEntityCache
  3
AcMeServices
 90
        0
280
     0
281
     0
  0
CLASS
  1
GSMANAGER
  2
AcMeGSManager
  3
AcMeServices
 90
        0
280
     0
281
     0
  0
CLASS
  1
AMDTINTERNALREACTOR
  2
AmdtInternalReactor
  3
AcMeServices
 90
        0
280
     0
281
     0
  0
CLASS
  1
ACMESTATEMGR
  2
AcMeStateMgr
  3
AcMeServices
 90
        0
280
     0
281
     0
  0
CLASS
  1
ACGREFMASTER
  2
AcGrefMaster
  3
AcAttribServices
 90
        0
280
     0
281
     0
  0
CLASS
  1
ACME_DATABASE
  2
AcMeDbDatabase
  3
AcMeServices
 90
        0
280
     0
281
     0
  0
CLASS
  1
ACRFINSADJUSTERMGR
  2
AcRfInsAdjusterMgr
  3
AcMeServices
 90
        0
280
     0
281
     0
  0
CLASS
  1
ACGREFACADMASTER
  2
AcGrefacadMaster
  3
AcGrefServices
 90
        0
280
     0
281
     0
  0
CLASS
  1
AMIMASTER
  2
AmiMaster
  3
AmiServices
 90
        0
280
     0
281
     0
  0
CLASS
  1
ACIMSTRSYSVAR
  2
AcImStrSysVar
  3
AcMeServices
 90
        0
280
     0
281
     0
  0
CLASS
  1
ACMSTANDARDDIN
  2
AcmStandardDIN
  3
"Amdt_StdImp|Product Description: AutoCAD Mechanical 2004 DX|Company: Autodesk"
 90
        0
280
     0
281
     0
  0
CLASS
  1
AMGOBJPROPCFG
  2
AmgObjPropCfg
  3
"AmgLay|Product Description: AutoCAD Mechanical 2000|Company: Autodesk"
 90
        1
280
     0
281
     0
  0
CLASS
  1
AMDTEDGESTANDARDDIN
  2
AmdtEdgeStdDIN
  3
"Amdt_StdImp|Product Description: AutoCAD Mechanical 2004 DX|Company: Autodesk"
 90
        0
280
     0
281
     0
  0
CLASS
  1
ACMSURFSTANDARDDIN
  2
AcmSurfTextStdDIN
  3
"Amdt_StdImp|Product Description: AutoCAD Mechanical 2004 DX|Company: Autodesk"
 90
        0
280
     0
281
     0
  0
CLASS
  1
ACMFCFSTANDARDDIN
  2
AcmFCFStdDIN
  3
"Amdt_StdImp|Product Description: AutoCAD Mechanical 2004 DX|Company: Autodesk"
 90
        0
280
     0
281
     0
  0
CLASS
  1
ACMWELDSTANDARDDIN
  2
AcmWeldingStdDIN
  3
"Amdt_StdImp|Product Description: AutoCAD Mechanical 2004 DX|Company: Autodesk"
 90
        0
280
     0
281
     0
  0
CLASS
  1
ACMIDSTANDARDDIN
  2
AcmIdStdDIN
  3
"Amdt_StdImp|Product Description: AutoCAD Mechanical 2004 DX|Company: Autodesk"
 90
        0
280
     0
281
     0
  0
CLASS
  1
ACMDATUMSTANDARDDIN
  2
AcmDatumStdDIN
  3
"Amdt_StdImp|Product Description: AutoCAD Mechanical 2004 DX|Company: Autodesk"
 90
        0
280
     0
281
     0
  0
CLASS
  1
ACMBOMSTANDARDDIN
  2
AcmBOMStdDIN
  3
"Amdt_StdImp|Product Description: AutoCAD Mechanical 2004 DX|Company: Autodesk"
 90
        0
280
     0
281
     0
  0
CLASS
  1
ACMDETAILSTANDARDDIN
  2
AmdtDetailSymStdDIN
  3
"Amdt_StdImp|Product Description: AutoCAD Mechanical 2004 DX|Company: Autodesk"
 90
        0
280
     0
281
     0
  0
CLASS
  1
ACMSECTIONSTANDARDDIN
  2
AmdtSectionSymStdDIN
  3
"Amdt_StdImp|Product Description: AutoCAD Mechanical 2004 DX|Company: Autodesk"
 90
        0
280
     0
281
     0
  0
CLASS
  1
ACMCENTERLINESTANDARDDIN
  2
AmdtCenterLineStdDIN
  3
"Amdt_StdImp|Product Description: AutoCAD Mechanical 2004 DX|Company: Autodesk"
 90
        0
280
     0
281
     0
  0
CLASS
  1
ACMTHREADLINESTANDARDDIN
  2
AmdtThreadLineStdDIN
  3
"Amdt_StdImp|Product Description: AutoCAD Mechanical 2004 DX|Company: Autodesk"
 90
        0
280
     0
281
     0
  0
CLASS
  1
ACAMGLAYSTD
  2
AcAmgLayStd
  3
"AcAmgLayStd|Product Description: AutoCAD Mechanical 2000|Company: Autodesk"
 90
        0
280
     0
281
     0
  0
CLASS
  1
ACAMGDIMSTD
  2
AcAmgDimStd
  3
"AcAmgDimStd|Product Description: AutoCAD Mechanical 2000|Company: Autodesk"
 90
        0
280
     0
281
     0
  0
CLASS
  1
ACAMGTITLESTD
  2
AcAmgTitleStd
  3
"TITLEAPP"
 90
        0
280
     0
281
     0
  0
CLASS
  1
ACMDATADICTIONARY
  2
AcmDataDictionary
  3
"AcmSymBB|Product Description: AutoCAD Mechanical 2004 DX|Company: Autodesk"
 90
        0
280
     0
281
     0
  0
CLASS
  1
ACMDATAENTRYBLOCK
  2
AcmDataEntryBlock
  3
"AcmSymBB|Product Description: AutoCAD Mechanical 2004 DX|Company: Autodesk"
 90
        0
280
     0
281
     0
  0
CLASS
  1
LAYER_INDEX
  2
AcDbLayerIndex
  3
ObjectDBX Classes
 90
    32768
280
     0
281
     0
  0
CLASS
  1
IDBUFFER
  2
AcDbIdBuffer
  3
ObjectDBX Classes
 90
    32768
280
     0
281
     0
  0
CLASS
  1
ACMNOTESTANDARDDIN
  2
AmdtNoteStdDIN
  3
"Amdt_StdImp|Product Description: AutoCAD Mechanical 2004 DX|Company: Autodesk"
 90
        0
280
     0
281
     0
  0
CLASS
  1
ACAMGHOLECHARTSTDDIN
  2
AcAmgHoleChartStdDIN
  3
ACMSYMBB_MODULE_NAME
 90
        0
280
     0
281
     0
  0
CLASS
  1
AM_DRAWING_MGR
  2
AcDmDwgMgr
  3
AcMechDwgViewMgmt
 90
        0
280
     0
281
     0
  0
CLASS
  1
AM_DWG_DOCUMENT
  2
AcDmDwgDocument
  3
AcMechDwgViewMgmt
 90
        0
280
     0
281
     0
  0
CLASS
  1
AM_DWG_SHEET
  2
AcDmSheet
  3
AcMechDwgViewMgmt
 90
        0
280
     0
281
     0
  0
CLASS
  1
AM_VIEWDIMPARMAP
  2
AcDmViewDimParMap
  3
AcMechDwgViewMgmt
 90
        0
280
     0
281
     0
  0
CLASS
  1
AM_DWGMGR_NAME
  2
AcDmDwgMgrName
  3
AcMechDwgViewMgmt
 90
        0
280
     0
281
     0
  0
CLASS
  1
AMDTMENUSTATEMGR
  2
AmdtMenuStateMgr
  3
McadcomServices
 90
        0
280
     0
281
     0
  0
CLASS
  1
AMDTMCOMMENUSTATE
  2
AmdtMcomMenuState
  3
McadcomServices
 90
        0
280
     0
281
     0
  0
CLASS
  1
MAPIAMMOUDLE
  2
MApiAmModule
  3
MApiAmServices
 90
        0
280
     0
281
     0
  0
CLASS
  1
AMDTADMENUSTATE
  2
AmdtAdMenuState
  3
DesignerServices
 90
        0
280
     0
281
     0
  0
CLASS
  1
ADAPPL
  2
AcAdAppl
  3
DesignerServices
 90
        0
280
     0
281
     0
  0
CLASS
  1
DEPMGR
  2
AcAdDepMgr
  3
DesignerServices
 90
        0
280
     0
281
     0
  0
CLASS
  1
PARAMMGR
  2
AcAdParamMgr
  3
DesignerServices
 90
        0
280
     0
281
     0
  0
CLASS
  1
PARAMSCOPE
  2
AcAdParamScope
  3
DesignerServices
 90
        0
280
     0
281
     0
  0
CLASS
  1
NAMEDAPPL
  2
AcAdNamedAppl
  3
DesignerServices
 90
        0
280
     0
281
     0
  0
CLASS
  1
AMDTDMMENUSTATE
  2
AmdtDmMenuState
  3
AcMechDwgViewMgmt
 90
        0
280
     0
281
     0
  0
CLASS
  1
AMDTAMMENUSTATE
  2
AmdtAmMenuState
  3
DesignerAssemblies
 90
        0
280
     0
281
     0
  0
CLASS
  1
ACAMPROJECT
  2
AcAmProject
  3
DesignerAssemblies
 90
        0
280
     0
281
     0
  0
CLASS
  1
ACAMGRCOMPDEF
  2
AcAmGrCompDef
  3
DesignerAssemblies
 90
        0
280
     0
281
     0
  0
CLASS
  1
ACCMCONTEXT
  2
AcCmContext
  3
DesignerAssemblies
 90
        0
280
     0
281
     0
  0
CLASS
  1
ACAMCOMPDEF
  2
AcAmCompDef
  3
DesignerAssemblies
 90
        0
280
     0
281
     0
  0
CLASS
  1
ACAMCOMPDEFMGR
  2
AcAmCompDefMgr
  3
DesignerAssemblies
 90
        0
280
     0
281
     0
  0
CLASS
  1
AMCONTEXTMGR
  2
AcAmContextMgr
  3
DesignerAssemblies
 90
        0
280
     0
281
     0
  0
CLASS
  1
ACAMCONTEXTMODELER
  2
AcAmContextModeler
  3
DesignerAssemblies
 90
        0
280
     0
281
     0
  0
CLASS
  1
CATALOGSTATE
  2
AcAmCatalogState
  3
DesignerAssemblies
 90
        0
280
     0
281
     0
  0
CLASS
  1
ACAMGRCOMPDEFSET
  2
AcAmGrCompDefSet
  3
DesignerAssemblies
 90
        0
280
     0
281
     0
  0
CLASS
  1
AMDTBROWSERDBTAB
  2
AmdtBrowserDbTab
  3
McadcomServices
 90
        0
280
     0
281
     0
  0
CLASS
  1
CBROWSERAPPOBJECT
  2
CBrowserAppObject
  3
McadcomServices
 90
        0
280
     0
281
     0
  0
CLASS
  1
DM_PLACEHOLDER
  2
AcDmSelsetPlaceholder
  3
AcMechDwgViewMgmt
 90
        0
280
     0
281
     0
  0
CLASS
  1
TABLESTYLE
  2
AcDbTableStyle
  3
ObjectDBX Classes
 90
     2047
280
     0
281
     0
  0
CLASS
  1
VAACXREFPANELOBJECT
  2
VaAcXREFPanelObject
  3
VAAC_ADDIN
 90
    32768
280
     0
281
     0
  0
CLASS
  1
VAACIMAGEINVENTORY
  2
VaAcImageInventory
  3
VAAC_ADDIN
 90
    32768
280
     0
281
     0
  0
CLASS
  1
AMDTNOTETEMPLATEDB
  2
AmdtNoteTemplateDB
  3
AMDT_STDIMP_MODULE_NAME
 90
        0
280
     0
281
     0
  0
CLASS
  1
ACAMGFILTERDAT
  2
AcAmgFilterDat
  3
"AcadM|Product Description: AutoCAD Mechanical 2000|Company: Autodesk"
 90
        0
280
     0
281
     0
  0
CLASS
  1
ACMBOM
  2
AcmBom
  3
"AcmSymBB|Product Description: AutoCAD Mechanical 2004 DX|Company: Autodesk"
 90
    32768
280
     0
281
     0
  0
CLASS
  1
AMDTFORMULAUPDATEDISPATCHER
  2
AmdtFormulaUpdateDispatcher
  3
AcMeServices
 90
    32768
280
     0
281
     0
  0
CLASS
  1
DIMASSOC
  2
AcDbDimAssoc
  3
"AcDbDimAssoc|Product Desc:     AcDim ARX App For Dimension|Company:          Autodesk, Inc.|WEB Address:      www.autodesk.com"
 90
        0
280
     0
281
     0
  0
CLASS
  1
SORTENTSTABLE
  2
AcDbSortentsTable
  3
ObjectDBX Classes
 90
        0
280
     0
281
     0
  0
CLASS
  1
ACRFATTGENMGR
  2
AcRfAttGeneralMgr
  3
AcAttribServices
 90
        0
280
     0
281
     0
  0
ENDSEC
  0
SECTION
  2
TABLES
  0
TABLE
  2
VPORT
  5
8
330
0
100
AcDbSymbolTable
 70
     3
  0
VPORT
  5
617
330
8
100
AcDbSymbolTableRecord
100
AcDbViewportTableRecord
  2
*Active
 70
     0
 10
0.0
 20
0.0
 11
1.0
 21
1.0
 12
1605.434211991525
 22
1636.096556617847
 13
0.0
 23
0.0
 14
2.5
 24
2.5
 15
10.0
 25
10.0
 16
0.0
 26
0.0
 36
1.0
 17
0.0
 27
0.0
 37
0.0
 40
1350.545554054829
 41
1.378804960541149
 42
50.0
 43
0.0
 44
0.0
 50
0.0
 51
0.0
 71
     0
 72
   100
 73
     1
 74
     3
 75
     0
 76
     0
 77
     0
 78
     0
281
     0
 65
     1
110
0.0
120
0.0
130
0.0
111
1.0
121
0.0
131
0.0
112
0.0
122
1.0
132
0.0
 79
     0
146
0.0
  0
ENDTAB
  0
TABLE
  2
LTYPE
  5
5
330
0
100
AcDbSymbolTable
 70
    21
  0
LTYPE
  5
14
330
5
100
AcDbSymbolTableRecord
100
AcDbLinetypeTableRecord
  2
ByBlock
 70
     0
  3

 72
    65
 73
     0
 40
0.0
  0
LTYPE
  5
15
330
5
100
AcDbSymbolTableRecord
100
AcDbLinetypeTableRecord
  2
ByLayer
 70
     0
  3

 72
    65
 73
     0
 40
0.0
  0
LTYPE
  5
16
330
5
100
AcDbSymbolTableRecord
100
AcDbLinetypeTableRecord
  2
Continuous
 70
     0
  3
Solid line
 72
    65
 73
     0
 40
0.0
  0
LTYPE
  5
50
330
5
100
AcDbSymbolTableRecord
100
AcDbLinetypeTableRecord
  2
Amconstr
 70
     0
  3
_______________________
 72
    65
 73
     2
 40
9999.0
 49
9999.0
 74
     0
 49
0.0
 74
     0
  0
LTYPE
  5
55
330
5
100
AcDbSymbolTableRecord
100
AcDbLinetypeTableRecord
  2
Amzigzag
 70
     0
  3
/\/-/\/-/\/-/\/-/\/-/\/
 72
    65
 73
     2
 40
11.0001
 49
0.0001
 74
     4
 75
   136
340
285
 46
0.04
 50
0.0
 44
0.0
 45
0.0
 49
-11.0
 74
     0
  0
LTYPE
  5
56
330
5
100
AcDbSymbolTableRecord
100
AcDbLinetypeTableRecord
  2
AM_DIN_F_W050
 70
     0
  3
__ __ __ __ __ __ __ __ __ __ __ __ __ __ __
 72
    65
 73
     2
 40
6.25
 49
4.75
 74
     0
 49
-1.5
 74
     0
  0
LTYPE
  5
57
330
5
100
AcDbSymbolTableRecord
100
AcDbLinetypeTableRecord
  2
AM_DIN_G_W050
 70
     0
  3
____ . ____ . ____ . ____ . ____ . ____ . ____
 72
    65
 73
     4
 40
13.75
 49
9.75
 74
     0
 49
-1.5
 74
     0
 49
1.0
 74
     0
 49
-1.5
 74
     0
  0
LTYPE
  5
58
330
5
100
AcDbSymbolTableRecord
100
AcDbLinetypeTableRecord
  2
AM_DIN_K_W050
 70
     0
  3
_____ . . _____ . . _____ . . ____ .. ____
 72
    65
 73
     6
 40
16.25
 49
9.75
 74
     0
 49
-1.5
 74
     0
 49
1.0
 74
     0
 49
-1.5
 74
     0
 49
1.0
 74
     0
 49
-1.5
 74
     0
  0
LTYPE
  5
59
330
5
100
AcDbSymbolTableRecord
100
AcDbLinetypeTableRecord
  2
AM_DIN_G_W050x2
 70
     0
  3
__ . __ . __ . __ . __ . __
 72
    65
 73
     4
 40
6.875
 49
4.75
 74
     0
 49
-0.875
 74
     0
 49
0.375
 74
     0
 49
-0.875
 74
     0
  0
LTYPE
  5
5A
330
5
100
AcDbSymbolTableRecord
100
AcDbLinetypeTableRecord
  2
AM_DIN_F_W050x2
 70
     0
  3
 _ _ _ _ _ _ _ _ _ _ _ _
 72
    65
 73
     2
 40
3.125
 49
2.25
 74
     0
 49
-0.875
 74
     0
  0
LTYPE
  5
68
330
5
100
AcDbSymbolTableRecord
100
AcDbLinetypeTableRecord
  2
ACDINWELD
 70
     0
  3
_ _ _ _ _
 72
    65
 73
     2
 40
2.0
 49
2.0
 74
     0
 49
-1.0
 74
     0
  0
LTYPE
  5
69
330
5
100
AcDbSymbolTableRecord
100
AcDbLinetypeTableRecord
  2
ACDINTGB
 70
     0
  3
__ . . __ . .
 72
    65
 73
     6
 40
9.0
 49
4.0
 74
     0
 49
-1.0
 74
     0
 49
1.0
 74
     0
 49
-1.0
 74
     0
 49
1.0
 74
     0
 49
-1.0
 74
     0
  0
LTYPE
  5
6A
330
5
100
AcDbSymbolTableRecord
100
AcDbLinetypeTableRecord
  2
ACDINTGL
 70
     0
  3
_ _ _ _ _
 72
    65
 73
     2
 40
3.0
 49
2.0
 74
     0
 49
-1.0
 74
     0
  0
LTYPE
  5
6C
330
5
100
AcDbSymbolTableRecord
100
AcDbLinetypeTableRecord
  2
CENTER
 70
     0
  3
__ . __
 72
    65
 73
     4
 40
7.0
 49
4.0
 74
     0
 49
-1.0
 74
     0
 49
1.0
 74
     0
 49
-1.0
 74
     0
  0
LTYPE
  5
F2
330
5
100
AcDbSymbolTableRecord
100
AcDbLinetypeTableRecord
  2
HIDDEN
 70
     0
  3
Hidden __ __ __ __ __ __ __ __ __ __ __ __ __ _
 72
    65
 73
     2
 40
9.524999999999998
 49
6.349999999999999
 74
     0
 49
-3.174999999999999
 74
     0
  0
LTYPE
  5
F3
330
5
100
AcDbSymbolTableRecord
100
AcDbLinetypeTableRecord
  2
PHANTOM2
 70
     0
  3
Phantom (.5x) ___ _ _ ___ _ _ ___ _ _ ___ _ _
 72
    65
 73
     6
 40
31.75
 49
15.875
 74
     0
 49
-3.174999999999999
 74
     0
 49
3.174999999999999
 74
     0
 49
-3.174999999999999
 74
     0
 49
3.174999999999999
 74
     0
 49
-3.174999999999999
 74
     0
  0
LTYPE
  5
374
330
5
100
AcDbSymbolTableRecord
100
AcDbLinetypeTableRecord
  2
AUSGEZOGEN
 70
     0
  3
_______________________________________________
 72
    65
 73
     0
 40
0.0
  0
ENDTAB
  0
TABLE
  2
LAYER
  5
2
102
{ACAD_XDICTIONARY
360
C0
102
}
330
0
100
AcDbSymbolTable
 70
    10
  0
LAYER
  5
10
330
2
100
AcDbSymbolTableRecord
100
AcDbLayerTableRecord
  2
0
 70
     0
 62
     7
  6
Continuous
370
    -3
390
F
  0
LAYER
  5
375
330
2
100
AcDbSymbolTableRecord
100
AcDbLayerTableRecord
  2
AM_7
 70
     0
 62
     4
  6
AM_DIN_G_W050
370
    25
390
F
  0
LAYER
  5
376
330
2
100
AcDbSymbolTableRecord
100
AcDbLayerTableRecord
  2
DEFPOINTS
 70
     0
 62
     7
  6
Continuous
290
     0
370
    -3
390
F
  0
LAYER
  5
377
330
2
100
AcDbSymbolTableRecord
100
AcDbLayerTableRecord
  2
406
 70
     0
 62
     7
  6
Continuous
370
    -3
390
F
  0
LAYER
  5
378
330
2
100
AcDbSymbolTableRecord
100
AcDbLayerTableRecord
  2
AM_5
 70
     0
 62
     3
  6
Continuous
370
    25
390
F
  0
LAYER
  5
379
330
2
100
AcDbSymbolTableRecord
100
AcDbLayerTableRecord
  2
AM_4
 70
     0
 62
     3
  6
Continuous
370
    25
390
F
  0
LAYER
  5
37A
330
2
100
AcDbSymbolTableRecord
100
AcDbLayerTableRecord
  2
AM_6
 70
     0
 62
     2
  6
Continuous
370
    35
390
F
  0
LAYER
  5
37B
330
2
100
AcDbSymbolTableRecord
100
AcDbLayerTableRecord
  2
4
 70
     0
 62
     3
  6
Continuous
370
    -3
390
F
  0
LAYER
  5
37C
330
2
100
AcDbSymbolTableRecord
100
AcDbLayerTableRecord
  2
AM_3
 70
     0
 62
     6
  6
AM_DIN_F_W050
370
    25
390
F
  0
ENDTAB
  0
TABLE
  2
STYLE
  5
3
330
0
100
AcDbSymbolTable
 70
     8
  0
STYLE
  5
11
330
3
100
AcDbSymbolTableRecord
100
AcDbTextStyleTableRecord
  2
STANDARD
 70
     0
 40
0.0
 41
1.0
 50
0.0
 71
     0
 42
2.5
  3
ISOCP.SHX
  4
bigfont.shx
  0
STYLE
  5
5B
330
3
100
AcDbSymbolTableRecord
100
AcDbTextStyleTableRecord
  2
ACDINTS
 70
     0
 40
1.0
 41
1.0
 50
0.0
 71
     0
 42
2.5
  3
isocp.shx
  4
bigfont.shx
  0
STYLE
  5
67
330
3
100
AcDbSymbolTableRecord
100
AcDbTextStyleTableRecord
  2
ACDINGDT
 70
     0
 40
0.0
 41
1.0
 50
0.0
 71
     0
 42
2.5
  3
AMGDT
  4
bigfont.shx
  0
STYLE
  5
285
330
3
100
AcDbSymbolTableRecord
100
AcDbTextStyleTableRecord
  2

 70
     1
 40
0.0
 41
1.0
 50
0.0
 71
     0
 42
2.5
  3
genltshp.shx
  4

  0
ENDTAB
  0
TABLE
  2
VIEW
  5
6
330
0
100
AcDbSymbolTable
 70
     0
  0
ENDTAB
  0
TABLE
  2
UCS
  5
7
330
0
100
AcDbSymbolTable
 70
     0
  0
ENDTAB
  0
TABLE
  2
APPID
  5
9
330
0
100
AcDbSymbolTable
 70
    19
  0
APPID
  5
12
330
9
100
AcDbSymbolTableRecord
100
AcDbRegAppTableRecord
  2
ACAD
 70
     0
  0
APPID
  5
30
330
9
100
AcDbSymbolTableRecord
100
AcDbRegAppTableRecord
  2
MCAD_NO_VIS
 70
     0
  0
APPID
  5
31
330
9
100
AcDbSymbolTableRecord
100
AcDbRegAppTableRecord
  2
ACAD_TEMP_GRAPHIC
 70
     0
  0
APPID
  5
44
330
9
100
AcDbSymbolTableRecord
100
AcDbRegAppTableRecord
  2
ACATTRIBSERVICES
 70
     0
  0
APPID
  5
108
330
9
100
AcDbSymbolTableRecord
100
AcDbRegAppTableRecord
  2
AD_DRAW
 70
     0
  0
APPID
  5
126
330
9
100
AcDbSymbolTableRecord
100
AcDbRegAppTableRecord
  2
DESIGNERASSEMBLIES
 70
     0
  0
APPID
  5
12A
330
9
100
AcDbSymbolTableRecord
100
AcDbRegAppTableRecord
  2
ACADM_DIM_EDIT
 70
     0
  0
APPID
  5
12B
330
9
100
AcDbSymbolTableRecord
100
AcDbRegAppTableRecord
  2
AMDT_DM_ADJ
 70
     0
  0
APPID
  5
1A4
330
9
100
AcDbSymbolTableRecord
100
AcDbRegAppTableRecord
  2
ACAD_DSTYLE_DIMARC_LENGTH_SYMBOL
 70
     0
  0
APPID
  5
1A5
330
9
100
AcDbSymbolTableRecord
100
AcDbRegAppTableRecord
  2
ACAD_DSTYLE_DIMJOGGED_JOGANGLE_SYMBOL
 70
     0
  0
APPID
  5
22C
330
9
100
AcDbSymbolTableRecord
100
AcDbRegAppTableRecord
  2
AcAecLayerStandard
 70
     0
  0
APPID
  5
380
330
9
100
AcDbSymbolTableRecord
100
AcDbRegAppTableRecord
  2
GENIUS_GENOENT_13
 70
     0
  0
APPID
  5
381
330
9
100
AcDbSymbolTableRecord
100
AcDbRegAppTableRecord
  2
GENIUS_GENODEF_13
 70
     0
  0
APPID
  5
382
330
9
100
AcDbSymbolTableRecord
100
AcDbRegAppTableRecord
  2
GENIUS_GENOLIS_13
 70
     0
  0
APPID
  5
383
330
9
100
AcDbSymbolTableRecord
100
AcDbRegAppTableRecord
  2
GENIUS_GENOREF_13
 70
     0
  0
APPID
  5
384
330
9
100
AcDbSymbolTableRecord
100
AcDbRegAppTableRecord
  2
GENIUS_GENOBJ-N-CEN_13
 70
     0
  0
APPID
  5
385
330
9
100
AcDbSymbolTableRecord
100
AcDbRegAppTableRecord
  2
ACAD_PSEXT
 70
     0
  0
APPID
  5
386
330
9
100
AcDbSymbolTableRecord
100
AcDbRegAppTableRecord
  2
GENIUS_GENCEN_19
 70
     0
  0
APPID
  5
387
330
9
100
AcDbSymbolTableRecord
100
AcDbRegAppTableRecord
  2
GENIUS_GENOBJ-N-CRS_13
 70
     0
  0
ENDTAB
  0
TABLE
  2
DIMSTYLE
  5
A
330
0
100
AcDbSymbolTable
 70
    11
100
AcDbDimStyleTable
 71
     1
340
6F
  0
DIMSTYLE
105
6F
102
{ACAD_REACTORS
330
4B
102
}
330
A
100
AcDbSymbolTableRecord
100
AcDbDimStyleTableRecord
  2
AM_DIN
 70
     0
  4
"
 41
2.5
 42
1.0
 43
10.0
 44
1.0
 47
0.1
 48
0.1
 73
     0
 74
     0
 77
     1
 78
     8
 79
     2
140
3.5
141
0.0
143
0.0393701
146
0.71
147
1.5
172
     1
176
   256
177
   256
178
     2
271
     2
272
     3
274
     4
283
     0
284
     8
340
11
371
    -1
372
    -1
1001
ACAD_DSTYLE_DIMARC_LENGTH_SYMBOL
1070
   379
1070
     0
1001
ACAD_DSTYLE_DIMJOGGED_JOGANGLE_SYMBOL
1070
   384
1040
1.570796326794896
  0
DIMSTYLE
105
70
330
A
100
AcDbSymbolTableRecord
100
AcDbDimStyleTableRecord
  2
AM_DIN$3
 70
     0
  4
"
 41
2.5
 42
1.0
 43
10.0
 44
1.0
 47
0.1
 48
0.1
 73
     0
 77
     1
 78
     8
 79
     2
140
3.5
141
0.0
143
0.0393701
146
0.71
147
1.5
176
   256
177
   256
178
     2
271
     2
272
     3
274
     4
283
     0
284
     8
288
     1
289
     0
340
11
371
    -1
372
    -1
1001
ACAD_DSTYLE_DIMARC_LENGTH_SYMBOL
1070
   379
1070
     0
1001
ACAD_DSTYLE_DIMJOGGED_JOGANGLE_SYMBOL
1070
   384
1040
1.570796326794896
  0
DIMSTYLE
105
71
330
A
100
AcDbSymbolTableRecord
100
AcDbDimStyleTableRecord
  2
AM_DIN$4
 70
     0
  4
"
 41
2.5
 42
1.0
 43
10.0
 44
1.0
 47
0.1
 48
0.1
 73
     0
 77
     1
 78
     8
 79
     2
140
3.5
141
0.0
143
0.0393701
146
0.71
147
1.5
176
   256
177
   256
178
     2
271
     2
272
     3
274
     4
283
     0
284
     8
288
     1
289
     0
340
11
371
    -1
372
    -1
1001
ACAD_DSTYLE_DIMARC_LENGTH_SYMBOL
1070
   379
1070
     0
1001
ACAD_DSTYLE_DIMJOGGED_JOGANGLE_SYMBOL
1070
   384
1040
1.570796326794896
  0
DIMSTYLE
105
72
330
A
100
AcDbSymbolTableRecord
100
AcDbDimStyleTableRecord
  2
AM_DIN$6
 70
     0
  4
"
 41
2.5
 42
1.0
 43
10.0
 44
1.0
 47
0.1
 48
0.1
 73
     0
 74
     0
 78
     8
 79
     2
140
3.5
141
0.0
143
0.0393701
146
0.71
147
1.5
172
     1
176
   256
177
   256
178
     2
271
     2
272
     3
274
     4
283
     0
284
     8
340
11
371
    -1
372
    -1
1001
ACAD_DSTYLE_DIMARC_LENGTH_SYMBOL
1070
   379
1070
     0
1001
ACAD_DSTYLE_DIMJOGGED_JOGANGLE_SYMBOL
1070
   384
1040
1.570796326794896
  0
DIMSTYLE
105
73
330
A
100
AcDbSymbolTableRecord
100
AcDbDimStyleTableRecord
  2
AM_DIN$7
 70
     0
  4
"
 41
2.5
 42
1.0
 43
10.0
 44
1.0
 47
0.1
 48
0.1
 73
     0
 74
     0
 77
     1
 78
     8
 79
     2
140
5.0
141
0.0
143
0.0393701
146
0.71
147
1.5
172
     1
176
   256
177
   256
178
     2
271
     2
272
     3
274
     4
283
     0
284
     8
340
11
371
    -1
372
    -1
1001
ACAD_DSTYLE_DIMARC_LENGTH_SYMBOL
1070
   379
1070
     0
1001
ACAD_DSTYLE_DIMJOGGED_JOGANGLE_SYMBOL
1070
   384
1040
1.570796326794896
  0
DIMSTYLE
105
74
330
A
100
AcDbSymbolTableRecord
100
AcDbDimStyleTableRecord
  2
AM_DIN$SF
 70
     0
  4
"
 41
2.5
 42
1.0
 43
10.0
 44
1.0
 47
0.1
 48
0.1
 73
     0
 74
     0
 75
     1
 76
     1
 77
     1
 78
     8
 79
     2
140
3.5
141
0.0
143
0.0393701
146
0.71
147
1.5
172
     1
176
   256
177
   256
178
     2
271
     2
272
     3
274
     4
283
     0
284
     8
340
11
371
    -1
372
    -1
1001
ACAD_DSTYLE_DIMARC_LENGTH_SYMBOL
1070
   379
1070
     0
1001
ACAD_DSTYLE_DIMJOGGED_JOGANGLE_SYMBOL
1070
   384
1040
1.570796326794896
  0
DIMSTYLE
105
79
330
A
100
AcDbSymbolTableRecord
100
AcDbDimStyleTableRecord
  2
AM_DIN$SH
 70
     0
  4
"
 41
2.5
 42
1.0
 43
10.0
 44
1.0
 47
0.1
 48
0.1
 73
     0
 74
     0
 75
     1
 76
     1
 77
     1
 78
     8
 79
     2
140
3.5
141
0.0
143
0.0393701
144
2.0
146
0.71
147
1.5
172
     1
173
     1
176
   256
177
   256
178
     2
271
     2
272
     3
274
     4
283
     0
284
     8
340
11
343
75
371
    -1
372
    -1
1001
ACAD_DSTYLE_DIMARC_LENGTH_SYMBOL
1070
   379
1070
     0
1001
ACAD_DSTYLE_DIMJOGGED_JOGANGLE_SYMBOL
1070
   384
1040
1.570796326794896
  0
DIMSTYLE
105
37E
330
A
100
AcDbSymbolTableRecord
100
AcDbDimStyleTableRecord
  2
GEN-ISO
 70
     0
  4
"
 40
10.0
 41
2.5
 42
1.0
 43
7.0
 44
1.0
 47
0.1
 48
0.1
 73
     0
 74
     0
 77
     1
 78
     8
140
3.5
141
0.0
143
0.0393701
146
0.71
147
0.6
172
     1
176
     3
177
     3
178
     2
271
     2
272
     2
283
     0
340
11
  0
DIMSTYLE
105
37F
102
{ACAD_REACTORS
330
415
330
418
330
438
330
440
330
441
330
443
330
439
330
43D
330
514
330
517
330
537
330
538
330
53C
330
53F
330
540
330
542
102
}
330
A
100
AcDbSymbolTableRecord
100
AcDbDimStyleTableRecord
  2
GEN-ISO$0
 70
     0
  4
"
 40
10.0
 41
2.5
 42
1.0
 43
7.0
 44
1.0
 47
0.1
 48
0.1
 73
     0
 74
     0
 77
     1
 78
     8
140
3.5
141
0.0
143
0.0393701
146
0.71
147
0.6
172
     1
176
     3
177
     3
178
     2
271
     2
272
     2
283
     0
340
11
  0
ENDTAB
  0
TABLE
  2
BLOCK_RECORD
  5
1
330
0
100
AcDbSymbolTable
 70
    20
  0
BLOCK_RECORD
  5
1F
102
{ACAD_XDICTIONARY
360
83
102
}
330
1
100
AcDbSymbolTableRecord
100
AcDbBlockTableRecord
  2
*Model_Space
340
22
  0
BLOCK_RECORD
  5
1B
330
1
100
AcDbSymbolTableRecord
100
AcDbBlockTableRecord
  2
*Paper_Space
340
1E
  0
BLOCK_RECORD
  5
23
330
1
100
AcDbSymbolTableRecord
100
AcDbBlockTableRecord
  2
*Paper_Space0
340
26
  0
BLOCK_RECORD
  5
75
330
1
100
AcDbSymbolTableRecord
100
AcDbBlockTableRecord
  2
GENAXEH
340
0
  0
BLOCK_RECORD
  5
582
330
1
100
AcDbSymbolTableRecord
100
AcDbBlockTableRecord
  2
*D12
340
0
  0
BLOCK_RECORD
  5
58E
330
1
100
AcDbSymbolTableRecord
100
AcDbBlockTableRecord
  2
*D13
340
0
  0
BLOCK_RECORD
  5
59A
330
1
100
AcDbSymbolTableRecord
100
AcDbBlockTableRecord
  2
*D14
340
0
  0
BLOCK_RECORD
  5
5A6
330
1
100
AcDbSymbolTableRecord
100
AcDbBlockTableRecord
  2
*D15
340
0
  0
BLOCK_RECORD
  5
5B2
330
1
100
AcDbSymbolTableRecord
100
AcDbBlockTableRecord
  2
*D16
340
0
  0
BLOCK_RECORD
  5
5C0
330
1
100
AcDbSymbolTableRecord
100
AcDbBlockTableRecord
  2
*D17
340
0
  0
BLOCK_RECORD
  5
5E7
330
1
100
AcDbSymbolTableRecord
100
AcDbBlockTableRecord
  2
*D18
340
0
  0
BLOCK_RECORD
  5
609
330
1
100
AcDbSymbolTableRecord
100
AcDbBlockTableRecord
  2
*D19
340
0
  0
ENDTAB
  0
ENDSEC
  0
SECTION
  2
BLOCKS
  0
BLOCK
  5
20
330
1F
100
AcDbEntity
  8
0
100
AcDbBlockBegin
  2
*Model_Space
 70
     0
 10
0.0
 20
0.0
 30
0.0
  3
*Model_Space
  1

  0
ENDBLK
  5
21
330
1F
100
AcDbEntity
  8
0
100
AcDbBlockEnd
  0
BLOCK
  5
1C
330
1B
100
AcDbEntity
 67
     1
  8
0
100
AcDbBlockBegin
  2
*Paper_Space
 70
     0
 10
0.0
 20
0.0
 30
0.0
  3
*Paper_Space
  1

  0
ENDBLK
  5
1D
330
1B
100
AcDbEntity
 67
     1
  8
0
100
AcDbBlockEnd
  0
BLOCK
  5
24
330
23
100
AcDbEntity
 67
     1
  8
0
100
AcDbBlockBegin
  2
*Paper_Space0
 70
     0
 10
0.0
 20
0.0
 30
0.0
  3
*Paper_Space0
  1

  0
ENDBLK
  5
25
330
23
100
AcDbEntity
 67
     1
  8
0
100
AcDbBlockEnd
  0
BLOCK
  5
77
330
75
100
AcDbEntity
  8
0
100
AcDbBlockBegin
  2
GENAXEH
 70
     0
 10
0.0
 20
0.0
 30
0.0
  3
GENAXEH
  1

  0
LINE
  5
76
330
75
100
AcDbEntity
  8
0
100
AcDbLine
 10
-1.0
 20
0.0
 30
0.0
 11
1.0
 21
0.0
 31
0.0
  0
ENDBLK
  5
78
330
75
100
AcDbEntity
  8
0
100
AcDbBlockEnd
  0
BLOCK
  5
58C
330
582
100
AcDbEntity
  8
0
100
AcDbBlockBegin
  2
*D12
 70
     1
 10
0.0
 20
0.0
 30
0.0
  3
*D12
  1

  0
LINE
  5
5CC
330
582
100
AcDbEntity
  8
AM_5
 62
     3
370
    -2
100
AcDbLine
 10
1887.310122266651
 20
1802.938329878293
 30
0.0
 11
2091.324711189626
 21
1802.938329878293
 31
0.0
  0
LINE
  5
5CD
330
582
100
AcDbEntity
  8
AM_5
 62
     3
370
    -2
100
AcDbLine
 10
1883.295988789638
 20
2182.938329878292
 30
0.0
 11
2091.324711189626
 21
2182.938329878292
 31
0.0
  0
LINE
  5
5CE
330
582
100
AcDbEntity
  8
AM_5
 62
     3
370
    -2
100
AcDbLine
 10
2081.324711189626
 20
1827.938329878293
 30
0.0
 11
2081.324711189626
 21
2157.938329878292
 31
0.0
  0
SOLID
  5
5CF
330
582
100
AcDbEntity
  8
AM_5
 62
     3
100
AcDbTrace
 10
2077.15804452296
 20
1827.938329878293
 30
0.0
 11
2085.491377856293
 21
1827.938329878293
 31
0.0
 12
2081.324711189626
 22
1802.938329878293
 32
0.0
 13
2081.324711189626
 23
1802.938329878293
 33
0.0
  0
SOLID
  5
5D0
330
582
100
AcDbEntity
  8
AM_5
 62
     3
100
AcDbTrace
 10
2077.15804452296
 20
2157.938329878292
 30
0.0
 11
2085.491377856293
 21
2157.938329878292
 31
0.0
 12
2081.324711189626
 22
2182.938329878292
 32
0.0
 13
2081.324711189626
 23
2182.938329878292
 33
0.0
  0
MTEXT
  5
5D1
330
582
100
AcDbEntity
  8
AM_5
 62
     2
100
AcDbMText
 10
2057.824711189626
 20
1992.938329878293
 30
0.0
 40
35.0
 41
0.0
 71
     5
 72
     1
  1
380
 11
0.0000000000000001
 21
1.0
 31
0.0
 73
     1
 44
1.0
1001
ACAD
1000
MTEXTBEGIN
1070
    73
1070
     1
1070
    44
1040
1.0
1070
    74
1070
     0
1000
MTEXTEND
  0
POINT
  5
5D2
330
582
100
AcDbEntity
  8
DEFPOINTS
 62
     0
100
AcDbPoint
 10
1877.310122266651
 20
1802.938329878293
 30
0.0
  0
POINT
  5
5D3
330
582
100
AcDbEntity
  8
DEFPOINTS
 62
     0
100
AcDbPoint
 10
1873.295988789638
 20
2182.938329878292
 30
0.0
  0
POINT
  5
5D4
330
582
100
AcDbEntity
  8
DEFPOINTS
 62
     0
100
AcDbPoint
 10
2081.324711189626
 20
2182.938329878292
 30
0.0
  0
ENDBLK
  5
58D
330
582
100
AcDbEntity
  8
0
100
AcDbBlockEnd
  0
BLOCK
  5
598
330
58E
100
AcDbEntity
  8
0
100
AcDbBlockBegin
  2
*D13
 70
     1
 10
0.0
 20
0.0
 30
0.0
  3
*D13
  1

  0
LINE
  5
5D5
330
58E
100
AcDbEntity
  8
AM_5
 62
     3
370
    -2
100
AcDbLine
 10
1508.295988789649
 20
2182.938329878305
 30
0.0
 11
1508.295988789649
 21
2277.587301584675
 31
0.0
  0
LINE
  5
5D6
330
58E
100
AcDbEntity
  8
AM_5
 62
     3
370
    -2
100
AcDbLine
 10
1892.295988789642
 20
2182.938329878292
 30
0.0
 11
1892.295988789642
 21
2277.587301584675
 31
0.0
  0
LINE
  5
5D7
330
58E
100
AcDbEntity
  8
AM_5
 62
     3
370
    -2
100
AcDbLine
 10
1533.295988789649
 20
2267.587301584676
 30
0.0
 11
1867.295988789642
 21
2267.587301584676
 31
0.0
  0
SOLID
  5
5D8
330
58E
100
AcDbEntity
  8
AM_5
 62
     3
100
AcDbTrace
 10
1533.295988789649
 20
2271.753968251342
 30
0.0
 11
1533.295988789649
 21
2263.420634918009
 31
0.0
 12
1508.295988789649
 22
2267.587301584676
 32
0.0
 13
1508.295988789649
 23
2267.587301584676
 33
0.0
  0
SOLID
  5
5D9
330
58E
100
AcDbEntity
  8
AM_5
 62
     3
100
AcDbTrace
 10
1867.295988789642
 20
2271.753968251342
 30
0.0
 11
1867.295988789642
 21
2263.420634918009
 31
0.0
 12
1892.295988789642
 22
2267.587301584676
 32
0.0
 13
1892.295988789642
 23
2267.587301584676
 33
0.0
  0
MTEXT
  5
5DA
330
58E
100
AcDbEntity
  8
AM_5
 62
     2
100
AcDbMText
 10
1700.295988789646
 20
2291.087301584676
 30
0.0
 40
35.0
 41
0.0
 71
     5
 72
     1
  1
%%c384
 73
     1
 44
1.0
1001
ACAD
1000
MTEXTBEGIN
1070
    73
1070
     1
1070
    44
1040
1.0
1070
    74
1070
     0
1000
MTEXTEND
  0
POINT
  5
5DB
330
58E
100
AcDbEntity
  8
DEFPOINTS
 62
     0
100
AcDbPoint
 10
1508.295988789649
 20
2172.938329878305
 30
0.0
  0
POINT
  5
5DC
330
58E
100
AcDbEntity
  8
DEFPOINTS
 62
     0
100
AcDbPoint
 10
1892.295988789642
 20
2172.938329878292
 30
0.0
  0
POINT
  5
5DD
330
58E
100
AcDbEntity
  8
DEFPOINTS
 62
     0
100
AcDbPoint
 10
1892.295988789642
 20
2267.587301584676
 30
0.0
  0
ENDBLK
  5
599
330
58E
100
AcDbEntity
  8
0
100
AcDbBlockEnd
  0
BLOCK
  5
5A4
330
59A
100
AcDbEntity
  8
0
100
AcDbBlockBegin
  2
*D14
 70
     1
 10
0.0
 20
0.0
 30
0.0
  3
*D14
  1

  0
LINE
  5
5DE
330
59A
100
AcDbEntity
  8
AM_5
 62
     3
370
    -2
100
AcDbLine
 10
1523.310122266651
 20
1792.938329878293
 30
0.0
 11
1523.310122266651
 21
1601.00297679399
 31
0.0
  0
LINE
  5
5DF
330
59A
100
AcDbEntity
  8
AM_5
 62
     3
370
    -2
100
AcDbLine
 10
1877.310122266651
 20
1792.938329878293
 30
0.0
 11
1877.310122266651
 21
1601.00297679399
 31
0.0
  0
LINE
  5
5E0
330
59A
100
AcDbEntity
  8
AM_5
 62
     3
370
    -2
100
AcDbLine
 10
1548.310122266651
 20
1611.00297679399
 30
0.0
 11
1852.310122266651
 21
1611.00297679399
 31
0.0
  0
SOLID
  5
5E1
330
59A
100
AcDbEntity
  8
AM_5
 62
     3
100
AcDbTrace
 10
1548.310122266651
 20
1615.169643460657
 30
0.0
 11
1548.310122266651
 21
1606.836310127323
 31
0.0
 12
1523.310122266651
 22
1611.00297679399
 32
0.0
 13
1523.310122266651
 23
1611.00297679399
 33
0.0
  0
SOLID
  5
5E2
330
59A
100
AcDbEntity
  8
AM_5
 62
     3
100
AcDbTrace
 10
1852.310122266651
 20
1615.169643460657
 30
0.0
 11
1852.310122266651
 21
1606.836310127323
 31
0.0
 12
1877.310122266651
 22
1611.00297679399
 32
0.0
 13
1877.310122266651
 23
1611.00297679399
 33
0.0
  0
MTEXT
  5
5E3
330
59A
100
AcDbEntity
  8
AM_5
 62
     2
100
AcDbMText
 10
1718.803216162413
 20
1634.50297679399
 30
0.0
 40
35.0
 41
0.0
 71
     5
 72
     1
  1
%%c354
 73
     1
 44
1.0
1001
ACAD
1000
MTEXTBEGIN
1070
    73
1070
     1
1070
    44
1040
1.0
1070
    74
1070
     0
1000
MTEXTEND
  0
POINT
  5
5E4
330
59A
100
AcDbEntity
  8
DEFPOINTS
 62
     0
100
AcDbPoint
 10
1523.310122266651
 20
1802.938329878293
 30
0.0
  0
POINT
  5
5E5
330
59A
100
AcDbEntity
  8
DEFPOINTS
 62
     0
100
AcDbPoint
 10
1877.310122266651
 20
1802.938329878293
 30
0.0
  0
POINT
  5
5E6
330
59A
100
AcDbEntity
  8
DEFPOINTS
 62
     0
100
AcDbPoint
 10
1877.310122266651
 20
1611.00297679399
 30
0.0
  0
ENDBLK
  5
5A5
330
59A
100
AcDbEntity
  8
0
100
AcDbBlockEnd
  0
BLOCK
  5
5B0
330
5A6
100
AcDbEntity
  8
0
100
AcDbBlockBegin
  2
*D15
 70
     1
 10
0.0
 20
0.0
 30
0.0
  3
*D15
  1

  0
LINE
  5
5F5
330
5A6
100
AcDbEntity
  8
AM_5
 62
     3
370
    -2
100
AcDbLine
 10
1459.358704788507
 20
1882.943626608881
 30
0.0
 11
1459.358704788507
 21
1671.594359967619
 31
0.0
  0
LINE
  5
5F6
330
5A6
100
AcDbEntity
  8
AM_5
 62
     3
370
    -2
100
AcDbLine
 10
1523.310122266651
 20
1792.938329878293
 30
0.0
 11
1523.310122266651
 21
1671.594359967619
 31
0.0
  0
LINE
  5
5F7
330
5A6
100
AcDbEntity
  8
AM_5
 62
     3
370
    -2
100
AcDbLine
 10
1484.358704788508
 20
1681.594359967619
 30
0.0
 11
1498.310122266651
 21
1681.594359967619
 31
0.0
  0
SOLID
  5
5F8
330
5A6
100
AcDbEntity
  8
AM_5
 62
     3
100
AcDbTrace
 10
1484.358704788508
 20
1685.761026634286
 30
0.0
 11
1484.358704788508
 21
1677.427693300952
 31
0.0
 12
1459.358704788507
 22
1681.594359967619
 32
0.0
 13
1459.358704788507
 23
1681.594359967619
 33
0.0
  0
SOLID
  5
5F9
330
5A6
100
AcDbEntity
  8
AM_5
 62
     3
100
AcDbTrace
 10
1498.310122266651
 20
1685.761026634286
 30
0.0
 11
1498.310122266651
 21
1677.427693300952
 31
0.0
 12
1523.310122266651
 22
1681.594359967619
 32
0.0
 13
1523.310122266651
 23
1681.594359967619
 33
0.0
  0
MTEXT
  5
5FA
330
5A6
100
AcDbEntity
  8
AM_5
 62
     2
100
AcDbMText
 10
1491.334413527579
 20
1705.094359967619
 30
0.0
 40
35.0
 41
0.0
 71
     5
 72
     1
  1
63
 73
     1
 44
1.0
1001
ACAD
1000
MTEXTBEGIN
1070
    73
1070
     1
1070
    44
1040
1.0
1070
    74
1070
     0
1000
MTEXTEND
  0
POINT
  5
5FB
330
5A6
100
AcDbEntity
  8
DEFPOINTS
 62
     0
100
AcDbPoint
 10
1459.358704788507
 20
1892.943626608881
 30
0.0
  0
POINT
  5
5FC
330
5A6
100
AcDbEntity
  8
DEFPOINTS
 62
     0
100
AcDbPoint
 10
1523.310122266651
 20
1802.938329878293
 30
0.0
  0
POINT
  5
5FD
330
5A6
100
AcDbEntity
  8
DEFPOINTS
 62
     0
100
AcDbPoint
 10
1523.310122266651
 20
1681.594359967619
 30
0.0
  0
ENDBLK
  5
5B1
330
5A6
100
AcDbEntity
  8
0
100
AcDbBlockEnd
  0
BLOCK
  5
5BE
330
5B2
100
AcDbEntity
  8
0
100
AcDbBlockBegin
  2
*D16
 70
     1
 10
0.0
 20
0.0
 30
0.0
  3
*D16
  1

  0
LINE
  5
5FE
330
5B2
100
AcDbEntity
  8
AM_5
 62
     3
370
    -2
100
AcDbLine
 10
1533.310122266694
 20
1892.943626608967
 30
0.0
 11
1584.279144571718
 21
1892.943626608967
 31
0.0
  0
LINE
  5
5FF
330
5B2
100
AcDbEntity
  8
AM_5
 62
     3
370
    -2
100
AcDbLine
 10
1534.983232920581
 20
1838.434491698731
 30
0.0
 11
1584.279144571718
 21
1838.43449169873
 31
0.0
  0
LINE
  5
600
330
5B2
100
AcDbEntity
  8
AM_5
 62
     3
370
    -2
100
AcDbLine
 10
1574.279144571718
 20
1917.943626608967
 30
0.0
 11
1574.279144571718
 21
1942.943626608967
 31
0.0
  0
LINE
  5
601
330
5B2
100
AcDbEntity
  8
AM_5
 62
     3
370
    -2
100
AcDbLine
 10
1574.279144571718
 20
1813.43449169873
 30
0.0
 11
1574.279144571718
 21
1788.43449169873
 31
0.0
  0
LINE
  5
602
330
5B2
100
AcDbEntity
  8
AM_5
 62
     3
370
    -2
100
AcDbLine
 10
1574.279144571718
 20
1892.943626608967
 30
0.0
 11
1574.279144571718
 21
1838.43449169873
 31
0.0
  0
SOLID
  5
603
330
5B2
100
AcDbEntity
  8
AM_5
 62
     3
100
AcDbTrace
 10
1570.112477905052
 20
1917.943626608967
 30
0.0
 11
1578.445811238385
 21
1917.943626608967
 31
0.0
 12
1574.279144571718
 22
1892.943626608967
 32
0.0
 13
1574.279144571718
 23
1892.943626608967
 33
0.0
  0
SOLID
  5
604
330
5B2
100
AcDbEntity
  8
AM_5
 62
     3
100
AcDbTrace
 10
1570.112477905052
 20
1813.43449169873
 30
0.0
 11
1578.445811238385
 21
1813.43449169873
 31
0.0
 12
1574.279144571718
 22
1838.43449169873
 32
0.0
 13
1574.279144571718
 23
1838.43449169873
 33
0.0
  0
MTEXT
  5
605
330
5B2
100
AcDbEntity
  8
AM_5
 62
     2
100
AcDbMText
 10
1550.779144571718
 20
1865.689059153849
 30
0.0
 40
35.0
 41
0.0
 71
     5
 72
     1
  1
56
 11
0.0000000000000001
 21
1.0
 31
0.0
 73
     1
 44
1.0
1001
ACAD
1000
MTEXTBEGIN
1070
    73
1070
     1
1070
    44
1040
1.0
1070
    74
1070
     0
1000
MTEXTEND
  0
POINT
  5
606
330
5B2
100
AcDbEntity
  8
DEFPOINTS
 62
     0
100
AcDbPoint
 10
1523.310122266694
 20
1892.943626608967
 30
0.0
  0
POINT
  5
607
330
5B2
100
AcDbEntity
  8
DEFPOINTS
 62
     0
100
AcDbPoint
 10
1524.983232920581
 20
1838.434491698731
 30
0.0
  0
POINT
  5
608
330
5B2
100
AcDbEntity
  8
DEFPOINTS
 62
     0
100
AcDbPoint
 10
1574.279144571718
 20
1838.43449169873
 30
0.0
  0
ENDBLK
  5
5BF
330
5B2
100
AcDbEntity
  8
0
100
AcDbBlockEnd
  0
BLOCK
  5
5CA
330
5C0
100
AcDbEntity
  8
0
100
AcDbBlockBegin
  2
*D17
 70
     1
 10
0.0
 20
0.0
 30
0.0
  3
*D17
  1

  0
LINE
  5
5C1
330
5C0
100
AcDbEntity
  8
AM_5
 62
     3
370
    -2
100
AcDbLine
 10
1389.358704788507
 20
2002.943626608882
 30
0.0
 11
1329.358703788507
 21
2002.943626608882
 31
0.0
  0
LINE
  5
5C2
330
5C0
100
AcDbEntity
  8
AM_5
 62
     3
370
    -2
100
AcDbLine
 10
1513.310122266651
 20
1802.938329878293
 30
0.0
 11
1329.358703788507
 21
1802.938329878293
 31
0.0
  0
LINE
  5
5C3
330
5C0
100
AcDbEntity
  8
AM_5
 62
     3
370
    -2
100
AcDbLine
 10
1339.358703788507
 20
1977.943626608882
 30
0.0
 11
1339.358703788507
 21
1827.938329878293
 31
0.0
  0
SOLID
  5
5C4
330
5C0
100
AcDbEntity
  8
AM_5
 62
     3
100
AcDbTrace
 10
1335.19203712184
 20
1977.943626608882
 30
0.0
 11
1343.525370455174
 21
1977.943626608882
 31
0.0
 12
1339.358703788507
 22
2002.943626608882
 32
0.0
 13
1339.358703788507
 23
2002.943626608882
 33
0.0
  0
SOLID
  5
5C5
330
5C0
100
AcDbEntity
  8
AM_5
 62
     3
100
AcDbTrace
 10
1335.19203712184
 20
1827.938329878293
 30
0.0
 11
1343.525370455174
 21
1827.938329878293
 31
0.0
 12
1339.358703788507
 22
1802.938329878293
 32
0.0
 13
1339.358703788507
 23
1802.938329878293
 33
0.0
  0
MTEXT
  5
5C6
330
5C0
100
AcDbEntity
  8
AM_5
 62
     2
100
AcDbMText
 10
1315.855258906617
 20
1902.940978243588
 30
0.0
 40
35.0
 41
0.0
 71
     5
 72
     1
  1
200
 11
0.0000000000000001
 21
1.0
 31
0.0
 73
     1
 44
1.0
1001
ACAD
1000
MTEXTBEGIN
1070
    73
1070
     1
1070
    44
1040
1.0
1070
    74
1070
     0
1000
MTEXTEND
  0
POINT
  5
5C7
330
5C0
100
AcDbEntity
  8
DEFPOINTS
 62
     0
100
AcDbPoint
 10
1399.358704788507
 20
2002.943626608882
 30
0.0
  0
POINT
  5
5C8
330
5C0
100
AcDbEntity
  8
DEFPOINTS
 62
     0
100
AcDbPoint
 10
1523.310122266651
 20
1802.938329878293
 30
0.0
  0
POINT
  5
5C9
330
5C0
100
AcDbEntity
  8
DEFPOINTS
 62
     0
100
AcDbPoint
 10
1339.358703788507
 20
1802.938329878293
 30
0.0
  0
ENDBLK
  5
5CB
330
5C0
100
AcDbEntity
  8
0
100
AcDbBlockEnd
  0
BLOCK
  5
5F3
330
5E7
100
AcDbEntity
  8
0
100
AcDbBlockBegin
  2
*D18
 70
     1
 10
0.0
 20
0.0
 30
0.0
  3
*D18
  1

  0
LINE
  5
5E8
330
5E7
100
AcDbEntity
  8
AM_5
 62
     3
370
    -2
100
AcDbLine
 10
1887.310122266651
 20
1802.938329878293
 30
0.0
 11
2007.310122266651
 21
1802.938329878293
 31
0.0
  0
LINE
  5
5E9
330
5E7
100
AcDbEntity
  8
AM_5
 62
     3
370
    -2
100
AcDbLine
 10
1880.310122266647
 20
1757.866901306862
 30
0.0
 11
2007.310122266651
 21
1757.866901306862
 31
0.0
  0
LINE
  5
5EA
330
5E7
100
AcDbEntity
  8
AM_5
 62
     3
370
    -2
100
AcDbLine
 10
1997.310122266651
 20
1827.938329878293
 30
0.0
 11
1997.310122266651
 21
1852.938329878293
 31
0.0
  0
LINE
  5
5EB
330
5E7
100
AcDbEntity
  8
AM_5
 62
     3
370
    -2
100
AcDbLine
 10
1997.310122266651
 20
1732.866901306862
 30
0.0
 11
1997.310122266651
 21
1652.417153838556
 31
0.0
  0
LINE
  5
5EC
330
5E7
100
AcDbEntity
  8
AM_5
 62
     3
370
    -2
100
AcDbLine
 10
1997.310122266651
 20
1802.938329878293
 30
0.0
 11
1997.310122266651
 21
1757.866901306862
 31
0.0
  0
SOLID
  5
5ED
330
5E7
100
AcDbEntity
  8
AM_5
 62
     3
100
AcDbTrace
 10
1993.143455599984
 20
1827.938329878293
 30
0.0
 11
2001.476788933318
 21
1827.938329878293
 31
0.0
 12
1997.310122266651
 22
1802.938329878293
 32
0.0
 13
1997.310122266651
 23
1802.938329878293
 33
0.0
  0
SOLID
  5
5EE
330
5E7
100
AcDbEntity
  8
AM_5
 62
     3
100
AcDbTrace
 10
1993.143455599984
 20
1732.866901306862
 30
0.0
 11
2001.476788933318
 21
1732.866901306862
 31
0.0
 12
1997.310122266651
 22
1757.866901306862
 32
0.0
 13
1997.310122266651
 23
1757.866901306862
 33
0.0
  0
MTEXT
  5
5EF
330
5E7
100
AcDbEntity
  8
AM_5
 62
     2
100
AcDbMText
 10
1973.81012226665
 20
1680.142027572709
 30
0.0
 40
35.0
 41
0.0
 71
     5
 72
     1
  1
45
 11
0.0000000000000001
 21
1.0
 31
0.0
 73
     1
 44
1.0
1001
ACAD
1000
MTEXTBEGIN
1070
    73
1070
     1
1070
    44
1040
1.0
1070
    74
1070
     0
1000
MTEXTEND
  0
POINT
  5
5F0
330
5E7
100
AcDbEntity
  8
DEFPOINTS
 62
     0
100
AcDbPoint
 10
1877.310122266651
 20
1802.938329878293
 30
0.0
  0
POINT
  5
5F1
330
5E7
100
AcDbEntity
  8
DEFPOINTS
 62
     0
100
AcDbPoint
 10
1870.310122266647
 20
1757.866901306862
 30
0.0
  0
POINT
  5
5F2
330
5E7
100
AcDbEntity
  8
DEFPOINTS
 62
     0
100
AcDbPoint
 10
1997.310122266651
 20
1757.866901306862
 30
0.0
  0
ENDBLK
  5
5F4
330
5E7
100
AcDbEntity
  8
0
100
AcDbBlockEnd
  0
BLOCK
  5
613
330
609
100
AcDbEntity
  8
0
100
AcDbBlockBegin
  2
*D19
 70
     1
 10
0.0
 20
0.0
 30
0.0
  3
*D19
  1

  0
LINE
  5
60A
330
609
100
AcDbEntity
  8
AM_5
 62
     3
370
    -2
100
AcDbLine
 10
1790.81012226668
 20
1717.866901306862
 30
0.0
 11
1790.81012226668
 21
1671.594359967619
 31
0.0
  0
LINE
  5
60B
330
609
100
AcDbEntity
  8
AM_5
 62
     3
370
    -2
100
AcDbLine
 10
1523.310122266651
 20
1792.938329878293
 30
0.0
 11
1523.310122266651
 21
1671.594359967619
 31
0.0
  0
LINE
  5
60C
330
609
100
AcDbEntity
  8
AM_5
 62
     3
370
    -2
100
AcDbLine
 10
1765.81012226668
 20
1681.594359967619
 30
0.0
 11
1548.310122266651
 21
1681.594359967619
 31
0.0
  0
SOLID
  5
60D
330
609
100
AcDbEntity
  8
AM_5
 62
     3
100
AcDbTrace
 10
1765.81012226668
 20
1685.761026634286
 30
0.0
 11
1765.81012226668
 21
1677.427693300952
 31
0.0
 12
1790.81012226668
 22
1681.594359967619
 32
0.0
 13
1790.81012226668
 23
1681.594359967619
 33
0.0
  0
SOLID
  5
60E
330
609
100
AcDbEntity
  8
AM_5
 62
     3
100
AcDbTrace
 10
1548.310122266651
 20
1685.761026634286
 30
0.0
 11
1548.310122266651
 21
1677.427693300952
 31
0.0
 12
1523.310122266651
 22
1681.594359967619
 32
0.0
 13
1523.310122266651
 23
1681.594359967619
 33
0.0
  0
MTEXT
  5
60F
330
609
100
AcDbEntity
  8
AM_5
 62
     2
100
AcDbMText
 10
1657.060122266665
 20
1705.097804849509
 30
0.0
 40
35.0
 41
0.0
 71
     5
 72
     1
  1
268
 73
     1
 44
1.0
1001
ACAD
1000
MTEXTBEGIN
1070
    73
1070
     1
1070
    44
1040
1.0
1070
    74
1070
     0
1000
MTEXTEND
  0
POINT
  5
610
330
609
100
AcDbEntity
  8
DEFPOINTS
 62
     0
100
AcDbPoint
 10
1790.81012226668
 20
1727.866901306862
 30
0.0
  0
POINT
  5
611
330
609
100
AcDbEntity
  8
DEFPOINTS
 62
     0
100
AcDbPoint
 10
1523.310122266651
 20
1802.938329878293
 30
0.0
  0
POINT
  5
612
330
609
100
AcDbEntity
  8
DEFPOINTS
 62
     0
100
AcDbPoint
 10
1523.310122266651
 20
1681.594359967619
 30
0.0
  0
ENDBLK
  5
614
330
609
100
AcDbEntity
  8
0
100
AcDbBlockEnd
  0
ENDSEC
  0
SECTION
  2
ENTITIES
  0
LINE
  5
489
330
1F
100
AcDbEntity
  8
AM_3
100
AcDbLine
 10
1699.88682763377
 20
1830.690954718623
 30
0.0
 11
1524.983232920581
 21
1838.434491698731
 31
0.0
  0
LINE
  5
48A
330
1F
100
AcDbEntity
  8
AM_3
100
AcDbLine
 10
1699.883998346441
 20
1828.689120825935
 30
0.0
 11
1524.894773229122
 21
1836.436448935677
 31
0.0
  0
LINE
  5
48B
330
1F
100
AcDbEntity
  8
AM_3
100
AcDbLine
 10
1874.873223463763
 20
1825.941792716195
 30
0.0
 11
1699.883998346441
 21
1828.689120825935
 31
0.0
  0
LINE
  5
48C
330
1F
100
AcDbEntity
  8
AM_3
100
AcDbLine
 10
1874.876052751092
 20
1827.943626608882
 30
0.0
 11
1699.88682763377
 21
1830.690954718623
 31
0.0
  0
LINE
  5
48D
330
1F
100
AcDbEntity
  8
0
100
AcDbLine
 10
1511.295988789649
 20
2162.938329878292
 30
0.0
 11
1873.295988789638
 21
2162.938329878292
 31
0.0
1001
ACAD
1000
ASC_BOUNDS
1002
{
1070
    19
1005
0
1005
0
1005
0
1005
0
1002
}
  0
LINE
  5
48E
330
1F
100
AcDbEntity
  8
0
100
AcDbLine
 10
1539.612813671682
 20
2172.938329878281
 30
0.0
 11
1508.295988789653
 21
2172.93832987828
 31
0.0
  0
LINE
  5
48F
330
1F
100
AcDbEntity
  8
0
100
AcDbLine
 10
1527.287403097299
 20
2182.938329878292
 30
0.0
 11
1700.295988789646
 21
2182.938329878295
 31
0.0
1001
ACAD
1000
ASC_BOUNDS
1002
{
1070
    19
1005
0
1005
0
1005
0
1002
}
  0
LINE
  5
490
330
1F
100
AcDbEntity
  8
0
100
AcDbLine
 10
1508.295988789649
 20
2172.938329878292
 30
0.0
 11
1883.295988789642
 21
2172.938329878292
 31
0.0
  0
LINE
  5
491
330
1F
100
AcDbEntity
  8
0
100
AcDbLine
 10
1508.295988789649
 20
2172.938329878292
 30
0.0
 11
1883.295988789638
 21
2172.938329878292
 31
0.0
  0
LINE
  5
492
330
1F
100
AcDbEntity
  8
0
100
AcDbLine
 10
1539.612813671682
 20
2172.938329878303
 30
0.0
 11
1508.295988789653
 21
2172.938329878305
 31
0.0
1001
ACAD
1000
ASC_BOUNDS
1002
{
1070
    19
1002
}
  0
LINE
  5
493
330
1F
100
AcDbEntity
  8
0
100
AcDbLine
 10
1527.075516348696
 20
2162.938329878303
 30
0.0
 11
1523.926243701807
 21
2107.943626608882
 31
0.0
1001
ACAD
1000
ASC_BOUNDS
1002
{
1070
    19
1002
}
  0
ARC
  5
494
330
1F
100
AcDbEntity
  8
0
100
AcDbCircle
 10
1511.295988789649
 20
2165.938329878303
 30
0.0
 40
3.0
100
AcDbArc
 50
180.0
 51
270.0
1001
ACAD
1000
ASC_BOUNDS
1002
{
1070
    19
1002
}
  0
LINE
  5
495
330
1F
100
AcDbEntity
  8
0
100
AcDbLine
 10
1508.295988789649
 20
2172.938329878305
 30
0.0
 11
1508.295988789649
 21
2165.938329878305
 31
0.0
1001
ACAD
1000
ASC_BOUNDS
1002
{
1070
    19
1002
}
  0
LINE
  5
496
330
1F
100
AcDbEntity
  8
0
100
AcDbLine
 10
1522.295988789649
 20
2172.938329878303
 30
0.0
 11
1517.795988789649
 21
2172.938329878303
 31
0.0
  0
ARC
  5
497
330
1F
100
AcDbEntity
  8
0
100
AcDbCircle
 10
1511.295988789649
 20
2179.938329878281
 30
0.0
 40
3.0
100
AcDbArc
 50
90.0
 51
180.0
  0
LINE
  5
498
330
1F
100
AcDbEntity
  8
0
100
AcDbLine
 10
1508.295988789653
 20
2172.93832987828
 30
0.0
 11
1508.295988789649
 21
2179.93832987828
 31
0.0
  0
LINE
  5
499
330
1F
100
AcDbEntity
  8
0
100
AcDbLine
 10
1522.295988789649
 20
2172.938329878281
 30
0.0
 11
1517.795988789649
 21
2172.938329878281
 31
0.0
  0
LINE
  5
49A
330
1F
100
AcDbEntity
  8
0
100
AcDbLine
 10
1527.295988789649
 20
2182.938329878282
 30
0.0
 11
1511.295988789649
 21
2182.938329878282
 31
0.0
  0
LINE
  5
49B
330
1F
100
AcDbEntity
  8
0
  6
Continuous
 62
     7
100
AcDbLine
 10
1910.524981170728
 20
2179.721563168641
 30
0.0
 11
1882.266165253909
 21
2098.955949721563
 31
0.0
  0
LINE
  5
49C
330
1F
100
AcDbEntity
  8
0
  6
Continuous
 62
     7
100
AcDbLine
 10
1912.514039132652
 20
2179.512641115936
 30
0.0
 11
1902.276858550102
 21
2082.048800981656
 31
0.0
  0
LINE
  5
49D
330
1F
100
AcDbEntity
  8
0
  6
Continuous
 62
     7
100
AcDbLine
 10
1910.524981170728
 20
2179.721563168641
 30
0.0
 11
1900.119814112177
 21
2080.65839527907
 31
0.0
  0
LINE
  5
49E
330
1F
100
AcDbEntity
  8
0
  6
Continuous
 62
     7
100
AcDbLine
 10
1886.428446364744
 20
2110.852031575996
 30
0.0
 11
1887.656587267162
 21
2122.544638501333
 31
0.0
  0
LINE
  5
49F
330
1F
100
AcDbEntity
  8
0
  6
Continuous
 62
     7
100
AcDbLine
 10
1902.276858550102
 20
2082.048800981656
 30
0.0
 11
1899.295988789642
 21
2080.127367078514
 31
0.0
  0
CIRCLE
  5
4A0
330
1F
100
AcDbEntity
  8
0
  6
Continuous
 62
     7
100
AcDbCircle
 10
1894.126091127861
 20
2092.231768547861
 30
0.0
 40
2.869338511451267
  0
LINE
  5
4A1
330
1F
100
AcDbEntity
  8
0
  6
Continuous
 62
     7
100
AcDbLine
 10
1899.295988789642
 20
2098.955949721563
 30
0.0
 11
1899.295988789642
 21
2079.557243417553
 31
0.0
  0
LINE
  5
4A2
330
1F
100
AcDbEntity
  8
0
  6
Continuous
 62
     7
100
AcDbLine
 10
1877.295988789642
 20
2098.955949721563
 30
0.0
 11
1877.295988789642
 21
2060.955949721563
 31
0.0
  0
LINE
  5
4A3
330
1F
100
AcDbEntity
  8
0
  6
Continuous
 62
     7
100
AcDbLine
 10
1899.295988789642
 20
2079.557243417553
 30
0.0
 11
1883.031639861804
 21
2060.955949721563
 31
0.0
  0
LINE
  5
4A4
330
1F
100
AcDbEntity
  8
0
  6
Continuous
 62
     7
100
AcDbLine
 10
1877.295988789642
 20
2060.955949721563
 30
0.0
 11
1883.031639861804
 21
2060.955949721563
 31
0.0
  0
LINE
  5
4A5
330
1F
100
AcDbEntity
  8
0
  6
Continuous
 62
     7
100
AcDbLine
 10
1899.295988789642
 20
2098.955949721563
 30
0.0
 11
1877.295988789642
 21
2098.955949721563
 31
0.0
  0
LINE
  5
4A6
330
1F
100
AcDbEntity
  8
0
  6
Continuous
 62
     7
100
AcDbLine
 10
1891.798439447872
 20
2126.199836198886
 30
0.0
 11
1895.081315335831
 21
2157.454700577245
 31
0.0
  0
LINE
  5
4A7
330
1F
100
AcDbEntity
  8
0
  6
Continuous
 62
     7
100
AcDbLine
 10
1900.551224731122
 20
2156.880164932307
 30
0.0
 11
1899.701053049098
 21
2148.78604211837
 31
0.0
  0
ARC
  5
4A8
330
1F
100
AcDbEntity
  8
0
  6
Continuous
 62
     7
100
AcDbCircle
 10
1892.773788161717
 20
2178.563983416792
 30
0.0
 40
5.5
100
AcDbArc
 50
354.0038851199492
 51
127.3688441849454
  0
ARC
  5
4A9
330
1F
100
AcDbEntity
  8
0
  6
Continuous
 62
     7
100
AcDbCircle
 10
1892.773788161717
 20
2178.563983416792
 30
0.0
 40
6.5
100
AcDbArc
 50
354.0038851199492
 51
137.7027991340113
  0
LINE
  5
4AA
330
1F
100
AcDbEntity
  8
0
  6
Continuous
 62
     7
100
AcDbLine
 10
1895.081315335831
 20
2157.454700577245
 30
0.0
 11
1895.578579826312
 21
2157.40247006407
 31
0.0
  0
ARC
  5
4AB
330
1F
100
AcDbEntity
  8
0
  6
Continuous
 62
     7
100
AcDbCircle
 10
1895.735271365839
 20
2158.894263535514
 30
0.0
 40
1.5
100
AcDbArc
 50
264.0038851199492
 51
354.0038851199492
  0
ARC
  5
4AC
330
1F
100
AcDbEntity
  8
0
  6
Continuous
 62
     7
100
AcDbCircle
 10
1900.707916270649
 20
2158.37195840375
 30
0.0
 40
1.5
100
AcDbArc
 50
174.0038851199491
 51
264.0038851199492
  0
LINE
  5
4AD
330
1F
100
AcDbEntity
  8
0
  6
Continuous
 62
     7
100
AcDbLine
 10
1896.23253585632
 20
2158.842033022336
 30
0.0
 11
1897.227064837282
 21
2158.737571995984
 31
0.0
  0
LINE
  5
4AE
330
1F
100
AcDbEntity
  8
0
  6
Continuous
 62
     7
100
AcDbLine
 10
1901.14865178673
 20
2176.927436091077
 30
0.0
 11
1900.154122805767
 21
2177.03189711743
 31
0.0
  0
LINE
  5
4AF
330
1F
100
AcDbEntity
  8
0
  6
Continuous
 62
     7
100
AcDbLine
 10
1899.159593824806
 20
2177.136358143782
 30
0.0
 11
1900.154122805767
 21
2177.03189711743
 31
0.0
  0
LINE
  5
4B0
330
1F
100
AcDbEntity
  8
0
  6
Continuous
 62
     7
100
AcDbLine
 10
1899.216122799206
 20
2158.528649943279
 30
0.0
 11
1901.14865178673
 21
2176.927436091077
 31
0.0
  0
LINE
  5
4B1
330
1F
100
AcDbEntity
  8
0
  6
Continuous
 62
     7
100
AcDbLine
 10
1897.227064837282
 20
2158.737571995984
 30
0.0
 11
1899.23822653797
 21
2177.884986745501
 31
0.0
  0
LINE
  5
4B2
330
1F
100
AcDbEntity
  8
0
  6
Continuous
 62
     7
100
AcDbLine
 10
1896.23253585632
 20
2158.842033022336
 30
0.0
 11
1898.243697557008
 21
2177.989447771853
 31
0.0
  0
LINE
  5
4B3
330
1F
100
AcDbEntity
  8
0
100
AcDbLine
 10
1912.514039132652
 20
2179.512641115936
 30
0.0
 11
1910.524981170728
 21
2179.721563168641
 31
0.0
  0
LINE
  5
4B4
330
1F
100
AcDbEntity
  8
0
  6
Continuous
 62
     7
100
AcDbLine
 10
1887.656587267162
 20
2122.544638501333
 30
0.0
 11
1890.418048954324
 21
2122.254586499233
 31
0.0
  0
LINE
  5
4B5
330
1F
100
AcDbEntity
  8
0
100
AcDbLine
 10
1860.979163907609
 20
2172.938329878292
 30
0.0
 11
1892.295988789638
 21
2172.938329878292
 31
0.0
1001
ACAD
1000
ASC_BOUNDS
1002
{
1070
    19
1002
}
  0
LINE
  5
4B6
330
1F
100
AcDbEntity
  8
4
100
AcDbLine
 10
1557.755142151602
 20
2103.039251098963
 30
0.0
 11
1842.836835427696
 21
2103.035726635989
 31
0.0
  0
LINE
  5
4B7
330
1F
100
AcDbEntity
  8
0
100
AcDbLine
 10
1873.516461230588
 20
2162.938329878292
 30
0.0
 11
1877.289626224842
 21
2103.039335594482
 31
0.0
1001
ACAD
1000
ASC_BOUNDS
1002
{
1070
    19
1002
}
  0
LINE
  5
4B8
330
1F
100
AcDbEntity
  8
0
100
AcDbLine
 10
1873.295988789638
 20
2162.938329878292
 30
0.0
 11
1889.295988789638
 21
2162.938329878292
 31
0.0
1001
ACAD
1000
ASC_BOUNDS
1002
{
1070
    19
1005
0
1002
}
  0
LINE
  5
4B9
330
1F
100
AcDbEntity
  8
0
100
AcDbLine
 10
1878.295988789642
 20
2172.938329878292
 30
0.0
 11
1882.795988789642
 21
2172.938329878292
 31
0.0
  0
LINE
  5
4BA
330
1F
100
AcDbEntity
  8
0
100
AcDbLine
 10
1892.295988789638
 20
2172.938329878292
 30
0.0
 11
1892.295988789638
 21
2165.938329878292
 31
0.0
1001
ACAD
1000
ASC_BOUNDS
1002
{
1070
    19
1002
}
  0
ARC
  5
4BB
330
1F
100
AcDbEntity
  8
0
100
AcDbCircle
 10
1889.295988789638
 20
2165.938329878292
 30
0.0
 40
3.0
100
AcDbArc
 50
270.0
 51
0.0
1001
ACAD
1000
ASC_BOUNDS
1002
{
1070
    19
1002
}
  0
LINE
  5
4BC
330
1F
100
AcDbEntity
  8
0
100
AcDbLine
 10
1860.979163907609
 20
2172.938329878292
 30
0.0
 11
1892.295988789638
 21
2172.938329878292
 31
0.0
  0
LINE
  5
4BD
330
1F
100
AcDbEntity
  8
0
100
AcDbLine
 10
1700.310122266651
 20
2182.938329878293
 30
0.0
 11
1873.295988789638
 21
2182.938329878292
 31
0.0
1001
ACAD
1000
ASC_BOUNDS
1002
{
1070
    19
1005
0
1005
0
1005
0
1002
}
  0
ARC
  5
4BE
330
1F
100
AcDbEntity
  8
0
100
AcDbCircle
 10
1700.295988789649
 20
2203.438329878292
 30
0.0
 40
24.99999999999955
100
AcDbArc
 50
304.9152062475804
 51
235.0847937524196
  0
LINE
  5
4BF
330
1F
100
AcDbEntity
  8
0
100
AcDbLine
 10
1892.295988789642
 20
2172.938329878292
 30
0.0
 11
1892.295988789642
 21
2179.938329878293
 31
0.0
  0
ARC
  5
4C0
330
1F
100
AcDbEntity
  8
0
100
AcDbCircle
 10
1889.295988789642
 20
2179.938329878293
 30
0.0
 40
3.0
100
AcDbArc
 50
0.0
 51
90.0
  0
LINE
  5
4C1
330
1F
100
AcDbEntity
  8
0
100
AcDbLine
 10
1878.295988789642
 20
2172.938329878292
 30
0.0
 11
1882.795988789642
 21
2172.938329878292
 31
0.0
  0
LINE
  5
4C2
330
1F
100
AcDbEntity
  8
0
100
AcDbLine
 10
1873.295988789642
 20
2182.938329878292
 30
0.0
 11
1889.295988789642
 21
2182.938329878292
 31
0.0
  0
ARC
  5
4C3
330
1F
100
AcDbEntity
  8
0
100
AcDbCircle
 10
1699.358704788507
 20
1172.36994512802
 30
0.0
 40
186.5
100
AcDbArc
 50
47.99265495469237
 51
131.845387436638
  0
ARC
  5
4C4
330
1F
100
AcDbEntity
  8
0
100
AcDbCircle
 10
1699.358704788507
 20
1172.36994512802
 30
0.0
 40
186.5
100
AcDbArc
 50
227.9926549546924
 51
311.845387436638
  0
POLYLINE
  5
4C5
330
1F
100
AcDbEntity
  8
0
100
AcDb2dPolyline
 66
     1
 10
0.0
 20
0.0
 30
0.0
  0
VERTEX
  5
4C6
330
4C5
100
AcDbEntity
  8
0
100
AcDbVertex
100
AcDb2dVertex
 10
1828.626927630247
 20
1328.811552647686
 30
0.0
  0
VERTEX
  5
4C7
330
4C5
100
AcDbEntity
  8
0
100
AcDbVertex
100
AcDb2dVertex
 10
1816.927440287934
 20
1317.145089517744
 30
0.0
  0
SEQEND
  5
4C8
330
4C5
100
AcDbEntity
  8
0
  0
POLYLINE
  5
4C9
330
1F
100
AcDbEntity
  8
0
100
AcDb2dPolyline
 66
     1
 10
0.0
 20
0.0
 30
0.0
  0
VERTEX
  5
4CA
330
4C9
100
AcDbEntity
  8
0
100
AcDbVertex
100
AcDb2dVertex
 10
1844.46560112779
 20
1289.528976511779
 30
0.0
  0
VERTEX
  5
4CB
330
4C9
100
AcDbEntity
  8
0
100
AcDbVertex
100
AcDb2dVertex
 10
1856.165088470104
 20
1301.195439641722
 30
0.0
  0
VERTEX
  5
4CC
330
4C9
100
AcDbEntity
  8
0
100
AcDbVertex
100
AcDb2dVertex
 10
1828.626927630247
 20
1328.811552647686
 30
0.0
  0
SEQEND
  5
4CD
330
4C9
100
AcDbEntity
  8
0
  0
ARC
  5
4CE
330
1F
100
AcDbEntity
  8
0
100
AcDbCircle
 10
1699.358704788507
 20
1172.36994512802
 30
0.0
 40
186.5
100
AcDbArc
 50
317.9926549545999
 51
41.84538743682686
  0
POLYLINE
  5
4CF
330
1F
100
AcDbEntity
  8
0
100
AcDb2dPolyline
 66
     1
 10
0.0
 20
0.0
 30
0.0
 70
     1
  0
VERTEX
  5
4D0
330
4CF
100
AcDbEntity
  8
0
100
AcDbVertex
100
AcDb2dVertex
 10
1817.632304625876
 20
1304.431883556582
 30
0.0
  0
VERTEX
  5
4D1
330
4CF
100
AcDbEntity
  8
0
100
AcDbVertex
100
AcDb2dVertex
 10
1826.837675627866
 20
1313.611270503201
 30
0.0
  0
VERTEX
  5
4D2
330
4CF
100
AcDbEntity
  8
0
100
AcDbVertex
100
AcDb2dVertex
 10
1840.959809391889
 20
1299.449161269372
 30
0.0
  0
VERTEX
  5
4D3
330
4CF
100
AcDbEntity
  8
0
100
AcDbVertex
100
AcDb2dVertex
 10
1831.754438389903
 20
1290.269774322754
 30
0.0
  0
SEQEND
  5
4D4
330
4CF
100
AcDbEntity
  8
0
  0
POLYLINE
  5
4D5
330
1F
100
AcDbEntity
  8
0
100
AcDb2dPolyline
 66
     1
 10
0.0
 20
0.0
 30
0.0
 70
     1
  0
VERTEX
  5
4D6
330
4D5
100
AcDbEntity
  8
0
100
AcDbVertex
100
AcDb2dVertex
 10
1567.296766359944
 20
1290.643544965391
 30
0.0
  0
VERTEX
  5
4D7
330
4D5
100
AcDbEntity
  8
0
100
AcDbVertex
100
AcDb2dVertex
 10
1558.117379413327
 20
1299.848915967379
 30
0.0
  0
VERTEX
  5
4D8
330
4D5
100
AcDbEntity
  8
0
100
AcDbVertex
100
AcDb2dVertex
 10
1572.279488647155
 20
1313.971049731402
 30
0.0
  0
VERTEX
  5
4D9
330
4D5
100
AcDbEntity
  8
0
100
AcDbVertex
100
AcDb2dVertex
 10
1581.458875593772
 20
1304.765678729418
 30
0.0
  0
SEQEND
  5
4DA
330
4D5
100
AcDbEntity
  8
0
  0
POLYLINE
  5
4DB
330
1F
100
AcDbEntity
  8
0
100
AcDb2dPolyline
 66
     1
 10
0.0
 20
0.0
 30
0.0
  0
VERTEX
  5
4DC
330
4DB
100
AcDbEntity
  8
0
100
AcDbVertex
100
AcDb2dVertex
 10
1582.199673404749
 20
1317.476841467303
 30
0.0
  0
VERTEX
  5
4DD
330
4DB
100
AcDbEntity
  8
0
100
AcDbVertex
100
AcDb2dVertex
 10
1570.533210274806
 20
1329.176328809617
 30
0.0
  0
VERTEX
  5
4DE
330
4DB
100
AcDbEntity
  8
0
100
AcDbVertex
100
AcDb2dVertex
 10
1542.91709726884
 20
1301.638167969762
 30
0.0
  0
SEQEND
  5
4DF
330
4DB
100
AcDbEntity
  8
0
  0
POLYLINE
  5
4E0
330
1F
100
AcDbEntity
  8
0
100
AcDb2dPolyline
 66
     1
 10
0.0
 20
0.0
 30
0.0
  0
VERTEX
  5
4E1
330
4E0
100
AcDbEntity
  8
0
100
AcDbVertex
100
AcDb2dVertex
 10
1542.91709726884
 20
1301.638167969762
 30
0.0
  0
VERTEX
  5
4E2
330
4E0
100
AcDbEntity
  8
0
100
AcDbVertex
100
AcDb2dVertex
 10
1554.583560398782
 20
1289.938680627448
 30
0.0
  0
SEQEND
  5
4E3
330
4E0
100
AcDbEntity
  8
0
  0
POLYLINE
  5
4E4
330
1F
100
AcDbEntity
  8
0
100
AcDb2dPolyline
 66
     1
 10
0.0
 20
0.0
 30
0.0
 70
     1
  0
VERTEX
  5
4E5
330
4E4
100
AcDbEntity
  8
0
100
AcDbVertex
100
AcDb2dVertex
 10
1581.085104951136
 20
1040.308006699458
 30
0.0
  0
VERTEX
  5
4E6
330
4E4
100
AcDbEntity
  8
0
100
AcDbVertex
100
AcDb2dVertex
 10
1571.879733949149
 20
1031.12861975284
 30
0.0
  0
VERTEX
  5
4E7
330
4E4
100
AcDbEntity
  8
0
100
AcDbVertex
100
AcDb2dVertex
 10
1557.757600185126
 20
1045.290728986668
 30
0.0
  0
VERTEX
  5
4E8
330
4E4
100
AcDbEntity
  8
0
100
AcDbVertex
100
AcDb2dVertex
 10
1566.962971187108
 20
1054.470115933287
 30
0.0
  0
SEQEND
  5
4E9
330
4E4
100
AcDbEntity
  8
0
  0
POLYLINE
  5
4EA
330
1F
100
AcDbEntity
  8
0
100
AcDb2dPolyline
 66
     1
 10
0.0
 20
0.0
 30
0.0
  0
VERTEX
  5
4EB
330
4EA
100
AcDbEntity
  8
0
100
AcDbVertex
100
AcDb2dVertex
 10
1554.251808449225
 20
1055.210913744262
 30
0.0
  0
VERTEX
  5
4EC
330
4EA
100
AcDbEntity
  8
0
100
AcDbVertex
100
AcDb2dVertex
 10
1542.552321106911
 20
1043.544450614319
 30
0.0
  0
VERTEX
  5
4ED
330
4EA
100
AcDbEntity
  8
0
100
AcDbVertex
100
AcDb2dVertex
 10
1570.090481946764
 20
1015.928337608354
 30
0.0
  0
SEQEND
  5
4EE
330
4EA
100
AcDbEntity
  8
0
  0
POLYLINE
  5
4EF
330
1F
100
AcDbEntity
  8
0
100
AcDb2dPolyline
 66
     1
 10
0.0
 20
0.0
 30
0.0
  0
VERTEX
  5
4F0
330
4EF
100
AcDbEntity
  8
0
100
AcDbVertex
100
AcDb2dVertex
 10
1570.090481946764
 20
1015.928337608354
 30
0.0
  0
VERTEX
  5
4F1
330
4EF
100
AcDbEntity
  8
0
100
AcDbVertex
100
AcDb2dVertex
 10
1581.789969289078
 20
1027.594800738297
 30
0.0
  0
SEQEND
  5
4F2
330
4EF
100
AcDbEntity
  8
0
  0
POLYLINE
  5
4F3
330
1F
100
AcDbEntity
  8
0
100
AcDb2dPolyline
 66
     1
 10
0.0
 20
0.0
 30
0.0
  0
VERTEX
  5
4F4
330
4F3
100
AcDbEntity
  8
0
100
AcDbVertex
100
AcDb2dVertex
 10
1816.517736172266
 20
1027.263048788738
 30
0.0
  0
VERTEX
  5
4F5
330
4F3
100
AcDbEntity
  8
0
100
AcDbVertex
100
AcDb2dVertex
 10
1828.184199302209
 20
1015.563561446424
 30
0.0
  0
VERTEX
  5
4F6
330
4F3
100
AcDbEntity
  8
0
100
AcDbVertex
100
AcDb2dVertex
 10
1855.800312308172
 20
1043.101722286279
 30
0.0
  0
SEQEND
  5
4F7
330
4F3
100
AcDbEntity
  8
0
  0
POLYLINE
  5
4F8
330
1F
100
AcDbEntity
  8
0
100
AcDb2dPolyline
 66
     1
 10
0.0
 20
0.0
 30
0.0
  0
VERTEX
  5
4F9
330
4F8
100
AcDbEntity
  8
0
100
AcDbVertex
100
AcDb2dVertex
 10
1855.800312308172
 20
1043.101722286279
 30
0.0
  0
VERTEX
  5
4FA
330
4F8
100
AcDbEntity
  8
0
100
AcDbVertex
100
AcDb2dVertex
 10
1844.133849178229
 20
1054.801209628593
 30
0.0
  0
SEQEND
  5
4FB
330
4F8
100
AcDbEntity
  8
0
  0
POLYLINE
  5
4FC
330
1F
100
AcDbEntity
  8
0
100
AcDb2dPolyline
 66
     1
 10
0.0
 20
0.0
 30
0.0
  0
VERTEX
  5
4FD
330
4FC
100
AcDbEntity
  8
0
100
AcDbVertex
100
AcDb2dVertex
 10
1831.420643217068
 20
1054.09634529065
 30
0.0
  0
VERTEX
  5
4FE
330
4FC
100
AcDbEntity
  8
0
100
AcDbVertex
100
AcDb2dVertex
 10
1840.600030163687
 20
1044.890974288659
 30
0.0
  0
SEQEND
  5
4FF
330
4FC
100
AcDbEntity
  8
0
  0
POLYLINE
  5
500
330
1F
100
AcDbEntity
  8
0
100
AcDb2dPolyline
 66
     1
 10
0.0
 20
0.0
 30
0.0
  0
VERTEX
  5
501
330
500
100
AcDbEntity
  8
0
100
AcDbVertex
100
AcDb2dVertex
 10
1826.437920929859
 20
1030.768840524639
 30
0.0
  0
VERTEX
  5
502
330
500
100
AcDbEntity
  8
0
100
AcDbVertex
100
AcDb2dVertex
 10
1817.258533983239
 20
1039.974211526623
 30
0.0
  0
VERTEX
  5
503
330
500
100
AcDbEntity
  8
0
100
AcDbVertex
100
AcDb2dVertex
 10
1831.420643217068
 20
1054.09634529065
 30
0.0
  0
SEQEND
  5
504
330
500
100
AcDbEntity
  8
0
  0
ARC
  5
505
330
1F
100
AcDbEntity
  8
0
100
AcDbCircle
 10
1699.358704788507
 20
1172.36994512802
 30
0.0
 40
186.5
100
AcDbArc
 50
137.9926549545999
 51
221.8453874368269
  0
LINE
  5
506
330
1F
100
AcDbEntity
  8
0
100
AcDbLine
 10
1826.437920929859
 20
1030.768840524631
 30
0.0
 11
1840.600030163687
 21
1044.890974288659
 31
0.0
  0
LINE
  5
507
330
1F
100
AcDbEntity
  8
0
100
AcDbLine
 10
1523.310122266651
 20
1802.938329878293
 30
0.0
 11
1877.310122266651
 21
1802.938329878293
 31
0.0
  0
LINE
  5
508
330
1F
100
AcDbEntity
  8
0
100
AcDbLine
 10
1877.310122266651
 20
1802.938329878293
 30
0.0
 11
1877.289631016373
 21
2102.978535111766
 31
0.0
  0
LINE
  5
509
330
1F
100
AcDbEntity
  8
0
100
AcDbLine
 10
1877.294756249851
 20
2037.943626608882
 30
0.0
 11
1877.289631016373
 21
2102.978535111766
 31
0.0
  0
LINE
  5
50A
102
{ACAD_REACTORS
330
516
102
}
330
1F
100
AcDbEntity
  8
0
100
AcDbLine
 10
1523.310122266651
 20
1802.938329878293
 30
0.0
 11
1523.310122266651
 21
1897.943626608883
 31
0.0
  0
LINE
  5
50B
330
1F
100
AcDbEntity
  8
0
100
AcDbLine
 10
1459.358704788507
 20
1277.36994512802
 30
0.0
 11
1545.224834403051
 21
1277.36994512802
 31
0.0
  0
LINE
  5
50C
330
1F
100
AcDbEntity
  8
0
100
AcDbLine
 10
1459.358704788507
 20
1067.36994512802
 30
0.0
 11
1545.224834403051
 21
1067.369945128021
 31
0.0
  0
CIRCLE
  5
50D
330
1F
100
AcDbEntity
  8
0
100
AcDbCircle
 10
1699.358704788507
 20
1172.36994512802
 30
0.0
 40
25.0
  0
LINE
  5
50E
330
1F
100
AcDbEntity
  8
0
100
AcDbLine
 10
1459.358704788507
 20
2002.943626608882
 30
0.0
 11
1459.358704788507
 21
1897.943626608882
 31
0.0
  0
LINE
  5
50F
330
1F
100
AcDbEntity
  8
0
100
AcDbLine
 10
1459.358704788507
 20
2107.943626608882
 30
0.0
 11
1523.926243701807
 21
2107.943626608882
 31
0.0
  0
LINE
  5
510
330
1F
100
AcDbEntity
  8
0
100
AcDbLine
 10
1459.358704788507
 20
1897.943626608881
 30
0.0
 11
1523.310122266651
 21
1897.943626608881
 31
0.0
  0
LINE
  5
511
102
{ACAD_REACTORS
330
516
102
}
330
1F
100
AcDbEntity
  8
AM_7
  6
AM_DIN_G_W050x2
100
AcDbLine
 10
1399.358704788507
 20
2002.943626608882
 30
0.0
 11
1583.310122266651
 21
2002.943626608882
 31
0.0
1001
GENIUS_GENODEF_13
1002
{
1000
HIER
1070
     0
1002
}
1002
{
1000
MANEDIT
1070
     0
1002
}
1002
{
1000
NOSEL
1070
     0
1002
}
1002
{
1000
BEHIND
1070
     0
1002
}
1002
{
1000
OTHER
1070
     0
1002
}
1002
{
1000
REACTOR
1002
}
1001
GENIUS_GENOBJ-N-CEN_13
1002
{
1000
OWNER
1000
GEN
1002
}
1001
GENIUS_GENCEN_19
1002
{
1040
60.0
1002
}
  0
CIRCLE
  5
512
330
1F
100
AcDbEntity
  8
0
100
AcDbCircle
 10
1699.344571311506
 20
1172.36994512802
 30
0.0
 40
177.0141334770014
  0
ARC
  5
513
330
1F
100
AcDbEntity
  8
0
100
AcDbCircle
 10
1259.364652423071
 20
2003.718923106464
 30
0.0
 40
284.3512342158999
100
AcDbArc
 50
338.1617144941928
 51
21.50208496663354
  0
DIMENSION
  5
514
102
{ACAD_XDICTIONARY
360
515
102
}
102
{ACAD_REACTORS
330
516
102
}
330
1F
100
AcDbEntity
  8
AM_5
100
AcDbDimension
  2
*D17
 10
1339.358703788507
 20
1802.938329878293
 30
0.0
 11
1315.855258906617
 21
1902.940978243588
 31
0.0
 70
    32
 71
     5
 42
200.0052967305894
  3
GEN-ISO$0
100
AcDbAlignedDimension
 13
1399.358704788507
 23
2002.943626608882
 33
0.0
 14
1523.310122266651
 24
1802.938329878293
 34
0.0
 50
90.0
100
AcDbRotatedDimension
1001
ACAD
1000
DSTYLE
1002
{
1070
   271
1070
     0
1002
}
  0
DIMENSION
  5
517
330
1F
100
AcDbEntity
  8
AM_5
100
AcDbDimension
  2
*D12
 10
2081.324711189626
 20
2182.938329878292
 30
0.0
 11
2057.824711189626
 21
1992.938329878293
 31
0.0
 70
    32
 71
     5
 42
379.9999999999993
  3
GEN-ISO$0
100
AcDbAlignedDimension
 13
1877.310122266651
 23
1802.938329878293
 33
0.0
 14
1873.295988789638
 24
2182.938329878292
 34
0.0
 50
90.0
100
AcDbRotatedDimension
1001
ACAD
1000
DSTYLE
1002
{
1070
   271
1070
     0
1002
}
  0
LINE
  5
518
330
1F
100
AcDbEntity
  8
AM_4
100
AcDbLine
 10
1394.358704788493
 20
2109.061587817601
 30
0.0
 11
1394.358704788493
 21
1896.825665399882
 31
0.0
  0
LINE
  5
519
330
1F
100
AcDbEntity
  8
AM_4
100
AcDbLine
 10
1449.358704788493
 20
1892.943626608881
 30
0.0
 11
1449.358704788522
 21
2112.943626608883
 31
0.0
  0
LINE
  5
51A
330
1F
100
AcDbEntity
  8
AM_4
100
AcDbLine
 10
1394.358704788493
 20
1896.825665399882
 30
0.0
 11
1394.358704788493
 21
1892.943626608939
 31
0.0
  0
LINE
  5
51B
330
1F
100
AcDbEntity
  8
AM_4
100
AcDbLine
 10
1394.358704788493
 20
1892.943626608946
 30
0.0
 11
1449.358704788493
 21
1892.943626608881
 31
0.0
  0
LINE
  5
51C
330
1F
100
AcDbEntity
  8
AM_4
100
AcDbLine
 10
1394.358704788493
 20
2134.200552514935
 30
0.0
 11
1394.358704788493
 21
2109.061587817601
 31
0.0
  0
LWPOLYLINE
  5
51D
330
1F
100
AcDbEntity
  8
AM_4
100
AcDbPolyline
 90
        6
 70
     1
 43
0.0
 10
1408.111481538223
 20
2117.072089561907
 10
1411.864258287957
 20
2123.572089561907
 10
1408.111481538223
 20
2130.072089561907
 10
1400.605928038759
 20
2130.072089561907
 10
1396.853151289025
 20
2123.572089561907
 10
1400.605928038763
 20
2117.072089561907
  0
CIRCLE
  5
51E
330
1F
100
AcDbEntity
  8
AM_4
100
AcDbCircle
 10
1404.358704788493
 20
2123.572089561907
 30
0.0
 40
6.5
  0
LWPOLYLINE
  5
51F
330
1F
100
AcDbEntity
  8
AM_4
100
AcDbPolyline
 90
        6
 70
     1
 43
0.0
 10
1443.111481538223
 20
2117.072089561849
 10
1446.864258287957
 20
2123.572089561849
 10
1443.111481538223
 20
2130.072089561849
 10
1435.605928038759
 20
2130.072089561849
 10
1431.853151289025
 20
2123.572089561849
 10
1435.605928038762
 20
2117.072089561849
  0
CIRCLE
  5
520
330
1F
100
AcDbEntity
  8
AM_4
100
AcDbCircle
 10
1439.358704788493
 20
2123.572089561849
 30
0.0
 40
6.5
  0
LINE
  5
521
330
1F
100
AcDbEntity
  8
AM_4
100
AcDbLine
 10
1394.358704788493
 20
2112.943626608822
 30
0.0
 11
1449.358704788493
 21
2112.943626608879
 31
0.0
  0
LINE
  5
522
330
1F
100
AcDbEntity
  8
AM_4
100
AcDbLine
 10
1449.358704788493
 20
2134.200552514935
 30
0.0
 11
1394.358704788493
 21
2134.200552514935
 31
0.0
  0
LINE
  5
523
330
1F
100
AcDbEntity
  8
AM_4
100
AcDbLine
 10
1449.358704788493
 20
2112.943626608879
 30
0.0
 11
1449.358704788464
 21
2134.200552514935
 31
0.0
  0
LINE
  5
524
330
1F
100
AcDbEntity
  8
0
100
AcDbLine
 10
1459.358704788507
 20
2107.943626608882
 30
0.0
 11
1459.358704788507
 21
2002.943626608882
 31
0.0
  0
LINE
  5
525
330
1F
100
AcDbEntity
  8
0
100
AcDbLine
 10
1459.358704788507
 20
1172.36994512802
 30
0.0
 11
1459.358704788507
 21
1067.36994512802
 31
0.0
  0
LINE
  5
526
330
1F
100
AcDbEntity
  8
AM_4
100
AcDbLine
 10
1394.358704788493
 20
1278.48790633674
 30
0.0
 11
1394.358704788493
 21
1066.251983919021
 31
0.0
  0
LINE
  5
527
330
1F
100
AcDbEntity
  8
AM_4
100
AcDbLine
 10
1449.358704788493
 20
1062.369945128019
 30
0.0
 11
1449.358704788522
 21
1282.369945128022
 31
0.0
  0
LINE
  5
528
330
1F
100
AcDbEntity
  8
AM_4
100
AcDbLine
 10
1394.358704788493
 20
1066.251983919021
 30
0.0
 11
1394.358704788493
 21
1062.369945128077
 31
0.0
  0
LINE
  5
529
330
1F
100
AcDbEntity
  8
AM_4
100
AcDbLine
 10
1394.358704788493
 20
1062.369945128085
 30
0.0
 11
1449.358704788493
 21
1062.369945128019
 31
0.0
  0
LINE
  5
52A
330
1F
100
AcDbEntity
  8
AM_4
100
AcDbLine
 10
1394.358704788493
 20
1303.626871034073
 30
0.0
 11
1394.358704788493
 21
1278.48790633674
 31
0.0
  0
LWPOLYLINE
  5
52B
330
1F
100
AcDbEntity
  8
AM_4
100
AcDbPolyline
 90
        6
 70
     1
 43
0.0
 10
1408.111481538223
 20
1286.498408081045
 10
1411.864258287957
 20
1292.998408081045
 10
1408.111481538223
 20
1299.498408081046
 10
1400.605928038759
 20
1299.498408081046
 10
1396.853151289025
 20
1292.998408081045
 10
1400.605928038763
 20
1286.498408081045
  0
CIRCLE
  5
52C
330
1F
100
AcDbEntity
  8
AM_4
100
AcDbCircle
 10
1404.358704788493
 20
1292.998408081045
 30
0.0
 40
6.5
  0
LWPOLYLINE
  5
52D
330
1F
100
AcDbEntity
  8
AM_4
100
AcDbPolyline
 90
        6
 70
     1
 43
0.0
 10
1443.111481538223
 20
1286.498408080987
 10
1446.864258287957
 20
1292.998408080987
 10
1443.111481538223
 20
1299.498408080987
 10
1435.605928038759
 20
1299.498408080987
 10
1431.853151289025
 20
1292.998408080987
 10
1435.605928038762
 20
1286.498408080987
  0
CIRCLE
  5
52E
330
1F
100
AcDbEntity
  8
AM_4
100
AcDbCircle
 10
1439.358704788493
 20
1292.998408080987
 30
0.0
 40
6.5
  0
LINE
  5
52F
330
1F
100
AcDbEntity
  8
AM_4
100
AcDbLine
 10
1394.358704788493
 20
1282.36994512796
 30
0.0
 11
1449.358704788493
 21
1282.369945128018
 31
0.0
  0
LINE
  5
530
330
1F
100
AcDbEntity
  8
AM_4
100
AcDbLine
 10
1449.358704788493
 20
1303.626871034073
 30
0.0
 11
1394.358704788493
 21
1303.626871034073
 31
0.0
  0
LINE
  5
531
330
1F
100
AcDbEntity
  8
AM_4
100
AcDbLine
 10
1449.358704788493
 20
1282.369945128018
 30
0.0
 11
1449.358704788464
 21
1303.626871034073
 31
0.0
  0
LINE
  5
532
330
1F
100
AcDbEntity
  8
0
100
AcDbLine
 10
1459.358704788507
 20
1277.36994512802
 30
0.0
 11
1459.358704788507
 21
1172.36994512802
 31
0.0
  0
LINE
  5
533
330
1F
100
AcDbEntity
  8
AM_7
100
AcDbLine
 10
1699.344571311506
 20
1172.36994512802
 30
0.0
 11
1906.358704788507
 21
1172.36994512802
 31
0.0
1001
GENIUS_GENOREF_13
1005
581
  0
LINE
  5
534
330
1F
100
AcDbEntity
  8
AM_7
100
AcDbLine
 10
1699.344571311506
 20
1172.36994512802
 30
0.0
 11
1699.344571311506
 21
1379.384078605022
 31
0.0
1001
GENIUS_GENOREF_13
1005
581
  0
LINE
  5
535
330
1F
100
AcDbEntity
  8
AM_7
100
AcDbLine
 10
1699.344571311506
 20
1172.36994512802
 30
0.0
 11
1492.330437834505
 21
1172.36994512802
 31
0.0
1001
GENIUS_GENOREF_13
1005
581
  0
LINE
  5
536
330
1F
100
AcDbEntity
  8
AM_7
100
AcDbLine
 10
1699.344571311506
 20
1172.36994512802
 30
0.0
 11
1699.344571311506
 21
965.3558116510192
 31
0.0
1001
GENIUS_GENOREF_13
1005
581
  0
DIMENSION
  5
537
330
1F
100
AcDbEntity
  8
AM_5
100
AcDbDimension
  2
*D13
 10
1892.295988789642
 20
2267.587301584676
 30
0.0
 11
1700.295988789646
 21
2291.087301584676
 31
0.0
 70
    32
  1
%%c<>
 71
     5
 42
383.9999999999927
  3
GEN-ISO$0
100
AcDbAlignedDimension
 13
1508.295988789649
 23
2172.938329878305
 33
0.0
 14
1892.295988789642
 24
2172.938329878292
 34
0.0
100
AcDbRotatedDimension
1001
ACAD
1000
DSTYLE
1002
{
1070
   271
1070
     0
1002
}
  0
DIMENSION
  5
538
330
1F
100
AcDbEntity
  8
AM_5
100
AcDbDimension
  2
*D14
 10
1877.310122266651
 20
1611.00297679399
 30
0.0
 11
1718.803216162413
 21
1611.00297679399
 31
0.0
 70
   160
  1
%%c<>
 71
     5
 42
354.0
  3
GEN-ISO$0
100
AcDbAlignedDimension
 13
1523.310122266651
 23
1802.938329878293
 33
0.0
 14
1877.310122266651
 24
1802.938329878293
 34
0.0
100
AcDbRotatedDimension
1001
ACAD
1000
DSTYLE
1002
{
1070
   271
1070
     0
1002
}
  0
LINE
  5
539
330
1F
100
AcDbEntity
  8
0
100
AcDbLine
 10
1870.310122266647
 20
1757.866901306862
 30
0.0
 11
1711.310122266702
 21
1757.866901306863
 31
0.0
  0
LINE
  5
53A
330
1F
100
AcDbEntity
  8
0
100
AcDbLine
 10
1711.310122266702
 20
1757.866901306863
 30
0.0
 11
1711.310122266702
 21
1802.938329878293
 31
0.0
  0
LINE
  5
53B
102
{ACAD_REACTORS
330
53E
102
}
330
1F
100
AcDbEntity
  8
0
100
AcDbLine
 10
1870.310122266647
 20
1757.866901306862
 30
0.0
 11
1870.310122266647
 21
1802.938329878293
 31
0.0
  0
DIMENSION
  5
53C
102
{ACAD_XDICTIONARY
360
53D
102
}
102
{ACAD_REACTORS
330
53E
102
}
330
1F
100
AcDbEntity
  8
AM_5
100
AcDbDimension
  2
*D18
 10
1997.310122266651
 20
1757.866901306862
 30
0.0
 11
1973.81012226665
 21
1680.142027572709
 31
0.0
 70
    32
 71
     5
 42
45.07142857143117
  3
GEN-ISO$0
100
AcDbAlignedDimension
 13
1877.310122266651
 23
1802.938329878293
 33
0.0
 14
1870.310122266647
 24
1757.866901306862
 34
0.0
 50
90.0
100
AcDbRotatedDimension
1001
ACAD
1000
DSTYLE
1002
{
1070
   271
1070
     0
1002
}
  0
DIMENSION
  5
53F
330
1F
100
AcDbEntity
  8
AM_5
100
AcDbDimension
  2
*D15
 10
1523.310122266651
 20
1681.594359967619
 30
0.0
 11
1491.334413527579
 21
1705.094359967619
 31
0.0
 70
    32
  1
63
 71
     5
 42
63.95141747814341
  3
GEN-ISO$0
100
AcDbAlignedDimension
 13
1459.358704788507
 23
1892.943626608881
 33
0.0
 14
1523.310122266651
 24
1802.938329878293
 34
0.0
100
AcDbRotatedDimension
1001
ACAD
1000
DSTYLE
1002
{
1070
   271
1070
     0
1002
}
  0
DIMENSION
  5
540
330
1F
100
AcDbEntity
  8
AM_5
100
AcDbDimension
  2
*D16
 10
1574.279144571718
 20
1838.43449169873
 30
0.0
 11
1550.779144571718
 21
1865.689059153849
 31
0.0
 70
    32
  1
56
 71
     5
 42
54.50913491023652
  3
GEN-ISO$0
100
AcDbAlignedDimension
 13
1523.310122266694
 23
1892.943626608967
 33
0.0
 14
1524.983232920581
 24
1838.434491698731
 34
0.0
 50
90.0
100
AcDbRotatedDimension
1001
ACAD
1000
DSTYLE
1002
{
1070
   271
1070
     0
1002
}
  0
LINE
  5
541
102
{ACAD_REACTORS
330
544
102
}
330
1F
100
AcDbEntity
  8
AM_7
  6
AM_DIN_G_W050x2
100
AcDbLine
 10
1790.81012226668
 20
1727.866901306862
 30
0.0
 11
1790.81012226668
 21
1832.938329878293
 31
0.0
1001
GENIUS_GENOBJ-N-CEN_13
1002
{
1000
OWNER
1000
GEN
1002
}
1001
GENIUS_GENODEF_13
1002
{
1000
HIER
1070
     0
1002
}
1002
{
1000
MANEDIT
1070
     0
1002
}
1002
{
1000
NOSEL
1070
     0
1002
}
1002
{
1000
BEHIND
1070
     0
1002
}
1002
{
1000
OTHER
1070
     0
1002
}
1002
{
1000
REACTOR
1002
}
1001
GENIUS_GENCEN_19
1002
{
1040
30.0
1002
}
  0
DIMENSION
  5
542
102
{ACAD_XDICTIONARY
360
543
102
}
102
{ACAD_REACTORS
330
544
102
}
330
1F
100
AcDbEntity
  8
AM_5
100
AcDbDimension
  2
*D19
 10
1523.310122266651
 20
1681.594359967619
 30
0.0
 11
1657.060122266665
 21
1681.594359967619
 31
0.0
 70
   160
 71
     5
 42
267.5000000000291
  3
GEN-ISO$0
100
AcDbAlignedDimension
 13
1790.81012226668
 23
1727.866901306862
 33
0.0
 14
1523.310122266651
 24
1802.938329878293
 34
0.0
100
AcDbRotatedDimension
1001
ACAD
1000
DSTYLE
1002
{
1070
   271
1070
     0
1002
}
  0
TEXT
  5
545
330
1F
100
AcDbEntity
  8
AM_6
100
AcDbText
 10
1115.493712793423
 20
2094.591331688878
 30
0.0
 40
27.0
  1
Zulauf
100
AcDbText
  0
TEXT
  5
546
330
1F
100
AcDbEntity
  8
AM_6
100
AcDbText
 10
1115.493712793423
 20
2057.091331688877
 30
0.0
 40
27.0
  1
DN 200
100
AcDbText
  0
LINE
  5
547
330
1F
100
AcDbEntity
  8
406
  6
AUSGEZOGEN
 62
     7
100
AcDbLine
 10
1273.33153848219
 20
2001.068626608883
 30
0.0
 11
1273.33153848219
 21
2004.81935902888
 31
0.0
  0
LINE
  5
548
330
1F
100
AcDbEntity
  8
406
  6
AUSGEZOGEN
 62
     7
100
AcDbLine
 10
1272.08153848219
 20
1999.818626608882
 30
0.0
 11
1272.08153848219
 21
2006.06935902888
 31
0.0
  0
LINE
  5
549
330
1F
100
AcDbEntity
  8
406
  6
AUSGEZOGEN
 62
     7
100
AcDbLine
 10
1270.83153848219
 20
1998.568626608882
 30
0.0
 11
1270.83153848219
 21
2007.31935902888
 31
0.0
  0
LINE
  5
54A
330
1F
100
AcDbEntity
  8
406
  6
AUSGEZOGEN
 62
     7
100
AcDbLine
 10
1269.58153848219
 20
1997.318626608882
 30
0.0
 11
1269.58153848219
 21
2008.56935902888
 31
0.0
  0
LINE
  5
54B
330
1F
100
AcDbEntity
  8
406
  6
AUSGEZOGEN
 62
     7
100
AcDbLine
 10
1268.33153848219
 20
1996.068626608882
 30
0.0
 11
1268.33153848219
 21
2009.81935902888
 31
0.0
  0
LINE
  5
54C
330
1F
100
AcDbEntity
  8
406
  6
AUSGEZOGEN
 62
     7
100
AcDbLine
 10
1267.08153848219
 20
1994.818626608882
 30
0.0
 11
1267.08153848219
 21
2011.06935902888
 31
0.0
  0
LINE
  5
54D
330
1F
100
AcDbEntity
  8
406
  6
AUSGEZOGEN
 62
     7
100
AcDbLine
 10
1265.83153848219
 20
1993.568626608882
 30
0.0
 11
1265.83153848219
 21
2012.319359028881
 31
0.0
  0
LINE
  5
54E
330
1F
100
AcDbEntity
  8
406
  6
AUSGEZOGEN
 62
     7
100
AcDbLine
 10
1264.58153848219
 20
1992.318626608882
 30
0.0
 11
1264.58153848219
 21
2013.56935902888
 31
0.0
  0
LINE
  5
54F
330
1F
100
AcDbEntity
  8
406
  6
AUSGEZOGEN
 62
     7
100
AcDbLine
 10
1263.33153848219
 20
1991.068626608882
 30
0.0
 11
1263.33153848219
 21
2014.81935902888
 31
0.0
  0
LINE
  5
550
330
1F
100
AcDbEntity
  8
406
  6
AUSGEZOGEN
 62
     7
100
AcDbLine
 10
1262.08153848219
 20
1989.818626608882
 30
0.0
 11
1262.08153848219
 21
2016.06935902888
 31
0.0
  0
LINE
  5
551
330
1F
100
AcDbEntity
  8
406
  6
AUSGEZOGEN
 62
     7
100
AcDbLine
 10
1260.83153848219
 20
1988.568626608882
 30
0.0
 11
1260.83153848219
 21
2017.31935902888
 31
0.0
  0
LINE
  5
552
330
1F
100
AcDbEntity
  8
406
  6
AUSGEZOGEN
 62
     7
100
AcDbLine
 10
1259.58153848219
 20
1987.317894188877
 30
0.0
 11
1259.58153848219
 21
2018.568382468883
 31
0.0
  0
LINE
  5
553
330
1F
100
AcDbEntity
  8
406
  6
AUSGEZOGEN
 62
     7
100
AcDbLine
 10
1258.33153848219
 20
1986.067894188877
 30
0.0
 11
1258.33153848219
 21
2019.818382468884
 31
0.0
  0
LINE
  5
554
330
1F
100
AcDbEntity
  8
406
  6
AUSGEZOGEN
 62
     7
100
AcDbLine
 10
1257.08153848219
 20
1984.817894188877
 30
0.0
 11
1257.08153848219
 21
2021.068382468883
 31
0.0
  0
LINE
  5
555
330
1F
100
AcDbEntity
  8
406
  6
AUSGEZOGEN
 62
     7
100
AcDbLine
 10
1255.83153848219
 20
1983.567894188877
 30
0.0
 11
1255.83153848219
 21
2022.318382468883
 31
0.0
  0
LINE
  5
556
330
1F
100
AcDbEntity
  8
406
  6
AUSGEZOGEN
 62
     7
100
AcDbLine
 10
1254.58153848219
 20
1982.317894188877
 30
0.0
 11
1254.58153848219
 21
2023.568382468883
 31
0.0
  0
LINE
  5
557
330
1F
100
AcDbEntity
  8
406
  6
AUSGEZOGEN
 62
     7
100
AcDbLine
 10
1253.33153848219
 20
1981.067894188877
 30
0.0
 11
1253.33153848219
 21
2024.818382468883
 31
0.0
  0
LINE
  5
558
330
1F
100
AcDbEntity
  8
406
  6
AUSGEZOGEN
 62
     7
100
AcDbLine
 10
1252.08153848219
 20
1979.817894188877
 30
0.0
 11
1252.08153848219
 21
2026.068382468883
 31
0.0
  0
LINE
  5
559
330
1F
100
AcDbEntity
  8
406
  6
AUSGEZOGEN
 62
     7
100
AcDbLine
 10
1250.83153848219
 20
1978.567894188877
 30
0.0
 11
1250.83153848219
 21
2027.318870748882
 31
0.0
  0
LINE
  5
55A
330
1F
100
AcDbEntity
  8
406
  6
AUSGEZOGEN
 62
     7
100
AcDbLine
 10
1249.58153848219
 20
1977.317894188877
 30
0.0
 11
1249.58153848219
 21
2028.568382468883
 31
0.0
  0
LINE
  5
55B
330
1F
100
AcDbEntity
  8
406
  6
AUSGEZOGEN
 62
     7
100
AcDbLine
 10
1248.33153848219
 20
1976.067894188877
 30
0.0
 11
1248.33153848219
 21
2029.818382468884
 31
0.0
  0
LINE
  5
55C
330
1F
100
AcDbEntity
  8
406
  6
AUSGEZOGEN
 62
     7
100
AcDbLine
 10
1247.08153848219
 20
1974.817894188877
 30
0.0
 11
1247.08153848219
 21
2031.068382468882
 31
0.0
  0
LINE
  5
55D
330
1F
100
AcDbEntity
  8
406
  6
AUSGEZOGEN
 62
     7
100
AcDbLine
 10
1245.831538482197
 20
1973.567894188877
 30
0.0
 11
1245.831538482197
 21
2032.318870748882
 31
0.0
  0
LINE
  5
55E
330
1F
100
AcDbEntity
  8
406
  6
AUSGEZOGEN
 62
     7
100
AcDbLine
 10
1243.95653848219
 20
1971.693626608882
 30
0.0
 11
1243.95653848219
 21
2034.193626608882
 31
0.0
  0
LINE
  5
55F
330
1F
100
AcDbEntity
  8
406
  6
AUSGEZOGEN
 62
     7
100
AcDbLine
 10
1244.58153848219
 20
1972.317894188877
 30
0.0
 11
1244.58153848219
 21
2033.568870748882
 31
0.0
  0
LINE
  5
560
330
1F
100
AcDbEntity
  8
406
  6
AUSGEZOGEN
 62
     7
100
AcDbLine
 10
1243.95653848219
 20
2034.193626608882
 30
0.0
 11
1275.206538482197
 21
2002.943626608882
 31
0.0
  0
LINE
  5
561
330
1F
100
AcDbEntity
  8
406
  6
AUSGEZOGEN
 62
     7
100
AcDbLine
 10
1275.206538482197
 20
2002.943626608882
 30
0.0
 11
1243.95653848219
 21
1971.693626608882
 31
0.0
  0
LINE
  5
562
330
1F
100
AcDbEntity
  8
406
  6
AUSGEZOGEN
 62
     7
100
AcDbLine
 10
1243.95653848219
 20
2002.943626608882
 30
0.0
 11
1183.554683012196
 21
2002.943626608882
 31
0.0
  0
TEXT
  5
563
330
1F
100
AcDbEntity
  8
AM_6
100
AcDbText
 10
1849.431400579047
 20
1550.448057057794
 30
0.0
 40
27.0
  1
Ablauf
100
AcDbText
  0
TEXT
  5
564
330
1F
100
AcDbEntity
  8
AM_6
100
AcDbText
 10
1849.431400579047
 20
1512.948057057794
 30
0.0
 40
27.0
  1
DN 150
100
AcDbText
  0
LINE
  5
565
330
1F
100
AcDbEntity
  8
406
  6
AUSGEZOGEN
 62
     7
100
AcDbLine
 10
1788.93512226668
 20
1503.035350782967
 30
0.0
 11
1792.685854686678
 21
1503.035350782967
 31
0.0
  0
LINE
  5
566
330
1F
100
AcDbEntity
  8
406
  6
AUSGEZOGEN
 62
     7
100
AcDbLine
 10
1787.68512226668
 20
1504.285350782967
 30
0.0
 11
1793.935854686678
 21
1504.285350782967
 31
0.0
  0
LINE
  5
567
330
1F
100
AcDbEntity
  8
406
  6
AUSGEZOGEN
 62
     7
100
AcDbLine
 10
1786.43512226668
 20
1505.535350782967
 30
0.0
 11
1795.185854686678
 21
1505.535350782967
 31
0.0
  0
LINE
  5
568
330
1F
100
AcDbEntity
  8
406
  6
AUSGEZOGEN
 62
     7
100
AcDbLine
 10
1785.18512226668
 20
1506.785350782967
 30
0.0
 11
1796.435854686678
 21
1506.785350782967
 31
0.0
  0
LINE
  5
569
330
1F
100
AcDbEntity
  8
406
  6
AUSGEZOGEN
 62
     7
100
AcDbLine
 10
1783.93512226668
 20
1508.035350782967
 30
0.0
 11
1797.685854686678
 21
1508.035350782967
 31
0.0
  0
LINE
  5
56A
330
1F
100
AcDbEntity
  8
406
  6
AUSGEZOGEN
 62
     7
100
AcDbLine
 10
1782.68512226668
 20
1509.285350782967
 30
0.0
 11
1798.935854686678
 21
1509.285350782967
 31
0.0
  0
LINE
  5
56B
330
1F
100
AcDbEntity
  8
406
  6
AUSGEZOGEN
 62
     7
100
AcDbLine
 10
1781.43512226668
 20
1510.535350782967
 30
0.0
 11
1800.185854686677
 21
1510.535350782967
 31
0.0
  0
LINE
  5
56C
330
1F
100
AcDbEntity
  8
406
  6
AUSGEZOGEN
 62
     7
100
AcDbLine
 10
1780.18512226668
 20
1511.785350782967
 30
0.0
 11
1801.435854686678
 21
1511.785350782967
 31
0.0
  0
LINE
  5
56D
330
1F
100
AcDbEntity
  8
406
  6
AUSGEZOGEN
 62
     7
100
AcDbLine
 10
1778.93512226668
 20
1513.035350782967
 30
0.0
 11
1802.685854686678
 21
1513.035350782967
 31
0.0
  0
LINE
  5
56E
330
1F
100
AcDbEntity
  8
406
  6
AUSGEZOGEN
 62
     7
100
AcDbLine
 10
1777.68512226668
 20
1514.285350782967
 30
0.0
 11
1803.935854686678
 21
1514.285350782967
 31
0.0
  0
LINE
  5
56F
330
1F
100
AcDbEntity
  8
406
  6
AUSGEZOGEN
 62
     7
100
AcDbLine
 10
1776.43512226668
 20
1515.535350782967
 30
0.0
 11
1805.185854686678
 21
1515.535350782967
 31
0.0
  0
LINE
  5
570
330
1F
100
AcDbEntity
  8
406
  6
AUSGEZOGEN
 62
     7
100
AcDbLine
 10
1775.184389846675
 20
1516.785350782967
 30
0.0
 11
1806.434878126681
 21
1516.785350782967
 31
0.0
  0
LINE
  5
571
330
1F
100
AcDbEntity
  8
406
  6
AUSGEZOGEN
 62
     7
100
AcDbLine
 10
1773.934389846675
 20
1518.035350782967
 30
0.0
 11
1807.68487812668
 21
1518.035350782967
 31
0.0
  0
LINE
  5
572
330
1F
100
AcDbEntity
  8
406
  6
AUSGEZOGEN
 62
     7
100
AcDbLine
 10
1772.684389846675
 20
1519.285350782967
 30
0.0
 11
1808.934878126681
 21
1519.285350782967
 31
0.0
  0
LINE
  5
573
330
1F
100
AcDbEntity
  8
406
  6
AUSGEZOGEN
 62
     7
100
AcDbLine
 10
1771.434389846675
 20
1520.535350782967
 30
0.0
 11
1810.184878126681
 21
1520.535350782967
 31
0.0
  0
LINE
  5
574
330
1F
100
AcDbEntity
  8
406
  6
AUSGEZOGEN
 62
     7
100
AcDbLine
 10
1770.184389846675
 20
1521.785350782967
 30
0.0
 11
1811.434878126681
 21
1521.785350782967
 31
0.0
  0
LINE
  5
575
330
1F
100
AcDbEntity
  8
406
  6
AUSGEZOGEN
 62
     7
100
AcDbLine
 10
1768.934389846675
 20
1523.035350782967
 30
0.0
 11
1812.684878126681
 21
1523.035350782967
 31
0.0
  0
LINE
  5
576
330
1F
100
AcDbEntity
  8
406
  6
AUSGEZOGEN
 62
     7
100
AcDbLine
 10
1767.684389846675
 20
1524.285350782967
 30
0.0
 11
1813.934878126681
 21
1524.285350782967
 31
0.0
  0
LINE
  5
577
330
1F
100
AcDbEntity
  8
406
  6
AUSGEZOGEN
 62
     7
100
AcDbLine
 10
1766.434389846675
 20
1525.535350782967
 30
0.0
 11
1815.185366406679
 21
1525.535350782967
 31
0.0
  0
LINE
  5
578
330
1F
100
AcDbEntity
  8
406
  6
AUSGEZOGEN
 62
     7
100
AcDbLine
 10
1765.184389846675
 20
1526.785350782967
 30
0.0
 11
1816.434878126681
 21
1526.785350782967
 31
0.0
  0
LINE
  5
579
330
1F
100
AcDbEntity
  8
406
  6
AUSGEZOGEN
 62
     7
100
AcDbLine
 10
1763.934389846675
 20
1528.035350782967
 30
0.0
 11
1817.684878126684
 21
1528.035350782967
 31
0.0
  0
LINE
  5
57A
330
1F
100
AcDbEntity
  8
406
  6
AUSGEZOGEN
 62
     7
100
AcDbLine
 10
1762.684389846675
 20
1529.285350782967
 30
0.0
 11
1818.934878126681
 21
1529.285350782967
 31
0.0
  0
LINE
  5
57B
330
1F
100
AcDbEntity
  8
406
  6
AUSGEZOGEN
 62
     7
100
AcDbLine
 10
1761.434389846675
 20
1530.53535078296
 30
0.0
 11
1820.185366406679
 21
1530.53535078296
 31
0.0
  0
LINE
  5
57C
330
1F
100
AcDbEntity
  8
406
  6
AUSGEZOGEN
 62
     7
100
AcDbLine
 10
1759.56012226668
 20
1532.410350782967
 30
0.0
 11
1822.06012226668
 21
1532.410350782967
 31
0.0
  0
LINE
  5
57D
330
1F
100
AcDbEntity
  8
406
  6
AUSGEZOGEN
 62
     7
100
AcDbLine
 10
1760.184389846675
 20
1531.785350782967
 30
0.0
 11
1821.435366406679
 21
1531.785350782967
 31
0.0
  0
LINE
  5
57E
330
1F
100
AcDbEntity
  8
406
  6
AUSGEZOGEN
 62
     7
100
AcDbLine
 10
1822.06012226668
 20
1532.410350782967
 30
0.0
 11
1790.81012226668
 21
1501.16035078296
 31
0.0
  0
LINE
  5
57F
330
1F
100
AcDbEntity
  8
406
  6
AUSGEZOGEN
 62
     7
100
AcDbLine
 10
1790.81012226668
 20
1501.16035078296
 30
0.0
 11
1759.56012226668
 21
1532.410350782967
 31
0.0
  0
LINE
  5
580
330
1F
100
AcDbEntity
  8
406
  6
AUSGEZOGEN
 62
     7
100
AcDbLine
 10
1790.81012226668
 20
1532.410350782967
 30
0.0
 11
1790.81012226668
 21
1592.812206252961
 31
0.0
  0
POINT
  5
581
330
1F
100
AcDbEntity
  8
0
 60
     1
100
AcDbPoint
 10
15404.1473097648
 20
-1654.825065309006
 30
0.0
1001
GENIUS_GENOLIS_13
1002
{
1000
ENT
1005
536
1005
535
1005
534
1005
533
1002
}
1001
GENIUS_GENODEF_13
1002
{
1000
HIER
1070
    10
1002
}
1002
{
1000
MANEDIT
1070
     0
1002
}
1002
{
1000
NOSEL
1070
     0
1002
}
1002
{
1000
BEHIND
1070
     0
1002
}
1002
{
1000
OTHER
1070
     0
1002
}
1002
{
1000
REACTOR
1002
}
1001
GENIUS_GENOENT_13
1002
{
1000
MYREF
1005
581
1002
}
1002
{
1000
GRP
1005
0
1002
}
1001
GENIUS_GENOBJ-N-CRS_13
1002
{
1000
OWNER
1000
GEN
1002
}
  0
ENDSEC
  0
SECTION
  2
OBJECTS
  0
DICTIONARY
  5
C
330
0
100
AcDbDictionary
281
     1
  3
ACAD_COLOR
350
D7
  3
ACAD_GROUP
350
D
  3
ACAD_LAYOUT
350
1A
  3
ACAD_MATERIAL
350
D6
  3
ACAD_MLINESTYLE
350
17
  3
ACAD_PLOTSETTINGS
350
19
  3
ACAD_PLOTSTYLENAME
350
E
  3
ACAD_TABLESTYLE
350
133
  3
ACDBHEADERROUNDTRIPXREC
350
619
  3
AcDbVariableDictionary
350
34
  3
AcmDictionary
350
49
  3
AMG
350
2B
  3
AMGSNAPSETTINGS
350
2C4
  3
DWGPROPS
350
618
  0
DICTIONARY
  5
C0
330
2
100
AcDbDictionary
280
     1
281
     1
  3
ACAD_LAYERSTATES
360
388
  3
AMLAYER_GROUPCOLORS
360
C1
  0
DICTIONARY
  5
83
330
1F
100
AcDbDictionary
280
     1
281
     1
  0
DICTIONARY
  5
515
330
514
100
AcDbDictionary
280
     1
281
     1
  3
ACAD_DIMASSOC
360
516
  0
DICTIONARY
  5
53D
330
53C
100
AcDbDictionary
280
     1
281
     1
  3
ACAD_DIMASSOC
360
53E
  0
DICTIONARY
  5
543
330
542
100
AcDbDictionary
280
     1
281
     1
  3
ACAD_DIMASSOC
360
544
  0
DICTIONARY
  5
D7
102
{ACAD_REACTORS
330
C
102
}
330
C
100
AcDbDictionary
281
     1
  0
DICTIONARY
  5
D
102
{ACAD_REACTORS
330
C
102
}
330
C
100
AcDbDictionary
281
     1
  0
DICTIONARY
  5
1A
102
{ACAD_REACTORS
330
C
102
}
330
C
100
AcDbDictionary
281
     1
  3
Layout1
350
1E
  3
Layout2
350
26
  3
Model
350
22
  0
DICTIONARY
  5
D6
102
{ACAD_REACTORS
330
C
102
}
330
C
100
AcDbDictionary
281
     1
  0
DICTIONARY
  5
17
102
{ACAD_REACTORS
330
C
102
}
330
C
100
AcDbDictionary
281
     1
  3
Standard
350
18
  0
DICTIONARY
  5
19
102
{ACAD_REACTORS
330
C
102
}
330
C
100
AcDbDictionary
281
     1
  0
ACDBDICTIONARYWDFLT
  5
E
102
{ACAD_REACTORS
330
C
102
}
330
C
100
AcDbDictionary
281
     1
  3
Normal
350
F
100
AcDbDictionaryWithDefault
340
F
  0
DICTIONARY
  5
133
102
{ACAD_REACTORS
330
C
102
}
330
C
100
AcDbDictionary
281
     1
  3
Standard
350
134
  0
DICTIONARY
  5
619
102
{ACAD_REACTORS
330
C
102
}
330
C
100
AcDbDictionary
281
     1
  0
DICTIONARY
  5
34
102
{ACAD_REACTORS
330
C
102
}
330
C
100
AcDbDictionary
281
     1
  3
CTABLESTYLE
350
152
  3
DIMASSOC
350
AD
  3
INDEXCTL
350
35
  3
PROJECTNAME
350
616
  0
DICTIONARY
  5
49
102
{ACAD_REACTORS
330
C
102
}
330
C
100
AcDbDictionary
281
     1
  3
AcmBOM
350
2CB
  3
AcmStdDictionary
350
4A
  3
AMDTSECTSYM_ARROWCOLOR
350
13D
  0
DICTIONARY
  5
2B
102
{ACAD_REACTORS
330
C
102
}
330
C
100
AcDbDictionary
281
     1
  0
DICTIONARY
  5
2C4
102
{ACAD_REACTORS
330
C
102
}
330
C
100
AcDbDictionary
281
     1
  0
XRECORD
  5
618
102
{ACAD_REACTORS
330
C
102
}
330
C
100
AcDbXrecord
280
     1
  1
DWGPROPS COOKIE
  2

  3

  4

  6

  7

  8

  9

300
AmdtFileType=84
301
=
302
=
303
=
304
=
305
=
306
=
307
=
308
=
309
=
 40
0.000182662037037
 41
2454053.35923809
 42
2454053.359420752
  1

 90
        1
  0
DICTIONARY
  5
388
102
{ACAD_REACTORS
330
C0
102
}
330
C0
100
AcDbDictionary
281
     1
  0
DICTIONARY
  5
C1
102
{ACAD_REACTORS
330
C0
102
}
330
C0
100
AcDbDictionary
280
     1
281
     1
  0
DIMASSOC
  5
516
102
{ACAD_REACTORS
330
515
102
}
330
515
100
AcDbDimAssoc
330
514
 90
        3
 70
     0
 71
     0
  1
AcDbOsnapPointRef
 72
    13
331
511
 73
     0
 91
        0
 40
0.0
 10
0.0
 20
0.0
 30
2.000000000000000E+50
 75
     0
  1
AcDbOsnapPointRef
 72
    13
331
50A
 73
     0
 91
        0
 40
0.0
 10
0.0
 20
0.0
 30
2.000000000000000E+50
 75
     0
  0
DIMASSOC
  5
53E
102
{ACAD_REACTORS
330
53D
102
}
330
53D
100
AcDbDimAssoc
330
53C
 90
        2
 70
     0
 71
     0
  1
AcDbOsnapPointRef
 72
    13
331
53B
 73
     0
 91
        0
 40
0.0
 10
0.0
 20
0.0
 30
2.000000000000000E+50
 75
     0
  0
DIMASSOC
  5
544
102
{ACAD_REACTORS
330
543
102
}
330
543
100
AcDbDimAssoc
330
542
 90
        1
 70
     0
 71
     0
  1
AcDbOsnapPointRef
 72
    13
331
541
 73
     0
 91
        0
 40
0.0
 10
0.0
 20
0.0
 30
2.000000000000000E+50
 75
     0
  0
LAYOUT
  5
1E
102
{ACAD_XDICTIONARY
360
61A
102
}
102
{ACAD_REACTORS
330
1A
102
}
330
1A
100
AcDbPlotSettings
  1

  2
none_device
  4
Letter_(8.50_x_11.00_Inches)
  6

 40
6.349999904632568
 41
6.349999904632568
 42
6.350006103515625
 43
6.350006103515625
 44
215.8999938964844
 45
279.3999938964844
 46
0.0
 47
0.0
 48
0.0
 49
0.0
140
0.0
141
0.0
142
1.0
143
1.0
 70
 15024
 72
     1
 73
     1
 74
     5
  7

 75
    16
147
1.0
148
0.0
149
0.0
100
AcDbLayout
  1
Layout1
 70
     1
 71
     1
 10
0.0
 20
0.0
 11
420.0
 21
297.0
 12
0.0
 22
0.0
 32
0.0
 14
1.000000000000000E+20
 24
1.000000000000000E+20
 34
1.000000000000000E+20
 15
-1.000000000000000E+20
 25
-1.000000000000000E+20
 35
-1.000000000000000E+20
146
0.0
 13
0.0
 23
0.0
 33
0.0
 16
1.0
 26
0.0
 36
0.0
 17
0.0
 27
1.0
 37
0.0
 76
     0
330
1B
  0
LAYOUT
  5
26
102
{ACAD_XDICTIONARY
360
61E
102
}
102
{ACAD_REACTORS
330
1A
102
}
330
1A
100
AcDbPlotSettings
  1

  2
none_device
  4
Letter_(8.50_x_11.00_Inches)
  6

 40
6.349999904632568
 41
6.349999904632568
 42
6.350006103515625
 43
6.350006103515625
 44
215.8999938964844
 45
279.3999938964844
 46
0.0
 47
0.0
 48
0.0
 49
0.0
140
0.0
141
0.0
142
1.0
143
1.0
 70
 15024
 72
     1
 73
     1
 74
     5
  7

 75
    16
147
1.0
148
0.0
149
0.0
100
AcDbLayout
  1
Layout2
 70
     1
 71
     2
 10
0.0
 20
0.0
 11
12.0
 21
9.0
 12
0.0
 22
0.0
 32
0.0
 14
0.0
 24
0.0
 34
0.0
 15
0.0
 25
0.0
 35
0.0
146
0.0
 13
0.0
 23
0.0
 33
0.0
 16
1.0
 26
0.0
 36
0.0
 17
0.0
 27
1.0
 37
0.0
 76
     0
330
23
  0
LAYOUT
  5
22
102
{ACAD_XDICTIONARY
360
61C
102
}
102
{ACAD_REACTORS
330
1A
102
}
330
1A
100
AcDbPlotSettings
  1

  2
none_device
  4
Letter_(8.50_x_11.00_Inches)
  6

 40
6.349999904632568
 41
6.349999904632568
 42
6.350006103515625
 43
6.350006103515625
 44
215.8999938964844
 45
279.3999938964844
 46
0.0
 47
0.0
 48
0.0
 49
0.0
140
0.0
141
0.0
142
1.0
143
1.0
 70
 11952
 72
     1
 73
     1
 74
     0
  7

 75
     0
147
1.0
148
-131.3052631578947
149
0.0
100
AcDbLayout
  1
Model
 70
     1
 71
     0
 10
0.0
 20
0.0
 11
12.0
 21
9.0
 12
0.0
 22
0.0
 32
0.0
 14
0.0
 24
0.0
 34
0.0
 15
0.0
 25
0.0
 35
0.0
146
0.0
 13
0.0
 23
0.0
 33
0.0
 16
1.0
 26
0.0
 36
0.0
 17
0.0
 27
1.0
 37
0.0
 76
     0
330
1F
  0
MLINESTYLE
  5
18
102
{ACAD_REACTORS
330
17
102
}
330
17
100
AcDbMlineStyle
  2
STANDARD
 70
     0
  3

 62
   256
 51
90.0
 52
90.0
 71
     2
 49
0.5
 62
   256
  6
BYLAYER
 49
-0.5
 62
   256
  6
BYLAYER
  0
ACDBPLACEHOLDER
  5
F
102
{ACAD_REACTORS
330
E
102
}
330
E
  0
TABLESTYLE
  5
134
102
{ACAD_REACTORS
330
133
102
}
330
133
100
AcDbTableStyle
  3
Standard
 70
     0
 71
     0
 40
1.5
 41
1.5
280
     0
281
     0
  7
STANDARD
140
4.5
170
     2
 62
     0
 63
     7
283
     0
274
    -2
284
     1
 64
     0
275
    -2
285
     1
 65
     0
276
    -2
286
     1
 66
     0
277
    -2
287
     1
 67
     0
278
    -2
288
     1
 68
     0
279
    -2
289
     1
 69
     0
  7
STANDARD
140
6.0
170
     5
 62
     0
 63
     7
283
     0
274
    -2
284
     1
 64
     0
275
    -2
285
     1
 65
     0
276
    -2
286
     1
 66
     0
277
    -2
287
     1
 67
     0
278
    -2
288
     1
 68
     0
279
    -2
289
     1
 69
     0
  7
STANDARD
140
4.5
170
     5
 62
     0
 63
     7
283
     0
274
    -2
284
     1
 64
     0
275
    -2
285
     1
 65
     0
276
    -2
286
     1
 66
     0
277
    -2
287
     1
 67
     0
278
    -2
288
     1
 68
     0
279
    -2
289
     1
 69
     0
  0
DICTIONARYVAR
  5
152
102
{ACAD_REACTORS
330
34
102
}
330
34
100
DictionaryVariables
280
     0
  1
STANDARD
  0
DICTIONARYVAR
  5
AD
102
{ACAD_REACTORS
330
34
102
}
330
34
100
DictionaryVariables
280
     0
  1
2
  0
DICTIONARYVAR
  5
35
102
{ACAD_REACTORS
330
34
102
}
330
34
100
DictionaryVariables
280
     0
  1
0
  0
DICTIONARYVAR
  5
616
102
{ACAD_REACTORS
330
34
102
}
330
34
100
DictionaryVariables
280
     0
  1

  0
DICTIONARY
  5
2CB
102
{ACAD_REACTORS
330
49
102
}
330
49
100
AcDbDictionary
281
     1
  0
DICTIONARY
  5
4A
102
{ACAD_REACTORS
330
49
102
}
330
49
100
AcDbDictionary
281
     1
  0
XRECORD
  5
13D
102
{ACAD_REACTORS
330
49
102
}
330
49
100
AcDbXrecord
280
     1
 90
-1023410169
  0
DICTIONARY
  5
61A
330
1E
100
AcDbDictionary
280
     1
281
     1
  3
ACAD_XREC_ROUNDTRIP
360
61B
  0
DICTIONARY
  5
61E
330
26
100
AcDbDictionary
280
     1
281
     1
  3
ACAD_XREC_ROUNDTRIP
360
61F
  0
DICTIONARY
  5
61C
330
22
100
AcDbDictionary
280
     1
281
     1
  3
ACAD_XREC_ROUNDTRIP
360
61D
  0
XRECORD
  5
61B
102
{ACAD_REACTORS
330
61A
102
}
330
61A
100
AcDbXrecord
280
     1
102
SHADEPLOT
 70
     0
102
SHADEPLOTRESLEVEL
 70
     2
102
SHADEPLOTCUSTOMDPI
 70
   300
  0
XRECORD
  5
61F
102
{ACAD_REACTORS
330
61E
102
}
330
61E
100
AcDbXrecord
280
     1
102
SHADEPLOT
 70
     0
102
SHADEPLOTRESLEVEL
 70
     2
102
SHADEPLOTCUSTOMDPI
 70
   300
  0
XRECORD
  5
61D
102
{ACAD_REACTORS
330
61C
102
}
330
61C
100
AcDbXrecord
280
     1
102
SHADEPLOT
 70
     0
102
SHADEPLOTRESLEVEL
 70
     2
102
SHADEPLOTCUSTOMDPI
 70
   300
  0
ENDSEC
  0
EOF
