  0
SECTION
  2
HEADER
  9
$ACADVER
  1
AC1015
  9
$ACADMAINTVER
 70
    20
  9
$DWGCODEPAGE
  3
ANSI_1252
  9
$INSBASE
 10
0.0
 20
0.0
 30
0.0
  9
$EXTMIN
 10
23003.13869275749
 20
542.7267605896396
 30
0.0
  9
$EXTMAX
 10
23289.35009869446
 20
1122.920227321295
 30
0.0
  9
$LIMMIN
 10
0.0
 20
0.0
  9
$LIMMAX
 10
420.0
 20
297.0
  9
$ORTHOMODE
 70
     0
  9
$REGENMODE
 70
     1
  9
$FILLMODE
 70
     1
  9
$QTEXTMODE
 70
     0
  9
$MIRRTEXT
 70
     0
  9
$LTSCALE
 40
8.0
  9
$ATTMODE
 70
     1
  9
$TEXTSIZE
 40
2.5
  9
$TRACEWID
 40
1.0
  9
$TEXTSTYLE
  7
STANDARD
  9
$CLAYER
  8
0
  9
$CELTYPE
  6
ByLayer
  9
$CECOLOR
 62
   256
  9
$CELTSCALE
 40
1.0
  9
$DISPSILH
 70
     0
  9
$DIMSCALE
 40
1.0
  9
$DIMASZ
 40
65.0
  9
$DIMEXO
 40
1.0
  9
$DIMDLI
 40
10.0
  9
$DIMRND
 40
0.0
  9
$DIMDLE
 40
0.0
  9
$DIMEXE
 40
25.0
  9
$DIMTP
 40
0.1
  9
$DIMTM
 40
0.1
  9
$DIMTXT
 40
50.0
  9
$DIMCEN
 40
0.0
  9
$DIMTSZ
 40
0.0
  9
$DIMTOL
 70
     0
  9
$DIMLIM
 70
     0
  9
$DIMTIH
 70
     0
  9
$DIMTOH
 70
     0
  9
$DIMSE1
 70
     0
  9
$DIMSE2
 70
     0
  9
$DIMTAD
 70
     1
  9
$DIMZIN
 70
     8
  9
$DIMBLK
  1

  9
$DIMASO
 70
     1
  9
$DIMSHO
 70
     1
  9
$DIMPOST
  1

  9
$DIMAPOST
  1
"
  9
$DIMALT
 70
     0
  9
$DIMALTD
 70
     2
  9
$DIMALTF
 40
0.0393701
  9
$DIMLFAC
 40
1.0
  9
$DIMTOFL
 70
     1
  9
$DIMTVP
 40
0.0
  9
$DIMTIX
 70
     0
  9
$DIMSOXD
 70
     0
  9
$DIMSAH
 70
     0
  9
$DIMBLK1
  1

  9
$DIMBLK2
  1

  9
$DIMSTYLE
  2
AM_DIN
  9
$DIMCLRD
 70
   256
  9
$DIMCLRE
 70
   256
  9
$DIMCLRT
 70
     2
  9
$DIMTFAC
 40
0.71
  9
$DIMGAP
 40
15.0
  9
$DIMJUST
 70
     0
  9
$DIMSD1
 70
     0
  9
$DIMSD2
 70
     0
  9
$DIMTOLJ
 70
     0
  9
$DIMTZIN
 70
     8
  9
$DIMALTZ
 70
     0
  9
$DIMALTTZ
 70
     0
  9
$DIMUPT
 70
     0
  9
$DIMDEC
 70
     0
  9
$DIMTDEC
 70
     0
  9
$DIMALTU
 70
     2
  9
$DIMALTTD
 70
     2
  9
$DIMTXSTY
  7
STANDARD
  9
$DIMAUNIT
 70
     0
  9
$DIMADEC
 70
     0
  9
$DIMALTRND
 40
0.0
  9
$DIMAZIN
 70
     2
  9
$DIMDSEP
 70
    46
  9
$DIMATFIT
 70
     3
  9
$DIMFRAC
 70
     0
  9
$DIMLDRBLK
  1

  9
$DIMLUNIT
 70
     2
  9
$DIMLWD
 70
    -1
  9
$DIMLWE
 70
    -1
  9
$DIMTMOVE
 70
     0
  9
$LUNITS
 70
     2
  9
$LUPREC
 70
     2
  9
$SKETCHINC
 40
1.0
  9
$FILLETRAD
 40
2.5
  9
$AUNITS
 70
     0
  9
$AUPREC
 70
     0
  9
$MENU
  1
.
  9
$ELEVATION
 40
0.0
  9
$PELEVATION
 40
0.0
  9
$THICKNESS
 40
0.0
  9
$LIMCHECK
 70
     0
  9
$CHAMFERA
 40
2.5
  9
$CHAMFERB
 40
2.5
  9
$CHAMFERC
 40
20.0
  9
$CHAMFERD
 40
0.0
  9
$SKPOLY
 70
     0
  9
$TDCREATE
 40
2454167.376978160
  9
$TDUCREATE
 40
2454167.335311493
  9
$TDUPDATE
 40
2455133.673876401
  9
$TDUUPDATE
 40
2455133.632209733
  9
$TDINDWG
 40
0.7166701620
  9
$TDUSRTIMER
 40
0.7165100116
  9
$USRTIMER
 70
     1
  9
$ANGBASE
 50
0.0
  9
$ANGDIR
 70
     0
  9
$PDMODE
 70
     0
  9
$PDSIZE
 40
0.0
  9
$PLINEWID
 40
0.0
  9
$SPLFRAME
 70
     0
  9
$SPLINETYPE
 70
     6
  9
$SPLINESEGS
 70
     8
  9
$HANDSEED
  5
1B44B
  9
$SURFTAB1
 70
     6
  9
$SURFTAB2
 70
     6
  9
$SURFTYPE
 70
     6
  9
$SURFU
 70
     6
  9
$SURFV
 70
     6
  9
$UCSBASE
  2

  9
$UCSNAME
  2

  9
$UCSORG
 10
0.0
 20
0.0
 30
0.0
  9
$UCSXDIR
 10
1.0
 20
0.0
 30
0.0
  9
$UCSYDIR
 10
0.0
 20
1.0
 30
0.0
  9
$UCSORTHOREF
  2

  9
$UCSORTHOVIEW
 70
     0
  9
$UCSORGTOP
 10
0.0
 20
0.0
 30
0.0
  9
$UCSORGBOTTOM
 10
0.0
 20
0.0
 30
0.0
  9
$UCSORGLEFT
 10
0.0
 20
0.0
 30
0.0
  9
$UCSORGRIGHT
 10
0.0
 20
0.0
 30
0.0
  9
$UCSORGFRONT
 10
0.0
 20
0.0
 30
0.0
  9
$UCSORGBACK
 10
0.0
 20
0.0
 30
0.0
  9
$PUCSBASE
  2

  9
$PUCSNAME
  2

  9
$PUCSORG
 10
0.0
 20
0.0
 30
0.0
  9
$PUCSXDIR
 10
1.0
 20
0.0
 30
0.0
  9
$PUCSYDIR
 10
0.0
 20
1.0
 30
0.0
  9
$PUCSORTHOREF
  2

  9
$PUCSORTHOVIEW
 70
     0
  9
$PUCSORGTOP
 10
0.0
 20
0.0
 30
0.0
  9
$PUCSORGBOTTOM
 10
0.0
 20
0.0
 30
0.0
  9
$PUCSORGLEFT
 10
0.0
 20
0.0
 30
0.0
  9
$PUCSORGRIGHT
 10
0.0
 20
0.0
 30
0.0
  9
$PUCSORGFRONT
 10
0.0
 20
0.0
 30
0.0
  9
$PUCSORGBACK
 10
0.0
 20
0.0
 30
0.0
  9
$USERI1
 70
     0
  9
$USERI2
 70
     0
  9
$USERI3
 70
     0
  9
$USERI4
 70
     0
  9
$USERI5
 70
     0
  9
$USERR1
 40
0.0
  9
$USERR2
 40
0.0
  9
$USERR3
 40
0.0
  9
$USERR4
 40
0.0
  9
$USERR5
 40
0.0
  9
$WORLDVIEW
 70
     1
  9
$SHADEDGE
 70
     3
  9
$SHADEDIF
 70
    70
  9
$TILEMODE
 70
     1
  9
$MAXACTVP
 70
    64
  9
$PINSBASE
 10
0.0
 20
0.0
 30
0.0
  9
$PLIMCHECK
 70
     0
  9
$PEXTMIN
 10
1.000000000000000E+20
 20
1.000000000000000E+20
 30
1.000000000000000E+20
  9
$PEXTMAX
 10
-1.000000000000000E+20
 20
-1.000000000000000E+20
 30
-1.000000000000000E+20
  9
$PLIMMIN
 10
0.0
 20
0.0
  9
$PLIMMAX
 10
420.0
 20
297.0
  9
$UNITMODE
 70
     0
  9
$VISRETAIN
 70
     1
  9
$PLINEGEN
 70
     0
  9
$PSLTSCALE
 70
     1
  9
$TREEDEPTH
 70
  3020
  9
$CMLSTYLE
  2
Standard
  9
$CMLJUST
 70
     0
  9
$CMLSCALE
 40
20.0
  9
$PROXYGRAPHICS
 70
     1
  9
$MEASUREMENT
 70
     1
  9
$CELWEIGHT
370
    -1
  9
$ENDCAPS
280
     0
  9
$JOINSTYLE
280
     0
  9
$LWDISPLAY
290
     0
  9
$INSUNITS
 70
     4
  9
$HYPERLINKBASE
  1

  9
$STYLESHEET
  1
MONOCHROME UW.CTB
  9
$XEDIT
290
     1
  9
$CEPSNTYPE
380
     0
  9
$PSTYLEMODE
290
     1
  9
$FINGERPRINTGUID
  2
{1344C3A2-CD10-4B1D-A761-DD320F23370E}
  9
$VERSIONGUID
  2
{049EA752-B01B-4024-A91B-78A4B9BB8B30}
  9
$EXTNAMES
290
     1
  9
$PSVPSCALE
 40
0.0
  9
$OLESTARTUP
290
     0
  0
ENDSEC
  0
SECTION
  2
CLASSES
  0
CLASS
  1
ACDBDICTIONARYWDFLT
  2
AcDbDictionaryWithDefault
  3
ObjectDBX Classes
 90
        0
280
     0
281
     0
  0
CLASS
  1
ACDBPLACEHOLDER
  2
AcDbPlaceHolder
  3
ObjectDBX Classes
 90
        0
280
     0
281
     0
  0
CLASS
  1
LAYOUT
  2
AcDbLayout
  3
ObjectDBX Classes
 90
        0
280
     0
281
     0
  0
CLASS
  1
ACME_DOCUMENT
  2
AcMeDbDoc
  3
AcMeServices
 90
     1024
280
     0
281
     0
  0
CLASS
  1
AMGSETTINGSOBJ
  2
AmgSettingsObj
  3
"AcadM|Product Description: AutoCAD Mechanical|Company: Autodesk, Inc."
 90
     1024
280
     0
281
     0
  0
CLASS
  1
ACMESCOPE
  2
AcMeScope
  3
AcMeServices
 90
     1024
280
     0
281
     0
  0
CLASS
  1
ACMECOMMANDHISTORY
  2
AcMeCommandHistory
  3
AcMeServices
 90
     1024
280
     0
281
     0
  0
CLASS
  1
ACIMSYSVARMAN
  2
AcImSysVarManager
  3
AcMeServices
 90
     1024
280
     0
281
     0
  0
CLASS
  1
ACIMREALSYSVAR
  2
AcImRealSysVar
  3
AcMeServices
 90
     1024
280
     0
281
     0
  0
CLASS
  1
ACIMINTSYSVAR
  2
AcImIntSysVar
  3
AcMeServices
 90
     1024
280
     0
281
     0
  0
CLASS
  1
ACMEDRAWINGMAN
  2
AcMeDrawingMan
  3
AcMeServices
 90
     1024
280
     0
281
     0
  0
CLASS
  1
ACMEVIEW
  2
AcMeView
  3
AcMeServices
 90
     1024
280
     0
281
     0
  0
CLASS
  1
ACDBENTITYCACHE
  2
AcMeEntityCache
  3
AcMeServices
 90
     1024
280
     0
281
     0
  0
CLASS
  1
GSMANAGER
  2
AcMeGSManager
  3
AcMeServices
 90
    33792
280
     0
281
     0
  0
CLASS
  1
AMDTINTERNALREACTOR
  2
AmdtInternalReactor
  3
AcMeServices
 90
     1024
280
     0
281
     0
  0
CLASS
  1
ACMESTATEMGR
  2
AcMeStateMgr
  3
AcMeServices
 90
     1024
280
     0
281
     0
  0
CLASS
  1
ACGREFMASTER
  2
AcGrefMaster
  3
AcAttribServices
 90
     1024
280
     0
281
     0
  0
CLASS
  1
ACME_DATABASE
  2
AcMeDbDatabase
  3
AcMeServices
 90
     1024
280
     0
281
     0
  0
CLASS
  1
ACRFINSADJUSTERMGR
  2
AcRfInsAdjusterMgr
  3
AcMeServices
 90
     1024
280
     0
281
     0
  0
CLASS
  1
ACGREFACADMASTER
  2
AcGrefacadMaster
  3
AcGrefServices
 90
     1024
280
     0
281
     0
  0
CLASS
  1
AMIMASTER
  2
AmiMaster
  3
AmiServices
 90
     1024
280
     0
281
     0
  0
CLASS
  1
ACMDATADICTIONARY
  2
AcmDataDictionary
  3
"AcmSymBB|Product Description: AutoCAD Mechanical|Company: Autodesk, Inc."
 90
     1024
280
     0
281
     0
  0
CLASS
  1
ACMDATAENTRYBLOCK
  2
AcmDataEntryBlock
  3
AcmSymBB|Product Description: AutoCAD Mechanical|Company: Autodesk, Inc.
 90
    33792
280
     0
281
     0
  0
CLASS
  1
ACIMSTRSYSVAR
  2
AcImStrSysVar
  3
AcMeServices
 90
     1024
280
     0
281
     0
  0
CLASS
  1
ACMSTANDARDISO
  2
AcmStandardISO
  3
"Amdt_StdImp|Product Description: AutoCAD Mechanical|Company: Autodesk, Inc."
 90
    33792
280
     0
281
     0
  0
CLASS
  1
AMGOBJPROPCFG
  2
AmgObjPropCfg
  3
"AmgLay|Product Description: AutoCAD Mechanical|Company: Autodesk, Inc."
 90
     1025
280
     0
281
     0
  0
CLASS
  1
AMDTEDGESTANDARDISO
  2
AmdtEdgeStdISO
  3
"Amdt_StdImp|Product Description: AutoCAD Mechanical|Company: Autodesk, Inc."
 90
    33792
280
     0
281
     0
  0
CLASS
  1
ACMSURFSTANDARDISO
  2
AcmSurfTextStdISO
  3
"Amdt_StdImp|Product Description: AutoCAD Mechanical|Company: Autodesk, Inc."
 90
    33792
280
     0
281
     0
  0
CLASS
  1
ACMFCFSTANDARDISO
  2
AcmFCFStdISO
  3
"Amdt_StdImp|Product Description: AutoCAD Mechanical|Company: Autodesk, Inc."
 90
    33792
280
     0
281
     0
  0
CLASS
  1
ACMWELDSTANDARDISO
  2
AcmWeldingStdISO
  3
"Amdt_StdImp|Product Description: AutoCAD Mechanical|Company: Autodesk, Inc."
 90
    33792
280
     0
281
     0
  0
CLASS
  1
ACMIDSTANDARDISO
  2
AcmIdStdISO
  3
"Amdt_StdImp|Product Description: AutoCAD Mechanical|Company: Autodesk, Inc."
 90
    33792
280
     0
281
     0
  0
CLASS
  1
ACMDATUMSTANDARDISO
  2
AcmDatumStdISO
  3
"Amdt_StdImp|Product Description: AutoCAD Mechanical|Company: Autodesk, Inc."
 90
    33792
280
     0
281
     0
  0
CLASS
  1
ACMBOMSTANDARDISO
  2
AcmBOMStdISO
  3
"Amdt_StdImp|Product Description: AutoCAD Mechanical|Company: Autodesk, Inc."
 90
    33792
280
     0
281
     0
  0
CLASS
  1
ACMDETAILSTANDARDISO
  2
AmdtDetailSymStdISO
  3
"Amdt_StdImp|Product Description: AutoCAD Mechanical|Company: Autodesk, Inc."
 90
    33792
280
     0
281
     0
  0
CLASS
  1
ACMSECTIONSTANDARDISO
  2
AmdtSectionSymStdISO
  3
"Amdt_StdImp|Product Description: AutoCAD Mechanical|Company: Autodesk, Inc."
 90
    33792
280
     0
281
     0
  0
CLASS
  1
ACMCENTERLINESTANDARDISO
  2
AmdtCenterLineStdISO
  3
"Amdt_StdImp|Product Description: AutoCAD Mechanical|Company: Autodesk, Inc."
 90
    33792
280
     0
281
     0
  0
CLASS
  1
ACMNOTESTANDARDISO
  2
AmdtNoteStdISO
  3
"Amdt_StdImp|Product Description: AutoCAD Mechanical|Company: Autodesk, Inc."
 90
    33792
280
     0
281
     0
  0
CLASS
  1
ACAMGLAYSTD
  2
AcAmgLayStd
  3
"AmgLay|Product Description: AutoCAD Mechanical|Company: Autodesk, Inc."
 90
    33792
280
     0
281
     0
  0
CLASS
  1
ACAMGDIMSTD
  2
AcAmgDimStd
  3
"AmgDim|Product Description: AutoCAD Mechanical|Company: Autodesk, Inc."
 90
    33792
280
     0
281
     0
  0
CLASS
  1
ACAMGHOLECHARTSTDISO
  2
AcAmgHoleChartStdISO
  3
AmgDim|Product Description: AutoCAD Mechanical|Company: Autodesk, Inc.
 90
    33792
280
     0
281
     0
  0
CLASS
  1
ACAMGTITLESTD
  2
AcAmgTitleStd
  3
"AmgTitle|Product Description: AutoCAD Mechanical|Company: Autodesk, Inc."
 90
    36863
280
     0
281
     0
  0
CLASS
  1
LAYER_INDEX
  2
AcDbLayerIndex
  3
ObjectDBX Classes
 90
    32768
280
     0
281
     0
  0
CLASS
  1
IDBUFFER
  2
AcDbIdBuffer
  3
ObjectDBX Classes
 90
    32768
280
     0
281
     0
  0
CLASS
  1
DICTIONARYVAR
  2
AcDbDictionaryVar
  3
ObjectDBX Classes
 90
        0
280
     0
281
     0
  0
CLASS
  1
AM_DRAWING_MGR
  2
AcDmDwgMgr
  3
AcMechDwgViewMgmt
 90
     1024
280
     0
281
     0
  0
CLASS
  1
AM_DWG_DOCUMENT
  2
AcDmDwgDocument
  3
AcMechDwgViewMgmt
 90
     1024
280
     0
281
     0
  0
CLASS
  1
AM_DWG_SHEET
  2
AcDmSheet
  3
AcMechDwgViewMgmt
 90
     1024
280
     0
281
     0
  0
CLASS
  1
AM_VIEWDIMPARMAP
  2
AcDmViewDimParMap
  3
AcMechDwgViewMgmt
 90
     1024
280
     0
281
     0
  0
CLASS
  1
AM_DWGMGR_NAME
  2
AcDmDwgMgrName
  3
AcMechDwgViewMgmt
 90
     1024
280
     0
281
     0
  0
CLASS
  1
AMDTMENUSTATEMGR
  2
AmdtMenuStateMgr
  3
McadcomServices
 90
     1024
280
     0
281
     0
  0
CLASS
  1
AMDTMCOMMENUSTATE
  2
AmdtMcomMenuState
  3
McadcomServices
 90
     1024
280
     0
281
     0
  0
CLASS
  1
MAPIAMMOUDLE
  2
MApiAmModule
  3
MApiAmServices
 90
     1024
280
     0
281
     0
  0
CLASS
  1
AMDTADMENUSTATE
  2
AmdtAdMenuState
  3
DesignerServices
 90
     1024
280
     0
281
     0
  0
CLASS
  1
ADAPPL
  2
AcAdAppl
  3
DesignerServices
 90
     1024
280
     0
281
     0
  0
CLASS
  1
DEPMGR
  2
AcAdDepMgr
  3
DesignerServices
 90
     1024
280
     0
281
     0
  0
CLASS
  1
PARAMMGR
  2
AcAdParamMgr
  3
DesignerServices
 90
     1024
280
     0
281
     0
  0
CLASS
  1
PARAMSCOPE
  2
AcAdParamScope
  3
DesignerServices
 90
     1024
280
     0
281
     0
  0
CLASS
  1
NAMEDAPPL
  2
AcAdNamedAppl
  3
DesignerServices
 90
     1024
280
     0
281
     0
  0
CLASS
  1
AMDTDMMENUSTATE
  2
AmdtDmMenuState
  3
AcMechDwgViewMgmt
 90
     1024
280
     0
281
     0
  0
CLASS
  1
AMDTAMMENUSTATE
  2
AmdtAmMenuState
  3
DesignerAssemblies
 90
     1024
280
     0
281
     0
  0
CLASS
  1
ACAMPROJECT
  2
AcAmProject
  3
DesignerAssemblies
 90
     1024
280
     0
281
     0
  0
CLASS
  1
ACAMGRCOMPDEF
  2
AcAmGrCompDef
  3
DesignerAssemblies
 90
     1024
280
     0
281
     0
  0
CLASS
  1
ACCMCONTEXT
  2
AcCmContext
  3
DesignerAssemblies
 90
    33792
280
     0
281
     0
  0
CLASS
  1
ACAMCOMPDEF
  2
AcAmCompDef
  3
DesignerAssemblies
 90
     1024
280
     0
281
     0
  0
CLASS
  1
ACAMCOMPDEFMGR
  2
AcAmCompDefMgr
  3
DesignerAssemblies
 90
     1024
280
     0
281
     0
  0
CLASS
  1
AMCONTEXTMGR
  2
AcAmContextMgr
  3
DesignerAssemblies
 90
     1024
280
     0
281
     0
  0
CLASS
  1
ACAMCONTEXTMODELER
  2
AcAmContextModeler
  3
DesignerAssemblies
 90
     1024
280
     0
281
     0
  0
CLASS
  1
ACMTHREADLINESTANDARDISO
  2
AmdtThreadLineStdISO
  3
"Amdt_StdImp|Product Description: AutoCAD Mechanical|Company: Autodesk, Inc."
 90
    33792
280
     0
281
     0
  0
CLASS
  1
CATALOGSTATE
  2
AcAmCatalogState
  3
DesignerAssemblies
 90
     1024
280
     0
281
     0
  0
CLASS
  1
ACAMGRCOMPDEFSET
  2
AcAmGrCompDefSet
  3
DesignerAssemblies
 90
     1024
280
     0
281
     0
  0
CLASS
  1
AMDTBROWSERDBTAB
  2
AmdtBrowserDbTab
  3
McadcomServices
 90
     1024
280
     0
281
     0
  0
CLASS
  1
CBROWSERAPPOBJECT
  2
CBrowserAppObject
  3
McadcomServices
 90
     1024
280
     0
281
     0
  0
CLASS
  1
DM_PLACEHOLDER
  2
AcDmSelsetPlaceholder
  3
AcMechDwgViewMgmt
 90
     1024
280
     0
281
     0
  0
CLASS
  1
TABLESTYLE
  2
AcDbTableStyle
  3
ObjectDBX Classes
 90
     4095
280
     0
281
     0
  0
CLASS
  1
VAACXREFPANELOBJECT
  2
VaAcXREFPanelObject
  3
VAAC_ADDIN
 90
    32768
280
     0
281
     0
  0
CLASS
  1
VAACIMAGEINVENTORY
  2
VaAcImageInventory
  3
VAAC_ADDIN
 90
    32768
280
     0
281
     0
  0
CLASS
  1
AMDTNOTETEMPLATEDB
  2
AmdtNoteTemplateDB
  3
AcmSymBB|Product Description: AutoCAD Mechanical|Company: Autodesk, Inc.
 90
    33792
280
     0
281
     0
  0
CLASS
  1
ACAMGFILTERDAT
  2
AcAmgFilterDat
  3
"AcadM|Product Description: AutoCAD Mechanical|Company: Autodesk, Inc."
 90
    33792
280
     0
281
     0
  0
CLASS
  1
ACMBOM
  2
AcmBom
  3
"AcmSymBB|Product Description: AutoCAD Mechanical|Company: Autodesk, Inc."
 90
    33792
280
     0
281
     0
  0
CLASS
  1
AMDTFORMULAUPDATEDISPATCHER
  2
AmdtFormulaUpdateDispatcher
  3
AcMeServices
 90
    33792
280
     0
281
     0
  0
CLASS
  1
ACMSTANDARDDIN
  2
AcmStandardDIN
  3
"Amdt_StdImp|Product Description: AutoCAD Mechanical|Company: Autodesk, Inc."
 90
    33792
280
     0
281
     0
  0
CLASS
  1
AMDTEDGESTANDARDDIN13715
  2
AmdtEdgeStdDIN13715
  3
"Amdt_StdImp|Product Description: AutoCAD Mechanical|Company: Autodesk, Inc."
 90
    33792
280
     0
281
     0
  0
CLASS
  1
ACMSURFSTANDARDDIN
  2
AcmSurfTextStdDIN
  3
"Amdt_StdImp|Product Description: AutoCAD Mechanical|Company: Autodesk, Inc."
 90
    33792
280
     0
281
     0
  0
CLASS
  1
ACMFCFSTANDARDDIN
  2
AcmFCFStdDIN
  3
"Amdt_StdImp|Product Description: AutoCAD Mechanical|Company: Autodesk, Inc."
 90
    33792
280
     0
281
     0
  0
CLASS
  1
ACMWELDSTANDARDDIN
  2
AcmWeldingStdDIN
  3
"Amdt_StdImp|Product Description: AutoCAD Mechanical|Company: Autodesk, Inc."
 90
    33792
280
     0
281
     0
  0
CLASS
  1
ACMIDSTANDARDDIN
  2
AcmIdStdDIN
  3
"Amdt_StdImp|Product Description: AutoCAD Mechanical|Company: Autodesk, Inc."
 90
    33792
280
     0
281
     0
  0
CLASS
  1
ACMDATUMSTANDARDDIN
  2
AcmDatumStdDIN
  3
"Amdt_StdImp|Product Description: AutoCAD Mechanical|Company: Autodesk, Inc."
 90
    33792
280
     0
281
     0
  0
CLASS
  1
ACMBOMSTANDARDDIN
  2
AcmBOMStdDIN
  3
"Amdt_StdImp|Product Description: AutoCAD Mechanical|Company: Autodesk, Inc."
 90
    33792
280
     0
281
     0
  0
CLASS
  1
ACMDETAILSTANDARDDIN
  2
AmdtDetailSymStdDIN
  3
"Amdt_StdImp|Product Description: AutoCAD Mechanical|Company: Autodesk, Inc."
 90
    33792
280
     0
281
     0
  0
CLASS
  1
ACMSECTIONSTANDARDDIN
  2
AmdtSectionSymStdDIN
  3
"Amdt_StdImp|Product Description: AutoCAD Mechanical|Company: Autodesk, Inc."
 90
    33792
280
     0
281
     0
  0
CLASS
  1
ACMCENTERLINESTANDARDDIN
  2
AmdtCenterLineStdDIN
  3
"Amdt_StdImp|Product Description: AutoCAD Mechanical|Company: Autodesk, Inc."
 90
    33792
280
     0
281
     0
  0
CLASS
  1
ACMTHREADLINESTANDARDDIN
  2
AmdtThreadLineStdDIN
  3
"Amdt_StdImp|Product Description: AutoCAD Mechanical|Company: Autodesk, Inc."
 90
    33792
280
     0
281
     0
  0
CLASS
  1
ACMNOTESTANDARDDIN
  2
AmdtNoteStdDIN
  3
"Amdt_StdImp|Product Description: AutoCAD Mechanical|Company: Autodesk, Inc."
 90
    33792
280
     0
281
     0
  0
CLASS
  1
ACAMGHOLECHARTSTDDIN
  2
AcAmgHoleChartStdDIN
  3
AmgDim|Product Description: AutoCAD Mechanical|Company: Autodesk, Inc.
 90
    33792
280
     0
281
     0
  0
CLASS
  1
ACRFATTGENMGR
  2
AcRfAttGeneralMgr
  3
AcAttribServices
 90
    33792
280
     0
281
     0
  0
CLASS
  1
SORTENTSTABLE
  2
AcDbSortentsTable
  3
ObjectDBX Classes
 90
        0
280
     0
281
     0
  0
CLASS
  1
DIMASSOC
  2
AcDbDimAssoc
  3
"AcDbDimAssoc|Product Desc:     AcDim ARX App For Dimension|Company:          Autodesk, Inc.|WEB Address:      www.autodesk.com"
 90
        0
280
     0
281
     0
  0
CLASS
  1
AC_AM_MVD_DEP_MGR
  2
AcAmMVDdepMgr
  3
DesignerAssemblies
 90
    33792
280
     0
281
     0
  0
CLASS
  1
AC_AM_MASTER_VIEW_DEF
  2
AcAmMasterViewDef
  3
DesignerAssemblies
 90
    33792
280
     0
281
     0
  0
CLASS
  1
AC_AM_DIRTY_NODES
  2
AcAmDirtyNodes
  3
DesignerAssemblies
 90
    33792
280
     0
281
     0
  0
CLASS
  1
AC_AM_MAPPER_CACHE
  2
AcAmMapperCache
  3
DesignerAssemblies
 90
    33792
280
     0
281
     0
  0
CLASS
  1
ACAMMVDBACKUPOBJECT
  2
AcAmMVDBackupObject
  3
DesignerAssemblies
 90
    33792
280
     0
281
     0
  0
CLASS
  1
AC_AM_2D_XREF_MGR
  2
AcAmXrefMgr2d
  3
DesignerAssemblies
 90
    33792
280
     0
281
     0
  0
CLASS
  1
AC_AM_HIDE_SITUATION
  2
AcAmHideSituation
  3
DesignerAssemblies
 90
    33792
280
     0
281
     0
  0
CLASS
  1
ACAMWBLOCKTEMPENTS
  2
AcAmStructInOutTempObjsHolder
  3
DesignerAssemblies
 90
    33792
280
     0
281
     0
  0
CLASS
  1
STDPART2D
  2
AmgStdPart
  3
AmgStdPart|Product Description: AutoCAD Mechanical|Company: Autodesk, Inc.
 90
    36863
280
     0
281
     1
  0
CLASS
  1
ACMDATAENTRYPART
  2
AcmDataEntryPart
  3
AcmSymBB|Product Description: AutoCAD Mechanical|Company: Autodesk, Inc.
 90
    33792
280
     0
281
     0
  0
CLASS
  1
ACMPARTREF
  2
AcmPartRef
  3
"AcmSymBB|Product Description: AutoCAD Mechanical|Company: Autodesk, Inc."
 90
    36863
280
     0
281
     1
  0
CLASS
  1
ACDBSTDPARTRES_LINE
  2
AcDbStdPartRes_Line
  3
AmgStdPart|Product Description: AutoCAD Mechanical|Company: Autodesk, Inc.
 90
    33792
280
     0
281
     0
  0
CLASS
  1
ACAD_EVALUATION_GRAPH
  2
AcDbEvalGraph
  3
ObjectDBX Classes
 90
    33921
280
     0
281
     0
  0
CLASS
  1
ACAECUSTOBJ
  2
AcAeEditorObj
  3
AcAeEditorObj
 90
    33792
280
     0
281
     0
  0
CLASS
  1
ACDB_DYNAMICBLOCKPURGEPREVENTER_VERSION
  2
AcDbDynamicBlockPurgePreventer
  3
ObjectDBX Classes
 90
    33921
280
     0
281
     0
  0
CLASS
  1
MATERIAL
  2
AcDbMaterial
  3
ObjectDBX Classes
 90
     1153
280
     0
281
     0
  0
CLASS
  1
VISUALSTYLE
  2
AcDbVisualStyle
  3
ObjectDBX Classes
 90
     4095
280
     0
281
     0
  0
CLASS
  1
SCALE
  2
AcDbScale
  3
ObjectDBX Classes
 90
     1153
280
     0
281
     0
  0
CLASS
  1
MLEADERSTYLE
  2
AcDbMLeaderStyle
  3
ACDB_MLEADERSTYLE_CLASS
 90
     4095
280
     0
281
     0
  0
CLASS
  1
ACMTAPERSTANDARDDIN
  2
AcmTaperStdDIN
  3
"Amdt_StdImp|Product Description: AutoCAD Mechanical|Company: Autodesk, Inc."
 90
    33792
280
     0
281
     0
  0
CLASS
  1
ACMANOOTATIONVIEWSTANDARDDIN
  2
AmdtAnViewStdDIN
  3
"Amdt_StdImp|Product Description: AutoCAD Mechanical|Company: Autodesk, Inc."
 90
    33792
280
     0
281
     0
  0
CLASS
  1
CAMSSTRUCTBTNSTATE
  2
StructBtnState
  3
DesignerAssemblies
 90
    33792
280
     0
281
     0
  0
CLASS
  1
CELLSTYLEMAP
  2
AcDbCellStyleMap
  3
ObjectDBX Classes
 90
     1152
280
     0
281
     0
  0
CLASS
  1
ACMSTANDARDANSI
  2
AcmStandardANSI
  3
"Amdt_StdImp|Product Description: AutoCAD Mechanical|Company: Autodesk, Inc."
 90
    33792
280
     0
281
     0
  0
CLASS
  1
ACMSURFSTANDARDANSI
  2
AcmSurfTextStdANSI
  3
"Amdt_StdImp|Product Description: AutoCAD Mechanical|Company: Autodesk, Inc."
 90
    33792
280
     0
281
     0
  0
CLASS
  1
ACMFCFSTANDARDANSI
  2
AcmFCFStdANSI
  3
"Amdt_StdImp|Product Description: AutoCAD Mechanical|Company: Autodesk, Inc."
 90
    33792
280
     0
281
     0
  0
CLASS
  1
ACMWELDSTANDARDANSI
  2
AcmWeldingStdANSI
  3
"Amdt_StdImp|Product Description: AutoCAD Mechanical|Company: Autodesk, Inc."
 90
    33792
280
     0
281
     0
  0
CLASS
  1
ACMIDSTANDARDANSI
  2
AcmIdStdANSI
  3
"Amdt_StdImp|Product Description: AutoCAD Mechanical|Company: Autodesk, Inc."
 90
    33792
280
     0
281
     0
  0
CLASS
  1
ACMDATUMSTANDARDANSI
  2
AcmDatumStdANSI
  3
"Amdt_StdImp|Product Description: AutoCAD Mechanical|Company: Autodesk, Inc."
 90
    33792
280
     0
281
     0
  0
CLASS
  1
ACMBOMSTANDARDANSI
  2
AcmBOMStdANSI
  3
"Amdt_StdImp|Product Description: AutoCAD Mechanical|Company: Autodesk, Inc."
 90
    33792
280
     0
281
     0
  0
CLASS
  1
ACMDETAILSTANDARDANSI
  2
AmdtDetailSymStdANSI
  3
"Amdt_StdImp|Product Description: AutoCAD Mechanical|Company: Autodesk, Inc."
 90
    33792
280
     0
281
     0
  0
CLASS
  1
ACMSECTIONSTANDARDANSI
  2
AmdtSectionSymStdANSI
  3
"Amdt_StdImp|Product Description: AutoCAD Mechanical|Company: Autodesk, Inc."
 90
    33792
280
     0
281
     0
  0
CLASS
  1
ACMCENTERLINESTANDARDANSI
  2
AmdtCenterLineStdANSI
  3
"Amdt_StdImp|Product Description: AutoCAD Mechanical|Company: Autodesk, Inc."
 90
    33792
280
     0
281
     0
  0
CLASS
  1
ACMTHREADLINESTANDARDANSI
  2
AmdtThreadLineStdANSI
  3
"Amdt_StdImp|Product Description: AutoCAD Mechanical|Company: Autodesk, Inc."
 90
    33792
280
     0
281
     0
  0
CLASS
  1
ACMNOTESTANDARDANSI
  2
AmdtNoteStdANSI
  3
"Amdt_StdImp|Product Description: AutoCAD Mechanical|Company: Autodesk, Inc."
 90
    33792
280
     0
281
     0
  0
CLASS
  1
ACMTAPERSTANDARDANSI
  2
AcmTaperStdANSI
  3
"Amdt_StdImp|Product Description: AutoCAD Mechanical|Company: Autodesk, Inc."
 90
    33792
280
     0
281
     0
  0
CLASS
  1
ACMANOOTATIONVIEWSTANDARDANSI
  2
AmdtAnViewStdANSI
  3
"Amdt_StdImp|Product Description: AutoCAD Mechanical|Company: Autodesk, Inc."
 90
    33792
280
     0
281
     0
  0
CLASS
  1
ACAMGHOLECHARTSTDANSI
  2
AcAmgHoleChartStdANSI
  3
AmgDim|Product Description: AutoCAD Mechanical|Company: Autodesk, Inc.
 90
    33792
280
     0
281
     0
  0
ENDSEC
  0
SECTION
  2
TABLES
  0
TABLE
  2
VPORT
  5
8
330
0
100
AcDbSymbolTable
 70
     1
  0
VPORT
  5
1A193
330
8
100
AcDbSymbolTableRecord
100
AcDbViewportTableRecord
  2
*Active
 70
     0
 10
0.0
 20
0.0
 11
1.0
 21
1.0
 12
23182.53702698857
 22
832.8442942966463
 13
0.0
 23
0.0
 14
2.5
 24
2.5
 15
10.0
 25
10.0
 16
0.0
 26
0.0
 36
1.0
 17
0.0
 27
0.0
 37
0.0
 40
584.2541803048917
 41
1.513838748495788
 42
50.0
 43
0.0
 44
0.0
 50
0.0
 51
0.0
 71
     0
 72
   100
 73
     1
 74
     3
 75
     0
 76
     0
 77
     0
 78
     0
281
     0
 65
     0
110
0.0
120
0.0
130
0.0
111
1.0
121
0.0
131
0.0
112
0.0
122
1.0
132
0.0
 79
     0
146
0.0
  0
ENDTAB
  0
TABLE
  2
LTYPE
  5
5
330
0
100
AcDbSymbolTable
 70
    25
  0
LTYPE
  5
14
330
5
100
AcDbSymbolTableRecord
100
AcDbLinetypeTableRecord
  2
ByBlock
 70
     0
  3

 72
    65
 73
     0
 40
0.0
  0
LTYPE
  5
15
330
5
100
AcDbSymbolTableRecord
100
AcDbLinetypeTableRecord
  2
ByLayer
 70
     0
  3

 72
    65
 73
     0
 40
0.0
  0
LTYPE
  5
16
330
5
100
AcDbSymbolTableRecord
100
AcDbLinetypeTableRecord
  2
Continuous
 70
     0
  3
Solid line
 72
    65
 73
     0
 40
0.0
  0
LTYPE
  5
67
330
5
100
AcDbSymbolTableRecord
100
AcDbLinetypeTableRecord
  2
Amconstr
 70
     0
  3
_______________________
 72
    65
 73
     2
 40
9999.0
 49
9999.0
 74
     0
 49
0.0
 74
     0
  0
LTYPE
  5
6C
330
5
100
AcDbSymbolTableRecord
100
AcDbLinetypeTableRecord
  2
Amzigzag
 70
     0
  3
/\/-/\/-/\/-/\/-/\/-/\/
 72
    65
 73
     2
 40
11.0001
 49
0.0001
 74
     4
 75
   136
340
22C
 46
0.04
 50
0.0
 44
0.0
 45
0.0
 49
-11.0
 74
     0
  0
LTYPE
  5
7E
330
5
100
AcDbSymbolTableRecord
100
AcDbLinetypeTableRecord
  2
CENTER
 70
     0
  3
__ . __
 72
    65
 73
     4
 40
7.0
 49
4.0
 74
     0
 49
-1.0
 74
     0
 49
1.0
 74
     0
 49
-1.0
 74
     0
  0
LTYPE
  5
D8
330
5
100
AcDbSymbolTableRecord
100
AcDbLinetypeTableRecord
  2
HIDDEN
 70
     0
  3
Hidden __ __ __ __ __ __ __ __ __ __ __ __ __ _
 72
    65
 73
     2
 40
9.524999999999996
 49
6.349999999999997
 74
     0
 49
-3.174999999999998
 74
     0
  0
LTYPE
  5
D9
330
5
100
AcDbSymbolTableRecord
100
AcDbLinetypeTableRecord
  2
PHANTOM2
 70
     0
  3
Phantom (.5x) ___ _ _ ___ _ _ ___ _ _ ___ _ _
 72
    65
 73
     6
 40
31.75
 49
15.875
 74
     0
 49
-3.174999999999998
 74
     0
 49
3.174999999999998
 74
     0
 49
-3.174999999999998
 74
     0
 49
3.174999999999998
 74
     0
 49
-3.174999999999998
 74
     0
  0
LTYPE
  5
2E3
330
5
100
AcDbSymbolTableRecord
100
AcDbLinetypeTableRecord
  2
ACDINWELD
 70
     0
  3
_ _ _ _ _
 72
    65
 73
     2
 40
2.0
 49
2.0
 74
     0
 49
-1.0
 74
     0
  0
LTYPE
  5
2E4
330
5
100
AcDbSymbolTableRecord
100
AcDbLinetypeTableRecord
  2
ACDINTGB
 70
     0
  3
__ . . __ . .
 72
    65
 73
     6
 40
9.0
 49
4.0
 74
     0
 49
-1.0
 74
     0
 49
1.0
 74
     0
 49
-1.0
 74
     0
 49
1.0
 74
     0
 49
-1.0
 74
     0
  0
LTYPE
  5
2E5
330
5
100
AcDbSymbolTableRecord
100
AcDbLinetypeTableRecord
  2
ACDINTGL
 70
     0
  3
_ _ _ _ _
 72
    65
 73
     2
 40
3.0
 49
2.0
 74
     0
 49
-1.0
 74
     0
  0
LTYPE
  5
31F
330
5
100
AcDbSymbolTableRecord
100
AcDbLinetypeTableRecord
  2
AM_DIN_F_W050
 70
     0
  3
__ __ __ __ __ __ __ __ __ __ __ __ __ __ __
 72
    65
 73
     2
 40
6.25
 49
4.75
 74
     0
 49
-1.5
 74
     0
  0
LTYPE
  5
320
330
5
100
AcDbSymbolTableRecord
100
AcDbLinetypeTableRecord
  2
AM_DIN_G_W050
 70
     0
  3
____ . ____ . ____ . ____ . ____ . ____ . ____
 72
    65
 73
     4
 40
13.75
 49
9.75
 74
     0
 49
-1.5
 74
     0
 49
1.0
 74
     0
 49
-1.5
 74
     0
  0
LTYPE
  5
321
330
5
100
AcDbSymbolTableRecord
100
AcDbLinetypeTableRecord
  2
AM_DIN_K_W050
 70
     0
  3
_____ . . _____ . . _____ . . ____ .. ____
 72
    65
 73
     6
 40
16.25
 49
9.75
 74
     0
 49
-1.5
 74
     0
 49
1.0
 74
     0
 49
-1.5
 74
     0
 49
1.0
 74
     0
 49
-1.5
 74
     0
  0
LTYPE
  5
322
330
5
100
AcDbSymbolTableRecord
100
AcDbLinetypeTableRecord
  2
AM_DIN_G_W050x2
 70
     0
  3
__ . __ . __ . __ . __ . __
 72
    65
 73
     4
 40
6.875
 49
4.75
 74
     0
 49
-0.875
 74
     0
 49
0.375
 74
     0
 49
-0.875
 74
     0
  0
LTYPE
  5
323
330
5
100
AcDbSymbolTableRecord
100
AcDbLinetypeTableRecord
  2
AM_DIN_F_W050x2
 70
     0
  3
 _ _ _ _ _ _ _ _ _ _ _ _
 72
    65
 73
     2
 40
3.125
 49
2.25
 74
     0
 49
-0.875
 74
     0
  0
LTYPE
  5
1AA02
330
5
100
AcDbSymbolTableRecord
100
AcDbLinetypeTableRecord
  2
CENTER2
 70
     0
  3
Center (.5x) ___ _ ___ _ ___ _ ___ _ ___ _ ___
 72
    65
 73
     4
 40
1.125
 49
0.75
 74
     0
 49
-0.125
 74
     0
 49
0.125
 74
     0
 49
-0.125
 74
     0
  0
LTYPE
  5
1AA03
330
5
100
AcDbSymbolTableRecord
100
AcDbLinetypeTableRecord
  2
HIDDEN2
 70
     0
  3
Hidden (.5x) _ _ _ _ _ _ _ _ _ _ _ _ _ _ _ _ _
 72
    65
 73
     2
 40
0.1875
 49
0.125
 74
     0
 49
-0.0625
 74
     0
  0
LTYPE
  5
1AA04
330
5
100
AcDbSymbolTableRecord
100
AcDbLinetypeTableRecord
  2
Amzigzag2
 70
     0
  3
/\/-/\/-/\/-/\/-/\/-/\/
 72
    65
 73
     2
 40
0.4401
 49
0.0001
 74
     4
 75
   136
340
22C
 46
0.0016
 50
0.0
 44
0.0
 45
0.0
 49
-0.4400000000000002
 74
     0
  0
LTYPE
  5
1AA05
330
5
100
AcDbSymbolTableRecord
100
AcDbLinetypeTableRecord
  2
ACANSTGB
 70
     0
  3
__ . . __ . .
 72
    65
 73
     6
 40
0.35433070866
 49
0.15748031496
 74
     0
 49
-0.03937007874
 74
     0
 49
0.03937007874
 74
     0
 49
-0.03937007874
 74
     0
 49
0.03937007874
 74
     0
 49
-0.03937007874
 74
     0
  0
LTYPE
  5
1AA06
330
5
100
AcDbSymbolTableRecord
100
AcDbLinetypeTableRecord
  2
ACANSTGL
 70
     0
  3
_ _ _ _ _
 72
    65
 73
     2
 40
0.11811023622
 49
0.07874015748
 74
     0
 49
-0.03937007874
 74
     0
  0
LTYPE
  5
1AE26
330
5
100
AcDbSymbolTableRecord
100
AcDbLinetypeTableRecord
  2
MITTE
 70
     0
  3
Mitte ____ _ ____ _ ____ _ ____
 72
    65
 73
     4
 40
50.8
 49
31.75
 74
     0
 49
-6.349999999999998
 74
     0
 49
6.349999999999998
 74
     0
 49
-6.349999999999998
 74
     0
  0
LTYPE
  5
1B40F
330
5
100
AcDbSymbolTableRecord
100
AcDbLinetypeTableRecord
  2
AM_ISO02W050
 70
     0
  3
__ __ __ __ __ __ __ __ __ __ __ __ __ __ __
 72
    65
 73
     2
 40
7.5
 49
6.0
 74
     0
 49
-1.5
 74
     0
  0
LTYPE
  5
1B410
330
5
100
AcDbSymbolTableRecord
100
AcDbLinetypeTableRecord
  2
AM_ISO08W050
 70
     0
  3
____ . ____ . ____ . ____ . ____ . ____ . ____
 72
    65
 73
     4
 40
18.0
 49
12.0
 74
     0
 49
-1.5
 74
     0
 49
3.0
 74
     0
 49
-1.5
 74
     0
  0
LTYPE
  5
1B411
330
5
100
AcDbSymbolTableRecord
100
AcDbLinetypeTableRecord
  2
AM_ISO09W050
 70
     0
  3
_____ . . _____ . . _____ . . ____ .. ____
 72
    65
 73
     6
 40
22.5
 49
12.0
 74
     0
 49
-1.5
 74
     0
 49
3.0
 74
     0
 49
-1.5
 74
     0
 49
3.0
 74
     0
 49
-1.5
 74
     0
  0
LTYPE
  5
1B412
330
5
100
AcDbSymbolTableRecord
100
AcDbLinetypeTableRecord
  2
AM_ISO08W050x2
 70
     0
  3
__ . __ . __ . __ . __ . __
 72
    65
 73
     4
 40
9.0
 49
6.0
 74
     0
 49
-0.75
 74
     0
 49
1.5
 74
     0
 49
-0.75
 74
     0
  0
LTYPE
  5
1B413
330
5
100
AcDbSymbolTableRecord
100
AcDbLinetypeTableRecord
  2
AM_ISO02W050x2
 70
     0
  3
 _ _ _ _ _ _ _ _ _ _ _ _
 72
    65
 73
     2
 40
3.75
 49
3.0
 74
     0
 49
-0.75
 74
     0
  0
ENDTAB
  0
TABLE
  2
LAYER
  5
2
102
{ACAD_XDICTIONARY
360
5E1
102
}
330
0
100
AcDbSymbolTable
 70
     6
  0
LAYER
  5
10
102
{ACAD_XDICTIONARY
360
1A4F2
102
}
330
2
100
AcDbSymbolTableRecord
100
AcDbLayerTableRecord
  2
0
 70
     0
 62
     7
  6
Continuous
370
    -3
390
F
  0
LAYER
  5
1080A
102
{ACAD_XDICTIONARY
360
1A4F6
102
}
330
2
100
AcDbSymbolTableRecord
100
AcDbLayerTableRecord
  2
AM_5
 70
     0
 62
     3
  6
Continuous
370
    25
390
F
1001
AcAecLayerStandard
1000

1000

  0
LAYER
  5
1081A
330
2
100
AcDbSymbolTableRecord
100
AcDbLayerTableRecord
  2
Defpoints
 70
     0
 62
     7
  6
Continuous
290
     0
370
    -3
390
F
  0
LAYER
  5
1A8AE
102
{ACAD_XDICTIONARY
360
1A8AF
102
}
330
2
100
AcDbSymbolTableRecord
100
AcDbLayerTableRecord
  2
anbauteile dünn
 70
     0
 62
     1
  6
Continuous
370
    25
390
F
1001
AcAecLayerStandard
1000

1000

  0
LAYER
  5
1AA08
330
2
100
AcDbSymbolTableRecord
100
AcDbLayerTableRecord
  2
AM_0
 70
     0
 62
     7
  6
Continuous
370
    30
390
F
1001
AcAecLayerStandard
1000

1000

  0
LAYER
  5
1AE27
102
{ACAD_XDICTIONARY
360
1AE28
102
}
330
2
100
AcDbSymbolTableRecord
100
AcDbLayerTableRecord
  2
AM_7
 70
     0
 62
     4
  6
MITTE
370
    -3
390
F
  0
ENDTAB
  0
TABLE
  2
STYLE
  5
3
330
0
100
AcDbSymbolTable
 70
     5
  0
STYLE
  5
11
330
3
100
AcDbSymbolTableRecord
100
AcDbTextStyleTableRecord
  2
STANDARD
 70
     0
 40
0.0
 41
1.0
 50
0.0
 71
     0
 42
2.5
  3
ARIAL.TTF
  4

1001
ACAD
1000
Arial
1071
       34
  0
STYLE
  5
22C
330
3
100
AcDbSymbolTableRecord
100
AcDbTextStyleTableRecord
  2

 70
     1
 40
0.0
 41
1.0
 50
0.0
 71
     0
 42
2.5
  3
genltshp.shx
  4

  0
STYLE
  5
2D5
330
3
100
AcDbSymbolTableRecord
100
AcDbTextStyleTableRecord
  2
ACDINTS
 70
     0
 40
1.0
 41
1.0
 50
0.0
 71
     0
 42
2.5
  3
isocp.shx
  4

  0
STYLE
  5
2E2
330
3
100
AcDbSymbolTableRecord
100
AcDbTextStyleTableRecord
  2
ACDINGDT
 70
     0
 40
0.0
 41
1.0
 50
0.0
 71
     0
 42
2.5
  3
AMGDT
  4

  0
STYLE
  5
1AA09
330
3
100
AcDbSymbolTableRecord
100
AcDbTextStyleTableRecord
  2
ACANSGDT
 70
     0
 40
0.0
 41
1.0
 50
0.0
 71
     0
 42
0.2
  3
amgdt.shx
  4

  0
ENDTAB
  0
TABLE
  2
VIEW
  5
6
330
0
100
AcDbSymbolTable
 70
     0
  0
ENDTAB
  0
TABLE
  2
UCS
  5
7
330
0
100
AcDbSymbolTable
 70
     0
  0
ENDTAB
  0
TABLE
  2
APPID
  5
9
330
0
100
AcDbSymbolTable
 70
    76
  0
APPID
  5
12
330
9
100
AcDbSymbolTableRecord
100
AcDbRegAppTableRecord
  2
ACAD
 70
     0
  0
APPID
  5
46
330
9
100
AcDbSymbolTableRecord
100
AcDbRegAppTableRecord
  2
MCAD_NO_VIS
 70
     0
  0
APPID
  5
47
330
9
100
AcDbSymbolTableRecord
100
AcDbRegAppTableRecord
  2
ACAD_TEMP_GRAPHIC
 70
     0
  0
APPID
  5
58
330
9
100
AcDbSymbolTableRecord
100
AcDbRegAppTableRecord
  2
ACATTRIBSERVICES
 70
     0
  0
APPID
  5
EE
330
9
100
AcDbSymbolTableRecord
100
AcDbRegAppTableRecord
  2
AD_DRAW
 70
     0
  0
APPID
  5
10C
330
9
100
AcDbSymbolTableRecord
100
AcDbRegAppTableRecord
  2
DESIGNERASSEMBLIES
 70
     0
  0
APPID
  5
111
330
9
100
AcDbSymbolTableRecord
100
AcDbRegAppTableRecord
  2
ACADM_DIM_EDIT
 70
     0
  0
APPID
  5
112
330
9
100
AcDbSymbolTableRecord
100
AcDbRegAppTableRecord
  2
AMDT_DM_ADJ
 70
     0
  0
APPID
  5
1A3
330
9
100
AcDbSymbolTableRecord
100
AcDbRegAppTableRecord
  2
ACAD_DSTYLE_DIMARC_LENGTH_SYMBOL
 70
     0
  0
APPID
  5
1A4
330
9
100
AcDbSymbolTableRecord
100
AcDbRegAppTableRecord
  2
ACAD_DSTYLE_DIMJOGGED_JOGANGLE_SYMBOL
 70
     0
  0
APPID
  5
5D4
330
9
100
AcDbSymbolTableRecord
100
AcDbRegAppTableRecord
  2
ACAD_PSEXT
 70
     0
  0
APPID
  5
5D5
330
9
100
AcDbSymbolTableRecord
100
AcDbRegAppTableRecord
  2
GENIUS_GENOENT_13
 70
     0
  0
APPID
  5
5D6
330
9
100
AcDbSymbolTableRecord
100
AcDbRegAppTableRecord
  2
GENIUS_VERSION2
 70
     0
  0
APPID
  5
5D7
330
9
100
AcDbSymbolTableRecord
100
AcDbRegAppTableRecord
  2
GENIUS_GENREC_14
 70
     0
  0
APPID
  5
5D8
330
9
100
AcDbSymbolTableRecord
100
AcDbRegAppTableRecord
  2
GENIUS_GENODEF_13
 70
     0
  0
APPID
  5
5D9
330
9
100
AcDbSymbolTableRecord
100
AcDbRegAppTableRecord
  2
GENIUS_GENOBJ-N-REC_13
 70
     0
  0
APPID
  5
5DA
330
9
100
AcDbSymbolTableRecord
100
AcDbRegAppTableRecord
  2
GENIUS_GENTRA_14
 70
     0
  0
APPID
  5
5DB
330
9
100
AcDbSymbolTableRecord
100
AcDbRegAppTableRecord
  2
GENIUS_GENOBJ-N-TIT_13
 70
     0
  0
APPID
  5
5DC
330
9
100
AcDbSymbolTableRecord
100
AcDbRegAppTableRecord
  2
GENIUS_GENTITLE_13
 70
     0
  0
APPID
  5
5DD
330
9
100
AcDbSymbolTableRecord
100
AcDbRegAppTableRecord
  2
GENIUS_GENOREF_13
 70
     0
  0
APPID
  5
5DE
330
9
100
AcDbSymbolTableRecord
100
AcDbRegAppTableRecord
  2
GENIUS_GENOLIS_13
 70
     0
  0
APPID
  5
5DF
330
9
100
AcDbSymbolTableRecord
100
AcDbRegAppTableRecord
  2
GENIUS_GENOBJ-N-SDF_13
 70
     0
  0
APPID
  5
5E0
330
9
100
AcDbSymbolTableRecord
100
AcDbRegAppTableRecord
  2
GENIUS_GENSCREG_15
 70
     0
  0
APPID
  5
2FBB
330
9
100
AcDbSymbolTableRecord
100
AcDbRegAppTableRecord
  2
GENIUS_GENOBJ-N-CRS_13
 70
     0
  0
APPID
  5
2FBC
330
9
100
AcDbSymbolTableRecord
100
AcDbRegAppTableRecord
  2
GENIUS_GENOBJ-N-CEN_13
 70
     0
  0
APPID
  5
2FBD
330
9
100
AcDbSymbolTableRecord
100
AcDbRegAppTableRecord
  2
GENIUS_GENOBJ-N-HTC_13
 70
     0
  0
APPID
  5
2FBE
330
9
100
AcDbSymbolTableRecord
100
AcDbRegAppTableRecord
  2
GENIUS_GENHATCH_13
 70
     0
  0
APPID
  5
2FBF
330
9
100
AcDbSymbolTableRecord
100
AcDbRegAppTableRecord
  2
GENIUS_GENBH_13
 70
     0
  0
APPID
  5
2FC0
330
9
100
AcDbSymbolTableRecord
100
AcDbRegAppTableRecord
  2
GENIUS_GENOBJ-NBEHI-BHF_13
 70
     0
  0
APPID
  5
2FC1
330
9
100
AcDbSymbolTableRecord
100
AcDbRegAppTableRecord
  2
GENIUS_GENOBJ-F-PART_13
 70
     0
  0
APPID
  5
2FC2
330
9
100
AcDbSymbolTableRecord
100
AcDbRegAppTableRecord
  2
GENIUS_GEFSTDP_13
 70
     0
  0
APPID
  5
2FC3
330
9
100
AcDbSymbolTableRecord
100
AcDbRegAppTableRecord
  2
GEVPT
 70
     0
  0
APPID
  5
2FC4
330
9
100
AcDbSymbolTableRecord
100
AcDbRegAppTableRecord
  2
GEVIT
 70
     0
  0
APPID
  5
2FC5
330
9
100
AcDbSymbolTableRecord
100
AcDbRegAppTableRecord
  2
VCC
 70
     0
  0
APPID
  5
2FC6
330
9
100
AcDbSymbolTableRecord
100
AcDbRegAppTableRecord
  2
GENBH
 70
     0
  0
APPID
  5
2FC7
330
9
100
AcDbSymbolTableRecord
100
AcDbRegAppTableRecord
  2
GEVMK
 70
     0
  0
APPID
  5
2FC8
330
9
100
AcDbSymbolTableRecord
100
AcDbRegAppTableRecord
  2
GENIUS_GEFPARTINS_13
 70
     0
  0
APPID
  5
2FC9
330
9
100
AcDbSymbolTableRecord
100
AcDbRegAppTableRecord
  2
GENIUS_GENOBJ-N-CRC_13
 70
     0
  0
APPID
  5
2FCA
330
9
100
AcDbSymbolTableRecord
100
AcDbRegAppTableRecord
  2
GENIUS_GENCRC_14
 70
     0
  0
APPID
  5
2FCB
330
9
100
AcDbSymbolTableRecord
100
AcDbRegAppTableRecord
  2
GEVID978597865
 70
     0
  0
APPID
  5
2FCC
330
9
100
AcDbSymbolTableRecord
100
AcDbRegAppTableRecord
  2
GEVID978597866
 70
     0
  0
APPID
  5
2FCD
330
9
100
AcDbSymbolTableRecord
100
AcDbRegAppTableRecord
  2
GEVID978597868
 70
     0
  0
APPID
  5
2FCE
330
9
100
AcDbSymbolTableRecord
100
AcDbRegAppTableRecord
  2
GENIUS_GENCEN_19
 70
     0
  0
APPID
  5
2FCF
330
9
100
AcDbSymbolTableRecord
100
AcDbRegAppTableRecord
  2
AcAecLayerStandard
 70
     0
  0
APPID
  5
5580
330
9
100
AcDbSymbolTableRecord
100
AcDbRegAppTableRecord
  2
GENIUS_FIRSTVISTXT_14
 70
     0
  0
APPID
  5
5581
330
9
100
AcDbSymbolTableRecord
100
AcDbRegAppTableRecord
  2
GENIUS_SECONDVISTXT_14
 70
     0
  0
APPID
  5
5582
330
9
100
AcDbSymbolTableRecord
100
AcDbRegAppTableRecord
  2
GENIUS_GENOBJ-N-FIL_13
 70
     0
  0
APPID
  5
5583
330
9
100
AcDbSymbolTableRecord
100
AcDbRegAppTableRecord
  2
GENIUS_GEFWELD_13
 70
     0
  0
APPID
  5
5584
330
9
100
AcDbSymbolTableRecord
100
AcDbRegAppTableRecord
  2
GENIUS_GENOBJ-NBEHI-BHB_13
 70
     0
  0
APPID
  5
5585
330
9
100
AcDbSymbolTableRecord
100
AcDbRegAppTableRecord
  2
GENIUS_GENOBJ-F-WELS_13
 70
     0
  0
APPID
  5
5586
330
9
100
AcDbSymbolTableRecord
100
AcDbRegAppTableRecord
  2
AMG_2DHIDE
 70
     0
  0
APPID
  5
5587
330
9
100
AcDbSymbolTableRecord
100
AcDbRegAppTableRecord
  2
GEVID992928022
 70
     0
  0
APPID
  5
5588
330
9
100
AcDbSymbolTableRecord
100
AcDbRegAppTableRecord
  2
GENIUS_GENOBJ-F-DESC_13
 70
     0
  0
APPID
  5
5589
330
9
100
AcDbSymbolTableRecord
100
AcDbRegAppTableRecord
  2
GENIUS_GEFDESC_14
 70
     0
  0
APPID
  5
558A
330
9
100
AcDbSymbolTableRecord
100
AcDbRegAppTableRecord
  2
GEVID992928023
 70
     0
  0
APPID
  5
558B
330
9
100
AcDbSymbolTableRecord
100
AcDbRegAppTableRecord
  2
GENIUS_GENOBJ-F-FEAT_13
 70
     0
  0
APPID
  5
558C
330
9
100
AcDbSymbolTableRecord
100
AcDbRegAppTableRecord
  2
GENIUS_GEFFEAT_14
 70
     0
  0
APPID
  5
7580
330
9
100
AcDbSymbolTableRecord
100
AcDbRegAppTableRecord
  2
ACAD_EXEMPT_FROM_CAD_STANDARDS
 70
     0
  0
APPID
  5
9403
330
9
100
AcDbSymbolTableRecord
100
AcDbRegAppTableRecord
  2
AMG_2DSTRUCT_BTR
 70
     0
  0
APPID
  5
B4E8
330
9
100
AcDbSymbolTableRecord
100
AcDbRegAppTableRecord
  2
ACAD_DSTYLE_DIMEXT_LENGTH
 70
     0
  0
APPID
  5
B4E9
330
9
100
AcDbSymbolTableRecord
100
AcDbRegAppTableRecord
  2
ACAD_DSTYLE_DIMEXT_ENABLED
 70
     0
  0
APPID
  5
DE63
330
9
100
AcDbSymbolTableRecord
100
AcDbRegAppTableRecord
  2
GENIUS_GENDIMSH_14
 70
     0
  0
APPID
  5
E2FA
330
9
100
AcDbSymbolTableRecord
100
AcDbRegAppTableRecord
  2
GEVID1210230727
 70
     0
  0
APPID
  5
E2FB
330
9
100
AcDbSymbolTableRecord
100
AcDbRegAppTableRecord
  2
GEVDC
 70
     0
  0
APPID
  5
10068
330
9
100
AcDbSymbolTableRecord
100
AcDbRegAppTableRecord
  2
ACAUTHENVIRON
 70
     0
  0
APPID
  5
1011A
330
9
100
AcDbSymbolTableRecord
100
AcDbRegAppTableRecord
  2
AcDbDynamicBlockTrueName
 70
     0
  0
APPID
  5
1011B
330
9
100
AcDbSymbolTableRecord
100
AcDbRegAppTableRecord
  2
AcDbDynamicBlockGUID
 70
     0
  0
APPID
  5
1011D
330
9
100
AcDbSymbolTableRecord
100
AcDbRegAppTableRecord
  2
ACDBBLOCKREPETAG
 70
     0
  0
APPID
  5
107E4
330
9
100
AcDbSymbolTableRecord
100
AcDbRegAppTableRecord
  2
ACAD_DSTYLE_DIMTEXT_FILL
 70
     0
  0
APPID
  5
107E7
330
9
100
AcDbSymbolTableRecord
100
AcDbRegAppTableRecord
  2
ACAD_DSTYLE_DIM_LINETYPE
 70
     0
  0
APPID
  5
107E8
330
9
100
AcDbSymbolTableRecord
100
AcDbRegAppTableRecord
  2
ACAD_DSTYLE_DIM_EXT1_LINETYPE
 70
     0
  0
APPID
  5
107E9
330
9
100
AcDbSymbolTableRecord
100
AcDbRegAppTableRecord
  2
ACAD_DSTYLE_DIM_EXT2_LINETYPE
 70
     0
  0
APPID
  5
10B47
330
9
100
AcDbSymbolTableRecord
100
AcDbRegAppTableRecord
  2
GEVID1210230728
 70
     0
  0
APPID
  5
11657
330
9
100
AcDbSymbolTableRecord
100
AcDbRegAppTableRecord
  2
GENIUS_GENDTOL_13
 70
     0
  0
APPID
  5
1A1D2
330
9
100
AcDbSymbolTableRecord
100
AcDbRegAppTableRecord
  2
ACAD_MLEADERVER
 70
     0
  0
APPID
  5
1A346
330
9
100
AcDbSymbolTableRecord
100
AcDbRegAppTableRecord
  2
ACAD_DSTYLE_DIMINSPECT
 70
     0
  0
ENDTAB
  0
TABLE
  2
DIMSTYLE
  5
A
330
0
100
AcDbSymbolTable
 70
    16
100
AcDbDimStyleTable
 71
     2
340
2EE
340
1A089
  0
DIMSTYLE
105
2EE
330
A
100
AcDbSymbolTableRecord
100
AcDbDimStyleTableRecord
  2
AM_DIN
 70
     0
  4
"
 41
65.0
 42
1.0
 43
10.0
 44
25.0
 47
0.1
 48
0.1
 73
     0
 74
     0
 77
     1
 78
     8
 79
     2
140
50.0
141
0.0
143
0.0393701
146
0.71
147
15.0
172
     1
176
   256
177
   256
178
     2
271
     0
272
     0
283
     0
284
     8
340
11
371
    -1
372
    -1
1001
ACAD_DSTYLE_DIMJOGGED_JOGANGLE_SYMBOL
1070
   384
1040
1.570796326794896
  0
DIMSTYLE
105
2FF
330
A
100
AcDbSymbolTableRecord
100
AcDbDimStyleTableRecord
  2
AM_DIN$3
 70
     0
  4
"
 41
65.0
 42
1.0
 43
10.0
 44
25.0
 47
0.1
 48
0.1
 73
     0
 77
     1
 78
     8
 79
     2
140
50.0
141
0.0
143
0.0393701
146
0.71
147
15.0
176
   256
177
   256
178
     2
271
     0
272
     0
283
     0
284
     8
288
     1
289
     0
340
11
371
    -1
372
    -1
1001
ACAD_DSTYLE_DIMJOGGED_JOGANGLE_SYMBOL
1070
   384
1040
1.570796326794896
  0
DIMSTYLE
105
304
330
A
100
AcDbSymbolTableRecord
100
AcDbDimStyleTableRecord
  2
AM_DIN$4
 70
     0
  4
"
 41
65.0
 42
1.0
 43
10.0
 44
25.0
 47
0.1
 48
0.1
 73
     0
 77
     1
 78
     8
 79
     2
140
50.0
141
0.0
143
0.0393701
146
0.71
147
15.0
176
   256
177
   256
178
     2
271
     0
272
     0
283
     0
284
     8
288
     1
289
     0
340
11
371
    -1
372
    -1
1001
ACAD_DSTYLE_DIMJOGGED_JOGANGLE_SYMBOL
1070
   384
1040
1.570796326794896
  0
DIMSTYLE
105
309
330
A
100
AcDbSymbolTableRecord
100
AcDbDimStyleTableRecord
  2
AM_DIN$6
 70
     0
  4
"
 41
65.0
 42
1.0
 43
10.0
 44
25.0
 47
0.1
 48
0.1
 73
     0
 74
     0
 78
     8
 79
     2
140
50.0
141
0.0
143
0.0393701
146
0.71
147
15.0
172
     1
176
   256
177
   256
178
     2
271
     0
272
     0
283
     0
284
     8
340
11
371
    -1
372
    -1
1001
ACAD_DSTYLE_DIMJOGGED_JOGANGLE_SYMBOL
1070
   384
1040
1.570796326794896
  0
DIMSTYLE
105
30E
330
A
100
AcDbSymbolTableRecord
100
AcDbDimStyleTableRecord
  2
AM_DIN$7
 70
     0
  4
"
 41
65.0
 42
1.0
 43
10.0
 44
25.0
 47
0.1
 48
0.1
 73
     0
 74
     0
 77
     1
 78
     8
 79
     2
140
5.0
141
0.0
143
0.0393701
146
0.71
147
15.0
172
     1
176
   256
177
   256
178
     2
271
     0
272
     0
283
     0
284
     8
340
11
371
    -1
372
    -1
1001
ACAD_DSTYLE_DIMJOGGED_JOGANGLE_SYMBOL
1070
   384
1040
1.570796326794896
  0
DIMSTYLE
105
313
330
A
100
AcDbSymbolTableRecord
100
AcDbDimStyleTableRecord
  2
AM_DIN$SF
 70
     0
  4
"
 41
2.5
 42
1.0
 43
10.0
 44
1.0
 47
0.1
 48
0.1
 73
     0
 74
     0
 75
     1
 76
     1
 77
     1
 78
     8
 79
     2
140
3.5
141
0.0
143
0.0393701
146
0.71
147
1.5
172
     1
176
   256
177
   256
178
     2
271
     2
272
     3
274
     4
283
     0
284
     8
340
11
371
    -1
372
    -1
1001
ACAD_DSTYLE_DIMJOGGED_JOGANGLE_SYMBOL
1070
   384
1040
1.570796326794896
  0
DIMSTYLE
105
318
330
A
100
AcDbSymbolTableRecord
100
AcDbDimStyleTableRecord
  2
AM_DIN$SH
 70
     0
  4
"
 41
2.5
 42
1.0
 43
10.0
 44
1.0
 47
0.1
 48
0.1
 73
     0
 74
     0
 75
     1
 76
     1
 77
     1
 78
     8
 79
     2
140
3.5
141
0.0
143
0.0393701
144
2.0
146
0.71
147
1.5
172
     1
173
     1
176
   256
177
   256
178
     2
271
     2
272
     3
274
     4
283
     0
284
     8
340
11
343
87
371
    -1
372
    -1
1001
ACAD_DSTYLE_DIMJOGGED_JOGANGLE_SYMBOL
1070
   384
1040
1.570796326794896
  0
DIMSTYLE
105
7C7E
330
A
100
AcDbSymbolTableRecord
100
AcDbDimStyleTableRecord
  2
AM_DIN$0
 70
     0
  4
"
 41
65.0
 42
1.0
 43
10.0
 44
25.0
 47
0.1
 48
0.1
 73
     0
 74
     0
 77
     1
 78
     8
 79
     2
140
50.0
141
0.0
143
0.0393701
146
0.71
147
15.0
172
     1
176
   256
177
   256
178
     2
271
     0
272
     0
283
     0
284
     8
340
11
371
    -1
372
    -1
1001
ACAD_DSTYLE_DIMJOGGED_JOGANGLE_SYMBOL
1070
   384
1040
1.570796326794896
  0
DIMSTYLE
105
1A089
330
A
100
AcDbSymbolTableRecord
100
AcDbDimStyleTableRecord
  2
GEN-ISO
 70
     0
  4
"
 40
10.0
 41
2.5
 42
1.0
 43
7.0
 44
1.0
 47
0.1
 48
0.1
 73
     0
 74
     0
 77
     1
 78
     8
140
3.5
141
0.0
143
0.0393701
146
0.71
147
0.6
172
     1
176
     3
177
     3
178
     2
271
     2
272
     2
283
     0
340
11
  0
DIMSTYLE
105
1A08A
102
{ACAD_REACTORS
330
1B251
330
1B254
330
1B260
102
}
330
A
100
AcDbSymbolTableRecord
100
AcDbDimStyleTableRecord
  2
GEN-ISO$0
 70
     0
  4
"
 40
10.0
 41
2.5
 42
1.0
 43
7.0
 44
1.0
 47
0.1
 48
0.1
 73
     0
 74
     0
 77
     1
 78
     8
140
3.5
141
0.0
143
0.0393701
146
0.71
147
0.6
172
     1
176
     3
177
     3
178
     2
271
     2
272
     2
283
     0
340
11
  0
DIMSTYLE
105
1AA0B
330
A
100
AcDbSymbolTableRecord
100
AcDbDimStyleTableRecord
  2
AM_ANSI
 70
     0
  4
mm
 41
0.12
 42
0.05
 43
0.5
 44
0.1
 47
0.1
 48
0.1
 78
     7
 79
     2
140
0.12
141
0.0
146
0.71
147
0.06
176
   256
177
   256
178
     2
274
     4
284
     7
340
11
371
    -1
372
    -1
1001
ACAD_DSTYLE_DIMARC_LENGTH_SYMBOL
1070
   379
1070
     1
1001
ACAD_DSTYLE_DIM_LINETYPE
1070
   380
1005
14
1001
ACAD_DSTYLE_DIM_EXT1_LINETYPE
1070
   381
1005
14
1001
ACAD_DSTYLE_DIM_EXT2_LINETYPE
1070
   382
1005
14
  0
DIMSTYLE
105
1AA0C
330
A
100
AcDbSymbolTableRecord
100
AcDbDimStyleTableRecord
  2
AM_ANSI$3
 70
     0
  4
mm
 41
0.12
 42
0.05
 43
0.5
 44
0.1
 47
0.1
 48
0.1
 78
     7
 79
     2
140
0.12
141
0.0
146
0.71
147
0.06
176
   256
177
   256
178
     2
274
     4
284
     7
288
     1
289
     0
340
11
371
    -1
372
    -1
1001
ACAD_DSTYLE_DIMARC_LENGTH_SYMBOL
1070
   379
1070
     1
1001
ACAD_DSTYLE_DIM_LINETYPE
1070
   380
1005
14
1001
ACAD_DSTYLE_DIM_EXT1_LINETYPE
1070
   381
1005
14
1001
ACAD_DSTYLE_DIM_EXT2_LINETYPE
1070
   382
1005
14
  0
DIMSTYLE
105
1AA0D
330
A
100
AcDbSymbolTableRecord
100
AcDbDimStyleTableRecord
  2
AM_ANSI$4
 70
     0
  4
mm
 41
0.12
 42
0.05
 43
0.5
 44
0.1
 47
0.1
 48
0.1
 78
     7
 79
     2
140
0.12
141
0.0
146
0.71
147
0.06
176
   256
177
   256
178
     2
274
     4
284
     7
288
     1
289
     0
340
11
371
    -1
372
    -1
1001
ACAD_DSTYLE_DIMARC_LENGTH_SYMBOL
1070
   379
1070
     1
1001
ACAD_DSTYLE_DIM_LINETYPE
1070
   380
1005
14
1001
ACAD_DSTYLE_DIM_EXT1_LINETYPE
1070
   381
1005
14
1001
ACAD_DSTYLE_DIM_EXT2_LINETYPE
1070
   382
1005
14
  0
DIMSTYLE
105
1AA0E
330
A
100
AcDbSymbolTableRecord
100
AcDbDimStyleTableRecord
  2
AM_ANSI$7
 70
     0
  4
mm
 41
0.12
 42
0.05
 43
0.5
 44
0.1
 47
0.1
 48
0.1
 78
     7
 79
     2
140
0.12
141
0.0
146
0.71
147
0.06
176
   256
177
   256
178
     2
274
     4
284
     7
340
11
371
    -1
372
    -1
1001
ACAD_DSTYLE_DIMARC_LENGTH_SYMBOL
1070
   379
1070
     1
1001
ACAD_DSTYLE_DIM_LINETYPE
1070
   380
1005
14
1001
ACAD_DSTYLE_DIM_EXT1_LINETYPE
1070
   381
1005
14
1001
ACAD_DSTYLE_DIM_EXT2_LINETYPE
1070
   382
1005
14
  0
DIMSTYLE
105
1AA0F
330
A
100
AcDbSymbolTableRecord
100
AcDbDimStyleTableRecord
  2
AM_ANSI$SF
 70
     0
  4
mm
 41
0.12
 42
0.05
 43
0.5
 44
0.1
 47
0.1
 48
0.1
 75
     1
 76
     1
 78
     7
 79
     2
140
0.12
141
0.0
146
0.71
147
0.06
176
   256
177
   256
178
     2
274
     4
284
     7
340
11
371
    -1
372
    -1
1001
ACAD_DSTYLE_DIMARC_LENGTH_SYMBOL
1070
   379
1070
     1
1001
ACAD_DSTYLE_DIM_LINETYPE
1070
   380
1005
14
1001
ACAD_DSTYLE_DIM_EXT1_LINETYPE
1070
   381
1005
14
1001
ACAD_DSTYLE_DIM_EXT2_LINETYPE
1070
   382
1005
14
  0
DIMSTYLE
105
1AA10
330
A
100
AcDbSymbolTableRecord
100
AcDbDimStyleTableRecord
  2
AM_ANSI$SH
 70
     0
  4
mm
 41
0.12
 42
0.05
 43
0.5
 44
0.1
 47
0.1
 48
0.1
 75
     1
 76
     1
 78
     7
 79
     2
140
0.12
141
0.0
146
0.71
147
0.06
173
     1
176
   256
177
   256
178
     2
274
     4
284
     7
340
11
343
87
371
    -1
372
    -1
1001
ACAD_DSTYLE_DIMARC_LENGTH_SYMBOL
1070
   379
1070
     1
1001
ACAD_DSTYLE_DIM_LINETYPE
1070
   380
1005
14
1001
ACAD_DSTYLE_DIM_EXT1_LINETYPE
1070
   381
1005
14
1001
ACAD_DSTYLE_DIM_EXT2_LINETYPE
1070
   382
1005
14
  0
ENDTAB
  0
TABLE
  2
BLOCK_RECORD
  5
1
330
0
100
AcDbSymbolTable
 70
     9
  0
BLOCK_RECORD
  5
1F
102
{ACAD_XDICTIONARY
360
8F
102
}
330
1
100
AcDbSymbolTableRecord
100
AcDbBlockTableRecord
  2
*Model_Space
340
22
  0
BLOCK_RECORD
  5
1B
330
1
100
AcDbSymbolTableRecord
100
AcDbBlockTableRecord
  2
*Paper_Space
340
1E
  0
BLOCK_RECORD
  5
23
330
1
100
AcDbSymbolTableRecord
100
AcDbBlockTableRecord
  2
*Paper_Space0
340
26
  0
BLOCK_RECORD
  5
87
102
{ACAD_XDICTIONARY
360
10117
102
}
330
1
100
AcDbSymbolTableRecord
100
AcDbBlockTableRecord
  2
GENAXEH
340
0
1001
AcDbDynamicBlockGUID
1000
{D68C792B-0B99-4E0B-8B7B-1EAC83B216F4}
1001
ACDBBLOCKREPETAG
1070
     1
1071
        0
  0
BLOCK_RECORD
  5
1B263
330
1
100
AcDbSymbolTableRecord
100
AcDbBlockTableRecord
  2
*D2
340
0
  0
BLOCK_RECORD
  5
1B26F
330
1
100
AcDbSymbolTableRecord
100
AcDbBlockTableRecord
  2
*D3
340
0
  0
BLOCK_RECORD
  5
1B27B
330
1
100
AcDbSymbolTableRecord
100
AcDbBlockTableRecord
  2
*D4
340
0
  0
BLOCK_RECORD
  5
1B287
330
1
100
AcDbSymbolTableRecord
100
AcDbBlockTableRecord
  2
*D5
340
0
  0
BLOCK_RECORD
  5
1B293
330
1
100
AcDbSymbolTableRecord
100
AcDbBlockTableRecord
  2
*D6
340
0
  0
BLOCK_RECORD
  5
1B29F
330
1
100
AcDbSymbolTableRecord
100
AcDbBlockTableRecord
  2
*D7
340
0
  0
ENDTAB
  0
ENDSEC
  0
SECTION
  2
BLOCKS
  0
BLOCK
  5
20
330
1F
100
AcDbEntity
  8
0
100
AcDbBlockBegin
  2
*Model_Space
 70
     2
 10
0.0
 20
0.0
 30
0.0
  3
*Model_Space
  1

  0
ENDBLK
  5
21
330
1F
100
AcDbEntity
  8
0
100
AcDbBlockEnd
  0
BLOCK
  5
1C
330
1B
100
AcDbEntity
 67
     1
  8
0
100
AcDbBlockBegin
  2
*Paper_Space
 70
     0
 10
0.0
 20
0.0
 30
0.0
  3
*Paper_Space
  1

  0
ENDBLK
  5
1D
330
1B
100
AcDbEntity
 67
     1
  8
0
100
AcDbBlockEnd
  0
BLOCK
  5
24
330
23
100
AcDbEntity
 67
     1
  8
0
100
AcDbBlockBegin
  2
*Paper_Space0
 70
     0
 10
0.0
 20
0.0
 30
0.0
  3
*Paper_Space0
  1

  0
ENDBLK
  5
25
330
23
100
AcDbEntity
 67
     1
  8
0
100
AcDbBlockEnd
  0
BLOCK
  5
2ADE
330
87
100
AcDbEntity
  8
0
100
AcDbBlockBegin
  2
GENAXEH
 70
     0
 10
0.0
 20
0.0
 30
0.0
  3
GENAXEH
  1

  0
ENDBLK
  5
2AE0
330
87
100
AcDbEntity
  8
0
100
AcDbBlockEnd
  0
BLOCK
  5
1B264
330
1B263
100
AcDbEntity
  8
0
100
AcDbBlockBegin
  2
*D2
 70
     1
 10
0.0
 20
0.0
 30
0.0
  3
*D2
  1

  0
LINE
  5
1B266
330
1B263
100
AcDbEntity
  8
AM_5
 62
     3
370
    -2
100
AcDbLine
 10
22348.05556829021
 20
1037.51403417676
 30
0.0
 11
22348.05556829021
 21
1084.109995865258
 31
0.0
  0
LINE
  5
1B267
330
1B263
100
AcDbEntity
  8
AM_5
 62
     3
370
    -2
100
AcDbLine
 10
22548.03740489021
 20
1037.51403417676
 30
0.0
 11
22548.03740489021
 21
1084.109995865258
 31
0.0
  0
LINE
  5
1B268
330
1B263
100
AcDbEntity
  8
AM_5
 62
     3
370
    -2
100
AcDbLine
 10
22373.05556829021
 20
1074.109995865258
 30
0.0
 11
22523.03740489021
 21
1074.109995865258
 31
0.0
  0
SOLID
  5
1B269
330
1B263
100
AcDbEntity
  8
AM_5
 62
     3
100
AcDbTrace
 10
22373.05556829021
 20
1078.276662531924
 30
0.0
 11
22373.05556829021
 21
1069.943329198591
 31
0.0
 12
22348.05556829021
 22
1074.109995865258
 32
0.0
 13
22348.05556829021
 23
1074.109995865258
 33
0.0
  0
SOLID
  5
1B26A
330
1B263
100
AcDbEntity
  8
AM_5
 62
     3
100
AcDbTrace
 10
22523.03740489021
 20
1078.276662531924
 30
0.0
 11
22523.03740489021
 21
1069.943329198591
 31
0.0
 12
22548.03740489021
 22
1074.109995865258
 32
0.0
 13
22548.03740489021
 23
1074.109995865258
 33
0.0
  0
MTEXT
  5
1B26B
330
1B263
100
AcDbEntity
  8
AM_5
 62
     2
100
AcDbMText
 10
22461.69607175975
 20
1098.958904460073
 30
0.0
 40
35.0
 41
0.0
 71
     5
 72
     1
  1
%%c 200
 73
     1
 44
1.0
1001
ACAD
1000
MTEXTBEGIN
1070
    73
1070
     1
1070
    44
1040
1.0
1070
    74
1070
     0
1000
MTEXTEND
  0
POINT
  5
1B26C
330
1B263
100
AcDbEntity
  8
Defpoints
 62
     0
100
AcDbPoint
 10
22348.05556829021
 20
1027.51403417676
 30
0.0
  0
POINT
  5
1B26D
330
1B263
100
AcDbEntity
  8
Defpoints
 62
     0
100
AcDbPoint
 10
22548.03740489021
 20
1027.51403417676
 30
0.0
  0
POINT
  5
1B26E
330
1B263
100
AcDbEntity
  8
Defpoints
 62
     0
100
AcDbPoint
 10
22548.03740489021
 20
1074.109995865258
 30
0.0
  0
ENDBLK
  5
1B265
330
1B263
100
AcDbEntity
  8
0
100
AcDbBlockEnd
  0
BLOCK
  5
1B270
330
1B26F
100
AcDbEntity
  8
0
100
AcDbBlockBegin
  2
*D3
 70
     1
 10
0.0
 20
0.0
 30
0.0
  3
*D3
  1

  0
LINE
  5
1B2B5
330
1B26F
100
AcDbEntity
  8
AM_5
 62
     3
370
    -2
100
AcDbLine
 10
22348.19640678061
 20
1042.614674926763
 30
0.0
 11
22291.95243208317
 21
1042.614674926763
 31
0.0
  0
LINE
  5
1B2B6
330
1B26F
100
AcDbEntity
  8
AM_5
 62
     3
370
    -2
100
AcDbLine
 10
22327.50060504019
 20
702.6459523267606
 30
0.0
 11
22291.95243208317
 21
702.6459523267606
 31
0.0
  0
LINE
  5
1B2B7
330
1B26F
100
AcDbEntity
  8
AM_5
 62
     3
370
    -2
100
AcDbLine
 10
22301.95243208317
 20
1017.614674926763
 30
0.0
 11
22301.95243208317
 21
727.6459523267606
 31
0.0
  0
SOLID
  5
1B2B8
330
1B26F
100
AcDbEntity
  8
AM_5
 62
     3
100
AcDbTrace
 10
22297.7857654165
 20
1017.614674926763
 30
0.0
 11
22306.11909874983
 21
1017.614674926763
 31
0.0
 12
22301.95243208317
 22
1042.614674926763
 32
0.0
 13
22301.95243208317
 23
1042.614674926763
 33
0.0
  0
SOLID
  5
1B2B9
330
1B26F
100
AcDbEntity
  8
AM_5
 62
     3
100
AcDbTrace
 10
22297.7857654165
 20
727.6459523267606
 30
0.0
 11
22306.11909874983
 21
727.6459523267606
 31
0.0
 12
22301.95243208317
 22
702.6459523267606
 32
0.0
 13
22301.95243208317
 23
702.6459523267606
 33
0.0
  0
MTEXT
  5
1B2BA
330
1B26F
100
AcDbEntity
  8
AM_5
 62
     2
100
AcDbMText
 10
22278.0704402687
 20
872.6303136267581
 30
0.0
 40
35.0
 41
0.0
 71
     5
 72
     1
  1
345
 11
0.0000000000000001
 21
1.0
 31
0.0
 73
     1
 44
1.0
1001
ACAD
1000
MTEXTBEGIN
1070
    73
1070
     1
1070
    44
1040
1.0
1070
    74
1070
     0
1000
MTEXTEND
  0
POINT
  5
1B2BB
330
1B26F
100
AcDbEntity
  8
Defpoints
 62
     0
100
AcDbPoint
 10
22358.19640678061
 20
1042.614674926763
 30
0.0
  0
POINT
  5
1B2BC
330
1B26F
100
AcDbEntity
  8
Defpoints
 62
     0
100
AcDbPoint
 10
22337.50060504019
 20
702.6459523267606
 30
0.0
  0
POINT
  5
1B2BD
330
1B26F
100
AcDbEntity
  8
Defpoints
 62
     0
100
AcDbPoint
 10
22301.95243208317
 20
702.6459523267606
 30
0.0
  0
ENDBLK
  5
1B271
330
1B26F
100
AcDbEntity
  8
0
100
AcDbBlockEnd
  0
BLOCK
  5
1B27C
330
1B27B
100
AcDbEntity
  8
0
100
AcDbBlockBegin
  2
*D4
 70
     1
 10
0.0
 20
0.0
 30
0.0
  3
*D4
  1

  0
LINE
  5
1B2C7
330
1B27B
100
AcDbEntity
  8
AM_5
 62
     3
370
    -2
100
AcDbLine
 10
22353.05581354021
 20
613.6530669267614
 30
0.0
 11
22353.05581354021
 21
493.7670669267594
 31
0.0
  0
LINE
  5
1B2C8
330
1B27B
100
AcDbEntity
  8
AM_5
 62
     3
370
    -2
100
AcDbLine
 10
22543.03815869021
 20
613.6530669267614
 30
0.0
 11
22543.03815869021
 21
493.7670669267594
 31
0.0
  0
LINE
  5
1B2C9
330
1B27B
100
AcDbEntity
  8
AM_5
 62
     3
370
    -2
100
AcDbLine
 10
22378.05581354021
 20
503.7670669267591
 30
0.0
 11
22518.03815869021
 21
503.7670669267591
 31
0.0
  0
SOLID
  5
1B2CA
330
1B27B
100
AcDbEntity
  8
AM_5
 62
     3
100
AcDbTrace
 10
22378.05581354021
 20
507.9337335934259
 30
0.0
 11
22378.05581354021
 21
499.6004002600924
 31
0.0
 12
22353.05581354021
 22
503.7670669267591
 32
0.0
 13
22353.05581354021
 23
503.7670669267591
 33
0.0
  0
SOLID
  5
1B2CB
330
1B27B
100
AcDbEntity
  8
AM_5
 62
     3
100
AcDbTrace
 10
22518.03815869021
 20
507.9337335934259
 30
0.0
 11
22518.03815869021
 21
499.6004002600924
 31
0.0
 12
22543.03815869021
 22
503.7670669267591
 32
0.0
 13
22543.03815869021
 23
503.7670669267591
 33
0.0
  0
MTEXT
  5
1B2CC
330
1B27B
100
AcDbEntity
  8
AM_5
 62
     2
100
AcDbMText
 10
22448.04698611521
 20
527.6371214970184
 30
0.0
 40
35.0
 41
0.0
 71
     5
 72
     1
  1
190
 73
     1
 44
1.0
1001
ACAD
1000
MTEXTBEGIN
1070
    73
1070
     1
1070
    44
1040
1.0
1070
    74
1070
     0
1000
MTEXTEND
  0
POINT
  5
1B2CD
330
1B27B
100
AcDbEntity
  8
Defpoints
 62
     0
100
AcDbPoint
 10
22353.05581354021
 20
623.6530669267614
 30
0.0
  0
POINT
  5
1B2CE
330
1B27B
100
AcDbEntity
  8
Defpoints
 62
     0
100
AcDbPoint
 10
22543.03815869021
 20
623.6530669267614
 30
0.0
  0
POINT
  5
1B2CF
330
1B27B
100
AcDbEntity
  8
Defpoints
 62
     0
100
AcDbPoint
 10
22543.03815869021
 20
503.7670669267591
 30
0.0
  0
ENDBLK
  5
1B27D
330
1B27B
100
AcDbEntity
  8
0
100
AcDbBlockEnd
  0
BLOCK
  5
1B288
330
1B287
100
AcDbEntity
  8
0
100
AcDbBlockBegin
  2
*D5
 70
     1
 10
0.0
 20
0.0
 30
0.0
  3
*D5
  1

  0
LINE
  5
1B32A
330
1B287
100
AcDbEntity
  8
AM_5
 62
     3
370
    -2
100
AcDbLine
 10
23105.93693620794
 20
1038.886078395308
 30
0.0
 11
23105.93693620794
 21
1081.248331004788
 31
0.0
  0
LINE
  5
1B32B
330
1B287
100
AcDbEntity
  8
AM_5
 62
     3
370
    -2
100
AcDbLine
 10
23267.74842313447
 20
1038.886078395308
 30
0.0
 11
23267.74842313447
 21
1081.248331004788
 31
0.0
  0
LINE
  5
1B32C
330
1B287
100
AcDbEntity
  8
AM_5
 62
     3
370
    -2
100
AcDbLine
 10
23130.93693620794
 20
1071.248331004788
 30
0.0
 11
23242.74842313447
 21
1071.248331004788
 31
0.0
  0
SOLID
  5
1B32D
330
1B287
100
AcDbEntity
  8
AM_5
 62
     3
100
AcDbTrace
 10
23130.93693620794
 20
1075.414997671455
 30
0.0
 11
23130.93693620794
 21
1067.081664338122
 31
0.0
 12
23105.93693620794
 22
1071.248331004788
 32
0.0
 13
23105.93693620794
 23
1071.248331004788
 33
0.0
  0
SOLID
  5
1B32E
330
1B287
100
AcDbEntity
  8
AM_5
 62
     3
100
AcDbTrace
 10
23242.74842313447
 20
1075.414997671455
 30
0.0
 11
23242.74842313447
 21
1067.081664338122
 31
0.0
 12
23267.74842313447
 22
1071.248331004788
 32
0.0
 13
23267.74842313447
 23
1071.248331004788
 33
0.0
  0
MTEXT
  5
1B32F
330
1B287
100
AcDbEntity
  8
AM_5
 62
     2
100
AcDbMText
 10
23199.25206353224
 20
1096.097239599604
 30
0.0
 40
35.0
 41
0.0
 71
     5
 72
     1
  1
%%c 160
 73
     1
 44
1.0
1001
ACAD
1000
MTEXTBEGIN
1070
    73
1070
     1
1070
    44
1040
1.0
1070
    74
1070
     0
1000
MTEXTEND
  0
POINT
  5
1B330
330
1B287
100
AcDbEntity
  8
Defpoints
 62
     0
100
AcDbPoint
 10
23105.93693620794
 20
1028.886078395308
 30
0.0
  0
POINT
  5
1B331
330
1B287
100
AcDbEntity
  8
Defpoints
 62
     0
100
AcDbPoint
 10
23267.74842313447
 20
1028.886078395308
 30
0.0
  0
POINT
  5
1B332
330
1B287
100
AcDbEntity
  8
Defpoints
 62
     0
100
AcDbPoint
 10
23267.74842313447
 20
1071.248331004788
 30
0.0
  0
ENDBLK
  5
1B289
330
1B287
100
AcDbEntity
  8
0
100
AcDbBlockEnd
  0
BLOCK
  5
1B294
330
1B293
100
AcDbEntity
  8
0
100
AcDbBlockBegin
  2
*D6
 70
     1
 10
0.0
 20
0.0
 30
0.0
  3
*D6
  1

  0
LINE
  5
1B382
330
1B293
100
AcDbEntity
  8
AM_5
 62
     3
370
    -2
100
AcDbLine
 10
23105.1563781131
 20
1042.614674926763
 30
0.0
 11
23044.02273095667
 21
1042.614674926763
 31
0.0
  0
LINE
  5
1B383
330
1B293
100
AcDbEntity
  8
AM_5
 62
     3
370
    -2
100
AcDbLine
 10
23076.34099691882
 20
733.5355104621977
 30
0.0
 11
23044.02273095667
 21
733.5355104621977
 31
0.0
  0
LINE
  5
1B384
330
1B293
100
AcDbEntity
  8
AM_5
 62
     3
370
    -2
100
AcDbLine
 10
23054.02273095667
 20
1017.614674926763
 30
0.0
 11
23054.02273095667
 21
758.5355104621977
 31
0.0
  0
SOLID
  5
1B385
330
1B293
100
AcDbEntity
  8
AM_5
 62
     3
100
AcDbTrace
 10
23049.85606429
 20
1017.614674926763
 30
0.0
 11
23058.18939762334
 21
1017.614674926763
 31
0.0
 12
23054.02273095667
 22
1042.614674926763
 32
0.0
 13
23054.02273095667
 23
1042.614674926763
 33
0.0
  0
SOLID
  5
1B386
330
1B293
100
AcDbEntity
  8
AM_5
 62
     3
100
AcDbTrace
 10
23049.85606429
 20
758.5355104621977
 30
0.0
 11
23058.18939762334
 21
758.5355104621977
 31
0.0
 12
23054.02273095667
 22
733.5355104621977
 32
0.0
 13
23054.02273095667
 23
733.5355104621977
 33
0.0
  0
MTEXT
  5
1B387
330
1B293
100
AcDbEntity
  8
AM_5
 62
     2
100
AcDbMText
 10
23030.14073914221
 20
888.0750926944768
 30
0.0
 40
35.0
 41
0.0
 71
     5
 72
     1
  1
315
 11
0.0000000000000001
 21
1.0
 31
0.0
 73
     1
 44
1.0
1001
ACAD
1000
MTEXTBEGIN
1070
    73
1070
     1
1070
    44
1040
1.0
1070
    74
1070
     0
1000
MTEXTEND
  0
POINT
  5
1B388
330
1B293
100
AcDbEntity
  8
Defpoints
 62
     0
100
AcDbPoint
 10
23115.1563781131
 20
1042.614674926763
 30
0.0
  0
POINT
  5
1B389
330
1B293
100
AcDbEntity
  8
Defpoints
 62
     0
100
AcDbPoint
 10
23086.34099691881
 20
733.5355104621977
 30
0.0
  0
POINT
  5
1B38A
330
1B293
100
AcDbEntity
  8
Defpoints
 62
     0
100
AcDbPoint
 10
23054.02273095667
 20
733.5355104621977
 30
0.0
  0
ENDBLK
  5
1B295
330
1B293
100
AcDbEntity
  8
0
100
AcDbBlockEnd
  0
BLOCK
  5
1B2A0
330
1B29F
100
AcDbEntity
  8
0
100
AcDbBlockBegin
  2
*D7
 70
     1
 10
0.0
 20
0.0
 30
0.0
  3
*D7
  1

  0
LINE
  5
1B370
330
1B29F
100
AcDbEntity
  8
AM_5
 62
     3
370
    -2
100
AcDbLine
 10
23096.84313380937
 20
651.7199186296441
 30
0.0
 11
23096.84313380937
 21
542.7267605896396
 31
0.0
  0
LINE
  5
1B371
330
1B29F
100
AcDbEntity
  8
AM_5
 62
     3
370
    -2
100
AcDbLine
 10
23276.84313380937
 20
651.7199186296441
 30
0.0
 11
23276.84313380937
 21
542.7267605896396
 31
0.0
  0
LINE
  5
1B372
330
1B29F
100
AcDbEntity
  8
AM_5
 62
     3
370
    -2
100
AcDbLine
 10
23121.84313380936
 20
552.7267605896396
 30
0.0
 11
23251.84313380936
 21
552.7267605896396
 31
0.0
  0
SOLID
  5
1B373
330
1B29F
100
AcDbEntity
  8
AM_5
 62
     3
100
AcDbTrace
 10
23121.84313380936
 20
556.8934272563064
 30
0.0
 11
23121.84313380936
 21
548.5600939229731
 31
0.0
 12
23096.84313380937
 22
552.7267605896396
 32
0.0
 13
23096.84313380937
 23
552.7267605896396
 33
0.0
  0
SOLID
  5
1B374
330
1B29F
100
AcDbEntity
  8
AM_5
 62
     3
100
AcDbTrace
 10
23251.84313380936
 20
556.8934272563064
 30
0.0
 11
23251.84313380936
 21
548.5600939229731
 31
0.0
 12
23276.84313380937
 22
552.7267605896396
 32
0.0
 13
23276.84313380937
 23
552.7267605896396
 33
0.0
  0
MTEXT
  5
1B375
330
1B29F
100
AcDbEntity
  8
AM_5
 62
     2
100
AcDbMText
 10
23186.84313380936
 20
576.5968151598989
 30
0.0
 40
35.0
 41
0.0
 71
     5
 72
     1
  1
180
 73
     1
 44
1.0
1001
ACAD
1000
MTEXTBEGIN
1070
    73
1070
     1
1070
    44
1040
1.0
1070
    74
1070
     0
1000
MTEXTEND
  0
POINT
  5
1B376
330
1B29F
100
AcDbEntity
  8
Defpoints
 62
     0
100
AcDbPoint
 10
23096.84313380937
 20
661.7199186296439
 30
0.0
  0
POINT
  5
1B377
330
1B29F
100
AcDbEntity
  8
Defpoints
 62
     0
100
AcDbPoint
 10
23276.84313380937
 20
661.7199186296439
 30
0.0
  0
POINT
  5
1B378
330
1B29F
100
AcDbEntity
  8
Defpoints
 62
     0
100
AcDbPoint
 10
23276.84313380937
 20
552.7267605896396
 30
0.0
  0
ENDBLK
  5
1B2A1
330
1B29F
100
AcDbEntity
  8
0
100
AcDbBlockEnd
  0
ENDSEC
  0
SECTION
  2
ENTITIES
  0
LINE
  5
1B159
330
1F
100
AcDbEntity
  8
AM_7
100
AcDbLine
 10
23225.83589023633
 20
992.3997104651007
 30
0.0
 11
23225.83589023633
 21
1002.197287096582
 31
0.0
  0
LINE
  5
1B15A
330
1F
100
AcDbEntity
  8
anbauteile dünn
  6
Continuous
 62
     1
100
AcDbLine
 10
23228.91403867465
 20
998.217220275483
 30
0.0
 11
23228.91403867465
 21
1001.041959621352
 31
0.0
  0
LINE
  5
1B15B
330
1F
100
AcDbEntity
  8
anbauteile dünn
  6
Continuous
 62
     1
100
AcDbLine
 10
23222.75865007433
 20
998.217220275483
 30
0.0
 11
23222.75865007433
 21
1001.041959621352
 31
0.0
  0
LINE
  5
1B15C
330
1F
100
AcDbEntity
  8
anbauteile dünn
  6
Continuous
 62
     1
100
AcDbLine
 10
23228.91403867465
 20
965.1150899024198
 30
0.0
 11
23228.91403867465
 21
979.9917476985632
 31
0.0
  0
LINE
  5
1B15D
330
1F
100
AcDbEntity
  8
anbauteile dünn
  6
Continuous
 62
     1
100
AcDbLine
 10
23222.75865007433
 20
965.1150899024198
 30
0.0
 11
23222.75865007434
 21
979.9917476985632
 31
0.0
  0
LINE
  5
1B15E
330
1F
100
AcDbEntity
  8
AM_0
  6
Continuous
 62
     1
100
AcDbLine
 10
23229.4726286096
 20
951.0059255941396
 30
0.0
 11
23222.20006013938
 21
951.0059255941396
 31
0.0
  0
LINE
  5
1B15F
330
1F
100
AcDbEntity
  8
anbauteile dünn
  6
Continuous
 62
     1
100
AcDbLine
 10
23222.20006013938
 20
951.0059255941396
 30
0.0
 11
23222.20006013938
 21
952.962352780962
 31
0.0
  0
LINE
  5
1B160
330
1F
100
AcDbEntity
  8
anbauteile dünn
  6
Continuous
 62
     1
100
AcDbLine
 10
23222.20006013938
 20
952.962352780962
 30
0.0
 11
23229.4726286096
 21
952.962352780962
 31
0.0
  0
LINE
  5
1B161
330
1F
100
AcDbEntity
  8
anbauteile dünn
  6
Continuous
 62
     1
100
AcDbLine
 10
23229.4726286096
 20
952.962352780962
 30
0.0
 11
23229.4726286096
 21
951.0059255941396
 31
0.0
  0
LINE
  5
1B162
330
1F
100
AcDbEntity
  8
anbauteile dünn
  6
Continuous
 62
     1
100
AcDbLine
 10
23229.4726286096
 20
965.1150899024198
 30
0.0
 11
23229.4726286096
 21
979.9917476985632
 31
0.0
  0
LINE
  5
1B163
330
1F
100
AcDbEntity
  8
anbauteile dünn
  6
Continuous
 62
     1
100
AcDbLine
 10
23222.20006013938
 20
965.1150899024198
 30
0.0
 11
23222.20006013938
 21
979.9917476985632
 31
0.0
  0
LINE
  5
1B164
330
1F
100
AcDbEntity
  8
anbauteile dünn
  6
Continuous
 62
     1
100
AcDbLine
 10
23222.20006013938
 20
998.217220275483
 30
0.0
 11
23222.20006013938
 21
999.2235904347198
 31
0.0
  0
LINE
  5
1B165
330
1F
100
AcDbEntity
  8
anbauteile dünn
  6
Continuous
 62
     1
100
AcDbLine
 10
23222.20006013938
 20
999.2235904347198
 30
0.0
 11
23229.4726286096
 21
999.2235904347198
 31
0.0
  0
LINE
  5
1B166
330
1F
100
AcDbEntity
  8
anbauteile dünn
  6
Continuous
 62
     1
100
AcDbLine
 10
23229.4726286096
 20
999.2235904347198
 30
0.0
 11
23229.4726286096
 21
998.217220275483
 31
0.0
  0
LINE
  5
1B167
330
1F
100
AcDbEntity
  8
anbauteile dünn
  6
Continuous
 62
     1
100
AcDbLine
 10
23222.20006013938
 20
999.2235904347198
 30
0.0
 11
23222.75865007433
 21
1001.041959621352
 31
0.0
  0
LINE
  5
1B168
330
1F
100
AcDbEntity
  8
anbauteile dünn
  6
Continuous
 62
     1
100
AcDbLine
 10
23222.75865007433
 20
1001.041959621352
 30
0.0
 11
23228.91403867465
 21
1001.041959621352
 31
0.0
  0
LINE
  5
1B169
330
1F
100
AcDbEntity
  8
anbauteile dünn
  6
Continuous
 62
     1
100
AcDbLine
 10
23228.91403867465
 20
1001.041959621352
 30
0.0
 11
23229.4726286096
 21
999.2235904347198
 31
0.0
  0
LINE
  5
1B16A
330
1F
100
AcDbEntity
  8
anbauteile dünn
  6
Continuous
 62
     1
100
AcDbLine
 10
23229.4726286096
 20
952.962352780962
 30
0.0
 11
23229.19333364212
 21
953.7198552293396
 31
0.0
  0
LINE
  5
1B16B
330
1F
100
AcDbEntity
  8
anbauteile dünn
  6
Continuous
 62
     1
100
AcDbLine
 10
23222.20006013938
 20
952.962352780962
 30
0.0
 11
23222.34611776125
 21
953.3584895505141
 31
0.0
  0
LINE
  5
1B16C
330
1F
100
AcDbEntity
  8
anbauteile dünn
  6
Continuous
 62
     1
100
AcDbLine
 10
23221.16734996695
 20
965.1159981787371
 30
0.0
 11
23230.50624705835
 21
965.1159981787371
 31
0.0
  0
ARC
  5
1B16D
330
1F
100
AcDbEntity
  8
anbauteile dünn
  6
Continuous
 62
     1
100
AcDbCircle
 10
23225.83591704802
 20
955.6670558586503
 30
0.0
 40
9.448151280293213
100
AcDbArc
 50
70.52472821270777
 51
109.4747282126472
  0
LINE
  5
1B16E
330
1F
100
AcDbEntity
  8
anbauteile dünn
  6
Continuous
 62
     1
100
AcDbLine
 10
23222.68598796898
 20
964.5746654938067
 30
0.0
 11
23222.6860222768
 21
959.8380057512459
 31
0.0
  0
ARC
  5
1B16F
330
1F
100
AcDbEntity
  8
anbauteile dünn
  6
Continuous
 62
     1
100
AcDbCircle
 10
23225.83590915888
 20
968.7473347879807
 30
0.0
 40
9.449758264352292
100
AcDbArc
 50
250.5289886260495
 51
289.4709886258921
  0
LINE
  5
1B170
330
1F
100
AcDbEntity
  8
anbauteile dünn
  6
Continuous
 62
     1
100
AcDbLine
 10
23228.98579250369
 20
959.8380045006507
 30
0.0
 11
23228.98579250369
 21
964.5746654938067
 31
0.0
  0
ARC
  5
1B171
330
1F
100
AcDbEntity
  8
anbauteile dünn
  6
Continuous
 62
     1
100
AcDbCircle
 10
23230.5061628633
 20
962.7087323156649
 30
0.0
 40
2.406913512293038
100
AcDbArc
 50
47.35929557780807
 51
129.1732955779909
  0
LINE
  5
1B172
330
1F
100
AcDbEntity
  8
anbauteile dünn
  6
Continuous
 62
     1
100
AcDbLine
 10
23232.13660304736
 20
964.4792964805183
 30
0.0
 11
23232.13683266772
 21
959.9331483577318
 31
0.0
  0
ARC
  5
1B173
330
1F
100
AcDbEntity
  8
anbauteile dünn
  6
Continuous
 62
     1
100
AcDbCircle
 10
23230.50638149067
 20
961.7042987019909
 30
0.0
 40
2.407352193323315
100
AcDbArc
 50
230.8274463174836
 51
312.6314463174343
  0
ARC
  5
1B174
330
1F
100
AcDbEntity
  8
anbauteile dünn
  6
Continuous
 62
     1
100
AcDbCircle
 10
23221.16601306943
 20
962.7091874708403
 30
0.0
 40
2.406231312755367
100
AcDbArc
 50
50.82506347445105
 51
132.6390634744465
  0
LINE
  5
1B175
330
1F
100
AcDbEntity
  8
anbauteile dünn
  6
Continuous
 62
     1
100
AcDbLine
 10
23219.53608570162
 20
964.4792964805183
 30
0.0
 11
23219.53637873297
 21
959.9339018016928
 31
0.0
  0
ARC
  5
1B176
330
1F
100
AcDbEntity
  8
anbauteile dünn
  6
Continuous
 62
     1
100
AcDbCircle
 10
23221.16654443539
 20
961.703689257671
 30
0.0
 40
2.406156241119056
100
AcDbArc
 50
227.3515749963118
 51
309.1605749962202
  0
LINE
  5
1B177
330
1F
100
AcDbEntity
  8
anbauteile dünn
  6
Continuous
 62
     1
100
AcDbLine
 10
23221.16734996695
 20
992.3997104651007
 30
0.0
 11
23230.50624705835
 21
992.3997104651007
 31
0.0
  0
LINE
  5
1B178
330
1F
100
AcDbEntity
  8
anbauteile dünn
  6
Continuous
 62
     1
100
AcDbLine
 10
23221.16734996695
 20
998.2181285518002
 30
0.0
 11
23230.50624705835
 21
998.2181285518002
 31
0.0
  0
ARC
  5
1B179
330
1F
100
AcDbEntity
  8
anbauteile dünn
  6
Continuous
 62
     1
100
AcDbCircle
 10
23225.83591704802
 20
988.7691862317172
 30
0.0
 40
9.448151280293338
100
AcDbArc
 50
70.52472821270777
 51
109.4747282126472
  0
LINE
  5
1B17A
330
1F
100
AcDbEntity
  8
anbauteile dünn
  6
Continuous
 62
     1
100
AcDbLine
 10
23222.68598796898
 20
997.67679586687
 30
0.0
 11
23222.6860222768
 21
992.9401361243021
 31
0.0
  0
ARC
  5
1B17B
330
1F
100
AcDbEntity
  8
anbauteile dünn
  6
Continuous
 62
     1
100
AcDbCircle
 10
23225.83590915886
 20
1001.84946516104
 30
0.0
 40
9.449758264352503
100
AcDbArc
 50
250.5289886260495
 51
289.4709886261102
  0
LINE
  5
1B17C
330
1F
100
AcDbEntity
  8
anbauteile dünn
  6
Continuous
 62
     1
100
AcDbLine
 10
23228.98579250369
 20
992.9401348737176
 30
0.0
 11
23228.98579250369
 21
997.67679586687
 31
0.0
  0
ARC
  5
1B17D
330
1F
100
AcDbEntity
  8
anbauteile dünn
  6
Continuous
 62
     1
100
AcDbCircle
 10
23230.50563872128
 20
995.8104085505713
 30
0.0
 40
2.406934593950156
100
AcDbArc
 50
47.34279432820604
 51
129.1567943283747
  0
LINE
  5
1B17E
330
1F
100
AcDbEntity
  8
anbauteile dünn
  6
Continuous
 62
     1
100
AcDbLine
 10
23232.13660304736
 20
997.5805185772715
 30
0.0
 11
23232.13683266772
 21
993.0352787307986
 31
0.0
  0
ARC
  5
1B17F
330
1F
100
AcDbEntity
  8
anbauteile dünn
  6
Continuous
 62
     1
100
AcDbCircle
 10
23230.50638149067
 20
994.8064290750535
 30
0.0
 40
2.407352193323621
100
AcDbArc
 50
230.8274463174836
 51
312.6314463176582
  0
ARC
  5
1B180
330
1F
100
AcDbEntity
  8
anbauteile dünn
  6
Continuous
 62
     1
100
AcDbCircle
 10
23221.16653721145
 20
995.8108637057467
 30
0.0
 40
2.40625237458762
100
AcDbArc
 50
50.84156941675935
 51
132.6555694169611
  0
LINE
  5
1B181
330
1F
100
AcDbEntity
  8
anbauteile dünn
  6
Continuous
 62
     1
100
AcDbLine
 10
23219.53608570162
 20
997.5805185772715
 30
0.0
 11
23219.53637873297
 21
993.036032174756
 31
0.0
  0
ARC
  5
1B182
330
1F
100
AcDbEntity
  8
anbauteile dünn
  6
Continuous
 62
     1
100
AcDbCircle
 10
23221.16654443539
 20
994.8058196307268
 30
0.0
 40
2.40615624111906
100
AcDbArc
 50
227.3515749960879
 51
309.1605749962202
  0
LINE
  5
1B183
330
1F
100
AcDbEntity
  8
anbauteile dünn
  6
Continuous
 62
     1
100
AcDbLine
 10
23144.77132066777
 20
998.217220275483
 30
0.0
 11
23144.77132066777
 21
1001.041959621352
 31
0.0
  0
LINE
  5
1B184
330
1F
100
AcDbEntity
  8
anbauteile dünn
  6
Continuous
 62
     1
100
AcDbLine
 10
23150.92670926807
 20
998.217220275483
 30
0.0
 11
23150.92670926807
 21
1001.041959621352
 31
0.0
  0
LINE
  5
1B185
330
1F
100
AcDbEntity
  8
anbauteile dünn
  6
Continuous
 62
     1
100
AcDbLine
 10
23151.48529920303
 20
951.0059255941396
 30
0.0
 11
23151.48529920303
 21
952.962352780962
 31
0.0
  0
LINE
  5
1B186
330
1F
100
AcDbEntity
  8
anbauteile dünn
  6
Continuous
 62
     1
100
AcDbLine
 10
23151.48529920303
 20
952.962352780962
 30
0.0
 11
23144.21273073281
 21
952.962352780962
 31
0.0
  0
LINE
  5
1B187
330
1F
100
AcDbEntity
  8
anbauteile dünn
  6
Continuous
 62
     1
100
AcDbLine
 10
23144.21273073281
 20
952.962352780962
 30
0.0
 11
23144.21273073281
 21
951.0059255941396
 31
0.0
  0
LINE
  5
1B188
330
1F
100
AcDbEntity
  8
anbauteile dünn
  6
Continuous
 62
     1
100
AcDbLine
 10
23151.48529920303
 20
998.217220275483
 30
0.0
 11
23151.48529920303
 21
999.2235904347198
 31
0.0
  0
LINE
  5
1B189
330
1F
100
AcDbEntity
  8
anbauteile dünn
  6
Continuous
 62
     1
100
AcDbLine
 10
23151.48529920303
 20
999.2235904347198
 30
0.0
 11
23144.21273073281
 21
999.2235904347198
 31
0.0
  0
LINE
  5
1B18A
330
1F
100
AcDbEntity
  8
anbauteile dünn
  6
Continuous
 62
     1
100
AcDbLine
 10
23144.21273073281
 20
999.2235904347198
 30
0.0
 11
23144.21273073281
 21
998.217220275483
 31
0.0
  0
LINE
  5
1B18B
330
1F
100
AcDbEntity
  8
anbauteile dünn
  6
Continuous
 62
     1
100
AcDbLine
 10
23151.48529920303
 20
999.2235904347198
 30
0.0
 11
23150.92670926807
 21
1001.041959621352
 31
0.0
  0
LINE
  5
1B18C
330
1F
100
AcDbEntity
  8
anbauteile dünn
  6
Continuous
 62
     1
100
AcDbLine
 10
23150.92670926807
 20
1001.041959621352
 30
0.0
 11
23144.77132066777
 21
1001.041959621352
 31
0.0
  0
LINE
  5
1B18D
330
1F
100
AcDbEntity
  8
anbauteile dünn
  6
Continuous
 62
     1
100
AcDbLine
 10
23144.77132066777
 20
1001.041959621352
 30
0.0
 11
23144.21273073281
 21
999.2235904347198
 31
0.0
  0
LINE
  5
1B18E
330
1F
100
AcDbEntity
  8
anbauteile dünn
  6
Continuous
 62
     1
100
AcDbLine
 10
23152.51891765178
 20
965.1159981787371
 30
0.0
 11
23143.18002056038
 21
965.1159981787371
 31
0.0
  0
ARC
  5
1B18F
330
1F
100
AcDbEntity
  8
anbauteile dünn
  6
Continuous
 62
     1
100
AcDbCircle
 10
23143.1795643062
 20
962.7093212273887
 30
0.0
 40
2.406114199763851
100
AcDbArc
 50
50.82673692496265
 51
132.6407369250546
  0
LINE
  5
1B190
330
1F
100
AcDbEntity
  8
anbauteile dünn
  6
Continuous
 62
     1
100
AcDbLine
 10
23141.54966457137
 20
964.4792964805183
 30
0.0
 11
23141.54943495102
 21
959.9331483577318
 31
0.0
  0
ARC
  5
1B191
330
1F
100
AcDbEntity
  8
anbauteile dünn
  6
Continuous
 62
     1
100
AcDbCircle
 10
23143.1794155578
 20
961.7037540406219
 30
0.0
 40
2.406632764421596
100
AcDbArc
 50
227.3680137856171
 51
309.1720137855339
  0
LINE
  5
1B192
330
1F
100
AcDbEntity
  8
anbauteile dünn
  6
Continuous
 62
     1
100
AcDbLine
 10
23144.69956683872
 20
959.8380045006507
 30
0.0
 11
23144.69956683872
 21
964.5746654938067
 31
0.0
  0
ARC
  5
1B193
330
1F
100
AcDbEntity
  8
anbauteile dünn
  6
Continuous
 62
     1
100
AcDbCircle
 10
23147.84929435205
 20
955.6672328799416
 30
0.0
 40
9.447917187335566
100
AcDbArc
 50
70.52393367813808
 51
109.4739336782269
  0
LINE
  5
1B194
330
1F
100
AcDbEntity
  8
anbauteile dünn
  6
Continuous
 62
     1
100
AcDbLine
 10
23150.99935341258
 20
964.5745482495643
 30
0.0
 11
23150.99937137345
 21
959.8380045006507
 31
0.0
  0
ARC
  5
1B195
330
1F
100
AcDbEntity
  8
anbauteile dünn
  6
Continuous
 62
     1
100
AcDbCircle
 10
23147.84948802862
 20
968.7473347879807
 30
0.0
 40
9.449758264352734
100
AcDbArc
 50
250.5289886260495
 51
289.4709886258921
  0
ARC
  5
1B196
330
1F
100
AcDbEntity
  8
anbauteile dünn
  6
Continuous
 62
     1
100
AcDbCircle
 10
23152.51881490703
 20
961.7036892576745
 30
0.0
 40
2.406156241125909
100
AcDbArc
 50
230.8394250037799
 51
312.6484250036881
  0
LINE
  5
1B197
330
1F
100
AcDbEntity
  8
anbauteile dünn
  6
Continuous
 62
     1
100
AcDbLine
 10
23154.14898060946
 20
959.9339018016928
 30
0.0
 11
23154.1491350389
 21
964.478625936192
 31
0.0
  0
ARC
  5
1B198
330
1F
100
AcDbEntity
  8
anbauteile dünn
  6
Continuous
 62
     1
100
AcDbCircle
 10
23152.5188900188
 20
962.7089321821276
 30
0.0
 40
2.406141061683475
100
AcDbArc
 50
47.34867411003397
 51
129.1626741099054
  0
LINE
  5
1B199
330
1F
100
AcDbEntity
  8
anbauteile dünn
  6
Continuous
 62
     1
100
AcDbLine
 10
23152.51891765178
 20
992.3997104651007
 30
0.0
 11
23143.18002056038
 21
992.3997104651007
 31
0.0
  0
LINE
  5
1B19A
330
1F
100
AcDbEntity
  8
anbauteile dünn
  6
Continuous
 62
     1
100
AcDbLine
 10
23152.51891765178
 20
998.2181285518002
 30
0.0
 11
23143.18002056038
 21
998.2181285518002
 31
0.0
  0
ARC
  5
1B19B
330
1F
100
AcDbEntity
  8
anbauteile dünn
  6
Continuous
 62
     1
100
AcDbCircle
 10
23143.18008844822
 20
995.8109974622951
 30
0.0
 40
2.406135281847235
100
AcDbArc
 50
50.84324365607479
 51
132.6572436560281
  0
LINE
  5
1B19C
330
1F
100
AcDbEntity
  8
anbauteile dünn
  6
Continuous
 62
     1
100
AcDbLine
 10
23141.54966457137
 20
997.5805185772715
 30
0.0
 11
23141.54943495102
 21
993.0352787307986
 31
0.0
  0
ARC
  5
1B19D
330
1F
100
AcDbEntity
  8
anbauteile dünn
  6
Continuous
 62
     1
100
AcDbCircle
 10
23143.1794155578
 20
994.8058844136888
 30
0.0
 40
2.406632764421445
100
AcDbArc
 50
227.3680137856171
 51
309.1720137855339
  0
LINE
  5
1B19E
330
1F
100
AcDbEntity
  8
anbauteile dünn
  6
Continuous
 62
     1
100
AcDbLine
 10
23144.69956683872
 20
992.9401348737176
 30
0.0
 11
23144.69956683872
 21
997.67679586687
 31
0.0
  0
ARC
  5
1B19F
330
1F
100
AcDbEntity
  8
anbauteile dünn
  6
Continuous
 62
     1
100
AcDbCircle
 10
23147.84929435205
 20
988.7693632530085
 30
0.0
 40
9.447917187335759
100
AcDbArc
 50
70.52393367813808
 51
109.4739336782269
  0
LINE
  5
1B1A0
330
1F
100
AcDbEntity
  8
anbauteile dünn
  6
Continuous
 62
     1
100
AcDbLine
 10
23150.99935341258
 20
997.6766786226312
 30
0.0
 11
23150.99937137345
 21
992.9401348737176
 31
0.0
  0
ARC
  5
1B1A1
330
1F
100
AcDbEntity
  8
anbauteile dünn
  6
Continuous
 62
     1
100
AcDbCircle
 10
23147.84948802861
 20
1001.84946516104
 30
0.0
 40
9.449758264352716
100
AcDbArc
 50
250.5289886260495
 51
289.4709886261102
  0
ARC
  5
1B1A2
330
1F
100
AcDbEntity
  8
anbauteile dünn
  6
Continuous
 62
     1
100
AcDbCircle
 10
23152.51881490702
 20
994.8058196307339
 30
0.0
 40
2.40615624112617
100
AcDbArc
 50
230.8394250037799
 51
312.6484250039121
  0
LINE
  5
1B1A3
330
1F
100
AcDbEntity
  8
anbauteile dünn
  6
Continuous
 62
     1
100
AcDbLine
 10
23154.14898060946
 20
993.036032174756
 30
0.0
 11
23154.1491350389
 21
997.580756309266
 31
0.0
  0
ARC
  5
1B1A4
330
1F
100
AcDbEntity
  8
anbauteile dünn
  6
Continuous
 62
     1
100
AcDbCircle
 10
23152.5188900188
 20
995.8110625551984
 30
0.0
 40
2.40614106168318
100
AcDbArc
 50
47.34867411025789
 51
129.1626741101844
  0
LINE
  5
1B1A5
330
1F
100
AcDbEntity
  8
AM_0
  6
Continuous
100
AcDbLine
 10
23267.74842313447
 20
1029.583634606761
 30
0.0
 11
23267.05086692301
 21
1028.886078395308
 31
0.0
  0
LINE
  5
1B1A6
330
1F
100
AcDbEntity
  8
AM_0
  6
Continuous
 62
     7
100
AcDbLine
 10
23174.55097627324
 20
969.9997999352474
 30
0.0
 11
23174.55097627324
 21
977.2641939186128
 31
0.0
  0
LINE
  5
1B1A7
330
1F
100
AcDbEntity
  8
AM_0
  6
Continuous
 62
     7
100
AcDbLine
 10
23199.13347479285
 20
977.2641939186128
 30
0.0
 11
23199.13347479285
 21
969.9997999352474
 31
0.0
  0
LINE
  5
1B1A8
330
1F
100
AcDbEntity
  8
AM_0
  6
Continuous
 62
     7
100
AcDbLine
 10
23140.56509304374
 20
979.9908394222496
 30
0.0
 11
23229.4726286096
 21
979.9917476985632
 31
0.0
  0
ARC
  5
1B1A9
330
1F
100
AcDbEntity
  8
AM_0
  6
Continuous
 62
     7
100
AcDbCircle
 10
23140.5655471819
 20
982.7179390640395
 30
0.0
 40
2.727099679606296
100
AcDbArc
 50
179.9904586546566
 51
269.9904586546566
  0
LINE
  5
1B1AA
330
1F
100
AcDbEntity
  8
AM_0
  6
Continuous
 62
     7
100
AcDbLine
 10
23137.83844754011
 20
982.7183932021963
 30
0.0
 11
23137.83844754011
 21
991.4896175954657
 31
0.0
  0
ARC
  5
1B1AB
330
1F
100
AcDbEntity
  8
AM_0
  6
Continuous
 62
     7
100
AcDbCircle
 10
23138.74808627158
 20
991.490071733626
 30
0.0
 40
0.9096388448402631
100
AcDbArc
 50
90.0286049799662
 51
180.0286049799662
  0
LINE
  5
1B1AC
330
1F
100
AcDbEntity
  8
AM_0
  6
Continuous
 62
     7
100
AcDbLine
 10
23138.74763213342
 20
992.3997104651007
 30
0.0
 11
23234.93772720899
 21
992.3997104651007
 31
0.0
  0
ARC
  5
1B1AD
330
1F
100
AcDbEntity
  8
AM_0
  6
Continuous
 62
     7
100
AcDbCircle
 10
23234.93727307083
 20
991.4909800099396
 30
0.0
 40
0.9087305686363858
100
AcDbArc
 50
359.971366429452
 51
89.97136642945198
  0
LINE
  5
1B1AE
330
1F
100
AcDbEntity
  8
AM_0
  6
Continuous
 62
     7
100
AcDbLine
 10
23235.84600352599
 20
991.4905258717826
 30
0.0
 11
23235.84600352599
 21
982.7193014785136
 31
0.0
  0
ARC
  5
1B1AF
330
1F
100
AcDbEntity
  8
AM_0
  6
Continuous
 62
     7
100
AcDbCircle
 10
23233.11844974604
 20
982.7183932021963
 30
0.0
 40
2.727553931179708
100
AcDbArc
 50
270.0190795128538
 51
0.0190795128537775
  0
LINE
  5
1B1B0
330
1F
100
AcDbEntity
  8
AM_0
  6
Continuous
 62
     7
100
AcDbLine
 10
23233.11935802236
 20
979.9908394222459
 30
0.0
 11
23229.4726286096
 21
979.9917476985632
 31
0.0
  0
LINE
  5
1B1B1
330
1F
100
AcDbEntity
  8
anbauteile dünn
  6
Continuous
 62
     1
100
AcDbLine
 10
23136.47512478829
 20
956.7198919043896
 30
0.0
 11
23136.47421651197
 21
958.3883954987198
 31
0.0
  0
ARC
  5
1B1B2
330
1F
100
AcDbEntity
  8
anbauteile dünn
  6
Continuous
 62
     1
100
AcDbCircle
 10
23137.38340110529
 20
958.3883954987198
 30
0.0
 40
0.909184593317185
100
AcDbArc
 50
90.0
 51
180.0
  0
LINE
  5
1B1B3
330
1F
100
AcDbEntity
  8
anbauteile dünn
  6
Continuous
 62
     1
100
AcDbLine
 10
23137.38340110529
 20
959.2975800920342
 30
0.0
 11
23165.43279032688
 21
959.2975800920342
 31
0.0
  0
LINE
  5
1B1B4
330
1F
100
AcDbEntity
  8
anbauteile dünn
  6
Continuous
 62
     1
100
AcDbLine
 10
23165.43279032688
 20
959.2966718157166
 30
0.0
 11
23236.30104996081
 21
959.2975800920342
 31
0.0
  0
ARC
  5
1B1B5
330
1F
100
AcDbEntity
  8
anbauteile dünn
  6
Continuous
 62
     1
100
AcDbCircle
 10
23236.30104996081
 20
958.3883954987198
 30
0.0
 40
0.9091845933169784
100
AcDbArc
 50
0.0
 51
90.0
  0
LINE
  5
1B1B6
330
1F
100
AcDbEntity
  8
anbauteile dünn
  6
Continuous
 62
     1
100
AcDbLine
 10
23237.21023455412
 20
958.3883954987198
 30
0.0
 11
23237.21023455412
 21
956.7208001807067
 31
0.0
  0
LINE
  5
1B1B7
330
1F
100
AcDbEntity
  8
anbauteile dünn
  6
Continuous
 62
     1
100
AcDbLine
 10
23202.79836973195
 20
970.0007082115646
 30
0.0
 11
23170.88698961047
 21
970.0007082115646
 31
0.0
  0
ARC
  5
1B1B8
330
1F
100
AcDbEntity
  8
anbauteile dünn
  6
Continuous
 62
     1
100
AcDbCircle
 10
23170.88698961047
 20
967.2731544316141
 30
0.0
 40
2.727553779951348
100
AcDbArc
 50
90.0
 51
180.0
  0
LINE
  5
1B1B9
330
1F
100
AcDbEntity
  8
anbauteile dünn
  6
Continuous
 62
     1
100
AcDbLine
 10
23168.15943583052
 20
967.2731544316141
 30
0.0
 11
23168.15943583052
 21
962.0242255956712
 31
0.0
  0
LINE
  5
1B1BA
330
1F
100
AcDbEntity
  8
anbauteile dünn
  6
Continuous
 62
     1
100
AcDbLine
 10
23205.5259235119
 20
962.0242255956712
 30
0.0
 11
23205.5259235119
 21
967.2731544316141
 31
0.0
  0
ARC
  5
1B1BB
330
1F
100
AcDbEntity
  8
anbauteile dünn
  6
Continuous
 62
     1
100
AcDbCircle
 10
23202.79836973195
 20
967.2731544316141
 30
0.0
 40
2.727553779951555
100
AcDbArc
 50
0.0
 51
90.0
  0
LINE
  5
1B1BC
330
1F
100
AcDbEntity
  8
AM_0
  6
Continuous
 62
     7
100
AcDbLine
 10
23219.70139199132
 20
936.6070211407407
 30
0.0
 11
23234.48268077417
 21
936.6070211407407
 31
0.0
  0
LINE
  5
1B1BD
330
1F
100
AcDbEntity
  8
AM_0
  6
Continuous
 62
     7
100
AcDbLine
 10
23234.48268077417
 20
936.6070211407407
 30
0.0
 11
23234.48358905049
 21
950.0967410008254
 31
0.0
  0
ARC
  5
1B1BE
330
1F
100
AcDbEntity
  8
AM_0
  6
Continuous
 62
     7
100
AcDbCircle
 10
23233.57440445719
 20
950.0967410008254
 30
0.0
 40
0.9091845933169784
100
AcDbArc
 50
0.0
 51
90.0
  0
LINE
  5
1B1BF
330
1F
100
AcDbEntity
  8
AM_0
  6
Continuous
 62
     7
100
AcDbLine
 10
23233.57440445719
 20
951.0059255941396
 30
0.0
 11
23140.11095488524
 21
951.0059255941396
 31
0.0
  0
ARC
  5
1B1C0
330
1F
100
AcDbEntity
  8
AM_0
  6
Continuous
 62
     7
100
AcDbCircle
 10
23140.11095488524
 20
950.0967410008254
 30
0.0
 40
0.909184593317185
100
AcDbArc
 50
90.0
 51
180.0
  0
LINE
  5
1B1C1
330
1F
100
AcDbEntity
  8
AM_0
  6
Continuous
 62
     7
100
AcDbLine
 10
23139.20177029192
 20
950.0967410008254
 30
0.0
 11
23139.20177029192
 21
936.6070211407407
 31
0.0
  0
LINE
  5
1B1C2
330
1F
100
AcDbEntity
  8
AM_0
  6
Continuous
 62
     7
100
AcDbLine
 10
23139.20177029192
 20
936.6070211407407
 30
0.0
 11
23219.70139199132
 21
936.6070211407407
 31
0.0
  0
ARC
  5
1B1C3
330
1F
100
AcDbEntity
  8
AM_0
  6
Continuous
 62
     7
100
AcDbCircle
 10
23109.57288855506
 20
887.6745428386842
 30
0.0
 40
1.818369186633999
100
AcDbArc
 50
90.0
 51
180.0
  0
ARC
  5
1B1C4
330
1F
100
AcDbEntity
  8
AM_0
  6
Continuous
 62
     7
100
AcDbCircle
 10
23264.11247078735
 20
852.5851038840214
 30
0.0
 40
1.818369186633999
100
AcDbArc
 50
270.0
 51
0.0
  0
ARC
  5
1B1C5
330
1F
100
AcDbEntity
  8
AM_0
  6
Continuous
 62
     7
100
AcDbCircle
 10
23264.11247078735
 20
887.6745428386842
 30
0.0
 40
1.818369186633999
100
AcDbArc
 50
0.0
 51
90.0
  0
ARC
  5
1B1C6
330
1F
100
AcDbEntity
  8
AM_0
  6
Continuous
 62
     7
100
AcDbCircle
 10
23257.70007720319
 20
865.7640414575636
 30
0.0
 40
2.776564977341546
100
AcDbArc
 50
0.0593603730271474
 51
24.48900528445971
  0
ARC
  5
1B1C7
330
1F
100
AcDbEntity
  8
AM_0
  6
Continuous
 62
     7
100
AcDbCircle
 10
23257.48891356727
 20
865.6634217421727
 30
0.0
 40
3.010443960090539
100
AcDbArc
 50
24.56583486264385
 51
47.63509885239081
  0
ARC
  5
1B1C8
330
1F
100
AcDbEntity
  8
AM_0
  6
Continuous
 62
     7
100
AcDbCircle
 10
23257.29067483383
 20
865.443978575726
 30
0.0
 40
3.306166998536852
100
AcDbArc
 50
47.6593511596952
 51
69.36660115383652
  0
ARC
  5
1B1C9
330
1F
100
AcDbEntity
  8
AM_0
  6
Continuous
 62
     7
100
AcDbCircle
 10
23257.20834443294
 20
865.2395825720288
 30
0.0
 40
3.526467633001728
100
AcDbArc
 50
69.28499527630386
 51
90.0833747895885
  0
ARC
  5
1B1CA
330
1F
100
AcDbEntity
  8
AM_0
  6
Continuous
 62
     7
100
AcDbCircle
 10
23116.47701490947
 20
865.2395825720288
 30
0.0
 40
3.526467633001256
100
AcDbArc
 50
89.91662521041147
 51
110.7150047236961
  0
ARC
  5
1B1CB
330
1F
100
AcDbEntity
  8
AM_0
  6
Continuous
 62
     7
100
AcDbCircle
 10
23116.39468450858
 20
865.443978575726
 30
0.0
 40
3.306166998537328
100
AcDbArc
 50
110.6333988461634
 51
132.3406488403048
  0
ARC
  5
1B1CC
330
1F
100
AcDbEntity
  8
AM_0
  6
Continuous
 62
     7
100
AcDbCircle
 10
23116.19644577514
 20
865.6634217421727
 30
0.0
 40
3.010443960090335
100
AcDbArc
 50
132.3649011476091
 51
178.0298348864062
  0
LINE
  5
1B1CD
330
1F
100
AcDbEntity
  8
AM_0
  6
Continuous
 62
     7
100
AcDbLine
 10
23116.48214649848
 20
868.7660464713792
 30
0.0
 11
23257.2032128438
 21
868.7660464713792
 31
0.0
  0
LINE
  5
1B1CE
330
1F
100
AcDbEntity
  8
AM_0
  6
Continuous
 62
     7
100
AcDbLine
 10
23265.93083997398
 20
852.5851038840214
 30
0.0
 11
23265.93083997398
 21
865.7669180726461
 31
0.0
  0
ARC
  5
1B1CF
330
1F
100
AcDbEntity
  8
AM_0
  6
Continuous
 62
     7
100
AcDbCircle
 10
23257.20834443294
 20
875.0200641506765
 30
0.0
 40
3.526467633001876
100
AcDbArc
 50
269.9166252104115
 51
290.7150047236962
  0
ARC
  5
1B1D0
330
1F
100
AcDbEntity
  8
AM_0
  6
Continuous
 62
     7
100
AcDbCircle
 10
23257.29067483383
 20
874.8156681469792
 30
0.0
 40
3.30616699853682
100
AcDbArc
 50
290.6333988461635
 51
312.3406488403048
  0
ARC
  5
1B1D1
330
1F
100
AcDbEntity
  8
AM_0
  6
Continuous
 62
     7
100
AcDbCircle
 10
23257.48668829254
 20
874.5966791186894
 30
0.0
 40
3.012279306729723
100
AcDbArc
 50
312.3903540161379
 51
335.459618005838
  0
ARC
  5
1B1D2
330
1F
100
AcDbEntity
  8
AM_0
  6
Continuous
 62
     7
100
AcDbCircle
 10
23257.70007720319
 20
874.4965135414586
 30
0.0
 40
2.776564977341482
100
AcDbArc
 50
335.5109947155404
 51
359.9406396269728
  0
ARC
  5
1B1D3
330
1F
100
AcDbEntity
  8
AM_0
  6
Continuous
 62
     7
100
AcDbCircle
 10
23115.98573627739
 20
874.4944156969234
 30
0.0
 40
2.776109458280019
100
AcDbArc
 50
180.0160729490252
 51
204.4457178605757
  0
ARC
  5
1B1D4
330
1F
100
AcDbEntity
  8
AM_0
  6
Continuous
 62
     7
100
AcDbCircle
 10
23116.19867104987
 20
874.5966791186894
 30
0.0
 40
3.012279306729437
100
AcDbArc
 50
204.540381994162
 51
227.609645983862
  0
ARC
  5
1B1D5
330
1F
100
AcDbEntity
  8
AM_0
  6
Continuous
 62
     7
100
AcDbCircle
 10
23116.39468450858
 20
874.8156681469792
 30
0.0
 40
3.306166998537309
100
AcDbArc
 50
227.6593511596952
 51
249.3666011538365
  0
ARC
  5
1B1D6
330
1F
100
AcDbEntity
  8
AM_0
  6
Continuous
 62
     7
100
AcDbCircle
 10
23116.47701490947
 20
875.0200641506765
 30
0.0
 40
3.526467633001268
100
AcDbArc
 50
249.2849952763039
 51
270.0833747895885
  0
LINE
  5
1B1D7
330
1F
100
AcDbEntity
  8
AM_0
  6
Continuous
 62
     7
100
AcDbLine
 10
23116.48214649848
 20
871.4936002513262
 30
0.0
 11
23257.20321284395
 21
871.4936002513262
 31
0.0
  0
LINE
  5
1B1D8
330
1F
100
AcDbEntity
  8
AM_0
  6
Continuous
 62
     7
100
AcDbLine
 10
23109.57288855506
 20
889.4929120253202
 30
0.0
 11
23247.04997381077
 21
889.4929120253202
 31
0.0
  0
LINE
  5
1B1D9
330
1F
100
AcDbEntity
  8
AM_0
  6
Continuous
 62
     7
100
AcDbLine
 10
23264.11247078735
 20
889.4920037490031
 30
0.0
 11
23244.5445658139
 21
889.4920037490031
 31
0.0
  0
LINE
  5
1B1DA
330
1F
100
AcDbEntity
  8
AM_0
  6
Continuous
 62
     7
100
AcDbLine
 10
23265.93083997398
 20
887.6745428386842
 30
0.0
 11
23265.93083997398
 21
874.4936369263799
 31
0.0
  0
LINE
  5
1B1DB
330
1F
100
AcDbEntity
  8
AM_0
  6
Continuous
 62
     7
100
AcDbLine
 10
23265.93083997398
 20
874.4936369263799
 30
0.0
 11
23107.75451936843
 21
874.4936369263799
 31
0.0
  0
LINE
  5
1B1DC
330
1F
100
AcDbEntity
  8
AM_0
  6
Continuous
 62
     7
100
AcDbLine
 10
23107.75451936843
 20
874.4936369263799
 30
0.0
 11
23107.75451936843
 21
887.6745428386842
 31
0.0
  0
LINE
  5
1B1DD
330
1F
100
AcDbEntity
  8
AM_0
  6
Continuous
 62
     7
100
AcDbLine
 10
23186.84267967121
 20
1042.614674926763
 30
0.0
 11
23258.65748547762
 21
1042.614674926763
 31
0.0
  0
ARC
  5
1B1DE
330
1F
100
AcDbEntity
  8
anbauteile dünn
  6
Continuous
 62
     1
100
AcDbCircle
 10
23186.89464388909
 20
1031.490243847404
 30
0.0
 40
7.270166604531625
100
AcDbArc
 50
241.5418289843652
 51
269.5904693957674
  0
ARC
  5
1B1DF
330
1F
100
AcDbEntity
  8
anbauteile dünn
  6
Continuous
 62
     1
100
AcDbCircle
 10
23186.79071545333
 20
1031.490243847404
 30
0.0
 40
7.270166604531683
100
AcDbArc
 50
270.4095306042325
 51
298.4581710156348
  0
ARC
  5
1B1E0
330
1F
100
AcDbEntity
  8
anbauteile dünn
  6
Continuous
 62
     1
100
AcDbCircle
 10
23182.28226010194
 20
1026.849677424934
 30
0.0
 40
2.77092847532746
100
AcDbArc
 50
215.1631473110441
 51
237.3245776693249
  0
ARC
  5
1B1E1
330
1F
100
AcDbEntity
  8
anbauteile dünn
  6
Continuous
 62
     1
100
AcDbCircle
 10
23181.80491015728
 20
1026.114731423966
 30
0.0
 40
1.894588538704314
100
AcDbArc
 50
237.4765000189233
 51
269.354941596352
  0
ARC
  5
1B1E2
330
1F
100
AcDbEntity
  8
anbauteile dünn
  6
Continuous
 62
     1
100
AcDbCircle
 10
23181.76270515191
 20
1026.116321556286
 30
0.0
 40
1.896173516243566
100
AcDbArc
 50
270.630795860119
 51
302.5092374374176
  0
ARC
  5
1B1E3
330
1F
100
AcDbEntity
  8
anbauteile dünn
  6
Continuous
 62
     1
100
AcDbCircle
 10
23181.34570101615
 20
1026.771785762068
 30
0.0
 40
2.673042560487895
100
AcDbArc
 50
302.4962010913136
 51
321.247264481881
  0
ARC
  5
1B1E4
330
1F
100
AcDbEntity
  8
anbauteile dünn
  6
Continuous
 62
     1
100
AcDbCircle
 10
23192.33965832626
 20
1026.771785762068
 30
0.0
 40
2.67304256048787
100
AcDbArc
 50
218.752735518119
 51
237.5037989086864
  0
ARC
  5
1B1E5
330
1F
100
AcDbEntity
  8
anbauteile dünn
  6
Continuous
 62
     1
100
AcDbCircle
 10
23191.92220005235
 20
1026.114731423966
 30
0.0
 40
1.89458853870414
100
AcDbArc
 50
237.4765000189233
 51
269.354941596352
  0
ARC
  5
1B1E6
330
1F
100
AcDbEntity
  8
anbauteile dünn
  6
Continuous
 62
     1
100
AcDbCircle
 10
23191.87999504698
 20
1026.116321556286
 30
0.0
 40
1.896173516243563
100
AcDbArc
 50
270.630795860119
 51
302.5092374374176
  0
ARC
  5
1B1E7
330
1F
100
AcDbEntity
  8
anbauteile dünn
  6
Continuous
 62
     1
100
AcDbCircle
 10
23191.40264510231
 20
1026.847358532292
 30
0.0
 40
2.769222226938985
100
AcDbArc
 50
302.7092340505778
 51
324.8706644086985
  0
LINE
  5
1B1E8
330
1F
100
AcDbEntity
  8
anbauteile dünn
  6
Continuous
 62
     1
100
AcDbLine
 10
23183.43028554823
 20
1025.098566153416
 30
0.0
 11
23183.43028554823
 21
1028.886078395304
 31
0.0
  0
LINE
  5
1B1E9
330
1F
100
AcDbEntity
  8
anbauteile dünn
  6
Continuous
 62
     1
100
AcDbLine
 10
23190.25507379418
 20
1025.098566153416
 30
0.0
 11
23190.25507379417
 21
1028.886078395304
 31
0.0
  0
LINE
  5
1B1EA
330
1F
100
AcDbEntity
  8
anbauteile dünn
  6
Continuous
 62
     1
100
AcDbLine
 10
23180.01789142527
 20
1025.254789679939
 30
0.0
 11
23180.01789142527
 21
1028.886078395304
 31
0.0
  0
LINE
  5
1B1EB
330
1F
100
AcDbEntity
  8
anbauteile dünn
  6
Continuous
 62
     1
100
AcDbLine
 10
23193.66655964083
 20
1025.254789679939
 30
0.0
 11
23193.66655964083
 21
1028.886078395304
 31
0.0
  0
LINE
  5
1B1EC
330
1F
100
AcDbEntity
  8
anbauteile dünn
  6
Continuous
 62
     1
100
AcDbLine
 10
23195.38683498522
 20
1024.220262954876
 30
0.0
 11
23178.29852435719
 21
1024.220262954876
 31
0.0
  0
LINE
  5
1B1ED
330
1F
100
AcDbEntity
  8
AM_0
  6
Continuous
 62
     7
100
AcDbLine
 10
23175.7771493012
 20
1022.328323386568
 30
0.0
 11
23197.90821004122
 21
1022.328323386568
 31
0.0
  0
LINE
  5
1B1EE
330
1F
100
AcDbEntity
  8
AM_0
  6
Continuous
 62
     7
100
AcDbLine
 10
23175.7771493012
 20
1003.781320993427
 30
0.0
 11
23197.90843226203
 21
1003.78079564648
 31
0.0
  0
LINE
  5
1B1EF
330
1F
100
AcDbEntity
  8
AM_0
  6
Continuous
 62
     7
100
AcDbLine
 10
23240.63261971658
 20
785.1210638862122
 30
0.0
 11
23257.34294076685
 21
792.6675202785648
 31
0.0
  0
ARC
  5
1B1F0
330
1F
100
AcDbEntity
  8
AM_0
  6
Continuous
 62
     7
100
AcDbCircle
 10
23255.84333122217
 20
795.2663886770007
 30
0.0
 40
3.000490916313994
100
AcDbArc
 50
299.9859793856522
 51
359.9849793856045
  0
LINE
  5
1B1F1
330
1F
100
AcDbEntity
  8
AM_0
  6
Continuous
 62
     7
100
AcDbLine
 10
23258.84382203538
 20
636.5397742934531
 30
0.0
 11
23258.84382203538
 21
830.5321549072598
 31
0.0
  0
ARC
  5
1B1F2
330
1F
100
AcDbEntity
  8
AM_0
  6
Continuous
 62
     7
100
AcDbCircle
 10
23261.84340457227
 20
830.5326090454165
 30
0.0
 40
2.999582571271282
100
AcDbArc
 50
90.00867460708333
 51
180.0086746068749
  0
LINE
  5
1B1F3
330
1F
100
AcDbEntity
  8
AM_0
  6
Continuous
 62
     7
100
AcDbLine
 10
23261.84295043411
 20
833.5321915823135
 30
0.0
 11
23273.84309713432
 21
833.5321915823135
 31
0.0
  0
LINE
  5
1B1F4
330
1F
100
AcDbEntity
  8
AM_0
  6
Continuous
 62
     7
100
AcDbLine
 10
23273.84309713432
 20
833.5321915823135
 30
0.0
 11
23273.84309713432
 21
633.5388293420857
 31
0.0
  0
LINE
  5
1B1F5
330
1F
100
AcDbEntity
  8
AM_0
  6
Continuous
 62
     7
100
AcDbLine
 10
23273.84309713432
 20
633.5388293420857
 30
0.0
 11
23261.84295043411
 21
633.539737618403
 31
0.0
  0
ARC
  5
1B1F6
330
1F
100
AcDbEntity
  8
AM_0
  6
Continuous
 62
     7
100
AcDbCircle
 10
23261.84340457227
 20
636.5393201552925
 30
0.0
 40
2.999582571271488
100
AcDbArc
 50
179.9913253931251
 51
269.9913253929167
  0
ARC
  5
1B1F7
330
1F
100
AcDbEntity
  8
AM_0
  6
Continuous
 62
     7
100
AcDbCircle
 10
23255.84333122217
 20
671.8055405554133
 30
0.0
 40
3.000490916314356
100
AcDbArc
 50
0.0150200088748949
 51
60.01602000897785
  0
LINE
  5
1B1F8
330
1F
100
AcDbEntity
  8
AM_0
  6
Continuous
 62
     7
100
AcDbLine
 10
23257.34285007577
 20
674.4044612826712
 30
0.0
 11
23234.74335607715
 21
677.7310135457176
 31
0.0
  0
LINE
  5
1B1F9
102
{ACAD_REACTORS
330
1B256
102
}
330
1F
100
AcDbEntity
  8
AM_7
 48
0.1
100
AcDbLine
 10
23289.35009869446
 20
733.5355104621977
 30
0.0
 11
23086.34099691885
 21
733.5355104621977
 31
0.0
  0
LINE
  5
1B1FA
330
1F
100
AcDbEntity
  8
AM_0
  6
Continuous
 62
     7
100
AcDbLine
 10
23276.84313380937
 20
661.7199186296439
 30
0.0
 11
23276.84313380937
 21
805.3511022947553
 31
0.0
  0
LINE
  5
1B1FB
330
1F
100
AcDbEntity
  8
AM_0
  6
Continuous
 62
     7
100
AcDbLine
 10
23186.84267967121
 20
1042.614674926763
 30
0.0
 11
23115.0278738648
 21
1042.614674926763
 31
0.0
  0
ARC
  5
1B1FC
330
1F
100
AcDbEntity
  8
anbauteile dünn
  6
Continuous
 62
     1
100
AcDbCircle
 10
23186.80544034221
 20
1010.072042764967
 30
0.0
 40
13.436131557381
100
AcDbArc
 50
250.1089999999762
 51
289.8429999999228
  0
ARC
  5
1B1FD
330
1F
100
AcDbEntity
  8
AM_0
  6
Continuous
 62
     7
100
AcDbCircle
 10
23201.8610285728
 20
977.2641939186128
 30
0.0
 40
2.727553779951
100
AcDbArc
 50
90.0
 51
180.0
  0
ARC
  5
1B1FE
330
1F
100
AcDbEntity
  8
AM_0
  6
Continuous
 62
     7
100
AcDbCircle
 10
23171.8234224933
 20
977.2641939186128
 30
0.0
 40
2.727553779951
100
AcDbArc
 50
0.0
 51
90.0
  0
ARC
  5
1B1FF
330
1F
100
AcDbEntity
  8
anbauteile dünn
  6
Continuous
 62
     1
100
AcDbCircle
 10
23208.25256901553
 20
962.0242255956712
 30
0.0
 40
2.727553779951
100
AcDbArc
 50
180.0
 51
270.0
  0
ARC
  5
1B200
330
1F
100
AcDbEntity
  8
anbauteile dünn
  6
Continuous
 62
     1
100
AcDbCircle
 10
23165.43279032688
 20
962.0242255956712
 30
0.0
 40
2.727553779951
100
AcDbArc
 50
270.0
 51
0.0
  0
LINE
  5
1B201
330
1F
100
AcDbEntity
  8
AM_0
  6
Continuous
 62
     7
100
AcDbLine
 10
23257.20321284393
 20
871.4936002513262
 30
0.0
 11
23257.20321284393
 21
868.7660464713792
 31
0.0
  0
LINE
  5
1B202
330
1F
100
AcDbEntity
  8
AM_0
  6
Continuous
 62
     7
100
AcDbLine
 10
23116.48123822217
 20
871.4936002513262
 30
0.0
 11
23116.48123822217
 21
868.7660464713792
 31
0.0
  0
LINE
  5
1B203
330
1F
100
AcDbEntity
  8
AM_0
  6
Continuous
 62
     7
100
AcDbLine
 10
23241.07047244859
 20
1028.886078395304
 30
0.0
 11
23198.40867029189
 21
1005.116487179415
 31
0.0
  0
LINE
  5
1B204
330
1F
100
AcDbEntity
  8
AM_0
  6
Continuous
 62
     7
100
AcDbLine
 10
23222.94180257294
 20
1028.886078395308
 30
0.0
 11
23199.5957874382
 21
1015.592546219695
 31
0.0
  0
LINE
  5
1B205
330
1F
100
AcDbEntity
  8
anbauteile dünn
  6
Continuous
 62
     1
100
AcDbLine
 10
23195.38683498522
 20
1024.195739494322
 30
0.0
 11
23195.38683498522
 21
1022.328323386568
 31
0.0
  0
LINE
  5
1B206
330
1F
100
AcDbEntity
  8
anbauteile dünn
  6
Continuous
 62
     1
100
AcDbLine
 10
23178.29852435719
 20
1024.195739494322
 30
0.0
 11
23178.29852435719
 21
1022.328323386568
 31
0.0
  0
LINE
  5
1B207
330
1F
100
AcDbEntity
  8
AM_0
  6
Continuous
 62
     7
100
AcDbLine
 10
23132.6150383937
 20
1028.886078395304
 30
0.0
 11
23175.27759732684
 21
1005.116487179415
 31
0.0
  0
LINE
  5
1B208
330
1F
100
AcDbEntity
  8
AM_0
  6
Continuous
 62
     7
100
AcDbLine
 10
23150.74352033256
 20
1028.886078395308
 30
0.0
 11
23174.09048018052
 21
1015.592546219695
 31
0.0
  0
ARC
  5
1B209
330
1F
100
AcDbEntity
  8
AM_0
  6
Continuous
 62
     7
100
AcDbCircle
 10
23175.16497106354
 20
1013.054822189997
 30
0.0
 40
24.561608164314
100
AcDbArc
 50
337.8159999999664
 51
22.18400000003355
  0
ARC
  5
1B20A
330
1F
100
AcDbEntity
  8
AM_0
  6
Continuous
 62
     7
100
AcDbCircle
 10
23198.51948000256
 20
1013.054822189997
 30
0.0
 40
24.560699887997
100
AcDbArc
 50
157.8159999999664
 51
202.1840000000335
  0
ARC
  5
1B20B
330
1F
100
AcDbEntity
  8
AM_0
  6
Continuous
 62
     7
100
AcDbCircle
 10
23219.70053446788
 20
933.8792361727955
 30
0.0
 40
2.726876826463186
100
AcDbArc
 50
89.98198214389203
 51
175.2759821437506
  0
LINE
  5
1B20C
330
1F
100
AcDbEntity
  8
AM_0
  6
Continuous
 62
     7
100
AcDbLine
 10
23216.98292097454
 20
934.1038116110887
 30
0.0
 11
23216.48897990862
 21
928.100414932722
 31
0.0
  0
ARC
  5
1B20D
330
1F
100
AcDbEntity
  8
AM_0
  6
Continuous
 62
     7
100
AcDbCircle
 10
23221.01165177855
 20
927.6444696589701
 30
0.0
 40
4.545596433442419
100
AcDbArc
 50
174.2432758394099
 51
231.3962758393177
  0
ARC
  5
1B20E
330
1F
100
AcDbEntity
  8
AM_0
  6
Continuous
 62
     7
100
AcDbCircle
 10
23186.8418724761
 20
884.838276864548
 30
0.0
 40
50.22614775528142
100
AcDbArc
 50
13.39808038878408
 51
51.40208038866357
  0
ARC
  5
1B20F
330
1F
100
AcDbEntity
  8
AM_0
  6
Continuous
 62
     7
100
AcDbCircle
 10
23244.5445658139
 20
898.5829414058555
 30
0.0
 40
9.090937656854746
100
AcDbArc
 50
193.398000000023
 51
270.0
  0
LINE
  5
1B210
330
1F
100
AcDbEntity
  8
anbauteile dünn
  6
Continuous
 62
     1
100
AcDbLine
 10
23229.19651260924
 20
953.712589018802
 30
0.0
 11
23234.62618843226
 21
953.9959712297079
 31
0.0
  0
ARC
  5
1B211
330
1F
100
AcDbEntity
  8
anbauteile dünn
  6
Continuous
 62
     1
100
AcDbCircle
 10
23234.48252619651
 20
956.7198939282192
 30
0.0
 40
2.727708508154468
100
AcDbArc
 50
273.0190359208189
 51
0.0190359209949691
  0
LINE
  5
1B212
330
1F
100
AcDbEntity
  8
anbauteile dünn
  6
Continuous
 62
     1
100
AcDbLine
 10
23144.48975500949
 20
953.712589018802
 30
0.0
 11
23139.05917091015
 21
953.9968795060252
 31
0.0
  0
ARC
  5
1B213
330
1F
100
AcDbEntity
  8
anbauteile dünn
  6
Continuous
 62
     1
100
AcDbCircle
 10
23139.2020007835
 20
956.7209218467526
 30
0.0
 40
2.727784274241695
100
AcDbArc
 50
180.0025555360812
 51
266.9985555359446
  0
LINE
  5
1B214
102
{ACAD_REACTORS
330
1B262
102
}
330
1F
100
AcDbEntity
  8
AM_0
  6
Continuous
 62
     7
100
AcDbLine
 10
23276.84313380937
 20
661.7199186296439
 30
0.0
 11
23275.20641988614
 21
661.7199186296439
 31
0.0
  0
ARC
  5
1B215
330
1F
100
AcDbEntity
  8
AM_0
  6
Continuous
 62
     7
100
AcDbCircle
 10
23275.20687402429
 20
660.3570500159824
 30
0.0
 40
1.362868689323061
100
AcDbArc
 50
90.01909222837056
 51
180.0190922283706
  0
LINE
  5
1B216
330
1F
100
AcDbEntity
  8
AM_0
  6
Continuous
 62
     7
100
AcDbLine
 10
23276.84313380937
 20
805.3511022947553
 30
0.0
 11
23275.20641988614
 21
805.3511022947553
 31
0.0
  0
ARC
  5
1B217
330
1F
100
AcDbEntity
  8
AM_0
  6
Continuous
 62
     7
100
AcDbCircle
 10
23275.20687402429
 20
806.7139709084132
 30
0.0
 40
1.362868689323267
100
AcDbArc
 50
179.9809077716294
 51
269.9809077716295
  0
LINE
  5
1B218
330
1F
100
AcDbEntity
  8
AM_0
  6
Continuous
 62
     7
100
AcDbLine
 10
23192.9808110215
 20
992.3997104651007
 30
0.0
 11
23192.9808110215
 21
996.2271868649388
 31
0.0
  0
ARC
  5
1B219
330
1F
100
AcDbEntity
  8
AM_0
  6
Continuous
 62
     7
100
AcDbCircle
 10
23183.89032750284
 20
996.2235555536047
 30
0.0
 40
9.090484243939217
100
AcDbArc
 50
0.0228875397149761
 51
14.27988753973633
  0
LINE
  5
1B21A
330
1F
100
AcDbEntity
  8
AM_0
  6
Continuous
 62
     7
100
AcDbLine
 10
23192.69993737749
 20
998.4658038997643
 30
0.0
 11
23191.34954675616
 21
1003.781320993427
 31
0.0
  0
LINE
  5
1B21B
330
1F
100
AcDbEntity
  8
AM_0
  6
Continuous
 62
     7
100
AcDbLine
 10
23180.70454832092
 20
992.3997104651007
 30
0.0
 11
23180.70454832092
 21
996.2271868649388
 31
0.0
  0
ARC
  5
1B21C
330
1F
100
AcDbEntity
  8
AM_0
  6
Continuous
 62
     7
100
AcDbCircle
 10
23189.79548597784
 20
996.2271868649166
 30
0.0
 40
9.090937656917033
100
AcDbArc
 50
165.7349999999027
 51
179.9999999997915
  0
LINE
  5
1B21D
330
1F
100
AcDbEntity
  8
AM_0
  6
Continuous
 62
     7
100
AcDbLine
 10
23180.98485434979
 20
998.4672578005977
 30
0.0
 11
23182.33490430994
 21
1003.781320993427
 31
0.0
  0
ARC
  5
1B21E
330
1F
100
AcDbEntity
  8
AM_0
  6
Continuous
 62
     7
100
AcDbCircle
 10
23129.14026518534
 20
898.5830426938175
 30
0.0
 40
9.091038960168466
100
AcDbArc
 50
270.0033298541679
 51
346.6043298542181
  0
ARC
  5
1B21F
330
1F
100
AcDbEntity
  8
AM_0
  6
Continuous
 62
     7
100
AcDbCircle
 10
23186.84358461831
 20
884.8387208540573
 30
0.0
 40
50.22657610606646
100
AcDbArc
 50
128.5980436966594
 51
166.6020436966182
  0
ARC
  5
1B220
330
1F
100
AcDbEntity
  8
AM_0
  6
Continuous
 62
     7
100
AcDbCircle
 10
23152.67543165209
 20
927.6445977158784
 30
0.0
 40
4.543906610053006
100
AcDbArc
 50
308.5888128127968
 51
5.741812812772792
  0
LINE
  5
1B221
330
1F
100
AcDbEntity
  8
AM_0
  6
Continuous
 62
     7
100
AcDbLine
 10
23157.19654068433
 20
928.0991968794026
 30
0.0
 11
23156.70153009156
 21
934.1029033347716
 31
0.0
  0
ARC
  5
1B222
330
1F
100
AcDbEntity
  8
AM_0
  6
Continuous
 62
     7
100
AcDbCircle
 10
23153.98343222842
 20
933.8797809005141
 30
0.0
 40
2.727240292729312
100
AcDbArc
 50
4.692757766690257
 51
89.98875776681222
  0
ARC
  5
1B223
330
1F
100
AcDbEntity
  8
anbauteile dünn
  6
Continuous
 62
     1
100
AcDbCircle
 10
23165.4332641043
 20
949.8838427704558
 30
0.0
 40
2.727080026496985
100
AcDbArc
 50
24.29654763657644
 51
87.0125966089941
  0
LINE
  5
1B224
330
1F
100
AcDbEntity
  8
anbauteile dünn
  6
Continuous
 62
     1
100
AcDbLine
 10
23165.57538970865
 20
952.6072167410111
 30
0.0
 11
23151.34179154495
 21
953.352911597269
 31
0.0
  0
LINE
  5
1B225
330
1F
100
AcDbEntity
  8
anbauteile dünn
  6
Continuous
 62
     1
100
AcDbLine
 10
23229.19333364212
 20
953.7198552293396
 30
0.0
 11
23208.11087791009
 21
952.6072167410111
 31
0.0
  0
ARC
  5
1B226
330
1F
100
AcDbEntity
  8
anbauteile dünn
  6
Continuous
 62
     1
100
AcDbCircle
 10
23208.25254937626
 20
949.8833642505072
 30
0.0
 40
2.727534270061811
100
AcDbArc
 50
92.97735265630041
 51
155.6967310435872
  0
LINE
  5
1B227
330
1F
100
AcDbEntity
  8
AM_0
  6
Continuous
 62
     7
100
AcDbLine
 10
23234.48268077417
 20
936.6061128644236
 30
0.0
 11
23228.20921625265
 21
920.9501539882934
 31
0.0
  0
ARC
  5
1B228
330
1F
100
AcDbEntity
  8
AM_0
  6
Continuous
 62
     7
100
AcDbCircle
 10
23236.51506641888
 20
917.2568011995192
 30
0.0
 40
9.089994598802103
100
AcDbArc
 50
156.0267755564128
 51
213.1257755565006
  0
LINE
  5
1B229
330
1F
100
AcDbEntity
  8
AM_0
  6
Continuous
 62
     7
100
AcDbLine
 10
23139.20177029192
 20
936.6061128644236
 30
0.0
 11
23145.47614308976
 21
920.9501539882934
 31
0.0
  0
ARC
  5
1B22A
330
1F
100
AcDbEntity
  8
AM_0
  6
Continuous
 62
     7
100
AcDbCircle
 10
23137.17029292353
 20
917.2568011995192
 30
0.0
 40
9.089994598802189
100
AcDbArc
 50
326.8742244434994
 51
23.9732244435872
  0
ARC
  5
1B22B
330
1F
100
AcDbEntity
  8
AM_0
  6
Continuous
 62
     7
100
AcDbCircle
 10
23250.31710952679
 20
841.677034421273
 30
0.0
 40
9.090608563461051
100
AcDbArc
 50
90.00282185405348
 51
170.7858218541723
  0
LINE
  5
1B22C
330
1F
100
AcDbEntity
  8
AM_0
  6
Continuous
 62
     7
100
AcDbLine
 10
23241.3438000728
 20
843.132672253005
 30
0.0
 11
23236.54174318482
 21
813.5328553582896
 31
0.0
  0
LINE
  5
1B22D
330
1F
100
AcDbEntity
  8
AM_0
  6
Continuous
 62
     7
100
AcDbLine
 10
23236.54174318482
 20
813.5328553582896
 30
0.0
 11
23236.54174318482
 21
787.482582310413
 31
0.0
  0
ARC
  5
1B22E
330
1F
100
AcDbEntity
  8
AM_0
  6
Continuous
 62
     7
100
AcDbCircle
 10
23239.26884282661
 20
787.4823201136189
 30
0.0
 40
2.727099654397408
100
AcDbArc
 50
179.9944913015147
 51
299.9944913015374
  0
ARC
  5
1B22F
330
1F
100
AcDbEntity
  8
AM_0
  6
Continuous
 62
     7
100
AcDbCircle
 10
23234.27247011183
 20
675.0453433143794
 30
0.0
 40
2.727364471840667
100
AcDbArc
 50
80.05616771030423
 51
153.6061677103675
  0
ARC
  5
1B230
330
1F
100
AcDbEntity
  8
AM_0
  6
Continuous
 62
     7
100
AcDbCircle
 10
23186.84267967121
 20
698.5923039946012
 30
0.0
 40
50.22586377748101
100
AcDbArc
 50
206.4029999999717
 51
333.5970000000282
  0
ARC
  5
1B231
330
1F
100
AcDbEntity
  8
AM_0
  6
Continuous
 62
     7
100
AcDbCircle
 10
23258.65748547761
 20
1033.524645546227
 30
0.0
 40
9.090937656854
100
AcDbArc
 50
0.0
 51
90.80992704716614
  0
LINE
  5
1B232
330
1F
100
AcDbEntity
  8
AM_0
  6
Continuous
 62
     7
100
AcDbLine
 10
23267.74842313447
 20
1033.524645546227
 30
0.0
 11
23267.74842313447
 21
1028.886078395308
 31
0.0
  0
LINE
  5
1B233
102
{ACAD_REACTORS
330
1B253
102
}
330
1F
100
AcDbEntity
  8
AM_0
  6
Continuous
 62
     7
100
AcDbLine
 10
23267.74842313447
 20
1028.886078395308
 30
0.0
 11
23105.93693620794
 21
1028.886078395308
 31
0.0
  0
ARC
  5
1B234
330
1F
100
AcDbEntity
  8
AM_0
  6
Continuous
 62
     7
100
AcDbCircle
 10
23115.0278738648
 20
1033.524645546227
 30
0.0
 40
9.090937656854
100
AcDbArc
 50
89.19007295283384
 51
180.0
  0
LINE
  5
1B235
330
1F
100
AcDbEntity
  8
AM_0
  6
Continuous
 62
     7
100
AcDbLine
 10
23105.93693620794
 20
1033.524645546227
 30
0.0
 11
23105.93693620794
 21
1028.886078395308
 31
0.0
  0
LINE
  5
1B236
330
1F
100
AcDbEntity
  8
AM_0
  6
Continuous
100
AcDbLine
 10
23165.57538970865
 20
952.6072167410111
 30
0.0
 11
23208.11087791009
 21
952.6072167410111
 31
0.0
  0
LINE
  5
1B237
330
1F
100
AcDbEntity
  8
AM_0
  6
Continuous
100
AcDbLine
 10
23236.54174318482
 20
787.4825823117372
 30
0.0
 11
23233.04143864161
 21
677.4790808683449
 31
0.0
  0
ARC
  5
1B238
330
1F
100
AcDbEntity
  8
AM_0
  6
Continuous
 62
     7
100
AcDbCircle
 10
23109.57379683138
 20
852.5851038840214
 30
0.0
 40
1.818369186633999
100
AcDbArc
 50
180.0
 51
270.0
  0
LINE
  5
1B239
330
1F
100
AcDbEntity
  8
AM_0
  6
Continuous
 62
     7
100
AcDbLine
 10
23107.75542764475
 20
852.5851038840214
 30
0.0
 11
23107.75542764475
 21
865.7669180726461
 31
0.0
  0
LINE
  5
1B23A
330
1F
100
AcDbEntity
  8
AM_0
  6
Continuous
 62
     7
100
AcDbLine
 10
23133.05364790215
 20
785.1210638862122
 30
0.0
 11
23116.34332685188
 21
792.6675202785648
 31
0.0
  0
ARC
  5
1B23B
330
1F
100
AcDbEntity
  8
AM_0
  6
Continuous
 62
     7
100
AcDbCircle
 10
23117.84293639656
 20
795.2663886770007
 30
0.0
 40
3.000490916313993
100
AcDbArc
 50
180.0150206141871
 51
240.0140206143478
  0
LINE
  5
1B23C
330
1F
100
AcDbEntity
  8
AM_0
  6
Continuous
 62
     7
100
AcDbLine
 10
23114.84244558335
 20
636.5397742934531
 30
0.0
 11
23114.84244558335
 21
830.5321549072598
 31
0.0
  0
ARC
  5
1B23D
330
1F
100
AcDbEntity
  8
AM_0
  6
Continuous
 62
     7
100
AcDbCircle
 10
23111.84286304646
 20
830.5326090454165
 30
0.0
 40
2.999582571271282
100
AcDbArc
 50
359.9913253931252
 51
89.99132539291668
  0
LINE
  5
1B23E
330
1F
100
AcDbEntity
  8
AM_0
  6
Continuous
 62
     7
100
AcDbLine
 10
23111.84331718462
 20
833.5321915823135
 30
0.0
 11
23099.84317048442
 21
833.5321915823135
 31
0.0
  0
LINE
  5
1B23F
330
1F
100
AcDbEntity
  8
AM_0
  6
Continuous
 62
     7
100
AcDbLine
 10
23099.84317048442
 20
833.5321915823135
 30
0.0
 11
23099.84317048442
 21
633.5388293420857
 31
0.0
  0
LINE
  5
1B240
330
1F
100
AcDbEntity
  8
AM_0
  6
Continuous
 62
     7
100
AcDbLine
 10
23099.84317048442
 20
633.5388293420857
 30
0.0
 11
23111.84331718462
 21
633.539737618403
 31
0.0
  0
ARC
  5
1B241
330
1F
100
AcDbEntity
  8
AM_0
  6
Continuous
 62
     7
100
AcDbCircle
 10
23111.84286304646
 20
636.5393201552925
 30
0.0
 40
2.999582571271488
100
AcDbArc
 50
270.0086746068749
 51
0.0086746068748676
  0
ARC
  5
1B242
330
1F
100
AcDbEntity
  8
AM_0
  6
Continuous
 62
     7
100
AcDbCircle
 10
23117.84293639657
 20
671.8055405554133
 30
0.0
 40
3.000490916314356
100
AcDbArc
 50
119.9839799912743
 51
179.9849799911251
  0
LINE
  5
1B243
330
1F
100
AcDbEntity
  8
AM_0
  6
Continuous
 62
     7
100
AcDbLine
 10
23116.34341754297
 20
674.4044612826712
 30
0.0
 11
23138.94291154158
 21
677.7310135457176
 31
0.0
  0
LINE
  5
1B244
330
1F
100
AcDbEntity
  8
AM_0
  6
Continuous
 62
     7
100
AcDbLine
 10
23096.84313380937
 20
661.7199186296439
 30
0.0
 11
23096.84313380937
 21
805.3511022947553
 31
0.0
  0
LINE
  5
1B245
102
{ACAD_REACTORS
330
1B262
102
}
330
1F
100
AcDbEntity
  8
AM_0
  6
Continuous
 62
     7
100
AcDbLine
 10
23096.84313380937
 20
661.7199186296439
 30
0.0
 11
23098.4798477326
 21
661.7199186296439
 31
0.0
  0
ARC
  5
1B246
330
1F
100
AcDbEntity
  8
AM_0
  6
Continuous
 62
     7
100
AcDbCircle
 10
23098.47939359444
 20
660.3570500159824
 30
0.0
 40
1.362868689323061
100
AcDbArc
 50
359.9809077716295
 51
89.98090777162943
  0
LINE
  5
1B247
330
1F
100
AcDbEntity
  8
AM_0
  6
Continuous
 62
     7
100
AcDbLine
 10
23096.84313380937
 20
805.3511022947553
 30
0.0
 11
23098.4798477326
 21
805.3511022947553
 31
0.0
  0
ARC
  5
1B248
330
1F
100
AcDbEntity
  8
AM_0
  6
Continuous
 62
     7
100
AcDbCircle
 10
23098.47939359444
 20
806.7139709084132
 30
0.0
 40
1.362868689323267
100
AcDbArc
 50
270.0190922283705
 51
0.0190922283705805
  0
ARC
  5
1B249
330
1F
100
AcDbEntity
  8
AM_0
  6
Continuous
 62
     7
100
AcDbCircle
 10
23123.36915809196
 20
841.677034421273
 30
0.0
 40
9.090608563461051
100
AcDbArc
 50
9.214178145827656
 51
89.99717814594651
  0
LINE
  5
1B24A
330
1F
100
AcDbEntity
  8
AM_0
  6
Continuous
 62
     7
100
AcDbLine
 10
23132.34246754594
 20
843.132672253005
 30
0.0
 11
23137.14452443392
 21
813.5328553582896
 31
0.0
  0
LINE
  5
1B24B
330
1F
100
AcDbEntity
  8
AM_0
  6
Continuous
 62
     7
100
AcDbLine
 10
23137.14452443392
 20
813.5328553582896
 30
0.0
 11
23137.14452443392
 21
787.482582310413
 31
0.0
  0
ARC
  5
1B24C
330
1F
100
AcDbEntity
  8
AM_0
  6
Continuous
 62
     7
100
AcDbCircle
 10
23134.41742479213
 20
787.4823201136189
 30
0.0
 40
2.727099654397406
100
AcDbArc
 50
240.0055086982364
 51
0.005508698485255
  0
ARC
  5
1B24D
330
1F
100
AcDbEntity
  8
AM_0
  6
Continuous
 62
     7
100
AcDbCircle
 10
23139.41379750689
 20
675.0453433143794
 30
0.0
 40
2.727364471840667
100
AcDbArc
 50
26.39383228963249
 51
99.94383228969578
  0
LINE
  5
1B24E
330
1F
100
AcDbEntity
  8
AM_0
  6
Continuous
100
AcDbLine
 10
23137.14452443392
 20
787.4825823117372
 30
0.0
 11
23140.64482897712
 21
677.4790808683449
 31
0.0
  0
LINE
  5
1B24F
330
1F
100
AcDbEntity
  8
AM_0
  6
Continuous
100
AcDbLine
 10
23107.75542764475
 20
865.7669180726461
 30
0.0
 11
23265.93083997398
 21
865.7669180726461
 31
0.0
  0
LINE
  5
1B250
330
1F
100
AcDbEntity
  8
AM_0
  6
Continuous
100
AcDbLine
 10
23109.57379683138
 20
850.7667346973851
 30
0.0
 11
23264.11247078735
 21
850.7667346973851
 31
0.0
  0
DIMENSION
  5
1B251
102
{ACAD_XDICTIONARY
360
1B252
102
}
102
{ACAD_REACTORS
330
1B253
102
}
330
1F
100
AcDbEntity
  8
AM_5
100
AcDbDimension
  2
*D5
 10
23267.74842313447
 20
1071.248331004788
 30
0.0
 11
23199.25206353224
 21
1071.248331004788
 31
0.0
 70
   160
  1
%%c 160
 71
     5
 42
161.8114869265228
  3
GEN-ISO$0
100
AcDbAlignedDimension
 13
23105.93693620794
 23
1028.886078395308
 33
0.0
 14
23267.74842313447
 24
1028.886078395308
 34
0.0
100
AcDbRotatedDimension
1001
ACAD_DSTYLE_DIMINSPECT
1070
   396
1000
100%
1070
   395
1000

1070
   394
1070
    33
1070
   393
1070
     0
  0
DIMENSION
  5
1B254
102
{ACAD_XDICTIONARY
360
1B255
102
}
102
{ACAD_REACTORS
330
1B256
102
}
330
1F
100
AcDbEntity
  8
AM_5
100
AcDbDimension
  2
*D6
 10
23054.02273095667
 20
733.5355104621977
 30
0.0
 11
23054.02273095667
 21
888.0750926944768
 31
0.0
 70
   160
  1
315
 71
     5
 42
309.0791644645652
  3
GEN-ISO$0
100
AcDbAlignedDimension
 13
23115.1563781131
 23
1042.614674926763
 33
0.0
 14
23086.34099691881
 24
733.5355104621977
 34
0.0
 50
90.0
100
AcDbRotatedDimension
1001
ACAD_DSTYLE_DIMINSPECT
1070
   396
1000
100%
1070
   395
1000

1070
   394
1070
    33
1070
   393
1070
     0
  0
LINE
  5
1B257
330
1F
100
AcDbEntity
  8
anbauteile dünn
  6
Continuous
 62
     1
100
AcDbLine
 10
23144.77154288858
 20
965.1150899024198
 30
0.0
 11
23144.77154288858
 21
979.9917476985632
 31
0.0
  0
LINE
  5
1B258
330
1F
100
AcDbEntity
  8
anbauteile dünn
  6
Continuous
 62
     1
100
AcDbLine
 10
23150.92693148889
 20
965.1150899024198
 30
0.0
 11
23150.92693148888
 21
979.9917476985632
 31
0.0
  0
LINE
  5
1B259
330
1F
100
AcDbEntity
  8
anbauteile dünn
  6
Continuous
 62
     1
100
AcDbLine
 10
23151.48552142384
 20
951.0059255941396
 30
0.0
 11
23151.48552142384
 21
952.962352780962
 31
0.0
  0
LINE
  5
1B25A
330
1F
100
AcDbEntity
  8
anbauteile dünn
  6
Continuous
 62
     1
100
AcDbLine
 10
23151.48552142384
 20
952.962352780962
 30
0.0
 11
23144.21295295362
 21
952.962352780962
 31
0.0
  0
LINE
  5
1B25B
330
1F
100
AcDbEntity
  8
anbauteile dünn
  6
Continuous
 62
     1
100
AcDbLine
 10
23144.21295295362
 20
952.962352780962
 30
0.0
 11
23144.21295295362
 21
951.0059255941396
 31
0.0
  0
LINE
  5
1B25C
330
1F
100
AcDbEntity
  8
anbauteile dünn
  6
Continuous
 62
     1
100
AcDbLine
 10
23144.21295295362
 20
965.1150899024198
 30
0.0
 11
23144.21295295362
 21
979.9917476985632
 31
0.0
  0
LINE
  5
1B25D
330
1F
100
AcDbEntity
  8
anbauteile dünn
  6
Continuous
 62
     1
100
AcDbLine
 10
23151.48552142384
 20
965.1150899024198
 30
0.0
 11
23151.48552142384
 21
979.9917476985632
 31
0.0
  0
LINE
  5
1B25E
330
1F
100
AcDbEntity
  8
anbauteile dünn
  6
Continuous
 62
     1
100
AcDbLine
 10
23144.21295295362
 20
952.962352780962
 30
0.0
 11
23144.4922479211
 21
953.7198552293396
 31
0.0
  0
LINE
  5
1B25F
330
1F
100
AcDbEntity
  8
anbauteile dünn
  6
Continuous
 62
     1
100
AcDbLine
 10
23151.48552142384
 20
952.962352780962
 30
0.0
 11
23151.33946380198
 21
953.3584895505141
 31
0.0
  0
DIMENSION
  5
1B260
102
{ACAD_XDICTIONARY
360
1B261
102
}
102
{ACAD_REACTORS
330
1B262
102
}
330
1F
100
AcDbEntity
  8
AM_5
100
AcDbDimension
  2
*D7
 10
23276.84313380937
 20
552.7267605896396
 30
0.0
 11
23186.84313380936
 21
576.5968151598989
 31
0.0
 70
    32
  1
<>
 71
     5
 42
180.0
  3
GEN-ISO$0
100
AcDbAlignedDimension
 13
23096.84313380937
 23
661.7199186296439
 33
0.0
 14
23276.84313380937
 24
661.7199186296439
 34
0.0
100
AcDbRotatedDimension
1001
ACAD_DSTYLE_DIMINSPECT
1070
   396
1000
100%
1070
   395
1000

1070
   394
1070
    33
1070
   393
1070
     0
  0
ENDSEC
  0
SECTION
  2
OBJECTS
  0
DICTIONARY
  5
C
330
0
100
AcDbDictionary
281
     1
  3
ACAD_2007HEADERVARS_RT
350
1B418
  3
ACAD_COLOR
350
BE
  3
ACAD_GROUP
350
D
  3
ACAD_LAYOUT
350
1A
  3
ACAD_MATERIAL
350
BD
  3
ACAD_MLEADERSTYLE
350
1A1D0
  3
ACAD_MLINESTYLE
350
17
  3
ACAD_PLOTSETTINGS
350
19
  3
ACAD_PLOTSTYLENAME
350
E
  3
ACAD_SCALELIST
350
1A1BE
  3
ACAD_TABLESTYLE
350
11A
  3
ACAD_VISUALSTYLE
350
1A1AD
  3
ACDB_RECOMPOSE_DATA
350
1B416
  3
AcDbVariableDictionary
350
94
  3
AcmDictionary
350
5B
  3
AMG
350
41
  3
AMGSNAPSETTINGS
350
26B
  3
DWGPROPS
350
1B417
  0
DICTIONARY
  5
5E1
330
2
100
AcDbDictionary
280
     1
281
     1
  3
ACAD_LAYERFILTERS
360
10B7F
  3
ACAD_LAYERSTATES
360
5E2
  3
ACLYDICTIONARY
360
10B7E
  3
AMLAYER_GROUPCOLORS
360
1A4EA
  0
DICTIONARY
  5
1A4F2
330
10
100
AcDbDictionary
280
     1
281
     1
  3
ADSK_XREC_LAYER_RECONCILED
360
1A4F3
  0
DICTIONARY
  5
1A4F6
330
1080A
100
AcDbDictionary
280
     1
281
     1
  3
ADSK_XREC_LAYER_RECONCILED
360
1A4F7
  0
DICTIONARY
  5
1A8AF
330
1A8AE
100
AcDbDictionary
280
     1
281
     1
  0
DICTIONARY
  5
1AE28
330
1AE27
100
AcDbDictionary
280
     1
281
     1
  0
DICTIONARY
  5
8F
330
1F
100
AcDbDictionary
280
     1
281
     1
  3
ACAD_SORTENTS
360
9429
  0
DICTIONARY
  5
10117
330
87
100
AcDbDictionary
280
     1
281
     1
  0
DICTIONARY
  5
1B252
330
1B251
100
AcDbDictionary
280
     1
281
     1
  3
ACAD_DIMASSOC
360
1B253
  0
DICTIONARY
  5
1B255
330
1B254
100
AcDbDictionary
280
     1
281
     1
  3
ACAD_DIMASSOC
360
1B256
  0
DICTIONARY
  5
1B261
330
1B260
100
AcDbDictionary
280
     1
281
     1
  3
ACAD_DIMASSOC
360
1B262
  0
DICTIONARY
  5
1B418
102
{ACAD_REACTORS
330
C
102
}
330
C
100
AcDbDictionary
281
     1
  3
DIMARCSYM
350
1B419
  3
DIMJOGANG
350
1B41A
  3
DIMLTEX1
350
1B41C
  3
DIMLTEX2
350
1B41D
  3
DIMLTYPE
350
1B41B
  0
DICTIONARY
  5
BE
102
{ACAD_REACTORS
330
C
102
}
330
C
100
AcDbDictionary
281
     1
  0
DICTIONARY
  5
D
102
{ACAD_REACTORS
330
C
102
}
330
C
100
AcDbDictionary
281
     1
  0
DICTIONARY
  5
1A
102
{ACAD_REACTORS
330
C
102
}
330
C
100
AcDbDictionary
281
     1
  3
Layout1
350
1E
  3
Layout2
350
26
  3
Model
350
22
  0
DICTIONARY
  5
BD
102
{ACAD_REACTORS
330
C
102
}
330
C
100
AcDbDictionary
281
     1
  3
ByBlock
350
1A19D
  3
ByLayer
350
1A195
  3
Global
350
1A1A5
  0
DICTIONARY
  5
1A1D0
102
{ACAD_REACTORS
330
C
102
}
330
C
100
AcDbDictionary
281
     1
  3
Standard
350
1A1D1
  0
DICTIONARY
  5
17
102
{ACAD_REACTORS
330
C
102
}
330
C
100
AcDbDictionary
281
     1
  3
Standard
350
18
  0
DICTIONARY
  5
19
102
{ACAD_REACTORS
330
C
102
}
330
C
100
AcDbDictionary
281
     1
  0
ACDBDICTIONARYWDFLT
  5
E
102
{ACAD_REACTORS
330
C
102
}
330
C
100
AcDbDictionary
281
     1
  3
Normal
350
F
100
AcDbDictionaryWithDefault
340
F
  0
DICTIONARY
  5
1A1BE
102
{ACAD_REACTORS
330
C
102
}
330
C
100
AcDbDictionary
281
     1
  3
A0
350
1A1BF
  3
A1
350
1A1C0
  3
A2
350
1A1C1
  3
A3
350
1A1C2
  3
A4
350
1A1C3
  3
A5
350
1A1C4
  3
A6
350
1A1C5
  3
A7
350
1A1C6
  3
A8
350
1A1C7
  3
A9
350
1A1C8
  3
B0
350
1A1C9
  3
B1
350
1A1CA
  3
B2
350
1A1CB
  3
B3
350
1A1CC
  3
B4
350
1A1CD
  3
B5
350
1A1CE
  3
B6
350
1A1CF
  0
DICTIONARY
  5
11A
102
{ACAD_REACTORS
330
C
102
}
330
C
100
AcDbDictionary
281
     1
  3
Standard
350
11B
  0
DICTIONARY
  5
1A1AD
102
{ACAD_REACTORS
330
C
102
}
330
C
100
AcDbDictionary
281
     1
  3
2dWireframe
350
1A1B3
  3
3D Hidden
350
1A1B5
  3
3dWireframe
350
1A1B4
  3
Basic
350
1A1B2
  3
Brighten
350
1A1B9
  3
ColorChange
350
1A1BD
  3
Conceptual
350
1A1B6
  3
Dim
350
1A1B8
  3
EdgeColorOff
350
1B3B1
  3
Facepattern
350
1A1BC
  3
Flat
350
1A1AE
  3
FlatWithEdges
350
1A1AF
  3
Gouraud
350
1A1B0
  3
GouraudWithEdges
350
1A1B1
  3
JitterOff
350
1B3AF
  3
Linepattern
350
1A1BB
  3
OverhangOff
350
1B3B0
  3
Realistic
350
1A1B7
  3
Thicken
350
1A1BA
  0
XRECORD
  5
1B416
102
{ACAD_REACTORS
330
C
102
}
330
C
100
AcDbXrecord
280
     1
 90
        1
330
11B
  0
DICTIONARY
  5
94
102
{ACAD_REACTORS
330
C
102
}
330
C
100
AcDbDictionary
281
     1
  3
CANNOSCALE
350
1A6D1
  3
CMLEADERSTYLE
350
1A6CF
  3
CTABLESTYLE
350
138
  3
DIMASSOC
350
96
  3
INDEXCTL
350
95
  3
LAYEREVAL
350
1A6D3
  3
LAYERNOTIFY
350
1A6D4
  3
LIGHTINGUNITS
350
1A6D2
  3
MSLTSCALE
350
1A6D0
  3
PROJECTNAME
350
B168
  3
SORTENTS
350
1B39C
  3
XCLIPFRAME
350
1B414
  0
DICTIONARY
  5
5B
102
{ACAD_REACTORS
330
C
102
}
330
C
100
AcDbDictionary
281
     1
  3
AcmBOM
350
272
  3
AcmStdDictionary
350
61
  3
AMDTSECTSYM_ARROWCOLOR
350
123
  0
DICTIONARY
  5
41
102
{ACAD_REACTORS
330
C
102
}
330
C
100
AcDbDictionary
281
     1
  0
DICTIONARY
  5
26B
102
{ACAD_REACTORS
330
C
102
}
330
C
100
AcDbDictionary
281
     1
  0
XRECORD
  5
1B417
102
{ACAD_REACTORS
330
C
102
}
330
C
100
AcDbXrecord
280
     1
  1
DWGPROPS COOKIE
  2

  3

  4

  6

  7

  8
Administrator
  9

300
AmdtFileType=84
301
=
302
=
303
=
304
=
305
=
306
=
307
=
308
=
309
=
 40
0.716670162037037
 41
2454167.37697816
 42
2455133.673876401
  1

 90
        1
  0
DICTIONARY
  5
10B7F
102
{ACAD_REACTORS
330
5E1
102
}
330
5E1
100
AcDbDictionary
281
     1
  0
DICTIONARY
  5
5E2
102
{ACAD_REACTORS
330
5E1
102
}
330
5E1
100
AcDbDictionary
281
     1
  0
DICTIONARY
  5
10B7E
102
{ACAD_REACTORS
330
5E1
102
}
330
5E1
100
AcDbDictionary
281
     1
1001
ACAD
1000
<All
  0
DICTIONARY
  5
1A4EA
102
{ACAD_REACTORS
330
5E1
102
}
330
5E1
100
AcDbDictionary
280
     1
281
     1
  0
XRECORD
  5
1A4F3
102
{ACAD_REACTORS
330
1A4F2
102
}
330
1A4F2
100
AcDbXrecord
280
     1
290
     1
  0
XRECORD
  5
1A4F7
102
{ACAD_REACTORS
330
1A4F6
102
}
330
1A4F6
100
AcDbXrecord
280
     1
290
     1
  0
SORTENTSTABLE
  5
9429
102
{ACAD_REACTORS
330
8F
102
}
330
8F
100
AcDbSortentsTable
330
1F
  0
DIMASSOC
  5
1B253
102
{ACAD_REACTORS
330
1B252
102
}
330
1B252
100
AcDbDimAssoc
330
1B251
 90
        2
 70
     0
 71
     0
  1
AcDbOsnapPointRef
 72
    13
331
1B233
 73
     0
 91
        0
 40
0.0
 10
0.0
 20
0.0
 30
2.000000000000000E+50
 75
     0
  0
DIMASSOC
  5
1B256
102
{ACAD_REACTORS
330
1B255
102
}
330
1B255
100
AcDbDimAssoc
330
1B254
 90
        2
 70
     0
 71
     0
  1
AcDbOsnapPointRef
 72
     1
331
1B1F9
 73
     0
 91
        0
 40
0.0
 10
0.0
 20
0.0
 30
2.000000000000000E+50
 75
     0
  0
DIMASSOC
  5
1B262
102
{ACAD_REACTORS
330
1B261
102
}
330
1B261
100
AcDbDimAssoc
330
1B260
 90
        3
 70
     0
 71
     0
  1
AcDbOsnapPointRef
 72
    13
331
1B245
 73
     0
 91
        0
 40
0.0
 10
0.0
 20
0.0
 30
2.000000000000000E+50
 75
     0
  1
AcDbOsnapPointRef
 72
    13
331
1B214
 73
     0
 91
        0
 40
0.0
 10
0.0
 20
0.0
 30
2.000000000000000E+50
 75
     0
  0
XRECORD
  5
1B419
102
{ACAD_REACTORS
330
1B418
102
}
330
1B418
100
AcDbXrecord
280
     1
 70
     1
  0
XRECORD
  5
1B41A
102
{ACAD_REACTORS
330
1B418
102
}
330
1B418
100
AcDbXrecord
280
     1
 40
1.570796326794896
  0
XRECORD
  5
1B41C
102
{ACAD_REACTORS
330
1B418
102
}
330
1B418
100
AcDbXrecord
280
     1
340
14
  0
XRECORD
  5
1B41D
102
{ACAD_REACTORS
330
1B418
102
}
330
1B418
100
AcDbXrecord
280
     1
340
14
  0
XRECORD
  5
1B41B
102
{ACAD_REACTORS
330
1B418
102
}
330
1B418
100
AcDbXrecord
280
     1
340
14
  0
LAYOUT
  5
1E
102
{ACAD_XDICTIONARY
360
1B41E
102
}
102
{ACAD_REACTORS
330
1A
102
}
330
1A
100
AcDbPlotSettings
  1

  2

  4

  6

 40
0.0
 41
0.0
 42
0.0
 43
0.0
 44
0.0
 45
0.0
 46
0.0
 47
0.0
 48
0.0
 49
0.0
140
0.0
141
0.0
142
1.0
143
1.0
 70
   688
 72
     0
 73
     0
 74
     5
  7
monochrome uw.ctb
 75
    16
147
1.0
148
0.0
149
0.0
100
AcDbLayout
  1
Layout1
 70
     1
 71
     1
 10
0.0
 20
0.0
 11
420.0
 21
297.0
 12
0.0
 22
0.0
 32
0.0
 14
1.000000000000000E+20
 24
1.000000000000000E+20
 34
1.000000000000000E+20
 15
-1.000000000000000E+20
 25
-1.000000000000000E+20
 35
-1.000000000000000E+20
146
0.0
 13
0.0
 23
0.0
 33
0.0
 16
1.0
 26
0.0
 36
0.0
 17
0.0
 27
1.0
 37
0.0
 76
     0
330
1B
  0
LAYOUT
  5
26
102
{ACAD_XDICTIONARY
360
1B422
102
}
102
{ACAD_REACTORS
330
1A
102
}
330
1A
100
AcDbPlotSettings
  1

  2

  4

  6

 40
0.0
 41
0.0
 42
0.0
 43
0.0
 44
0.0
 45
0.0
 46
0.0
 47
0.0
 48
0.0
 49
0.0
140
0.0
141
0.0
142
1.0
143
1.0
 70
   688
 72
     0
 73
     0
 74
     5
  7
monochrome uw.ctb
 75
    16
147
1.0
148
0.0
149
0.0
100
AcDbLayout
  1
Layout2
 70
     1
 71
     2
 10
0.0
 20
0.0
 11
12.0
 21
9.0
 12
0.0
 22
0.0
 32
0.0
 14
0.0
 24
0.0
 34
0.0
 15
0.0
 25
0.0
 35
0.0
146
0.0
 13
0.0
 23
0.0
 33
0.0
 16
1.0
 26
0.0
 36
0.0
 17
0.0
 27
1.0
 37
0.0
 76
     0
330
23
  0
LAYOUT
  5
22
102
{ACAD_XDICTIONARY
360
1B420
102
}
102
{ACAD_REACTORS
330
1A
102
}
330
1A
100
AcDbPlotSettings
  1

  2
hp LaserJet 3030 PCL 6
  4
A4
  6

 40
5.027083396911621
 41
5.069413185119628
 42
5.027084350585936
 43
5.027069091796875
 44
209.9733276367186
 45
296.9683227539062
 46
0.0
 47
6.570546449500766
 48
386.441488024062
 49
270.3185561904811
140
5391.603947773525
141
3967.108854977561
142
1.0
143
15.16134737736338
 70
 11956
 72
     1
 73
     0
 74
     1
  7
monochrome uw.ctb
 75
     0
147
0.0659571985991857
148
-13746.70549999406
149
498.9832370772091
100
AcDbLayout
  1
Model
 70
     1
 71
     0
 10
0.0
 20
0.0
 11
12.0
 21
9.0
 12
0.0
 22
0.0
 32
0.0
 14
0.0
 24
0.0
 34
0.0
 15
0.0
 25
0.0
 35
0.0
146
0.0
 13
0.0
 23
0.0
 33
0.0
 16
1.0
 26
0.0
 36
0.0
 17
0.0
 27
1.0
 37
0.0
 76
     0
330
1F
331
1A193
1001
ACAD_PSEXT
1000
hp LaserJet 3030 PCL 6
1000
hp LaserJet 3030 PCL 6
1000
DOT4_001
1000

1070
     0
  0
MATERIAL
  5
1A19D
102
{ACAD_XDICTIONARY
360
1A19E
102
}
102
{ACAD_REACTORS
330
BD
102
}
330
BD
100
AcDbMaterial
  1
ByBlock
 72
     0
 43
0.0008202099737533
 43
0.0
 43
0.0
 43
0.0
 43
0.0
 43
0.0008202099737533
 43
0.0
 43
0.0
 43
0.0
 43
0.0
 43
1.0
 43
0.0
 43
0.0
 43
0.0
 43
0.0
 43
1.0
 77
     0
 47
0.0008202099737533
 47
0.0
 47
0.0
 47
0.0
 47
0.0
 47
0.0008202099737533
 47
0.0
 47
0.0
 47
0.0
 47
0.0
 47
1.0
 47
0.0
 47
0.0
 47
0.0
 47
0.0
 47
1.0
171
     0
 49
0.0008202099737533
 49
0.0
 49
0.0
 49
0.0
 49
0.0
 49
0.0008202099737533
 49
0.0
 49
0.0
 49
0.0
 49
0.0
 49
1.0
 49
0.0
 49
0.0
 49
0.0
 49
0.0
 49
1.0
175
     0
142
0.0008202099737533
142
0.0
142
0.0
142
0.0
142
0.0
142
0.0008202099737533
142
0.0
142
0.0
142
0.0
142
0.0
142
1.0
142
0.0
142
0.0
142
0.0
142
0.0
142
1.0
179
     0
144
0.0008202099737533
144
0.0
144
0.0
144
0.0
144
0.0
144
0.0008202099737533
144
0.0
144
0.0
144
0.0
144
0.0
144
1.0
144
0.0
144
0.0
144
0.0
144
0.0
144
1.0
147
0.0008202099737533
147
0.0
147
0.0
147
0.0
147
0.0
147
0.0008202099737533
147
0.0
147
0.0
147
0.0
147
0.0
147
1.0
147
0.0
147
0.0
147
0.0
147
0.0
147
1.0
  0
MATERIAL
  5
1A195
102
{ACAD_XDICTIONARY
360
1A196
102
}
102
{ACAD_REACTORS
330
BD
102
}
330
BD
100
AcDbMaterial
  1
ByLayer
 72
     0
 43
0.0008202099737533
 43
0.0
 43
0.0
 43
0.0
 43
0.0
 43
0.0008202099737533
 43
0.0
 43
0.0
 43
0.0
 43
0.0
 43
1.0
 43
0.0
 43
0.0
 43
0.0
 43
0.0
 43
1.0
 77
     0
 47
0.0008202099737533
 47
0.0
 47
0.0
 47
0.0
 47
0.0
 47
0.0008202099737533
 47
0.0
 47
0.0
 47
0.0
 47
0.0
 47
1.0
 47
0.0
 47
0.0
 47
0.0
 47
0.0
 47
1.0
171
     0
 49
0.0008202099737533
 49
0.0
 49
0.0
 49
0.0
 49
0.0
 49
0.0008202099737533
 49
0.0
 49
0.0
 49
0.0
 49
0.0
 49
1.0
 49
0.0
 49
0.0
 49
0.0
 49
0.0
 49
1.0
175
     0
142
0.0008202099737533
142
0.0
142
0.0
142
0.0
142
0.0
142
0.0008202099737533
142
0.0
142
0.0
142
0.0
142
0.0
142
1.0
142
0.0
142
0.0
142
0.0
142
0.0
142
1.0
179
     0
144
0.0008202099737533
144
0.0
144
0.0
144
0.0
144
0.0
144
0.0008202099737533
144
0.0
144
0.0
144
0.0
144
0.0
144
1.0
144
0.0
144
0.0
144
0.0
144
0.0
144
1.0
147
0.0008202099737533
147
0.0
147
0.0
147
0.0
147
0.0
147
0.0008202099737533
147
0.0
147
0.0
147
0.0
147
0.0
147
1.0
147
0.0
147
0.0
147
0.0
147
0.0
147
1.0
  0
MATERIAL
  5
1A1A5
102
{ACAD_XDICTIONARY
360
1A1A6
102
}
102
{ACAD_REACTORS
330
BD
102
}
330
BD
100
AcDbMaterial
  1
Global
 72
     0
 43
0.0008202099737533
 43
0.0
 43
0.0
 43
0.0
 43
0.0
 43
0.0008202099737533
 43
0.0
 43
0.0
 43
0.0
 43
0.0
 43
1.0
 43
0.0
 43
0.0
 43
0.0
 43
0.0
 43
1.0
 77
     0
 47
0.0008202099737533
 47
0.0
 47
0.0
 47
0.0
 47
0.0
 47
0.0008202099737533
 47
0.0
 47
0.0
 47
0.0
 47
0.0
 47
1.0
 47
0.0
 47
0.0
 47
0.0
 47
0.0
 47
1.0
171
     0
 49
0.0008202099737533
 49
0.0
 49
0.0
 49
0.0
 49
0.0
 49
0.0008202099737533
 49
0.0
 49
0.0
 49
0.0
 49
0.0
 49
1.0
 49
0.0
 49
0.0
 49
0.0
 49
0.0
 49
1.0
175
     0
142
0.0008202099737533
142
0.0
142
0.0
142
0.0
142
0.0
142
0.0008202099737533
142
0.0
142
0.0
142
0.0
142
0.0
142
1.0
142
0.0
142
0.0
142
0.0
142
0.0
142
1.0
179
     0
144
0.0008202099737533
144
0.0
144
0.0
144
0.0
144
0.0
144
0.0008202099737533
144
0.0
144
0.0
144
0.0
144
0.0
144
1.0
144
0.0
144
0.0
144
0.0
144
0.0
144
1.0
147
0.0008202099737533
147
0.0
147
0.0
147
0.0
147
0.0
147
0.0008202099737533
147
0.0
147
0.0
147
0.0
147
0.0
147
1.0
147
0.0
147
0.0
147
0.0
147
0.0
147
1.0
  0
MLEADERSTYLE
  5
1A1D1
102
{ACAD_REACTORS
330
1A1D0
102
}
330
1A1D0
100
AcDbMLeaderStyle
170
     2
171
     1
172
     0
 90
        2
 40
0.0
 41
0.0
173
     1
 91
-1056964608
340
14
 92
       -2
290
     1
 42
2.0
291
     1
 43
0.36
  3
Standard
 44
4.0
300

342
11
174
     1
178
     6
175
     1
176
     0
 93
-1056964608
 45
4.0
292
     0
297
     0
 46
4.0
 94
-1056964608
 47
1.0
 49
1.0
140
1.0
293
     1
141
0.0
294
     1
177
     0
142
1.0
295
     0
296
     0
143
0.125
1001
ACAD_MLEADERVER
1070
     2
  0
MLINESTYLE
  5
18
102
{ACAD_REACTORS
330
17
102
}
330
17
100
AcDbMlineStyle
  2
STANDARD
 70
     0
  3

 62
   256
 51
90.0
 52
90.0
 71
     2
 49
0.5
 62
   256
  6
BYLAYER
 49
-0.5
 62
   256
  6
BYLAYER
  0
ACDBPLACEHOLDER
  5
F
102
{ACAD_REACTORS
330
E
102
}
330
E
  0
SCALE
  5
1A1BF
102
{ACAD_REACTORS
330
1A1BE
102
}
330
1A1BE
100
AcDbScale
 70
     0
300
1:1
140
1.0
141
1.0
290
     1
  0
SCALE
  5
1A1C0
102
{ACAD_REACTORS
330
1A1BE
102
}
330
1A1BE
100
AcDbScale
 70
     0
300
1:2
140
1.0
141
2.0
290
     0
  0
SCALE
  5
1A1C1
102
{ACAD_REACTORS
330
1A1BE
102
}
330
1A1BE
100
AcDbScale
 70
     0
300
1:4
140
1.0
141
4.0
290
     0
  0
SCALE
  5
1A1C2
102
{ACAD_REACTORS
330
1A1BE
102
}
330
1A1BE
100
AcDbScale
 70
     0
300
1:5
140
1.0
141
5.0
290
     0
  0
SCALE
  5
1A1C3
102
{ACAD_REACTORS
330
1A1BE
102
}
330
1A1BE
100
AcDbScale
 70
     0
300
1:8
140
1.0
141
8.0
290
     0
  0
SCALE
  5
1A1C4
102
{ACAD_REACTORS
330
1A1BE
102
}
330
1A1BE
100
AcDbScale
 70
     0
300
1:10
140
1.0
141
10.0
290
     0
  0
SCALE
  5
1A1C5
102
{ACAD_REACTORS
330
1A1BE
102
}
330
1A1BE
100
AcDbScale
 70
     0
300
1:16
140
1.0
141
16.0
290
     0
  0
SCALE
  5
1A1C6
102
{ACAD_REACTORS
330
1A1BE
102
}
330
1A1BE
100
AcDbScale
 70
     0
300
1:20
140
1.0
141
20.0
290
     0
  0
SCALE
  5
1A1C7
102
{ACAD_REACTORS
330
1A1BE
102
}
330
1A1BE
100
AcDbScale
 70
     0
300
1:30
140
1.0
141
30.0
290
     0
  0
SCALE
  5
1A1C8
102
{ACAD_REACTORS
330
1A1BE
102
}
330
1A1BE
100
AcDbScale
 70
     0
300
1:40
140
1.0
141
40.0
290
     0
  0
SCALE
  5
1A1C9
102
{ACAD_REACTORS
330
1A1BE
102
}
330
1A1BE
100
AcDbScale
 70
     0
300
1:50
140
1.0
141
50.0
290
     0
  0
SCALE
  5
1A1CA
102
{ACAD_REACTORS
330
1A1BE
102
}
330
1A1BE
100
AcDbScale
 70
     0
300
1:100
140
1.0
141
100.0
290
     0
  0
SCALE
  5
1A1CB
102
{ACAD_REACTORS
330
1A1BE
102
}
330
1A1BE
100
AcDbScale
 70
     0
300
2:1
140
2.0
141
1.0
290
     0
  0
SCALE
  5
1A1CC
102
{ACAD_REACTORS
330
1A1BE
102
}
330
1A1BE
100
AcDbScale
 70
     0
300
4:1
140
4.0
141
1.0
290
     0
  0
SCALE
  5
1A1CD
102
{ACAD_REACTORS
330
1A1BE
102
}
330
1A1BE
100
AcDbScale
 70
     0
300
8:1
140
8.0
141
1.0
290
     0
  0
SCALE
  5
1A1CE
102
{ACAD_REACTORS
330
1A1BE
102
}
330
1A1BE
100
AcDbScale
 70
     0
300
10:1
140
10.0
141
1.0
290
     0
  0
SCALE
  5
1A1CF
102
{ACAD_REACTORS
330
1A1BE
102
}
330
1A1BE
100
AcDbScale
 70
     0
300
100:1
140
100.0
141
1.0
290
     0
  0
TABLESTYLE
  5
11B
102
{ACAD_XDICTIONARY
360
1A6CC
102
}
102
{ACAD_REACTORS
330
11A
102
}
330
11A
100
AcDbTableStyle
  3
Standard
 70
     0
 71
     0
 40
1.5
 41
1.5
280
     0
281
     0
  7
STANDARD
140
4.5
170
     2
 62
     0
 63
     7
283
     0
274
    -2
284
     1
 64
     0
275
    -2
285
     1
 65
     0
276
    -2
286
     1
 66
     0
277
    -2
287
     1
 67
     0
278
    -2
288
     1
 68
     0
279
    -2
289
     1
 69
     0
  7
STANDARD
140
6.0
170
     5
 62
     0
 63
     7
283
     0
274
    -2
284
     1
 64
     0
275
    -2
285
     1
 65
     0
276
    -2
286
     1
 66
     0
277
    -2
287
     1
 67
     0
278
    -2
288
     1
 68
     0
279
    -2
289
     1
 69
     0
  7
STANDARD
140
4.5
170
     5
 62
     0
 63
     7
283
     0
274
    -2
284
     1
 64
     0
275
    -2
285
     1
 65
     0
276
    -2
286
     1
 66
     0
277
    -2
287
     1
 67
     0
278
    -2
288
     1
 68
     0
279
    -2
289
     1
 69
     0
  0
VISUALSTYLE
  5
1A1B3
102
{ACAD_XDICTIONARY
360
1B42F
102
}
102
{ACAD_REACTORS
330
1A1AD
102
}
330
1A1AD
100
AcDbVisualStyle
  2

 70
     4
 71
     0
 72
     2
 73
     0
 90
        0
 40
-0.6
 41
-30.0
 62
     5
 63
     7
 74
     1
 91
        4
 64
     7
 65
   257
 75
     1
175
     1
 42
1.0
 92
        0
 66
   257
 43
1.0
 76
     1
 77
     6
 78
     2
 67
     7
 79
     5
170
     0
171
     0
290
     0
174
     0
 93
        1
 44
0.0
173
     0
291
     0
 45
0.0
1001
ACAD
1000
AcDbSavedByObjectVersion
1070
     0
  0
VISUALSTYLE
  5
1A1B5
102
{ACAD_XDICTIONARY
360
1B433
102
}
102
{ACAD_REACTORS
330
1A1AD
102
}
330
1A1AD
100
AcDbVisualStyle
  2

 70
     6
 71
     1
 72
     2
 73
     2
 90
        0
 40
-0.6
 41
-30.0
 62
     5
 63
     7
 74
     2
 91
        2
 64
     7
 65
   257
 75
     2
175
     1
 42
40.0
 92
        0
 66
   257
 43
1.0
 76
     1
 77
     6
 78
     2
 67
     7
 79
     3
170
     0
171
     0
290
     0
174
     0
 93
        1
 44
0.0
173
     0
291
     0
 45
0.0
1001
ACAD
1000
AcDbSavedByObjectVersion
1070
     0
  0
VISUALSTYLE
  5
1A1B4
102
{ACAD_XDICTIONARY
360
1B431
102
}
102
{ACAD_REACTORS
330
1A1AD
102
}
330
1A1AD
100
AcDbVisualStyle
  2

 70
     5
 71
     0
 72
     2
 73
     0
 90
        0
 40
-0.6
 41
-30.0
 62
     5
 63
     7
 74
     1
 91
        4
 64
     7
 65
   257
 75
     1
175
     1
 42
1.0
 92
        0
 66
   257
 43
1.0
 76
     1
 77
     6
 78
     2
 67
     7
 79
     5
170
     0
171
     0
290
     0
174
     0
 93
        1
 44
0.0
173
     0
291
     0
 45
0.0
1001
ACAD
1000
AcDbSavedByObjectVersion
1070
     0
  0
VISUALSTYLE
  5
1A1B2
102
{ACAD_XDICTIONARY
360
1B42D
102
}
102
{ACAD_REACTORS
330
1A1AD
102
}
330
1A1AD
100
AcDbVisualStyle
  2

 70
     7
 71
     1
 72
     0
 73
     1
 90
        0
 40
-0.6
 41
-30.0
 62
     5
 63
     7
 74
     0
 91
        4
 64
     7
 65
   257
 75
     1
175
     1
 42
1.0
 92
        8
 66
     7
 43
1.0
 76
     1
 77
     6
 78
     2
 67
     7
 79
     5
170
     0
171
     0
290
     0
174
     0
 93
        1
 44
0.0
173
     0
291
     1
 45
0.0
1001
ACAD
1000
AcDbSavedByObjectVersion
1070
     0
  0
VISUALSTYLE
  5
1A1B9
102
{ACAD_XDICTIONARY
360
1B43B
102
}
102
{ACAD_REACTORS
330
1A1AD
102
}
330
1A1AD
100
AcDbVisualStyle
  2

 70
    12
 71
     2
 72
     2
 73
     0
 90
        0
 40
-0.6
 41
-30.0
 62
     5
 63
     7
 74
     1
 91
        4
 64
     7
 65
   257
 75
     1
175
     1
 42
1.0
 92
        8
 66
     7
 43
1.0
 76
     1
 77
     6
 78
     2
 67
     7
 79
     5
170
     0
171
     0
290
     0
174
     0
 93
        1
 44
50.0
173
     0
291
     1
 45
0.0
1001
ACAD
1000
AcDbSavedByObjectVersion
1070
     0
  0
VISUALSTYLE
  5
1A1BD
102
{ACAD_XDICTIONARY
360
1B443
102
}
102
{ACAD_REACTORS
330
1A1AD
102
}
330
1A1AD
100
AcDbVisualStyle
  2

 70
    16
 71
     2
 72
     2
 73
     3
 90
        0
 40
-0.6
 41
-30.0
 62
     5
 63
     8
 74
     1
 91
        4
 64
     7
 65
   257
 75
     1
175
     1
 42
1.0
 92
        8
 66
     8
 43
1.0
 76
     1
 77
     6
 78
     2
 67
     7
 79
     5
170
     0
171
     0
290
     0
174
     0
 93
        1
 44
0.0
173
     0
291
     1
 45
0.0
1001
ACAD
1000
AcDbSavedByObjectVersion
1070
     0
  0
VISUALSTYLE
  5
1A1B6
102
{ACAD_XDICTIONARY
360
1B435
102
}
102
{ACAD_REACTORS
330
1A1AD
102
}
330
1A1AD
100
AcDbVisualStyle
  2

 70
     9
 71
     3
 72
     2
 73
     0
 90
        0
 40
-0.6
 41
-30.0
 62
     5
 63
     7
 74
     2
 91
        2
 64
     7
 65
   257
 75
     1
175
     1
 42
40.0
 92
        8
 66
     7
 43
1.0
 76
     1
 77
     6
 78
     2
 67
     7
 79
     3
170
     0
171
     0
290
     0
174
     0
 93
        1
 44
0.0
173
     0
291
     0
 45
0.0
1001
ACAD
1000
AcDbSavedByObjectVersion
1070
     0
  0
VISUALSTYLE
  5
1A1B8
102
{ACAD_XDICTIONARY
360
1B439
102
}
102
{ACAD_REACTORS
330
1A1AD
102
}
330
1A1AD
100
AcDbVisualStyle
  2

 70
    11
 71
     2
 72
     2
 73
     0
 90
        0
 40
-0.6
 41
-30.0
 62
     5
 63
     7
 74
     1
 91
        4
 64
     7
 65
   257
 75
     1
175
     1
 42
1.0
 92
        8
 66
     7
 43
1.0
 76
     1
 77
     6
 78
     2
 67
     7
 79
     5
170
     0
171
     0
290
     0
174
     0
 93
        1
 44
-50.0
173
     0
291
     1
 45
0.0
1001
ACAD
1000
AcDbSavedByObjectVersion
1070
     0
  0
VISUALSTYLE
  5
1B3B1
102
{ACAD_XDICTIONARY
360
1B449
102
}
102
{ACAD_REACTORS
330
1A1AD
102
}
330
1A1AD
100
AcDbVisualStyle
  2
EdgeColorOff
 70
    22
 71
     2
 72
     2
 73
     0
 90
        0
 40
-0.6
 41
-30.0
 62
     5
 63
     7
 74
     1
 91
        4
 64
     7
 65
   257
 75
     1
175
     1
 42
1.0
 92
        8
 66
     7
 43
1.0
 76
     1
 77
     6
 78
     2
 67
     7
 79
     5
170
     0
171
     0
290
     0
174
     0
 93
        1
 44
0.0
173
     0
291
     1
 45
0.0
1001
ACAD
1000
AcDbSavedByObjectVersion
1070
     0
  0
VISUALSTYLE
  5
1A1BC
102
{ACAD_XDICTIONARY
360
1B441
102
}
102
{ACAD_REACTORS
330
1A1AD
102
}
330
1A1AD
100
AcDbVisualStyle
  2

 70
    15
 71
     2
 72
     2
 73
     0
 90
        0
 40
-0.6
 41
-30.0
 62
     5
 63
     7
 74
     1
 91
        4
 64
     7
 65
   257
 75
     1
175
     1
 42
1.0
 92
        8
 66
     7
 43
1.0
 76
     1
 77
     6
 78
     2
 67
     7
 79
     5
170
     0
171
     0
290
     0
174
     0
 93
        1
 44
0.0
173
     0
291
     1
 45
0.0
1001
ACAD
1000
AcDbSavedByObjectVersion
1070
     0
  0
VISUALSTYLE
  5
1A1AE
102
{ACAD_XDICTIONARY
360
1B425
102
}
102
{ACAD_REACTORS
330
1A1AD
102
}
330
1A1AD
100
AcDbVisualStyle
  2

 70
     0
 71
     2
 72
     1
 73
     1
 90
        2
 40
-0.6
 41
30.0
 62
     5
 63
     7
 74
     0
 91
        4
 64
     7
 65
   257
 75
     1
175
     1
 42
1.0
 92
        8
 66
     7
 43
1.0
 76
     1
 77
     6
 78
     2
 67
     7
 79
     5
170
     0
171
     0
290
     0
174
     0
 93
       13
 44
0.0
173
     0
291
     1
 45
0.0
1001
ACAD
1000
AcDbSavedByObjectVersion
1070
     0
  0
VISUALSTYLE
  5
1A1AF
102
{ACAD_XDICTIONARY
360
1B427
102
}
102
{ACAD_REACTORS
330
1A1AD
102
}
330
1A1AD
100
AcDbVisualStyle
  2

 70
     1
 71
     2
 72
     1
 73
     1
 90
        2
 40
-0.6
 41
30.0
 62
     5
 63
     7
 74
     1
 91
        4
 64
     7
 65
   257
 75
     1
175
     1
 42
1.0
 92
        0
 66
   257
 43
1.0
 76
     1
 77
     6
 78
     2
 67
     7
 79
     5
170
     0
171
     0
290
     0
174
     0
 93
       13
 44
0.0
173
     0
291
     1
 45
0.0
1001
ACAD
1000
AcDbSavedByObjectVersion
1070
     0
  0
VISUALSTYLE
  5
1A1B0
102
{ACAD_XDICTIONARY
360
1B429
102
}
102
{ACAD_REACTORS
330
1A1AD
102
}
330
1A1AD
100
AcDbVisualStyle
  2

 70
     2
 71
     2
 72
     2
 73
     1
 90
        2
 40
-0.6
 41
30.0
 62
     5
 63
     7
 74
     0
 91
        4
 64
     7
 65
   257
 75
     1
175
     1
 42
1.0
 92
        0
 66
     7
 43
1.0
 76
     1
 77
     6
 78
     2
 67
     7
 79
     5
170
     0
171
     0
290
     0
174
     0
 93
       13
 44
0.0
173
     0
291
     1
 45
0.0
1001
ACAD
1000
AcDbSavedByObjectVersion
1070
     0
  0
VISUALSTYLE
  5
1A1B1
102
{ACAD_XDICTIONARY
360
1B42B
102
}
102
{ACAD_REACTORS
330
1A1AD
102
}
330
1A1AD
100
AcDbVisualStyle
  2

 70
     3
 71
     2
 72
     2
 73
     1
 90
        2
 40
-0.6
 41
30.0
 62
     5
 63
     7
 74
     1
 91
        4
 64
     7
 65
   257
 75
     1
175
     1
 42
1.0
 92
        0
 66
   257
 43
1.0
 76
     1
 77
     6
 78
     2
 67
     7
 79
     5
170
     0
171
     0
290
     0
174
     0
 93
       13
 44
0.0
173
     0
291
     1
 45
0.0
1001
ACAD
1000
AcDbSavedByObjectVersion
1070
     0
  0
VISUALSTYLE
  5
1B3AF
102
{ACAD_XDICTIONARY
360
1B445
102
}
102
{ACAD_REACTORS
330
1A1AD
102
}
330
1A1AD
100
AcDbVisualStyle
  2
JitterOff
 70
    20
 71
     2
 72
     2
 73
     0
 90
        0
 40
-0.6
 41
-30.0
 62
     5
 63
     7
 74
     1
 91
        4
 64
     7
 65
   257
 75
     1
175
     1
 42
1.0
 92
       10
 66
     7
 43
1.0
 76
     1
 77
     6
 78
     2
 67
     7
 79
     5
170
     0
171
     0
290
     0
174
     0
 93
        1
 44
0.0
173
     0
291
     1
 45
0.0
1001
ACAD
1000
AcDbSavedByObjectVersion
1070
     0
  0
VISUALSTYLE
  5
1A1BB
102
{ACAD_XDICTIONARY
360
1B43F
102
}
102
{ACAD_REACTORS
330
1A1AD
102
}
330
1A1AD
100
AcDbVisualStyle
  2

 70
    14
 71
     2
 72
     2
 73
     0
 90
        0
 40
-0.6
 41
-30.0
 62
     5
 63
     7
 74
     1
 91
        4
 64
     7
 65
   257
 75
     7
175
     7
 42
1.0
 92
        8
 66
     7
 43
1.0
 76
     1
 77
     6
 78
     2
 67
     7
 79
     5
170
     0
171
     0
290
     0
174
     0
 93
        1
 44
0.0
173
     0
291
     1
 45
0.0
1001
ACAD
1000
AcDbSavedByObjectVersion
1070
     0
  0
VISUALSTYLE
  5
1B3B0
102
{ACAD_XDICTIONARY
360
1B447
102
}
102
{ACAD_REACTORS
330
1A1AD
102
}
330
1A1AD
100
AcDbVisualStyle
  2
OverhangOff
 70
    21
 71
     2
 72
     2
 73
     0
 90
        0
 40
-0.6
 41
-30.0
 62
     5
 63
     7
 74
     1
 91
        4
 64
     7
 65
   257
 75
     1
175
     1
 42
1.0
 92
        9
 66
     7
 43
1.0
 76
     1
 77
     6
 78
     2
 67
     7
 79
     5
170
     0
171
     0
290
     0
174
     0
 93
        1
 44
0.0
173
     0
291
     1
 45
0.0
1001
ACAD
1000
AcDbSavedByObjectVersion
1070
     0
  0
VISUALSTYLE
  5
1A1B7
102
{ACAD_XDICTIONARY
360
1B437
102
}
102
{ACAD_REACTORS
330
1A1AD
102
}
330
1A1AD
100
AcDbVisualStyle
  2

 70
     8
 71
     2
 72
     2
 73
     0
 90
        0
 40
-0.6
 41
-30.0
 62
     5
 63
     7
 74
     1
 91
        0
 64
     7
 65
   257
 75
     1
175
     1
 42
1.0
 92
        8
 66
     8
 43
1.0
 76
     1
 77
     6
 78
     2
 67
     7
 79
     5
170
     0
171
     0
290
     0
174
     0
 93
       13
 44
0.0
173
     0
291
     0
 45
0.0
1001
ACAD
1000
AcDbSavedByObjectVersion
1070
     0
  0
VISUALSTYLE
  5
1A1BA
102
{ACAD_XDICTIONARY
360
1B43D
102
}
102
{ACAD_REACTORS
330
1A1AD
102
}
330
1A1AD
100
AcDbVisualStyle
  2

 70
    13
 71
     2
 72
     2
 73
     0
 90
        0
 40
-0.6
 41
-30.0
 62
     5
 63
     7
 74
     1
 91
        4
 64
     7
 65
   257
 75
     1
175
     1
 42
1.0
 92
       12
 66
     7
 43
1.0
 76
     1
 77
     6
 78
     2
 67
     7
 79
     5
170
     0
171
     0
290
     0
174
     0
 93
        1
 44
0.0
173
     0
291
     1
 45
0.0
1001
ACAD
1000
AcDbSavedByObjectVersion
1070
     0
  0
DICTIONARYVAR
  5
1A6D1
102
{ACAD_REACTORS
330
94
102
}
330
94
100
DictionaryVariables
280
     0
  1
1:1
  0
DICTIONARYVAR
  5
1A6CF
102
{ACAD_REACTORS
330
94
102
}
330
94
100
DictionaryVariables
280
     0
  1
STANDARD
  0
DICTIONARYVAR
  5
138
102
{ACAD_REACTORS
330
94
102
}
330
94
100
DictionaryVariables
280
     0
  1
STANDARD
  0
DICTIONARYVAR
  5
96
102
{ACAD_REACTORS
330
94
102
}
330
94
100
DictionaryVariables
280
     0
  1
2
  0
DICTIONARYVAR
  5
95
102
{ACAD_REACTORS
330
94
102
}
330
94
100
DictionaryVariables
280
     0
  1
0
  0
DICTIONARYVAR
  5
1A6D3
102
{ACAD_REACTORS
330
94
102
}
330
94
100
DictionaryVariables
280
     0
  1
1
  0
DICTIONARYVAR
  5
1A6D4
102
{ACAD_REACTORS
330
94
102
}
330
94
100
DictionaryVariables
280
     0
  1
15
  0
DICTIONARYVAR
  5
1A6D2
102
{ACAD_REACTORS
330
94
102
}
330
94
100
DictionaryVariables
280
     0
  1
0
  0
DICTIONARYVAR
  5
1A6D0
102
{ACAD_REACTORS
330
94
102
}
330
94
100
DictionaryVariables
280
     0
  1
0
  0
DICTIONARYVAR
  5
B168
102
{ACAD_REACTORS
330
94
102
}
330
94
100
DictionaryVariables
280
     0
  1

  0
DICTIONARYVAR
  5
1B39C
102
{ACAD_REACTORS
330
94
102
}
330
94
100
DictionaryVariables
280
     0
  1
127
  0
DICTIONARYVAR
  5
1B414
102
{ACAD_REACTORS
330
94
102
}
330
94
100
DictionaryVariables
280
     0
  1
2
  0
DICTIONARY
  5
272
102
{ACAD_REACTORS
330
5B
102
}
330
5B
100
AcDbDictionary
281
     1
  0
DICTIONARY
  5
61
102
{ACAD_REACTORS
330
5B
102
}
330
5B
100
AcDbDictionary
281
     1
  0
XRECORD
  5
123
102
{ACAD_REACTORS
330
5B
102
}
330
5B
100
AcDbXrecord
280
     1
 90
-1023410169
  0
DICTIONARY
  5
1B41E
330
1E
100
AcDbDictionary
280
     1
281
     1
  3
ACAD_XREC_ROUNDTRIP
360
1B41F
  0
DICTIONARY
  5
1B422
330
26
100
AcDbDictionary
280
     1
281
     1
  3
ACAD_XREC_ROUNDTRIP
360
1B423
  0
DICTIONARY
  5
1B420
330
22
100
AcDbDictionary
280
     1
281
     1
  3
ACAD_XREC_ROUNDTRIP
360
1B421
  0
DICTIONARY
  5
1A19E
330
1A19D
100
AcDbDictionary
280
     1
281
     1
  3
ACAD_XREC_ROUNDTRIP
360
1B3A9
  3
BUMPTILE
360
1A1A0
  3
DIFFUSETILE
360
1A19F
  3
OPACITYTILE
360
1A1A3
  3
REFLECTIONTILE
360
1A1A2
  3
REFRACTIONTILE
360
1A1A4
  3
SPECULARTILE
360
1A1A1
  0
DICTIONARY
  5
1A196
330
1A195
100
AcDbDictionary
280
     1
281
     1
  3
ACAD_XREC_ROUNDTRIP
360
1B3A8
  3
BUMPTILE
360
1A198
  3
DIFFUSETILE
360
1A197
  3
OPACITYTILE
360
1A19B
  3
REFLECTIONTILE
360
1A19A
  3
REFRACTIONTILE
360
1A19C
  3
SPECULARTILE
360
1A199
  0
DICTIONARY
  5
1A1A6
330
1A1A5
100
AcDbDictionary
280
     1
281
     1
  3
ACAD_XREC_ROUNDTRIP
360
1B3AA
  3
BUMPTILE
360
1A1A8
  3
DIFFUSETILE
360
1A1A7
  3
OPACITYTILE
360
1A1AB
  3
REFLECTIONTILE
360
1A1AA
  3
REFRACTIONTILE
360
1A1AC
  3
SPECULARTILE
360
1A1A9
  0
DICTIONARY
  5
1A6CC
330
11B
100
AcDbDictionary
280
     1
281
     1
  3
ACAD_ROUNDTRIP_2008_TABLESTYLE_CELLSTYLEMAP
360
1B415
  3
ACAD_XREC_ROUNDTRIP
360
1B424
  0
DICTIONARY
  5
1B42F
330
1A1B3
100
AcDbDictionary
280
     1
281
     1
  3
ACAD_XREC_ROUNDTRIP
360
1B430
  0
DICTIONARY
  5
1B433
330
1A1B5
100
AcDbDictionary
280
     1
281
     1
  3
ACAD_XREC_ROUNDTRIP
360
1B434
  0
DICTIONARY
  5
1B431
330
1A1B4
100
AcDbDictionary
280
     1
281
     1
  3
ACAD_XREC_ROUNDTRIP
360
1B432
  0
DICTIONARY
  5
1B42D
330
1A1B2
100
AcDbDictionary
280
     1
281
     1
  3
ACAD_XREC_ROUNDTRIP
360
1B42E
  0
DICTIONARY
  5
1B43B
330
1A1B9
100
AcDbDictionary
280
     1
281
     1
  3
ACAD_XREC_ROUNDTRIP
360
1B43C
  0
DICTIONARY
  5
1B443
330
1A1BD
100
AcDbDictionary
280
     1
281
     1
  3
ACAD_XREC_ROUNDTRIP
360
1B444
  0
DICTIONARY
  5
1B435
330
1A1B6
100
AcDbDictionary
280
     1
281
     1
  3
ACAD_XREC_ROUNDTRIP
360
1B436
  0
DICTIONARY
  5
1B439
330
1A1B8
100
AcDbDictionary
280
     1
281
     1
  3
ACAD_XREC_ROUNDTRIP
360
1B43A
  0
DICTIONARY
  5
1B449
330
1B3B1
100
AcDbDictionary
280
     1
281
     1
  3
ACAD_XREC_ROUNDTRIP
360
1B44A
  0
DICTIONARY
  5
1B441
330
1A1BC
100
AcDbDictionary
280
     1
281
     1
  3
ACAD_XREC_ROUNDTRIP
360
1B442
  0
DICTIONARY
  5
1B425
330
1A1AE
100
AcDbDictionary
280
     1
281
     1
  3
ACAD_XREC_ROUNDTRIP
360
1B426
  0
DICTIONARY
  5
1B427
330
1A1AF
100
AcDbDictionary
280
     1
281
     1
  3
ACAD_XREC_ROUNDTRIP
360
1B428
  0
DICTIONARY
  5
1B429
330
1A1B0
100
AcDbDictionary
280
     1
281
     1
  3
ACAD_XREC_ROUNDTRIP
360
1B42A
  0
DICTIONARY
  5
1B42B
330
1A1B1
100
AcDbDictionary
280
     1
281
     1
  3
ACAD_XREC_ROUNDTRIP
360
1B42C
  0
DICTIONARY
  5
1B445
330
1B3AF
100
AcDbDictionary
280
     1
281
     1
  3
ACAD_XREC_ROUNDTRIP
360
1B446
  0
DICTIONARY
  5
1B43F
330
1A1BB
100
AcDbDictionary
280
     1
281
     1
  3
ACAD_XREC_ROUNDTRIP
360
1B440
  0
DICTIONARY
  5
1B447
330
1B3B0
100
AcDbDictionary
280
     1
281
     1
  3
ACAD_XREC_ROUNDTRIP
360
1B448
  0
DICTIONARY
  5
1B437
330
1A1B7
100
AcDbDictionary
280
     1
281
     1
  3
ACAD_XREC_ROUNDTRIP
360
1B438
  0
DICTIONARY
  5
1B43D
330
1A1BA
100
AcDbDictionary
280
     1
281
     1
  3
ACAD_XREC_ROUNDTRIP
360
1B43E
  0
XRECORD
  5
1B41F
102
{ACAD_REACTORS
330
1B41E
102
}
330
1B41E
100
AcDbXrecord
280
     1
102
SHADEPLOT
 70
     0
102
SHADEPLOTRESLEVEL
 70
     2
102
SHADEPLOTCUSTOMDPI
 70
   300
  0
XRECORD
  5
1B423
102
{ACAD_REACTORS
330
1B422
102
}
330
1B422
100
AcDbXrecord
280
     1
102
SHADEPLOT
 70
     0
102
SHADEPLOTRESLEVEL
 70
     2
102
SHADEPLOTCUSTOMDPI
 70
   300
  0
XRECORD
  5
1B421
102
{ACAD_REACTORS
330
1B420
102
}
330
1B420
100
AcDbXrecord
280
     1
102
SHADEPLOT
 70
     0
102
SHADEPLOTRESLEVEL
 70
     2
102
SHADEPLOTCUSTOMDPI
 70
   300
  0
XRECORD
  5
1B3A9
102
{ACAD_REACTORS
330
1A19E
102
}
330
1A19E
100
AcDbXrecord
280
     1
102
MATERIAL
148
0.0
149
0.0
149
0.0
 93
        0
 94
      127
282
     0
 72
     0
 77
     0
171
     0
175
     0
179
     0
273
     0
  0
XRECORD
  5
1A1A0
102
{ACAD_REACTORS
330
1A19E
102
}
330
1A19E
100
AcDbXrecord
280
     1
270
     1
271
     1
  0
XRECORD
  5
1A19F
102
{ACAD_REACTORS
330
1A19E
102
}
330
1A19E
100
AcDbXrecord
280
     1
270
     1
271
     1
  0
XRECORD
  5
1A1A3
102
{ACAD_REACTORS
330
1A19E
102
}
330
1A19E
100
AcDbXrecord
280
     1
270
     1
271
     1
  0
XRECORD
  5
1A1A2
102
{ACAD_REACTORS
330
1A19E
102
}
330
1A19E
100
AcDbXrecord
280
     1
270
     1
271
     1
  0
XRECORD
  5
1A1A4
102
{ACAD_REACTORS
330
1A19E
102
}
330
1A19E
100
AcDbXrecord
280
     1
270
     1
271
     1
  0
XRECORD
  5
1A1A1
102
{ACAD_REACTORS
330
1A19E
102
}
330
1A19E
100
AcDbXrecord
280
     1
270
     1
271
     1
  0
XRECORD
  5
1B3A8
102
{ACAD_REACTORS
330
1A196
102
}
330
1A196
100
AcDbXrecord
280
     1
102
MATERIAL
148
0.0
149
0.0
149
0.0
 93
        0
 94
      127
282
     0
 72
     0
 77
     0
171
     0
175
     0
179
     0
273
     0
  0
XRECORD
  5
1A198
102
{ACAD_REACTORS
330
1A196
102
}
330
1A196
100
AcDbXrecord
280
     1
270
     1
271
     1
  0
XRECORD
  5
1A197
102
{ACAD_REACTORS
330
1A196
102
}
330
1A196
100
AcDbXrecord
280
     1
270
     1
271
     1
  0
XRECORD
  5
1A19B
102
{ACAD_REACTORS
330
1A196
102
}
330
1A196
100
AcDbXrecord
280
     1
270
     1
271
     1
  0
XRECORD
  5
1A19A
102
{ACAD_REACTORS
330
1A196
102
}
330
1A196
100
AcDbXrecord
280
     1
270
     1
271
     1
  0
XRECORD
  5
1A19C
102
{ACAD_REACTORS
330
1A196
102
}
330
1A196
100
AcDbXrecord
280
     1
270
     1
271
     1
  0
XRECORD
  5
1A199
102
{ACAD_REACTORS
330
1A196
102
}
330
1A196
100
AcDbXrecord
280
     1
270
     1
271
     1
  0
XRECORD
  5
1B3AA
102
{ACAD_REACTORS
330
1A1A6
102
}
330
1A1A6
100
AcDbXrecord
280
     1
102
MATERIAL
148
0.0
149
0.0
149
0.0
 93
        0
 94
      127
282
     0
 72
     0
 77
     0
171
     0
175
     0
179
     0
273
     0
  0
XRECORD
  5
1A1A8
102
{ACAD_REACTORS
330
1A1A6
102
}
330
1A1A6
100
AcDbXrecord
280
     1
270
     1
271
     1
  0
XRECORD
  5
1A1A7
102
{ACAD_REACTORS
330
1A1A6
102
}
330
1A1A6
100
AcDbXrecord
280
     1
270
     1
271
     1
  0
XRECORD
  5
1A1AB
102
{ACAD_REACTORS
330
1A1A6
102
}
330
1A1A6
100
AcDbXrecord
280
     1
270
     1
271
     1
  0
XRECORD
  5
1A1AA
102
{ACAD_REACTORS
330
1A1A6
102
}
330
1A1A6
100
AcDbXrecord
280
     1
270
     1
271
     1
  0
XRECORD
  5
1A1AC
102
{ACAD_REACTORS
330
1A1A6
102
}
330
1A1A6
100
AcDbXrecord
280
     1
270
     1
271
     1
  0
XRECORD
  5
1A1A9
102
{ACAD_REACTORS
330
1A1A6
102
}
330
1A1A6
100
AcDbXrecord
280
     1
270
     1
271
     1
  0
CELLSTYLEMAP
  5
1B415
102
{ACAD_REACTORS
330
1A6CC
102
}
330
1A6CC
100
AcDbCellStyleMap
 90
        3
300
CELLSTYLE
  1
TABLEFORMAT_BEGIN
 90
        5
170
     1
 91
        0
 92
    32768
 62
   257
 93
        1
300
CONTENTFORMAT
  1
CONTENTFORMAT_BEGIN
 90
        0
 91
        0
 92
        4
 93
        0
300

 40
0.0
140
1.0
 94
        5
 62
     0
340
11
144
6.0
309
CONTENTFORMAT_END
171
     1
301
MARGIN
  1
CELLMARGIN_BEGIN
 40
1.5
 40
1.5
 40
1.5
 40
1.5
 40
0.18
 40
0.18
309
CELLMARGIN_END
 94
        6
 95
        1
302
GRIDFORMAT
  1
GRIDFORMAT_BEGIN
 90
        0
 91
        1
 62
     0
 92
       -2
340
0
 93
        0
 40
0.045
309
GRIDFORMAT_END
 95
        2
302
GRIDFORMAT
  1
GRIDFORMAT_BEGIN
 90
        0
 91
        1
 62
     0
 92
       -2
340
0
 93
        0
 40
0.045
309
GRIDFORMAT_END
 95
        4
302
GRIDFORMAT
  1
GRIDFORMAT_BEGIN
 90
        0
 91
        1
 62
     0
 92
       -2
340
0
 93
        0
 40
0.045
309
GRIDFORMAT_END
 95
        8
302
GRIDFORMAT
  1
GRIDFORMAT_BEGIN
 90
        0
 91
        1
 62
     0
 92
       -2
340
0
 93
        0
 40
0.045
309
GRIDFORMAT_END
 95
       16
302
GRIDFORMAT
  1
GRIDFORMAT_BEGIN
 90
        0
 91
        1
 62
     0
 92
       -2
340
0
 93
        0
 40
0.045
309
GRIDFORMAT_END
 95
       32
302
GRIDFORMAT
  1
GRIDFORMAT_BEGIN
 90
        0
 91
        1
 62
     0
 92
       -2
340
0
 93
        0
 40
0.045
309
GRIDFORMAT_END
309
TABLEFORMAT_END
  1
CELLSTYLE_BEGIN
 90
        1
 91
        1
300
_TITLE
309
CELLSTYLE_END
300
CELLSTYLE
  1
TABLEFORMAT_BEGIN
 90
        5
170
     1
 91
        0
 92
        0
 62
   257
 93
        1
300
CONTENTFORMAT
  1
CONTENTFORMAT_BEGIN
 90
        0
 91
        0
 92
        4
 93
        0
300

 40
0.0
140
1.0
 94
        5
 62
     0
340
11
144
4.5
309
CONTENTFORMAT_END
171
     1
301
MARGIN
  1
CELLMARGIN_BEGIN
 40
1.5
 40
1.5
 40
1.5
 40
1.5
 40
0.18
 40
0.18
309
CELLMARGIN_END
 94
        6
 95
        1
302
GRIDFORMAT
  1
GRIDFORMAT_BEGIN
 90
        0
 91
        1
 62
     0
 92
       -2
340
0
 93
        0
 40
0.045
309
GRIDFORMAT_END
 95
        2
302
GRIDFORMAT
  1
GRIDFORMAT_BEGIN
 90
        0
 91
        1
 62
     0
 92
       -2
340
0
 93
        0
 40
0.045
309
GRIDFORMAT_END
 95
        4
302
GRIDFORMAT
  1
GRIDFORMAT_BEGIN
 90
        0
 91
        1
 62
     0
 92
       -2
340
0
 93
        0
 40
0.045
309
GRIDFORMAT_END
 95
        8
302
GRIDFORMAT
  1
GRIDFORMAT_BEGIN
 90
        0
 91
        1
 62
     0
 92
       -2
340
0
 93
        0
 40
0.045
309
GRIDFORMAT_END
 95
       16
302
GRIDFORMAT
  1
GRIDFORMAT_BEGIN
 90
        0
 91
        1
 62
     0
 92
       -2
340
0
 93
        0
 40
0.045
309
GRIDFORMAT_END
 95
       32
302
GRIDFORMAT
  1
GRIDFORMAT_BEGIN
 90
        0
 91
        1
 62
     0
 92
       -2
340
0
 93
        0
 40
0.045
309
GRIDFORMAT_END
309
TABLEFORMAT_END
  1
CELLSTYLE_BEGIN
 90
        2
 91
        1
300
_HEADER
309
CELLSTYLE_END
300
CELLSTYLE
  1
TABLEFORMAT_BEGIN
 90
        5
170
     1
 91
        0
 92
        0
 62
   257
 93
        1
300
CONTENTFORMAT
  1
CONTENTFORMAT_BEGIN
 90
        0
 91
        0
 92
        4
 93
        0
300

 40
0.0
140
1.0
 94
        2
 62
     0
340
11
144
4.5
309
CONTENTFORMAT_END
171
     1
301
MARGIN
  1
CELLMARGIN_BEGIN
 40
1.5
 40
1.5
 40
1.5
 40
1.5
 40
0.18
 40
0.18
309
CELLMARGIN_END
 94
        6
 95
        1
302
GRIDFORMAT
  1
GRIDFORMAT_BEGIN
 90
        0
 91
        1
 62
     0
 92
       -2
340
0
 93
        0
 40
0.045
309
GRIDFORMAT_END
 95
        2
302
GRIDFORMAT
  1
GRIDFORMAT_BEGIN
 90
        0
 91
        1
 62
     0
 92
       -2
340
0
 93
        0
 40
0.045
309
GRIDFORMAT_END
 95
        4
302
GRIDFORMAT
  1
GRIDFORMAT_BEGIN
 90
        0
 91
        1
 62
     0
 92
       -2
340
0
 93
        0
 40
0.045
309
GRIDFORMAT_END
 95
        8
302
GRIDFORMAT
  1
GRIDFORMAT_BEGIN
 90
        0
 91
        1
 62
     0
 92
       -2
340
0
 93
        0
 40
0.045
309
GRIDFORMAT_END
 95
       16
302
GRIDFORMAT
  1
GRIDFORMAT_BEGIN
 90
        0
 91
        1
 62
     0
 92
       -2
340
0
 93
        0
 40
0.045
309
GRIDFORMAT_END
 95
       32
302
GRIDFORMAT
  1
GRIDFORMAT_BEGIN
 90
        0
 91
        1
 62
     0
 92
       -2
340
0
 93
        0
 40
0.045
309
GRIDFORMAT_END
309
TABLEFORMAT_END
  1
CELLSTYLE_BEGIN
 90
        3
 91
        2
300
_DATA
309
CELLSTYLE_END
  0
XRECORD
  5
1B424
102
{ACAD_REACTORS
330
1A6CC
102
}
330
1A6CC
100
AcDbXrecord
280
     1
102
ACAD_ROUNDTRIP_PRE2007_TABLESTYLE
 90
        4
 91
        0
  1

 92
        4
 93
        0
  2

 94
        4
 95
        0
  3

  0
XRECORD
  5
1B430
102
{ACAD_REACTORS
330
1B42F
102
}
330
1B42F
100
AcDbXrecord
280
     1
102
RTVSPropertyOp0
 70
     1
102
RTVSPropertyOp1
 70
     1
102
RTVSPropertyOp2
 70
     1
102
RTVSPropertyOp3
 70
     1
102
RTVSPropertyOp4
 70
     1
102
RTVSPropertyOp5
 70
     1
102
RTVSPropertyOp6
 70
     1
102
RTVSPropertyOp7
 70
     1
102
RTVSPropertyOp8
 70
     1
102
RTVSPropertyOp9
 70
     1
102
RTVSPropertyOp10
 70
     1
102
RTVSPropertyOp11
 70
     1
102
RTVSPropertyOp12
 70
     1
102
RTVSPropertyOp13
 70
     1
102
RTVSPropertyOp14
 70
     1
102
RTVSPropertyOp15
 70
     1
102
RTVSPropertyOp16
 70
     1
102
RTVSPropertyOp17
 70
     1
102
RTVSPropertyOp18
 70
     1
102
RTVSPropertyOp19
 70
     1
102
RTVSPropertyOp20
 70
     1
102
RTVSPropertyOp21
 70
     1
102
RTVSPropertyOp22
 70
     1
102
RTVSPropertyOp23
 70
     1
102
RTVSPropertyOp24
 70
     1
102
RTVSPropertyOp25
 70
     1
102
RTVSPropertyOp26
 70
     1
102
RTVSPropertyOp27
 70
     1
  0
XRECORD
  5
1B434
102
{ACAD_REACTORS
330
1B433
102
}
330
1B433
100
AcDbXrecord
280
     1
102
RTVSPropertyOp0
 70
     1
102
RTVSPropertyOp1
 70
     1
102
RTVSPropertyOp2
 70
     1
102
RTVSPropertyOp3
 70
     1
102
RTVSPropertyOp4
 70
     1
102
RTVSPropertyOp5
 70
     1
102
RTVSPropertyOp6
 70
     1
102
RTVSPropertyOp7
 70
     1
102
RTVSPropertyOp8
 70
     1
102
RTVSPropertyOp9
 70
     1
102
RTVSPropertyOp10
 70
     1
102
RTVSPropertyOp11
 70
     1
102
RTVSPropertyOp12
 70
     1
102
RTVSPropertyOp13
 70
     1
102
RTVSPropertyOp14
 70
     1
102
RTVSPropertyOp15
 70
     1
102
RTVSPropertyOp16
 70
     1
102
RTVSPropertyOp17
 70
     1
102
RTVSPropertyOp18
 70
     1
102
RTVSPropertyOp19
 70
     1
102
RTVSPropertyOp20
 70
     1
102
RTVSPropertyOp21
 70
     1
102
RTVSPropertyOp22
 70
     1
102
RTVSPropertyOp23
 70
     1
102
RTVSPropertyOp24
 70
     1
102
RTVSPropertyOp25
 70
     1
102
RTVSPropertyOp26
 70
     1
102
RTVSPropertyOp27
 70
     1
  0
XRECORD
  5
1B432
102
{ACAD_REACTORS
330
1B431
102
}
330
1B431
100
AcDbXrecord
280
     1
102
RTVSPropertyOp0
 70
     1
102
RTVSPropertyOp1
 70
     1
102
RTVSPropertyOp2
 70
     1
102
RTVSPropertyOp3
 70
     1
102
RTVSPropertyOp4
 70
     1
102
RTVSPropertyOp5
 70
     1
102
RTVSPropertyOp6
 70
     1
102
RTVSPropertyOp7
 70
     1
102
RTVSPropertyOp8
 70
     1
102
RTVSPropertyOp9
 70
     1
102
RTVSPropertyOp10
 70
     1
102
RTVSPropertyOp11
 70
     1
102
RTVSPropertyOp12
 70
     1
102
RTVSPropertyOp13
 70
     1
102
RTVSPropertyOp14
 70
     1
102
RTVSPropertyOp15
 70
     1
102
RTVSPropertyOp16
 70
     1
102
RTVSPropertyOp17
 70
     1
102
RTVSPropertyOp18
 70
     1
102
RTVSPropertyOp19
 70
     1
102
RTVSPropertyOp20
 70
     1
102
RTVSPropertyOp21
 70
     1
102
RTVSPropertyOp22
 70
     1
102
RTVSPropertyOp23
 70
     1
102
RTVSPropertyOp24
 70
     1
102
RTVSPropertyOp25
 70
     1
102
RTVSPropertyOp26
 70
     1
102
RTVSPropertyOp27
 70
     1
  0
XRECORD
  5
1B42E
102
{ACAD_REACTORS
330
1B42D
102
}
330
1B42D
100
AcDbXrecord
280
     1
102
RTVSPropertyOp0
 70
     1
102
RTVSPropertyOp1
 70
     1
102
RTVSPropertyOp2
 70
     1
102
RTVSPropertyOp3
 70
     1
102
RTVSPropertyOp4
 70
     1
102
RTVSPropertyOp5
 70
     1
102
RTVSPropertyOp6
 70
     1
102
RTVSPropertyOp7
 70
     1
102
RTVSPropertyOp8
 70
     1
102
RTVSPropertyOp9
 70
     1
102
RTVSPropertyOp10
 70
     1
102
RTVSPropertyOp11
 70
     1
102
RTVSPropertyOp12
 70
     1
102
RTVSPropertyOp13
 70
     1
102
RTVSPropertyOp14
 70
     1
102
RTVSPropertyOp15
 70
     1
102
RTVSPropertyOp16
 70
     1
102
RTVSPropertyOp17
 70
     1
102
RTVSPropertyOp18
 70
     1
102
RTVSPropertyOp19
 70
     1
102
RTVSPropertyOp20
 70
     1
102
RTVSPropertyOp21
 70
     1
102
RTVSPropertyOp22
 70
     1
102
RTVSPropertyOp23
 70
     1
102
RTVSPropertyOp24
 70
     1
102
RTVSPropertyOp25
 70
     1
102
RTVSPropertyOp26
 70
     1
102
RTVSPropertyOp27
 70
     1
  0
XRECORD
  5
1B43C
102
{ACAD_REACTORS
330
1B43B
102
}
330
1B43B
100
AcDbXrecord
280
     1
102
RTVSPropertyOp0
 70
     1
102
RTVSPropertyOp1
 70
     1
102
RTVSPropertyOp2
 70
     1
102
RTVSPropertyOp3
 70
     1
102
RTVSPropertyOp4
 70
     1
102
RTVSPropertyOp5
 70
     1
102
RTVSPropertyOp6
 70
     1
102
RTVSPropertyOp7
 70
     1
102
RTVSPropertyOp8
 70
     1
102
RTVSPropertyOp9
 70
     1
102
RTVSPropertyOp10
 70
     1
102
RTVSPropertyOp11
 70
     1
102
RTVSPropertyOp12
 70
     1
102
RTVSPropertyOp13
 70
     1
102
RTVSPropertyOp14
 70
     1
102
RTVSPropertyOp15
 70
     1
102
RTVSPropertyOp16
 70
     1
102
RTVSPropertyOp17
 70
     1
102
RTVSPropertyOp18
 70
     1
102
RTVSPropertyOp19
 70
     1
102
RTVSPropertyOp20
 70
     1
102
RTVSPropertyOp21
 70
     1
102
RTVSPropertyOp22
 70
     1
102
RTVSPropertyOp23
 70
     1
102
RTVSPropertyOp24
 70
     1
102
RTVSPropertyOp25
 70
     1
102
RTVSPropertyOp26
 70
     1
102
RTVSPropertyOp27
 70
     1
  0
XRECORD
  5
1B444
102
{ACAD_REACTORS
330
1B443
102
}
330
1B443
100
AcDbXrecord
280
     1
102
RTVSPropertyOp0
 70
     1
102
RTVSPropertyOp1
 70
     1
102
RTVSPropertyOp2
 70
     1
102
RTVSPropertyOp3
 70
     1
102
RTVSPropertyOp4
 70
     1
102
RTVSPropertyOp5
 70
     1
102
RTVSPropertyOp6
 70
     1
102
RTVSPropertyOp7
 70
     1
102
RTVSPropertyOp8
 70
     1
102
RTVSPropertyOp9
 70
     1
102
RTVSPropertyOp10
 70
     1
102
RTVSPropertyOp11
 70
     1
102
RTVSPropertyOp12
 70
     1
102
RTVSPropertyOp13
 70
     1
102
RTVSPropertyOp14
 70
     1
102
RTVSPropertyOp15
 70
     1
102
RTVSPropertyOp16
 70
     1
102
RTVSPropertyOp17
 70
     1
102
RTVSPropertyOp18
 70
     1
102
RTVSPropertyOp19
 70
     1
102
RTVSPropertyOp20
 70
     1
102
RTVSPropertyOp21
 70
     1
102
RTVSPropertyOp22
 70
     1
102
RTVSPropertyOp23
 70
     1
102
RTVSPropertyOp24
 70
     1
102
RTVSPropertyOp25
 70
     1
102
RTVSPropertyOp26
 70
     1
102
RTVSPropertyOp27
 70
     1
  0
XRECORD
  5
1B436
102
{ACAD_REACTORS
330
1B435
102
}
330
1B435
100
AcDbXrecord
280
     1
102
RTVSPropertyOp0
 70
     1
102
RTVSPropertyOp1
 70
     1
102
RTVSPropertyOp2
 70
     1
102
RTVSPropertyOp3
 70
     1
102
RTVSPropertyOp4
 70
     1
102
RTVSPropertyOp5
 70
     1
102
RTVSPropertyOp6
 70
     1
102
RTVSPropertyOp7
 70
     1
102
RTVSPropertyOp8
 70
     1
102
RTVSPropertyOp9
 70
     1
102
RTVSPropertyOp10
 70
     1
102
RTVSPropertyOp11
 70
     1
102
RTVSPropertyOp12
 70
     1
102
RTVSPropertyOp13
 70
     1
102
RTVSPropertyOp14
 70
     1
102
RTVSPropertyOp15
 70
     1
102
RTVSPropertyOp16
 70
     1
102
RTVSPropertyOp17
 70
     1
102
RTVSPropertyOp18
 70
     1
102
RTVSPropertyOp19
 70
     1
102
RTVSPropertyOp20
 70
     1
102
RTVSPropertyOp21
 70
     1
102
RTVSPropertyOp22
 70
     1
102
RTVSPropertyOp23
 70
     1
102
RTVSPropertyOp24
 70
     1
102
RTVSPropertyOp25
 70
     1
102
RTVSPropertyOp26
 70
     1
102
RTVSPropertyOp27
 70
     1
  0
XRECORD
  5
1B43A
102
{ACAD_REACTORS
330
1B439
102
}
330
1B439
100
AcDbXrecord
280
     1
102
RTVSPropertyOp0
 70
     1
102
RTVSPropertyOp1
 70
     1
102
RTVSPropertyOp2
 70
     1
102
RTVSPropertyOp3
 70
     1
102
RTVSPropertyOp4
 70
     1
102
RTVSPropertyOp5
 70
     1
102
RTVSPropertyOp6
 70
     1
102
RTVSPropertyOp7
 70
     1
102
RTVSPropertyOp8
 70
     1
102
RTVSPropertyOp9
 70
     1
102
RTVSPropertyOp10
 70
     1
102
RTVSPropertyOp11
 70
     1
102
RTVSPropertyOp12
 70
     1
102
RTVSPropertyOp13
 70
     1
102
RTVSPropertyOp14
 70
     1
102
RTVSPropertyOp15
 70
     1
102
RTVSPropertyOp16
 70
     1
102
RTVSPropertyOp17
 70
     1
102
RTVSPropertyOp18
 70
     1
102
RTVSPropertyOp19
 70
     1
102
RTVSPropertyOp20
 70
     1
102
RTVSPropertyOp21
 70
     1
102
RTVSPropertyOp22
 70
     1
102
RTVSPropertyOp23
 70
     1
102
RTVSPropertyOp24
 70
     1
102
RTVSPropertyOp25
 70
     1
102
RTVSPropertyOp26
 70
     1
102
RTVSPropertyOp27
 70
     1
  0
XRECORD
  5
1B44A
102
{ACAD_REACTORS
330
1B449
102
}
330
1B449
100
AcDbXrecord
280
     1
102
RTVSPropertyOp0
 70
     0
102
RTVSPropertyOp1
 70
     0
102
RTVSPropertyOp2
 70
     0
102
RTVSPropertyOp3
 70
     0
102
RTVSPropertyOp4
 70
     0
102
RTVSPropertyOp5
 70
     0
102
RTVSPropertyOp6
 70
     0
102
RTVSPropertyOp7
 70
     0
102
RTVSPropertyOp8
 70
     0
102
RTVSPropertyOp9
 70
     0
102
RTVSPropertyOp10
 70
     0
102
RTVSPropertyOp11
 70
     0
102
RTVSPropertyOp12
 70
     0
102
RTVSPropertyOp13
 70
     0
102
RTVSPropertyOp14
 70
     2
102
RTVSPropertyOp15
 70
     0
102
RTVSPropertyOp16
 70
     0
102
RTVSPropertyOp17
 70
     0
102
RTVSPropertyOp18
 70
     0
102
RTVSPropertyOp19
 70
     0
102
RTVSPropertyOp20
 70
     0
102
RTVSPropertyOp21
 70
     0
102
RTVSPropertyOp22
 70
     0
102
RTVSPropertyOp23
 70
     0
102
RTVSPropertyOp24
 70
     0
102
RTVSPropertyOp25
 70
     0
102
RTVSPropertyOp26
 70
     0
102
RTVSPropertyOp27
 70
     0
  0
XRECORD
  5
1B442
102
{ACAD_REACTORS
330
1B441
102
}
330
1B441
100
AcDbXrecord
280
     1
102
RTVSPropertyOp0
 70
     1
102
RTVSPropertyOp1
 70
     1
102
RTVSPropertyOp2
 70
     1
102
RTVSPropertyOp3
 70
     1
102
RTVSPropertyOp4
 70
     1
102
RTVSPropertyOp5
 70
     1
102
RTVSPropertyOp6
 70
     1
102
RTVSPropertyOp7
 70
     1
102
RTVSPropertyOp8
 70
     1
102
RTVSPropertyOp9
 70
     1
102
RTVSPropertyOp10
 70
     1
102
RTVSPropertyOp11
 70
     1
102
RTVSPropertyOp12
 70
     1
102
RTVSPropertyOp13
 70
     1
102
RTVSPropertyOp14
 70
     1
102
RTVSPropertyOp15
 70
     1
102
RTVSPropertyOp16
 70
     1
102
RTVSPropertyOp17
 70
     1
102
RTVSPropertyOp18
 70
     1
102
RTVSPropertyOp19
 70
     1
102
RTVSPropertyOp20
 70
     1
102
RTVSPropertyOp21
 70
     1
102
RTVSPropertyOp22
 70
     1
102
RTVSPropertyOp23
 70
     1
102
RTVSPropertyOp24
 70
     1
102
RTVSPropertyOp25
 70
     1
102
RTVSPropertyOp26
 70
     1
102
RTVSPropertyOp27
 70
     1
  0
XRECORD
  5
1B426
102
{ACAD_REACTORS
330
1B425
102
}
330
1B425
100
AcDbXrecord
280
     1
102
RTVSPropertyOp0
 70
     1
102
RTVSPropertyOp1
 70
     1
102
RTVSPropertyOp2
 70
     1
102
RTVSPropertyOp3
 70
     1
102
RTVSPropertyOp4
 70
     1
102
RTVSPropertyOp5
 70
     1
102
RTVSPropertyOp6
 70
     1
102
RTVSPropertyOp7
 70
     1
102
RTVSPropertyOp8
 70
     1
102
RTVSPropertyOp9
 70
     1
102
RTVSPropertyOp10
 70
     1
102
RTVSPropertyOp11
 70
     1
102
RTVSPropertyOp12
 70
     1
102
RTVSPropertyOp13
 70
     1
102
RTVSPropertyOp14
 70
     1
102
RTVSPropertyOp15
 70
     1
102
RTVSPropertyOp16
 70
     1
102
RTVSPropertyOp17
 70
     1
102
RTVSPropertyOp18
 70
     1
102
RTVSPropertyOp19
 70
     1
102
RTVSPropertyOp20
 70
     1
102
RTVSPropertyOp21
 70
     1
102
RTVSPropertyOp22
 70
     1
102
RTVSPropertyOp23
 70
     1
102
RTVSPropertyOp24
 70
     1
102
RTVSPropertyOp25
 70
     1
102
RTVSPropertyOp26
 70
     1
102
RTVSPropertyOp27
 70
     1
  0
XRECORD
  5
1B428
102
{ACAD_REACTORS
330
1B427
102
}
330
1B427
100
AcDbXrecord
280
     1
102
RTVSPropertyOp0
 70
     1
102
RTVSPropertyOp1
 70
     1
102
RTVSPropertyOp2
 70
     1
102
RTVSPropertyOp3
 70
     1
102
RTVSPropertyOp4
 70
     1
102
RTVSPropertyOp5
 70
     1
102
RTVSPropertyOp6
 70
     1
102
RTVSPropertyOp7
 70
     1
102
RTVSPropertyOp8
 70
     1
102
RTVSPropertyOp9
 70
     1
102
RTVSPropertyOp10
 70
     1
102
RTVSPropertyOp11
 70
     1
102
RTVSPropertyOp12
 70
     1
102
RTVSPropertyOp13
 70
     1
102
RTVSPropertyOp14
 70
     1
102
RTVSPropertyOp15
 70
     1
102
RTVSPropertyOp16
 70
     1
102
RTVSPropertyOp17
 70
     1
102
RTVSPropertyOp18
 70
     1
102
RTVSPropertyOp19
 70
     1
102
RTVSPropertyOp20
 70
     1
102
RTVSPropertyOp21
 70
     1
102
RTVSPropertyOp22
 70
     1
102
RTVSPropertyOp23
 70
     1
102
RTVSPropertyOp24
 70
     1
102
RTVSPropertyOp25
 70
     1
102
RTVSPropertyOp26
 70
     1
102
RTVSPropertyOp27
 70
     1
  0
XRECORD
  5
1B42A
102
{ACAD_REACTORS
330
1B429
102
}
330
1B429
100
AcDbXrecord
280
     1
102
RTVSPropertyOp0
 70
     1
102
RTVSPropertyOp1
 70
     1
102
RTVSPropertyOp2
 70
     1
102
RTVSPropertyOp3
 70
     1
102
RTVSPropertyOp4
 70
     1
102
RTVSPropertyOp5
 70
     1
102
RTVSPropertyOp6
 70
     1
102
RTVSPropertyOp7
 70
     1
102
RTVSPropertyOp8
 70
     1
102
RTVSPropertyOp9
 70
     1
102
RTVSPropertyOp10
 70
     1
102
RTVSPropertyOp11
 70
     1
102
RTVSPropertyOp12
 70
     1
102
RTVSPropertyOp13
 70
     1
102
RTVSPropertyOp14
 70
     1
102
RTVSPropertyOp15
 70
     1
102
RTVSPropertyOp16
 70
     1
102
RTVSPropertyOp17
 70
     1
102
RTVSPropertyOp18
 70
     1
102
RTVSPropertyOp19
 70
     1
102
RTVSPropertyOp20
 70
     1
102
RTVSPropertyOp21
 70
     1
102
RTVSPropertyOp22
 70
     1
102
RTVSPropertyOp23
 70
     1
102
RTVSPropertyOp24
 70
     1
102
RTVSPropertyOp25
 70
     1
102
RTVSPropertyOp26
 70
     1
102
RTVSPropertyOp27
 70
     1
  0
XRECORD
  5
1B42C
102
{ACAD_REACTORS
330
1B42B
102
}
330
1B42B
100
AcDbXrecord
280
     1
102
RTVSPropertyOp0
 70
     1
102
RTVSPropertyOp1
 70
     1
102
RTVSPropertyOp2
 70
     1
102
RTVSPropertyOp3
 70
     1
102
RTVSPropertyOp4
 70
     1
102
RTVSPropertyOp5
 70
     1
102
RTVSPropertyOp6
 70
     1
102
RTVSPropertyOp7
 70
     1
102
RTVSPropertyOp8
 70
     1
102
RTVSPropertyOp9
 70
     1
102
RTVSPropertyOp10
 70
     1
102
RTVSPropertyOp11
 70
     1
102
RTVSPropertyOp12
 70
     1
102
RTVSPropertyOp13
 70
     1
102
RTVSPropertyOp14
 70
     1
102
RTVSPropertyOp15
 70
     1
102
RTVSPropertyOp16
 70
     1
102
RTVSPropertyOp17
 70
     1
102
RTVSPropertyOp18
 70
     1
102
RTVSPropertyOp19
 70
     1
102
RTVSPropertyOp20
 70
     1
102
RTVSPropertyOp21
 70
     1
102
RTVSPropertyOp22
 70
     1
102
RTVSPropertyOp23
 70
     1
102
RTVSPropertyOp24
 70
     1
102
RTVSPropertyOp25
 70
     1
102
RTVSPropertyOp26
 70
     1
102
RTVSPropertyOp27
 70
     1
  0
XRECORD
  5
1B446
102
{ACAD_REACTORS
330
1B445
102
}
330
1B445
100
AcDbXrecord
280
     1
102
RTVSPropertyOp0
 70
     0
102
RTVSPropertyOp1
 70
     0
102
RTVSPropertyOp2
 70
     0
102
RTVSPropertyOp3
 70
     0
102
RTVSPropertyOp4
 70
     0
102
RTVSPropertyOp5
 70
     0
102
RTVSPropertyOp6
 70
     0
102
RTVSPropertyOp7
 70
     0
102
RTVSPropertyOp8
 70
     0
102
RTVSPropertyOp9
 70
     0
102
RTVSPropertyOp10
 70
     0
102
RTVSPropertyOp11
 70
     0
102
RTVSPropertyOp12
 70
     0
102
RTVSPropertyOp13
 70
     0
102
RTVSPropertyOp14
 70
     2
102
RTVSPropertyOp15
 70
     0
102
RTVSPropertyOp16
 70
     0
102
RTVSPropertyOp17
 70
     0
102
RTVSPropertyOp18
 70
     0
102
RTVSPropertyOp19
 70
     0
102
RTVSPropertyOp20
 70
     0
102
RTVSPropertyOp21
 70
     0
102
RTVSPropertyOp22
 70
     0
102
RTVSPropertyOp23
 70
     0
102
RTVSPropertyOp24
 70
     0
102
RTVSPropertyOp25
 70
     0
102
RTVSPropertyOp26
 70
     0
102
RTVSPropertyOp27
 70
     0
  0
XRECORD
  5
1B440
102
{ACAD_REACTORS
330
1B43F
102
}
330
1B43F
100
AcDbXrecord
280
     1
102
RTVSPropertyOp0
 70
     1
102
RTVSPropertyOp1
 70
     1
102
RTVSPropertyOp2
 70
     1
102
RTVSPropertyOp3
 70
     1
102
RTVSPropertyOp4
 70
     1
102
RTVSPropertyOp5
 70
     1
102
RTVSPropertyOp6
 70
     1
102
RTVSPropertyOp7
 70
     1
102
RTVSPropertyOp8
 70
     1
102
RTVSPropertyOp9
 70
     1
102
RTVSPropertyOp10
 70
     1
102
RTVSPropertyOp11
 70
     1
102
RTVSPropertyOp12
 70
     1
102
RTVSPropertyOp13
 70
     1
102
RTVSPropertyOp14
 70
     1
102
RTVSPropertyOp15
 70
     1
102
RTVSPropertyOp16
 70
     1
102
RTVSPropertyOp17
 70
     1
102
RTVSPropertyOp18
 70
     1
102
RTVSPropertyOp19
 70
     1
102
RTVSPropertyOp20
 70
     1
102
RTVSPropertyOp21
 70
     1
102
RTVSPropertyOp22
 70
     1
102
RTVSPropertyOp23
 70
     1
102
RTVSPropertyOp24
 70
     1
102
RTVSPropertyOp25
 70
     1
102
RTVSPropertyOp26
 70
     1
102
RTVSPropertyOp27
 70
     1
  0
XRECORD
  5
1B448
102
{ACAD_REACTORS
330
1B447
102
}
330
1B447
100
AcDbXrecord
280
     1
102
RTVSPropertyOp0
 70
     0
102
RTVSPropertyOp1
 70
     0
102
RTVSPropertyOp2
 70
     0
102
RTVSPropertyOp3
 70
     0
102
RTVSPropertyOp4
 70
     0
102
RTVSPropertyOp5
 70
     0
102
RTVSPropertyOp6
 70
     0
102
RTVSPropertyOp7
 70
     0
102
RTVSPropertyOp8
 70
     0
102
RTVSPropertyOp9
 70
     0
102
RTVSPropertyOp10
 70
     0
102
RTVSPropertyOp11
 70
     0
102
RTVSPropertyOp12
 70
     0
102
RTVSPropertyOp13
 70
     0
102
RTVSPropertyOp14
 70
     2
102
RTVSPropertyOp15
 70
     0
102
RTVSPropertyOp16
 70
     0
102
RTVSPropertyOp17
 70
     0
102
RTVSPropertyOp18
 70
     0
102
RTVSPropertyOp19
 70
     0
102
RTVSPropertyOp20
 70
     0
102
RTVSPropertyOp21
 70
     0
102
RTVSPropertyOp22
 70
     0
102
RTVSPropertyOp23
 70
     0
102
RTVSPropertyOp24
 70
     0
102
RTVSPropertyOp25
 70
     0
102
RTVSPropertyOp26
 70
     0
102
RTVSPropertyOp27
 70
     0
  0
XRECORD
  5
1B438
102
{ACAD_REACTORS
330
1B437
102
}
330
1B437
100
AcDbXrecord
280
     1
102
RTVSPropertyOp0
 70
     1
102
RTVSPropertyOp1
 70
     1
102
RTVSPropertyOp2
 70
     1
102
RTVSPropertyOp3
 70
     1
102
RTVSPropertyOp4
 70
     1
102
RTVSPropertyOp5
 70
     1
102
RTVSPropertyOp6
 70
     1
102
RTVSPropertyOp7
 70
     1
102
RTVSPropertyOp8
 70
     1
102
RTVSPropertyOp9
 70
     1
102
RTVSPropertyOp10
 70
     1
102
RTVSPropertyOp11
 70
     1
102
RTVSPropertyOp12
 70
     1
102
RTVSPropertyOp13
 70
     1
102
RTVSPropertyOp14
 70
     1
102
RTVSPropertyOp15
 70
     1
102
RTVSPropertyOp16
 70
     1
102
RTVSPropertyOp17
 70
     1
102
RTVSPropertyOp18
 70
     1
102
RTVSPropertyOp19
 70
     1
102
RTVSPropertyOp20
 70
     1
102
RTVSPropertyOp21
 70
     1
102
RTVSPropertyOp22
 70
     1
102
RTVSPropertyOp23
 70
     1
102
RTVSPropertyOp24
 70
     1
102
RTVSPropertyOp25
 70
     1
102
RTVSPropertyOp26
 70
     1
102
RTVSPropertyOp27
 70
     1
  0
XRECORD
  5
1B43E
102
{ACAD_REACTORS
330
1B43D
102
}
330
1B43D
100
AcDbXrecord
280
     1
102
RTVSPropertyOp0
 70
     1
102
RTVSPropertyOp1
 70
     1
102
RTVSPropertyOp2
 70
     1
102
RTVSPropertyOp3
 70
     1
102
RTVSPropertyOp4
 70
     1
102
RTVSPropertyOp5
 70
     1
102
RTVSPropertyOp6
 70
     1
102
RTVSPropertyOp7
 70
     1
102
RTVSPropertyOp8
 70
     1
102
RTVSPropertyOp9
 70
     1
102
RTVSPropertyOp10
 70
     1
102
RTVSPropertyOp11
 70
     1
102
RTVSPropertyOp12
 70
     1
102
RTVSPropertyOp13
 70
     1
102
RTVSPropertyOp14
 70
     1
102
RTVSPropertyOp15
 70
     1
102
RTVSPropertyOp16
 70
     1
102
RTVSPropertyOp17
 70
     1
102
RTVSPropertyOp18
 70
     1
102
RTVSPropertyOp19
 70
     1
102
RTVSPropertyOp20
 70
     1
102
RTVSPropertyOp21
 70
     1
102
RTVSPropertyOp22
 70
     1
102
RTVSPropertyOp23
 70
     1
102
RTVSPropertyOp24
 70
     1
102
RTVSPropertyOp25
 70
     1
102
RTVSPropertyOp26
 70
     1
102
RTVSPropertyOp27
 70
     1
  0
ENDSEC
  0
EOF
