  0
SECTION
  2
HEADER
  9
$ACADVER
  1
AC1015
  9
$ACADMAINTVER
 70
    20
  9
$DWGCODEPAGE
  3
ANSI_1252
  9
$INSBASE
 10
0.0
 20
0.0
 30
0.0
  9
$EXTMIN
 10
22474.23576319742
 20
615.9792808880515
 30
0.0
  9
$EXTMAX
 10
22779.96244650364
 20
1247.994106143057
 30
0.0
  9
$LIMMIN
 10
0.0
 20
0.0
  9
$LIMMAX
 10
420.0
 20
297.0
  9
$ORTHOMODE
 70
     0
  9
$REGENMODE
 70
     1
  9
$FILLMODE
 70
     1
  9
$QTEXTMODE
 70
     0
  9
$MIRRTEXT
 70
     0
  9
$LTSCALE
 40
8.0
  9
$ATTMODE
 70
     1
  9
$TEXTSIZE
 40
2.5
  9
$TRACEWID
 40
1.0
  9
$TEXTSTYLE
  7
STANDARD
  9
$CLAYER
  8
0
  9
$CELTYPE
  6
ByLayer
  9
$CECOLOR
 62
   256
  9
$CELTSCALE
 40
1.0
  9
$DISPSILH
 70
     0
  9
$DIMSCALE
 40
1.0
  9
$DIMASZ
 40
65.0
  9
$DIMEXO
 40
1.0
  9
$DIMDLI
 40
10.0
  9
$DIMRND
 40
0.0
  9
$DIMDLE
 40
0.0
  9
$DIMEXE
 40
25.0
  9
$DIMTP
 40
0.1
  9
$DIMTM
 40
0.1
  9
$DIMTXT
 40
50.0
  9
$DIMCEN
 40
0.0
  9
$DIMTSZ
 40
0.0
  9
$DIMTOL
 70
     0
  9
$DIMLIM
 70
     0
  9
$DIMTIH
 70
     0
  9
$DIMTOH
 70
     0
  9
$DIMSE1
 70
     0
  9
$DIMSE2
 70
     0
  9
$DIMTAD
 70
     1
  9
$DIMZIN
 70
     8
  9
$DIMBLK
  1

  9
$DIMASO
 70
     1
  9
$DIMSHO
 70
     1
  9
$DIMPOST
  1

  9
$DIMAPOST
  1
"
  9
$DIMALT
 70
     0
  9
$DIMALTD
 70
     2
  9
$DIMALTF
 40
0.0393701
  9
$DIMLFAC
 40
1.0
  9
$DIMTOFL
 70
     1
  9
$DIMTVP
 40
0.0
  9
$DIMTIX
 70
     0
  9
$DIMSOXD
 70
     0
  9
$DIMSAH
 70
     0
  9
$DIMBLK1
  1

  9
$DIMBLK2
  1

  9
$DIMSTYLE
  2
AM_DIN
  9
$DIMCLRD
 70
   256
  9
$DIMCLRE
 70
   256
  9
$DIMCLRT
 70
     2
  9
$DIMTFAC
 40
0.71
  9
$DIMGAP
 40
15.0
  9
$DIMJUST
 70
     0
  9
$DIMSD1
 70
     0
  9
$DIMSD2
 70
     0
  9
$DIMTOLJ
 70
     0
  9
$DIMTZIN
 70
     8
  9
$DIMALTZ
 70
     0
  9
$DIMALTTZ
 70
     0
  9
$DIMUPT
 70
     0
  9
$DIMDEC
 70
     0
  9
$DIMTDEC
 70
     0
  9
$DIMALTU
 70
     2
  9
$DIMALTTD
 70
     2
  9
$DIMTXSTY
  7
STANDARD
  9
$DIMAUNIT
 70
     0
  9
$DIMADEC
 70
     0
  9
$DIMALTRND
 40
0.0
  9
$DIMAZIN
 70
     2
  9
$DIMDSEP
 70
    46
  9
$DIMATFIT
 70
     3
  9
$DIMFRAC
 70
     0
  9
$DIMLDRBLK
  1

  9
$DIMLUNIT
 70
     2
  9
$DIMLWD
 70
    -1
  9
$DIMLWE
 70
    -1
  9
$DIMTMOVE
 70
     0
  9
$LUNITS
 70
     2
  9
$LUPREC
 70
     2
  9
$SKETCHINC
 40
1.0
  9
$FILLETRAD
 40
2.5
  9
$AUNITS
 70
     0
  9
$AUPREC
 70
     0
  9
$MENU
  1
.
  9
$ELEVATION
 40
0.0
  9
$PELEVATION
 40
0.0
  9
$THICKNESS
 40
0.0
  9
$LIMCHECK
 70
     0
  9
$CHAMFERA
 40
2.5
  9
$CHAMFERB
 40
2.5
  9
$CHAMFERC
 40
20.0
  9
$CHAMFERD
 40
0.0
  9
$SKPOLY
 70
     0
  9
$TDCREATE
 40
2454167.376978160
  9
$TDUCREATE
 40
2454167.335311493
  9
$TDUPDATE
 40
2455133.674718056
  9
$TDUUPDATE
 40
2455133.633051389
  9
$TDINDWG
 40
0.7177454630
  9
$TDUSRTIMER
 40
0.7175853125
  9
$USRTIMER
 70
     1
  9
$ANGBASE
 50
0.0
  9
$ANGDIR
 70
     0
  9
$PDMODE
 70
     0
  9
$PDSIZE
 40
0.0
  9
$PLINEWID
 40
0.0
  9
$SPLFRAME
 70
     0
  9
$SPLINETYPE
 70
     6
  9
$SPLINESEGS
 70
     8
  9
$HANDSEED
  5
1B6CE
  9
$SURFTAB1
 70
     6
  9
$SURFTAB2
 70
     6
  9
$SURFTYPE
 70
     6
  9
$SURFU
 70
     6
  9
$SURFV
 70
     6
  9
$UCSBASE
  2

  9
$UCSNAME
  2

  9
$UCSORG
 10
0.0
 20
0.0
 30
0.0
  9
$UCSXDIR
 10
1.0
 20
0.0
 30
0.0
  9
$UCSYDIR
 10
0.0
 20
1.0
 30
0.0
  9
$UCSORTHOREF
  2

  9
$UCSORTHOVIEW
 70
     0
  9
$UCSORGTOP
 10
0.0
 20
0.0
 30
0.0
  9
$UCSORGBOTTOM
 10
0.0
 20
0.0
 30
0.0
  9
$UCSORGLEFT
 10
0.0
 20
0.0
 30
0.0
  9
$UCSORGRIGHT
 10
0.0
 20
0.0
 30
0.0
  9
$UCSORGFRONT
 10
0.0
 20
0.0
 30
0.0
  9
$UCSORGBACK
 10
0.0
 20
0.0
 30
0.0
  9
$PUCSBASE
  2

  9
$PUCSNAME
  2

  9
$PUCSORG
 10
0.0
 20
0.0
 30
0.0
  9
$PUCSXDIR
 10
1.0
 20
0.0
 30
0.0
  9
$PUCSYDIR
 10
0.0
 20
1.0
 30
0.0
  9
$PUCSORTHOREF
  2

  9
$PUCSORTHOVIEW
 70
     0
  9
$PUCSORGTOP
 10
0.0
 20
0.0
 30
0.0
  9
$PUCSORGBOTTOM
 10
0.0
 20
0.0
 30
0.0
  9
$PUCSORGLEFT
 10
0.0
 20
0.0
 30
0.0
  9
$PUCSORGRIGHT
 10
0.0
 20
0.0
 30
0.0
  9
$PUCSORGFRONT
 10
0.0
 20
0.0
 30
0.0
  9
$PUCSORGBACK
 10
0.0
 20
0.0
 30
0.0
  9
$USERI1
 70
     0
  9
$USERI2
 70
     0
  9
$USERI3
 70
     0
  9
$USERI4
 70
     0
  9
$USERI5
 70
     0
  9
$USERR1
 40
0.0
  9
$USERR2
 40
0.0
  9
$USERR3
 40
0.0
  9
$USERR4
 40
0.0
  9
$USERR5
 40
0.0
  9
$WORLDVIEW
 70
     1
  9
$SHADEDGE
 70
     3
  9
$SHADEDIF
 70
    70
  9
$TILEMODE
 70
     1
  9
$MAXACTVP
 70
    64
  9
$PINSBASE
 10
0.0
 20
0.0
 30
0.0
  9
$PLIMCHECK
 70
     0
  9
$PEXTMIN
 10
1.000000000000000E+20
 20
1.000000000000000E+20
 30
1.000000000000000E+20
  9
$PEXTMAX
 10
-1.000000000000000E+20
 20
-1.000000000000000E+20
 30
-1.000000000000000E+20
  9
$PLIMMIN
 10
0.0
 20
0.0
  9
$PLIMMAX
 10
420.0
 20
297.0
  9
$UNITMODE
 70
     0
  9
$VISRETAIN
 70
     1
  9
$PLINEGEN
 70
     0
  9
$PSLTSCALE
 70
     1
  9
$TREEDEPTH
 70
  3020
  9
$CMLSTYLE
  2
Standard
  9
$CMLJUST
 70
     0
  9
$CMLSCALE
 40
20.0
  9
$PROXYGRAPHICS
 70
     1
  9
$MEASUREMENT
 70
     1
  9
$CELWEIGHT
370
    -1
  9
$ENDCAPS
280
     0
  9
$JOINSTYLE
280
     0
  9
$LWDISPLAY
290
     0
  9
$INSUNITS
 70
     4
  9
$HYPERLINKBASE
  1

  9
$STYLESHEET
  1
MONOCHROME UW.CTB
  9
$XEDIT
290
     1
  9
$CEPSNTYPE
380
     0
  9
$PSTYLEMODE
290
     1
  9
$FINGERPRINTGUID
  2
{1344C3A2-CD10-4B1D-A761-DD320F23370E}
  9
$VERSIONGUID
  2
{AC49B533-5A1B-4B17-BDC1-2BDC6C18B5E7}
  9
$EXTNAMES
290
     1
  9
$PSVPSCALE
 40
0.0
  9
$OLESTARTUP
290
     0
  0
ENDSEC
  0
SECTION
  2
CLASSES
  0
CLASS
  1
ACDBDICTIONARYWDFLT
  2
AcDbDictionaryWithDefault
  3
ObjectDBX Classes
 90
        0
280
     0
281
     0
  0
CLASS
  1
ACDBPLACEHOLDER
  2
AcDbPlaceHolder
  3
ObjectDBX Classes
 90
        0
280
     0
281
     0
  0
CLASS
  1
LAYOUT
  2
AcDbLayout
  3
ObjectDBX Classes
 90
        0
280
     0
281
     0
  0
CLASS
  1
ACME_DOCUMENT
  2
AcMeDbDoc
  3
AcMeServices
 90
     1024
280
     0
281
     0
  0
CLASS
  1
AMGSETTINGSOBJ
  2
AmgSettingsObj
  3
"AcadM|Product Description: AutoCAD Mechanical|Company: Autodesk, Inc."
 90
     1024
280
     0
281
     0
  0
CLASS
  1
ACMESCOPE
  2
AcMeScope
  3
AcMeServices
 90
     1024
280
     0
281
     0
  0
CLASS
  1
ACMECOMMANDHISTORY
  2
AcMeCommandHistory
  3
AcMeServices
 90
     1024
280
     0
281
     0
  0
CLASS
  1
ACIMSYSVARMAN
  2
AcImSysVarManager
  3
AcMeServices
 90
     1024
280
     0
281
     0
  0
CLASS
  1
ACIMREALSYSVAR
  2
AcImRealSysVar
  3
AcMeServices
 90
     1024
280
     0
281
     0
  0
CLASS
  1
ACIMINTSYSVAR
  2
AcImIntSysVar
  3
AcMeServices
 90
     1024
280
     0
281
     0
  0
CLASS
  1
ACMEDRAWINGMAN
  2
AcMeDrawingMan
  3
AcMeServices
 90
     1024
280
     0
281
     0
  0
CLASS
  1
ACMEVIEW
  2
AcMeView
  3
AcMeServices
 90
     1024
280
     0
281
     0
  0
CLASS
  1
ACDBENTITYCACHE
  2
AcMeEntityCache
  3
AcMeServices
 90
     1024
280
     0
281
     0
  0
CLASS
  1
GSMANAGER
  2
AcMeGSManager
  3
AcMeServices
 90
    33792
280
     0
281
     0
  0
CLASS
  1
AMDTINTERNALREACTOR
  2
AmdtInternalReactor
  3
AcMeServices
 90
     1024
280
     0
281
     0
  0
CLASS
  1
ACMESTATEMGR
  2
AcMeStateMgr
  3
AcMeServices
 90
     1024
280
     0
281
     0
  0
CLASS
  1
ACGREFMASTER
  2
AcGrefMaster
  3
AcAttribServices
 90
     1024
280
     0
281
     0
  0
CLASS
  1
ACME_DATABASE
  2
AcMeDbDatabase
  3
AcMeServices
 90
     1024
280
     0
281
     0
  0
CLASS
  1
ACRFINSADJUSTERMGR
  2
AcRfInsAdjusterMgr
  3
AcMeServices
 90
     1024
280
     0
281
     0
  0
CLASS
  1
ACGREFACADMASTER
  2
AcGrefacadMaster
  3
AcGrefServices
 90
     1024
280
     0
281
     0
  0
CLASS
  1
AMIMASTER
  2
AmiMaster
  3
AmiServices
 90
     1024
280
     0
281
     0
  0
CLASS
  1
ACMDATADICTIONARY
  2
AcmDataDictionary
  3
"AcmSymBB|Product Description: AutoCAD Mechanical|Company: Autodesk, Inc."
 90
     1024
280
     0
281
     0
  0
CLASS
  1
ACMDATAENTRYBLOCK
  2
AcmDataEntryBlock
  3
AcmSymBB|Product Description: AutoCAD Mechanical|Company: Autodesk, Inc.
 90
    33792
280
     0
281
     0
  0
CLASS
  1
ACIMSTRSYSVAR
  2
AcImStrSysVar
  3
AcMeServices
 90
     1024
280
     0
281
     0
  0
CLASS
  1
ACMSTANDARDISO
  2
AcmStandardISO
  3
"Amdt_StdImp|Product Description: AutoCAD Mechanical|Company: Autodesk, Inc."
 90
    33792
280
     0
281
     0
  0
CLASS
  1
AMGOBJPROPCFG
  2
AmgObjPropCfg
  3
"AmgLay|Product Description: AutoCAD Mechanical|Company: Autodesk, Inc."
 90
     1025
280
     0
281
     0
  0
CLASS
  1
AMDTEDGESTANDARDISO
  2
AmdtEdgeStdISO
  3
"Amdt_StdImp|Product Description: AutoCAD Mechanical|Company: Autodesk, Inc."
 90
    33792
280
     0
281
     0
  0
CLASS
  1
ACMSURFSTANDARDISO
  2
AcmSurfTextStdISO
  3
"Amdt_StdImp|Product Description: AutoCAD Mechanical|Company: Autodesk, Inc."
 90
    33792
280
     0
281
     0
  0
CLASS
  1
ACMFCFSTANDARDISO
  2
AcmFCFStdISO
  3
"Amdt_StdImp|Product Description: AutoCAD Mechanical|Company: Autodesk, Inc."
 90
    33792
280
     0
281
     0
  0
CLASS
  1
ACMWELDSTANDARDISO
  2
AcmWeldingStdISO
  3
"Amdt_StdImp|Product Description: AutoCAD Mechanical|Company: Autodesk, Inc."
 90
    33792
280
     0
281
     0
  0
CLASS
  1
ACMIDSTANDARDISO
  2
AcmIdStdISO
  3
"Amdt_StdImp|Product Description: AutoCAD Mechanical|Company: Autodesk, Inc."
 90
    33792
280
     0
281
     0
  0
CLASS
  1
ACMDATUMSTANDARDISO
  2
AcmDatumStdISO
  3
"Amdt_StdImp|Product Description: AutoCAD Mechanical|Company: Autodesk, Inc."
 90
    33792
280
     0
281
     0
  0
CLASS
  1
ACMBOMSTANDARDISO
  2
AcmBOMStdISO
  3
"Amdt_StdImp|Product Description: AutoCAD Mechanical|Company: Autodesk, Inc."
 90
    33792
280
     0
281
     0
  0
CLASS
  1
ACMDETAILSTANDARDISO
  2
AmdtDetailSymStdISO
  3
"Amdt_StdImp|Product Description: AutoCAD Mechanical|Company: Autodesk, Inc."
 90
    33792
280
     0
281
     0
  0
CLASS
  1
ACMSECTIONSTANDARDISO
  2
AmdtSectionSymStdISO
  3
"Amdt_StdImp|Product Description: AutoCAD Mechanical|Company: Autodesk, Inc."
 90
    33792
280
     0
281
     0
  0
CLASS
  1
ACMCENTERLINESTANDARDISO
  2
AmdtCenterLineStdISO
  3
"Amdt_StdImp|Product Description: AutoCAD Mechanical|Company: Autodesk, Inc."
 90
    33792
280
     0
281
     0
  0
CLASS
  1
ACMNOTESTANDARDISO
  2
AmdtNoteStdISO
  3
"Amdt_StdImp|Product Description: AutoCAD Mechanical|Company: Autodesk, Inc."
 90
    33792
280
     0
281
     0
  0
CLASS
  1
ACAMGLAYSTD
  2
AcAmgLayStd
  3
"AmgLay|Product Description: AutoCAD Mechanical|Company: Autodesk, Inc."
 90
    33792
280
     0
281
     0
  0
CLASS
  1
ACAMGDIMSTD
  2
AcAmgDimStd
  3
"AmgDim|Product Description: AutoCAD Mechanical|Company: Autodesk, Inc."
 90
    33792
280
     0
281
     0
  0
CLASS
  1
ACAMGHOLECHARTSTDISO
  2
AcAmgHoleChartStdISO
  3
AmgDim|Product Description: AutoCAD Mechanical|Company: Autodesk, Inc.
 90
    33792
280
     0
281
     0
  0
CLASS
  1
ACAMGTITLESTD
  2
AcAmgTitleStd
  3
"AmgTitle|Product Description: AutoCAD Mechanical|Company: Autodesk, Inc."
 90
    36863
280
     0
281
     0
  0
CLASS
  1
LAYER_INDEX
  2
AcDbLayerIndex
  3
ObjectDBX Classes
 90
    32768
280
     0
281
     0
  0
CLASS
  1
IDBUFFER
  2
AcDbIdBuffer
  3
ObjectDBX Classes
 90
    32768
280
     0
281
     0
  0
CLASS
  1
DICTIONARYVAR
  2
AcDbDictionaryVar
  3
ObjectDBX Classes
 90
        0
280
     0
281
     0
  0
CLASS
  1
AM_DRAWING_MGR
  2
AcDmDwgMgr
  3
AcMechDwgViewMgmt
 90
     1024
280
     0
281
     0
  0
CLASS
  1
AM_DWG_DOCUMENT
  2
AcDmDwgDocument
  3
AcMechDwgViewMgmt
 90
     1024
280
     0
281
     0
  0
CLASS
  1
AM_DWG_SHEET
  2
AcDmSheet
  3
AcMechDwgViewMgmt
 90
     1024
280
     0
281
     0
  0
CLASS
  1
AM_VIEWDIMPARMAP
  2
AcDmViewDimParMap
  3
AcMechDwgViewMgmt
 90
     1024
280
     0
281
     0
  0
CLASS
  1
AM_DWGMGR_NAME
  2
AcDmDwgMgrName
  3
AcMechDwgViewMgmt
 90
     1024
280
     0
281
     0
  0
CLASS
  1
AMDTMENUSTATEMGR
  2
AmdtMenuStateMgr
  3
McadcomServices
 90
     1024
280
     0
281
     0
  0
CLASS
  1
AMDTMCOMMENUSTATE
  2
AmdtMcomMenuState
  3
McadcomServices
 90
     1024
280
     0
281
     0
  0
CLASS
  1
MAPIAMMOUDLE
  2
MApiAmModule
  3
MApiAmServices
 90
     1024
280
     0
281
     0
  0
CLASS
  1
AMDTADMENUSTATE
  2
AmdtAdMenuState
  3
DesignerServices
 90
     1024
280
     0
281
     0
  0
CLASS
  1
ADAPPL
  2
AcAdAppl
  3
DesignerServices
 90
     1024
280
     0
281
     0
  0
CLASS
  1
DEPMGR
  2
AcAdDepMgr
  3
DesignerServices
 90
     1024
280
     0
281
     0
  0
CLASS
  1
PARAMMGR
  2
AcAdParamMgr
  3
DesignerServices
 90
     1024
280
     0
281
     0
  0
CLASS
  1
PARAMSCOPE
  2
AcAdParamScope
  3
DesignerServices
 90
     1024
280
     0
281
     0
  0
CLASS
  1
NAMEDAPPL
  2
AcAdNamedAppl
  3
DesignerServices
 90
     1024
280
     0
281
     0
  0
CLASS
  1
AMDTDMMENUSTATE
  2
AmdtDmMenuState
  3
AcMechDwgViewMgmt
 90
     1024
280
     0
281
     0
  0
CLASS
  1
AMDTAMMENUSTATE
  2
AmdtAmMenuState
  3
DesignerAssemblies
 90
     1024
280
     0
281
     0
  0
CLASS
  1
ACAMPROJECT
  2
AcAmProject
  3
DesignerAssemblies
 90
     1024
280
     0
281
     0
  0
CLASS
  1
ACAMGRCOMPDEF
  2
AcAmGrCompDef
  3
DesignerAssemblies
 90
     1024
280
     0
281
     0
  0
CLASS
  1
ACCMCONTEXT
  2
AcCmContext
  3
DesignerAssemblies
 90
    33792
280
     0
281
     0
  0
CLASS
  1
ACAMCOMPDEF
  2
AcAmCompDef
  3
DesignerAssemblies
 90
     1024
280
     0
281
     0
  0
CLASS
  1
ACAMCOMPDEFMGR
  2
AcAmCompDefMgr
  3
DesignerAssemblies
 90
     1024
280
     0
281
     0
  0
CLASS
  1
AMCONTEXTMGR
  2
AcAmContextMgr
  3
DesignerAssemblies
 90
     1024
280
     0
281
     0
  0
CLASS
  1
ACAMCONTEXTMODELER
  2
AcAmContextModeler
  3
DesignerAssemblies
 90
     1024
280
     0
281
     0
  0
CLASS
  1
ACMTHREADLINESTANDARDISO
  2
AmdtThreadLineStdISO
  3
"Amdt_StdImp|Product Description: AutoCAD Mechanical|Company: Autodesk, Inc."
 90
    33792
280
     0
281
     0
  0
CLASS
  1
CATALOGSTATE
  2
AcAmCatalogState
  3
DesignerAssemblies
 90
     1024
280
     0
281
     0
  0
CLASS
  1
ACAMGRCOMPDEFSET
  2
AcAmGrCompDefSet
  3
DesignerAssemblies
 90
     1024
280
     0
281
     0
  0
CLASS
  1
AMDTBROWSERDBTAB
  2
AmdtBrowserDbTab
  3
McadcomServices
 90
     1024
280
     0
281
     0
  0
CLASS
  1
CBROWSERAPPOBJECT
  2
CBrowserAppObject
  3
McadcomServices
 90
     1024
280
     0
281
     0
  0
CLASS
  1
DM_PLACEHOLDER
  2
AcDmSelsetPlaceholder
  3
AcMechDwgViewMgmt
 90
     1024
280
     0
281
     0
  0
CLASS
  1
TABLESTYLE
  2
AcDbTableStyle
  3
ObjectDBX Classes
 90
     4095
280
     0
281
     0
  0
CLASS
  1
VAACXREFPANELOBJECT
  2
VaAcXREFPanelObject
  3
VAAC_ADDIN
 90
    32768
280
     0
281
     0
  0
CLASS
  1
VAACIMAGEINVENTORY
  2
VaAcImageInventory
  3
VAAC_ADDIN
 90
    32768
280
     0
281
     0
  0
CLASS
  1
AMDTNOTETEMPLATEDB
  2
AmdtNoteTemplateDB
  3
AcmSymBB|Product Description: AutoCAD Mechanical|Company: Autodesk, Inc.
 90
    33792
280
     0
281
     0
  0
CLASS
  1
ACAMGFILTERDAT
  2
AcAmgFilterDat
  3
"AcadM|Product Description: AutoCAD Mechanical|Company: Autodesk, Inc."
 90
    33792
280
     0
281
     0
  0
CLASS
  1
ACMBOM
  2
AcmBom
  3
"AcmSymBB|Product Description: AutoCAD Mechanical|Company: Autodesk, Inc."
 90
    33792
280
     0
281
     0
  0
CLASS
  1
AMDTFORMULAUPDATEDISPATCHER
  2
AmdtFormulaUpdateDispatcher
  3
AcMeServices
 90
    33792
280
     0
281
     0
  0
CLASS
  1
ACMSTANDARDDIN
  2
AcmStandardDIN
  3
"Amdt_StdImp|Product Description: AutoCAD Mechanical|Company: Autodesk, Inc."
 90
    33792
280
     0
281
     0
  0
CLASS
  1
AMDTEDGESTANDARDDIN13715
  2
AmdtEdgeStdDIN13715
  3
"Amdt_StdImp|Product Description: AutoCAD Mechanical|Company: Autodesk, Inc."
 90
    33792
280
     0
281
     0
  0
CLASS
  1
ACMSURFSTANDARDDIN
  2
AcmSurfTextStdDIN
  3
"Amdt_StdImp|Product Description: AutoCAD Mechanical|Company: Autodesk, Inc."
 90
    33792
280
     0
281
     0
  0
CLASS
  1
ACMFCFSTANDARDDIN
  2
AcmFCFStdDIN
  3
"Amdt_StdImp|Product Description: AutoCAD Mechanical|Company: Autodesk, Inc."
 90
    33792
280
     0
281
     0
  0
CLASS
  1
ACMWELDSTANDARDDIN
  2
AcmWeldingStdDIN
  3
"Amdt_StdImp|Product Description: AutoCAD Mechanical|Company: Autodesk, Inc."
 90
    33792
280
     0
281
     0
  0
CLASS
  1
ACMIDSTANDARDDIN
  2
AcmIdStdDIN
  3
"Amdt_StdImp|Product Description: AutoCAD Mechanical|Company: Autodesk, Inc."
 90
    33792
280
     0
281
     0
  0
CLASS
  1
ACMDATUMSTANDARDDIN
  2
AcmDatumStdDIN
  3
"Amdt_StdImp|Product Description: AutoCAD Mechanical|Company: Autodesk, Inc."
 90
    33792
280
     0
281
     0
  0
CLASS
  1
ACMBOMSTANDARDDIN
  2
AcmBOMStdDIN
  3
"Amdt_StdImp|Product Description: AutoCAD Mechanical|Company: Autodesk, Inc."
 90
    33792
280
     0
281
     0
  0
CLASS
  1
ACMDETAILSTANDARDDIN
  2
AmdtDetailSymStdDIN
  3
"Amdt_StdImp|Product Description: AutoCAD Mechanical|Company: Autodesk, Inc."
 90
    33792
280
     0
281
     0
  0
CLASS
  1
ACMSECTIONSTANDARDDIN
  2
AmdtSectionSymStdDIN
  3
"Amdt_StdImp|Product Description: AutoCAD Mechanical|Company: Autodesk, Inc."
 90
    33792
280
     0
281
     0
  0
CLASS
  1
ACMCENTERLINESTANDARDDIN
  2
AmdtCenterLineStdDIN
  3
"Amdt_StdImp|Product Description: AutoCAD Mechanical|Company: Autodesk, Inc."
 90
    33792
280
     0
281
     0
  0
CLASS
  1
ACMTHREADLINESTANDARDDIN
  2
AmdtThreadLineStdDIN
  3
"Amdt_StdImp|Product Description: AutoCAD Mechanical|Company: Autodesk, Inc."
 90
    33792
280
     0
281
     0
  0
CLASS
  1
ACMNOTESTANDARDDIN
  2
AmdtNoteStdDIN
  3
"Amdt_StdImp|Product Description: AutoCAD Mechanical|Company: Autodesk, Inc."
 90
    33792
280
     0
281
     0
  0
CLASS
  1
ACAMGHOLECHARTSTDDIN
  2
AcAmgHoleChartStdDIN
  3
AmgDim|Product Description: AutoCAD Mechanical|Company: Autodesk, Inc.
 90
    33792
280
     0
281
     0
  0
CLASS
  1
ACRFATTGENMGR
  2
AcRfAttGeneralMgr
  3
AcAttribServices
 90
    33792
280
     0
281
     0
  0
CLASS
  1
SORTENTSTABLE
  2
AcDbSortentsTable
  3
ObjectDBX Classes
 90
        0
280
     0
281
     0
  0
CLASS
  1
DIMASSOC
  2
AcDbDimAssoc
  3
"AcDbDimAssoc|Product Desc:     AcDim ARX App For Dimension|Company:          Autodesk, Inc.|WEB Address:      www.autodesk.com"
 90
        0
280
     0
281
     0
  0
CLASS
  1
AC_AM_MVD_DEP_MGR
  2
AcAmMVDdepMgr
  3
DesignerAssemblies
 90
    33792
280
     0
281
     0
  0
CLASS
  1
AC_AM_MASTER_VIEW_DEF
  2
AcAmMasterViewDef
  3
DesignerAssemblies
 90
    33792
280
     0
281
     0
  0
CLASS
  1
AC_AM_DIRTY_NODES
  2
AcAmDirtyNodes
  3
DesignerAssemblies
 90
    33792
280
     0
281
     0
  0
CLASS
  1
AC_AM_MAPPER_CACHE
  2
AcAmMapperCache
  3
DesignerAssemblies
 90
    33792
280
     0
281
     0
  0
CLASS
  1
ACAMMVDBACKUPOBJECT
  2
AcAmMVDBackupObject
  3
DesignerAssemblies
 90
    33792
280
     0
281
     0
  0
CLASS
  1
AC_AM_2D_XREF_MGR
  2
AcAmXrefMgr2d
  3
DesignerAssemblies
 90
    33792
280
     0
281
     0
  0
CLASS
  1
AC_AM_HIDE_SITUATION
  2
AcAmHideSituation
  3
DesignerAssemblies
 90
    33792
280
     0
281
     0
  0
CLASS
  1
ACAMWBLOCKTEMPENTS
  2
AcAmStructInOutTempObjsHolder
  3
DesignerAssemblies
 90
    33792
280
     0
281
     0
  0
CLASS
  1
STDPART2D
  2
AmgStdPart
  3
AmgStdPart|Product Description: AutoCAD Mechanical|Company: Autodesk, Inc.
 90
    36863
280
     0
281
     1
  0
CLASS
  1
ACMDATAENTRYPART
  2
AcmDataEntryPart
  3
AcmSymBB|Product Description: AutoCAD Mechanical|Company: Autodesk, Inc.
 90
    33792
280
     0
281
     0
  0
CLASS
  1
ACMPARTREF
  2
AcmPartRef
  3
"AcmSymBB|Product Description: AutoCAD Mechanical|Company: Autodesk, Inc."
 90
    36863
280
     0
281
     1
  0
CLASS
  1
ACDBSTDPARTRES_LINE
  2
AcDbStdPartRes_Line
  3
AmgStdPart|Product Description: AutoCAD Mechanical|Company: Autodesk, Inc.
 90
    33792
280
     0
281
     0
  0
CLASS
  1
ACAD_EVALUATION_GRAPH
  2
AcDbEvalGraph
  3
ObjectDBX Classes
 90
    33921
280
     0
281
     0
  0
CLASS
  1
ACAECUSTOBJ
  2
AcAeEditorObj
  3
AcAeEditorObj
 90
    33792
280
     0
281
     0
  0
CLASS
  1
ACDB_DYNAMICBLOCKPURGEPREVENTER_VERSION
  2
AcDbDynamicBlockPurgePreventer
  3
ObjectDBX Classes
 90
    33921
280
     0
281
     0
  0
CLASS
  1
MATERIAL
  2
AcDbMaterial
  3
ObjectDBX Classes
 90
     1153
280
     0
281
     0
  0
CLASS
  1
VISUALSTYLE
  2
AcDbVisualStyle
  3
ObjectDBX Classes
 90
     4095
280
     0
281
     0
  0
CLASS
  1
SCALE
  2
AcDbScale
  3
ObjectDBX Classes
 90
     1153
280
     0
281
     0
  0
CLASS
  1
MLEADERSTYLE
  2
AcDbMLeaderStyle
  3
ACDB_MLEADERSTYLE_CLASS
 90
     4095
280
     0
281
     0
  0
CLASS
  1
ACMTAPERSTANDARDDIN
  2
AcmTaperStdDIN
  3
"Amdt_StdImp|Product Description: AutoCAD Mechanical|Company: Autodesk, Inc."
 90
    33792
280
     0
281
     0
  0
CLASS
  1
ACMANOOTATIONVIEWSTANDARDDIN
  2
AmdtAnViewStdDIN
  3
"Amdt_StdImp|Product Description: AutoCAD Mechanical|Company: Autodesk, Inc."
 90
    33792
280
     0
281
     0
  0
CLASS
  1
CAMSSTRUCTBTNSTATE
  2
StructBtnState
  3
DesignerAssemblies
 90
    33792
280
     0
281
     0
  0
CLASS
  1
CELLSTYLEMAP
  2
AcDbCellStyleMap
  3
ObjectDBX Classes
 90
     1152
280
     0
281
     0
  0
CLASS
  1
ACMSTANDARDANSI
  2
AcmStandardANSI
  3
"Amdt_StdImp|Product Description: AutoCAD Mechanical|Company: Autodesk, Inc."
 90
    33792
280
     0
281
     0
  0
CLASS
  1
ACMSURFSTANDARDANSI
  2
AcmSurfTextStdANSI
  3
"Amdt_StdImp|Product Description: AutoCAD Mechanical|Company: Autodesk, Inc."
 90
    33792
280
     0
281
     0
  0
CLASS
  1
ACMFCFSTANDARDANSI
  2
AcmFCFStdANSI
  3
"Amdt_StdImp|Product Description: AutoCAD Mechanical|Company: Autodesk, Inc."
 90
    33792
280
     0
281
     0
  0
CLASS
  1
ACMWELDSTANDARDANSI
  2
AcmWeldingStdANSI
  3
"Amdt_StdImp|Product Description: AutoCAD Mechanical|Company: Autodesk, Inc."
 90
    33792
280
     0
281
     0
  0
CLASS
  1
ACMIDSTANDARDANSI
  2
AcmIdStdANSI
  3
"Amdt_StdImp|Product Description: AutoCAD Mechanical|Company: Autodesk, Inc."
 90
    33792
280
     0
281
     0
  0
CLASS
  1
ACMDATUMSTANDARDANSI
  2
AcmDatumStdANSI
  3
"Amdt_StdImp|Product Description: AutoCAD Mechanical|Company: Autodesk, Inc."
 90
    33792
280
     0
281
     0
  0
CLASS
  1
ACMBOMSTANDARDANSI
  2
AcmBOMStdANSI
  3
"Amdt_StdImp|Product Description: AutoCAD Mechanical|Company: Autodesk, Inc."
 90
    33792
280
     0
281
     0
  0
CLASS
  1
ACMDETAILSTANDARDANSI
  2
AmdtDetailSymStdANSI
  3
"Amdt_StdImp|Product Description: AutoCAD Mechanical|Company: Autodesk, Inc."
 90
    33792
280
     0
281
     0
  0
CLASS
  1
ACMSECTIONSTANDARDANSI
  2
AmdtSectionSymStdANSI
  3
"Amdt_StdImp|Product Description: AutoCAD Mechanical|Company: Autodesk, Inc."
 90
    33792
280
     0
281
     0
  0
CLASS
  1
ACMCENTERLINESTANDARDANSI
  2
AmdtCenterLineStdANSI
  3
"Amdt_StdImp|Product Description: AutoCAD Mechanical|Company: Autodesk, Inc."
 90
    33792
280
     0
281
     0
  0
CLASS
  1
ACMTHREADLINESTANDARDANSI
  2
AmdtThreadLineStdANSI
  3
"Amdt_StdImp|Product Description: AutoCAD Mechanical|Company: Autodesk, Inc."
 90
    33792
280
     0
281
     0
  0
CLASS
  1
ACMNOTESTANDARDANSI
  2
AmdtNoteStdANSI
  3
"Amdt_StdImp|Product Description: AutoCAD Mechanical|Company: Autodesk, Inc."
 90
    33792
280
     0
281
     0
  0
CLASS
  1
ACMTAPERSTANDARDANSI
  2
AcmTaperStdANSI
  3
"Amdt_StdImp|Product Description: AutoCAD Mechanical|Company: Autodesk, Inc."
 90
    33792
280
     0
281
     0
  0
CLASS
  1
ACMANOOTATIONVIEWSTANDARDANSI
  2
AmdtAnViewStdANSI
  3
"Amdt_StdImp|Product Description: AutoCAD Mechanical|Company: Autodesk, Inc."
 90
    33792
280
     0
281
     0
  0
CLASS
  1
ACAMGHOLECHARTSTDANSI
  2
AcAmgHoleChartStdANSI
  3
AmgDim|Product Description: AutoCAD Mechanical|Company: Autodesk, Inc.
 90
    33792
280
     0
281
     0
  0
ENDSEC
  0
SECTION
  2
TABLES
  0
TABLE
  2
VPORT
  5
8
330
0
100
AcDbSymbolTable
 70
     1
  0
VPORT
  5
1A193
330
8
100
AcDbSymbolTableRecord
100
AcDbViewportTableRecord
  2
*Active
 70
     0
 10
0.0
 20
0.0
 11
1.0
 21
1.0
 12
22666.14816934583
 22
932.0046943849117
 13
0.0
 23
0.0
 14
2.5
 24
2.5
 15
10.0
 25
10.0
 16
0.0
 26
0.0
 36
1.0
 17
0.0
 27
0.0
 37
0.0
 40
636.4012009560982
 41
1.513838748495788
 42
50.0
 43
0.0
 44
0.0
 50
0.0
 51
0.0
 71
     0
 72
   100
 73
     1
 74
     3
 75
     0
 76
     0
 77
     0
 78
     0
281
     0
 65
     0
110
0.0
120
0.0
130
0.0
111
1.0
121
0.0
131
0.0
112
0.0
122
1.0
132
0.0
 79
     0
146
0.0
  0
ENDTAB
  0
TABLE
  2
LTYPE
  5
5
330
0
100
AcDbSymbolTable
 70
    25
  0
LTYPE
  5
14
330
5
100
AcDbSymbolTableRecord
100
AcDbLinetypeTableRecord
  2
ByBlock
 70
     0
  3

 72
    65
 73
     0
 40
0.0
  0
LTYPE
  5
15
330
5
100
AcDbSymbolTableRecord
100
AcDbLinetypeTableRecord
  2
ByLayer
 70
     0
  3

 72
    65
 73
     0
 40
0.0
  0
LTYPE
  5
16
330
5
100
AcDbSymbolTableRecord
100
AcDbLinetypeTableRecord
  2
Continuous
 70
     0
  3
Solid line
 72
    65
 73
     0
 40
0.0
  0
LTYPE
  5
67
330
5
100
AcDbSymbolTableRecord
100
AcDbLinetypeTableRecord
  2
Amconstr
 70
     0
  3
_______________________
 72
    65
 73
     2
 40
9999.0
 49
9999.0
 74
     0
 49
0.0
 74
     0
  0
LTYPE
  5
6C
330
5
100
AcDbSymbolTableRecord
100
AcDbLinetypeTableRecord
  2
Amzigzag
 70
     0
  3
/\/-/\/-/\/-/\/-/\/-/\/
 72
    65
 73
     2
 40
11.0001
 49
0.0001
 74
     4
 75
   136
340
22C
 46
0.04
 50
0.0
 44
0.0
 45
0.0
 49
-11.0
 74
     0
  0
LTYPE
  5
7E
330
5
100
AcDbSymbolTableRecord
100
AcDbLinetypeTableRecord
  2
CENTER
 70
     0
  3
__ . __
 72
    65
 73
     4
 40
7.0
 49
4.0
 74
     0
 49
-1.0
 74
     0
 49
1.0
 74
     0
 49
-1.0
 74
     0
  0
LTYPE
  5
D8
330
5
100
AcDbSymbolTableRecord
100
AcDbLinetypeTableRecord
  2
HIDDEN
 70
     0
  3
Hidden __ __ __ __ __ __ __ __ __ __ __ __ __ _
 72
    65
 73
     2
 40
9.524999999999996
 49
6.349999999999997
 74
     0
 49
-3.174999999999998
 74
     0
  0
LTYPE
  5
D9
330
5
100
AcDbSymbolTableRecord
100
AcDbLinetypeTableRecord
  2
PHANTOM2
 70
     0
  3
Phantom (.5x) ___ _ _ ___ _ _ ___ _ _ ___ _ _
 72
    65
 73
     6
 40
31.75
 49
15.875
 74
     0
 49
-3.174999999999998
 74
     0
 49
3.174999999999998
 74
     0
 49
-3.174999999999998
 74
     0
 49
3.174999999999998
 74
     0
 49
-3.174999999999998
 74
     0
  0
LTYPE
  5
2E3
330
5
100
AcDbSymbolTableRecord
100
AcDbLinetypeTableRecord
  2
ACDINWELD
 70
     0
  3
_ _ _ _ _
 72
    65
 73
     2
 40
2.0
 49
2.0
 74
     0
 49
-1.0
 74
     0
  0
LTYPE
  5
2E4
330
5
100
AcDbSymbolTableRecord
100
AcDbLinetypeTableRecord
  2
ACDINTGB
 70
     0
  3
__ . . __ . .
 72
    65
 73
     6
 40
9.0
 49
4.0
 74
     0
 49
-1.0
 74
     0
 49
1.0
 74
     0
 49
-1.0
 74
     0
 49
1.0
 74
     0
 49
-1.0
 74
     0
  0
LTYPE
  5
2E5
330
5
100
AcDbSymbolTableRecord
100
AcDbLinetypeTableRecord
  2
ACDINTGL
 70
     0
  3
_ _ _ _ _
 72
    65
 73
     2
 40
3.0
 49
2.0
 74
     0
 49
-1.0
 74
     0
  0
LTYPE
  5
31F
330
5
100
AcDbSymbolTableRecord
100
AcDbLinetypeTableRecord
  2
AM_DIN_F_W050
 70
     0
  3
__ __ __ __ __ __ __ __ __ __ __ __ __ __ __
 72
    65
 73
     2
 40
6.25
 49
4.75
 74
     0
 49
-1.5
 74
     0
  0
LTYPE
  5
320
330
5
100
AcDbSymbolTableRecord
100
AcDbLinetypeTableRecord
  2
AM_DIN_G_W050
 70
     0
  3
____ . ____ . ____ . ____ . ____ . ____ . ____
 72
    65
 73
     4
 40
13.75
 49
9.75
 74
     0
 49
-1.5
 74
     0
 49
1.0
 74
     0
 49
-1.5
 74
     0
  0
LTYPE
  5
321
330
5
100
AcDbSymbolTableRecord
100
AcDbLinetypeTableRecord
  2
AM_DIN_K_W050
 70
     0
  3
_____ . . _____ . . _____ . . ____ .. ____
 72
    65
 73
     6
 40
16.25
 49
9.75
 74
     0
 49
-1.5
 74
     0
 49
1.0
 74
     0
 49
-1.5
 74
     0
 49
1.0
 74
     0
 49
-1.5
 74
     0
  0
LTYPE
  5
322
330
5
100
AcDbSymbolTableRecord
100
AcDbLinetypeTableRecord
  2
AM_DIN_G_W050x2
 70
     0
  3
__ . __ . __ . __ . __ . __
 72
    65
 73
     4
 40
6.875
 49
4.75
 74
     0
 49
-0.875
 74
     0
 49
0.375
 74
     0
 49
-0.875
 74
     0
  0
LTYPE
  5
323
330
5
100
AcDbSymbolTableRecord
100
AcDbLinetypeTableRecord
  2
AM_DIN_F_W050x2
 70
     0
  3
 _ _ _ _ _ _ _ _ _ _ _ _
 72
    65
 73
     2
 40
3.125
 49
2.25
 74
     0
 49
-0.875
 74
     0
  0
LTYPE
  5
1AA02
330
5
100
AcDbSymbolTableRecord
100
AcDbLinetypeTableRecord
  2
CENTER2
 70
     0
  3
Center (.5x) ___ _ ___ _ ___ _ ___ _ ___ _ ___
 72
    65
 73
     4
 40
1.125
 49
0.75
 74
     0
 49
-0.125
 74
     0
 49
0.125
 74
     0
 49
-0.125
 74
     0
  0
LTYPE
  5
1AA03
330
5
100
AcDbSymbolTableRecord
100
AcDbLinetypeTableRecord
  2
HIDDEN2
 70
     0
  3
Hidden (.5x) _ _ _ _ _ _ _ _ _ _ _ _ _ _ _ _ _
 72
    65
 73
     2
 40
0.1875
 49
0.125
 74
     0
 49
-0.0625
 74
     0
  0
LTYPE
  5
1AA04
330
5
100
AcDbSymbolTableRecord
100
AcDbLinetypeTableRecord
  2
Amzigzag2
 70
     0
  3
/\/-/\/-/\/-/\/-/\/-/\/
 72
    65
 73
     2
 40
0.4401
 49
0.0001
 74
     4
 75
   136
340
22C
 46
0.0016
 50
0.0
 44
0.0
 45
0.0
 49
-0.4400000000000002
 74
     0
  0
LTYPE
  5
1AA05
330
5
100
AcDbSymbolTableRecord
100
AcDbLinetypeTableRecord
  2
ACANSTGB
 70
     0
  3
__ . . __ . .
 72
    65
 73
     6
 40
0.35433070866
 49
0.15748031496
 74
     0
 49
-0.03937007874
 74
     0
 49
0.03937007874
 74
     0
 49
-0.03937007874
 74
     0
 49
0.03937007874
 74
     0
 49
-0.03937007874
 74
     0
  0
LTYPE
  5
1AA06
330
5
100
AcDbSymbolTableRecord
100
AcDbLinetypeTableRecord
  2
ACANSTGL
 70
     0
  3
_ _ _ _ _
 72
    65
 73
     2
 40
0.11811023622
 49
0.07874015748
 74
     0
 49
-0.03937007874
 74
     0
  0
LTYPE
  5
1AE26
330
5
100
AcDbSymbolTableRecord
100
AcDbLinetypeTableRecord
  2
MITTE
 70
     0
  3
Mitte ____ _ ____ _ ____ _ ____
 72
    65
 73
     4
 40
50.8
 49
31.75
 74
     0
 49
-6.349999999999998
 74
     0
 49
6.349999999999998
 74
     0
 49
-6.349999999999998
 74
     0
  0
LTYPE
  5
1B692
330
5
100
AcDbSymbolTableRecord
100
AcDbLinetypeTableRecord
  2
AM_ISO02W050
 70
     0
  3
__ __ __ __ __ __ __ __ __ __ __ __ __ __ __
 72
    65
 73
     2
 40
7.5
 49
6.0
 74
     0
 49
-1.5
 74
     0
  0
LTYPE
  5
1B693
330
5
100
AcDbSymbolTableRecord
100
AcDbLinetypeTableRecord
  2
AM_ISO08W050
 70
     0
  3
____ . ____ . ____ . ____ . ____ . ____ . ____
 72
    65
 73
     4
 40
18.0
 49
12.0
 74
     0
 49
-1.5
 74
     0
 49
3.0
 74
     0
 49
-1.5
 74
     0
  0
LTYPE
  5
1B694
330
5
100
AcDbSymbolTableRecord
100
AcDbLinetypeTableRecord
  2
AM_ISO09W050
 70
     0
  3
_____ . . _____ . . _____ . . ____ .. ____
 72
    65
 73
     6
 40
22.5
 49
12.0
 74
     0
 49
-1.5
 74
     0
 49
3.0
 74
     0
 49
-1.5
 74
     0
 49
3.0
 74
     0
 49
-1.5
 74
     0
  0
LTYPE
  5
1B695
330
5
100
AcDbSymbolTableRecord
100
AcDbLinetypeTableRecord
  2
AM_ISO08W050x2
 70
     0
  3
__ . __ . __ . __ . __ . __
 72
    65
 73
     4
 40
9.0
 49
6.0
 74
     0
 49
-0.75
 74
     0
 49
1.5
 74
     0
 49
-0.75
 74
     0
  0
LTYPE
  5
1B696
330
5
100
AcDbSymbolTableRecord
100
AcDbLinetypeTableRecord
  2
AM_ISO02W050x2
 70
     0
  3
 _ _ _ _ _ _ _ _ _ _ _ _
 72
    65
 73
     2
 40
3.75
 49
3.0
 74
     0
 49
-0.75
 74
     0
  0
ENDTAB
  0
TABLE
  2
LAYER
  5
2
102
{ACAD_XDICTIONARY
360
5E1
102
}
330
0
100
AcDbSymbolTable
 70
     6
  0
LAYER
  5
10
102
{ACAD_XDICTIONARY
360
1A4F2
102
}
330
2
100
AcDbSymbolTableRecord
100
AcDbLayerTableRecord
  2
0
 70
     0
 62
     7
  6
Continuous
370
    -3
390
F
  0
LAYER
  5
1080A
102
{ACAD_XDICTIONARY
360
1A4F6
102
}
330
2
100
AcDbSymbolTableRecord
100
AcDbLayerTableRecord
  2
AM_5
 70
     0
 62
     3
  6
Continuous
370
    25
390
F
1001
AcAecLayerStandard
1000

1000

  0
LAYER
  5
1081A
330
2
100
AcDbSymbolTableRecord
100
AcDbLayerTableRecord
  2
Defpoints
 70
     0
 62
     7
  6
Continuous
290
     0
370
    -3
390
F
  0
LAYER
  5
1A8AE
102
{ACAD_XDICTIONARY
360
1A8AF
102
}
330
2
100
AcDbSymbolTableRecord
100
AcDbLayerTableRecord
  2
anbauteile dünn
 70
     0
 62
     1
  6
Continuous
370
    25
390
F
1001
AcAecLayerStandard
1000

1000

  0
LAYER
  5
1AA08
330
2
100
AcDbSymbolTableRecord
100
AcDbLayerTableRecord
  2
AM_0
 70
     0
 62
     7
  6
Continuous
370
    30
390
F
1001
AcAecLayerStandard
1000

1000

  0
LAYER
  5
1AE27
102
{ACAD_XDICTIONARY
360
1AE28
102
}
330
2
100
AcDbSymbolTableRecord
100
AcDbLayerTableRecord
  2
AM_7
 70
     0
 62
     4
  6
MITTE
370
    -3
390
F
  0
ENDTAB
  0
TABLE
  2
STYLE
  5
3
330
0
100
AcDbSymbolTable
 70
     5
  0
STYLE
  5
11
330
3
100
AcDbSymbolTableRecord
100
AcDbTextStyleTableRecord
  2
STANDARD
 70
     0
 40
0.0
 41
1.0
 50
0.0
 71
     0
 42
2.5
  3
ARIAL.TTF
  4

1001
ACAD
1000
Arial
1071
       34
  0
STYLE
  5
22C
330
3
100
AcDbSymbolTableRecord
100
AcDbTextStyleTableRecord
  2

 70
     1
 40
0.0
 41
1.0
 50
0.0
 71
     0
 42
2.5
  3
genltshp.shx
  4

  0
STYLE
  5
2D5
330
3
100
AcDbSymbolTableRecord
100
AcDbTextStyleTableRecord
  2
ACDINTS
 70
     0
 40
1.0
 41
1.0
 50
0.0
 71
     0
 42
2.5
  3
isocp.shx
  4

  0
STYLE
  5
2E2
330
3
100
AcDbSymbolTableRecord
100
AcDbTextStyleTableRecord
  2
ACDINGDT
 70
     0
 40
0.0
 41
1.0
 50
0.0
 71
     0
 42
2.5
  3
AMGDT
  4

  0
STYLE
  5
1AA09
330
3
100
AcDbSymbolTableRecord
100
AcDbTextStyleTableRecord
  2
ACANSGDT
 70
     0
 40
0.0
 41
1.0
 50
0.0
 71
     0
 42
0.2
  3
amgdt.shx
  4

  0
ENDTAB
  0
TABLE
  2
VIEW
  5
6
330
0
100
AcDbSymbolTable
 70
     0
  0
ENDTAB
  0
TABLE
  2
UCS
  5
7
330
0
100
AcDbSymbolTable
 70
     0
  0
ENDTAB
  0
TABLE
  2
APPID
  5
9
330
0
100
AcDbSymbolTable
 70
    76
  0
APPID
  5
12
330
9
100
AcDbSymbolTableRecord
100
AcDbRegAppTableRecord
  2
ACAD
 70
     0
  0
APPID
  5
46
330
9
100
AcDbSymbolTableRecord
100
AcDbRegAppTableRecord
  2
MCAD_NO_VIS
 70
     0
  0
APPID
  5
47
330
9
100
AcDbSymbolTableRecord
100
AcDbRegAppTableRecord
  2
ACAD_TEMP_GRAPHIC
 70
     0
  0
APPID
  5
58
330
9
100
AcDbSymbolTableRecord
100
AcDbRegAppTableRecord
  2
ACATTRIBSERVICES
 70
     0
  0
APPID
  5
EE
330
9
100
AcDbSymbolTableRecord
100
AcDbRegAppTableRecord
  2
AD_DRAW
 70
     0
  0
APPID
  5
10C
330
9
100
AcDbSymbolTableRecord
100
AcDbRegAppTableRecord
  2
DESIGNERASSEMBLIES
 70
     0
  0
APPID
  5
111
330
9
100
AcDbSymbolTableRecord
100
AcDbRegAppTableRecord
  2
ACADM_DIM_EDIT
 70
     0
  0
APPID
  5
112
330
9
100
AcDbSymbolTableRecord
100
AcDbRegAppTableRecord
  2
AMDT_DM_ADJ
 70
     0
  0
APPID
  5
1A3
330
9
100
AcDbSymbolTableRecord
100
AcDbRegAppTableRecord
  2
ACAD_DSTYLE_DIMARC_LENGTH_SYMBOL
 70
     0
  0
APPID
  5
1A4
330
9
100
AcDbSymbolTableRecord
100
AcDbRegAppTableRecord
  2
ACAD_DSTYLE_DIMJOGGED_JOGANGLE_SYMBOL
 70
     0
  0
APPID
  5
5D4
330
9
100
AcDbSymbolTableRecord
100
AcDbRegAppTableRecord
  2
ACAD_PSEXT
 70
     0
  0
APPID
  5
5D5
330
9
100
AcDbSymbolTableRecord
100
AcDbRegAppTableRecord
  2
GENIUS_GENOENT_13
 70
     0
  0
APPID
  5
5D6
330
9
100
AcDbSymbolTableRecord
100
AcDbRegAppTableRecord
  2
GENIUS_VERSION2
 70
     0
  0
APPID
  5
5D7
330
9
100
AcDbSymbolTableRecord
100
AcDbRegAppTableRecord
  2
GENIUS_GENREC_14
 70
     0
  0
APPID
  5
5D8
330
9
100
AcDbSymbolTableRecord
100
AcDbRegAppTableRecord
  2
GENIUS_GENODEF_13
 70
     0
  0
APPID
  5
5D9
330
9
100
AcDbSymbolTableRecord
100
AcDbRegAppTableRecord
  2
GENIUS_GENOBJ-N-REC_13
 70
     0
  0
APPID
  5
5DA
330
9
100
AcDbSymbolTableRecord
100
AcDbRegAppTableRecord
  2
GENIUS_GENTRA_14
 70
     0
  0
APPID
  5
5DB
330
9
100
AcDbSymbolTableRecord
100
AcDbRegAppTableRecord
  2
GENIUS_GENOBJ-N-TIT_13
 70
     0
  0
APPID
  5
5DC
330
9
100
AcDbSymbolTableRecord
100
AcDbRegAppTableRecord
  2
GENIUS_GENTITLE_13
 70
     0
  0
APPID
  5
5DD
330
9
100
AcDbSymbolTableRecord
100
AcDbRegAppTableRecord
  2
GENIUS_GENOREF_13
 70
     0
  0
APPID
  5
5DE
330
9
100
AcDbSymbolTableRecord
100
AcDbRegAppTableRecord
  2
GENIUS_GENOLIS_13
 70
     0
  0
APPID
  5
5DF
330
9
100
AcDbSymbolTableRecord
100
AcDbRegAppTableRecord
  2
GENIUS_GENOBJ-N-SDF_13
 70
     0
  0
APPID
  5
5E0
330
9
100
AcDbSymbolTableRecord
100
AcDbRegAppTableRecord
  2
GENIUS_GENSCREG_15
 70
     0
  0
APPID
  5
2FBB
330
9
100
AcDbSymbolTableRecord
100
AcDbRegAppTableRecord
  2
GENIUS_GENOBJ-N-CRS_13
 70
     0
  0
APPID
  5
2FBC
330
9
100
AcDbSymbolTableRecord
100
AcDbRegAppTableRecord
  2
GENIUS_GENOBJ-N-CEN_13
 70
     0
  0
APPID
  5
2FBD
330
9
100
AcDbSymbolTableRecord
100
AcDbRegAppTableRecord
  2
GENIUS_GENOBJ-N-HTC_13
 70
     0
  0
APPID
  5
2FBE
330
9
100
AcDbSymbolTableRecord
100
AcDbRegAppTableRecord
  2
GENIUS_GENHATCH_13
 70
     0
  0
APPID
  5
2FBF
330
9
100
AcDbSymbolTableRecord
100
AcDbRegAppTableRecord
  2
GENIUS_GENBH_13
 70
     0
  0
APPID
  5
2FC0
330
9
100
AcDbSymbolTableRecord
100
AcDbRegAppTableRecord
  2
GENIUS_GENOBJ-NBEHI-BHF_13
 70
     0
  0
APPID
  5
2FC1
330
9
100
AcDbSymbolTableRecord
100
AcDbRegAppTableRecord
  2
GENIUS_GENOBJ-F-PART_13
 70
     0
  0
APPID
  5
2FC2
330
9
100
AcDbSymbolTableRecord
100
AcDbRegAppTableRecord
  2
GENIUS_GEFSTDP_13
 70
     0
  0
APPID
  5
2FC3
330
9
100
AcDbSymbolTableRecord
100
AcDbRegAppTableRecord
  2
GEVPT
 70
     0
  0
APPID
  5
2FC4
330
9
100
AcDbSymbolTableRecord
100
AcDbRegAppTableRecord
  2
GEVIT
 70
     0
  0
APPID
  5
2FC5
330
9
100
AcDbSymbolTableRecord
100
AcDbRegAppTableRecord
  2
VCC
 70
     0
  0
APPID
  5
2FC6
330
9
100
AcDbSymbolTableRecord
100
AcDbRegAppTableRecord
  2
GENBH
 70
     0
  0
APPID
  5
2FC7
330
9
100
AcDbSymbolTableRecord
100
AcDbRegAppTableRecord
  2
GEVMK
 70
     0
  0
APPID
  5
2FC8
330
9
100
AcDbSymbolTableRecord
100
AcDbRegAppTableRecord
  2
GENIUS_GEFPARTINS_13
 70
     0
  0
APPID
  5
2FC9
330
9
100
AcDbSymbolTableRecord
100
AcDbRegAppTableRecord
  2
GENIUS_GENOBJ-N-CRC_13
 70
     0
  0
APPID
  5
2FCA
330
9
100
AcDbSymbolTableRecord
100
AcDbRegAppTableRecord
  2
GENIUS_GENCRC_14
 70
     0
  0
APPID
  5
2FCB
330
9
100
AcDbSymbolTableRecord
100
AcDbRegAppTableRecord
  2
GEVID978597865
 70
     0
  0
APPID
  5
2FCC
330
9
100
AcDbSymbolTableRecord
100
AcDbRegAppTableRecord
  2
GEVID978597866
 70
     0
  0
APPID
  5
2FCD
330
9
100
AcDbSymbolTableRecord
100
AcDbRegAppTableRecord
  2
GEVID978597868
 70
     0
  0
APPID
  5
2FCE
330
9
100
AcDbSymbolTableRecord
100
AcDbRegAppTableRecord
  2
GENIUS_GENCEN_19
 70
     0
  0
APPID
  5
2FCF
330
9
100
AcDbSymbolTableRecord
100
AcDbRegAppTableRecord
  2
AcAecLayerStandard
 70
     0
  0
APPID
  5
5580
330
9
100
AcDbSymbolTableRecord
100
AcDbRegAppTableRecord
  2
GENIUS_FIRSTVISTXT_14
 70
     0
  0
APPID
  5
5581
330
9
100
AcDbSymbolTableRecord
100
AcDbRegAppTableRecord
  2
GENIUS_SECONDVISTXT_14
 70
     0
  0
APPID
  5
5582
330
9
100
AcDbSymbolTableRecord
100
AcDbRegAppTableRecord
  2
GENIUS_GENOBJ-N-FIL_13
 70
     0
  0
APPID
  5
5583
330
9
100
AcDbSymbolTableRecord
100
AcDbRegAppTableRecord
  2
GENIUS_GEFWELD_13
 70
     0
  0
APPID
  5
5584
330
9
100
AcDbSymbolTableRecord
100
AcDbRegAppTableRecord
  2
GENIUS_GENOBJ-NBEHI-BHB_13
 70
     0
  0
APPID
  5
5585
330
9
100
AcDbSymbolTableRecord
100
AcDbRegAppTableRecord
  2
GENIUS_GENOBJ-F-WELS_13
 70
     0
  0
APPID
  5
5586
330
9
100
AcDbSymbolTableRecord
100
AcDbRegAppTableRecord
  2
AMG_2DHIDE
 70
     0
  0
APPID
  5
5587
330
9
100
AcDbSymbolTableRecord
100
AcDbRegAppTableRecord
  2
GEVID992928022
 70
     0
  0
APPID
  5
5588
330
9
100
AcDbSymbolTableRecord
100
AcDbRegAppTableRecord
  2
GENIUS_GENOBJ-F-DESC_13
 70
     0
  0
APPID
  5
5589
330
9
100
AcDbSymbolTableRecord
100
AcDbRegAppTableRecord
  2
GENIUS_GEFDESC_14
 70
     0
  0
APPID
  5
558A
330
9
100
AcDbSymbolTableRecord
100
AcDbRegAppTableRecord
  2
GEVID992928023
 70
     0
  0
APPID
  5
558B
330
9
100
AcDbSymbolTableRecord
100
AcDbRegAppTableRecord
  2
GENIUS_GENOBJ-F-FEAT_13
 70
     0
  0
APPID
  5
558C
330
9
100
AcDbSymbolTableRecord
100
AcDbRegAppTableRecord
  2
GENIUS_GEFFEAT_14
 70
     0
  0
APPID
  5
7580
330
9
100
AcDbSymbolTableRecord
100
AcDbRegAppTableRecord
  2
ACAD_EXEMPT_FROM_CAD_STANDARDS
 70
     0
  0
APPID
  5
9403
330
9
100
AcDbSymbolTableRecord
100
AcDbRegAppTableRecord
  2
AMG_2DSTRUCT_BTR
 70
     0
  0
APPID
  5
B4E8
330
9
100
AcDbSymbolTableRecord
100
AcDbRegAppTableRecord
  2
ACAD_DSTYLE_DIMEXT_LENGTH
 70
     0
  0
APPID
  5
B4E9
330
9
100
AcDbSymbolTableRecord
100
AcDbRegAppTableRecord
  2
ACAD_DSTYLE_DIMEXT_ENABLED
 70
     0
  0
APPID
  5
DE63
330
9
100
AcDbSymbolTableRecord
100
AcDbRegAppTableRecord
  2
GENIUS_GENDIMSH_14
 70
     0
  0
APPID
  5
E2FA
330
9
100
AcDbSymbolTableRecord
100
AcDbRegAppTableRecord
  2
GEVID1210230727
 70
     0
  0
APPID
  5
E2FB
330
9
100
AcDbSymbolTableRecord
100
AcDbRegAppTableRecord
  2
GEVDC
 70
     0
  0
APPID
  5
10068
330
9
100
AcDbSymbolTableRecord
100
AcDbRegAppTableRecord
  2
ACAUTHENVIRON
 70
     0
  0
APPID
  5
1011A
330
9
100
AcDbSymbolTableRecord
100
AcDbRegAppTableRecord
  2
AcDbDynamicBlockTrueName
 70
     0
  0
APPID
  5
1011B
330
9
100
AcDbSymbolTableRecord
100
AcDbRegAppTableRecord
  2
AcDbDynamicBlockGUID
 70
     0
  0
APPID
  5
1011D
330
9
100
AcDbSymbolTableRecord
100
AcDbRegAppTableRecord
  2
ACDBBLOCKREPETAG
 70
     0
  0
APPID
  5
107E4
330
9
100
AcDbSymbolTableRecord
100
AcDbRegAppTableRecord
  2
ACAD_DSTYLE_DIMTEXT_FILL
 70
     0
  0
APPID
  5
107E7
330
9
100
AcDbSymbolTableRecord
100
AcDbRegAppTableRecord
  2
ACAD_DSTYLE_DIM_LINETYPE
 70
     0
  0
APPID
  5
107E8
330
9
100
AcDbSymbolTableRecord
100
AcDbRegAppTableRecord
  2
ACAD_DSTYLE_DIM_EXT1_LINETYPE
 70
     0
  0
APPID
  5
107E9
330
9
100
AcDbSymbolTableRecord
100
AcDbRegAppTableRecord
  2
ACAD_DSTYLE_DIM_EXT2_LINETYPE
 70
     0
  0
APPID
  5
10B47
330
9
100
AcDbSymbolTableRecord
100
AcDbRegAppTableRecord
  2
GEVID1210230728
 70
     0
  0
APPID
  5
11657
330
9
100
AcDbSymbolTableRecord
100
AcDbRegAppTableRecord
  2
GENIUS_GENDTOL_13
 70
     0
  0
APPID
  5
1A1D2
330
9
100
AcDbSymbolTableRecord
100
AcDbRegAppTableRecord
  2
ACAD_MLEADERVER
 70
     0
  0
APPID
  5
1A346
330
9
100
AcDbSymbolTableRecord
100
AcDbRegAppTableRecord
  2
ACAD_DSTYLE_DIMINSPECT
 70
     0
  0
ENDTAB
  0
TABLE
  2
DIMSTYLE
  5
A
330
0
100
AcDbSymbolTable
 70
    16
100
AcDbDimStyleTable
 71
     2
340
2EE
340
1A089
  0
DIMSTYLE
105
2EE
330
A
100
AcDbSymbolTableRecord
100
AcDbDimStyleTableRecord
  2
AM_DIN
 70
     0
  4
"
 41
65.0
 42
1.0
 43
10.0
 44
25.0
 47
0.1
 48
0.1
 73
     0
 74
     0
 77
     1
 78
     8
 79
     2
140
50.0
141
0.0
143
0.0393701
146
0.71
147
15.0
172
     1
176
   256
177
   256
178
     2
271
     0
272
     0
283
     0
284
     8
340
11
371
    -1
372
    -1
1001
ACAD_DSTYLE_DIMJOGGED_JOGANGLE_SYMBOL
1070
   384
1040
1.570796326794896
  0
DIMSTYLE
105
2FF
330
A
100
AcDbSymbolTableRecord
100
AcDbDimStyleTableRecord
  2
AM_DIN$3
 70
     0
  4
"
 41
65.0
 42
1.0
 43
10.0
 44
25.0
 47
0.1
 48
0.1
 73
     0
 77
     1
 78
     8
 79
     2
140
50.0
141
0.0
143
0.0393701
146
0.71
147
15.0
176
   256
177
   256
178
     2
271
     0
272
     0
283
     0
284
     8
288
     1
289
     0
340
11
371
    -1
372
    -1
1001
ACAD_DSTYLE_DIMJOGGED_JOGANGLE_SYMBOL
1070
   384
1040
1.570796326794896
  0
DIMSTYLE
105
304
330
A
100
AcDbSymbolTableRecord
100
AcDbDimStyleTableRecord
  2
AM_DIN$4
 70
     0
  4
"
 41
65.0
 42
1.0
 43
10.0
 44
25.0
 47
0.1
 48
0.1
 73
     0
 77
     1
 78
     8
 79
     2
140
50.0
141
0.0
143
0.0393701
146
0.71
147
15.0
176
   256
177
   256
178
     2
271
     0
272
     0
283
     0
284
     8
288
     1
289
     0
340
11
371
    -1
372
    -1
1001
ACAD_DSTYLE_DIMJOGGED_JOGANGLE_SYMBOL
1070
   384
1040
1.570796326794896
  0
DIMSTYLE
105
309
330
A
100
AcDbSymbolTableRecord
100
AcDbDimStyleTableRecord
  2
AM_DIN$6
 70
     0
  4
"
 41
65.0
 42
1.0
 43
10.0
 44
25.0
 47
0.1
 48
0.1
 73
     0
 74
     0
 78
     8
 79
     2
140
50.0
141
0.0
143
0.0393701
146
0.71
147
15.0
172
     1
176
   256
177
   256
178
     2
271
     0
272
     0
283
     0
284
     8
340
11
371
    -1
372
    -1
1001
ACAD_DSTYLE_DIMJOGGED_JOGANGLE_SYMBOL
1070
   384
1040
1.570796326794896
  0
DIMSTYLE
105
30E
330
A
100
AcDbSymbolTableRecord
100
AcDbDimStyleTableRecord
  2
AM_DIN$7
 70
     0
  4
"
 41
65.0
 42
1.0
 43
10.0
 44
25.0
 47
0.1
 48
0.1
 73
     0
 74
     0
 77
     1
 78
     8
 79
     2
140
5.0
141
0.0
143
0.0393701
146
0.71
147
15.0
172
     1
176
   256
177
   256
178
     2
271
     0
272
     0
283
     0
284
     8
340
11
371
    -1
372
    -1
1001
ACAD_DSTYLE_DIMJOGGED_JOGANGLE_SYMBOL
1070
   384
1040
1.570796326794896
  0
DIMSTYLE
105
313
330
A
100
AcDbSymbolTableRecord
100
AcDbDimStyleTableRecord
  2
AM_DIN$SF
 70
     0
  4
"
 41
2.5
 42
1.0
 43
10.0
 44
1.0
 47
0.1
 48
0.1
 73
     0
 74
     0
 75
     1
 76
     1
 77
     1
 78
     8
 79
     2
140
3.5
141
0.0
143
0.0393701
146
0.71
147
1.5
172
     1
176
   256
177
   256
178
     2
271
     2
272
     3
274
     4
283
     0
284
     8
340
11
371
    -1
372
    -1
1001
ACAD_DSTYLE_DIMJOGGED_JOGANGLE_SYMBOL
1070
   384
1040
1.570796326794896
  0
DIMSTYLE
105
318
330
A
100
AcDbSymbolTableRecord
100
AcDbDimStyleTableRecord
  2
AM_DIN$SH
 70
     0
  4
"
 41
2.5
 42
1.0
 43
10.0
 44
1.0
 47
0.1
 48
0.1
 73
     0
 74
     0
 75
     1
 76
     1
 77
     1
 78
     8
 79
     2
140
3.5
141
0.0
143
0.0393701
144
2.0
146
0.71
147
1.5
172
     1
173
     1
176
   256
177
   256
178
     2
271
     2
272
     3
274
     4
283
     0
284
     8
340
11
343
87
371
    -1
372
    -1
1001
ACAD_DSTYLE_DIMJOGGED_JOGANGLE_SYMBOL
1070
   384
1040
1.570796326794896
  0
DIMSTYLE
105
7C7E
330
A
100
AcDbSymbolTableRecord
100
AcDbDimStyleTableRecord
  2
AM_DIN$0
 70
     0
  4
"
 41
65.0
 42
1.0
 43
10.0
 44
25.0
 47
0.1
 48
0.1
 73
     0
 74
     0
 77
     1
 78
     8
 79
     2
140
50.0
141
0.0
143
0.0393701
146
0.71
147
15.0
172
     1
176
   256
177
   256
178
     2
271
     0
272
     0
283
     0
284
     8
340
11
371
    -1
372
    -1
1001
ACAD_DSTYLE_DIMJOGGED_JOGANGLE_SYMBOL
1070
   384
1040
1.570796326794896
  0
DIMSTYLE
105
1A089
330
A
100
AcDbSymbolTableRecord
100
AcDbDimStyleTableRecord
  2
GEN-ISO
 70
     0
  4
"
 40
10.0
 41
2.5
 42
1.0
 43
7.0
 44
1.0
 47
0.1
 48
0.1
 73
     0
 74
     0
 77
     1
 78
     8
140
3.5
141
0.0
143
0.0393701
146
0.71
147
0.6
172
     1
176
     3
177
     3
178
     2
271
     2
272
     2
283
     0
340
11
  0
DIMSTYLE
105
1A08A
102
{ACAD_REACTORS
330
1B5DD
330
1B5E0
330
1B5EC
102
}
330
A
100
AcDbSymbolTableRecord
100
AcDbDimStyleTableRecord
  2
GEN-ISO$0
 70
     0
  4
"
 40
10.0
 41
2.5
 42
1.0
 43
7.0
 44
1.0
 47
0.1
 48
0.1
 73
     0
 74
     0
 77
     1
 78
     8
140
3.5
141
0.0
143
0.0393701
146
0.71
147
0.6
172
     1
176
     3
177
     3
178
     2
271
     2
272
     2
283
     0
340
11
  0
DIMSTYLE
105
1AA0B
330
A
100
AcDbSymbolTableRecord
100
AcDbDimStyleTableRecord
  2
AM_ANSI
 70
     0
  4
mm
 41
0.12
 42
0.05
 43
0.5
 44
0.1
 47
0.1
 48
0.1
 78
     7
 79
     2
140
0.12
141
0.0
146
0.71
147
0.06
176
   256
177
   256
178
     2
274
     4
284
     7
340
11
371
    -1
372
    -1
1001
ACAD_DSTYLE_DIMARC_LENGTH_SYMBOL
1070
   379
1070
     1
1001
ACAD_DSTYLE_DIM_LINETYPE
1070
   380
1005
14
1001
ACAD_DSTYLE_DIM_EXT1_LINETYPE
1070
   381
1005
14
1001
ACAD_DSTYLE_DIM_EXT2_LINETYPE
1070
   382
1005
14
  0
DIMSTYLE
105
1AA0C
330
A
100
AcDbSymbolTableRecord
100
AcDbDimStyleTableRecord
  2
AM_ANSI$3
 70
     0
  4
mm
 41
0.12
 42
0.05
 43
0.5
 44
0.1
 47
0.1
 48
0.1
 78
     7
 79
     2
140
0.12
141
0.0
146
0.71
147
0.06
176
   256
177
   256
178
     2
274
     4
284
     7
288
     1
289
     0
340
11
371
    -1
372
    -1
1001
ACAD_DSTYLE_DIMARC_LENGTH_SYMBOL
1070
   379
1070
     1
1001
ACAD_DSTYLE_DIM_LINETYPE
1070
   380
1005
14
1001
ACAD_DSTYLE_DIM_EXT1_LINETYPE
1070
   381
1005
14
1001
ACAD_DSTYLE_DIM_EXT2_LINETYPE
1070
   382
1005
14
  0
DIMSTYLE
105
1AA0D
330
A
100
AcDbSymbolTableRecord
100
AcDbDimStyleTableRecord
  2
AM_ANSI$4
 70
     0
  4
mm
 41
0.12
 42
0.05
 43
0.5
 44
0.1
 47
0.1
 48
0.1
 78
     7
 79
     2
140
0.12
141
0.0
146
0.71
147
0.06
176
   256
177
   256
178
     2
274
     4
284
     7
288
     1
289
     0
340
11
371
    -1
372
    -1
1001
ACAD_DSTYLE_DIMARC_LENGTH_SYMBOL
1070
   379
1070
     1
1001
ACAD_DSTYLE_DIM_LINETYPE
1070
   380
1005
14
1001
ACAD_DSTYLE_DIM_EXT1_LINETYPE
1070
   381
1005
14
1001
ACAD_DSTYLE_DIM_EXT2_LINETYPE
1070
   382
1005
14
  0
DIMSTYLE
105
1AA0E
330
A
100
AcDbSymbolTableRecord
100
AcDbDimStyleTableRecord
  2
AM_ANSI$7
 70
     0
  4
mm
 41
0.12
 42
0.05
 43
0.5
 44
0.1
 47
0.1
 48
0.1
 78
     7
 79
     2
140
0.12
141
0.0
146
0.71
147
0.06
176
   256
177
   256
178
     2
274
     4
284
     7
340
11
371
    -1
372
    -1
1001
ACAD_DSTYLE_DIMARC_LENGTH_SYMBOL
1070
   379
1070
     1
1001
ACAD_DSTYLE_DIM_LINETYPE
1070
   380
1005
14
1001
ACAD_DSTYLE_DIM_EXT1_LINETYPE
1070
   381
1005
14
1001
ACAD_DSTYLE_DIM_EXT2_LINETYPE
1070
   382
1005
14
  0
DIMSTYLE
105
1AA0F
330
A
100
AcDbSymbolTableRecord
100
AcDbDimStyleTableRecord
  2
AM_ANSI$SF
 70
     0
  4
mm
 41
0.12
 42
0.05
 43
0.5
 44
0.1
 47
0.1
 48
0.1
 75
     1
 76
     1
 78
     7
 79
     2
140
0.12
141
0.0
146
0.71
147
0.06
176
   256
177
   256
178
     2
274
     4
284
     7
340
11
371
    -1
372
    -1
1001
ACAD_DSTYLE_DIMARC_LENGTH_SYMBOL
1070
   379
1070
     1
1001
ACAD_DSTYLE_DIM_LINETYPE
1070
   380
1005
14
1001
ACAD_DSTYLE_DIM_EXT1_LINETYPE
1070
   381
1005
14
1001
ACAD_DSTYLE_DIM_EXT2_LINETYPE
1070
   382
1005
14
  0
DIMSTYLE
105
1AA10
330
A
100
AcDbSymbolTableRecord
100
AcDbDimStyleTableRecord
  2
AM_ANSI$SH
 70
     0
  4
mm
 41
0.12
 42
0.05
 43
0.5
 44
0.1
 47
0.1
 48
0.1
 75
     1
 76
     1
 78
     7
 79
     2
140
0.12
141
0.0
146
0.71
147
0.06
173
     1
176
   256
177
   256
178
     2
274
     4
284
     7
340
11
343
87
371
    -1
372
    -1
1001
ACAD_DSTYLE_DIMARC_LENGTH_SYMBOL
1070
   379
1070
     1
1001
ACAD_DSTYLE_DIM_LINETYPE
1070
   380
1005
14
1001
ACAD_DSTYLE_DIM_EXT1_LINETYPE
1070
   381
1005
14
1001
ACAD_DSTYLE_DIM_EXT2_LINETYPE
1070
   382
1005
14
  0
ENDTAB
  0
TABLE
  2
BLOCK_RECORD
  5
1
330
0
100
AcDbSymbolTable
 70
    15
  0
BLOCK_RECORD
  5
1F
102
{ACAD_XDICTIONARY
360
8F
102
}
330
1
100
AcDbSymbolTableRecord
100
AcDbBlockTableRecord
  2
*Model_Space
340
22
  0
BLOCK_RECORD
  5
1B
330
1
100
AcDbSymbolTableRecord
100
AcDbBlockTableRecord
  2
*Paper_Space
340
1E
  0
BLOCK_RECORD
  5
23
330
1
100
AcDbSymbolTableRecord
100
AcDbBlockTableRecord
  2
*Paper_Space0
340
26
  0
BLOCK_RECORD
  5
87
102
{ACAD_XDICTIONARY
360
10117
102
}
330
1
100
AcDbSymbolTableRecord
100
AcDbBlockTableRecord
  2
GENAXEH
340
0
1001
AcDbDynamicBlockGUID
1000
{D68C792B-0B99-4E0B-8B7B-1EAC83B216F4}
1001
ACDBBLOCKREPETAG
1070
     1
1071
        0
  0
BLOCK_RECORD
  5
1B263
330
1
100
AcDbSymbolTableRecord
100
AcDbBlockTableRecord
  2
*D2
340
0
  0
BLOCK_RECORD
  5
1B26F
330
1
100
AcDbSymbolTableRecord
100
AcDbBlockTableRecord
  2
*D3
340
0
  0
BLOCK_RECORD
  5
1B27B
330
1
100
AcDbSymbolTableRecord
100
AcDbBlockTableRecord
  2
*D4
340
0
  0
BLOCK_RECORD
  5
1B287
330
1
100
AcDbSymbolTableRecord
100
AcDbBlockTableRecord
  2
*D5
340
0
  0
BLOCK_RECORD
  5
1B293
330
1
100
AcDbSymbolTableRecord
100
AcDbBlockTableRecord
  2
*D6
340
0
  0
BLOCK_RECORD
  5
1B29F
330
1
100
AcDbSymbolTableRecord
100
AcDbBlockTableRecord
  2
*D7
340
0
  0
BLOCK_RECORD
  5
1B3B1
330
1
100
AcDbSymbolTableRecord
100
AcDbBlockTableRecord
  2
*D8
340
0
  0
BLOCK_RECORD
  5
1B3BD
330
1
100
AcDbSymbolTableRecord
100
AcDbBlockTableRecord
  2
*D9
340
0
  0
BLOCK_RECORD
  5
1B3C9
330
1
100
AcDbSymbolTableRecord
100
AcDbBlockTableRecord
  2
*D10
340
0
  0
BLOCK_RECORD
  5
1B5EF
330
1
100
AcDbSymbolTableRecord
100
AcDbBlockTableRecord
  2
*D11
340
0
  0
BLOCK_RECORD
  5
1B5FB
330
1
100
AcDbSymbolTableRecord
100
AcDbBlockTableRecord
  2
*D12
340
0
  0
BLOCK_RECORD
  5
1B607
330
1
100
AcDbSymbolTableRecord
100
AcDbBlockTableRecord
  2
*D13
340
0
  0
ENDTAB
  0
ENDSEC
  0
SECTION
  2
BLOCKS
  0
BLOCK
  5
20
330
1F
100
AcDbEntity
  8
0
100
AcDbBlockBegin
  2
*Model_Space
 70
     2
 10
0.0
 20
0.0
 30
0.0
  3
*Model_Space
  1

  0
ENDBLK
  5
21
330
1F
100
AcDbEntity
  8
0
100
AcDbBlockEnd
  0
BLOCK
  5
1C
330
1B
100
AcDbEntity
 67
     1
  8
0
100
AcDbBlockBegin
  2
*Paper_Space
 70
     0
 10
0.0
 20
0.0
 30
0.0
  3
*Paper_Space
  1

  0
ENDBLK
  5
1D
330
1B
100
AcDbEntity
 67
     1
  8
0
100
AcDbBlockEnd
  0
BLOCK
  5
24
330
23
100
AcDbEntity
 67
     1
  8
0
100
AcDbBlockBegin
  2
*Paper_Space0
 70
     0
 10
0.0
 20
0.0
 30
0.0
  3
*Paper_Space0
  1

  0
ENDBLK
  5
25
330
23
100
AcDbEntity
 67
     1
  8
0
100
AcDbBlockEnd
  0
BLOCK
  5
2ADE
330
87
100
AcDbEntity
  8
0
100
AcDbBlockBegin
  2
GENAXEH
 70
     0
 10
0.0
 20
0.0
 30
0.0
  3
GENAXEH
  1

  0
ENDBLK
  5
2AE0
330
87
100
AcDbEntity
  8
0
100
AcDbBlockEnd
  0
BLOCK
  5
1B264
330
1B263
100
AcDbEntity
  8
0
100
AcDbBlockBegin
  2
*D2
 70
     1
 10
0.0
 20
0.0
 30
0.0
  3
*D2
  1

  0
LINE
  5
1B266
330
1B263
100
AcDbEntity
  8
AM_5
 62
     3
370
    -2
100
AcDbLine
 10
22348.05556829021
 20
1037.51403417676
 30
0.0
 11
22348.05556829021
 21
1084.109995865258
 31
0.0
  0
LINE
  5
1B267
330
1B263
100
AcDbEntity
  8
AM_5
 62
     3
370
    -2
100
AcDbLine
 10
22548.03740489021
 20
1037.51403417676
 30
0.0
 11
22548.03740489021
 21
1084.109995865258
 31
0.0
  0
LINE
  5
1B268
330
1B263
100
AcDbEntity
  8
AM_5
 62
     3
370
    -2
100
AcDbLine
 10
22373.05556829021
 20
1074.109995865258
 30
0.0
 11
22523.03740489021
 21
1074.109995865258
 31
0.0
  0
SOLID
  5
1B269
330
1B263
100
AcDbEntity
  8
AM_5
 62
     3
100
AcDbTrace
 10
22373.05556829021
 20
1078.276662531924
 30
0.0
 11
22373.05556829021
 21
1069.943329198591
 31
0.0
 12
22348.05556829021
 22
1074.109995865258
 32
0.0
 13
22348.05556829021
 23
1074.109995865258
 33
0.0
  0
SOLID
  5
1B26A
330
1B263
100
AcDbEntity
  8
AM_5
 62
     3
100
AcDbTrace
 10
22523.03740489021
 20
1078.276662531924
 30
0.0
 11
22523.03740489021
 21
1069.943329198591
 31
0.0
 12
22548.03740489021
 22
1074.109995865258
 32
0.0
 13
22548.03740489021
 23
1074.109995865258
 33
0.0
  0
MTEXT
  5
1B26B
330
1B263
100
AcDbEntity
  8
AM_5
 62
     2
100
AcDbMText
 10
22461.69607175975
 20
1098.958904460073
 30
0.0
 40
35.0
 41
0.0
 71
     5
 72
     1
  1
%%c 200
 73
     1
 44
1.0
1001
ACAD
1000
MTEXTBEGIN
1070
    73
1070
     1
1070
    44
1040
1.0
1070
    74
1070
     0
1000
MTEXTEND
  0
POINT
  5
1B26C
330
1B263
100
AcDbEntity
  8
Defpoints
 62
     0
100
AcDbPoint
 10
22348.05556829021
 20
1027.51403417676
 30
0.0
  0
POINT
  5
1B26D
330
1B263
100
AcDbEntity
  8
Defpoints
 62
     0
100
AcDbPoint
 10
22548.03740489021
 20
1027.51403417676
 30
0.0
  0
POINT
  5
1B26E
330
1B263
100
AcDbEntity
  8
Defpoints
 62
     0
100
AcDbPoint
 10
22548.03740489021
 20
1074.109995865258
 30
0.0
  0
ENDBLK
  5
1B265
330
1B263
100
AcDbEntity
  8
0
100
AcDbBlockEnd
  0
BLOCK
  5
1B270
330
1B26F
100
AcDbEntity
  8
0
100
AcDbBlockBegin
  2
*D3
 70
     1
 10
0.0
 20
0.0
 30
0.0
  3
*D3
  1

  0
LINE
  5
1B2B5
330
1B26F
100
AcDbEntity
  8
AM_5
 62
     3
370
    -2
100
AcDbLine
 10
22348.19640678061
 20
1042.614674926763
 30
0.0
 11
22291.95243208317
 21
1042.614674926763
 31
0.0
  0
LINE
  5
1B2B6
330
1B26F
100
AcDbEntity
  8
AM_5
 62
     3
370
    -2
100
AcDbLine
 10
22327.50060504019
 20
702.6459523267606
 30
0.0
 11
22291.95243208317
 21
702.6459523267606
 31
0.0
  0
LINE
  5
1B2B7
330
1B26F
100
AcDbEntity
  8
AM_5
 62
     3
370
    -2
100
AcDbLine
 10
22301.95243208317
 20
1017.614674926763
 30
0.0
 11
22301.95243208317
 21
727.6459523267606
 31
0.0
  0
SOLID
  5
1B2B8
330
1B26F
100
AcDbEntity
  8
AM_5
 62
     3
100
AcDbTrace
 10
22297.7857654165
 20
1017.614674926763
 30
0.0
 11
22306.11909874983
 21
1017.614674926763
 31
0.0
 12
22301.95243208317
 22
1042.614674926763
 32
0.0
 13
22301.95243208317
 23
1042.614674926763
 33
0.0
  0
SOLID
  5
1B2B9
330
1B26F
100
AcDbEntity
  8
AM_5
 62
     3
100
AcDbTrace
 10
22297.7857654165
 20
727.6459523267606
 30
0.0
 11
22306.11909874983
 21
727.6459523267606
 31
0.0
 12
22301.95243208317
 22
702.6459523267606
 32
0.0
 13
22301.95243208317
 23
702.6459523267606
 33
0.0
  0
MTEXT
  5
1B2BA
330
1B26F
100
AcDbEntity
  8
AM_5
 62
     2
100
AcDbMText
 10
22278.0704402687
 20
872.6303136267581
 30
0.0
 40
35.0
 41
0.0
 71
     5
 72
     1
  1
345
 11
0.0000000000000001
 21
1.0
 31
0.0
 73
     1
 44
1.0
1001
ACAD
1000
MTEXTBEGIN
1070
    73
1070
     1
1070
    44
1040
1.0
1070
    74
1070
     0
1000
MTEXTEND
  0
POINT
  5
1B2BB
330
1B26F
100
AcDbEntity
  8
Defpoints
 62
     0
100
AcDbPoint
 10
22358.19640678061
 20
1042.614674926763
 30
0.0
  0
POINT
  5
1B2BC
330
1B26F
100
AcDbEntity
  8
Defpoints
 62
     0
100
AcDbPoint
 10
22337.50060504019
 20
702.6459523267606
 30
0.0
  0
POINT
  5
1B2BD
330
1B26F
100
AcDbEntity
  8
Defpoints
 62
     0
100
AcDbPoint
 10
22301.95243208317
 20
702.6459523267606
 30
0.0
  0
ENDBLK
  5
1B271
330
1B26F
100
AcDbEntity
  8
0
100
AcDbBlockEnd
  0
BLOCK
  5
1B27C
330
1B27B
100
AcDbEntity
  8
0
100
AcDbBlockBegin
  2
*D4
 70
     1
 10
0.0
 20
0.0
 30
0.0
  3
*D4
  1

  0
LINE
  5
1B2C7
330
1B27B
100
AcDbEntity
  8
AM_5
 62
     3
370
    -2
100
AcDbLine
 10
22353.05581354021
 20
613.6530669267614
 30
0.0
 11
22353.05581354021
 21
493.7670669267594
 31
0.0
  0
LINE
  5
1B2C8
330
1B27B
100
AcDbEntity
  8
AM_5
 62
     3
370
    -2
100
AcDbLine
 10
22543.03815869021
 20
613.6530669267614
 30
0.0
 11
22543.03815869021
 21
493.7670669267594
 31
0.0
  0
LINE
  5
1B2C9
330
1B27B
100
AcDbEntity
  8
AM_5
 62
     3
370
    -2
100
AcDbLine
 10
22378.05581354021
 20
503.7670669267591
 30
0.0
 11
22518.03815869021
 21
503.7670669267591
 31
0.0
  0
SOLID
  5
1B2CA
330
1B27B
100
AcDbEntity
  8
AM_5
 62
     3
100
AcDbTrace
 10
22378.05581354021
 20
507.9337335934259
 30
0.0
 11
22378.05581354021
 21
499.6004002600924
 31
0.0
 12
22353.05581354021
 22
503.7670669267591
 32
0.0
 13
22353.05581354021
 23
503.7670669267591
 33
0.0
  0
SOLID
  5
1B2CB
330
1B27B
100
AcDbEntity
  8
AM_5
 62
     3
100
AcDbTrace
 10
22518.03815869021
 20
507.9337335934259
 30
0.0
 11
22518.03815869021
 21
499.6004002600924
 31
0.0
 12
22543.03815869021
 22
503.7670669267591
 32
0.0
 13
22543.03815869021
 23
503.7670669267591
 33
0.0
  0
MTEXT
  5
1B2CC
330
1B27B
100
AcDbEntity
  8
AM_5
 62
     2
100
AcDbMText
 10
22448.04698611521
 20
527.6371214970184
 30
0.0
 40
35.0
 41
0.0
 71
     5
 72
     1
  1
190
 73
     1
 44
1.0
1001
ACAD
1000
MTEXTBEGIN
1070
    73
1070
     1
1070
    44
1040
1.0
1070
    74
1070
     0
1000
MTEXTEND
  0
POINT
  5
1B2CD
330
1B27B
100
AcDbEntity
  8
Defpoints
 62
     0
100
AcDbPoint
 10
22353.05581354021
 20
623.6530669267614
 30
0.0
  0
POINT
  5
1B2CE
330
1B27B
100
AcDbEntity
  8
Defpoints
 62
     0
100
AcDbPoint
 10
22543.03815869021
 20
623.6530669267614
 30
0.0
  0
POINT
  5
1B2CF
330
1B27B
100
AcDbEntity
  8
Defpoints
 62
     0
100
AcDbPoint
 10
22543.03815869021
 20
503.7670669267591
 30
0.0
  0
ENDBLK
  5
1B27D
330
1B27B
100
AcDbEntity
  8
0
100
AcDbBlockEnd
  0
BLOCK
  5
1B288
330
1B287
100
AcDbEntity
  8
0
100
AcDbBlockBegin
  2
*D5
 70
     1
 10
0.0
 20
0.0
 30
0.0
  3
*D5
  1

  0
LINE
  5
1B32A
330
1B287
100
AcDbEntity
  8
AM_5
 62
     3
370
    -2
100
AcDbLine
 10
23105.93693620794
 20
1038.886078395308
 30
0.0
 11
23105.93693620794
 21
1081.248331004788
 31
0.0
  0
LINE
  5
1B32B
330
1B287
100
AcDbEntity
  8
AM_5
 62
     3
370
    -2
100
AcDbLine
 10
23267.74842313447
 20
1038.886078395308
 30
0.0
 11
23267.74842313447
 21
1081.248331004788
 31
0.0
  0
LINE
  5
1B32C
330
1B287
100
AcDbEntity
  8
AM_5
 62
     3
370
    -2
100
AcDbLine
 10
23130.93693620794
 20
1071.248331004788
 30
0.0
 11
23242.74842313447
 21
1071.248331004788
 31
0.0
  0
SOLID
  5
1B32D
330
1B287
100
AcDbEntity
  8
AM_5
 62
     3
100
AcDbTrace
 10
23130.93693620794
 20
1075.414997671455
 30
0.0
 11
23130.93693620794
 21
1067.081664338122
 31
0.0
 12
23105.93693620794
 22
1071.248331004788
 32
0.0
 13
23105.93693620794
 23
1071.248331004788
 33
0.0
  0
SOLID
  5
1B32E
330
1B287
100
AcDbEntity
  8
AM_5
 62
     3
100
AcDbTrace
 10
23242.74842313447
 20
1075.414997671455
 30
0.0
 11
23242.74842313447
 21
1067.081664338122
 31
0.0
 12
23267.74842313447
 22
1071.248331004788
 32
0.0
 13
23267.74842313447
 23
1071.248331004788
 33
0.0
  0
MTEXT
  5
1B32F
330
1B287
100
AcDbEntity
  8
AM_5
 62
     2
100
AcDbMText
 10
23199.25206353224
 20
1096.097239599604
 30
0.0
 40
35.0
 41
0.0
 71
     5
 72
     1
  1
%%c 160
 73
     1
 44
1.0
1001
ACAD
1000
MTEXTBEGIN
1070
    73
1070
     1
1070
    44
1040
1.0
1070
    74
1070
     0
1000
MTEXTEND
  0
POINT
  5
1B330
330
1B287
100
AcDbEntity
  8
Defpoints
 62
     0
100
AcDbPoint
 10
23105.93693620794
 20
1028.886078395308
 30
0.0
  0
POINT
  5
1B331
330
1B287
100
AcDbEntity
  8
Defpoints
 62
     0
100
AcDbPoint
 10
23267.74842313447
 20
1028.886078395308
 30
0.0
  0
POINT
  5
1B332
330
1B287
100
AcDbEntity
  8
Defpoints
 62
     0
100
AcDbPoint
 10
23267.74842313447
 20
1071.248331004788
 30
0.0
  0
ENDBLK
  5
1B289
330
1B287
100
AcDbEntity
  8
0
100
AcDbBlockEnd
  0
BLOCK
  5
1B294
330
1B293
100
AcDbEntity
  8
0
100
AcDbBlockBegin
  2
*D6
 70
     1
 10
0.0
 20
0.0
 30
0.0
  3
*D6
  1

  0
LINE
  5
1B382
330
1B293
100
AcDbEntity
  8
AM_5
 62
     3
370
    -2
100
AcDbLine
 10
23105.1563781131
 20
1042.614674926763
 30
0.0
 11
23044.02273095667
 21
1042.614674926763
 31
0.0
  0
LINE
  5
1B383
330
1B293
100
AcDbEntity
  8
AM_5
 62
     3
370
    -2
100
AcDbLine
 10
23076.34099691882
 20
733.5355104621977
 30
0.0
 11
23044.02273095667
 21
733.5355104621977
 31
0.0
  0
LINE
  5
1B384
330
1B293
100
AcDbEntity
  8
AM_5
 62
     3
370
    -2
100
AcDbLine
 10
23054.02273095667
 20
1017.614674926763
 30
0.0
 11
23054.02273095667
 21
758.5355104621977
 31
0.0
  0
SOLID
  5
1B385
330
1B293
100
AcDbEntity
  8
AM_5
 62
     3
100
AcDbTrace
 10
23049.85606429
 20
1017.614674926763
 30
0.0
 11
23058.18939762334
 21
1017.614674926763
 31
0.0
 12
23054.02273095667
 22
1042.614674926763
 32
0.0
 13
23054.02273095667
 23
1042.614674926763
 33
0.0
  0
SOLID
  5
1B386
330
1B293
100
AcDbEntity
  8
AM_5
 62
     3
100
AcDbTrace
 10
23049.85606429
 20
758.5355104621977
 30
0.0
 11
23058.18939762334
 21
758.5355104621977
 31
0.0
 12
23054.02273095667
 22
733.5355104621977
 32
0.0
 13
23054.02273095667
 23
733.5355104621977
 33
0.0
  0
MTEXT
  5
1B387
330
1B293
100
AcDbEntity
  8
AM_5
 62
     2
100
AcDbMText
 10
23030.14073914221
 20
888.0750926944768
 30
0.0
 40
35.0
 41
0.0
 71
     5
 72
     1
  1
315
 11
0.0000000000000001
 21
1.0
 31
0.0
 73
     1
 44
1.0
1001
ACAD
1000
MTEXTBEGIN
1070
    73
1070
     1
1070
    44
1040
1.0
1070
    74
1070
     0
1000
MTEXTEND
  0
POINT
  5
1B388
330
1B293
100
AcDbEntity
  8
Defpoints
 62
     0
100
AcDbPoint
 10
23115.1563781131
 20
1042.614674926763
 30
0.0
  0
POINT
  5
1B389
330
1B293
100
AcDbEntity
  8
Defpoints
 62
     0
100
AcDbPoint
 10
23086.34099691881
 20
733.5355104621977
 30
0.0
  0
POINT
  5
1B38A
330
1B293
100
AcDbEntity
  8
Defpoints
 62
     0
100
AcDbPoint
 10
23054.02273095667
 20
733.5355104621977
 30
0.0
  0
ENDBLK
  5
1B295
330
1B293
100
AcDbEntity
  8
0
100
AcDbBlockEnd
  0
BLOCK
  5
1B2A0
330
1B29F
100
AcDbEntity
  8
0
100
AcDbBlockBegin
  2
*D7
 70
     1
 10
0.0
 20
0.0
 30
0.0
  3
*D7
  1

  0
LINE
  5
1B370
330
1B29F
100
AcDbEntity
  8
AM_5
 62
     3
370
    -2
100
AcDbLine
 10
23096.84313380937
 20
651.7199186296441
 30
0.0
 11
23096.84313380937
 21
542.7267605896396
 31
0.0
  0
LINE
  5
1B371
330
1B29F
100
AcDbEntity
  8
AM_5
 62
     3
370
    -2
100
AcDbLine
 10
23276.84313380937
 20
651.7199186296441
 30
0.0
 11
23276.84313380937
 21
542.7267605896396
 31
0.0
  0
LINE
  5
1B372
330
1B29F
100
AcDbEntity
  8
AM_5
 62
     3
370
    -2
100
AcDbLine
 10
23121.84313380936
 20
552.7267605896396
 30
0.0
 11
23251.84313380936
 21
552.7267605896396
 31
0.0
  0
SOLID
  5
1B373
330
1B29F
100
AcDbEntity
  8
AM_5
 62
     3
100
AcDbTrace
 10
23121.84313380936
 20
556.8934272563064
 30
0.0
 11
23121.84313380936
 21
548.5600939229731
 31
0.0
 12
23096.84313380937
 22
552.7267605896396
 32
0.0
 13
23096.84313380937
 23
552.7267605896396
 33
0.0
  0
SOLID
  5
1B374
330
1B29F
100
AcDbEntity
  8
AM_5
 62
     3
100
AcDbTrace
 10
23251.84313380936
 20
556.8934272563064
 30
0.0
 11
23251.84313380936
 21
548.5600939229731
 31
0.0
 12
23276.84313380937
 22
552.7267605896396
 32
0.0
 13
23276.84313380937
 23
552.7267605896396
 33
0.0
  0
MTEXT
  5
1B375
330
1B29F
100
AcDbEntity
  8
AM_5
 62
     2
100
AcDbMText
 10
23186.84313380936
 20
576.5968151598989
 30
0.0
 40
35.0
 41
0.0
 71
     5
 72
     1
  1
180
 73
     1
 44
1.0
1001
ACAD
1000
MTEXTBEGIN
1070
    73
1070
     1
1070
    44
1040
1.0
1070
    74
1070
     0
1000
MTEXTEND
  0
POINT
  5
1B376
330
1B29F
100
AcDbEntity
  8
Defpoints
 62
     0
100
AcDbPoint
 10
23096.84313380937
 20
661.7199186296439
 30
0.0
  0
POINT
  5
1B377
330
1B29F
100
AcDbEntity
  8
Defpoints
 62
     0
100
AcDbPoint
 10
23276.84313380937
 20
661.7199186296439
 30
0.0
  0
POINT
  5
1B378
330
1B29F
100
AcDbEntity
  8
Defpoints
 62
     0
100
AcDbPoint
 10
23276.84313380937
 20
552.7267605896396
 30
0.0
  0
ENDBLK
  5
1B2A1
330
1B29F
100
AcDbEntity
  8
0
100
AcDbBlockEnd
  0
BLOCK
  5
1B3B2
330
1B3B1
100
AcDbEntity
  8
0
100
AcDbBlockBegin
  2
*D8
 70
     1
 10
0.0
 20
0.0
 30
0.0
  3
*D8
  1

  0
LINE
  5
1B3B3
330
1B3B1
100
AcDbEntity
  8
AM_5
 62
     3
370
    -2
100
AcDbLine
 10
22348.05556829021
 20
1037.51403417676
 30
0.0
 11
22348.05556829021
 21
1084.109995865258
 31
0.0
  0
LINE
  5
1B3B4
330
1B3B1
100
AcDbEntity
  8
AM_5
 62
     3
370
    -2
100
AcDbLine
 10
22548.03740489021
 20
1037.51403417676
 30
0.0
 11
22548.03740489021
 21
1084.109995865258
 31
0.0
  0
LINE
  5
1B3B5
330
1B3B1
100
AcDbEntity
  8
AM_5
 62
     3
370
    -2
100
AcDbLine
 10
22373.05556829021
 20
1074.109995865258
 30
0.0
 11
22523.03740489021
 21
1074.109995865258
 31
0.0
  0
SOLID
  5
1B3B6
330
1B3B1
100
AcDbEntity
  8
AM_5
 62
     3
100
AcDbTrace
 10
22373.05556829021
 20
1078.276662531924
 30
0.0
 11
22373.05556829021
 21
1069.943329198591
 31
0.0
 12
22348.05556829021
 22
1074.109995865258
 32
0.0
 13
22348.05556829021
 23
1074.109995865258
 33
0.0
  0
SOLID
  5
1B3B7
330
1B3B1
100
AcDbEntity
  8
AM_5
 62
     3
100
AcDbTrace
 10
22523.03740489021
 20
1078.276662531924
 30
0.0
 11
22523.03740489021
 21
1069.943329198591
 31
0.0
 12
22548.03740489021
 22
1074.109995865258
 32
0.0
 13
22548.03740489021
 23
1074.109995865258
 33
0.0
  0
MTEXT
  5
1B3B8
330
1B3B1
100
AcDbEntity
  8
AM_5
 62
     2
100
AcDbMText
 10
22461.69607175975
 20
1098.958904460073
 30
0.0
 40
35.0
 41
0.0
 71
     5
 72
     1
  1
%%c 200
 73
     1
 44
1.0
1001
ACAD
1000
MTEXTBEGIN
1070
    73
1070
     1
1070
    44
1040
1.0
1070
    74
1070
     0
1000
MTEXTEND
  0
POINT
  5
1B3B9
330
1B3B1
100
AcDbEntity
  8
Defpoints
 62
     0
100
AcDbPoint
 10
22348.05556829021
 20
1027.51403417676
 30
0.0
  0
POINT
  5
1B3BA
330
1B3B1
100
AcDbEntity
  8
Defpoints
 62
     0
100
AcDbPoint
 10
22548.03740489021
 20
1027.51403417676
 30
0.0
  0
POINT
  5
1B3BB
330
1B3B1
100
AcDbEntity
  8
Defpoints
 62
     0
100
AcDbPoint
 10
22548.03740489021
 20
1074.109995865258
 30
0.0
  0
ENDBLK
  5
1B3BC
330
1B3B1
100
AcDbEntity
  8
0
100
AcDbBlockEnd
  0
BLOCK
  5
1B3BE
330
1B3BD
100
AcDbEntity
  8
0
100
AcDbBlockBegin
  2
*D9
 70
     1
 10
0.0
 20
0.0
 30
0.0
  3
*D9
  1

  0
LINE
  5
1B3BF
330
1B3BD
100
AcDbEntity
  8
AM_5
 62
     3
370
    -2
100
AcDbLine
 10
22348.19640678061
 20
1042.614674926763
 30
0.0
 11
22291.95243208317
 21
1042.614674926763
 31
0.0
  0
LINE
  5
1B3C0
330
1B3BD
100
AcDbEntity
  8
AM_5
 62
     3
370
    -2
100
AcDbLine
 10
22327.50060504019
 20
702.6459523267606
 30
0.0
 11
22291.95243208317
 21
702.6459523267606
 31
0.0
  0
LINE
  5
1B3C1
330
1B3BD
100
AcDbEntity
  8
AM_5
 62
     3
370
    -2
100
AcDbLine
 10
22301.95243208317
 20
1017.614674926763
 30
0.0
 11
22301.95243208317
 21
727.6459523267606
 31
0.0
  0
SOLID
  5
1B3C2
330
1B3BD
100
AcDbEntity
  8
AM_5
 62
     3
100
AcDbTrace
 10
22297.7857654165
 20
1017.614674926763
 30
0.0
 11
22306.11909874983
 21
1017.614674926763
 31
0.0
 12
22301.95243208317
 22
1042.614674926763
 32
0.0
 13
22301.95243208317
 23
1042.614674926763
 33
0.0
  0
SOLID
  5
1B3C3
330
1B3BD
100
AcDbEntity
  8
AM_5
 62
     3
100
AcDbTrace
 10
22297.7857654165
 20
727.6459523267606
 30
0.0
 11
22306.11909874983
 21
727.6459523267606
 31
0.0
 12
22301.95243208317
 22
702.6459523267606
 32
0.0
 13
22301.95243208317
 23
702.6459523267606
 33
0.0
  0
MTEXT
  5
1B3C4
330
1B3BD
100
AcDbEntity
  8
AM_5
 62
     2
100
AcDbMText
 10
22278.0704402687
 20
872.6303136267581
 30
0.0
 40
35.0
 41
0.0
 71
     5
 72
     1
  1
345
 11
0.0000000000000001
 21
1.0
 31
0.0
 73
     1
 44
1.0
1001
ACAD
1000
MTEXTBEGIN
1070
    73
1070
     1
1070
    44
1040
1.0
1070
    74
1070
     0
1000
MTEXTEND
  0
POINT
  5
1B3C5
330
1B3BD
100
AcDbEntity
  8
Defpoints
 62
     0
100
AcDbPoint
 10
22358.19640678061
 20
1042.614674926763
 30
0.0
  0
POINT
  5
1B3C6
330
1B3BD
100
AcDbEntity
  8
Defpoints
 62
     0
100
AcDbPoint
 10
22337.50060504019
 20
702.6459523267606
 30
0.0
  0
POINT
  5
1B3C7
330
1B3BD
100
AcDbEntity
  8
Defpoints
 62
     0
100
AcDbPoint
 10
22301.95243208317
 20
702.6459523267606
 30
0.0
  0
ENDBLK
  5
1B3C8
330
1B3BD
100
AcDbEntity
  8
0
100
AcDbBlockEnd
  0
BLOCK
  5
1B3CA
330
1B3C9
100
AcDbEntity
  8
0
100
AcDbBlockBegin
  2
*D10
 70
     1
 10
0.0
 20
0.0
 30
0.0
  3
*D10
  1

  0
LINE
  5
1B3CB
330
1B3C9
100
AcDbEntity
  8
AM_5
 62
     3
370
    -2
100
AcDbLine
 10
22353.05581354021
 20
613.6530669267614
 30
0.0
 11
22353.05581354021
 21
493.7670669267594
 31
0.0
  0
LINE
  5
1B3CC
330
1B3C9
100
AcDbEntity
  8
AM_5
 62
     3
370
    -2
100
AcDbLine
 10
22543.03815869021
 20
613.6530669267614
 30
0.0
 11
22543.03815869021
 21
493.7670669267594
 31
0.0
  0
LINE
  5
1B3CD
330
1B3C9
100
AcDbEntity
  8
AM_5
 62
     3
370
    -2
100
AcDbLine
 10
22378.05581354021
 20
503.7670669267591
 30
0.0
 11
22518.03815869021
 21
503.7670669267591
 31
0.0
  0
SOLID
  5
1B3CE
330
1B3C9
100
AcDbEntity
  8
AM_5
 62
     3
100
AcDbTrace
 10
22378.05581354021
 20
507.9337335934259
 30
0.0
 11
22378.05581354021
 21
499.6004002600924
 31
0.0
 12
22353.05581354021
 22
503.7670669267591
 32
0.0
 13
22353.05581354021
 23
503.7670669267591
 33
0.0
  0
SOLID
  5
1B3CF
330
1B3C9
100
AcDbEntity
  8
AM_5
 62
     3
100
AcDbTrace
 10
22518.03815869021
 20
507.9337335934259
 30
0.0
 11
22518.03815869021
 21
499.6004002600924
 31
0.0
 12
22543.03815869021
 22
503.7670669267591
 32
0.0
 13
22543.03815869021
 23
503.7670669267591
 33
0.0
  0
MTEXT
  5
1B3D0
330
1B3C9
100
AcDbEntity
  8
AM_5
 62
     2
100
AcDbMText
 10
22448.04698611521
 20
527.6371214970184
 30
0.0
 40
35.0
 41
0.0
 71
     5
 72
     1
  1
190
 73
     1
 44
1.0
1001
ACAD
1000
MTEXTBEGIN
1070
    73
1070
     1
1070
    44
1040
1.0
1070
    74
1070
     0
1000
MTEXTEND
  0
POINT
  5
1B3D1
330
1B3C9
100
AcDbEntity
  8
Defpoints
 62
     0
100
AcDbPoint
 10
22353.05581354021
 20
623.6530669267614
 30
0.0
  0
POINT
  5
1B3D2
330
1B3C9
100
AcDbEntity
  8
Defpoints
 62
     0
100
AcDbPoint
 10
22543.03815869021
 20
623.6530669267614
 30
0.0
  0
POINT
  5
1B3D3
330
1B3C9
100
AcDbEntity
  8
Defpoints
 62
     0
100
AcDbPoint
 10
22543.03815869021
 20
503.7670669267591
 30
0.0
  0
ENDBLK
  5
1B3D4
330
1B3C9
100
AcDbEntity
  8
0
100
AcDbBlockEnd
  0
BLOCK
  5
1B5F0
330
1B5EF
100
AcDbEntity
  8
0
100
AcDbBlockBegin
  2
*D11
 70
     1
 10
0.0
 20
0.0
 30
0.0
  3
*D11
  1

  0
LINE
  5
1B5F2
330
1B5EF
100
AcDbEntity
  8
AM_5
 62
     3
370
    -2
100
AcDbLine
 10
22571.22293760365
 20
1159.726248138052
 30
0.0
 11
22571.22293760365
 21
1206.32220982655
 31
0.0
  0
LINE
  5
1B5F3
330
1B5EF
100
AcDbEntity
  8
AM_5
 62
     3
370
    -2
100
AcDbLine
 10
22771.20477420365
 20
1159.726248138052
 30
0.0
 11
22771.20477420365
 21
1206.32220982655
 31
0.0
  0
LINE
  5
1B5F4
330
1B5EF
100
AcDbEntity
  8
AM_5
 62
     3
370
    -2
100
AcDbLine
 10
22596.22293760365
 20
1196.32220982655
 30
0.0
 11
22746.20477420365
 21
1196.32220982655
 31
0.0
  0
SOLID
  5
1B5F5
330
1B5EF
100
AcDbEntity
  8
AM_5
 62
     3
100
AcDbTrace
 10
22596.22293760365
 20
1200.488876493217
 30
0.0
 11
22596.22293760365
 21
1192.155543159883
 31
0.0
 12
22571.22293760365
 22
1196.32220982655
 32
0.0
 13
22571.22293760365
 23
1196.32220982655
 33
0.0
  0
SOLID
  5
1B5F6
330
1B5EF
100
AcDbEntity
  8
AM_5
 62
     3
100
AcDbTrace
 10
22746.20477420365
 20
1200.488876493217
 30
0.0
 11
22746.20477420365
 21
1192.155543159883
 31
0.0
 12
22771.20477420365
 22
1196.32220982655
 32
0.0
 13
22771.20477420365
 23
1196.32220982655
 33
0.0
  0
MTEXT
  5
1B5F7
330
1B5EF
100
AcDbEntity
  8
AM_5
 62
     2
100
AcDbMText
 10
22684.86344107319
 20
1221.171118421366
 30
0.0
 40
35.0
 41
0.0
 71
     5
 72
     1
  1
%%c 200
 73
     1
 44
1.0
1001
ACAD
1000
MTEXTBEGIN
1070
    73
1070
     1
1070
    44
1040
1.0
1070
    74
1070
     0
1000
MTEXTEND
  0
POINT
  5
1B5F8
330
1B5EF
100
AcDbEntity
  8
Defpoints
 62
     0
100
AcDbPoint
 10
22571.22293760365
 20
1149.726248138052
 30
0.0
  0
POINT
  5
1B5F9
330
1B5EF
100
AcDbEntity
  8
Defpoints
 62
     0
100
AcDbPoint
 10
22771.20477420365
 20
1149.726248138052
 30
0.0
  0
POINT
  5
1B5FA
330
1B5EF
100
AcDbEntity
  8
Defpoints
 62
     0
100
AcDbPoint
 10
22771.20477420365
 20
1196.32220982655
 30
0.0
  0
ENDBLK
  5
1B5F1
330
1B5EF
100
AcDbEntity
  8
0
100
AcDbBlockEnd
  0
BLOCK
  5
1B5FC
330
1B5FB
100
AcDbEntity
  8
0
100
AcDbBlockBegin
  2
*D12
 70
     1
 10
0.0
 20
0.0
 30
0.0
  3
*D12
  1

  0
LINE
  5
1B5FE
330
1B5FB
100
AcDbEntity
  8
AM_5
 62
     3
370
    -2
100
AcDbLine
 10
22571.36377609405
 20
1164.826888888055
 30
0.0
 11
22515.1198013966
 21
1164.826888888055
 31
0.0
  0
LINE
  5
1B5FF
330
1B5FB
100
AcDbEntity
  8
AM_5
 62
     3
370
    -2
100
AcDbLine
 10
22550.66797435362
 20
824.8581662880528
 30
0.0
 11
22515.1198013966
 21
824.8581662880528
 31
0.0
  0
LINE
  5
1B600
330
1B5FB
100
AcDbEntity
  8
AM_5
 62
     3
370
    -2
100
AcDbLine
 10
22525.1198013966
 20
1139.826888888055
 30
0.0
 11
22525.1198013966
 21
849.8581662880528
 31
0.0
  0
SOLID
  5
1B601
330
1B5FB
100
AcDbEntity
  8
AM_5
 62
     3
100
AcDbTrace
 10
22520.95313472993
 20
1139.826888888055
 30
0.0
 11
22529.28646806326
 21
1139.826888888055
 31
0.0
 12
22525.1198013966
 22
1164.826888888055
 32
0.0
 13
22525.1198013966
 23
1164.826888888055
 33
0.0
  0
SOLID
  5
1B602
330
1B5FB
100
AcDbEntity
  8
AM_5
 62
     3
100
AcDbTrace
 10
22520.95313472993
 20
849.8581662880528
 30
0.0
 11
22529.28646806326
 21
849.8581662880528
 31
0.0
 12
22525.1198013966
 22
824.8581662880528
 32
0.0
 13
22525.1198013966
 23
824.8581662880528
 33
0.0
  0
MTEXT
  5
1B603
330
1B5FB
100
AcDbEntity
  8
AM_5
 62
     2
100
AcDbMText
 10
22501.23780958214
 20
994.8425275880504
 30
0.0
 40
35.0
 41
0.0
 71
     5
 72
     1
  1
345
 11
0.0000000000000001
 21
1.0
 31
0.0
 73
     1
 44
1.0
1001
ACAD
1000
MTEXTBEGIN
1070
    73
1070
     1
1070
    44
1040
1.0
1070
    74
1070
     0
1000
MTEXTEND
  0
POINT
  5
1B604
330
1B5FB
100
AcDbEntity
  8
Defpoints
 62
     0
100
AcDbPoint
 10
22581.36377609404
 20
1164.826888888055
 30
0.0
  0
POINT
  5
1B605
330
1B5FB
100
AcDbEntity
  8
Defpoints
 62
     0
100
AcDbPoint
 10
22560.66797435362
 20
824.8581662880528
 30
0.0
  0
POINT
  5
1B606
330
1B5FB
100
AcDbEntity
  8
Defpoints
 62
     0
100
AcDbPoint
 10
22525.1198013966
 20
824.8581662880528
 30
0.0
  0
ENDBLK
  5
1B5FD
330
1B5FB
100
AcDbEntity
  8
0
100
AcDbBlockEnd
  0
BLOCK
  5
1B608
330
1B607
100
AcDbEntity
  8
0
100
AcDbBlockBegin
  2
*D13
 70
     1
 10
0.0
 20
0.0
 30
0.0
  3
*D13
  1

  0
LINE
  5
1B60A
330
1B607
100
AcDbEntity
  8
AM_5
 62
     3
370
    -2
100
AcDbLine
 10
22576.22318285364
 20
735.8652808880536
 30
0.0
 11
22576.22318285364
 21
615.9792808880515
 31
0.0
  0
LINE
  5
1B60B
330
1B607
100
AcDbEntity
  8
AM_5
 62
     3
370
    -2
100
AcDbLine
 10
22766.20552800364
 20
735.8652808880536
 30
0.0
 11
22766.20552800364
 21
615.9792808880515
 31
0.0
  0
LINE
  5
1B60C
330
1B607
100
AcDbEntity
  8
AM_5
 62
     3
370
    -2
100
AcDbLine
 10
22601.22318285364
 20
625.9792808880515
 30
0.0
 11
22741.20552800364
 21
625.9792808880515
 31
0.0
  0
SOLID
  5
1B60D
330
1B607
100
AcDbEntity
  8
AM_5
 62
     3
100
AcDbTrace
 10
22601.22318285364
 20
630.1459475547182
 30
0.0
 11
22601.22318285364
 21
621.8126142213849
 31
0.0
 12
22576.22318285364
 22
625.9792808880515
 32
0.0
 13
22576.22318285364
 23
625.9792808880515
 33
0.0
  0
SOLID
  5
1B60E
330
1B607
100
AcDbEntity
  8
AM_5
 62
     3
100
AcDbTrace
 10
22741.20552800364
 20
630.1459475547182
 30
0.0
 11
22741.20552800364
 21
621.8126142213849
 31
0.0
 12
22766.20552800364
 22
625.9792808880515
 32
0.0
 13
22766.20552800364
 23
625.9792808880515
 33
0.0
  0
MTEXT
  5
1B60F
330
1B607
100
AcDbEntity
  8
AM_5
 62
     2
100
AcDbMText
 10
22671.21435542864
 20
649.8493354583107
 30
0.0
 40
35.0
 41
0.0
 71
     5
 72
     1
  1
190
 73
     1
 44
1.0
1001
ACAD
1000
MTEXTBEGIN
1070
    73
1070
     1
1070
    44
1040
1.0
1070
    74
1070
     0
1000
MTEXTEND
  0
POINT
  5
1B610
330
1B607
100
AcDbEntity
  8
Defpoints
 62
     0
100
AcDbPoint
 10
22576.22318285364
 20
745.8652808880536
 30
0.0
  0
POINT
  5
1B611
330
1B607
100
AcDbEntity
  8
Defpoints
 62
     0
100
AcDbPoint
 10
22766.20552800364
 20
745.8652808880536
 30
0.0
  0
POINT
  5
1B612
330
1B607
100
AcDbEntity
  8
Defpoints
 62
     0
100
AcDbPoint
 10
22766.20552800364
 20
625.9792808880515
 30
0.0
  0
ENDBLK
  5
1B609
330
1B607
100
AcDbEntity
  8
0
100
AcDbBlockEnd
  0
ENDSEC
  0
SECTION
  2
ENTITIES
  0
LINE
  5
1B4E5
330
1F
100
AcDbEntity
  8
AM_7
100
AcDbLine
 10
22714.10407145364
 20
1109.593410588054
 30
0.0
 11
22714.10407145364
 21
1120.370162938055
 31
0.0
  0
LINE
  5
1B4E6
330
1F
100
AcDbEntity
  8
anbauteile dünn
  6
Continuous
 62
     1
100
AcDbLine
 10
22717.48985190364
 20
1115.992325838051
 30
0.0
 11
22717.48985190364
 21
1119.099371338052
 31
0.0
  0
LINE
  5
1B4E7
330
1F
100
AcDbEntity
  8
anbauteile dünn
  6
Continuous
 62
     1
100
AcDbLine
 10
22710.71929005364
 20
1115.992325838051
 30
0.0
 11
22710.71929005364
 21
1119.099371338052
 31
0.0
  0
LINE
  5
1B4E8
330
1F
100
AcDbEntity
  8
anbauteile dünn
  6
Continuous
 62
     1
100
AcDbLine
 10
22717.48985190364
 20
1079.581948588052
 30
0.0
 11
22717.48985190364
 21
1095.945388538053
 31
0.0
  0
LINE
  5
1B4E9
330
1F
100
AcDbEntity
  8
anbauteile dünn
  6
Continuous
 62
     1
100
AcDbLine
 10
22710.71929005364
 20
1079.581948588052
 30
0.0
 11
22710.71929005366
 21
1095.945388538053
 31
0.0
  0
LINE
  5
1B4EA
330
1F
100
AcDbEntity
  8
AM_0
  6
Continuous
 62
     1
100
AcDbLine
 10
22718.10426765365
 20
1064.062705888052
 30
0.0
 11
22710.10487430364
 21
1064.062705888052
 31
0.0
  0
LINE
  5
1B4EB
330
1F
100
AcDbEntity
  8
anbauteile dünn
  6
Continuous
 62
     1
100
AcDbLine
 10
22710.10487430364
 20
1064.062705888052
 30
0.0
 11
22710.10487430364
 21
1066.214659588054
 31
0.0
  0
LINE
  5
1B4EC
330
1F
100
AcDbEntity
  8
anbauteile dünn
  6
Continuous
 62
     1
100
AcDbLine
 10
22710.10487430364
 20
1066.214659588054
 30
0.0
 11
22718.10426765365
 21
1066.214659588054
 31
0.0
  0
LINE
  5
1B4ED
330
1F
100
AcDbEntity
  8
anbauteile dünn
  6
Continuous
 62
     1
100
AcDbLine
 10
22718.10426765365
 20
1066.214659588054
 30
0.0
 11
22718.10426765365
 21
1064.062705888052
 31
0.0
  0
LINE
  5
1B4EE
330
1F
100
AcDbEntity
  8
anbauteile dünn
  6
Continuous
 62
     1
100
AcDbLine
 10
22718.10426765365
 20
1079.581948588052
 30
0.0
 11
22718.10426765365
 21
1095.945388538053
 31
0.0
  0
LINE
  5
1B4EF
330
1F
100
AcDbEntity
  8
anbauteile dünn
  6
Continuous
 62
     1
100
AcDbLine
 10
22710.10487430364
 20
1079.581948588052
 30
0.0
 11
22710.10487430364
 21
1095.945388538053
 31
0.0
  0
LINE
  5
1B4F0
330
1F
100
AcDbEntity
  8
anbauteile dünn
  6
Continuous
 62
     1
100
AcDbLine
 10
22710.10487430364
 20
1115.992325838051
 30
0.0
 11
22710.10487430364
 21
1117.099273238054
 31
0.0
  0
LINE
  5
1B4F1
330
1F
100
AcDbEntity
  8
anbauteile dünn
  6
Continuous
 62
     1
100
AcDbLine
 10
22710.10487430364
 20
1117.099273238054
 30
0.0
 11
22718.10426765365
 21
1117.099273238054
 31
0.0
  0
LINE
  5
1B4F2
330
1F
100
AcDbEntity
  8
anbauteile dünn
  6
Continuous
 62
     1
100
AcDbLine
 10
22718.10426765365
 20
1117.099273238054
 30
0.0
 11
22718.10426765365
 21
1115.992325838051
 31
0.0
  0
LINE
  5
1B4F3
330
1F
100
AcDbEntity
  8
anbauteile dünn
  6
Continuous
 62
     1
100
AcDbLine
 10
22710.10487430364
 20
1117.099273238054
 30
0.0
 11
22710.71929005364
 21
1119.099371338052
 31
0.0
  0
LINE
  5
1B4F4
330
1F
100
AcDbEntity
  8
anbauteile dünn
  6
Continuous
 62
     1
100
AcDbLine
 10
22710.71929005364
 20
1119.099371338052
 30
0.0
 11
22717.48985190364
 21
1119.099371338052
 31
0.0
  0
LINE
  5
1B4F5
330
1F
100
AcDbEntity
  8
anbauteile dünn
  6
Continuous
 62
     1
100
AcDbLine
 10
22717.48985190364
 20
1119.099371338052
 30
0.0
 11
22718.10426765365
 21
1117.099273238054
 31
0.0
  0
LINE
  5
1B4F6
330
1F
100
AcDbEntity
  8
anbauteile dünn
  6
Continuous
 62
     1
100
AcDbLine
 10
22718.10426765365
 20
1066.214659588054
 30
0.0
 11
22717.79705977865
 21
1067.047867288056
 31
0.0
  0
LINE
  5
1B4F7
330
1F
100
AcDbEntity
  8
anbauteile dünn
  6
Continuous
 62
     1
100
AcDbLine
 10
22710.10487430364
 20
1066.214659588054
 30
0.0
 11
22710.26552901235
 21
1066.650386505308
 31
0.0
  0
LINE
  5
1B4F8
330
1F
100
AcDbEntity
  8
anbauteile dünn
  6
Continuous
 62
     1
100
AcDbLine
 10
22708.96895445364
 20
1079.582947638052
 30
0.0
 11
22719.24118655364
 21
1079.582947638052
 31
0.0
  0
ARC
  5
1B4F9
330
1F
100
AcDbEntity
  8
anbauteile dünn
  6
Continuous
 62
     1
100
AcDbCircle
 10
22714.10410094491
 20
1069.189672322823
 30
0.0
 40
10.39240521844074
100
AcDbArc
 50
70.52472821271209
 51
109.4747282126504
  0
LINE
  5
1B4FA
330
1F
100
AcDbEntity
  8
anbauteile dünn
  6
Continuous
 62
     1
100
AcDbLine
 10
22710.63936605365
 20
1078.987513838055
 30
0.0
 11
22710.63940379021
 21
1073.777469463635
 31
0.0
  0
ARC
  5
1B4FB
330
1F
100
AcDbEntity
  8
anbauteile dünn
  6
Continuous
 62
     1
100
AcDbCircle
 10
22714.10409226731
 20
1083.577202218475
 30
0.0
 40
10.39417280545603
100
AcDbArc
 50
250.528988626054
 51
289.4709886258899
  0
LINE
  5
1B4FC
330
1F
100
AcDbEntity
  8
anbauteile dünn
  6
Continuous
 62
     1
100
AcDbLine
 10
22717.56877685365
 20
1073.777468088053
 30
0.0
 11
22717.56877685365
 21
1078.987513838055
 31
0.0
  0
ARC
  5
1B4FD
330
1F
100
AcDbEntity
  8
anbauteile dünn
  6
Continuous
 62
     1
100
AcDbCircle
 10
22719.24109394409
 20
1076.935098172547
 30
0.0
 40
2.647461900579711
100
AcDbArc
 50
47.35929557780145
 51
129.1732955780095
  0
LINE
  5
1B4FE
330
1F
100
AcDbEntity
  8
anbauteile dünn
  6
Continuous
 62
     1
100
AcDbLine
 10
22721.03448130364
 20
1078.882613588051
 30
0.0
 11
22721.0347338724
 21
1073.882120679605
 31
0.0
  0
ARC
  5
1B4FF
330
1F
100
AcDbEntity
  8
anbauteile dünn
  6
Continuous
 62
     1
100
AcDbCircle
 10
22719.24133442122
 20
1075.830280857637
 30
0.0
 40
2.647944423656769
100
AcDbArc
 50
230.8274463174691
 51
312.6314463174322
  0
ARC
  5
1B500
330
1F
100
AcDbEntity
  8
anbauteile dünn
  6
Continuous
 62
     1
100
AcDbCircle
 10
22708.96748394578
 20
1076.935598816202
 30
0.0
 40
2.646711521608738
100
AcDbArc
 50
50.82506347441608
 51
132.6390634744598
  0
LINE
  5
1B501
330
1F
100
AcDbEntity
  8
anbauteile dünn
  6
Continuous
 62
     1
100
AcDbLine
 10
22707.17466065364
 20
1078.882613588051
 30
0.0
 11
22707.17498297072
 21
1073.882949423208
 31
0.0
  0
ARC
  5
1B502
330
1F
100
AcDbEntity
  8
anbauteile dünn
  6
Continuous
 62
     1
100
AcDbCircle
 10
22708.96806841677
 20
1075.829610505086
 30
0.0
 40
2.64662894726781
100
AcDbArc
 50
227.3515749963272
 51
309.1605749962326
  0
LINE
  5
1B503
330
1F
100
AcDbEntity
  8
anbauteile dünn
  6
Continuous
 62
     1
100
AcDbLine
 10
22708.96895445364
 20
1109.593410588054
 30
0.0
 11
22719.24118655364
 21
1109.593410588054
 31
0.0
  0
LINE
  5
1B504
330
1F
100
AcDbEntity
  8
anbauteile dünn
  6
Continuous
 62
     1
100
AcDbLine
 10
22708.96895445364
 20
1115.993324888051
 30
0.0
 11
22719.24118655364
 21
1115.993324888051
 31
0.0
  0
ARC
  5
1B505
330
1F
100
AcDbEntity
  8
anbauteile dünn
  6
Continuous
 62
     1
100
AcDbCircle
 10
22714.10410094491
 20
1105.600049572825
 30
0.0
 40
10.39240521844087
100
AcDbArc
 50
70.52472821271209
 51
109.4747282126504
  0
LINE
  5
1B506
330
1F
100
AcDbEntity
  8
anbauteile dünn
  6
Continuous
 62
     1
100
AcDbLine
 10
22710.63936605365
 20
1115.397891088053
 30
0.0
 11
22710.63940379021
 21
1110.187846713626
 31
0.0
  0
ARC
  5
1B507
330
1F
100
AcDbEntity
  8
anbauteile dünn
  6
Continuous
 62
     1
100
AcDbCircle
 10
22714.1040922673
 20
1119.98757946847
 30
0.0
 40
10.39417280545626
100
AcDbArc
 50
250.528988626054
 51
289.4709886261125
  0
LINE
  5
1B508
330
1F
100
AcDbEntity
  8
anbauteile dünn
  6
Continuous
 62
     1
100
AcDbLine
 10
22717.56877685365
 20
1110.187845338055
 30
0.0
 11
22717.56877685365
 21
1115.397891088053
 31
0.0
  0
ARC
  5
1B509
330
1F
100
AcDbEntity
  8
anbauteile dünn
  6
Continuous
 62
     1
100
AcDbCircle
 10
22719.24051741901
 20
1113.344975897547
 30
0.0
 40
2.647485089150357
100
AcDbArc
 50
47.34279432821265
 51
129.1567943283808
  0
LINE
  5
1B50A
330
1F
100
AcDbEntity
  8
anbauteile dünn
  6
Continuous
 62
     1
100
AcDbLine
 10
22721.03448130364
 20
1115.291991788057
 30
0.0
 11
22721.0347338724
 21
1110.292497929603
 31
0.0
  0
ARC
  5
1B50B
330
1F
100
AcDbEntity
  8
anbauteile dünn
  6
Continuous
 62
     1
100
AcDbCircle
 10
22719.24133442121
 20
1112.240658107635
 30
0.0
 40
2.647944423657107
100
AcDbArc
 50
230.8274463174691
 51
312.6314463177001
  0
ARC
  5
1B50C
330
1F
100
AcDbEntity
  8
anbauteile dünn
  6
Continuous
 62
     1
100
AcDbCircle
 10
22708.96806047087
 20
1113.345476541202
 30
0.0
 40
2.646734688373209
100
AcDbArc
 50
50.84156941675114
 51
132.6555694169545
  0
LINE
  5
1B50D
330
1F
100
AcDbEntity
  8
anbauteile dünn
  6
Continuous
 62
     1
100
AcDbLine
 10
22707.17466065364
 20
1115.291991788057
 30
0.0
 11
22707.17498297072
 21
1110.293326673206
 31
0.0
  0
ARC
  5
1B50E
330
1F
100
AcDbEntity
  8
anbauteile dünn
  6
Continuous
 62
     1
100
AcDbCircle
 10
22708.96806841677
 20
1112.239987755077
 30
0.0
 40
2.646628947267814
100
AcDbArc
 50
227.3515749960592
 51
309.1605749962326
  0
LINE
  5
1B50F
330
1F
100
AcDbEntity
  8
anbauteile dünn
  6
Continuous
 62
     1
100
AcDbLine
 10
22624.93785990365
 20
1115.992325838051
 30
0.0
 11
22624.93785990365
 21
1119.099371338052
 31
0.0
  0
LINE
  5
1B510
330
1F
100
AcDbEntity
  8
anbauteile dünn
  6
Continuous
 62
     1
100
AcDbLine
 10
22631.70842175364
 20
1115.992325838051
 30
0.0
 11
22631.70842175364
 21
1119.099371338052
 31
0.0
  0
LINE
  5
1B511
330
1F
100
AcDbEntity
  8
anbauteile dünn
  6
Continuous
 62
     1
100
AcDbLine
 10
22632.32283750364
 20
1064.062705888052
 30
0.0
 11
22632.32283750364
 21
1066.214659588054
 31
0.0
  0
LINE
  5
1B512
330
1F
100
AcDbEntity
  8
anbauteile dünn
  6
Continuous
 62
     1
100
AcDbLine
 10
22632.32283750364
 20
1066.214659588054
 30
0.0
 11
22624.32344415365
 21
1066.214659588054
 31
0.0
  0
LINE
  5
1B513
330
1F
100
AcDbEntity
  8
anbauteile dünn
  6
Continuous
 62
     1
100
AcDbLine
 10
22624.32344415365
 20
1066.214659588054
 30
0.0
 11
22624.32344415365
 21
1064.062705888052
 31
0.0
  0
LINE
  5
1B514
330
1F
100
AcDbEntity
  8
anbauteile dünn
  6
Continuous
 62
     1
100
AcDbLine
 10
22632.32283750364
 20
1115.992325838051
 30
0.0
 11
22632.32283750364
 21
1117.099273238054
 31
0.0
  0
LINE
  5
1B515
330
1F
100
AcDbEntity
  8
anbauteile dünn
  6
Continuous
 62
     1
100
AcDbLine
 10
22632.32283750364
 20
1117.099273238054
 30
0.0
 11
22624.32344415365
 21
1117.099273238054
 31
0.0
  0
LINE
  5
1B516
330
1F
100
AcDbEntity
  8
anbauteile dünn
  6
Continuous
 62
     1
100
AcDbLine
 10
22624.32344415365
 20
1117.099273238054
 30
0.0
 11
22624.32344415365
 21
1115.992325838051
 31
0.0
  0
LINE
  5
1B517
330
1F
100
AcDbEntity
  8
anbauteile dünn
  6
Continuous
 62
     1
100
AcDbLine
 10
22632.32283750364
 20
1117.099273238054
 30
0.0
 11
22631.70842175364
 21
1119.099371338052
 31
0.0
  0
LINE
  5
1B518
330
1F
100
AcDbEntity
  8
anbauteile dünn
  6
Continuous
 62
     1
100
AcDbLine
 10
22631.70842175364
 20
1119.099371338052
 30
0.0
 11
22624.93785990365
 21
1119.099371338052
 31
0.0
  0
LINE
  5
1B519
330
1F
100
AcDbEntity
  8
anbauteile dünn
  6
Continuous
 62
     1
100
AcDbLine
 10
22624.93785990365
 20
1119.099371338052
 30
0.0
 11
22624.32344415365
 21
1117.099273238054
 31
0.0
  0
LINE
  5
1B51A
330
1F
100
AcDbEntity
  8
anbauteile dünn
  6
Continuous
 62
     1
100
AcDbLine
 10
22633.45975640365
 20
1079.582947638052
 30
0.0
 11
22623.18752430365
 21
1079.582947638052
 31
0.0
  0
ARC
  5
1B51B
330
1F
100
AcDbEntity
  8
anbauteile dünn
  6
Continuous
 62
     1
100
AcDbCircle
 10
22623.18702245114
 20
1076.935745940463
 30
0.0
 40
2.646582704274206
100
AcDbArc
 50
50.82673692496061
 51
132.6407369250657
  0
LINE
  5
1B51C
330
1F
100
AcDbEntity
  8
anbauteile dünn
  6
Continuous
 62
     1
100
AcDbLine
 10
22621.39422955365
 20
1078.882613588051
 30
0.0
 11
22621.3939769849
 21
1073.882120679605
 31
0.0
  0
ARC
  5
1B51D
330
1F
100
AcDbEntity
  8
anbauteile dünn
  6
Continuous
 62
     1
100
AcDbCircle
 10
22623.18685883674
 20
1075.829681762483
 30
0.0
 40
2.647153094596648
100
AcDbArc
 50
227.3680137856082
 51
309.1720137855217
  0
LINE
  5
1B51E
330
1F
100
AcDbEntity
  8
anbauteile dünn
  6
Continuous
 62
     1
100
AcDbLine
 10
22624.85893495364
 20
1073.777468088053
 30
0.0
 11
22624.85893495364
 21
1078.987513838055
 31
0.0
  0
ARC
  5
1B51F
330
1F
100
AcDbEntity
  8
anbauteile dünn
  6
Continuous
 62
     1
100
AcDbCircle
 10
22628.32344813459
 20
1069.189867035732
 30
0.0
 40
10.3921477300917
100
AcDbArc
 50
70.52393367813698
 51
109.4739336782247
  0
LINE
  5
1B520
330
1F
100
AcDbEntity
  8
anbauteile dünn
  6
Continuous
 62
     1
100
AcDbLine
 10
22631.78832599777
 20
1078.987384876352
 30
0.0
 11
22631.78834575365
 21
1073.777468088053
 31
0.0
  0
ARC
  5
1B521
330
1F
100
AcDbEntity
  8
anbauteile dünn
  6
Continuous
 62
     1
100
AcDbCircle
 10
22628.32366116731
 20
1083.577202218475
 30
0.0
 40
10.39417280545651
100
AcDbArc
 50
250.528988626054
 51
289.4709886258899
  0
ARC
  5
1B522
330
1F
100
AcDbEntity
  8
anbauteile dünn
  6
Continuous
 62
     1
100
AcDbCircle
 10
22633.45964339053
 20
1075.82961050509
 30
0.0
 40
2.646628947275346
100
AcDbArc
 50
230.8394250037674
 51
312.6484250036727
  0
LINE
  5
1B523
330
1F
100
AcDbEntity
  8
anbauteile dünn
  6
Continuous
 62
     1
100
AcDbLine
 10
22635.25272883658
 20
1073.882949423208
 30
0.0
 11
22635.2528986998
 21
1078.881876029121
 31
0.0
  0
ARC
  5
1B524
330
1F
100
AcDbEntity
  8
anbauteile dünn
  6
Continuous
 62
     1
100
AcDbCircle
 10
22633.45972600901
 20
1076.935318013783
 30
0.0
 40
2.64661225079028
100
AcDbArc
 50
47.34867411003177
 51
129.1626741099076
  0
LINE
  5
1B525
330
1F
100
AcDbEntity
  8
anbauteile dünn
  6
Continuous
 62
     1
100
AcDbLine
 10
22633.45975640365
 20
1109.593410588054
 30
0.0
 11
22623.18752430365
 21
1109.593410588054
 31
0.0
  0
LINE
  5
1B526
330
1F
100
AcDbEntity
  8
anbauteile dünn
  6
Continuous
 62
     1
100
AcDbLine
 10
22633.45975640365
 20
1115.993324888051
 30
0.0
 11
22623.18752430365
 21
1115.993324888051
 31
0.0
  0
ARC
  5
1B527
330
1F
100
AcDbEntity
  8
anbauteile dünn
  6
Continuous
 62
     1
100
AcDbCircle
 10
22623.18759897624
 20
1113.345623665463
 30
0.0
 40
2.64660589331372
100
AcDbArc
 50
50.84324365606654
 51
132.6572436560369
  0
LINE
  5
1B528
330
1F
100
AcDbEntity
  8
anbauteile dünn
  6
Continuous
 62
     1
100
AcDbLine
 10
22621.39422955365
 20
1115.291991788057
 30
0.0
 11
22621.3939769849
 21
1110.292497929603
 31
0.0
  0
ARC
  5
1B529
330
1F
100
AcDbEntity
  8
anbauteile dünn
  6
Continuous
 62
     1
100
AcDbCircle
 10
22623.18685883674
 20
1112.240059012485
 30
0.0
 40
2.647153094596482
100
AcDbArc
 50
227.3680137856082
 51
309.1720137855217
  0
LINE
  5
1B52A
330
1F
100
AcDbEntity
  8
anbauteile dünn
  6
Continuous
 62
     1
100
AcDbLine
 10
22624.85893495364
 20
1110.187845338055
 30
0.0
 11
22624.85893495364
 21
1115.397891088053
 31
0.0
  0
ARC
  5
1B52B
330
1F
100
AcDbEntity
  8
anbauteile dünn
  6
Continuous
 62
     1
100
AcDbCircle
 10
22628.32344813459
 20
1105.600244285731
 30
0.0
 40
10.39214773009191
100
AcDbArc
 50
70.52393367813698
 51
109.4739336782247
  0
LINE
  5
1B52C
330
1F
100
AcDbEntity
  8
anbauteile dünn
  6
Continuous
 62
     1
100
AcDbLine
 10
22631.78832599777
 20
1115.397762126354
 30
0.0
 11
22631.78834575365
 21
1110.187845338055
 31
0.0
  0
ARC
  5
1B52D
330
1F
100
AcDbEntity
  8
anbauteile dünn
  6
Continuous
 62
     1
100
AcDbCircle
 10
22628.3236611673
 20
1119.98757946847
 30
0.0
 40
10.39417280545649
100
AcDbArc
 50
250.528988626054
 51
289.4709886261125
  0
ARC
  5
1B52E
330
1F
100
AcDbEntity
  8
anbauteile dünn
  6
Continuous
 62
     1
100
AcDbCircle
 10
22633.45964339052
 20
1112.239987755085
 30
0.0
 40
2.646628947275634
100
AcDbArc
 50
230.8394250037674
 51
312.6484250039407
  0
LINE
  5
1B52F
330
1F
100
AcDbEntity
  8
anbauteile dünn
  6
Continuous
 62
     1
100
AcDbLine
 10
22635.25272883658
 20
1110.293326673206
 30
0.0
 11
22635.2528986998
 21
1115.29225327913
 31
0.0
  0
ARC
  5
1B530
330
1F
100
AcDbEntity
  8
anbauteile dünn
  6
Continuous
 62
     1
100
AcDbCircle
 10
22633.45972600902
 20
1113.345695263789
 30
0.0
 40
2.646612250789956
100
AcDbArc
 50
47.34867411029981
 51
129.1626741101803
  0
LINE
  5
1B531
330
1F
100
AcDbEntity
  8
AM_0
  6
Continuous
100
AcDbLine
 10
22771.20477420365
 20
1150.493518538052
 30
0.0
 11
22770.43750380364
 21
1149.726248138052
 31
0.0
  0
LINE
  5
1B532
330
1F
100
AcDbEntity
  8
AM_0
  6
Continuous
 62
     7
100
AcDbLine
 10
22657.69371225364
 20
1084.954839488054
 30
0.0
 11
22657.69371225364
 21
1092.945241388053
 31
0.0
  0
LINE
  5
1B533
330
1F
100
AcDbEntity
  8
AM_0
  6
Continuous
 62
     7
100
AcDbLine
 10
22684.73300050364
 20
1092.945241388053
 30
0.0
 11
22684.73300050364
 21
1084.954839488054
 31
0.0
  0
LINE
  5
1B534
330
1F
100
AcDbEntity
  8
AM_0
  6
Continuous
 62
     7
100
AcDbLine
 10
22620.31125935366
 20
1095.944389488056
 30
0.0
 11
22718.10426765365
 21
1095.945388538053
 31
0.0
  0
ARC
  5
1B535
330
1F
100
AcDbEntity
  8
AM_0
  6
Continuous
 62
     7
100
AcDbCircle
 10
22620.31175887865
 20
1098.944037113054
 30
0.0
 40
2.999647666592931
100
AcDbArc
 50
179.9904586546566
 51
269.9904586546566
  0
LINE
  5
1B536
330
1F
100
AcDbEntity
  8
AM_0
  6
Continuous
 62
     7
100
AcDbLine
 10
22617.31211125364
 20
1098.944536638053
 30
0.0
 11
22617.31211125364
 21
1108.592362488052
 31
0.0
  0
ARC
  5
1B537
330
1F
100
AcDbEntity
  8
AM_0
  6
Continuous
 62
     7
100
AcDbCircle
 10
22618.31265982864
 20
1108.592862013054
 30
0.0
 40
1.000548699694505
100
AcDbArc
 50
90.0286049799662
 51
180.0286049799662
  0
LINE
  5
1B538
330
1F
100
AcDbEntity
  8
AM_0
  6
Continuous
 62
     7
100
AcDbLine
 10
22618.31216030364
 20
1109.593410588054
 30
0.0
 11
22724.11555150365
 21
1109.593410588054
 31
0.0
  0
ARC
  5
1B539
330
1F
100
AcDbEntity
  8
AM_0
  6
Continuous
 62
     7
100
AcDbCircle
 10
22724.11505197864
 20
1108.59386106305
 30
0.0
 40
0.9995496498189343
100
AcDbArc
 50
359.971366429452
 51
89.97136642945198
  0
LINE
  5
1B53A
330
1F
100
AcDbEntity
  8
AM_0
  6
Continuous
 62
     7
100
AcDbLine
 10
22725.11460150365
 20
1108.593361538052
 30
0.0
 11
22725.11460150365
 21
1098.945535688053
 31
0.0
  0
ARC
  5
1B53B
330
1F
100
AcDbEntity
  8
AM_0
  6
Continuous
 62
     7
100
AcDbCircle
 10
22722.11445435365
 20
1098.944536638053
 30
0.0
 40
3.000147316342596
100
AcDbArc
 50
270.0190795128538
 51
0.0190795128537775
  0
LINE
  5
1B53C
330
1F
100
AcDbEntity
  8
AM_0
  6
Continuous
 62
     7
100
AcDbLine
 10
22722.11545340364
 20
1095.944389488053
 30
0.0
 11
22718.10426765365
 21
1095.945388538053
 31
0.0
  0
LINE
  5
1B53D
330
1F
100
AcDbEntity
  8
anbauteile dünn
  6
Continuous
 62
     1
100
AcDbLine
 10
22615.81253720365
 20
1070.347729438053
 30
0.0
 11
22615.81153815364
 21
1072.182984288054
 31
0.0
  0
ARC
  5
1B53E
330
1F
100
AcDbEntity
  8
anbauteile dünn
  6
Continuous
 62
     1
100
AcDbCircle
 10
22616.81158720365
 20
1072.182984288054
 30
0.0
 40
1.000049050000203
100
AcDbArc
 50
90.0
 51
180.0
  0
LINE
  5
1B53F
330
1F
100
AcDbEntity
  8
anbauteile dünn
  6
Continuous
 62
     1
100
AcDbLine
 10
22616.81158720365
 20
1073.183033338052
 30
0.0
 11
22647.66424930364
 21
1073.183033338052
 31
0.0
  0
LINE
  5
1B540
330
1F
100
AcDbEntity
  8
anbauteile dünn
  6
Continuous
 62
     1
100
AcDbLine
 10
22647.66424930364
 20
1073.182034288052
 30
0.0
 11
22725.61512555365
 21
1073.183033338052
 31
0.0
  0
ARC
  5
1B541
330
1F
100
AcDbEntity
  8
anbauteile dünn
  6
Continuous
 62
     1
100
AcDbCircle
 10
22725.61512555365
 20
1072.182984288054
 30
0.0
 40
1.000049049999975
100
AcDbArc
 50
0.0
 51
90.0
  0
LINE
  5
1B542
330
1F
100
AcDbEntity
  8
anbauteile dünn
  6
Continuous
 62
     1
100
AcDbLine
 10
22726.61517460364
 20
1072.182984288054
 30
0.0
 11
22726.61517460364
 21
1070.348728488053
 31
0.0
  0
LINE
  5
1B543
330
1F
100
AcDbEntity
  8
anbauteile dünn
  6
Continuous
 62
     1
100
AcDbLine
 10
22688.76416725364
 20
1084.955838538054
 30
0.0
 11
22653.66354455364
 21
1084.955838538054
 31
0.0
  0
ARC
  5
1B544
330
1F
100
AcDbEntity
  8
anbauteile dünn
  6
Continuous
 62
     1
100
AcDbCircle
 10
22653.66354455364
 20
1081.955691388055
 30
0.0
 40
3.000147150000383
100
AcDbArc
 50
90.0
 51
180.0
  0
LINE
  5
1B545
330
1F
100
AcDbEntity
  8
anbauteile dünn
  6
Continuous
 62
     1
100
AcDbLine
 10
22650.66339740365
 20
1081.955691388055
 30
0.0
 11
22650.66339740365
 21
1076.182181438056
 31
0.0
  0
LINE
  5
1B546
330
1F
100
AcDbEntity
  8
anbauteile dünn
  6
Continuous
 62
     1
100
AcDbLine
 10
22691.76431440365
 20
1076.182181438056
 30
0.0
 11
22691.76431440365
 21
1081.955691388055
 31
0.0
  0
ARC
  5
1B547
330
1F
100
AcDbEntity
  8
anbauteile dünn
  6
Continuous
 62
     1
100
AcDbCircle
 10
22688.76416725364
 20
1081.955691388055
 30
0.0
 40
3.000147150000609
100
AcDbArc
 50
0.0
 51
90.0
  0
LINE
  5
1B548
330
1F
100
AcDbEntity
  8
AM_0
  6
Continuous
 62
     7
100
AcDbLine
 10
22707.35648775365
 20
1048.224766238053
 30
0.0
 11
22723.61502745364
 21
1048.224766238053
 31
0.0
  0
LINE
  5
1B549
330
1F
100
AcDbEntity
  8
AM_0
  6
Continuous
 62
     7
100
AcDbLine
 10
22723.61502745364
 20
1048.224766238053
 30
0.0
 11
22723.61602650365
 21
1063.062656838053
 31
0.0
  0
ARC
  5
1B54A
330
1F
100
AcDbEntity
  8
AM_0
  6
Continuous
 62
     7
100
AcDbCircle
 10
22722.61597745365
 20
1063.062656838053
 30
0.0
 40
1.000049049999975
100
AcDbArc
 50
0.0
 51
90.0
  0
LINE
  5
1B54B
330
1F
100
AcDbEntity
  8
AM_0
  6
Continuous
 62
     7
100
AcDbLine
 10
22722.61597745365
 20
1064.062705888052
 30
0.0
 11
22619.81173435364
 21
1064.062705888052
 31
0.0
  0
ARC
  5
1B54C
330
1F
100
AcDbEntity
  8
AM_0
  6
Continuous
 62
     7
100
AcDbCircle
 10
22619.81173435364
 20
1063.062656838053
 30
0.0
 40
1.000049050000203
100
AcDbArc
 50
90.0
 51
180.0
  0
LINE
  5
1B54D
330
1F
100
AcDbEntity
  8
AM_0
  6
Continuous
 62
     7
100
AcDbLine
 10
22618.81168530365
 20
1063.062656838053
 30
0.0
 11
22618.81168530365
 21
1048.224766238053
 31
0.0
  0
LINE
  5
1B54E
330
1F
100
AcDbEntity
  8
AM_0
  6
Continuous
 62
     7
100
AcDbLine
 10
22618.81168530365
 20
1048.224766238053
 30
0.0
 11
22707.35648775365
 21
1048.224766238053
 31
0.0
  0
ARC
  5
1B54F
330
1F
100
AcDbEntity
  8
AM_0
  6
Continuous
 62
     7
100
AcDbCircle
 10
22586.22167525365
 20
994.4019465380549
 30
0.0
 40
2.000098099999999
100
AcDbArc
 50
90.0
 51
180.0
  0
ARC
  5
1B550
330
1F
100
AcDbEntity
  8
AM_0
  6
Continuous
 62
     7
100
AcDbCircle
 10
22756.20603655365
 20
955.8056478880528
 30
0.0
 40
2.000098099999999
100
AcDbArc
 50
270.0
 51
0.0
  0
ARC
  5
1B551
330
1F
100
AcDbEntity
  8
AM_0
  6
Continuous
 62
     7
100
AcDbCircle
 10
22756.20603655365
 20
994.4019465380549
 30
0.0
 40
2.000098099999999
100
AcDbArc
 50
0.0
 51
90.0
  0
ARC
  5
1B552
330
1F
100
AcDbEntity
  8
AM_0
  6
Continuous
 62
     7
100
AcDbCircle
 10
22749.15278448669
 20
970.3016964323282
 30
0.0
 40
3.054056556021676
100
AcDbArc
 50
0.0593603730271474
 51
24.48900528442414
  0
ARC
  5
1B553
330
1F
100
AcDbEntity
  8
AM_0
  6
Continuous
 62
     7
100
AcDbCircle
 10
22748.92051702962
 20
970.1910207218856
 30
0.0
 40
3.311309545384142
100
AcDbArc
 50
24.56583486258757
 51
47.63509885238642
  0
ARC
  5
1B554
330
1F
100
AcDbEntity
  8
AM_0
  6
Continuous
 62
     7
100
AcDbCircle
 10
22748.70246619759
 20
969.9496462730163
 30
0.0
 40
3.636587322675112
100
AcDbArc
 50
47.6593511596952
 51
69.36660115383881
  0
ARC
  5
1B555
330
1F
100
AcDbEntity
  8
AM_0
  6
Continuous
 62
     7
100
AcDbCircle
 10
22748.61190764676
 20
969.7248228094172
 30
0.0
 40
3.878904935435388
100
AcDbArc
 50
69.28499527630274
 51
90.0833747895885
  0
ARC
  5
1B556
330
1F
100
AcDbEntity
  8
AM_0
  6
Continuous
 62
     7
100
AcDbCircle
 10
22593.81580416052
 20
969.7248228094172
 30
0.0
 40
3.878904935434869
100
AcDbArc
 50
89.91662521041147
 51
110.7150047236972
  0
ARC
  5
1B557
330
1F
100
AcDbEntity
  8
AM_0
  6
Continuous
 62
     7
100
AcDbCircle
 10
22593.72524560971
 20
969.9496462730163
 30
0.0
 40
3.636587322675636
100
AcDbArc
 50
110.6333988461612
 51
132.3406488403048
  0
ARC
  5
1B558
330
1F
100
AcDbEntity
  8
AM_0
  6
Continuous
 62
     7
100
AcDbCircle
 10
22593.50719477767
 20
970.1910207218856
 30
0.0
 40
3.311309545383917
100
AcDbArc
 50
132.3649011476136
 51
178.0298348864062
  0
LINE
  5
1B559
330
1F
100
AcDbEntity
  8
AM_0
  6
Continuous
 62
     7
100
AcDbLine
 10
22593.82144860365
 20
973.6037236380539
 30
0.0
 11
22748.60626320351
 21
973.6037236380539
 31
0.0
  0
LINE
  5
1B55A
330
1F
100
AcDbEntity
  8
AM_0
  6
Continuous
 62
     7
100
AcDbLine
 10
22758.20613465366
 20
955.8056478880528
 30
0.0
 11
22758.20613465366
 21
970.3048605380567
 31
0.0
  0
ARC
  5
1B55B
330
1F
100
AcDbEntity
  8
AM_0
  6
Continuous
 62
     7
100
AcDbCircle
 10
22748.61190764676
 20
980.4827716166906
 30
0.0
 40
3.878904935435551
100
AcDbArc
 50
269.9166252104115
 51
290.7150047236973
  0
ARC
  5
1B55C
330
1F
100
AcDbEntity
  8
AM_0
  6
Continuous
 62
     7
100
AcDbCircle
 10
22748.70246619759
 20
980.2579481530916
 30
0.0
 40
3.636587322675078
100
AcDbArc
 50
290.6333988461612
 51
312.3406488403048
  0
ARC
  5
1B55D
330
1F
100
AcDbEntity
  8
AM_0
  6
Continuous
 62
     7
100
AcDbCircle
 10
22748.91806935959
 20
980.0170732292203
 30
0.0
 40
3.313328317673541
100
AcDbArc
 50
312.3903540161028
 51
335.4596180058291
  0
ARC
  5
1B55E
330
1F
100
AcDbEntity
  8
AM_0
  6
Continuous
 62
     7
100
AcDbCircle
 10
22749.15278448669
 20
979.9068970437796
 30
0.0
 40
3.054056556021606
100
AcDbArc
 50
335.5109947155759
 51
359.9406396269728
  0
ARC
  5
1B55F
330
1F
100
AcDbEntity
  8
AM_0
  6
Continuous
 62
     7
100
AcDbCircle
 10
22593.27542684561
 20
979.904589539397
 30
0.0
 40
3.053555512110368
100
AcDbArc
 50
180.0160729490252
 51
204.4457178606083
  0
ARC
  5
1B560
330
1F
100
AcDbEntity
  8
AM_0
  6
Continuous
 62
     7
100
AcDbCircle
 10
22593.5096424477
 20
980.0170732292203
 30
0.0
 40
3.313328317673226
100
AcDbArc
 50
204.5403819941709
 51
227.6096459838972
  0
ARC
  5
1B561
330
1F
100
AcDbEntity
  8
AM_0
  6
Continuous
 62
     7
100
AcDbCircle
 10
22593.72524560971
 20
980.2579481530916
 30
0.0
 40
3.636587322675616
100
AcDbArc
 50
227.6593511596952
 51
249.3666011538389
  0
ARC
  5
1B562
330
1F
100
AcDbEntity
  8
AM_0
  6
Continuous
 62
     7
100
AcDbCircle
 10
22593.81580416052
 20
980.4827716166906
 30
0.0
 40
3.878904935434883
100
AcDbArc
 50
249.2849952763027
 51
270.0833747895885
  0
LINE
  5
1B563
330
1F
100
AcDbEntity
  8
AM_0
  6
Continuous
 62
     7
100
AcDbLine
 10
22593.82144860365
 20
976.6038707880502
 30
0.0
 11
22748.60626320367
 21
976.6038707880502
 31
0.0
  0
LINE
  5
1B564
330
1F
100
AcDbEntity
  8
AM_0
  6
Continuous
 62
     7
100
AcDbLine
 10
22586.22167525365
 20
996.4020446380557
 30
0.0
 11
22737.438303337
 21
996.4020446380557
 31
0.0
  0
LINE
  5
1B565
330
1F
100
AcDbEntity
  8
AM_0
  6
Continuous
 62
     7
100
AcDbLine
 10
22756.20603655365
 20
996.4010455880556
 30
0.0
 11
22734.68250335365
 21
996.4010455880556
 31
0.0
  0
LINE
  5
1B566
330
1F
100
AcDbEntity
  8
AM_0
  6
Continuous
 62
     7
100
AcDbLine
 10
22758.20613465366
 20
994.4019465380549
 30
0.0
 11
22758.20613465366
 21
979.9037329380547
 31
0.0
  0
LINE
  5
1B567
330
1F
100
AcDbEntity
  8
AM_0
  6
Continuous
 62
     7
100
AcDbLine
 10
22758.20613465366
 20
979.9037329380547
 30
0.0
 11
22584.22157715364
 21
979.9037329380547
 31
0.0
  0
LINE
  5
1B568
330
1F
100
AcDbEntity
  8
AM_0
  6
Continuous
 62
     7
100
AcDbLine
 10
22584.22157715364
 20
979.9037329380547
 30
0.0
 11
22584.22157715364
 21
994.4019465380549
 31
0.0
  0
LINE
  5
1B569
330
1F
100
AcDbEntity
  8
AM_0
  6
Continuous
 62
     7
100
AcDbLine
 10
22671.21385590364
 20
1164.826888888055
 30
0.0
 11
22761.20528275365
 21
1164.826888888055
 31
0.0
  0
ARC
  5
1B56A
330
1F
100
AcDbEntity
  8
anbauteile dünn
  6
Continuous
 62
     1
100
AcDbCircle
 10
22671.27101345681
 20
1152.590675456285
 30
0.0
 40
7.996751440407005
100
AcDbArc
 50
241.5418289843559
 51
269.5904693957674
  0
ARC
  5
1B56B
330
1F
100
AcDbEntity
  8
anbauteile dünn
  6
Continuous
 62
     1
100
AcDbCircle
 10
22671.15669835048
 20
1152.590675456285
 30
0.0
 40
7.996751440407067
100
AcDbArc
 50
270.4095306042325
 51
298.4581710156442
  0
ARC
  5
1B56C
330
1F
100
AcDbEntity
  8
anbauteile dünn
  6
Continuous
 62
     1
100
AcDbCircle
 10
22666.19766525175
 20
1147.48632802633
 30
0.0
 40
3.047856738596321
100
AcDbArc
 50
215.16314731106
 51
237.3245776693389
  0
ARC
  5
1B56D
330
1F
100
AcDbEntity
  8
anbauteile dünn
  6
Continuous
 62
     1
100
AcDbCircle
 10
22665.67260866569
 20
1146.677931078698
 30
0.0
 40
2.083934860092301
100
AcDbArc
 50
237.4765000189321
 51
269.354941596352
  0
ARC
  5
1B56E
330
1F
100
AcDbEntity
  8
anbauteile dünn
  6
Continuous
 62
     1
100
AcDbCircle
 10
22665.62618566661
 20
1146.679680129804
 30
0.0
 40
2.085678241242896
100
AcDbArc
 50
270.6307958601189
 51
302.5092374374194
  0
ARC
  5
1B56F
330
1F
100
AcDbEntity
  8
anbauteile dünn
  6
Continuous
 62
     1
100
AcDbCircle
 10
22665.16750588599
 20
1147.400651823692
 30
0.0
 40
2.940188046382181
100
AcDbArc
 50
302.4962010913329
 51
321.2472644818963
  0
ARC
  5
1B570
330
1F
100
AcDbEntity
  8
anbauteile dünn
  6
Continuous
 62
     1
100
AcDbCircle
 10
22677.2602059213
 20
1147.400651823692
 30
0.0
 40
2.940188046382152
100
AcDbArc
 50
218.7527355181037
 51
237.5037989086671
  0
ARC
  5
1B571
330
1F
100
AcDbEntity
  8
anbauteile dünn
  6
Continuous
 62
     1
100
AcDbCircle
 10
22676.80102661568
 20
1146.677931078698
 30
0.0
 40
2.08393486009211
100
AcDbArc
 50
237.4765000189321
 51
269.354941596352
  0
ARC
  5
1B572
330
1F
100
AcDbEntity
  8
anbauteile dünn
  6
Continuous
 62
     1
100
AcDbCircle
 10
22676.75460361661
 20
1146.679680129804
 30
0.0
 40
2.085678241242892
100
AcDbArc
 50
270.6307958601189
 51
302.5092374374194
  0
ARC
  5
1B573
330
1F
100
AcDbEntity
  8
anbauteile dünn
  6
Continuous
 62
     1
100
AcDbCircle
 10
22676.22954703055
 20
1147.483777382159
 30
0.0
 40
3.045979966714681
100
AcDbArc
 50
302.709234050569
 51
324.8706644086772
  0
LINE
  5
1B574
330
1F
100
AcDbEntity
  8
anbauteile dünn
  6
Continuous
 62
     1
100
AcDbLine
 10
22667.46042505364
 20
1145.560209638053
 30
0.0
 11
22667.46042505364
 21
1149.726248138049
 31
0.0
  0
LINE
  5
1B575
330
1F
100
AcDbEntity
  8
anbauteile dünn
  6
Continuous
 62
     1
100
AcDbLine
 10
22674.96728675365
 20
1145.560209638053
 30
0.0
 11
22674.96728675364
 21
1149.726248138049
 31
0.0
  0
LINE
  5
1B576
330
1F
100
AcDbEntity
  8
anbauteile dünn
  6
Continuous
 62
     1
100
AcDbLine
 10
22663.70699420364
 20
1145.732046238052
 30
0.0
 11
22663.70699420364
 21
1149.726248138049
 31
0.0
  0
LINE
  5
1B577
330
1F
100
AcDbEntity
  8
anbauteile dünn
  6
Continuous
 62
     1
100
AcDbLine
 10
22678.71971855364
 20
1145.732046238052
 30
0.0
 11
22678.71971855364
 21
1149.726248138049
 31
0.0
  0
LINE
  5
1B578
330
1F
100
AcDbEntity
  8
anbauteile dünn
  6
Continuous
 62
     1
100
AcDbLine
 10
22680.61191925364
 20
1144.594128288051
 30
0.0
 11
22661.81579255365
 21
1144.594128288051
 31
0.0
  0
LINE
  5
1B579
330
1F
100
AcDbEntity
  8
AM_0
  6
Continuous
 62
     7
100
AcDbLine
 10
22659.04242975365
 20
1142.513107138056
 30
0.0
 11
22683.38528205365
 21
1142.513107138056
 31
0.0
  0
LINE
  5
1B57A
330
1F
100
AcDbEntity
  8
AM_0
  6
Continuous
 62
     7
100
AcDbLine
 10
22659.04242975365
 20
1122.112506138051
 30
0.0
 11
22683.38552648334
 21
1122.111928287616
 31
0.0
  0
LINE
  5
1B57B
330
1F
100
AcDbEntity
  8
AM_0
  6
Continuous
 62
     7
100
AcDbLine
 10
22730.37959500365
 20
881.5992110380534
 30
0.0
 11
22744.7564739058
 21
889.8998648343361
 31
0.0
  0
ARC
  5
1B57C
330
1F
100
AcDbEntity
  8
AM_0
  6
Continuous
 62
     7
100
AcDbCircle
 10
22743.10699247866
 20
892.7584657081675
 30
0.0
 40
3.300361788408818
100
AcDbArc
 50
299.9859793856392
 51
359.9849793856045
  0
LINE
  5
1B57D
330
1F
100
AcDbEntity
  8
AM_0
  6
Continuous
 62
     7
100
AcDbLine
 10
22746.40735415365
 20
718.1686177380537
 30
0.0
 11
22746.40735415365
 21
931.5487138880522
 31
0.0
  0
ARC
  5
1B57E
330
1F
100
AcDbEntity
  8
AM_0
  6
Continuous
 62
     7
100
AcDbCircle
 10
22749.70671677865
 20
931.5492134130504
 30
0.0
 40
3.299362662814619
100
AcDbArc
 50
90.00867460708333
 51
180.0086746068749
  0
LINE
  5
1B57F
330
1F
100
AcDbEntity
  8
AM_0
  6
Continuous
 62
     7
100
AcDbLine
 10
22749.70621725364
 20
934.8485760380532
 30
0.0
 11
22762.90566585364
 21
934.8485760380532
 31
0.0
  0
LINE
  5
1B580
330
1F
100
AcDbEntity
  8
AM_0
  6
Continuous
 62
     7
100
AcDbLine
 10
22762.90566585364
 20
934.8485760380532
 30
0.0
 11
22762.90566585364
 21
714.8677565380561
 31
0.0
  0
LINE
  5
1B581
330
1F
100
AcDbEntity
  8
AM_0
  6
Continuous
 62
     7
100
AcDbLine
 10
22762.90566585364
 20
714.8677565380561
 30
0.0
 11
22749.70621725364
 21
714.8687555880565
 31
0.0
  0
ARC
  5
1B582
330
1F
100
AcDbEntity
  8
AM_0
  6
Continuous
 62
     7
100
AcDbCircle
 10
22749.70671677865
 20
718.1681182130517
 30
0.0
 40
3.299362662814846
100
AcDbArc
 50
179.9913253931251
 51
269.9913253929167
  0
ARC
  5
1B583
330
1F
100
AcDbEntity
  8
AM_0
  6
Continuous
 62
     7
100
AcDbCircle
 10
22743.10699247864
 20
756.9588659528085
 30
0.0
 40
3.300361788409218
100
AcDbArc
 50
0.0150200088748949
 51
60.0160200089746
  0
LINE
  5
1B584
330
1F
100
AcDbEntity
  8
AM_0
  6
Continuous
 62
     7
100
AcDbLine
 10
22744.756374151
 20
759.8175243852379
 30
0.0
 11
22723.90175480365
 21
763.4765342880521
 31
0.0
  0
LINE
  5
1B585
102
{ACAD_REACTORS
330
1B5E2
102
}
330
1F
100
AcDbEntity
  8
AM_7
 48
0.1
100
AcDbLine
 10
22779.96244650364
 20
824.8581662880528
 30
0.0
 11
22560.66797435365
 21
824.8581662880528
 31
0.0
  0
LINE
  5
1B586
330
1F
100
AcDbEntity
  8
AM_0
  6
Continuous
 62
     7
100
AcDbLine
 10
22766.20552800364
 20
745.8652808880536
 30
0.0
 11
22766.20552800364
 21
903.8510516880556
 31
0.0
  0
LINE
  5
1B587
330
1F
100
AcDbEntity
  8
AM_0
  6
Continuous
 62
     7
100
AcDbLine
 10
22671.21385590364
 20
1164.826888888055
 30
0.0
 11
22581.22242905364
 21
1164.826888888055
 31
0.0
  0
ARC
  5
1B588
330
1F
100
AcDbEntity
  8
anbauteile dünn
  6
Continuous
 62
     1
100
AcDbCircle
 10
22671.17289485364
 20
1129.031926438052
 30
0.0
 40
14.77894665
100
AcDbArc
 50
250.1089999999785
 51
289.8429999999239
  0
ARC
  5
1B589
330
1F
100
AcDbEntity
  8
AM_0
  6
Continuous
 62
     7
100
AcDbCircle
 10
22687.73314765365
 20
1092.945241388053
 30
0.0
 40
3.00014715
100
AcDbArc
 50
90.0
 51
180.0
  0
ARC
  5
1B58A
330
1F
100
AcDbEntity
  8
AM_0
  6
Continuous
 62
     7
100
AcDbCircle
 10
22654.69356510364
 20
1092.945241388053
 30
0.0
 40
3.00014715
100
AcDbArc
 50
0.0
 51
90.0
  0
ARC
  5
1B58B
330
1F
100
AcDbEntity
  8
anbauteile dünn
  6
Continuous
 62
     1
100
AcDbCircle
 10
22694.76346250364
 20
1076.182181438056
 30
0.0
 40
3.00014715
100
AcDbArc
 50
180.0
 51
270.0
  0
ARC
  5
1B58C
330
1F
100
AcDbEntity
  8
anbauteile dünn
  6
Continuous
 62
     1
100
AcDbCircle
 10
22647.66424930364
 20
1076.182181438056
 30
0.0
 40
3.00014715
100
AcDbArc
 50
270.0
 51
0.0
  0
LINE
  5
1B58D
330
1F
100
AcDbEntity
  8
AM_0
  6
Continuous
 62
     7
100
AcDbLine
 10
22748.60626320365
 20
976.6038707880502
 30
0.0
 11
22748.60626320365
 21
973.6037236380539
 31
0.0
  0
LINE
  5
1B58E
330
1F
100
AcDbEntity
  8
AM_0
  6
Continuous
 62
     7
100
AcDbLine
 10
22593.82044955365
 20
976.6038707880502
 30
0.0
 11
22593.82044955365
 21
973.6037236380539
 31
0.0
  0
LINE
  5
1B58F
330
1F
100
AcDbEntity
  8
AM_0
  6
Continuous
 62
     7
100
AcDbLine
 10
22741.86061303388
 20
1149.726248138049
 30
0.0
 11
22683.93575860365
 21
1123.581109638053
 31
0.0
  0
LINE
  5
1B590
330
1F
100
AcDbEntity
  8
AM_0
  6
Continuous
 62
     7
100
AcDbLine
 10
22721.92015295551
 20
1149.726248138052
 30
0.0
 11
22685.24151695365
 21
1135.104152338055
 31
0.0
  0
LINE
  5
1B591
330
1F
100
AcDbEntity
  8
anbauteile dünn
  6
Continuous
 62
     1
100
AcDbLine
 10
22680.61191925364
 20
1144.567153938056
 30
0.0
 11
22680.61191925364
 21
1142.513107138056
 31
0.0
  0
LINE
  5
1B592
330
1F
100
AcDbEntity
  8
anbauteile dünn
  6
Continuous
 62
     1
100
AcDbLine
 10
22661.81579255365
 20
1144.567153938056
 30
0.0
 11
22661.81579255365
 21
1142.513107138056
 31
0.0
  0
LINE
  5
1B593
330
1F
100
AcDbEntity
  8
AM_0
  6
Continuous
 62
     7
100
AcDbLine
 10
22600.56726541428
 20
1149.726248138049
 30
0.0
 11
22658.49295225364
 21
1123.581109638053
 31
0.0
  0
LINE
  5
1B594
330
1F
100
AcDbEntity
  8
AM_0
  6
Continuous
 62
     7
100
AcDbLine
 10
22620.50751877334
 20
1149.726248138052
 30
0.0
 11
22657.18719390364
 21
1135.104152338055
 31
0.0
  0
ARC
  5
1B595
330
1F
100
AcDbEntity
  8
AM_0
  6
Continuous
 62
     7
100
AcDbCircle
 10
22658.36907005364
 20
1132.312806638055
 30
0.0
 40
27.0163101
100
AcDbArc
 50
337.8159999999815
 51
22.18400000001847
  0
ARC
  5
1B596
330
1F
100
AcDbEntity
  8
AM_0
  6
Continuous
 62
     7
100
AcDbCircle
 10
22684.05764270364
 20
1132.312806638055
 30
0.0
 40
27.01531105
100
AcDbArc
 50
157.8159999999815
 51
202.1840000000184
  0
ARC
  5
1B597
330
1F
100
AcDbEntity
  8
AM_0
  6
Continuous
 62
     7
100
AcDbCircle
 10
22707.3555445288
 20
1045.22436479499
 30
0.0
 40
2.999402541372271
100
AcDbArc
 50
89.98198214389203
 51
175.2759821437539
  0
LINE
  5
1B598
330
1F
100
AcDbEntity
  8
AM_0
  6
Continuous
 62
     7
100
AcDbLine
 10
22704.36633110365
 20
1045.471384438052
 30
0.0
 11
22703.82302526966
 21
1038.868004674357
 31
0.0
  0
ARC
  5
1B599
330
1F
100
AcDbEntity
  8
AM_0
  6
Continuous
 62
     7
100
AcDbCircle
 10
22708.79769569438
 20
1038.366491954915
 30
0.0
 40
4.999886082938181
100
AcDbArc
 50
174.243275839397
 51
231.3962758392893
  0
ARC
  5
1B59A
330
1F
100
AcDbEntity
  8
AM_0
  6
Continuous
 62
     7
100
AcDbCircle
 10
22671.21296803697
 20
991.2822224316071
 30
0.0
 40
55.2457792587296
100
AcDbArc
 50
13.39808038875557
 51
51.40208038864527
  0
ARC
  5
1B59B
330
1F
100
AcDbEntity
  8
AM_0
  6
Continuous
 62
     7
100
AcDbCircle
 10
22734.68250335365
 20
1006.400537038057
 30
0.0
 40
9.999491450001924
100
AcDbArc
 50
193.3980000000611
 51
270.0
  0
LINE
  5
1B59C
330
1F
100
AcDbEntity
  8
anbauteile dünn
  6
Continuous
 62
     1
100
AcDbLine
 10
22717.80055645365
 20
1067.039874888054
 30
0.0
 11
22723.77287735364
 21
1067.351578488054
 31
0.0
  0
ARC
  5
1B59D
330
1F
100
AcDbEntity
  8
anbauteile dünn
  6
Continuous
 62
     1
100
AcDbCircle
 10
22723.6148574274
 20
1070.347731664147
 30
0.0
 40
3.000317341833456
100
AcDbArc
 50
273.0190359208189
 51
0.0190359209949691
  0
LINE
  5
1B59E
330
1F
100
AcDbEntity
  8
anbauteile dünn
  6
Continuous
 62
     1
100
AcDbLine
 10
22624.62815440364
 20
1067.039874888054
 30
0.0
 11
22618.65483445364
 21
1067.352577538054
 31
0.0
  0
ARC
  5
1B59F
330
1F
100
AcDbEntity
  8
anbauteile dünn
  6
Continuous
 62
     1
100
AcDbCircle
 10
22618.81193883069
 20
1070.348862313479
 30
0.0
 40
3.000400680029143
100
AcDbArc
 50
180.0025555360812
 51
266.9985555359446
  0
LINE
  5
1B5A0
102
{ACAD_REACTORS
330
1B5EE
102
}
330
1F
100
AcDbEntity
  8
AM_0
  6
Continuous
 62
     7
100
AcDbLine
 10
22766.20552800364
 20
745.8652808880536
 30
0.0
 11
22764.40523990364
 21
745.8652808880536
 31
0.0
  0
ARC
  5
1B5A1
330
1F
100
AcDbEntity
  8
AM_0
  6
Continuous
 62
     7
100
AcDbCircle
 10
22764.40573942866
 20
744.366206363054
 30
0.0
 40
1.499074608226524
100
AcDbArc
 50
90.01909222837056
 51
180.0190922283706
  0
LINE
  5
1B5A2
330
1F
100
AcDbEntity
  8
AM_0
  6
Continuous
 62
     7
100
AcDbLine
 10
22766.20552800364
 20
903.8510516880556
 30
0.0
 11
22764.40523990364
 21
903.8510516880556
 31
0.0
  0
ARC
  5
1B5A3
330
1F
100
AcDbEntity
  8
AM_0
  6
Continuous
 62
     7
100
AcDbCircle
 10
22764.40573942866
 20
905.3501262130552
 30
0.0
 40
1.49907460822675
100
AcDbArc
 50
179.9809077716294
 51
269.9809077716295
  0
LINE
  5
1B5A4
330
1F
100
AcDbEntity
  8
AM_0
  6
Continuous
 62
     7
100
AcDbLine
 10
22677.96543580365
 20
1109.593410588054
 30
0.0
 11
22677.96543580365
 21
1113.803407288054
 31
0.0
  0
ARC
  5
1B5A5
330
1F
100
AcDbEntity
  8
AM_0
  6
Continuous
 62
     7
100
AcDbCircle
 10
22667.96644387869
 20
1113.799413061274
 30
0.0
 40
9.998992722726113
100
AcDbArc
 50
0.0228875397149761
 51
14.27988753971108
  0
LINE
  5
1B5A6
330
1F
100
AcDbEntity
  8
AM_0
  6
Continuous
 62
     7
100
AcDbLine
 10
22677.65649147823
 20
1116.265753059691
 30
0.0
 11
22676.17114200365
 21
1122.112506138051
 31
0.0
  0
LINE
  5
1B5A7
330
1F
100
AcDbEntity
  8
AM_0
  6
Continuous
 62
     7
100
AcDbLine
 10
22664.46227600364
 20
1109.593410588054
 30
0.0
 11
22664.46227600364
 21
1113.803407288054
 31
0.0
  0
ARC
  5
1B5A8
330
1F
100
AcDbEntity
  8
AM_0
  6
Continuous
 62
     7
100
AcDbCircle
 10
22674.46176745372
 20
1113.803407288028
 30
0.0
 40
9.999491450070431
100
AcDbArc
 50
165.7349999999279
 51
179.9999999997915
  0
LINE
  5
1B5A9
330
1F
100
AcDbEntity
  8
AM_0
  6
Continuous
 62
     7
100
AcDbLine
 10
22664.77059598614
 20
1116.26735226425
 30
0.0
 11
22666.25557075364
 21
1122.112506138051
 31
0.0
  0
ARC
  5
1B5AA
330
1F
100
AcDbEntity
  8
AM_0
  6
Continuous
 62
     7
100
AcDbCircle
 10
22607.74462730753
 20
1006.400648448797
 30
0.0
 40
9.999602877629923
100
AcDbArc
 50
270.0033298541679
 51
346.6043298542593
  0
ARC
  5
1B5AB
330
1F
100
AcDbEntity
  8
AM_0
  6
Continuous
 62
     7
100
AcDbCircle
 10
22671.21485129171
 20
991.2827107936967
 30
0.0
 40
55.24625041915047
100
AcDbArc
 50
128.5980436966614
 51
166.602043696634
  0
ARC
  5
1B5AC
330
1F
100
AcDbEntity
  8
AM_0
  6
Continuous
 62
     7
100
AcDbCircle
 10
22633.63191250756
 20
1038.366632809909
 30
0.0
 40
4.998027377579917
100
AcDbArc
 50
308.5888128127785
 51
5.741812812759829
  0
LINE
  5
1B5AD
330
1F
100
AcDbEntity
  8
AM_0
  6
Continuous
 62
     7
100
AcDbLine
 10
22638.60486390365
 20
1038.866664888053
 30
0.0
 11
22638.06038165364
 21
1045.470385388052
 31
0.0
  0
ARC
  5
1B5AE
330
1F
100
AcDbEntity
  8
AM_0
  6
Continuous
 62
     7
100
AcDbCircle
 10
22635.07063545048
 20
1045.224963963126
 30
0.0
 40
2.999802332676281
100
AcDbArc
 50
4.692757766677273
 51
89.98875776681222
  0
ARC
  5
1B5AF
330
1F
100
AcDbEntity
  8
anbauteile dünn
  6
Continuous
 62
     1
100
AcDbCircle
 10
22647.66477043067
 20
1062.828481430118
 30
0.0
 40
2.999626049340021
100
AcDbArc
 50
24.29654763656754
 51
87.0125966089941
  0
LINE
  5
1B5B0
330
1F
100
AcDbEntity
  8
anbauteile dünn
  6
Continuous
 62
     1
100
AcDbLine
 10
22647.82110015365
 20
1065.824031038053
 30
0.0
 11
22632.16498760365
 21
1066.644251088051
 31
0.0
  0
LINE
  5
1B5B1
330
1F
100
AcDbEntity
  8
anbauteile dünn
  6
Continuous
 62
     1
100
AcDbLine
 10
22717.79705977865
 20
1067.047867288056
 30
0.0
 11
22694.60761070364
 21
1065.824031038053
 31
0.0
  0
ARC
  5
1B5B2
330
1F
100
AcDbEntity
  8
anbauteile dünn
  6
Continuous
 62
     1
100
AcDbCircle
 10
22694.76344090162
 20
1062.827955086598
 30
0.0
 40
3.000125690280717
100
AcDbArc
 50
92.97735265630057
 51
155.6967310436228
  0
LINE
  5
1B5B3
330
1F
100
AcDbEntity
  8
AM_0
  6
Continuous
 62
     7
100
AcDbLine
 10
22723.61502745364
 20
1048.223767188053
 30
0.0
 11
22716.71458910365
 21
1031.003142338053
 31
0.0
  0
ARC
  5
1B5B4
330
1F
100
AcDbEntity
  8
AM_0
  6
Continuous
 62
     7
100
AcDbCircle
 10
22725.85053094564
 20
1026.940673643708
 30
0.0
 40
9.998454142158641
100
AcDbArc
 50
156.0267755564128
 51
213.1257755565415
  0
LINE
  5
1B5B5
330
1F
100
AcDbEntity
  8
AM_0
  6
Continuous
 62
     7
100
AcDbLine
 10
22618.81168530365
 20
1048.223767188053
 30
0.0
 11
22625.71312270365
 21
1031.003142338053
 31
0.0
  0
ARC
  5
1B5B6
330
1F
100
AcDbEntity
  8
AM_0
  6
Continuous
 62
     7
100
AcDbCircle
 10
22616.57718086165
 20
1026.940673643708
 30
0.0
 40
9.998454142158731
100
AcDbArc
 50
326.8742244434585
 51
23.9732244435872
  0
ARC
  5
1B5B7
330
1F
100
AcDbEntity
  8
AM_0
  6
Continuous
 62
     7
100
AcDbCircle
 10
22741.03195856723
 20
943.8074193833667
 30
0.0
 40
9.999129466815952
100
AcDbArc
 50
90.00282185405348
 51
170.7858218541434
  0
LINE
  5
1B5B8
330
1F
100
AcDbEntity
  8
AM_0
  6
Continuous
 62
     7
100
AcDbLine
 10
22731.16185115364
 20
945.408534538055
 30
0.0
 11
22725.87987380366
 21
912.8504940880516
 31
0.0
  0
LINE
  5
1B5B9
330
1F
100
AcDbEntity
  8
AM_0
  6
Continuous
 62
     7
100
AcDbLine
 10
22725.87987380366
 20
912.8504940880516
 30
0.0
 11
22725.87987380366
 21
884.1967410380526
 31
0.0
  0
ARC
  5
1B5BA
330
1F
100
AcDbEntity
  8
AM_0
  6
Continuous
 62
     7
100
AcDbCircle
 10
22728.87952142864
 20
884.1964526371553
 30
0.0
 40
2.999647638864649
100
AcDbArc
 50
179.9944913015147
 51
299.9944913015293
  0
ARC
  5
1B5BB
330
1F
100
AcDbEntity
  8
AM_0
  6
Continuous
 62
     7
100
AcDbCircle
 10
22723.38380821091
 20
760.5224565537787
 30
0.0
 40
2.999938922322929
100
AcDbArc
 50
80.05616771030423
 51
153.6061677103179
  0
ARC
  5
1B5BC
330
1F
100
AcDbEntity
  8
AM_0
  6
Continuous
 62
     7
100
AcDbCircle
 10
22671.21385590364
 20
786.4227146880835
 30
0.0
 40
55.24546690001653
100
AcDbArc
 50
206.4029999999338
 51
333.5970000000661
  0
ARC
  5
1B5BD
330
1F
100
AcDbEntity
  8
AM_0
  6
Continuous
 62
     7
100
AcDbCircle
 10
22761.20528275364
 20
1154.828396488057
 30
0.0
 40
9.999491450001098
100
AcDbArc
 50
0.0
 51
90.80992704716619
  0
LINE
  5
1B5BE
330
1F
100
AcDbEntity
  8
AM_0
  6
Continuous
 62
     7
100
AcDbLine
 10
22771.20477420365
 20
1154.828396488053
 30
0.0
 11
22771.20477420365
 21
1149.726248138052
 31
0.0
  0
LINE
  5
1B5BF
102
{ACAD_REACTORS
330
1B5DF
102
}
330
1F
100
AcDbEntity
  8
AM_0
  6
Continuous
 62
     7
100
AcDbLine
 10
22771.20477420365
 20
1149.726248138052
 30
0.0
 11
22571.22293760365
 21
1149.726248138052
 31
0.0
  0
ARC
  5
1B5C0
330
1F
100
AcDbEntity
  8
AM_0
  6
Continuous
 62
     7
100
AcDbCircle
 10
22581.22242905365
 20
1154.828396488057
 30
0.0
 40
9.999491450001098
100
AcDbArc
 50
89.1900729528338
 51
180.0
  0
LINE
  5
1B5C1
330
1F
100
AcDbEntity
  8
AM_0
  6
Continuous
 62
     7
100
AcDbLine
 10
22571.22293760365
 20
1154.828396488053
 30
0.0
 11
22571.22293760365
 21
1149.726248138052
 31
0.0
  0
LINE
  5
1B5C2
330
1F
100
AcDbEntity
  8
AM_0
  6
Continuous
100
AcDbLine
 10
22647.82110015365
 20
1065.824031038053
 30
0.0
 11
22694.60761070364
 21
1065.824031038053
 31
0.0
  0
LINE
  5
1B5C3
330
1F
100
AcDbEntity
  8
AM_0
  6
Continuous
100
AcDbLine
 10
22725.87987380366
 20
884.1967410395112
 30
0.0
 11
22722.02974671298
 21
763.199423306934
 31
0.0
  0
ARC
  5
1B5C4
330
1F
100
AcDbEntity
  8
AM_0
  6
Continuous
 62
     7
100
AcDbCircle
 10
22586.22267430364
 20
955.8056478880528
 30
0.0
 40
2.000098099999999
100
AcDbArc
 50
180.0
 51
270.0
  0
LINE
  5
1B5C5
330
1F
100
AcDbEntity
  8
AM_0
  6
Continuous
 62
     7
100
AcDbLine
 10
22584.22257620364
 20
955.8056478880528
 30
0.0
 11
22584.22257620364
 21
970.3048605380567
 31
0.0
  0
LINE
  5
1B5C6
330
1F
100
AcDbEntity
  8
AM_0
  6
Continuous
 62
     7
100
AcDbLine
 10
22612.04911585364
 20
881.5992110380534
 30
0.0
 11
22597.6722369515
 21
889.8998648343361
 31
0.0
  0
ARC
  5
1B5C7
330
1F
100
AcDbEntity
  8
AM_0
  6
Continuous
 62
     7
100
AcDbCircle
 10
22599.32171837864
 20
892.7584657081675
 30
0.0
 40
3.300361788408818
100
AcDbArc
 50
180.0150206141871
 51
240.0140206143608
  0
LINE
  5
1B5C8
330
1F
100
AcDbEntity
  8
AM_0
  6
Continuous
 62
     7
100
AcDbLine
 10
22596.02135670364
 20
718.1686177380537
 30
0.0
 11
22596.02135670364
 21
931.5487138880522
 31
0.0
  0
ARC
  5
1B5C9
330
1F
100
AcDbEntity
  8
AM_0
  6
Continuous
 62
     7
100
AcDbCircle
 10
22592.72199407864
 20
931.5492134130504
 30
0.0
 40
3.299362662814618
100
AcDbArc
 50
359.9913253931252
 51
89.99132539291668
  0
LINE
  5
1B5CA
330
1F
100
AcDbEntity
  8
AM_0
  6
Continuous
 62
     7
100
AcDbLine
 10
22592.72249360364
 20
934.8485760380532
 30
0.0
 11
22579.52304500364
 21
934.8485760380532
 31
0.0
  0
LINE
  5
1B5CB
330
1F
100
AcDbEntity
  8
AM_0
  6
Continuous
 62
     7
100
AcDbLine
 10
22579.52304500364
 20
934.8485760380532
 30
0.0
 11
22579.52304500364
 21
714.8677565380561
 31
0.0
  0
LINE
  5
1B5CC
330
1F
100
AcDbEntity
  8
AM_0
  6
Continuous
 62
     7
100
AcDbLine
 10
22579.52304500364
 20
714.8677565380561
 30
0.0
 11
22592.72249360364
 21
714.8687555880565
 31
0.0
  0
ARC
  5
1B5CD
330
1F
100
AcDbEntity
  8
AM_0
  6
Continuous
 62
     7
100
AcDbCircle
 10
22592.72199407864
 20
718.1681182130517
 30
0.0
 40
3.299362662814845
100
AcDbArc
 50
270.0086746068749
 51
0.0086746068748676
  0
ARC
  5
1B5CE
330
1F
100
AcDbEntity
  8
AM_0
  6
Continuous
 62
     7
100
AcDbCircle
 10
22599.32171837865
 20
756.9588659528085
 30
0.0
 40
3.300361788409218
100
AcDbArc
 50
119.9839799912645
 51
179.9849799911251
  0
LINE
  5
1B5CF
330
1F
100
AcDbEntity
  8
AM_0
  6
Continuous
 62
     7
100
AcDbLine
 10
22597.6723367063
 20
759.8175243852379
 30
0.0
 11
22618.52695605365
 21
763.4765342880521
 31
0.0
  0
LINE
  5
1B5D0
330
1F
100
AcDbEntity
  8
AM_0
  6
Continuous
 62
     7
100
AcDbLine
 10
22576.22318285364
 20
745.8652808880536
 30
0.0
 11
22576.22318285364
 21
903.8510516880556
 31
0.0
  0
LINE
  5
1B5D1
102
{ACAD_REACTORS
330
1B5EE
102
}
330
1F
100
AcDbEntity
  8
AM_0
  6
Continuous
 62
     7
100
AcDbLine
 10
22576.22318285364
 20
745.8652808880536
 30
0.0
 11
22578.02347095364
 21
745.8652808880536
 31
0.0
  0
ARC
  5
1B5D2
330
1F
100
AcDbEntity
  8
AM_0
  6
Continuous
 62
     7
100
AcDbCircle
 10
22578.02297142864
 20
744.366206363054
 30
0.0
 40
1.499074608226523
100
AcDbArc
 50
359.9809077716295
 51
89.98090777162943
  0
LINE
  5
1B5D3
330
1F
100
AcDbEntity
  8
AM_0
  6
Continuous
 62
     7
100
AcDbLine
 10
22576.22318285364
 20
903.8510516880556
 30
0.0
 11
22578.02347095364
 21
903.8510516880556
 31
0.0
  0
ARC
  5
1B5D4
330
1F
100
AcDbEntity
  8
AM_0
  6
Continuous
 62
     7
100
AcDbCircle
 10
22578.02297142864
 20
905.3501262130552
 30
0.0
 40
1.499074608226749
100
AcDbArc
 50
270.0190922283705
 51
0.0190922283705805
  0
ARC
  5
1B5D5
330
1F
100
AcDbEntity
  8
AM_0
  6
Continuous
 62
     7
100
AcDbCircle
 10
22601.39675229007
 20
943.8074193833667
 30
0.0
 40
9.999129466815947
100
AcDbArc
 50
9.214178145856587
 51
89.99717814594651
  0
LINE
  5
1B5D6
330
1F
100
AcDbEntity
  8
AM_0
  6
Continuous
 62
     7
100
AcDbLine
 10
22611.26685970364
 20
945.408534538055
 30
0.0
 11
22616.54883705364
 21
912.8504940880516
 31
0.0
  0
LINE
  5
1B5D7
330
1F
100
AcDbEntity
  8
AM_0
  6
Continuous
 62
     7
100
AcDbLine
 10
22616.54883705364
 20
912.8504940880516
 30
0.0
 11
22616.54883705364
 21
884.1967410380526
 31
0.0
  0
ARC
  5
1B5D8
330
1F
100
AcDbEntity
  8
AM_0
  6
Continuous
 62
     7
100
AcDbCircle
 10
22613.54918942865
 20
884.1964526371553
 30
0.0
 40
2.999647638864649
100
AcDbArc
 50
240.0055086982315
 51
0.005508698485255
  0
ARC
  5
1B5D9
330
1F
100
AcDbEntity
  8
AM_0
  6
Continuous
 62
     7
100
AcDbCircle
 10
22619.04490264639
 20
760.5224565537787
 30
0.0
 40
2.999938922322929
100
AcDbArc
 50
26.39383228968208
 51
99.94383228969578
  0
LINE
  5
1B5DA
330
1F
100
AcDbEntity
  8
AM_0
  6
Continuous
100
AcDbLine
 10
22616.54883705364
 20
884.1967410395112
 30
0.0
 11
22620.3989641443
 21
763.199423306934
 31
0.0
  0
LINE
  5
1B5DB
330
1F
100
AcDbEntity
  8
AM_0
  6
Continuous
100
AcDbLine
 10
22584.22257620364
 20
970.3048605380567
 30
0.0
 11
22758.20613465366
 21
970.3048605380567
 31
0.0
  0
LINE
  5
1B5DC
330
1F
100
AcDbEntity
  8
AM_0
  6
Continuous
100
AcDbLine
 10
22586.22267430364
 20
953.8055497880517
 30
0.0
 11
22756.20603655365
 21
953.8055497880517
 31
0.0
  0
DIMENSION
  5
1B5DD
102
{ACAD_XDICTIONARY
360
1B5DE
102
}
102
{ACAD_REACTORS
330
1B5DF
102
}
330
1F
100
AcDbEntity
  8
AM_5
100
AcDbDimension
  2
*D11
 10
22771.20477420365
 20
1196.32220982655
 30
0.0
 11
22684.86344107319
 21
1196.32220982655
 31
0.0
 70
   160
  1
%%c 200
 71
     5
 42
199.9818365999999
  3
GEN-ISO$0
100
AcDbAlignedDimension
 13
22571.22293760365
 23
1149.726248138052
 33
0.0
 14
22771.20477420365
 24
1149.726248138052
 34
0.0
100
AcDbRotatedDimension
1001
ACAD_DSTYLE_DIMINSPECT
1070
   396
1000
100%
1070
   395
1000

1070
   394
1070
    33
1070
   393
1070
     0
  0
DIMENSION
  5
1B5E0
102
{ACAD_XDICTIONARY
360
1B5E1
102
}
102
{ACAD_REACTORS
330
1B5E2
102
}
330
1F
100
AcDbEntity
  8
AM_5
100
AcDbDimension
  2
*D12
 10
22525.1198013966
 20
824.8581662880528
 30
0.0
 11
22525.1198013966
 21
994.8425275880504
 31
0.0
 70
   160
  1
345
 71
     5
 42
339.9687226000024
  3
GEN-ISO$0
100
AcDbAlignedDimension
 13
22581.36377609404
 23
1164.826888888055
 33
0.0
 14
22560.66797435362
 24
824.8581662880528
 34
0.0
 50
90.0
100
AcDbRotatedDimension
1001
ACAD_DSTYLE_DIMINSPECT
1070
   396
1000
100%
1070
   395
1000

1070
   394
1070
    33
1070
   393
1070
     0
  0
LINE
  5
1B5E3
330
1F
100
AcDbEntity
  8
anbauteile dünn
  6
Continuous
 62
     1
100
AcDbLine
 10
22624.93810433334
 20
1079.581948588052
 30
0.0
 11
22624.93810433334
 21
1095.945388538053
 31
0.0
  0
LINE
  5
1B5E4
330
1F
100
AcDbEntity
  8
anbauteile dünn
  6
Continuous
 62
     1
100
AcDbLine
 10
22631.70866618334
 20
1079.581948588052
 30
0.0
 11
22631.70866618334
 21
1095.945388538053
 31
0.0
  0
LINE
  5
1B5E5
330
1F
100
AcDbEntity
  8
anbauteile dünn
  6
Continuous
 62
     1
100
AcDbLine
 10
22632.32308193334
 20
1064.062705888052
 30
0.0
 11
22632.32308193334
 21
1066.214659588054
 31
0.0
  0
LINE
  5
1B5E6
330
1F
100
AcDbEntity
  8
anbauteile dünn
  6
Continuous
 62
     1
100
AcDbLine
 10
22632.32308193334
 20
1066.214659588054
 30
0.0
 11
22624.32368858334
 21
1066.214659588054
 31
0.0
  0
LINE
  5
1B5E7
330
1F
100
AcDbEntity
  8
anbauteile dünn
  6
Continuous
 62
     1
100
AcDbLine
 10
22624.32368858334
 20
1066.214659588054
 30
0.0
 11
22624.32368858334
 21
1064.062705888052
 31
0.0
  0
LINE
  5
1B5E8
330
1F
100
AcDbEntity
  8
anbauteile dünn
  6
Continuous
 62
     1
100
AcDbLine
 10
22624.32368858334
 20
1079.581948588052
 30
0.0
 11
22624.32368858334
 21
1095.945388538053
 31
0.0
  0
LINE
  5
1B5E9
330
1F
100
AcDbEntity
  8
anbauteile dünn
  6
Continuous
 62
     1
100
AcDbLine
 10
22632.32308193334
 20
1079.581948588052
 30
0.0
 11
22632.32308193334
 21
1095.945388538053
 31
0.0
  0
LINE
  5
1B5EA
330
1F
100
AcDbEntity
  8
anbauteile dünn
  6
Continuous
 62
     1
100
AcDbLine
 10
22624.32368858334
 20
1066.214659588054
 30
0.0
 11
22624.63089645834
 21
1067.047867288056
 31
0.0
  0
LINE
  5
1B5EB
330
1F
100
AcDbEntity
  8
anbauteile dünn
  6
Continuous
 62
     1
100
AcDbLine
 10
22632.32308193334
 20
1066.214659588054
 30
0.0
 11
22632.16242722464
 21
1066.650386505308
 31
0.0
  0
DIMENSION
  5
1B5EC
102
{ACAD_XDICTIONARY
360
1B5ED
102
}
102
{ACAD_REACTORS
330
1B5EE
102
}
330
1F
100
AcDbEntity
  8
AM_5
100
AcDbDimension
  2
*D13
 10
22766.20552800364
 20
625.9792808880515
 30
0.0
 11
22671.21435542864
 21
649.8493354583107
 31
0.0
 70
    32
  1
190
 71
     5
 42
189.9823451500015
  3
GEN-ISO$0
100
AcDbAlignedDimension
 13
22576.22318285364
 23
745.8652808880536
 33
0.0
 14
22766.20552800364
 24
745.8652808880536
 34
0.0
100
AcDbRotatedDimension
1001
ACAD_DSTYLE_DIMINSPECT
1070
   396
1000
100%
1070
   395
1000

1070
   394
1070
    33
1070
   393
1070
     0
  0
ENDSEC
  0
SECTION
  2
OBJECTS
  0
DICTIONARY
  5
C
330
0
100
AcDbDictionary
281
     1
  3
ACAD_2007HEADERVARS_RT
350
1B69B
  3
ACAD_COLOR
350
BE
  3
ACAD_GROUP
350
D
  3
ACAD_LAYOUT
350
1A
  3
ACAD_MATERIAL
350
BD
  3
ACAD_MLEADERSTYLE
350
1A1D0
  3
ACAD_MLINESTYLE
350
17
  3
ACAD_PLOTSETTINGS
350
19
  3
ACAD_PLOTSTYLENAME
350
E
  3
ACAD_SCALELIST
350
1A1BE
  3
ACAD_TABLESTYLE
350
11A
  3
ACAD_VISUALSTYLE
350
1A1AD
  3
ACDB_RECOMPOSE_DATA
350
1B699
  3
AcDbVariableDictionary
350
94
  3
AcmDictionary
350
5B
  3
AMG
350
41
  3
AMGSNAPSETTINGS
350
26B
  3
DWGPROPS
350
1B69A
  0
DICTIONARY
  5
5E1
330
2
100
AcDbDictionary
280
     1
281
     1
  3
ACAD_LAYERFILTERS
360
10B7F
  3
ACAD_LAYERSTATES
360
5E2
  3
ACLYDICTIONARY
360
10B7E
  3
AMLAYER_GROUPCOLORS
360
1A4EA
  0
DICTIONARY
  5
1A4F2
330
10
100
AcDbDictionary
280
     1
281
     1
  3
ADSK_XREC_LAYER_RECONCILED
360
1A4F3
  0
DICTIONARY
  5
1A4F6
330
1080A
100
AcDbDictionary
280
     1
281
     1
  3
ADSK_XREC_LAYER_RECONCILED
360
1A4F7
  0
DICTIONARY
  5
1A8AF
330
1A8AE
100
AcDbDictionary
280
     1
281
     1
  0
DICTIONARY
  5
1AE28
330
1AE27
100
AcDbDictionary
280
     1
281
     1
  0
DICTIONARY
  5
8F
330
1F
100
AcDbDictionary
280
     1
281
     1
  3
ACAD_SORTENTS
360
9429
  0
DICTIONARY
  5
10117
330
87
100
AcDbDictionary
280
     1
281
     1
  0
DICTIONARY
  5
1B5DE
330
1B5DD
100
AcDbDictionary
280
     1
281
     1
  3
ACAD_DIMASSOC
360
1B5DF
  0
DICTIONARY
  5
1B5E1
330
1B5E0
100
AcDbDictionary
280
     1
281
     1
  3
ACAD_DIMASSOC
360
1B5E2
  0
DICTIONARY
  5
1B5ED
330
1B5EC
100
AcDbDictionary
280
     1
281
     1
  3
ACAD_DIMASSOC
360
1B5EE
  0
DICTIONARY
  5
1B69B
102
{ACAD_REACTORS
330
C
102
}
330
C
100
AcDbDictionary
281
     1
  3
DIMARCSYM
350
1B69C
  3
DIMJOGANG
350
1B69D
  3
DIMLTEX1
350
1B69F
  3
DIMLTEX2
350
1B6A0
  3
DIMLTYPE
350
1B69E
  0
DICTIONARY
  5
BE
102
{ACAD_REACTORS
330
C
102
}
330
C
100
AcDbDictionary
281
     1
  0
DICTIONARY
  5
D
102
{ACAD_REACTORS
330
C
102
}
330
C
100
AcDbDictionary
281
     1
  0
DICTIONARY
  5
1A
102
{ACAD_REACTORS
330
C
102
}
330
C
100
AcDbDictionary
281
     1
  3
Layout1
350
1E
  3
Layout2
350
26
  3
Model
350
22
  0
DICTIONARY
  5
BD
102
{ACAD_REACTORS
330
C
102
}
330
C
100
AcDbDictionary
281
     1
  3
ByBlock
350
1A19D
  3
ByLayer
350
1A195
  3
Global
350
1A1A5
  0
DICTIONARY
  5
1A1D0
102
{ACAD_REACTORS
330
C
102
}
330
C
100
AcDbDictionary
281
     1
  3
Standard
350
1A1D1
  0
DICTIONARY
  5
17
102
{ACAD_REACTORS
330
C
102
}
330
C
100
AcDbDictionary
281
     1
  3
Standard
350
18
  0
DICTIONARY
  5
19
102
{ACAD_REACTORS
330
C
102
}
330
C
100
AcDbDictionary
281
     1
  0
ACDBDICTIONARYWDFLT
  5
E
102
{ACAD_REACTORS
330
C
102
}
330
C
100
AcDbDictionary
281
     1
  3
Normal
350
F
100
AcDbDictionaryWithDefault
340
F
  0
DICTIONARY
  5
1A1BE
102
{ACAD_REACTORS
330
C
102
}
330
C
100
AcDbDictionary
281
     1
  3
A0
350
1A1BF
  3
A1
350
1A1C0
  3
A2
350
1A1C1
  3
A3
350
1A1C2
  3
A4
350
1A1C3
  3
A5
350
1A1C4
  3
A6
350
1A1C5
  3
A7
350
1A1C6
  3
A8
350
1A1C7
  3
A9
350
1A1C8
  3
B0
350
1A1C9
  3
B1
350
1A1CA
  3
B2
350
1A1CB
  3
B3
350
1A1CC
  3
B4
350
1A1CD
  3
B5
350
1A1CE
  3
B6
350
1A1CF
  0
DICTIONARY
  5
11A
102
{ACAD_REACTORS
330
C
102
}
330
C
100
AcDbDictionary
281
     1
  3
Standard
350
11B
  0
DICTIONARY
  5
1A1AD
102
{ACAD_REACTORS
330
C
102
}
330
C
100
AcDbDictionary
281
     1
  3
2dWireframe
350
1A1B3
  3
3D Hidden
350
1A1B5
  3
3dWireframe
350
1A1B4
  3
Basic
350
1A1B2
  3
Brighten
350
1A1B9
  3
ColorChange
350
1A1BD
  3
Conceptual
350
1A1B6
  3
Dim
350
1A1B8
  3
EdgeColorOff
350
1B634
  3
Facepattern
350
1A1BC
  3
Flat
350
1A1AE
  3
FlatWithEdges
350
1A1AF
  3
Gouraud
350
1A1B0
  3
GouraudWithEdges
350
1A1B1
  3
JitterOff
350
1B632
  3
Linepattern
350
1A1BB
  3
OverhangOff
350
1B633
  3
Realistic
350
1A1B7
  3
Thicken
350
1A1BA
  0
XRECORD
  5
1B699
102
{ACAD_REACTORS
330
C
102
}
330
C
100
AcDbXrecord
280
     1
 90
        1
330
11B
  0
DICTIONARY
  5
94
102
{ACAD_REACTORS
330
C
102
}
330
C
100
AcDbDictionary
281
     1
  3
CANNOSCALE
350
1A6D1
  3
CMLEADERSTYLE
350
1A6CF
  3
CTABLESTYLE
350
138
  3
DIMASSOC
350
96
  3
INDEXCTL
350
95
  3
LAYEREVAL
350
1A6D3
  3
LAYERNOTIFY
350
1A6D4
  3
LIGHTINGUNITS
350
1A6D2
  3
MSLTSCALE
350
1A6D0
  3
PROJECTNAME
350
B168
  3
SORTENTS
350
1B61F
  3
XCLIPFRAME
350
1B697
  0
DICTIONARY
  5
5B
102
{ACAD_REACTORS
330
C
102
}
330
C
100
AcDbDictionary
281
     1
  3
AcmBOM
350
272
  3
AcmStdDictionary
350
61
  3
AMDTSECTSYM_ARROWCOLOR
350
123
  0
DICTIONARY
  5
41
102
{ACAD_REACTORS
330
C
102
}
330
C
100
AcDbDictionary
281
     1
  0
DICTIONARY
  5
26B
102
{ACAD_REACTORS
330
C
102
}
330
C
100
AcDbDictionary
281
     1
  0
XRECORD
  5
1B69A
102
{ACAD_REACTORS
330
C
102
}
330
C
100
AcDbXrecord
280
     1
  1
DWGPROPS COOKIE
  2

  3

  4

  6

  7

  8
Administrator
  9

300
AmdtFileType=84
301
=
302
=
303
=
304
=
305
=
306
=
307
=
308
=
309
=
 40
0.7177452777777777
 41
2454167.37697816
 42
2455133.674718056
  1

 90
        1
  0
DICTIONARY
  5
10B7F
102
{ACAD_REACTORS
330
5E1
102
}
330
5E1
100
AcDbDictionary
281
     1
  0
DICTIONARY
  5
5E2
102
{ACAD_REACTORS
330
5E1
102
}
330
5E1
100
AcDbDictionary
281
     1
  0
DICTIONARY
  5
10B7E
102
{ACAD_REACTORS
330
5E1
102
}
330
5E1
100
AcDbDictionary
281
     1
1001
ACAD
1000
<All
  0
DICTIONARY
  5
1A4EA
102
{ACAD_REACTORS
330
5E1
102
}
330
5E1
100
AcDbDictionary
280
     1
281
     1
  0
XRECORD
  5
1A4F3
102
{ACAD_REACTORS
330
1A4F2
102
}
330
1A4F2
100
AcDbXrecord
280
     1
290
     1
  0
XRECORD
  5
1A4F7
102
{ACAD_REACTORS
330
1A4F6
102
}
330
1A4F6
100
AcDbXrecord
280
     1
290
     1
  0
SORTENTSTABLE
  5
9429
102
{ACAD_REACTORS
330
8F
102
}
330
8F
100
AcDbSortentsTable
330
1F
  0
DIMASSOC
  5
1B5DF
102
{ACAD_REACTORS
330
1B5DE
102
}
330
1B5DE
100
AcDbDimAssoc
330
1B5DD
 90
        2
 70
     0
 71
     0
  1
AcDbOsnapPointRef
 72
    13
331
1B5BF
 73
     0
 91
        0
 40
0.0
 10
0.0
 20
0.0
 30
2.000000000000000E+50
 75
     0
  0
DIMASSOC
  5
1B5E2
102
{ACAD_REACTORS
330
1B5E1
102
}
330
1B5E1
100
AcDbDimAssoc
330
1B5E0
 90
        2
 70
     0
 71
     0
  1
AcDbOsnapPointRef
 72
     1
331
1B585
 73
     0
 91
        0
 40
0.0
 10
0.0
 20
0.0
 30
2.000000000000000E+50
 75
     0
  0
DIMASSOC
  5
1B5EE
102
{ACAD_REACTORS
330
1B5ED
102
}
330
1B5ED
100
AcDbDimAssoc
330
1B5EC
 90
        3
 70
     0
 71
     0
  1
AcDbOsnapPointRef
 72
    13
331
1B5D1
 73
     0
 91
        0
 40
0.0
 10
0.0
 20
0.0
 30
2.000000000000000E+50
 75
     0
  1
AcDbOsnapPointRef
 72
    13
331
1B5A0
 73
     0
 91
        0
 40
0.0
 10
0.0
 20
0.0
 30
2.000000000000000E+50
 75
     0
  0
XRECORD
  5
1B69C
102
{ACAD_REACTORS
330
1B69B
102
}
330
1B69B
100
AcDbXrecord
280
     1
 70
     1
  0
XRECORD
  5
1B69D
102
{ACAD_REACTORS
330
1B69B
102
}
330
1B69B
100
AcDbXrecord
280
     1
 40
1.570796326794896
  0
XRECORD
  5
1B69F
102
{ACAD_REACTORS
330
1B69B
102
}
330
1B69B
100
AcDbXrecord
280
     1
340
14
  0
XRECORD
  5
1B6A0
102
{ACAD_REACTORS
330
1B69B
102
}
330
1B69B
100
AcDbXrecord
280
     1
340
14
  0
XRECORD
  5
1B69E
102
{ACAD_REACTORS
330
1B69B
102
}
330
1B69B
100
AcDbXrecord
280
     1
340
14
  0
LAYOUT
  5
1E
102
{ACAD_XDICTIONARY
360
1B6A1
102
}
102
{ACAD_REACTORS
330
1A
102
}
330
1A
100
AcDbPlotSettings
  1

  2

  4

  6

 40
0.0
 41
0.0
 42
0.0
 43
0.0
 44
0.0
 45
0.0
 46
0.0
 47
0.0
 48
0.0
 49
0.0
140
0.0
141
0.0
142
1.0
143
1.0
 70
   688
 72
     0
 73
     0
 74
     5
  7
monochrome uw.ctb
 75
    16
147
1.0
148
0.0
149
0.0
100
AcDbLayout
  1
Layout1
 70
     1
 71
     1
 10
0.0
 20
0.0
 11
420.0
 21
297.0
 12
0.0
 22
0.0
 32
0.0
 14
1.000000000000000E+20
 24
1.000000000000000E+20
 34
1.000000000000000E+20
 15
-1.000000000000000E+20
 25
-1.000000000000000E+20
 35
-1.000000000000000E+20
146
0.0
 13
0.0
 23
0.0
 33
0.0
 16
1.0
 26
0.0
 36
0.0
 17
0.0
 27
1.0
 37
0.0
 76
     0
330
1B
  0
LAYOUT
  5
26
102
{ACAD_XDICTIONARY
360
1B6A5
102
}
102
{ACAD_REACTORS
330
1A
102
}
330
1A
100
AcDbPlotSettings
  1

  2

  4

  6

 40
0.0
 41
0.0
 42
0.0
 43
0.0
 44
0.0
 45
0.0
 46
0.0
 47
0.0
 48
0.0
 49
0.0
140
0.0
141
0.0
142
1.0
143
1.0
 70
   688
 72
     0
 73
     0
 74
     5
  7
monochrome uw.ctb
 75
    16
147
1.0
148
0.0
149
0.0
100
AcDbLayout
  1
Layout2
 70
     1
 71
     2
 10
0.0
 20
0.0
 11
12.0
 21
9.0
 12
0.0
 22
0.0
 32
0.0
 14
0.0
 24
0.0
 34
0.0
 15
0.0
 25
0.0
 35
0.0
146
0.0
 13
0.0
 23
0.0
 33
0.0
 16
1.0
 26
0.0
 36
0.0
 17
0.0
 27
1.0
 37
0.0
 76
     0
330
23
  0
LAYOUT
  5
22
102
{ACAD_XDICTIONARY
360
1B6A3
102
}
102
{ACAD_REACTORS
330
1A
102
}
330
1A
100
AcDbPlotSettings
  1

  2
hp LaserJet 3030 PCL 6
  4
A4
  6

 40
5.027083396911621
 41
5.069413185119628
 42
5.027084350585936
 43
5.027069091796875
 44
209.9733276367186
 45
296.9683227539062
 46
0.0
 47
6.570546449500766
 48
386.441488024062
 49
270.3185561904811
140
5391.603947773525
141
3967.108854977561
142
1.0
143
15.16134737736338
 70
 11956
 72
     1
 73
     0
 74
     1
  7
monochrome uw.ctb
 75
     0
147
0.0659571985991857
148
-13746.70549999406
149
498.9832370772091
100
AcDbLayout
  1
Model
 70
     1
 71
     0
 10
0.0
 20
0.0
 11
12.0
 21
9.0
 12
0.0
 22
0.0
 32
0.0
 14
0.0
 24
0.0
 34
0.0
 15
0.0
 25
0.0
 35
0.0
146
0.0
 13
0.0
 23
0.0
 33
0.0
 16
1.0
 26
0.0
 36
0.0
 17
0.0
 27
1.0
 37
0.0
 76
     0
330
1F
331
1A193
1001
ACAD_PSEXT
1000
hp LaserJet 3030 PCL 6
1000
hp LaserJet 3030 PCL 6
1000
DOT4_001
1000

1070
     0
  0
MATERIAL
  5
1A19D
102
{ACAD_XDICTIONARY
360
1A19E
102
}
102
{ACAD_REACTORS
330
BD
102
}
330
BD
100
AcDbMaterial
  1
ByBlock
 72
     0
 43
0.0008202099737533
 43
0.0
 43
0.0
 43
0.0
 43
0.0
 43
0.0008202099737533
 43
0.0
 43
0.0
 43
0.0
 43
0.0
 43
1.0
 43
0.0
 43
0.0
 43
0.0
 43
0.0
 43
1.0
 77
     0
 47
0.0008202099737533
 47
0.0
 47
0.0
 47
0.0
 47
0.0
 47
0.0008202099737533
 47
0.0
 47
0.0
 47
0.0
 47
0.0
 47
1.0
 47
0.0
 47
0.0
 47
0.0
 47
0.0
 47
1.0
171
     0
 49
0.0008202099737533
 49
0.0
 49
0.0
 49
0.0
 49
0.0
 49
0.0008202099737533
 49
0.0
 49
0.0
 49
0.0
 49
0.0
 49
1.0
 49
0.0
 49
0.0
 49
0.0
 49
0.0
 49
1.0
175
     0
142
0.0008202099737533
142
0.0
142
0.0
142
0.0
142
0.0
142
0.0008202099737533
142
0.0
142
0.0
142
0.0
142
0.0
142
1.0
142
0.0
142
0.0
142
0.0
142
0.0
142
1.0
179
     0
144
0.0008202099737533
144
0.0
144
0.0
144
0.0
144
0.0
144
0.0008202099737533
144
0.0
144
0.0
144
0.0
144
0.0
144
1.0
144
0.0
144
0.0
144
0.0
144
0.0
144
1.0
147
0.0008202099737533
147
0.0
147
0.0
147
0.0
147
0.0
147
0.0008202099737533
147
0.0
147
0.0
147
0.0
147
0.0
147
1.0
147
0.0
147
0.0
147
0.0
147
0.0
147
1.0
  0
MATERIAL
  5
1A195
102
{ACAD_XDICTIONARY
360
1A196
102
}
102
{ACAD_REACTORS
330
BD
102
}
330
BD
100
AcDbMaterial
  1
ByLayer
 72
     0
 43
0.0008202099737533
 43
0.0
 43
0.0
 43
0.0
 43
0.0
 43
0.0008202099737533
 43
0.0
 43
0.0
 43
0.0
 43
0.0
 43
1.0
 43
0.0
 43
0.0
 43
0.0
 43
0.0
 43
1.0
 77
     0
 47
0.0008202099737533
 47
0.0
 47
0.0
 47
0.0
 47
0.0
 47
0.0008202099737533
 47
0.0
 47
0.0
 47
0.0
 47
0.0
 47
1.0
 47
0.0
 47
0.0
 47
0.0
 47
0.0
 47
1.0
171
     0
 49
0.0008202099737533
 49
0.0
 49
0.0
 49
0.0
 49
0.0
 49
0.0008202099737533
 49
0.0
 49
0.0
 49
0.0
 49
0.0
 49
1.0
 49
0.0
 49
0.0
 49
0.0
 49
0.0
 49
1.0
175
     0
142
0.0008202099737533
142
0.0
142
0.0
142
0.0
142
0.0
142
0.0008202099737533
142
0.0
142
0.0
142
0.0
142
0.0
142
1.0
142
0.0
142
0.0
142
0.0
142
0.0
142
1.0
179
     0
144
0.0008202099737533
144
0.0
144
0.0
144
0.0
144
0.0
144
0.0008202099737533
144
0.0
144
0.0
144
0.0
144
0.0
144
1.0
144
0.0
144
0.0
144
0.0
144
0.0
144
1.0
147
0.0008202099737533
147
0.0
147
0.0
147
0.0
147
0.0
147
0.0008202099737533
147
0.0
147
0.0
147
0.0
147
0.0
147
1.0
147
0.0
147
0.0
147
0.0
147
0.0
147
1.0
  0
MATERIAL
  5
1A1A5
102
{ACAD_XDICTIONARY
360
1A1A6
102
}
102
{ACAD_REACTORS
330
BD
102
}
330
BD
100
AcDbMaterial
  1
Global
 72
     0
 43
0.0008202099737533
 43
0.0
 43
0.0
 43
0.0
 43
0.0
 43
0.0008202099737533
 43
0.0
 43
0.0
 43
0.0
 43
0.0
 43
1.0
 43
0.0
 43
0.0
 43
0.0
 43
0.0
 43
1.0
 77
     0
 47
0.0008202099737533
 47
0.0
 47
0.0
 47
0.0
 47
0.0
 47
0.0008202099737533
 47
0.0
 47
0.0
 47
0.0
 47
0.0
 47
1.0
 47
0.0
 47
0.0
 47
0.0
 47
0.0
 47
1.0
171
     0
 49
0.0008202099737533
 49
0.0
 49
0.0
 49
0.0
 49
0.0
 49
0.0008202099737533
 49
0.0
 49
0.0
 49
0.0
 49
0.0
 49
1.0
 49
0.0
 49
0.0
 49
0.0
 49
0.0
 49
1.0
175
     0
142
0.0008202099737533
142
0.0
142
0.0
142
0.0
142
0.0
142
0.0008202099737533
142
0.0
142
0.0
142
0.0
142
0.0
142
1.0
142
0.0
142
0.0
142
0.0
142
0.0
142
1.0
179
     0
144
0.0008202099737533
144
0.0
144
0.0
144
0.0
144
0.0
144
0.0008202099737533
144
0.0
144
0.0
144
0.0
144
0.0
144
1.0
144
0.0
144
0.0
144
0.0
144
0.0
144
1.0
147
0.0008202099737533
147
0.0
147
0.0
147
0.0
147
0.0
147
0.0008202099737533
147
0.0
147
0.0
147
0.0
147
0.0
147
1.0
147
0.0
147
0.0
147
0.0
147
0.0
147
1.0
  0
MLEADERSTYLE
  5
1A1D1
102
{ACAD_REACTORS
330
1A1D0
102
}
330
1A1D0
100
AcDbMLeaderStyle
170
     2
171
     1
172
     0
 90
        2
 40
0.0
 41
0.0
173
     1
 91
-1056964608
340
14
 92
       -2
290
     1
 42
2.0
291
     1
 43
0.36
  3
Standard
 44
4.0
300

342
11
174
     1
178
     6
175
     1
176
     0
 93
-1056964608
 45
4.0
292
     0
297
     0
 46
4.0
 94
-1056964608
 47
1.0
 49
1.0
140
1.0
293
     1
141
0.0
294
     1
177
     0
142
1.0
295
     0
296
     0
143
0.125
1001
ACAD_MLEADERVER
1070
     2
  0
MLINESTYLE
  5
18
102
{ACAD_REACTORS
330
17
102
}
330
17
100
AcDbMlineStyle
  2
STANDARD
 70
     0
  3

 62
   256
 51
90.0
 52
90.0
 71
     2
 49
0.5
 62
   256
  6
BYLAYER
 49
-0.5
 62
   256
  6
BYLAYER
  0
ACDBPLACEHOLDER
  5
F
102
{ACAD_REACTORS
330
E
102
}
330
E
  0
SCALE
  5
1A1BF
102
{ACAD_REACTORS
330
1A1BE
102
}
330
1A1BE
100
AcDbScale
 70
     0
300
1:1
140
1.0
141
1.0
290
     1
  0
SCALE
  5
1A1C0
102
{ACAD_REACTORS
330
1A1BE
102
}
330
1A1BE
100
AcDbScale
 70
     0
300
1:2
140
1.0
141
2.0
290
     0
  0
SCALE
  5
1A1C1
102
{ACAD_REACTORS
330
1A1BE
102
}
330
1A1BE
100
AcDbScale
 70
     0
300
1:4
140
1.0
141
4.0
290
     0
  0
SCALE
  5
1A1C2
102
{ACAD_REACTORS
330
1A1BE
102
}
330
1A1BE
100
AcDbScale
 70
     0
300
1:5
140
1.0
141
5.0
290
     0
  0
SCALE
  5
1A1C3
102
{ACAD_REACTORS
330
1A1BE
102
}
330
1A1BE
100
AcDbScale
 70
     0
300
1:8
140
1.0
141
8.0
290
     0
  0
SCALE
  5
1A1C4
102
{ACAD_REACTORS
330
1A1BE
102
}
330
1A1BE
100
AcDbScale
 70
     0
300
1:10
140
1.0
141
10.0
290
     0
  0
SCALE
  5
1A1C5
102
{ACAD_REACTORS
330
1A1BE
102
}
330
1A1BE
100
AcDbScale
 70
     0
300
1:16
140
1.0
141
16.0
290
     0
  0
SCALE
  5
1A1C6
102
{ACAD_REACTORS
330
1A1BE
102
}
330
1A1BE
100
AcDbScale
 70
     0
300
1:20
140
1.0
141
20.0
290
     0
  0
SCALE
  5
1A1C7
102
{ACAD_REACTORS
330
1A1BE
102
}
330
1A1BE
100
AcDbScale
 70
     0
300
1:30
140
1.0
141
30.0
290
     0
  0
SCALE
  5
1A1C8
102
{ACAD_REACTORS
330
1A1BE
102
}
330
1A1BE
100
AcDbScale
 70
     0
300
1:40
140
1.0
141
40.0
290
     0
  0
SCALE
  5
1A1C9
102
{ACAD_REACTORS
330
1A1BE
102
}
330
1A1BE
100
AcDbScale
 70
     0
300
1:50
140
1.0
141
50.0
290
     0
  0
SCALE
  5
1A1CA
102
{ACAD_REACTORS
330
1A1BE
102
}
330
1A1BE
100
AcDbScale
 70
     0
300
1:100
140
1.0
141
100.0
290
     0
  0
SCALE
  5
1A1CB
102
{ACAD_REACTORS
330
1A1BE
102
}
330
1A1BE
100
AcDbScale
 70
     0
300
2:1
140
2.0
141
1.0
290
     0
  0
SCALE
  5
1A1CC
102
{ACAD_REACTORS
330
1A1BE
102
}
330
1A1BE
100
AcDbScale
 70
     0
300
4:1
140
4.0
141
1.0
290
     0
  0
SCALE
  5
1A1CD
102
{ACAD_REACTORS
330
1A1BE
102
}
330
1A1BE
100
AcDbScale
 70
     0
300
8:1
140
8.0
141
1.0
290
     0
  0
SCALE
  5
1A1CE
102
{ACAD_REACTORS
330
1A1BE
102
}
330
1A1BE
100
AcDbScale
 70
     0
300
10:1
140
10.0
141
1.0
290
     0
  0
SCALE
  5
1A1CF
102
{ACAD_REACTORS
330
1A1BE
102
}
330
1A1BE
100
AcDbScale
 70
     0
300
100:1
140
100.0
141
1.0
290
     0
  0
TABLESTYLE
  5
11B
102
{ACAD_XDICTIONARY
360
1A6CC
102
}
102
{ACAD_REACTORS
330
11A
102
}
330
11A
100
AcDbTableStyle
  3
Standard
 70
     0
 71
     0
 40
1.5
 41
1.5
280
     0
281
     0
  7
STANDARD
140
4.5
170
     2
 62
     0
 63
     7
283
     0
274
    -2
284
     1
 64
     0
275
    -2
285
     1
 65
     0
276
    -2
286
     1
 66
     0
277
    -2
287
     1
 67
     0
278
    -2
288
     1
 68
     0
279
    -2
289
     1
 69
     0
  7
STANDARD
140
6.0
170
     5
 62
     0
 63
     7
283
     0
274
    -2
284
     1
 64
     0
275
    -2
285
     1
 65
     0
276
    -2
286
     1
 66
     0
277
    -2
287
     1
 67
     0
278
    -2
288
     1
 68
     0
279
    -2
289
     1
 69
     0
  7
STANDARD
140
4.5
170
     5
 62
     0
 63
     7
283
     0
274
    -2
284
     1
 64
     0
275
    -2
285
     1
 65
     0
276
    -2
286
     1
 66
     0
277
    -2
287
     1
 67
     0
278
    -2
288
     1
 68
     0
279
    -2
289
     1
 69
     0
  0
VISUALSTYLE
  5
1A1B3
102
{ACAD_XDICTIONARY
360
1B6B2
102
}
102
{ACAD_REACTORS
330
1A1AD
102
}
330
1A1AD
100
AcDbVisualStyle
  2

 70
     4
 71
     0
 72
     2
 73
     0
 90
        0
 40
-0.6
 41
-30.0
 62
     5
 63
     7
 74
     1
 91
        4
 64
     7
 65
   257
 75
     1
175
     1
 42
1.0
 92
        0
 66
   257
 43
1.0
 76
     1
 77
     6
 78
     2
 67
     7
 79
     5
170
     0
171
     0
290
     0
174
     0
 93
        1
 44
0.0
173
     0
291
     0
 45
0.0
1001
ACAD
1000
AcDbSavedByObjectVersion
1070
     0
  0
VISUALSTYLE
  5
1A1B5
102
{ACAD_XDICTIONARY
360
1B6B6
102
}
102
{ACAD_REACTORS
330
1A1AD
102
}
330
1A1AD
100
AcDbVisualStyle
  2

 70
     6
 71
     1
 72
     2
 73
     2
 90
        0
 40
-0.6
 41
-30.0
 62
     5
 63
     7
 74
     2
 91
        2
 64
     7
 65
   257
 75
     2
175
     1
 42
40.0
 92
        0
 66
   257
 43
1.0
 76
     1
 77
     6
 78
     2
 67
     7
 79
     3
170
     0
171
     0
290
     0
174
     0
 93
        1
 44
0.0
173
     0
291
     0
 45
0.0
1001
ACAD
1000
AcDbSavedByObjectVersion
1070
     0
  0
VISUALSTYLE
  5
1A1B4
102
{ACAD_XDICTIONARY
360
1B6B4
102
}
102
{ACAD_REACTORS
330
1A1AD
102
}
330
1A1AD
100
AcDbVisualStyle
  2

 70
     5
 71
     0
 72
     2
 73
     0
 90
        0
 40
-0.6
 41
-30.0
 62
     5
 63
     7
 74
     1
 91
        4
 64
     7
 65
   257
 75
     1
175
     1
 42
1.0
 92
        0
 66
   257
 43
1.0
 76
     1
 77
     6
 78
     2
 67
     7
 79
     5
170
     0
171
     0
290
     0
174
     0
 93
        1
 44
0.0
173
     0
291
     0
 45
0.0
1001
ACAD
1000
AcDbSavedByObjectVersion
1070
     0
  0
VISUALSTYLE
  5
1A1B2
102
{ACAD_XDICTIONARY
360
1B6B0
102
}
102
{ACAD_REACTORS
330
1A1AD
102
}
330
1A1AD
100
AcDbVisualStyle
  2

 70
     7
 71
     1
 72
     0
 73
     1
 90
        0
 40
-0.6
 41
-30.0
 62
     5
 63
     7
 74
     0
 91
        4
 64
     7
 65
   257
 75
     1
175
     1
 42
1.0
 92
        8
 66
     7
 43
1.0
 76
     1
 77
     6
 78
     2
 67
     7
 79
     5
170
     0
171
     0
290
     0
174
     0
 93
        1
 44
0.0
173
     0
291
     1
 45
0.0
1001
ACAD
1000
AcDbSavedByObjectVersion
1070
     0
  0
VISUALSTYLE
  5
1A1B9
102
{ACAD_XDICTIONARY
360
1B6BE
102
}
102
{ACAD_REACTORS
330
1A1AD
102
}
330
1A1AD
100
AcDbVisualStyle
  2

 70
    12
 71
     2
 72
     2
 73
     0
 90
        0
 40
-0.6
 41
-30.0
 62
     5
 63
     7
 74
     1
 91
        4
 64
     7
 65
   257
 75
     1
175
     1
 42
1.0
 92
        8
 66
     7
 43
1.0
 76
     1
 77
     6
 78
     2
 67
     7
 79
     5
170
     0
171
     0
290
     0
174
     0
 93
        1
 44
50.0
173
     0
291
     1
 45
0.0
1001
ACAD
1000
AcDbSavedByObjectVersion
1070
     0
  0
VISUALSTYLE
  5
1A1BD
102
{ACAD_XDICTIONARY
360
1B6C6
102
}
102
{ACAD_REACTORS
330
1A1AD
102
}
330
1A1AD
100
AcDbVisualStyle
  2

 70
    16
 71
     2
 72
     2
 73
     3
 90
        0
 40
-0.6
 41
-30.0
 62
     5
 63
     8
 74
     1
 91
        4
 64
     7
 65
   257
 75
     1
175
     1
 42
1.0
 92
        8
 66
     8
 43
1.0
 76
     1
 77
     6
 78
     2
 67
     7
 79
     5
170
     0
171
     0
290
     0
174
     0
 93
        1
 44
0.0
173
     0
291
     1
 45
0.0
1001
ACAD
1000
AcDbSavedByObjectVersion
1070
     0
  0
VISUALSTYLE
  5
1A1B6
102
{ACAD_XDICTIONARY
360
1B6B8
102
}
102
{ACAD_REACTORS
330
1A1AD
102
}
330
1A1AD
100
AcDbVisualStyle
  2

 70
     9
 71
     3
 72
     2
 73
     0
 90
        0
 40
-0.6
 41
-30.0
 62
     5
 63
     7
 74
     2
 91
        2
 64
     7
 65
   257
 75
     1
175
     1
 42
40.0
 92
        8
 66
     7
 43
1.0
 76
     1
 77
     6
 78
     2
 67
     7
 79
     3
170
     0
171
     0
290
     0
174
     0
 93
        1
 44
0.0
173
     0
291
     0
 45
0.0
1001
ACAD
1000
AcDbSavedByObjectVersion
1070
     0
  0
VISUALSTYLE
  5
1A1B8
102
{ACAD_XDICTIONARY
360
1B6BC
102
}
102
{ACAD_REACTORS
330
1A1AD
102
}
330
1A1AD
100
AcDbVisualStyle
  2

 70
    11
 71
     2
 72
     2
 73
     0
 90
        0
 40
-0.6
 41
-30.0
 62
     5
 63
     7
 74
     1
 91
        4
 64
     7
 65
   257
 75
     1
175
     1
 42
1.0
 92
        8
 66
     7
 43
1.0
 76
     1
 77
     6
 78
     2
 67
     7
 79
     5
170
     0
171
     0
290
     0
174
     0
 93
        1
 44
-50.0
173
     0
291
     1
 45
0.0
1001
ACAD
1000
AcDbSavedByObjectVersion
1070
     0
  0
VISUALSTYLE
  5
1B634
102
{ACAD_XDICTIONARY
360
1B6CC
102
}
102
{ACAD_REACTORS
330
1A1AD
102
}
330
1A1AD
100
AcDbVisualStyle
  2
EdgeColorOff
 70
    22
 71
     2
 72
     2
 73
     0
 90
        0
 40
-0.6
 41
-30.0
 62
     5
 63
     7
 74
     1
 91
        4
 64
     7
 65
   257
 75
     1
175
     1
 42
1.0
 92
        8
 66
     7
 43
1.0
 76
     1
 77
     6
 78
     2
 67
     7
 79
     5
170
     0
171
     0
290
     0
174
     0
 93
        1
 44
0.0
173
     0
291
     1
 45
0.0
1001
ACAD
1000
AcDbSavedByObjectVersion
1070
     0
  0
VISUALSTYLE
  5
1A1BC
102
{ACAD_XDICTIONARY
360
1B6C4
102
}
102
{ACAD_REACTORS
330
1A1AD
102
}
330
1A1AD
100
AcDbVisualStyle
  2

 70
    15
 71
     2
 72
     2
 73
     0
 90
        0
 40
-0.6
 41
-30.0
 62
     5
 63
     7
 74
     1
 91
        4
 64
     7
 65
   257
 75
     1
175
     1
 42
1.0
 92
        8
 66
     7
 43
1.0
 76
     1
 77
     6
 78
     2
 67
     7
 79
     5
170
     0
171
     0
290
     0
174
     0
 93
        1
 44
0.0
173
     0
291
     1
 45
0.0
1001
ACAD
1000
AcDbSavedByObjectVersion
1070
     0
  0
VISUALSTYLE
  5
1A1AE
102
{ACAD_XDICTIONARY
360
1B6A8
102
}
102
{ACAD_REACTORS
330
1A1AD
102
}
330
1A1AD
100
AcDbVisualStyle
  2

 70
     0
 71
     2
 72
     1
 73
     1
 90
        2
 40
-0.6
 41
30.0
 62
     5
 63
     7
 74
     0
 91
        4
 64
     7
 65
   257
 75
     1
175
     1
 42
1.0
 92
        8
 66
     7
 43
1.0
 76
     1
 77
     6
 78
     2
 67
     7
 79
     5
170
     0
171
     0
290
     0
174
     0
 93
       13
 44
0.0
173
     0
291
     1
 45
0.0
1001
ACAD
1000
AcDbSavedByObjectVersion
1070
     0
  0
VISUALSTYLE
  5
1A1AF
102
{ACAD_XDICTIONARY
360
1B6AA
102
}
102
{ACAD_REACTORS
330
1A1AD
102
}
330
1A1AD
100
AcDbVisualStyle
  2

 70
     1
 71
     2
 72
     1
 73
     1
 90
        2
 40
-0.6
 41
30.0
 62
     5
 63
     7
 74
     1
 91
        4
 64
     7
 65
   257
 75
     1
175
     1
 42
1.0
 92
        0
 66
   257
 43
1.0
 76
     1
 77
     6
 78
     2
 67
     7
 79
     5
170
     0
171
     0
290
     0
174
     0
 93
       13
 44
0.0
173
     0
291
     1
 45
0.0
1001
ACAD
1000
AcDbSavedByObjectVersion
1070
     0
  0
VISUALSTYLE
  5
1A1B0
102
{ACAD_XDICTIONARY
360
1B6AC
102
}
102
{ACAD_REACTORS
330
1A1AD
102
}
330
1A1AD
100
AcDbVisualStyle
  2

 70
     2
 71
     2
 72
     2
 73
     1
 90
        2
 40
-0.6
 41
30.0
 62
     5
 63
     7
 74
     0
 91
        4
 64
     7
 65
   257
 75
     1
175
     1
 42
1.0
 92
        0
 66
     7
 43
1.0
 76
     1
 77
     6
 78
     2
 67
     7
 79
     5
170
     0
171
     0
290
     0
174
     0
 93
       13
 44
0.0
173
     0
291
     1
 45
0.0
1001
ACAD
1000
AcDbSavedByObjectVersion
1070
     0
  0
VISUALSTYLE
  5
1A1B1
102
{ACAD_XDICTIONARY
360
1B6AE
102
}
102
{ACAD_REACTORS
330
1A1AD
102
}
330
1A1AD
100
AcDbVisualStyle
  2

 70
     3
 71
     2
 72
     2
 73
     1
 90
        2
 40
-0.6
 41
30.0
 62
     5
 63
     7
 74
     1
 91
        4
 64
     7
 65
   257
 75
     1
175
     1
 42
1.0
 92
        0
 66
   257
 43
1.0
 76
     1
 77
     6
 78
     2
 67
     7
 79
     5
170
     0
171
     0
290
     0
174
     0
 93
       13
 44
0.0
173
     0
291
     1
 45
0.0
1001
ACAD
1000
AcDbSavedByObjectVersion
1070
     0
  0
VISUALSTYLE
  5
1B632
102
{ACAD_XDICTIONARY
360
1B6C8
102
}
102
{ACAD_REACTORS
330
1A1AD
102
}
330
1A1AD
100
AcDbVisualStyle
  2
JitterOff
 70
    20
 71
     2
 72
     2
 73
     0
 90
        0
 40
-0.6
 41
-30.0
 62
     5
 63
     7
 74
     1
 91
        4
 64
     7
 65
   257
 75
     1
175
     1
 42
1.0
 92
       10
 66
     7
 43
1.0
 76
     1
 77
     6
 78
     2
 67
     7
 79
     5
170
     0
171
     0
290
     0
174
     0
 93
        1
 44
0.0
173
     0
291
     1
 45
0.0
1001
ACAD
1000
AcDbSavedByObjectVersion
1070
     0
  0
VISUALSTYLE
  5
1A1BB
102
{ACAD_XDICTIONARY
360
1B6C2
102
}
102
{ACAD_REACTORS
330
1A1AD
102
}
330
1A1AD
100
AcDbVisualStyle
  2

 70
    14
 71
     2
 72
     2
 73
     0
 90
        0
 40
-0.6
 41
-30.0
 62
     5
 63
     7
 74
     1
 91
        4
 64
     7
 65
   257
 75
     7
175
     7
 42
1.0
 92
        8
 66
     7
 43
1.0
 76
     1
 77
     6
 78
     2
 67
     7
 79
     5
170
     0
171
     0
290
     0
174
     0
 93
        1
 44
0.0
173
     0
291
     1
 45
0.0
1001
ACAD
1000
AcDbSavedByObjectVersion
1070
     0
  0
VISUALSTYLE
  5
1B633
102
{ACAD_XDICTIONARY
360
1B6CA
102
}
102
{ACAD_REACTORS
330
1A1AD
102
}
330
1A1AD
100
AcDbVisualStyle
  2
OverhangOff
 70
    21
 71
     2
 72
     2
 73
     0
 90
        0
 40
-0.6
 41
-30.0
 62
     5
 63
     7
 74
     1
 91
        4
 64
     7
 65
   257
 75
     1
175
     1
 42
1.0
 92
        9
 66
     7
 43
1.0
 76
     1
 77
     6
 78
     2
 67
     7
 79
     5
170
     0
171
     0
290
     0
174
     0
 93
        1
 44
0.0
173
     0
291
     1
 45
0.0
1001
ACAD
1000
AcDbSavedByObjectVersion
1070
     0
  0
VISUALSTYLE
  5
1A1B7
102
{ACAD_XDICTIONARY
360
1B6BA
102
}
102
{ACAD_REACTORS
330
1A1AD
102
}
330
1A1AD
100
AcDbVisualStyle
  2

 70
     8
 71
     2
 72
     2
 73
     0
 90
        0
 40
-0.6
 41
-30.0
 62
     5
 63
     7
 74
     1
 91
        0
 64
     7
 65
   257
 75
     1
175
     1
 42
1.0
 92
        8
 66
     8
 43
1.0
 76
     1
 77
     6
 78
     2
 67
     7
 79
     5
170
     0
171
     0
290
     0
174
     0
 93
       13
 44
0.0
173
     0
291
     0
 45
0.0
1001
ACAD
1000
AcDbSavedByObjectVersion
1070
     0
  0
VISUALSTYLE
  5
1A1BA
102
{ACAD_XDICTIONARY
360
1B6C0
102
}
102
{ACAD_REACTORS
330
1A1AD
102
}
330
1A1AD
100
AcDbVisualStyle
  2

 70
    13
 71
     2
 72
     2
 73
     0
 90
        0
 40
-0.6
 41
-30.0
 62
     5
 63
     7
 74
     1
 91
        4
 64
     7
 65
   257
 75
     1
175
     1
 42
1.0
 92
       12
 66
     7
 43
1.0
 76
     1
 77
     6
 78
     2
 67
     7
 79
     5
170
     0
171
     0
290
     0
174
     0
 93
        1
 44
0.0
173
     0
291
     1
 45
0.0
1001
ACAD
1000
AcDbSavedByObjectVersion
1070
     0
  0
DICTIONARYVAR
  5
1A6D1
102
{ACAD_REACTORS
330
94
102
}
330
94
100
DictionaryVariables
280
     0
  1
1:1
  0
DICTIONARYVAR
  5
1A6CF
102
{ACAD_REACTORS
330
94
102
}
330
94
100
DictionaryVariables
280
     0
  1
STANDARD
  0
DICTIONARYVAR
  5
138
102
{ACAD_REACTORS
330
94
102
}
330
94
100
DictionaryVariables
280
     0
  1
STANDARD
  0
DICTIONARYVAR
  5
96
102
{ACAD_REACTORS
330
94
102
}
330
94
100
DictionaryVariables
280
     0
  1
2
  0
DICTIONARYVAR
  5
95
102
{ACAD_REACTORS
330
94
102
}
330
94
100
DictionaryVariables
280
     0
  1
0
  0
DICTIONARYVAR
  5
1A6D3
102
{ACAD_REACTORS
330
94
102
}
330
94
100
DictionaryVariables
280
     0
  1
1
  0
DICTIONARYVAR
  5
1A6D4
102
{ACAD_REACTORS
330
94
102
}
330
94
100
DictionaryVariables
280
     0
  1
15
  0
DICTIONARYVAR
  5
1A6D2
102
{ACAD_REACTORS
330
94
102
}
330
94
100
DictionaryVariables
280
     0
  1
0
  0
DICTIONARYVAR
  5
1A6D0
102
{ACAD_REACTORS
330
94
102
}
330
94
100
DictionaryVariables
280
     0
  1
0
  0
DICTIONARYVAR
  5
B168
102
{ACAD_REACTORS
330
94
102
}
330
94
100
DictionaryVariables
280
     0
  1

  0
DICTIONARYVAR
  5
1B61F
102
{ACAD_REACTORS
330
94
102
}
330
94
100
DictionaryVariables
280
     0
  1
127
  0
DICTIONARYVAR
  5
1B697
102
{ACAD_REACTORS
330
94
102
}
330
94
100
DictionaryVariables
280
     0
  1
2
  0
DICTIONARY
  5
272
102
{ACAD_REACTORS
330
5B
102
}
330
5B
100
AcDbDictionary
281
     1
  0
DICTIONARY
  5
61
102
{ACAD_REACTORS
330
5B
102
}
330
5B
100
AcDbDictionary
281
     1
  0
XRECORD
  5
123
102
{ACAD_REACTORS
330
5B
102
}
330
5B
100
AcDbXrecord
280
     1
 90
-1023410169
  0
DICTIONARY
  5
1B6A1
330
1E
100
AcDbDictionary
280
     1
281
     1
  3
ACAD_XREC_ROUNDTRIP
360
1B6A2
  0
DICTIONARY
  5
1B6A5
330
26
100
AcDbDictionary
280
     1
281
     1
  3
ACAD_XREC_ROUNDTRIP
360
1B6A6
  0
DICTIONARY
  5
1B6A3
330
22
100
AcDbDictionary
280
     1
281
     1
  3
ACAD_XREC_ROUNDTRIP
360
1B6A4
  0
DICTIONARY
  5
1A19E
330
1A19D
100
AcDbDictionary
280
     1
281
     1
  3
ACAD_XREC_ROUNDTRIP
360
1B62C
  3
BUMPTILE
360
1A1A0
  3
DIFFUSETILE
360
1A19F
  3
OPACITYTILE
360
1A1A3
  3
REFLECTIONTILE
360
1A1A2
  3
REFRACTIONTILE
360
1A1A4
  3
SPECULARTILE
360
1A1A1
  0
DICTIONARY
  5
1A196
330
1A195
100
AcDbDictionary
280
     1
281
     1
  3
ACAD_XREC_ROUNDTRIP
360
1B62B
  3
BUMPTILE
360
1A198
  3
DIFFUSETILE
360
1A197
  3
OPACITYTILE
360
1A19B
  3
REFLECTIONTILE
360
1A19A
  3
REFRACTIONTILE
360
1A19C
  3
SPECULARTILE
360
1A199
  0
DICTIONARY
  5
1A1A6
330
1A1A5
100
AcDbDictionary
280
     1
281
     1
  3
ACAD_XREC_ROUNDTRIP
360
1B62D
  3
BUMPTILE
360
1A1A8
  3
DIFFUSETILE
360
1A1A7
  3
OPACITYTILE
360
1A1AB
  3
REFLECTIONTILE
360
1A1AA
  3
REFRACTIONTILE
360
1A1AC
  3
SPECULARTILE
360
1A1A9
  0
DICTIONARY
  5
1A6CC
330
11B
100
AcDbDictionary
280
     1
281
     1
  3
ACAD_ROUNDTRIP_2008_TABLESTYLE_CELLSTYLEMAP
360
1B698
  3
ACAD_XREC_ROUNDTRIP
360
1B6A7
  0
DICTIONARY
  5
1B6B2
330
1A1B3
100
AcDbDictionary
280
     1
281
     1
  3
ACAD_XREC_ROUNDTRIP
360
1B6B3
  0
DICTIONARY
  5
1B6B6
330
1A1B5
100
AcDbDictionary
280
     1
281
     1
  3
ACAD_XREC_ROUNDTRIP
360
1B6B7
  0
DICTIONARY
  5
1B6B4
330
1A1B4
100
AcDbDictionary
280
     1
281
     1
  3
ACAD_XREC_ROUNDTRIP
360
1B6B5
  0
DICTIONARY
  5
1B6B0
330
1A1B2
100
AcDbDictionary
280
     1
281
     1
  3
ACAD_XREC_ROUNDTRIP
360
1B6B1
  0
DICTIONARY
  5
1B6BE
330
1A1B9
100
AcDbDictionary
280
     1
281
     1
  3
ACAD_XREC_ROUNDTRIP
360
1B6BF
  0
DICTIONARY
  5
1B6C6
330
1A1BD
100
AcDbDictionary
280
     1
281
     1
  3
ACAD_XREC_ROUNDTRIP
360
1B6C7
  0
DICTIONARY
  5
1B6B8
330
1A1B6
100
AcDbDictionary
280
     1
281
     1
  3
ACAD_XREC_ROUNDTRIP
360
1B6B9
  0
DICTIONARY
  5
1B6BC
330
1A1B8
100
AcDbDictionary
280
     1
281
     1
  3
ACAD_XREC_ROUNDTRIP
360
1B6BD
  0
DICTIONARY
  5
1B6CC
330
1B634
100
AcDbDictionary
280
     1
281
     1
  3
ACAD_XREC_ROUNDTRIP
360
1B6CD
  0
DICTIONARY
  5
1B6C4
330
1A1BC
100
AcDbDictionary
280
     1
281
     1
  3
ACAD_XREC_ROUNDTRIP
360
1B6C5
  0
DICTIONARY
  5
1B6A8
330
1A1AE
100
AcDbDictionary
280
     1
281
     1
  3
ACAD_XREC_ROUNDTRIP
360
1B6A9
  0
DICTIONARY
  5
1B6AA
330
1A1AF
100
AcDbDictionary
280
     1
281
     1
  3
ACAD_XREC_ROUNDTRIP
360
1B6AB
  0
DICTIONARY
  5
1B6AC
330
1A1B0
100
AcDbDictionary
280
     1
281
     1
  3
ACAD_XREC_ROUNDTRIP
360
1B6AD
  0
DICTIONARY
  5
1B6AE
330
1A1B1
100
AcDbDictionary
280
     1
281
     1
  3
ACAD_XREC_ROUNDTRIP
360
1B6AF
  0
DICTIONARY
  5
1B6C8
330
1B632
100
AcDbDictionary
280
     1
281
     1
  3
ACAD_XREC_ROUNDTRIP
360
1B6C9
  0
DICTIONARY
  5
1B6C2
330
1A1BB
100
AcDbDictionary
280
     1
281
     1
  3
ACAD_XREC_ROUNDTRIP
360
1B6C3
  0
DICTIONARY
  5
1B6CA
330
1B633
100
AcDbDictionary
280
     1
281
     1
  3
ACAD_XREC_ROUNDTRIP
360
1B6CB
  0
DICTIONARY
  5
1B6BA
330
1A1B7
100
AcDbDictionary
280
     1
281
     1
  3
ACAD_XREC_ROUNDTRIP
360
1B6BB
  0
DICTIONARY
  5
1B6C0
330
1A1BA
100
AcDbDictionary
280
     1
281
     1
  3
ACAD_XREC_ROUNDTRIP
360
1B6C1
  0
XRECORD
  5
1B6A2
102
{ACAD_REACTORS
330
1B6A1
102
}
330
1B6A1
100
AcDbXrecord
280
     1
102
SHADEPLOT
 70
     0
102
SHADEPLOTRESLEVEL
 70
     2
102
SHADEPLOTCUSTOMDPI
 70
   300
  0
XRECORD
  5
1B6A6
102
{ACAD_REACTORS
330
1B6A5
102
}
330
1B6A5
100
AcDbXrecord
280
     1
102
SHADEPLOT
 70
     0
102
SHADEPLOTRESLEVEL
 70
     2
102
SHADEPLOTCUSTOMDPI
 70
   300
  0
XRECORD
  5
1B6A4
102
{ACAD_REACTORS
330
1B6A3
102
}
330
1B6A3
100
AcDbXrecord
280
     1
102
SHADEPLOT
 70
     0
102
SHADEPLOTRESLEVEL
 70
     2
102
SHADEPLOTCUSTOMDPI
 70
   300
  0
XRECORD
  5
1B62C
102
{ACAD_REACTORS
330
1A19E
102
}
330
1A19E
100
AcDbXrecord
280
     1
102
MATERIAL
148
0.0
149
0.0
149
0.0
 93
        0
 94
      127
282
     0
 72
     0
 77
     0
171
     0
175
     0
179
     0
273
     0
  0
XRECORD
  5
1A1A0
102
{ACAD_REACTORS
330
1A19E
102
}
330
1A19E
100
AcDbXrecord
280
     1
270
     1
271
     1
  0
XRECORD
  5
1A19F
102
{ACAD_REACTORS
330
1A19E
102
}
330
1A19E
100
AcDbXrecord
280
     1
270
     1
271
     1
  0
XRECORD
  5
1A1A3
102
{ACAD_REACTORS
330
1A19E
102
}
330
1A19E
100
AcDbXrecord
280
     1
270
     1
271
     1
  0
XRECORD
  5
1A1A2
102
{ACAD_REACTORS
330
1A19E
102
}
330
1A19E
100
AcDbXrecord
280
     1
270
     1
271
     1
  0
XRECORD
  5
1A1A4
102
{ACAD_REACTORS
330
1A19E
102
}
330
1A19E
100
AcDbXrecord
280
     1
270
     1
271
     1
  0
XRECORD
  5
1A1A1
102
{ACAD_REACTORS
330
1A19E
102
}
330
1A19E
100
AcDbXrecord
280
     1
270
     1
271
     1
  0
XRECORD
  5
1B62B
102
{ACAD_REACTORS
330
1A196
102
}
330
1A196
100
AcDbXrecord
280
     1
102
MATERIAL
148
0.0
149
0.0
149
0.0
 93
        0
 94
      127
282
     0
 72
     0
 77
     0
171
     0
175
     0
179
     0
273
     0
  0
XRECORD
  5
1A198
102
{ACAD_REACTORS
330
1A196
102
}
330
1A196
100
AcDbXrecord
280
     1
270
     1
271
     1
  0
XRECORD
  5
1A197
102
{ACAD_REACTORS
330
1A196
102
}
330
1A196
100
AcDbXrecord
280
     1
270
     1
271
     1
  0
XRECORD
  5
1A19B
102
{ACAD_REACTORS
330
1A196
102
}
330
1A196
100
AcDbXrecord
280
     1
270
     1
271
     1
  0
XRECORD
  5
1A19A
102
{ACAD_REACTORS
330
1A196
102
}
330
1A196
100
AcDbXrecord
280
     1
270
     1
271
     1
  0
XRECORD
  5
1A19C
102
{ACAD_REACTORS
330
1A196
102
}
330
1A196
100
AcDbXrecord
280
     1
270
     1
271
     1
  0
XRECORD
  5
1A199
102
{ACAD_REACTORS
330
1A196
102
}
330
1A196
100
AcDbXrecord
280
     1
270
     1
271
     1
  0
XRECORD
  5
1B62D
102
{ACAD_REACTORS
330
1A1A6
102
}
330
1A1A6
100
AcDbXrecord
280
     1
102
MATERIAL
148
0.0
149
0.0
149
0.0
 93
        0
 94
      127
282
     0
 72
     0
 77
     0
171
     0
175
     0
179
     0
273
     0
  0
XRECORD
  5
1A1A8
102
{ACAD_REACTORS
330
1A1A6
102
}
330
1A1A6
100
AcDbXrecord
280
     1
270
     1
271
     1
  0
XRECORD
  5
1A1A7
102
{ACAD_REACTORS
330
1A1A6
102
}
330
1A1A6
100
AcDbXrecord
280
     1
270
     1
271
     1
  0
XRECORD
  5
1A1AB
102
{ACAD_REACTORS
330
1A1A6
102
}
330
1A1A6
100
AcDbXrecord
280
     1
270
     1
271
     1
  0
XRECORD
  5
1A1AA
102
{ACAD_REACTORS
330
1A1A6
102
}
330
1A1A6
100
AcDbXrecord
280
     1
270
     1
271
     1
  0
XRECORD
  5
1A1AC
102
{ACAD_REACTORS
330
1A1A6
102
}
330
1A1A6
100
AcDbXrecord
280
     1
270
     1
271
     1
  0
XRECORD
  5
1A1A9
102
{ACAD_REACTORS
330
1A1A6
102
}
330
1A1A6
100
AcDbXrecord
280
     1
270
     1
271
     1
  0
CELLSTYLEMAP
  5
1B698
102
{ACAD_REACTORS
330
1A6CC
102
}
330
1A6CC
100
AcDbCellStyleMap
 90
        3
300
CELLSTYLE
  1
TABLEFORMAT_BEGIN
 90
        5
170
     1
 91
        0
 92
    32768
 62
   257
 93
        1
300
CONTENTFORMAT
  1
CONTENTFORMAT_BEGIN
 90
        0
 91
        0
 92
        4
 93
        0
300

 40
0.0
140
1.0
 94
        5
 62
     0
340
11
144
6.0
309
CONTENTFORMAT_END
171
     1
301
MARGIN
  1
CELLMARGIN_BEGIN
 40
1.5
 40
1.5
 40
1.5
 40
1.5
 40
0.18
 40
0.18
309
CELLMARGIN_END
 94
        6
 95
        1
302
GRIDFORMAT
  1
GRIDFORMAT_BEGIN
 90
        0
 91
        1
 62
     0
 92
       -2
340
0
 93
        0
 40
0.045
309
GRIDFORMAT_END
 95
        2
302
GRIDFORMAT
  1
GRIDFORMAT_BEGIN
 90
        0
 91
        1
 62
     0
 92
       -2
340
0
 93
        0
 40
0.045
309
GRIDFORMAT_END
 95
        4
302
GRIDFORMAT
  1
GRIDFORMAT_BEGIN
 90
        0
 91
        1
 62
     0
 92
       -2
340
0
 93
        0
 40
0.045
309
GRIDFORMAT_END
 95
        8
302
GRIDFORMAT
  1
GRIDFORMAT_BEGIN
 90
        0
 91
        1
 62
     0
 92
       -2
340
0
 93
        0
 40
0.045
309
GRIDFORMAT_END
 95
       16
302
GRIDFORMAT
  1
GRIDFORMAT_BEGIN
 90
        0
 91
        1
 62
     0
 92
       -2
340
0
 93
        0
 40
0.045
309
GRIDFORMAT_END
 95
       32
302
GRIDFORMAT
  1
GRIDFORMAT_BEGIN
 90
        0
 91
        1
 62
     0
 92
       -2
340
0
 93
        0
 40
0.045
309
GRIDFORMAT_END
309
TABLEFORMAT_END
  1
CELLSTYLE_BEGIN
 90
        1
 91
        1
300
_TITLE
309
CELLSTYLE_END
300
CELLSTYLE
  1
TABLEFORMAT_BEGIN
 90
        5
170
     1
 91
        0
 92
        0
 62
   257
 93
        1
300
CONTENTFORMAT
  1
CONTENTFORMAT_BEGIN
 90
        0
 91
        0
 92
        4
 93
        0
300

 40
0.0
140
1.0
 94
        5
 62
     0
340
11
144
4.5
309
CONTENTFORMAT_END
171
     1
301
MARGIN
  1
CELLMARGIN_BEGIN
 40
1.5
 40
1.5
 40
1.5
 40
1.5
 40
0.18
 40
0.18
309
CELLMARGIN_END
 94
        6
 95
        1
302
GRIDFORMAT
  1
GRIDFORMAT_BEGIN
 90
        0
 91
        1
 62
     0
 92
       -2
340
0
 93
        0
 40
0.045
309
GRIDFORMAT_END
 95
        2
302
GRIDFORMAT
  1
GRIDFORMAT_BEGIN
 90
        0
 91
        1
 62
     0
 92
       -2
340
0
 93
        0
 40
0.045
309
GRIDFORMAT_END
 95
        4
302
GRIDFORMAT
  1
GRIDFORMAT_BEGIN
 90
        0
 91
        1
 62
     0
 92
       -2
340
0
 93
        0
 40
0.045
309
GRIDFORMAT_END
 95
        8
302
GRIDFORMAT
  1
GRIDFORMAT_BEGIN
 90
        0
 91
        1
 62
     0
 92
       -2
340
0
 93
        0
 40
0.045
309
GRIDFORMAT_END
 95
       16
302
GRIDFORMAT
  1
GRIDFORMAT_BEGIN
 90
        0
 91
        1
 62
     0
 92
       -2
340
0
 93
        0
 40
0.045
309
GRIDFORMAT_END
 95
       32
302
GRIDFORMAT
  1
GRIDFORMAT_BEGIN
 90
        0
 91
        1
 62
     0
 92
       -2
340
0
 93
        0
 40
0.045
309
GRIDFORMAT_END
309
TABLEFORMAT_END
  1
CELLSTYLE_BEGIN
 90
        2
 91
        1
300
_HEADER
309
CELLSTYLE_END
300
CELLSTYLE
  1
TABLEFORMAT_BEGIN
 90
        5
170
     1
 91
        0
 92
        0
 62
   257
 93
        1
300
CONTENTFORMAT
  1
CONTENTFORMAT_BEGIN
 90
        0
 91
        0
 92
        4
 93
        0
300

 40
0.0
140
1.0
 94
        2
 62
     0
340
11
144
4.5
309
CONTENTFORMAT_END
171
     1
301
MARGIN
  1
CELLMARGIN_BEGIN
 40
1.5
 40
1.5
 40
1.5
 40
1.5
 40
0.18
 40
0.18
309
CELLMARGIN_END
 94
        6
 95
        1
302
GRIDFORMAT
  1
GRIDFORMAT_BEGIN
 90
        0
 91
        1
 62
     0
 92
       -2
340
0
 93
        0
 40
0.045
309
GRIDFORMAT_END
 95
        2
302
GRIDFORMAT
  1
GRIDFORMAT_BEGIN
 90
        0
 91
        1
 62
     0
 92
       -2
340
0
 93
        0
 40
0.045
309
GRIDFORMAT_END
 95
        4
302
GRIDFORMAT
  1
GRIDFORMAT_BEGIN
 90
        0
 91
        1
 62
     0
 92
       -2
340
0
 93
        0
 40
0.045
309
GRIDFORMAT_END
 95
        8
302
GRIDFORMAT
  1
GRIDFORMAT_BEGIN
 90
        0
 91
        1
 62
     0
 92
       -2
340
0
 93
        0
 40
0.045
309
GRIDFORMAT_END
 95
       16
302
GRIDFORMAT
  1
GRIDFORMAT_BEGIN
 90
        0
 91
        1
 62
     0
 92
       -2
340
0
 93
        0
 40
0.045
309
GRIDFORMAT_END
 95
       32
302
GRIDFORMAT
  1
GRIDFORMAT_BEGIN
 90
        0
 91
        1
 62
     0
 92
       -2
340
0
 93
        0
 40
0.045
309
GRIDFORMAT_END
309
TABLEFORMAT_END
  1
CELLSTYLE_BEGIN
 90
        3
 91
        2
300
_DATA
309
CELLSTYLE_END
  0
XRECORD
  5
1B6A7
102
{ACAD_REACTORS
330
1A6CC
102
}
330
1A6CC
100
AcDbXrecord
280
     1
102
ACAD_ROUNDTRIP_PRE2007_TABLESTYLE
 90
        4
 91
        0
  1

 92
        4
 93
        0
  2

 94
        4
 95
        0
  3

  0
XRECORD
  5
1B6B3
102
{ACAD_REACTORS
330
1B6B2
102
}
330
1B6B2
100
AcDbXrecord
280
     1
102
RTVSPropertyOp0
 70
     1
102
RTVSPropertyOp1
 70
     1
102
RTVSPropertyOp2
 70
     1
102
RTVSPropertyOp3
 70
     1
102
RTVSPropertyOp4
 70
     1
102
RTVSPropertyOp5
 70
     1
102
RTVSPropertyOp6
 70
     1
102
RTVSPropertyOp7
 70
     1
102
RTVSPropertyOp8
 70
     1
102
RTVSPropertyOp9
 70
     1
102
RTVSPropertyOp10
 70
     1
102
RTVSPropertyOp11
 70
     1
102
RTVSPropertyOp12
 70
     1
102
RTVSPropertyOp13
 70
     1
102
RTVSPropertyOp14
 70
     1
102
RTVSPropertyOp15
 70
     1
102
RTVSPropertyOp16
 70
     1
102
RTVSPropertyOp17
 70
     1
102
RTVSPropertyOp18
 70
     1
102
RTVSPropertyOp19
 70
     1
102
RTVSPropertyOp20
 70
     1
102
RTVSPropertyOp21
 70
     1
102
RTVSPropertyOp22
 70
     1
102
RTVSPropertyOp23
 70
     1
102
RTVSPropertyOp24
 70
     1
102
RTVSPropertyOp25
 70
     1
102
RTVSPropertyOp26
 70
     1
102
RTVSPropertyOp27
 70
     1
  0
XRECORD
  5
1B6B7
102
{ACAD_REACTORS
330
1B6B6
102
}
330
1B6B6
100
AcDbXrecord
280
     1
102
RTVSPropertyOp0
 70
     1
102
RTVSPropertyOp1
 70
     1
102
RTVSPropertyOp2
 70
     1
102
RTVSPropertyOp3
 70
     1
102
RTVSPropertyOp4
 70
     1
102
RTVSPropertyOp5
 70
     1
102
RTVSPropertyOp6
 70
     1
102
RTVSPropertyOp7
 70
     1
102
RTVSPropertyOp8
 70
     1
102
RTVSPropertyOp9
 70
     1
102
RTVSPropertyOp10
 70
     1
102
RTVSPropertyOp11
 70
     1
102
RTVSPropertyOp12
 70
     1
102
RTVSPropertyOp13
 70
     1
102
RTVSPropertyOp14
 70
     1
102
RTVSPropertyOp15
 70
     1
102
RTVSPropertyOp16
 70
     1
102
RTVSPropertyOp17
 70
     1
102
RTVSPropertyOp18
 70
     1
102
RTVSPropertyOp19
 70
     1
102
RTVSPropertyOp20
 70
     1
102
RTVSPropertyOp21
 70
     1
102
RTVSPropertyOp22
 70
     1
102
RTVSPropertyOp23
 70
     1
102
RTVSPropertyOp24
 70
     1
102
RTVSPropertyOp25
 70
     1
102
RTVSPropertyOp26
 70
     1
102
RTVSPropertyOp27
 70
     1
  0
XRECORD
  5
1B6B5
102
{ACAD_REACTORS
330
1B6B4
102
}
330
1B6B4
100
AcDbXrecord
280
     1
102
RTVSPropertyOp0
 70
     1
102
RTVSPropertyOp1
 70
     1
102
RTVSPropertyOp2
 70
     1
102
RTVSPropertyOp3
 70
     1
102
RTVSPropertyOp4
 70
     1
102
RTVSPropertyOp5
 70
     1
102
RTVSPropertyOp6
 70
     1
102
RTVSPropertyOp7
 70
     1
102
RTVSPropertyOp8
 70
     1
102
RTVSPropertyOp9
 70
     1
102
RTVSPropertyOp10
 70
     1
102
RTVSPropertyOp11
 70
     1
102
RTVSPropertyOp12
 70
     1
102
RTVSPropertyOp13
 70
     1
102
RTVSPropertyOp14
 70
     1
102
RTVSPropertyOp15
 70
     1
102
RTVSPropertyOp16
 70
     1
102
RTVSPropertyOp17
 70
     1
102
RTVSPropertyOp18
 70
     1
102
RTVSPropertyOp19
 70
     1
102
RTVSPropertyOp20
 70
     1
102
RTVSPropertyOp21
 70
     1
102
RTVSPropertyOp22
 70
     1
102
RTVSPropertyOp23
 70
     1
102
RTVSPropertyOp24
 70
     1
102
RTVSPropertyOp25
 70
     1
102
RTVSPropertyOp26
 70
     1
102
RTVSPropertyOp27
 70
     1
  0
XRECORD
  5
1B6B1
102
{ACAD_REACTORS
330
1B6B0
102
}
330
1B6B0
100
AcDbXrecord
280
     1
102
RTVSPropertyOp0
 70
     1
102
RTVSPropertyOp1
 70
     1
102
RTVSPropertyOp2
 70
     1
102
RTVSPropertyOp3
 70
     1
102
RTVSPropertyOp4
 70
     1
102
RTVSPropertyOp5
 70
     1
102
RTVSPropertyOp6
 70
     1
102
RTVSPropertyOp7
 70
     1
102
RTVSPropertyOp8
 70
     1
102
RTVSPropertyOp9
 70
     1
102
RTVSPropertyOp10
 70
     1
102
RTVSPropertyOp11
 70
     1
102
RTVSPropertyOp12
 70
     1
102
RTVSPropertyOp13
 70
     1
102
RTVSPropertyOp14
 70
     1
102
RTVSPropertyOp15
 70
     1
102
RTVSPropertyOp16
 70
     1
102
RTVSPropertyOp17
 70
     1
102
RTVSPropertyOp18
 70
     1
102
RTVSPropertyOp19
 70
     1
102
RTVSPropertyOp20
 70
     1
102
RTVSPropertyOp21
 70
     1
102
RTVSPropertyOp22
 70
     1
102
RTVSPropertyOp23
 70
     1
102
RTVSPropertyOp24
 70
     1
102
RTVSPropertyOp25
 70
     1
102
RTVSPropertyOp26
 70
     1
102
RTVSPropertyOp27
 70
     1
  0
XRECORD
  5
1B6BF
102
{ACAD_REACTORS
330
1B6BE
102
}
330
1B6BE
100
AcDbXrecord
280
     1
102
RTVSPropertyOp0
 70
     1
102
RTVSPropertyOp1
 70
     1
102
RTVSPropertyOp2
 70
     1
102
RTVSPropertyOp3
 70
     1
102
RTVSPropertyOp4
 70
     1
102
RTVSPropertyOp5
 70
     1
102
RTVSPropertyOp6
 70
     1
102
RTVSPropertyOp7
 70
     1
102
RTVSPropertyOp8
 70
     1
102
RTVSPropertyOp9
 70
     1
102
RTVSPropertyOp10
 70
     1
102
RTVSPropertyOp11
 70
     1
102
RTVSPropertyOp12
 70
     1
102
RTVSPropertyOp13
 70
     1
102
RTVSPropertyOp14
 70
     1
102
RTVSPropertyOp15
 70
     1
102
RTVSPropertyOp16
 70
     1
102
RTVSPropertyOp17
 70
     1
102
RTVSPropertyOp18
 70
     1
102
RTVSPropertyOp19
 70
     1
102
RTVSPropertyOp20
 70
     1
102
RTVSPropertyOp21
 70
     1
102
RTVSPropertyOp22
 70
     1
102
RTVSPropertyOp23
 70
     1
102
RTVSPropertyOp24
 70
     1
102
RTVSPropertyOp25
 70
     1
102
RTVSPropertyOp26
 70
     1
102
RTVSPropertyOp27
 70
     1
  0
XRECORD
  5
1B6C7
102
{ACAD_REACTORS
330
1B6C6
102
}
330
1B6C6
100
AcDbXrecord
280
     1
102
RTVSPropertyOp0
 70
     1
102
RTVSPropertyOp1
 70
     1
102
RTVSPropertyOp2
 70
     1
102
RTVSPropertyOp3
 70
     1
102
RTVSPropertyOp4
 70
     1
102
RTVSPropertyOp5
 70
     1
102
RTVSPropertyOp6
 70
     1
102
RTVSPropertyOp7
 70
     1
102
RTVSPropertyOp8
 70
     1
102
RTVSPropertyOp9
 70
     1
102
RTVSPropertyOp10
 70
     1
102
RTVSPropertyOp11
 70
     1
102
RTVSPropertyOp12
 70
     1
102
RTVSPropertyOp13
 70
     1
102
RTVSPropertyOp14
 70
     1
102
RTVSPropertyOp15
 70
     1
102
RTVSPropertyOp16
 70
     1
102
RTVSPropertyOp17
 70
     1
102
RTVSPropertyOp18
 70
     1
102
RTVSPropertyOp19
 70
     1
102
RTVSPropertyOp20
 70
     1
102
RTVSPropertyOp21
 70
     1
102
RTVSPropertyOp22
 70
     1
102
RTVSPropertyOp23
 70
     1
102
RTVSPropertyOp24
 70
     1
102
RTVSPropertyOp25
 70
     1
102
RTVSPropertyOp26
 70
     1
102
RTVSPropertyOp27
 70
     1
  0
XRECORD
  5
1B6B9
102
{ACAD_REACTORS
330
1B6B8
102
}
330
1B6B8
100
AcDbXrecord
280
     1
102
RTVSPropertyOp0
 70
     1
102
RTVSPropertyOp1
 70
     1
102
RTVSPropertyOp2
 70
     1
102
RTVSPropertyOp3
 70
     1
102
RTVSPropertyOp4
 70
     1
102
RTVSPropertyOp5
 70
     1
102
RTVSPropertyOp6
 70
     1
102
RTVSPropertyOp7
 70
     1
102
RTVSPropertyOp8
 70
     1
102
RTVSPropertyOp9
 70
     1
102
RTVSPropertyOp10
 70
     1
102
RTVSPropertyOp11
 70
     1
102
RTVSPropertyOp12
 70
     1
102
RTVSPropertyOp13
 70
     1
102
RTVSPropertyOp14
 70
     1
102
RTVSPropertyOp15
 70
     1
102
RTVSPropertyOp16
 70
     1
102
RTVSPropertyOp17
 70
     1
102
RTVSPropertyOp18
 70
     1
102
RTVSPropertyOp19
 70
     1
102
RTVSPropertyOp20
 70
     1
102
RTVSPropertyOp21
 70
     1
102
RTVSPropertyOp22
 70
     1
102
RTVSPropertyOp23
 70
     1
102
RTVSPropertyOp24
 70
     1
102
RTVSPropertyOp25
 70
     1
102
RTVSPropertyOp26
 70
     1
102
RTVSPropertyOp27
 70
     1
  0
XRECORD
  5
1B6BD
102
{ACAD_REACTORS
330
1B6BC
102
}
330
1B6BC
100
AcDbXrecord
280
     1
102
RTVSPropertyOp0
 70
     1
102
RTVSPropertyOp1
 70
     1
102
RTVSPropertyOp2
 70
     1
102
RTVSPropertyOp3
 70
     1
102
RTVSPropertyOp4
 70
     1
102
RTVSPropertyOp5
 70
     1
102
RTVSPropertyOp6
 70
     1
102
RTVSPropertyOp7
 70
     1
102
RTVSPropertyOp8
 70
     1
102
RTVSPropertyOp9
 70
     1
102
RTVSPropertyOp10
 70
     1
102
RTVSPropertyOp11
 70
     1
102
RTVSPropertyOp12
 70
     1
102
RTVSPropertyOp13
 70
     1
102
RTVSPropertyOp14
 70
     1
102
RTVSPropertyOp15
 70
     1
102
RTVSPropertyOp16
 70
     1
102
RTVSPropertyOp17
 70
     1
102
RTVSPropertyOp18
 70
     1
102
RTVSPropertyOp19
 70
     1
102
RTVSPropertyOp20
 70
     1
102
RTVSPropertyOp21
 70
     1
102
RTVSPropertyOp22
 70
     1
102
RTVSPropertyOp23
 70
     1
102
RTVSPropertyOp24
 70
     1
102
RTVSPropertyOp25
 70
     1
102
RTVSPropertyOp26
 70
     1
102
RTVSPropertyOp27
 70
     1
  0
XRECORD
  5
1B6CD
102
{ACAD_REACTORS
330
1B6CC
102
}
330
1B6CC
100
AcDbXrecord
280
     1
102
RTVSPropertyOp0
 70
     0
102
RTVSPropertyOp1
 70
     0
102
RTVSPropertyOp2
 70
     0
102
RTVSPropertyOp3
 70
     0
102
RTVSPropertyOp4
 70
     0
102
RTVSPropertyOp5
 70
     0
102
RTVSPropertyOp6
 70
     0
102
RTVSPropertyOp7
 70
     0
102
RTVSPropertyOp8
 70
     0
102
RTVSPropertyOp9
 70
     0
102
RTVSPropertyOp10
 70
     0
102
RTVSPropertyOp11
 70
     0
102
RTVSPropertyOp12
 70
     0
102
RTVSPropertyOp13
 70
     0
102
RTVSPropertyOp14
 70
     2
102
RTVSPropertyOp15
 70
     0
102
RTVSPropertyOp16
 70
     0
102
RTVSPropertyOp17
 70
     0
102
RTVSPropertyOp18
 70
     0
102
RTVSPropertyOp19
 70
     0
102
RTVSPropertyOp20
 70
     0
102
RTVSPropertyOp21
 70
     0
102
RTVSPropertyOp22
 70
     0
102
RTVSPropertyOp23
 70
     0
102
RTVSPropertyOp24
 70
     0
102
RTVSPropertyOp25
 70
     0
102
RTVSPropertyOp26
 70
     0
102
RTVSPropertyOp27
 70
     0
  0
XRECORD
  5
1B6C5
102
{ACAD_REACTORS
330
1B6C4
102
}
330
1B6C4
100
AcDbXrecord
280
     1
102
RTVSPropertyOp0
 70
     1
102
RTVSPropertyOp1
 70
     1
102
RTVSPropertyOp2
 70
     1
102
RTVSPropertyOp3
 70
     1
102
RTVSPropertyOp4
 70
     1
102
RTVSPropertyOp5
 70
     1
102
RTVSPropertyOp6
 70
     1
102
RTVSPropertyOp7
 70
     1
102
RTVSPropertyOp8
 70
     1
102
RTVSPropertyOp9
 70
     1
102
RTVSPropertyOp10
 70
     1
102
RTVSPropertyOp11
 70
     1
102
RTVSPropertyOp12
 70
     1
102
RTVSPropertyOp13
 70
     1
102
RTVSPropertyOp14
 70
     1
102
RTVSPropertyOp15
 70
     1
102
RTVSPropertyOp16
 70
     1
102
RTVSPropertyOp17
 70
     1
102
RTVSPropertyOp18
 70
     1
102
RTVSPropertyOp19
 70
     1
102
RTVSPropertyOp20
 70
     1
102
RTVSPropertyOp21
 70
     1
102
RTVSPropertyOp22
 70
     1
102
RTVSPropertyOp23
 70
     1
102
RTVSPropertyOp24
 70
     1
102
RTVSPropertyOp25
 70
     1
102
RTVSPropertyOp26
 70
     1
102
RTVSPropertyOp27
 70
     1
  0
XRECORD
  5
1B6A9
102
{ACAD_REACTORS
330
1B6A8
102
}
330
1B6A8
100
AcDbXrecord
280
     1
102
RTVSPropertyOp0
 70
     1
102
RTVSPropertyOp1
 70
     1
102
RTVSPropertyOp2
 70
     1
102
RTVSPropertyOp3
 70
     1
102
RTVSPropertyOp4
 70
     1
102
RTVSPropertyOp5
 70
     1
102
RTVSPropertyOp6
 70
     1
102
RTVSPropertyOp7
 70
     1
102
RTVSPropertyOp8
 70
     1
102
RTVSPropertyOp9
 70
     1
102
RTVSPropertyOp10
 70
     1
102
RTVSPropertyOp11
 70
     1
102
RTVSPropertyOp12
 70
     1
102
RTVSPropertyOp13
 70
     1
102
RTVSPropertyOp14
 70
     1
102
RTVSPropertyOp15
 70
     1
102
RTVSPropertyOp16
 70
     1
102
RTVSPropertyOp17
 70
     1
102
RTVSPropertyOp18
 70
     1
102
RTVSPropertyOp19
 70
     1
102
RTVSPropertyOp20
 70
     1
102
RTVSPropertyOp21
 70
     1
102
RTVSPropertyOp22
 70
     1
102
RTVSPropertyOp23
 70
     1
102
RTVSPropertyOp24
 70
     1
102
RTVSPropertyOp25
 70
     1
102
RTVSPropertyOp26
 70
     1
102
RTVSPropertyOp27
 70
     1
  0
XRECORD
  5
1B6AB
102
{ACAD_REACTORS
330
1B6AA
102
}
330
1B6AA
100
AcDbXrecord
280
     1
102
RTVSPropertyOp0
 70
     1
102
RTVSPropertyOp1
 70
     1
102
RTVSPropertyOp2
 70
     1
102
RTVSPropertyOp3
 70
     1
102
RTVSPropertyOp4
 70
     1
102
RTVSPropertyOp5
 70
     1
102
RTVSPropertyOp6
 70
     1
102
RTVSPropertyOp7
 70
     1
102
RTVSPropertyOp8
 70
     1
102
RTVSPropertyOp9
 70
     1
102
RTVSPropertyOp10
 70
     1
102
RTVSPropertyOp11
 70
     1
102
RTVSPropertyOp12
 70
     1
102
RTVSPropertyOp13
 70
     1
102
RTVSPropertyOp14
 70
     1
102
RTVSPropertyOp15
 70
     1
102
RTVSPropertyOp16
 70
     1
102
RTVSPropertyOp17
 70
     1
102
RTVSPropertyOp18
 70
     1
102
RTVSPropertyOp19
 70
     1
102
RTVSPropertyOp20
 70
     1
102
RTVSPropertyOp21
 70
     1
102
RTVSPropertyOp22
 70
     1
102
RTVSPropertyOp23
 70
     1
102
RTVSPropertyOp24
 70
     1
102
RTVSPropertyOp25
 70
     1
102
RTVSPropertyOp26
 70
     1
102
RTVSPropertyOp27
 70
     1
  0
XRECORD
  5
1B6AD
102
{ACAD_REACTORS
330
1B6AC
102
}
330
1B6AC
100
AcDbXrecord
280
     1
102
RTVSPropertyOp0
 70
     1
102
RTVSPropertyOp1
 70
     1
102
RTVSPropertyOp2
 70
     1
102
RTVSPropertyOp3
 70
     1
102
RTVSPropertyOp4
 70
     1
102
RTVSPropertyOp5
 70
     1
102
RTVSPropertyOp6
 70
     1
102
RTVSPropertyOp7
 70
     1
102
RTVSPropertyOp8
 70
     1
102
RTVSPropertyOp9
 70
     1
102
RTVSPropertyOp10
 70
     1
102
RTVSPropertyOp11
 70
     1
102
RTVSPropertyOp12
 70
     1
102
RTVSPropertyOp13
 70
     1
102
RTVSPropertyOp14
 70
     1
102
RTVSPropertyOp15
 70
     1
102
RTVSPropertyOp16
 70
     1
102
RTVSPropertyOp17
 70
     1
102
RTVSPropertyOp18
 70
     1
102
RTVSPropertyOp19
 70
     1
102
RTVSPropertyOp20
 70
     1
102
RTVSPropertyOp21
 70
     1
102
RTVSPropertyOp22
 70
     1
102
RTVSPropertyOp23
 70
     1
102
RTVSPropertyOp24
 70
     1
102
RTVSPropertyOp25
 70
     1
102
RTVSPropertyOp26
 70
     1
102
RTVSPropertyOp27
 70
     1
  0
XRECORD
  5
1B6AF
102
{ACAD_REACTORS
330
1B6AE
102
}
330
1B6AE
100
AcDbXrecord
280
     1
102
RTVSPropertyOp0
 70
     1
102
RTVSPropertyOp1
 70
     1
102
RTVSPropertyOp2
 70
     1
102
RTVSPropertyOp3
 70
     1
102
RTVSPropertyOp4
 70
     1
102
RTVSPropertyOp5
 70
     1
102
RTVSPropertyOp6
 70
     1
102
RTVSPropertyOp7
 70
     1
102
RTVSPropertyOp8
 70
     1
102
RTVSPropertyOp9
 70
     1
102
RTVSPropertyOp10
 70
     1
102
RTVSPropertyOp11
 70
     1
102
RTVSPropertyOp12
 70
     1
102
RTVSPropertyOp13
 70
     1
102
RTVSPropertyOp14
 70
     1
102
RTVSPropertyOp15
 70
     1
102
RTVSPropertyOp16
 70
     1
102
RTVSPropertyOp17
 70
     1
102
RTVSPropertyOp18
 70
     1
102
RTVSPropertyOp19
 70
     1
102
RTVSPropertyOp20
 70
     1
102
RTVSPropertyOp21
 70
     1
102
RTVSPropertyOp22
 70
     1
102
RTVSPropertyOp23
 70
     1
102
RTVSPropertyOp24
 70
     1
102
RTVSPropertyOp25
 70
     1
102
RTVSPropertyOp26
 70
     1
102
RTVSPropertyOp27
 70
     1
  0
XRECORD
  5
1B6C9
102
{ACAD_REACTORS
330
1B6C8
102
}
330
1B6C8
100
AcDbXrecord
280
     1
102
RTVSPropertyOp0
 70
     0
102
RTVSPropertyOp1
 70
     0
102
RTVSPropertyOp2
 70
     0
102
RTVSPropertyOp3
 70
     0
102
RTVSPropertyOp4
 70
     0
102
RTVSPropertyOp5
 70
     0
102
RTVSPropertyOp6
 70
     0
102
RTVSPropertyOp7
 70
     0
102
RTVSPropertyOp8
 70
     0
102
RTVSPropertyOp9
 70
     0
102
RTVSPropertyOp10
 70
     0
102
RTVSPropertyOp11
 70
     0
102
RTVSPropertyOp12
 70
     0
102
RTVSPropertyOp13
 70
     0
102
RTVSPropertyOp14
 70
     2
102
RTVSPropertyOp15
 70
     0
102
RTVSPropertyOp16
 70
     0
102
RTVSPropertyOp17
 70
     0
102
RTVSPropertyOp18
 70
     0
102
RTVSPropertyOp19
 70
     0
102
RTVSPropertyOp20
 70
     0
102
RTVSPropertyOp21
 70
     0
102
RTVSPropertyOp22
 70
     0
102
RTVSPropertyOp23
 70
     0
102
RTVSPropertyOp24
 70
     0
102
RTVSPropertyOp25
 70
     0
102
RTVSPropertyOp26
 70
     0
102
RTVSPropertyOp27
 70
     0
  0
XRECORD
  5
1B6C3
102
{ACAD_REACTORS
330
1B6C2
102
}
330
1B6C2
100
AcDbXrecord
280
     1
102
RTVSPropertyOp0
 70
     1
102
RTVSPropertyOp1
 70
     1
102
RTVSPropertyOp2
 70
     1
102
RTVSPropertyOp3
 70
     1
102
RTVSPropertyOp4
 70
     1
102
RTVSPropertyOp5
 70
     1
102
RTVSPropertyOp6
 70
     1
102
RTVSPropertyOp7
 70
     1
102
RTVSPropertyOp8
 70
     1
102
RTVSPropertyOp9
 70
     1
102
RTVSPropertyOp10
 70
     1
102
RTVSPropertyOp11
 70
     1
102
RTVSPropertyOp12
 70
     1
102
RTVSPropertyOp13
 70
     1
102
RTVSPropertyOp14
 70
     1
102
RTVSPropertyOp15
 70
     1
102
RTVSPropertyOp16
 70
     1
102
RTVSPropertyOp17
 70
     1
102
RTVSPropertyOp18
 70
     1
102
RTVSPropertyOp19
 70
     1
102
RTVSPropertyOp20
 70
     1
102
RTVSPropertyOp21
 70
     1
102
RTVSPropertyOp22
 70
     1
102
RTVSPropertyOp23
 70
     1
102
RTVSPropertyOp24
 70
     1
102
RTVSPropertyOp25
 70
     1
102
RTVSPropertyOp26
 70
     1
102
RTVSPropertyOp27
 70
     1
  0
XRECORD
  5
1B6CB
102
{ACAD_REACTORS
330
1B6CA
102
}
330
1B6CA
100
AcDbXrecord
280
     1
102
RTVSPropertyOp0
 70
     0
102
RTVSPropertyOp1
 70
     0
102
RTVSPropertyOp2
 70
     0
102
RTVSPropertyOp3
 70
     0
102
RTVSPropertyOp4
 70
     0
102
RTVSPropertyOp5
 70
     0
102
RTVSPropertyOp6
 70
     0
102
RTVSPropertyOp7
 70
     0
102
RTVSPropertyOp8
 70
     0
102
RTVSPropertyOp9
 70
     0
102
RTVSPropertyOp10
 70
     0
102
RTVSPropertyOp11
 70
     0
102
RTVSPropertyOp12
 70
     0
102
RTVSPropertyOp13
 70
     0
102
RTVSPropertyOp14
 70
     2
102
RTVSPropertyOp15
 70
     0
102
RTVSPropertyOp16
 70
     0
102
RTVSPropertyOp17
 70
     0
102
RTVSPropertyOp18
 70
     0
102
RTVSPropertyOp19
 70
     0
102
RTVSPropertyOp20
 70
     0
102
RTVSPropertyOp21
 70
     0
102
RTVSPropertyOp22
 70
     0
102
RTVSPropertyOp23
 70
     0
102
RTVSPropertyOp24
 70
     0
102
RTVSPropertyOp25
 70
     0
102
RTVSPropertyOp26
 70
     0
102
RTVSPropertyOp27
 70
     0
  0
XRECORD
  5
1B6BB
102
{ACAD_REACTORS
330
1B6BA
102
}
330
1B6BA
100
AcDbXrecord
280
     1
102
RTVSPropertyOp0
 70
     1
102
RTVSPropertyOp1
 70
     1
102
RTVSPropertyOp2
 70
     1
102
RTVSPropertyOp3
 70
     1
102
RTVSPropertyOp4
 70
     1
102
RTVSPropertyOp5
 70
     1
102
RTVSPropertyOp6
 70
     1
102
RTVSPropertyOp7
 70
     1
102
RTVSPropertyOp8
 70
     1
102
RTVSPropertyOp9
 70
     1
102
RTVSPropertyOp10
 70
     1
102
RTVSPropertyOp11
 70
     1
102
RTVSPropertyOp12
 70
     1
102
RTVSPropertyOp13
 70
     1
102
RTVSPropertyOp14
 70
     1
102
RTVSPropertyOp15
 70
     1
102
RTVSPropertyOp16
 70
     1
102
RTVSPropertyOp17
 70
     1
102
RTVSPropertyOp18
 70
     1
102
RTVSPropertyOp19
 70
     1
102
RTVSPropertyOp20
 70
     1
102
RTVSPropertyOp21
 70
     1
102
RTVSPropertyOp22
 70
     1
102
RTVSPropertyOp23
 70
     1
102
RTVSPropertyOp24
 70
     1
102
RTVSPropertyOp25
 70
     1
102
RTVSPropertyOp26
 70
     1
102
RTVSPropertyOp27
 70
     1
  0
XRECORD
  5
1B6C1
102
{ACAD_REACTORS
330
1B6C0
102
}
330
1B6C0
100
AcDbXrecord
280
     1
102
RTVSPropertyOp0
 70
     1
102
RTVSPropertyOp1
 70
     1
102
RTVSPropertyOp2
 70
     1
102
RTVSPropertyOp3
 70
     1
102
RTVSPropertyOp4
 70
     1
102
RTVSPropertyOp5
 70
     1
102
RTVSPropertyOp6
 70
     1
102
RTVSPropertyOp7
 70
     1
102
RTVSPropertyOp8
 70
     1
102
RTVSPropertyOp9
 70
     1
102
RTVSPropertyOp10
 70
     1
102
RTVSPropertyOp11
 70
     1
102
RTVSPropertyOp12
 70
     1
102
RTVSPropertyOp13
 70
     1
102
RTVSPropertyOp14
 70
     1
102
RTVSPropertyOp15
 70
     1
102
RTVSPropertyOp16
 70
     1
102
RTVSPropertyOp17
 70
     1
102
RTVSPropertyOp18
 70
     1
102
RTVSPropertyOp19
 70
     1
102
RTVSPropertyOp20
 70
     1
102
RTVSPropertyOp21
 70
     1
102
RTVSPropertyOp22
 70
     1
102
RTVSPropertyOp23
 70
     1
102
RTVSPropertyOp24
 70
     1
102
RTVSPropertyOp25
 70
     1
102
RTVSPropertyOp26
 70
     1
102
RTVSPropertyOp27
 70
     1
  0
ENDSEC
  0
EOF
