  0
SECTION
  2
HEADER
  9
$ACADVER
  1
AC1015
  9
$ACADMAINTVER
 70
    20
  9
$DWGCODEPAGE
  3
ANSI_1252
  9
$INSBASE
 10
0.0
 20
0.0
 30
0.0
  9
$EXTMIN
 10
22341.74560989078
 20
-498.2406037701266
 30
0.0
  9
$EXTMAX
 10
22666.03402107955
 20
-125.4155355750122
 30
0.0
  9
$LIMMIN
 10
0.0
 20
0.0
  9
$LIMMAX
 10
420.0
 20
297.0
  9
$ORTHOMODE
 70
     0
  9
$REGENMODE
 70
     1
  9
$FILLMODE
 70
     1
  9
$QTEXTMODE
 70
     0
  9
$MIRRTEXT
 70
     0
  9
$LTSCALE
 40
8.0
  9
$ATTMODE
 70
     1
  9
$TEXTSIZE
 40
2.5
  9
$TRACEWID
 40
1.0
  9
$TEXTSTYLE
  7
STANDARD
  9
$CLAYER
  8
0
  9
$CELTYPE
  6
ByLayer
  9
$CECOLOR
 62
   256
  9
$CELTSCALE
 40
1.0
  9
$DISPSILH
 70
     0
  9
$DIMSCALE
 40
1.0
  9
$DIMASZ
 40
65.0
  9
$DIMEXO
 40
1.0
  9
$DIMDLI
 40
10.0
  9
$DIMRND
 40
0.0
  9
$DIMDLE
 40
0.0
  9
$DIMEXE
 40
25.0
  9
$DIMTP
 40
0.1
  9
$DIMTM
 40
0.1
  9
$DIMTXT
 40
50.0
  9
$DIMCEN
 40
0.0
  9
$DIMTSZ
 40
0.0
  9
$DIMTOL
 70
     0
  9
$DIMLIM
 70
     0
  9
$DIMTIH
 70
     0
  9
$DIMTOH
 70
     0
  9
$DIMSE1
 70
     0
  9
$DIMSE2
 70
     0
  9
$DIMTAD
 70
     1
  9
$DIMZIN
 70
     8
  9
$DIMBLK
  1

  9
$DIMASO
 70
     1
  9
$DIMSHO
 70
     1
  9
$DIMPOST
  1

  9
$DIMAPOST
  1
"
  9
$DIMALT
 70
     0
  9
$DIMALTD
 70
     2
  9
$DIMALTF
 40
0.0393701
  9
$DIMLFAC
 40
1.0
  9
$DIMTOFL
 70
     1
  9
$DIMTVP
 40
0.0
  9
$DIMTIX
 70
     0
  9
$DIMSOXD
 70
     0
  9
$DIMSAH
 70
     0
  9
$DIMBLK1
  1

  9
$DIMBLK2
  1

  9
$DIMSTYLE
  2
AM_DIN
  9
$DIMCLRD
 70
   256
  9
$DIMCLRE
 70
   256
  9
$DIMCLRT
 70
     2
  9
$DIMTFAC
 40
0.71
  9
$DIMGAP
 40
15.0
  9
$DIMJUST
 70
     0
  9
$DIMSD1
 70
     0
  9
$DIMSD2
 70
     0
  9
$DIMTOLJ
 70
     0
  9
$DIMTZIN
 70
     8
  9
$DIMALTZ
 70
     0
  9
$DIMALTTZ
 70
     0
  9
$DIMUPT
 70
     0
  9
$DIMDEC
 70
     0
  9
$DIMTDEC
 70
     0
  9
$DIMALTU
 70
     2
  9
$DIMALTTD
 70
     2
  9
$DIMTXSTY
  7
STANDARD
  9
$DIMAUNIT
 70
     0
  9
$DIMADEC
 70
     0
  9
$DIMALTRND
 40
0.0
  9
$DIMAZIN
 70
     2
  9
$DIMDSEP
 70
    46
  9
$DIMATFIT
 70
     3
  9
$DIMFRAC
 70
     0
  9
$DIMLDRBLK
  1

  9
$DIMLUNIT
 70
     2
  9
$DIMLWD
 70
    -1
  9
$DIMLWE
 70
    -1
  9
$DIMTMOVE
 70
     0
  9
$LUNITS
 70
     2
  9
$LUPREC
 70
     2
  9
$SKETCHINC
 40
1.0
  9
$FILLETRAD
 40
2.5
  9
$AUNITS
 70
     0
  9
$AUPREC
 70
     0
  9
$MENU
  1
.
  9
$ELEVATION
 40
0.0
  9
$PELEVATION
 40
0.0
  9
$THICKNESS
 40
0.0
  9
$LIMCHECK
 70
     0
  9
$CHAMFERA
 40
2.5
  9
$CHAMFERB
 40
2.5
  9
$CHAMFERC
 40
20.0
  9
$CHAMFERD
 40
0.0
  9
$SKPOLY
 70
     0
  9
$TDCREATE
 40
2454167.376978160
  9
$TDUCREATE
 40
2454167.335311493
  9
$TDUPDATE
 40
2455133.677949028
  9
$TDUUPDATE
 40
2455133.636282361
  9
$TDINDWG
 40
0.7367595949
  9
$TDUSRTIMER
 40
0.7365994444
  9
$USRTIMER
 70
     1
  9
$ANGBASE
 50
0.0
  9
$ANGDIR
 70
     0
  9
$PDMODE
 70
     0
  9
$PDSIZE
 40
0.0
  9
$PLINEWID
 40
0.0
  9
$SPLFRAME
 70
     0
  9
$SPLINETYPE
 70
     6
  9
$SPLINESEGS
 70
     8
  9
$HANDSEED
  5
1BD1B
  9
$SURFTAB1
 70
     6
  9
$SURFTAB2
 70
     6
  9
$SURFTYPE
 70
     6
  9
$SURFU
 70
     6
  9
$SURFV
 70
     6
  9
$UCSBASE
  2

  9
$UCSNAME
  2

  9
$UCSORG
 10
0.0
 20
0.0
 30
0.0
  9
$UCSXDIR
 10
1.0
 20
0.0
 30
0.0
  9
$UCSYDIR
 10
0.0
 20
1.0
 30
0.0
  9
$UCSORTHOREF
  2

  9
$UCSORTHOVIEW
 70
     0
  9
$UCSORGTOP
 10
0.0
 20
0.0
 30
0.0
  9
$UCSORGBOTTOM
 10
0.0
 20
0.0
 30
0.0
  9
$UCSORGLEFT
 10
0.0
 20
0.0
 30
0.0
  9
$UCSORGRIGHT
 10
0.0
 20
0.0
 30
0.0
  9
$UCSORGFRONT
 10
0.0
 20
0.0
 30
0.0
  9
$UCSORGBACK
 10
0.0
 20
0.0
 30
0.0
  9
$PUCSBASE
  2

  9
$PUCSNAME
  2

  9
$PUCSORG
 10
0.0
 20
0.0
 30
0.0
  9
$PUCSXDIR
 10
1.0
 20
0.0
 30
0.0
  9
$PUCSYDIR
 10
0.0
 20
1.0
 30
0.0
  9
$PUCSORTHOREF
  2

  9
$PUCSORTHOVIEW
 70
     0
  9
$PUCSORGTOP
 10
0.0
 20
0.0
 30
0.0
  9
$PUCSORGBOTTOM
 10
0.0
 20
0.0
 30
0.0
  9
$PUCSORGLEFT
 10
0.0
 20
0.0
 30
0.0
  9
$PUCSORGRIGHT
 10
0.0
 20
0.0
 30
0.0
  9
$PUCSORGFRONT
 10
0.0
 20
0.0
 30
0.0
  9
$PUCSORGBACK
 10
0.0
 20
0.0
 30
0.0
  9
$USERI1
 70
     0
  9
$USERI2
 70
     0
  9
$USERI3
 70
     0
  9
$USERI4
 70
     0
  9
$USERI5
 70
     0
  9
$USERR1
 40
0.0
  9
$USERR2
 40
0.0
  9
$USERR3
 40
0.0
  9
$USERR4
 40
0.0
  9
$USERR5
 40
0.0
  9
$WORLDVIEW
 70
     1
  9
$SHADEDGE
 70
     3
  9
$SHADEDIF
 70
    70
  9
$TILEMODE
 70
     1
  9
$MAXACTVP
 70
    64
  9
$PINSBASE
 10
0.0
 20
0.0
 30
0.0
  9
$PLIMCHECK
 70
     0
  9
$PEXTMIN
 10
1.000000000000000E+20
 20
1.000000000000000E+20
 30
1.000000000000000E+20
  9
$PEXTMAX
 10
-1.000000000000000E+20
 20
-1.000000000000000E+20
 30
-1.000000000000000E+20
  9
$PLIMMIN
 10
0.0
 20
0.0
  9
$PLIMMAX
 10
420.0
 20
297.0
  9
$UNITMODE
 70
     0
  9
$VISRETAIN
 70
     1
  9
$PLINEGEN
 70
     0
  9
$PSLTSCALE
 70
     1
  9
$TREEDEPTH
 70
  3020
  9
$CMLSTYLE
  2
Standard
  9
$CMLJUST
 70
     0
  9
$CMLSCALE
 40
20.0
  9
$PROXYGRAPHICS
 70
     1
  9
$MEASUREMENT
 70
     1
  9
$CELWEIGHT
370
    -1
  9
$ENDCAPS
280
     0
  9
$JOINSTYLE
280
     0
  9
$LWDISPLAY
290
     0
  9
$INSUNITS
 70
     4
  9
$HYPERLINKBASE
  1

  9
$STYLESHEET
  1
MONOCHROME UW.CTB
  9
$XEDIT
290
     1
  9
$CEPSNTYPE
380
     0
  9
$PSTYLEMODE
290
     1
  9
$FINGERPRINTGUID
  2
{1344C3A2-CD10-4B1D-A761-DD320F23370E}
  9
$VERSIONGUID
  2
{C9219659-82E8-4A95-9EEC-97A94C838AB9}
  9
$EXTNAMES
290
     1
  9
$PSVPSCALE
 40
0.0
  9
$OLESTARTUP
290
     0
  0
ENDSEC
  0
SECTION
  2
CLASSES
  0
CLASS
  1
ACDBDICTIONARYWDFLT
  2
AcDbDictionaryWithDefault
  3
ObjectDBX Classes
 90
        0
280
     0
281
     0
  0
CLASS
  1
ACDBPLACEHOLDER
  2
AcDbPlaceHolder
  3
ObjectDBX Classes
 90
        0
280
     0
281
     0
  0
CLASS
  1
LAYOUT
  2
AcDbLayout
  3
ObjectDBX Classes
 90
        0
280
     0
281
     0
  0
CLASS
  1
ACME_DOCUMENT
  2
AcMeDbDoc
  3
AcMeServices
 90
     1024
280
     0
281
     0
  0
CLASS
  1
AMGSETTINGSOBJ
  2
AmgSettingsObj
  3
"AcadM|Product Description: AutoCAD Mechanical|Company: Autodesk, Inc."
 90
     1024
280
     0
281
     0
  0
CLASS
  1
ACMESCOPE
  2
AcMeScope
  3
AcMeServices
 90
     1024
280
     0
281
     0
  0
CLASS
  1
ACMECOMMANDHISTORY
  2
AcMeCommandHistory
  3
AcMeServices
 90
     1024
280
     0
281
     0
  0
CLASS
  1
ACIMSYSVARMAN
  2
AcImSysVarManager
  3
AcMeServices
 90
     1024
280
     0
281
     0
  0
CLASS
  1
ACIMREALSYSVAR
  2
AcImRealSysVar
  3
AcMeServices
 90
     1024
280
     0
281
     0
  0
CLASS
  1
ACIMINTSYSVAR
  2
AcImIntSysVar
  3
AcMeServices
 90
     1024
280
     0
281
     0
  0
CLASS
  1
ACMEDRAWINGMAN
  2
AcMeDrawingMan
  3
AcMeServices
 90
     1024
280
     0
281
     0
  0
CLASS
  1
ACMEVIEW
  2
AcMeView
  3
AcMeServices
 90
     1024
280
     0
281
     0
  0
CLASS
  1
ACDBENTITYCACHE
  2
AcMeEntityCache
  3
AcMeServices
 90
     1024
280
     0
281
     0
  0
CLASS
  1
GSMANAGER
  2
AcMeGSManager
  3
AcMeServices
 90
    33792
280
     0
281
     0
  0
CLASS
  1
AMDTINTERNALREACTOR
  2
AmdtInternalReactor
  3
AcMeServices
 90
     1024
280
     0
281
     0
  0
CLASS
  1
ACMESTATEMGR
  2
AcMeStateMgr
  3
AcMeServices
 90
     1024
280
     0
281
     0
  0
CLASS
  1
ACGREFMASTER
  2
AcGrefMaster
  3
AcAttribServices
 90
     1024
280
     0
281
     0
  0
CLASS
  1
ACME_DATABASE
  2
AcMeDbDatabase
  3
AcMeServices
 90
     1024
280
     0
281
     0
  0
CLASS
  1
ACRFINSADJUSTERMGR
  2
AcRfInsAdjusterMgr
  3
AcMeServices
 90
     1024
280
     0
281
     0
  0
CLASS
  1
ACGREFACADMASTER
  2
AcGrefacadMaster
  3
AcGrefServices
 90
     1024
280
     0
281
     0
  0
CLASS
  1
AMIMASTER
  2
AmiMaster
  3
AmiServices
 90
     1024
280
     0
281
     0
  0
CLASS
  1
ACMDATADICTIONARY
  2
AcmDataDictionary
  3
"AcmSymBB|Product Description: AutoCAD Mechanical|Company: Autodesk, Inc."
 90
     1024
280
     0
281
     0
  0
CLASS
  1
ACMDATAENTRYBLOCK
  2
AcmDataEntryBlock
  3
AcmSymBB|Product Description: AutoCAD Mechanical|Company: Autodesk, Inc.
 90
    33792
280
     0
281
     0
  0
CLASS
  1
ACIMSTRSYSVAR
  2
AcImStrSysVar
  3
AcMeServices
 90
     1024
280
     0
281
     0
  0
CLASS
  1
ACMSTANDARDISO
  2
AcmStandardISO
  3
"Amdt_StdImp|Product Description: AutoCAD Mechanical|Company: Autodesk, Inc."
 90
    33792
280
     0
281
     0
  0
CLASS
  1
AMGOBJPROPCFG
  2
AmgObjPropCfg
  3
"AmgLay|Product Description: AutoCAD Mechanical|Company: Autodesk, Inc."
 90
     1025
280
     0
281
     0
  0
CLASS
  1
AMDTEDGESTANDARDISO
  2
AmdtEdgeStdISO
  3
"Amdt_StdImp|Product Description: AutoCAD Mechanical|Company: Autodesk, Inc."
 90
    33792
280
     0
281
     0
  0
CLASS
  1
ACMSURFSTANDARDISO
  2
AcmSurfTextStdISO
  3
"Amdt_StdImp|Product Description: AutoCAD Mechanical|Company: Autodesk, Inc."
 90
    33792
280
     0
281
     0
  0
CLASS
  1
ACMFCFSTANDARDISO
  2
AcmFCFStdISO
  3
"Amdt_StdImp|Product Description: AutoCAD Mechanical|Company: Autodesk, Inc."
 90
    33792
280
     0
281
     0
  0
CLASS
  1
ACMWELDSTANDARDISO
  2
AcmWeldingStdISO
  3
"Amdt_StdImp|Product Description: AutoCAD Mechanical|Company: Autodesk, Inc."
 90
    33792
280
     0
281
     0
  0
CLASS
  1
ACMIDSTANDARDISO
  2
AcmIdStdISO
  3
"Amdt_StdImp|Product Description: AutoCAD Mechanical|Company: Autodesk, Inc."
 90
    33792
280
     0
281
     0
  0
CLASS
  1
ACMDATUMSTANDARDISO
  2
AcmDatumStdISO
  3
"Amdt_StdImp|Product Description: AutoCAD Mechanical|Company: Autodesk, Inc."
 90
    33792
280
     0
281
     0
  0
CLASS
  1
ACMBOMSTANDARDISO
  2
AcmBOMStdISO
  3
"Amdt_StdImp|Product Description: AutoCAD Mechanical|Company: Autodesk, Inc."
 90
    33792
280
     0
281
     0
  0
CLASS
  1
ACMDETAILSTANDARDISO
  2
AmdtDetailSymStdISO
  3
"Amdt_StdImp|Product Description: AutoCAD Mechanical|Company: Autodesk, Inc."
 90
    33792
280
     0
281
     0
  0
CLASS
  1
ACMSECTIONSTANDARDISO
  2
AmdtSectionSymStdISO
  3
"Amdt_StdImp|Product Description: AutoCAD Mechanical|Company: Autodesk, Inc."
 90
    33792
280
     0
281
     0
  0
CLASS
  1
ACMCENTERLINESTANDARDISO
  2
AmdtCenterLineStdISO
  3
"Amdt_StdImp|Product Description: AutoCAD Mechanical|Company: Autodesk, Inc."
 90
    33792
280
     0
281
     0
  0
CLASS
  1
ACMNOTESTANDARDISO
  2
AmdtNoteStdISO
  3
"Amdt_StdImp|Product Description: AutoCAD Mechanical|Company: Autodesk, Inc."
 90
    33792
280
     0
281
     0
  0
CLASS
  1
ACAMGLAYSTD
  2
AcAmgLayStd
  3
"AmgLay|Product Description: AutoCAD Mechanical|Company: Autodesk, Inc."
 90
     1024
280
     0
281
     0
  0
CLASS
  1
ACAMGDIMSTD
  2
AcAmgDimStd
  3
"AmgDim|Product Description: AutoCAD Mechanical|Company: Autodesk, Inc."
 90
     1024
280
     0
281
     0
  0
CLASS
  1
ACAMGHOLECHARTSTDISO
  2
AcAmgHoleChartStdISO
  3
AmgDim|Product Description: AutoCAD Mechanical|Company: Autodesk, Inc.
 90
    33792
280
     0
281
     0
  0
CLASS
  1
ACAMGTITLESTD
  2
AcAmgTitleStd
  3
"AmgTitle|Product Description: AutoCAD Mechanical|Company: Autodesk, Inc."
 90
     4095
280
     0
281
     0
  0
CLASS
  1
LAYER_INDEX
  2
AcDbLayerIndex
  3
ObjectDBX Classes
 90
    32768
280
     0
281
     0
  0
CLASS
  1
IDBUFFER
  2
AcDbIdBuffer
  3
ObjectDBX Classes
 90
    32768
280
     0
281
     0
  0
CLASS
  1
DICTIONARYVAR
  2
AcDbDictionaryVar
  3
ObjectDBX Classes
 90
        0
280
     0
281
     0
  0
CLASS
  1
AM_DRAWING_MGR
  2
AcDmDwgMgr
  3
AcMechDwgViewMgmt
 90
     1024
280
     0
281
     0
  0
CLASS
  1
AM_DWG_DOCUMENT
  2
AcDmDwgDocument
  3
AcMechDwgViewMgmt
 90
     1024
280
     0
281
     0
  0
CLASS
  1
AM_DWG_SHEET
  2
AcDmSheet
  3
AcMechDwgViewMgmt
 90
     1024
280
     0
281
     0
  0
CLASS
  1
AM_VIEWDIMPARMAP
  2
AcDmViewDimParMap
  3
AcMechDwgViewMgmt
 90
     1024
280
     0
281
     0
  0
CLASS
  1
AM_DWGMGR_NAME
  2
AcDmDwgMgrName
  3
AcMechDwgViewMgmt
 90
     1024
280
     0
281
     0
  0
CLASS
  1
AMDTMENUSTATEMGR
  2
AmdtMenuStateMgr
  3
McadcomServices
 90
     1024
280
     0
281
     0
  0
CLASS
  1
AMDTMCOMMENUSTATE
  2
AmdtMcomMenuState
  3
McadcomServices
 90
     1024
280
     0
281
     0
  0
CLASS
  1
MAPIAMMOUDLE
  2
MApiAmModule
  3
MApiAmServices
 90
     1024
280
     0
281
     0
  0
CLASS
  1
AMDTADMENUSTATE
  2
AmdtAdMenuState
  3
DesignerServices
 90
     1024
280
     0
281
     0
  0
CLASS
  1
ADAPPL
  2
AcAdAppl
  3
DesignerServices
 90
     1024
280
     0
281
     0
  0
CLASS
  1
DEPMGR
  2
AcAdDepMgr
  3
DesignerServices
 90
     1024
280
     0
281
     0
  0
CLASS
  1
PARAMMGR
  2
AcAdParamMgr
  3
DesignerServices
 90
     1024
280
     0
281
     0
  0
CLASS
  1
PARAMSCOPE
  2
AcAdParamScope
  3
DesignerServices
 90
     1024
280
     0
281
     0
  0
CLASS
  1
NAMEDAPPL
  2
AcAdNamedAppl
  3
DesignerServices
 90
     1024
280
     0
281
     0
  0
CLASS
  1
AMDTDMMENUSTATE
  2
AmdtDmMenuState
  3
AcMechDwgViewMgmt
 90
     1024
280
     0
281
     0
  0
CLASS
  1
AMDTAMMENUSTATE
  2
AmdtAmMenuState
  3
DesignerAssemblies
 90
     1024
280
     0
281
     0
  0
CLASS
  1
ACAMPROJECT
  2
AcAmProject
  3
DesignerAssemblies
 90
     1024
280
     0
281
     0
  0
CLASS
  1
ACAMGRCOMPDEF
  2
AcAmGrCompDef
  3
DesignerAssemblies
 90
     1024
280
     0
281
     0
  0
CLASS
  1
ACCMCONTEXT
  2
AcCmContext
  3
DesignerAssemblies
 90
    33792
280
     0
281
     0
  0
CLASS
  1
ACAMCOMPDEF
  2
AcAmCompDef
  3
DesignerAssemblies
 90
     1024
280
     0
281
     0
  0
CLASS
  1
ACAMCOMPDEFMGR
  2
AcAmCompDefMgr
  3
DesignerAssemblies
 90
     1024
280
     0
281
     0
  0
CLASS
  1
AMCONTEXTMGR
  2
AcAmContextMgr
  3
DesignerAssemblies
 90
     1024
280
     0
281
     0
  0
CLASS
  1
ACAMCONTEXTMODELER
  2
AcAmContextModeler
  3
DesignerAssemblies
 90
     1024
280
     0
281
     0
  0
CLASS
  1
ACMTHREADLINESTANDARDISO
  2
AmdtThreadLineStdISO
  3
"Amdt_StdImp|Product Description: AutoCAD Mechanical|Company: Autodesk, Inc."
 90
    33792
280
     0
281
     0
  0
CLASS
  1
CATALOGSTATE
  2
AcAmCatalogState
  3
DesignerAssemblies
 90
     1024
280
     0
281
     0
  0
CLASS
  1
ACAMGRCOMPDEFSET
  2
AcAmGrCompDefSet
  3
DesignerAssemblies
 90
     1024
280
     0
281
     0
  0
CLASS
  1
AMDTBROWSERDBTAB
  2
AmdtBrowserDbTab
  3
McadcomServices
 90
     1024
280
     0
281
     0
  0
CLASS
  1
CBROWSERAPPOBJECT
  2
CBrowserAppObject
  3
McadcomServices
 90
     1024
280
     0
281
     0
  0
CLASS
  1
DM_PLACEHOLDER
  2
AcDmSelsetPlaceholder
  3
AcMechDwgViewMgmt
 90
     1024
280
     0
281
     0
  0
CLASS
  1
TABLESTYLE
  2
AcDbTableStyle
  3
ObjectDBX Classes
 90
     4095
280
     0
281
     0
  0
CLASS
  1
VAACXREFPANELOBJECT
  2
VaAcXREFPanelObject
  3
VAAC_ADDIN
 90
    32768
280
     0
281
     0
  0
CLASS
  1
VAACIMAGEINVENTORY
  2
VaAcImageInventory
  3
VAAC_ADDIN
 90
    32768
280
     0
281
     0
  0
CLASS
  1
AMDTNOTETEMPLATEDB
  2
AmdtNoteTemplateDB
  3
AcmSymBB|Product Description: AutoCAD Mechanical|Company: Autodesk, Inc.
 90
     1024
280
     0
281
     0
  0
CLASS
  1
ACAMGFILTERDAT
  2
AcAmgFilterDat
  3
"AcadM|Product Description: AutoCAD Mechanical|Company: Autodesk, Inc."
 90
    33792
280
     0
281
     0
  0
CLASS
  1
ACMBOM
  2
AcmBom
  3
"AcmSymBB|Product Description: AutoCAD Mechanical|Company: Autodesk, Inc."
 90
    33792
280
     0
281
     0
  0
CLASS
  1
AMDTFORMULAUPDATEDISPATCHER
  2
AmdtFormulaUpdateDispatcher
  3
AcMeServices
 90
    33792
280
     0
281
     0
  0
CLASS
  1
ACMSTANDARDDIN
  2
AcmStandardDIN
  3
"Amdt_StdImp|Product Description: AutoCAD Mechanical|Company: Autodesk, Inc."
 90
     1024
280
     0
281
     0
  0
CLASS
  1
AMDTEDGESTANDARDDIN13715
  2
AmdtEdgeStdDIN13715
  3
"Amdt_StdImp|Product Description: AutoCAD Mechanical|Company: Autodesk, Inc."
 90
     1024
280
     0
281
     0
  0
CLASS
  1
ACMSURFSTANDARDDIN
  2
AcmSurfTextStdDIN
  3
"Amdt_StdImp|Product Description: AutoCAD Mechanical|Company: Autodesk, Inc."
 90
    33792
280
     0
281
     0
  0
CLASS
  1
ACMFCFSTANDARDDIN
  2
AcmFCFStdDIN
  3
"Amdt_StdImp|Product Description: AutoCAD Mechanical|Company: Autodesk, Inc."
 90
     1024
280
     0
281
     0
  0
CLASS
  1
ACMWELDSTANDARDDIN
  2
AcmWeldingStdDIN
  3
"Amdt_StdImp|Product Description: AutoCAD Mechanical|Company: Autodesk, Inc."
 90
     1024
280
     0
281
     0
  0
CLASS
  1
ACMIDSTANDARDDIN
  2
AcmIdStdDIN
  3
"Amdt_StdImp|Product Description: AutoCAD Mechanical|Company: Autodesk, Inc."
 90
     1024
280
     0
281
     0
  0
CLASS
  1
ACMDATUMSTANDARDDIN
  2
AcmDatumStdDIN
  3
"Amdt_StdImp|Product Description: AutoCAD Mechanical|Company: Autodesk, Inc."
 90
     1024
280
     0
281
     0
  0
CLASS
  1
ACMBOMSTANDARDDIN
  2
AcmBOMStdDIN
  3
"Amdt_StdImp|Product Description: AutoCAD Mechanical|Company: Autodesk, Inc."
 90
     1024
280
     0
281
     0
  0
CLASS
  1
ACMDETAILSTANDARDDIN
  2
AmdtDetailSymStdDIN
  3
"Amdt_StdImp|Product Description: AutoCAD Mechanical|Company: Autodesk, Inc."
 90
     1024
280
     0
281
     0
  0
CLASS
  1
ACMSECTIONSTANDARDDIN
  2
AmdtSectionSymStdDIN
  3
"Amdt_StdImp|Product Description: AutoCAD Mechanical|Company: Autodesk, Inc."
 90
     1024
280
     0
281
     0
  0
CLASS
  1
ACMCENTERLINESTANDARDDIN
  2
AmdtCenterLineStdDIN
  3
"Amdt_StdImp|Product Description: AutoCAD Mechanical|Company: Autodesk, Inc."
 90
     1024
280
     0
281
     0
  0
CLASS
  1
ACMTHREADLINESTANDARDDIN
  2
AmdtThreadLineStdDIN
  3
"Amdt_StdImp|Product Description: AutoCAD Mechanical|Company: Autodesk, Inc."
 90
     1024
280
     0
281
     0
  0
CLASS
  1
ACMNOTESTANDARDDIN
  2
AmdtNoteStdDIN
  3
"Amdt_StdImp|Product Description: AutoCAD Mechanical|Company: Autodesk, Inc."
 90
     1024
280
     0
281
     0
  0
CLASS
  1
ACAMGHOLECHARTSTDDIN
  2
AcAmgHoleChartStdDIN
  3
AmgDim|Product Description: AutoCAD Mechanical|Company: Autodesk, Inc.
 90
     1024
280
     0
281
     0
  0
CLASS
  1
ACRFATTGENMGR
  2
AcRfAttGeneralMgr
  3
AcAttribServices
 90
    33792
280
     0
281
     0
  0
CLASS
  1
SORTENTSTABLE
  2
AcDbSortentsTable
  3
ObjectDBX Classes
 90
        0
280
     0
281
     0
  0
CLASS
  1
DIMASSOC
  2
AcDbDimAssoc
  3
"AcDbDimAssoc|Product Desc:     AcDim ARX App For Dimension|Company:          Autodesk, Inc.|WEB Address:      www.autodesk.com"
 90
        0
280
     0
281
     0
  0
CLASS
  1
AC_AM_MVD_DEP_MGR
  2
AcAmMVDdepMgr
  3
DesignerAssemblies
 90
    33792
280
     0
281
     0
  0
CLASS
  1
AC_AM_MASTER_VIEW_DEF
  2
AcAmMasterViewDef
  3
DesignerAssemblies
 90
    33792
280
     0
281
     0
  0
CLASS
  1
AC_AM_DIRTY_NODES
  2
AcAmDirtyNodes
  3
DesignerAssemblies
 90
    33792
280
     0
281
     0
  0
CLASS
  1
AC_AM_MAPPER_CACHE
  2
AcAmMapperCache
  3
DesignerAssemblies
 90
    33792
280
     0
281
     0
  0
CLASS
  1
ACAMMVDBACKUPOBJECT
  2
AcAmMVDBackupObject
  3
DesignerAssemblies
 90
    33792
280
     0
281
     0
  0
CLASS
  1
AC_AM_2D_XREF_MGR
  2
AcAmXrefMgr2d
  3
DesignerAssemblies
 90
    33792
280
     0
281
     0
  0
CLASS
  1
AC_AM_HIDE_SITUATION
  2
AcAmHideSituation
  3
DesignerAssemblies
 90
    33792
280
     0
281
     0
  0
CLASS
  1
ACAMWBLOCKTEMPENTS
  2
AcAmStructInOutTempObjsHolder
  3
DesignerAssemblies
 90
    33792
280
     0
281
     0
  0
CLASS
  1
STDPART2D
  2
AmgStdPart
  3
AmgStdPart|Product Description: AutoCAD Mechanical|Company: Autodesk, Inc.
 90
    36863
280
     0
281
     1
  0
CLASS
  1
ACMDATAENTRYPART
  2
AcmDataEntryPart
  3
AcmSymBB|Product Description: AutoCAD Mechanical|Company: Autodesk, Inc.
 90
    33792
280
     0
281
     0
  0
CLASS
  1
ACMPARTREF
  2
AcmPartRef
  3
"AcmSymBB|Product Description: AutoCAD Mechanical|Company: Autodesk, Inc."
 90
    36863
280
     0
281
     1
  0
CLASS
  1
ACDBSTDPARTRES_LINE
  2
AcDbStdPartRes_Line
  3
AmgStdPart|Product Description: AutoCAD Mechanical|Company: Autodesk, Inc.
 90
    33792
280
     0
281
     0
  0
CLASS
  1
ACAD_EVALUATION_GRAPH
  2
AcDbEvalGraph
  3
ObjectDBX Classes
 90
    33921
280
     0
281
     0
  0
CLASS
  1
ACAECUSTOBJ
  2
AcAeEditorObj
  3
AcAeEditorObj
 90
    33792
280
     0
281
     0
  0
CLASS
  1
ACDB_DYNAMICBLOCKPURGEPREVENTER_VERSION
  2
AcDbDynamicBlockPurgePreventer
  3
ObjectDBX Classes
 90
    33921
280
     0
281
     0
  0
CLASS
  1
MATERIAL
  2
AcDbMaterial
  3
ObjectDBX Classes
 90
     1153
280
     0
281
     0
  0
CLASS
  1
VISUALSTYLE
  2
AcDbVisualStyle
  3
ObjectDBX Classes
 90
     4095
280
     0
281
     0
  0
CLASS
  1
SCALE
  2
AcDbScale
  3
ObjectDBX Classes
 90
     1153
280
     0
281
     0
  0
CLASS
  1
MLEADERSTYLE
  2
AcDbMLeaderStyle
  3
ACDB_MLEADERSTYLE_CLASS
 90
     4095
280
     0
281
     0
  0
CLASS
  1
ACMTAPERSTANDARDDIN
  2
AcmTaperStdDIN
  3
"Amdt_StdImp|Product Description: AutoCAD Mechanical|Company: Autodesk, Inc."
 90
     1024
280
     0
281
     0
  0
CLASS
  1
ACMANOOTATIONVIEWSTANDARDDIN
  2
AmdtAnViewStdDIN
  3
"Amdt_StdImp|Product Description: AutoCAD Mechanical|Company: Autodesk, Inc."
 90
     1024
280
     0
281
     0
  0
CLASS
  1
CAMSSTRUCTBTNSTATE
  2
StructBtnState
  3
DesignerAssemblies
 90
    33792
280
     0
281
     0
  0
CLASS
  1
CELLSTYLEMAP
  2
AcDbCellStyleMap
  3
ObjectDBX Classes
 90
     1152
280
     0
281
     0
  0
CLASS
  1
ACMSURFSTANDARDDIN2002
  2
AcmSurfTextStdDIN2002
  3
"Amdt_StdImp|Product Description: AutoCAD Mechanical|Company: Autodesk, Inc."
 90
     1024
280
     0
281
     0
  0
ENDSEC
  0
SECTION
  2
TABLES
  0
TABLE
  2
VPORT
  5
8
330
0
100
AcDbSymbolTable
 70
     1
  0
VPORT
  5
1A193
330
8
100
AcDbSymbolTableRecord
100
AcDbViewportTableRecord
  2
*Active
 70
     0
 10
0.0
 20
0.0
 11
1.0
 21
1.0
 12
22528.7568319204
 22
-311.8577525252704
 13
0.0
 23
0.0
 14
2.5
 24
2.5
 15
10.0
 25
10.0
 16
0.0
 26
0.0
 36
1.0
 17
0.0
 27
0.0
 37
0.0
 40
375.4684894769085
 41
1.513838748495788
 42
50.0
 43
0.0
 44
0.0
 50
0.0
 51
0.0
 71
     0
 72
   100
 73
     1
 74
     3
 75
     0
 76
     0
 77
     0
 78
     0
281
     0
 65
     0
110
0.0
120
0.0
130
0.0
111
1.0
121
0.0
131
0.0
112
0.0
122
1.0
132
0.0
 79
     0
146
0.0
  0
ENDTAB
  0
TABLE
  2
LTYPE
  5
5
330
0
100
AcDbSymbolTable
 70
    19
  0
LTYPE
  5
14
330
5
100
AcDbSymbolTableRecord
100
AcDbLinetypeTableRecord
  2
ByBlock
 70
     0
  3

 72
    65
 73
     0
 40
0.0
  0
LTYPE
  5
15
330
5
100
AcDbSymbolTableRecord
100
AcDbLinetypeTableRecord
  2
ByLayer
 70
     0
  3

 72
    65
 73
     0
 40
0.0
  0
LTYPE
  5
16
330
5
100
AcDbSymbolTableRecord
100
AcDbLinetypeTableRecord
  2
Continuous
 70
     0
  3
Solid line
 72
    65
 73
     0
 40
0.0
  0
LTYPE
  5
67
330
5
100
AcDbSymbolTableRecord
100
AcDbLinetypeTableRecord
  2
Amconstr
 70
     0
  3
_______________________
 72
    65
 73
     2
 40
9999.0
 49
9999.0
 74
     0
 49
0.0
 74
     0
  0
LTYPE
  5
6C
330
5
100
AcDbSymbolTableRecord
100
AcDbLinetypeTableRecord
  2
Amzigzag
 70
     0
  3
/\/-/\/-/\/-/\/-/\/-/\/
 72
    65
 73
     2
 40
11.0001
 49
0.0001
 74
     4
 75
   136
340
22C
 46
0.04
 50
0.0
 44
0.0
 45
0.0
 49
-11.0
 74
     0
  0
LTYPE
  5
7E
330
5
100
AcDbSymbolTableRecord
100
AcDbLinetypeTableRecord
  2
CENTER
 70
     0
  3
__ . __
 72
    65
 73
     4
 40
7.0
 49
4.0
 74
     0
 49
-1.0
 74
     0
 49
1.0
 74
     0
 49
-1.0
 74
     0
  0
LTYPE
  5
D8
330
5
100
AcDbSymbolTableRecord
100
AcDbLinetypeTableRecord
  2
HIDDEN
 70
     0
  3
Hidden __ __ __ __ __ __ __ __ __ __ __ __ __ _
 72
    65
 73
     2
 40
9.524999999999996
 49
6.349999999999997
 74
     0
 49
-3.174999999999998
 74
     0
  0
LTYPE
  5
D9
330
5
100
AcDbSymbolTableRecord
100
AcDbLinetypeTableRecord
  2
PHANTOM2
 70
     0
  3
Phantom (.5x) ___ _ _ ___ _ _ ___ _ _ ___ _ _
 72
    65
 73
     6
 40
31.75
 49
15.875
 74
     0
 49
-3.174999999999998
 74
     0
 49
3.174999999999998
 74
     0
 49
-3.174999999999998
 74
     0
 49
3.174999999999998
 74
     0
 49
-3.174999999999998
 74
     0
  0
LTYPE
  5
2E3
330
5
100
AcDbSymbolTableRecord
100
AcDbLinetypeTableRecord
  2
ACDINWELD
 70
     0
  3
_ _ _ _ _
 72
    65
 73
     2
 40
2.0
 49
2.0
 74
     0
 49
-1.0
 74
     0
  0
LTYPE
  5
2E4
330
5
100
AcDbSymbolTableRecord
100
AcDbLinetypeTableRecord
  2
ACDINTGB
 70
     0
  3
__ . . __ . .
 72
    65
 73
     6
 40
9.0
 49
4.0
 74
     0
 49
-1.0
 74
     0
 49
1.0
 74
     0
 49
-1.0
 74
     0
 49
1.0
 74
     0
 49
-1.0
 74
     0
  0
LTYPE
  5
2E5
330
5
100
AcDbSymbolTableRecord
100
AcDbLinetypeTableRecord
  2
ACDINTGL
 70
     0
  3
_ _ _ _ _
 72
    65
 73
     2
 40
3.0
 49
2.0
 74
     0
 49
-1.0
 74
     0
  0
LTYPE
  5
31F
330
5
100
AcDbSymbolTableRecord
100
AcDbLinetypeTableRecord
  2
AM_DIN_F_W050
 70
     0
  3
__ __ __ __ __ __ __ __ __ __ __ __ __ __ __
 72
    65
 73
     2
 40
6.25
 49
4.75
 74
     0
 49
-1.5
 74
     0
  0
LTYPE
  5
320
330
5
100
AcDbSymbolTableRecord
100
AcDbLinetypeTableRecord
  2
AM_DIN_G_W050
 70
     0
  3
____ . ____ . ____ . ____ . ____ . ____ . ____
 72
    65
 73
     4
 40
13.75
 49
9.75
 74
     0
 49
-1.5
 74
     0
 49
1.0
 74
     0
 49
-1.5
 74
     0
  0
LTYPE
  5
321
330
5
100
AcDbSymbolTableRecord
100
AcDbLinetypeTableRecord
  2
AM_DIN_K_W050
 70
     0
  3
_____ . . _____ . . _____ . . ____ .. ____
 72
    65
 73
     6
 40
16.25
 49
9.75
 74
     0
 49
-1.5
 74
     0
 49
1.0
 74
     0
 49
-1.5
 74
     0
 49
1.0
 74
     0
 49
-1.5
 74
     0
  0
LTYPE
  5
322
330
5
100
AcDbSymbolTableRecord
100
AcDbLinetypeTableRecord
  2
AM_DIN_G_W050x2
 70
     0
  3
__ . __ . __ . __ . __ . __
 72
    65
 73
     4
 40
6.875
 49
4.75
 74
     0
 49
-0.875
 74
     0
 49
0.375
 74
     0
 49
-0.875
 74
     0
  0
LTYPE
  5
323
330
5
100
AcDbSymbolTableRecord
100
AcDbLinetypeTableRecord
  2
AM_DIN_F_W050x2
 70
     0
  3
 _ _ _ _ _ _ _ _ _ _ _ _
 72
    65
 73
     2
 40
3.125
 49
2.25
 74
     0
 49
-0.875
 74
     0
  0
LTYPE
  5
1BCC8
330
5
100
AcDbSymbolTableRecord
100
AcDbLinetypeTableRecord
  2
AM_ISO02W050
 70
     0
  3
__ __ __ __ __ __ __ __ __ __ __ __ __ __ __
 72
    65
 73
     2
 40
7.5
 49
6.0
 74
     0
 49
-1.5
 74
     0
  0
LTYPE
  5
1BCC9
330
5
100
AcDbSymbolTableRecord
100
AcDbLinetypeTableRecord
  2
AM_ISO08W050
 70
     0
  3
____ . ____ . ____ . ____ . ____ . ____ . ____
 72
    65
 73
     4
 40
18.0
 49
12.0
 74
     0
 49
-1.5
 74
     0
 49
3.0
 74
     0
 49
-1.5
 74
     0
  0
LTYPE
  5
1BCCA
330
5
100
AcDbSymbolTableRecord
100
AcDbLinetypeTableRecord
  2
AM_ISO09W050
 70
     0
  3
_____ . . _____ . . _____ . . ____ .. ____
 72
    65
 73
     6
 40
22.5
 49
12.0
 74
     0
 49
-1.5
 74
     0
 49
3.0
 74
     0
 49
-1.5
 74
     0
 49
3.0
 74
     0
 49
-1.5
 74
     0
  0
LTYPE
  5
1BCCB
330
5
100
AcDbSymbolTableRecord
100
AcDbLinetypeTableRecord
  2
AM_ISO08W050x2
 70
     0
  3
__ . __ . __ . __ . __ . __
 72
    65
 73
     4
 40
9.0
 49
6.0
 74
     0
 49
-0.75
 74
     0
 49
1.5
 74
     0
 49
-0.75
 74
     0
  0
LTYPE
  5
1BCCC
330
5
100
AcDbSymbolTableRecord
100
AcDbLinetypeTableRecord
  2
AM_ISO02W050x2
 70
     0
  3
 _ _ _ _ _ _ _ _ _ _ _ _
 72
    65
 73
     2
 40
3.75
 49
3.0
 74
     0
 49
-0.75
 74
     0
  0
ENDTAB
  0
TABLE
  2
LAYER
  5
2
102
{ACAD_XDICTIONARY
360
5E1
102
}
330
0
100
AcDbSymbolTable
 70
     5
  0
LAYER
  5
10
102
{ACAD_XDICTIONARY
360
1A4F2
102
}
330
2
100
AcDbSymbolTableRecord
100
AcDbLayerTableRecord
  2
0
 70
     0
 62
     7
  6
Continuous
370
    -3
390
F
  0
LAYER
  5
1080A
102
{ACAD_XDICTIONARY
360
1A4F6
102
}
330
2
100
AcDbSymbolTableRecord
100
AcDbLayerTableRecord
  2
AM_5
 70
     0
 62
     3
  6
Continuous
370
    25
390
F
1001
AcAecLayerStandard
1000

1000

  0
LAYER
  5
1081A
330
2
100
AcDbSymbolTableRecord
100
AcDbLayerTableRecord
  2
Defpoints
 70
     0
 62
     7
  6
Continuous
290
     0
370
    -3
390
F
  0
LAYER
  5
1B2F1
330
2
100
AcDbSymbolTableRecord
100
AcDbLayerTableRecord
  2
AM_7
 70
     0
 62
     4
  6
AM_DIN_G_W050
370
    25
390
F
1001
AcAecLayerStandard
1000

1000

  0
LAYER
  5
1B6F8
330
2
100
AcDbSymbolTableRecord
100
AcDbLayerTableRecord
  2
AM_0
 70
     0
 62
     7
  6
Continuous
370
    50
390
F
1001
AcAecLayerStandard
1000

1000

  0
ENDTAB
  0
TABLE
  2
STYLE
  5
3
330
0
100
AcDbSymbolTable
 70
     4
  0
STYLE
  5
11
330
3
100
AcDbSymbolTableRecord
100
AcDbTextStyleTableRecord
  2
STANDARD
 70
     0
 40
0.0
 41
1.0
 50
0.0
 71
     0
 42
2.5
  3
ARIAL.TTF
  4

1001
ACAD
1000
Arial
1071
       34
  0
STYLE
  5
22C
330
3
100
AcDbSymbolTableRecord
100
AcDbTextStyleTableRecord
  2

 70
     1
 40
0.0
 41
1.0
 50
0.0
 71
     0
 42
2.5
  3
genltshp.shx
  4

  0
STYLE
  5
2D5
330
3
100
AcDbSymbolTableRecord
100
AcDbTextStyleTableRecord
  2
ACDINTS
 70
     0
 40
1.0
 41
1.0
 50
0.0
 71
     0
 42
2.5
  3
isocp.shx
  4

  0
STYLE
  5
2E2
330
3
100
AcDbSymbolTableRecord
100
AcDbTextStyleTableRecord
  2
ACDINGDT
 70
     0
 40
0.0
 41
1.0
 50
0.0
 71
     0
 42
2.5
  3
amgdt.shx
  4

  0
ENDTAB
  0
TABLE
  2
VIEW
  5
6
330
0
100
AcDbSymbolTable
 70
     0
  0
ENDTAB
  0
TABLE
  2
UCS
  5
7
330
0
100
AcDbSymbolTable
 70
     0
  0
ENDTAB
  0
TABLE
  2
APPID
  5
9
330
0
100
AcDbSymbolTable
 70
    78
  0
APPID
  5
12
330
9
100
AcDbSymbolTableRecord
100
AcDbRegAppTableRecord
  2
ACAD
 70
     0
  0
APPID
  5
46
330
9
100
AcDbSymbolTableRecord
100
AcDbRegAppTableRecord
  2
MCAD_NO_VIS
 70
     0
  0
APPID
  5
47
330
9
100
AcDbSymbolTableRecord
100
AcDbRegAppTableRecord
  2
ACAD_TEMP_GRAPHIC
 70
     0
  0
APPID
  5
58
330
9
100
AcDbSymbolTableRecord
100
AcDbRegAppTableRecord
  2
ACATTRIBSERVICES
 70
     0
  0
APPID
  5
EE
330
9
100
AcDbSymbolTableRecord
100
AcDbRegAppTableRecord
  2
AD_DRAW
 70
     0
  0
APPID
  5
10C
330
9
100
AcDbSymbolTableRecord
100
AcDbRegAppTableRecord
  2
DESIGNERASSEMBLIES
 70
     0
  0
APPID
  5
111
330
9
100
AcDbSymbolTableRecord
100
AcDbRegAppTableRecord
  2
ACADM_DIM_EDIT
 70
     0
  0
APPID
  5
112
330
9
100
AcDbSymbolTableRecord
100
AcDbRegAppTableRecord
  2
AMDT_DM_ADJ
 70
     0
  0
APPID
  5
1A3
330
9
100
AcDbSymbolTableRecord
100
AcDbRegAppTableRecord
  2
ACAD_DSTYLE_DIMARC_LENGTH_SYMBOL
 70
     0
  0
APPID
  5
1A4
330
9
100
AcDbSymbolTableRecord
100
AcDbRegAppTableRecord
  2
ACAD_DSTYLE_DIMJOGGED_JOGANGLE_SYMBOL
 70
     0
  0
APPID
  5
5D4
330
9
100
AcDbSymbolTableRecord
100
AcDbRegAppTableRecord
  2
ACAD_PSEXT
 70
     0
  0
APPID
  5
5D5
330
9
100
AcDbSymbolTableRecord
100
AcDbRegAppTableRecord
  2
GENIUS_GENOENT_13
 70
     0
  0
APPID
  5
5D6
330
9
100
AcDbSymbolTableRecord
100
AcDbRegAppTableRecord
  2
GENIUS_VERSION2
 70
     0
  0
APPID
  5
5D7
330
9
100
AcDbSymbolTableRecord
100
AcDbRegAppTableRecord
  2
GENIUS_GENREC_14
 70
     0
  0
APPID
  5
5D8
330
9
100
AcDbSymbolTableRecord
100
AcDbRegAppTableRecord
  2
GENIUS_GENODEF_13
 70
     0
  0
APPID
  5
5D9
330
9
100
AcDbSymbolTableRecord
100
AcDbRegAppTableRecord
  2
GENIUS_GENOBJ-N-REC_13
 70
     0
  0
APPID
  5
5DA
330
9
100
AcDbSymbolTableRecord
100
AcDbRegAppTableRecord
  2
GENIUS_GENTRA_14
 70
     0
  0
APPID
  5
5DB
330
9
100
AcDbSymbolTableRecord
100
AcDbRegAppTableRecord
  2
GENIUS_GENOBJ-N-TIT_13
 70
     0
  0
APPID
  5
5DC
330
9
100
AcDbSymbolTableRecord
100
AcDbRegAppTableRecord
  2
GENIUS_GENTITLE_13
 70
     0
  0
APPID
  5
5DD
330
9
100
AcDbSymbolTableRecord
100
AcDbRegAppTableRecord
  2
GENIUS_GENOREF_13
 70
     0
  0
APPID
  5
5DE
330
9
100
AcDbSymbolTableRecord
100
AcDbRegAppTableRecord
  2
GENIUS_GENOLIS_13
 70
     0
  0
APPID
  5
5DF
330
9
100
AcDbSymbolTableRecord
100
AcDbRegAppTableRecord
  2
GENIUS_GENOBJ-N-SDF_13
 70
     0
  0
APPID
  5
5E0
330
9
100
AcDbSymbolTableRecord
100
AcDbRegAppTableRecord
  2
GENIUS_GENSCREG_15
 70
     0
  0
APPID
  5
2FBB
330
9
100
AcDbSymbolTableRecord
100
AcDbRegAppTableRecord
  2
GENIUS_GENOBJ-N-CRS_13
 70
     0
  0
APPID
  5
2FBC
330
9
100
AcDbSymbolTableRecord
100
AcDbRegAppTableRecord
  2
GENIUS_GENOBJ-N-CEN_13
 70
     0
  0
APPID
  5
2FBD
330
9
100
AcDbSymbolTableRecord
100
AcDbRegAppTableRecord
  2
GENIUS_GENOBJ-N-HTC_13
 70
     0
  0
APPID
  5
2FBE
330
9
100
AcDbSymbolTableRecord
100
AcDbRegAppTableRecord
  2
GENIUS_GENHATCH_13
 70
     0
  0
APPID
  5
2FBF
330
9
100
AcDbSymbolTableRecord
100
AcDbRegAppTableRecord
  2
GENIUS_GENBH_13
 70
     0
  0
APPID
  5
2FC0
330
9
100
AcDbSymbolTableRecord
100
AcDbRegAppTableRecord
  2
GENIUS_GENOBJ-NBEHI-BHF_13
 70
     0
  0
APPID
  5
2FC1
330
9
100
AcDbSymbolTableRecord
100
AcDbRegAppTableRecord
  2
GENIUS_GENOBJ-F-PART_13
 70
     0
  0
APPID
  5
2FC2
330
9
100
AcDbSymbolTableRecord
100
AcDbRegAppTableRecord
  2
GENIUS_GEFSTDP_13
 70
     0
  0
APPID
  5
2FC3
330
9
100
AcDbSymbolTableRecord
100
AcDbRegAppTableRecord
  2
GEVPT
 70
     0
  0
APPID
  5
2FC4
330
9
100
AcDbSymbolTableRecord
100
AcDbRegAppTableRecord
  2
GEVIT
 70
     0
  0
APPID
  5
2FC5
330
9
100
AcDbSymbolTableRecord
100
AcDbRegAppTableRecord
  2
VCC
 70
     0
  0
APPID
  5
2FC6
330
9
100
AcDbSymbolTableRecord
100
AcDbRegAppTableRecord
  2
GENBH
 70
     0
  0
APPID
  5
2FC7
330
9
100
AcDbSymbolTableRecord
100
AcDbRegAppTableRecord
  2
GEVMK
 70
     0
  0
APPID
  5
2FC8
330
9
100
AcDbSymbolTableRecord
100
AcDbRegAppTableRecord
  2
GENIUS_GEFPARTINS_13
 70
     0
  0
APPID
  5
2FC9
330
9
100
AcDbSymbolTableRecord
100
AcDbRegAppTableRecord
  2
GENIUS_GENOBJ-N-CRC_13
 70
     0
  0
APPID
  5
2FCA
330
9
100
AcDbSymbolTableRecord
100
AcDbRegAppTableRecord
  2
GENIUS_GENCRC_14
 70
     0
  0
APPID
  5
2FCB
330
9
100
AcDbSymbolTableRecord
100
AcDbRegAppTableRecord
  2
GEVID978597865
 70
     0
  0
APPID
  5
2FCC
330
9
100
AcDbSymbolTableRecord
100
AcDbRegAppTableRecord
  2
GEVID978597866
 70
     0
  0
APPID
  5
2FCD
330
9
100
AcDbSymbolTableRecord
100
AcDbRegAppTableRecord
  2
GEVID978597868
 70
     0
  0
APPID
  5
2FCE
330
9
100
AcDbSymbolTableRecord
100
AcDbRegAppTableRecord
  2
GENIUS_GENCEN_19
 70
     0
  0
APPID
  5
2FCF
330
9
100
AcDbSymbolTableRecord
100
AcDbRegAppTableRecord
  2
AcAecLayerStandard
 70
     0
  0
APPID
  5
5580
330
9
100
AcDbSymbolTableRecord
100
AcDbRegAppTableRecord
  2
GENIUS_FIRSTVISTXT_14
 70
     0
  0
APPID
  5
5581
330
9
100
AcDbSymbolTableRecord
100
AcDbRegAppTableRecord
  2
GENIUS_SECONDVISTXT_14
 70
     0
  0
APPID
  5
5582
330
9
100
AcDbSymbolTableRecord
100
AcDbRegAppTableRecord
  2
GENIUS_GENOBJ-N-FIL_13
 70
     0
  0
APPID
  5
5583
330
9
100
AcDbSymbolTableRecord
100
AcDbRegAppTableRecord
  2
GENIUS_GEFWELD_13
 70
     0
  0
APPID
  5
5584
330
9
100
AcDbSymbolTableRecord
100
AcDbRegAppTableRecord
  2
GENIUS_GENOBJ-NBEHI-BHB_13
 70
     0
  0
APPID
  5
5585
330
9
100
AcDbSymbolTableRecord
100
AcDbRegAppTableRecord
  2
GENIUS_GENOBJ-F-WELS_13
 70
     0
  0
APPID
  5
5586
330
9
100
AcDbSymbolTableRecord
100
AcDbRegAppTableRecord
  2
AMG_2DHIDE
 70
     0
  0
APPID
  5
5587
330
9
100
AcDbSymbolTableRecord
100
AcDbRegAppTableRecord
  2
GEVID992928022
 70
     0
  0
APPID
  5
5588
330
9
100
AcDbSymbolTableRecord
100
AcDbRegAppTableRecord
  2
GENIUS_GENOBJ-F-DESC_13
 70
     0
  0
APPID
  5
5589
330
9
100
AcDbSymbolTableRecord
100
AcDbRegAppTableRecord
  2
GENIUS_GEFDESC_14
 70
     0
  0
APPID
  5
558A
330
9
100
AcDbSymbolTableRecord
100
AcDbRegAppTableRecord
  2
GEVID992928023
 70
     0
  0
APPID
  5
558B
330
9
100
AcDbSymbolTableRecord
100
AcDbRegAppTableRecord
  2
GENIUS_GENOBJ-F-FEAT_13
 70
     0
  0
APPID
  5
558C
330
9
100
AcDbSymbolTableRecord
100
AcDbRegAppTableRecord
  2
GENIUS_GEFFEAT_14
 70
     0
  0
APPID
  5
7580
330
9
100
AcDbSymbolTableRecord
100
AcDbRegAppTableRecord
  2
ACAD_EXEMPT_FROM_CAD_STANDARDS
 70
     0
  0
APPID
  5
9403
330
9
100
AcDbSymbolTableRecord
100
AcDbRegAppTableRecord
  2
AMG_2DSTRUCT_BTR
 70
     0
  0
APPID
  5
B4E8
330
9
100
AcDbSymbolTableRecord
100
AcDbRegAppTableRecord
  2
ACAD_DSTYLE_DIMEXT_LENGTH
 70
     0
  0
APPID
  5
B4E9
330
9
100
AcDbSymbolTableRecord
100
AcDbRegAppTableRecord
  2
ACAD_DSTYLE_DIMEXT_ENABLED
 70
     0
  0
APPID
  5
DE63
330
9
100
AcDbSymbolTableRecord
100
AcDbRegAppTableRecord
  2
GENIUS_GENDIMSH_14
 70
     0
  0
APPID
  5
E2FA
330
9
100
AcDbSymbolTableRecord
100
AcDbRegAppTableRecord
  2
GEVID1210230727
 70
     0
  0
APPID
  5
E2FB
330
9
100
AcDbSymbolTableRecord
100
AcDbRegAppTableRecord
  2
GEVDC
 70
     0
  0
APPID
  5
10068
330
9
100
AcDbSymbolTableRecord
100
AcDbRegAppTableRecord
  2
ACAUTHENVIRON
 70
     0
  0
APPID
  5
1011A
330
9
100
AcDbSymbolTableRecord
100
AcDbRegAppTableRecord
  2
AcDbDynamicBlockTrueName
 70
     0
  0
APPID
  5
1011B
330
9
100
AcDbSymbolTableRecord
100
AcDbRegAppTableRecord
  2
AcDbDynamicBlockGUID
 70
     0
  0
APPID
  5
1011D
330
9
100
AcDbSymbolTableRecord
100
AcDbRegAppTableRecord
  2
ACDBBLOCKREPETAG
 70
     0
  0
APPID
  5
107E4
330
9
100
AcDbSymbolTableRecord
100
AcDbRegAppTableRecord
  2
ACAD_DSTYLE_DIMTEXT_FILL
 70
     0
  0
APPID
  5
107E7
330
9
100
AcDbSymbolTableRecord
100
AcDbRegAppTableRecord
  2
ACAD_DSTYLE_DIM_LINETYPE
 70
     0
  0
APPID
  5
107E8
330
9
100
AcDbSymbolTableRecord
100
AcDbRegAppTableRecord
  2
ACAD_DSTYLE_DIM_EXT1_LINETYPE
 70
     0
  0
APPID
  5
107E9
330
9
100
AcDbSymbolTableRecord
100
AcDbRegAppTableRecord
  2
ACAD_DSTYLE_DIM_EXT2_LINETYPE
 70
     0
  0
APPID
  5
10B47
330
9
100
AcDbSymbolTableRecord
100
AcDbRegAppTableRecord
  2
GEVID1210230728
 70
     0
  0
APPID
  5
11657
330
9
100
AcDbSymbolTableRecord
100
AcDbRegAppTableRecord
  2
GENIUS_GENDTOL_13
 70
     0
  0
APPID
  5
1A1D2
330
9
100
AcDbSymbolTableRecord
100
AcDbRegAppTableRecord
  2
ACAD_MLEADERVER
 70
     0
  0
APPID
  5
1A346
330
9
100
AcDbSymbolTableRecord
100
AcDbRegAppTableRecord
  2
ACAD_DSTYLE_DIMINSPECT
 70
     0
  0
APPID
  5
1BCC4
330
9
100
AcDbSymbolTableRecord
100
AcDbRegAppTableRecord
  2
ACAD_DSTYLE_DIMBREAK
 70
     0
  0
APPID
  5
1BCC5
330
9
100
AcDbSymbolTableRecord
100
AcDbRegAppTableRecord
  2
ACAD_DSTYLE_DIMJAG
 70
     0
  0
ENDTAB
  0
TABLE
  2
DIMSTYLE
  5
A
330
0
100
AcDbSymbolTable
 70
    10
100
AcDbDimStyleTable
 71
     2
340
2EE
340
1A089
  0
DIMSTYLE
105
2EE
102
{ACAD_REACTORS
330
1BCB3
102
}
330
A
100
AcDbSymbolTableRecord
100
AcDbDimStyleTableRecord
  2
AM_DIN
 70
     0
  4
"
 41
65.0
 42
1.0
 43
10.0
 44
25.0
 47
0.1
 48
0.1
 73
     0
 74
     0
 77
     1
 78
     8
 79
     2
140
50.0
141
0.0
143
0.0393701
146
0.71
147
15.0
172
     1
176
   256
177
   256
178
     2
271
     0
272
     0
283
     0
284
     8
340
11
371
    -1
372
    -1
1001
ACAD_DSTYLE_DIMJOGGED_JOGANGLE_SYMBOL
1070
   384
1040
1.570796326794896
  0
DIMSTYLE
105
2FF
330
A
100
AcDbSymbolTableRecord
100
AcDbDimStyleTableRecord
  2
AM_DIN$3
 70
     0
  4
"
 41
65.0
 42
1.0
 43
10.0
 44
25.0
 47
0.1
 48
0.1
 73
     0
 77
     1
 78
     8
 79
     2
140
50.0
141
0.0
143
0.0393701
146
0.71
147
15.0
176
   256
177
   256
178
     2
271
     0
272
     0
283
     0
284
     8
288
     1
289
     0
340
11
371
    -1
372
    -1
1001
ACAD_DSTYLE_DIMJOGGED_JOGANGLE_SYMBOL
1070
   384
1040
1.570796326794896
  0
DIMSTYLE
105
304
330
A
100
AcDbSymbolTableRecord
100
AcDbDimStyleTableRecord
  2
AM_DIN$4
 70
     0
  4
"
 41
65.0
 42
1.0
 43
10.0
 44
25.0
 47
0.1
 48
0.1
 73
     0
 77
     1
 78
     8
 79
     2
140
50.0
141
0.0
143
0.0393701
146
0.71
147
15.0
176
   256
177
   256
178
     2
271
     0
272
     0
283
     0
284
     8
288
     1
289
     0
340
11
371
    -1
372
    -1
1001
ACAD_DSTYLE_DIMJOGGED_JOGANGLE_SYMBOL
1070
   384
1040
1.570796326794896
  0
DIMSTYLE
105
309
330
A
100
AcDbSymbolTableRecord
100
AcDbDimStyleTableRecord
  2
AM_DIN$6
 70
     0
  4
"
 41
65.0
 42
1.0
 43
10.0
 44
25.0
 47
0.1
 48
0.1
 73
     0
 74
     0
 78
     8
 79
     2
140
50.0
141
0.0
143
0.0393701
146
0.71
147
15.0
172
     1
176
   256
177
   256
178
     2
271
     0
272
     0
283
     0
284
     8
340
11
371
    -1
372
    -1
1001
ACAD_DSTYLE_DIMJOGGED_JOGANGLE_SYMBOL
1070
   384
1040
1.570796326794896
  0
DIMSTYLE
105
30E
330
A
100
AcDbSymbolTableRecord
100
AcDbDimStyleTableRecord
  2
AM_DIN$7
 70
     0
  4
"
 41
65.0
 42
1.0
 43
10.0
 44
25.0
 47
0.1
 48
0.1
 73
     0
 74
     0
 77
     1
 78
     8
 79
     2
140
5.0
141
0.0
143
0.0393701
146
0.71
147
15.0
172
     1
176
   256
177
   256
178
     2
271
     0
272
     0
283
     0
284
     8
340
11
371
    -1
372
    -1
1001
ACAD_DSTYLE_DIMJOGGED_JOGANGLE_SYMBOL
1070
   384
1040
1.570796326794896
  0
DIMSTYLE
105
313
330
A
100
AcDbSymbolTableRecord
100
AcDbDimStyleTableRecord
  2
AM_DIN$SF
 70
     0
  4
"
 41
2.5
 42
1.0
 43
10.0
 44
1.0
 47
0.1
 48
0.1
 73
     0
 74
     0
 75
     1
 76
     1
 77
     1
 78
     8
 79
     2
140
3.5
141
0.0
143
0.0393701
146
0.71
147
1.5
172
     1
176
   256
177
   256
178
     2
271
     2
272
     3
274
     4
283
     0
284
     8
340
11
371
    -1
372
    -1
1001
ACAD_DSTYLE_DIMJOGGED_JOGANGLE_SYMBOL
1070
   384
1040
1.570796326794896
  0
DIMSTYLE
105
318
330
A
100
AcDbSymbolTableRecord
100
AcDbDimStyleTableRecord
  2
AM_DIN$SH
 70
     0
  4
"
 41
2.5
 42
1.0
 43
10.0
 44
1.0
 47
0.1
 48
0.1
 73
     0
 74
     0
 75
     1
 76
     1
 77
     1
 78
     8
 79
     2
140
3.5
141
0.0
143
0.0393701
144
2.0
146
0.71
147
1.5
172
     1
173
     1
176
   256
177
   256
178
     2
271
     2
272
     3
274
     4
283
     0
284
     8
340
11
343
87
371
    -1
372
    -1
1001
ACAD_DSTYLE_DIMJOGGED_JOGANGLE_SYMBOL
1070
   384
1040
1.570796326794896
  0
DIMSTYLE
105
7C7E
330
A
100
AcDbSymbolTableRecord
100
AcDbDimStyleTableRecord
  2
AM_DIN$0
 70
     0
  4
"
 41
65.0
 42
1.0
 43
10.0
 44
25.0
 47
0.1
 48
0.1
 73
     0
 74
     0
 77
     1
 78
     8
 79
     2
140
50.0
141
0.0
143
0.0393701
146
0.71
147
15.0
172
     1
176
   256
177
   256
178
     2
271
     0
272
     0
283
     0
284
     8
340
11
371
    -1
372
    -1
1001
ACAD_DSTYLE_DIMJOGGED_JOGANGLE_SYMBOL
1070
   384
1040
1.570796326794896
  0
DIMSTYLE
105
1A089
330
A
100
AcDbSymbolTableRecord
100
AcDbDimStyleTableRecord
  2
GEN-ISO
 70
     0
  4
"
 40
10.0
 41
2.5
 42
1.0
 43
7.0
 44
1.0
 47
0.1
 48
0.1
 73
     0
 74
     0
 77
     1
 78
     8
140
3.5
141
0.0
143
0.0393701
146
0.71
147
0.6
172
     1
176
     3
177
     3
178
     2
271
     2
272
     2
283
     0
340
11
  0
DIMSTYLE
105
1A08A
102
{ACAD_REACTORS
330
1BA7C
102
}
330
A
100
AcDbSymbolTableRecord
100
AcDbDimStyleTableRecord
  2
GEN-ISO$0
 70
     0
  4
"
 40
10.0
 41
2.5
 42
1.0
 43
7.0
 44
1.0
 47
0.1
 48
0.1
 73
     0
 74
     0
 77
     1
 78
     8
140
3.5
141
0.0
143
0.0393701
146
0.71
147
0.6
172
     1
176
     3
177
     3
178
     2
271
     2
272
     2
283
     0
340
11
  0
ENDTAB
  0
TABLE
  2
BLOCK_RECORD
  5
1
330
0
100
AcDbSymbolTable
 70
     4
  0
BLOCK_RECORD
  5
1F
102
{ACAD_XDICTIONARY
360
8F
102
}
330
1
100
AcDbSymbolTableRecord
100
AcDbBlockTableRecord
  2
*Model_Space
340
22
  0
BLOCK_RECORD
  5
1B
330
1
100
AcDbSymbolTableRecord
100
AcDbBlockTableRecord
  2
*Paper_Space
340
1E
  0
BLOCK_RECORD
  5
23
330
1
100
AcDbSymbolTableRecord
100
AcDbBlockTableRecord
  2
*Paper_Space0
340
26
  0
BLOCK_RECORD
  5
87
102
{ACAD_XDICTIONARY
360
10117
102
}
330
1
100
AcDbSymbolTableRecord
100
AcDbBlockTableRecord
  2
GENAXEH
340
0
1001
AcDbDynamicBlockGUID
1000
{D68C792B-0B99-4E0B-8B7B-1EAC83B216F4}
1001
ACDBBLOCKREPETAG
1070
     1
1071
        0
  0
BLOCK_RECORD
  5
1BA7D
330
1
100
AcDbSymbolTableRecord
100
AcDbBlockTableRecord
  2
*D2
340
0
  0
ENDTAB
  0
ENDSEC
  0
SECTION
  2
BLOCKS
  0
BLOCK
  5
20
330
1F
100
AcDbEntity
  8
0
100
AcDbBlockBegin
  2
*Model_Space
 70
     2
 10
0.0
 20
0.0
 30
0.0
  3
*Model_Space
  1

  0
ENDBLK
  5
21
330
1F
100
AcDbEntity
  8
0
100
AcDbBlockEnd
  0
BLOCK
  5
1C
330
1B
100
AcDbEntity
 67
     1
  8
0
100
AcDbBlockBegin
  2
*Paper_Space
 70
     0
 10
0.0
 20
0.0
 30
0.0
  3
*Paper_Space
  1

  0
ENDBLK
  5
1D
330
1B
100
AcDbEntity
 67
     1
  8
0
100
AcDbBlockEnd
  0
BLOCK
  5
24
330
23
100
AcDbEntity
 67
     1
  8
0
100
AcDbBlockBegin
  2
*Paper_Space0
 70
     0
 10
0.0
 20
0.0
 30
0.0
  3
*Paper_Space0
  1

  0
ENDBLK
  5
25
330
23
100
AcDbEntity
 67
     1
  8
0
100
AcDbBlockEnd
  0
BLOCK
  5
2ADE
330
87
100
AcDbEntity
  8
0
100
AcDbBlockBegin
  2
GENAXEH
 70
     0
 10
0.0
 20
0.0
 30
0.0
  3
GENAXEH
  1

  0
ENDBLK
  5
2AE0
330
87
100
AcDbEntity
  8
0
100
AcDbBlockEnd
  0
BLOCK
  5
1BA7E
330
1BA7D
100
AcDbEntity
  8
0
100
AcDbBlockBegin
  2
*D2
 70
     1
 10
0.0
 20
0.0
 30
0.0
  3
*D2
  1

  0
LINE
  5
1BCDE
330
1BA7D
100
AcDbEntity
  8
AM_5
 62
     3
370
    -2
100
AcDbLine
 10
22539.87307974258
 20
-265.9651037701296
 30
0.0
 11
22539.87307974258
 21
-245.7591598238946
 31
0.0
  0
LINE
  5
1BCDF
330
1BA7D
100
AcDbEntity
  8
AM_5
 62
     3
370
    -2
100
AcDbLine
 10
22581.46307974258
 20
-265.9651037701296
 30
0.0
 11
22581.46307974258
 21
-245.7591598238946
 31
0.0
  0
LINE
  5
1BCE0
330
1BA7D
100
AcDbEntity
  8
AM_5
 62
     3
370
    -2
100
AcDbLine
 10
22549.87307974258
 20
-250.7591598238946
 30
0.0
 11
22571.46307974258
 21
-250.7591598238946
 31
0.0
  0
LINE
  5
1BCE1
330
1BA7D
100
AcDbEntity
  8
AM_5
 62
     3
370
    -2
100
AcDbLine
 10
22581.46307974258
 20
-250.7591598238946
 30
0.0
 11
22661.18238397178
 21
-250.7591598238946
 31
0.0
  0
SOLID
  5
1BCE2
330
1BA7D
100
AcDbEntity
  8
AM_5
 62
     3
100
AcDbTrace
 10
22549.87307974258
 20
-249.0924931572279
 30
0.0
 11
22549.87307974258
 21
-252.4258264905612
 31
0.0
 12
22539.87307974258
 22
-250.7591598238946
 32
0.0
 13
22539.87307974258
 23
-250.7591598238946
 33
0.0
  0
SOLID
  5
1BCE3
330
1BA7D
100
AcDbEntity
  8
AM_5
 62
     3
100
AcDbTrace
 10
22571.46307974258
 20
-249.0924931572279
 30
0.0
 11
22571.46307974258
 21
-252.4258264905612
 31
0.0
 12
22581.46307974258
 22
-250.7591598238946
 32
0.0
 13
22581.46307974258
 23
-250.7591598238946
 33
0.0
  0
MTEXT
  5
1BCE4
330
1BA7D
100
AcDbEntity
  8
AM_5
 62
     2
100
AcDbMText
 10
22626.32273185718
 20
-239.6674135755999
 30
0.0
 40
12.5
 41
0.0
 71
     5
 72
     1
  1
Rp 1 1/2
 73
     1
 44
1.0
1001
ACAD
1000
MTEXTBEGIN
1070
    73
1070
     1
1070
    44
1040
1.0
1070
    74
1070
     0
1000
MTEXTEND
  0
POINT
  5
1BCE5
330
1BA7D
100
AcDbEntity
  8
Defpoints
 62
     0
100
AcDbPoint
 10
22539.87307974258
 20
-270.9651037701296
 30
0.0
  0
POINT
  5
1BCE6
330
1BA7D
100
AcDbEntity
  8
Defpoints
 62
     0
100
AcDbPoint
 10
22581.46307974258
 20
-270.9651037701296
 30
0.0
  0
POINT
  5
1BCE7
330
1BA7D
100
AcDbEntity
  8
Defpoints
 62
     0
100
AcDbPoint
 10
22581.46307974258
 20
-250.7591598238946
 30
0.0
  0
ENDBLK
  5
1BA7F
330
1BA7D
100
AcDbEntity
  8
0
100
AcDbBlockEnd
  0
ENDSEC
  0
SECTION
  2
ENTITIES
  0
CIRCLE
  5
1B8D8
330
1F
100
AcDbEntity
  8
AM_0
100
AcDbCircle
 10
22560.66307974257
 20
-311.8711037701287
 30
0.0
 40
7.221
  0
ARC
  5
1B8D9
330
1F
100
AcDbEntity
  8
AM_0
100
AcDbCircle
 10
22560.66307974257
 20
-311.6311037701307
 30
0.0
 40
6.967999999999999
100
AcDbArc
 50
191.5519999999285
 51
348.4480000000715
  0
LINE
  5
1B8DA
330
1F
100
AcDbEntity
  8
AM_0
100
AcDbLine
 10
22553.66707974257
 20
-310.7151037701296
 30
0.0
 11
22553.66707974257
 21
-313.0261037701312
 31
0.0
  0
LINE
  5
1B8DB
330
1F
100
AcDbEntity
  8
AM_0
100
AcDbLine
 10
22567.67907974257
 20
-313.0261037701312
 30
0.0
 11
22567.67907974257
 21
-310.7151037701296
 31
0.0
  0
LINE
  5
1B8DC
330
1F
100
AcDbEntity
  8
AM_0
100
AcDbLine
 10
22580.01207974257
 20
-272.2011037701304
 30
0.0
 11
22580.01207974257
 21
-288.3141037701316
 31
0.0
  0
LINE
  5
1B8DD
330
1F
100
AcDbEntity
  8
AM_0
100
AcDbLine
 10
22585.94607974257
 20
-270.9651037701296
 30
0.0
 11
22535.39107974257
 21
-270.9651037701296
 31
0.0
  0
LINE
  5
1B8DE
330
1F
100
AcDbEntity
  8
AM_0
100
AcDbLine
 10
22580.01207974257
 20
-351.061103770131
 30
0.0
 11
22580.01207974257
 21
-334.9481037701298
 31
0.0
  0
LINE
  5
1B8DF
330
1F
100
AcDbEntity
  8
AM_0
100
AcDbLine
 10
22585.94607974257
 20
-352.2971037701319
 30
0.0
 11
22535.39107974257
 21
-352.2971037701319
 31
0.0
  0
LINE
  5
1B8E0
330
1F
100
AcDbEntity
  8
AM_0
100
AcDbLine
 10
22585.94607974257
 20
-289.5501037701288
 30
0.0
 11
22535.39107974257
 21
-289.5501037701288
 31
0.0
  0
LINE
  5
1B8E1
330
1F
100
AcDbEntity
  8
AM_0
100
AcDbLine
 10
22585.94607974257
 20
-333.712103770129
 30
0.0
 11
22535.39107974257
 21
-333.712103770129
 31
0.0
  0
ARC
  5
1B8E2
330
1F
100
AcDbEntity
  8
AM_0
100
AcDbCircle
 10
22526.99507974257
 20
-311.6311037701307
 30
0.0
 40
60.18600000000001
100
AcDbArc
 50
338.4769999999
 51
21.52300000009997
  0
ARC
  5
1B8E3
330
1F
100
AcDbEntity
  8
AM_0
100
AcDbCircle
 10
22594.33207974257
 20
-311.6311037701307
 30
0.0
 40
60.18600000000001
100
AcDbArc
 50
158.4769999999
 51
161.5799999999851
  0
ARC
  5
1B8E4
330
1F
100
AcDbEntity
  8
AM_0
100
AcDbCircle
 10
22594.33207974257
 20
-311.6311037701307
 30
0.0
 40
60.18600000000001
100
AcDbArc
 50
180.998999999988
 51
201.5230000001
  0
ARC
  5
1B8E6
330
1F
100
AcDbEntity
  8
AM_0
100
AcDbCircle
 10
22549.78307974258
 20
-307.9111037701296
 30
0.0
 40
1.733
100
AcDbArc
 50
114.9989999999882
 51
205.0000000000132
  0
ARC
  5
1B8E7
330
1F
100
AcDbEntity
  8
AM_0
100
AcDbCircle
 10
22564.62407974257
 20
-300.9901037701311
 30
0.0
 40
1.733
100
AcDbArc
 50
25.00100000008639
 51
115.0010000000635
  0
ARC
  5
1B8E8
330
1F
100
AcDbEntity
  8
AM_0
100
AcDbCircle
 10
22571.54407974257
 20
-315.8311037701314
 30
0.0
 40
1.733
100
AcDbArc
 50
295.0010000000636
 51
25.00000000001314
  0
ARC
  5
1B8E9
330
1F
100
AcDbEntity
  8
AM_0
100
AcDbCircle
 10
22556.70307974257
 20
-322.7511037701297
 30
0.0
 40
1.733
100
AcDbArc
 50
205.0000000000132
 51
295.0019999998931
  0
LINE
  5
1B8FC
330
1F
100
AcDbEntity
  8
AM_0
100
AcDbLine
 10
22567.66907974257
 20
-310.7151037701296
 30
0.0
 11
22553.65807974258
 21
-310.7151037701296
 31
0.0
  0
LINE
  5
1B8FD
330
1F
100
AcDbEntity
  8
AM_0
100
AcDbLine
 10
22553.65807974258
 20
-310.7151037701296
 30
0.0
 11
22553.65807974258
 21
-313.0261037701312
 31
0.0
  0
LINE
  5
1B8FE
330
1F
100
AcDbEntity
  8
AM_0
100
AcDbLine
 10
22553.65807974258
 20
-313.0261037701312
 30
0.0
 11
22567.66907974257
 21
-313.0261037701312
 31
0.0
  0
LINE
  5
1B8FF
330
1F
100
AcDbEntity
  8
AM_0
100
AcDbLine
 10
22567.66907974257
 20
-313.0261037701312
 30
0.0
 11
22567.66907974257
 21
-310.7151037701296
 31
0.0
  0
ARC
  5
1B900
330
1F
100
AcDbEntity
  8
AM_0
100
AcDbCircle
 10
22560.75271599164
 20
-312.1291086063393
 30
0.0
 40
7.059426124841853
100
AcDbArc
 50
11.55451753335907
 51
168.4505175332393
  0
ARC
  5
1B901
330
1F
100
AcDbEntity
  8
AM_0
100
AcDbCircle
 10
22536.40207974257
 20
-279.5431037701164
 30
0.0
 40
10.05800000001294
100
AcDbArc
 50
236.8870000001066
 51
299.3049999999602
  0
ARC
  5
1B902
330
1F
100
AcDbEntity
  8
AM_0
100
AcDbCircle
 10
22560.66820354927
 20
-137.5902301541428
 30
0.0
 40
151.9598507505014
100
AcDbArc
 50
262.6869117707536
 51
277.3129117706783
  0
ARC
  5
1B903
330
1F
100
AcDbEntity
  8
AM_0
100
AcDbCircle
 10
22584.93442228585
 20
-279.5421295032574
 30
0.0
 40
10.05917520423136
100
AcDbArc
 50
240.6951050782121
 51
303.1131050781008
  0
ARC
  5
1B904
330
1F
100
AcDbEntity
  8
AM_0
100
AcDbCircle
 10
22584.93442228585
 20
-343.7200780370003
 30
0.0
 40
10.05917520423134
100
AcDbArc
 50
56.88689492189924
 51
119.3048949217879
  0
ARC
  5
1B905
330
1F
100
AcDbEntity
  8
AM_0
100
AcDbCircle
 10
22560.66820354927
 20
-485.6719773861185
 30
0.0
 40
151.9598507505051
100
AcDbArc
 50
82.68708822932174
 51
97.31308822924638
  0
ARC
  5
1B906
330
1F
100
AcDbEntity
  8
AM_0
100
AcDbCircle
 10
22536.40207974257
 20
-343.719103770145
 30
0.0
 40
10.0580000000115
100
AcDbArc
 50
60.69500000003986
 51
123.1139999999896
  0
ARC
  5
1B907
330
1F
100
AcDbEntity
  8
AM_0
100
AcDbCircle
 10
22536.40222211994
 20
-342.2901608278007
 30
0.0
 40
10.05802998953359
100
AcDbArc
 50
236.8861431026736
 51
299.3041431026147
  0
LINE
  5
1B908
330
1F
100
AcDbEntity
  8
AM_0
100
AcDbLine
 10
22541.32507974257
 20
-351.0611037701274
 30
0.0
 11
22541.32507974257
 21
-334.9481037701298
 31
0.0
  0
ARC
  5
1B909
330
1F
100
AcDbEntity
  8
AM_0
100
AcDbCircle
 10
22560.66845593588
 20
-200.3333340576501
 30
0.0
 40
151.9637787993645
100
AcDbArc
 50
262.6870882270103
 51
277.313088226934
  0
ARC
  5
1B90A
330
1F
100
AcDbEntity
  8
AM_0
100
AcDbCircle
 10
22584.93507974257
 20
-342.2901037701158
 30
0.0
 40
10.058000000013
100
AcDbArc
 50
240.6950000000399
 51
303.1129999998932
  0
LINE
  5
1B90B
330
1F
100
AcDbEntity
  8
AM_0
100
AcDbLine
 10
22541.32507974257
 20
-288.3141037701316
 30
0.0
 11
22541.32507974257
 21
-272.2011037701304
 31
0.0
  0
ARC
  5
1B90C
330
1F
100
AcDbEntity
  8
AM_0
100
AcDbCircle
 10
22536.40222211739
 20
-280.9720467120387
 30
0.0
 40
10.05802999041286
100
AcDbArc
 50
60.69585688373772
 51
123.1148568835484
  0
ARC
  5
1B90D
330
1F
100
AcDbEntity
  8
AM_0
100
AcDbCircle
 10
22584.93507974257
 20
-280.9721037701456
 30
0.0
 40
10.05800000001296
100
AcDbArc
 50
56.88700000010673
 51
119.3049999999601
  0
ARC
  5
1B90E
330
1F
100
AcDbEntity
  8
AM_0
100
AcDbCircle
 10
22560.66845593588
 20
-422.9288734826114
 30
0.0
 40
151.9637787993685
100
AcDbArc
 50
82.68691177306594
 51
97.31291177298977
  0
LINE
  5
1B911
330
1F
100
AcDbEntity
  8
AM_7
 48
0.12
100
AcDbLine
 10
22539.87307974258
 20
-352.7781037701316
 30
0.0
 11
22539.87307974258
 21
-400.1921037701285
 31
0.0
  0
LINE
  5
1B95E
330
1F
100
AcDbEntity
  8
AM_0
100
AcDbLine
 10
22508.34207974257
 20
-341.4611037701288
 30
0.0
 11
22523.76207974257
 21
-341.4611037701288
 31
0.0
  0
ARC
  5
1B95F
330
1F
100
AcDbEntity
  8
AM_0
100
AcDbCircle
 10
22515.33831496868
 20
-335.9663651282426
 30
0.0
 40
10.05743335590274
100
AcDbArc
 50
326.8839864647507
 51
29.30198646475119
  0
LINE
  5
1B960
330
1F
100
AcDbEntity
  8
AM_0
100
AcDbLine
 10
22524.10892290756
 20
-331.0441296512399
 30
0.0
 11
22507.99607974257
 21
-331.0441037701312
 31
0.0
  0
ARC
  5
1B961
330
1F
100
AcDbEntity
  8
AM_0
100
AcDbCircle
 10
22516.76628745877
 20
-335.9670480564127
 30
0.0
 40
10.05743127399491
100
AcDbArc
 50
150.6933763321746
 51
213.1113763320922
  0
LINE
  5
1B962
330
1F
100
AcDbEntity
  8
AM_0
100
AcDbLine
 10
22525.34507974257
 20
-336.9781037701287
 30
0.0
 11
22525.34507974257
 21
-310.0981037701313
 31
0.0
  0
ARC
  5
1B963
330
1F
100
AcDbEntity
  8
AM_0
100
AcDbCircle
 10
22373.40868070452
 20
-311.6401717366098
 30
0.0
 40
151.9442243925898
100
AcDbArc
 50
352.6634995823109
 51
0.5814995822177045
  0
LINE
  5
1B964
330
1F
100
AcDbEntity
  8
AM_0
100
AcDbLine
 10
22506.76007974258
 20
-336.9781037701287
 30
0.0
 11
22506.92148254575
 21
-304.6981635909797
 31
0.0
  0
ARC
  5
1B965
330
1F
100
AcDbEntity
  8
AM_0
100
AcDbCircle
 10
22658.71907974109
 20
-311.7001037701921
 30
0.0
 40
151.9589999985197
100
AcDbArc
 50
177.359000000049
 51
187.3129999999561
  0
ARC
  5
1B966
330
1F
100
AcDbEntity
  8
AM_0
100
AcDbCircle
 10
22515.33807974259
 20
-287.4331037701267
 30
0.0
 40
10.05799999998596
100
AcDbArc
 50
0.0329999999346519
 51
33.11300000003679
  0
LINE
  5
1B967
330
1F
100
AcDbEntity
  8
AM_0
100
AcDbLine
 10
22523.76260812484
 20
-281.9384986399746
 30
0.0
 11
22512.87007974257
 21
-281.9391037701316
 31
0.0
  0
LINE
  5
1B968
102
{ACAD_REACTORS
330
1BA8C
102
}
330
1F
100
AcDbEntity
  8
AM_7
 48
0.12
100
AcDbLine
 10
22581.46307974258
 20
-270.9651037701296
 30
0.0
 11
22581.46307974258
 21
-223.5501037701288
 31
0.0
  0
LINE
  5
1B969
102
{ACAD_REACTORS
330
1BA8C
102
}
330
1F
100
AcDbEntity
  8
AM_7
 48
0.12
100
AcDbLine
 10
22539.87307974258
 20
-270.9651037701296
 30
0.0
 11
22539.87307974258
 21
-223.5501037701288
 31
0.0
  0
LINE
  5
1B96A
330
1F
100
AcDbEntity
  8
AM_7
 48
0.12
100
AcDbLine
 10
22581.46307974258
 20
-352.7781037701316
 30
0.0
 11
22581.46307974258
 21
-400.1921037701285
 31
0.0
  0
LINE
  5
1B96B
330
1F
100
AcDbEntity
  8
AM_7
 48
0.12
100
AcDbLine
 10
22539.87307974258
 20
-400.1931037701288
 30
0.0
 11
22541.07407974257
 21
-400.8181037701286
 31
0.0
  0
ARC
  5
1B96C
330
1F
100
AcDbEntity
  8
AM_7
 48
0.12
100
AcDbCircle
 10
22577.35556502829
 20
-330.0655950201289
 30
0.0
 40
79.51266357603893
100
AcDbArc
 50
242.8515061304595
 51
244.4557617541903
  0
ARC
  5
1B96D
330
1F
100
AcDbEntity
  8
AM_7
 48
0.12
100
AcDbCircle
 10
22565.75914457591
 20
-354.5085225756848
 30
0.0
 40
52.45855725223382
100
AcDbArc
 50
244.3715722686992
 51
246.4341646423675
  0
ARC
  5
1B96E
330
1F
100
AcDbEntity
  8
AM_7
 48
0.12
100
AcDbCircle
 10
22550.42675381866
 20
-390.0270294440415
 30
0.0
 40
13.7731004807461
100
AcDbArc
 50
245.8238828215474
 51
251.094165341354
  0
ARC
  5
1B96F
330
1F
100
AcDbEntity
  8
AM_7
 48
0.12
100
AcDbCircle
 10
22546.82477546479
 20
-400.5239061960565
 30
0.0
 40
2.675422784448221
100
AcDbArc
 50
251.2339589033415
 51
257.4204000776683
  0
ARC
  5
1B970
330
1F
100
AcDbEntity
  8
AM_7
 48
0.12
100
AcDbCircle
 10
22548.0316850759
 20
-394.5701761034616
 30
0.0
 40
8.749895609910486
100
AcDbArc
 50
258.1980852674238
 51
260.9481506859609
  0
ARC
  5
1B971
330
1F
100
AcDbEntity
  8
AM_7
 48
0.12
100
AcDbCircle
 10
22549.82347739642
 20
-383.4757589624386
 30
0.0
 40
19.98806089573045
100
AcDbArc
 50
260.8793164887725
 51
263.858529202043
  0
ARC
  5
1B972
330
1F
100
AcDbEntity
  8
AM_7
 48
0.12
100
AcDbCircle
 10
22551.43321438146
 20
-369.5472354090198
 30
0.0
 40
34.00904023892931
100
AcDbArc
 50
263.6725815713764
 51
265.7351739448797
  0
ARC
  5
1B973
330
1F
100
AcDbEntity
  8
AM_7
 48
0.12
100
AcDbCircle
 10
22551.48714221479
 20
-369.555908825685
 30
0.0
 40
34.00444481749458
100
AcDbArc
 50
265.6434730152271
 51
267.706065388843
  0
ARC
  5
1B974
330
1F
100
AcDbEntity
  8
AM_7
 48
0.12
100
AcDbCircle
 10
22551.13756099257
 20
-377.3912575201284
 30
0.0
 40
26.16140706609269
100
AcDbArc
 50
267.7842149400687
 51
268.9301209811798
  0
ARC
  5
1B975
330
1F
100
AcDbEntity
  8
AM_7
 48
0.12
100
AcDbCircle
 10
22550.99091007591
 20
-382.0082126034649
 30
0.0
 40
21.54260335819754
100
AcDbArc
 50
269.0908128857643
 51
270.4658950932081
  0
ARC
  5
1B976
330
1F
100
AcDbEntity
  8
AM_7
 48
0.12
100
AcDbCircle
 10
22550.91304787894
 20
-375.7844615201284
 30
0.0
 40
27.76679518199758
100
AcDbArc
 50
270.5221293431615
 51
273.0430419682158
  0
ARC
  5
1B977
330
1F
100
AcDbEntity
  8
AM_7
 48
0.12
100
AcDbCircle
 10
22550.90542365167
 20
-375.7876350883125
 30
0.0
 40
27.76403192010967
100
AcDbArc
 50
273.0591013376978
 51
275.5800139626941
  0
ARC
  5
1B978
330
1F
100
AcDbEntity
  8
AM_7
 48
0.12
100
AcDbCircle
 10
22552.05760774257
 20
-387.2800947701289
 30
0.0
 40
16.21402356328814
100
AcDbArc
 50
275.4766648751221
 51
279.1432819005196
  0
ARC
  5
1B979
330
1F
100
AcDbEntity
  8
AM_7
 48
0.12
100
AcDbCircle
 10
22553.50954640924
 20
-396.2996675201321
 30
0.0
 40
7.078334298271382
100
AcDbArc
 50
279.141299657041
 51
282.5787886315495
  0
ARC
  5
1B97A
330
1F
100
AcDbEntity
  8
AM_7
 48
0.12
100
AcDbCircle
 10
22554.2909410759
 20
-399.9159757701308
 30
0.0
 40
3.378744968319888
100
AcDbArc
 50
283.0015041024168
 51
288.500843224501
  0
ARC
  5
1B97B
330
1F
100
AcDbEntity
  8
AM_7
 48
0.12
100
AcDbCircle
 10
22553.05952758873
 20
-396.284711193206
 30
0.0
 40
7.21310919133657
100
AcDbArc
 50
288.624003551312
 51
294.5814224575973
  0
ARC
  5
1B97C
330
1F
100
AcDbEntity
  8
AM_7
 48
0.12
100
AcDbCircle
 10
22551.0525524648
 20
-391.7225897145763
 30
0.0
 40
12.19686042904499
100
AcDbArc
 50
294.2399368906069
 51
298.3647875701692
  0
ARC
  5
1B97D
330
1F
100
AcDbEntity
  8
AM_7
 48
0.12
100
AcDbCircle
 10
22551.06141107591
 20
-391.7087369923502
 30
0.0
 40
12.20484989022738
100
AcDbArc
 50
298.2972981055869
 51
302.4221487851435
  0
ARC
  5
1B97E
330
1F
100
AcDbEntity
  8
AM_7
 48
0.12
100
AcDbCircle
 10
22552.87706724257
 20
-394.5893362701318
 30
0.0
 40
8.799814488055973
100
AcDbArc
 50
302.4990398015575
 51
304.7907945921485
  0
ARC
  5
1B97F
330
1F
100
AcDbEntity
  8
AM_7
 48
0.12
100
AcDbCircle
 10
22563.27868374258
 20
-406.0489364367968
 30
0.0
 40
6.412311761771657
100
AcDbArc
 50
114.0242768614962
 51
116.7743422800443
  0
ARC
  5
1B980
330
1F
100
AcDbEntity
  8
AM_7
 48
0.12
100
AcDbCircle
 10
22566.86362155027
 20
-413.3066315778233
 30
0.0
 40
14.5069904464519
100
AcDbArc
 50
116.5024466879552
 51
119.4816594011504
  0
ARC
  5
1B981
330
1F
100
AcDbEntity
  8
AM_7
 48
0.12
100
AcDbCircle
 10
22571.86784277035
 20
-422.1796580479094
 30
0.0
 40
24.69388217423631
100
AcDbArc
 50
119.4571252120011
 51
121.5197175855334
  0
ARC
  5
1B982
330
1F
100
AcDbEntity
  8
AM_7
 48
0.12
100
AcDbCircle
 10
22571.83250649257
 20
-422.1714740756834
 30
0.0
 40
24.6684456789885
100
AcDbArc
 50
121.4596908102362
 51
123.5222831840518
  0
ARC
  5
1B983
330
1F
100
AcDbEntity
  8
AM_7
 48
0.12
100
AcDbCircle
 10
22568.55331724257
 20
-417.2607150201327
 30
0.0
 40
18.76353119338326
100
AcDbArc
 50
123.4558882635324
 51
124.6017943045865
  0
ARC
  5
1B984
330
1F
100
AcDbEntity
  8
AM_7
 48
0.12
100
AcDbCircle
 10
22567.33297944712
 20
-404.4579494292229
 30
0.0
 40
6.276532673790295
100
AcDbArc
 50
99.80531948815329
 51
102.3262321131596
  0
ARC
  5
1B985
330
1F
100
AcDbEntity
  8
AM_7
 48
0.12
100
AcDbCircle
 10
22568.82912041565
 20
-411.3487242124391
 30
0.0
 40
13.32785691263816
100
AcDbArc
 50
102.2859300784151
 51
105.2651427916674
  0
ARC
  5
1B986
330
1F
100
AcDbEntity
  8
AM_7
 48
0.12
100
AcDbCircle
 10
22571.23312454813
 20
-420.3806175479074
 30
0.0
 40
22.67410223801644
100
AcDbArc
 50
105.1165915283095
 51
107.1791839019548
  0
ARC
  5
1B987
330
1F
100
AcDbEntity
  8
AM_7
 48
0.12
100
AcDbCircle
 10
22571.20306379813
 20
-420.3989133256873
 30
0.0
 40
22.68272865819521
100
AcDbArc
 50
107.0929891766006
 51
109.1555815501875
  0
ARC
  5
1B988
330
1F
100
AcDbEntity
  8
AM_7
 48
0.12
100
AcDbCircle
 10
22569.64192849257
 20
-415.8321837701296
 30
0.0
 40
17.85660780563611
100
AcDbArc
 50
109.2319614602132
 51
110.3778675013605
  0
LINE
  5
1B989
330
1F
100
AcDbEntity
  8
AM_7
 48
0.12
100
AcDbLine
 10
22570.52907974257
 20
-397.8961037701301
 30
0.0
 11
22570.01007974257
 21
-397.9191037701312
 31
0.0
  0
ARC
  5
1B98A
330
1F
100
AcDbEntity
  8
AM_7
 48
0.12
100
AcDbCircle
 10
22572.58663240924
 20
-447.1220004367968
 30
0.0
 40
49.27031219745629
100
AcDbArc
 50
92.99760555146912
 51
94.37268775885632
  0
ARC
  5
1B98B
330
1F
100
AcDbEntity
  8
AM_7
 48
0.12
100
AcDbCircle
 10
22572.57425707591
 20
-447.1286701034623
 30
0.0
 40
49.27602058339843
100
AcDbArc
 50
94.35774891990034
 51
95.7328311274391
  0
ARC
  5
1B98C
330
1F
100
AcDbEntity
  8
AM_7
 48
0.12
100
AcDbCircle
 10
22570.37554096479
 20
-425.8493049645767
 30
0.0
 40
27.88352394087077
100
AcDbArc
 50
95.60517431742578
 51
97.66776669106562
  0
ARC
  5
1B98D
330
1F
100
AcDbEntity
  8
AM_7
 48
0.12
100
AcDbCircle
 10
22568.27196374257
 20
-410.462071770129
 30
0.0
 40
12.35324002286257
100
AcDbArc
 50
97.52087725265294
 51
99.35430308470451
  0
ARC
  5
1B98E
330
1F
100
AcDbEntity
  8
AM_7
 48
0.12
100
AcDbCircle
 10
22573.47969224257
 20
-407.8806162701294
 30
0.0
 40
9.939869578510787
100
AcDbArc
 50
82.35477632489812
 51
84.6465311156192
  0
ARC
  5
1B98F
330
1F
100
AcDbEntity
  8
AM_7
 48
0.12
100
AcDbCircle
 10
22572.51094740924
 20
-418.8017674367946
 30
0.0
 40
20.90383788599465
100
AcDbArc
 50
84.79569665255244
 51
87.54576207130043
  0
ARC
  5
1B990
330
1F
100
AcDbEntity
  8
AM_7
 48
0.12
100
AcDbCircle
 10
22571.69115174257
 20
-434.7717437701321
 30
0.0
 40
36.89451812362914
100
AcDbArc
 50
87.33582227784097
 51
89.16924810967245
  0
ARC
  5
1B991
330
1F
100
AcDbEntity
  8
AM_7
 48
0.12
100
AcDbCircle
 10
22571.66632774257
 20
-434.8167397701289
 30
0.0
 40
36.9398772199643
100
AcDbArc
 50
89.13176065908656
 51
90.96518649118079
  0
ARC
  5
1B992
330
1F
100
AcDbEntity
  8
AM_7
 48
0.12
100
AcDbCircle
 10
22571.48656224257
 20
-423.6384600201308
 30
0.0
 40
25.76015679377139
100
AcDbArc
 50
90.98421864535605
 51
92.13012468651331
  0
LINE
  5
1B993
330
1F
100
AcDbEntity
  8
AM_7
 48
0.12
100
AcDbLine
 10
22574.80307974257
 20
-398.0211037701301
 30
0.0
 11
22578.68307974257
 21
-398.5061037701307
 31
0.0
  0
ARC
  5
1B994
330
1F
100
AcDbEntity
  8
AM_7
 48
0.12
100
AcDbCircle
 10
22580.53833986326
 20
-400.3936087528891
 30
0.0
 40
0.9464396982709843
100
AcDbArc
 50
12.29284788923059
 51
25.57059329053439
  0
ARC
  5
1B995
330
1F
100
AcDbEntity
  8
AM_7
 48
0.12
100
AcDbCircle
 10
22579.88240928104
 20
-400.7527225393604
 30
0.0
 40
1.693618456830559
100
AcDbArc
 50
26.95186895837097
 51
50.70153335626883
  0
ARC
  5
1B996
330
1F
100
AcDbEntity
  8
AM_7
 48
0.12
100
AcDbCircle
 10
22578.76687541565
 20
-402.0310728085933
 30
0.0
 40
3.389837585855288
100
AcDbArc
 50
49.7954058820839
 51
64.67138177479224
  0
ARC
  5
1B997
330
1F
100
AcDbEntity
  8
AM_7
 48
0.12
100
AcDbCircle
 10
22578.1516525118
 20
-403.2495782316691
 30
0.0
 40
4.754532275558969
100
AcDbArc
 50
64.25209743148574
 51
76.15889530396358
  0
ARC
  5
1B998
330
1F
100
AcDbEntity
  8
AM_7
 48
0.12
100
AcDbCircle
 10
22578.06610840386
 20
-403.482674342711
 30
0.0
 40
5.001399167607398
100
AcDbArc
 50
75.84618584136856
 51
82.94858794773604
  0
ARC
  5
1B999
330
1F
100
AcDbEntity
  8
AM_7
 48
0.12
100
AcDbCircle
 10
22577.79956223067
 20
-398.3556643534648
 30
0.0
 40
4.405126850540611
100
AcDbArc
 50
294.7824907457163
 51
299.5946289237724
  0
ARC
  5
1B99A
330
1F
100
AcDbEntity
  8
AM_7
 48
0.12
100
AcDbCircle
 10
22577.91465820955
 20
-398.5231024305067
 30
0.0
 40
4.202727175038383
100
AcDbArc
 50
299.3575548664625
 51
311.4929058884119
  0
ARC
  5
1B99B
330
1F
100
AcDbEntity
  8
AM_7
 48
0.12
100
AcDbCircle
 10
22578.75461133213
 20
-399.427656889533
 30
0.0
 40
2.968840060577455
100
AcDbArc
 50
310.9165384638174
 51
326.2488924600195
  0
ARC
  5
1B99C
330
1F
100
AcDbEntity
  8
AM_7
 48
0.12
100
AcDbCircle
 10
22579.97464295686
 20
-400.2115563891783
 30
0.0
 40
1.519133528231833
100
AcDbArc
 50
325.266239454017
 51
349.2426112505041
  0
ARC
  5
1B99D
330
1F
100
AcDbEntity
  8
AM_7
 48
0.12
100
AcDbCircle
 10
22580.65760836354
 20
-400.3542634583026
 30
0.0
 40
0.8216324646143281
100
AcDbArc
 50
350.1298867160238
 51
11.38278526978524
  0
ARC
  5
1B99E
330
1F
100
AcDbEntity
  8
AM_7
 48
0.12
100
AcDbCircle
 10
22572.31087293702
 20
-391.8557799923547
 30
0.0
 40
12.5411057798513
100
AcDbArc
 50
289.0493995699109
 51
291.1119919436329
  0
ARC
  5
1B99F
330
1F
100
AcDbEntity
  8
AM_7
 48
0.12
100
AcDbCircle
 10
22564.21954774256
 20
-370.8169434367956
 30
0.0
 40
35.08222087049438
100
AcDbArc
 50
291.0633207295987
 51
292.4384029371933
  0
ARC
  5
1B9A0
330
1F
100
AcDbEntity
  8
AM_7
 48
0.12
100
AcDbCircle
 10
22553.87996674258
 20
-345.9255177701307
 30
0.0
 40
62.0356665786713
100
AcDbArc
 50
292.4900945998516
 51
293.4068221828289
  0
ARC
  5
1B9A1
330
1F
100
AcDbEntity
  8
AM_7
 48
0.12
100
AcDbCircle
 10
22553.79048274257
 20
-345.9680107701315
 30
0.0
 40
62.0322976016123
100
AcDbArc
 50
293.4982637223534
 51
294.41499130523
  0
LINE
  5
1B9A2
330
1F
100
AcDbEntity
  8
AM_7
 48
0.12
100
AcDbLine
 10
22579.43107974257
 20
-402.4531037701308
 30
0.0
 11
22579.64607974257
 21
-402.355103770129
 31
0.0
  0
ARC
  5
1B9A3
330
1F
100
AcDbEntity
  8
AM_7
 48
0.12
100
AcDbCircle
 10
22573.69585527035
 20
-394.8826796034627
 30
0.0
 40
9.167451257520767
100
AcDbArc
 50
268.795080770264
 51
270.8576731440365
  0
ARC
  5
1B9A4
330
1F
100
AcDbEntity
  8
AM_7
 48
0.12
100
AcDbCircle
 10
22573.67841771316
 20
-392.1511848289556
 30
0.0
 40
11.8989241309517
100
AcDbArc
 50
270.7447506159025
 51
274.6404883623167
  0
ARC
  5
1B9A5
330
1F
100
AcDbEntity
  8
AM_7
 48
0.12
100
AcDbCircle
 10
22573.70523119845
 20
-392.1454913583657
 30
0.0
 40
11.90246068692364
100
AcDbArc
 50
274.5096199236303
 51
278.4053576700624
  0
ARC
  5
1B9A6
330
1F
100
AcDbEntity
  8
AM_7
 48
0.12
100
AcDbCircle
 10
22574.44110374258
 20
-396.7971717701293
 30
0.0
 40
7.193339147099855
100
AcDbArc
 50
278.0229780871736
 51
283.5223172092522
  0
ARC
  5
1B9A7
330
1F
100
AcDbEntity
  8
AM_7
 48
0.12
100
AcDbCircle
 10
22575.35492883349
 20
-400.5594674519487
 30
0.0
 40
3.321675648242865
100
AcDbArc
 50
283.370913489804
 51
288.4121288759724
  0
ARC
  5
1B9A8
330
1F
100
AcDbEntity
  8
AM_7
 48
0.12
100
AcDbCircle
 10
22565.33509668702
 20
-399.0254432145739
 30
0.0
 40
4.504651489042417
100
AcDbArc
 50
250.8998068644895
 51
255.0246575441757
  0
ARC
  5
1B9A9
330
1F
100
AcDbEntity
  8
AM_7
 48
0.12
100
AcDbCircle
 10
22566.85688007152
 20
-393.3629886122361
 30
0.0
 40
10.36802902207281
100
AcDbArc
 50
254.9865150864244
 51
259.3404704538629
  0
ARC
  5
1B9AA
330
1F
100
AcDbEntity
  8
AM_7
 48
0.12
100
AcDbCircle
 10
22568.05577252829
 20
-387.3262278415568
 30
0.0
 40
16.52249447177768
100
AcDbArc
 50
259.1269636547671
 51
262.3353177060169
  0
ARC
  5
1B9AB
330
1F
100
AcDbEntity
  8
AM_7
 48
0.12
100
AcDbCircle
 10
22568.09794402829
 20
-387.3078986987021
 30
0.0
 40
16.54633128230405
100
AcDbArc
 50
262.1990581991344
 51
265.4074122503629
  0
ARC
  5
1B9AC
330
1F
100
AcDbEntity
  8
AM_7
 48
0.12
100
AcDbCircle
 10
22567.74877974257
 20
-391.6581317701312
 30
0.0
 40
12.18210817070643
100
AcDbArc
 50
265.40609610424
 51
267.2395219362014
  0
ARC
  5
1B9AD
330
1F
100
AcDbEntity
  8
AM_7
 48
0.12
100
AcDbCircle
 10
22586.59693224257
 20
-369.8448825201267
 30
0.0
 40
40.51190636900289
100
AcDbArc
 50
229.684856148532
 51
230.8307621894853
  0
ARC
  5
1B9AE
330
1F
100
AcDbEntity
  8
AM_7
 48
0.12
100
AcDbCircle
 10
22585.15677835369
 20
-371.7638603534652
 30
0.0
 40
38.11465368464558
100
AcDbArc
 50
230.6871661258329
 51
232.7497584995397
  0
ARC
  5
1B9AF
330
1F
100
AcDbEntity
  8
AM_7
 48
0.12
100
AcDbCircle
 10
22576.84668840924
 20
-382.823929770133
 30
0.0
 40
24.28090027846405
100
AcDbArc
 50
232.5614451534973
 51
235.3115105721058
  0
ARC
  5
1B9B0
330
1F
100
AcDbEntity
  8
AM_7
 48
0.12
100
AcDbCircle
 10
22566.94327063912
 20
-397.2777798390962
 30
0.0
 40
6.760429810983851
100
AcDbArc
 50
234.610384306379
 51
241.254832487187
  0
ARC
  5
1B9B1
330
1F
100
AcDbEntity
  8
AM_7
 48
0.12
100
AcDbCircle
 10
22564.29613776284
 20
-402.1032751282399
 30
0.0
 40
1.256547829549617
100
AcDbArc
 50
241.267025006348
 51
249.742933945517
  0
LINE
  5
1B9B2
330
1F
100
AcDbEntity
  8
AM_7
 48
0.12
100
AcDbLine
 10
22563.44107974257
 20
-399.1361037701318
 30
0.0
 11
22560.67907974257
 21
-400.2211037701308
 31
0.0
  0
LINE
  5
1B9B3
330
1F
100
AcDbEntity
  8
AM_7
 48
0.12
100
AcDbLine
 10
22567.16407974257
 20
-403.8101037701308
 30
0.0
 11
22570.54007974257
 21
-403.9571037701316
 31
0.0
  0
LINE
  5
1B9B4
330
1F
100
AcDbEntity
  8
AM_7
 48
0.12
100
AcDbLine
 10
22570.54007974257
 20
-403.9571037701316
 30
0.0
 11
22573.50407974257
 21
-404.0411037701304
 31
0.0
  0
ARC
  5
1B9B5
330
1F
100
AcDbEntity
  8
AM_7
 48
0.12
100
AcDbCircle
 10
22546.82477546479
 20
-223.2193013442047
 30
0.0
 40
2.675422784448163
100
AcDbArc
 50
102.5795999223317
 51
108.7660410966585
  0
ARC
  5
1B9B6
330
1F
100
AcDbEntity
  8
AM_7
 48
0.12
100
AcDbCircle
 10
22550.42675381866
 20
-233.716178096216
 30
0.0
 40
13.77310048074622
100
AcDbArc
 50
108.905834658646
 51
114.1761171784526
  0
ARC
  5
1B9B7
330
1F
100
AcDbEntity
  8
AM_7
 48
0.12
100
AcDbCircle
 10
22565.75914457591
 20
-269.2346849645728
 30
0.0
 40
52.45855725223378
100
AcDbArc
 50
113.5658353576325
 51
115.6284277313009
  0
ARC
  5
1B9B8
330
1F
100
AcDbEntity
  8
AM_7
 48
0.12
100
AcDbCircle
 10
22577.32035249257
 20
-293.6413999844153
 30
0.0
 40
79.46480844110168
100
AcDbArc
 50
115.532589814015
 51
117.136845437878
  0
LINE
  5
1B9B9
330
1F
100
AcDbEntity
  8
AM_7
 48
0.12
100
AcDbLine
 10
22541.07507974257
 20
-222.9241037701286
 30
0.0
 11
22539.87307974258
 21
-223.5501037701288
 31
0.0
  0
ARC
  5
1B9BA
330
1F
100
AcDbEntity
  8
AM_7
 48
0.12
100
AcDbCircle
 10
22551.13756099257
 20
-246.3519500201328
 30
0.0
 40
26.16140706609271
100
AcDbArc
 50
91.06987901882012
 51
92.21578505993127
  0
ARC
  5
1B9BB
330
1F
100
AcDbEntity
  8
AM_7
 48
0.12
100
AcDbCircle
 10
22551.45936668702
 20
-254.1867987145742
 30
0.0
 40
34.00284478428272
100
AcDbArc
 50
92.24720326445526
 51
94.30979563815665
  0
ARC
  5
1B9BC
330
1F
100
AcDbEntity
  8
AM_7
 48
0.12
100
AcDbCircle
 10
22551.43321438146
 20
-254.1949721312412
 30
0.0
 40
34.00904023892931
100
AcDbArc
 50
94.26482605512028
 51
96.32741842862357
  0
ARC
  5
1B9BD
330
1F
100
AcDbEntity
  8
AM_7
 48
0.12
100
AcDbCircle
 10
22549.82347739642
 20
-240.2664485778223
 30
0.0
 40
19.98806089573051
100
AcDbArc
 50
96.14147079795696
 51
99.12068351122751
  0
ARC
  5
1B9BE
330
1F
100
AcDbEntity
  8
AM_7
 48
0.12
100
AcDbCircle
 10
22548.05251540924
 20
-229.1725314367976
 30
0.0
 40
8.753690568023719
100
AcDbArc
 50
99.18597798181245
 51
101.9360434004851
  0
ARC
  5
1B9BF
330
1F
100
AcDbEntity
  8
AM_7
 48
0.12
100
AcDbCircle
 10
22553.5262093259
 20
-227.4430400201309
 30
0.0
 40
7.075212356826018
100
AcDbArc
 50
77.55379241271005
 51
80.99128138734933
  0
ARC
  5
1B9C0
330
1F
100
AcDbEntity
  8
AM_7
 48
0.12
100
AcDbCircle
 10
22552.05760774257
 20
-236.4631127701287
 30
0.0
 40
16.21402356328817
100
AcDbArc
 50
80.85671809948044
 51
84.52333512487781
  0
ARC
  5
1B9C1
330
1F
100
AcDbEntity
  8
AM_7
 48
0.12
100
AcDbCircle
 10
22550.90542365167
 20
-247.9555724519487
 30
0.0
 40
27.76403192010967
100
AcDbArc
 50
84.41998603730587
 51
86.94089866230219
  0
ARC
  5
1B9C2
330
1F
100
AcDbEntity
  8
AM_7
 48
0.12
100
AcDbCircle
 10
22550.91304787894
 20
-247.9587460201292
 30
0.0
 40
27.76679518199762
100
AcDbArc
 50
86.95695803178422
 51
89.47787065683852
  0
ARC
  5
1B9C3
330
1F
100
AcDbEntity
  8
AM_7
 48
0.12
100
AcDbCircle
 10
22550.99091007591
 20
-241.7349949367963
 30
0.0
 40
21.5426033581975
100
AcDbArc
 50
89.53410490679194
 51
90.9091871142357
  0
ARC
  5
1B9C4
330
1F
100
AcDbEntity
  8
AM_7
 48
0.12
100
AcDbCircle
 10
22552.90206474257
 20
-229.1533712701276
 30
0.0
 40
8.785986649020522
100
AcDbArc
 50
55.3449409165567
 51
57.6366957073078
  0
ARC
  5
1B9C5
330
1F
100
AcDbEntity
  8
AM_7
 48
0.12
100
AcDbCircle
 10
22551.06141107591
 20
-232.0344705479074
 30
0.0
 40
12.20484989022719
100
AcDbArc
 50
57.5778512148565
 51
61.70270189441303
  0
ARC
  5
1B9C6
330
1F
100
AcDbEntity
  8
AM_7
 48
0.12
100
AcDbCircle
 10
22551.03866807591
 20
-232.0201178256866
 30
0.0
 40
12.20302305898466
100
AcDbArc
 50
61.57673364527781
 51
65.70158432473424
  0
ARC
  5
1B9C7
330
1F
100
AcDbEntity
  8
AM_7
 48
0.12
100
AcDbCircle
 10
22553.06913647334
 20
-227.4579963470533
 30
0.0
 40
7.209572266128321
100
AcDbArc
 50
65.48967331957969
 51
71.44709222562234
  0
ARC
  5
1B9C8
330
1F
100
AcDbEntity
  8
AM_7
 48
0.12
100
AcDbCircle
 10
22554.28053040924
 20
-223.826731770132
 30
0.0
 40
3.381589185794948
100
AcDbArc
 50
71.32919185218992
 51
76.8285309744543
  0
ARC
  5
1B9C9
330
1F
100
AcDbEntity
  8
AM_7
 48
0.12
100
AcDbCircle
 10
22568.60331599257
 20
-206.48199252013
 30
0.0
 40
18.79155809055649
100
AcDbArc
 50
235.2718578814658
 51
236.4177639226416
  0
ARC
  5
1B9CA
330
1F
100
AcDbEntity
  8
AM_7
 48
0.12
100
AcDbCircle
 10
22571.83250649257
 20
-201.5717334645742
 30
0.0
 40
24.66844567898804
100
AcDbArc
 50
236.4777168159482
 51
238.5403091897638
  0
ARC
  5
1B9CB
330
1F
100
AcDbEntity
  8
AM_7
 48
0.12
100
AcDbCircle
 10
22571.84006724257
 20
-201.5630494923534
 30
0.0
 40
24.6797991919731
100
AcDbArc
 50
238.535858227887
 51
240.5984506015379
  0
ARC
  5
1B9CC
330
1F
100
AcDbEntity
  8
AM_7
 48
0.12
100
AcDbCircle
 10
22566.8828490695
 20
-210.4360759624396
 30
0.0
 40
14.51602785158349
100
AcDbArc
 50
240.451304005681
 51
243.4305167188258
  0
ARC
  5
1B9CD
330
1F
100
AcDbEntity
  8
AM_7
 48
0.12
100
AcDbCircle
 10
22563.25785340924
 20
-217.6937711034625
 30
0.0
 40
6.403402216574853
100
AcDbArc
 50
243.3940744518922
 51
246.144139870408
  0
ARC
  5
1B9CE
330
1F
100
AcDbEntity
  8
AM_7
 48
0.12
100
AcDbCircle
 10
22569.64192849258
 20
-207.911023770128
 30
0.0
 40
17.85660780563658
100
AcDbArc
 50
249.6221324986394
 51
250.7680385397868
  0
ARC
  5
1B9CF
330
1F
100
AcDbEntity
  8
AM_7
 48
0.12
100
AcDbCircle
 10
22571.20306379813
 20
-203.3442942145739
 30
0.0
 40
22.68272865819494
100
AcDbArc
 50
250.8444184498125
 51
252.9070108233994
  0
ARC
  5
1B9D0
330
1F
100
AcDbEntity
  8
AM_7
 48
0.12
100
AcDbCircle
 10
22571.23312454813
 20
-203.3625899923536
 30
0.0
 40
22.6741022380167
100
AcDbArc
 50
252.8208160980452
 51
254.8834084716905
  0
ARC
  5
1B9D1
330
1F
100
AcDbEntity
  8
AM_7
 48
0.12
100
AcDbCircle
 10
22568.82912041565
 20
-212.394483327822
 30
0.0
 40
13.32785691263802
100
AcDbArc
 50
254.7348572083325
 51
257.7140699215849
  0
ARC
  5
1B9D2
330
1F
100
AcDbEntity
  8
AM_7
 48
0.12
100
AcDbCircle
 10
22567.31025492439
 20
-219.28475811104
 30
0.0
 40
6.272209637932577
100
AcDbArc
 50
257.8775435051252
 51
260.398456130131
  0
ARC
  5
1B9D3
330
1F
100
AcDbEntity
  8
AM_7
 48
0.12
100
AcDbCircle
 10
22568.30321174257
 20
-213.2806357701302
 30
0.0
 40
12.35786435839204
100
AcDbArc
 50
260.5023688724545
 51
262.3357947045828
  0
ARC
  5
1B9D4
330
1F
100
AcDbEntity
  8
AM_7
 48
0.12
100
AcDbCircle
 10
22570.3755409648
 20
-197.8939025756845
 30
0.0
 40
27.88352394087095
100
AcDbArc
 50
262.3322333089344
 51
264.3948256825742
  0
ARC
  5
1B9D5
330
1F
100
AcDbEntity
  8
AM_7
 48
0.12
100
AcDbCircle
 10
22572.53259190924
 20
-176.6140374367969
 30
0.0
 40
49.27237363533488
100
AcDbArc
 50
264.3154344656559
 51
265.690516673222
  0
ARC
  5
1B9D6
330
1F
100
AcDbEntity
  8
AM_7
 48
0.12
100
AcDbCircle
 10
22572.6282975759
 20
-176.6207071034623
 30
0.0
 40
49.27300790656236
100
AcDbArc
 50
265.5789597240467
 51
266.9540419314647
  0
LINE
  5
1B9D7
330
1F
100
AcDbEntity
  8
AM_7
 48
0.12
100
AcDbLine
 10
22570.01007974257
 20
-225.82410377013
 30
0.0
 11
22570.52907974257
 21
-225.8471037701311
 31
0.0
  0
ARC
  5
1B9D8
330
1F
100
AcDbEntity
  8
AM_7
 48
0.12
100
AcDbCircle
 10
22571.48656224257
 20
-200.1047475201303
 30
0.0
 40
25.76015679377139
100
AcDbArc
 50
267.8698753134867
 51
269.0157813546439
  0
ARC
  5
1B9D9
330
1F
100
AcDbEntity
  8
AM_7
 48
0.12
100
AcDbCircle
 10
22571.66632774257
 20
-188.9264677701285
 30
0.0
 40
36.93987721996432
100
AcDbArc
 50
269.0348135088192
 51
270.8682393409134
  0
ARC
  5
1B9DA
330
1F
100
AcDbEntity
  8
AM_7
 48
0.12
100
AcDbCircle
 10
22571.69115174257
 20
-188.971463770129
 30
0.0
 40
36.89451812362913
100
AcDbArc
 50
270.8307518903275
 51
272.664177722159
  0
ARC
  5
1B9DB
330
1F
100
AcDbEntity
  8
AM_7
 48
0.12
100
AcDbCircle
 10
22572.49011707591
 20
-204.9409401034645
 30
0.0
 40
20.90523974964554
100
AcDbArc
 50
272.511217371024
 51
275.261282789623
  0
ARC
  5
1B9DC
330
1F
100
AcDbEntity
  8
AM_7
 48
0.12
100
AcDbCircle
 10
22573.50468974257
 20
-215.8620912701299
 30
0.0
 40
9.937070549827355
100
AcDbArc
 50
275.21023426672
 51
277.5019890574031
  0
LINE
  5
1B9DD
330
1F
100
AcDbEntity
  8
AM_7
 48
0.12
100
AcDbLine
 10
22578.68307974257
 20
-225.2371037701305
 30
0.0
 11
22574.80307974257
 21
-225.7221037701311
 31
0.0
  0
ARC
  5
1B9DE
330
1F
100
AcDbEntity
  8
AM_7
 48
0.12
100
AcDbCircle
 10
22578.07416517
 20
-220.2600331975482
 30
0.0
 40
4.999920197131134
100
AcDbArc
 50
276.9604884864626
 51
284.0628905926116
  0
ARC
  5
1B9DF
330
1F
100
AcDbEntity
  8
AM_7
 48
0.12
100
AcDbCircle
 10
22578.1468578195
 20
-220.4931293085901
 30
0.0
 40
4.756166954602868
100
AcDbArc
 50
283.8957464471091
 51
295.8025443194663
  0
ARC
  5
1B9E0
330
1F
100
AcDbEntity
  8
AM_7
 48
0.12
100
AcDbCircle
 10
22578.76687541565
 20
-221.7111347316677
 30
0.0
 40
3.389837585855248
100
AcDbArc
 50
295.3286182252078
 51
310.2045941179161
  0
ARC
  5
1B9E1
330
1F
100
AcDbEntity
  8
AM_7
 48
0.12
100
AcDbCircle
 10
22579.88478712719
 20
-222.9899850008987
 30
0.0
 40
1.691726181164636
100
AcDbArc
 50
309.2468706437673
 51
332.996535041661
  0
ARC
  5
1B9E2
330
1F
100
AcDbEntity
  8
AM_7
 48
0.12
100
AcDbCircle
 10
22580.53404401843
 20
-223.3490987873702
 30
0.0
 40
0.9505316300985937
100
AcDbArc
 50
334.5139857351094
 51
347.7917311362788
  0
ARC
  5
1B9E3
330
1F
100
AcDbEntity
  8
AM_7
 48
0.12
100
AcDbCircle
 10
22580.66027328558
 20
-223.3884440819565
 30
0.0
 40
0.8189212795889455
100
AcDbArc
 50
348.6147105988611
 51
9.867609152458401
  0
ARC
  5
1B9E4
330
1F
100
AcDbEntity
  8
AM_7
 48
0.12
100
AcDbCircle
 10
22579.97228825448
 20
-223.5311511510809
 30
0.0
 40
1.521353809192962
100
AcDbArc
 50
10.72233685319729
 51
34.69870864950089
  0
ARC
  5
1B9E5
330
1F
100
AcDbEntity
  8
AM_7
 48
0.12
100
AcDbCircle
 10
22578.75461133213
 20
-224.3145506507281
 30
0.0
 40
2.968840060577433
100
AcDbArc
 50
33.75110753998048
 51
49.08346153618271
  0
ARC
  5
1B9E6
330
1F
100
AcDbEntity
  8
AM_7
 48
0.12
100
AcDbCircle
 10
22577.91936194069
 20
-225.2196051097526
 30
0.0
 40
4.199987112329508
100
AcDbArc
 50
48.55967728912236
 51
60.69502831126997
  0
ARC
  5
1B9E7
330
1F
100
AcDbEntity
  8
AM_7
 48
0.12
100
AcDbCircle
 10
22577.79956223067
 20
-225.3875431867964
 30
0.0
 40
4.405126850540468
100
AcDbArc
 50
60.40537107622759
 51
65.21750925428364
  0
LINE
  5
1B9E8
330
1F
100
AcDbEntity
  8
AM_7
 48
0.12
100
AcDbLine
 10
22579.64607974257
 20
-221.3881037701285
 30
0.0
 11
22579.43107974257
 21
-221.2901037701304
 31
0.0
  0
ARC
  5
1B9E9
330
1F
100
AcDbEntity
  8
AM_7
 48
0.12
100
AcDbCircle
 10
22553.79048274257
 20
-277.7751967701297
 30
0.0
 40
62.03229760161084
100
AcDbArc
 50
65.58500869476995
 51
66.50173627764664
  0
ARC
  5
1B9EA
330
1F
100
AcDbEntity
  8
AM_7
 48
0.12
100
AcDbCircle
 10
22553.87996674258
 20
-277.8176897701305
 30
0.0
 40
62.0356665786713
100
AcDbArc
 50
66.59317781717111
 51
67.50990540014829
  0
ARC
  5
1B9EB
330
1F
100
AcDbEntity
  8
AM_7
 48
0.12
100
AcDbCircle
 10
22564.17788257591
 20
-252.9257641034637
 30
0.0
 40
35.0976832394534
100
AcDbArc
 50
67.49841806544262
 51
68.87350027280444
  0
ARC
  5
1B9EC
330
1F
100
AcDbEntity
  8
AM_7
 48
0.12
100
AcDbCircle
 10
22572.31087293702
 20
-231.8864275479064
 30
0.0
 40
12.54110577985161
100
AcDbArc
 50
68.88800805636718
 51
70.95060043008915
  0
ARC
  5
1B9ED
330
1F
100
AcDbEntity
  8
AM_7
 48
0.12
100
AcDbCircle
 10
22575.34357069712
 20
-223.1832400883104
 30
0.0
 40
3.324806690810133
100
AcDbArc
 50
71.3994363446978
 51
76.44065173056842
  0
ARC
  5
1B9EE
330
1F
100
AcDbEntity
  8
AM_7
 48
0.12
100
AcDbCircle
 10
22574.44110374258
 20
-226.9450357701316
 30
0.0
 40
7.193339147099846
100
AcDbArc
 50
76.47768279074772
 51
81.9770219128264
  0
ARC
  5
1B9EF
330
1F
100
AcDbEntity
  8
AM_7
 48
0.12
100
AcDbCircle
 10
22573.71993283081
 20
-231.5972161818936
 30
0.0
 40
11.90081527362213
100
AcDbArc
 50
81.66501410111591
 51
85.56075184744578
  0
ARC
  5
1B9F0
330
1F
100
AcDbEntity
  8
AM_7
 48
0.12
100
AcDbCircle
 10
22573.67841771316
 20
-231.5920227113056
 30
0.0
 40
11.89892413095174
100
AcDbArc
 50
85.35951163768329
 51
89.25524938409743
  0
ARC
  5
1B9F1
330
1F
100
AcDbEntity
  8
AM_7
 48
0.12
100
AcDbCircle
 10
22573.69585527035
 20
-228.8605279367948
 30
0.0
 40
9.167451257520813
100
AcDbArc
 50
89.14232685596351
 51
91.20491922973604
  0
ARC
  5
1B9F2
330
1F
100
AcDbEntity
  8
AM_7
 48
0.12
100
AcDbCircle
 10
22567.74877974258
 20
-232.08507577013
 30
0.0
 40
12.1821081707065
100
AcDbArc
 50
92.7604780637986
 51
94.59390389575998
  0
ARC
  5
1B9F3
330
1F
100
AcDbEntity
  8
AM_7
 48
0.12
100
AcDbCircle
 10
22568.09794402829
 20
-236.4353088415592
 30
0.0
 40
16.54633128230398
100
AcDbArc
 50
94.59258774963712
 51
97.80094180086573
  0
ARC
  5
1B9F4
330
1F
100
AcDbEntity
  8
AM_7
 48
0.12
100
AcDbCircle
 10
22568.05577252829
 20
-236.4169796987007
 30
0.0
 40
16.52249447177765
100
AcDbArc
 50
97.6646822939832
 51
100.8730363452328
  0
ARC
  5
1B9F5
330
1F
100
AcDbEntity
  8
AM_7
 48
0.12
100
AcDbCircle
 10
22566.84372692678
 20
-230.3797189280231
 30
0.0
 40
10.36511262514778
100
AcDbArc
 50
100.5885880973159
 51
104.9425434647559
  0
ARC
  5
1B9F6
330
1F
100
AcDbEntity
  8
AM_7
 48
0.12
100
AcDbCircle
 10
22565.34898107591
 20
-224.7172643256854
 30
0.0
 40
4.508741848055009
100
AcDbArc
 50
105.1441472482838
 51
109.2689979277712
  0
ARC
  5
1B9F7
330
1F
100
AcDbEntity
  8
AM_7
 48
0.12
100
AcDbCircle
 10
22564.29613776284
 20
-221.6399324120212
 30
0.0
 40
1.256547829549615
100
AcDbArc
 50
110.257066054483
 51
118.732974993652
  0
ARC
  5
1B9F8
330
1F
100
AcDbEntity
  8
AM_7
 48
0.12
100
AcDbCircle
 10
22566.94327063912
 20
-226.465427701165
 30
0.0
 40
6.760429810983827
100
AcDbArc
 50
118.745167512813
 51
125.389615693621
  0
ARC
  5
1B9F9
330
1F
100
AcDbEntity
  8
AM_7
 48
0.12
100
AcDbCircle
 10
22576.82585807591
 20
-240.9187777701299
 30
0.0
 40
24.26864015271645
100
AcDbArc
 50
124.6487239746192
 51
127.3987893932222
  0
ARC
  5
1B9FA
330
1F
100
AcDbEntity
  8
AM_7
 48
0.12
100
AcDbCircle
 10
22585.15677835368
 20
-251.9783471867959
 30
0.0
 40
38.11465368464507
100
AcDbArc
 50
127.2502415004603
 51
129.312833874167
  0
ARC
  5
1B9FB
330
1F
100
AcDbEntity
  8
AM_7
 48
0.12
100
AcDbCircle
 10
22586.64693099257
 20
-253.8978250201326
 30
0.0
 40
40.54389210815226
100
AcDbArc
 50
129.2235708935352
 51
130.3694769347085
  0
LINE
  5
1B9FC
330
1F
100
AcDbEntity
  8
AM_7
 48
0.12
100
AcDbLine
 10
22560.67907974257
 20
-223.5221037701303
 30
0.0
 11
22563.44107974257
 21
-224.6071037701295
 31
0.0
  0
LINE
  5
1B9FD
330
1F
100
AcDbEntity
  8
AM_7
 48
0.12
100
AcDbLine
 10
22573.50407974257
 20
-219.7021037701306
 30
0.0
 11
22570.54007974257
 21
-219.7851037701294
 31
0.0
  0
LINE
  5
1B9FE
330
1F
100
AcDbEntity
  8
AM_7
 48
0.12
100
AcDbLine
 10
22570.54007974257
 20
-219.7851037701294
 30
0.0
 11
22567.16407974257
 21
-219.9321037701302
 31
0.0
  0
LINE
  5
1BA56
330
1F
100
AcDbEntity
  8
AM_0
100
AcDbLine
 10
22544.66407974257
 20
-295.8711037701287
 30
0.0
 11
22538.34307974257
 21
-289.5501037701288
 31
0.0
  0
LINE
  5
1BA57
330
1F
100
AcDbEntity
  8
AM_0
100
AcDbLine
 10
22568.12907974257
 20
-304.4061037701285
 30
0.0
 11
22582.98507974257
 21
-289.5501037701288
 31
0.0
  0
LINE
  5
1BA58
330
1F
100
AcDbEntity
  8
AM_0
100
AcDbLine
 10
22538.82307974257
 20
-333.712103770129
 30
0.0
 11
22553.19907974257
 21
-319.3361037701288
 31
0.0
  0
LINE
  5
1BA59
330
1F
100
AcDbEntity
  8
AM_0
100
AcDbLine
 10
22582.50407974257
 20
-333.712103770129
 30
0.0
 11
22568.12907974257
 21
-319.3361037701288
 31
0.0
  0
LINE
  5
1BA5A
330
1F
100
AcDbEntity
  8
AM_0
100
AcDbLine
 10
22590.43007974257
 20
-350.7141037701294
 30
0.0
 11
22590.43007974257
 21
-335.2941037701312
 31
0.0
  0
LINE
  5
1BA5B
330
1F
100
AcDbEntity
  8
AM_0
100
AcDbLine
 10
22530.90707974259
 20
-350.7141037701294
 30
0.0
 11
22530.90707974259
 21
-335.2941037701312
 31
0.0
  0
LINE
  5
1BA5C
330
1F
100
AcDbEntity
  8
AM_0
100
AcDbLine
 10
22590.43007974257
 20
-272.5471037701318
 30
0.0
 11
22590.43007974257
 21
-287.96710377013
 31
0.0
  0
LINE
  5
1BA5D
330
1F
100
AcDbEntity
  8
AM_0
100
AcDbLine
 10
22530.90707974259
 20
-272.5471037701318
 30
0.0
 11
22530.90707974259
 21
-287.96710377013
 31
0.0
  0
LINE
  5
1BA5E
330
1F
100
AcDbEntity
  8
AM_0
100
AcDbLine
 10
22537.25307974257
 20
-330.7201037701307
 30
0.0
 11
22525.34507974257
 21
-330.7201037701307
 31
0.0
  0
LINE
  5
1BA5F
330
1F
100
AcDbEntity
  8
AM_0
100
AcDbLine
 10
22563.89107974257
 20
-299.4201037701314
 30
0.0
 11
22549.05107974257
 21
-306.3401037701297
 31
0.0
  0
LINE
  5
1BA60
330
1F
100
AcDbEntity
  8
AM_0
100
AcDbLine
 10
22573.11507974257
 20
-315.0991037701315
 30
0.0
 11
22566.19407974258
 21
-300.2581037701312
 31
0.0
  0
LINE
  5
1BA61
330
1F
100
AcDbEntity
  8
AM_0
100
AcDbLine
 10
22548.21307974257
 20
-308.6431037701296
 30
0.0
 11
22555.13307974257
 21
-323.4841037701299
 31
0.0
  0
LINE
  5
1BA62
330
1F
100
AcDbEntity
  8
AM_0
100
AcDbLine
 10
22557.43607974257
 20
-324.3221037701296
 30
0.0
 11
22572.27707974257
 21
-317.4021037701314
 31
0.0
  0
LINE
  5
1BA63
330
1F
100
AcDbEntity
  8
AM_0
100
AcDbLine
 10
22558.50007974257
 20
-301.9341037701306
 30
0.0
 11
22440.02237767908
 21
-250.0170978890164
 31
0.0
  0
ARC
  5
1BA64
330
1F
100
AcDbEntity
  8
AM_0
100
AcDbCircle
 10
22438.38607974259
 20
-267.3661037701313
 30
0.0
 40
17.42600000000067
100
AcDbArc
 50
84.61199999997608
 51
235.3879999998939
  0
LINE
  5
1BA65
330
1F
100
AcDbEntity
  8
AM_0
100
AcDbLine
 10
22428.48783066336
 20
-281.7080053583413
 30
0.0
 11
22552.61907974257
 21
-318.09210377013
 31
0.0
  0
DIMENSION
  5
1BA7C
102
{ACAD_XDICTIONARY
360
1BA8B
102
}
102
{ACAD_REACTORS
330
1BA8C
102
}
330
1F
100
AcDbEntity
  8
AM_5
100
AcDbDimension
  2
*D2
 10
22581.46307974258
 20
-250.7591598238946
 30
0.0
 11
22626.32273185718
 21
-239.6674135755999
 31
0.0
 70
    32
  1
Rp 1 1/2
 71
     5
 42
41.59000000000014
  3
GEN-ISO$0
100
AcDbAlignedDimension
 13
22539.87307974258
 23
-270.9651037701296
 33
0.0
 14
22581.46307974258
 24
-270.9651037701296
 34
0.0
100
AcDbRotatedDimension
1001
ACAD
1000
DSTYLE
1002
{
1070
    41
1040
1.0
1070
    42
1040
0.5
1070
    44
1040
0.5
1070
   140
1040
1.25
1070
   147
1040
0.3
1070
   271
1070
     0
1002
}
1001
ACAD_DSTYLE_DIMINSPECT
1070
   396
1000
100%
1070
   395
1000

1070
   394
1070
    33
1070
   393
1070
     0
  0
LINE
  5
1BB08
330
1F
100
AcDbEntity
  8
AM_5
 62
     3
100
AcDbLine
 10
22341.74560989078
 20
-311.3785583926212
 30
0.0
 11
22368.73310989078
 21
-311.3785583926212
 31
0.0
  0
SOLID
  5
1BB0B
330
1F
100
AcDbEntity
  8
AM_5
 62
     3
100
AcDbTrace
 10
22368.73310989078
 20
-303.0452250592879
 30
0.0
 11
22368.73310989078
 21
-319.7118917259546
 31
0.0
 12
22418.73310989078
 22
-311.3785583926212
 32
0.0
 13
22418.73310989078
 23
-311.3785583926212
 33
0.0
  0
LINE
  5
1BBC2
330
1F
100
AcDbEntity
  8
AM_7
 48
0.12
100
AcDbLine
 10
22459.71691208318
 20
-290.8615583928659
 30
0.0
 11
22438.86510989091
 21
-290.8615583928659
 31
0.0
  0
LINE
  5
1BBC3
330
1F
100
AcDbEntity
  8
AM_7
 48
0.12
100
AcDbLine
 10
22506.2791098909
 20
-332.4515583928659
 30
0.0
 11
22438.86510989091
 21
-332.4515583928659
 31
0.0
  0
LINE
  5
1BBC4
330
1F
100
AcDbEntity
  8
AM_7
 48
0.12
100
AcDbLine
 10
22438.86410989091
 20
-290.8615583928659
 30
0.0
 11
22438.23910989091
 21
-292.0625583928631
 31
0.0
  0
ARC
  5
1BBC5
330
1F
100
AcDbEntity
  8
AM_7
 48
0.12
100
AcDbCircle
 10
22508.99161864091
 20
-328.3440436785785
 30
0.0
 40
79.51266357603893
100
AcDbArc
 50
152.8515061304837
 51
154.4557617541833
  0
ARC
  5
1BBC6
330
1F
100
AcDbEntity
  8
AM_7
 48
0.12
100
AcDbCircle
 10
22484.54869108535
 20
-316.7476232261979
 30
0.0
 40
52.45855725223382
100
AcDbArc
 50
154.3715722687028
 51
156.4341646423894
  0
ARC
  5
1BBC7
330
1F
100
AcDbEntity
  8
AM_7
 48
0.12
100
AcDbCircle
 10
22449.030184217
 20
-301.415232468953
 30
0.0
 40
13.7731004807461
100
AcDbArc
 50
155.8238828215193
 51
161.0941653413719
  0
ARC
  5
1BBC8
330
1F
100
AcDbEntity
  8
AM_7
 48
0.12
100
AcDbCircle
 10
22438.53330746498
 20
-297.813254115088
 30
0.0
 40
2.675422784448221
100
AcDbArc
 50
161.2339589033538
 51
167.4204000776901
  0
ARC
  5
1BBC9
330
1F
100
AcDbEntity
  8
AM_7
 48
0.12
100
AcDbCircle
 10
22444.48703755757
 20
-299.0201637261961
 30
0.0
 40
8.749895609910486
100
AcDbArc
 50
168.1980852674069
 51
170.9481506859743
  0
ARC
  5
1BBCA
330
1F
100
AcDbEntity
  8
AM_7
 48
0.12
100
AcDbCircle
 10
22455.5814546986
 20
-300.8119560467093
 30
0.0
 40
19.98806089573045
100
AcDbArc
 50
170.8793164887621
 51
173.8585292020395
  0
ARC
  5
1BBCB
330
1F
100
AcDbEntity
  8
AM_7
 48
0.12
100
AcDbCircle
 10
22469.50997825202
 20
-302.4216930317525
 30
0.0
 40
34.00904023892931
100
AcDbArc
 50
173.6725815713749
 51
175.7351739448842
  0
ARC
  5
1BBCC
330
1F
100
AcDbEntity
  8
AM_7
 48
0.12
100
AcDbCircle
 10
22469.50130483535
 20
-302.4756208650869
 30
0.0
 40
34.00444481749458
100
AcDbArc
 50
175.6434730152276
 51
177.70606538884
  0
ARC
  5
1BBCD
330
1F
100
AcDbEntity
  8
AM_7
 48
0.12
100
AcDbCircle
 10
22461.66595614091
 20
-302.1260396428623
 30
0.0
 40
26.16140706609269
100
AcDbArc
 50
177.7842149400674
 51
178.9301209811805
  0
ARC
  5
1BBCE
330
1F
100
AcDbEntity
  8
AM_7
 48
0.12
100
AcDbCircle
 10
22457.04900105757
 20
-301.9793887261985
 30
0.0
 40
21.54260335819754
100
AcDbArc
 50
179.0908128857637
 51
180.4658950932078
  0
ARC
  5
1BBCF
330
1F
100
AcDbEntity
  8
AM_7
 48
0.12
100
AcDbCircle
 10
22463.27275214091
 20
-301.9015265292291
 30
0.0
 40
27.76679518199758
100
AcDbArc
 50
180.5221293431618
 51
183.0430419682184
  0
ARC
  5
1BBD0
330
1F
100
AcDbEntity
  8
AM_7
 48
0.12
100
AcDbCircle
 10
22463.26957857272
 20
-301.8939023019556
 30
0.0
 40
27.76403192010967
100
AcDbArc
 50
183.0591013376983
 51
185.5800139626974
  0
ARC
  5
1BBD1
330
1F
100
AcDbEntity
  8
AM_7
 48
0.12
100
AcDbCircle
 10
22451.77711889091
 20
-303.0460863928638
 30
0.0
 40
16.21402356328814
100
AcDbArc
 50
185.4766648751292
 51
189.1432819005109
  0
ARC
  5
1BBD2
330
1F
100
AcDbEntity
  8
AM_7
 48
0.12
100
AcDbCircle
 10
22442.7575461409
 20
-304.4980250595326
 30
0.0
 40
7.078334298271382
100
AcDbArc
 50
189.1412996570319
 51
192.5787886315286
  0
ARC
  5
1BBD3
330
1F
100
AcDbEntity
  8
AM_7
 48
0.12
100
AcDbCircle
 10
22439.14123789091
 20
-305.2794197261973
 30
0.0
 40
3.378744968319888
100
AcDbArc
 50
193.0015041024204
 51
198.5008432245101
  0
ARC
  5
1BBD4
330
1F
100
AcDbEntity
  8
AM_7
 48
0.12
100
AcDbCircle
 10
22442.77250246784
 20
-304.0480062390197
 30
0.0
 40
7.21310919133657
100
AcDbArc
 50
198.6240035513208
 51
204.5814224575926
  0
ARC
  5
1BBD5
330
1F
100
AcDbEntity
  8
AM_7
 48
0.12
100
AcDbCircle
 10
22447.33462394646
 20
-302.0410311150881
 30
0.0
 40
12.19686042904499
100
AcDbArc
 50
204.2399368906299
 51
208.3647875701851
  0
ARC
  5
1BBD6
330
1F
100
AcDbEntity
  8
AM_7
 48
0.12
100
AcDbCircle
 10
22447.34847666868
 20
-302.0498897261968
 30
0.0
 40
12.20484989022738
100
AcDbArc
 50
208.2972981056123
 51
212.4221487851689
  0
ARC
  5
1BBD7
330
1F
100
AcDbEntity
  8
AM_7
 48
0.12
100
AcDbCircle
 10
22444.4678773909
 20
-303.8655458928624
 30
0.0
 40
8.799814488055973
100
AcDbArc
 50
212.4990398015743
 51
214.7907945921728
  0
ARC
  5
1BBD8
330
1F
100
AcDbEntity
  8
AM_7
 48
0.12
100
AcDbCircle
 10
22433.00827722424
 20
-314.2671623928654
 30
0.0
 40
6.412311761771657
100
AcDbArc
 50
24.02427686148135
 51
26.77434228005366
  0
ARC
  5
1BBD9
330
1F
100
AcDbEntity
  8
AM_7
 48
0.12
100
AcDbCircle
 10
22425.75058208321
 20
-317.8521002005581
 30
0.0
 40
14.5069904464519
100
AcDbArc
 50
26.50244668795034
 51
29.4816594011736
  0
ARC
  5
1BBDA
330
1F
100
AcDbEntity
  8
AM_7
 48
0.12
100
AcDbCircle
 10
22416.87755561313
 20
-322.8563214206405
 30
0.0
 40
24.69388217423631
100
AcDbArc
 50
29.45712521199951
 51
31.51971758556904
  0
ARC
  5
1BBDB
330
1F
100
AcDbEntity
  8
AM_7
 48
0.12
100
AcDbCircle
 10
22416.88573958535
 20
-322.8209851428655
 30
0.0
 40
24.6684456789885
100
AcDbArc
 50
31.45969081025046
 51
33.52228318403252
  0
ARC
  5
1BBDC
330
1F
100
AcDbEntity
  8
AM_7
 48
0.12
100
AcDbCircle
 10
22421.7964986409
 20
-319.5417958928628
 30
0.0
 40
18.76353119338326
100
AcDbArc
 50
33.4558882635198
 51
34.60179430460799
  0
ARC
  5
1BBDD
330
1F
100
AcDbEntity
  8
AM_7
 48
0.12
100
AcDbCircle
 10
22434.59926423181
 20
-318.321458097409
 30
0.0
 40
6.276532673790295
100
AcDbArc
 50
9.805319488139843
 51
12.32623211314778
  0
ARC
  5
1BBDE
330
1F
100
AcDbEntity
  8
AM_7
 48
0.12
100
AcDbCircle
 10
22427.7084894486
 20
-319.8175990659402
 30
0.0
 40
13.32785691263816
100
AcDbArc
 50
12.28593007841372
 51
15.26514279167733
  0
ARC
  5
1BBDF
330
1F
100
AcDbEntity
  8
AM_7
 48
0.12
100
AcDbCircle
 10
22418.67659611313
 20
-322.2216031984207
 30
0.0
 40
22.67410223801644
100
AcDbArc
 50
15.11659152833442
 51
17.17918390196091
  0
ARC
  5
1BBE0
330
1F
100
AcDbEntity
  8
AM_7
 48
0.12
100
AcDbCircle
 10
22418.65830033535
 20
-322.1915424484213
 30
0.0
 40
22.68272865819521
100
AcDbArc
 50
17.09298917663437
 51
19.15558155020979
  0
ARC
  5
1BBE1
330
1F
100
AcDbEntity
  8
AM_7
 48
0.12
100
AcDbCircle
 10
22423.2250298909
 20
-320.6304071428639
 30
0.0
 40
17.85660780563611
100
AcDbArc
 50
19.23196146022714
 51
20.37786750136167
  0
LINE
  5
1BBE2
330
1F
100
AcDbEntity
  8
AM_7
 48
0.12
100
AcDbLine
 10
22441.16110989091
 20
-321.5175583928648
 30
0.0
 11
22441.13810989091
 21
-320.9985583928646
 31
0.0
  0
ARC
  5
1BBE3
330
1F
100
AcDbEntity
  8
AM_7
 48
0.12
100
AcDbCircle
 10
22391.93521322424
 20
-323.5751110595301
 30
0.0
 40
49.27031219745629
100
AcDbArc
 50
2.997605551474748
 51
4.372687758860071
  0
ARC
  5
1BBE4
330
1F
100
AcDbEntity
  8
AM_7
 48
0.12
100
AcDbCircle
 10
22391.92854355757
 20
-323.5627357261983
 30
0.0
 40
49.27602058339843
100
AcDbArc
 50
4.357748919907348
 51
5.732831127438854
  0
ARC
  5
1BBE5
330
1F
100
AcDbEntity
  8
AM_7
 48
0.12
100
AcDbCircle
 10
22413.20790869646
 20
-321.3640196150845
 30
0.0
 40
27.88352394087077
100
AcDbArc
 50
5.605174317429477
 51
7.667766691056561
  0
ARC
  5
1BBE6
330
1F
100
AcDbEntity
  8
AM_7
 48
0.12
100
AcDbCircle
 10
22428.59514189091
 20
-319.2604423928642
 30
0.0
 40
12.35324002286257
100
AcDbArc
 50
7.520877252661787
 51
9.354303084717482
  0
ARC
  5
1BBE7
330
1F
100
AcDbEntity
  8
AM_7
 48
0.12
100
AcDbCircle
 10
22431.17659739091
 20
-324.4681708928657
 30
0.0
 40
9.939869578510787
100
AcDbArc
 50
352.3547763249044
 51
354.646531115628
  0
ARC
  5
1BBE8
330
1F
100
AcDbEntity
  8
AM_7
 48
0.12
100
AcDbCircle
 10
22420.25544622424
 20
-323.4994260595303
 30
0.0
 40
20.90383788599465
100
AcDbArc
 50
354.7956966525443
 51
357.545762071296
  0
ARC
  5
1BBE9
330
1F
100
AcDbEntity
  8
AM_7
 48
0.12
100
AcDbCircle
 10
22404.2854698909
 20
-322.679630392864
 30
0.0
 40
36.89451812362914
100
AcDbArc
 50
357.3358222778372
 51
359.1692481096725
  0
ARC
  5
1BBEA
330
1F
100
AcDbEntity
  8
AM_7
 48
0.12
100
AcDbCircle
 10
22404.24047389091
 20
-322.6548063928639
 30
0.0
 40
36.9398772199643
100
AcDbArc
 50
359.1317606590879
 51
0.9651864911821682
  0
ARC
  5
1BBEB
330
1F
100
AcDbEntity
  8
AM_7
 48
0.12
100
AcDbCircle
 10
22415.41875364091
 20
-322.475040892863
 30
0.0
 40
25.76015679377139
100
AcDbArc
 50
0.9842186453554731
 51
2.130124686515773
  0
LINE
  5
1BBEC
330
1F
100
AcDbEntity
  8
AM_7
 48
0.12
100
AcDbLine
 10
22441.03610989091
 20
-325.7915583928661
 30
0.0
 11
22440.55110989091
 21
-329.6715583928635
 31
0.0
  0
ARC
  5
1BBED
330
1F
100
AcDbEntity
  8
AM_7
 48
0.12
100
AcDbCircle
 10
22438.66360490815
 20
-331.5268185135537
 30
0.0
 40
0.9464396982709843
100
AcDbArc
 50
282.2928478892418
 51
295.5705932905395
  0
ARC
  5
1BBEE
330
1F
100
AcDbEntity
  8
AM_7
 48
0.12
100
AcDbCircle
 10
22438.30449112167
 20
-330.8708879313272
 30
0.0
 40
1.693618456830559
100
AcDbArc
 50
296.9518689583817
 51
320.7015333562403
  0
ARC
  5
1BBEF
330
1F
100
AcDbEntity
  8
AM_7
 48
0.12
100
AcDbCircle
 10
22437.02614085244
 20
-329.7553540659428
 30
0.0
 40
3.389837585855288
100
AcDbArc
 50
319.7954058820842
 51
334.6713817748223
  0
ARC
  5
1BBF0
330
1F
100
AcDbEntity
  8
AM_7
 48
0.12
100
AcDbCircle
 10
22435.80763542937
 20
-329.1401311620938
 30
0.0
 40
4.754532275558969
100
AcDbArc
 50
334.2520974315225
 51
346.158895303946
  0
ARC
  5
1BBF1
330
1F
100
AcDbEntity
  8
AM_7
 48
0.12
100
AcDbCircle
 10
22435.57453931833
 20
-329.0545870541536
 30
0.0
 40
5.001399167607398
100
AcDbArc
 50
345.8461858413614
 51
352.9485879477352
  0
ARC
  5
1BBF2
330
1F
100
AcDbEntity
  8
AM_7
 48
0.12
100
AcDbCircle
 10
22440.70154930757
 20
-328.7880408809578
 30
0.0
 40
4.405126850540611
100
AcDbArc
 50
204.782490745687
 51
209.5946289238241
  0
ARC
  5
1BBF3
330
1F
100
AcDbEntity
  8
AM_7
 48
0.12
100
AcDbCircle
 10
22440.53411123053
 20
-328.9031368598443
 30
0.0
 40
4.202727175038383
100
AcDbArc
 50
209.3575548664355
 51
221.4929058884433
  0
ARC
  5
1BBF4
330
1F
100
AcDbEntity
  8
AM_7
 48
0.12
100
AcDbCircle
 10
22439.6295567715
 20
-329.7430899824175
 30
0.0
 40
2.968840060577455
100
AcDbArc
 50
220.9165384638267
 51
236.2488924599885
  0
ARC
  5
1BBF5
330
1F
100
AcDbEntity
  8
AM_7
 48
0.12
100
AcDbCircle
 10
22438.84565727186
 20
-330.9631216071502
 30
0.0
 40
1.519133528231833
100
AcDbArc
 50
235.2662394539856
 51
259.2426112505169
  0
ARC
  5
1BBF6
330
1F
100
AcDbEntity
  8
AM_7
 48
0.12
100
AcDbCircle
 10
22438.70295020273
 20
-331.6460870138325
 30
0.0
 40
0.8216324646143281
100
AcDbArc
 50
260.1298867160301
 51
281.3827852697647
  0
ARC
  5
1BBF7
330
1F
100
AcDbEntity
  8
AM_7
 48
0.12
100
AcDbCircle
 10
22447.20143366868
 20
-323.2993515873094
 30
0.0
 40
12.5411057798513
100
AcDbArc
 50
199.0493995699371
 51
201.111991943627
  0
ARC
  5
1BBF8
330
1F
100
AcDbEntity
  8
AM_7
 48
0.12
100
AcDbCircle
 10
22468.24027022424
 20
-315.2080263928655
 30
0.0
 40
35.08222087049438
100
AcDbArc
 50
201.0633207296199
 51
202.4384029372359
  0
ARC
  5
1BBF9
330
1F
100
AcDbEntity
  8
AM_7
 48
0.12
100
AcDbCircle
 10
22493.13169589091
 20
-304.8684453928653
 30
0.0
 40
62.0356665786713
100
AcDbArc
 50
202.4900945998791
 51
203.4068221827854
  0
ARC
  5
1BBFA
330
1F
100
AcDbEntity
  8
AM_7
 48
0.12
100
AcDbCircle
 10
22493.0892028909
 20
-304.7789613928616
 30
0.0
 40
62.0322976016123
100
AcDbArc
 50
203.4982637223485
 51
204.4149913052111
  0
LINE
  5
1BBFB
330
1F
100
AcDbEntity
  8
AM_7
 48
0.12
100
AcDbLine
 10
22436.6041098909
 20
-330.4195583928631
 30
0.0
 11
22436.70210989091
 21
-330.6345583928632
 31
0.0
  0
ARC
  5
1BBFC
330
1F
100
AcDbEntity
  8
AM_7
 48
0.12
100
AcDbCircle
 10
22444.17453405757
 20
-324.6843339206425
 30
0.0
 40
9.167451257520767
100
AcDbArc
 50
178.7950807702641
 51
180.8576731440376
  0
ARC
  5
1BBFD
330
1F
100
AcDbEntity
  8
AM_7
 48
0.12
100
AcDbCircle
 10
22446.90602883208
 20
-324.666896363451
 30
0.0
 40
11.8989241309517
100
AcDbArc
 50
180.7447506159035
 51
184.640488362316
  0
ARC
  5
1BBFE
330
1F
100
AcDbEntity
  8
AM_7
 48
0.12
100
AcDbCircle
 10
22446.91172230267
 20
-324.6937098487469
 30
0.0
 40
11.90246068692364
100
AcDbArc
 50
184.5096199236341
 51
188.4053576700525
  0
ARC
  5
1BBFF
330
1F
100
AcDbEntity
  8
AM_7
 48
0.12
100
AcDbCircle
 10
22442.26004189091
 20
-325.4295823928659
 30
0.0
 40
7.193339147099855
100
AcDbArc
 50
188.0229780871773
 51
193.522317209238
  0
ARC
  5
1BC00
330
1F
100
AcDbEntity
  8
AM_7
 48
0.12
100
AcDbCircle
 10
22438.49774620909
 20
-326.343407483775
 30
0.0
 40
3.321675648242865
100
AcDbArc
 50
193.3709134898242
 51
198.4121288759793
  0
ARC
  5
1BC01
330
1F
100
AcDbEntity
  8
AM_7
 48
0.12
100
AcDbCircle
 10
22440.03177044646
 20
-316.3235753373082
 30
0.0
 40
4.504651489042417
100
AcDbArc
 50
160.8998068644693
 51
165.0246575441722
  0
ARC
  5
1BC02
330
1F
100
AcDbEntity
  8
AM_7
 48
0.12
100
AcDbCircle
 10
22445.6942250488
 20
-317.84535872181
 30
0.0
 40
10.36802902207281
100
AcDbArc
 50
164.9865150864248
 51
169.3404704538549
  0
ARC
  5
1BC03
330
1F
100
AcDbEntity
  8
AM_7
 48
0.12
100
AcDbCircle
 10
22451.73098581948
 20
-319.0442511785767
 30
0.0
 40
16.52249447177768
100
AcDbArc
 50
169.1269636547714
 51
172.3353177060277
  0
ARC
  5
1BC04
330
1F
100
AcDbEntity
  8
AM_7
 48
0.12
100
AcDbCircle
 10
22451.74931496233
 20
-319.0864226785779
 30
0.0
 40
16.54633128230405
100
AcDbArc
 50
172.1990581991379
 51
175.4074122503577
  0
ARC
  5
1BC05
330
1F
100
AcDbEntity
  8
AM_7
 48
0.12
100
AcDbCircle
 10
22447.39908189091
 20
-318.7372583928627
 30
0.0
 40
12.18210817070643
100
AcDbArc
 50
175.4060961042438
 51
177.2395219362036
  0
ARC
  5
1BC06
330
1F
100
AcDbEntity
  8
AM_7
 48
0.12
100
AcDbCircle
 10
22469.21233114091
 20
-337.5854108928651
 30
0.0
 40
40.51190636900289
100
AcDbArc
 50
139.6848561485264
 51
140.8307621894759
  0
ARC
  5
1BC07
330
1F
100
AcDbEntity
  8
AM_7
 48
0.12
100
AcDbCircle
 10
22467.29335330757
 20
-336.1452570039764
 30
0.0
 40
38.11465368464558
100
AcDbArc
 50
140.6871661257945
 51
142.7497584995641
  0
ARC
  5
1BC08
330
1F
100
AcDbEntity
  8
AM_7
 48
0.12
100
AcDbCircle
 10
22456.2332838909
 20
-327.8351670595329
 30
0.0
 40
24.28090027846405
100
AcDbArc
 50
142.5614451534856
 51
145.3115105721434
  0
ARC
  5
1BC09
330
1F
100
AcDbEntity
  8
AM_7
 48
0.12
100
AcDbCircle
 10
22441.77943382194
 20
-317.9317492894151
 30
0.0
 40
6.760429810983851
100
AcDbArc
 50
144.6103843064014
 51
151.2548324871479
  0
ARC
  5
1BC0A
330
1F
100
AcDbEntity
  8
AM_7
 48
0.12
100
AcDbCircle
 10
22436.95393853279
 20
-315.2846164131333
 30
0.0
 40
1.256547829549617
100
AcDbArc
 50
151.2670250063806
 51
159.7429339455198
  0
LINE
  5
1BC0B
330
1F
100
AcDbEntity
  8
AM_7
 48
0.12
100
AcDbLine
 10
22439.9211098909
 20
-314.4295583928652
 30
0.0
 11
22438.83610989091
 21
-311.6675583928627
 31
0.0
  0
LINE
  5
1BC0C
330
1F
100
AcDbEntity
  8
AM_7
 48
0.12
100
AcDbLine
 10
22435.24710989091
 20
-318.1525583928632
 30
0.0
 11
22435.10010989091
 21
-321.5285583928634
 31
0.0
  0
LINE
  5
1BC0D
330
1F
100
AcDbEntity
  8
AM_7
 48
0.12
100
AcDbLine
 10
22435.10010989091
 20
-321.5285583928634
 30
0.0
 11
22435.01610989091
 21
-324.4925583928634
 31
0.0
  0
LINE
  5
1BC1B
330
1F
100
AcDbEntity
  8
AM_5
 62
     3
100
AcDbLine
 10
22561.00907974257
 20
-498.2406037701266
 30
0.0
 11
22561.00907974257
 21
-471.2531037701237
 31
0.0
  0
SOLID
  5
1BC1C
330
1F
100
AcDbEntity
  8
AM_5
 62
     3
100
AcDbTrace
 10
22552.67574640924
 20
-471.2531037701237
 30
0.0
 11
22569.3424130759
 21
-471.2531037701237
 31
0.0
 12
22561.00907974257
 22
-421.2531037701237
 32
0.0
 13
22561.00907974257
 23
-421.2531037701237
 33
0.0
  0
LINE
  5
1BC1D
330
1F
100
AcDbEntity
  8
AM_5
 62
     3
100
AcDbLine
 10
22561.00907974257
 20
-202.4030355750151
 30
0.0
 11
22561.00907974257
 21
-175.4155355750121
 31
0.0
  0
SOLID
  5
1BC1E
330
1F
100
AcDbEntity
  8
AM_5
 62
     3
100
AcDbTrace
 10
22552.67574640924
 20
-175.4155355750121
 30
0.0
 11
22569.3424130759
 21
-175.4155355750121
 31
0.0
 12
22561.00907974257
 22
-125.4155355750122
 32
0.0
 13
22561.00907974257
 23
-125.4155355750122
 33
0.0
  0
ENDSEC
  0
SECTION
  2
OBJECTS
  0
DICTIONARY
  5
C
330
0
100
AcDbDictionary
281
     1
  3
ACAD_2007HEADERVARS_RT
350
1BCEC
  3
ACAD_COLOR
350
BE
  3
ACAD_GROUP
350
D
  3
ACAD_LAYOUT
350
1A
  3
ACAD_MATERIAL
350
BD
  3
ACAD_MLEADERSTYLE
350
1A1D0
  3
ACAD_MLINESTYLE
350
17
  3
ACAD_PLOTSETTINGS
350
19
  3
ACAD_PLOTSTYLENAME
350
E
  3
ACAD_SCALELIST
350
1A1BE
  3
ACAD_TABLESTYLE
350
11A
  3
ACAD_VISUALSTYLE
350
1A1AD
  3
ACDB_RECOMPOSE_DATA
350
1BCEA
  3
AcDbVariableDictionary
350
94
  3
AcmDictionary
350
5B
  3
AMG
350
41
  3
AMGSNAPSETTINGS
350
26B
  3
DWGPROPS
350
1BCEB
  0
DICTIONARY
  5
5E1
330
2
100
AcDbDictionary
280
     1
281
     1
  3
ACAD_LAYERFILTERS
360
10B7F
  3
ACAD_LAYERSTATES
360
5E2
  3
ACLYDICTIONARY
360
10B7E
  3
AMLAYER_GROUPCOLORS
360
1A4EA
  0
DICTIONARY
  5
1A4F2
330
10
100
AcDbDictionary
280
     1
281
     1
  3
ADSK_XREC_LAYER_RECONCILED
360
1A4F3
  0
DICTIONARY
  5
1A4F6
330
1080A
100
AcDbDictionary
280
     1
281
     1
  3
ADSK_XREC_LAYER_RECONCILED
360
1A4F7
  0
DICTIONARY
  5
8F
330
1F
100
AcDbDictionary
280
     1
281
     1
  3
ACAD_SORTENTS
360
9429
  0
DICTIONARY
  5
10117
330
87
100
AcDbDictionary
280
     1
281
     1
  0
DICTIONARY
  5
1BA8B
330
1BA7C
100
AcDbDictionary
280
     1
281
     1
  3
ACAD_DIMASSOC
360
1BA8C
  0
DICTIONARY
  5
1BCEC
102
{ACAD_REACTORS
330
C
102
}
330
C
100
AcDbDictionary
281
     1
  3
DIMJOGANG
350
1BCED
  0
DICTIONARY
  5
BE
102
{ACAD_REACTORS
330
C
102
}
330
C
100
AcDbDictionary
281
     1
  0
DICTIONARY
  5
D
102
{ACAD_REACTORS
330
C
102
}
330
C
100
AcDbDictionary
281
     1
  0
DICTIONARY
  5
1A
102
{ACAD_REACTORS
330
C
102
}
330
C
100
AcDbDictionary
281
     1
  3
Layout1
350
1E
  3
Layout2
350
26
  3
Model
350
22
  0
DICTIONARY
  5
BD
102
{ACAD_REACTORS
330
C
102
}
330
C
100
AcDbDictionary
281
     1
  3
ByBlock
350
1A19D
  3
ByLayer
350
1A195
  3
Global
350
1A1A5
  0
DICTIONARY
  5
1A1D0
102
{ACAD_REACTORS
330
C
102
}
330
C
100
AcDbDictionary
281
     1
  3
Standard
350
1A1D1
  0
DICTIONARY
  5
17
102
{ACAD_REACTORS
330
C
102
}
330
C
100
AcDbDictionary
281
     1
  3
Standard
350
18
  0
DICTIONARY
  5
19
102
{ACAD_REACTORS
330
C
102
}
330
C
100
AcDbDictionary
281
     1
  0
ACDBDICTIONARYWDFLT
  5
E
102
{ACAD_REACTORS
330
C
102
}
330
C
100
AcDbDictionary
281
     1
  3
Normal
350
F
100
AcDbDictionaryWithDefault
340
F
  0
DICTIONARY
  5
1A1BE
102
{ACAD_REACTORS
330
C
102
}
330
C
100
AcDbDictionary
281
     1
  3
A0
350
1A1BF
  3
A1
350
1A1C0
  3
A2
350
1A1C1
  3
A3
350
1A1C2
  3
A4
350
1A1C3
  3
A5
350
1A1C4
  3
A6
350
1A1C5
  3
A7
350
1A1C6
  3
A8
350
1A1C7
  3
A9
350
1A1C8
  3
B0
350
1A1C9
  3
B1
350
1A1CA
  3
B2
350
1A1CB
  3
B3
350
1A1CC
  3
B4
350
1A1CD
  3
B5
350
1A1CE
  3
B6
350
1A1CF
  0
DICTIONARY
  5
11A
102
{ACAD_REACTORS
330
C
102
}
330
C
100
AcDbDictionary
281
     1
  3
Standard
350
11B
  0
DICTIONARY
  5
1A1AD
102
{ACAD_REACTORS
330
C
102
}
330
C
100
AcDbDictionary
281
     1
  3
2dWireframe
350
1A1B3
  3
3D Hidden
350
1A1B5
  3
3dWireframe
350
1A1B4
  3
Basic
350
1A1B2
  3
Brighten
350
1A1B9
  3
ColorChange
350
1A1BD
  3
Conceptual
350
1A1B6
  3
Dim
350
1A1B8
  3
EdgeColorOff
350
1BC54
  3
Facepattern
350
1A1BC
  3
Flat
350
1A1AE
  3
FlatWithEdges
350
1A1AF
  3
Gouraud
350
1A1B0
  3
GouraudWithEdges
350
1A1B1
  3
JitterOff
350
1BC52
  3
Linepattern
350
1A1BB
  3
OverhangOff
350
1BC53
  3
Realistic
350
1A1B7
  3
Thicken
350
1A1BA
  0
XRECORD
  5
1BCEA
102
{ACAD_REACTORS
330
C
102
}
330
C
100
AcDbXrecord
280
     1
 90
        1
330
11B
  0
DICTIONARY
  5
94
102
{ACAD_REACTORS
330
C
102
}
330
C
100
AcDbDictionary
281
     1
  3
CANNOSCALE
350
1A9E3
  3
CMLEADERSTYLE
350
1A9E1
  3
CTABLESTYLE
350
138
  3
DIMASSOC
350
96
  3
INDEXCTL
350
95
  3
LAYEREVAL
350
1A9E5
  3
LAYERNOTIFY
350
1A9E6
  3
LIGHTINGUNITS
350
1A9E4
  3
MSLTSCALE
350
1A9E2
  3
PROJECTNAME
350
B168
  3
SORTENTS
350
1BC41
  3
XCLIPFRAME
350
1BCE8
  0
DICTIONARY
  5
5B
102
{ACAD_REACTORS
330
C
102
}
330
C
100
AcDbDictionary
281
     1
  3
AcmBOM
350
272
  3
AcmStdDictionary
350
61
  3
AMDTSECTSYM_ARROWCOLOR
350
123
  0
DICTIONARY
  5
41
102
{ACAD_REACTORS
330
C
102
}
330
C
100
AcDbDictionary
281
     1
  0
DICTIONARY
  5
26B
102
{ACAD_REACTORS
330
C
102
}
330
C
100
AcDbDictionary
281
     1
  0
XRECORD
  5
1BCEB
102
{ACAD_REACTORS
330
C
102
}
330
C
100
AcDbXrecord
280
     1
  1
DWGPROPS COOKIE
  2

  3

  4

  6

  7

  8
Administrator
  9

300
AmdtFileType=84
301
=
302
=
303
=
304
=
305
=
306
=
307
=
308
=
309
=
 40
0.7367595949074075
 41
2454167.37697816
 42
2455133.677949028
  1

 90
        1
  0
DICTIONARY
  5
10B7F
102
{ACAD_REACTORS
330
5E1
102
}
330
5E1
100
AcDbDictionary
281
     1
  0
DICTIONARY
  5
5E2
102
{ACAD_REACTORS
330
5E1
102
}
330
5E1
100
AcDbDictionary
281
     1
  0
DICTIONARY
  5
10B7E
102
{ACAD_REACTORS
330
5E1
102
}
330
5E1
100
AcDbDictionary
281
     1
1001
ACAD
1000
<All
  0
DICTIONARY
  5
1A4EA
102
{ACAD_REACTORS
330
5E1
102
}
330
5E1
100
AcDbDictionary
280
     1
281
     1
  0
XRECORD
  5
1A4F3
102
{ACAD_REACTORS
330
1A4F2
102
}
330
1A4F2
100
AcDbXrecord
280
     1
290
     1
  0
XRECORD
  5
1A4F7
102
{ACAD_REACTORS
330
1A4F6
102
}
330
1A4F6
100
AcDbXrecord
280
     1
290
     1
  0
SORTENTSTABLE
  5
9429
102
{ACAD_REACTORS
330
8F
102
}
330
8F
100
AcDbSortentsTable
330
1F
331
1B907
  5
1B907
331
1B903
  5
1B903
331
1B8FF
  5
1B8FF
331
1B976
  5
1B976
331
1B972
  5
1B972
331
1B9B5
  5
1B9B5
331
1B9B1
  5
1B9B1
331
1B9AD
  5
1B9AD
331
1B9EC
  5
1B9EC
331
1B9A9
  5
1B9A9
331
1B9E8
  5
1B9E8
331
1B96E
  5
1B96E
331
1B96A
  5
1B96A
331
1B8E7
  5
1B8E7
331
1B8E3
  5
1B8E3
331
1B9E4
  5
1B9E4
331
1B9A5
  5
1B9A5
331
1B9E0
  5
1B9E0
331
1B9A1
  5
1B9A1
331
1B99D
  5
1B99D
331
1B9DC
  5
1B9DC
331
1B999
  5
1B999
331
1B9D8
  5
1B9D8
331
1BA65
  5
1BA65
331
1BA61
  5
1BA61
331
1B8DF
  5
1B8DF
331
1B966
  5
1B966
331
1B8DB
  5
1B8DB
331
1B962
  5
1B962
331
1B95E
  5
1B95E
331
1B995
  5
1B995
331
1B9D4
  5
1B9D4
331
1B9D0
  5
1B9D0
331
1BA5D
  5
1BA5D
331
1B991
  5
1B991
331
1B98D
  5
1B98D
331
1B9CC
  5
1B9CC
331
1BA59
  5
1BA59
331
1B989
  5
1B989
331
1B9C8
  5
1B9C8
331
1B90E
  5
1B90E
331
1B90A
  5
1B90A
331
1B985
  5
1B985
331
1B9C4
  5
1B9C4
331
1B9C0
  5
1B9C0
331
1B9FD
  5
1B9FD
331
1B981
  5
1B981
331
1B97D
  5
1B97D
331
1B9BC
  5
1B9BC
331
1B9F9
  5
1B9F9
331
1B979
  5
1B979
331
1B9B8
  5
1B9B8
331
1B9F5
  5
1B9F5
331
1B9F1
  5
1B9F1
331
1B906
  5
1B906
331
1B902
  5
1B902
331
1B8FE
  5
1B8FE
331
1B975
  5
1B975
331
1B971
  5
1B971
331
1BA7C
  5
1BA7C
331
1B9B4
  5
1B9B4
331
1B9B0
  5
1B9B0
331
1B9EF
  5
1B9EF
331
1B9AC
  5
1B9AC
331
1B9EB
  5
1B9EB
331
1B9A8
  5
1B9A8
331
1B96D
  5
1B96D
331
1B969
  5
1B969
331
1B8E6
  5
1B8E6
331
1B8E2
  5
1B8E2
331
1B9E7
  5
1B9E7
331
1B9E3
  5
1B9E3
331
1B9A4
  5
1B9A4
331
1B9A0
  5
1B9A0
331
1B9DF
  5
1B9DF
331
1B99C
  5
1B99C
331
1B9DB
  5
1B9DB
331
1BB08
  5
1BB08
331
1B998
  5
1B998
331
1BA64
  5
1BA64
331
1BA60
  5
1BA60
331
1B8DE
  5
1B8DE
331
1B965
  5
1B965
331
1B8DA
  5
1B8DA
331
1B961
  5
1B961
331
1B9D7
  5
1B9D7
331
1B9D3
  5
1B9D3
331
1B994
  5
1B994
331
1B9CF
  5
1B9CF
331
1BA5C
  5
1BA5C
331
1B990
  5
1B990
331
1B98C
  5
1B98C
331
1B9CB
  5
1B9CB
331
1BA58
  5
1BA58
331
1B988
  5
1B988
331
1B911
  5
1B911
331
1B90D
  5
1B90D
331
1B909
  5
1B909
331
1B9C7
  5
1B9C7
331
1B984
  5
1B984
331
1B9C3
  5
1B9C3
331
1B9BF
  5
1B9BF
331
1B9FC
  5
1B9FC
331
1B980
  5
1B980
331
1B97C
  5
1B97C
331
1B9BB
  5
1B9BB
331
1B9F8
  5
1B9F8
331
1B978
  5
1B978
331
1B9F4
  5
1B9F4
331
1B9F0
  5
1B9F0
331
1B905
  5
1B905
331
1B901
  5
1B901
331
1B974
  5
1B974
331
1B8FD
  5
1B8FD
331
1B970
  5
1B970
331
1B9B7
  5
1B9B7
331
1B9B3
  5
1B9B3
331
1B9AF
  5
1B9AF
331
1B9EE
  5
1B9EE
331
1B9AB
  5
1B9AB
331
1B9EA
  5
1B9EA
331
1B96C
  5
1B96C
331
1B8E9
  5
1B8E9
331
1B968
  5
1B968
331
1B8E1
  5
1B8E1
331
1B9A7
  5
1B9A7
331
1B9E6
  5
1B9E6
331
1B9E2
  5
1B9E2
331
1B9A3
  5
1B9A3
331
1B99F
  5
1B99F
331
1B9DE
  5
1B9DE
331
1BB0B
  5
1BB0B
331
1B99B
  5
1B99B
331
1B9DA
  5
1B9DA
331
1BA63
  5
1BA63
331
1B8DD
  5
1B8DD
331
1B964
  5
1B964
331
1B8D9
  5
1B8D9
331
1B960
  5
1B960
331
1B997
  5
1B997
331
1B9D6
  5
1B9D6
331
1B9D2
  5
1B9D2
331
1BA5F
  5
1BA5F
331
1B993
  5
1B993
331
1B98F
  5
1B98F
331
1B9CE
  5
1B9CE
331
1BA5B
  5
1BA5B
331
1B98B
  5
1B98B
331
1B9CA
  5
1B9CA
331
1BA57
  5
1BA57
331
1B90C
  5
1B90C
331
1B908
  5
1B908
331
1B987
  5
1B987
331
1B9C6
  5
1B9C6
331
1B9C2
  5
1B9C2
331
1B983
  5
1B983
331
1B9BE
  5
1B9BE
331
1B9FB
  5
1B9FB
331
1B97F
  5
1B97F
331
1B97B
  5
1B97B
331
1B9BA
  5
1B9BA
331
1B9F7
  5
1B9F7
331
1B9F3
  5
1B9F3
331
1B904
  5
1B904
331
1B900
  5
1B900
331
1B977
  5
1B977
331
1B973
  5
1B973
331
1B8FC
  5
1B8FC
331
1B9B6
  5
1B9B6
331
1B9B2
  5
1B9B2
331
1B9AE
  5
1B9AE
331
1B9ED
  5
1B9ED
331
1B9AA
  5
1B9AA
331
1B9E9
  5
1B9E9
331
1B96F
  5
1B96F
331
1B96B
  5
1B96B
331
1B8E8
  5
1B8E8
331
1B8E4
  5
1B8E4
331
1B8E0
  5
1B8E0
331
1B9A6
  5
1B9A6
331
1B9E5
  5
1B9E5
331
1B9E1
  5
1B9E1
331
1B9A2
  5
1B9A2
331
1B99E
  5
1B99E
331
1B9DD
  5
1B9DD
331
1B99A
  5
1B99A
331
1B9D9
  5
1B9D9
331
1BA62
  5
1BA62
331
1B967
  5
1B967
331
1B8DC
  5
1B8DC
331
1B963
  5
1B963
331
1B8D8
  5
1B8D8
331
1B95F
  5
1B95F
331
1B996
  5
1B996
331
1B9D5
  5
1B9D5
331
1B9D1
  5
1B9D1
331
1BA5E
  5
1BA5E
331
1B992
  5
1B992
331
1B98E
  5
1B98E
331
1B9CD
  5
1B9CD
331
1BA5A
  5
1BA5A
331
1B98A
  5
1B98A
331
1B9C9
  5
1B9C9
331
1BA56
  5
1BA56
331
1B90B
  5
1B90B
331
1B986
  5
1B986
331
1B9C5
  5
1B9C5
331
1B9C1
  5
1B9C1
331
1B9FE
  5
1B9FE
331
1B982
  5
1B982
331
1B97E
  5
1B97E
331
1B9BD
  5
1B9BD
331
1B9FA
  5
1B9FA
331
1B97A
  5
1B97A
331
1B9B9
  5
1B9B9
331
1B9F6
  5
1B9F6
331
1B9F2
  5
1B9F2
  0
DIMASSOC
  5
1BA8C
102
{ACAD_REACTORS
330
1BA8B
102
}
330
1BA8B
100
AcDbDimAssoc
330
1BA7C
 90
        3
 70
     0
 71
     0
  1
AcDbOsnapPointRef
 72
    13
331
1B969
 73
     0
 91
        0
 40
0.0
 10
0.0
 20
0.0
 30
2.000000000000000E+50
 75
     0
  1
AcDbOsnapPointRef
 72
    13
331
1B968
 73
     0
 91
        0
 40
0.0
 10
0.0
 20
0.0
 30
2.000000000000000E+50
 75
     0
  0
XRECORD
  5
1BCED
102
{ACAD_REACTORS
330
1BCEC
102
}
330
1BCEC
100
AcDbXrecord
280
     1
 40
1.570796326794896
  0
LAYOUT
  5
1E
102
{ACAD_XDICTIONARY
360
1BCEE
102
}
102
{ACAD_REACTORS
330
1A
102
}
330
1A
100
AcDbPlotSettings
  1

  2

  4

  6

 40
0.0
 41
0.0
 42
0.0
 43
0.0
 44
0.0
 45
0.0
 46
0.0
 47
0.0
 48
0.0
 49
0.0
140
0.0
141
0.0
142
1.0
143
1.0
 70
   688
 72
     0
 73
     0
 74
     5
  7
monochrome uw.ctb
 75
    16
147
1.0
148
0.0
149
0.0
100
AcDbLayout
  1
Layout1
 70
     1
 71
     1
 10
0.0
 20
0.0
 11
420.0
 21
297.0
 12
0.0
 22
0.0
 32
0.0
 14
1.000000000000000E+20
 24
1.000000000000000E+20
 34
1.000000000000000E+20
 15
-1.000000000000000E+20
 25
-1.000000000000000E+20
 35
-1.000000000000000E+20
146
0.0
 13
0.0
 23
0.0
 33
0.0
 16
1.0
 26
0.0
 36
0.0
 17
0.0
 27
1.0
 37
0.0
 76
     0
330
1B
  0
LAYOUT
  5
26
102
{ACAD_XDICTIONARY
360
1BCF2
102
}
102
{ACAD_REACTORS
330
1A
102
}
330
1A
100
AcDbPlotSettings
  1

  2

  4

  6

 40
0.0
 41
0.0
 42
0.0
 43
0.0
 44
0.0
 45
0.0
 46
0.0
 47
0.0
 48
0.0
 49
0.0
140
0.0
141
0.0
142
1.0
143
1.0
 70
   688
 72
     0
 73
     0
 74
     5
  7
monochrome uw.ctb
 75
    16
147
1.0
148
0.0
149
0.0
100
AcDbLayout
  1
Layout2
 70
     1
 71
     2
 10
0.0
 20
0.0
 11
12.0
 21
9.0
 12
0.0
 22
0.0
 32
0.0
 14
0.0
 24
0.0
 34
0.0
 15
0.0
 25
0.0
 35
0.0
146
0.0
 13
0.0
 23
0.0
 33
0.0
 16
1.0
 26
0.0
 36
0.0
 17
0.0
 27
1.0
 37
0.0
 76
     0
330
23
  0
LAYOUT
  5
22
102
{ACAD_XDICTIONARY
360
1BCF0
102
}
102
{ACAD_REACTORS
330
1A
102
}
330
1A
100
AcDbPlotSettings
  1

  2
hp LaserJet 3030 PCL 6
  4
A4
  6

 40
5.027083396911621
 41
5.069413185119628
 42
5.027084350585936
 43
5.027069091796875
 44
209.9733276367186
 45
296.9683227539062
 46
0.0
 47
6.570546449500766
 48
386.441488024062
 49
270.3185561904811
140
5391.603947773525
141
3967.108854977561
142
1.0
143
15.16134737736338
 70
 11956
 72
     1
 73
     0
 74
     1
  7
monochrome uw.ctb
 75
     0
147
0.0659571985991857
148
-13746.70549999406
149
498.9832370772091
100
AcDbLayout
  1
Model
 70
     1
 71
     0
 10
0.0
 20
0.0
 11
12.0
 21
9.0
 12
0.0
 22
0.0
 32
0.0
 14
0.0
 24
0.0
 34
0.0
 15
0.0
 25
0.0
 35
0.0
146
0.0
 13
0.0
 23
0.0
 33
0.0
 16
1.0
 26
0.0
 36
0.0
 17
0.0
 27
1.0
 37
0.0
 76
     0
330
1F
331
1A193
1001
ACAD_PSEXT
1000
hp LaserJet 3030 PCL 6
1000
hp LaserJet 3030 PCL 6
1000
DOT4_001
1000

1070
     0
  0
MATERIAL
  5
1A19D
102
{ACAD_XDICTIONARY
360
1A19E
102
}
102
{ACAD_REACTORS
330
BD
102
}
330
BD
100
AcDbMaterial
  1
ByBlock
 72
     0
 43
0.0008202099737533
 43
0.0
 43
0.0
 43
0.0
 43
0.0
 43
0.0008202099737533
 43
0.0
 43
0.0
 43
0.0
 43
0.0
 43
1.0
 43
0.0
 43
0.0
 43
0.0
 43
0.0
 43
1.0
 77
     0
 47
0.0008202099737533
 47
0.0
 47
0.0
 47
0.0
 47
0.0
 47
0.0008202099737533
 47
0.0
 47
0.0
 47
0.0
 47
0.0
 47
1.0
 47
0.0
 47
0.0
 47
0.0
 47
0.0
 47
1.0
171
     0
 49
0.0008202099737533
 49
0.0
 49
0.0
 49
0.0
 49
0.0
 49
0.0008202099737533
 49
0.0
 49
0.0
 49
0.0
 49
0.0
 49
1.0
 49
0.0
 49
0.0
 49
0.0
 49
0.0
 49
1.0
175
     0
142
0.0008202099737533
142
0.0
142
0.0
142
0.0
142
0.0
142
0.0008202099737533
142
0.0
142
0.0
142
0.0
142
0.0
142
1.0
142
0.0
142
0.0
142
0.0
142
0.0
142
1.0
179
     0
144
0.0008202099737533
144
0.0
144
0.0
144
0.0
144
0.0
144
0.0008202099737533
144
0.0
144
0.0
144
0.0
144
0.0
144
1.0
144
0.0
144
0.0
144
0.0
144
0.0
144
1.0
147
0.0008202099737533
147
0.0
147
0.0
147
0.0
147
0.0
147
0.0008202099737533
147
0.0
147
0.0
147
0.0
147
0.0
147
1.0
147
0.0
147
0.0
147
0.0
147
0.0
147
1.0
  0
MATERIAL
  5
1A195
102
{ACAD_XDICTIONARY
360
1A196
102
}
102
{ACAD_REACTORS
330
BD
102
}
330
BD
100
AcDbMaterial
  1
ByLayer
 72
     0
 43
0.0008202099737533
 43
0.0
 43
0.0
 43
0.0
 43
0.0
 43
0.0008202099737533
 43
0.0
 43
0.0
 43
0.0
 43
0.0
 43
1.0
 43
0.0
 43
0.0
 43
0.0
 43
0.0
 43
1.0
 77
     0
 47
0.0008202099737533
 47
0.0
 47
0.0
 47
0.0
 47
0.0
 47
0.0008202099737533
 47
0.0
 47
0.0
 47
0.0
 47
0.0
 47
1.0
 47
0.0
 47
0.0
 47
0.0
 47
0.0
 47
1.0
171
     0
 49
0.0008202099737533
 49
0.0
 49
0.0
 49
0.0
 49
0.0
 49
0.0008202099737533
 49
0.0
 49
0.0
 49
0.0
 49
0.0
 49
1.0
 49
0.0
 49
0.0
 49
0.0
 49
0.0
 49
1.0
175
     0
142
0.0008202099737533
142
0.0
142
0.0
142
0.0
142
0.0
142
0.0008202099737533
142
0.0
142
0.0
142
0.0
142
0.0
142
1.0
142
0.0
142
0.0
142
0.0
142
0.0
142
1.0
179
     0
144
0.0008202099737533
144
0.0
144
0.0
144
0.0
144
0.0
144
0.0008202099737533
144
0.0
144
0.0
144
0.0
144
0.0
144
1.0
144
0.0
144
0.0
144
0.0
144
0.0
144
1.0
147
0.0008202099737533
147
0.0
147
0.0
147
0.0
147
0.0
147
0.0008202099737533
147
0.0
147
0.0
147
0.0
147
0.0
147
1.0
147
0.0
147
0.0
147
0.0
147
0.0
147
1.0
  0
MATERIAL
  5
1A1A5
102
{ACAD_XDICTIONARY
360
1A1A6
102
}
102
{ACAD_REACTORS
330
BD
102
}
330
BD
100
AcDbMaterial
  1
Global
 72
     0
 43
0.0008202099737533
 43
0.0
 43
0.0
 43
0.0
 43
0.0
 43
0.0008202099737533
 43
0.0
 43
0.0
 43
0.0
 43
0.0
 43
1.0
 43
0.0
 43
0.0
 43
0.0
 43
0.0
 43
1.0
 77
     0
 47
0.0008202099737533
 47
0.0
 47
0.0
 47
0.0
 47
0.0
 47
0.0008202099737533
 47
0.0
 47
0.0
 47
0.0
 47
0.0
 47
1.0
 47
0.0
 47
0.0
 47
0.0
 47
0.0
 47
1.0
171
     0
 49
0.0008202099737533
 49
0.0
 49
0.0
 49
0.0
 49
0.0
 49
0.0008202099737533
 49
0.0
 49
0.0
 49
0.0
 49
0.0
 49
1.0
 49
0.0
 49
0.0
 49
0.0
 49
0.0
 49
1.0
175
     0
142
0.0008202099737533
142
0.0
142
0.0
142
0.0
142
0.0
142
0.0008202099737533
142
0.0
142
0.0
142
0.0
142
0.0
142
1.0
142
0.0
142
0.0
142
0.0
142
0.0
142
1.0
179
     0
144
0.0008202099737533
144
0.0
144
0.0
144
0.0
144
0.0
144
0.0008202099737533
144
0.0
144
0.0
144
0.0
144
0.0
144
1.0
144
0.0
144
0.0
144
0.0
144
0.0
144
1.0
147
0.0008202099737533
147
0.0
147
0.0
147
0.0
147
0.0
147
0.0008202099737533
147
0.0
147
0.0
147
0.0
147
0.0
147
1.0
147
0.0
147
0.0
147
0.0
147
0.0
147
1.0
  0
MLEADERSTYLE
  5
1A1D1
102
{ACAD_REACTORS
330
1A1D0
102
}
330
1A1D0
100
AcDbMLeaderStyle
170
     2
171
     1
172
     0
 90
        2
 40
0.0
 41
0.0
173
     1
 91
-1056964608
340
14
 92
       -2
290
     1
 42
2.0
291
     1
 43
0.36
  3
Standard
 44
4.0
300

342
11
174
     1
178
     6
175
     1
176
     0
 93
-1056964608
 45
4.0
292
     0
297
     0
 46
4.0
 94
-1056964608
 47
1.0
 49
1.0
140
1.0
293
     1
141
0.0
294
     1
177
     0
142
1.0
295
     0
296
     0
143
0.125
1001
ACAD_MLEADERVER
1070
     2
  0
MLINESTYLE
  5
18
102
{ACAD_REACTORS
330
17
102
}
330
17
100
AcDbMlineStyle
  2
STANDARD
 70
     0
  3

 62
   256
 51
90.0
 52
90.0
 71
     2
 49
0.5
 62
   256
  6
BYLAYER
 49
-0.5
 62
   256
  6
BYLAYER
  0
ACDBPLACEHOLDER
  5
F
102
{ACAD_REACTORS
330
E
102
}
330
E
  0
SCALE
  5
1A1BF
102
{ACAD_REACTORS
330
1A1BE
102
}
330
1A1BE
100
AcDbScale
 70
     0
300
1:1
140
1.0
141
1.0
290
     1
  0
SCALE
  5
1A1C0
102
{ACAD_REACTORS
330
1A1BE
102
}
330
1A1BE
100
AcDbScale
 70
     0
300
1:2
140
1.0
141
2.0
290
     0
  0
SCALE
  5
1A1C1
102
{ACAD_REACTORS
330
1A1BE
102
}
330
1A1BE
100
AcDbScale
 70
     0
300
1:4
140
1.0
141
4.0
290
     0
  0
SCALE
  5
1A1C2
102
{ACAD_REACTORS
330
1A1BE
102
}
330
1A1BE
100
AcDbScale
 70
     0
300
1:5
140
1.0
141
5.0
290
     0
  0
SCALE
  5
1A1C3
102
{ACAD_REACTORS
330
1A1BE
102
}
330
1A1BE
100
AcDbScale
 70
     0
300
1:8
140
1.0
141
8.0
290
     0
  0
SCALE
  5
1A1C4
102
{ACAD_REACTORS
330
1A1BE
102
}
330
1A1BE
100
AcDbScale
 70
     0
300
1:10
140
1.0
141
10.0
290
     0
  0
SCALE
  5
1A1C5
102
{ACAD_REACTORS
330
1A1BE
102
}
330
1A1BE
100
AcDbScale
 70
     0
300
1:16
140
1.0
141
16.0
290
     0
  0
SCALE
  5
1A1C6
102
{ACAD_REACTORS
330
1A1BE
102
}
330
1A1BE
100
AcDbScale
 70
     0
300
1:20
140
1.0
141
20.0
290
     0
  0
SCALE
  5
1A1C7
102
{ACAD_REACTORS
330
1A1BE
102
}
330
1A1BE
100
AcDbScale
 70
     0
300
1:30
140
1.0
141
30.0
290
     0
  0
SCALE
  5
1A1C8
102
{ACAD_REACTORS
330
1A1BE
102
}
330
1A1BE
100
AcDbScale
 70
     0
300
1:40
140
1.0
141
40.0
290
     0
  0
SCALE
  5
1A1C9
102
{ACAD_REACTORS
330
1A1BE
102
}
330
1A1BE
100
AcDbScale
 70
     0
300
1:50
140
1.0
141
50.0
290
     0
  0
SCALE
  5
1A1CA
102
{ACAD_REACTORS
330
1A1BE
102
}
330
1A1BE
100
AcDbScale
 70
     0
300
1:100
140
1.0
141
100.0
290
     0
  0
SCALE
  5
1A1CB
102
{ACAD_REACTORS
330
1A1BE
102
}
330
1A1BE
100
AcDbScale
 70
     0
300
2:1
140
2.0
141
1.0
290
     0
  0
SCALE
  5
1A1CC
102
{ACAD_REACTORS
330
1A1BE
102
}
330
1A1BE
100
AcDbScale
 70
     0
300
4:1
140
4.0
141
1.0
290
     0
  0
SCALE
  5
1A1CD
102
{ACAD_REACTORS
330
1A1BE
102
}
330
1A1BE
100
AcDbScale
 70
     0
300
8:1
140
8.0
141
1.0
290
     0
  0
SCALE
  5
1A1CE
102
{ACAD_REACTORS
330
1A1BE
102
}
330
1A1BE
100
AcDbScale
 70
     0
300
10:1
140
10.0
141
1.0
290
     0
  0
SCALE
  5
1A1CF
102
{ACAD_REACTORS
330
1A1BE
102
}
330
1A1BE
100
AcDbScale
 70
     0
300
100:1
140
100.0
141
1.0
290
     0
  0
TABLESTYLE
  5
11B
102
{ACAD_XDICTIONARY
360
1A9DE
102
}
102
{ACAD_REACTORS
330
11A
102
}
330
11A
100
AcDbTableStyle
  3
Standard
 70
     0
 71
     0
 40
1.5
 41
1.5
280
     0
281
     0
  7
STANDARD
140
4.5
170
     2
 62
     0
 63
     7
283
     0
274
    -2
284
     1
 64
     0
275
    -2
285
     1
 65
     0
276
    -2
286
     1
 66
     0
277
    -2
287
     1
 67
     0
278
    -2
288
     1
 68
     0
279
    -2
289
     1
 69
     0
  7
STANDARD
140
6.0
170
     5
 62
     0
 63
     7
283
     0
274
    -2
284
     1
 64
     0
275
    -2
285
     1
 65
     0
276
    -2
286
     1
 66
     0
277
    -2
287
     1
 67
     0
278
    -2
288
     1
 68
     0
279
    -2
289
     1
 69
     0
  7
STANDARD
140
4.5
170
     5
 62
     0
 63
     7
283
     0
274
    -2
284
     1
 64
     0
275
    -2
285
     1
 65
     0
276
    -2
286
     1
 66
     0
277
    -2
287
     1
 67
     0
278
    -2
288
     1
 68
     0
279
    -2
289
     1
 69
     0
  0
VISUALSTYLE
  5
1A1B3
102
{ACAD_XDICTIONARY
360
1BCFF
102
}
102
{ACAD_REACTORS
330
1A1AD
102
}
330
1A1AD
100
AcDbVisualStyle
  2

 70
     4
 71
     0
 72
     2
 73
     0
 90
        0
 40
-0.6
 41
-30.0
 62
     5
 63
     7
 74
     1
 91
        4
 64
     7
 65
   257
 75
     1
175
     1
 42
1.0
 92
        0
 66
   257
 43
1.0
 76
     1
 77
     6
 78
     2
 67
     7
 79
     5
170
     0
171
     0
290
     0
174
     0
 93
        1
 44
0.0
173
     0
291
     0
 45
0.0
1001
ACAD
1000
AcDbSavedByObjectVersion
1070
     0
  0
VISUALSTYLE
  5
1A1B5
102
{ACAD_XDICTIONARY
360
1BD03
102
}
102
{ACAD_REACTORS
330
1A1AD
102
}
330
1A1AD
100
AcDbVisualStyle
  2

 70
     6
 71
     1
 72
     2
 73
     2
 90
        0
 40
-0.6
 41
-30.0
 62
     5
 63
     7
 74
     2
 91
        2
 64
     7
 65
   257
 75
     2
175
     1
 42
40.0
 92
        0
 66
   257
 43
1.0
 76
     1
 77
     6
 78
     2
 67
     7
 79
     3
170
     0
171
     0
290
     0
174
     0
 93
        1
 44
0.0
173
     0
291
     0
 45
0.0
1001
ACAD
1000
AcDbSavedByObjectVersion
1070
     0
  0
VISUALSTYLE
  5
1A1B4
102
{ACAD_XDICTIONARY
360
1BD01
102
}
102
{ACAD_REACTORS
330
1A1AD
102
}
330
1A1AD
100
AcDbVisualStyle
  2

 70
     5
 71
     0
 72
     2
 73
     0
 90
        0
 40
-0.6
 41
-30.0
 62
     5
 63
     7
 74
     1
 91
        4
 64
     7
 65
   257
 75
     1
175
     1
 42
1.0
 92
        0
 66
   257
 43
1.0
 76
     1
 77
     6
 78
     2
 67
     7
 79
     5
170
     0
171
     0
290
     0
174
     0
 93
        1
 44
0.0
173
     0
291
     0
 45
0.0
1001
ACAD
1000
AcDbSavedByObjectVersion
1070
     0
  0
VISUALSTYLE
  5
1A1B2
102
{ACAD_XDICTIONARY
360
1BCFD
102
}
102
{ACAD_REACTORS
330
1A1AD
102
}
330
1A1AD
100
AcDbVisualStyle
  2

 70
     7
 71
     1
 72
     0
 73
     1
 90
        0
 40
-0.6
 41
-30.0
 62
     5
 63
     7
 74
     0
 91
        4
 64
     7
 65
   257
 75
     1
175
     1
 42
1.0
 92
        8
 66
     7
 43
1.0
 76
     1
 77
     6
 78
     2
 67
     7
 79
     5
170
     0
171
     0
290
     0
174
     0
 93
        1
 44
0.0
173
     0
291
     1
 45
0.0
1001
ACAD
1000
AcDbSavedByObjectVersion
1070
     0
  0
VISUALSTYLE
  5
1A1B9
102
{ACAD_XDICTIONARY
360
1BD0B
102
}
102
{ACAD_REACTORS
330
1A1AD
102
}
330
1A1AD
100
AcDbVisualStyle
  2

 70
    12
 71
     2
 72
     2
 73
     0
 90
        0
 40
-0.6
 41
-30.0
 62
     5
 63
     7
 74
     1
 91
        4
 64
     7
 65
   257
 75
     1
175
     1
 42
1.0
 92
        8
 66
     7
 43
1.0
 76
     1
 77
     6
 78
     2
 67
     7
 79
     5
170
     0
171
     0
290
     0
174
     0
 93
        1
 44
50.0
173
     0
291
     1
 45
0.0
1001
ACAD
1000
AcDbSavedByObjectVersion
1070
     0
  0
VISUALSTYLE
  5
1A1BD
102
{ACAD_XDICTIONARY
360
1BD13
102
}
102
{ACAD_REACTORS
330
1A1AD
102
}
330
1A1AD
100
AcDbVisualStyle
  2

 70
    16
 71
     2
 72
     2
 73
     3
 90
        0
 40
-0.6
 41
-30.0
 62
     5
 63
     8
 74
     1
 91
        4
 64
     7
 65
   257
 75
     1
175
     1
 42
1.0
 92
        8
 66
     8
 43
1.0
 76
     1
 77
     6
 78
     2
 67
     7
 79
     5
170
     0
171
     0
290
     0
174
     0
 93
        1
 44
0.0
173
     0
291
     1
 45
0.0
1001
ACAD
1000
AcDbSavedByObjectVersion
1070
     0
  0
VISUALSTYLE
  5
1A1B6
102
{ACAD_XDICTIONARY
360
1BD05
102
}
102
{ACAD_REACTORS
330
1A1AD
102
}
330
1A1AD
100
AcDbVisualStyle
  2

 70
     9
 71
     3
 72
     2
 73
     0
 90
        0
 40
-0.6
 41
-30.0
 62
     5
 63
     7
 74
     2
 91
        2
 64
     7
 65
   257
 75
     1
175
     1
 42
40.0
 92
        8
 66
     7
 43
1.0
 76
     1
 77
     6
 78
     2
 67
     7
 79
     3
170
     0
171
     0
290
     0
174
     0
 93
        1
 44
0.0
173
     0
291
     0
 45
0.0
1001
ACAD
1000
AcDbSavedByObjectVersion
1070
     0
  0
VISUALSTYLE
  5
1A1B8
102
{ACAD_XDICTIONARY
360
1BD09
102
}
102
{ACAD_REACTORS
330
1A1AD
102
}
330
1A1AD
100
AcDbVisualStyle
  2

 70
    11
 71
     2
 72
     2
 73
     0
 90
        0
 40
-0.6
 41
-30.0
 62
     5
 63
     7
 74
     1
 91
        4
 64
     7
 65
   257
 75
     1
175
     1
 42
1.0
 92
        8
 66
     7
 43
1.0
 76
     1
 77
     6
 78
     2
 67
     7
 79
     5
170
     0
171
     0
290
     0
174
     0
 93
        1
 44
-50.0
173
     0
291
     1
 45
0.0
1001
ACAD
1000
AcDbSavedByObjectVersion
1070
     0
  0
VISUALSTYLE
  5
1BC54
102
{ACAD_XDICTIONARY
360
1BD19
102
}
102
{ACAD_REACTORS
330
1A1AD
102
}
330
1A1AD
100
AcDbVisualStyle
  2
EdgeColorOff
 70
    22
 71
     2
 72
     2
 73
     0
 90
        0
 40
-0.6
 41
-30.0
 62
     5
 63
     7
 74
     1
 91
        4
 64
     7
 65
   257
 75
     1
175
     1
 42
1.0
 92
        8
 66
     7
 43
1.0
 76
     1
 77
     6
 78
     2
 67
     7
 79
     5
170
     0
171
     0
290
     0
174
     0
 93
        1
 44
0.0
173
     0
291
     1
 45
0.0
1001
ACAD
1000
AcDbSavedByObjectVersion
1070
     0
  0
VISUALSTYLE
  5
1A1BC
102
{ACAD_XDICTIONARY
360
1BD11
102
}
102
{ACAD_REACTORS
330
1A1AD
102
}
330
1A1AD
100
AcDbVisualStyle
  2

 70
    15
 71
     2
 72
     2
 73
     0
 90
        0
 40
-0.6
 41
-30.0
 62
     5
 63
     7
 74
     1
 91
        4
 64
     7
 65
   257
 75
     1
175
     1
 42
1.0
 92
        8
 66
     7
 43
1.0
 76
     1
 77
     6
 78
     2
 67
     7
 79
     5
170
     0
171
     0
290
     0
174
     0
 93
        1
 44
0.0
173
     0
291
     1
 45
0.0
1001
ACAD
1000
AcDbSavedByObjectVersion
1070
     0
  0
VISUALSTYLE
  5
1A1AE
102
{ACAD_XDICTIONARY
360
1BCF5
102
}
102
{ACAD_REACTORS
330
1A1AD
102
}
330
1A1AD
100
AcDbVisualStyle
  2

 70
     0
 71
     2
 72
     1
 73
     1
 90
        2
 40
-0.6
 41
30.0
 62
     5
 63
     7
 74
     0
 91
        4
 64
     7
 65
   257
 75
     1
175
     1
 42
1.0
 92
        8
 66
     7
 43
1.0
 76
     1
 77
     6
 78
     2
 67
     7
 79
     5
170
     0
171
     0
290
     0
174
     0
 93
       13
 44
0.0
173
     0
291
     1
 45
0.0
1001
ACAD
1000
AcDbSavedByObjectVersion
1070
     0
  0
VISUALSTYLE
  5
1A1AF
102
{ACAD_XDICTIONARY
360
1BCF7
102
}
102
{ACAD_REACTORS
330
1A1AD
102
}
330
1A1AD
100
AcDbVisualStyle
  2

 70
     1
 71
     2
 72
     1
 73
     1
 90
        2
 40
-0.6
 41
30.0
 62
     5
 63
     7
 74
     1
 91
        4
 64
     7
 65
   257
 75
     1
175
     1
 42
1.0
 92
        0
 66
   257
 43
1.0
 76
     1
 77
     6
 78
     2
 67
     7
 79
     5
170
     0
171
     0
290
     0
174
     0
 93
       13
 44
0.0
173
     0
291
     1
 45
0.0
1001
ACAD
1000
AcDbSavedByObjectVersion
1070
     0
  0
VISUALSTYLE
  5
1A1B0
102
{ACAD_XDICTIONARY
360
1BCF9
102
}
102
{ACAD_REACTORS
330
1A1AD
102
}
330
1A1AD
100
AcDbVisualStyle
  2

 70
     2
 71
     2
 72
     2
 73
     1
 90
        2
 40
-0.6
 41
30.0
 62
     5
 63
     7
 74
     0
 91
        4
 64
     7
 65
   257
 75
     1
175
     1
 42
1.0
 92
        0
 66
     7
 43
1.0
 76
     1
 77
     6
 78
     2
 67
     7
 79
     5
170
     0
171
     0
290
     0
174
     0
 93
       13
 44
0.0
173
     0
291
     1
 45
0.0
1001
ACAD
1000
AcDbSavedByObjectVersion
1070
     0
  0
VISUALSTYLE
  5
1A1B1
102
{ACAD_XDICTIONARY
360
1BCFB
102
}
102
{ACAD_REACTORS
330
1A1AD
102
}
330
1A1AD
100
AcDbVisualStyle
  2

 70
     3
 71
     2
 72
     2
 73
     1
 90
        2
 40
-0.6
 41
30.0
 62
     5
 63
     7
 74
     1
 91
        4
 64
     7
 65
   257
 75
     1
175
     1
 42
1.0
 92
        0
 66
   257
 43
1.0
 76
     1
 77
     6
 78
     2
 67
     7
 79
     5
170
     0
171
     0
290
     0
174
     0
 93
       13
 44
0.0
173
     0
291
     1
 45
0.0
1001
ACAD
1000
AcDbSavedByObjectVersion
1070
     0
  0
VISUALSTYLE
  5
1BC52
102
{ACAD_XDICTIONARY
360
1BD15
102
}
102
{ACAD_REACTORS
330
1A1AD
102
}
330
1A1AD
100
AcDbVisualStyle
  2
JitterOff
 70
    20
 71
     2
 72
     2
 73
     0
 90
        0
 40
-0.6
 41
-30.0
 62
     5
 63
     7
 74
     1
 91
        4
 64
     7
 65
   257
 75
     1
175
     1
 42
1.0
 92
       10
 66
     7
 43
1.0
 76
     1
 77
     6
 78
     2
 67
     7
 79
     5
170
     0
171
     0
290
     0
174
     0
 93
        1
 44
0.0
173
     0
291
     1
 45
0.0
1001
ACAD
1000
AcDbSavedByObjectVersion
1070
     0
  0
VISUALSTYLE
  5
1A1BB
102
{ACAD_XDICTIONARY
360
1BD0F
102
}
102
{ACAD_REACTORS
330
1A1AD
102
}
330
1A1AD
100
AcDbVisualStyle
  2

 70
    14
 71
     2
 72
     2
 73
     0
 90
        0
 40
-0.6
 41
-30.0
 62
     5
 63
     7
 74
     1
 91
        4
 64
     7
 65
   257
 75
     7
175
     7
 42
1.0
 92
        8
 66
     7
 43
1.0
 76
     1
 77
     6
 78
     2
 67
     7
 79
     5
170
     0
171
     0
290
     0
174
     0
 93
        1
 44
0.0
173
     0
291
     1
 45
0.0
1001
ACAD
1000
AcDbSavedByObjectVersion
1070
     0
  0
VISUALSTYLE
  5
1BC53
102
{ACAD_XDICTIONARY
360
1BD17
102
}
102
{ACAD_REACTORS
330
1A1AD
102
}
330
1A1AD
100
AcDbVisualStyle
  2
OverhangOff
 70
    21
 71
     2
 72
     2
 73
     0
 90
        0
 40
-0.6
 41
-30.0
 62
     5
 63
     7
 74
     1
 91
        4
 64
     7
 65
   257
 75
     1
175
     1
 42
1.0
 92
        9
 66
     7
 43
1.0
 76
     1
 77
     6
 78
     2
 67
     7
 79
     5
170
     0
171
     0
290
     0
174
     0
 93
        1
 44
0.0
173
     0
291
     1
 45
0.0
1001
ACAD
1000
AcDbSavedByObjectVersion
1070
     0
  0
VISUALSTYLE
  5
1A1B7
102
{ACAD_XDICTIONARY
360
1BD07
102
}
102
{ACAD_REACTORS
330
1A1AD
102
}
330
1A1AD
100
AcDbVisualStyle
  2

 70
     8
 71
     2
 72
     2
 73
     0
 90
        0
 40
-0.6
 41
-30.0
 62
     5
 63
     7
 74
     1
 91
        0
 64
     7
 65
   257
 75
     1
175
     1
 42
1.0
 92
        8
 66
     8
 43
1.0
 76
     1
 77
     6
 78
     2
 67
     7
 79
     5
170
     0
171
     0
290
     0
174
     0
 93
       13
 44
0.0
173
     0
291
     0
 45
0.0
1001
ACAD
1000
AcDbSavedByObjectVersion
1070
     0
  0
VISUALSTYLE
  5
1A1BA
102
{ACAD_XDICTIONARY
360
1BD0D
102
}
102
{ACAD_REACTORS
330
1A1AD
102
}
330
1A1AD
100
AcDbVisualStyle
  2

 70
    13
 71
     2
 72
     2
 73
     0
 90
        0
 40
-0.6
 41
-30.0
 62
     5
 63
     7
 74
     1
 91
        4
 64
     7
 65
   257
 75
     1
175
     1
 42
1.0
 92
       12
 66
     7
 43
1.0
 76
     1
 77
     6
 78
     2
 67
     7
 79
     5
170
     0
171
     0
290
     0
174
     0
 93
        1
 44
0.0
173
     0
291
     1
 45
0.0
1001
ACAD
1000
AcDbSavedByObjectVersion
1070
     0
  0
DICTIONARYVAR
  5
1A9E3
102
{ACAD_REACTORS
330
94
102
}
330
94
100
DictionaryVariables
280
     0
  1
1:1
  0
DICTIONARYVAR
  5
1A9E1
102
{ACAD_REACTORS
330
94
102
}
330
94
100
DictionaryVariables
280
     0
  1
STANDARD
  0
DICTIONARYVAR
  5
138
102
{ACAD_REACTORS
330
94
102
}
330
94
100
DictionaryVariables
280
     0
  1
STANDARD
  0
DICTIONARYVAR
  5
96
102
{ACAD_REACTORS
330
94
102
}
330
94
100
DictionaryVariables
280
     0
  1
2
  0
DICTIONARYVAR
  5
95
102
{ACAD_REACTORS
330
94
102
}
330
94
100
DictionaryVariables
280
     0
  1
0
  0
DICTIONARYVAR
  5
1A9E5
102
{ACAD_REACTORS
330
94
102
}
330
94
100
DictionaryVariables
280
     0
  1
1
  0
DICTIONARYVAR
  5
1A9E6
102
{ACAD_REACTORS
330
94
102
}
330
94
100
DictionaryVariables
280
     0
  1
15
  0
DICTIONARYVAR
  5
1A9E4
102
{ACAD_REACTORS
330
94
102
}
330
94
100
DictionaryVariables
280
     0
  1
0
  0
DICTIONARYVAR
  5
1A9E2
102
{ACAD_REACTORS
330
94
102
}
330
94
100
DictionaryVariables
280
     0
  1
0
  0
DICTIONARYVAR
  5
B168
102
{ACAD_REACTORS
330
94
102
}
330
94
100
DictionaryVariables
280
     0
  1

  0
DICTIONARYVAR
  5
1BC41
102
{ACAD_REACTORS
330
94
102
}
330
94
100
DictionaryVariables
280
     0
  1
127
  0
DICTIONARYVAR
  5
1BCE8
102
{ACAD_REACTORS
330
94
102
}
330
94
100
DictionaryVariables
280
     0
  1
2
  0
DICTIONARY
  5
272
102
{ACAD_REACTORS
330
5B
102
}
330
5B
100
AcDbDictionary
281
     1
  0
DICTIONARY
  5
61
102
{ACAD_REACTORS
330
5B
102
}
330
5B
100
AcDbDictionary
281
     1
  0
XRECORD
  5
123
102
{ACAD_REACTORS
330
5B
102
}
330
5B
100
AcDbXrecord
280
     1
 90
-1023410169
  0
DICTIONARY
  5
1BCEE
330
1E
100
AcDbDictionary
280
     1
281
     1
  3
ACAD_XREC_ROUNDTRIP
360
1BCEF
  0
DICTIONARY
  5
1BCF2
330
26
100
AcDbDictionary
280
     1
281
     1
  3
ACAD_XREC_ROUNDTRIP
360
1BCF3
  0
DICTIONARY
  5
1BCF0
330
22
100
AcDbDictionary
280
     1
281
     1
  3
ACAD_XREC_ROUNDTRIP
360
1BCF1
  0
DICTIONARY
  5
1A19E
330
1A19D
100
AcDbDictionary
280
     1
281
     1
  3
ACAD_XREC_ROUNDTRIP
360
1BC4E
  3
BUMPTILE
360
1A1A0
  3
DIFFUSETILE
360
1A19F
  3
OPACITYTILE
360
1A1A3
  3
REFLECTIONTILE
360
1A1A2
  3
REFRACTIONTILE
360
1A1A4
  3
SPECULARTILE
360
1A1A1
  0
DICTIONARY
  5
1A196
330
1A195
100
AcDbDictionary
280
     1
281
     1
  3
ACAD_XREC_ROUNDTRIP
360
1BC4D
  3
BUMPTILE
360
1A198
  3
DIFFUSETILE
360
1A197
  3
OPACITYTILE
360
1A19B
  3
REFLECTIONTILE
360
1A19A
  3
REFRACTIONTILE
360
1A19C
  3
SPECULARTILE
360
1A199
  0
DICTIONARY
  5
1A1A6
330
1A1A5
100
AcDbDictionary
280
     1
281
     1
  3
ACAD_XREC_ROUNDTRIP
360
1BC4F
  3
BUMPTILE
360
1A1A8
  3
DIFFUSETILE
360
1A1A7
  3
OPACITYTILE
360
1A1AB
  3
REFLECTIONTILE
360
1A1AA
  3
REFRACTIONTILE
360
1A1AC
  3
SPECULARTILE
360
1A1A9
  0
DICTIONARY
  5
1A9DE
330
11B
100
AcDbDictionary
280
     1
281
     1
  3
ACAD_ROUNDTRIP_2008_TABLESTYLE_CELLSTYLEMAP
360
1BCE9
  3
ACAD_XREC_ROUNDTRIP
360
1BCF4
  0
DICTIONARY
  5
1BCFF
330
1A1B3
100
AcDbDictionary
280
     1
281
     1
  3
ACAD_XREC_ROUNDTRIP
360
1BD00
  0
DICTIONARY
  5
1BD03
330
1A1B5
100
AcDbDictionary
280
     1
281
     1
  3
ACAD_XREC_ROUNDTRIP
360
1BD04
  0
DICTIONARY
  5
1BD01
330
1A1B4
100
AcDbDictionary
280
     1
281
     1
  3
ACAD_XREC_ROUNDTRIP
360
1BD02
  0
DICTIONARY
  5
1BCFD
330
1A1B2
100
AcDbDictionary
280
     1
281
     1
  3
ACAD_XREC_ROUNDTRIP
360
1BCFE
  0
DICTIONARY
  5
1BD0B
330
1A1B9
100
AcDbDictionary
280
     1
281
     1
  3
ACAD_XREC_ROUNDTRIP
360
1BD0C
  0
DICTIONARY
  5
1BD13
330
1A1BD
100
AcDbDictionary
280
     1
281
     1
  3
ACAD_XREC_ROUNDTRIP
360
1BD14
  0
DICTIONARY
  5
1BD05
330
1A1B6
100
AcDbDictionary
280
     1
281
     1
  3
ACAD_XREC_ROUNDTRIP
360
1BD06
  0
DICTIONARY
  5
1BD09
330
1A1B8
100
AcDbDictionary
280
     1
281
     1
  3
ACAD_XREC_ROUNDTRIP
360
1BD0A
  0
DICTIONARY
  5
1BD19
330
1BC54
100
AcDbDictionary
280
     1
281
     1
  3
ACAD_XREC_ROUNDTRIP
360
1BD1A
  0
DICTIONARY
  5
1BD11
330
1A1BC
100
AcDbDictionary
280
     1
281
     1
  3
ACAD_XREC_ROUNDTRIP
360
1BD12
  0
DICTIONARY
  5
1BCF5
330
1A1AE
100
AcDbDictionary
280
     1
281
     1
  3
ACAD_XREC_ROUNDTRIP
360
1BCF6
  0
DICTIONARY
  5
1BCF7
330
1A1AF
100
AcDbDictionary
280
     1
281
     1
  3
ACAD_XREC_ROUNDTRIP
360
1BCF8
  0
DICTIONARY
  5
1BCF9
330
1A1B0
100
AcDbDictionary
280
     1
281
     1
  3
ACAD_XREC_ROUNDTRIP
360
1BCFA
  0
DICTIONARY
  5
1BCFB
330
1A1B1
100
AcDbDictionary
280
     1
281
     1
  3
ACAD_XREC_ROUNDTRIP
360
1BCFC
  0
DICTIONARY
  5
1BD15
330
1BC52
100
AcDbDictionary
280
     1
281
     1
  3
ACAD_XREC_ROUNDTRIP
360
1BD16
  0
DICTIONARY
  5
1BD0F
330
1A1BB
100
AcDbDictionary
280
     1
281
     1
  3
ACAD_XREC_ROUNDTRIP
360
1BD10
  0
DICTIONARY
  5
1BD17
330
1BC53
100
AcDbDictionary
280
     1
281
     1
  3
ACAD_XREC_ROUNDTRIP
360
1BD18
  0
DICTIONARY
  5
1BD07
330
1A1B7
100
AcDbDictionary
280
     1
281
     1
  3
ACAD_XREC_ROUNDTRIP
360
1BD08
  0
DICTIONARY
  5
1BD0D
330
1A1BA
100
AcDbDictionary
280
     1
281
     1
  3
ACAD_XREC_ROUNDTRIP
360
1BD0E
  0
XRECORD
  5
1BCEF
102
{ACAD_REACTORS
330
1BCEE
102
}
330
1BCEE
100
AcDbXrecord
280
     1
102
SHADEPLOT
 70
     0
102
SHADEPLOTRESLEVEL
 70
     2
102
SHADEPLOTCUSTOMDPI
 70
   300
  0
XRECORD
  5
1BCF3
102
{ACAD_REACTORS
330
1BCF2
102
}
330
1BCF2
100
AcDbXrecord
280
     1
102
SHADEPLOT
 70
     0
102
SHADEPLOTRESLEVEL
 70
     2
102
SHADEPLOTCUSTOMDPI
 70
   300
  0
XRECORD
  5
1BCF1
102
{ACAD_REACTORS
330
1BCF0
102
}
330
1BCF0
100
AcDbXrecord
280
     1
102
SHADEPLOT
 70
     0
102
SHADEPLOTRESLEVEL
 70
     2
102
SHADEPLOTCUSTOMDPI
 70
   300
  0
XRECORD
  5
1BC4E
102
{ACAD_REACTORS
330
1A19E
102
}
330
1A19E
100
AcDbXrecord
280
     1
102
MATERIAL
148
0.0
149
0.0
149
0.0
 93
        0
 94
      127
282
     0
 72
     0
 77
     0
171
     0
175
     0
179
     0
273
     0
  0
XRECORD
  5
1A1A0
102
{ACAD_REACTORS
330
1A19E
102
}
330
1A19E
100
AcDbXrecord
280
     1
270
     1
271
     1
  0
XRECORD
  5
1A19F
102
{ACAD_REACTORS
330
1A19E
102
}
330
1A19E
100
AcDbXrecord
280
     1
270
     1
271
     1
  0
XRECORD
  5
1A1A3
102
{ACAD_REACTORS
330
1A19E
102
}
330
1A19E
100
AcDbXrecord
280
     1
270
     1
271
     1
  0
XRECORD
  5
1A1A2
102
{ACAD_REACTORS
330
1A19E
102
}
330
1A19E
100
AcDbXrecord
280
     1
270
     1
271
     1
  0
XRECORD
  5
1A1A4
102
{ACAD_REACTORS
330
1A19E
102
}
330
1A19E
100
AcDbXrecord
280
     1
270
     1
271
     1
  0
XRECORD
  5
1A1A1
102
{ACAD_REACTORS
330
1A19E
102
}
330
1A19E
100
AcDbXrecord
280
     1
270
     1
271
     1
  0
XRECORD
  5
1BC4D
102
{ACAD_REACTORS
330
1A196
102
}
330
1A196
100
AcDbXrecord
280
     1
102
MATERIAL
148
0.0
149
0.0
149
0.0
 93
        0
 94
      127
282
     0
 72
     0
 77
     0
171
     0
175
     0
179
     0
273
     0
  0
XRECORD
  5
1A198
102
{ACAD_REACTORS
330
1A196
102
}
330
1A196
100
AcDbXrecord
280
     1
270
     1
271
     1
  0
XRECORD
  5
1A197
102
{ACAD_REACTORS
330
1A196
102
}
330
1A196
100
AcDbXrecord
280
     1
270
     1
271
     1
  0
XRECORD
  5
1A19B
102
{ACAD_REACTORS
330
1A196
102
}
330
1A196
100
AcDbXrecord
280
     1
270
     1
271
     1
  0
XRECORD
  5
1A19A
102
{ACAD_REACTORS
330
1A196
102
}
330
1A196
100
AcDbXrecord
280
     1
270
     1
271
     1
  0
XRECORD
  5
1A19C
102
{ACAD_REACTORS
330
1A196
102
}
330
1A196
100
AcDbXrecord
280
     1
270
     1
271
     1
  0
XRECORD
  5
1A199
102
{ACAD_REACTORS
330
1A196
102
}
330
1A196
100
AcDbXrecord
280
     1
270
     1
271
     1
  0
XRECORD
  5
1BC4F
102
{ACAD_REACTORS
330
1A1A6
102
}
330
1A1A6
100
AcDbXrecord
280
     1
102
MATERIAL
148
0.0
149
0.0
149
0.0
 93
        0
 94
      127
282
     0
 72
     0
 77
     0
171
     0
175
     0
179
     0
273
     0
  0
XRECORD
  5
1A1A8
102
{ACAD_REACTORS
330
1A1A6
102
}
330
1A1A6
100
AcDbXrecord
280
     1
270
     1
271
     1
  0
XRECORD
  5
1A1A7
102
{ACAD_REACTORS
330
1A1A6
102
}
330
1A1A6
100
AcDbXrecord
280
     1
270
     1
271
     1
  0
XRECORD
  5
1A1AB
102
{ACAD_REACTORS
330
1A1A6
102
}
330
1A1A6
100
AcDbXrecord
280
     1
270
     1
271
     1
  0
XRECORD
  5
1A1AA
102
{ACAD_REACTORS
330
1A1A6
102
}
330
1A1A6
100
AcDbXrecord
280
     1
270
     1
271
     1
  0
XRECORD
  5
1A1AC
102
{ACAD_REACTORS
330
1A1A6
102
}
330
1A1A6
100
AcDbXrecord
280
     1
270
     1
271
     1
  0
XRECORD
  5
1A1A9
102
{ACAD_REACTORS
330
1A1A6
102
}
330
1A1A6
100
AcDbXrecord
280
     1
270
     1
271
     1
  0
CELLSTYLEMAP
  5
1BCE9
102
{ACAD_REACTORS
330
1A9DE
102
}
330
1A9DE
100
AcDbCellStyleMap
 90
        3
300
CELLSTYLE
  1
TABLEFORMAT_BEGIN
 90
        5
170
     1
 91
        0
 92
    32768
 62
   257
 93
        1
300
CONTENTFORMAT
  1
CONTENTFORMAT_BEGIN
 90
        0
 91
        0
 92
        4
 93
        0
300

 40
0.0
140
1.0
 94
        5
 62
     0
340
11
144
6.0
309
CONTENTFORMAT_END
171
     1
301
MARGIN
  1
CELLMARGIN_BEGIN
 40
1.5
 40
1.5
 40
1.5
 40
1.5
 40
0.18
 40
0.18
309
CELLMARGIN_END
 94
        6
 95
        1
302
GRIDFORMAT
  1
GRIDFORMAT_BEGIN
 90
        0
 91
        1
 62
     0
 92
       -2
340
0
 93
        0
 40
0.045
309
GRIDFORMAT_END
 95
        2
302
GRIDFORMAT
  1
GRIDFORMAT_BEGIN
 90
        0
 91
        1
 62
     0
 92
       -2
340
0
 93
        0
 40
0.045
309
GRIDFORMAT_END
 95
        4
302
GRIDFORMAT
  1
GRIDFORMAT_BEGIN
 90
        0
 91
        1
 62
     0
 92
       -2
340
0
 93
        0
 40
0.045
309
GRIDFORMAT_END
 95
        8
302
GRIDFORMAT
  1
GRIDFORMAT_BEGIN
 90
        0
 91
        1
 62
     0
 92
       -2
340
0
 93
        0
 40
0.045
309
GRIDFORMAT_END
 95
       16
302
GRIDFORMAT
  1
GRIDFORMAT_BEGIN
 90
        0
 91
        1
 62
     0
 92
       -2
340
0
 93
        0
 40
0.045
309
GRIDFORMAT_END
 95
       32
302
GRIDFORMAT
  1
GRIDFORMAT_BEGIN
 90
        0
 91
        1
 62
     0
 92
       -2
340
0
 93
        0
 40
0.045
309
GRIDFORMAT_END
309
TABLEFORMAT_END
  1
CELLSTYLE_BEGIN
 90
        1
 91
        1
300
_TITLE
309
CELLSTYLE_END
300
CELLSTYLE
  1
TABLEFORMAT_BEGIN
 90
        5
170
     1
 91
        0
 92
        0
 62
   257
 93
        1
300
CONTENTFORMAT
  1
CONTENTFORMAT_BEGIN
 90
        0
 91
        0
 92
        4
 93
        0
300

 40
0.0
140
1.0
 94
        5
 62
     0
340
11
144
4.5
309
CONTENTFORMAT_END
171
     1
301
MARGIN
  1
CELLMARGIN_BEGIN
 40
1.5
 40
1.5
 40
1.5
 40
1.5
 40
0.18
 40
0.18
309
CELLMARGIN_END
 94
        6
 95
        1
302
GRIDFORMAT
  1
GRIDFORMAT_BEGIN
 90
        0
 91
        1
 62
     0
 92
       -2
340
0
 93
        0
 40
0.045
309
GRIDFORMAT_END
 95
        2
302
GRIDFORMAT
  1
GRIDFORMAT_BEGIN
 90
        0
 91
        1
 62
     0
 92
       -2
340
0
 93
        0
 40
0.045
309
GRIDFORMAT_END
 95
        4
302
GRIDFORMAT
  1
GRIDFORMAT_BEGIN
 90
        0
 91
        1
 62
     0
 92
       -2
340
0
 93
        0
 40
0.045
309
GRIDFORMAT_END
 95
        8
302
GRIDFORMAT
  1
GRIDFORMAT_BEGIN
 90
        0
 91
        1
 62
     0
 92
       -2
340
0
 93
        0
 40
0.045
309
GRIDFORMAT_END
 95
       16
302
GRIDFORMAT
  1
GRIDFORMAT_BEGIN
 90
        0
 91
        1
 62
     0
 92
       -2
340
0
 93
        0
 40
0.045
309
GRIDFORMAT_END
 95
       32
302
GRIDFORMAT
  1
GRIDFORMAT_BEGIN
 90
        0
 91
        1
 62
     0
 92
       -2
340
0
 93
        0
 40
0.045
309
GRIDFORMAT_END
309
TABLEFORMAT_END
  1
CELLSTYLE_BEGIN
 90
        2
 91
        1
300
_HEADER
309
CELLSTYLE_END
300
CELLSTYLE
  1
TABLEFORMAT_BEGIN
 90
        5
170
     1
 91
        0
 92
        0
 62
   257
 93
        1
300
CONTENTFORMAT
  1
CONTENTFORMAT_BEGIN
 90
        0
 91
        0
 92
        4
 93
        0
300

 40
0.0
140
1.0
 94
        2
 62
     0
340
11
144
4.5
309
CONTENTFORMAT_END
171
     1
301
MARGIN
  1
CELLMARGIN_BEGIN
 40
1.5
 40
1.5
 40
1.5
 40
1.5
 40
0.18
 40
0.18
309
CELLMARGIN_END
 94
        6
 95
        1
302
GRIDFORMAT
  1
GRIDFORMAT_BEGIN
 90
        0
 91
        1
 62
     0
 92
       -2
340
0
 93
        0
 40
0.045
309
GRIDFORMAT_END
 95
        2
302
GRIDFORMAT
  1
GRIDFORMAT_BEGIN
 90
        0
 91
        1
 62
     0
 92
       -2
340
0
 93
        0
 40
0.045
309
GRIDFORMAT_END
 95
        4
302
GRIDFORMAT
  1
GRIDFORMAT_BEGIN
 90
        0
 91
        1
 62
     0
 92
       -2
340
0
 93
        0
 40
0.045
309
GRIDFORMAT_END
 95
        8
302
GRIDFORMAT
  1
GRIDFORMAT_BEGIN
 90
        0
 91
        1
 62
     0
 92
       -2
340
0
 93
        0
 40
0.045
309
GRIDFORMAT_END
 95
       16
302
GRIDFORMAT
  1
GRIDFORMAT_BEGIN
 90
        0
 91
        1
 62
     0
 92
       -2
340
0
 93
        0
 40
0.045
309
GRIDFORMAT_END
 95
       32
302
GRIDFORMAT
  1
GRIDFORMAT_BEGIN
 90
        0
 91
        1
 62
     0
 92
       -2
340
0
 93
        0
 40
0.045
309
GRIDFORMAT_END
309
TABLEFORMAT_END
  1
CELLSTYLE_BEGIN
 90
        3
 91
        2
300
_DATA
309
CELLSTYLE_END
  0
XRECORD
  5
1BCF4
102
{ACAD_REACTORS
330
1A9DE
102
}
330
1A9DE
100
AcDbXrecord
280
     1
102
ACAD_ROUNDTRIP_PRE2007_TABLESTYLE
 90
        4
 91
        0
  1

 92
        4
 93
        0
  2

 94
        4
 95
        0
  3

  0
XRECORD
  5
1BD00
102
{ACAD_REACTORS
330
1BCFF
102
}
330
1BCFF
100
AcDbXrecord
280
     1
102
RTVSPropertyOp0
 70
     1
102
RTVSPropertyOp1
 70
     1
102
RTVSPropertyOp2
 70
     1
102
RTVSPropertyOp3
 70
     1
102
RTVSPropertyOp4
 70
     1
102
RTVSPropertyOp5
 70
     1
102
RTVSPropertyOp6
 70
     1
102
RTVSPropertyOp7
 70
     1
102
RTVSPropertyOp8
 70
     1
102
RTVSPropertyOp9
 70
     1
102
RTVSPropertyOp10
 70
     1
102
RTVSPropertyOp11
 70
     1
102
RTVSPropertyOp12
 70
     1
102
RTVSPropertyOp13
 70
     1
102
RTVSPropertyOp14
 70
     1
102
RTVSPropertyOp15
 70
     1
102
RTVSPropertyOp16
 70
     1
102
RTVSPropertyOp17
 70
     1
102
RTVSPropertyOp18
 70
     1
102
RTVSPropertyOp19
 70
     1
102
RTVSPropertyOp20
 70
     1
102
RTVSPropertyOp21
 70
     1
102
RTVSPropertyOp22
 70
     1
102
RTVSPropertyOp23
 70
     1
102
RTVSPropertyOp24
 70
     1
102
RTVSPropertyOp25
 70
     1
102
RTVSPropertyOp26
 70
     1
102
RTVSPropertyOp27
 70
     1
  0
XRECORD
  5
1BD04
102
{ACAD_REACTORS
330
1BD03
102
}
330
1BD03
100
AcDbXrecord
280
     1
102
RTVSPropertyOp0
 70
     1
102
RTVSPropertyOp1
 70
     1
102
RTVSPropertyOp2
 70
     1
102
RTVSPropertyOp3
 70
     1
102
RTVSPropertyOp4
 70
     1
102
RTVSPropertyOp5
 70
     1
102
RTVSPropertyOp6
 70
     1
102
RTVSPropertyOp7
 70
     1
102
RTVSPropertyOp8
 70
     1
102
RTVSPropertyOp9
 70
     1
102
RTVSPropertyOp10
 70
     1
102
RTVSPropertyOp11
 70
     1
102
RTVSPropertyOp12
 70
     1
102
RTVSPropertyOp13
 70
     1
102
RTVSPropertyOp14
 70
     1
102
RTVSPropertyOp15
 70
     1
102
RTVSPropertyOp16
 70
     1
102
RTVSPropertyOp17
 70
     1
102
RTVSPropertyOp18
 70
     1
102
RTVSPropertyOp19
 70
     1
102
RTVSPropertyOp20
 70
     1
102
RTVSPropertyOp21
 70
     1
102
RTVSPropertyOp22
 70
     1
102
RTVSPropertyOp23
 70
     1
102
RTVSPropertyOp24
 70
     1
102
RTVSPropertyOp25
 70
     1
102
RTVSPropertyOp26
 70
     1
102
RTVSPropertyOp27
 70
     1
  0
XRECORD
  5
1BD02
102
{ACAD_REACTORS
330
1BD01
102
}
330
1BD01
100
AcDbXrecord
280
     1
102
RTVSPropertyOp0
 70
     1
102
RTVSPropertyOp1
 70
     1
102
RTVSPropertyOp2
 70
     1
102
RTVSPropertyOp3
 70
     1
102
RTVSPropertyOp4
 70
     1
102
RTVSPropertyOp5
 70
     1
102
RTVSPropertyOp6
 70
     1
102
RTVSPropertyOp7
 70
     1
102
RTVSPropertyOp8
 70
     1
102
RTVSPropertyOp9
 70
     1
102
RTVSPropertyOp10
 70
     1
102
RTVSPropertyOp11
 70
     1
102
RTVSPropertyOp12
 70
     1
102
RTVSPropertyOp13
 70
     1
102
RTVSPropertyOp14
 70
     1
102
RTVSPropertyOp15
 70
     1
102
RTVSPropertyOp16
 70
     1
102
RTVSPropertyOp17
 70
     1
102
RTVSPropertyOp18
 70
     1
102
RTVSPropertyOp19
 70
     1
102
RTVSPropertyOp20
 70
     1
102
RTVSPropertyOp21
 70
     1
102
RTVSPropertyOp22
 70
     1
102
RTVSPropertyOp23
 70
     1
102
RTVSPropertyOp24
 70
     1
102
RTVSPropertyOp25
 70
     1
102
RTVSPropertyOp26
 70
     1
102
RTVSPropertyOp27
 70
     1
  0
XRECORD
  5
1BCFE
102
{ACAD_REACTORS
330
1BCFD
102
}
330
1BCFD
100
AcDbXrecord
280
     1
102
RTVSPropertyOp0
 70
     1
102
RTVSPropertyOp1
 70
     1
102
RTVSPropertyOp2
 70
     1
102
RTVSPropertyOp3
 70
     1
102
RTVSPropertyOp4
 70
     1
102
RTVSPropertyOp5
 70
     1
102
RTVSPropertyOp6
 70
     1
102
RTVSPropertyOp7
 70
     1
102
RTVSPropertyOp8
 70
     1
102
RTVSPropertyOp9
 70
     1
102
RTVSPropertyOp10
 70
     1
102
RTVSPropertyOp11
 70
     1
102
RTVSPropertyOp12
 70
     1
102
RTVSPropertyOp13
 70
     1
102
RTVSPropertyOp14
 70
     1
102
RTVSPropertyOp15
 70
     1
102
RTVSPropertyOp16
 70
     1
102
RTVSPropertyOp17
 70
     1
102
RTVSPropertyOp18
 70
     1
102
RTVSPropertyOp19
 70
     1
102
RTVSPropertyOp20
 70
     1
102
RTVSPropertyOp21
 70
     1
102
RTVSPropertyOp22
 70
     1
102
RTVSPropertyOp23
 70
     1
102
RTVSPropertyOp24
 70
     1
102
RTVSPropertyOp25
 70
     1
102
RTVSPropertyOp26
 70
     1
102
RTVSPropertyOp27
 70
     1
  0
XRECORD
  5
1BD0C
102
{ACAD_REACTORS
330
1BD0B
102
}
330
1BD0B
100
AcDbXrecord
280
     1
102
RTVSPropertyOp0
 70
     1
102
RTVSPropertyOp1
 70
     1
102
RTVSPropertyOp2
 70
     1
102
RTVSPropertyOp3
 70
     1
102
RTVSPropertyOp4
 70
     1
102
RTVSPropertyOp5
 70
     1
102
RTVSPropertyOp6
 70
     1
102
RTVSPropertyOp7
 70
     1
102
RTVSPropertyOp8
 70
     1
102
RTVSPropertyOp9
 70
     1
102
RTVSPropertyOp10
 70
     1
102
RTVSPropertyOp11
 70
     1
102
RTVSPropertyOp12
 70
     1
102
RTVSPropertyOp13
 70
     1
102
RTVSPropertyOp14
 70
     1
102
RTVSPropertyOp15
 70
     1
102
RTVSPropertyOp16
 70
     1
102
RTVSPropertyOp17
 70
     1
102
RTVSPropertyOp18
 70
     1
102
RTVSPropertyOp19
 70
     1
102
RTVSPropertyOp20
 70
     1
102
RTVSPropertyOp21
 70
     1
102
RTVSPropertyOp22
 70
     1
102
RTVSPropertyOp23
 70
     1
102
RTVSPropertyOp24
 70
     1
102
RTVSPropertyOp25
 70
     1
102
RTVSPropertyOp26
 70
     1
102
RTVSPropertyOp27
 70
     1
  0
XRECORD
  5
1BD14
102
{ACAD_REACTORS
330
1BD13
102
}
330
1BD13
100
AcDbXrecord
280
     1
102
RTVSPropertyOp0
 70
     1
102
RTVSPropertyOp1
 70
     1
102
RTVSPropertyOp2
 70
     1
102
RTVSPropertyOp3
 70
     1
102
RTVSPropertyOp4
 70
     1
102
RTVSPropertyOp5
 70
     1
102
RTVSPropertyOp6
 70
     1
102
RTVSPropertyOp7
 70
     1
102
RTVSPropertyOp8
 70
     1
102
RTVSPropertyOp9
 70
     1
102
RTVSPropertyOp10
 70
     1
102
RTVSPropertyOp11
 70
     1
102
RTVSPropertyOp12
 70
     1
102
RTVSPropertyOp13
 70
     1
102
RTVSPropertyOp14
 70
     1
102
RTVSPropertyOp15
 70
     1
102
RTVSPropertyOp16
 70
     1
102
RTVSPropertyOp17
 70
     1
102
RTVSPropertyOp18
 70
     1
102
RTVSPropertyOp19
 70
     1
102
RTVSPropertyOp20
 70
     1
102
RTVSPropertyOp21
 70
     1
102
RTVSPropertyOp22
 70
     1
102
RTVSPropertyOp23
 70
     1
102
RTVSPropertyOp24
 70
     1
102
RTVSPropertyOp25
 70
     1
102
RTVSPropertyOp26
 70
     1
102
RTVSPropertyOp27
 70
     1
  0
XRECORD
  5
1BD06
102
{ACAD_REACTORS
330
1BD05
102
}
330
1BD05
100
AcDbXrecord
280
     1
102
RTVSPropertyOp0
 70
     1
102
RTVSPropertyOp1
 70
     1
102
RTVSPropertyOp2
 70
     1
102
RTVSPropertyOp3
 70
     1
102
RTVSPropertyOp4
 70
     1
102
RTVSPropertyOp5
 70
     1
102
RTVSPropertyOp6
 70
     1
102
RTVSPropertyOp7
 70
     1
102
RTVSPropertyOp8
 70
     1
102
RTVSPropertyOp9
 70
     1
102
RTVSPropertyOp10
 70
     1
102
RTVSPropertyOp11
 70
     1
102
RTVSPropertyOp12
 70
     1
102
RTVSPropertyOp13
 70
     1
102
RTVSPropertyOp14
 70
     1
102
RTVSPropertyOp15
 70
     1
102
RTVSPropertyOp16
 70
     1
102
RTVSPropertyOp17
 70
     1
102
RTVSPropertyOp18
 70
     1
102
RTVSPropertyOp19
 70
     1
102
RTVSPropertyOp20
 70
     1
102
RTVSPropertyOp21
 70
     1
102
RTVSPropertyOp22
 70
     1
102
RTVSPropertyOp23
 70
     1
102
RTVSPropertyOp24
 70
     1
102
RTVSPropertyOp25
 70
     1
102
RTVSPropertyOp26
 70
     1
102
RTVSPropertyOp27
 70
     1
  0
XRECORD
  5
1BD0A
102
{ACAD_REACTORS
330
1BD09
102
}
330
1BD09
100
AcDbXrecord
280
     1
102
RTVSPropertyOp0
 70
     1
102
RTVSPropertyOp1
 70
     1
102
RTVSPropertyOp2
 70
     1
102
RTVSPropertyOp3
 70
     1
102
RTVSPropertyOp4
 70
     1
102
RTVSPropertyOp5
 70
     1
102
RTVSPropertyOp6
 70
     1
102
RTVSPropertyOp7
 70
     1
102
RTVSPropertyOp8
 70
     1
102
RTVSPropertyOp9
 70
     1
102
RTVSPropertyOp10
 70
     1
102
RTVSPropertyOp11
 70
     1
102
RTVSPropertyOp12
 70
     1
102
RTVSPropertyOp13
 70
     1
102
RTVSPropertyOp14
 70
     1
102
RTVSPropertyOp15
 70
     1
102
RTVSPropertyOp16
 70
     1
102
RTVSPropertyOp17
 70
     1
102
RTVSPropertyOp18
 70
     1
102
RTVSPropertyOp19
 70
     1
102
RTVSPropertyOp20
 70
     1
102
RTVSPropertyOp21
 70
     1
102
RTVSPropertyOp22
 70
     1
102
RTVSPropertyOp23
 70
     1
102
RTVSPropertyOp24
 70
     1
102
RTVSPropertyOp25
 70
     1
102
RTVSPropertyOp26
 70
     1
102
RTVSPropertyOp27
 70
     1
  0
XRECORD
  5
1BD1A
102
{ACAD_REACTORS
330
1BD19
102
}
330
1BD19
100
AcDbXrecord
280
     1
102
RTVSPropertyOp0
 70
     0
102
RTVSPropertyOp1
 70
     0
102
RTVSPropertyOp2
 70
     0
102
RTVSPropertyOp3
 70
     0
102
RTVSPropertyOp4
 70
     0
102
RTVSPropertyOp5
 70
     0
102
RTVSPropertyOp6
 70
     0
102
RTVSPropertyOp7
 70
     0
102
RTVSPropertyOp8
 70
     0
102
RTVSPropertyOp9
 70
     0
102
RTVSPropertyOp10
 70
     0
102
RTVSPropertyOp11
 70
     0
102
RTVSPropertyOp12
 70
     0
102
RTVSPropertyOp13
 70
     0
102
RTVSPropertyOp14
 70
     2
102
RTVSPropertyOp15
 70
     0
102
RTVSPropertyOp16
 70
     0
102
RTVSPropertyOp17
 70
     0
102
RTVSPropertyOp18
 70
     0
102
RTVSPropertyOp19
 70
     0
102
RTVSPropertyOp20
 70
     0
102
RTVSPropertyOp21
 70
     0
102
RTVSPropertyOp22
 70
     0
102
RTVSPropertyOp23
 70
     0
102
RTVSPropertyOp24
 70
     0
102
RTVSPropertyOp25
 70
     0
102
RTVSPropertyOp26
 70
     0
102
RTVSPropertyOp27
 70
     0
  0
XRECORD
  5
1BD12
102
{ACAD_REACTORS
330
1BD11
102
}
330
1BD11
100
AcDbXrecord
280
     1
102
RTVSPropertyOp0
 70
     1
102
RTVSPropertyOp1
 70
     1
102
RTVSPropertyOp2
 70
     1
102
RTVSPropertyOp3
 70
     1
102
RTVSPropertyOp4
 70
     1
102
RTVSPropertyOp5
 70
     1
102
RTVSPropertyOp6
 70
     1
102
RTVSPropertyOp7
 70
     1
102
RTVSPropertyOp8
 70
     1
102
RTVSPropertyOp9
 70
     1
102
RTVSPropertyOp10
 70
     1
102
RTVSPropertyOp11
 70
     1
102
RTVSPropertyOp12
 70
     1
102
RTVSPropertyOp13
 70
     1
102
RTVSPropertyOp14
 70
     1
102
RTVSPropertyOp15
 70
     1
102
RTVSPropertyOp16
 70
     1
102
RTVSPropertyOp17
 70
     1
102
RTVSPropertyOp18
 70
     1
102
RTVSPropertyOp19
 70
     1
102
RTVSPropertyOp20
 70
     1
102
RTVSPropertyOp21
 70
     1
102
RTVSPropertyOp22
 70
     1
102
RTVSPropertyOp23
 70
     1
102
RTVSPropertyOp24
 70
     1
102
RTVSPropertyOp25
 70
     1
102
RTVSPropertyOp26
 70
     1
102
RTVSPropertyOp27
 70
     1
  0
XRECORD
  5
1BCF6
102
{ACAD_REACTORS
330
1BCF5
102
}
330
1BCF5
100
AcDbXrecord
280
     1
102
RTVSPropertyOp0
 70
     1
102
RTVSPropertyOp1
 70
     1
102
RTVSPropertyOp2
 70
     1
102
RTVSPropertyOp3
 70
     1
102
RTVSPropertyOp4
 70
     1
102
RTVSPropertyOp5
 70
     1
102
RTVSPropertyOp6
 70
     1
102
RTVSPropertyOp7
 70
     1
102
RTVSPropertyOp8
 70
     1
102
RTVSPropertyOp9
 70
     1
102
RTVSPropertyOp10
 70
     1
102
RTVSPropertyOp11
 70
     1
102
RTVSPropertyOp12
 70
     1
102
RTVSPropertyOp13
 70
     1
102
RTVSPropertyOp14
 70
     1
102
RTVSPropertyOp15
 70
     1
102
RTVSPropertyOp16
 70
     1
102
RTVSPropertyOp17
 70
     1
102
RTVSPropertyOp18
 70
     1
102
RTVSPropertyOp19
 70
     1
102
RTVSPropertyOp20
 70
     1
102
RTVSPropertyOp21
 70
     1
102
RTVSPropertyOp22
 70
     1
102
RTVSPropertyOp23
 70
     1
102
RTVSPropertyOp24
 70
     1
102
RTVSPropertyOp25
 70
     1
102
RTVSPropertyOp26
 70
     1
102
RTVSPropertyOp27
 70
     1
  0
XRECORD
  5
1BCF8
102
{ACAD_REACTORS
330
1BCF7
102
}
330
1BCF7
100
AcDbXrecord
280
     1
102
RTVSPropertyOp0
 70
     1
102
RTVSPropertyOp1
 70
     1
102
RTVSPropertyOp2
 70
     1
102
RTVSPropertyOp3
 70
     1
102
RTVSPropertyOp4
 70
     1
102
RTVSPropertyOp5
 70
     1
102
RTVSPropertyOp6
 70
     1
102
RTVSPropertyOp7
 70
     1
102
RTVSPropertyOp8
 70
     1
102
RTVSPropertyOp9
 70
     1
102
RTVSPropertyOp10
 70
     1
102
RTVSPropertyOp11
 70
     1
102
RTVSPropertyOp12
 70
     1
102
RTVSPropertyOp13
 70
     1
102
RTVSPropertyOp14
 70
     1
102
RTVSPropertyOp15
 70
     1
102
RTVSPropertyOp16
 70
     1
102
RTVSPropertyOp17
 70
     1
102
RTVSPropertyOp18
 70
     1
102
RTVSPropertyOp19
 70
     1
102
RTVSPropertyOp20
 70
     1
102
RTVSPropertyOp21
 70
     1
102
RTVSPropertyOp22
 70
     1
102
RTVSPropertyOp23
 70
     1
102
RTVSPropertyOp24
 70
     1
102
RTVSPropertyOp25
 70
     1
102
RTVSPropertyOp26
 70
     1
102
RTVSPropertyOp27
 70
     1
  0
XRECORD
  5
1BCFA
102
{ACAD_REACTORS
330
1BCF9
102
}
330
1BCF9
100
AcDbXrecord
280
     1
102
RTVSPropertyOp0
 70
     1
102
RTVSPropertyOp1
 70
     1
102
RTVSPropertyOp2
 70
     1
102
RTVSPropertyOp3
 70
     1
102
RTVSPropertyOp4
 70
     1
102
RTVSPropertyOp5
 70
     1
102
RTVSPropertyOp6
 70
     1
102
RTVSPropertyOp7
 70
     1
102
RTVSPropertyOp8
 70
     1
102
RTVSPropertyOp9
 70
     1
102
RTVSPropertyOp10
 70
     1
102
RTVSPropertyOp11
 70
     1
102
RTVSPropertyOp12
 70
     1
102
RTVSPropertyOp13
 70
     1
102
RTVSPropertyOp14
 70
     1
102
RTVSPropertyOp15
 70
     1
102
RTVSPropertyOp16
 70
     1
102
RTVSPropertyOp17
 70
     1
102
RTVSPropertyOp18
 70
     1
102
RTVSPropertyOp19
 70
     1
102
RTVSPropertyOp20
 70
     1
102
RTVSPropertyOp21
 70
     1
102
RTVSPropertyOp22
 70
     1
102
RTVSPropertyOp23
 70
     1
102
RTVSPropertyOp24
 70
     1
102
RTVSPropertyOp25
 70
     1
102
RTVSPropertyOp26
 70
     1
102
RTVSPropertyOp27
 70
     1
  0
XRECORD
  5
1BCFC
102
{ACAD_REACTORS
330
1BCFB
102
}
330
1BCFB
100
AcDbXrecord
280
     1
102
RTVSPropertyOp0
 70
     1
102
RTVSPropertyOp1
 70
     1
102
RTVSPropertyOp2
 70
     1
102
RTVSPropertyOp3
 70
     1
102
RTVSPropertyOp4
 70
     1
102
RTVSPropertyOp5
 70
     1
102
RTVSPropertyOp6
 70
     1
102
RTVSPropertyOp7
 70
     1
102
RTVSPropertyOp8
 70
     1
102
RTVSPropertyOp9
 70
     1
102
RTVSPropertyOp10
 70
     1
102
RTVSPropertyOp11
 70
     1
102
RTVSPropertyOp12
 70
     1
102
RTVSPropertyOp13
 70
     1
102
RTVSPropertyOp14
 70
     1
102
RTVSPropertyOp15
 70
     1
102
RTVSPropertyOp16
 70
     1
102
RTVSPropertyOp17
 70
     1
102
RTVSPropertyOp18
 70
     1
102
RTVSPropertyOp19
 70
     1
102
RTVSPropertyOp20
 70
     1
102
RTVSPropertyOp21
 70
     1
102
RTVSPropertyOp22
 70
     1
102
RTVSPropertyOp23
 70
     1
102
RTVSPropertyOp24
 70
     1
102
RTVSPropertyOp25
 70
     1
102
RTVSPropertyOp26
 70
     1
102
RTVSPropertyOp27
 70
     1
  0
XRECORD
  5
1BD16
102
{ACAD_REACTORS
330
1BD15
102
}
330
1BD15
100
AcDbXrecord
280
     1
102
RTVSPropertyOp0
 70
     0
102
RTVSPropertyOp1
 70
     0
102
RTVSPropertyOp2
 70
     0
102
RTVSPropertyOp3
 70
     0
102
RTVSPropertyOp4
 70
     0
102
RTVSPropertyOp5
 70
     0
102
RTVSPropertyOp6
 70
     0
102
RTVSPropertyOp7
 70
     0
102
RTVSPropertyOp8
 70
     0
102
RTVSPropertyOp9
 70
     0
102
RTVSPropertyOp10
 70
     0
102
RTVSPropertyOp11
 70
     0
102
RTVSPropertyOp12
 70
     0
102
RTVSPropertyOp13
 70
     0
102
RTVSPropertyOp14
 70
     2
102
RTVSPropertyOp15
 70
     0
102
RTVSPropertyOp16
 70
     0
102
RTVSPropertyOp17
 70
     0
102
RTVSPropertyOp18
 70
     0
102
RTVSPropertyOp19
 70
     0
102
RTVSPropertyOp20
 70
     0
102
RTVSPropertyOp21
 70
     0
102
RTVSPropertyOp22
 70
     0
102
RTVSPropertyOp23
 70
     0
102
RTVSPropertyOp24
 70
     0
102
RTVSPropertyOp25
 70
     0
102
RTVSPropertyOp26
 70
     0
102
RTVSPropertyOp27
 70
     0
  0
XRECORD
  5
1BD10
102
{ACAD_REACTORS
330
1BD0F
102
}
330
1BD0F
100
AcDbXrecord
280
     1
102
RTVSPropertyOp0
 70
     1
102
RTVSPropertyOp1
 70
     1
102
RTVSPropertyOp2
 70
     1
102
RTVSPropertyOp3
 70
     1
102
RTVSPropertyOp4
 70
     1
102
RTVSPropertyOp5
 70
     1
102
RTVSPropertyOp6
 70
     1
102
RTVSPropertyOp7
 70
     1
102
RTVSPropertyOp8
 70
     1
102
RTVSPropertyOp9
 70
     1
102
RTVSPropertyOp10
 70
     1
102
RTVSPropertyOp11
 70
     1
102
RTVSPropertyOp12
 70
     1
102
RTVSPropertyOp13
 70
     1
102
RTVSPropertyOp14
 70
     1
102
RTVSPropertyOp15
 70
     1
102
RTVSPropertyOp16
 70
     1
102
RTVSPropertyOp17
 70
     1
102
RTVSPropertyOp18
 70
     1
102
RTVSPropertyOp19
 70
     1
102
RTVSPropertyOp20
 70
     1
102
RTVSPropertyOp21
 70
     1
102
RTVSPropertyOp22
 70
     1
102
RTVSPropertyOp23
 70
     1
102
RTVSPropertyOp24
 70
     1
102
RTVSPropertyOp25
 70
     1
102
RTVSPropertyOp26
 70
     1
102
RTVSPropertyOp27
 70
     1
  0
XRECORD
  5
1BD18
102
{ACAD_REACTORS
330
1BD17
102
}
330
1BD17
100
AcDbXrecord
280
     1
102
RTVSPropertyOp0
 70
     0
102
RTVSPropertyOp1
 70
     0
102
RTVSPropertyOp2
 70
     0
102
RTVSPropertyOp3
 70
     0
102
RTVSPropertyOp4
 70
     0
102
RTVSPropertyOp5
 70
     0
102
RTVSPropertyOp6
 70
     0
102
RTVSPropertyOp7
 70
     0
102
RTVSPropertyOp8
 70
     0
102
RTVSPropertyOp9
 70
     0
102
RTVSPropertyOp10
 70
     0
102
RTVSPropertyOp11
 70
     0
102
RTVSPropertyOp12
 70
     0
102
RTVSPropertyOp13
 70
     0
102
RTVSPropertyOp14
 70
     2
102
RTVSPropertyOp15
 70
     0
102
RTVSPropertyOp16
 70
     0
102
RTVSPropertyOp17
 70
     0
102
RTVSPropertyOp18
 70
     0
102
RTVSPropertyOp19
 70
     0
102
RTVSPropertyOp20
 70
     0
102
RTVSPropertyOp21
 70
     0
102
RTVSPropertyOp22
 70
     0
102
RTVSPropertyOp23
 70
     0
102
RTVSPropertyOp24
 70
     0
102
RTVSPropertyOp25
 70
     0
102
RTVSPropertyOp26
 70
     0
102
RTVSPropertyOp27
 70
     0
  0
XRECORD
  5
1BD08
102
{ACAD_REACTORS
330
1BD07
102
}
330
1BD07
100
AcDbXrecord
280
     1
102
RTVSPropertyOp0
 70
     1
102
RTVSPropertyOp1
 70
     1
102
RTVSPropertyOp2
 70
     1
102
RTVSPropertyOp3
 70
     1
102
RTVSPropertyOp4
 70
     1
102
RTVSPropertyOp5
 70
     1
102
RTVSPropertyOp6
 70
     1
102
RTVSPropertyOp7
 70
     1
102
RTVSPropertyOp8
 70
     1
102
RTVSPropertyOp9
 70
     1
102
RTVSPropertyOp10
 70
     1
102
RTVSPropertyOp11
 70
     1
102
RTVSPropertyOp12
 70
     1
102
RTVSPropertyOp13
 70
     1
102
RTVSPropertyOp14
 70
     1
102
RTVSPropertyOp15
 70
     1
102
RTVSPropertyOp16
 70
     1
102
RTVSPropertyOp17
 70
     1
102
RTVSPropertyOp18
 70
     1
102
RTVSPropertyOp19
 70
     1
102
RTVSPropertyOp20
 70
     1
102
RTVSPropertyOp21
 70
     1
102
RTVSPropertyOp22
 70
     1
102
RTVSPropertyOp23
 70
     1
102
RTVSPropertyOp24
 70
     1
102
RTVSPropertyOp25
 70
     1
102
RTVSPropertyOp26
 70
     1
102
RTVSPropertyOp27
 70
     1
  0
XRECORD
  5
1BD0E
102
{ACAD_REACTORS
330
1BD0D
102
}
330
1BD0D
100
AcDbXrecord
280
     1
102
RTVSPropertyOp0
 70
     1
102
RTVSPropertyOp1
 70
     1
102
RTVSPropertyOp2
 70
     1
102
RTVSPropertyOp3
 70
     1
102
RTVSPropertyOp4
 70
     1
102
RTVSPropertyOp5
 70
     1
102
RTVSPropertyOp6
 70
     1
102
RTVSPropertyOp7
 70
     1
102
RTVSPropertyOp8
 70
     1
102
RTVSPropertyOp9
 70
     1
102
RTVSPropertyOp10
 70
     1
102
RTVSPropertyOp11
 70
     1
102
RTVSPropertyOp12
 70
     1
102
RTVSPropertyOp13
 70
     1
102
RTVSPropertyOp14
 70
     1
102
RTVSPropertyOp15
 70
     1
102
RTVSPropertyOp16
 70
     1
102
RTVSPropertyOp17
 70
     1
102
RTVSPropertyOp18
 70
     1
102
RTVSPropertyOp19
 70
     1
102
RTVSPropertyOp20
 70
     1
102
RTVSPropertyOp21
 70
     1
102
RTVSPropertyOp22
 70
     1
102
RTVSPropertyOp23
 70
     1
102
RTVSPropertyOp24
 70
     1
102
RTVSPropertyOp25
 70
     1
102
RTVSPropertyOp26
 70
     1
102
RTVSPropertyOp27
 70
     1
  0
ENDSEC
  0
EOF
