  0
SECTION
  2
HEADER
  9
$ACADVER
  1
AC1015
  9
$ACADMAINTVER
 70
    20
  9
$DWGCODEPAGE
  3
ANSI_1252
  9
$INSBASE
 10
0.0
 20
0.0
 30
0.0
  9
$EXTMIN
 10
-0.0000000000000568
 20
0.0
 30
0.0
  9
$EXTMAX
 10
438.3000000000003
 20
298.9000000000003
 30
0.0
  9
$LIMMIN
 10
-0.0000000000000568
 20
0.0
  9
$LIMMAX
 10
420.0
 20
297.0
  9
$ORTHOMODE
 70
     0
  9
$REGENMODE
 70
     1
  9
$FILLMODE
 70
     1
  9
$QTEXTMODE
 70
     0
  9
$MIRRTEXT
 70
     1
  9
$LTSCALE
 40
1.0
  9
$ATTMODE
 70
     1
  9
$TEXTSIZE
 40
2.5
  9
$TRACEWID
 40
1.0
  9
$TEXTSTYLE
  7
Standard
  9
$CLAYER
  8
0
  9
$CELTYPE
  6
ByLayer
  9
$CECOLOR
 62
   256
  9
$CELTSCALE
 40
1.0
  9
$DISPSILH
 70
     0
  9
$DIMSCALE
 40
1.0
  9
$DIMASZ
 40
2.5
  9
$DIMEXO
 40
1.0
  9
$DIMDLI
 40
10.0
  9
$DIMRND
 40
0.0
  9
$DIMDLE
 40
0.0
  9
$DIMEXE
 40
1.0
  9
$DIMTP
 40
0.1
  9
$DIMTM
 40
0.1
  9
$DIMTXT
 40
3.5
  9
$DIMCEN
 40
0.0
  9
$DIMTSZ
 40
0.0
  9
$DIMTOL
 70
     0
  9
$DIMLIM
 70
     0
  9
$DIMTIH
 70
     0
  9
$DIMTOH
 70
     0
  9
$DIMSE1
 70
     0
  9
$DIMSE2
 70
     0
  9
$DIMTAD
 70
     1
  9
$DIMZIN
 70
     8
  9
$DIMBLK
  1

  9
$DIMASO
 70
     1
  9
$DIMSHO
 70
     1
  9
$DIMPOST
  1

  9
$DIMAPOST
  1
"
  9
$DIMALT
 70
     0
  9
$DIMALTD
 70
     2
  9
$DIMALTF
 40
0.0393701
  9
$DIMLFAC
 40
1.0
  9
$DIMTOFL
 70
     1
  9
$DIMTVP
 40
0.0
  9
$DIMTIX
 70
     0
  9
$DIMSOXD
 70
     0
  9
$DIMSAH
 70
     0
  9
$DIMBLK1
  1

  9
$DIMBLK2
  1

  9
$DIMSTYLE
  2
AM_DIN
  9
$DIMCLRD
 70
   256
  9
$DIMCLRE
 70
   256
  9
$DIMCLRT
 70
     2
  9
$DIMTFAC
 40
0.71
  9
$DIMGAP
 40
1.5
  9
$DIMJUST
 70
     0
  9
$DIMSD1
 70
     0
  9
$DIMSD2
 70
     0
  9
$DIMTOLJ
 70
     0
  9
$DIMTZIN
 70
     8
  9
$DIMALTZ
 70
     0
  9
$DIMALTTZ
 70
     0
  9
$DIMUPT
 70
     0
  9
$DIMDEC
 70
     1
  9
$DIMTDEC
 70
     3
  9
$DIMALTU
 70
     2
  9
$DIMALTTD
 70
     4
  9
$DIMTXSTY
  7
Standard
  9
$DIMAUNIT
 70
     0
  9
$DIMADEC
 70
     0
  9
$DIMALTRND
 40
0.0
  9
$DIMAZIN
 70
     2
  9
$DIMDSEP
 70
    46
  9
$DIMATFIT
 70
     3
  9
$DIMFRAC
 70
     0
  9
$DIMLDRBLK
  1

  9
$DIMLUNIT
 70
     2
  9
$DIMLWD
 70
    -1
  9
$DIMLWE
 70
    -1
  9
$DIMTMOVE
 70
     0
  9
$LUNITS
 70
     2
  9
$LUPREC
 70
     4
  9
$SKETCHINC
 40
1.0
  9
$FILLETRAD
 40
0.0
  9
$AUNITS
 70
     0
  9
$AUPREC
 70
     0
  9
$MENU
  1
.
  9
$ELEVATION
 40
0.0
  9
$PELEVATION
 40
0.0
  9
$THICKNESS
 40
0.0
  9
$LIMCHECK
 70
     0
  9
$CHAMFERA
 40
10.0
  9
$CHAMFERB
 40
10.0
  9
$CHAMFERC
 40
20.0
  9
$CHAMFERD
 40
0.0
  9
$SKPOLY
 70
     0
  9
$TDCREATE
 40
2452544.484270219
  9
$TDUCREATE
 40
2452544.442603553
  9
$TDUPDATE
 40
2455146.398319688
  9
$TDUUPDATE
 40
2455146.356653021
  9
$TDINDWG
 40
0.3794510648
  9
$TDUSRTIMER
 40
0.3794507176
  9
$USRTIMER
 70
     1
  9
$ANGBASE
 50
0.0
  9
$ANGDIR
 70
     0
  9
$PDMODE
 70
     0
  9
$PDSIZE
 40
0.0
  9
$PLINEWID
 40
0.0
  9
$SPLFRAME
 70
     0
  9
$SPLINETYPE
 70
     6
  9
$SPLINESEGS
 70
     8
  9
$HANDSEED
  5
19A0
  9
$SURFTAB1
 70
     6
  9
$SURFTAB2
 70
     6
  9
$SURFTYPE
 70
     6
  9
$SURFU
 70
     6
  9
$SURFV
 70
     6
  9
$UCSBASE
  2

  9
$UCSNAME
  2

  9
$UCSORG
 10
0.0
 20
0.0
 30
0.0
  9
$UCSXDIR
 10
1.0
 20
0.0
 30
0.0
  9
$UCSYDIR
 10
0.0
 20
1.0
 30
0.0
  9
$UCSORTHOREF
  2

  9
$UCSORTHOVIEW
 70
     0
  9
$UCSORGTOP
 10
0.0
 20
0.0
 30
0.0
  9
$UCSORGBOTTOM
 10
0.0
 20
0.0
 30
0.0
  9
$UCSORGLEFT
 10
0.0
 20
0.0
 30
0.0
  9
$UCSORGRIGHT
 10
0.0
 20
0.0
 30
0.0
  9
$UCSORGFRONT
 10
0.0
 20
0.0
 30
0.0
  9
$UCSORGBACK
 10
0.0
 20
0.0
 30
0.0
  9
$PUCSBASE
  2

  9
$PUCSNAME
  2

  9
$PUCSORG
 10
0.0
 20
0.0
 30
0.0
  9
$PUCSXDIR
 10
1.0
 20
0.0
 30
0.0
  9
$PUCSYDIR
 10
0.0
 20
1.0
 30
0.0
  9
$PUCSORTHOREF
  2

  9
$PUCSORTHOVIEW
 70
     0
  9
$PUCSORGTOP
 10
0.0
 20
0.0
 30
0.0
  9
$PUCSORGBOTTOM
 10
0.0
 20
0.0
 30
0.0
  9
$PUCSORGLEFT
 10
0.0
 20
0.0
 30
0.0
  9
$PUCSORGRIGHT
 10
0.0
 20
0.0
 30
0.0
  9
$PUCSORGFRONT
 10
0.0
 20
0.0
 30
0.0
  9
$PUCSORGBACK
 10
0.0
 20
0.0
 30
0.0
  9
$USERI1
 70
     0
  9
$USERI2
 70
     0
  9
$USERI3
 70
     0
  9
$USERI4
 70
     0
  9
$USERI5
 70
     0
  9
$USERR1
 40
0.0
  9
$USERR2
 40
0.0
  9
$USERR3
 40
0.0
  9
$USERR4
 40
0.0
  9
$USERR5
 40
0.0
  9
$WORLDVIEW
 70
     1
  9
$SHADEDGE
 70
     3
  9
$SHADEDIF
 70
    70
  9
$TILEMODE
 70
     1
  9
$MAXACTVP
 70
    64
  9
$PINSBASE
 10
0.0
 20
0.0
 30
0.0
  9
$PLIMCHECK
 70
     0
  9
$PEXTMIN
 10
0.0
 20
0.0
 30
0.0
  9
$PEXTMAX
 10
0.0
 20
0.0
 30
0.0
  9
$PLIMMIN
 10
0.0
 20
0.0
  9
$PLIMMAX
 10
12.0
 20
9.0
  9
$UNITMODE
 70
     0
  9
$VISRETAIN
 70
     1
  9
$PLINEGEN
 70
     0
  9
$PSLTSCALE
 70
     1
  9
$TREEDEPTH
 70
  3020
  9
$CMLSTYLE
  2
Standard
  9
$CMLJUST
 70
     0
  9
$CMLSCALE
 40
20.0
  9
$PROXYGRAPHICS
 70
     1
  9
$MEASUREMENT
 70
     1
  9
$CELWEIGHT
370
    -1
  9
$ENDCAPS
280
     0
  9
$JOINSTYLE
280
     0
  9
$LWDISPLAY
290
     0
  9
$INSUNITS
 70
     4
  9
$HYPERLINKBASE
  1

  9
$STYLESHEET
  1
monochrome.ctb
  9
$XEDIT
290
     1
  9
$CEPSNTYPE
380
     0
  9
$PSTYLEMODE
290
     1
  9
$FINGERPRINTGUID
  2
{FDEAD578-A652-11D2-9A35-0060089B3A3F}
  9
$VERSIONGUID
  2
{D84C9AD6-1523-4D82-A46B-93CB1A953166}
  9
$EXTNAMES
290
     1
  9
$PSVPSCALE
 40
0.0
  9
$OLESTARTUP
290
     0
  0
ENDSEC
  0
SECTION
  2
CLASSES
  0
CLASS
  1
ACDBDICTIONARYWDFLT
  2
AcDbDictionaryWithDefault
  3
ObjectDBX Classes
 90
        0
280
     0
281
     0
  0
CLASS
  1
ACDBPLACEHOLDER
  2
AcDbPlaceHolder
  3
ObjectDBX Classes
 90
        0
280
     0
281
     0
  0
CLASS
  1
LAYOUT
  2
AcDbLayout
  3
ObjectDBX Classes
 90
        0
280
     0
281
     0
  0
CLASS
  1
DICTIONARYVAR
  2
AcDbDictionaryVar
  3
ObjectDBX Classes
 90
        0
280
     0
281
     0
  0
CLASS
  1
TABLESTYLE
  2
AcDbTableStyle
  3
ObjectDBX Classes
 90
     4095
280
     0
281
     0
  0
CLASS
  1
ACME_DOCUMENT
  2
AcMeDbDoc
  3
AcMeServices
 90
     1024
280
     0
281
     0
  0
CLASS
  1
AMGSETTINGSOBJ
  2
AmgSettingsObj
  3
"AcadM|Product Description: AutoCAD Mechanical|Company: Autodesk, Inc."
 90
     1024
280
     0
281
     0
  0
CLASS
  1
ACMESCOPE
  2
AcMeScope
  3
AcMeServices
 90
     1024
280
     0
281
     0
  0
CLASS
  1
ACMECOMMANDHISTORY
  2
AcMeCommandHistory
  3
AcMeServices
 90
     1024
280
     0
281
     0
  0
CLASS
  1
ACIMSYSVARMAN
  2
AcImSysVarManager
  3
AcMeServices
 90
     1024
280
     0
281
     0
  0
CLASS
  1
ACIMINTSYSVAR
  2
AcImIntSysVar
  3
AcMeServices
 90
     1024
280
     0
281
     0
  0
CLASS
  1
ACMEDRAWINGMAN
  2
AcMeDrawingMan
  3
AcMeServices
 90
     1024
280
     0
281
     0
  0
CLASS
  1
ACMEVIEW
  2
AcMeView
  3
AcMeServices
 90
     1024
280
     0
281
     0
  0
CLASS
  1
ACDBENTITYCACHE
  2
AcMeEntityCache
  3
AcMeServices
 90
     1024
280
     0
281
     0
  0
CLASS
  1
GSMANAGER
  2
AcMeGSManager
  3
AcMeServices
 90
     1024
280
     0
281
     0
  0
CLASS
  1
AMDTINTERNALREACTOR
  2
AmdtInternalReactor
  3
AcMeServices
 90
     1024
280
     0
281
     0
  0
CLASS
  1
ACMESTATEMGR
  2
AcMeStateMgr
  3
AcMeServices
 90
     1024
280
     0
281
     0
  0
CLASS
  1
ACGREFMASTER
  2
AcGrefMaster
  3
AcAttribServices
 90
     1024
280
     0
281
     0
  0
CLASS
  1
AM_DRAWING_MGR
  2
AcDmDwgMgr
  3
AcMechDwgViewMgmt
 90
     1024
280
     0
281
     0
  0
CLASS
  1
AM_DWG_DOCUMENT
  2
AcDmDwgDocument
  3
AcMechDwgViewMgmt
 90
     1024
280
     0
281
     0
  0
CLASS
  1
AM_DWG_SHEET
  2
AcDmSheet
  3
AcMechDwgViewMgmt
 90
     1024
280
     0
281
     0
  0
CLASS
  1
AM_VIEWDIMPARMAP
  2
AcDmViewDimParMap
  3
AcMechDwgViewMgmt
 90
     1024
280
     0
281
     0
  0
CLASS
  1
ACIMREALSYSVAR
  2
AcImRealSysVar
  3
AcMeServices
 90
     1024
280
     0
281
     0
  0
CLASS
  1
AM_DWGMGR_NAME
  2
AcDmDwgMgrName
  3
AcMechDwgViewMgmt
 90
     1024
280
     0
281
     0
  0
CLASS
  1
ACME_DATABASE
  2
AcMeDbDatabase
  3
AcMeServices
 90
     1024
280
     0
281
     0
  0
CLASS
  1
ACRFINSADJUSTERMGR
  2
AcRfInsAdjusterMgr
  3
AcMeServices
 90
     1024
280
     0
281
     0
  0
CLASS
  1
ACGREFACADMASTER
  2
AcGrefacadMaster
  3
AcGrefServices
 90
     1024
280
     0
281
     0
  0
CLASS
  1
AMDTMENUSTATEMGR
  2
AmdtMenuStateMgr
  3
McadcomServices
 90
     1024
280
     0
281
     0
  0
CLASS
  1
AMDTMCOMMENUSTATE
  2
AmdtMcomMenuState
  3
McadcomServices
 90
     1024
280
     0
281
     0
  0
CLASS
  1
AMIMASTER
  2
AmiMaster
  3
AmiServices
 90
     1024
280
     0
281
     0
  0
CLASS
  1
MAPIAMMOUDLE
  2
MApiAmModule
  3
MApiAmServices
 90
     1024
280
     0
281
     0
  0
CLASS
  1
ACIMSTRSYSVAR
  2
AcImStrSysVar
  3
AcMeServices
 90
     1024
280
     0
281
     0
  0
CLASS
  1
AMDTADMENUSTATE
  2
AmdtAdMenuState
  3
DesignerServices
 90
     1024
280
     0
281
     0
  0
CLASS
  1
ADAPPL
  2
AcAdAppl
  3
DesignerServices
 90
     1024
280
     0
281
     0
  0
CLASS
  1
DEPMGR
  2
AcAdDepMgr
  3
DesignerServices
 90
     1024
280
     0
281
     0
  0
CLASS
  1
PARAMMGR
  2
AcAdParamMgr
  3
DesignerServices
 90
     1024
280
     0
281
     0
  0
CLASS
  1
PARAMSCOPE
  2
AcAdParamScope
  3
DesignerServices
 90
     1024
280
     0
281
     0
  0
CLASS
  1
NAMEDAPPL
  2
AcAdNamedAppl
  3
DesignerServices
 90
     1024
280
     0
281
     0
  0
CLASS
  1
AMDTDMMENUSTATE
  2
AmdtDmMenuState
  3
AcMechDwgViewMgmt
 90
     1024
280
     0
281
     0
  0
CLASS
  1
AMDTAMMENUSTATE
  2
AmdtAmMenuState
  3
DesignerAssemblies
 90
     1024
280
     0
281
     0
  0
CLASS
  1
ACAMPROJECT
  2
AcAmProject
  3
DesignerAssemblies
 90
     1024
280
     0
281
     0
  0
CLASS
  1
ACAMGRCOMPDEF
  2
AcAmGrCompDef
  3
DesignerAssemblies
 90
     1024
280
     0
281
     0
  0
CLASS
  1
ACCMCONTEXT
  2
AcCmContext
  3
DesignerAssemblies
 90
     1024
280
     0
281
     0
  0
CLASS
  1
ACAMCOMPDEF
  2
AcAmCompDef
  3
DesignerAssemblies
 90
     1024
280
     0
281
     0
  0
CLASS
  1
ACAMCOMPDEFMGR
  2
AcAmCompDefMgr
  3
DesignerAssemblies
 90
     1024
280
     0
281
     0
  0
CLASS
  1
AMCONTEXTMGR
  2
AcAmContextMgr
  3
DesignerAssemblies
 90
     1024
280
     0
281
     0
  0
CLASS
  1
ACAMCONTEXTMODELER
  2
AcAmContextModeler
  3
DesignerAssemblies
 90
     1024
280
     0
281
     0
  0
CLASS
  1
ACMDATADICTIONARY
  2
AcmDataDictionary
  3
"AcmSymBB|Product Description: AutoCAD Mechanical|Company: Autodesk, Inc."
 90
     1024
280
     0
281
     0
  0
CLASS
  1
CATALOGSTATE
  2
AcAmCatalogState
  3
DesignerAssemblies
 90
     1024
280
     0
281
     0
  0
CLASS
  1
ACAMGRCOMPDEFSET
  2
AcAmGrCompDefSet
  3
DesignerAssemblies
 90
     1024
280
     0
281
     0
  0
CLASS
  1
AMDTBROWSERDBTAB
  2
AmdtBrowserDbTab
  3
McadcomServices
 90
     1024
280
     0
281
     0
  0
CLASS
  1
CBROWSERAPPOBJECT
  2
CBrowserAppObject
  3
McadcomServices
 90
     1024
280
     0
281
     0
  0
CLASS
  1
DM_PLACEHOLDER
  2
AcDmSelsetPlaceholder
  3
AcMechDwgViewMgmt
 90
     1024
280
     0
281
     0
  0
CLASS
  1
ACMSTANDARDDIN
  2
AcmStandardDIN
  3
"Amdt_StdImp|Product Description: AutoCAD Mechanical|Company: Autodesk, Inc."
 90
     1024
280
     0
281
     0
  0
CLASS
  1
AMGOBJPROPCFG
  2
AmgObjPropCfg
  3
"AmgLay|Product Description: AutoCAD Mechanical|Company: Autodesk, Inc."
 90
     1025
280
     0
281
     0
  0
CLASS
  1
AMDTEDGESTANDARDDIN13715
  2
AmdtEdgeStdDIN13715
  3
"Amdt_StdImp|Product Description: AutoCAD Mechanical|Company: Autodesk, Inc."
 90
     1024
280
     0
281
     0
  0
CLASS
  1
ACMSURFSTANDARDDIN
  2
AcmSurfTextStdDIN
  3
"Amdt_StdImp|Product Description: AutoCAD Mechanical|Company: Autodesk, Inc."
 90
     1024
280
     0
281
     0
  0
CLASS
  1
ACMFCFSTANDARDDIN
  2
AcmFCFStdDIN
  3
"Amdt_StdImp|Product Description: AutoCAD Mechanical|Company: Autodesk, Inc."
 90
     1024
280
     0
281
     0
  0
CLASS
  1
ACMWELDSTANDARDDIN
  2
AcmWeldingStdDIN
  3
"Amdt_StdImp|Product Description: AutoCAD Mechanical|Company: Autodesk, Inc."
 90
     1024
280
     0
281
     0
  0
CLASS
  1
ACMIDSTANDARDDIN
  2
AcmIdStdDIN
  3
"Amdt_StdImp|Product Description: AutoCAD Mechanical|Company: Autodesk, Inc."
 90
     1024
280
     0
281
     0
  0
CLASS
  1
ACMDATUMSTANDARDDIN
  2
AcmDatumStdDIN
  3
"Amdt_StdImp|Product Description: AutoCAD Mechanical|Company: Autodesk, Inc."
 90
     1024
280
     0
281
     0
  0
CLASS
  1
ACMBOMSTANDARDDIN
  2
AcmBOMStdDIN
  3
"Amdt_StdImp|Product Description: AutoCAD Mechanical|Company: Autodesk, Inc."
 90
     1024
280
     0
281
     0
  0
CLASS
  1
ACMDETAILSTANDARDDIN
  2
AmdtDetailSymStdDIN
  3
"Amdt_StdImp|Product Description: AutoCAD Mechanical|Company: Autodesk, Inc."
 90
     1024
280
     0
281
     0
  0
CLASS
  1
ACMSECTIONSTANDARDDIN
  2
AmdtSectionSymStdDIN
  3
"Amdt_StdImp|Product Description: AutoCAD Mechanical|Company: Autodesk, Inc."
 90
     1024
280
     0
281
     0
  0
CLASS
  1
ACMCENTERLINESTANDARDDIN
  2
AmdtCenterLineStdDIN
  3
"Amdt_StdImp|Product Description: AutoCAD Mechanical|Company: Autodesk, Inc."
 90
     1024
280
     0
281
     0
  0
CLASS
  1
ACMTHREADLINESTANDARDDIN
  2
AmdtThreadLineStdDIN
  3
"Amdt_StdImp|Product Description: AutoCAD Mechanical|Company: Autodesk, Inc."
 90
     1024
280
     0
281
     0
  0
CLASS
  1
ACMNOTESTANDARDDIN
  2
AmdtNoteStdDIN
  3
"Amdt_StdImp|Product Description: AutoCAD Mechanical|Company: Autodesk, Inc."
 90
     1024
280
     0
281
     0
  0
CLASS
  1
AMDTNOTETEMPLATEDB
  2
AmdtNoteTemplateDB
  3
AcmSymBB|Product Description: AutoCAD Mechanical|Company: Autodesk, Inc.
 90
     1024
280
     0
281
     0
  0
CLASS
  1
ACAMGLAYSTD
  2
AcAmgLayStd
  3
"AmgLay|Product Description: AutoCAD Mechanical|Company: Autodesk, Inc."
 90
     1024
280
     0
281
     0
  0
CLASS
  1
ACAMGDIMSTD
  2
AcAmgDimStd
  3
"AmgDim|Product Description: AutoCAD Mechanical|Company: Autodesk, Inc."
 90
     1024
280
     0
281
     0
  0
CLASS
  1
ACAMGHOLECHARTSTDDIN
  2
AcAmgHoleChartStdDIN
  3
AmgDim|Product Description: AutoCAD Mechanical|Company: Autodesk, Inc.
 90
     1024
280
     0
281
     0
  0
CLASS
  1
ACAMGTITLESTD
  2
AcAmgTitleStd
  3
"AmgTitle|Product Description: AutoCAD Mechanical|Company: Autodesk, Inc."
 90
     4095
280
     0
281
     0
  0
CLASS
  1
ACAMGFILTERDAT
  2
AcAmgFilterDat
  3
"AcadM|Product Description: AutoCAD Mechanical|Company: Autodesk, Inc."
 90
    33792
280
     0
281
     0
  0
CLASS
  1
DIMASSOC
  2
AcDbDimAssoc
  3
"AcDbDimAssoc|Product Desc:     AcDim ARX App For Dimension|Company:          Autodesk, Inc.|WEB Address:      www.autodesk.com"
 90
        0
280
     0
281
     0
  0
CLASS
  1
SORTENTSTABLE
  2
AcDbSortentsTable
  3
ObjectDBX Classes
 90
        0
280
     0
281
     0
  0
CLASS
  1
ACMSTANDARDANSI
  2
AcmStandardANSI
  3
"Amdt_StdImp|Product Description: AutoCAD Mechanical|Company: Autodesk, Inc."
 90
     1024
280
     0
281
     0
  0
CLASS
  1
ACMSURFSTANDARDANSI
  2
AcmSurfTextStdANSI
  3
"Amdt_StdImp|Product Description: AutoCAD Mechanical|Company: Autodesk, Inc."
 90
     1024
280
     0
281
     0
  0
CLASS
  1
ACMFCFSTANDARDANSI
  2
AcmFCFStdANSI
  3
"Amdt_StdImp|Product Description: AutoCAD Mechanical|Company: Autodesk, Inc."
 90
     1024
280
     0
281
     0
  0
CLASS
  1
ACMWELDSTANDARDANSI
  2
AcmWeldingStdANSI
  3
"Amdt_StdImp|Product Description: AutoCAD Mechanical|Company: Autodesk, Inc."
 90
     1024
280
     0
281
     0
  0
CLASS
  1
ACMIDSTANDARDANSI
  2
AcmIdStdANSI
  3
"Amdt_StdImp|Product Description: AutoCAD Mechanical|Company: Autodesk, Inc."
 90
     1024
280
     0
281
     0
  0
CLASS
  1
ACMDATUMSTANDARDANSI
  2
AcmDatumStdANSI
  3
"Amdt_StdImp|Product Description: AutoCAD Mechanical|Company: Autodesk, Inc."
 90
     1024
280
     0
281
     0
  0
CLASS
  1
ACMBOMSTANDARDANSI
  2
AcmBOMStdANSI
  3
"Amdt_StdImp|Product Description: AutoCAD Mechanical|Company: Autodesk, Inc."
 90
     1024
280
     0
281
     0
  0
CLASS
  1
ACMDETAILSTANDARDANSI
  2
AmdtDetailSymStdANSI
  3
"Amdt_StdImp|Product Description: AutoCAD Mechanical|Company: Autodesk, Inc."
 90
     1024
280
     0
281
     0
  0
CLASS
  1
ACMSECTIONSTANDARDANSI
  2
AmdtSectionSymStdANSI
  3
"Amdt_StdImp|Product Description: AutoCAD Mechanical|Company: Autodesk, Inc."
 90
     1024
280
     0
281
     0
  0
CLASS
  1
ACMCENTERLINESTANDARDANSI
  2
AmdtCenterLineStdANSI
  3
"Amdt_StdImp|Product Description: AutoCAD Mechanical|Company: Autodesk, Inc."
 90
     1024
280
     0
281
     0
  0
CLASS
  1
ACMTHREADLINESTANDARDANSI
  2
AmdtThreadLineStdANSI
  3
"Amdt_StdImp|Product Description: AutoCAD Mechanical|Company: Autodesk, Inc."
 90
     1024
280
     0
281
     0
  0
CLASS
  1
ACMNOTESTANDARDANSI
  2
AmdtNoteStdANSI
  3
"Amdt_StdImp|Product Description: AutoCAD Mechanical|Company: Autodesk, Inc."
 90
     1024
280
     0
281
     0
  0
CLASS
  1
ACAMGHOLECHARTSTDANSI
  2
AcAmgHoleChartStdANSI
  3
AmgDim|Product Description: AutoCAD Mechanical|Company: Autodesk, Inc.
 90
     1024
280
     0
281
     0
  0
CLASS
  1
ACMDATAENTRYBLOCK
  2
AcmDataEntryBlock
  3
AcmSymBB|Product Description: AutoCAD Mechanical|Company: Autodesk, Inc.
 90
     1024
280
     0
281
     0
  0
CLASS
  1
IMAGE
  2
AcDbRasterImage
  3
ISM
 90
     2175
280
     0
281
     1
  0
CLASS
  1
IMAGEDEF_REACTOR
  2
AcDbRasterImageDefReactor
  3
ISM
 90
        1
280
     0
281
     0
  0
CLASS
  1
IMAGEDEF
  2
AcDbRasterImageDef
  3
ISM
 90
        0
280
     0
281
     0
  0
CLASS
  1
RASTERVARIABLES
  2
AcDbRasterVariables
  3
ISM
 90
        0
280
     0
281
     0
  0
CLASS
  1
MATERIAL
  2
AcDbMaterial
  3
ObjectDBX Classes
 90
     1153
280
     0
281
     0
  0
CLASS
  1
VISUALSTYLE
  2
AcDbVisualStyle
  3
ObjectDBX Classes
 90
     4095
280
     0
281
     0
  0
CLASS
  1
SCALE
  2
AcDbScale
  3
ObjectDBX Classes
 90
     1153
280
     0
281
     0
  0
CLASS
  1
MLEADERSTYLE
  2
AcDbMLeaderStyle
  3
ACDB_MLEADERSTYLE_CLASS
 90
     4095
280
     0
281
     0
  0
CLASS
  1
ACMTAPERSTANDARDDIN
  2
AcmTaperStdDIN
  3
"Amdt_StdImp|Product Description: AutoCAD Mechanical|Company: Autodesk, Inc."
 90
     1024
280
     0
281
     0
  0
CLASS
  1
ACMANOOTATIONVIEWSTANDARDDIN
  2
AmdtAnViewStdDIN
  3
"Amdt_StdImp|Product Description: AutoCAD Mechanical|Company: Autodesk, Inc."
 90
     1024
280
     0
281
     0
  0
CLASS
  1
ACMTAPERSTANDARDANSI
  2
AcmTaperStdANSI
  3
"Amdt_StdImp|Product Description: AutoCAD Mechanical|Company: Autodesk, Inc."
 90
     1024
280
     0
281
     0
  0
CLASS
  1
ACMANOOTATIONVIEWSTANDARDANSI
  2
AmdtAnViewStdANSI
  3
"Amdt_StdImp|Product Description: AutoCAD Mechanical|Company: Autodesk, Inc."
 90
     1024
280
     0
281
     0
  0
CLASS
  1
EXACXREFPANELOBJECT
  2
ExAcXREFPanelObject
  3
EXAC_ESW
 90
     1025
280
     0
281
     0
  0
CLASS
  1
NPOCOLLECTION
  2
AcDbImpNonPersistentObjectsCollection
  3
ObjectDBX Classes
 90
     1153
280
     0
281
     0
  0
CLASS
  1
CELLSTYLEMAP
  2
AcDbCellStyleMap
  3
ObjectDBX Classes
 90
     1152
280
     0
281
     0
  0
ENDSEC
  0
SECTION
  2
TABLES
  0
TABLE
  2
VPORT
  5
8
330
0
100
AcDbSymbolTable
 70
     1
  0
VPORT
  5
191E
330
8
100
AcDbSymbolTableRecord
100
AcDbViewportTableRecord
  2
*Active
 70
     0
 10
0.0
 20
0.0
 11
1.0
 21
1.0
 12
225.1937592007493
 22
140.1038532441594
 13
0.0
 23
0.0
 14
2.5
 24
2.5
 15
10.0
 25
10.0
 16
0.0
 26
0.0
 36
1.0
 17
0.0
 27
0.0
 37
0.0
 40
347.4143911303312
 41
1.833531510107015
 42
50.0
 43
0.0
 44
0.0
 50
0.0
 51
0.0
 71
    16
 72
   100
 73
     1
 74
     3
 75
     0
 76
     0
 77
     0
 78
     0
281
     0
 65
     1
110
0.0
120
0.0
130
0.0
111
1.0
121
0.0
131
0.0
112
0.0
122
1.0
132
0.0
 79
     0
146
0.0
  0
ENDTAB
  0
TABLE
  2
LTYPE
  5
5
330
0
100
AcDbSymbolTable
 70
    32
  0
LTYPE
  5
14
330
5
100
AcDbSymbolTableRecord
100
AcDbLinetypeTableRecord
  2
ByBlock
 70
     0
  3

 72
    65
 73
     0
 40
0.0
  0
LTYPE
  5
15
330
5
100
AcDbSymbolTableRecord
100
AcDbLinetypeTableRecord
  2
ByLayer
 70
     0
  3

 72
    65
 73
     0
 40
0.0
  0
LTYPE
  5
16
330
5
100
AcDbSymbolTableRecord
100
AcDbLinetypeTableRecord
  2
Continuous
 70
     0
  3
Solid line
 72
    65
 73
     0
 40
0.0
  0
LTYPE
  5
B0
330
5
100
AcDbSymbolTableRecord
100
AcDbLinetypeTableRecord
  2
HIDDEN
 70
     0
  3
Verdeckt
 72
    65
 73
     2
 40
9.525
 49
6.349999999999999
 74
     0
 49
-3.174999999999999
 74
     0
  0
LTYPE
  5
B1
330
5
100
AcDbSymbolTableRecord
100
AcDbLinetypeTableRecord
  2
PHANTOM2
 70
     0
  3
Phantom (.5x) ___ _ _ ___ _ _ ___ _ _ ___ _ _
 72
    65
 73
     6
 40
31.75
 49
15.875
 74
     0
 49
-3.174999999999999
 74
     0
 49
3.174999999999999
 74
     0
 49
-3.174999999999999
 74
     0
 49
3.174999999999999
 74
     0
 49
-3.174999999999999
 74
     0
  0
LTYPE
  5
B2
330
5
100
AcDbSymbolTableRecord
100
AcDbLinetypeTableRecord
  2
CENTER
 70
     0
  3
Mitte ____ _ ____ _ ____ _ ____ _ ____ _ ____
 72
    65
 73
     4
 40
50.8
 49
31.75
 74
     0
 49
-6.349999999999999
 74
     0
 49
6.349999999999999
 74
     0
 49
-6.349999999999999
 74
     0
  0
LTYPE
  5
E9
330
5
100
AcDbSymbolTableRecord
100
AcDbLinetypeTableRecord
  2
Amconstr
 70
     0
  3
_______________________
 72
    65
 73
     2
 40
9999.0
 49
9999.0
 74
     0
 49
0.0
 74
     0
  0
LTYPE
  5
EE
330
5
100
AcDbSymbolTableRecord
100
AcDbLinetypeTableRecord
  2
Amzigzag
 70
     0
  3
/\/-/\/-/\/-/\/-/\/-/\/
 72
    65
 73
     2
 40
11.0001
 49
0.0001
 74
     4
 75
   136
340
ED
 46
0.04
 50
0.0
 44
0.0
 45
0.0
 49
-11.0
 74
     0
  0
LTYPE
  5
EF
330
5
100
AcDbSymbolTableRecord
100
AcDbLinetypeTableRecord
  2
AM_DIN_F_W050
 70
     0
  3
__ __ __ __ __ __ __ __ __ __ __ __ __ __ __
 72
    65
 73
     2
 40
6.25
 49
4.75
 74
     0
 49
-1.5
 74
     0
  0
LTYPE
  5
F0
330
5
100
AcDbSymbolTableRecord
100
AcDbLinetypeTableRecord
  2
AM_DIN_G_W050
 70
     0
  3
____ . ____ . ____ . ____ . ____ . ____ . ____
 72
    65
 73
     4
 40
13.75
 49
9.75
 74
     0
 49
-1.5
 74
     0
 49
1.0
 74
     0
 49
-1.5
 74
     0
  0
LTYPE
  5
F1
330
5
100
AcDbSymbolTableRecord
100
AcDbLinetypeTableRecord
  2
AM_DIN_K_W050
 70
     0
  3
_____ . . _____ . . _____ . . ____ .. ____
 72
    65
 73
     6
 40
16.25
 49
9.75
 74
     0
 49
-1.5
 74
     0
 49
1.0
 74
     0
 49
-1.5
 74
     0
 49
1.0
 74
     0
 49
-1.5
 74
     0
  0
LTYPE
  5
F2
330
5
100
AcDbSymbolTableRecord
100
AcDbLinetypeTableRecord
  2
AM_DIN_G_W050x2
 70
     0
  3
__ . __ . __ . __ . __ . __
 72
    65
 73
     4
 40
6.875
 49
4.75
 74
     0
 49
-0.875
 74
     0
 49
0.375
 74
     0
 49
-0.875
 74
     0
  0
LTYPE
  5
F3
330
5
100
AcDbSymbolTableRecord
100
AcDbLinetypeTableRecord
  2
AM_DIN_F_W050x2
 70
     0
  3
 _ _ _ _ _ _ _ _ _ _ _ _
 72
    65
 73
     2
 40
3.125
 49
2.25
 74
     0
 49
-0.875
 74
     0
  0
LTYPE
  5
102
330
5
100
AcDbSymbolTableRecord
100
AcDbLinetypeTableRecord
  2
ACDINWELD
 70
     0
  3
_ _ _ _ _
 72
    65
 73
     2
 40
2.0
 49
2.0
 74
     0
 49
-1.0
 74
     0
  0
LTYPE
  5
103
330
5
100
AcDbSymbolTableRecord
100
AcDbLinetypeTableRecord
  2
ACDINTGB
 70
     0
  3
__ . . __ . .
 72
    65
 73
     6
 40
9.0
 49
4.0
 74
     0
 49
-1.0
 74
     0
 49
1.0
 74
     0
 49
-1.0
 74
     0
 49
1.0
 74
     0
 49
-1.0
 74
     0
  0
LTYPE
  5
104
330
5
100
AcDbSymbolTableRecord
100
AcDbLinetypeTableRecord
  2
ACDINTGL
 70
     0
  3
_ _ _ _ _
 72
    65
 73
     2
 40
3.0
 49
2.0
 74
     0
 49
-1.0
 74
     0
  0
LTYPE
  5
17A
330
5
100
AcDbSymbolTableRecord
100
AcDbLinetypeTableRecord
  2
AM_ISO02W050
 70
     0
  3
__ __ __ __ __ __ __ __ __ __ __ __ __ __ __
 72
    65
 73
     2
 40
7.5
 49
6.0
 74
     0
 49
-1.5
 74
     0
  0
LTYPE
  5
17B
330
5
100
AcDbSymbolTableRecord
100
AcDbLinetypeTableRecord
  2
AM_ISO08W050
 70
     0
  3
____ . ____ . ____ . ____ . ____ . ____ . ____
 72
    65
 73
     4
 40
18.0
 49
12.0
 74
     0
 49
-1.5
 74
     0
 49
3.0
 74
     0
 49
-1.5
 74
     0
  0
LTYPE
  5
17C
330
5
100
AcDbSymbolTableRecord
100
AcDbLinetypeTableRecord
  2
AM_ISO09W050
 70
     0
  3
_____ . . _____ . . _____ . . ____ .. ____
 72
    65
 73
     6
 40
22.5
 49
12.0
 74
     0
 49
-1.5
 74
     0
 49
3.0
 74
     0
 49
-1.5
 74
     0
 49
3.0
 74
     0
 49
-1.5
 74
     0
  0
LTYPE
  5
17D
330
5
100
AcDbSymbolTableRecord
100
AcDbLinetypeTableRecord
  2
AM_ISO08W050x2
 70
     0
  3
__ . __ . __ . __ . __ . __
 72
    65
 73
     4
 40
9.0
 49
6.0
 74
     0
 49
-0.75
 74
     0
 49
1.5
 74
     0
 49
-0.75
 74
     0
  0
LTYPE
  5
17E
330
5
100
AcDbSymbolTableRecord
100
AcDbLinetypeTableRecord
  2
AM_ISO02W050x2
 70
     0
  3
 _ _ _ _ _ _ _ _ _ _ _ _
 72
    65
 73
     2
 40
3.75
 49
3.0
 74
     0
 49
-0.75
 74
     0
  0
LTYPE
  5
1FF
330
5
100
AcDbSymbolTableRecord
100
AcDbLinetypeTableRecord
  2
HIDDEN2
 70
     0
  3
Hidden (.5x) _ _ _ _ _ _ _ _ _ _ _ _ _ _ _ _ _
 72
    65
 73
     2
 40
0.1875
 49
0.125
 74
     0
 49
-0.0625
 74
     0
  0
LTYPE
  5
200
330
5
100
AcDbSymbolTableRecord
100
AcDbLinetypeTableRecord
  2
CENTER2
 70
     0
  3
Center (.5x) ___ _ ___ _ ___ _ ___ _ ___ _ ___
 72
    65
 73
     4
 40
1.125
 49
0.75
 74
     0
 49
-0.125
 74
     0
 49
0.125
 74
     0
 49
-0.125
 74
     0
  0
LTYPE
  5
201
330
5
100
AcDbSymbolTableRecord
100
AcDbLinetypeTableRecord
  2
Amzigzag2
 70
     0
  3
/\/-/\/-/\/-/\/-/\/-/\/
 72
    65
 73
     2
 40
0.4401
 49
0.0001
 74
     4
 75
   135
340
203
 46
0.0016
 50
0.0
 44
0.0
 45
0.0
 49
-0.4400000000000001
 74
     0
  0
LTYPE
  5
350
330
5
100
AcDbSymbolTableRecord
100
AcDbLinetypeTableRecord
  2
ACANSTGB
 70
     0
  3
__ . . __ . .
 72
    65
 73
     6
 40
0.35433070866
 49
0.15748031496
 74
     0
 49
-0.03937007874
 74
     0
 49
0.03937007874
 74
     0
 49
-0.03937007874
 74
     0
 49
0.03937007874
 74
     0
 49
-0.03937007874
 74
     0
  0
LTYPE
  5
351
330
5
100
AcDbSymbolTableRecord
100
AcDbLinetypeTableRecord
  2
ACANSTGL
 70
     0
  3
_ _ _ _ _
 72
    65
 73
     2
 40
0.11811023622
 49
0.07874015748
 74
     0
 49
-0.03937007874
 74
     0
  0
LTYPE
  5
578
330
5
100
AcDbSymbolTableRecord
100
AcDbLinetypeTableRecord
  2
AUSGEZOGEN
 70
     0
  3
Ausgezogene Linie
 72
    65
 73
     0
 40
0.0
  0
LTYPE
  5
579
330
5
100
AcDbSymbolTableRecord
100
AcDbLinetypeTableRecord
  2
STRICHPUNKT
 70
     0
  3
__ . __ . __ . __ . __ . __ . __ . __ . __ . __
 72
    65
 73
     4
 40
1.0
 49
0.5
 74
     0
 49
-0.25
 74
     0
 49
0.0
 74
     0
 49
-0.25
 74
     0
  0
LTYPE
  5
674
330
5
100
AcDbSymbolTableRecord
100
AcDbLinetypeTableRecord
  2
gen3
 70
     0
  3
-- -- -- -- -- -- -- -- -- -- -- -- -- -- --
 72
    65
 73
     2
 40
6.25
 49
4.75
 74
     0
 49
-1.5
 74
     0
  0
LTYPE
  5
675
330
5
100
AcDbSymbolTableRecord
100
AcDbLinetypeTableRecord
  2
gen7
 70
     0
  3
____ . ____ . ____ . ____ . ____ . ____ . ____
 72
    65
 73
     4
 40
13.75
 49
9.75
 74
     0
 49
-1.5
 74
     0
 49
1.0
 74
     0
 49
-1.5
 74
     0
  0
LTYPE
  5
676
330
5
100
AcDbSymbolTableRecord
100
AcDbLinetypeTableRecord
  2
gen3a
 70
     0
  3
 - - - - -
 72
    65
 73
     2
 40
3.125
 49
2.25
 74
     0
 49
-0.875
 74
     0
  0
LTYPE
  5
677
330
5
100
AcDbSymbolTableRecord
100
AcDbLinetypeTableRecord
  2
gen7a
 70
     0
  3
__ . __ . __
 72
    65
 73
     4
 40
6.875
 49
4.75
 74
     0
 49
-0.875
 74
     0
 49
0.375
 74
     0
 49
-0.875
 74
     0
  0
LTYPE
  5
678
330
5
100
AcDbSymbolTableRecord
100
AcDbLinetypeTableRecord
  2
gen4a
 70
     0
  3
_____ . . _____ . . _____ . . ____ .. ____
 72
    65
 73
     6
 40
16.25
 49
9.75
 74
     0
 49
-1.5
 74
     0
 49
1.0
 74
     0
 49
-1.5
 74
     0
 49
1.0
 74
     0
 49
-1.5
 74
     0
  0
LTYPE
  5
679
330
5
100
AcDbSymbolTableRecord
100
AcDbLinetypeTableRecord
  2
genzigzag
 70
     0
  3
/\/-/\/-/\/-/\/-/\/-/\/
 72
    65
 73
     2
 40
12.0001
 49
0.0001
 74
     4
 75
   135
340
ED
 46
2.0
 50
0.0
 44
0.0
 45
0.0
 49
-12.0
 74
     0
  0
ENDTAB
  0
TABLE
  2
LAYER
  5
2
102
{ACAD_XDICTIONARY
360
586
102
}
330
0
100
AcDbSymbolTable
 70
    17
  0
LAYER
  5
10
330
2
100
AcDbSymbolTableRecord
100
AcDbLayerTableRecord
  2
0
 70
     0
 62
     7
  6
Continuous
370
    -3
390
F
  0
LAYER
  5
202
330
2
100
AcDbSymbolTableRecord
100
AcDbLayerTableRecord
  2
AM_BOR
 70
     0
 62
     7
  6
Continuous
370
    50
390
F
  0
LAYER
  5
352
330
2
100
AcDbSymbolTableRecord
100
AcDbLayerTableRecord
  2
AM_7
 70
     0
 62
     4
  6
AM_ISO08W050
370
    25
390
F
1001
AcAecLayerStandard
1000

1000

  0
LAYER
  5
353
330
2
100
AcDbSymbolTableRecord
100
AcDbLayerTableRecord
  2
Defpoints
 70
     0
 62
     7
  6
Continuous
290
     0
370
    -3
390
F
  0
LAYER
  5
354
330
2
100
AcDbSymbolTableRecord
100
AcDbLayerTableRecord
  2
AM_5
 70
     0
 62
     3
  6
Continuous
370
    25
390
F
1001
AcAecLayerStandard
1000

1000

  0
LAYER
  5
57A
330
2
100
AcDbSymbolTableRecord
100
AcDbLayerTableRecord
  2
MITTE
 70
     0
 62
     1
  6
STRICHPUNKT
370
    -3
390
F
  0
LAYER
  5
57B
330
2
100
AcDbSymbolTableRecord
100
AcDbLayerTableRecord
  2
TEXT50
 70
     0
 62
     7
  6
Continuous
370
    -3
390
F
  0
LAYER
  5
57C
330
2
100
AcDbSymbolTableRecord
100
AcDbLayerTableRecord
  2
TEXT35
 70
     0
 62
   132
  6
Continuous
370
    -3
390
F
  0
LAYER
  5
57D
330
2
100
AcDbSymbolTableRecord
100
AcDbLayerTableRecord
  2
TEXT25
 70
     0
 62
     3
  6
Continuous
370
    -3
390
F
  0
LAYER
  5
57E
330
2
100
AcDbSymbolTableRecord
100
AcDbLayerTableRecord
  2
KOPF
 70
     0
 62
     1
  6
AUSGEZOGEN
370
    -3
390
F
  0
LAYER
  5
57F
330
2
100
AcDbSymbolTableRecord
100
AcDbLayerTableRecord
  2
Sperrlayer
 70
     1
 62
     7
  6
Continuous
370
    50
390
F
  0
LAYER
  5
580
330
2
100
AcDbSymbolTableRecord
100
AcDbLayerTableRecord
  2
RAHM2
 70
     0
 62
     1
  6
Continuous
370
    -3
390
F
  0
LAYER
  5
581
330
2
100
AcDbSymbolTableRecord
100
AcDbLayerTableRecord
  2
RAHM3
 70
     0
 62
     2
  6
Continuous
370
    -3
390
F
  0
LAYER
  5
582
330
2
100
AcDbSymbolTableRecord
100
AcDbLayerTableRecord
  2
0N
 70
     0
 62
     7
  6
Continuous
370
    -3
390
F
  0
LAYER
  5
810
330
2
100
AcDbSymbolTableRecord
100
AcDbLayerTableRecord
  2
AM_CL
 70
     0
 62
     1
  6
Amconstr
370
    25
390
F
1001
AcAecLayerStandard
1000

1000

  0
LAYER
  5
ADE
330
2
100
AcDbSymbolTableRecord
100
AcDbLayerTableRecord
  2
RAHM5
 70
     0
 62
     7
  6
Continuous
370
    -3
390
F
  0
LAYER
  5
ADF
330
2
100
AcDbSymbolTableRecord
100
AcDbLayerTableRecord
  2
AM_0
 70
     0
 62
     7
  6
Continuous
370
    50
390
F
  0
ENDTAB
  0
TABLE
  2
STYLE
  5
3
330
0
100
AcDbSymbolTable
 70
    12
  0
STYLE
  5
11
330
3
100
AcDbSymbolTableRecord
100
AcDbTextStyleTableRecord
  2
Standard
 70
     0
 40
0.0
 41
1.0
 50
0.0
 71
     0
 42
2.5
  3
isocp.shx
  4

  0
STYLE
  5
ED
330
3
100
AcDbSymbolTableRecord
100
AcDbTextStyleTableRecord
  2

 70
     1
 40
0.0
 41
1.0
 50
0.0
 71
     0
 42
2.5
  3
genltshp.shx
  4

  0
STYLE
  5
F4
330
3
100
AcDbSymbolTableRecord
100
AcDbTextStyleTableRecord
  2
ACDINTS
 70
     0
 40
1.0
 41
1.0
 50
0.0
 71
     0
 42
2.5
  3
isocp.shx
  4

  0
STYLE
  5
101
330
3
100
AcDbSymbolTableRecord
100
AcDbTextStyleTableRecord
  2
ACDINGDT
 70
     0
 40
0.0
 41
1.0
 50
0.0
 71
     0
 42
2.5
  3
AMGDT
  4

  0
STYLE
  5
203
330
3
100
AcDbSymbolTableRecord
100
AcDbTextStyleTableRecord
  2

 70
     1
 40
0.0
 41
1.0
 50
0.0
 71
     0
 42
0.2
  3
ltypeshp.shx
  4

  0
STYLE
  5
355
330
3
100
AcDbSymbolTableRecord
100
AcDbTextStyleTableRecord
  2
ACANSTS
 70
     0
 40
1.0
 41
1.0
 50
0.0
 71
     0
 42
0.2
  3
romans.shx
  4

  0
STYLE
  5
356
330
3
100
AcDbSymbolTableRecord
100
AcDbTextStyleTableRecord
  2
ACANSGDT
 70
     0
 40
0.0
 41
1.0
 50
0.0
 71
     0
 42
0.2
  3
AMGDT
  4

  0
STYLE
  5
583
330
3
100
AcDbSymbolTableRecord
100
AcDbTextStyleTableRecord
  2
TEXT20
 70
     0
 40
2.0
 41
0.8
 50
0.0
 71
     0
 42
2.0
  3
isocp3.shx
  4

  0
STYLE
  5
584
330
3
100
AcDbSymbolTableRecord
100
AcDbTextStyleTableRecord
  2
TEXT35
 70
     0
 40
3.5
 41
0.8
 50
0.0
 71
     0
 42
3.5
  3
isocp3.shx
  4

  0
STYLE
  5
585
330
3
100
AcDbSymbolTableRecord
100
AcDbTextStyleTableRecord
  2
TEXT50
 70
     0
 40
5.0
 41
0.8
 50
0.0
 71
     0
 42
5.0
  3
isocp3.shx
  4

  0
STYLE
  5
AE0
330
3
100
AcDbSymbolTableRecord
100
AcDbTextStyleTableRecord
  2
KOPF
 70
     0
 40
0.0
 41
0.9
 50
10.0
 71
     0
 42
2.5
  3
dutchi.ttf
  4

1001
ACAD
1000
Dutch801 Rm BT
1071
 16777234
  0
STYLE
  5
AE1
330
3
100
AcDbSymbolTableRecord
100
AcDbTextStyleTableRecord
  2
Anschrift
 70
     0
 40
0.0
 41
1.0
 50
0.0
 71
     0
 42
2.0
  3
News Gothic (True Type).ttf
  4

1001
ACAD
1000
News Gothic
1071
 33554434
  0
ENDTAB
  0
TABLE
  2
VIEW
  5
6
330
0
100
AcDbSymbolTable
 70
     6
  0
VIEW
  5
2AD
330
6
100
AcDbSymbolTableRecord
100
AcDbViewTableRecord
  2
AM_VIEW1
 70
     0
 40
148.5
 10
140.1712410501193
 20
222.75
 41
280.3424821002387
 11
0.0
 21
0.0
 31
1.0
 12
0.0
 22
0.0
 32
0.0
 42
50.0
 43
0.0
 44
0.0
 50
0.0
 71
    16
281
     0
 72
     0
  0
VIEW
  5
2AE
330
6
100
AcDbSymbolTableRecord
100
AcDbViewTableRecord
  2
AM_VIEW2
 70
     0
 40
148.5
 10
279.8287589498807
 20
222.75
 41
280.3424821002387
 11
0.0
 21
0.0
 31
1.0
 12
0.0
 22
0.0
 32
0.0
 42
50.0
 43
0.0
 44
0.0
 50
0.0
 71
    16
281
     0
 72
     0
  0
VIEW
  5
2AF
330
6
100
AcDbSymbolTableRecord
100
AcDbViewTableRecord
  2
AM_VIEW3
 70
     0
 40
148.5
 10
140.1712410501193
 20
74.25
 41
280.3424821002387
 11
0.0
 21
0.0
 31
1.0
 12
0.0
 22
0.0
 32
0.0
 42
50.0
 43
0.0
 44
0.0
 50
0.0
 71
    16
281
     0
 72
     0
  0
VIEW
  5
2B0
330
6
100
AcDbSymbolTableRecord
100
AcDbViewTableRecord
  2
AM_VIEW4
 70
     0
 40
148.5
 10
279.8287589498807
 20
74.25
 41
280.3424821002387
 11
0.0
 21
0.0
 31
1.0
 12
0.0
 22
0.0
 32
0.0
 42
50.0
 43
0.0
 44
0.0
 50
0.0
 71
    16
281
     0
 72
     0
  0
VIEW
  5
2B1
330
6
100
AcDbSymbolTableRecord
100
AcDbViewTableRecord
  2
AM_VIEW5
 70
     0
 40
148.5
 10
210.0
 20
148.5
 41
280.3424821002387
 11
0.0
 21
0.0
 31
1.0
 12
0.0
 22
0.0
 32
0.0
 42
50.0
 43
0.0
 44
0.0
 50
0.0
 71
    16
281
     0
 72
     0
  0
VIEW
  5
2B2
330
6
100
AcDbSymbolTableRecord
100
AcDbViewTableRecord
  2
AM_VIEW6
 70
     0
 40
296.99703
 10
210.0
 20
148.5
 41
560.6793573508354
 11
0.0
 21
0.0
 31
1.0
 12
0.0
 22
0.0
 32
0.0
 42
50.0
 43
0.0
 44
0.0
 50
0.0
 71
    16
281
     0
 72
     0
  0
ENDTAB
  0
TABLE
  2
UCS
  5
7
330
0
100
AcDbSymbolTable
 70
     0
  0
ENDTAB
  0
TABLE
  2
APPID
  5
9
330
0
100
AcDbSymbolTable
 70
    37
  0
APPID
  5
12
330
9
100
AcDbSymbolTableRecord
100
AcDbRegAppTableRecord
  2
ACAD
 70
     0
  0
APPID
  5
81
330
9
100
AcDbSymbolTableRecord
100
AcDbRegAppTableRecord
  2
MCAD_NO_VIS
 70
     0
  0
APPID
  5
82
330
9
100
AcDbSymbolTableRecord
100
AcDbRegAppTableRecord
  2
ACAD_TEMP_GRAPHIC
 70
     0
  0
APPID
  5
B4
330
9
100
AcDbSymbolTableRecord
100
AcDbRegAppTableRecord
  2
AD_DRAW
 70
     0
  0
APPID
  5
B7
330
9
100
AcDbSymbolTableRecord
100
AcDbRegAppTableRecord
  2
ACATTRIBSERVICES
 70
     0
  0
APPID
  5
D7
330
9
100
AcDbSymbolTableRecord
100
AcDbRegAppTableRecord
  2
DESIGNERASSEMBLIES
 70
     0
  0
APPID
  5
DD
330
9
100
AcDbSymbolTableRecord
100
AcDbRegAppTableRecord
  2
ACADM_DIM_EDIT
 70
     0
  0
APPID
  5
DE
330
9
100
AcDbSymbolTableRecord
100
AcDbRegAppTableRecord
  2
AMDT_DM_ADJ
 70
     0
  0
APPID
  5
10F
330
9
100
AcDbSymbolTableRecord
100
AcDbRegAppTableRecord
  2
ACAD_DSTYLE_DIMARC_LENGTH_SYMBOL
 70
     0
  0
APPID
  5
110
330
9
100
AcDbSymbolTableRecord
100
AcDbRegAppTableRecord
  2
ACAD_DSTYLE_DIMJOGGED_JOGANGLE_SYMBOL
 70
     0
  0
APPID
  5
205
330
9
100
AcDbSymbolTableRecord
100
AcDbRegAppTableRecord
  2
GENIUS_GENBLLY_14
 70
     0
  0
APPID
  5
292
330
9
100
AcDbSymbolTableRecord
100
AcDbRegAppTableRecord
  2
GENIUS_GENTRA_14
 70
     0
  0
APPID
  5
2A7
330
9
100
AcDbSymbolTableRecord
100
AcDbRegAppTableRecord
  2
GENIUS_GENOLIS_13
 70
     0
  0
APPID
  5
2A8
330
9
100
AcDbSymbolTableRecord
100
AcDbRegAppTableRecord
  2
GENIUS_GENOENT_13
 70
     0
  0
APPID
  5
2A9
330
9
100
AcDbSymbolTableRecord
100
AcDbRegAppTableRecord
  2
GENIUS_GENOBJ-N-TIT_13
 70
     0
  0
APPID
  5
2AA
330
9
100
AcDbSymbolTableRecord
100
AcDbRegAppTableRecord
  2
GENIUS_GENODEF_13
 70
     0
  0
APPID
  5
2AB
330
9
100
AcDbSymbolTableRecord
100
AcDbRegAppTableRecord
  2
GENIUS_GENTITLE_13
 70
     0
  0
APPID
  5
2AC
330
9
100
AcDbSymbolTableRecord
100
AcDbRegAppTableRecord
  2
GENIUS_GENOREF_13
 70
     0
  0
APPID
  5
2B3
330
9
100
AcDbSymbolTableRecord
100
AcDbRegAppTableRecord
  2
GENIUS_GENSCREG_15
 70
     0
  0
APPID
  5
2B4
330
9
100
AcDbSymbolTableRecord
100
AcDbRegAppTableRecord
  2
GENIUS_GENOBJ-N-SDF_13
 70
     0
  0
APPID
  5
35E
330
9
100
AcDbSymbolTableRecord
100
AcDbRegAppTableRecord
  2
AcAecLayerStandard
 70
     0
  0
APPID
  5
35F
330
9
100
AcDbSymbolTableRecord
100
AcDbRegAppTableRecord
  2
GENIUS_GENOBJ-N-CEN_13
 70
     0
  0
APPID
  5
360
330
9
100
AcDbSymbolTableRecord
100
AcDbRegAppTableRecord
  2
GENIUS_GENCEN_19
 70
     0
  0
APPID
  5
361
330
9
100
AcDbSymbolTableRecord
100
AcDbRegAppTableRecord
  2
GENIUS_GENOBJ-N-CRS_13
 70
     0
  0
APPID
  5
67B
330
9
100
AcDbSymbolTableRecord
100
AcDbRegAppTableRecord
  2
GENIUS_GENCFG_13
 70
     0
  0
APPID
  5
67C
330
9
100
AcDbSymbolTableRecord
100
AcDbRegAppTableRecord
  2
GENIUS_GENCFG0_13
 70
     0
  0
APPID
  5
67D
330
9
100
AcDbSymbolTableRecord
100
AcDbRegAppTableRecord
  2
GENIUS_GENCFG1_13
 70
     0
  0
APPID
  5
67E
330
9
100
AcDbSymbolTableRecord
100
AcDbRegAppTableRecord
  2
GENIUS_GENCFG2_13
 70
     0
  0
APPID
  5
67F
330
9
100
AcDbSymbolTableRecord
100
AcDbRegAppTableRecord
  2
GENIUS_GENCFG3_13
 70
     0
  0
APPID
  5
680
330
9
100
AcDbSymbolTableRecord
100
AcDbRegAppTableRecord
  2
GENIUS_GENCFG4_13
 70
     0
  0
APPID
  5
681
330
9
100
AcDbSymbolTableRecord
100
AcDbRegAppTableRecord
  2
GENIUS_VERSION2
 70
     0
  0
APPID
  5
682
330
9
100
AcDbSymbolTableRecord
100
AcDbRegAppTableRecord
  2
GENIUS_GENCFG5_13
 70
     0
  0
APPID
  5
683
330
9
100
AcDbSymbolTableRecord
100
AcDbRegAppTableRecord
  2
GENIUS_GEVCFG0_13
 70
     0
  0
APPID
  5
684
330
9
100
AcDbSymbolTableRecord
100
AcDbRegAppTableRecord
  2
GENIUS_GENREC_14
 70
     0
  0
APPID
  5
685
330
9
100
AcDbSymbolTableRecord
100
AcDbRegAppTableRecord
  2
GENIUS_GENOBJ-N-REC_13
 70
     0
  0
APPID
  5
142A
330
9
100
AcDbSymbolTableRecord
100
AcDbRegAppTableRecord
  2
ACAD_EXEMPT_FROM_CAD_STANDARDS
 70
     0
  0
APPID
  5
195D
330
9
100
AcDbSymbolTableRecord
100
AcDbRegAppTableRecord
  2
ACAD_MLEADERVER
 70
     0
  0
ENDTAB
  0
TABLE
  2
DIMSTYLE
  5
A
330
0
100
AcDbSymbolTable
 70
    18
100
AcDbDimStyleTable
 71
     4
340
10E
340
13C
340
133
340
27
  0
DIMSTYLE
105
27
330
A
100
AcDbSymbolTableRecord
100
AcDbDimStyleTableRecord
  2
ISO-25
 70
     0
 41
2.5
 42
0.625
 43
3.75
 44
1.25
 73
     0
 74
     0
 77
     1
 78
     8
140
2.5
141
2.5
143
0.03937007874016
147
0.625
171
     3
172
     1
271
     2
272
     2
274
     3
278
    44
283
     0
284
     8
340
11
  0
DIMSTYLE
105
10E
330
A
100
AcDbSymbolTableRecord
100
AcDbDimStyleTableRecord
  2
AM_DIN
 70
     0
  4
"
 41
2.5
 42
1.0
 43
10.0
 44
1.0
 47
0.1
 48
0.1
 73
     0
 74
     0
 77
     1
 78
     8
 79
     2
140
3.5
141
0.0
143
0.0393701
146
0.71
147
1.5
172
     1
176
   256
177
   256
178
     2
271
     2
272
     3
274
     4
283
     0
284
     8
340
11
371
    -1
372
    -1
1001
ACAD_DSTYLE_DIMJOGGED_JOGANGLE_SYMBOL
1070
   384
1040
1.570796326794896
  0
DIMSTYLE
105
11F
330
A
100
AcDbSymbolTableRecord
100
AcDbDimStyleTableRecord
  2
AM_DIN$3
 70
     0
  4
"
 41
2.5
 42
1.0
 43
10.0
 44
1.0
 47
0.1
 48
0.1
 73
     0
 77
     1
 78
     8
 79
     2
140
3.5
141
0.0
143
0.0393701
146
0.71
147
1.5
176
   256
177
   256
178
     2
271
     2
272
     3
274
     4
283
     0
284
     8
288
     1
289
     0
340
11
371
    -1
372
    -1
1001
ACAD_DSTYLE_DIMJOGGED_JOGANGLE_SYMBOL
1070
   384
1040
1.570796326794896
  0
DIMSTYLE
105
124
102
{ACAD_REACTORS
330
466
330
469
330
463
102
}
330
A
100
AcDbSymbolTableRecord
100
AcDbDimStyleTableRecord
  2
AM_DIN$4
 70
     0
  4
"
 41
2.5
 42
1.0
 43
10.0
 44
1.0
 47
0.1
 48
0.1
 73
     0
 77
     1
 78
     8
 79
     2
140
3.5
141
0.0
143
0.0393701
146
0.71
147
1.5
176
   256
177
   256
178
     2
271
     2
272
     3
274
     4
283
     0
284
     8
288
     1
289
     0
340
11
371
    -1
372
    -1
1001
ACAD_DSTYLE_DIMJOGGED_JOGANGLE_SYMBOL
1070
   384
1040
1.570796326794896
  0
DIMSTYLE
105
129
330
A
100
AcDbSymbolTableRecord
100
AcDbDimStyleTableRecord
  2
AM_DIN$6
 70
     0
  4
"
 41
2.5
 42
1.0
 43
10.0
 44
1.0
 47
0.1
 48
0.1
 73
     0
 74
     0
 78
     8
 79
     2
140
3.5
141
0.0
143
0.0393701
146
0.71
147
1.5
172
     1
176
   256
177
   256
178
     2
271
     2
272
     3
274
     4
283
     0
284
     8
340
11
371
    -1
372
    -1
1001
ACAD_DSTYLE_DIMJOGGED_JOGANGLE_SYMBOL
1070
   384
1040
1.570796326794896
  0
DIMSTYLE
105
12E
330
A
100
AcDbSymbolTableRecord
100
AcDbDimStyleTableRecord
  2
AM_DIN$7
 70
     0
  4
"
 41
2.5
 42
1.0
 43
10.0
 44
1.0
 47
0.1
 48
0.1
 73
     0
 74
     0
 77
     1
 78
     8
 79
     2
140
5.0
141
0.0
143
0.0393701
146
0.71
147
1.5
172
     1
176
   256
177
   256
178
     2
271
     2
272
     3
274
     4
283
     0
284
     8
340
11
371
    -1
372
    -1
1001
ACAD_DSTYLE_DIMJOGGED_JOGANGLE_SYMBOL
1070
   384
1040
1.570796326794896
  0
DIMSTYLE
105
133
330
A
100
AcDbSymbolTableRecord
100
AcDbDimStyleTableRecord
  2
AM_DIN$SF
 70
     0
  4
"
 41
2.5
 42
1.0
 43
10.0
 44
1.0
 47
0.1
 48
0.1
 73
     0
 74
     0
 75
     1
 76
     1
 77
     1
 78
     8
 79
     2
140
3.5
141
0.0
143
0.0393701
146
0.71
147
1.5
172
     1
176
   256
177
   256
178
     2
271
     2
272
     3
274
     4
283
     0
284
     8
340
11
371
    -1
372
    -1
1001
ACAD_DSTYLE_DIMJOGGED_JOGANGLE_SYMBOL
1070
   384
1040
1.570796326794896
  0
DIMSTYLE
105
13C
330
A
100
AcDbSymbolTableRecord
100
AcDbDimStyleTableRecord
  2
AM_DIN$SH
 70
     0
  4
"
 41
2.5
 42
1.0
 43
10.0
 44
1.0
 47
0.1
 48
0.1
 73
     0
 74
     0
 75
     1
 76
     1
 77
     1
 78
     8
 79
     2
140
3.5
141
0.0
143
0.0393701
144
2.0
146
0.71
147
1.5
172
     1
173
     1
176
   256
177
   256
178
     2
271
     2
272
     3
274
     4
283
     0
284
     8
340
11
343
134
371
    -1
372
    -1
1001
ACAD_DSTYLE_DIMJOGGED_JOGANGLE_SYMBOL
1070
   384
1040
1.570796326794896
  0
DIMSTYLE
105
204
330
A
100
AcDbSymbolTableRecord
100
AcDbDimStyleTableRecord
  2
Standard
 70
     0
340
11
  0
DIMSTYLE
105
357
330
A
100
AcDbSymbolTableRecord
100
AcDbDimStyleTableRecord
  2
AM_ANSI
 70
     0
  4
mm
 41
0.1
 42
0.05
 43
0.5
 44
0.1
 47
0.1
 48
0.1
 78
     7
 79
     2
140
0.12
141
0.0
146
0.71
147
0.06
176
   256
177
   256
178
     2
274
     4
284
     7
340
11
371
    -1
372
    -1
1001
ACAD_DSTYLE_DIMJOGGED_JOGANGLE_SYMBOL
1070
   384
1040
0.7853981633974483
1001
ACAD_DSTYLE_DIMARC_LENGTH_SYMBOL
1070
   379
1070
     1
  0
DIMSTYLE
105
358
330
A
100
AcDbSymbolTableRecord
100
AcDbDimStyleTableRecord
  2
AM_ANSI$3
 70
     0
  4
mm
 41
0.1
 42
0.05
 43
0.5
 44
0.1
 47
0.1
 48
0.1
 78
     7
 79
     2
140
0.12
141
0.0
146
0.71
147
0.06
176
   256
177
   256
178
     2
274
     4
284
     7
288
     1
289
     0
340
11
371
    -1
372
    -1
1001
ACAD_DSTYLE_DIMJOGGED_JOGANGLE_SYMBOL
1070
   384
1040
0.7853981633974483
1001
ACAD_DSTYLE_DIMARC_LENGTH_SYMBOL
1070
   379
1070
     1
  0
DIMSTYLE
105
359
330
A
100
AcDbSymbolTableRecord
100
AcDbDimStyleTableRecord
  2
AM_ANSI$4
 70
     0
  4
mm
 41
0.1
 42
0.05
 43
0.5
 44
0.1
 47
0.1
 48
0.1
 78
     7
 79
     2
140
0.12
141
0.0
146
0.71
147
0.06
176
   256
177
   256
178
     2
274
     4
284
     7
288
     1
289
     0
340
11
371
    -1
372
    -1
1001
ACAD_DSTYLE_DIMJOGGED_JOGANGLE_SYMBOL
1070
   384
1040
0.7853981633974483
1001
ACAD_DSTYLE_DIMARC_LENGTH_SYMBOL
1070
   379
1070
     1
  0
DIMSTYLE
105
35A
330
A
100
AcDbSymbolTableRecord
100
AcDbDimStyleTableRecord
  2
AM_ANSI$7
 70
     0
  4
mm
 41
0.1
 42
0.05
 43
0.5
 44
0.1
 47
0.1
 48
0.1
 78
     7
 79
     2
140
0.24
141
0.0
146
0.71
147
0.06
176
   256
177
   256
178
     2
274
     4
284
     7
340
11
371
    -1
372
    -1
1001
ACAD_DSTYLE_DIMJOGGED_JOGANGLE_SYMBOL
1070
   384
1040
0.7853981633974483
1001
ACAD_DSTYLE_DIMARC_LENGTH_SYMBOL
1070
   379
1070
     1
  0
DIMSTYLE
105
35B
330
A
100
AcDbSymbolTableRecord
100
AcDbDimStyleTableRecord
  2
AM_ANSI$SF
 70
     0
  4
mm
 41
0.1
 42
0.05
 43
0.5
 44
0.1
 47
0.1
 48
0.1
 75
     1
 76
     1
 78
     7
 79
     2
140
0.12
141
0.0
146
0.71
147
0.06
176
   256
177
   256
178
     2
274
     4
284
     7
340
11
371
    -1
372
    -1
1001
ACAD_DSTYLE_DIMJOGGED_JOGANGLE_SYMBOL
1070
   384
1040
0.7853981633974483
1001
ACAD_DSTYLE_DIMARC_LENGTH_SYMBOL
1070
   379
1070
     1
  0
DIMSTYLE
105
35C
330
A
100
AcDbSymbolTableRecord
100
AcDbDimStyleTableRecord
  2
AM_ANSI$SH
 70
     0
  4
mm
 41
0.1
 42
0.05
 43
0.5
 44
0.1
 47
0.1
 48
0.1
 75
     1
 76
     1
 78
     7
 79
     2
140
0.12
141
0.0
146
0.71
147
0.06
173
     1
176
   256
177
   256
178
     2
274
     4
284
     7
340
11
343
134
371
    -1
372
    -1
1001
ACAD_DSTYLE_DIMJOGGED_JOGANGLE_SYMBOL
1070
   384
1040
0.7853981633974483
1001
ACAD_DSTYLE_DIMARC_LENGTH_SYMBOL
1070
   379
1070
     1
  0
DIMSTYLE
105
35D
330
A
100
AcDbSymbolTableRecord
100
AcDbDimStyleTableRecord
  2
AM_ANSI$0
 70
     0
  4
mm
 41
0.1
 42
0.05
 43
0.5
 44
0.1
 47
0.1
 48
0.1
 78
     7
 79
     2
140
0.12
141
0.0
146
0.71
147
0.06
176
   256
177
   256
178
     2
274
     4
284
     7
340
11
371
    -1
372
    -1
1001
ACAD_DSTYLE_DIMJOGGED_JOGANGLE_SYMBOL
1070
   384
1040
0.7853981633974483
1001
ACAD_DSTYLE_DIMARC_LENGTH_SYMBOL
1070
   379
1070
     1
  0
DIMSTYLE
105
67A
330
A
100
AcDbSymbolTableRecord
100
AcDbDimStyleTableRecord
  2
GEN-ISO
 70
     0
 41
2.5
 42
1.0
 43
7.0
 44
1.0
 47
0.1
 48
0.1
 73
     0
 74
     0
 77
     1
 78
     8
140
3.5
141
0.0
143
0.0393701
146
0.71
147
0.6
172
     1
176
   256
177
   256
178
     2
271
     2
272
     3
274
     4
283
     0
340
11
  0
DIMSTYLE
105
BCF
102
{ACAD_REACTORS
330
481
330
475
330
472
330
478
330
46F
330
46C
330
145F
330
1492
330
14C6
330
1536
330
161B
330
164A
330
1685
330
16FA
330
1790
330
1824
102
}
330
A
100
AcDbSymbolTableRecord
100
AcDbDimStyleTableRecord
  2
AM_DIN$0
 70
     0
  4
"
 41
2.5
 42
1.0
 43
10.0
 44
1.0
 47
0.1
 48
0.1
 73
     0
 74
     0
 77
     1
 78
     8
 79
     2
140
3.5
141
0.0
143
0.0393701
146
0.71
147
1.5
172
     1
176
   256
177
   256
178
     2
271
     2
272
     3
274
     4
283
     0
284
     8
340
11
371
    -1
372
    -1
1001
ACAD_DSTYLE_DIMJOGGED_JOGANGLE_SYMBOL
1070
   384
1040
1.570796326794896
  0
ENDTAB
  0
TABLE
  2
BLOCK_RECORD
  5
1
330
0
100
AcDbSymbolTable
 70
    40
  0
BLOCK_RECORD
  5
1F
102
{ACAD_XDICTIONARY
360
185B
102
}
330
1
100
AcDbSymbolTableRecord
100
AcDbBlockTableRecord
  2
*Model_Space
340
22
  0
BLOCK_RECORD
  5
50
330
1
100
AcDbSymbolTableRecord
100
AcDbBlockTableRecord
  2
*Paper_Space
340
51
  0
BLOCK_RECORD
  5
55
330
1
100
AcDbSymbolTableRecord
100
AcDbBlockTableRecord
  2
*Paper_Space0
340
56
  0
BLOCK_RECORD
  5
134
330
1
100
AcDbSymbolTableRecord
100
AcDbBlockTableRecord
  2
GENAXEH
340
0
  0
BLOCK_RECORD
  5
206
330
1
100
AcDbSymbolTableRecord
100
AcDbBlockTableRecord
  2
DIN_A3
340
0
  0
BLOCK_RECORD
  5
256
330
1
100
AcDbSymbolTableRecord
100
AcDbBlockTableRecord
  2
DIN_TITLE
340
0
  0
BLOCK_RECORD
  5
4BF
330
1
100
AcDbSymbolTableRecord
100
AcDbBlockTableRecord
  2
*D5
340
0
  0
BLOCK_RECORD
  5
4C7
330
1
100
AcDbSymbolTableRecord
100
AcDbBlockTableRecord
  2
*D6
340
0
  0
BLOCK_RECORD
  5
4CF
330
1
100
AcDbSymbolTableRecord
100
AcDbBlockTableRecord
  2
*D7
340
0
  0
BLOCK_RECORD
  5
4D8
330
1
100
AcDbSymbolTableRecord
100
AcDbBlockTableRecord
  2
*D8
340
0
  0
BLOCK_RECORD
  5
4E5
330
1
100
AcDbSymbolTableRecord
100
AcDbBlockTableRecord
  2
*D9
340
0
  0
BLOCK_RECORD
  5
4F2
330
1
100
AcDbSymbolTableRecord
100
AcDbBlockTableRecord
  2
*D10
340
0
  0
BLOCK_RECORD
  5
4FF
330
1
100
AcDbSymbolTableRecord
100
AcDbBlockTableRecord
  2
*D11
340
0
  0
BLOCK_RECORD
  5
50C
330
1
100
AcDbSymbolTableRecord
100
AcDbBlockTableRecord
  2
*D12
340
0
  0
BLOCK_RECORD
  5
532
330
1
100
AcDbSymbolTableRecord
100
AcDbBlockTableRecord
  2
*D13
340
0
  0
BLOCK_RECORD
  5
588
102
{ACAD_XDICTIONARY
360
66B
102
}
330
1
100
AcDbSymbolTableRecord
100
AcDbBlockTableRecord
  2
ACO-SF03-GR
340
0
  0
BLOCK_RECORD
  5
686
330
1
100
AcDbSymbolTableRecord
100
AcDbBlockTableRecord
  2
ACO_A3
340
0
  0
BLOCK_RECORD
  5
AD6
330
1
100
AcDbSymbolTableRecord
100
AcDbBlockTableRecord
  2
aendzeil
340
0
102
{BLKREFS
331
B32
102
}
  0
BLOCK_RECORD
  5
AE2
102
{ACAD_XDICTIONARY
360
B51
102
}
330
1
100
AcDbSymbolTableRecord
100
AcDbBlockTableRecord
  2
ACO-SF02-KL
340
0
  0
BLOCK_RECORD
  5
DBF
330
1
100
AcDbSymbolTableRecord
100
AcDbBlockTableRecord
  2
*D19
340
0
  0
BLOCK_RECORD
  5
1460
330
1
100
AcDbSymbolTableRecord
100
AcDbBlockTableRecord
  2
*D28
340
0
  0
BLOCK_RECORD
  5
1493
330
1
100
AcDbSymbolTableRecord
100
AcDbBlockTableRecord
  2
*D29
340
0
  0
BLOCK_RECORD
  5
14C7
330
1
100
AcDbSymbolTableRecord
100
AcDbBlockTableRecord
  2
*D30
340
0
  0
BLOCK_RECORD
  5
14FB
330
1
100
AcDbSymbolTableRecord
100
AcDbBlockTableRecord
  2
*D31
340
0
  0
BLOCK_RECORD
  5
150D
330
1
100
AcDbSymbolTableRecord
100
AcDbBlockTableRecord
  2
*D32
340
0
  0
BLOCK_RECORD
  5
1537
330
1
100
AcDbSymbolTableRecord
100
AcDbBlockTableRecord
  2
*D33
340
0
  0
BLOCK_RECORD
  5
161C
330
1
100
AcDbSymbolTableRecord
100
AcDbBlockTableRecord
  2
*D34
340
0
  0
BLOCK_RECORD
  5
164B
330
1
100
AcDbSymbolTableRecord
100
AcDbBlockTableRecord
  2
*D35
340
0
  0
BLOCK_RECORD
  5
1686
330
1
100
AcDbSymbolTableRecord
100
AcDbBlockTableRecord
  2
*D36
340
0
  0
BLOCK_RECORD
  5
16FB
330
1
100
AcDbSymbolTableRecord
100
AcDbBlockTableRecord
  2
*D37
340
0
  0
BLOCK_RECORD
  5
1791
330
1
100
AcDbSymbolTableRecord
100
AcDbBlockTableRecord
  2
*D38
340
0
  0
BLOCK_RECORD
  5
1825
330
1
100
AcDbSymbolTableRecord
100
AcDbBlockTableRecord
  2
*D39
340
0
  0
ENDTAB
  0
ENDSEC
  0
SECTION
  2
BLOCKS
  0
BLOCK
  5
20
330
1F
100
AcDbEntity
  8
0
100
AcDbBlockBegin
  2
*Model_Space
 70
     0
 10
0.0
 20
0.0
 30
0.0
  3
*Model_Space
  1

  0
ENDBLK
  5
21
330
1F
100
AcDbEntity
  8
0
100
AcDbBlockEnd
  0
BLOCK
  5
52
330
50
100
AcDbEntity
 67
     1
  8
0
100
AcDbBlockBegin
  2
*Paper_Space
 70
     0
 10
0.0
 20
0.0
 30
0.0
  3
*Paper_Space
  1

  0
ENDBLK
  5
53
330
50
100
AcDbEntity
 67
     1
  8
0
100
AcDbBlockEnd
  0
BLOCK
  5
57
330
55
100
AcDbEntity
 67
     1
  8
0
100
AcDbBlockBegin
  2
*Paper_Space0
 70
     0
 10
0.0
 20
0.0
 30
0.0
  3
*Paper_Space0
  1

  0
ENDBLK
  5
58
330
55
100
AcDbEntity
 67
     1
  8
0
100
AcDbBlockEnd
  0
BLOCK
  5
136
330
134
100
AcDbEntity
  8
0
100
AcDbBlockBegin
  2
GENAXEH
 70
     0
 10
0.0
 20
0.0
 30
0.0
  3
GENAXEH
  1

  0
LINE
  5
135
330
134
100
AcDbEntity
  8
0
100
AcDbLine
 10
-1.0
 20
0.0
 30
0.0
 11
1.0
 21
0.0
 31
0.0
  0
ENDBLK
  5
137
330
134
100
AcDbEntity
  8
0
100
AcDbBlockEnd
  0
BLOCK
  5
24D
330
206
100
AcDbEntity
  8
0
100
AcDbBlockBegin
  2
DIN_A3
 70
     0
 10
0.0
 20
0.0
 30
0.0
  3
DIN_A3
  1

  0
LINE
  5
207
330
206
100
AcDbEntity
  8
AM_BOR
 62
     1
370
    25
100
AcDbLine
 10
420.0
 20
297.0
 30
0.0
 11
419.9999999999999
 21
0.0
 31
0.0
  0
LINE
  5
208
330
206
100
AcDbEntity
  8
AM_BOR
 62
     1
370
    25
100
AcDbLine
 10
230.0
 20
5.00000000000005
 30
0.0
 11
230.0
 21
0.0000000000000233
 31
0.0
  0
LINE
  5
209
330
206
100
AcDbEntity
  8
AM_BOR
 62
     1
370
    25
100
AcDbLine
 10
409.9999999999999
 20
10.0
 30
0.0
 11
9.999999999999943
 21
10.00000000000005
 31
0.0
  0
TEXT
  5
20A
330
206
100
AcDbEntity
  8
AM_BOR
 62
     1
370
    25
100
AcDbText
 10
411.0
 20
262.0
 30
0.0
 40
4.0
  1
A
  7
ACDINTS
100
AcDbText
  0
TEXT
  5
20B
330
206
100
AcDbEntity
  8
AM_BOR
 62
     1
370
    25
100
AcDbText
 10
411.0
 20
216.0
 30
0.0
 40
4.0
  1
B
  7
ACDINTS
100
AcDbText
  0
TEXT
  5
20C
330
206
100
AcDbEntity
  8
AM_BOR
 62
     1
370
    25
100
AcDbText
 10
411.0
 20
170.0
 30
0.0
 40
4.0
  1
C
  7
ACDINTS
100
AcDbText
  0
TEXT
  5
20D
330
206
100
AcDbEntity
  8
AM_BOR
 62
     1
370
    25
100
AcDbText
 10
411.0
 20
123.0
 30
0.0
 40
4.0
  1
D
  7
ACDINTS
100
AcDbText
  0
TEXT
  5
20E
330
206
100
AcDbEntity
  8
AM_BOR
 62
     1
370
    25
100
AcDbText
 10
411.0
 20
77.0
 30
0.0
 40
4.0
  1
E
  7
ACDINTS
100
AcDbText
  0
TEXT
  5
20F
330
206
100
AcDbEntity
  8
AM_BOR
 62
     1
370
    25
100
AcDbText
 10
411.0
 20
31.0
 30
0.0
 40
4.0
  1
F
  7
ACDINTS
100
AcDbText
  0
LINE
  5
210
330
206
100
AcDbEntity
  8
AM_BOR
 62
     1
370
    25
100
AcDbLine
 10
415.0
 20
240.83
 30
0.0
 11
410.0
 21
240.83
 31
0.0
  0
LINE
  5
211
330
206
100
AcDbEntity
  8
AM_BOR
 62
     1
370
    25
100
AcDbLine
 10
415.0
 20
194.664
 30
0.0
 11
410.0
 21
194.664
 31
0.0
  0
LINE
  5
212
330
206
100
AcDbEntity
  8
AM_BOR
 62
     1
370
    25
100
AcDbLine
 10
415.0
 20
102.332
 30
0.0
 11
410.0
 21
102.332
 31
0.0
  0
LINE
  5
213
330
206
100
AcDbEntity
  8
AM_BOR
 62
     1
370
    25
100
AcDbLine
 10
415.0
 20
56.166
 30
0.0
 11
410.0
 21
56.166
 31
0.0
  0
LINE
  5
214
330
206
100
AcDbEntity
  8
AM_BOR
 62
     1
370
    25
100
AcDbLine
 10
60.0
 20
291.9999999999999
 30
0.0
 11
60.0
 21
287.0
 31
0.0
  0
LINE
  5
215
330
206
100
AcDbEntity
  8
AM_BOR
 62
     1
370
    25
100
AcDbLine
 10
110.0
 20
291.9999999999999
 30
0.0
 11
110.0
 21
287.0
 31
0.0
  0
LINE
  5
216
330
206
100
AcDbEntity
  8
AM_BOR
 62
     1
370
    25
100
AcDbLine
 10
160.0
 20
291.9999999999999
 30
0.0
 11
160.0
 21
287.0
 31
0.0
  0
LINE
  5
217
330
206
100
AcDbEntity
  8
AM_BOR
 62
     1
370
    25
100
AcDbLine
 10
260.0
 20
291.9999999999999
 30
0.0
 11
260.0
 21
287.0
 31
0.0
  0
LINE
  5
218
330
206
100
AcDbEntity
  8
AM_BOR
 62
     1
370
    25
100
AcDbLine
 10
310.0
 20
291.9999999999999
 30
0.0
 11
310.0
 21
287.0
 31
0.0
  0
LINE
  5
219
330
206
100
AcDbEntity
  8
AM_BOR
 62
     1
370
    25
100
AcDbLine
 10
360.0
 20
291.9999999999999
 30
0.0
 11
360.0
 21
287.0
 31
0.0
  0
TEXT
  5
21A
330
206
100
AcDbEntity
  8
AM_BOR
 62
     1
370
    25
100
AcDbText
 10
384.0
 20
287.5
 30
0.0
 40
4.0
  1
8
  7
ACDINTS
100
AcDbText
  0
TEXT
  5
21B
330
206
100
AcDbEntity
  8
AM_BOR
 62
     1
370
    25
100
AcDbText
 10
334.0
 20
287.5
 30
0.0
 40
4.0
  1
7
  7
ACDINTS
100
AcDbText
  0
TEXT
  5
21C
330
206
100
AcDbEntity
  8
AM_BOR
 62
     1
370
    25
100
AcDbText
 10
284.0
 20
287.5
 30
0.0
 40
4.0
  1
6
  7
ACDINTS
100
AcDbText
  0
TEXT
  5
21D
330
206
100
AcDbEntity
  8
AM_BOR
 62
     1
370
    25
100
AcDbText
 10
233.5
 20
287.5
 30
0.0
 40
4.0
  1
5
  7
ACDINTS
100
AcDbText
  0
TEXT
  5
21E
330
206
100
AcDbEntity
  8
AM_BOR
 62
     1
370
    25
100
AcDbText
 10
183.5
 20
287.5
 30
0.0
 40
4.0
  1
4
  7
ACDINTS
100
AcDbText
  0
TEXT
  5
21F
330
206
100
AcDbEntity
  8
AM_BOR
 62
     1
370
    25
100
AcDbText
 10
133.5
 20
287.5
 30
0.0
 40
4.0
  1
3
  7
ACDINTS
100
AcDbText
  0
TEXT
  5
220
330
206
100
AcDbEntity
  8
AM_BOR
 62
     1
370
    25
100
AcDbText
 10
83.49999999999999
 20
287.5
 30
0.0
 40
4.0
  1
2
  7
ACDINTS
100
AcDbText
  0
TEXT
  5
221
330
206
100
AcDbEntity
  8
AM_BOR
 62
     1
370
    25
100
AcDbText
 10
33.5
 20
287.5
 30
0.0
 40
4.0
  1
1
  7
ACDINTS
100
AcDbText
  0
TEXT
  5
222
330
206
100
AcDbEntity
  8
AM_BOR
 62
     1
370
    25
100
AcDbText
 10
33.5
 20
5.5
 30
0.0
 40
4.0
  1
1
  7
ACDINTS
100
AcDbText
  0
TEXT
  5
223
330
206
100
AcDbEntity
  8
AM_BOR
 62
     1
370
    25
100
AcDbText
 10
83.49999999999999
 20
5.5
 30
0.0
 40
4.0
  1
2
  7
ACDINTS
100
AcDbText
  0
TEXT
  5
224
330
206
100
AcDbEntity
  8
AM_BOR
 62
     1
370
    25
100
AcDbText
 10
133.5
 20
5.5
 30
0.0
 40
4.0
  1
3
  7
ACDINTS
100
AcDbText
  0
TEXT
  5
225
330
206
100
AcDbEntity
  8
AM_BOR
 62
     1
370
    25
100
AcDbText
 10
183.5
 20
5.5
 30
0.0
 40
4.0
  1
4
  7
ACDINTS
100
AcDbText
  0
TEXT
  5
226
330
206
100
AcDbEntity
  8
AM_BOR
 62
     1
370
    25
100
AcDbText
 10
6.0
 20
262.0
 30
0.0
 40
4.0
  1
A
  7
ACDINTS
100
AcDbText
  0
TEXT
  5
227
330
206
100
AcDbEntity
  8
AM_BOR
 62
     1
370
    25
100
AcDbText
 10
6.0
 20
216.0
 30
0.0
 40
4.0
  1
B
  7
ACDINTS
100
AcDbText
  0
TEXT
  5
228
330
206
100
AcDbEntity
  8
AM_BOR
 62
     1
370
    25
100
AcDbText
 10
6.0
 20
170.0
 30
0.0
 40
4.0
  1
C
  7
ACDINTS
100
AcDbText
  0
TEXT
  5
229
330
206
100
AcDbEntity
  8
AM_BOR
 62
     1
370
    25
100
AcDbText
 10
6.0
 20
123.0
 30
0.0
 40
4.0
  1
D
  7
ACDINTS
100
AcDbText
  0
TEXT
  5
22A
330
206
100
AcDbEntity
  8
AM_BOR
 62
     1
370
    25
100
AcDbText
 10
6.0
 20
77.0
 30
0.0
 40
4.0
  1
E
  7
ACDINTS
100
AcDbText
  0
TEXT
  5
22B
330
206
100
AcDbEntity
  8
AM_BOR
 62
     1
370
    25
100
AcDbText
 10
6.0
 20
31.0
 30
0.0
 40
4.0
  1
F
  7
ACDINTS
100
AcDbText
  0
LINE
  5
22C
330
206
100
AcDbEntity
  8
AM_BOR
 62
     1
370
    25
100
AcDbLine
 10
160.0
 20
10.0
 30
0.0
 11
160.0
 21
5.0
 31
0.0
  0
LINE
  5
22D
330
206
100
AcDbEntity
  8
AM_BOR
 62
     1
370
    25
100
AcDbLine
 10
110.0
 20
10.0
 30
0.0
 11
110.0
 21
5.0
 31
0.0
  0
LINE
  5
22E
330
206
100
AcDbEntity
  8
AM_BOR
 62
     1
370
    25
100
AcDbLine
 10
60.0
 20
10.0
 30
0.0
 11
60.0
 21
5.0
 31
0.0
  0
LINE
  5
22F
330
206
100
AcDbEntity
  8
AM_BOR
 62
     1
370
    25
100
AcDbLine
 10
10.0
 20
240.83
 30
0.0
 11
5.0
 21
240.83
 31
0.0
  0
LINE
  5
230
330
206
100
AcDbEntity
  8
AM_BOR
 62
     1
370
    25
100
AcDbLine
 10
10.0
 20
194.664
 30
0.0
 11
5.0
 21
194.664
 31
0.0
  0
LINE
  5
231
330
206
100
AcDbEntity
  8
AM_BOR
 62
     1
370
    25
100
AcDbLine
 10
10.0
 20
102.332
 30
0.0
 11
5.0
 21
102.332
 31
0.0
  0
LINE
  5
232
330
206
100
AcDbEntity
  8
AM_BOR
 62
     1
370
    25
100
AcDbLine
 10
10.0
 20
56.166
 30
0.0
 11
5.0
 21
56.166
 31
0.0
  0
LINE
  5
233
330
206
100
AcDbEntity
  8
AM_BOR
 62
     1
370
    25
100
AcDbLine
 10
410.0
 20
287.0
 30
0.0
 11
409.9999999999999
 21
10.0
 31
0.0
  0
LINE
  5
234
330
206
100
AcDbEntity
  8
AM_BOR
 62
     1
370
    25
100
AcDbLine
 10
10.00000000000001
 20
287.0
 30
0.0
 11
410.0
 21
287.0
 31
0.0
  0
LINE
  5
235
330
206
100
AcDbEntity
  8
AM_BOR
 62
     1
370
    25
100
AcDbLine
 10
10.0
 20
10.0
 30
0.0
 11
10.00000000000001
 21
287.0
 31
0.0
  0
LINE
  5
236
330
206
100
AcDbEntity
  8
0
100
AcDbLine
 10
414.9999999999999
 20
5.0
 30
0.0
 11
4.999999999999943
 21
5.00000000000005
 31
0.0
  0
LINE
  5
237
330
206
100
AcDbEntity
  8
0
100
AcDbLine
 10
415.0
 20
292.0
 30
0.0
 11
414.9999999999999
 21
5.0
 31
0.0
  0
LINE
  5
238
330
206
100
AcDbEntity
  8
0
100
AcDbLine
 10
5.000000000000017
 20
292.0
 30
0.0
 11
415.0
 21
292.0
 31
0.0
  0
LINE
  5
239
330
206
100
AcDbEntity
  8
AM_BOR
 62
     1
370
    25
100
AcDbLine
 10
0.0000000000000182
 20
297.0
 30
0.0
 11
420.0
 21
297.0
 31
0.0
  0
LINE
  5
23A
330
206
100
AcDbEntity
  8
AM_BOR
 62
     1
370
    25
100
AcDbLine
 10
0.0
 20
0.0
 30
0.0
 11
0.0000000000000182
 21
297.0
 31
0.0
  0
LINE
  5
23B
330
206
100
AcDbEntity
  8
AM_BOR
 62
     1
370
    25
100
AcDbLine
 10
125.0
 20
0.0000000000000514
 30
0.0
 11
125.0
 21
5.000000000000035
 31
0.0
  0
TEXT
  5
23C
330
206
100
AcDbEntity
  8
0
 60
     1
100
AcDbText
 10
420.0
 20
297.0
 30
0.0
 40
2.0
  1
!GENTITLE-MAX
  7
ACDINTS
100
AcDbText
  0
TEXT
  5
23D
330
206
100
AcDbEntity
  8
0
 60
     1
100
AcDbText
 10
410.0
 20
287.0
 30
0.0
 40
2.0
  1
!GENTITLE-RU
  7
ACDINTS
100
AcDbText
  0
TEXT
  5
23E
330
206
100
AcDbEntity
  8
0
 60
     1
100
AcDbText
 10
409.9999999999999
 20
10.0
 30
0.0
 40
2.0
  1
!GENTITLE-INSERT
  7
ACDINTS
100
AcDbText
  0
TEXT
  5
23F
330
206
100
AcDbEntity
  8
0
 60
     1
100
AcDbText
 10
10.0
 20
10.00000000000005
 30
0.0
 40
2.0
  1
!GENTITLE-LL
  7
ACDINTS
100
AcDbText
  0
LINE
  5
240
330
206
100
AcDbEntity
  8
0
100
AcDbLine
 10
5.0
 20
5.0
 30
0.0
 11
5.000000000000017
 21
292.0
 31
0.0
  0
LINE
  5
241
330
206
100
AcDbEntity
  8
AM_BOR
 62
     1
370
    25
100
AcDbLine
 10
419.9999999999999
 20
0.0
 30
0.0
 11
-0.0000000000000568
 21
0.0000000000000514
 31
0.0
  0
LINE
  5
242
330
206
100
AcDbEntity
  8
AM_BOR
 62
     2
370
    35
100
AcDbLine
 10
210.0
 20
5.000000000000024
 30
0.0
 11
210.0
 21
20.00000000000003
 31
0.0
  0
LINE
  5
243
330
206
100
AcDbEntity
  8
AM_BOR
 62
     2
370
    35
100
AcDbLine
 10
415.0
 20
148.5
 30
0.0
 11
400.0
 21
148.5
 31
0.0
  0
LINE
  5
244
330
206
100
AcDbEntity
  8
AM_BOR
 62
     2
370
    35
100
AcDbLine
 10
5.000000000000008
 20
148.5
 30
0.0
 11
20.00000000000001
 21
148.5
 31
0.0
  0
LINE
  5
245
330
206
100
AcDbEntity
  8
AM_BOR
 62
     2
370
    35
100
AcDbLine
 10
210.0
 20
292.0
 30
0.0
 11
210.0
 21
277.0
 31
0.0
  0
TEXT
  5
246
330
206
100
AcDbEntity
  8
AM_BOR
 62
     1
370
    25
100
AcDbText
 10
233.4999999999999
 20
5.499999999999943
 30
0.0
 40
4.0
  1
5
  7
ACDINTS
100
AcDbText
  0
TEXT
  5
247
330
206
100
AcDbEntity
  8
AM_BOR
 62
     1
370
    25
100
AcDbText
 10
283.9999999999999
 20
5.499999999999943
 30
0.0
 40
4.0
  1
6
  7
ACDINTS
100
AcDbText
  0
LINE
  5
248
330
206
100
AcDbEntity
  8
AM_BOR
 62
     1
370
    25
100
AcDbLine
 10
259.9999999999999
 20
9.999999999999943
 30
0.0
 11
259.9999999999999
 21
4.999999999999943
 31
0.0
  0
TEXT
  5
249
330
206
100
AcDbEntity
  8
AM_BOR
 62
     1
370
    25
100
AcDbText
 10
333.9999999999999
 20
5.499999999999943
 30
0.0
 40
4.0
  1
7
  7
ACDINTS
100
AcDbText
  0
LINE
  5
24A
330
206
100
AcDbEntity
  8
AM_BOR
 62
     1
370
    25
100
AcDbLine
 10
359.9999999999999
 20
9.999999999999943
 30
0.0
 11
359.9999999999999
 21
4.999999999999943
 31
0.0
  0
LINE
  5
24B
330
206
100
AcDbEntity
  8
AM_BOR
 62
     1
370
    25
100
AcDbLine
 10
309.9999999999999
 20
9.999999999999943
 30
0.0
 11
309.9999999999999
 21
4.999999999999943
 31
0.0
  0
TEXT
  5
24C
330
206
100
AcDbEntity
  8
AM_BOR
 62
     1
370
    25
100
AcDbText
 10
383.9999999999999
 20
5.499999999999943
 30
0.0
 40
4.0
  1
8
  7
ACDINTS
100
AcDbText
  0
ENDBLK
  5
24E
330
206
100
AcDbEntity
  8
0
100
AcDbBlockEnd
  0
BLOCK
  5
290
330
256
100
AcDbEntity
  8
0
100
AcDbBlockBegin
  2
DIN_TITLE
 70
     2
 10
0.0
 20
0.0
 30
0.0
  3
DIN_TITLE
  1

  0
ATTDEF
  5
257
330
256
100
AcDbEntity
  8
AM_BOR
 62
     1
370
    25
100
AcDbText
 10
-114.3720283023119
 20
0.9492237802654557
 30
0.0
 40
2.5
  1

 41
0.8
  7
ACDINTS
100
AcDbAttributeDefinition
  3
Dateiname
  2
GEN-TITLE-DWG{10.8}
 70
     0
1001
GENIUS_GENTRA_14
1002
{
1070
     3
1000
GENTRAPR,%s,(GENMSG gendwg 82)
1000
Dateiname
1000
DEU
1070
     0
1070
     0
1002
}
  0
ATTDEF
  5
258
330
256
100
AcDbEntity
  8
AM_BOR
 62
     2
370
    35
100
AcDbText
 10
-70.95960978726719
 20
50.01451612903077
 30
0.0
 40
3.5
  1
-
 41
0.8
  7
ACDINTS
100
AcDbAttributeDefinition
  3
Maßstab
  2
GEN-TITLE-SCA{5.42}
 70
     0
1001
GENIUS_GENTRA_14
1002
{
1070
     3
1000
GENTRAPR,%s,(GENMSG gendwg 83)
1000
Maßstab
1000
DEU
1070
     0
1070
     0
1002
}
  0
ATTDEF
  5
259
330
256
100
AcDbEntity
  8
AM_BOR
 62
     1
370
    25
100
AcDbText
 10
-118.7019468872817
 20
30.41000000000003
 30
0.0
 40
2.500000000000367
  1

  7
ACDINTS
100
AcDbAttributeDefinition
  3
Bearbeitungsdatum
  2
GEN-TITLE-DAT{5.44}
 70
     0
1001
GENIUS_GENTRA_14
1002
{
1070
     3
1000
GENTRAPR,%s,(GENMSG gendwg 80)
1000
Bearbeitungsdatum
1000
DEU
1070
     0
1070
     0
1002
}
  0
ATTDEF
  5
25A
330
256
100
AcDbEntity
  8
AM_BOR
 62
     1
370
    25
100
AcDbText
 10
-102.5325281430328
 20
30.41000000000003
 30
0.0
 40
2.500000000000367
  1

  7
ACDINTS
100
AcDbAttributeDefinition
  3
Name des Bearbeiters
  2
GEN-TITLE-NAME{5}
 70
     0
1001
GENIUS_GENTRA_14
1002
{
1070
     3
1000
GENTRAPR,%s,(GENMSG gendwg 81)
1000
Name des Bearbeiters
1000
DEU
1070
     0
1070
     0
1002
}
  0
ATTDEF
  5
25B
330
256
100
AcDbEntity
  8
AM_BOR
 62
     2
370
    35
100
AcDbText
 10
-35.71344922694798
 20
50.01451612903224
 30
0.0
 40
3.500000000000343
  1
-
 41
0.8
  7
ACDINTS
100
AcDbAttributeDefinition
  3
Positionsnummer
  2
GEN-TITLE-POSI{2.20}
 70
     0
1001
GENIUS_GENTRA_14
1002
{
1070
     3
1000
GENTRAPR,%s,(GENMSG gendwg 31)
1000
Positionsnummer
1000
DEU
1070
     0
1070
     0
1002
}
  0
ATTDEF
  5
25C
330
256
100
AcDbEntity
  8
AM_BOR
 62
     2
370
    35
100
AcDbText
 10
-16.73297243245099
 20
50.01451612903075
 30
0.0
 40
3.500000000000343
  1
-
 41
0.8
  7
ACDINTS
100
AcDbAttributeDefinition
  3
Menge
  2
GEN-TITLE-QTY{4.38}
 70
     0
1001
GENIUS_GENTRA_14
1002
{
1070
     3
1000
GENTRAPR,%s,(GENMSG gendwg 32)
1000
Menge
1000
DEU
1070
     0
1070
     0
1002
}
  0
ATTDEF
  5
25D
330
256
100
AcDbEntity
  8
AM_BOR
100
AcDbText
 10
-81.2071643690715
 20
29.17459677419356
 30
0.0
 40
5.00000000000049
  1

 41
0.8
  7
ACDINTS
100
AcDbAttributeDefinition
  3
Zeichnungsname (mx. 20 Z.)
  2
GEN-TITLE-DES1{15.54}
 70
     0
1001
GENIUS_GENTRA_14
1002
{
1070
     3
1000
GENTRAPR,%s,(GENMSG gendwg 87)
1000
Zeichnungsname (mx. 20 Z.)
1000
DEU
1070
     0
1070
     0
1002
}
  0
ATTDEF
  5
25E
330
256
100
AcDbEntity
  8
AM_BOR
 62
     2
370
    35
100
AcDbText
 10
-80.70716436907151
 20
21.17459677419356
 30
0.0
 40
3.500000000000171
  1

 41
0.8
  7
ACDINTS
100
AcDbAttributeDefinition
  3
Beschreibung 2
  2
GEN-TITLE-DES2{21.21}
 70
     0
1001
GENIUS_GENTRA_14
1002
{
1070
     3
1000
GENTRAPR,%s,(GENMSG gendwg 88)
1000
Beschreibung 2
1000
DEU
1070
     0
1070
     0
1002
}
  0
ATTDEF
  5
25F
330
256
100
AcDbEntity
  8
AM_BOR
100
AcDbText
 10
-81.6060020983652
 20
7.874999999999985
 30
0.0
 40
5.000000000000735
  1
-
 41
0.8
  7
ACDINTS
100
AcDbAttributeDefinition
  3
Zeichnungsnummer
  2
GEN-TITLE-NR{13.37}
 70
     0
1001
GENIUS_GENTRA_14
1002
{
1070
     3
1000
GENTRAPR,%s,(GENMSG gendwg 84)
1000
Zeichnungsnummer
1000
DEU
1070
     0
1070
     0
1002
}
  0
ATTDEF
  5
260
330
256
100
AcDbEntity
  8
AM_BOR
 62
     2
370
    35
100
AcDbText
 10
-84.36539780072981
 20
44.06703812316723
 30
0.0
 40
3.0
  1
-
 41
0.8
  7
ACDINTS
100
AcDbAttributeDefinition
  3
Halbzeug (1.Zeile) 
  2
GEN-TITLE-NORM1{14.84}
 70
     0
1001
GENIUS_GENTRA_14
1002
{
1070
     3
1000
GENTRAPR,%s,(GENMSG gendwg 85)
1000
Halbzeug (1.Zeile) 
1000
DEU
1070
     0
1070
     0
1002
}
  0
ATTDEF
  5
261
330
256
100
AcDbEntity
  8
AM_BOR
 62
     2
370
    35
100
AcDbText
 10
-84.36539780072981
 20
39.78860215053771
 30
0.0
 40
3.0
  1
-
 41
0.8
  7
ACDINTS
100
AcDbAttributeDefinition
  3
Halbzeug (2.Zeile)
  2
GEN-TITLE-NORM2{14.89}
 70
     0
1001
GENIUS_GENTRA_14
1002
{
1070
     3
1000
GENTRAPR,%s,(GENMSG gendwg 86)
1000
Halbzeug (2.Zeile)
1000
DEU
1070
     0
1070
     0
1002
}
  0
ATTDEF
  5
262
330
256
100
AcDbEntity
  8
AM_BOR
 62
     2
370
    35
100
AcDbText
 10
-34.75758354044658
 20
44.06703812316723
 30
0.0
 40
3.0
  1
-
 41
0.8
  7
ACDINTS
100
AcDbAttributeDefinition
  3
Material
  2
GEN-TITLE-MAT1{11.15}
 70
     0
1001
GENIUS_GENTRA_14
1002
{
1070
     3
1000
GENTRAPR,%s,(GENMSG gendwg 89)
1000
Material
1000
DEU
1070
     0
1070
     0
1002
}
  0
ATTDEF
  5
263
330
256
100
AcDbEntity
  8
AM_BOR
 62
     2
370
    35
100
AcDbText
 10
-34.75758354044661
 20
39.78860215053771
 30
0.0
 40
3.0
  1
-
 41
0.8
  7
ACDINTS
100
AcDbAttributeDefinition
  3
Material (2.Zeile)
  2
GEN-TITLE-MAT2{11.09}
 70
     0
1001
GENIUS_GENTRA_14
1002
{
1070
     3
1000
GENTRAPR,%s,(GENMSG gendwg 90)
1000
Material (2.Zeile)
1000
DEU
1070
     0
1070
     0
1002
}
  0
ATTDEF
  5
264
330
256
100
AcDbEntity
  8
AM_BOR
 62
     1
370
    25
100
AcDbText
 10
-102.0619852594997
 20
26.4915214039151
 30
0.0
 40
2.500000000000367
  1

  7
ACDINTS
100
AcDbAttributeDefinition
  3
Geprüft von
  2
GEN-TITLE-CHKM{5}
 70
     0
1001
GENIUS_GENTRA_14
1002
{
1070
     3
1000
GENTRAPR,%s,(GENMSG gendwg 72)
1000
Geprüft von
1000
DEU
1070
     0
1070
     0
1002
}
  0
ATTDEF
  5
265
330
256
100
AcDbEntity
  8
AM_BOR
 62
     1
370
    25
100
AcDbText
 10
-118.5451003624019
 20
26.17804422461478
 30
0.0
 40
2.500000000000367
  1

  7
ACDINTS
100
AcDbAttributeDefinition
  3
Prüfdatum
  2
GEN-TITLE-CHKD{5.41}
 70
     0
1001
GENIUS_GENTRA_14
1002
{
1070
     3
1000
GENTRAPR,%s,(GENMSG gendwg 78)
1000
Prüfdatum
1000
DEU
1070
     0
1070
     0
1002
}
  0
ATTDEF
  5
266
330
256
100
AcDbEntity
  8
AM_BOR
 62
     2
370
    35
100
AcDbText
 10
-5.940407113846131
 20
9.420007355724408
 30
0.0
 40
3.0
  1
-
 41
0.8
  7
ACDINTS
 72
     1
 11
-5.100407113846131
 21
9.420007355724408
 31
0.0
100
AcDbAttributeDefinition
  3
Blatt
  2
GEN-TITLE-SHEET{2.62}
 70
     0
1001
GENIUS_GENTRA_14
1002
{
1070
     3
1000
GENTRAPR,%s,(GENMSG gendwg 76)
1000
Blatt
1000
DEU
1070
     0
1070
     0
1002
}
  0
ATTDEF
  5
267
330
256
100
AcDbEntity
  8
AM_BOR
 62
     1
370
    25
100
AcDbText
 10
-5.369955967542637
 20
0.4161834165005303
 30
0.0
 40
3.000000000000294
  1

  7
ACDINTS
 72
     1
 11
-5.369955967542637
 21
0.4161834165005303
 31
0.0
100
AcDbAttributeDefinition
  3
Plot-Datum
  2
GEN-TITLE-PLOT{2.94}
 70
     0
1001
GENIUS_GENTRA_14
1002
{
1070
     3
1000
GENTRAPR,%s,(GENMSG gendwg 91)
1000
Plot-Datum
1000
DEU
1070
     0
1070
     0
1002
}
  0
LINE
  5
268
330
256
100
AcDbEntity
  8
AM_BOR
 62
     1
370
    25
100
AcDbLine
 10
-182.88
 20
4.230000000000018
 30
0.0
 11
0.0
 21
4.230000000000018
 31
0.0
  0
LWPOLYLINE
  5
269
330
256
100
AcDbEntity
  8
0
100
AcDbPolyline
 90
        4
 70
     1
 43
0.0
 10
-182.88
 20
0.0
 10
0.0
 20
0.0
 10
0.0
 20
54.99000000000001
 10
-182.88
 20
54.99000000000004
  0
LINE
  5
26A
330
256
100
AcDbEntity
  8
AM_BOR
 62
     2
370
    35
100
AcDbLine
 10
-129.54
 20
16.92000000000003
 30
0.0
 11
0.0
 21
16.92000000000003
 31
0.0
  0
LINE
  5
26B
330
256
100
AcDbEntity
  8
AM_BOR
 62
     2
370
    35
100
AcDbLine
 10
-182.88
 20
38.07000000000002
 30
0.0
 11
0.0
 21
38.07000000000002
 31
0.0
  0
LINE
  5
26C
330
256
100
AcDbEntity
  8
AM_BOR
 62
     1
370
    25
100
AcDbLine
 10
-86.35999999999999
 20
48.66000000000008
 30
0.0
 11
0.0
 21
48.66000000000005
 31
0.0
  0
TEXT
  5
26D
330
256
100
AcDbEntity
  8
AM_BOR
 62
     1
370
    25
100
AcDbText
 10
-181.9908006538762
 20
1.200000000000002
 30
0.0
 40
2.000000000000294
  1
Zust.
  7
ACDINTS
 72
     1
 11
-178.8883006538758
 21
1.200000000000002
 31
0.0
100
AcDbText
1001
GENIUS_GENTRA_14
1002
{
1070
     1
1000
GENTRATX,%s,(GENMSG gendwg 60)
1000
Zust.
1000
DEU
1070
     0
1040
1.0
1070
     0
1002
}
  0
TEXT
  5
26E
330
256
100
AcDbEntity
  8
AM_BOR
 62
     1
370
    25
100
AcDbText
 10
-117.0692984212765
 20
35.04000000000002
 30
0.0
 40
2.000000000000294
  1
Datum
 41
0.9836322182488942
  7
ACDINTS
 72
     1
 11
-113.3942087558013
 21
35.04000000000002
 31
0.0
100
AcDbText
1001
GENIUS_GENTRA_14
1002
{
1070
     1
1000
GENTRATX{3.38},%s,(GENMSG gendwg 62)
1000
Datum
1000
DEU
1070
     0
1040
1.0
1070
     0
1002
}
  0
TEXT
  5
26F
330
256
100
AcDbEntity
  8
AM_BOR
 62
     1
370
    25
100
AcDbText
 10
-128.34
 20
30.71000000000001
 30
0.0
 40
2.000000000000294
  1
Bearb.
  7
ACDINTS
100
AcDbText
1001
GENIUS_GENTRA_14
1002
{
1070
     1
1000
GENTRATX{4.13},%s,(GENMSG gendwg 67)
1000
Bearb.
1000
DEU
1070
     0
1040
1.0
1070
     0
1002
}
  0
TEXT
  5
270
330
256
100
AcDbEntity
  8
AM_BOR
 62
     1
370
    25
100
AcDbText
 10
-101.0179677247366
 20
35.04000000000002
 30
0.0
 40
2.000000000000294
  1
Name
  7
ACDINTS
 72
     2
 11
-95.11796772473575
 21
35.04000000000002
 31
0.0
100
AcDbText
1001
GENIUS_GENTRA_14
1002
{
1070
     1
1000
GENTRATX,%s,(GENMSG gendwg 63)
1000
Name
1000
DEU
1070
     0
1040
1.0
1070
     0
1002
}
  0
LINE
  5
271
330
256
100
AcDbEntity
  8
AM_BOR
 62
     1
370
    25
100
AcDbLine
 10
-182.88
 20
33.84000000000003
 30
0.0
 11
-86.35999999999999
 21
33.84000000000003
 31
0.0
  0
LINE
  5
272
330
256
100
AcDbEntity
  8
AM_BOR
 62
     1
370
    25
100
AcDbLine
 10
-182.88
 20
29.61000000000002
 30
0.0
 11
-86.35999999999999
 21
29.61000000000002
 31
0.0
  0
LINE
  5
273
330
256
100
AcDbEntity
  8
AM_BOR
 62
     1
370
    25
100
AcDbLine
 10
-129.54
 20
21.15000000000003
 30
0.0
 11
-86.35999999999999
 21
21.15000000000003
 31
0.0
  0
TEXT
  5
274
330
256
100
AcDbEntity
  8
AM_BOR
 62
     1
370
    25
100
AcDbText
 10
-128.34
 20
22.25000000000003
 30
0.0
 40
2.000000000000294
  1
Norm
  7
ACDINTS
100
AcDbText
1001
GENIUS_GENTRA_14
1002
{
1070
     1
1000
GENTRATX{4.13},%s,(GENMSG gendwg 69)
1000
Norm
1000
DEU
1070
     0
1040
1.0
1070
     0
1002
}
  0
TEXT
  5
275
330
256
100
AcDbEntity
  8
AM_BOR
 62
     1
370
    25
100
AcDbText
 10
-136.5823351702584
 20
1.199999999998505
 30
0.0
 40
2.000000000000294
  1
Name
  7
ACDINTS
100
AcDbText
1001
GENIUS_GENTRA_14
1002
{
1070
     1
1000
GENTRATX{3.31},%s,(GENMSG gendwg 63)
1000
Name
1000
DEU
1070
     0
1040
1.0
1070
     0
1002
}
  0
TEXT
  5
276
330
256
100
AcDbEntity
  8
AM_BOR
 62
     1
370
    25
100
AcDbText
 10
-125.9373535229315
 20
1.220747800586508
 30
0.0
 40
2.000000000000196
  1
Dateiname
 41
0.8
  7
ACDINTS
100
AcDbText
1001
GENIUS_GENTRA_14
1002
{
1070
     1
1000
GENTRATX{4.95},%s,(GENMSG gendwg 70)
1000
Dateiname
1000
DEU
1070
     0
1040
0.8
1070
     0
1002
}
  0
LINE
  5
277
330
256
100
AcDbEntity
  8
AM_BOR
 62
     1
370
    25
100
AcDbLine
 10
-182.88
 20
25.38000000000002
 30
0.0
 11
-86.35999999999999
 21
25.38000000000002
 31
0.0
  0
TEXT
  5
278
330
256
100
AcDbEntity
  8
AM_BOR
 62
     1
370
    25
100
AcDbText
 10
-128.34
 20
26.48000000000002
 30
0.0
 40
2.000000000000294
  1
Gepr.
  7
ACDINTS
100
AcDbText
1001
GENIUS_GENTRA_14
1002
{
1070
     1
1000
GENTRATX{4.19},%s,(GENMSG gendwg 68)
1000
Gepr.
1000
DEU
1070
     0
1040
1.0
1070
     0
1002
}
  0
LINE
  5
279
330
256
100
AcDbEntity
  8
AM_BOR
 62
     2
370
    35
100
AcDbLine
 10
-129.54
 20
21.15000000000003
 30
0.0
 11
-129.54
 21
0.0
 31
0.0
  0
LINE
  5
27A
330
256
100
AcDbEntity
  8
AM_BOR
 62
     1
370
    25
100
AcDbLine
 10
-137.16
 20
38.07000000000002
 30
0.0
 11
-137.16
 21
0.0
 31
0.0
  0
LINE
  5
27B
330
256
100
AcDbEntity
  8
AM_BOR
 62
     1
370
    25
100
AcDbLine
 10
-149.86
 20
38.07000000000002
 30
0.0
 11
-149.86
 21
0.0
 31
0.0
  0
LINE
  5
27C
330
256
100
AcDbEntity
  8
AM_BOR
 62
     1
370
    25
100
AcDbLine
 10
-175.26
 20
38.07000000000002
 30
0.0
 11
-175.26
 21
0.0
 31
0.0
  0
TEXT
  5
27D
330
256
100
AcDbEntity
  8
AM_BOR
 62
     1
370
    25
100
AcDbText
 10
-147.6104524425095
 20
1.199999999999988
 30
0.0
 40
2.000000000000294
  1
Datum
  7
ACDINTS
 72
     1
 11
-143.8742087558013
 21
1.199999999999988
 31
0.0
100
AcDbText
1001
GENIUS_GENTRA_14
1002
{
1070
     1
1000
GENTRATX,%s,(GENMSG gendwg 62)
1000
Datum
1000
DEU
1070
     0
1040
1.0
1070
     0
1002
}
  0
LINE
  5
27E
330
256
100
AcDbEntity
  8
AM_BOR
 62
     1
370
    25
100
AcDbLine
 10
-182.88
 20
8.460000000000022
 30
0.0
 11
-129.54
 21
8.460000000000036
 31
0.0
  0
TEXT
  5
27F
330
256
100
AcDbEntity
  8
AM_BOR
 62
     1
370
    25
100
AcDbText
 10
-174.4163605444355
 20
1.199999999999988
 30
0.0
 40
2.000000000000294
  1
Änderungen
  7
ACDINTS
 72
     1
 11
-167.2801168577268
 21
1.199999999999988
 31
0.0
100
AcDbText
1001
GENIUS_GENTRA_14
1002
{
1070
     1
1000
GENTRATX,%s,(GENMSG gendwg 61)
1000
Änderungen
1000
DEU
1070
     0
1040
1.0
1070
     0
1002
}
  0
LINE
  5
280
330
256
100
AcDbEntity
  8
AM_BOR
 62
     1
370
    25
100
AcDbLine
 10
-182.88
 20
21.15000000000003
 30
0.0
 11
-129.54
 21
21.15000000000003
 31
0.0
  0
LINE
  5
281
330
256
100
AcDbEntity
  8
AM_BOR
 62
     1
370
    25
100
AcDbLine
 10
-182.88
 20
16.92000000000001
 30
0.0
 11
-129.54
 21
16.92000000000003
 31
0.0
  0
LINE
  5
282
330
256
100
AcDbEntity
  8
AM_BOR
 62
     1
370
    25
100
AcDbLine
 10
-182.88
 20
12.69000000000003
 30
0.0
 11
-129.54
 21
12.69000000000004
 31
0.0
  0
LINE
  5
283
330
256
100
AcDbEntity
  8
AM_BOR
 62
     1
370
    25
100
AcDbLine
 10
-119.38
 20
38.07000000000002
 30
0.0
 11
-119.3799999999999
 21
21.15000000000003
 31
0.0
  0
LINE
  5
284
330
256
100
AcDbEntity
  8
AM_BOR
 62
     2
370
    35
100
AcDbLine
 10
-129.54
 20
54.99000000000006
 30
0.0
 11
-129.54
 21
21.15000000000003
 31
0.0
  0
LINE
  5
285
330
256
100
AcDbEntity
  8
AM_BOR
 62
     2
370
    35
100
AcDbLine
 10
-86.35999999999999
 20
54.99000000000006
 30
0.0
 11
-86.35999999999999
 21
0.0
 31
0.0
  0
TEXT
  5
286
330
256
100
AcDbEntity
  8
AM_BOR
 62
     1
370
    25
100
AcDbText
 10
-102.9542292664609
 20
50.60161290322582
 30
0.0
 40
2.000000000000294
  1
Oberfläche
  7
ACDINTS
100
AcDbText
1001
GENIUS_GENTRA_14
1002
{
1070
     1
1000
GENTRATX,%s,(GENMSG gendwg 71)
1000
Oberfläche
1000
DEU
1070
     0
1040
1.0
1070
     0
1002
}
  0
LINE
  5
287
330
256
100
AcDbEntity
  8
AM_BOR
 62
     1
370
    25
100
AcDbLine
 10
-104.14
 20
54.99000000000006
 30
0.0
 11
-104.14
 21
16.92000000000003
 31
0.0
  0
TEXT
  5
288
330
256
100
AcDbEntity
  8
AM_BOR
 62
     1
370
    25
100
AcDbText
 10
-85.14043807672797
 20
50.60161290322582
 30
0.0
 40
2.000000000000294
  1
Maßstab
  7
ACDINTS
100
AcDbText
1001
GENIUS_GENTRA_14
1002
{
1070
     1
1000
GENTRATX{6.37},%s,(GENMSG gendwg 73)
1000
Maßstab
1000
DEU
1070
     0
1040
1.0
1070
     0
1002
}
  0
LINE
  5
289
330
256
100
AcDbEntity
  8
AM_BOR
 62
     1
370
    25
100
AcDbLine
 10
-10.16
 20
16.92000000000003
 30
0.0
 11
-10.16
 21
0.0
 31
0.0
  0
LINE
  5
28A
330
256
100
AcDbEntity
  8
AM_BOR
 62
     1
370
    25
100
AcDbLine
 10
-10.15999999999997
 20
8.460000000000036
 30
0.0
 11
0.0
 21
8.460000000000022
 31
0.0
  0
TEXT
  5
28B
330
256
100
AcDbEntity
  8
AM_BOR
 62
     1
370
    25
100
AcDbText
 10
-3.184415883363148
 20
5.60997067448676
 30
0.0
 40
2.000000000000294
  1
Bl
  7
ACDINTS
 72
     1
 11
-1.98441588336297
 21
5.60997067448676
 31
0.0
100
AcDbText
1001
GENIUS_GENTRA_14
1002
{
1070
     1
1000
GENTRATX,%s,(GENMSG gendwg 77)
1000
Bl
1000
DEU
1070
     0
1040
1.0
1070
     0
1002
}
  0
TEXT
  5
28C
330
256
100
AcDbEntity
  8
AM_BOR
 62
     1
370
    25
100
AcDbText
 10
-27.39162270706311
 20
51.00241935483871
 30
0.0
 40
2.000000000000196
  1
Menge
 41
0.8
  7
ACDINTS
100
AcDbText
1001
GENIUS_GENTRA_14
1002
{
1070
     1
1000
GENTRATX{4.85},%s,(GENMSG gendwg 75)
1000
Menge
1000
DEU
1070
     0
1040
0.8
1070
     0
1002
}
  0
TEXT
  5
28D
330
256
100
AcDbEntity
  8
AM_BOR
 62
     1
370
    25
100
AcDbText
 10
-49.20092087271354
 20
50.6016129032258
 30
0.0
 40
2.000000000000196
  1
Position
 41
0.8
  7
ACDINTS
100
AcDbText
1001
GENIUS_GENTRA_14
1002
{
1070
     1
1000
GENTRATX{6.37},%s,(GENMSG gendwg 74)
1000
Position
1000
DEU
1070
     0
1040
0.8
1070
     0
1002
}
  0
LINE
  5
28E
330
256
100
AcDbEntity
  8
AM_BOR
 62
     1
370
    25
100
AcDbLine
 10
-50.80000000000001
 20
54.99000000000006
 30
0.0
 11
-50.80000000000001
 21
48.66000000000008
 31
0.0
  0
TEXT
  5
28F
330
256
100
AcDbEntity
  8
AM_BOR
 62
     1
370
    25
100
AcDbText
 10
-8.890271956152652
 20
14.06744868035187
 30
0.0
 40
2.000000000000294
  1
Blatt
  7
ACDINTS
 72
     1
 11
-5.790271956152196
 21
14.06744868035187
 31
0.0
100
AcDbText
1001
GENIUS_GENTRA_14
1002
{
1070
     1
1000
GENTRATX,%s,(GENMSG gendwg 76)
1000
Blatt
1000
DEU
1070
     0
1040
1.0
1070
     0
1002
}
  0
ENDBLK
  5
291
330
256
100
AcDbEntity
  8
0
100
AcDbBlockEnd
  0
BLOCK
  5
4C5
330
4BF
100
AcDbEntity
  8
0
100
AcDbBlockBegin
  2
*D5
 70
     1
 10
0.0
 20
0.0
 30
0.0
  3
*D5
  1

  0
LINE
  5
1255
330
4BF
100
AcDbEntity
  8
AM_5
100
AcDbLine
 10
120.7543336121364
 20
76.31277364160546
 30
0.0
 11
107.6899079208399
 21
70.90131133565487
 31
0.0
  0
MTEXT
  5
1256
330
4BF
100
AcDbEntity
  8
AM_5
 62
     2
100
AcDbMText
 10
114.8242451937295
 20
77.37422524357995
 30
0.0
 40
3.5
 41
0.0
 71
     5
 72
     1
  1
R1.5
 11
0.9238795325112839
 21
0.3826834323650967
 31
0.0
 73
     1
 44
1.0
1001
ACAD
1000
MTEXTBEGIN
1070
    73
1070
     1
1070
    44
1040
1.0
1070
    74
1070
     0
1000
MTEXTEND
  0
LINE
  5
1257
330
4BF
100
AcDbEntity
  8
AM_5
100
AcDbLine
 10
103.9943897907948
 20
69.37057760619449
 30
0.0
 11
105.3802090895617
 21
69.94460275474214
 31
0.0
  0
SOLID
  5
1258
330
4BF
100
AcDbEntity
  8
AM_5
100
AcDbTrace
 10
107.5304564906878
 20
71.28626114086791
 30
0.0
 11
107.849359350992
 21
70.51636153044182
 31
0.0
 12
105.3802090895617
 22
69.94460275474214
 32
0.0
 13
105.3802090895617
 23
69.94460275474214
 33
0.0
  0
POINT
  5
1259
330
4BF
100
AcDbEntity
  8
Defpoints
 62
     0
100
AcDbPoint
 10
105.3802090895617
 20
69.94460275474214
 30
0.0
  0
POINT
  5
125A
330
4BF
100
AcDbEntity
  8
Defpoints
 62
     0
100
AcDbPoint
 10
103.9943897907948
 20
69.37057760619449
 30
0.0
  0
ENDBLK
  5
4C6
330
4BF
100
AcDbEntity
  8
0
100
AcDbBlockEnd
  0
BLOCK
  5
4CD
330
4C7
100
AcDbEntity
  8
0
100
AcDbBlockBegin
  2
*D6
 70
     1
 10
0.0
 20
0.0
 30
0.0
  3
*D6
  1

  0
LINE
  5
12CF
330
4C7
100
AcDbEntity
  8
AM_5
100
AcDbLine
 10
137.172461252272
 20
97.94770010029722
 30
0.0
 11
108.7385078321156
 21
99.32812144654466
 31
0.0
  0
MTEXT
  5
12D0
330
4C7
100
AcDbEntity
  8
AM_5
 62
     2
100
AcDbMText
 10
131.9139660566195
 20
101.4571640029535
 30
0.0
 40
3.5
 41
0.0
 71
     5
 72
     1
  1
R2.5
 11
0.9988236082641972
 21
-0.0484912319300062
 31
0.0
 73
     1
 44
1.0
1001
ACAD
1000
MTEXTBEGIN
1070
    73
1070
     1
1070
    44
1040
1.0
1070
    74
1070
     0
1000
MTEXTEND
  0
LINE
  5
12D1
330
4C7
100
AcDbEntity
  8
AM_5
100
AcDbLine
 10
103.7443897907946
 20
99.5705776061947
 30
0.0
 11
106.2414488114551
 21
99.44934952636968
 31
0.0
  0
SOLID
  5
12D2
330
4C7
100
AcDbEntity
  8
AM_5
100
AcDbTrace
 10
108.7587125120865
 20
99.74429794998806
 30
0.0
 11
108.7183031521448
 21
98.91194494310123
 31
0.0
 12
106.2414488114551
 22
99.44934952636968
 32
0.0
 13
106.2414488114551
 23
99.44934952636968
 33
0.0
  0
POINT
  5
12D3
330
4C7
100
AcDbEntity
  8
Defpoints
 62
     0
100
AcDbPoint
 10
106.2414488114551
 20
99.44934952636968
 30
0.0
  0
POINT
  5
12D4
330
4C7
100
AcDbEntity
  8
Defpoints
 62
     0
100
AcDbPoint
 10
103.7443897907946
 20
99.5705776061947
 30
0.0
  0
ENDBLK
  5
4CE
330
4C7
100
AcDbEntity
  8
0
100
AcDbBlockEnd
  0
BLOCK
  5
4D6
330
4CF
100
AcDbEntity
  8
0
100
AcDbBlockBegin
  2
*D7
 70
     1
 10
0.0
 20
0.0
 30
0.0
  3
*D7
  1

  0
LINE
  5
11BE
330
4CF
100
AcDbEntity
  8
AM_5
100
AcDbLine
 10
125.924683080431
 20
86.75551856541554
 30
0.0
 11
103.4417237346615
 21
95.53089959936562
 31
0.0
  0
MTEXT
  5
11BF
330
4CF
100
AcDbEntity
  8
AM_5
 62
     2
100
AcDbMText
 10
124.078819625999
 20
90.96476886773691
 30
0.0
 40
3.5
 41
0.0
 71
     5
 72
     1
  1
R1
 11
0.931555962577436
 21
-0.3635979765983666
 31
0.0
 73
     1
 44
1.0
1001
ACAD
1000
MTEXTBEGIN
1070
    73
1070
     1
1070
    44
1040
1.0
1070
    74
1070
     0
1000
MTEXTEND
  0
SOLID
  5
11C0
330
4CF
100
AcDbEntity
  8
AM_5
100
AcDbTrace
 10
103.5932228915775
 20
95.91904791710623
 30
0.0
 11
103.2902245777455
 21
95.14275128162502
 31
0.0
 12
101.1128338282179
 22
96.43989454086154
 32
0.0
 13
101.1128338282179
 23
96.43989454086154
 33
0.0
  0
POINT
  5
11C1
330
4CF
100
AcDbEntity
  8
Defpoints
 62
     0
100
AcDbPoint
 10
101.1128338282179
 20
96.43989454086154
 30
0.0
  0
POINT
  5
11C2
330
4CF
100
AcDbEntity
  8
Defpoints
 62
     0
100
AcDbPoint
 10
102.0443897907948
 20
96.07629656426338
 30
0.0
  0
ENDBLK
  5
4D7
330
4CF
100
AcDbEntity
  8
0
100
AcDbBlockEnd
  0
BLOCK
  5
4E3
330
4D8
100
AcDbEntity
  8
0
100
AcDbBlockBegin
  2
*D8
 70
     1
 10
0.0
 20
0.0
 30
0.0
  3
*D8
  1

  0
LINE
  5
135A
330
4D8
100
AcDbEntity
  8
AM_5
100
AcDbLine
 10
38.94438979079473
 20
121.6705776061945
 30
0.0
 11
38.94438979079473
 21
135.0046264239055
 31
0.0
  0
LINE
  5
135B
330
4D8
100
AcDbEntity
  8
AM_5
100
AcDbLine
 10
107.5443897907948
 20
121.6705776061945
 30
0.0
 11
107.5443897907948
 21
135.0046264239055
 31
0.0
  0
LINE
  5
135C
330
4D8
100
AcDbEntity
  8
AM_5
100
AcDbLine
 10
41.44438979079473
 20
134.0046264239055
 30
0.0
 11
105.0443897907948
 21
134.0046264239055
 31
0.0
  0
SOLID
  5
135D
330
4D8
100
AcDbEntity
  8
AM_5
100
AcDbTrace
 10
41.44438979079473
 20
134.4212930905721
 30
0.0
 11
41.44438979079473
 21
133.5879597572388
 31
0.0
 12
38.94438979079473
 22
134.0046264239055
 32
0.0
 13
38.94438979079473
 23
134.0046264239055
 33
0.0
  0
SOLID
  5
135E
330
4D8
100
AcDbEntity
  8
AM_5
100
AcDbTrace
 10
105.0443897907948
 20
134.4212930905721
 30
0.0
 11
105.0443897907948
 21
133.5879597572388
 31
0.0
 12
107.5443897907948
 22
134.0046264239055
 32
0.0
 13
107.5443897907948
 23
134.0046264239055
 33
0.0
  0
MTEXT
  5
135F
330
4D8
100
AcDbEntity
  8
AM_5
 62
     2
100
AcDbMText
 10
73.2443897907948
 20
137.2546264239055
 30
0.0
 40
3.5
 41
0.0
 71
     5
 72
     1
  1
%%c69
 73
     1
 44
1.0
1001
ACAD
1000
MTEXTBEGIN
1070
    73
1070
     1
1070
    44
1040
1.0
1070
    74
1070
     0
1000
MTEXTEND
  0
POINT
  5
1360
330
4D8
100
AcDbEntity
  8
Defpoints
 62
     0
100
AcDbPoint
 10
38.94438979079473
 20
120.6705776061945
 30
0.0
  0
POINT
  5
1361
330
4D8
100
AcDbEntity
  8
Defpoints
 62
     0
100
AcDbPoint
 10
107.5443897907948
 20
120.6705776061945
 30
0.0
  0
POINT
  5
1362
330
4D8
100
AcDbEntity
  8
Defpoints
 62
     0
100
AcDbPoint
 10
107.5443897907948
 20
134.0046264239055
 30
0.0
  0
ENDBLK
  5
4E4
330
4D8
100
AcDbEntity
  8
0
100
AcDbBlockEnd
  0
BLOCK
  5
4F0
330
4E5
100
AcDbEntity
  8
0
100
AcDbBlockBegin
  2
*D9
 70
     1
 10
0.0
 20
0.0
 30
0.0
  3
*D9
  1

  0
LINE
  5
16E1
330
4E5
100
AcDbEntity
  8
AM_5
100
AcDbLine
 10
37.94438979079473
 20
120.6705776061945
 30
0.0
 11
20.58234992388523
 21
120.6705776061946
 31
0.0
  0
LINE
  5
16E2
330
4E5
100
AcDbEntity
  8
AM_5
100
AcDbLine
 10
45.89438979079477
 20
55.3705776061946
 30
0.0
 11
20.58234992388521
 21
55.3705776061946
 31
0.0
  0
LINE
  5
16E3
330
4E5
100
AcDbEntity
  8
AM_5
100
AcDbLine
 10
21.58234992388522
 20
118.1705776061946
 30
0.0
 11
21.58234992388521
 21
57.8705776061946
 31
0.0
  0
SOLID
  5
16E4
330
4E5
100
AcDbEntity
  8
AM_5
100
AcDbTrace
 10
21.16568325721855
 20
118.1705776061946
 30
0.0
 11
21.99901659055189
 21
118.1705776061946
 31
0.0
 12
21.58234992388523
 22
120.6705776061946
 32
0.0
 13
21.58234992388523
 23
120.6705776061946
 33
0.0
  0
SOLID
  5
16E5
330
4E5
100
AcDbEntity
  8
AM_5
100
AcDbTrace
 10
21.16568325721854
 20
57.8705776061946
 30
0.0
 11
21.99901659055188
 21
57.8705776061946
 31
0.0
 12
21.58234992388521
 22
55.3705776061946
 32
0.0
 13
21.58234992388521
 23
55.3705776061946
 33
0.0
  0
MTEXT
  5
16E6
330
4E5
100
AcDbEntity
  8
AM_5
 62
     2
100
AcDbMText
 10
18.3323499238852
 20
87.93639376639356
 30
0.0
 40
3.5
 41
0.0
 71
     5
 72
     1
  1
65
 11
0.0000000000000001
 21
1.0
 31
0.0
 73
     1
 44
1.0
1001
ACAD
1000
MTEXTBEGIN
1070
    73
1070
     1
1070
    44
1040
1.0
1070
    74
1070
     0
1000
MTEXTEND
  0
POINT
  5
16E7
330
4E5
100
AcDbEntity
  8
Defpoints
 62
     0
100
AcDbPoint
 10
38.94438979079473
 20
120.6705776061945
 30
0.0
  0
POINT
  5
16E8
330
4E5
100
AcDbEntity
  8
Defpoints
 62
     0
100
AcDbPoint
 10
46.89438979079477
 20
55.3705776061946
 30
0.0
  0
POINT
  5
16E9
330
4E5
100
AcDbEntity
  8
Defpoints
 62
     0
100
AcDbPoint
 10
21.58234992388521
 20
55.3705776061946
 30
0.0
  0
ENDBLK
  5
4F1
330
4E5
100
AcDbEntity
  8
0
100
AcDbBlockEnd
  0
BLOCK
  5
4FD
330
4F2
100
AcDbEntity
  8
0
100
AcDbBlockBegin
  2
*D10
 70
     1
 10
0.0
 20
0.0
 30
0.0
  3
*D10
  1

  0
LINE
  5
10E5
330
4F2
100
AcDbEntity
  8
AM_5
100
AcDbLine
 10
54.39438979079477
 20
97.57057760619467
 30
0.0
 11
54.39438979079477
 21
87.31579683279836
 31
0.0
  0
LINE
  5
10E6
330
4F2
100
AcDbEntity
  8
AM_5
100
AcDbLine
 10
59.59438979079485
 20
97.57057760619467
 30
0.0
 11
59.59438979079485
 21
87.31579683279836
 31
0.0
  0
LINE
  5
10E7
330
4F2
100
AcDbEntity
  8
AM_5
100
AcDbLine
 10
51.89438979079477
 20
88.31579683279835
 30
0.0
 11
49.39438979079477
 21
88.31579683279835
 31
0.0
  0
LINE
  5
10E8
330
4F2
100
AcDbEntity
  8
AM_5
100
AcDbLine
 10
62.09438979079485
 20
88.31579683279835
 30
0.0
 11
64.59438979079485
 21
88.31579683279835
 31
0.0
  0
LINE
  5
10E9
330
4F2
100
AcDbEntity
  8
AM_5
100
AcDbLine
 10
54.39438979079477
 20
88.31579683279835
 30
0.0
 11
59.59438979079485
 21
88.31579683279835
 31
0.0
  0
SOLID
  5
10EA
330
4F2
100
AcDbEntity
  8
AM_5
100
AcDbTrace
 10
51.89438979079477
 20
88.73246349946503
 30
0.0
 11
51.89438979079477
 21
87.89913016613168
 31
0.0
 12
54.39438979079477
 22
88.31579683279835
 32
0.0
 13
54.39438979079477
 23
88.31579683279835
 33
0.0
  0
SOLID
  5
10EB
330
4F2
100
AcDbEntity
  8
AM_5
100
AcDbTrace
 10
62.09438979079485
 20
88.73246349946503
 30
0.0
 11
62.09438979079485
 21
87.89913016613168
 31
0.0
 12
59.59438979079485
 22
88.31579683279835
 32
0.0
 13
59.59438979079485
 23
88.31579683279835
 33
0.0
  0
MTEXT
  5
10EC
330
4F2
100
AcDbEntity
  8
AM_5
 62
     2
100
AcDbMText
 10
56.99438979079481
 20
91.56579683279835
 30
0.0
 40
3.5
 41
0.0
 71
     5
 72
     1
  1
5
 73
     1
 44
1.0
1001
ACAD
1000
MTEXTBEGIN
1070
    73
1070
     1
1070
    44
1040
1.0
1070
    74
1070
     0
1000
MTEXTEND
  0
POINT
  5
10ED
330
4F2
100
AcDbEntity
  8
Defpoints
 62
     0
100
AcDbPoint
 10
54.39438979079477
 20
98.57057760619467
 30
0.0
  0
POINT
  5
10EE
330
4F2
100
AcDbEntity
  8
Defpoints
 62
     0
100
AcDbPoint
 10
59.59438979079485
 20
98.57057760619467
 30
0.0
  0
POINT
  5
10EF
330
4F2
100
AcDbEntity
  8
Defpoints
 62
     0
100
AcDbPoint
 10
59.59438979079485
 20
88.31579683279835
 30
0.0
  0
ENDBLK
  5
4FE
330
4F2
100
AcDbEntity
  8
0
100
AcDbBlockEnd
  0
BLOCK
  5
50A
330
4FF
100
AcDbEntity
  8
0
100
AcDbBlockBegin
  2
*D11
 70
     1
 10
0.0
 20
0.0
 30
0.0
  3
*D11
  1

  0
LINE
  5
10F0
330
4FF
100
AcDbEntity
  8
AM_5
100
AcDbLine
 10
59.59438979079485
 20
97.57057760619467
 30
0.0
 11
59.59438979079485
 21
87.31579683279836
 31
0.0
  0
LINE
  5
10F1
330
4FF
100
AcDbEntity
  8
AM_5
100
AcDbLine
 10
86.89438979079467
 20
97.57057760619472
 30
0.0
 11
86.89438979079467
 21
87.31579683279836
 31
0.0
  0
LINE
  5
10F2
330
4FF
100
AcDbEntity
  8
AM_5
100
AcDbLine
 10
62.09438979079485
 20
88.31579683279835
 30
0.0
 11
84.39438979079467
 21
88.31579683279835
 31
0.0
  0
SOLID
  5
10F3
330
4FF
100
AcDbEntity
  8
AM_5
100
AcDbTrace
 10
62.09438979079485
 20
88.73246349946503
 30
0.0
 11
62.09438979079485
 21
87.89913016613168
 31
0.0
 12
59.59438979079485
 22
88.31579683279835
 32
0.0
 13
59.59438979079485
 23
88.31579683279835
 33
0.0
  0
SOLID
  5
10F4
330
4FF
100
AcDbEntity
  8
AM_5
100
AcDbTrace
 10
84.39438979079467
 20
88.73246349946503
 30
0.0
 11
84.39438979079467
 21
87.89913016613168
 31
0.0
 12
86.89438979079467
 22
88.31579683279835
 32
0.0
 13
86.89438979079467
 23
88.31579683279835
 33
0.0
  0
MTEXT
  5
10F5
330
4FF
100
AcDbEntity
  8
AM_5
 62
     2
100
AcDbMText
 10
73.24438979079475
 20
91.56614132098733
 30
0.0
 40
3.5
 41
0.0
 71
     5
 72
     1
  1
27
 73
     1
 44
1.0
1001
ACAD
1000
MTEXTBEGIN
1070
    73
1070
     1
1070
    44
1040
1.0
1070
    74
1070
     0
1000
MTEXTEND
  0
POINT
  5
10F6
330
4FF
100
AcDbEntity
  8
Defpoints
 62
     0
100
AcDbPoint
 10
59.59438979079485
 20
98.57057760619467
 30
0.0
  0
POINT
  5
10F7
330
4FF
100
AcDbEntity
  8
Defpoints
 62
     0
100
AcDbPoint
 10
86.89438979079467
 20
98.57057760619472
 30
0.0
  0
POINT
  5
10F8
330
4FF
100
AcDbEntity
  8
Defpoints
 62
     0
100
AcDbPoint
 10
86.89438979079467
 20
88.31579683279835
 30
0.0
  0
ENDBLK
  5
50B
330
4FF
100
AcDbEntity
  8
0
100
AcDbBlockEnd
  0
BLOCK
  5
516
330
50C
100
AcDbEntity
  8
0
100
AcDbBlockBegin
  2
*D12
 70
     1
 10
0.0
 20
0.0
 30
0.0
  3
*D12
  1

  0
LINE
  5
10F9
330
50C
100
AcDbEntity
  8
AM_5
100
AcDbLine
 10
40.24438979079479
 20
115.1705776061946
 30
0.0
 11
40.24438979079479
 21
83.46390585109805
 31
0.0
  0
LINE
  5
10FA
330
50C
100
AcDbEntity
  8
AM_5
100
AcDbLine
 10
41.7443897907948
 20
115.1705776061946
 30
0.0
 11
41.7443897907948
 21
83.46390585109805
 31
0.0
  0
LINE
  5
10FB
330
50C
100
AcDbEntity
  8
AM_5
100
AcDbLine
 10
44.2443897907948
 20
84.46390585109805
 30
0.0
 11
46.7443897907948
 21
84.46390585109805
 31
0.0
  0
LINE
  5
10FC
330
50C
100
AcDbEntity
  8
AM_5
100
AcDbLine
 10
37.7443897907948
 20
84.46390585109805
 30
0.0
 11
30.54530514512551
 21
84.46390585109805
 31
0.0
  0
LINE
  5
10FD
330
50C
100
AcDbEntity
  8
AM_5
100
AcDbLine
 10
41.7443897907948
 20
84.46390585109805
 30
0.0
 11
40.24438979079479
 21
84.46390585109805
 31
0.0
  0
SOLID
  5
10FE
330
50C
100
AcDbEntity
  8
AM_5
100
AcDbTrace
 10
44.2443897907948
 20
84.88057251776472
 30
0.0
 11
44.2443897907948
 21
84.04723918443137
 31
0.0
 12
41.7443897907948
 22
84.46390585109805
 32
0.0
 13
41.7443897907948
 23
84.46390585109805
 33
0.0
  0
SOLID
  5
10FF
330
50C
100
AcDbEntity
  8
AM_5
100
AcDbTrace
 10
37.7443897907948
 20
84.88057251776472
 30
0.0
 11
37.7443897907948
 21
84.04723918443137
 31
0.0
 12
40.24438979079479
 22
84.46390585109805
 32
0.0
 13
40.24438979079479
 23
84.46390585109805
 33
0.0
  0
MTEXT
  5
1100
330
50C
100
AcDbEntity
  8
AM_5
 62
     2
100
AcDbMText
 10
32.89484746796015
 20
87.71425033928702
 30
0.0
 40
3.5
 41
0.0
 71
     5
 72
     1
  1
2
 73
     1
 44
1.0
1001
ACAD
1000
MTEXTBEGIN
1070
    73
1070
     1
1070
    44
1040
1.0
1070
    74
1070
     0
1000
MTEXTEND
  0
POINT
  5
1101
330
50C
100
AcDbEntity
  8
Defpoints
 62
     0
100
AcDbPoint
 10
40.24438979079479
 20
116.1705776061946
 30
0.0
  0
POINT
  5
1102
330
50C
100
AcDbEntity
  8
Defpoints
 62
     0
100
AcDbPoint
 10
41.7443897907948
 20
116.1705776061946
 30
0.0
  0
POINT
  5
1103
330
50C
100
AcDbEntity
  8
Defpoints
 62
     0
100
AcDbPoint
 10
41.7443897907948
 20
84.46390585109805
 30
0.0
  0
ENDBLK
  5
517
330
50C
100
AcDbEntity
  8
0
100
AcDbBlockEnd
  0
BLOCK
  5
53D
330
532
100
AcDbEntity
  8
0
100
AcDbBlockBegin
  2
*D13
 70
     1
 10
0.0
 20
0.0
 30
0.0
  3
*D13
  1

  0
LINE
  5
14E2
330
532
100
AcDbEntity
  8
AM_5
100
AcDbLine
 10
102.1943897907948
 20
177.8377130031233
 30
0.0
 11
102.1943897907948
 21
165.7236219809825
 31
0.0
  0
LINE
  5
14E3
330
532
100
AcDbEntity
  8
AM_5
100
AcDbLine
 10
44.29438979079475
 20
177.8377130031233
 30
0.0
 11
44.29438979079475
 21
165.7236219809825
 31
0.0
  0
LINE
  5
14E4
330
532
100
AcDbEntity
  8
AM_5
100
AcDbLine
 10
99.69438979079484
 20
166.7236219809825
 30
0.0
 11
46.79438979079475
 21
166.7236219809825
 31
0.0
  0
SOLID
  5
14E5
330
532
100
AcDbEntity
  8
AM_5
100
AcDbTrace
 10
99.69438979079484
 20
167.1402886476492
 30
0.0
 11
99.69438979079484
 21
166.3069553143159
 31
0.0
 12
102.1943897907948
 22
166.7236219809825
 32
0.0
 13
102.1943897907948
 23
166.7236219809825
 33
0.0
  0
SOLID
  5
14E6
330
532
100
AcDbEntity
  8
AM_5
100
AcDbTrace
 10
46.79438979079475
 20
167.1402886476492
 30
0.0
 11
46.79438979079475
 21
166.3069553143159
 31
0.0
 12
44.29438979079475
 22
166.7236219809825
 32
0.0
 13
44.29438979079475
 23
166.7236219809825
 33
0.0
  0
MTEXT
  5
14E7
330
532
100
AcDbEntity
  8
AM_5
 62
     2
100
AcDbMText
 10
73.18675721624845
 20
169.9736219809825
 30
0.0
 40
3.5
 41
0.0
 71
     5
 72
     1
  1
%%c58
 73
     1
 44
1.0
1001
ACAD
1000
MTEXTBEGIN
1070
    73
1070
     1
1070
    44
1040
1.0
1070
    74
1070
     0
1000
MTEXTEND
  0
POINT
  5
14E8
330
532
100
AcDbEntity
  8
Defpoints
 62
     0
100
AcDbPoint
 10
102.1943897907948
 20
178.8377130031233
 30
0.0
  0
POINT
  5
14E9
330
532
100
AcDbEntity
  8
Defpoints
 62
     0
100
AcDbPoint
 10
44.29438979079475
 20
178.8377130031233
 30
0.0
  0
POINT
  5
14EA
330
532
100
AcDbEntity
  8
Defpoints
 62
     0
100
AcDbPoint
 10
44.29438979079475
 20
166.7236219809825
 30
0.0
  0
ENDBLK
  5
53E
330
532
100
AcDbEntity
  8
0
100
AcDbBlockEnd
  0
BLOCK
  5
66C
330
588
100
AcDbEntity
  8
0
100
AcDbBlockBegin
  2
ACO-SF03-GR
 70
     2
 10
0.0
 20
0.0
 30
0.0
  3
ACO-SF03-GR
  1

  0
LINE
  5
6D2
330
588
100
AcDbEntity
  8
KOPF
 62
    12
100
AcDbLine
 10
0.0
 20
5.0
 30
0.0
 11
-83.0
 21
5.0
 31
0.0
  0
LWPOLYLINE
  5
6D3
330
588
100
AcDbEntity
  8
KOPF
 62
    12
100
AcDbPolyline
 90
        2
 70
     0
 43
0.5
 10
-83.0
 20
10.0
 10
0.0
 20
10.0
  0
LINE
  5
6D4
330
588
100
AcDbEntity
  8
KOPF
100
AcDbLine
 10
-83.0
 20
10.0
 30
0.0
 11
0.0
 21
10.0
 31
0.0
  0
LINE
  5
6D5
330
588
100
AcDbEntity
  8
KOPF
100
AcDbLine
 10
0.0
 20
5.0
 30
0.0
 11
-83.0
 21
5.0
 31
0.0
  0
LWPOLYLINE
  5
6D6
330
588
100
AcDbEntity
  8
KOPF
 62
    12
100
AcDbPolyline
 90
        2
 70
     0
 43
0.5
 10
0.0
 20
68.49999999999997
 10
-182.0
 20
68.49999999999997
  0
LWPOLYLINE
  5
6D7
330
588
100
AcDbEntity
  8
KOPF
 62
    12
100
AcDbPolyline
 90
        2
 70
     0
 43
0.5
 10
0.0
 20
46.99999999999997
 10
-182.0
 20
46.99999999999997
  0
LWPOLYLINE
  5
6D8
330
588
100
AcDbEntity
  8
KOPF
 62
    12
100
AcDbPolyline
 90
        2
 70
     0
 43
0.5
 10
-0.2154115848244373
 20
27.23910754630094
 10
-182.1882840408789
 20
27.23910754630094
  0
LINE
  5
6D9
330
588
100
AcDbEntity
  8
KOPF
 62
    12
100
AcDbLine
 10
0.0
 20
88.49999999999996
 30
0.0
 11
-182.0
 21
88.49999999999996
 31
0.0
  0
LINE
  5
6DA
330
588
100
AcDbEntity
  8
KOPF
 62
    12
100
AcDbLine
 10
-182.0
 20
83.49999999999997
 30
0.0
 11
0.0
 21
83.49999999999997
 31
0.0
  0
LINE
  5
6DB
330
588
100
AcDbEntity
  8
KOPF
 62
    12
100
AcDbLine
 10
0.0
 20
73.49999999999997
 30
0.0
 11
-182.0
 21
73.49999999999997
 31
0.0
  0
LINE
  5
6DC
330
588
100
AcDbEntity
  8
KOPF
 62
    12
100
AcDbLine
 10
-162.682677
 20
78.49999999999997
 30
0.0
 11
0.0
 21
78.49999999999997
 31
0.0
  0
LINE
  5
6DD
330
588
100
AcDbEntity
  8
KOPF
100
AcDbLine
 10
0.0
 20
68.49999999999997
 30
0.0
 11
-182.0
 21
68.49999999999997
 31
0.0
  0
LINE
  5
6DE
330
588
100
AcDbEntity
  8
KOPF
100
AcDbLine
 10
0.0
 20
88.49999999999996
 30
0.0
 11
-182.0
 21
88.49999999999996
 31
0.0
  0
LINE
  5
6DF
330
588
100
AcDbEntity
  8
KOPF
100
AcDbLine
 10
-182.0
 20
83.49999999999997
 30
0.0
 11
0.0
 21
83.49999999999997
 31
0.0
  0
LINE
  5
6E0
330
588
100
AcDbEntity
  8
KOPF
100
AcDbLine
 10
0.0
 20
73.49999999999997
 30
0.0
 11
-182.0
 21
73.49999999999997
 31
0.0
  0
LINE
  5
6E1
330
588
100
AcDbEntity
  8
KOPF
100
AcDbLine
 10
-162.682677
 20
78.49999999999997
 30
0.0
 11
0.0
 21
78.49999999999997
 31
0.0
  0
LINE
  5
6E2
330
588
100
AcDbEntity
  8
KOPF
 62
    12
100
AcDbLine
 10
-182.0
 20
57.74999999999997
 30
0.0
 11
-100.0
 21
57.74999999999997
 31
0.0
  0
LINE
  5
6E3
330
588
100
AcDbEntity
  8
KOPF
 62
    12
100
AcDbLine
 10
-182.0
 20
41.99999999999996
 30
0.0
 11
-113.4
 21
41.99999999999996
 31
0.0
  0
LINE
  5
6E4
330
588
100
AcDbEntity
  8
KOPF
100
AcDbLine
 10
-182.0
 20
57.74999999999997
 30
0.0
 11
-100.0
 21
57.74999999999997
 31
0.0
  0
LINE
  5
6E5
330
588
100
AcDbEntity
  8
KOPF
100
AcDbLine
 10
-182.0
 20
41.99999999999996
 30
0.0
 11
-113.4
 21
41.99999999999996
 31
0.0
  0
LINE
  5
6E6
330
588
100
AcDbEntity
  8
KOPF
 62
    12
100
AcDbLine
 10
-142.0
 20
68.49999999999997
 30
0.0
 11
-142.0
 21
46.99999999999997
 31
0.0
  0
LINE
  5
6E7
330
588
100
AcDbEntity
  8
KOPF
 62
    12
100
AcDbLine
 10
-142.0
 20
68.49999999999997
 30
0.0
 11
-142.0
 21
46.99999999999997
 31
0.0
  0
ATTDEF
  5
6E8
330
588
100
AcDbEntity
  8
TEXT35
100
AcDbText
 10
-140.2
 20
49.4
 30
0.0
 40
3.5
  1

 41
0.8
  7
TEXT35
100
AcDbAttributeDefinition
  3
Oberfläche:
  2
F63
 70
     0
  0
LWPOLYLINE
  5
6E9
330
588
100
AcDbEntity
  8
KOPF
 62
    12
100
AcDbPolyline
 90
        2
 70
     0
 43
0.7
 10
-182.0
 20
103.4999999999999
 10
-182.0
 20
0.0
  0
LINE
  5
6EA
330
588
100
AcDbEntity
  8
KOPF
100
AcDbLine
 10
-182.0
 20
103.4999999999999
 30
0.0
 11
-182.0
 21
0.0
 31
0.0
  0
TEXT
  5
6EB
330
588
100
AcDbEntity
  8
KOPF
100
AcDbText
 10
-179.738589
 20
38.32439403633659
 30
0.0
 40
2.0
  1
Gezeichnet:
 41
0.8
  7
TEXT20
100
AcDbText
  0
ATTDEF
  5
6EC
330
588
100
AcDbEntity
  8
TEXT35
100
AcDbText
 10
-176.6
 20
3.399999999999999
 30
0.0
 40
3.5
  1

 41
0.8
  7
TEXT35
100
AcDbAttributeDefinition
  3
Z-Titel 3
  2
F13
 70
     0
  0
ATTDEF
  5
6ED
330
588
100
AcDbEntity
  8
TEXT50
100
AcDbText
 10
-176.6
 20
10.63250279796295
 30
0.0
 40
5.0
  1

 41
0.8
  7
TEXT50
100
AcDbAttributeDefinition
  3
Z-Titel 2
  2
F3
 70
     0
  0
ATTDEF
  5
6EE
330
588
100
AcDbEntity
  8
TEXT50
100
AcDbText
 10
-176.6
 20
18.56318324460701
 30
0.0
 40
5.0
  1

 41
0.8
  7
TEXT50
100
AcDbAttributeDefinition
  3
Z-Titel 1
  2
F2
 70
     0
  0
TEXT
  5
6EF
330
588
100
AcDbEntity
  8
KOPF
100
AcDbText
 10
-179.738589
 20
28.52395361420514
 30
0.0
 40
2.0
  1
Update:
 41
0.8
  7
TEXT20
100
AcDbText
  0
TEXT
  5
6F0
330
588
100
AcDbEntity
  8
KOPF
100
AcDbText
 10
-179.738589
 20
33.43577642824449
 30
0.0
 40
2.0
  1
Geprüft
 41
0.8
  7
TEXT20
100
AcDbText
  0
LINE
  5
6F1
330
588
100
AcDbEntity
  8
KOPF
 62
    12
100
AcDbLine
 10
-163.0
 20
46.99999999999997
 30
0.0
 11
-163.0
 21
27.0
 31
0.0
  0
LINE
  5
6F2
330
588
100
AcDbEntity
  8
KOPF
100
AcDbLine
 10
-163.0
 20
46.99999999999997
 30
0.0
 11
-163.0
 21
27.0
 31
0.0
  0
ATTDEF
  5
6F3
330
588
100
AcDbEntity
  8
TEXT25
100
AcDbText
 10
-161.5009557098303
 20
28.32091209119023
 30
0.0
 40
2.0
  1

 41
0.8
  7
TEXT20
100
AcDbAttributeDefinition
  3
Update am:
  2
F53
 70
     0
  0
ATTDEF
  5
6F4
330
588
100
AcDbEntity
  8
TEXT25
100
AcDbText
 10
-161.5539333606331
 20
33.12227989587696
 30
0.0
 40
2.0
  1

 41
0.8
  7
TEXT20
100
AcDbAttributeDefinition
  3
Geprüft am:
  2
F22
 70
     0
  0
ATTDEF
  5
6F5
330
588
100
AcDbEntity
  8
TEXT25
100
AcDbText
 10
-161.5207141482394
 20
38.33983936444393
 30
0.0
 40
2.0
  1

 41
0.8
  7
TEXT20
100
AcDbAttributeDefinition
  3
Gezeichnet am:
  2
F9
 70
     0
  0
TEXT
  5
6F6
330
588
100
AcDbEntity
  8
KOPF
100
AcDbText
 10
-155.964455
 20
43.13467299999999
 30
0.0
 40
2.0
  1
Datum
 41
0.8
  7
TEXT20
100
AcDbText
  0
LINE
  5
6F7
330
588
100
AcDbEntity
  8
KOPF
 62
    12
100
AcDbLine
 10
-138.4
 20
46.99999999999997
 30
0.0
 11
-138.4
 21
27.0
 31
0.0
  0
LINE
  5
6F8
330
588
100
AcDbEntity
  8
KOPF
100
AcDbLine
 10
-138.4
 20
46.99999999999997
 30
0.0
 11
-138.4
 21
27.0
 31
0.0
  0
TEXT
  5
6F9
330
588
100
AcDbEntity
  8
KOPF
100
AcDbText
 10
-130.065072
 20
43.14125800000002
 30
0.0
 40
2.0
  1
Name
 41
0.8
  7
TEXT20
100
AcDbText
  0
ATTDEF
  5
6FA
330
588
100
AcDbEntity
  8
TEXT25
100
AcDbText
 10
-136.2746977811447
 20
33.28471223400234
 30
0.0
 40
2.0
  1

 41
0.8
  7
TEXT20
100
AcDbAttributeDefinition
  3
Geprüft von:
  2
F21
 70
     0
  0
ATTDEF
  5
6FB
330
588
100
AcDbEntity
  8
TEXT25
100
AcDbText
 10
-136.3996291720711
 20
28.23101841142455
 30
0.0
 40
2.0
  1

 41
0.8
  7
TEXT20
100
AcDbAttributeDefinition
  3
Update von:
  2
F52
 70
     0
  0
ATTDEF
  5
6FC
330
588
100
AcDbEntity
  8
TEXT25
100
AcDbText
 10
-136.1922113552417
 20
38.48172579575253
 30
0.0
 40
2.0
  1

 41
0.8
  7
TEXT20
100
AcDbAttributeDefinition
  3
Gezeichnet von
  2
F8
 70
     0
  0
TEXT
  5
6FD
330
588
100
AcDbEntity
  8
KOPF
100
AcDbText
 10
-174.6925639999999
 20
69.53813999999997
 30
0.0
 40
2.0
  1
Index
 41
0.8
  7
TEXT20
100
AcDbText
  0
LINE
  5
6FE
330
588
100
AcDbEntity
  8
KOPF
100
AcDbLine
 10
-182.0
 20
78.49999999999997
 30
0.0
 11
-162.682677
 21
78.49999999999997
 31
0.0
  0
LINE
  5
6FF
330
588
100
AcDbEntity
  8
KOPF
100
AcDbLine
 10
-182.0
 20
78.49999999999997
 30
0.0
 11
-162.682677
 21
78.49999999999997
 31
0.0
  0
TEXT
  5
700
330
588
100
AcDbEntity
  8
KOPF
100
AcDbText
 10
-180.0
 20
65.166273
 30
0.0
 40
2.0
  1
Werkstoff:
 41
0.8
  7
TEXT20
100
AcDbText
  0
TEXT
  5
701
330
588
100
AcDbEntity
  8
KOPF
100
AcDbText
 10
-181.0
 20
54.49999999999997
 30
0.0
 40
2.0
  1
zul. Abweich.:
 41
0.8
  7
TEXT20
100
AcDbText
  0
ATTDEF
  5
702
330
588
100
AcDbEntity
  8
TEXT35
100
AcDbText
 10
-179.7
 20
59.6
 30
0.0
 40
3.5
  1

 41
0.8
  7
TEXT35
100
AcDbAttributeDefinition
  3
Werkstoff:
  2
F61
 70
     0
  0
ATTDEF
  5
703
330
588
100
AcDbEntity
  8
TEXT35
100
AcDbText
 10
-179.7
 20
49.7
 30
0.0
 40
3.5
  1

 41
0.8
  7
TEXT35
100
AcDbAttributeDefinition
  3
zul. Abweichung
  2
F62
 70
     0
  0
ATTDEF
  5
704
330
588
100
AcDbEntity
  8
TEXT25
100
AcDbText
 10
-174.360415155955
 20
74.59999999999999
 30
0.0
 40
2.0
  1

 41
0.8
  7
TEXT20
100
AcDbAttributeDefinition
  3
Index vv.:
  2
F72
 70
     0
  0
ATTDEF
  5
705
330
588
100
AcDbEntity
  8
TEXT25
100
AcDbText
 10
-174.4435409453564
 20
79.47378932523601
 30
0.0
 40
2.0
  1

 41
0.8
  7
TEXT20
100
AcDbAttributeDefinition
  3
Index v.:
  2
F68
 70
     0
  0
ATTDEF
  5
706
330
588
100
AcDbEntity
  8
TEXT25
100
AcDbText
 10
-174.3700408782365
 20
84.63034186138365
 30
0.0
 40
2.0
  1

 41
0.8
  7
TEXT20
100
AcDbAttributeDefinition
  3
Index l.:
  2
F64
 70
     0
  0
LINE
  5
707
330
588
100
AcDbEntity
  8
KOPF
100
AcDbLine
 10
-162.682677
 20
88.49999999999996
 30
0.0
 11
-162.682677
 21
68.49999999999997
 31
0.0
  0
LINE
  5
708
330
588
100
AcDbEntity
  8
KOPF
100
AcDbLine
 10
-162.682677
 20
88.49999999999996
 30
0.0
 11
-162.682677
 21
68.49999999999997
 31
0.0
  0
TEXT
  5
709
330
588
100
AcDbEntity
  8
KOPF
100
AcDbText
 10
-156.706568
 20
69.53813999999997
 30
0.0
 40
2.0
  1
Datum
 41
0.8
  7
TEXT20
100
AcDbText
  0
ATTDEF
  5
70A
330
588
100
AcDbEntity
  8
TEXT25
100
AcDbText
 10
-160.9
 20
75.09999999999999
 30
0.0
 40
2.0
  1

 41
0.8
  7
TEXT20
100
AcDbAttributeDefinition
  3
Datum vv.:
  2
F73
 70
     0
  0
ATTDEF
  5
70B
330
588
100
AcDbEntity
  8
TEXT25
100
AcDbText
 10
-160.9
 20
79.40000000000001
 30
0.0
 40
2.0
  1

 41
0.8
  7
TEXT20
100
AcDbAttributeDefinition
  3
Datum v.:
  2
F69
 70
     0
  0
ATTDEF
  5
70C
330
588
100
AcDbEntity
  8
TEXT25
100
AcDbText
 10
-160.6
 20
84.50000000000001
 30
0.0
 40
2.0
  1

 41
0.8
  7
TEXT20
100
AcDbAttributeDefinition
  3
Datum l.:
  2
F65
 70
     0
  0
LINE
  5
70D
330
588
100
AcDbEntity
  8
KOPF
 62
    12
100
AcDbLine
 10
-142.0
 20
68.49999999999997
 30
0.0
 11
-142.0
 21
88.49999999999996
 31
0.0
  0
LINE
  5
70E
330
588
100
AcDbEntity
  8
KOPF
100
AcDbLine
 10
-142.0
 20
68.49999999999997
 30
0.0
 11
-142.0
 21
88.49999999999996
 31
0.0
  0
ATTDEF
  5
70F
330
588
100
AcDbEntity
  8
TEXT35
100
AcDbText
 10
-139.9
 20
59.29999999999999
 30
0.0
 40
3.5
  1

 41
0.8
  7
TEXT35
100
AcDbAttributeDefinition
  3
Gewicht:
  2
F60
 70
     0
  0
TEXT
  5
710
330
588
100
AcDbEntity
  8
KOPF
100
AcDbText
 10
-140.387393
 20
54.54752599999996
 30
0.0
 40
2.0
  1
Oberfläche
 41
0.8
  7
TEXT20
100
AcDbText
  0
TEXT
  5
711
330
588
100
AcDbEntity
  8
KOPF
100
AcDbText
 10
-140.1020469999999
 20
65.166273
 30
0.0
 40
2.0
  1
Gewicht:
 41
0.8
  7
TEXT20
100
AcDbText
  0
TEXT
  5
712
330
588
100
AcDbEntity
  8
KOPF
100
AcDbText
 10
-140.1020469999999
 20
65.166273
 30
0.0
 40
2.0
  1
Gewicht:
 41
0.8
  7
TEXT20
100
AcDbText
  0
ATTDEF
  5
713
330
588
100
AcDbEntity
  8
TEXT25
100
AcDbText
 10
-140.4
 20
74.59999999999999
 30
0.0
 40
2.0
  1

 41
0.8
  7
TEXT20
100
AcDbAttributeDefinition
  3
Bennenung vv.:
  2
F74
 70
     0
  0
ATTDEF
  5
714
330
588
100
AcDbEntity
  8
TEXT25
100
AcDbText
 10
-140.5063960262479
 20
79.64480359078786
 30
0.0
 40
2.0
  1

 41
0.8
  7
TEXT20
100
AcDbAttributeDefinition
  3
Benennung v.:
  2
F70
 70
     0
  0
ATTDEF
  5
715
330
588
100
AcDbEntity
  8
TEXT25
100
AcDbText
 10
-140.390233442385
 20
84.56120109651198
 30
0.0
 40
2.0
  1

 41
0.8
  7
TEXT20
100
AcDbAttributeDefinition
  3
Bennenung l.:
  2
F66
 70
     0
  0
LINE
  5
716
330
588
100
AcDbEntity
  8
KOPF
 62
    12
100
AcDbLine
 10
-100.0
 20
68.49999999999997
 30
0.0
 11
-100.0
 21
46.99999999999997
 31
0.0
  0
LWPOLYLINE
  5
717
330
588
100
AcDbEntity
  8
KOPF
 62
    12
100
AcDbPolyline
 90
        2
 70
     0
 43
0.5
 10
-83.0
 20
46.99999999999997
 10
-83.0
 20
0.0
  0
LINE
  5
718
330
588
100
AcDbEntity
  8
KOPF
100
AcDbLine
 10
-83.0
 20
46.99999999999997
 30
0.0
 11
-83.0
 21
0.0
 31
0.0
  0
TEXT
  5
719
330
588
100
AcDbEntity
  8
KOPF
100
AcDbText
 10
-81.0
 20
1.714285999999985
 30
0.0
 40
2.0
  1
Ersetzt durch:
 41
0.8
  7
TEXT20
100
AcDbText
  0
LINE
  5
71A
330
588
100
AcDbEntity
  8
KOPF
 62
    12
100
AcDbLine
 10
-113.4
 20
27.0
 30
0.0
 11
-113.4
 21
46.99999999999997
 31
0.0
  0
LWPOLYLINE
  5
71B
330
588
100
AcDbEntity
  8
KOPF
100
AcDbPolyline
 90
        2
 70
     0
 43
0.5
 10
-113.4
 20
27.0
 10
-113.4
 20
46.99999999999997
  0
LINE
  5
71C
330
588
100
AcDbEntity
  8
KOPF
100
AcDbLine
 10
-113.4
 20
27.0
 30
0.0
 11
-113.4
 21
46.99999999999997
 31
0.0
  0
LINE
  5
71D
330
588
100
AcDbEntity
  8
KOPF
100
AcDbLine
 10
-113.4
 20
27.0
 30
0.0
 11
-113.4
 21
46.99999999999997
 31
0.0
  0
ATTDEF
  5
71E
330
588
100
AcDbEntity
  8
TEXT35
100
AcDbText
 10
-104.4935632823758
 20
33.13408015176805
 30
0.0
 40
3.5
  1

 41
0.8
  7
TEXT35
100
AcDbAttributeDefinition
  3
Maßstab 2:
  2
F54
 70
     0
  0
ATTDEF
  5
71F
330
588
100
AcDbEntity
  8
TEXT35
100
AcDbText
 10
-104.487948258847
 20
28.6
 30
0.0
 40
3.5
  1

 41
0.8
  7
TEXT35
100
AcDbAttributeDefinition
  3
Maßstab 3:
  2
F55
 70
     0
  0
ATTDEF
  5
720
330
588
100
AcDbEntity
  8
TEXT50
100
AcDbText
 10
-106.6
 20
37.8
 30
0.0
 40
5.0
  1

 41
0.8
  7
TEXT50
100
AcDbAttributeDefinition
  3
Maßstab 1:
  2
F25
 70
     0
  0
TEXT
  5
721
330
588
100
AcDbEntity
  8
KOPF
100
AcDbText
 10
-112.263457
 20
43.88678899999999
 30
0.0
 40
2.0
  1
Massstab:
 41
0.8
  7
TEXT20
100
AcDbText
  0
LINE
  5
722
330
588
100
AcDbEntity
  8
KOPF
 62
    12
100
AcDbLine
 10
-57.80813400000011
 20
27.0
 30
0.0
 11
-57.80813400000011
 21
46.99999999999997
 31
0.0
  0
LINE
  5
723
330
588
100
AcDbEntity
  8
KOPF
100
AcDbLine
 10
-57.80813400000011
 20
27.0
 30
0.0
 11
-57.80813400000011
 21
46.99999999999997
 31
0.0
  0
TEXT
  5
724
330
588
100
AcDbEntity
  8
KOPF
100
AcDbText
 10
-81.59296000000006
 20
23.69783599999999
 30
0.0
 40
2.0
  1
Zeichnung Nr.:
 41
0.8
  7
TEXT20
100
AcDbText
  0
TEXT
  5
725
330
588
100
AcDbEntity
  8
KOPF
100
AcDbText
 10
-81.00375700000006
 20
5.924711999999997
 30
0.0
 40
2.0
  1
Ersatz für:
 41
0.8
  7
TEXT20
100
AcDbText
  0
TEXT
  5
726
330
588
100
AcDbEntity
  8
KOPF
100
AcDbText
 10
-81.59296000000006
 20
23.69783599999999
 30
0.0
 40
2.0
  1
Zeichnung Nr.:
 41
0.8
  7
TEXT20
100
AcDbText
  0
ATTDEF
  5
727
330
588
100
AcDbEntity
  8
TEXT50
100
AcDbText
 10
-78.29193986361122
 20
14.50587824180555
 30
0.0
 40
5.0
  1

 41
0.8
  7
TEXT50
100
AcDbAttributeDefinition
  3
Standart:
  2
F1
 70
     0
  0
TEXT
  5
728
330
588
100
AcDbEntity
  8
KOPF
100
AcDbText
 10
-81.48889200000008
 20
43.86057200000001
 30
0.0
 40
2.0
  1
Masseinheit:
 41
0.8
  7
TEXT20
100
AcDbText
  0
LINE
  5
729
330
588
100
AcDbEntity
  8
KOPF
 62
    12
100
AcDbLine
 10
-57.80813400000011
 20
36.213444
 30
0.0
 11
-83.0
 21
36.213444
 31
0.0
  0
LINE
  5
72A
330
588
100
AcDbEntity
  8
KOPF
100
AcDbLine
 10
-57.80813400000011
 20
36.213444
 30
0.0
 11
-83.0
 21
36.213444
 31
0.0
  0
ATTDEF
  5
72B
330
588
100
AcDbEntity
  8
TEXT35
100
AcDbText
 10
-79.40896486611496
 20
38.08722024605356
 30
0.0
 40
3.5
  1

 41
0.8
  7
TEXT35
100
AcDbAttributeDefinition
  3
Maßeinheit:
  2
F56
 70
     0
  0
TEXT
  5
72C
330
588
100
AcDbEntity
  8
KOPF
100
AcDbText
 10
-33.57569784693112
 20
42.62823225872138
 30
0.0
 40
1.54
  1
Diese Zeichnung darf weder kopiert
 41
0.8
  7
TEXT20
100
AcDbText
  0
TEXT
  5
72D
330
588
100
AcDbEntity
  8
KOPF
100
AcDbText
 10
-33.57569784693112
 20
40.26106040199917
 30
0.0
 40
1.54
  1
noch dritten Personen, insbesondere
 41
0.8
  7
TEXT20
100
AcDbText
  0
TEXT
  5
72E
330
588
100
AcDbEntity
  8
KOPF
100
AcDbText
 10
-33.57569784693112
 20
35.63814072439632
 30
0.0
 40
1.54
  1
mitgeteilt werden und bleibt unser
 41
0.8
  7
TEXT20
100
AcDbText
  0
TEXT
  5
72F
330
588
100
AcDbEntity
  8
KOPF
100
AcDbText
 10
-33.57569784693112
 20
33.37532604459598
 30
0.0
 40
1.54
  1
Eigentum.
 41
0.8
  7
TEXT20
100
AcDbText
  0
TEXT
  5
730
330
588
100
AcDbEntity
  8
KOPF
100
AcDbText
 10
-33.57569784693112
 20
37.97994933403727
 30
0.0
 40
1.54
  1
zum Zweck anderweitiger Benutzung
 41
0.8
  7
TEXT20
100
AcDbText
  0
TEXT
  5
731
330
588
100
AcDbEntity
  8
KOPF
100
AcDbText
 10
-33.7904806989385
 20
30.30982488917614
 30
0.0
 40
1.54
  1
Schutzvermerk nach DIN 34 beachten
 41
0.75
  7
TEXT20
100
AcDbText
  0
LINE
  5
732
330
588
100
AcDbEntity
  8
KOPF
100
AcDbLine
 10
-34.94281200000012
 20
47.01203199999999
 30
0.0
 11
-34.94281200000012
 21
27.0
 31
0.0
  0
LINE
  5
733
330
588
100
AcDbEntity
  8
KOPF
100
AcDbLine
 10
-34.94281200000012
 20
47.01203199999999
 30
0.0
 11
-34.94281200000012
 21
27.0
 31
0.0
  0
LINE
  5
734
330
588
100
AcDbEntity
  8
MITTE
100
AcDbLine
 10
-45.85521401410289
 20
36.04852954632858
 30
0.0
 11
-35.23444858652556
 21
36.04852954632858
 31
0.0
  0
LINE
  5
735
330
588
100
AcDbEntity
  8
TEXT50
100
AcDbLine
 10
-45.05865660703466
 20
32.02559619470341
 30
0.0
 11
-36.50894043783512
 21
34.06858135367652
 31
0.0
  0
LINE
  5
736
330
588
100
AcDbEntity
  8
TEXT50
100
AcDbLine
 10
-36.50894043783512
 20
38.02847773898061
 30
0.0
 11
-45.05865660703466
 21
40.07146289795374
 31
0.0
  0
TEXT
  5
737
330
588
100
AcDbEntity
  8
KOPF
100
AcDbText
 10
-57.12244047883302
 20
43.82431699999997
 30
0.0
 40
2.0
  1
Projektion: ISO-E
 41
0.8
  7
TEXT20
100
AcDbText
  0
LINE
  5
738
330
588
100
AcDbEntity
  8
TEXT50
100
AcDbLine
 10
-45.05865660703466
 20
40.07146289795374
 30
0.0
 11
-45.05865660703466
 21
32.02559619470346
 31
0.0
  0
LINE
  5
739
330
588
100
AcDbEntity
  8
MITTE
100
AcDbLine
 10
-51.4945506424383
 20
40.07146289795374
 30
0.0
 11
-51.4945506424383
 21
30.76413131482123
 31
0.0
  0
CIRCLE
  5
73A
330
588
100
AcDbEntity
  8
TEXT50
100
AcDbCircle
 10
-51.4945506424383
 20
36.04852954632858
 30
0.0
 40
4.022933351625178
  0
CIRCLE
  5
73B
330
588
100
AcDbEntity
  8
TEXT50
100
AcDbCircle
 10
-51.4945506424383
 20
36.04852954632858
 30
0.0
 40
1.979948192651899
  0
LINE
  5
73C
330
588
100
AcDbEntity
  8
MITTE
100
AcDbLine
 10
-56.48631039339966
 20
36.04852954632858
 30
0.0
 11
-46.50279089147699
 21
36.04852954632858
 31
0.0
  0
LINE
  5
73D
330
588
100
AcDbEntity
  8
TEXT50
100
AcDbLine
 10
-36.50894043783512
 20
38.02847773898061
 30
0.0
 11
-36.50894043783512
 21
34.06858135367652
 31
0.0
  0
LWPOLYLINE
  5
73E
330
588
100
AcDbEntity
  8
KOPF
 62
    12
100
AcDbPolyline
 90
        2
 70
     0
 43
0.5
 10
-12.0
 20
27.0
 10
-12.0
 20
10.0
  0
LINE
  5
73F
330
588
100
AcDbEntity
  8
KOPF
100
AcDbLine
 10
-12.0
 20
27.0
 30
0.0
 11
-12.0
 21
10.0
 31
0.0
  0
ATTDEF
  5
740
330
588
100
AcDbEntity
  8
TEXT50
100
AcDbText
 10
-5.58570360403041
 20
17.00587824180555
 30
0.0
 40
5.0
  1

 41
0.8
  7
TEXT50
 72
     4
 11
-5.58570360403041
 21
17.00587824180555
 31
0.0
100
AcDbAttributeDefinition
  3
Index:
  2
F1B
 70
     0
  0
TEXT
  5
741
330
588
100
AcDbEntity
  8
KOPF
100
AcDbText
 10
-8.353129999999964
 20
23.330072
 30
0.0
 40
2.0
  1
Index
 41
0.8
  7
TEXT20
100
AcDbText
  0
TEXT
  5
742
330
588
100
AcDbEntity
  8
KOPF
100
AcDbText
 10
-94.40535829344497
 20
70.39773773357916
 30
0.0
 40
2.0
  1
Benennung
 41
0.8
  7
TEXT20
100
AcDbText
  0
LINE
  5
743
330
588
100
AcDbEntity
  8
KOPF
100
AcDbLine
 10
-15.0
 20
88.49999999999996
 30
0.0
 11
-15.0
 21
68.49999999999997
 31
0.0
  0
LINE
  5
744
330
588
100
AcDbEntity
  8
KOPF
100
AcDbLine
 10
-15.0
 20
88.49999999999996
 30
0.0
 11
-15.0
 21
68.49999999999997
 31
0.0
  0
TEXT
  5
745
330
588
100
AcDbEntity
  8
KOPF
100
AcDbText
 10
-11.65833600000008
 20
69.53813999999997
 30
0.0
 40
2.0
  1
Name
 41
0.8
  7
TEXT20
100
AcDbText
  0
TEXT
  5
746
330
588
100
AcDbEntity
  8
KOPF
100
AcDbText
 10
-11.65833600000008
 20
69.53813999999997
 30
0.0
 40
2.0
  1
Name
 41
0.8
  7
TEXT20
100
AcDbText
  0
ATTDEF
  5
747
330
588
100
AcDbEntity
  8
TEXT25
100
AcDbText
 10
-13.39999999999998
 20
74.90000000000001
 30
0.0
 40
2.0
  1

 41
0.8
  7
TEXT20
100
AcDbAttributeDefinition
  3
Name vv.:
  2
F75
 70
     0
  0
ATTDEF
  5
748
330
588
100
AcDbEntity
  8
TEXT25
100
AcDbText
 10
-13.39999999999998
 20
79.7
 30
0.0
 40
2.0
  1

 41
0.8
  7
TEXT20
100
AcDbAttributeDefinition
  3
Name v.:
  2
F71
 70
     0
  0
ATTDEF
  5
749
330
588
100
AcDbEntity
  8
TEXT25
100
AcDbText
 10
-13.31006638105163
 20
84.29999999999999
 30
0.0
 40
2.0
  1

 41
0.8
  7
TEXT20
100
AcDbAttributeDefinition
  3
Name l.:
  2
F67
 70
     0
  0
LINE
  5
74A
330
588
100
AcDbEntity
  8
KOPF
100
AcDbLine
 10
-182.0
 20
36.99999999999997
 30
0.0
 11
-113.4
 21
36.99999999999997
 31
0.0
  0
LINE
  5
74B
330
588
100
AcDbEntity
  8
KOPF
100
AcDbLine
 10
-182.0
 20
31.99999999999997
 30
0.0
 11
-113.4
 21
31.99999999999997
 31
0.0
  0
MTEXT
  5
74C
330
588
100
AcDbEntity
  8
Sperrlayer
 62
     1
100
AcDbMText
 10
-166.0749851709908
 20
9.027899370527848
 30
0.0
 40
10.0
 41
771.0
 71
     1
 72
     5
  1
VORABZUG - nicht FREIGEGEBEN !
  7
TEXT20
 11
0.8660254037844387
 21
0.5
 31
0.0
 73
     1
 44
1.0
1001
ACAD
1000
MTEXTBEGIN
1070
    73
1070
     1
1070
    44
1040
1.0
1070
    74
1070
     0
1000
MTEXTEND
  0
SOLID
  5
74D
330
588
100
AcDbEntity
  8
RAHM2
100
AcDbTrace
 10
-60.3115689225028
 20
60.53955194513014
 30
0.0
 11
-56.11884982137924
 21
60.53955194513014
 31
0.0
 12
-60.3115689225028
 22
60.17496767546719
 32
0.0
 13
-56.11884982137924
 23
60.17496767546719
 33
0.0
  0
SOLID
  5
74E
330
588
100
AcDbEntity
  8
RAHM2
100
AcDbTrace
 10
-63.22824307980615
 20
61.26872048445604
 30
0.0
 11
-62.49907454048025
 21
61.26872048445604
 31
0.0
 12
-63.22824307980615
 22
61.08642834962445
 32
0.0
 13
-62.49907454048025
 23
61.08642834962445
 33
0.0
  0
SOLID
  5
74F
330
588
100
AcDbEntity
  8
RAHM2
100
AcDbTrace
 10
-64.32199588879476
 20
61.08642834962445
 30
0.0
 11
-61.40532173149139
 21
61.08642834962445
 31
0.0
 12
-64.32199588879476
 22
60.90413621479309
 32
0.0
 13
-61.40532173149139
 23
60.90413621479309
 33
0.0
  0
SOLID
  5
750
330
588
100
AcDbEntity
  8
RAHM2
100
AcDbTrace
 10
-64.6865801584577
 20
60.90413621479309
 30
0.0
 11
-61.40532173149139
 21
60.90413621479309
 31
0.0
 12
-64.6865801584577
 22
60.7218440799615
 32
0.0
 13
-61.40532173149139
 23
60.7218440799615
 33
0.0
  0
SOLID
  5
751
330
588
100
AcDbEntity
  8
RAHM2
100
AcDbTrace
 10
-65.05116442812064
 20
60.7218440799615
 30
0.0
 11
-61.58761386632299
 21
60.7218440799615
 31
0.0
 12
-65.05116442812064
 22
60.53955194513014
 32
0.0
 13
-61.58761386632299
 23
60.53955194513014
 33
0.0
  0
SOLID
  5
752
330
588
100
AcDbEntity
  8
RAHM2
100
AcDbTrace
 10
-65.23345656295224
 20
60.53955194513014
 30
0.0
 11
-61.58761386632299
 21
60.53955194513014
 31
0.0
 12
-65.23345656295224
 22
60.35725981029855
 32
0.0
 13
-61.58761386632299
 23
60.35725981029855
 33
0.0
  0
SOLID
  5
753
330
588
100
AcDbEntity
  8
RAHM2
100
AcDbTrace
 10
-65.4157486977836
 20
60.35725981029855
 30
0.0
 11
-61.58761386632299
 21
60.35725981029855
 31
0.0
 12
-65.4157486977836
 22
60.17496767546719
 32
0.0
 13
-61.58761386632299
 23
60.17496767546719
 33
0.0
  0
SOLID
  5
754
330
588
100
AcDbEntity
  8
RAHM2
100
AcDbTrace
 10
-65.5980408326152
 20
60.17496767546719
 30
0.0
 11
-62.68136667531161
 21
60.17496767546719
 31
0.0
 12
-65.5980408326152
 22
59.9926755406356
 32
0.0
 13
-62.68136667531161
 23
59.9926755406356
 33
0.0
  0
SOLID
  5
755
330
588
100
AcDbEntity
  8
RAHM2
100
AcDbTrace
 10
-65.4157486977836
 20
56.71141711366954
 30
0.0
 11
-61.76990600115435
 21
56.71141711366954
 31
0.0
 12
-65.4157486977836
 22
56.52912497883795
 32
0.0
 13
-61.76990600115435
 23
56.52912497883795
 33
0.0
  0
SOLID
  5
756
330
588
100
AcDbEntity
  8
RAHM2
100
AcDbTrace
 10
-65.23345656295224
 20
56.52912497883795
 30
0.0
 11
-61.58761386632299
 21
56.52912497883795
 31
0.0
 12
-65.23345656295224
 22
56.164540709175
 32
0.0
 13
-61.58761386632299
 23
56.164540709175
 33
0.0
  0
SOLID
  5
757
330
588
100
AcDbEntity
  8
RAHM2
100
AcDbTrace
 10
-64.8688722932893
 20
56.164540709175
 30
0.0
 11
-61.58761386632299
 21
56.164540709175
 31
0.0
 12
-64.8688722932893
 22
55.98224857434364
 32
0.0
 13
-61.58761386632299
 23
55.98224857434364
 33
0.0
  0
SOLID
  5
758
330
588
100
AcDbEntity
  8
RAHM2
100
AcDbTrace
 10
-64.50428802362634
 20
55.98224857434364
 30
0.0
 11
-61.40532173149139
 21
55.98224857434364
 31
0.0
 12
-64.50428802362634
 22
55.79995643951205
 32
0.0
 13
-61.40532173149139
 23
55.79995643951205
 33
0.0
  0
SOLID
  5
759
330
588
100
AcDbEntity
  8
RAHM2
100
AcDbTrace
 10
-64.1397037539634
 20
55.79995643951205
 30
0.0
 11
-61.40532173149139
 21
55.79995643951205
 31
0.0
 12
-64.1397037539634
 22
55.61766430468069
 32
0.0
 13
-61.40532173149139
 23
55.61766430468069
 33
0.0
  0
SOLID
  5
75A
330
588
100
AcDbEntity
  8
RAHM2
100
AcDbTrace
 10
-63.59282734946908
 20
55.61766430468069
 30
0.0
 11
-61.76990600115435
 21
55.61766430468069
 31
0.0
 12
-63.59282734946908
 22
55.4353721698491
 32
0.0
 13
-61.76990600115435
 23
55.4353721698491
 33
0.0
  0
SOLID
  5
75B
330
588
100
AcDbEntity
  8
RAHM2
100
AcDbTrace
 10
-81.82204083261508
 20
64.86384610464772
 30
0.0
 11
-79.45224307980604
 21
64.86384610464772
 31
0.0
 12
-81.82204083261508
 22
58.84820565520943
 32
0.0
 13
-79.45224307980604
 23
58.84820565520943
 33
0.0
  0
SOLID
  5
75C
330
588
100
AcDbEntity
  8
RAHM2
100
AcDbTrace
 10
-78.72307454048014
 20
64.86384610464772
 30
0.0
 11
-76.35327678767133
 21
64.86384610464772
 31
0.0
 12
-78.72307454048014
 22
58.84820565520943
 32
0.0
 13
-76.35327678767133
 23
58.84820565520943
 33
0.0
  0
SOLID
  5
75D
330
588
100
AcDbEntity
  8
RAHM2
100
AcDbTrace
 10
-75.80640038317679
 20
64.86384610464772
 30
0.0
 11
-73.2543104955364
 21
64.86384610464772
 31
0.0
 12
-75.80640038317679
 22
58.84820565520943
 32
0.0
 13
-73.2543104955364
 23
58.84820565520943
 33
0.0
  0
SOLID
  5
75E
330
588
100
AcDbEntity
  8
RAHM2
100
AcDbTrace
 10
-69.9730520685701
 20
61.26872048445604
 30
0.0
 11
-68.51471498991855
 21
61.26872048445604
 31
0.0
 12
-69.9730520685701
 22
61.08642834962445
 32
0.0
 13
-68.51471498991855
 23
61.08642834962445
 33
0.0
  0
SOLID
  5
75F
330
588
100
AcDbEntity
  8
RAHM2
100
AcDbTrace
 10
-69.9730520685701
 20
61.08642834962445
 30
0.0
 11
-68.33242285508695
 21
61.08642834962445
 31
0.0
 12
-69.9730520685701
 22
60.90413621479309
 32
0.0
 13
-68.33242285508695
 23
60.90413621479309
 33
0.0
  0
SOLID
  5
760
330
588
100
AcDbEntity
  8
RAHM2
100
AcDbTrace
 10
-70.1553442034017
 20
60.90413621479309
 30
0.0
 11
-68.33242285508695
 21
60.90413621479309
 31
0.0
 12
-70.1553442034017
 22
60.7218440799615
 32
0.0
 13
-68.33242285508695
 23
60.7218440799615
 33
0.0
  0
SOLID
  5
761
330
588
100
AcDbEntity
  8
RAHM2
100
AcDbTrace
 10
-70.1553442034017
 20
60.7218440799615
 30
0.0
 11
-68.15013072025559
 21
60.7218440799615
 31
0.0
 12
-70.1553442034017
 22
60.53955194513014
 32
0.0
 13
-68.15013072025559
 23
60.53955194513014
 33
0.0
  0
SOLID
  5
762
330
588
100
AcDbEntity
  8
RAHM2
100
AcDbTrace
 10
-70.33763633823304
 20
60.53955194513014
 30
0.0
 11
-68.15013072025559
 21
60.53955194513014
 31
0.0
 12
-70.33763633823304
 22
60.17496767546719
 32
0.0
 13
-68.15013072025559
 23
60.17496767546719
 33
0.0
  0
SOLID
  5
763
330
588
100
AcDbEntity
  8
RAHM2
100
AcDbTrace
 10
-70.33763633823304
 20
60.17496767546719
 30
0.0
 11
-67.96783858542401
 21
60.17496767546719
 31
0.0
 12
-70.33763633823304
 22
59.9926755406356
 32
0.0
 13
-67.96783858542401
 23
59.9926755406356
 33
0.0
  0
SOLID
  5
764
330
588
100
AcDbEntity
  8
RAHM2
100
AcDbTrace
 10
-70.51992847306464
 20
59.9926755406356
 30
0.0
 11
-67.96783858542401
 21
59.9926755406356
 31
0.0
 12
-70.51992847306464
 22
59.81038340580425
 32
0.0
 13
-67.96783858542401
 23
59.81038340580425
 33
0.0
  0
SOLID
  5
765
330
588
100
AcDbEntity
  8
RAHM2
100
AcDbTrace
 10
-70.51992847306464
 20
59.81038340580425
 30
0.0
 11
-69.4261756640758
 21
59.81038340580425
 31
0.0
 12
-70.51992847306464
 22
59.6280912709729
 32
0.0
 13
-69.4261756640758
 23
59.6280912709729
 33
0.0
  0
SOLID
  5
766
330
588
100
AcDbEntity
  8
RAHM2
100
AcDbTrace
 10
-70.702220607896
 20
59.6280912709729
 30
0.0
 11
-69.4261756640758
 21
59.6280912709729
 31
0.0
 12
-70.702220607896
 22
59.4457991361413
 32
0.0
 13
-69.4261756640758
 23
59.4457991361413
 33
0.0
  0
SOLID
  5
767
330
588
100
AcDbEntity
  8
RAHM2
100
AcDbTrace
 10
-70.702220607896
 20
59.4457991361413
 30
0.0
 11
-69.60846779890714
 21
59.4457991361413
 31
0.0
 12
-70.702220607896
 22
59.08121486647835
 32
0.0
 13
-69.60846779890714
 23
59.08121486647835
 33
0.0
  0
SOLID
  5
768
330
588
100
AcDbEntity
  8
RAHM2
100
AcDbTrace
 10
-70.88451274272735
 20
59.08121486647835
 30
0.0
 11
-69.60846779890714
 21
59.08121486647835
 31
0.0
 12
-70.88451274272735
 22
58.898922731647
 32
0.0
 13
-69.60846779890714
 23
58.898922731647
 33
0.0
  0
SOLID
  5
769
330
588
100
AcDbEntity
  8
RAHM2
100
AcDbTrace
 10
-70.88451274272735
 20
58.898922731647
 30
0.0
 11
-69.79075993373874
 21
58.898922731647
 31
0.0
 12
-70.88451274272735
 22
58.7166305968154
 32
0.0
 13
-69.79075993373874
 23
58.7166305968154
 33
0.0
  0
SOLID
  5
76A
330
588
100
AcDbEntity
  8
RAHM2
100
AcDbTrace
 10
-71.06680487755894
 20
58.7166305968154
 30
0.0
 11
-69.79075993373874
 21
58.7166305968154
 31
0.0
 12
-71.06680487755894
 22
58.35204632715245
 32
0.0
 13
-69.79075993373874
 23
58.35204632715245
 33
0.0
  0
SOLID
  5
76B
330
588
100
AcDbEntity
  8
RAHM2
100
AcDbTrace
 10
-71.2490970123903
 20
58.35204632715245
 30
0.0
 11
-69.9730520685701
 21
58.35204632715245
 31
0.0
 12
-71.2490970123903
 22
57.80516992265815
 32
0.0
 13
-69.9730520685701
 23
57.80516992265815
 33
0.0
  0
SOLID
  5
76C
330
588
100
AcDbEntity
  8
RAHM2
100
AcDbTrace
 10
-69.4261756640758
 20
59.81038340580425
 30
0.0
 11
-67.96783858542401
 21
59.81038340580425
 31
0.0
 12
-69.4261756640758
 22
59.6280912709729
 32
0.0
 13
-67.96783858542401
 23
59.6280912709729
 33
0.0
  0
SOLID
  5
76D
330
588
100
AcDbEntity
  8
RAHM2
100
AcDbTrace
 10
-69.2438835292442
 20
59.6280912709729
 30
0.0
 11
-67.78554645059265
 21
59.6280912709729
 31
0.0
 12
-69.2438835292442
 22
59.26350700130995
 32
0.0
 13
-67.78554645059265
 23
59.26350700130995
 33
0.0
  0
SOLID
  5
76E
330
588
100
AcDbEntity
  8
RAHM2
100
AcDbTrace
 10
-69.2438835292442
 20
59.26350700130995
 30
0.0
 11
-67.60325431576105
 21
59.26350700130995
 31
0.0
 12
-69.2438835292442
 22
58.898922731647
 32
0.0
 13
-67.60325431576105
 23
58.898922731647
 33
0.0
  0
SOLID
  5
76F
330
588
100
AcDbEntity
  8
RAHM2
100
AcDbTrace
 10
-69.06159139441284
 20
58.898922731647
 30
0.0
 11
-67.60325431576105
 21
58.898922731647
 31
0.0
 12
-69.06159139441284
 22
58.7166305968154
 32
0.0
 13
-67.60325431576105
 23
58.7166305968154
 33
0.0
  0
SOLID
  5
770
330
588
100
AcDbEntity
  8
RAHM2
100
AcDbTrace
 10
-69.06159139441284
 20
58.7166305968154
 30
0.0
 11
-67.42096218092969
 21
58.7166305968154
 31
0.0
 12
-69.06159139441284
 22
58.35204632715245
 32
0.0
 13
-67.42096218092969
 23
58.35204632715245
 33
0.0
  0
SOLID
  5
771
330
588
100
AcDbEntity
  8
RAHM2
100
AcDbTrace
 10
-69.06159139441284
 20
58.35204632715245
 30
0.0
 11
-67.23867004609835
 21
58.35204632715245
 31
0.0
 12
-69.06159139441284
 22
58.1697541923211
 32
0.0
 13
-67.23867004609835
 23
58.1697541923211
 33
0.0
  0
SOLID
  5
772
330
588
100
AcDbEntity
  8
RAHM2
100
AcDbTrace
 10
-68.87929925958149
 20
58.1697541923211
 30
0.0
 11
-67.23867004609835
 21
58.1697541923211
 31
0.0
 12
-68.87929925958149
 22
57.80516992265815
 32
0.0
 13
-67.23867004609835
 23
57.80516992265815
 33
0.0
  0
SOLID
  5
773
330
588
100
AcDbEntity
  8
RAHM2
100
AcDbTrace
 10
-71.43138914722189
 20
57.80516992265815
 30
0.0
 11
-67.05637791126675
 21
57.80516992265815
 31
0.0
 12
-71.43138914722189
 22
57.4405856529952
 32
0.0
 13
-67.05637791126675
 23
57.4405856529952
 33
0.0
  0
SOLID
  5
774
330
588
100
AcDbEntity
  8
RAHM2
100
AcDbTrace
 10
-71.61368128205324
 20
57.4405856529952
 30
0.0
 11
-67.05637791126675
 21
57.4405856529952
 31
0.0
 12
-71.61368128205324
 22
57.25829351816384
 32
0.0
 13
-67.05637791126675
 23
57.25829351816384
 33
0.0
  0
SOLID
  5
775
330
588
100
AcDbEntity
  8
RAHM2
100
AcDbTrace
 10
-71.61368128205324
 20
57.25829351816384
 30
0.0
 11
-66.87408577643539
 21
57.25829351816384
 31
0.0
 12
-71.61368128205324
 22
57.07600138333225
 32
0.0
 13
-66.87408577643539
 23
57.07600138333225
 33
0.0
  0
SOLID
  5
776
330
588
100
AcDbEntity
  8
RAHM2
100
AcDbTrace
 10
-71.79597341688483
 20
57.07600138333225
 30
0.0
 11
-66.87408577643539
 21
57.07600138333225
 31
0.0
 12
-71.79597341688483
 22
56.8937092485009
 32
0.0
 13
-66.87408577643539
 23
56.8937092485009
 33
0.0
  0
SOLID
  5
777
330
588
100
AcDbEntity
  8
RAHM2
100
AcDbTrace
 10
-71.79597341688483
 20
56.8937092485009
 30
0.0
 11
-70.33763633823304
 21
56.8937092485009
 31
0.0
 12
-71.79597341688483
 22
56.52912497883795
 32
0.0
 13
-70.33763633823304
 23
56.52912497883795
 33
0.0
  0
SOLID
  5
778
330
588
100
AcDbEntity
  8
RAHM2
100
AcDbTrace
 10
-71.97826555171619
 20
56.52912497883795
 30
0.0
 11
-70.51992847306464
 21
56.52912497883795
 31
0.0
 12
-71.97826555171619
 22
56.164540709175
 32
0.0
 13
-70.51992847306464
 23
56.164540709175
 33
0.0
  0
SOLID
  5
779
330
588
100
AcDbEntity
  8
RAHM2
100
AcDbTrace
 10
-72.16055768654779
 20
56.164540709175
 30
0.0
 11
-70.702220607896
 21
56.164540709175
 31
0.0
 12
-72.16055768654779
 22
55.61766430468069
 32
0.0
 13
-70.702220607896
 23
55.61766430468069
 33
0.0
  0
SOLID
  5
77A
330
588
100
AcDbEntity
  8
RAHM2
100
AcDbTrace
 10
-68.6970071247499
 20
56.8937092485009
 30
0.0
 11
-66.69179364160379
 21
56.8937092485009
 31
0.0
 12
-68.6970071247499
 22
56.71141711366954
 32
0.0
 13
-66.69179364160379
 23
56.71141711366954
 33
0.0
  0
SOLID
  5
77B
330
588
100
AcDbEntity
  8
RAHM2
100
AcDbTrace
 10
-68.51471498991855
 20
56.71141711366954
 30
0.0
 11
-66.69179364160379
 21
56.71141711366954
 31
0.0
 12
-68.51471498991855
 22
56.34683284400659
 32
0.0
 13
-66.69179364160379
 23
56.34683284400659
 33
0.0
  0
SOLID
  5
77C
330
588
100
AcDbEntity
  8
RAHM2
100
AcDbTrace
 10
-68.33242285508695
 20
56.34683284400659
 30
0.0
 11
-66.50950150677243
 21
56.34683284400659
 31
0.0
 12
-68.33242285508695
 22
55.98224857434364
 32
0.0
 13
-66.50950150677243
 23
55.98224857434364
 33
0.0
  0
SOLID
  5
77D
330
588
100
AcDbEntity
  8
RAHM2
100
AcDbTrace
 10
-68.33242285508695
 20
55.98224857434364
 30
0.0
 11
-66.32720937194085
 21
55.98224857434364
 31
0.0
 12
-68.33242285508695
 22
55.79995643951205
 32
0.0
 13
-66.32720937194085
 23
55.79995643951205
 33
0.0
  0
SOLID
  5
77E
330
588
100
AcDbEntity
  8
RAHM2
100
AcDbTrace
 10
-68.15013072025559
 20
55.79995643951205
 30
0.0
 11
-66.32720937194085
 21
55.79995643951205
 31
0.0
 12
-68.15013072025559
 22
55.61766430468069
 32
0.0
 13
-66.32720937194085
 23
55.61766430468069
 33
0.0
  0
SOLID
  5
77F
330
588
100
AcDbEntity
  8
RAHM2
100
AcDbTrace
 10
-65.5980408326152
 20
59.9926755406356
 30
0.0
 11
-63.22824307980615
 21
59.9926755406356
 31
0.0
 12
-65.5980408326152
 22
59.81038340580425
 32
0.0
 13
-63.22824307980615
 23
59.81038340580425
 33
0.0
  0
SOLID
  5
780
330
588
100
AcDbEntity
  8
RAHM2
100
AcDbTrace
 10
-65.78033296744655
 20
59.81038340580425
 30
0.0
 11
-63.77511948430044
 21
59.81038340580425
 31
0.0
 12
-65.78033296744655
 22
59.6280912709729
 32
0.0
 13
-63.77511948430044
 23
59.6280912709729
 33
0.0
  0
SOLID
  5
781
330
588
100
AcDbEntity
  8
RAHM2
100
AcDbTrace
 10
-65.9626251022779
 20
59.6280912709729
 30
0.0
 11
-63.95741161913204
 21
59.6280912709729
 31
0.0
 12
-65.9626251022779
 22
59.4457991361413
 32
0.0
 13
-63.95741161913204
 23
59.4457991361413
 33
0.0
  0
SOLID
  5
782
330
588
100
AcDbEntity
  8
RAHM2
100
AcDbTrace
 10
-65.9626251022779
 20
59.4457991361413
 30
0.0
 11
-64.1397037539634
 21
59.4457991361413
 31
0.0
 12
-65.9626251022779
 22
59.26350700130995
 32
0.0
 13
-64.1397037539634
 23
59.26350700130995
 33
0.0
  0
SOLID
  5
783
330
588
100
AcDbEntity
  8
RAHM2
100
AcDbTrace
 10
-65.9626251022779
 20
59.26350700130995
 30
0.0
 11
-64.32199588879476
 21
59.26350700130995
 31
0.0
 12
-65.9626251022779
 22
59.08121486647835
 32
0.0
 13
-64.32199588879476
 23
59.08121486647835
 33
0.0
  0
SOLID
  5
784
330
588
100
AcDbEntity
  8
RAHM2
100
AcDbTrace
 10
-65.9626251022779
 20
59.08121486647835
 30
0.0
 11
-64.32199588879476
 21
59.08121486647835
 31
0.0
 12
-65.9626251022779
 22
58.7166305968154
 32
0.0
 13
-64.32199588879476
 23
58.7166305968154
 33
0.0
  0
SOLID
  5
785
330
588
100
AcDbEntity
  8
RAHM2
100
AcDbTrace
 10
-66.14491723710949
 20
58.7166305968154
 30
0.0
 11
-64.32199588879476
 21
58.7166305968154
 31
0.0
 12
-66.14491723710949
 22
58.53433846198405
 32
0.0
 13
-64.32199588879476
 23
58.53433846198405
 33
0.0
  0
SOLID
  5
786
330
588
100
AcDbEntity
  8
RAHM2
100
AcDbTrace
 10
-66.14491723710949
 20
58.53433846198405
 30
0.0
 11
-64.50428802362634
 21
58.53433846198405
 31
0.0
 12
-66.14491723710949
 22
58.35204632715245
 32
0.0
 13
-64.50428802362634
 23
58.35204632715245
 33
0.0
  0
SOLID
  5
787
330
588
100
AcDbEntity
  8
RAHM2
100
AcDbTrace
 10
-66.14491723710949
 20
58.35204632715245
 30
0.0
 11
-64.50428802362634
 21
58.35204632715245
 31
0.0
 12
-66.14491723710949
 22
58.1697541923211
 32
0.0
 13
-64.50428802362634
 23
58.1697541923211
 33
0.0
  0
SOLID
  5
788
330
588
100
AcDbEntity
  8
RAHM2
100
AcDbTrace
 10
-65.9626251022779
 20
58.1697541923211
 30
0.0
 11
-64.32199588879476
 21
58.1697541923211
 31
0.0
 12
-65.9626251022779
 22
57.62287778782679
 32
0.0
 13
-64.32199588879476
 23
57.62287778782679
 33
0.0
  0
SOLID
  5
789
330
588
100
AcDbEntity
  8
RAHM2
100
AcDbTrace
 10
-65.9626251022779
 20
57.62287778782679
 30
0.0
 11
-64.32199588879476
 21
57.62287778782679
 31
0.0
 12
-65.9626251022779
 22
57.4405856529952
 32
0.0
 13
-64.32199588879476
 23
57.4405856529952
 33
0.0
  0
SOLID
  5
78A
330
588
100
AcDbEntity
  8
RAHM2
100
AcDbTrace
 10
-65.9626251022779
 20
57.4405856529952
 30
0.0
 11
-64.1397037539634
 21
57.4405856529952
 31
0.0
 12
-65.9626251022779
 22
57.25829351816384
 32
0.0
 13
-64.1397037539634
 23
57.25829351816384
 33
0.0
  0
SOLID
  5
78B
330
588
100
AcDbEntity
  8
RAHM2
100
AcDbTrace
 10
-65.78033296744655
 20
57.25829351816384
 30
0.0
 11
-63.95741161913204
 21
57.25829351816384
 31
0.0
 12
-65.78033296744655
 22
57.07600138333225
 32
0.0
 13
-63.95741161913204
 23
57.07600138333225
 33
0.0
  0
SOLID
  5
78C
330
588
100
AcDbEntity
  8
RAHM2
100
AcDbTrace
 10
-65.78033296744655
 20
57.07600138333225
 30
0.0
 11
-63.77511948430044
 21
57.07600138333225
 31
0.0
 12
-65.78033296744655
 22
56.8937092485009
 32
0.0
 13
-63.77511948430044
 23
56.8937092485009
 33
0.0
  0
SOLID
  5
78D
330
588
100
AcDbEntity
  8
RAHM2
100
AcDbTrace
 10
-65.5980408326152
 20
56.8937092485009
 30
0.0
 11
-63.04595094497455
 21
56.8937092485009
 31
0.0
 12
-65.5980408326152
 22
56.71141711366954
 32
0.0
 13
-63.04595094497455
 23
56.71141711366954
 33
0.0
  0
SOLID
  5
78E
330
588
100
AcDbEntity
  8
RAHM2
100
AcDbTrace
 10
-62.31678240564889
 20
60.17496767546719
 30
0.0
 11
-61.58761386632299
 21
60.17496767546719
 31
0.0
 12
-62.31678240564889
 22
59.9926755406356
 32
0.0
 13
-61.58761386632299
 23
59.9926755406356
 33
0.0
  0
SOLID
  5
78F
330
588
100
AcDbEntity
  8
RAHM2
100
AcDbTrace
 10
-58.48864757418805
 20
61.26872048445604
 30
0.0
 11
-57.94177116969375
 21
61.26872048445604
 31
0.0
 12
-58.48864757418805
 22
61.08642834962445
 32
0.0
 13
-57.94177116969375
 23
61.08642834962445
 33
0.0
  0
SOLID
  5
790
330
588
100
AcDbEntity
  8
RAHM2
100
AcDbTrace
 10
-59.40010824834555
 20
61.08642834962445
 30
0.0
 11
-57.0303104955365
 21
61.08642834962445
 31
0.0
 12
-59.40010824834555
 22
60.90413621479309
 32
0.0
 13
-57.0303104955365
 23
60.90413621479309
 33
0.0
  0
SOLID
  5
791
330
588
100
AcDbEntity
  8
RAHM2
100
AcDbTrace
 10
-59.76469251800825
 20
60.90413621479309
 30
0.0
 11
-56.66572622587356
 21
60.90413621479309
 31
0.0
 12
-59.76469251800825
 22
60.7218440799615
 32
0.0
 13
-56.66572622587356
 23
60.7218440799615
 33
0.0
  0
SOLID
  5
792
330
588
100
AcDbEntity
  8
RAHM2
100
AcDbTrace
 10
-59.94698465283985
 20
60.7218440799615
 30
0.0
 11
-56.48343409104196
 21
60.7218440799615
 31
0.0
 12
-59.94698465283985
 22
60.53955194513014
 32
0.0
 13
-56.48343409104196
 23
60.53955194513014
 33
0.0
  0
SOLID
  5
793
330
588
100
AcDbEntity
  8
RAHM2
100
AcDbTrace
 10
-60.49386105733415
 20
60.17496767546719
 30
0.0
 11
-58.3063554393567
 21
60.17496767546719
 31
0.0
 12
-60.49386105733415
 22
59.9926755406356
 32
0.0
 13
-58.3063554393567
 23
59.9926755406356
 33
0.0
  0
SOLID
  5
794
330
588
100
AcDbEntity
  8
RAHM2
100
AcDbTrace
 10
-58.1240633045251
 20
60.17496767546719
 30
0.0
 11
-55.93655768654766
 21
60.17496767546719
 31
0.0
 12
-58.1240633045251
 22
59.9926755406356
 32
0.0
 13
-55.93655768654766
 23
59.9926755406356
 33
0.0
  0
SOLID
  5
795
330
588
100
AcDbEntity
  8
RAHM2
100
AcDbTrace
 10
-60.67615319216574
 20
59.9926755406356
 30
0.0
 11
-58.67093970901965
 21
59.9926755406356
 31
0.0
 12
-60.67615319216574
 22
59.81038340580425
 32
0.0
 13
-58.67093970901965
 23
59.81038340580425
 33
0.0
  0
SOLID
  5
796
330
588
100
AcDbEntity
  8
RAHM2
100
AcDbTrace
 10
-60.67615319216574
 20
59.81038340580425
 30
0.0
 11
-58.853231843851
 21
59.81038340580425
 31
0.0
 12
-60.67615319216574
 22
59.6280912709729
 32
0.0
 13
-58.853231843851
 23
59.6280912709729
 33
0.0
  0
SOLID
  5
797
330
588
100
AcDbEntity
  8
RAHM2
100
AcDbTrace
 10
-57.57718690003081
 20
59.9926755406356
 30
0.0
 11
-55.7542655517163
 21
59.9926755406356
 31
0.0
 12
-57.57718690003081
 22
59.81038340580425
 32
0.0
 13
-55.7542655517163
 23
59.81038340580425
 33
0.0
  0
SOLID
  5
798
330
588
100
AcDbEntity
  8
RAHM2
100
AcDbTrace
 10
-57.39489476519946
 20
59.81038340580425
 30
0.0
 11
-55.7542655517163
 21
59.81038340580425
 31
0.0
 12
-57.39489476519946
 22
59.6280912709729
 32
0.0
 13
-55.7542655517163
 23
59.6280912709729
 33
0.0
  0
SOLID
  5
799
330
588
100
AcDbEntity
  8
RAHM2
100
AcDbTrace
 10
-60.85844532699709
 20
59.6280912709729
 30
0.0
 11
-59.0355239786826
 21
59.6280912709729
 31
0.0
 12
-60.85844532699709
 22
58.7166305968154
 32
0.0
 13
-59.0355239786826
 23
58.7166305968154
 33
0.0
  0
SOLID
  5
79A
330
588
100
AcDbEntity
  8
RAHM2
100
AcDbTrace
 10
-61.04073746182845
 20
58.7166305968154
 30
0.0
 11
-59.21781611351395
 21
58.7166305968154
 31
0.0
 12
-61.04073746182845
 22
58.53433846198405
 32
0.0
 13
-59.21781611351395
 23
58.53433846198405
 33
0.0
  0
SOLID
  5
79B
330
588
100
AcDbEntity
  8
RAHM2
100
AcDbTrace
 10
-57.39489476519946
 20
59.6280912709729
 30
0.0
 11
-55.5719734168847
 21
59.6280912709729
 31
0.0
 12
-57.39489476519946
 22
59.08121486647835
 32
0.0
 13
-55.5719734168847
 23
59.08121486647835
 33
0.0
  0
SOLID
  5
79C
330
588
100
AcDbEntity
  8
RAHM2
100
AcDbTrace
 10
-57.21260263036786
 20
59.08121486647835
 30
0.0
 11
-55.38968128205334
 21
59.08121486647835
 31
0.0
 12
-57.21260263036786
 22
58.53433846198405
 32
0.0
 13
-55.38968128205334
 23
58.53433846198405
 33
0.0
  0
SOLID
  5
79D
330
588
100
AcDbEntity
  8
RAHM2
100
AcDbTrace
 10
-61.04073746182845
 20
58.53433846198405
 30
0.0
 11
-59.21781611351395
 21
58.53433846198405
 31
0.0
 12
-61.04073746182845
 22
58.1697541923211
 32
0.0
 13
-59.21781611351395
 23
58.1697541923211
 33
0.0
  0
SOLID
  5
79E
330
588
100
AcDbEntity
  8
RAHM2
100
AcDbTrace
 10
-60.85844532699709
 20
58.1697541923211
 30
0.0
 11
-59.0355239786826
 21
58.1697541923211
 31
0.0
 12
-60.85844532699709
 22
57.25829351816384
 32
0.0
 13
-59.0355239786826
 23
57.25829351816384
 33
0.0
  0
SOLID
  5
79F
330
588
100
AcDbEntity
  8
RAHM2
100
AcDbTrace
 10
-57.21260263036786
 20
58.53433846198405
 30
0.0
 11
-55.38968128205334
 21
58.53433846198405
 31
0.0
 12
-57.21260263036786
 22
57.62287778782679
 32
0.0
 13
-55.38968128205334
 23
57.62287778782679
 33
0.0
  0
SOLID
  5
7A0
330
588
100
AcDbEntity
  8
RAHM2
100
AcDbTrace
 10
-57.39489476519946
 20
57.62287778782679
 30
0.0
 11
-55.5719734168847
 21
57.62287778782679
 31
0.0
 12
-57.39489476519946
 22
57.25829351816384
 32
0.0
 13
-55.5719734168847
 23
57.25829351816384
 33
0.0
  0
SOLID
  5
7A1
330
588
100
AcDbEntity
  8
RAHM2
100
AcDbTrace
 10
-60.85844532699709
 20
57.25829351816384
 30
0.0
 11
-59.0355239786826
 21
57.25829351816384
 31
0.0
 12
-60.85844532699709
 22
57.07600138333225
 32
0.0
 13
-59.0355239786826
 23
57.07600138333225
 33
0.0
  0
SOLID
  5
7A2
330
588
100
AcDbEntity
  8
RAHM2
100
AcDbTrace
 10
-57.39489476519946
 20
57.25829351816384
 30
0.0
 11
-55.5719734168847
 21
57.25829351816384
 31
0.0
 12
-57.39489476519946
 22
57.07600138333225
 32
0.0
 13
-55.5719734168847
 23
57.07600138333225
 33
0.0
  0
SOLID
  5
7A3
330
588
100
AcDbEntity
  8
RAHM2
100
AcDbTrace
 10
-60.67615319216574
 20
57.07600138333225
 30
0.0
 11
-58.853231843851
 21
57.07600138333225
 31
0.0
 12
-60.67615319216574
 22
56.8937092485009
 32
0.0
 13
-58.853231843851
 23
56.8937092485009
 33
0.0
  0
SOLID
  5
7A4
330
588
100
AcDbEntity
  8
RAHM2
100
AcDbTrace
 10
-60.49386105733415
 20
56.8937092485009
 30
0.0
 11
-58.67093970901965
 21
56.8937092485009
 31
0.0
 12
-60.49386105733415
 22
56.71141711366954
 32
0.0
 13
-58.67093970901965
 23
56.71141711366954
 33
0.0
  0
SOLID
  5
7A5
330
588
100
AcDbEntity
  8
RAHM2
100
AcDbTrace
 10
-57.57718690003081
 20
57.07600138333225
 30
0.0
 11
-55.7542655517163
 21
57.07600138333225
 31
0.0
 12
-57.57718690003081
 22
56.8937092485009
 32
0.0
 13
-55.7542655517163
 23
56.8937092485009
 33
0.0
  0
SOLID
  5
7A6
330
588
100
AcDbEntity
  8
RAHM2
100
AcDbTrace
 10
-57.75947903486239
 20
56.8937092485009
 30
0.0
 11
-55.7542655517163
 21
56.8937092485009
 31
0.0
 12
-57.75947903486239
 22
56.71141711366954
 32
0.0
 13
-55.7542655517163
 23
56.71141711366954
 33
0.0
  0
SOLID
  5
7A7
330
588
100
AcDbEntity
  8
RAHM2
100
AcDbTrace
 10
-60.49386105733415
 20
56.71141711366954
 30
0.0
 11
-55.93655768654766
 21
56.71141711366954
 31
0.0
 12
-60.49386105733415
 22
56.52912497883795
 32
0.0
 13
-55.93655768654766
 23
56.52912497883795
 33
0.0
  0
SOLID
  5
7A8
330
588
100
AcDbEntity
  8
RAHM2
100
AcDbTrace
 10
-60.3115689225028
 20
56.52912497883795
 30
0.0
 11
-56.11884982137924
 21
56.52912497883795
 31
0.0
 12
-60.3115689225028
 22
56.34683284400659
 32
0.0
 13
-56.11884982137924
 23
56.34683284400659
 33
0.0
  0
SOLID
  5
7A9
330
588
100
AcDbEntity
  8
RAHM2
100
AcDbTrace
 10
-60.3115689225028
 20
56.34683284400659
 30
0.0
 11
-56.11884982137924
 21
56.34683284400659
 31
0.0
 12
-60.3115689225028
 22
56.164540709175
 32
0.0
 13
-56.11884982137924
 23
56.164540709175
 33
0.0
  0
SOLID
  5
7AA
330
588
100
AcDbEntity
  8
RAHM2
100
AcDbTrace
 10
-59.94698465283985
 20
56.164540709175
 30
0.0
 11
-56.48343409104196
 21
56.164540709175
 31
0.0
 12
-59.94698465283985
 22
55.98224857434364
 32
0.0
 13
-56.48343409104196
 23
55.98224857434364
 33
0.0
  0
SOLID
  5
7AB
330
588
100
AcDbEntity
  8
RAHM2
100
AcDbTrace
 10
-59.76469251800825
 20
55.98224857434364
 30
0.0
 11
-56.66572622587356
 21
55.98224857434364
 31
0.0
 12
-59.76469251800825
 22
55.79995643951205
 32
0.0
 13
-56.66572622587356
 23
55.79995643951205
 33
0.0
  0
SOLID
  5
7AC
330
588
100
AcDbEntity
  8
RAHM2
100
AcDbTrace
 10
-59.5824003831769
 20
55.79995643951205
 30
0.0
 11
-56.84801836070491
 21
55.79995643951205
 31
0.0
 12
-59.5824003831769
 22
55.61766430468069
 32
0.0
 13
-56.84801836070491
 23
55.61766430468069
 33
0.0
  0
SOLID
  5
7AD
330
588
100
AcDbEntity
  8
RAHM2
100
AcDbTrace
 10
-58.853231843851
 20
55.61766430468069
 30
0.0
 11
-57.57718690003081
 21
55.61766430468069
 31
0.0
 12
-58.853231843851
 22
55.4353721698491
 32
0.0
 13
-57.57718690003081
 23
55.4353721698491
 33
0.0
  0
ATTDEF
  5
7AE
330
588
100
AcDbEntity
  8
RAHM3
100
AcDbText
 10
-100.7395275842899
 20
38.58583043117892
 30
0.0
 40
3.0
  1
-
 72
     1
 11
-99.68952758428997
 21
38.58583043117892
 31
0.0
100
AcDbAttributeDefinition
  3
(genmsg"gendwg"83)
  2
GEN-TITLE-SCA{5.42}
 70
     0
1001
GENIUS_GENBLLY_14
1000
BOR3
  0
MTEXT
  5
7AF
330
588
100
AcDbEntity
  8
TEXT50
100
AcDbMText
 10
-50.24798882961079
 20
60.60380674611849
 30
0.0
 40
5.0
 41
42.8
 71
     1
 72
     5
  1
Edelstahl GmbH
  7
TEXT50
 73
     1
 44
1.0
1001
ACAD
1000
MTEXTBEGIN
1070
    73
1070
     1
1070
    44
1040
1.0
1070
    74
1070
     0
1000
MTEXTEND
  0
TEXT
  5
7B0
330
588
100
AcDbEntity
  8
0N
100
AcDbText
 10
-180.0433753026868
 20
97.16012098886922
 30
0.0
 40
3.5
  1
Zeichnungen größer darstellenden Maßstabes bzw. Einzelteilzeichnungen
 41
0.9
100
AcDbText
  0
LINE
  5
7B1
330
588
100
AcDbEntity
  8
KOPF
100
AcDbLine
 10
0.0
 20
103.4999999999999
 30
0.0
 11
-182.0
 21
103.4999999999999
 31
0.0
  0
LINE
  5
7B2
330
588
100
AcDbEntity
  8
KOPF
 62
    12
100
AcDbLine
 10
0.0
 20
103.4999999999999
 30
0.0
 11
-182.0
 21
103.4999999999999
 31
0.0
  0
TEXT
  5
7B3
330
588
100
AcDbEntity
  8
0N
100
AcDbText
 10
-180.0433753026868
 20
91.14471067045299
 30
0.0
 40
3.5
  1
haben vorrangige Gültigkeit
 41
0.9
100
AcDbText
  0
ENDBLK
  5
66D
330
588
100
AcDbEntity
  8
0
100
AcDbBlockEnd
  0
BLOCK
  5
6C7
330
686
100
AcDbEntity
  8
0
100
AcDbBlockBegin
  2
ACO_A3
 70
     0
 10
0.0
 20
0.0
 30
0.0
  3
ACO_A3
  1

  0
LINE
  5
687
330
686
100
AcDbEntity
  8
RAHM2
100
AcDbLine
 10
420.0
 20
297.0
 30
0.0
 11
419.9999999999999
 21
0.0
 31
0.0
1001
GENIUS_GENBLLY_14
1000
BOR2
  0
LINE
  5
688
330
686
100
AcDbEntity
  8
RAHM2
100
AcDbLine
 10
230.0
 20
5.00000000000005
 30
0.0
 11
230.0
 21
0.0000000000000233
 31
0.0
1001
GENIUS_GENBLLY_14
1000
BOR2
  0
LINE
  5
689
330
686
100
AcDbEntity
  8
RAHM2
100
AcDbLine
 10
157.12
 20
10.00000000000003
 30
0.0
 11
9.999999999999943
 21
10.00000000000005
 31
0.0
1001
GENIUS_GENBLLY_14
1000
BOR2
  0
TEXT
  5
68A
330
686
100
AcDbEntity
  8
RAHM2
100
AcDbText
 10
411.0
 20
262.0
 30
0.0
 40
4.0
  1
A
100
AcDbText
1001
GENIUS_GENBLLY_14
1000
BOR2
  0
TEXT
  5
68B
330
686
100
AcDbEntity
  8
RAHM2
100
AcDbText
 10
411.0
 20
216.0
 30
0.0
 40
4.0
  1
B
100
AcDbText
1001
GENIUS_GENBLLY_14
1000
BOR2
  0
TEXT
  5
68C
330
686
100
AcDbEntity
  8
RAHM2
100
AcDbText
 10
411.0
 20
170.0
 30
0.0
 40
4.0
  1
C
100
AcDbText
1001
GENIUS_GENBLLY_14
1000
BOR2
  0
TEXT
  5
68D
330
686
100
AcDbEntity
  8
RAHM2
100
AcDbText
 10
411.0
 20
123.0
 30
0.0
 40
4.0
  1
D
100
AcDbText
1001
GENIUS_GENBLLY_14
1000
BOR2
  0
TEXT
  5
68E
330
686
100
AcDbEntity
  8
RAHM2
100
AcDbText
 10
411.0
 20
77.0
 30
0.0
 40
4.0
  1
E
100
AcDbText
1001
GENIUS_GENBLLY_14
1000
BOR2
  0
TEXT
  5
68F
330
686
100
AcDbEntity
  8
RAHM2
100
AcDbText
 10
411.0
 20
31.0
 30
0.0
 40
4.0
  1
F
100
AcDbText
1001
GENIUS_GENBLLY_14
1000
BOR2
  0
LINE
  5
690
330
686
100
AcDbEntity
  8
RAHM2
100
AcDbLine
 10
415.0
 20
240.83
 30
0.0
 11
410.0
 21
240.83
 31
0.0
1001
GENIUS_GENBLLY_14
1000
BOR2
  0
LINE
  5
691
330
686
100
AcDbEntity
  8
RAHM2
100
AcDbLine
 10
415.0
 20
194.664
 30
0.0
 11
410.0
 21
194.664
 31
0.0
1001
GENIUS_GENBLLY_14
1000
BOR2
  0
LINE
  5
692
330
686
100
AcDbEntity
  8
RAHM2
100
AcDbLine
 10
415.0
 20
148.498
 30
0.0
 11
410.0
 21
148.498
 31
0.0
1001
GENIUS_GENBLLY_14
1000
BOR2
  0
LINE
  5
693
330
686
100
AcDbEntity
  8
RAHM2
100
AcDbLine
 10
415.0
 20
102.332
 30
0.0
 11
410.0
 21
102.332
 31
0.0
1001
GENIUS_GENBLLY_14
1000
BOR2
  0
LINE
  5
694
330
686
100
AcDbEntity
  8
RAHM2
100
AcDbLine
 10
415.0
 20
56.166
 30
0.0
 11
410.0
 21
56.166
 31
0.0
1001
GENIUS_GENBLLY_14
1000
BOR2
  0
LINE
  5
695
330
686
100
AcDbEntity
  8
RAHM2
100
AcDbLine
 10
60.0
 20
291.9999999999999
 30
0.0
 11
60.0
 21
287.0
 31
0.0
1001
GENIUS_GENBLLY_14
1000
BOR2
  0
LINE
  5
696
330
686
100
AcDbEntity
  8
RAHM2
100
AcDbLine
 10
110.0
 20
291.9999999999999
 30
0.0
 11
110.0
 21
287.0
 31
0.0
1001
GENIUS_GENBLLY_14
1000
BOR2
  0
LINE
  5
697
330
686
100
AcDbEntity
  8
RAHM2
100
AcDbLine
 10
160.0
 20
291.9999999999999
 30
0.0
 11
160.0
 21
287.0
 31
0.0
1001
GENIUS_GENBLLY_14
1000
BOR2
  0
LINE
  5
698
330
686
100
AcDbEntity
  8
RAHM2
100
AcDbLine
 10
210.0
 20
291.9999999999999
 30
0.0
 11
210.0
 21
287.0
 31
0.0
1001
GENIUS_GENBLLY_14
1000
BOR2
  0
LINE
  5
699
330
686
100
AcDbEntity
  8
RAHM2
100
AcDbLine
 10
260.0
 20
291.9999999999999
 30
0.0
 11
260.0
 21
287.0
 31
0.0
1001
GENIUS_GENBLLY_14
1000
BOR2
  0
LINE
  5
69A
330
686
100
AcDbEntity
  8
RAHM2
100
AcDbLine
 10
310.0
 20
291.9999999999999
 30
0.0
 11
310.0
 21
287.0
 31
0.0
1001
GENIUS_GENBLLY_14
1000
BOR2
  0
LINE
  5
69B
330
686
100
AcDbEntity
  8
RAHM2
100
AcDbLine
 10
360.0
 20
291.9999999999999
 30
0.0
 11
360.0
 21
287.0
 31
0.0
1001
GENIUS_GENBLLY_14
1000
BOR2
  0
TEXT
  5
69C
330
686
100
AcDbEntity
  8
RAHM2
100
AcDbText
 10
384.0
 20
287.5
 30
0.0
 40
4.0
  1
8
100
AcDbText
1001
GENIUS_GENBLLY_14
1000
BOR2
  0
TEXT
  5
69D
330
686
100
AcDbEntity
  8
RAHM2
100
AcDbText
 10
334.0
 20
287.5
 30
0.0
 40
4.0
  1
7
100
AcDbText
1001
GENIUS_GENBLLY_14
1000
BOR2
  0
TEXT
  5
69E
330
686
100
AcDbEntity
  8
RAHM2
100
AcDbText
 10
284.0
 20
287.5
 30
0.0
 40
4.0
  1
6
100
AcDbText
1001
GENIUS_GENBLLY_14
1000
BOR2
  0
TEXT
  5
69F
330
686
100
AcDbEntity
  8
RAHM2
100
AcDbText
 10
233.5
 20
287.5
 30
0.0
 40
4.0
  1
5
100
AcDbText
1001
GENIUS_GENBLLY_14
1000
BOR2
  0
TEXT
  5
6A0
330
686
100
AcDbEntity
  8
RAHM2
100
AcDbText
 10
183.5
 20
287.5
 30
0.0
 40
4.0
  1
4
100
AcDbText
1001
GENIUS_GENBLLY_14
1000
BOR2
  0
TEXT
  5
6A1
330
686
100
AcDbEntity
  8
RAHM2
100
AcDbText
 10
133.5
 20
287.5
 30
0.0
 40
4.0
  1
3
100
AcDbText
1001
GENIUS_GENBLLY_14
1000
BOR2
  0
TEXT
  5
6A2
330
686
100
AcDbEntity
  8
RAHM2
100
AcDbText
 10
83.49999999999999
 20
287.5
 30
0.0
 40
4.0
  1
2
100
AcDbText
1001
GENIUS_GENBLLY_14
1000
BOR2
  0
TEXT
  5
6A3
330
686
100
AcDbEntity
  8
RAHM2
100
AcDbText
 10
33.5
 20
287.5
 30
0.0
 40
4.0
  1
1
100
AcDbText
1001
GENIUS_GENBLLY_14
1000
BOR2
  0
TEXT
  5
6A4
330
686
100
AcDbEntity
  8
RAHM2
100
AcDbText
 10
33.5
 20
5.5
 30
0.0
 40
4.0
  1
1
100
AcDbText
1001
GENIUS_GENBLLY_14
1000
BOR2
  0
TEXT
  5
6A5
330
686
100
AcDbEntity
  8
RAHM2
100
AcDbText
 10
83.49999999999999
 20
5.5
 30
0.0
 40
4.0
  1
2
100
AcDbText
1001
GENIUS_GENBLLY_14
1000
BOR2
  0
TEXT
  5
6A6
330
686
100
AcDbEntity
  8
RAHM2
100
AcDbText
 10
133.5
 20
5.5
 30
0.0
 40
4.0
  1
3
100
AcDbText
1001
GENIUS_GENBLLY_14
1000
BOR2
  0
TEXT
  5
6A7
330
686
100
AcDbEntity
  8
RAHM2
100
AcDbText
 10
6.0
 20
262.0
 30
0.0
 40
4.0
  1
A
100
AcDbText
1001
GENIUS_GENBLLY_14
1000
BOR2
  0
TEXT
  5
6A8
330
686
100
AcDbEntity
  8
RAHM2
100
AcDbText
 10
6.0
 20
216.0
 30
0.0
 40
4.0
  1
B
100
AcDbText
1001
GENIUS_GENBLLY_14
1000
BOR2
  0
TEXT
  5
6A9
330
686
100
AcDbEntity
  8
RAHM2
100
AcDbText
 10
6.0
 20
170.0
 30
0.0
 40
4.0
  1
C
100
AcDbText
1001
GENIUS_GENBLLY_14
1000
BOR2
  0
TEXT
  5
6AA
330
686
100
AcDbEntity
  8
RAHM2
100
AcDbText
 10
6.0
 20
123.0
 30
0.0
 40
4.0
  1
D
100
AcDbText
1001
GENIUS_GENBLLY_14
1000
BOR2
  0
TEXT
  5
6AB
330
686
100
AcDbEntity
  8
RAHM2
100
AcDbText
 10
6.0
 20
77.0
 30
0.0
 40
4.0
  1
E
100
AcDbText
1001
GENIUS_GENBLLY_14
1000
BOR2
  0
TEXT
  5
6AC
330
686
100
AcDbEntity
  8
RAHM2
100
AcDbText
 10
6.0
 20
31.0
 30
0.0
 40
4.0
  1
F
100
AcDbText
1001
GENIUS_GENBLLY_14
1000
BOR2
  0
LINE
  5
6AD
330
686
100
AcDbEntity
  8
RAHM2
100
AcDbLine
 10
110.0
 20
10.0
 30
0.0
 11
110.0
 21
5.0
 31
0.0
1001
GENIUS_GENBLLY_14
1000
BOR2
  0
LINE
  5
6AE
330
686
100
AcDbEntity
  8
RAHM2
100
AcDbLine
 10
60.0
 20
10.0
 30
0.0
 11
60.0
 21
5.0
 31
0.0
1001
GENIUS_GENBLLY_14
1000
BOR2
  0
LINE
  5
6AF
330
686
100
AcDbEntity
  8
RAHM2
100
AcDbLine
 10
10.0
 20
240.83
 30
0.0
 11
5.0
 21
240.83
 31
0.0
1001
GENIUS_GENBLLY_14
1000
BOR2
  0
LINE
  5
6B0
330
686
100
AcDbEntity
  8
RAHM2
100
AcDbLine
 10
10.0
 20
194.664
 30
0.0
 11
5.0
 21
194.664
 31
0.0
1001
GENIUS_GENBLLY_14
1000
BOR2
  0
LINE
  5
6B1
330
686
100
AcDbEntity
  8
RAHM2
100
AcDbLine
 10
10.0
 20
148.498
 30
0.0
 11
5.0
 21
148.498
 31
0.0
1001
GENIUS_GENBLLY_14
1000
BOR2
  0
LINE
  5
6B2
330
686
100
AcDbEntity
  8
RAHM2
100
AcDbLine
 10
10.0
 20
102.332
 30
0.0
 11
5.0
 21
102.332
 31
0.0
1001
GENIUS_GENBLLY_14
1000
BOR2
  0
LINE
  5
6B3
330
686
100
AcDbEntity
  8
RAHM2
100
AcDbLine
 10
10.0
 20
56.166
 30
0.0
 11
5.0
 21
56.166
 31
0.0
1001
GENIUS_GENBLLY_14
1000
BOR2
  0
LINE
  5
6B4
330
686
100
AcDbEntity
  8
RAHM2
100
AcDbLine
 10
410.0
 20
287.0
 30
0.0
 11
409.9999999999999
 21
5.0
 31
0.0
1001
GENIUS_GENBLLY_14
1000
BOR2
  0
LINE
  5
6B5
330
686
100
AcDbEntity
  8
RAHM2
100
AcDbLine
 10
10.00000000000001
 20
287.0
 30
0.0
 11
410.0
 21
287.0
 31
0.0
1001
GENIUS_GENBLLY_14
1000
BOR2
  0
LINE
  5
6B6
330
686
100
AcDbEntity
  8
RAHM2
100
AcDbLine
 10
10.0
 20
10.0
 30
0.0
 11
10.00000000000001
 21
287.0
 31
0.0
1001
GENIUS_GENBLLY_14
1000
BOR2
  0
LINE
  5
6B7
330
686
100
AcDbEntity
  8
0
100
AcDbLine
 10
414.9999999999999
 20
5.0
 30
0.0
 11
4.999999999999943
 21
5.00000000000005
 31
0.0
  0
LINE
  5
6B8
330
686
100
AcDbEntity
  8
0
100
AcDbLine
 10
415.0
 20
292.0
 30
0.0
 11
414.9999999999999
 21
5.0
 31
0.0
  0
LINE
  5
6B9
330
686
100
AcDbEntity
  8
0
100
AcDbLine
 10
5.000000000000017
 20
292.0
 30
0.0
 11
415.0
 21
292.0
 31
0.0
  0
LINE
  5
6BA
330
686
100
AcDbEntity
  8
RAHM2
100
AcDbLine
 10
0.0000000000000182
 20
297.0
 30
0.0
 11
420.0
 21
297.0
 31
0.0
1001
GENIUS_GENBLLY_14
1000
BOR2
  0
LINE
  5
6BB
330
686
100
AcDbEntity
  8
RAHM2
100
AcDbLine
 10
0.0
 20
0.0
 30
0.0
 11
0.0000000000000182
 21
297.0
 31
0.0
1001
GENIUS_GENBLLY_14
1000
BOR2
  0
LINE
  5
6BC
330
686
100
AcDbEntity
  8
RAHM2
100
AcDbLine
 10
125.0
 20
0.0000000000000514
 30
0.0
 11
125.0
 21
5.000000000000035
 31
0.0
1001
GENIUS_GENBLLY_14
1000
BOR2
  0
TEXT
  5
6BD
330
686
100
AcDbEntity
  8
0
100
AcDbText
 10
420.0
 20
297.0
 30
0.0
 40
2.0
  1
!GENTITLE-MAX
100
AcDbText
  0
TEXT
  5
6BE
330
686
100
AcDbEntity
  8
0
100
AcDbText
 10
410.0
 20
287.0
 30
0.0
 40
2.0
  1
!GENTITLE-RU
100
AcDbText
  0
TEXT
  5
6BF
330
686
100
AcDbEntity
  8
0
100
AcDbText
 10
409.9999999999999
 20
5.0
 30
0.0
 40
2.0
  1
!GENTITLE-INSERT
100
AcDbText
  0
TEXT
  5
6C0
330
686
100
AcDbEntity
  8
0
100
AcDbText
 10
10.0
 20
10.00000000000005
 30
0.0
 40
2.0
  1
!GENTITLE-LL
100
AcDbText
  0
LINE
  5
6C1
330
686
100
AcDbEntity
  8
0
100
AcDbLine
 10
5.0
 20
5.0
 30
0.0
 11
5.000000000000017
 21
292.0
 31
0.0
  0
LINE
  5
6C2
330
686
100
AcDbEntity
  8
RAHM2
100
AcDbLine
 10
419.9999999999999
 20
0.0
 30
0.0
 11
-0.0000000000000568
 21
0.0000000000000514
 31
0.0
1001
GENIUS_VERSION2
1070
     2
1001
GENIUS_GENBLLY_14
1000
BOR2
  0
LWPOLYLINE
  5
6C3
330
686
100
AcDbEntity
  8
RAHM2
100
AcDbPolyline
 90
        4
 70
     1
 43
0.0
 10
227.1200000000001
 20
5.000000000000031
 10
157.12
 20
5.000000000000031
 10
157.12
 20
13.50000000000003
 10
227.1200000000001
 20
13.50000000000002
1001
GENIUS_GENREC_14
1002
{
1000
PXDIR
1011
157.12
1021
5.000000000000031
1031
0.0
1002
}
1002
{
1000
PORI
1011
227.1200000000001
1021
5.000000000000031
1031
0.0
1002
}
1002
{
1000
PINS
1011
227.1200000000001
1021
5.000000000000031
1031
0.0
1002
}
1002
{
1000
HVAL
1000
8.5
1002
}
1002
{
1000
H
1070
     2
1002
}
1002
{
1000
WVAL
1000
-70
1002
}
1002
{
1000
W
1070
     2
1002
}
1002
{
1000
C
1070
     1
1002
}
1001
GENIUS_GENODEF_13
1002
{
1000
HIER
1070
     0
1002
}
1002
{
1000
MANEDIT
1070
     0
1002
}
1002
{
1000
NOSEL
1070
     0
1002
}
1002
{
1000
BEHIND
1070
     0
1002
}
1002
{
1000
REACTOR
1002
}
1001
GENIUS_GENOBJ-N-REC_13
1002
{
1000
OWNER
1000
GEN
1002
}
  0
MTEXT
  5
6C4
102
{ACAD_XDICTIONARY
360
1997
102
}
330
686
100
AcDbEntity
  8
RAHM2
100
AcDbMText
 10
158.8183525451007
 20
12.32474728438519
 30
0.0
 40
3.5
 41
4.301759591192151
 71
     1
 72
     5
  1
\fArial|b0|i0|c0|p32;\U+00A9
 73
     1
 44
1.0
1001
ACAD
1000
MTEXTBEGIN
1070
    73
1070
     1
1070
    44
1040
1.0
1070
    74
1070
     0
1000
MTEXTEND
  0
MTEXT
  5
6C5
330
686
100
AcDbEntity
  8
RAHM2
100
AcDbMText
 10
200.9022594589521
 20
9.282856166729633
 30
0.0
 40
2.5
 41
51.25
 71
     5
 72
     5
  1
\fArial Black|b0|i0|c0|p34;ACO\Fgeniso.shx; \fDutch801 Rm BT|b0|i1|c0|p18;passavant \P\Fgeniso.shx;\H1.8;Schutzvermerk nach DIN 34
 73
     1
 44
1.0
1001
ACAD
1000
MTEXTBEGIN
1070
    73
1070
     1
1070
    44
1040
1.0
1070
    74
1070
     0
1000
MTEXTEND
  0
MTEXT
  5
6C6
330
686
100
AcDbEntity
  8
RAHM2
100
AcDbMText
 10
165.5515418910248
 20
11.24554815700972
 30
0.0
 40
2.0
 41
5.5175
 71
     1
 72
     5
  1
2001
 73
     1
 44
1.0
1001
ACAD
1000
MTEXTBEGIN
1070
    73
1070
     1
1070
    44
1040
1.0
1070
    74
1070
     0
1000
MTEXTEND
  0
ENDBLK
  5
6C8
330
686
100
AcDbEntity
  8
0
100
AcDbBlockEnd
  0
BLOCK
  5
AD7
330
AD6
100
AcDbEntity
  8
0
100
AcDbBlockBegin
  2
aendzeil
 70
     2
 10
0.0
 20
0.0
 30
0.0
  3
aendzeil
  1

  0
ATTDEF
  5
AD8
330
AD6
100
AcDbEntity
  8
RAHM2
100
AcDbText
 10
-53.17129684630285
 20
0.758766263726443
 30
0.0
 40
2.500000000000367
  1

 41
0.9
100
AcDbAttributeDefinition
  3
Zustand
  2
REVI
 70
     0
  0
ATTDEF
  5
AD9
330
AD6
100
AcDbEntity
  8
RAHM2
100
AcDbText
 10
-45.55129684630284
 20
0.758766263726443
 30
0.0
 40
2.500000000000367
  1

 41
0.9
100
AcDbAttributeDefinition
  3
Änderung
  2
CHNR
 70
     0
  0
ATTDEF
  5
ADA
330
AD6
100
AcDbEntity
  8
RAHM2
100
AcDbText
 10
-26.50129684630284
 20
0.758766263726443
 30
0.0
 40
2.500000000000367
  1

 41
0.9
100
AcDbAttributeDefinition
  3
Datum
  2
CRDA
 70
     0
  0
ATTDEF
  5
ADB
330
AD6
100
AcDbEntity
  8
RAHM2
100
AcDbText
 10
-13.13985549000503
 20
0.8127940719140269
 30
0.0
 40
2.500000000000367
  1

 41
0.7635062867386634
 72
     5
 11
-7.318120053621868
 21
0.8127940719140269
 31
0.0
100
AcDbAttributeDefinition
  3
Name
  2
CRNA
 70
     0
  0
ATTDEF
  5
ADC
330
AD6
100
AcDbEntity
  8
RAHM2
100
AcDbText
 10
-6.498796846302838
 20
0.758766263726443
 30
0.0
 40
2.500000000000367
  1

 41
0.9
100
AcDbAttributeDefinition
  3
Norm
  2
NORM
 70
     0
  0
ENDBLK
  5
ADD
330
AD6
100
AcDbEntity
  8
0
100
AcDbBlockEnd
  0
BLOCK
  5
B52
330
AE2
100
AcDbEntity
  8
0
100
AcDbBlockBegin
  2
ACO-SF02-KL
 70
     2
 10
0.0
 20
0.0
 30
0.0
  3
ACO-SF02-KL
  1

  0
ATTDEF
  5
AE3
330
AE2
100
AcDbEntity
  8
RAHM3
100
AcDbText
 10
-64.85041433486502
 20
50.40908037512629
 30
0.0
 40
3.0
  1
-
 72
     1
 11
-63.80041433486502
 21
50.40908037512629
 31
0.0
100
AcDbAttributeDefinition
  3
(genmsg"gendwg"83)
  2
GEN-TITLE-SCA{5.42}
 70
     0
1001
GENIUS_GENBLLY_14
1000
BOR3
  0
ATTDEF
  5
AE4
330
AE2
100
AcDbEntity
  8
RAHM2
100
AcDbText
 10
-77.18903296753727
 20
1.055184394999855
 30
0.0
 40
2.500000000000367
  1

 41
0.9
100
AcDbAttributeDefinition
  3
Ersatz
  2
F11
 70
     0
1001
GENIUS_GENBLLY_14
1000
BOR2
  0
MTEXT
  5
AE5
330
AE2
100
AcDbEntity
  8
RAHM2
100
AcDbMText
 10
-85.14759485471326
 20
14.46334508310382
 30
0.0
 40
2.0
 41
11.91257244082952
 71
     4
 72
     5
  1
Zeichnungsnummer
 73
     1
 44
1.0
1001
ACAD
1000
MTEXTBEGIN
1070
    73
1070
     1
1070
    44
1040
1.0
1070
    74
1070
     0
1000
MTEXTEND
  0
LINE
  5
AE6
330
AE2
100
AcDbEntity
  8
RAHM2
100
AcDbLine
 10
-86.35999999999999
 20
48.66000000000008
 30
0.0
 11
0.0
 21
48.66000000000005
 31
0.0
1001
GENIUS_GENBLLY_14
1000
BOR2
  0
LINE
  5
AE7
330
AE2
100
AcDbEntity
  8
RAHM3
100
AcDbLine
 10
-182.88
 20
38.07000000000002
 30
0.0
 11
0.0
 21
38.07000000000003
 31
0.0
1001
GENIUS_GENBLLY_14
1000
BOR3
  0
LINE
  5
AE8
330
AE2
100
AcDbEntity
  8
RAHM3
100
AcDbLine
 10
-129.54
 20
16.92000000000003
 30
0.0
 11
0.0
 21
16.92000000000003
 31
0.0
1001
GENIUS_GENBLLY_14
1000
BOR3
  0
POLYLINE
  5
AE9
330
AE2
100
AcDbEntity
  8
0
100
AcDb2dPolyline
 66
     1
 10
0.0
 20
0.0
 30
0.0
 70
     1
  0
VERTEX
  5
AEA
330
AE9
100
AcDbEntity
  8
0
100
AcDbVertex
100
AcDb2dVertex
 10
-182.88
 20
0.0
 30
0.0
  0
VERTEX
  5
AEB
330
AE9
100
AcDbEntity
  8
0
100
AcDbVertex
100
AcDb2dVertex
 10
0.0
 20
0.0
 30
0.0
  0
VERTEX
  5
AEC
330
AE9
100
AcDbEntity
  8
0
100
AcDbVertex
100
AcDb2dVertex
 10
0.0
 20
54.99000000000001
 30
0.0
  0
VERTEX
  5
AED
330
AE9
100
AcDbEntity
  8
0
100
AcDbVertex
100
AcDb2dVertex
 10
-182.88
 20
54.99000000000004
 30
0.0
  0
SEQEND
  5
AEE
330
AE9
100
AcDbEntity
  8
0
  0
LINE
  5
AEF
330
AE2
100
AcDbEntity
  8
RAHM2
100
AcDbLine
 10
-182.88
 20
4.230000000000018
 30
0.0
 11
0.0
 21
4.230000000000018
 31
0.0
1001
GENIUS_GENBLLY_14
1000
BOR2
  0
TEXT
  5
AF0
330
AE2
100
AcDbEntity
  8
0
100
AcDbText
 10
-182.8071414657317
 20
71.61199315718228
 30
0.0
 40
3.5
  1
Änderungen nur über CAD zulässig
100
AcDbText
  0
MTEXT
  5
AF1
330
AE2
100
AcDbEntity
  8
RAHM2
100
AcDbMText
 10
-174.537912928504
 20
2.115000000000023
 30
0.0
 40
2.0
 41
11.21910417767216
 71
     4
 72
     5
  1
Änderung
 73
     1
 44
1.0
1001
ACAD
1000
MTEXTBEGIN
1070
    73
1070
     1
1070
    44
1040
1.0
1070
    74
1070
     0
1000
MTEXTEND
  0
LINE
  5
AF2
330
AE2
100
AcDbEntity
  8
RAHM2
100
AcDbLine
 10
-182.88
 20
12.69000000000003
 30
0.0
 11
-129.54
 21
12.69000000000004
 31
0.0
1001
GENIUS_GENBLLY_14
1000
BOR2
  0
LINE
  5
AF3
330
AE2
100
AcDbEntity
  8
RAHM2
100
AcDbLine
 10
-182.88
 20
16.92000000000001
 30
0.0
 11
-129.54
 21
16.92000000000003
 31
0.0
1001
GENIUS_GENBLLY_14
1000
BOR2
  0
LINE
  5
AF4
330
AE2
100
AcDbEntity
  8
RAHM2
100
AcDbLine
 10
-182.88
 20
21.15000000000003
 30
0.0
 11
-129.54
 21
21.15000000000003
 31
0.0
1001
GENIUS_GENBLLY_14
1000
BOR2
  0
LINE
  5
AF5
330
AE2
100
AcDbEntity
  8
RAHM2
100
AcDbLine
 10
-182.88
 20
8.460000000000022
 30
0.0
 11
-129.54
 21
8.460000000000036
 31
0.0
1001
GENIUS_GENBLLY_14
1000
BOR2
  0
LINE
  5
AF6
330
AE2
100
AcDbEntity
  8
RAHM2
100
AcDbLine
 10
-182.88
 20
25.38000000000002
 30
0.0
 11
-86.35999999999999
 21
25.38000000000002
 31
0.0
1001
GENIUS_GENBLLY_14
1000
BOR2
  0
LINE
  5
AF7
330
AE2
100
AcDbEntity
  8
RAHM2
100
AcDbLine
 10
-182.88
 20
29.61000000000002
 30
0.0
 11
-86.35999999999999
 21
29.61000000000002
 31
0.0
1001
GENIUS_GENBLLY_14
1000
BOR2
  0
LINE
  5
AF8
330
AE2
100
AcDbEntity
  8
RAHM2
100
AcDbLine
 10
-182.88
 20
33.84000000000003
 30
0.0
 11
-86.35999999999999
 21
33.84000000000003
 31
0.0
1001
GENIUS_GENBLLY_14
1000
BOR2
  0
LINE
  5
AF9
330
AE2
100
AcDbEntity
  8
RAHM2
100
AcDbLine
 10
-175.26
 20
38.07000000000002
 30
0.0
 11
-175.26
 21
0.0
 31
0.0
1001
GENIUS_GENBLLY_14
1000
BOR2
  0
MTEXT
  5
AFA
330
AE2
100
AcDbEntity
  8
RAHM2
100
AcDbMText
 10
-182.157912928504
 20
2.115000000000023
 30
0.0
 40
2.0
 41
11.21910417767216
 71
     4
 72
     5
  1
Zust.
 73
     1
 44
1.0
1001
ACAD
1000
MTEXTBEGIN
1070
    73
1070
     1
1070
    44
1040
1.0
1070
    74
1070
     0
1000
MTEXTEND
  0
MTEXT
  5
AFB
330
AE2
100
AcDbEntity
  8
RAHM2
100
AcDbMText
 10
-181.4767878194093
 20
54.17857627136107
 30
0.0
 40
2.399999999999999
 41
24.57
 71
     1
 72
     5
  1
Maße in (...)\Pgelten nicht\Pfür die\PFertigung
 73
     1
 44
1.0
1001
ACAD
1000
MTEXTBEGIN
1070
    73
1070
     1
1070
    44
1040
1.0
1070
    74
1070
     0
1000
MTEXTEND
  0
LINE
  5
AFC
330
AE2
100
AcDbEntity
  8
RAHM2
100
AcDbLine
 10
-142.875
 20
38.07000000000003
 30
0.0
 11
-142.875
 21
0.0
 31
0.0
  0
LINE
  5
AFD
330
AE2
100
AcDbEntity
  8
RAHM3
100
AcDbLine
 10
-86.35999999999999
 20
54.99000000000006
 30
0.0
 11
-86.35999999999999
 21
0.0
 31
0.0
1001
GENIUS_GENBLLY_14
1000
BOR3
  0
LINE
  5
AFE
330
AE2
100
AcDbEntity
  8
RAHM2
100
AcDbLine
 10
-156.21
 20
38.07000000000004
 30
0.0
 11
-156.21
 21
0.0000000000000142
 31
0.0
1001
GENIUS_GENBLLY_14
1000
BOR2
  0
LINE
  5
AFF
330
AE2
100
AcDbEntity
  8
RAHM3
100
AcDbLine
 10
-129.54
 20
21.15000000000003
 30
0.0
 11
-129.54
 21
0.0
 31
0.0
1001
GENIUS_GENBLLY_14
1000
BOR3
  0
ATTDEF
  5
B00
330
AE2
100
AcDbEntity
  8
RAHM2
100
AcDbText
 10
-120.3690329675373
 20
1.055184394999855
 30
0.0
 40
2.500000000000367
  1

 41
0.9
100
AcDbAttributeDefinition
  3
Ursprung
  2
URSPRUNG
 70
     0
1001
GENIUS_GENBLLY_14
1000
BOR2
  0
MTEXT
  5
B01
330
AE2
100
AcDbEntity
  8
RAHM2
100
AcDbMText
 10
-142.152912928504
 20
2.115000000000023
 30
0.0
 40
2.0
 41
11.21910417767216
 71
     4
 72
     5
  1
Name
 73
     1
 44
1.0
1001
ACAD
1000
MTEXTBEGIN
1070
    73
1070
     1
1070
    44
1040
1.0
1070
    74
1070
     0
1000
MTEXTEND
  0
MTEXT
  5
B02
330
AE2
100
AcDbEntity
  8
RAHM2
100
AcDbMText
 10
-155.487912928504
 20
2.115000000000023
 30
0.0
 40
2.0
 41
11.21910417767216
 71
     4
 72
     5
  1
Datum
 73
     1
 44
1.0
1001
ACAD
1000
MTEXTBEGIN
1070
    73
1070
     1
1070
    44
1040
1.0
1070
    74
1070
     0
1000
MTEXTEND
  0
MTEXT
  5
B03
330
AE2
100
AcDbEntity
  8
RAHM2
100
AcDbMText
 10
-128.817912928504
 20
2.115000000000023
 30
0.0
 40
2.0
 41
11.21910417767216
 71
     4
 72
     5
  1
Urspr.
 73
     1
 44
1.0
1001
ACAD
1000
MTEXTBEGIN
1070
    73
1070
     1
1070
    44
1040
1.0
1070
    74
1070
     0
1000
MTEXTEND
  0
MTEXT
  5
B04
330
AE2
100
AcDbEntity
  8
RAHM2
100
AcDbMText
 10
-85.63791292850398
 20
2.115000000000023
 30
0.0
 40
2.0
 41
11.21910417767216
 71
     4
 72
     5
  1
Ers. f.
 73
     1
 44
1.0
1001
ACAD
1000
MTEXTBEGIN
1070
    73
1070
     1
1070
    44
1040
1.0
1070
    74
1070
     0
1000
MTEXTEND
  0
MTEXT
  5
B05
330
AE2
100
AcDbEntity
  8
RAHM2
100
AcDbMText
 10
-128.1367878194093
 20
54.17857627136109
 30
0.0
 40
2.399999999999999
 41
22.38289646142594
 71
     1
 72
     5
  1
Zul. Abw.\Pnach PW\P0-200.680
 73
     1
 44
1.0
1001
ACAD
1000
MTEXTBEGIN
1070
    73
1070
     1
1070
    44
1040
1.0
1070
    74
1070
     0
1000
MTEXTEND
  0
LINE
  5
B06
330
AE2
100
AcDbEntity
  8
RAHM2
100
AcDbLine
 10
-129.54
 20
21.15000000000003
 30
0.0
 11
-86.35999999999999
 21
21.15000000000003
 31
0.0
1001
GENIUS_GENBLLY_14
1000
BOR2
  0
MTEXT
  5
B07
330
AE2
100
AcDbEntity
  8
RAHM2
100
AcDbMText
 10
-128.817912928504
 20
31.72500000000004
 30
0.0
 40
2.0
 41
11.21910417767216
 71
     4
 72
     5
  1
Gez.:
 73
     1
 44
1.0
1001
ACAD
1000
MTEXTBEGIN
1070
    73
1070
     1
1070
    44
1040
1.0
1070
    74
1070
     0
1000
MTEXTEND
  0
LINE
  5
B08
330
AE2
100
AcDbEntity
  8
RAHM3
100
AcDbLine
 10
-129.54
 20
54.99000000000006
 30
0.0
 11
-129.54
 21
21.15000000000003
 31
0.0
1001
GENIUS_GENBLLY_14
1000
BOR3
  0
LINE
  5
B09
330
AE2
100
AcDbEntity
  8
RAHM2
100
AcDbLine
 10
-119.38
 20
38.07000000000002
 30
0.0
 11
-119.3799999999999
 21
21.15000000000003
 31
0.0
1001
GENIUS_GENBLLY_14
1000
BOR2
  0
MTEXT
  5
B0A
330
AE2
100
AcDbEntity
  8
RAHM2
100
AcDbMText
 10
-128.817912928504
 20
23.26500000000003
 30
0.0
 40
2.0
 41
11.21910417767216
 71
     4
 72
     5
  1
Norm:
 73
     1
 44
1.0
1001
ACAD
1000
MTEXTBEGIN
1070
    73
1070
     1
1070
    44
1040
1.0
1070
    74
1070
     0
1000
MTEXTEND
  0
MTEXT
  5
B0B
330
AE2
100
AcDbEntity
  8
RAHM2
100
AcDbMText
 10
-128.817912928504
 20
27.49500000000002
 30
0.0
 40
2.0
 41
11.21910417767216
 71
     4
 72
     5
  1
Gepr.:
 73
     1
 44
1.0
1001
ACAD
1000
MTEXTBEGIN
1070
    73
1070
     1
1070
    44
1040
1.0
1070
    74
1070
     0
1000
MTEXTEND
  0
MTEXT
  5
B0C
330
AE2
100
AcDbEntity
  8
RAHM2
100
AcDbMText
 10
-154.8067878194093
 20
54.17857627136106
 30
0.0
 40
2.399999999999999
 41
24.57
 71
     1
 72
     5
  1
Werkstück-\PKanten\Pnach PW\P0-200.750
 73
     1
 44
1.0
1001
ACAD
1000
MTEXTBEGIN
1070
    73
1070
     1
1070
    44
1040
1.0
1070
    74
1070
     0
1000
MTEXTEND
  0
LINE
  5
B0D
330
AE2
100
AcDbEntity
  8
RAHM2
100
AcDbLine
 10
-156.21
 20
38.07000000000004
 30
0.0
 11
-156.21
 21
54.99000000000003
 31
0.0
  0
LINE
  5
B0E
330
AE2
100
AcDbEntity
  8
RAHM2
100
AcDbLine
 10
-104.14
 20
54.99000000000006
 30
0.0
 11
-104.14
 21
16.92000000000003
 31
0.0
1001
GENIUS_GENBLLY_14
1000
BOR2
  0
ATTDEF
  5
B0F
330
AE2
100
AcDbEntity
  8
RAHM2
100
AcDbText
 10
-95.24999999999998
 20
30.47499999999984
 30
0.0
 40
2.500000000000367
  1

 41
0.8
 72
     1
 11
-95.24999999999998
 21
31.72500000000002
 31
0.0
100
AcDbAttributeDefinition
  3
Bearbeitername
  2
F8
 70
     0
 74
     2
1001
GENIUS_GENBLLY_14
1000
BOR2
  0
ATTDEF
  5
B10
330
AE2
100
AcDbEntity
  8
RAHM2
100
AcDbText
 10
-111.76
 20
30.47499999999984
 30
0.0
 40
2.500000000000367
  1

 41
0.9
 72
     1
 11
-111.76
 21
31.72500000000002
 31
0.0
100
AcDbAttributeDefinition
  3
Bearbeiterdatum
  2
F9
 70
     0
 74
     2
1001
GENIUS_GENBLLY_14
1000
BOR2
  0
ATTDEF
  5
B11
330
AE2
100
AcDbEntity
  8
RAHM2
100
AcDbText
 10
-95.24999999999998
 20
22.01499999999983
 30
0.0
 40
2.500000000000367
  1

 41
0.8
 72
     1
 11
-95.24999999999998
 21
23.26500000000002
 31
0.0
100
AcDbAttributeDefinition
  3
Norm
  2
NORM
 70
     0
 74
     2
1001
GENIUS_GENBLLY_14
1000
BOR2
  0
ATTDEF
  5
B12
330
AE2
100
AcDbEntity
  8
RAHM2
100
AcDbText
 10
-95.24999999999998
 20
26.24499999999982
 30
0.0
 40
2.500000000000367
  1

 41
0.8
 72
     1
 11
-95.24999999999998
 21
27.49500000000001
 31
0.0
100
AcDbAttributeDefinition
  3
Prüfname
  2
F21
 70
     0
 74
     2
1001
GENIUS_GENBLLY_14
1000
BOR2
  0
ATTDEF
  5
B13
330
AE2
100
AcDbEntity
  8
RAHM2
100
AcDbText
 10
-111.7599999999999
 20
26.24499999999982
 30
0.0
 40
2.500000000000367
  1

 41
0.9
 72
     1
 11
-111.7599999999999
 21
27.49500000000001
 31
0.0
100
AcDbAttributeDefinition
  3
Prüfdatum
  2
F22
 70
     0
 74
     2
1001
GENIUS_GENBLLY_14
1000
BOR2
  0
ATTDEF
  5
B14
330
AE2
100
AcDbEntity
  8
RAHM5
100
AcDbText
 10
-83.93278926340224
 20
18.99958139598453
 30
0.0
 40
5.0
  1

 41
0.8
100
AcDbAttributeDefinition
  3
Benenn2
  2
F3
 70
     0
1001
GENIUS_GENBLLY_14
1000
BOR3
  0
ATTDEF
  5
B15
330
AE2
100
AcDbEntity
  8
RAHM5
100
AcDbText
 10
-83.95094248081989
 20
26.50208258201252
 30
0.0
 40
5.00000000000049
  1

 41
0.8
100
AcDbAttributeDefinition
  3
Benenn1
  2
F2
 70
     0
1001
GENIUS_GENBLLY_14
1000
BOR5
  0
MTEXT
  5
B16
330
AE2
100
AcDbEntity
  8
RAHM2
100
AcDbMText
 10
-98.97179931943435
 20
35.95500000000003
 30
0.0
 40
2.0
 41
7.624463545517301
 71
     4
 72
     5
  1
Name
 73
     1
 44
1.0
1001
ACAD
1000
MTEXTBEGIN
1070
    73
1070
     1
1070
    44
1040
1.0
1070
    74
1070
     0
1000
MTEXTEND
  0
MTEXT
  5
B17
330
AE2
100
AcDbEntity
  8
RAHM2
100
AcDbMText
 10
-102.7367878194093
 20
54.17857627136109
 30
0.0
 40
2.2
 41
15.94221488455651
 71
     1
 72
     5
  1
Oberflächen\P\H2.4;DIN ISO\P1302
 73
     1
 44
1.0
1001
ACAD
1000
MTEXTBEGIN
1070
    73
1070
     1
1070
    44
1040
1.0
1070
    74
1070
     0
1000
MTEXTEND
  0
MTEXT
  5
B18
330
AE2
100
AcDbEntity
  8
RAHM2
100
AcDbMText
 10
-116.0330976821806
 20
35.95500000000003
 30
0.0
 40
2.0
 41
7.499471710434931
 71
     4
 72
     5
  1
Datum
 73
     1
 44
1.0
1001
ACAD
1000
MTEXTBEGIN
1070
    73
1070
     1
1070
    44
1040
1.0
1070
    74
1070
     0
1000
MTEXTEND
  0
MTEXT
  5
B19
330
AE2
100
AcDbEntity
  8
RAHM2
100
AcDbMText
 10
-84.77897137392389
 20
43.36500000000005
 30
0.0
 40
2.0
 41
11.22
 71
     4
 72
     5
  1
Werkstoff\PRohteil-Nr.
 73
     1
 44
1.0
1001
ACAD
1000
MTEXTBEGIN
1070
    73
1070
     1
1070
    44
1040
1.0
1070
    74
1070
     0
1000
MTEXTEND
  0
MTEXT
  5
B1A
330
AE2
100
AcDbEntity
  8
RAHM2
100
AcDbMText
 10
-85.14759485471325
 20
35.61334508310381
 30
0.0
 40
2.0
 41
11.91257244082952
 71
     4
 72
     5
  1
Benennung
 73
     1
 44
1.0
1001
ACAD
1000
MTEXTBEGIN
1070
    73
1070
     1
1070
    44
1040
1.0
1070
    74
1070
     0
1000
MTEXTEND
  0
MTEXT
  5
B1B
330
AE2
100
AcDbEntity
  8
RAHM2
100
AcDbMText
 10
-84.91456038966111
 20
51.82500000000008
 30
0.0
 40
2.0
 41
11.21910417767216
 71
     4
 72
     5
  1
Maßstab
 73
     1
 44
1.0
1001
ACAD
1000
MTEXTBEGIN
1070
    73
1070
     1
1070
    44
1040
1.0
1070
    74
1070
     0
1000
MTEXTEND
  0
LINE
  5
B1C
330
AE2
100
AcDbEntity
  8
RAHM3
100
AcDbLine
 10
-10.16
 20
16.92000000000003
 30
0.0
 11
-10.16
 21
0.0
 31
0.0
1001
GENIUS_GENBLLY_14
1000
BOR2
  0
ATTDEF
  5
B1D
330
AE2
100
AcDbEntity
  8
RAHM5
100
AcDbText
 10
-16.65999999999999
 20
6.239436680117933
 30
0.0
 40
5.0
  1

 41
0.8
 72
     1
 11
-16.65999999999999
 21
6.239436680117933
 31
0.0
100
AcDbAttributeDefinition
  3
Änderungsindex
  2
F1B
 70
     0
1001
GENIUS_GENBLLY_14
1000
BOR3
  0
LINE
  5
B1E
330
AE2
100
AcDbEntity
  8
RAHM3
100
AcDbLine
 10
-23.16
 20
16.92000000000003
 30
0.0
 11
-23.16
 21
4.230000000000018
 31
0.0
  0
ATTDEF
  5
B1F
330
AE2
100
AcDbEntity
  8
RAHM2
100
AcDbText
 10
-34.9890329675373
 20
1.055184394999855
 30
0.0
 40
2.500000000000367
  1

 41
0.9
100
AcDbAttributeDefinition
  3
Ersetzt
  2
F12
 70
     0
1001
GENIUS_GENBLLY_14
1000
BOR2
  0
LINE
  5
B20
330
AE2
100
AcDbEntity
  8
RAHM2
100
AcDbLine
 10
-44.15999999999999
 20
4.230000000000018
 30
0.0
 11
-44.15999999999999
 21
0.0
 31
0.0
  0
MTEXT
  5
B21
330
AE2
100
AcDbEntity
  8
RAHM2
100
AcDbMText
 10
-43.437912928504
 20
2.115000000000023
 30
0.0
 40
2.0
 41
11.21910417767216
 71
     4
 72
     5
  1
Ers. d.
 73
     1
 44
1.0
1001
ACAD
1000
MTEXTBEGIN
1070
    73
1070
     1
1070
    44
1040
1.0
1070
    74
1070
     0
1000
MTEXTEND
  0
ATTDEF
  5
B22
330
AE2
100
AcDbEntity
  8
RAHM2
100
AcDbText
 10
-3.678679933904587
 20
5.0457767515923
 30
0.0
 40
2.500000000000367
  1
1
 41
0.9
 72
     1
 11
-3.116179933904504
 21
6.295776751592484
 31
0.0
100
AcDbAttributeDefinition
  3
von Blatt
  2
VONBLATT
 70
     0
 74
     2
1001
GENIUS_GENBLLY_14
1000
BOR2
  0
LINE
  5
B23
330
AE2
100
AcDbEntity
  8
RAHM2
100
AcDbLine
 10
-10.15999999999997
 20
8.460000000000036
 30
0.0
 11
0.0
 21
8.460000000000022
 31
0.0
1001
GENIUS_GENBLLY_14
1000
BOR2
  0
MTEXT
  5
B24
330
AE2
100
AcDbEntity
  8
RAHM2
100
AcDbMText
 10
-9.746833214585421
 20
6.154926572906106
 30
0.0
 40
2.0
 41
4.600541847406361
 71
     4
 72
     5
  1
v.Bl.
 73
     1
 44
1.0
1001
ACAD
1000
MTEXTBEGIN
1070
    73
1070
     1
1070
    44
1040
1.0
1070
    74
1070
     0
1000
MTEXTEND
  0
ATTDEF
  5
B25
330
AE2
100
AcDbEntity
  8
RAHM3
100
AcDbText
 10
-29.35453274468528
 20
50.40908037512628
 30
0.0
 40
3.0
  1
-
 41
0.8
 72
     1
 11
-28.51453274468528
 21
50.40908037512628
 31
0.0
100
AcDbAttributeDefinition
  3
Gewicht
  2
F60
 70
     0
1001
GENIUS_GENBLLY_14
1000
BOR3
  0
ATTDEF
  5
B26
330
AE2
100
AcDbEntity
  8
RAHM3
100
AcDbText
 10
-62.67498919895991
 20
41.94908037512625
 30
0.0
 40
3.0
  1
-
 41
0.8
100
AcDbAttributeDefinition
  3
Werkstoff/Rohrteil-Nr.
  2
ROHRTEILNR
 70
     0
1001
GENIUS_GENBLLY_14
1000
BOR3
  0
MTEXT
  5
B27
330
AE2
100
AcDbEntity
  8
RAHM2
100
AcDbMText
 10
-49.35456038966115
 20
51.82500000000006
 30
0.0
 40
2.0
 41
11.21910417767216
 71
     4
 72
     5
  1
Gewicht
 73
     1
 44
1.0
1001
ACAD
1000
MTEXTBEGIN
1070
    73
1070
     1
1070
    44
1040
1.0
1070
    74
1070
     0
1000
MTEXTEND
  0
LINE
  5
B28
330
AE2
100
AcDbEntity
  8
RAHM2
100
AcDbLine
 10
-50.80000000000001
 20
54.99000000000006
 30
0.0
 11
-50.80000000000001
 21
48.66000000000008
 31
0.0
1001
GENIUS_GENBLLY_14
1000
BOR2
  0
MTEXT
  5
B29
330
AE2
100
AcDbEntity
  8
RAHM2
100
AcDbMText
 10
-21.94759485471327
 20
14.46334508310382
 30
0.0
 40
2.0
 41
11.91
 71
     4
 72
     5
  1
Index
 73
     1
 44
1.0
1001
ACAD
1000
MTEXTBEGIN
1070
    73
1070
     1
1070
    44
1040
1.0
1070
    74
1070
     0
1000
MTEXTEND
  0
MTEXT
  5
B2A
330
AE2
100
AcDbEntity
  8
RAHM2
100
AcDbMText
 10
-7.856144535752036
 20
14.61821708041282
 30
0.0
 40
2.0
 41
5.723485139280796
 71
     4
 72
     5
  1
Blatt
 73
     1
 44
1.0
1001
ACAD
1000
MTEXTBEGIN
1070
    73
1070
     1
1070
    44
1040
1.0
1070
    74
1070
     0
1000
MTEXTEND
  0
ATTDEF
  5
B2B
330
AE2
100
AcDbEntity
  8
RAHM3
100
AcDbText
 10
-5.919999999999998
 20
9.238696270187517
 30
0.0
 40
3.0
  1
-
 41
0.8
 72
     1
 11
-5.079999999999998
 21
9.238696270187517
 31
0.0
100
AcDbAttributeDefinition
  3
Blatt
  2
SHNR
 70
     0
1001
GENIUS_GENBLLY_14
1000
BOR3
  0
LINE
  5
B2C
330
AE2
100
AcDbEntity
  8
RAHM3
100
AcDbLine
 10
-10.15999999999999
 20
54.99000000000001
 30
0.0
 11
-10.15999999999999
 21
38.07000000000003
 31
0.0
1001
GENIUS_GENBLLY_14
1000
BOR2
  0
LINE
  5
B2D
330
AE2
100
AcDbEntity
  8
RAHM2
100
AcDbLine
 10
-5.080000000000012
 20
43.36000000000002
 30
0.0
 11
-5.080000000000012
 21
38.07000000000003
 31
0.0
  0
LINE
  5
B2E
330
AE2
100
AcDbEntity
  8
RAHM2
100
AcDbLine
 10
-10.16000000000002
 20
43.36000000000002
 30
0.0
 11
0.0
 21
43.36000000000002
 31
0.0
1001
GENIUS_GENBLLY_14
1000
BOR3
  0
MTEXT
  5
B2F
330
AE2
100
AcDbEntity
  8
RAHM2
100
AcDbMText
 10
-5.079999999999995
 20
51.82500000000003
 30
0.0
 40
1.8
 41
11.29
 71
     5
 72
     5
  1
weitere\PSprachen
 73
     1
 44
1.0
1001
ACAD
1000
MTEXTBEGIN
1070
    73
1070
     1
1070
    44
1040
1.0
1070
    74
1070
     0
1000
MTEXTEND
  0
ATTDEF
  5
B30
330
AE2
100
AcDbEntity
  8
RAHM3
100
AcDbText
 10
-5.972785295520449
 20
44.6097237062491
 30
0.0
 40
3.0
  1
-
 41
0.8
 72
     1
 11
-5.132785295520449
 21
44.6097237062491
 31
0.0
100
AcDbAttributeDefinition
  3
Sprache
  2
LANG
 70
     0
1001
GENIUS_GENBLLY_14
1000
BOR3
  0
ATTDEF
  5
B31
330
AE2
100
AcDbEntity
  8
RAHM5
100
AcDbText
 10
-83.93278926340224
 20
6.072709825831793
 30
0.0
 40
5.0
  1
-
 41
0.8
100
AcDbAttributeDefinition
  3
Zeichnungsnummer
  2
F1
 70
     0
1001
GENIUS_GENBLLY_14
1000
BOR3
  0
INSERT
  5
B32
330
AE2
100
AcDbEntity
  8
0
100
AcDbBlockReference
 66
     1
  2
aendzeil
 10
-129.54
 20
4.230000000000018
 30
0.0
  0
ATTRIB
  5
B33
330
B32
100
AcDbEntity
  8
RAHM2
100
AcDbText
 10
-182.7112968463028
 20
4.988766263726461
 30
0.0
 40
2.500000000000367
  1

 41
0.9
100
AcDbAttribute
  2
REVI
 70
     0
  0
ATTRIB
  5
B34
330
B32
100
AcDbEntity
  8
RAHM2
100
AcDbText
 10
-175.0912968463028
 20
4.988766263726461
 30
0.0
 40
2.500000000000367
  1

 41
0.9
100
AcDbAttribute
  2
CHNR
 70
     0
  0
ATTRIB
  5
B35
330
B32
100
AcDbEntity
  8
RAHM2
100
AcDbText
 10
-156.0412968463028
 20
4.988766263726461
 30
0.0
 40
2.500000000000367
  1

 41
0.9
100
AcDbAttribute
  2
CRDA
 70
     0
  0
ATTRIB
  5
B36
330
B32
100
AcDbEntity
  8
RAHM2
100
AcDbText
 10
-142.679855490005
 20
5.042794071914045
 30
0.0
 40
2.500000000000367
  1

 41
0.7635062867386634
 72
     5
 11
-136.8581200536218
 21
5.042794071914045
 31
0.0
100
AcDbAttribute
  2
CRNA
 70
     0
  0
ATTRIB
  5
B37
330
B32
100
AcDbEntity
  8
RAHM2
100
AcDbText
 10
-136.0387968463028
 20
4.988766263726461
 30
0.0
 40
2.500000000000367
  1

 41
0.9
100
AcDbAttribute
  2
NORM
 70
     0
  0
SEQEND
  5
B38
330
B32
100
AcDbEntity
  8
0
  0
ATTDEF
  5
B39
330
AE2
100
AcDbEntity
  8
TEXT25
100
AcDbText
 10
-181.3350410344388
 20
4.838012658558938
 30
0.0
 40
2.0
  1

 41
0.8
  7
TEXT20
100
AcDbAttributeDefinition
  3
Index vv.:
  2
F72
 70
     0
  0
ATTDEF
  5
B3A
330
AE2
100
AcDbEntity
  8
TEXT25
100
AcDbText
 10
-174.421598333048
 20
5.338012658558938
 30
0.0
 40
2.0
  1

 41
0.8
  7
TEXT20
100
AcDbAttributeDefinition
  3
Benennung vv.:
  2
F73
 70
     0
  0
ATTDEF
  5
B3B
330
AE2
100
AcDbEntity
  8
TEXT25
100
AcDbText
 10
-155.4721971294954
 20
4.838012658558939
 30
0.0
 40
2.0
  1

 41
0.8
  7
TEXT20
100
AcDbAttributeDefinition
  3
Datum vv.:
  2
F74
 70
     0
  0
ATTDEF
  5
B3C
330
AE2
100
AcDbEntity
  8
TEXT25
100
AcDbText
 10
-142.1827679993665
 20
5.138012658558963
 30
0.0
 40
2.0
  1

 41
0.8
  7
TEXT20
100
AcDbAttributeDefinition
  3
Name vv.:
  2
F75
 70
     0
  0
ATTDEF
  5
B3D
330
AE2
100
AcDbEntity
  8
TEXT25
100
AcDbText
 10
-181.4181668238402
 20
9.711801983794956
 30
0.0
 40
2.0
  1

 41
0.8
  7
TEXT20
100
AcDbAttributeDefinition
  3
Index v.:
  2
F68
 70
     0
  0
ATTDEF
  5
B3E
330
AE2
100
AcDbEntity
  8
TEXT25
100
AcDbText
 10
-181.3446667567203
 20
14.00731874193574
 30
0.0
 40
2.0
  1

 41
0.8
  7
TEXT20
100
AcDbAttributeDefinition
  3
Index l.:
  2
F64
 70
     0
  0
ATTDEF
  5
B3F
330
AE2
100
AcDbEntity
  8
TEXT25
100
AcDbText
 10
-174.121598333048
 20
13.87697688055209
 30
0.0
 40
2.0
  1

 41
0.8
  7
TEXT20
100
AcDbAttributeDefinition
  3
Bennenung l.:
  2
F65
 70
     0
  0
ATTDEF
  5
B40
330
AE2
100
AcDbEntity
  8
TEXT25
100
AcDbText
 10
-174.421598333048
 20
9.638012658558949
 30
0.0
 40
2.0
  1

 41
0.8
  7
TEXT20
100
AcDbAttributeDefinition
  3
Benennung v.:
  2
F69
 70
     0
  0
ATTDEF
  5
B41
330
AE2
100
AcDbEntity
  8
TEXT25
100
AcDbText
 10
-155.4624305718804
 20
13.93817797706407
 30
0.0
 40
2.0
  1

 41
0.8
  7
TEXT20
100
AcDbAttributeDefinition
  3
Datum l.:
  2
F66
 70
     0
  0
ATTDEF
  5
B42
330
AE2
100
AcDbEntity
  8
TEXT25
100
AcDbText
 10
-155.5785931557433
 20
9.882816249346804
 30
0.0
 40
2.0
  1

 41
0.8
  7
TEXT20
100
AcDbAttributeDefinition
  3
Datum v.:
  2
F70
 70
     0
  0
ATTDEF
  5
B43
330
AE2
100
AcDbEntity
  8
TEXT25
100
AcDbText
 10
-142.1827679993665
 20
9.93801265855896
 30
0.0
 40
2.0
  1

 41
0.8
  7
TEXT20
100
AcDbAttributeDefinition
  3
Name v.:
  2
F71
 70
     0
  0
ATTDEF
  5
B44
330
AE2
100
AcDbEntity
  8
TEXT25
100
AcDbText
 10
-142.0928343804181
 20
13.6769768805521
 30
0.0
 40
2.0
  1

 41
0.8
  7
TEXT20
100
AcDbAttributeDefinition
  3
Name l.:
  2
F67
 70
     0
  0
TEXT
  5
B45
330
AE2
100
AcDbEntity
  8
0N
100
AcDbText
 10
-180.9233753026868
 20
63.6501209888693
 30
0.0
 40
3.5
  1
Zeichnungen größer darstellenden Maßstabes bzw. Einzelteilzeichnungen
 41
0.9
100
AcDbText
  0
LINE
  5
B46
330
AE2
100
AcDbEntity
  8
0
100
AcDbLine
 10
0.0
 20
69.98999999999999
 30
0.0
 11
-182.88
 21
69.98999999999999
 31
0.0
  0
TEXT
  5
B47
330
AE2
100
AcDbEntity
  8
0N
100
AcDbText
 10
-180.9233753026868
 20
57.63471067045306
 30
0.0
 40
3.5
  1
haben vorrangige Gültigkeit
 41
0.9
100
AcDbText
  0
LINE
  5
B48
330
AE2
100
AcDbEntity
  8
0
100
AcDbLine
 10
-182.88
 20
54.99000000000004
 30
0.0
 11
-182.88
 21
69.98999999999999
 31
0.0
  0
TEXT
  5
B49
330
AE2
100
AcDbEntity
  8
0N
100
AcDbText
 10
-109.6795815433127
 20
14.20496366599923
 30
0.0
 40
2.205
  1
ACO Haustechnik
  7
Anschrift
100
AcDbText
  0
TEXT
  5
B4A
330
AE2
100
AcDbEntity
  8
KOPF
100
AcDbText
 10
-109.5358042281258
 20
11.61803468207068
 30
0.0
 40
1.26
  1
ACO Passavant GmbH
  7
Anschrift
100
AcDbText
  0
TEXT
  5
B4B
330
AE2
100
AcDbEntity
  8
KOPF
100
AcDbText
 10
-109.5358042281258
 20
9.561222342739062
 30
0.0
 40
1.26
  1
Ulsterstrasse 3
  7
Anschrift
100
AcDbText
  0
TEXT
  5
B4C
330
AE2
100
AcDbEntity
  8
KOPF
100
AcDbText
 10
-109.5358042281258
 20
7.504410003407442
 30
0.0
 40
1.26
  1
36269 Phillipsthal
  7
Anschrift
100
AcDbText
  0
TEXT
  5
B4D
330
AE2
100
AcDbEntity
  8
KOPF
100
AcDbText
 10
-109.5358042281258
 20
5.447597664075821
 30
0.0
 40
1.26
  1
www.aco-haustechnik.de
  7
Anschrift
100
AcDbText
  0
IMAGE
  5
B4E
330
AE2
100
AcDbEntity
  8
0
 92
      140
310
8C00000001000000840000000600000005000000E495F3B646ED5FC00034983F623415400000000000000000E495F3B646ED5FC07828F3851A53304000000000000000003910DBF6FB4C5CC07828F3851A53304000000000000000003910DBF6FB4C5CC00034983F623415400000000000000000E495F3B646ED5FC0003498
310
3F623415400000000000000000
100
AcDbRasterImage
 90
        0
 10
-127.7074410799756
 20
5.301156037964574
 30
0.0
 11
0.1933941653435695
 21
0.0
 31
0.0
 12
0.0
 22
0.1933941653435694
 32
0.0
 13
75.0
 23
57.0
340
B55
 70
     7
280
     0
281
    50
282
    50
283
     0
360
B4F
 71
     1
 91
        2
 14
-0.5
 24
-0.5
 14
74.5
 24
56.5
  0
MTEXT
  5
B50
330
AE2
100
AcDbEntity
  8
Sperrlayer
 62
     1
100
AcDbMText
 10
-165.5971743099973
 20
12.04562497477995
 30
0.0
 40
10.0
 41
771.0
 71
     1
 72
     5
  1
VORABZUG - nicht FREIGEGEBEN !
  7
TEXT20
 11
0.9359123957970576
 21
0.3522328596162087
 31
0.0
 73
     1
 44
1.0
1001
ACAD
1000
MTEXTBEGIN
1070
    73
1070
     1
1070
    44
1040
1.0
1070
    74
1070
     0
1000
MTEXTEND
  0
ENDBLK
  5
B53
330
AE2
100
AcDbEntity
  8
0
100
AcDbBlockEnd
  0
BLOCK
  5
DCB
330
DBF
100
AcDbEntity
  8
0
100
AcDbBlockBegin
  2
*D19
 70
     1
 10
0.0
 20
0.0
 30
0.0
  3
*D19
  1

  0
LINE
  5
15DD
330
DBF
100
AcDbEntity
  8
AM_5
100
AcDbLine
 10
231.7372562847806
 20
231.52102167102
 30
0.0
 11
243.7372562847806
 21
231.52102167102
 31
0.0
  0
LINE
  5
15DE
330
DBF
100
AcDbEntity
  8
AM_5
100
AcDbLine
 10
231.7372562847806
 20
234.52102167102
 30
0.0
 11
243.7372562847806
 21
234.52102167102
 31
0.0
  0
LINE
  5
15DF
330
DBF
100
AcDbEntity
  8
AM_5
100
AcDbLine
 10
242.7372562847806
 20
229.02102167102
 30
0.0
 11
242.7372562847806
 21
226.5210216710201
 31
0.0
  0
LINE
  5
15E0
330
DBF
100
AcDbEntity
  8
AM_5
100
AcDbLine
 10
242.7372562847806
 20
237.0210216710201
 30
0.0
 11
242.7372562847806
 21
244.0659964178506
 31
0.0
  0
LINE
  5
15E1
330
DBF
100
AcDbEntity
  8
AM_5
100
AcDbLine
 10
242.7372562847806
 20
231.52102167102
 30
0.0
 11
242.7372562847806
 21
234.52102167102
 31
0.0
  0
SOLID
  5
15E2
330
DBF
100
AcDbEntity
  8
AM_5
100
AcDbTrace
 10
242.3205896181139
 20
229.02102167102
 30
0.0
 11
243.1539229514473
 21
229.02102167102
 31
0.0
 12
242.7372562847806
 22
231.52102167102
 32
0.0
 13
242.7372562847806
 23
231.52102167102
 33
0.0
  0
SOLID
  5
15E3
330
DBF
100
AcDbEntity
  8
AM_5
100
AcDbTrace
 10
242.3205896181139
 20
237.0210216710201
 30
0.0
 11
243.1539229514473
 21
237.0210216710201
 31
0.0
 12
242.7372562847806
 22
234.52102167102
 32
0.0
 13
242.7372562847806
 23
234.52102167102
 33
0.0
  0
MTEXT
  5
15E4
330
DBF
100
AcDbEntity
  8
AM_5
 62
     2
100
AcDbMText
 10
239.4872562847806
 20
241.7935090444354
 30
0.0
 40
3.5
 41
0.0
 71
     5
 72
     1
  1
3
 11
0.0000000000000001
 21
1.0
 31
0.0
 73
     1
 44
1.0
1001
ACAD
1000
MTEXTBEGIN
1070
    73
1070
     1
1070
    44
1040
1.0
1070
    74
1070
     0
1000
MTEXTEND
  0
POINT
  5
15E5
330
DBF
100
AcDbEntity
  8
Defpoints
 62
     0
100
AcDbPoint
 10
230.7372562847806
 20
231.52102167102
 30
0.0
  0
POINT
  5
15E6
330
DBF
100
AcDbEntity
  8
Defpoints
 62
     0
100
AcDbPoint
 10
230.7372562847806
 20
234.52102167102
 30
0.0
  0
POINT
  5
15E7
330
DBF
100
AcDbEntity
  8
Defpoints
 62
     0
100
AcDbPoint
 10
242.7372562847806
 20
234.52102167102
 30
0.0
  0
ENDBLK
  5
DCC
330
DBF
100
AcDbEntity
  8
0
100
AcDbBlockEnd
  0
BLOCK
  5
146A
330
1460
100
AcDbEntity
  8
0
100
AcDbBlockBegin
  2
*D28
 70
     1
 10
0.0
 20
0.0
 30
0.0
  3
*D28
  1

  0
LINE
  5
1477
330
1460
100
AcDbEntity
  8
AM_5
100
AcDbLine
 10
105.7443897907948
 20
205.8377130031233
 30
0.0
 11
105.7443897907948
 21
217.8377140031233
 31
0.0
  0
LINE
  5
1478
330
1460
100
AcDbEntity
  8
AM_5
100
AcDbLine
 10
40.7443897907948
 20
205.8377130031233
 30
0.0
 11
40.7443897907948
 21
217.8377140031233
 31
0.0
  0
LINE
  5
1479
330
1460
100
AcDbEntity
  8
AM_5
100
AcDbLine
 10
103.2443897907948
 20
216.8377140031233
 30
0.0
 11
43.2443897907948
 21
216.8377140031233
 31
0.0
  0
SOLID
  5
147A
330
1460
100
AcDbEntity
  8
AM_5
100
AcDbTrace
 10
103.2443897907948
 20
217.25438066979
 30
0.0
 11
103.2443897907948
 21
216.4210473364567
 31
0.0
 12
105.7443897907948
 22
216.8377140031233
 32
0.0
 13
105.7443897907948
 23
216.8377140031233
 33
0.0
  0
SOLID
  5
147B
330
1460
100
AcDbEntity
  8
AM_5
100
AcDbTrace
 10
43.2443897907948
 20
217.25438066979
 30
0.0
 11
43.2443897907948
 21
216.4210473364567
 31
0.0
 12
40.7443897907948
 22
216.8377140031233
 32
0.0
 13
40.7443897907948
 23
216.8377140031233
 33
0.0
  0
MTEXT
  5
147C
330
1460
100
AcDbEntity
  8
AM_5
 62
     2
100
AcDbMText
 10
73.2443897907948
 20
220.0877140031233
 30
0.0
 40
3.5
 41
0.0
 71
     5
 72
     1
  1
%%c65
 73
     1
 44
1.0
1001
ACAD
1000
MTEXTBEGIN
1070
    73
1070
     1
1070
    44
1040
1.0
1070
    74
1070
     0
1000
MTEXTEND
  0
POINT
  5
147D
330
1460
100
AcDbEntity
  8
Defpoints
 62
     0
100
AcDbPoint
 10
105.7443897907948
 20
204.8377130031233
 30
0.0
  0
POINT
  5
147E
102
{ACAD_REACTORS
330
1546
102
}
330
1460
100
AcDbEntity
  8
Defpoints
 62
     0
100
AcDbPoint
 10
40.7443897907948
 20
204.8377130031233
 30
0.0
  0
POINT
  5
147F
330
1460
100
AcDbEntity
  8
Defpoints
 62
     0
100
AcDbPoint
 10
40.7443897907948
 20
216.8377140031233
 30
0.0
  0
ENDBLK
  5
146B
330
1460
100
AcDbEntity
  8
0
100
AcDbBlockEnd
  0
BLOCK
  5
149D
330
1493
100
AcDbEntity
  8
0
100
AcDbBlockBegin
  2
*D29
 70
     1
 10
0.0
 20
0.0
 30
0.0
  3
*D29
  1

  0
LINE
  5
14A1
330
1493
100
AcDbEntity
  8
AM_5
100
AcDbLine
 10
106.7443897907948
 20
204.8377130031233
 30
0.0
 11
126.6542933172975
 21
204.8377130031233
 31
0.0
  0
LINE
  5
14A2
330
1493
100
AcDbEntity
  8
AM_5
100
AcDbLine
 10
103.1943897907948
 20
178.8377130031233
 30
0.0
 11
126.6542933172975
 21
178.8377130031233
 31
0.0
  0
LINE
  5
14A3
330
1493
100
AcDbEntity
  8
AM_5
100
AcDbLine
 10
125.6542933172975
 20
202.3377130031233
 30
0.0
 11
125.6542933172975
 21
181.3377130031233
 31
0.0
  0
SOLID
  5
14A4
330
1493
100
AcDbEntity
  8
AM_5
100
AcDbTrace
 10
125.2376266506308
 20
202.3377130031233
 30
0.0
 11
126.0709599839642
 21
202.3377130031233
 31
0.0
 12
125.6542933172975
 22
204.8377130031233
 32
0.0
 13
125.6542933172975
 23
204.8377130031233
 33
0.0
  0
SOLID
  5
14A5
330
1493
100
AcDbEntity
  8
AM_5
100
AcDbTrace
 10
125.2376266506308
 20
181.3377130031233
 30
0.0
 11
126.0709599839642
 21
181.3377130031233
 31
0.0
 12
125.6542933172975
 22
178.8377130031233
 32
0.0
 13
125.6542933172975
 23
178.8377130031233
 33
0.0
  0
MTEXT
  5
14A6
330
1493
100
AcDbEntity
  8
AM_5
 62
     2
100
AcDbMText
 10
122.4039488291085
 20
191.8377130031233
 30
0.0
 40
3.5
 41
0.0
 71
     5
 72
     1
  1
26
 11
0.0000000000000001
 21
1.0
 31
0.0
 73
     1
 44
1.0
1001
ACAD
1000
MTEXTBEGIN
1070
    73
1070
     1
1070
    44
1040
1.0
1070
    74
1070
     0
1000
MTEXTEND
  0
POINT
  5
14A7
330
1493
100
AcDbEntity
  8
Defpoints
 62
     0
100
AcDbPoint
 10
105.7443897907948
 20
204.8377130031233
 30
0.0
  0
POINT
  5
14A8
102
{ACAD_REACTORS
330
14D4
102
}
330
1493
100
AcDbEntity
  8
Defpoints
 62
     0
100
AcDbPoint
 10
102.1943897907948
 20
178.8377130031233
 30
0.0
  0
POINT
  5
14A9
330
1493
100
AcDbEntity
  8
Defpoints
 62
     0
100
AcDbPoint
 10
125.6542933172975
 20
178.8377130031233
 30
0.0
  0
ENDBLK
  5
149E
330
1493
100
AcDbEntity
  8
0
100
AcDbBlockEnd
  0
BLOCK
  5
14D1
330
14C7
100
AcDbEntity
  8
0
100
AcDbBlockBegin
  2
*D30
 70
     1
 10
0.0
 20
0.0
 30
0.0
  3
*D30
  1

  0
LINE
  5
14D5
330
14C7
100
AcDbEntity
  8
AM_5
100
AcDbLine
 10
103.1943897907948
 20
201.3377130031233
 30
0.0
 11
116.6542933172977
 21
201.3377130031233
 31
0.0
  0
LINE
  5
14D6
330
14C7
100
AcDbEntity
  8
AM_5
100
AcDbLine
 10
103.1943897907948
 20
178.8377130031233
 30
0.0
 11
116.6542933172977
 21
178.8377130031233
 31
0.0
  0
LINE
  5
14D7
330
14C7
100
AcDbEntity
  8
AM_5
100
AcDbLine
 10
115.6542933172977
 20
198.8377130031233
 30
0.0
 11
115.6542933172977
 21
181.3377130031233
 31
0.0
  0
SOLID
  5
14D8
330
14C7
100
AcDbEntity
  8
AM_5
100
AcDbTrace
 10
115.237626650631
 20
198.8377130031233
 30
0.0
 11
116.0709599839644
 21
198.8377130031233
 31
0.0
 12
115.6542933172977
 22
201.3377130031233
 32
0.0
 13
115.6542933172977
 23
201.3377130031233
 33
0.0
  0
SOLID
  5
14D9
330
14C7
100
AcDbEntity
  8
AM_5
100
AcDbTrace
 10
115.237626650631
 20
181.3377130031233
 30
0.0
 11
116.0709599839644
 21
181.3377130031233
 31
0.0
 12
115.6542933172977
 22
178.8377130031233
 32
0.0
 13
115.6542933172977
 23
178.8377130031233
 33
0.0
  0
MTEXT
  5
14DA
330
14C7
100
AcDbEntity
  8
AM_5
 62
     2
100
AcDbMText
 10
112.4039488291087
 20
190.0877130031233
 30
0.0
 40
3.5
 41
0.0
 71
     5
 72
     1
  1
22
 11
0.0000000000000001
 21
1.0
 31
0.0
 73
     1
 44
1.0
1001
ACAD
1000
MTEXTBEGIN
1070
    73
1070
     1
1070
    44
1040
1.0
1070
    74
1070
     0
1000
MTEXTEND
  0
POINT
  5
14DB
330
14C7
100
AcDbEntity
  8
Defpoints
 62
     0
100
AcDbPoint
 10
102.1943897907948
 20
201.3377130031233
 30
0.0
  0
POINT
  5
14DC
330
14C7
100
AcDbEntity
  8
Defpoints
 62
     0
100
AcDbPoint
 10
102.1943897907948
 20
178.8377130031233
 30
0.0
  0
POINT
  5
14DD
330
14C7
100
AcDbEntity
  8
Defpoints
 62
     0
100
AcDbPoint
 10
115.6542933172977
 20
178.8377130031233
 30
0.0
  0
ENDBLK
  5
14D2
330
14C7
100
AcDbEntity
  8
0
100
AcDbBlockEnd
  0
BLOCK
  5
1502
330
14FB
100
AcDbEntity
  8
0
100
AcDbBlockBegin
  2
*D31
 70
     1
 10
0.0
 20
0.0
 30
0.0
  3
*D31
  1

  0
LINE
  5
1505
330
14FB
100
AcDbEntity
  8
0
100
AcDbLine
 10
173.1779027752252
 20
176.5414117466825
 30
0.0
 11
222.3966097943359
 21
195.9302972063202
 31
0.0
  0
SOLID
  5
1506
330
14FB
100
AcDbEntity
  8
0
100
AcDbTrace
 10
173.0251862860976
 20
176.9290827219433
 30
0.0
 11
173.3306192643528
 21
176.1537407714217
 31
0.0
 12
170.8518769236604
 22
175.625112811917
 32
0.0
 13
170.8518769236604
 23
175.625112811917
 33
0.0
  0
SOLID
  5
1507
330
14FB
100
AcDbEntity
  8
0
100
AcDbTrace
 10
222.2438933052084
 20
196.3179681815809
 30
0.0
 11
222.5493262834635
 21
195.5426262310593
 31
0.0
 12
224.7226356459008
 22
196.8465961410856
 32
0.0
 13
224.7226356459008
 23
196.8465961410856
 33
0.0
  0
MTEXT
  5
1508
102
{ACAD_XDICTIONARY
360
1999
102
}
330
14FB
100
AcDbEntity
  8
0
 62
     2
100
AcDbMText
 10
211.2166814843365
 20
195.0192340727005
 30
0.0
 40
3.5
 41
0.0
 71
     5
 72
     1
  1
\U+220558
 11
0.9304103406259104
 21
0.366519573906193
 31
0.0
 73
     1
 44
1.0
1001
ACAD
1000
MTEXTBEGIN
1070
    73
1070
     1
1070
    44
1040
1.0
1070
    74
1070
     0
1000
MTEXTEND
  0
POINT
  5
1509
330
14FB
100
AcDbEntity
  8
Defpoints
 62
     0
100
AcDbPoint
 10
224.7226356459008
 20
196.8465961410856
 30
0.0
  0
POINT
  5
150A
330
14FB
100
AcDbEntity
  8
Defpoints
 62
     0
100
AcDbPoint
 10
170.8518769236604
 20
175.625112811917
 30
0.0
  0
ENDBLK
  5
1503
330
14FB
100
AcDbEntity
  8
0
100
AcDbBlockEnd
  0
BLOCK
  5
1514
330
150D
100
AcDbEntity
  8
0
100
AcDbBlockBegin
  2
*D32
 70
     1
 10
0.0
 20
0.0
 30
0.0
  3
*D32
  1

  0
LINE
  5
1517
330
150D
100
AcDbEntity
  8
0
100
AcDbLine
 10
222.2603358495787
 20
168.1176074140767
 30
0.0
 11
173.3141767199824
 21
204.3541015389259
 31
0.0
  0
SOLID
  5
1518
330
150D
100
AcDbEntity
  8
0
100
AcDbTrace
 10
222.5082593178659
 20
168.4524880868298
 30
0.0
 11
222.0124123812916
 21
167.7827267413235
 31
0.0
 12
224.2696198860975
 22
166.6300666043538
 32
0.0
 13
224.2696198860975
 23
166.6300666043538
 33
0.0
  0
SOLID
  5
1519
330
150D
100
AcDbEntity
  8
0
100
AcDbTrace
 10
173.5621001882696
 20
204.6889822116791
 30
0.0
 11
173.0662532516953
 21
204.0192208661728
 31
0.0
 12
171.3048926834638
 22
205.8416423486488
 32
0.0
 13
171.3048926834638
 23
205.8416423486488
 33
0.0
  0
MTEXT
  5
151A
102
{ACAD_XDICTIONARY
360
199B
102
}
330
150D
100
AcDbEntity
  8
0
 62
     2
100
AcDbMText
 10
185.6320292134524
 20
199.2785083988676
 30
0.0
 40
3.5
 41
0.0
 71
     5
 72
     1
  1
\U+220566
 11
0.8037136146074931
 21
-0.5950163238891502
 31
0.0
 73
     1
 44
1.0
1001
ACAD
1000
MTEXTBEGIN
1070
    73
1070
     1
1070
    44
1040
1.0
1070
    74
1070
     0
1000
MTEXTEND
  0
POINT
  5
151B
330
150D
100
AcDbEntity
  8
Defpoints
 62
     0
100
AcDbPoint
 10
171.3048926834638
 20
205.8416423486488
 30
0.0
  0
POINT
  5
151C
330
150D
100
AcDbEntity
  8
Defpoints
 62
     0
100
AcDbPoint
 10
224.2696198860975
 20
166.6300666043538
 30
0.0
  0
ENDBLK
  5
1515
330
150D
100
AcDbEntity
  8
0
100
AcDbBlockEnd
  0
BLOCK
  5
1543
330
1537
100
AcDbEntity
  8
0
100
AcDbBlockBegin
  2
*D33
 70
     1
 10
0.0
 20
0.0
 30
0.0
  3
*D33
  1

  0
LINE
  5
155C
330
1537
100
AcDbEntity
  8
AM_5
100
AcDbLine
 10
39.7443897907948
 20
204.8377130031233
 30
0.0
 11
27.7443897907948
 21
204.8377130031233
 31
0.0
  0
LINE
  5
155D
330
1537
100
AcDbEntity
  8
AM_5
100
AcDbLine
 10
39.7443897907948
 20
201.3377130031233
 30
0.0
 11
27.7443897907948
 21
201.3377130031233
 31
0.0
  0
LINE
  5
155E
330
1537
100
AcDbEntity
  8
AM_5
100
AcDbLine
 10
28.7443897907948
 20
207.3377130031233
 30
0.0
 11
28.7443897907948
 21
209.8377130031233
 31
0.0
  0
LINE
  5
155F
330
1537
100
AcDbEntity
  8
AM_5
100
AcDbLine
 10
28.7443897907948
 20
198.8377130031233
 30
0.0
 11
28.7443897907948
 21
188.2927382562927
 31
0.0
  0
LINE
  5
1560
330
1537
100
AcDbEntity
  8
AM_5
100
AcDbLine
 10
28.7443897907948
 20
204.8377130031233
 30
0.0
 11
28.7443897907948
 21
201.3377130031233
 31
0.0
  0
SOLID
  5
1561
330
1537
100
AcDbEntity
  8
AM_5
100
AcDbTrace
 10
28.32772312412813
 20
207.3377130031233
 30
0.0
 11
29.16105645746147
 21
207.3377130031233
 31
0.0
 12
28.7443897907948
 22
204.8377130031233
 32
0.0
 13
28.7443897907948
 23
204.8377130031233
 33
0.0
  0
SOLID
  5
1562
330
1537
100
AcDbEntity
  8
AM_5
100
AcDbTrace
 10
28.32772312412813
 20
198.8377130031233
 30
0.0
 11
29.16105645746146
 21
198.8377130031233
 31
0.0
 12
28.7443897907948
 22
201.3377130031233
 32
0.0
 13
28.7443897907948
 23
201.3377130031233
 33
0.0
  0
MTEXT
  5
1563
330
1537
100
AcDbEntity
  8
AM_5
 62
     2
100
AcDbMText
 10
25.49438979079476
 20
192.315225629708
 30
0.0
 40
3.5
 41
0.0
 71
     5
 72
     1
  1
3.5
 11
0.0000000000000001
 21
1.0
 31
0.0
 73
     1
 44
1.0
1001
ACAD
1000
MTEXTBEGIN
1070
    73
1070
     1
1070
    44
1040
1.0
1070
    74
1070
     0
1000
MTEXTEND
  0
POINT
  5
1564
330
1537
100
AcDbEntity
  8
Defpoints
 62
     0
100
AcDbPoint
 10
40.7443897907948
 20
204.8377130031233
 30
0.0
  0
POINT
  5
1565
330
1537
100
AcDbEntity
  8
Defpoints
 62
     0
100
AcDbPoint
 10
40.7443897907948
 20
201.3377130031233
 30
0.0
  0
POINT
  5
1566
330
1537
100
AcDbEntity
  8
Defpoints
 62
     0
100
AcDbPoint
 10
28.7443897907948
 20
201.3377130031233
 30
0.0
  0
ENDBLK
  5
1544
330
1537
100
AcDbEntity
  8
0
100
AcDbBlockEnd
  0
BLOCK
  5
1626
330
161C
100
AcDbEntity
  8
0
100
AcDbBlockBegin
  2
*D34
 70
     1
 10
0.0
 20
0.0
 30
0.0
  3
*D34
  1

  0
LINE
  5
16AF
330
161C
100
AcDbEntity
  8
AM_5
100
AcDbLine
 10
46.89438979079477
 20
54.3705776061946
 30
0.0
 11
46.89438979079477
 21
42.37057760619456
 31
0.0
  0
LINE
  5
16B0
330
161C
100
AcDbEntity
  8
AM_5
100
AcDbLine
 10
99.59438979079482
 20
54.3705776061946
 30
0.0
 11
99.59438979079482
 21
42.37057760619456
 31
0.0
  0
LINE
  5
16B1
330
161C
100
AcDbEntity
  8
AM_5
100
AcDbLine
 10
49.39438979079477
 20
43.37057760619456
 30
0.0
 11
97.09438979079482
 21
43.37057760619456
 31
0.0
  0
SOLID
  5
16B2
330
161C
100
AcDbEntity
  8
AM_5
100
AcDbTrace
 10
49.39438979079477
 20
43.78724427286122
 30
0.0
 11
49.39438979079477
 21
42.95391093952789
 31
0.0
 12
46.89438979079477
 22
43.37057760619456
 32
0.0
 13
46.89438979079477
 23
43.37057760619456
 33
0.0
  0
SOLID
  5
16B3
330
161C
100
AcDbEntity
  8
AM_5
100
AcDbTrace
 10
97.09438979079482
 20
43.78724427286122
 30
0.0
 11
97.09438979079482
 21
42.95391093952789
 31
0.0
 12
99.59438979079482
 22
43.37057760619456
 32
0.0
 13
99.59438979079482
 23
43.37057760619456
 33
0.0
  0
MTEXT
  5
16B4
330
161C
100
AcDbEntity
  8
AM_5
 62
     2
100
AcDbMText
 10
73.2443897907948
 20
46.62057760619457
 30
0.0
 40
3.5
 41
0.0
 71
     5
 72
     1
  1
%%c53
 73
     1
 44
1.0
1001
ACAD
1000
MTEXTBEGIN
1070
    73
1070
     1
1070
    44
1040
1.0
1070
    74
1070
     0
1000
MTEXTEND
  0
POINT
  5
16B5
330
161C
100
AcDbEntity
  8
Defpoints
 62
     0
100
AcDbPoint
 10
46.89438979079477
 20
55.3705776061946
 30
0.0
  0
POINT
  5
16B6
330
161C
100
AcDbEntity
  8
Defpoints
 62
     0
100
AcDbPoint
 10
99.59438979079482
 20
55.3705776061946
 30
0.0
  0
POINT
  5
16B7
330
161C
100
AcDbEntity
  8
Defpoints
 62
     0
100
AcDbPoint
 10
99.59438979079482
 20
43.37057760619456
 30
0.0
  0
ENDBLK
  5
1627
330
161C
100
AcDbEntity
  8
0
100
AcDbBlockEnd
  0
BLOCK
  5
1655
330
164B
100
AcDbEntity
  8
0
100
AcDbBlockBegin
  2
*D35
 70
     1
 10
0.0
 20
0.0
 30
0.0
  3
*D35
  1

  0
LINE
  5
166C
330
164B
100
AcDbEntity
  8
AM_5
100
AcDbLine
 10
40.99438979079479
 20
58.3705776061945
 30
0.0
 11
40.99438979079479
 21
26.99293088524269
 31
0.0
  0
LINE
  5
166D
330
164B
100
AcDbEntity
  8
AM_5
100
AcDbLine
 10
105.4943897907949
 20
58.3705776061945
 30
0.0
 11
105.4943897907949
 21
26.99293088524269
 31
0.0
  0
LINE
  5
166E
330
164B
100
AcDbEntity
  8
AM_5
100
AcDbLine
 10
43.49438979079479
 20
27.99293088524269
 30
0.0
 11
102.9943897907949
 21
27.99293088524269
 31
0.0
  0
SOLID
  5
166F
330
164B
100
AcDbEntity
  8
AM_5
100
AcDbTrace
 10
43.49438979079479
 20
28.40959755190935
 30
0.0
 11
43.49438979079479
 21
27.57626421857602
 31
0.0
 12
40.99438979079479
 22
27.99293088524269
 32
0.0
 13
40.99438979079479
 23
27.99293088524269
 33
0.0
  0
SOLID
  5
1670
330
164B
100
AcDbEntity
  8
AM_5
100
AcDbTrace
 10
102.9943897907949
 20
28.40959755190935
 30
0.0
 11
102.9943897907949
 21
27.57626421857602
 31
0.0
 12
105.4943897907949
 22
27.99293088524269
 32
0.0
 13
105.4943897907949
 23
27.99293088524269
 33
0.0
  0
MTEXT
  5
1671
330
164B
100
AcDbEntity
  8
AM_5
 62
     2
100
AcDbMText
 10
73.24438979079485
 20
31.24293088524269
 30
0.0
 40
3.5
 41
0.0
 71
     5
 72
     1
  1
%%c65
 73
     1
 44
1.0
1001
ACAD
1000
MTEXTBEGIN
1070
    73
1070
     1
1070
    44
1040
1.0
1070
    74
1070
     0
1000
MTEXTEND
  0
POINT
  5
1672
330
164B
100
AcDbEntity
  8
Defpoints
 62
     0
100
AcDbPoint
 10
40.99438979079479
 20
59.3705776061945
 30
0.0
  0
POINT
  5
1673
330
164B
100
AcDbEntity
  8
Defpoints
 62
     0
100
AcDbPoint
 10
105.4943897907949
 20
59.3705776061945
 30
0.0
  0
POINT
  5
1674
330
164B
100
AcDbEntity
  8
Defpoints
 62
     0
100
AcDbPoint
 10
105.4943897907949
 20
27.99293088524269
 30
0.0
  0
ENDBLK
  5
1656
330
164B
100
AcDbEntity
  8
0
100
AcDbBlockEnd
  0
BLOCK
  5
1692
330
1686
100
AcDbEntity
  8
0
100
AcDbBlockBegin
  2
*D36
 70
     1
 10
0.0
 20
0.0
 30
0.0
  3
*D36
  1

  0
LINE
  5
1776
330
1686
100
AcDbEntity
  8
AM_5
100
AcDbLine
 10
100.5943897907948
 20
55.3705776061946
 30
0.0
 11
136.5008220240493
 21
55.37057760619459
 31
0.0
  0
LINE
  5
1777
330
1686
100
AcDbEntity
  8
AM_5
100
AcDbLine
 10
100.5943897907948
 20
57.8705776061945
 30
0.0
 11
136.5008220240493
 21
57.87057760619449
 31
0.0
  0
LINE
  5
1778
330
1686
100
AcDbEntity
  8
AM_5
100
AcDbLine
 10
135.5008220240493
 20
60.37057760619449
 30
0.0
 11
135.5008220240493
 21
62.87057760619449
 31
0.0
  0
LINE
  5
1779
330
1686
100
AcDbEntity
  8
AM_5
100
AcDbLine
 10
135.5008220240493
 20
52.87057760619459
 30
0.0
 11
135.5008220240493
 21
42.2367249066081
 31
0.0
  0
LINE
  5
177A
330
1686
100
AcDbEntity
  8
AM_5
100
AcDbLine
 10
135.5008220240493
 20
57.87057760619449
 30
0.0
 11
135.5008220240493
 21
55.37057760619459
 31
0.0
  0
SOLID
  5
177B
330
1686
100
AcDbEntity
  8
AM_5
100
AcDbTrace
 10
135.0841553573826
 20
60.37057760619449
 30
0.0
 11
135.9174886907159
 21
60.37057760619449
 31
0.0
 12
135.5008220240493
 22
57.87057760619449
 32
0.0
 13
135.5008220240493
 23
57.87057760619449
 33
0.0
  0
SOLID
  5
177C
330
1686
100
AcDbEntity
  8
AM_5
100
AcDbTrace
 10
135.0841553573826
 20
52.87057760619459
 30
0.0
 11
135.9174886907159
 21
52.87057760619459
 31
0.0
 12
135.5008220240493
 22
55.37057760619459
 32
0.0
 13
135.5008220240493
 23
55.37057760619459
 33
0.0
  0
MTEXT
  5
177D
330
1686
100
AcDbEntity
  8
AM_5
 62
     2
100
AcDbMText
 10
132.2504775358603
 20
46.30365125640137
 30
0.0
 40
3.5
 41
0.0
 71
     5
 72
     1
  1
2.5
 11
0.0000000000000001
 21
1.0
 31
0.0
 73
     1
 44
1.0
1001
ACAD
1000
MTEXTBEGIN
1070
    73
1070
     1
1070
    44
1040
1.0
1070
    74
1070
     0
1000
MTEXTEND
  0
POINT
  5
177E
330
1686
100
AcDbEntity
  8
Defpoints
 62
     0
100
AcDbPoint
 10
99.59438979079482
 20
55.3705776061946
 30
0.0
  0
POINT
  5
177F
330
1686
100
AcDbEntity
  8
Defpoints
 62
     0
100
AcDbPoint
 10
99.59438979079482
 20
57.8705776061945
 30
0.0
  0
POINT
  5
1780
330
1686
100
AcDbEntity
  8
Defpoints
 62
     0
100
AcDbPoint
 10
135.5008220240493
 20
57.87057760619449
 30
0.0
  0
ENDBLK
  5
1693
330
1686
100
AcDbEntity
  8
0
100
AcDbBlockEnd
  0
BLOCK
  5
1705
330
16FB
100
AcDbEntity
  8
0
100
AcDbBlockBegin
  2
*D37
 70
     1
 10
0.0
 20
0.0
 30
0.0
  3
*D37
  1

  0
LINE
  5
172B
330
16FB
100
AcDbEntity
  8
AM_5
100
AcDbLine
 10
104.9943897907948
 20
70.87057760619462
 30
0.0
 11
124.8982042192451
 21
70.87057760619462
 31
0.0
  0
LINE
  5
172C
330
16FB
100
AcDbEntity
  8
AM_5
100
AcDbLine
 10
104.9943897907949
 20
57.87057760619449
 30
0.0
 11
124.8982042192451
 21
57.87057760619449
 31
0.0
  0
LINE
  5
172D
330
16FB
100
AcDbEntity
  8
AM_5
100
AcDbLine
 10
123.8982042192451
 20
68.37057760619462
 30
0.0
 11
123.8982042192451
 21
60.37057760619449
 31
0.0
  0
SOLID
  5
172E
330
16FB
100
AcDbEntity
  8
AM_5
100
AcDbTrace
 10
123.4815375525785
 20
68.37057760619462
 30
0.0
 11
124.3148708859118
 21
68.37057760619462
 31
0.0
 12
123.8982042192451
 22
70.87057760619462
 32
0.0
 13
123.8982042192451
 23
70.87057760619462
 33
0.0
  0
SOLID
  5
172F
330
16FB
100
AcDbEntity
  8
AM_5
100
AcDbTrace
 10
123.4815375525785
 20
60.37057760619449
 30
0.0
 11
124.3148708859118
 21
60.37057760619449
 31
0.0
 12
123.8982042192451
 22
57.87057760619449
 32
0.0
 13
123.8982042192451
 23
57.87057760619449
 33
0.0
  0
MTEXT
  5
1730
330
16FB
100
AcDbEntity
  8
AM_5
 62
     2
100
AcDbMText
 10
120.6482042192451
 20
64.37057760619457
 30
0.0
 40
3.5
 41
0.0
 71
     5
 72
     1
  1
13
 11
0.0000000000000001
 21
1.0
 31
0.0
 73
     1
 44
1.0
1001
ACAD
1000
MTEXTBEGIN
1070
    73
1070
     1
1070
    44
1040
1.0
1070
    74
1070
     0
1000
MTEXTEND
  0
POINT
  5
1731
330
16FB
100
AcDbEntity
  8
Defpoints
 62
     0
100
AcDbPoint
 10
103.9943897907948
 20
70.87057760619462
 30
0.0
  0
POINT
  5
1732
330
16FB
100
AcDbEntity
  8
Defpoints
 62
     0
100
AcDbPoint
 10
103.9943897907949
 20
57.87057760619449
 30
0.0
  0
POINT
  5
1733
330
16FB
100
AcDbEntity
  8
Defpoints
 62
     0
100
AcDbPoint
 10
123.8982042192451
 20
57.87057760619449
 30
0.0
  0
ENDBLK
  5
1706
330
16FB
100
AcDbEntity
  8
0
100
AcDbBlockEnd
  0
BLOCK
  5
179B
330
1791
100
AcDbEntity
  8
0
100
AcDbBlockBegin
  2
*D38
 70
     1
 10
0.0
 20
0.0
 30
0.0
  3
*D38
  1

  0
LINE
  5
17B4
330
1791
100
AcDbEntity
  8
AM_5
100
AcDbLine
 10
102.9375946146109
 20
97.07057760619461
 30
0.0
 11
143.4029146513435
 21
97.07057760619461
 31
0.0
  0
LINE
  5
17B5
330
1791
100
AcDbEntity
  8
AM_5
100
AcDbLine
 10
102.0443897907948
 20
70.87057760619462
 30
0.0
 11
143.4029146513435
 21
70.87057760619462
 31
0.0
  0
LINE
  5
17B6
330
1791
100
AcDbEntity
  8
AM_5
100
AcDbLine
 10
142.4029146513435
 20
94.57057760619461
 30
0.0
 11
142.4029146513435
 21
73.37057760619462
 31
0.0
  0
SOLID
  5
17B7
330
1791
100
AcDbEntity
  8
AM_5
100
AcDbTrace
 10
141.9862479846768
 20
94.57057760619461
 30
0.0
 11
142.8195813180102
 21
94.57057760619461
 31
0.0
 12
142.4029146513435
 22
97.07057760619461
 32
0.0
 13
142.4029146513435
 23
97.07057760619461
 33
0.0
  0
SOLID
  5
17B8
330
1791
100
AcDbEntity
  8
AM_5
100
AcDbTrace
 10
141.9862479846768
 20
73.37057760619462
 30
0.0
 11
142.8195813180102
 21
73.37057760619462
 31
0.0
 12
142.4029146513435
 22
70.87057760619462
 32
0.0
 13
142.4029146513435
 23
70.87057760619462
 33
0.0
  0
MTEXT
  5
17B9
330
1791
100
AcDbEntity
  8
AM_5
 62
     2
100
AcDbMText
 10
139.1525701631545
 20
83.97057760619462
 30
0.0
 40
3.5
 41
0.0
 71
     5
 72
     1
  1
26
 11
0.0000000000000001
 21
1.0
 31
0.0
 73
     1
 44
1.0
1001
ACAD
1000
MTEXTBEGIN
1070
    73
1070
     1
1070
    44
1040
1.0
1070
    74
1070
     0
1000
MTEXTEND
  0
POINT
  5
17BA
330
1791
100
AcDbEntity
  8
Defpoints
 62
     0
100
AcDbPoint
 10
101.9375946146109
 20
97.07057760619461
 30
0.0
  0
POINT
  5
17BB
330
1791
100
AcDbEntity
  8
Defpoints
 62
     0
100
AcDbPoint
 10
101.0443897907948
 20
70.87057760619462
 30
0.0
  0
POINT
  5
17BC
330
1791
100
AcDbEntity
  8
Defpoints
 62
     0
100
AcDbPoint
 10
142.4029146513435
 20
70.87057760619462
 30
0.0
  0
ENDBLK
  5
179C
330
1791
100
AcDbEntity
  8
0
100
AcDbBlockEnd
  0
BLOCK
  5
1831
330
1825
100
AcDbEntity
  8
0
100
AcDbBlockBegin
  2
*D39
 70
     1
 10
0.0
 20
0.0
 30
0.0
  3
*D39
  1

  0
LINE
  5
1840
330
1825
100
AcDbEntity
  8
AM_5
100
AcDbLine
 10
104.7443897907948
 20
117.1705776061946
 30
0.0
 11
104.7443897907948
 21
154.2468010901534
 31
0.0
  0
LINE
  5
1841
330
1825
100
AcDbEntity
  8
AM_5
100
AcDbLine
 10
106.2443897907948
 20
117.1705776061946
 30
0.0
 11
106.2443897907948
 21
154.2468010901534
 31
0.0
  0
LINE
  5
1842
330
1825
100
AcDbEntity
  8
AM_5
100
AcDbLine
 10
102.2443897907948
 20
153.2468010901534
 30
0.0
 11
99.74438979079479
 21
153.2468010901534
 31
0.0
  0
LINE
  5
1843
330
1825
100
AcDbEntity
  8
AM_5
100
AcDbLine
 10
108.7443897907948
 20
153.2468010901534
 30
0.0
 11
118.5893645376254
 21
153.2468010901534
 31
0.0
  0
LINE
  5
1844
330
1825
100
AcDbEntity
  8
AM_5
100
AcDbLine
 10
104.7443897907948
 20
153.2468010901534
 30
0.0
 11
106.2443897907948
 21
153.2468010901534
 31
0.0
  0
SOLID
  5
1845
330
1825
100
AcDbEntity
  8
AM_5
100
AcDbTrace
 10
102.2443897907948
 20
153.6634677568201
 30
0.0
 11
102.2443897907948
 21
152.8301344234868
 31
0.0
 12
104.7443897907948
 22
153.2468010901534
 32
0.0
 13
104.7443897907948
 23
153.2468010901534
 33
0.0
  0
SOLID
  5
1846
330
1825
100
AcDbEntity
  8
AM_5
100
AcDbTrace
 10
108.7443897907948
 20
153.6634677568201
 30
0.0
 11
108.7443897907948
 21
152.8301344234868
 31
0.0
 12
106.2443897907948
 22
153.2468010901534
 32
0.0
 13
106.2443897907948
 23
153.2468010901534
 33
0.0
  0
MTEXT
  5
1847
330
1825
100
AcDbEntity
  8
AM_5
 62
     2
100
AcDbMText
 10
114.9168771642101
 20
156.4968010901534
 30
0.0
 40
3.5
 41
0.0
 71
     5
 72
     1
  1
1.5
 73
     1
 44
1.0
1001
ACAD
1000
MTEXTBEGIN
1070
    73
1070
     1
1070
    44
1040
1.0
1070
    74
1070
     0
1000
MTEXTEND
  0
POINT
  5
1848
330
1825
100
AcDbEntity
  8
Defpoints
 62
     0
100
AcDbPoint
 10
104.7443897907948
 20
116.1705776061946
 30
0.0
  0
POINT
  5
1849
330
1825
100
AcDbEntity
  8
Defpoints
 62
     0
100
AcDbPoint
 10
106.2443897907948
 20
116.1705776061946
 30
0.0
  0
POINT
  5
184A
330
1825
100
AcDbEntity
  8
Defpoints
 62
     0
100
AcDbPoint
 10
106.2443897907948
 20
153.2468010901534
 30
0.0
  0
ENDBLK
  5
1832
330
1825
100
AcDbEntity
  8
0
100
AcDbBlockEnd
  0
ENDSEC
  0
SECTION
  2
ENTITIES
  0
LINE
  5
420
330
1F
100
AcDbEntity
  8
0
 62
     0
100
AcDbLine
 10
38.94438979079473
 20
120.6705776061945
 30
0.0
 11
107.5443897907948
 21
120.6705776061945
 31
0.0
  0
LINE
  5
421
102
{ACAD_REACTORS
330
46E
330
471
102
}
330
1F
100
AcDbEntity
  8
0
 62
     0
100
AcDbLine
 10
38.94438979079473
 20
120.6705776061945
 30
0.0
 11
38.94438979079473
 21
116.1705776061946
 31
0.0
  0
LINE
  5
422
102
{ACAD_REACTORS
330
47A
102
}
330
1F
100
AcDbEntity
  8
0
 62
     0
100
AcDbLine
 10
38.94438979079473
 20
116.1705776061946
 30
0.0
 11
107.5443897907948
 21
116.1705776061946
 31
0.0
  0
LINE
  5
423
102
{ACAD_REACTORS
330
46E
102
}
330
1F
100
AcDbEntity
  8
0
 62
     0
100
AcDbLine
 10
107.5443897907948
 20
116.1705776061946
 30
0.0
 11
107.5443897907948
 21
120.6705776061945
 31
0.0
  0
LINE
  5
424
102
{ACAD_REACTORS
330
47A
102
}
330
1F
100
AcDbEntity
  8
0
 62
     0
100
AcDbLine
 10
41.7443897907948
 20
116.1705776061946
 30
0.0
 11
41.74438979079468
 21
99.57057760619466
 31
0.0
  0
LINE
  5
425
102
{ACAD_REACTORS
330
1834
102
}
330
1F
100
AcDbEntity
  8
0
 62
     0
100
AcDbLine
 10
104.7443897907948
 20
116.1705776061946
 30
0.0
 11
104.7443897907948
 21
99.57057760619461
 31
0.0
  0
LINE
  5
426
330
1F
100
AcDbEntity
  8
0
 62
     0
100
AcDbLine
 10
102.2443897907948
 20
97.07057760619461
 30
0.0
 11
44.24438979079468
 21
97.07057760619466
 31
0.0
  0
LINE
  5
427
330
1F
100
AcDbEntity
  8
0
 62
     0
100
AcDbLine
 10
74.28253121008992
 20
116.1705776061946
 30
0.0
 11
72.20624837149978
 21
116.1705776061946
 31
0.0
  0
LINE
  5
428
330
1F
100
AcDbEntity
  8
0
 62
     0
100
AcDbLine
 10
72.20624837149978
 20
97.07057760619461
 30
0.0
 11
74.28253121008992
 21
97.07057760619461
 31
0.0
  0
LINE
  5
429
102
{ACAD_REACTORS
330
477
102
}
330
1F
100
AcDbEntity
  8
0
 62
     0
100
AcDbLine
 10
86.89438979079477
 20
116.1705776061947
 30
0.0
 11
86.89438979079472
 21
98.57057760619472
 31
0.0
  0
LINE
  5
42A
330
1F
100
AcDbEntity
  8
0
 62
     0
100
AcDbLine
 10
45.44438979079484
 20
96.07629656426343
 30
0.0
 11
45.44438979079484
 21
70.87057760619444
 31
0.0
  0
LINE
  5
42B
330
1F
100
AcDbEntity
  8
0
 62
     0
100
AcDbLine
 10
101.0443897907948
 20
96.07629656426338
 30
0.0
 11
101.0443897907948
 21
70.87057760619462
 31
0.0
  0
LINE
  5
42C
330
1F
100
AcDbEntity
  8
0
 62
     0
100
AcDbLine
 10
101.0443897907948
 20
70.87057760619462
 30
0.0
 11
45.44438979079484
 21
70.87057760619444
 31
0.0
  0
LINE
  5
42D
330
1F
100
AcDbEntity
  8
0
 62
     0
100
AcDbLine
 10
45.44438979079484
 20
70.8705776061945
 30
0.0
 11
42.4943897907948
 21
70.8705776061945
 31
0.0
  0
LINE
  5
42E
330
1F
100
AcDbEntity
  8
0
 62
     0
100
AcDbLine
 10
40.99438979079479
 20
69.37057760619456
 30
0.0
 11
40.99438979079479
 21
59.3705776061945
 31
0.0
  0
LINE
  5
42F
102
{ACAD_REACTORS
330
1708
102
}
330
1F
100
AcDbEntity
  8
0
 62
     0
100
AcDbLine
 10
42.4943897907948
 20
57.8705776061945
 30
0.0
 11
103.9943897907949
 21
57.8705776061945
 31
0.0
  0
LINE
  5
430
330
1F
100
AcDbEntity
  8
0
 62
     0
100
AcDbLine
 10
105.4943897907949
 20
59.3705776061945
 30
0.0
 11
105.4943897907949
 21
69.3705776061945
 31
0.0
  0
LINE
  5
431
102
{ACAD_REACTORS
330
1708
330
179E
102
}
330
1F
100
AcDbEntity
  8
0
 62
     0
100
AcDbLine
 10
103.9943897907949
 20
70.87057760619462
 30
0.0
 11
101.0443897907948
 21
70.87057760619462
 31
0.0
  0
LINE
  5
432
330
1F
100
AcDbEntity
  8
0
 62
     0
100
AcDbLine
 10
46.89438979079477
 20
57.8705776061945
 30
0.0
 11
46.89438979079477
 21
55.3705776061946
 31
0.0
  0
LINE
  5
433
102
{ACAD_REACTORS
330
471
102
}
330
1F
100
AcDbEntity
  8
0
 62
     0
100
AcDbLine
 10
46.89438979079477
 20
55.3705776061946
 30
0.0
 11
99.59438979079482
 21
55.3705776061946
 31
0.0
  0
LINE
  5
434
102
{ACAD_REACTORS
330
1629
330
1695
102
}
330
1F
100
AcDbEntity
  8
0
 62
     0
100
AcDbLine
 10
99.59438979079482
 20
55.3705776061946
 30
0.0
 11
99.59438979079482
 21
57.8705776061945
 31
0.0
  0
LINE
  5
438
330
1F
100
AcDbEntity
  8
0
 62
     0
100
AcDbLine
 10
40.7443897907948
 20
204.8377130031233
 30
0.0
 11
40.7443897907948
 21
201.3377130031233
 31
0.0
  0
LINE
  5
439
102
{ACAD_REACTORS
330
14D4
330
1546
102
}
330
1F
100
AcDbEntity
  8
0
 62
     0
100
AcDbLine
 10
40.7443897907948
 20
201.3377130031233
 30
0.0
 11
105.7443897907947
 21
201.3377130031233
 31
0.0
  0
LINE
  5
43A
330
1F
100
AcDbEntity
  8
0
 62
     0
100
AcDbLine
 10
105.7443897907947
 20
201.3377130031233
 30
0.0
 11
105.7443897907948
 21
204.8377130031233
 31
0.0
  0
LINE
  5
43B
102
{ACAD_REACTORS
330
146D
330
14A0
102
}
330
1F
100
AcDbEntity
  8
0
 62
     0
100
AcDbLine
 10
105.7443897907948
 20
204.8377130031233
 30
0.0
 11
40.7443897907948
 21
204.8377130031233
 31
0.0
  0
LINE
  5
43C
330
1F
100
AcDbEntity
  8
0
 62
     0
100
AcDbLine
 10
44.29438979079474
 20
201.3377130031233
 30
0.0
 11
44.29438979079475
 21
178.8377130031233
 31
0.0
  0
LINE
  5
43D
102
{ACAD_REACTORS
330
483
102
}
330
1F
100
AcDbEntity
  8
0
 62
     0
100
AcDbLine
 10
44.29438979079475
 20
178.8377130031233
 30
0.0
 11
102.1943897907948
 21
178.8377130031233
 31
0.0
  0
LINE
  5
43E
102
{ACAD_REACTORS
330
483
330
14A0
330
14D4
102
}
330
1F
100
AcDbEntity
  8
0
 62
     0
100
AcDbLine
 10
102.1943897907948
 20
178.8377130031233
 30
0.0
 11
102.1943897907948
 21
201.3377130031233
 31
0.0
  0
LINE
  5
43F
330
1F
100
AcDbEntity
  8
0
 62
     0
100
AcDbLine
 10
45.59438979079481
 20
201.3377130031233
 30
0.0
 11
45.59438979079482
 21
178.8377130031233
 31
0.0
  0
LINE
  5
440
330
1F
100
AcDbEntity
  8
0
 62
     0
100
AcDbLine
 10
100.8943897907947
 20
201.3377130031233
 30
0.0
 11
100.8943897907947
 21
178.8377130031233
 31
0.0
  0
LINE
  5
443
330
1F
100
AcDbEntity
  8
AM_7
100
AcDbLine
 10
73.2443897907948
 20
208.5191628339196
 30
0.0
 11
73.2443897907948
 21
174.3006552499341
 31
0.0
1001
GENIUS_GENOBJ-N-CEN_13
1002
{
1000
OWNER
1000
GEN
1002
}
1001
GENIUS_GENODEF_13
1002
{
1000
HIER
1070
     0
1002
}
1002
{
1000
MANEDIT
1070
     0
1002
}
1002
{
1000
NOSEL
1070
     0
1002
}
1002
{
1000
BEHIND
1070
     0
1002
}
1002
{
1000
OTHER
1070
     0
1002
}
1002
{
1000
REACTOR
1002
}
1001
GENIUS_GENCEN_19
1002
{
1040
0.11
1002
}
  0
LINE
  5
444
330
1F
100
AcDbEntity
  8
0
 62
     0
100
AcDbLine
 10
50.5567023421355
 20
97.07057760619461
 30
0.0
 11
52.63298518072554
 21
97.07057760619461
 31
0.0
  0
LINE
  5
44F
330
1F
100
AcDbEntity
  8
0
 62
     0
100
AcDbLine
 10
54.39438979079477
 20
116.1705776061946
 30
0.0
 11
54.39438979079477
 21
98.57057760619467
 31
0.0
  0
LINE
  5
450
330
1F
100
AcDbEntity
  8
0
 62
     0
100
AcDbLine
 10
59.59438979079482
 20
98.57057760619467
 30
0.0
 11
59.59438979079482
 21
116.1705776061947
 31
0.0
  0
LINE
  5
451
330
1F
100
AcDbEntity
  8
0
 62
     0
100
AcDbLine
 10
92.09438979079482
 20
98.57057760619472
 30
0.0
 11
92.09438979079482
 21
116.1705776061947
 31
0.0
  0
LINE
  5
452
102
{ACAD_REACTORS
330
47A
102
}
330
1F
100
AcDbEntity
  8
0
 62
     0
100
AcDbLine
 10
40.24438979079479
 20
116.1705776061946
 30
0.0
 11
40.24438979079469
 21
99.57057760619466
 31
0.0
  0
LINE
  5
453
102
{ACAD_REACTORS
330
1834
102
}
330
1F
100
AcDbEntity
  8
0
 62
     0
100
AcDbLine
 10
106.2443897907948
 20
116.1705776061946
 30
0.0
 11
106.2443897907947
 21
99.57057760619466
 31
0.0
  0
LINE
  5
454
330
1F
100
AcDbEntity
  8
0
 62
     0
100
AcDbLine
 10
44.24438979079468
 20
97.07057760619461
 30
0.0
 11
102.2443897907948
 21
97.07057760619472
 31
0.0
  0
ARC
  5
455
102
{ACAD_REACTORS
330
468
102
}
330
1F
100
AcDbEntity
  8
0
 62
     0
100
AcDbCircle
 10
103.7443897907946
 20
99.57057760619466
 30
0.0
 40
2.5
100
AcDbArc
 50
252.5423968762809
 51
0.0
  0
ARC
  5
456
330
1F
100
AcDbEntity
  8
0
 62
     0
100
AcDbCircle
 10
102.2443897907948
 20
99.57057760619461
 30
0.0
 40
2.5
100
AcDbArc
 50
270.0
 51
0.0
  0
ARC
  5
457
330
1F
100
AcDbEntity
  8
0
 62
     0
100
AcDbCircle
 10
44.24438979079468
 20
99.57057760619466
 30
0.0
 40
2.5
100
AcDbArc
 50
180.0
 51
270.0
  0
ARC
  5
458
330
1F
100
AcDbEntity
  8
0
 62
     0
100
AcDbCircle
 10
42.74438979079469
 20
99.57057760619466
 30
0.0
 40
2.5
100
AcDbArc
 50
180.0
 51
287.4576031237191
  0
ARC
  5
459
330
1F
100
AcDbEntity
  8
0
 62
     0
100
AcDbCircle
 10
42.4943897907948
 20
69.37057760619456
 30
0.0
 40
1.5
100
AcDbArc
 50
90.0
 51
180.0
  0
ARC
  5
45A
102
{ACAD_REACTORS
330
1658
102
}
330
1F
100
AcDbEntity
  8
0
 62
     0
100
AcDbCircle
 10
42.4943897907948
 20
59.3705776061945
 30
0.0
 40
1.5
100
AcDbArc
 50
180.0
 51
270.0
  0
ARC
  5
45B
102
{ACAD_REACTORS
330
465
330
1708
102
}
330
1F
100
AcDbEntity
  8
0
 62
     0
100
AcDbCircle
 10
103.9943897907948
 20
69.3705776061945
 30
0.0
 40
1.5
100
AcDbArc
 50
0.0
 51
90.0
  0
ARC
  5
45C
102
{ACAD_REACTORS
330
1658
330
1708
102
}
330
1F
100
AcDbEntity
  8
0
 62
     0
100
AcDbCircle
 10
103.9943897907949
 20
59.3705776061945
 30
0.0
 40
1.5
100
AcDbArc
 50
270.0
 51
0.0
  0
ARC
  5
45D
102
{ACAD_REACTORS
330
46B
330
179E
102
}
330
1F
100
AcDbEntity
  8
0
 62
     0
100
AcDbCircle
 10
102.0443897907948
 20
96.07629656426338
 30
0.0
 40
1.0
100
AcDbArc
 50
96.13060421905059
 51
180.0
  0
ARC
  5
45E
330
1F
100
AcDbEntity
  8
0
 62
     0
100
AcDbCircle
 10
44.44438979079484
 20
96.07629656426343
 30
0.0
 40
1.0
100
AcDbArc
 50
0.0
 51
83.86939578094942
  0
ARC
  5
45F
102
{ACAD_REACTORS
330
474
330
477
102
}
330
1F
100
AcDbEntity
  8
0
 62
     0
100
AcDbCircle
 10
58.09438979079485
 20
98.57057760619467
 30
0.0
 40
1.5
100
AcDbArc
 50
270.0
 51
0.0
  0
ARC
  5
460
102
{ACAD_REACTORS
330
474
102
}
330
1F
100
AcDbEntity
  8
0
 62
     0
100
AcDbCircle
 10
55.89438979079478
 20
98.57057760619467
 30
0.0
 40
1.5
100
AcDbArc
 50
180.0
 51
270.0
  0
ARC
  5
461
330
1F
100
AcDbEntity
  8
0
 62
     0
100
AcDbCircle
 10
90.59438979079487
 20
98.57057760619472
 30
0.0
 40
1.5
100
AcDbArc
 50
270.0
 51
0.0
  0
ARC
  5
462
102
{ACAD_REACTORS
330
477
102
}
330
1F
100
AcDbEntity
  8
0
 62
     0
100
AcDbCircle
 10
88.39438979079478
 20
98.57057760619472
 30
0.0
 40
1.5
100
AcDbArc
 50
180.0
 51
270.0
  0
DIMENSION
  5
463
102
{ACAD_XDICTIONARY
360
464
102
}
102
{ACAD_REACTORS
330
465
102
}
330
1F
100
AcDbEntity
  8
AM_5
100
AcDbDimension
  2
*D5
 10
103.9943897907948
 20
69.37057760619449
 30
0.0
 11
116.067966348916
 21
74.37161676291828
 31
0.0
 70
   164
 71
     5
 42
1.5
  3
AM_DIN$4
100
AcDbRadialDimension
 15
105.3802090895617
 25
69.94460275474214
 35
0.0
 40
0.0
1001
ACAD
1000
DSTYLE
1002
{
1070
    74
1070
     0
1070
   172
1070
     1
1070
   288
1070
     0
1070
   289
1070
     3
1002
}
  0
DIMENSION
  5
466
102
{ACAD_XDICTIONARY
360
467
102
}
102
{ACAD_REACTORS
330
468
102
}
330
1F
100
AcDbEntity
  8
AM_5
100
AcDbDimension
  2
*D6
 10
103.7443897907946
 20
99.5705776061947
 30
0.0
 11
131.7563528481903
 21
98.21064319315901
 31
0.0
 70
   164
 71
     5
 42
2.500000000000014
  3
AM_DIN$4
100
AcDbRadialDimension
 15
106.2414488114551
 25
99.44934952636968
 35
0.0
 40
0.0
1001
ACAD
1000
DSTYLE
1002
{
1070
    74
1070
     0
1070
   172
1070
     1
1070
   288
1070
     0
1070
   289
1070
     3
1002
}
  0
DIMENSION
  5
469
102
{ACAD_XDICTIONARY
360
46A
102
}
102
{ACAD_REACTORS
330
46B
102
}
330
1F
100
AcDbEntity
  8
AM_5
100
AcDbDimension
  2
*D7
 10
102.0443897907948
 20
96.07629656426338
 30
0.0
 11
122.8971262020543
 21
87.93721198936024
 31
0.0
 70
   164
 71
     5
 42
0.9999999999994741
  3
AM_DIN$4
100
AcDbRadialDimension
 15
101.1128338282179
 25
96.43989454086154
 35
0.0
 40
0.0
1001
ACAD
1000
DSTYLE
1002
{
1070
    74
1070
     0
1070
   172
1070
     1
1070
   288
1070
     0
1070
   289
1070
     3
1002
}
  0
DIMENSION
  5
46C
102
{ACAD_XDICTIONARY
360
46D
102
}
102
{ACAD_REACTORS
330
46E
102
}
330
1F
100
AcDbEntity
  8
AM_5
100
AcDbDimension
  2
*D8
 10
107.5443897907948
 20
134.0046264239055
 30
0.0
 11
73.2443897907948
 21
137.2546264239055
 31
0.0
 70
    32
  1
%%c<>
 71
     5
 42
68.60000000000013
  3
AM_DIN$0
100
AcDbAlignedDimension
 13
38.94438979079473
 23
120.6705776061945
 33
0.0
 14
107.5443897907948
 24
120.6705776061945
 34
0.0
100
AcDbRotatedDimension
1001
ACAD
1000
DSTYLE
1002
{
1070
   271
1070
     0
1002
}
  0
DIMENSION
  5
46F
102
{ACAD_XDICTIONARY
360
470
102
}
102
{ACAD_REACTORS
330
471
102
}
330
1F
100
AcDbEntity
  8
AM_5
100
AcDbDimension
  2
*D9
 10
21.58234992388521
 20
55.3705776061946
 30
0.0
 11
21.5823499238852
 21
87.93639376639356
 31
0.0
 70
   160
 71
     5
 42
65.29999999999998
  3
AM_DIN$0
100
AcDbAlignedDimension
 13
38.94438979079473
 23
120.6705776061945
 33
0.0
 14
46.89438979079477
 24
55.3705776061946
 34
0.0
 50
90.0
100
AcDbRotatedDimension
1001
ACAD
1000
DSTYLE
1002
{
1070
   271
1070
     0
1002
}
  0
DIMENSION
  5
472
102
{ACAD_XDICTIONARY
360
473
102
}
102
{ACAD_REACTORS
330
474
102
}
330
1F
100
AcDbEntity
  8
AM_5
100
AcDbDimension
  2
*D10
 10
59.59438979079485
 20
88.31579683279835
 30
0.0
 11
56.99438979079481
 21
91.56579683279835
 31
0.0
 70
    32
 71
     5
 42
5.200000000000073
  3
AM_DIN$0
100
AcDbAlignedDimension
 13
54.39438979079477
 23
98.57057760619467
 33
0.0
 14
59.59438979079485
 24
98.57057760619467
 34
0.0
100
AcDbRotatedDimension
1001
ACAD
1000
DSTYLE
1002
{
1070
   271
1070
     0
1002
}
  0
DIMENSION
  5
475
102
{ACAD_XDICTIONARY
360
476
102
}
102
{ACAD_REACTORS
330
477
102
}
330
1F
100
AcDbEntity
  8
AM_5
100
AcDbDimension
  2
*D11
 10
86.89438979079467
 20
88.31579683279835
 30
0.0
 11
73.24438979079475
 21
91.56614132098733
 31
0.0
 70
    32
 71
     5
 42
27.29999999999981
  3
AM_DIN$0
100
AcDbAlignedDimension
 13
59.59438979079485
 23
98.57057760619467
 33
0.0
 14
86.89438979079467
 24
98.57057760619472
 34
0.0
100
AcDbRotatedDimension
1001
ACAD
1000
DSTYLE
1002
{
1070
   271
1070
     0
1002
}
  0
DIMENSION
  5
478
102
{ACAD_XDICTIONARY
360
479
102
}
102
{ACAD_REACTORS
330
47A
102
}
330
1F
100
AcDbEntity
  8
AM_5
100
AcDbDimension
  2
*D12
 10
41.7443897907948
 20
84.46390585109805
 30
0.0
 11
32.89484746796015
 21
84.46390585109805
 31
0.0
 70
   160
 71
     5
 42
1.5
  3
AM_DIN$0
100
AcDbAlignedDimension
 13
40.24438979079479
 23
116.1705776061946
 33
0.0
 14
41.7443897907948
 24
116.1705776061946
 34
0.0
100
AcDbRotatedDimension
1001
ACAD
1000
DSTYLE
1002
{
1070
   271
1070
     0
1002
}
  0
DIMENSION
  5
481
102
{ACAD_XDICTIONARY
360
482
102
}
102
{ACAD_REACTORS
330
483
102
}
330
1F
100
AcDbEntity
  8
AM_5
100
AcDbDimension
  2
*D13
 10
44.29438979079475
 20
166.7236219809825
 30
0.0
 11
73.18675721624845
 21
166.7236219809825
 31
0.0
 70
   160
  1
%%c<>
 71
     5
 42
57.90000000000009
  3
AM_DIN$0
100
AcDbAlignedDimension
 13
102.1943897907948
 23
178.8377130031233
 33
0.0
 14
44.29438979079475
 24
178.8377130031233
 34
0.0
100
AcDbRotatedDimension
1001
ACAD
1000
DSTYLE
1002
{
1070
   271
1070
     0
1002
}
  0
LINE
  5
48A
330
1F
100
AcDbEntity
  8
0
 62
     0
100
AcDbLine
 10
299.6918626069225
 20
152.9739958957963
 30
0.0
 11
299.6918626069225
 21
221.5739958957964
 31
0.0
  0
LINE
  5
48B
330
1F
100
AcDbEntity
  8
0
 62
     0
100
AcDbLine
 10
299.6918626069225
 20
152.9739958957963
 30
0.0
 11
304.1918626069226
 21
152.9739958957963
 31
0.0
  0
LINE
  5
48C
330
1F
100
AcDbEntity
  8
0
 62
     0
100
AcDbLine
 10
304.1918626069226
 20
152.9739958957963
 30
0.0
 11
304.1918626069226
 21
221.5739958957964
 31
0.0
  0
LINE
  5
48D
330
1F
100
AcDbEntity
  8
0
 62
     0
100
AcDbLine
 10
304.1918626069226
 20
221.5739958957964
 30
0.0
 11
299.6918626069225
 21
221.5739958957964
 31
0.0
  0
LINE
  5
48E
330
1F
100
AcDbEntity
  8
0
 62
     0
100
AcDbLine
 10
304.1918626069226
 20
155.7739958957963
 30
0.0
 11
320.7918626069225
 21
155.7739958957962
 31
0.0
  0
LINE
  5
48F
330
1F
100
AcDbEntity
  8
0
 62
     0
100
AcDbLine
 10
304.1918626069226
 20
218.7739958957964
 30
0.0
 11
320.7918626069226
 21
218.7739958957964
 31
0.0
  0
LINE
  5
490
330
1F
100
AcDbEntity
  8
0
 62
     0
100
AcDbLine
 10
323.2918626069225
 20
216.2739958957963
 30
0.0
 11
323.2918626069225
 21
158.2739958957962
 31
0.0
  0
LINE
  5
491
330
1F
100
AcDbEntity
  8
0
 62
     0
100
AcDbLine
 10
304.1918626069226
 20
188.3121373150915
 30
0.0
 11
304.1918626069226
 21
186.2358544765013
 31
0.0
  0
LINE
  5
492
330
1F
100
AcDbEntity
  8
0
 62
     0
100
AcDbLine
 10
323.2918626069225
 20
186.2358544765013
 30
0.0
 11
323.2918626069225
 21
188.3121373150915
 31
0.0
  0
LINE
  5
493
330
1F
100
AcDbEntity
  8
0
 62
     0
100
AcDbLine
 10
304.1918626069224
 20
200.9239958957963
 30
0.0
 11
321.7918626069224
 21
200.9239958957963
 31
0.0
  0
LINE
  5
494
330
1F
100
AcDbEntity
  8
0
 62
     0
100
AcDbLine
 10
324.2861436488537
 20
159.4739958957964
 30
0.0
 11
349.4918626069227
 21
159.4739958957964
 31
0.0
  0
LINE
  5
495
330
1F
100
AcDbEntity
  8
0
 62
     0
100
AcDbLine
 10
324.2861436488538
 20
215.0739958957964
 30
0.0
 11
349.4918626069225
 21
215.0739958957964
 31
0.0
  0
LINE
  5
496
330
1F
100
AcDbEntity
  8
0
 62
     0
100
AcDbLine
 10
349.4918626069225
 20
215.0739958957964
 30
0.0
 11
349.4918626069227
 21
159.4739958957964
 31
0.0
  0
LINE
  5
497
330
1F
100
AcDbEntity
  8
0
 62
     0
100
AcDbLine
 10
349.4918626069226
 20
159.4739958957964
 30
0.0
 11
349.4918626069226
 21
156.5239958957963
 31
0.0
  0
LINE
  5
498
330
1F
100
AcDbEntity
  8
0
 62
     0
100
AcDbLine
 10
350.9918626069226
 20
155.0239958957963
 30
0.0
 11
360.9918626069226
 21
155.0239958957963
 31
0.0
  0
LINE
  5
499
330
1F
100
AcDbEntity
  8
0
 62
     0
100
AcDbLine
 10
362.4918626069226
 20
156.5239958957963
 30
0.0
 11
362.4918626069226
 21
218.0239958957965
 31
0.0
  0
LINE
  5
49A
330
1F
100
AcDbEntity
  8
0
 62
     0
100
AcDbLine
 10
360.9918626069226
 20
219.5239958957965
 30
0.0
 11
350.9918626069226
 21
219.5239958957965
 31
0.0
  0
LINE
  5
49B
330
1F
100
AcDbEntity
  8
0
 62
     0
100
AcDbLine
 10
349.4918626069225
 20
218.0239958957965
 30
0.0
 11
349.4918626069225
 21
215.0739958957964
 31
0.0
  0
LINE
  5
49C
330
1F
100
AcDbEntity
  8
0
 62
     0
100
AcDbLine
 10
362.4918626069226
 20
160.9239958957963
 30
0.0
 11
364.9918626069226
 21
160.9239958957963
 31
0.0
  0
LINE
  5
49D
330
1F
100
AcDbEntity
  8
0
 62
     0
100
AcDbLine
 10
364.9918626069226
 20
160.9239958957963
 30
0.0
 11
364.9918626069226
 21
213.6239958957964
 31
0.0
  0
LINE
  5
49E
330
1F
100
AcDbEntity
  8
0
 62
     0
100
AcDbLine
 10
364.9918626069226
 20
213.6239958957964
 30
0.0
 11
362.4918626069226
 21
213.6239958957964
 31
0.0
  0
LINE
  5
49F
330
1F
100
AcDbEntity
  8
0
 62
     0
100
AcDbLine
 10
323.2918626069225
 20
164.586308447137
 30
0.0
 11
323.2918626069225
 21
166.6625912857271
 31
0.0
  0
LINE
  5
4A0
330
1F
100
AcDbEntity
  8
0
 62
     0
100
AcDbLine
 10
304.1918626069226
 20
168.4239958957963
 30
0.0
 11
321.7918626069224
 21
168.4239958957963
 31
0.0
  0
LINE
  5
4A1
330
1F
100
AcDbEntity
  8
0
 62
     0
100
AcDbLine
 10
321.7918626069224
 20
173.6239958957964
 30
0.0
 11
304.1918626069224
 21
173.6239958957964
 31
0.0
  0
LINE
  5
4A2
330
1F
100
AcDbEntity
  8
0
 62
     0
100
AcDbLine
 10
321.7918626069224
 20
206.1239958957964
 30
0.0
 11
304.1918626069224
 21
206.1239958957964
 31
0.0
  0
LINE
  5
4A3
330
1F
100
AcDbEntity
  8
0
 62
     0
100
AcDbLine
 10
304.1918626069226
 20
154.2739958957963
 30
0.0
 11
320.7918626069225
 21
154.2739958957962
 31
0.0
  0
LINE
  5
4A4
330
1F
100
AcDbEntity
  8
0
 62
     0
100
AcDbLine
 10
304.1918626069226
 20
220.2739958957963
 30
0.0
 11
320.7918626069225
 21
220.2739958957963
 31
0.0
  0
ARC
  5
4A5
330
1F
100
AcDbEntity
  8
0
 62
     0
100
AcDbCircle
 10
320.7918626069225
 20
217.7739958957963
 30
0.0
 40
2.5
100
AcDbArc
 50
342.5423968762799
 51
90.0
  0
ARC
  5
4A6
330
1F
100
AcDbEntity
  8
0
 62
     0
100
AcDbCircle
 10
320.7918626069226
 20
216.2739958957963
 30
0.0
 40
2.5
100
AcDbArc
 50
0.0
 51
90.0
  0
ARC
  5
4A7
330
1F
100
AcDbEntity
  8
0
 62
     0
100
AcDbCircle
 10
320.7918626069225
 20
158.2739958957962
 30
0.0
 40
2.5
100
AcDbArc
 50
270.0
 51
0.0
  0
ARC
  5
4A8
330
1F
100
AcDbEntity
  8
0
 62
     0
100
AcDbCircle
 10
320.7918626069225
 20
156.7739958957962
 30
0.0
 40
2.5
100
AcDbArc
 50
270.0
 51
17.4576031237201
  0
ARC
  5
4A9
330
1F
100
AcDbEntity
  8
0
 62
     0
100
AcDbCircle
 10
350.9918626069226
 20
156.5239958957963
 30
0.0
 40
1.5
100
AcDbArc
 50
180.0
 51
270.0
  0
ARC
  5
4AA
330
1F
100
AcDbEntity
  8
0
 62
     0
100
AcDbCircle
 10
360.9918626069226
 20
156.5239958957963
 30
0.0
 40
1.5
100
AcDbArc
 50
270.0
 51
0.0
  0
ARC
  5
4AB
330
1F
100
AcDbEntity
  8
0
 62
     0
100
AcDbCircle
 10
350.9918626069226
 20
218.0239958957963
 30
0.0
 40
1.5
100
AcDbArc
 50
90.0
 51
180.0
  0
ARC
  5
4AC
330
1F
100
AcDbEntity
  8
0
 62
     0
100
AcDbCircle
 10
360.9918626069226
 20
218.0239958957965
 30
0.0
 40
1.5
100
AcDbArc
 50
0.0
 51
90.0
  0
ARC
  5
4AD
330
1F
100
AcDbEntity
  8
0
 62
     0
100
AcDbCircle
 10
324.2861436488538
 20
216.0739958957965
 30
0.0
 40
1.0
100
AcDbArc
 50
186.1306042190506
 51
270.0
  0
ARC
  5
4AE
330
1F
100
AcDbEntity
  8
0
 62
     0
100
AcDbCircle
 10
324.2861436488537
 20
158.4739958957964
 30
0.0
 40
1.0
100
AcDbArc
 50
90.0
 51
173.8693957809494
  0
ARC
  5
4AF
330
1F
100
AcDbEntity
  8
0
 62
     0
100
AcDbCircle
 10
321.7918626069224
 20
172.1239958957964
 30
0.0
 40
1.5
100
AcDbArc
 50
0.0
 51
90.0
  0
ARC
  5
4B0
330
1F
100
AcDbEntity
  8
0
 62
     0
100
AcDbCircle
 10
321.7918626069224
 20
169.9239958957963
 30
0.0
 40
1.5
100
AcDbArc
 50
270.0
 51
0.0
  0
ARC
  5
4B1
330
1F
100
AcDbEntity
  8
0
 62
     0
100
AcDbCircle
 10
321.7918626069224
 20
204.6239958957964
 30
0.0
 40
1.5
100
AcDbArc
 50
0.0
 51
90.0
  0
ARC
  5
4B2
330
1F
100
AcDbEntity
  8
0
 62
     0
100
AcDbCircle
 10
321.7918626069224
 20
202.4239958957963
 30
0.0
 40
1.5
100
AcDbArc
 50
270.0
 51
0.0
  0
LINE
  5
4B3
330
1F
100
AcDbEntity
  8
0
 62
     0
100
AcDbLine
 10
282.5911702269713
 20
154.7739958957963
 30
0.0
 11
286.0911702269713
 21
154.7739958957963
 31
0.0
  0
LINE
  5
4B4
330
1F
100
AcDbEntity
  8
0
 62
     0
100
AcDbLine
 10
292.8155259367509
 20
154.3239958957964
 30
0.0
 11
292.8155259367509
 21
220.2239958957963
 31
0.0
  0
LINE
  5
4B5
330
1F
100
AcDbEntity
  8
0
 62
     0
100
AcDbLine
 10
286.0911702269714
 20
219.7739958957963
 30
0.0
 11
282.5911702269713
 21
219.7739958957964
 31
0.0
  0
LINE
  5
4B6
330
1F
100
AcDbEntity
  8
0
 62
     0
100
AcDbLine
 10
282.5911702269713
 20
219.7739958957964
 30
0.0
 11
282.5911702269713
 21
154.7739958957963
 31
0.0
  0
LINE
  5
4B7
330
1F
100
AcDbEntity
  8
0
 62
     0
100
AcDbLine
 10
286.0911702269713
 20
159.6239958957964
 30
0.0
 11
292.8155259367508
 21
159.6239958957964
 31
0.0
  0
LINE
  5
4B8
330
1F
100
AcDbEntity
  8
0
 62
     0
100
AcDbLine
 10
286.0911702269714
 20
214.9239958957963
 30
0.0
 11
292.8155259367509
 21
214.9239958957963
 31
0.0
  0
LINE
  5
4B9
330
1F
100
AcDbEntity
  8
0
 62
     0
100
AcDbLine
 10
292.8155259367509
 20
220.2239958957963
 30
0.0
 11
295.8155259367509
 21
220.2239958957963
 31
0.0
  0
LINE
  5
4BA
330
1F
100
AcDbEntity
  8
0
 62
     0
100
AcDbLine
 10
295.8155259367509
 20
220.2239958957963
 30
0.0
 11
295.8155259367509
 21
154.3239958957964
 31
0.0
  0
LINE
  5
4BB
330
1F
100
AcDbEntity
  8
0
 62
     0
100
AcDbLine
 10
295.8155259367509
 20
154.3239958957964
 30
0.0
 11
292.8155259367509
 21
154.3239958957964
 31
0.0
  0
LINE
  5
4BC
330
1F
100
AcDbEntity
  8
0
 62
     0
100
AcDbLine
 10
282.5911702269713
 20
175.7739958957963
 30
0.0
 11
286.0911702269713
 21
175.7739958957963
 31
0.0
  0
LINE
  5
4BD
330
1F
100
AcDbEntity
  8
0
 62
     0
100
AcDbLine
 10
282.5911702269713
 20
198.7739958957963
 30
0.0
 11
286.0911702269713
 21
198.7739958957963
 31
0.0
  0
LINE
  5
1321
330
1F
100
AcDbEntity
  8
0
 62
     0
100
AcDbLine
 10
286.0911702269714
 20
216.4239958957963
 30
0.0
 11
292.8155259367509
 21
216.4239958957963
 31
0.0
  0
LINE
  5
1322
330
1F
100
AcDbEntity
  8
0
 62
     0
100
AcDbLine
 10
286.0911702269713
 20
158.1239958957963
 30
0.0
 11
292.8155259367508
 21
158.1239958957963
 31
0.0
  0
LINE
  5
132F
330
1F
100
AcDbEntity
  8
AM_7
100
AcDbLine
 10
279.5911702269712
 20
187.2739958957963
 30
0.0
 11
371.0141423393539
 21
187.2739958957963
 31
0.0
1001
GENIUS_GENOBJ-N-CEN_13
1002
{
1000
OWNER
1000
GEN
1002
}
1001
GENIUS_GENODEF_13
1002
{
1000
HIER
1070
     0
1002
}
1002
{
1000
MANEDIT
1070
     0
1002
}
1002
{
1000
NOSEL
1070
     0
1002
}
1002
{
1000
BEHIND
1070
     0
1002
}
1002
{
1000
OTHER
1070
     0
1002
}
1002
{
1000
REACTOR
1002
}
1001
GENIUS_GENCEN_19
1002
{
1040
3.0
1002
}
  0
DIMENSION
  5
145F
102
{ACAD_XDICTIONARY
360
146C
102
}
102
{ACAD_REACTORS
330
146D
330
1546
102
}
330
1F
100
AcDbEntity
  8
AM_5
100
AcDbDimension
  2
*D28
 10
40.7443897907948
 20
216.8377140031233
 30
0.0
 11
73.2443897907948
 21
220.0877140031233
 31
0.0
 70
    32
  1
%%c<>
 71
     5
 42
65.0
  3
AM_DIN$0
100
AcDbAlignedDimension
 13
105.7443897907948
 23
204.8377130031233
 33
0.0
 14
40.7443897907948
 24
204.8377130031233
 34
0.0
 50
0.0000000000000114
100
AcDbRotatedDimension
1001
ACAD
1000
DSTYLE
1002
{
1070
   271
1070
     0
1002
}
  0
DIMENSION
  5
1492
102
{ACAD_XDICTIONARY
360
149F
102
}
102
{ACAD_REACTORS
330
14A0
330
14D4
102
}
330
1F
100
AcDbEntity
  8
AM_5
100
AcDbDimension
  2
*D29
 10
125.6542933172975
 20
178.8377130031233
 30
0.0
 11
122.4039488291085
 21
191.8377130031233
 31
0.0
 70
    32
 71
     5
 42
26.0
  3
AM_DIN$0
100
AcDbAlignedDimension
 13
105.7443897907948
 23
204.8377130031233
 33
0.0
 14
102.1943897907948
 24
178.8377130031233
 34
0.0
 50
90.00000000000003
100
AcDbRotatedDimension
1001
ACAD
1000
DSTYLE
1002
{
1070
   271
1070
     0
1002
}
  0
DIMENSION
  5
14C6
102
{ACAD_XDICTIONARY
360
14D3
102
}
102
{ACAD_REACTORS
330
14D4
102
}
330
1F
100
AcDbEntity
  8
AM_5
100
AcDbDimension
  2
*D30
 10
115.6542933172977
 20
178.8377130031233
 30
0.0
 11
112.4039488291087
 21
190.0877130031233
 31
0.0
 70
    32
 71
     5
 42
22.49999999999997
  3
AM_DIN$0
100
AcDbAlignedDimension
 13
102.1943897907948
 23
201.3377130031233
 33
0.0
 14
102.1943897907948
 24
178.8377130031233
 34
0.0
 50
90.0
100
AcDbRotatedDimension
1001
ACAD
1000
DSTYLE
1002
{
1070
   271
1070
     0
1002
}
  0
DIMENSION
  5
1536
102
{ACAD_XDICTIONARY
360
1545
102
}
102
{ACAD_REACTORS
330
1546
102
}
330
1F
100
AcDbEntity
  8
AM_5
100
AcDbDimension
  2
*D33
 10
28.7443897907948
 20
201.3377130031233
 30
0.0
 11
25.49438979079476
 21
192.315225629708
 31
0.0
 70
    32
 71
     5
 42
3.5
  3
AM_DIN$0
100
AcDbAlignedDimension
 13
40.7443897907948
 23
204.8377130031233
 33
0.0
 14
40.7443897907948
 24
201.3377130031233
 34
0.0
 50
90.00000000000003
100
AcDbRotatedDimension
1001
ACAD
1000
DSTYLE
1002
{
1070
   271
1070
     1
1002
}
  0
DIMENSION
  5
161B
102
{ACAD_XDICTIONARY
360
1628
102
}
102
{ACAD_REACTORS
330
1629
102
}
330
1F
100
AcDbEntity
  8
AM_5
100
AcDbDimension
  2
*D34
 10
99.59438979079482
 20
43.37057760619456
 30
0.0
 11
73.2443897907948
 21
46.62057760619457
 31
0.0
 70
    32
  1
%%c<>
 71
     5
 42
52.70000000000004
  3
AM_DIN$0
100
AcDbAlignedDimension
 13
46.89438979079477
 23
55.3705776061946
 33
0.0
 14
99.59438979079482
 24
55.3705776061946
 34
0.0
 50
0.0000000000001132
100
AcDbRotatedDimension
1001
ACAD
1000
DSTYLE
1002
{
1070
   271
1070
     0
1002
}
  0
DIMENSION
  5
164A
102
{ACAD_XDICTIONARY
360
1657
102
}
102
{ACAD_REACTORS
330
1658
102
}
330
1F
100
AcDbEntity
  8
AM_5
100
AcDbDimension
  2
*D35
 10
105.4943897907949
 20
27.99293088524269
 30
0.0
 11
73.24438979079485
 21
31.24293088524269
 31
0.0
 70
    32
  1
%%c<>
 71
     5
 42
64.50000000000011
  3
AM_DIN$0
100
AcDbAlignedDimension
 13
40.99438979079479
 23
59.3705776061945
 33
0.0
 14
105.4943897907949
 24
59.3705776061945
 34
0.0
 50
0.0000000000001132
100
AcDbRotatedDimension
1001
ACAD
1000
DSTYLE
1002
{
1070
   271
1070
     0
1002
}
  0
DIMENSION
  5
1685
102
{ACAD_XDICTIONARY
360
1694
102
}
102
{ACAD_REACTORS
330
1695
102
}
330
1F
100
AcDbEntity
  8
AM_5
100
AcDbDimension
  2
*D36
 10
135.5008220240493
 20
57.87057760619449
 30
0.0
 11
135.5008220240493
 21
46.30365125640137
 31
0.0
 70
   160
 71
     5
 42
2.4999999999999
  3
AM_DIN$0
100
AcDbAlignedDimension
 13
99.59438979079482
 23
55.3705776061946
 33
0.0
 14
99.59438979079482
 24
57.8705776061945
 34
0.0
 50
90.0
100
AcDbRotatedDimension
1001
ACAD
1000
DSTYLE
1002
{
1070
   271
1070
     1
1002
}
  0
DIMENSION
  5
16FA
102
{ACAD_XDICTIONARY
360
1707
102
}
102
{ACAD_REACTORS
330
1708
102
}
330
1F
100
AcDbEntity
  8
AM_5
100
AcDbDimension
  2
*D37
 10
123.8982042192451
 20
57.87057760619449
 30
0.0
 11
123.8982042192451
 21
64.37057760619457
 31
0.0
 70
   160
 71
     5
 42
13.00000000000013
  3
AM_DIN$0
100
AcDbAlignedDimension
 13
103.9943897907948
 23
70.87057760619462
 33
0.0
 14
103.9943897907949
 24
57.87057760619449
 34
0.0
 50
90.00000000000003
100
AcDbRotatedDimension
1001
ACAD
1000
DSTYLE
1002
{
1070
   271
1070
     0
1002
}
  0
DIMENSION
  5
1790
102
{ACAD_XDICTIONARY
360
179D
102
}
102
{ACAD_REACTORS
330
179E
102
}
330
1F
100
AcDbEntity
  8
AM_5
100
AcDbDimension
  2
*D38
 10
142.4029146513435
 20
70.87057760619462
 30
0.0
 11
142.4029146513435
 21
83.97057760619462
 31
0.0
 70
   160
 71
     5
 42
26.19999999999999
  3
AM_DIN$0
100
AcDbAlignedDimension
 13
101.9375946146109
 23
97.07057760619461
 33
0.0
 14
101.0443897907948
 24
70.87057760619462
 34
0.0
 50
90.00000000000012
100
AcDbRotatedDimension
1001
ACAD
1000
DSTYLE
1002
{
1070
   271
1070
     0
1002
}
  0
DIMENSION
  5
1824
102
{ACAD_XDICTIONARY
360
1833
102
}
102
{ACAD_REACTORS
330
1834
102
}
330
1F
100
AcDbEntity
  8
AM_5
100
AcDbDimension
  2
*D39
 10
106.2443897907948
 20
153.2468010901534
 30
0.0
 11
114.9168771642101
 21
156.4968010901534
 31
0.0
 70
    32
 71
     5
 42
1.5
  3
AM_DIN$0
100
AcDbAlignedDimension
 13
104.7443897907948
 23
116.1705776061946
 33
0.0
 14
106.2443897907948
 24
116.1705776061946
 34
0.0
100
AcDbRotatedDimension
1001
ACAD
1000
DSTYLE
1002
{
1070
   271
1070
     1
1002
}
  0
LINE
  5
1859
330
1F
100
AcDbEntity
  8
0
100
AcDbLine
 10
286.0911702269714
 20
219.7739958957963
 30
0.0
 11
286.0911702269713
 21
154.7739958957963
 31
0.0
  0
LINE
  5
185A
330
1F
100
AcDbEntity
  8
0
 62
     0
100
AcDbLine
 10
295.8155259367509
 20
214.9239958957963
 30
0.0
 11
299.6918626069225
 21
214.9239958957963
 31
0.0
  0
LINE
  5
185D
330
1F
100
AcDbEntity
  8
0
 62
     0
100
AcDbLine
 10
295.8155259367509
 20
216.4239958957963
 30
0.0
 11
299.6918626069225
 21
216.4239958957963
 31
0.0
  0
LINE
  5
185E
330
1F
100
AcDbEntity
  8
0
 62
     0
100
AcDbLine
 10
295.8155259367509
 20
158.1239958957963
 30
0.0
 11
299.6918626069225
 21
158.1239958957963
 31
0.0
  0
LINE
  5
185F
330
1F
100
AcDbEntity
  8
0
 62
     0
100
AcDbLine
 10
295.8155259367509
 20
159.6239958957964
 30
0.0
 11
299.6918626069225
 21
159.6239958957964
 31
0.0
  0
LINE
  5
187B
330
1F
100
AcDbEntity
  8
0
  6
HIDDEN
 62
     6
100
AcDbLine
 10
48.2443897907948
 20
204.8377130031233
 30
0.0
 11
48.2443897907948
 21
178.8377130031233
 31
0.0
  0
LINE
  5
187C
330
1F
100
AcDbEntity
  8
0
  6
HIDDEN
 62
     6
100
AcDbLine
 10
98.24438979079481
 20
204.8377130031233
 30
0.0
 11
98.24438979079481
 21
178.8377130031233
 31
0.0
  0
ENDSEC
  0
SECTION
  2
OBJECTS
  0
DICTIONARY
  5
C
330
0
100
AcDbDictionary
281
     1
  3
ACAD_2007HEADERVARS_RT
350
198E
  3
ACAD_COLOR
350
76
  3
ACAD_GROUP
350
D
  3
ACAD_IMAGE_DICT
350
B54
  3
ACAD_IMAGE_VARS
350
B77
  3
ACAD_LAYOUT
350
1A
  3
ACAD_MATERIAL
350
75
  3
ACAD_MLEADERSTYLE
350
195B
  3
ACAD_MLINESTYLE
350
17
  3
ACAD_PLOTSETTINGS
350
19
  3
ACAD_PLOTSTYLENAME
350
E
  3
ACAD_SCALELIST
350
1949
  3
ACAD_TABLESTYLE
350
77
  3
ACAD_VISUALSTYLE
350
1938
  3
ACDB_RECOMPOSE_DATA
350
198C
  3
AcDbVariableDictionary
350
5E
  3
AcmDictionary
350
D8
  3
AMG
350
7C
  3
AMGSNAPSETTINGS
350
161
  3
DWGPROPS
350
198D
  0
DICTIONARY
  5
586
330
2
100
AcDbDictionary
280
     1
281
     1
  3
ACAD_LAYERSTATES
360
587
  0
DICTIONARY
  5
185B
330
1F
100
AcDbDictionary
280
     1
281
     1
  3
ACAD_SORTENTS
360
185C
  0
DICTIONARY
  5
66B
330
588
100
AcDbDictionary
280
     1
281
     1
  0
DICTIONARY
  5
B51
330
AE2
100
AcDbDictionary
280
     1
281
     1
  0
DICTIONARY
  5
1997
330
6C4
100
AcDbDictionary
280
     1
281
     1
  3
ACAD_MTEXT_RT
360
1998
  0
IMAGEDEF_REACTOR
  5
B4F
330
B4E
100
AcDbRasterImageDefReactor
 90
        2
330
B4E
  0
DICTIONARY
  5
1999
330
1508
100
AcDbDictionary
280
     1
281
     1
  3
ACAD_MTEXT_RT
360
199A
  0
DICTIONARY
  5
199B
330
151A
100
AcDbDictionary
280
     1
281
     1
  3
ACAD_MTEXT_RT
360
199C
  0
DICTIONARY
  5
464
330
463
100
AcDbDictionary
280
     1
281
     1
  3
ACAD_DIMASSOC
360
465
  0
DICTIONARY
  5
467
330
466
100
AcDbDictionary
280
     1
281
     1
  3
ACAD_DIMASSOC
360
468
  0
DICTIONARY
  5
46A
330
469
100
AcDbDictionary
280
     1
281
     1
  3
ACAD_DIMASSOC
360
46B
  0
DICTIONARY
  5
46D
330
46C
100
AcDbDictionary
280
     1
281
     1
  3
ACAD_DIMASSOC
360
46E
  0
DICTIONARY
  5
470
330
46F
100
AcDbDictionary
280
     1
281
     1
  3
ACAD_DIMASSOC
360
471
  0
DICTIONARY
  5
473
330
472
100
AcDbDictionary
280
     1
281
     1
  3
ACAD_DIMASSOC
360
474
  0
DICTIONARY
  5
476
330
475
100
AcDbDictionary
280
     1
281
     1
  3
ACAD_DIMASSOC
360
477
  0
DICTIONARY
  5
479
330
478
100
AcDbDictionary
280
     1
281
     1
  3
ACAD_DIMASSOC
360
47A
  0
DICTIONARY
  5
482
330
481
100
AcDbDictionary
280
     1
281
     1
  3
ACAD_DIMASSOC
360
483
  0
DICTIONARY
  5
146C
330
145F
100
AcDbDictionary
280
     1
281
     1
  3
ACAD_DIMASSOC
360
146D
  0
DICTIONARY
  5
149F
330
1492
100
AcDbDictionary
280
     1
281
     1
  3
ACAD_DIMASSOC
360
14A0
  0
DICTIONARY
  5
14D3
330
14C6
100
AcDbDictionary
280
     1
281
     1
  3
ACAD_DIMASSOC
360
14D4
  0
DICTIONARY
  5
1545
330
1536
100
AcDbDictionary
280
     1
281
     1
  3
ACAD_DIMASSOC
360
1546
  0
DICTIONARY
  5
1628
330
161B
100
AcDbDictionary
280
     1
281
     1
  3
ACAD_DIMASSOC
360
1629
  0
DICTIONARY
  5
1657
330
164A
100
AcDbDictionary
280
     1
281
     1
  3
ACAD_DIMASSOC
360
1658
  0
DICTIONARY
  5
1694
330
1685
100
AcDbDictionary
280
     1
281
     1
  3
ACAD_DIMASSOC
360
1695
  0
DICTIONARY
  5
1707
330
16FA
100
AcDbDictionary
280
     1
281
     1
  3
ACAD_DIMASSOC
360
1708
  0
DICTIONARY
  5
179D
330
1790
100
AcDbDictionary
280
     1
281
     1
  3
ACAD_DIMASSOC
360
179E
  0
DICTIONARY
  5
1833
330
1824
100
AcDbDictionary
280
     1
281
     1
  3
ACAD_DIMASSOC
360
1834
  0
DICTIONARY
  5
198E
102
{ACAD_REACTORS
330
C
102
}
330
C
100
AcDbDictionary
281
     1
  3
DIMJOGANG
350
198F
  0
DICTIONARY
  5
76
102
{ACAD_REACTORS
330
C
102
}
330
C
100
AcDbDictionary
281
     1
  0
DICTIONARY
  5
D
102
{ACAD_REACTORS
330
C
102
}
330
C
100
AcDbDictionary
281
     1
  0
DICTIONARY
  5
B54
102
{ACAD_REACTORS
330
C
102
}
330
C
100
AcDbDictionary
281
     1
  3
ACO-Logo
350
B55
  0
RASTERVARIABLES
  5
B77
102
{ACAD_REACTORS
330
C
102
}
330
C
100
AcDbRasterVariables
 90
        0
 70
     1
 71
     1
 72
     1
  0
DICTIONARY
  5
1A
102
{ACAD_REACTORS
330
C
102
}
330
C
100
AcDbDictionary
281
     1
  3
Layout1
350
51
  3
Layout2
350
56
  3
Model
350
22
  0
DICTIONARY
  5
75
102
{ACAD_REACTORS
330
C
102
}
330
C
100
AcDbDictionary
281
     1
  3
ByBlock
350
1928
  3
ByLayer
350
1920
  3
Global
350
1930
  0
DICTIONARY
  5
195B
102
{ACAD_REACTORS
330
C
102
}
330
C
100
AcDbDictionary
281
     1
  3
Standard
350
195C
  0
DICTIONARY
  5
17
102
{ACAD_REACTORS
330
C
102
}
330
C
100
AcDbDictionary
281
     1
  3
Standard
350
18
  0
DICTIONARY
  5
19
102
{ACAD_REACTORS
330
C
102
}
330
C
100
AcDbDictionary
281
     1
  0
ACDBDICTIONARYWDFLT
  5
E
102
{ACAD_REACTORS
330
C
102
}
330
C
100
AcDbDictionary
281
     1
  3
Normal
350
F
100
AcDbDictionaryWithDefault
340
F
  0
DICTIONARY
  5
1949
102
{ACAD_REACTORS
330
C
102
}
330
C
100
AcDbDictionary
281
     1
  3
A0
350
194A
  3
A1
350
194B
  3
A2
350
194C
  3
A3
350
194D
  3
A4
350
194E
  3
A5
350
194F
  3
A6
350
1950
  3
A7
350
1951
  3
A8
350
1952
  3
A9
350
1953
  3
B0
350
1954
  3
B1
350
1955
  3
B2
350
1956
  3
B3
350
1957
  3
B4
350
1958
  3
B5
350
1959
  3
B6
350
195A
  0
DICTIONARY
  5
77
102
{ACAD_REACTORS
330
C
102
}
330
C
100
AcDbDictionary
281
     1
  3
Standard
350
78
  0
DICTIONARY
  5
1938
102
{ACAD_REACTORS
330
C
102
}
330
C
100
AcDbDictionary
281
     1
  3
2dWireframe
350
193E
  3
3D Hidden
350
1940
  3
3dWireframe
350
193F
  3
Basic
350
193D
  3
Brighten
350
1944
  3
ColorChange
350
1948
  3
Conceptual
350
1941
  3
Dim
350
1943
  3
Facepattern
350
1947
  3
Flat
350
1939
  3
FlatWithEdges
350
193A
  3
Gouraud
350
193B
  3
GouraudWithEdges
350
193C
  3
Linepattern
350
1946
  3
Realistic
350
1942
  3
Thicken
350
1945
  0
XRECORD
  5
198C
102
{ACAD_REACTORS
330
C
102
}
330
C
100
AcDbXrecord
280
     1
 90
        1
330
78
330
463
330
466
330
469
  0
DICTIONARY
  5
5E
102
{ACAD_REACTORS
330
C
102
}
330
C
100
AcDbDictionary
281
     1
  3
CANNOSCALE
350
1987
  3
CMLEADERSTYLE
350
1986
  3
CTABLESTYLE
350
145
  3
DIMASSOC
350
5F
  3
HIDETEXT
350
63
  3
INDEXCTL
350
1989
  3
PROJECTNAME
350
170
  3
SORTENTS
350
1988
  0
DICTIONARY
  5
D8
102
{ACAD_REACTORS
330
C
102
}
330
C
100
AcDbDictionary
281
     1
  3
AcmStdDictionary
350
E3
  3
AMDTSECTSYM_ARROWCOLOR
350
105
  0
DICTIONARY
  5
7C
102
{ACAD_REACTORS
330
C
102
}
330
C
100
AcDbDictionary
281
     1
  0
DICTIONARY
  5
161
102
{ACAD_REACTORS
330
C
102
}
330
C
100
AcDbDictionary
281
     1
  0
XRECORD
  5
198D
102
{ACAD_REACTORS
330
C
102
}
330
C
100
AcDbXrecord
280
     1
  1
DWGPROPS COOKIE
  2

  3

  4

  6

  7

  8
jamoeller
  9

300
=
301
=
302
=
303
=
304
=
305
=
306
=
307
=
308
=
309
=
 40
0.3794507060185185
 41
2452544.484270219
 42
2455146.398319688
  1

 90
        0
  0
DICTIONARY
  5
587
102
{ACAD_REACTORS
330
586
102
}
330
586
100
AcDbDictionary
281
     1
  0
SORTENTSTABLE
  5
185C
102
{ACAD_REACTORS
330
185B
102
}
330
185B
100
AcDbSortentsTable
330
1F
331
42F
  5
42F
331
456
  5
456
331
495
  5
495
331
49D
  5
49D
331
45E
  5
45E
331
466
  5
466
331
4A5
  5
4A5
331
1824
  5
185E
331
4AD
  5
4AD
331
4B5
  5
4B5
331
43F
  5
43F
331
4BD
  5
B57
331
48E
  5
48E
331
44F
  5
44F
331
420
  5
420
331
428
  5
428
331
457
  5
457
331
496
  5
496
331
45F
  5
45F
331
49E
  5
49E
331
4A6
  5
4A6
331
46F
  5
46F
331
1492
  5
1536
331
430
  5
430
331
4AE
  5
4AE
331
438
  5
438
331
4B6
  5
4B6
331
440
  5
440
331
48F
  5
48F
331
185D
  5
145F
331
421
  5
421
331
429
  5
429
331
450
  5
450
331
497
  5
497
331
458
  5
458
331
49F
  5
49F
331
460
  5
460
331
4A7
  5
4A7
331
431
  5
431
331
439
  5
439
331
478
  5
478
331
4AF
  5
4AF
331
4B7
  5
4B7
331
185E
  5
14C6
331
422
  5
422
331
42A
  5
42A
331
490
  5
490
331
451
  5
451
331
459
  5
459
331
498
  5
498
331
461
  5
461
331
4A0
  5
4A0
331
469
  5
469
331
4A8
  5
4A8
331
432
  5
432
331
4B0
  5
4B0
331
43A
  5
43A
331
481
  5
481
331
4B8
  5
4B9
331
1790
  5
185D
331
185F
  5
4B8
331
423
  5
423
331
42B
  5
42B
331
452
  5
452
331
491
  5
491
331
499
  5
499
331
45A
  5
45A
331
4A1
  5
4A1
331
462
  5
462
331
132F
  5
14FA
331
433
  5
433
331
472
  5
472
331
4A9
  5
4A9
331
4B1
  5
4B1
331
43B
  5
43B
331
4B9
  5
4BB
331
443
  5
443
331
48A
  5
48A
331
16FA
  5
185A
331
424
  5
424
331
164A
  5
1824
331
42C
  5
42C
331
453
  5
453
331
492
  5
492
331
45B
  5
45B
331
49A
  5
49A
331
463
  5
463
331
4A2
  5
4A2
331
145F
  5
150C
331
161B
  5
1790
331
4AA
  5
4AA
331
434
  5
434
331
4B2
  5
4B2
331
43C
  5
43C
331
444
  5
444
331
4BA
  5
4BC
331
48B
  5
48B
331
1859
  5
185F
331
14C6
  5
161B
331
425
  5
425
331
1321
  5
132F
331
42D
  5
42D
331
454
  5
454
331
493
  5
493
331
49B
  5
49B
331
45C
  5
45C
331
4A3
  5
4A3
331
46C
  5
46C
331
4AB
  5
4AB
331
4B3
  5
4B3
331
43D
  5
43D
331
4BB
  5
4BD
331
48C
  5
48C
331
185A
  5
4BA
331
1685
  5
1859
331
1322
  5
1492
331
426
  5
426
331
1536
  5
16FA
331
42E
  5
42E
331
455
  5
455
331
494
  5
494
331
45D
  5
45D
331
49C
  5
49C
331
4A4
  5
4A4
331
475
  5
475
331
4AC
  5
4AC
331
4B4
  5
4B4
331
43E
  5
43E
331
4BC
  5
6CD
331
48D
  5
48D
331
427
  5
427
  0
XRECORD
  5
1998
102
{ACAD_REACTORS
330
1997
102
}
330
1997
100
AcDbXrecord
280
     1
 40
30543.0
  1
\fArial|b0|i0|c0|p32;©
  0
XRECORD
  5
199A
102
{ACAD_REACTORS
330
1999
102
}
330
1999
100
AcDbXrecord
280
     1
 40
2428.0
  1
\U+220558
  0
XRECORD
  5
199C
102
{ACAD_REACTORS
330
199B
102
}
330
199B
100
AcDbXrecord
280
     1
 40
2418.0
  1
\U+220566
  0
DIMASSOC
  5
465
102
{ACAD_REACTORS
330
464
102
}
330
464
100
AcDbDimAssoc
330
463
 90
        2
 70
     0
 71
     0
  1
AcDbOsnapPointRef
 72
     3
331
45B
 73
     2
 91
        0
 40
0.0
 10
0.0
 20
0.0
 30
0.0
 75
     0
  0
DIMASSOC
  5
468
102
{ACAD_REACTORS
330
467
102
}
330
467
100
AcDbDimAssoc
330
466
 90
        2
 70
     0
 71
     0
  1
AcDbOsnapPointRef
 72
     3
331
455
 73
     2
 91
        0
 40
0.0
 10
0.0
 20
0.0
 30
0.0
 75
     0
  0
DIMASSOC
  5
46B
102
{ACAD_REACTORS
330
46A
102
}
330
46A
100
AcDbDimAssoc
330
469
 90
        2
 70
     0
 71
     0
  1
AcDbOsnapPointRef
 72
     3
331
45D
 73
     2
 91
        0
 40
0.0
 10
0.0
 20
0.0
 30
0.0
 75
     0
  0
DIMASSOC
  5
46E
102
{ACAD_REACTORS
330
46D
102
}
330
46D
100
AcDbDimAssoc
330
46C
 90
        3
 70
     0
 71
     0
  1
AcDbOsnapPointRef
 72
    13
331
421
 73
     0
 91
        0
 40
0.0
 10
0.0
 20
0.0
 30
2.000000000000000E+50
 75
     0
  1
AcDbOsnapPointRef
 72
     1
331
423
 73
     0
 91
        0
 40
0.0
 10
0.0
 20
0.0
 30
2.000000000000000E+50
 75
     0
  0
DIMASSOC
  5
471
102
{ACAD_REACTORS
330
470
102
}
330
470
100
AcDbDimAssoc
330
46F
 90
        3
 70
     0
 71
     0
  1
AcDbOsnapPointRef
 72
    13
331
421
 73
     0
 91
        0
 40
0.0
 10
0.0
 20
0.0
 30
2.000000000000000E+50
 75
     0
  1
AcDbOsnapPointRef
 72
    13
331
433
 73
     0
 91
        0
 40
0.0
 10
0.0
 20
0.0
 30
2.000000000000000E+50
 75
     0
  0
DIMASSOC
  5
474
102
{ACAD_REACTORS
330
473
102
}
330
473
100
AcDbDimAssoc
330
472
 90
        3
 70
     0
 71
     0
  1
AcDbOsnapPointRef
 72
    13
331
460
 73
     0
 91
        0
 40
0.0
 10
0.0
 20
0.0
 30
2.000000000000000E+50
 75
     0
  1
AcDbOsnapPointRef
 72
     1
331
45F
 73
     0
 91
        0
 40
0.0
 10
0.0
 20
0.0
 30
2.000000000000000E+50
 75
     0
  0
DIMASSOC
  5
477
102
{ACAD_REACTORS
330
476
102
}
330
476
100
AcDbDimAssoc
330
475
 90
        3
 70
     0
 71
     0
  1
AcDbOsnapPointRef
 72
     1
331
45F
 73
     0
 91
        0
 40
0.0
 10
0.0
 20
0.0
 30
2.000000000000000E+50
 75
     0
  1
AcDbOsnapPointRef
 72
     6
331
429
 73
     0
 91
        0
 40
1.0
 10
0.0
 20
0.0
 30
0.0
332
462
 74
     0
 92
        0
 75
     0
  0
DIMASSOC
  5
47A
102
{ACAD_REACTORS
330
479
102
}
330
479
100
AcDbDimAssoc
330
478
 90
        3
 70
     0
 71
     0
  1
AcDbOsnapPointRef
 72
    13
331
452
 73
     0
 91
        0
 40
0.0
 10
0.0
 20
0.0
 30
2.000000000000000E+50
 75
     0
  1
AcDbOsnapPointRef
 72
     6
331
422
 73
     0
 91
        0
 40
0.0408163265306132
 10
0.0
 20
0.0
 30
0.0
332
424
 74
     0
 92
        0
 75
     0
  0
DIMASSOC
  5
483
102
{ACAD_REACTORS
330
482
102
}
330
482
100
AcDbDimAssoc
330
481
 90
        3
 70
     0
 71
     0
  1
AcDbOsnapPointRef
 72
    13
331
43E
 73
     0
 91
        0
 40
0.0
 10
0.0
 20
0.0
 30
2.000000000000000E+50
 75
     0
  1
AcDbOsnapPointRef
 72
    13
331
43D
 73
     0
 91
        0
 40
0.0
 10
0.0
 20
0.0
 30
2.000000000000000E+50
 75
     0
  0
DIMASSOC
  5
146D
102
{ACAD_REACTORS
330
146C
102
}
330
146C
100
AcDbDimAssoc
330
145F
 90
        3
 70
     0
 71
     0
  1
AcDbOsnapPointRef
 72
    13
331
43B
 73
     0
 91
        0
 40
0.0
 10
0.0
 20
0.0
 30
2.000000000000000E+50
 75
     0
  1
AcDbOsnapPointRef
 72
     1
331
43B
 73
     0
 91
        0
 40
0.0
 10
0.0
 20
0.0
 30
2.000000000000000E+50
 75
     0
  0
DIMASSOC
  5
14A0
102
{ACAD_REACTORS
330
149F
102
}
330
149F
100
AcDbDimAssoc
330
1492
 90
        3
 70
     0
 71
     0
  1
AcDbOsnapPointRef
 72
    13
331
43B
 73
     0
 91
        0
 40
0.0
 10
0.0
 20
0.0
 30
2.000000000000000E+50
 75
     0
  1
AcDbOsnapPointRef
 72
    13
331
43E
 73
     0
 91
        0
 40
0.0
 10
0.0
 20
0.0
 30
2.000000000000000E+50
 75
     0
  0
DIMASSOC
  5
14D4
102
{ACAD_REACTORS
330
14D3
102
}
330
14D3
100
AcDbDimAssoc
330
14C6
 90
        3
 70
     0
 71
     0
  1
AcDbOsnapPointRef
 72
     6
331
439
 73
     0
 91
        0
 40
0.9453846153846178
 10
0.0
 20
0.0
 30
0.0
332
43E
 74
     0
 92
        0
 75
     0
  1
AcDbOsnapPointRef
 72
     4
331
1492
331
14A8
 73
     0
 91
        0
 40
0.0
 10
0.0
 20
0.0
 30
0.0
 75
     0
  0
DIMASSOC
  5
1546
102
{ACAD_REACTORS
330
1545
102
}
330
1545
100
AcDbDimAssoc
330
1536
 90
        3
 70
     0
 71
     0
  1
AcDbOsnapPointRef
 72
     4
331
145F
331
147E
 73
     0
 91
        0
 40
0.0
 10
0.0
 20
0.0
 30
0.0
 75
     0
  1
AcDbOsnapPointRef
 72
    13
331
439
 73
     0
 91
        0
 40
0.0
 10
0.0
 20
0.0
 30
2.000000000000000E+50
 75
     0
  0
DIMASSOC
  5
1629
102
{ACAD_REACTORS
330
1628
102
}
330
1628
100
AcDbDimAssoc
330
161B
 90
        2
 70
     0
 71
     0
  1
AcDbOsnapPointRef
 72
    13
331
434
 73
     0
 91
        0
 40
0.0
 10
0.0
 20
0.0
 30
2.000000000000000E+50
 75
     0
  0
DIMASSOC
  5
1658
102
{ACAD_REACTORS
330
1657
102
}
330
1657
100
AcDbDimAssoc
330
164A
 90
        3
 70
     0
 71
     0
  1
AcDbOsnapPointRef
 72
    13
331
45A
 73
     0
 91
        0
 40
0.0
 10
0.0
 20
0.0
 30
2.000000000000000E+50
 75
     0
  1
AcDbOsnapPointRef
 72
     1
331
45C
 73
     0
 91
        0
 40
0.0
 10
0.0
 20
0.0
 30
2.000000000000000E+50
 75
     0
  0
DIMASSOC
  5
1695
102
{ACAD_REACTORS
330
1694
102
}
330
1694
100
AcDbDimAssoc
330
1685
 90
        2
 70
     0
 71
     0
  1
AcDbOsnapPointRef
 72
     1
331
434
 73
     0
 91
        0
 40
0.0
 10
0.0
 20
0.0
 30
2.000000000000000E+50
 75
     0
  0
DIMASSOC
  5
1708
102
{ACAD_REACTORS
330
1707
102
}
330
1707
100
AcDbDimAssoc
330
16FA
 90
        3
 70
     0
 71
     0
  1
AcDbOsnapPointRef
 72
     6
331
431
 73
     0
 91
        0
 40
0.0
 10
0.0
 20
0.0
 30
0.0
332
45B
 74
     0
 92
        0
 75
     0
  1
AcDbOsnapPointRef
 72
     6
331
42F
 73
     0
 91
        0
 40
1.0
 10
0.0
 20
0.0
 30
0.0
332
45C
 74
     0
 92
        0
 75
     0
  0
DIMASSOC
  5
179E
102
{ACAD_REACTORS
330
179D
102
}
330
179D
100
AcDbDimAssoc
330
1790
 90
        3
 70
     0
 71
     0
  1
AcDbOsnapPointRef
 72
    13
331
45D
 73
     0
 91
        0
 40
0.0
 10
0.0
 20
0.0
 30
2.000000000000000E+50
 75
     0
  1
AcDbOsnapPointRef
 72
     1
331
431
 73
     0
 91
        0
 40
0.0
 10
0.0
 20
0.0
 30
2.000000000000000E+50
 75
     0
  0
DIMASSOC
  5
1834
102
{ACAD_REACTORS
330
1833
102
}
330
1833
100
AcDbDimAssoc
330
1824
 90
        3
 70
     0
 71
     0
  1
AcDbOsnapPointRef
 72
    13
331
425
 73
     0
 91
        0
 40
0.0
 10
0.0
 20
0.0
 30
2.000000000000000E+50
 75
     0
  1
AcDbOsnapPointRef
 72
    13
331
453
 73
     0
 91
        0
 40
0.0
 10
0.0
 20
0.0
 30
2.000000000000000E+50
 75
     0
  0
XRECORD
  5
198F
102
{ACAD_REACTORS
330
198E
102
}
330
198E
100
AcDbXrecord
280
     1
 40
1.570796326794896
  0
IMAGEDEF
  5
B55
102
{ACAD_REACTORS
330
B54
330
B4F
102
}
330
B54
100
AcDbRasterImageDef
 90
        0
  1
L:\calink52\templates\ACO-Logo.jpg
 10
75.0
 20
57.0
 11
0.3527777777777778
 21
0.3527777777777778
280
     1
281
     5
  0
LAYOUT
  5
51
102
{ACAD_XDICTIONARY
360
1992
102
}
102
{ACAD_REACTORS
330
1A
102
}
330
1A
100
AcDbPlotSettings
  1

  2
None
  4

  6

 40
0.0
 41
0.0
 42
0.0
 43
0.0
 44
0.0
 45
0.0
 46
0.0
 47
0.0
 48
0.0
 49
0.0
140
0.0
141
0.0
142
1.0
143
1.0
 70
   688
 72
     0
 73
     0
 74
     5
  7
monochrome.ctb
 75
    16
147
1.0
148
0.0
149
0.0
100
AcDbLayout
  1
Layout1
 70
     1
 71
     1
 10
0.0
 20
0.0
 11
12.0
 21
9.0
 12
0.0
 22
0.0
 32
0.0
 14
0.0
 24
0.0
 34
0.0
 15
0.0
 25
0.0
 35
0.0
146
0.0
 13
0.0
 23
0.0
 33
0.0
 16
1.0
 26
0.0
 36
0.0
 17
0.0
 27
1.0
 37
0.0
 76
     0
330
50
  0
LAYOUT
  5
56
102
{ACAD_XDICTIONARY
360
1994
102
}
102
{ACAD_REACTORS
330
1A
102
}
330
1A
100
AcDbPlotSettings
  1

  2
None
  4

  6

 40
0.0
 41
0.0
 42
0.0
 43
0.0
 44
0.0
 45
0.0
 46
0.0
 47
0.0
 48
0.0
 49
0.0
140
0.0
141
0.0
142
1.0
143
1.0
 70
   688
 72
     0
 73
     0
 74
     5
  7
monochrome.ctb
 75
    16
147
1.0
148
0.0
149
0.0
100
AcDbLayout
  1
Layout2
 70
     1
 71
     2
 10
0.0
 20
0.0
 11
12.0
 21
9.0
 12
0.0
 22
0.0
 32
0.0
 14
0.0
 24
0.0
 34
0.0
 15
0.0
 25
0.0
 35
0.0
146
0.0
 13
0.0
 23
0.0
 33
0.0
 16
1.0
 26
0.0
 36
0.0
 17
0.0
 27
1.0
 37
0.0
 76
     0
330
55
  0
LAYOUT
  5
22
102
{ACAD_XDICTIONARY
360
1990
102
}
102
{ACAD_REACTORS
330
1A
102
}
330
1A
100
AcDbPlotSettings
  1

  2
none_device
  4
ANSI_A_(8.50_x_11.00_Inches)
  6

 40
6.349999904632568
 41
19.04999923706055
 42
6.350006103515625
 43
19.04998779296875
 44
215.8999938964844
 45
279.3999938964844
 46
0.0
 47
0.0
 48
0.0
 49
0.0
140
0.0
141
0.0
142
1.0
143
78.436453180766
 70
 11952
 72
     0
 73
     1
 74
     0
  7
monochrome.ctb
 75
     0
147
0.0127491741332998
148
0.0
149
0.0
100
AcDbLayout
  1
Model
 70
     1
 71
     0
 10
0.0
 20
0.0
 11
12.0
 21
9.0
 12
0.0
 22
0.0
 32
0.0
 14
0.0
 24
0.0
 34
0.0
 15
0.0
 25
0.0
 35
0.0
146
0.0
 13
0.0
 23
0.0
 33
0.0
 16
1.0
 26
0.0
 36
0.0
 17
0.0
 27
1.0
 37
0.0
 76
     0
330
1F
331
191E
  0
MATERIAL
  5
1928
102
{ACAD_XDICTIONARY
360
1929
102
}
102
{ACAD_REACTORS
330
75
102
}
330
75
100
AcDbMaterial
  1
ByBlock
 72
     0
 43
0.0008202099737533
 43
0.0
 43
0.0
 43
0.0
 43
0.0
 43
0.0008202099737533
 43
0.0
 43
0.0
 43
0.0
 43
0.0
 43
1.0
 43
0.0
 43
0.0
 43
0.0
 43
0.0
 43
1.0
 77
     0
 47
0.0008202099737533
 47
0.0
 47
0.0
 47
0.0
 47
0.0
 47
0.0008202099737533
 47
0.0
 47
0.0
 47
0.0
 47
0.0
 47
1.0
 47
0.0
 47
0.0
 47
0.0
 47
0.0
 47
1.0
171
     0
 49
0.0008202099737533
 49
0.0
 49
0.0
 49
0.0
 49
0.0
 49
0.0008202099737533
 49
0.0
 49
0.0
 49
0.0
 49
0.0
 49
1.0
 49
0.0
 49
0.0
 49
0.0
 49
0.0
 49
1.0
175
     0
142
0.0008202099737533
142
0.0
142
0.0
142
0.0
142
0.0
142
0.0008202099737533
142
0.0
142
0.0
142
0.0
142
0.0
142
1.0
142
0.0
142
0.0
142
0.0
142
0.0
142
1.0
179
     0
144
0.0008202099737533
144
0.0
144
0.0
144
0.0
144
0.0
144
0.0008202099737533
144
0.0
144
0.0
144
0.0
144
0.0
144
1.0
144
0.0
144
0.0
144
0.0
144
0.0
144
1.0
147
0.0008202099737533
147
0.0
147
0.0
147
0.0
147
0.0
147
0.0008202099737533
147
0.0
147
0.0
147
0.0
147
0.0
147
1.0
147
0.0
147
0.0
147
0.0
147
0.0
147
1.0
  0
MATERIAL
  5
1920
102
{ACAD_XDICTIONARY
360
1921
102
}
102
{ACAD_REACTORS
330
75
102
}
330
75
100
AcDbMaterial
  1
ByLayer
 72
     0
 43
0.0008202099737533
 43
0.0
 43
0.0
 43
0.0
 43
0.0
 43
0.0008202099737533
 43
0.0
 43
0.0
 43
0.0
 43
0.0
 43
1.0
 43
0.0
 43
0.0
 43
0.0
 43
0.0
 43
1.0
 77
     0
 47
0.0008202099737533
 47
0.0
 47
0.0
 47
0.0
 47
0.0
 47
0.0008202099737533
 47
0.0
 47
0.0
 47
0.0
 47
0.0
 47
1.0
 47
0.0
 47
0.0
 47
0.0
 47
0.0
 47
1.0
171
     0
 49
0.0008202099737533
 49
0.0
 49
0.0
 49
0.0
 49
0.0
 49
0.0008202099737533
 49
0.0
 49
0.0
 49
0.0
 49
0.0
 49
1.0
 49
0.0
 49
0.0
 49
0.0
 49
0.0
 49
1.0
175
     0
142
0.0008202099737533
142
0.0
142
0.0
142
0.0
142
0.0
142
0.0008202099737533
142
0.0
142
0.0
142
0.0
142
0.0
142
1.0
142
0.0
142
0.0
142
0.0
142
0.0
142
1.0
179
     0
144
0.0008202099737533
144
0.0
144
0.0
144
0.0
144
0.0
144
0.0008202099737533
144
0.0
144
0.0
144
0.0
144
0.0
144
1.0
144
0.0
144
0.0
144
0.0
144
0.0
144
1.0
147
0.0008202099737533
147
0.0
147
0.0
147
0.0
147
0.0
147
0.0008202099737533
147
0.0
147
0.0
147
0.0
147
0.0
147
1.0
147
0.0
147
0.0
147
0.0
147
0.0
147
1.0
  0
MATERIAL
  5
1930
102
{ACAD_XDICTIONARY
360
1931
102
}
102
{ACAD_REACTORS
330
75
102
}
330
75
100
AcDbMaterial
  1
Global
 72
     0
 43
0.0008202099737533
 43
0.0
 43
0.0
 43
0.0
 43
0.0
 43
0.0008202099737533
 43
0.0
 43
0.0
 43
0.0
 43
0.0
 43
1.0
 43
0.0
 43
0.0
 43
0.0
 43
0.0
 43
1.0
 77
     0
 47
0.0008202099737533
 47
0.0
 47
0.0
 47
0.0
 47
0.0
 47
0.0008202099737533
 47
0.0
 47
0.0
 47
0.0
 47
0.0
 47
1.0
 47
0.0
 47
0.0
 47
0.0
 47
0.0
 47
1.0
171
     0
 49
0.0008202099737533
 49
0.0
 49
0.0
 49
0.0
 49
0.0
 49
0.0008202099737533
 49
0.0
 49
0.0
 49
0.0
 49
0.0
 49
1.0
 49
0.0
 49
0.0
 49
0.0
 49
0.0
 49
1.0
175
     0
142
0.0008202099737533
142
0.0
142
0.0
142
0.0
142
0.0
142
0.0008202099737533
142
0.0
142
0.0
142
0.0
142
0.0
142
1.0
142
0.0
142
0.0
142
0.0
142
0.0
142
1.0
179
     0
144
0.0008202099737533
144
0.0
144
0.0
144
0.0
144
0.0
144
0.0008202099737533
144
0.0
144
0.0
144
0.0
144
0.0
144
1.0
144
0.0
144
0.0
144
0.0
144
0.0
144
1.0
147
0.0008202099737533
147
0.0
147
0.0
147
0.0
147
0.0
147
0.0008202099737533
147
0.0
147
0.0
147
0.0
147
0.0
147
1.0
147
0.0
147
0.0
147
0.0
147
0.0
147
1.0
  0
MLEADERSTYLE
  5
195C
102
{ACAD_REACTORS
330
195B
102
}
330
195B
100
AcDbMLeaderStyle
170
     2
171
     1
172
     0
 90
        2
 40
0.0
 41
0.0
173
     1
 91
-1056964608
340
14
 92
       -2
290
     1
 42
2.0
291
     1
 43
0.36
  3
Standard
 44
4.0
300

342
11
174
     1
178
     6
175
     1
176
     0
 93
-1056964608
 45
4.0
292
     0
297
     0
 46
4.0
 94
-1056964608
 47
1.0
 49
1.0
140
1.0
293
     1
141
0.0
294
     1
177
     0
142
1.0
295
     0
296
     0
143
0.125
1001
ACAD_MLEADERVER
1070
     2
  0
MLINESTYLE
  5
18
102
{ACAD_REACTORS
330
17
102
}
330
17
100
AcDbMlineStyle
  2
STANDARD
 70
     0
  3

 62
   256
 51
90.0
 52
90.0
 71
     2
 49
0.5
 62
   256
  6
BYLAYER
 49
-0.5
 62
   256
  6
BYLAYER
  0
ACDBPLACEHOLDER
  5
F
102
{ACAD_REACTORS
330
E
102
}
330
E
  0
SCALE
  5
194A
102
{ACAD_REACTORS
330
1949
102
}
330
1949
100
AcDbScale
 70
     0
300
1:1
140
1.0
141
1.0
290
     1
  0
SCALE
  5
194B
102
{ACAD_REACTORS
330
1949
102
}
330
1949
100
AcDbScale
 70
     0
300
1:2
140
1.0
141
2.0
290
     0
  0
SCALE
  5
194C
102
{ACAD_REACTORS
330
1949
102
}
330
1949
100
AcDbScale
 70
     0
300
1:4
140
1.0
141
4.0
290
     0
  0
SCALE
  5
194D
102
{ACAD_REACTORS
330
1949
102
}
330
1949
100
AcDbScale
 70
     0
300
1:5
140
1.0
141
5.0
290
     0
  0
SCALE
  5
194E
102
{ACAD_REACTORS
330
1949
102
}
330
1949
100
AcDbScale
 70
     0
300
1:8
140
1.0
141
8.0
290
     0
  0
SCALE
  5
194F
102
{ACAD_REACTORS
330
1949
102
}
330
1949
100
AcDbScale
 70
     0
300
1:10
140
1.0
141
10.0
290
     0
  0
SCALE
  5
1950
102
{ACAD_REACTORS
330
1949
102
}
330
1949
100
AcDbScale
 70
     0
300
1:16
140
1.0
141
16.0
290
     0
  0
SCALE
  5
1951
102
{ACAD_REACTORS
330
1949
102
}
330
1949
100
AcDbScale
 70
     0
300
1:20
140
1.0
141
20.0
290
     0
  0
SCALE
  5
1952
102
{ACAD_REACTORS
330
1949
102
}
330
1949
100
AcDbScale
 70
     0
300
1:30
140
1.0
141
30.0
290
     0
  0
SCALE
  5
1953
102
{ACAD_REACTORS
330
1949
102
}
330
1949
100
AcDbScale
 70
     0
300
1:40
140
1.0
141
40.0
290
     0
  0
SCALE
  5
1954
102
{ACAD_REACTORS
330
1949
102
}
330
1949
100
AcDbScale
 70
     0
300
1:50
140
1.0
141
50.0
290
     0
  0
SCALE
  5
1955
102
{ACAD_REACTORS
330
1949
102
}
330
1949
100
AcDbScale
 70
     0
300
1:100
140
1.0
141
100.0
290
     0
  0
SCALE
  5
1956
102
{ACAD_REACTORS
330
1949
102
}
330
1949
100
AcDbScale
 70
     0
300
2:1
140
2.0
141
1.0
290
     0
  0
SCALE
  5
1957
102
{ACAD_REACTORS
330
1949
102
}
330
1949
100
AcDbScale
 70
     0
300
4:1
140
4.0
141
1.0
290
     0
  0
SCALE
  5
1958
102
{ACAD_REACTORS
330
1949
102
}
330
1949
100
AcDbScale
 70
     0
300
8:1
140
8.0
141
1.0
290
     0
  0
SCALE
  5
1959
102
{ACAD_REACTORS
330
1949
102
}
330
1949
100
AcDbScale
 70
     0
300
10:1
140
10.0
141
1.0
290
     0
  0
SCALE
  5
195A
102
{ACAD_REACTORS
330
1949
102
}
330
1949
100
AcDbScale
 70
     0
300
100:1
140
100.0
141
1.0
290
     0
  0
TABLESTYLE
  5
78
102
{ACAD_XDICTIONARY
360
198A
102
}
102
{ACAD_REACTORS
330
77
102
}
330
77
100
AcDbTableStyle
  3
Standard
 70
     0
 71
     0
 40
1.5
 41
1.5
280
     0
281
     0
  7
Standard
140
4.5
170
     2
 62
     0
 63
     7
283
     0
274
    -2
284
     1
 64
     0
275
    -2
285
     1
 65
     0
276
    -2
286
     1
 66
     0
277
    -2
287
     1
 67
     0
278
    -2
288
     1
 68
     0
279
    -2
289
     1
 69
     0
  7
Standard
140
6.0
170
     5
 62
     0
 63
     7
283
     0
274
    -2
284
     1
 64
     0
275
    -2
285
     1
 65
     0
276
    -2
286
     1
 66
     0
277
    -2
287
     1
 67
     0
278
    -2
288
     1
 68
     0
279
    -2
289
     1
 69
     0
  7
Standard
140
4.5
170
     5
 62
     0
 63
     7
283
     0
274
    -2
284
     1
 64
     0
275
    -2
285
     1
 65
     0
276
    -2
286
     1
 66
     0
277
    -2
287
     1
 67
     0
278
    -2
288
     1
 68
     0
279
    -2
289
     1
 69
     0
  0
VISUALSTYLE
  5
193E
102
{ACAD_REACTORS
330
1938
102
}
330
1938
100
AcDbVisualStyle
  2
2dWireframe
 70
     4
 71
     0
 72
     2
 73
     0
 90
        0
 40
-0.6
 41
-30.0
 62
     5
 63
     7
 74
     1
 91
        4
 64
     7
 65
   257
 75
     1
175
     1
 42
1.0
 92
        0
 66
   257
 43
1.0
 76
     1
 77
     6
 78
     2
 67
     7
 79
     5
170
     0
171
     0
290
     0
174
     0
 93
        1
 44
0.0
173
     0
291
     0
 45
0.0
1001
ACAD
1000
AcDbSavedByObjectVersion
1070
     0
  0
VISUALSTYLE
  5
1940
102
{ACAD_REACTORS
330
1938
102
}
330
1938
100
AcDbVisualStyle
  2
3D Hidden
 70
     6
 71
     1
 72
     2
 73
     2
 90
        0
 40
-0.6
 41
-30.0
 62
     5
 63
     7
 74
     2
 91
        2
 64
     7
 65
   257
 75
     2
175
     1
 42
40.0
 92
        0
 66
   257
 43
1.0
 76
     1
 77
     6
 78
     2
 67
     7
 79
     3
170
     0
171
     0
290
     0
174
     0
 93
        1
 44
0.0
173
     0
291
     0
 45
0.0
1001
ACAD
1000
AcDbSavedByObjectVersion
1070
     0
  0
VISUALSTYLE
  5
193F
102
{ACAD_REACTORS
330
1938
102
}
330
1938
100
AcDbVisualStyle
  2
3dWireframe
 70
     5
 71
     0
 72
     2
 73
     0
 90
        0
 40
-0.6
 41
-30.0
 62
     5
 63
     7
 74
     1
 91
        4
 64
     7
 65
   257
 75
     1
175
     1
 42
1.0
 92
        0
 66
   257
 43
1.0
 76
     1
 77
     6
 78
     2
 67
     7
 79
     5
170
     0
171
     0
290
     0
174
     0
 93
        1
 44
0.0
173
     0
291
     0
 45
0.0
1001
ACAD
1000
AcDbSavedByObjectVersion
1070
     0
  0
VISUALSTYLE
  5
193D
102
{ACAD_REACTORS
330
1938
102
}
330
1938
100
AcDbVisualStyle
  2
Basic
 70
     7
 71
     1
 72
     0
 73
     1
 90
        0
 40
-0.6
 41
-30.0
 62
     5
 63
     7
 74
     0
 91
        4
 64
     7
 65
   257
 75
     1
175
     1
 42
1.0
 92
        8
 66
     7
 43
1.0
 76
     1
 77
     6
 78
     2
 67
     7
 79
     5
170
     0
171
     0
290
     0
174
     0
 93
        1
 44
0.0
173
     0
291
     1
 45
0.0
1001
ACAD
1000
AcDbSavedByObjectVersion
1070
     0
  0
VISUALSTYLE
  5
1944
102
{ACAD_REACTORS
330
1938
102
}
330
1938
100
AcDbVisualStyle
  2
Brighten
 70
    12
 71
     2
 72
     2
 73
     0
 90
        0
 40
-0.6
 41
-30.0
 62
     5
 63
     7
 74
     1
 91
        4
 64
     7
 65
   257
 75
     1
175
     1
 42
1.0
 92
        8
 66
     7
 43
1.0
 76
     1
 77
     6
 78
     2
 67
     7
 79
     5
170
     0
171
     0
290
     0
174
     0
 93
        1
 44
50.0
173
     0
291
     1
 45
0.0
1001
ACAD
1000
AcDbSavedByObjectVersion
1070
     0
  0
VISUALSTYLE
  5
1948
102
{ACAD_REACTORS
330
1938
102
}
330
1938
100
AcDbVisualStyle
  2
ColorChange
 70
    16
 71
     2
 72
     2
 73
     3
 90
        0
 40
-0.6
 41
-30.0
 62
     5
 63
     8
 74
     1
 91
        4
 64
     7
 65
   257
 75
     1
175
     1
 42
1.0
 92
        8
 66
     8
 43
1.0
 76
     1
 77
     6
 78
     2
 67
     7
 79
     5
170
     0
171
     0
290
     0
174
     0
 93
        1
 44
0.0
173
     0
291
     1
 45
0.0
1001
ACAD
1000
AcDbSavedByObjectVersion
1070
     0
  0
VISUALSTYLE
  5
1941
102
{ACAD_REACTORS
330
1938
102
}
330
1938
100
AcDbVisualStyle
  2
Conceptual
 70
     9
 71
     3
 72
     2
 73
     0
 90
        0
 40
-0.6
 41
-30.0
 62
     5
 63
     7
 74
     2
 91
        2
 64
     7
 65
   257
 75
     1
175
     1
 42
40.0
 92
        8
 66
     7
 43
1.0
 76
     1
 77
     6
 78
     2
 67
     7
 79
     3
170
     0
171
     0
290
     0
174
     0
 93
        1
 44
0.0
173
     0
291
     0
 45
0.0
1001
ACAD
1000
AcDbSavedByObjectVersion
1070
     0
  0
VISUALSTYLE
  5
1943
102
{ACAD_REACTORS
330
1938
102
}
330
1938
100
AcDbVisualStyle
  2
Dim
 70
    11
 71
     2
 72
     2
 73
     0
 90
        0
 40
-0.6
 41
-30.0
 62
     5
 63
     7
 74
     1
 91
        4
 64
     7
 65
   257
 75
     1
175
     1
 42
1.0
 92
        8
 66
     7
 43
1.0
 76
     1
 77
     6
 78
     2
 67
     7
 79
     5
170
     0
171
     0
290
     0
174
     0
 93
        1
 44
-50.0
173
     0
291
     1
 45
0.0
1001
ACAD
1000
AcDbSavedByObjectVersion
1070
     0
  0
VISUALSTYLE
  5
1947
102
{ACAD_REACTORS
330
1938
102
}
330
1938
100
AcDbVisualStyle
  2
Facepattern
 70
    15
 71
     2
 72
     2
 73
     0
 90
        0
 40
-0.6
 41
-30.0
 62
     5
 63
     7
 74
     1
 91
        4
 64
     7
 65
   257
 75
     1
175
     1
 42
1.0
 92
        8
 66
     7
 43
1.0
 76
     1
 77
     6
 78
     2
 67
     7
 79
     5
170
     0
171
     0
290
     0
174
     0
 93
        1
 44
0.0
173
     0
291
     1
 45
0.0
1001
ACAD
1000
AcDbSavedByObjectVersion
1070
     0
  0
VISUALSTYLE
  5
1939
102
{ACAD_REACTORS
330
1938
102
}
330
1938
100
AcDbVisualStyle
  2
Flat
 70
     0
 71
     2
 72
     1
 73
     1
 90
        2
 40
-0.6
 41
30.0
 62
     5
 63
     7
 74
     0
 91
        4
 64
     7
 65
   257
 75
     1
175
     1
 42
1.0
 92
        8
 66
     7
 43
1.0
 76
     1
 77
     6
 78
     2
 67
     7
 79
     5
170
     0
171
     0
290
     0
174
     0
 93
       13
 44
0.0
173
     0
291
     1
 45
0.0
1001
ACAD
1000
AcDbSavedByObjectVersion
1070
     0
  0
VISUALSTYLE
  5
193A
102
{ACAD_REACTORS
330
1938
102
}
330
1938
100
AcDbVisualStyle
  2
FlatWithEdges
 70
     1
 71
     2
 72
     1
 73
     1
 90
        2
 40
-0.6
 41
30.0
 62
     5
 63
     7
 74
     1
 91
        4
 64
     7
 65
   257
 75
     1
175
     1
 42
1.0
 92
        0
 66
   257
 43
1.0
 76
     1
 77
     6
 78
     2
 67
     7
 79
     5
170
     0
171
     0
290
     0
174
     0
 93
       13
 44
0.0
173
     0
291
     1
 45
0.0
1001
ACAD
1000
AcDbSavedByObjectVersion
1070
     0
  0
VISUALSTYLE
  5
193B
102
{ACAD_REACTORS
330
1938
102
}
330
1938
100
AcDbVisualStyle
  2
Gouraud
 70
     2
 71
     2
 72
     2
 73
     1
 90
        2
 40
-0.6
 41
30.0
 62
     5
 63
     7
 74
     0
 91
        4
 64
     7
 65
   257
 75
     1
175
     1
 42
1.0
 92
        0
 66
     7
 43
1.0
 76
     1
 77
     6
 78
     2
 67
     7
 79
     5
170
     0
171
     0
290
     0
174
     0
 93
       13
 44
0.0
173
     0
291
     1
 45
0.0
1001
ACAD
1000
AcDbSavedByObjectVersion
1070
     0
  0
VISUALSTYLE
  5
193C
102
{ACAD_REACTORS
330
1938
102
}
330
1938
100
AcDbVisualStyle
  2
GouraudWithEdges
 70
     3
 71
     2
 72
     2
 73
     1
 90
        2
 40
-0.6
 41
30.0
 62
     5
 63
     7
 74
     1
 91
        4
 64
     7
 65
   257
 75
     1
175
     1
 42
1.0
 92
        0
 66
   257
 43
1.0
 76
     1
 77
     6
 78
     2
 67
     7
 79
     5
170
     0
171
     0
290
     0
174
     0
 93
       13
 44
0.0
173
     0
291
     1
 45
0.0
1001
ACAD
1000
AcDbSavedByObjectVersion
1070
     0
  0
VISUALSTYLE
  5
1946
102
{ACAD_REACTORS
330
1938
102
}
330
1938
100
AcDbVisualStyle
  2
Linepattern
 70
    14
 71
     2
 72
     2
 73
     0
 90
        0
 40
-0.6
 41
-30.0
 62
     5
 63
     7
 74
     1
 91
        4
 64
     7
 65
   257
 75
     7
175
     7
 42
1.0
 92
        8
 66
     7
 43
1.0
 76
     1
 77
     6
 78
     2
 67
     7
 79
     5
170
     0
171
     0
290
     0
174
     0
 93
        1
 44
0.0
173
     0
291
     1
 45
0.0
1001
ACAD
1000
AcDbSavedByObjectVersion
1070
     0
  0
VISUALSTYLE
  5
1942
102
{ACAD_REACTORS
330
1938
102
}
330
1938
100
AcDbVisualStyle
  2
Realistic
 70
     8
 71
     2
 72
     2
 73
     0
 90
        0
 40
-0.6
 41
-30.0
 62
     5
 63
     7
 74
     1
 91
        0
 64
     7
 65
   257
 75
     1
175
     1
 42
1.0
 92
        8
 66
     8
 43
1.0
 76
     1
 77
     6
 78
     2
 67
     7
 79
     5
170
     0
171
     0
290
     0
174
     0
 93
       13
 44
0.0
173
     0
291
     0
 45
0.0
1001
ACAD
1000
AcDbSavedByObjectVersion
1070
     0
  0
VISUALSTYLE
  5
1945
102
{ACAD_REACTORS
330
1938
102
}
330
1938
100
AcDbVisualStyle
  2
Thicken
 70
    13
 71
     2
 72
     2
 73
     0
 90
        0
 40
-0.6
 41
-30.0
 62
     5
 63
     7
 74
     1
 91
        4
 64
     7
 65
   257
 75
     1
175
     1
 42
1.0
 92
       12
 66
     7
 43
1.0
 76
     1
 77
     6
 78
     2
 67
     7
 79
     5
170
     0
171
     0
290
     0
174
     0
 93
        1
 44
0.0
173
     0
291
     1
 45
0.0
1001
ACAD
1000
AcDbSavedByObjectVersion
1070
     0
  0
DICTIONARYVAR
  5
1987
102
{ACAD_REACTORS
330
5E
102
}
330
5E
100
DictionaryVariables
280
     0
  1
1:1
  0
DICTIONARYVAR
  5
1986
102
{ACAD_REACTORS
330
5E
102
}
330
5E
100
DictionaryVariables
280
     0
  1
STANDARD
  0
DICTIONARYVAR
  5
145
102
{ACAD_REACTORS
330
5E
102
}
330
5E
100
DictionaryVariables
280
     0
  1
STANDARD
  0
DICTIONARYVAR
  5
5F
102
{ACAD_REACTORS
330
5E
102
}
330
5E
100
DictionaryVariables
280
     0
  1
2
  0
DICTIONARYVAR
  5
63
102
{ACAD_REACTORS
330
5E
102
}
330
5E
100
DictionaryVariables
280
     0
  1
1
  0
DICTIONARYVAR
  5
1989
102
{ACAD_REACTORS
330
5E
102
}
330
5E
100
DictionaryVariables
280
     0
  1
0
  0
DICTIONARYVAR
  5
170
102
{ACAD_REACTORS
330
5E
102
}
330
5E
100
DictionaryVariables
280
     0
  1

  0
DICTIONARYVAR
  5
1988
102
{ACAD_REACTORS
330
5E
102
}
330
5E
100
DictionaryVariables
280
     0
  1
127
  0
DICTIONARY
  5
E3
102
{ACAD_REACTORS
330
D8
102
}
330
D8
100
AcDbDictionary
281
     1
  0
XRECORD
  5
105
102
{ACAD_REACTORS
330
D8
102
}
330
D8
100
AcDbXrecord
280
     1
 90
-1023410169
  0
DICTIONARY
  5
1992
330
51
100
AcDbDictionary
280
     1
281
     1
  3
ACAD_XREC_ROUNDTRIP
360
1993
  0
DICTIONARY
  5
1994
330
56
100
AcDbDictionary
280
     1
281
     1
  3
ACAD_XREC_ROUNDTRIP
360
1995
  0
DICTIONARY
  5
1990
330
22
100
AcDbDictionary
280
     1
281
     1
  3
ACAD_XREC_ROUNDTRIP
360
1991
  0
DICTIONARY
  5
1929
330
1928
100
AcDbDictionary
280
     1
281
     1
  3
ACAD_XREC_ROUNDTRIP
360
199E
  3
BUMPTILE
360
192B
  3
DIFFUSETILE
360
192A
  3
OPACITYTILE
360
192E
  3
REFLECTIONTILE
360
192D
  3
REFRACTIONTILE
360
192F
  3
SPECULARTILE
360
192C
  0
DICTIONARY
  5
1921
330
1920
100
AcDbDictionary
280
     1
281
     1
  3
ACAD_XREC_ROUNDTRIP
360
199D
  3
BUMPTILE
360
1923
  3
DIFFUSETILE
360
1922
  3
OPACITYTILE
360
1926
  3
REFLECTIONTILE
360
1925
  3
REFRACTIONTILE
360
1927
  3
SPECULARTILE
360
1924
  0
DICTIONARY
  5
1931
330
1930
100
AcDbDictionary
280
     1
281
     1
  3
ACAD_XREC_ROUNDTRIP
360
199F
  3
BUMPTILE
360
1933
  3
DIFFUSETILE
360
1932
  3
OPACITYTILE
360
1936
  3
REFLECTIONTILE
360
1935
  3
REFRACTIONTILE
360
1937
  3
SPECULARTILE
360
1934
  0
DICTIONARY
  5
198A
330
78
100
AcDbDictionary
280
     1
281
     1
  3
ACAD_ROUNDTRIP_2008_TABLESTYLE_CELLSTYLEMAP
360
198B
  3
ACAD_XREC_ROUNDTRIP
360
1996
  0
XRECORD
  5
1993
102
{ACAD_REACTORS
330
1992
102
}
330
1992
100
AcDbXrecord
280
     1
102
SHADEPLOT
 70
     0
102
SHADEPLOTRESLEVEL
 70
     2
102
SHADEPLOTCUSTOMDPI
 70
   300
  0
XRECORD
  5
1995
102
{ACAD_REACTORS
330
1994
102
}
330
1994
100
AcDbXrecord
280
     1
102
SHADEPLOT
 70
     0
102
SHADEPLOTRESLEVEL
 70
     2
102
SHADEPLOTCUSTOMDPI
 70
   300
  0
XRECORD
  5
1991
102
{ACAD_REACTORS
330
1990
102
}
330
1990
100
AcDbXrecord
280
     1
102
SHADEPLOT
 70
     0
102
SHADEPLOTRESLEVEL
 70
     2
102
SHADEPLOTCUSTOMDPI
 70
   300
  0
XRECORD
  5
199E
102
{ACAD_REACTORS
330
1929
102
}
330
1929
100
AcDbXrecord
280
     1
102
MATERIAL
148
0.0
149
0.0
149
0.0
 93
        0
 94
      127
282
     0
 72
     0
 77
     0
171
     0
175
     0
179
     0
273
     0
  0
XRECORD
  5
192B
102
{ACAD_REACTORS
330
1929
102
}
330
1929
100
AcDbXrecord
280
     1
270
     1
271
     1
  0
XRECORD
  5
192A
102
{ACAD_REACTORS
330
1929
102
}
330
1929
100
AcDbXrecord
280
     1
270
     1
271
     1
  0
XRECORD
  5
192E
102
{ACAD_REACTORS
330
1929
102
}
330
1929
100
AcDbXrecord
280
     1
270
     1
271
     1
  0
XRECORD
  5
192D
102
{ACAD_REACTORS
330
1929
102
}
330
1929
100
AcDbXrecord
280
     1
270
     1
271
     1
  0
XRECORD
  5
192F
102
{ACAD_REACTORS
330
1929
102
}
330
1929
100
AcDbXrecord
280
     1
270
     1
271
     1
  0
XRECORD
  5
192C
102
{ACAD_REACTORS
330
1929
102
}
330
1929
100
AcDbXrecord
280
     1
270
     1
271
     1
  0
XRECORD
  5
199D
102
{ACAD_REACTORS
330
1921
102
}
330
1921
100
AcDbXrecord
280
     1
102
MATERIAL
148
0.0
149
0.0
149
0.0
 93
        0
 94
      127
282
     0
 72
     0
 77
     0
171
     0
175
     0
179
     0
273
     0
  0
XRECORD
  5
1923
102
{ACAD_REACTORS
330
1921
102
}
330
1921
100
AcDbXrecord
280
     1
270
     1
271
     1
  0
XRECORD
  5
1922
102
{ACAD_REACTORS
330
1921
102
}
330
1921
100
AcDbXrecord
280
     1
270
     1
271
     1
  0
XRECORD
  5
1926
102
{ACAD_REACTORS
330
1921
102
}
330
1921
100
AcDbXrecord
280
     1
270
     1
271
     1
  0
XRECORD
  5
1925
102
{ACAD_REACTORS
330
1921
102
}
330
1921
100
AcDbXrecord
280
     1
270
     1
271
     1
  0
XRECORD
  5
1927
102
{ACAD_REACTORS
330
1921
102
}
330
1921
100
AcDbXrecord
280
     1
270
     1
271
     1
  0
XRECORD
  5
1924
102
{ACAD_REACTORS
330
1921
102
}
330
1921
100
AcDbXrecord
280
     1
270
     1
271
     1
  0
XRECORD
  5
199F
102
{ACAD_REACTORS
330
1931
102
}
330
1931
100
AcDbXrecord
280
     1
102
MATERIAL
148
0.0
149
0.0
149
0.0
 93
        0
 94
      127
282
     0
 72
     0
 77
     0
171
     0
175
     0
179
     0
273
     0
  0
XRECORD
  5
1933
102
{ACAD_REACTORS
330
1931
102
}
330
1931
100
AcDbXrecord
280
     1
270
     1
271
     1
  0
XRECORD
  5
1932
102
{ACAD_REACTORS
330
1931
102
}
330
1931
100
AcDbXrecord
280
     1
270
     1
271
     1
  0
XRECORD
  5
1936
102
{ACAD_REACTORS
330
1931
102
}
330
1931
100
AcDbXrecord
280
     1
270
     1
271
     1
  0
XRECORD
  5
1935
102
{ACAD_REACTORS
330
1931
102
}
330
1931
100
AcDbXrecord
280
     1
270
     1
271
     1
  0
XRECORD
  5
1937
102
{ACAD_REACTORS
330
1931
102
}
330
1931
100
AcDbXrecord
280
     1
270
     1
271
     1
  0
XRECORD
  5
1934
102
{ACAD_REACTORS
330
1931
102
}
330
1931
100
AcDbXrecord
280
     1
270
     1
271
     1
  0
CELLSTYLEMAP
  5
198B
102
{ACAD_REACTORS
330
198A
102
}
330
198A
100
AcDbCellStyleMap
 90
        3
300
CELLSTYLE
  1
TABLEFORMAT_BEGIN
 90
        5
170
     1
 91
        0
 92
    32768
 62
   257
 93
        1
300
CONTENTFORMAT
  1
CONTENTFORMAT_BEGIN
 90
        0
 91
        0
 92
        4
 93
        0
300

 40
0.0
140
1.0
 94
        5
 62
     0
340
11
144
6.0
309
CONTENTFORMAT_END
171
     1
301
MARGIN
  1
CELLMARGIN_BEGIN
 40
1.5
 40
1.5
 40
1.5
 40
1.5
 40
0.18
 40
0.18
309
CELLMARGIN_END
 94
        6
 95
        1
302
GRIDFORMAT
  1
GRIDFORMAT_BEGIN
 90
        0
 91
        1
 62
     0
 92
       -2
340
0
 93
        0
 40
0.045
309
GRIDFORMAT_END
 95
        2
302
GRIDFORMAT
  1
GRIDFORMAT_BEGIN
 90
        0
 91
        1
 62
     0
 92
       -2
340
0
 93
        0
 40
0.045
309
GRIDFORMAT_END
 95
        4
302
GRIDFORMAT
  1
GRIDFORMAT_BEGIN
 90
        0
 91
        1
 62
     0
 92
       -2
340
0
 93
        0
 40
0.045
309
GRIDFORMAT_END
 95
        8
302
GRIDFORMAT
  1
GRIDFORMAT_BEGIN
 90
        0
 91
        1
 62
     0
 92
       -2
340
0
 93
        0
 40
0.045
309
GRIDFORMAT_END
 95
       16
302
GRIDFORMAT
  1
GRIDFORMAT_BEGIN
 90
        0
 91
        1
 62
     0
 92
       -2
340
0
 93
        0
 40
0.045
309
GRIDFORMAT_END
 95
       32
302
GRIDFORMAT
  1
GRIDFORMAT_BEGIN
 90
        0
 91
        1
 62
     0
 92
       -2
340
0
 93
        0
 40
0.045
309
GRIDFORMAT_END
309
TABLEFORMAT_END
  1
CELLSTYLE_BEGIN
 90
        1
 91
        1
300
_TITLE
309
CELLSTYLE_END
300
CELLSTYLE
  1
TABLEFORMAT_BEGIN
 90
        5
170
     1
 91
        0
 92
        0
 62
   257
 93
        1
300
CONTENTFORMAT
  1
CONTENTFORMAT_BEGIN
 90
        0
 91
        0
 92
        4
 93
        0
300

 40
0.0
140
1.0
 94
        5
 62
     0
340
11
144
4.5
309
CONTENTFORMAT_END
171
     1
301
MARGIN
  1
CELLMARGIN_BEGIN
 40
1.5
 40
1.5
 40
1.5
 40
1.5
 40
0.18
 40
0.18
309
CELLMARGIN_END
 94
        6
 95
        1
302
GRIDFORMAT
  1
GRIDFORMAT_BEGIN
 90
        0
 91
        1
 62
     0
 92
       -2
340
0
 93
        0
 40
0.045
309
GRIDFORMAT_END
 95
        2
302
GRIDFORMAT
  1
GRIDFORMAT_BEGIN
 90
        0
 91
        1
 62
     0
 92
       -2
340
0
 93
        0
 40
0.045
309
GRIDFORMAT_END
 95
        4
302
GRIDFORMAT
  1
GRIDFORMAT_BEGIN
 90
        0
 91
        1
 62
     0
 92
       -2
340
0
 93
        0
 40
0.045
309
GRIDFORMAT_END
 95
        8
302
GRIDFORMAT
  1
GRIDFORMAT_BEGIN
 90
        0
 91
        1
 62
     0
 92
       -2
340
0
 93
        0
 40
0.045
309
GRIDFORMAT_END
 95
       16
302
GRIDFORMAT
  1
GRIDFORMAT_BEGIN
 90
        0
 91
        1
 62
     0
 92
       -2
340
0
 93
        0
 40
0.045
309
GRIDFORMAT_END
 95
       32
302
GRIDFORMAT
  1
GRIDFORMAT_BEGIN
 90
        0
 91
        1
 62
     0
 92
       -2
340
0
 93
        0
 40
0.045
309
GRIDFORMAT_END
309
TABLEFORMAT_END
  1
CELLSTYLE_BEGIN
 90
        2
 91
        1
300
_HEADER
309
CELLSTYLE_END
300
CELLSTYLE
  1
TABLEFORMAT_BEGIN
 90
        5
170
     1
 91
        0
 92
        0
 62
   257
 93
        1
300
CONTENTFORMAT
  1
CONTENTFORMAT_BEGIN
 90
        0
 91
        0
 92
        4
 93
        0
300

 40
0.0
140
1.0
 94
        2
 62
     0
340
11
144
4.5
309
CONTENTFORMAT_END
171
     1
301
MARGIN
  1
CELLMARGIN_BEGIN
 40
1.5
 40
1.5
 40
1.5
 40
1.5
 40
0.18
 40
0.18
309
CELLMARGIN_END
 94
        6
 95
        1
302
GRIDFORMAT
  1
GRIDFORMAT_BEGIN
 90
        0
 91
        1
 62
     0
 92
       -2
340
0
 93
        0
 40
0.045
309
GRIDFORMAT_END
 95
        2
302
GRIDFORMAT
  1
GRIDFORMAT_BEGIN
 90
        0
 91
        1
 62
     0
 92
       -2
340
0
 93
        0
 40
0.045
309
GRIDFORMAT_END
 95
        4
302
GRIDFORMAT
  1
GRIDFORMAT_BEGIN
 90
        0
 91
        1
 62
     0
 92
       -2
340
0
 93
        0
 40
0.045
309
GRIDFORMAT_END
 95
        8
302
GRIDFORMAT
  1
GRIDFORMAT_BEGIN
 90
        0
 91
        1
 62
     0
 92
       -2
340
0
 93
        0
 40
0.045
309
GRIDFORMAT_END
 95
       16
302
GRIDFORMAT
  1
GRIDFORMAT_BEGIN
 90
        0
 91
        1
 62
     0
 92
       -2
340
0
 93
        0
 40
0.045
309
GRIDFORMAT_END
 95
       32
302
GRIDFORMAT
  1
GRIDFORMAT_BEGIN
 90
        0
 91
        1
 62
     0
 92
       -2
340
0
 93
        0
 40
0.045
309
GRIDFORMAT_END
309
TABLEFORMAT_END
  1
CELLSTYLE_BEGIN
 90
        3
 91
        2
300
_DATA
309
CELLSTYLE_END
  0
XRECORD
  5
1996
102
{ACAD_REACTORS
330
198A
102
}
330
198A
100
AcDbXrecord
280
     1
102
ACAD_ROUNDTRIP_PRE2007_TABLESTYLE
 90
        4
 91
        0
  1

 92
        4
 93
        0
  2

 94
        4
 95
        0
  3

  0
ENDSEC
  0
EOF
