  0
SECTION
  2
HEADER
  9
$ACADVER
  1
AC1015
  9
$ACADMAINTVER
 70
    20
  9
$DWGCODEPAGE
  3
ANSI_1252
  9
$INSBASE
 10
0.0
 20
0.0
 30
0.0
  9
$EXTMIN
 10
231.2840928818205
 20
-150.5250373850028
 30
0.0
  9
$EXTMAX
 10
1819.595986577559
 20
191.1773220229971
 30
0.0
  9
$LIMMIN
 10
0.0
 20
0.0
  9
$LIMMAX
 10
420.0
 20
297.0
  9
$ORTHOMODE
 70
     0
  9
$REGENMODE
 70
     1
  9
$FILLMODE
 70
     1
  9
$QTEXTMODE
 70
     0
  9
$MIRRTEXT
 70
     0
  9
$LTSCALE
 40
23.1
  9
$ATTMODE
 70
     1
  9
$TEXTSIZE
 40
0.2
  9
$TRACEWID
 40
0.05
  9
$TEXTSTYLE
  7
STANDARD
  9
$CLAYER
  8
0
  9
$CELTYPE
  6
BYLAYER
  9
$CECOLOR
 62
   256
  9
$CELTSCALE
 40
1.0
  9
$DISPSILH
 70
     0
  9
$DIMSCALE
 40
1.0
  9
$DIMASZ
 40
3.5
  9
$DIMEXO
 40
1.5
  9
$DIMDLI
 40
15.96
  9
$DIMRND
 40
0.0
  9
$DIMDLE
 40
0.0
  9
$DIMEXE
 40
1.5
  9
$DIMTP
 40
0.005
  9
$DIMTM
 40
0.005
  9
$DIMTXT
 40
3.5
  9
$DIMCEN
 40
3.779999999999998
  9
$DIMTSZ
 40
0.0
  9
$DIMTOL
 70
     1
  9
$DIMLIM
 70
     0
  9
$DIMTIH
 70
     1
  9
$DIMTOH
 70
     1
  9
$DIMSE1
 70
     0
  9
$DIMSE2
 70
     0
  9
$DIMTAD
 70
     0
  9
$DIMZIN
 70
     0
  9
$DIMBLK
  1
_FILLED
  9
$DIMASO
 70
     1
  9
$DIMSHO
 70
     1
  9
$DIMPOST
  1

  9
$DIMAPOST
  1

  9
$DIMALT
 70
     0
  9
$DIMALTD
 70
     2
  9
$DIMALTF
 40
25.4
  9
$DIMLFAC
 40
1.0
  9
$DIMTOFL
 70
     0
  9
$DIMTVP
 40
0.0
  9
$DIMTIX
 70
     0
  9
$DIMSOXD
 70
     0
  9
$DIMSAH
 70
     0
  9
$DIMBLK1
  1

  9
$DIMBLK2
  1

  9
$DIMSTYLE
  2
STANDARD
  9
$DIMCLRD
 70
     0
  9
$DIMCLRE
 70
     0
  9
$DIMCLRT
 70
     0
  9
$DIMTFAC
 40
1.0
  9
$DIMGAP
 40
0.625
  9
$DIMJUST
 70
     0
  9
$DIMSD1
 70
     0
  9
$DIMSD2
 70
     0
  9
$DIMTOLJ
 70
     1
  9
$DIMTZIN
 70
     0
  9
$DIMALTZ
 70
     0
  9
$DIMALTTZ
 70
     0
  9
$DIMUPT
 70
     0
  9
$DIMDEC
 70
     0
  9
$DIMTDEC
 70
     4
  9
$DIMALTU
 70
     2
  9
$DIMALTTD
 70
     2
  9
$DIMTXSTY
  7
STANDARD
  9
$DIMAUNIT
 70
     0
  9
$DIMADEC
 70
     0
  9
$DIMALTRND
 40
0.0
  9
$DIMAZIN
 70
     0
  9
$DIMDSEP
 70
    46
  9
$DIMATFIT
 70
     3
  9
$DIMFRAC
 70
     0
  9
$DIMLDRBLK
  1

  9
$DIMLUNIT
 70
     2
  9
$DIMLWD
 70
    -2
  9
$DIMLWE
 70
    -2
  9
$DIMTMOVE
 70
     0
  9
$LUNITS
 70
     2
  9
$LUPREC
 70
     2
  9
$SKETCHINC
 40
0.1
  9
$FILLETRAD
 40
0.0
  9
$AUNITS
 70
     0
  9
$AUPREC
 70
     0
  9
$MENU
  1
.
  9
$ELEVATION
 40
0.0
  9
$PELEVATION
 40
0.0
  9
$THICKNESS
 40
0.0
  9
$LIMCHECK
 70
     0
  9
$CHAMFERA
 40
0.0
  9
$CHAMFERB
 40
0.0
  9
$CHAMFERC
 40
0.0
  9
$CHAMFERD
 40
0.0
  9
$SKPOLY
 70
     0
  9
$TDCREATE
 40
2456701.643440776
  9
$TDUCREATE
 40
2456701.601774109
  9
$TDUPDATE
 40
2456702.341317049
  9
$TDUUPDATE
 40
2456702.299650382
  9
$TDINDWG
 40
0.0305157060
  9
$TDUSRTIMER
 40
0.0305157060
  9
$USRTIMER
 70
     1
  9
$ANGBASE
 50
0.0
  9
$ANGDIR
 70
     0
  9
$PDMODE
 70
     3
  9
$PDSIZE
 40
0.3125
  9
$PLINEWID
 40
0.0
  9
$SPLFRAME
 70
     0
  9
$SPLINETYPE
 70
     6
  9
$SPLINESEGS
 70
     8
  9
$HANDSEED
  5
1407
  9
$SURFTAB1
 70
     6
  9
$SURFTAB2
 70
     6
  9
$SURFTYPE
 70
     6
  9
$SURFU
 70
     6
  9
$SURFV
 70
     6
  9
$UCSBASE
  2

  9
$UCSNAME
  2

  9
$UCSORG
 10
0.0
 20
0.0
 30
0.0
  9
$UCSXDIR
 10
1.0
 20
0.0
 30
0.0
  9
$UCSYDIR
 10
0.0
 20
1.0
 30
0.0
  9
$UCSORTHOREF
  2

  9
$UCSORTHOVIEW
 70
     0
  9
$UCSORGTOP
 10
0.0
 20
0.0
 30
0.0
  9
$UCSORGBOTTOM
 10
0.0
 20
0.0
 30
0.0
  9
$UCSORGLEFT
 10
0.0
 20
0.0
 30
0.0
  9
$UCSORGRIGHT
 10
0.0
 20
0.0
 30
0.0
  9
$UCSORGFRONT
 10
0.0
 20
0.0
 30
0.0
  9
$UCSORGBACK
 10
0.0
 20
0.0
 30
0.0
  9
$PUCSBASE
  2

  9
$PUCSNAME
  2

  9
$PUCSORG
 10
0.0
 20
0.0
 30
0.0
  9
$PUCSXDIR
 10
1.0
 20
0.0
 30
0.0
  9
$PUCSYDIR
 10
0.0
 20
1.0
 30
0.0
  9
$PUCSORTHOREF
  2

  9
$PUCSORTHOVIEW
 70
     0
  9
$PUCSORGTOP
 10
0.0
 20
0.0
 30
0.0
  9
$PUCSORGBOTTOM
 10
0.0
 20
0.0
 30
0.0
  9
$PUCSORGLEFT
 10
0.0
 20
0.0
 30
0.0
  9
$PUCSORGRIGHT
 10
0.0
 20
0.0
 30
0.0
  9
$PUCSORGFRONT
 10
0.0
 20
0.0
 30
0.0
  9
$PUCSORGBACK
 10
0.0
 20
0.0
 30
0.0
  9
$USERI1
 70
     0
  9
$USERI2
 70
     0
  9
$USERI3
 70
     0
  9
$USERI4
 70
     0
  9
$USERI5
 70
     0
  9
$USERR1
 40
0.0
  9
$USERR2
 40
0.0
  9
$USERR3
 40
0.0
  9
$USERR4
 40
0.0
  9
$USERR5
 40
0.0
  9
$WORLDVIEW
 70
     1
  9
$SHADEDGE
 70
     3
  9
$SHADEDIF
 70
    70
  9
$TILEMODE
 70
     1
  9
$MAXACTVP
 70
    64
  9
$PINSBASE
 10
0.0
 20
0.0
 30
0.0
  9
$PLIMCHECK
 70
     0
  9
$PEXTMIN
 10
1.000000000000000E+20
 20
1.000000000000000E+20
 30
1.000000000000000E+20
  9
$PEXTMAX
 10
-1.000000000000000E+20
 20
-1.000000000000000E+20
 30
-1.000000000000000E+20
  9
$PLIMMIN
 10
0.0
 20
0.0
  9
$PLIMMAX
 10
12.0
 20
9.0
  9
$UNITMODE
 70
     0
  9
$VISRETAIN
 70
     1
  9
$PLINEGEN
 70
     0
  9
$PSLTSCALE
 70
     1
  9
$TREEDEPTH
 70
  3020
  9
$CMLSTYLE
  2
Standard
  9
$CMLJUST
 70
     0
  9
$CMLSCALE
 40
1.0
  9
$PROXYGRAPHICS
 70
     1
  9
$MEASUREMENT
 70
     1
  9
$CELWEIGHT
370
    -1
  9
$ENDCAPS
280
     0
  9
$JOINSTYLE
280
     0
  9
$LWDISPLAY
290
     0
  9
$INSUNITS
 70
     4
  9
$HYPERLINKBASE
  1

  9
$STYLESHEET
  1

  9
$XEDIT
290
     1
  9
$CEPSNTYPE
380
     0
  9
$PSTYLEMODE
290
     1
  9
$FINGERPRINTGUID
  2
{AD3B0787-C1BD-435E-8526-2F9A976C95BD}
  9
$VERSIONGUID
  2
{1CD272A6-80DA-43BD-B818-29EBF9A4CCEA}
  9
$EXTNAMES
290
     1
  9
$PSVPSCALE
 40
0.0
  9
$OLESTARTUP
290
     0
  0
ENDSEC
  0
SECTION
  2
CLASSES
  0
CLASS
  1
ACDBDICTIONARYWDFLT
  2
AcDbDictionaryWithDefault
  3
ObjectDBX Classes
 90
        0
280
     0
281
     0
  0
CLASS
  1
ACDBPLACEHOLDER
  2
AcDbPlaceHolder
  3
ObjectDBX Classes
 90
        0
280
     0
281
     0
  0
CLASS
  1
LAYOUT
  2
AcDbLayout
  3
ObjectDBX Classes
 90
        0
280
     0
281
     0
  0
CLASS
  1
RASTERVARIABLES
  2
AcDbRasterVariables
  3
ISM
 90
        0
280
     0
281
     0
  0
CLASS
  1
IMAGEDEF
  2
AcDbRasterImageDef
  3
ISM
 90
        0
280
     0
281
     0
  0
CLASS
  1
IMAGEDEF_REACTOR
  2
AcDbRasterImageDefReactor
  3
ISM
 90
    32769
280
     0
281
     0
  0
CLASS
  1
IMAGE
  2
AcDbRasterImage
  3
ISM
 90
    34943
280
     0
281
     1
  0
CLASS
  1
TABLESTYLE
  2
AcDbTableStyle
  3
ObjectDBX Classes
 90
     4095
280
     0
281
     0
  0
CLASS
  1
ACAD_TABLE
  2
AcDbTable
  3
ObjectDBX Classes
 90
    33793
280
     0
281
     1
  0
CLASS
  1
MATERIAL
  2
AcDbMaterial
  3
ObjectDBX Classes
 90
     1153
280
     0
281
     0
  0
CLASS
  1
VISUALSTYLE
  2
AcDbVisualStyle
  3
ObjectDBX Classes
 90
     4095
280
     0
281
     0
  0
CLASS
  1
SCALE
  2
AcDbScale
  3
ObjectDBX Classes
 90
     1153
280
     0
281
     0
  0
CLASS
  1
MLEADERSTYLE
  2
AcDbMLeaderStyle
  3
ACDB_MLEADERSTYLE_CLASS
 90
     4095
280
     0
281
     0
  0
CLASS
  1
AMGSETTINGSOBJ
  2
AmgSettingsObj
  3
"AcadM|Product Description: AutoCAD Mechanical|Company: Autodesk, Inc."
 90
     1024
280
     0
281
     0
  0
CLASS
  1
ACME_DOCUMENT
  2
AcMeDbDoc
  3
AcMeServices
 90
     1024
280
     0
281
     0
  0
CLASS
  1
ACMESCOPE
  2
AcMeScope
  3
AcMeServices
 90
     1024
280
     0
281
     0
  0
CLASS
  1
ACMECOMMANDHISTORY
  2
AcMeCommandHistory
  3
AcMeServices
 90
     1024
280
     0
281
     0
  0
CLASS
  1
ACIMSYSVARMAN
  2
AcImSysVarManager
  3
AcMeServices
 90
     1024
280
     0
281
     0
  0
CLASS
  1
ACIMINTSYSVAR
  2
AcImIntSysVar
  3
AcMeServices
 90
     1024
280
     0
281
     0
  0
CLASS
  1
ACMEDRAWINGMAN
  2
AcMeDrawingMan
  3
AcMeServices
 90
     1024
280
     0
281
     0
  0
CLASS
  1
ACMEVIEW
  2
AcMeView
  3
AcMeServices
 90
     1024
280
     0
281
     0
  0
CLASS
  1
ACDBENTITYCACHE
  2
AcMeEntityCache
  3
AcMeServices
 90
     1024
280
     0
281
     0
  0
CLASS
  1
ACMESTATEMGR
  2
AcMeStateMgr
  3
AcMeServices
 90
     1024
280
     0
281
     0
  0
CLASS
  1
ACGREFMASTER
  2
AcGrefMaster
  3
AcAttribServices
 90
     1024
280
     0
281
     0
  0
CLASS
  1
AM_DRAWING_MGR
  2
AcDmDwgMgr
  3
AcMechDwgViewMgmt
 90
     1024
280
     0
281
     0
  0
CLASS
  1
AM_DWG_DOCUMENT
  2
AcDmDwgDocument
  3
AcMechDwgViewMgmt
 90
     1024
280
     0
281
     0
  0
CLASS
  1
AM_DWG_SHEET
  2
AcDmSheet
  3
AcMechDwgViewMgmt
 90
     1024
280
     0
281
     0
  0
CLASS
  1
AM_VIEWDIMPARMAP
  2
AcDmViewDimParMap
  3
AcMechDwgViewMgmt
 90
     1024
280
     0
281
     0
  0
CLASS
  1
AMDTINTERNALREACTOR
  2
AmdtInternalReactor
  3
AcMeServices
 90
     1024
280
     0
281
     0
  0
CLASS
  1
ACIMREALSYSVAR
  2
AcImRealSysVar
  3
AcMeServices
 90
     1024
280
     0
281
     0
  0
CLASS
  1
AM_DWGMGR_NAME
  2
AcDmDwgMgrName
  3
AcMechDwgViewMgmt
 90
     1024
280
     0
281
     0
  0
CLASS
  1
ACME_DATABASE
  2
AcMeDbDatabase
  3
AcMeServices
 90
     1024
280
     0
281
     0
  0
CLASS
  1
ACRFINSADJUSTERMGR
  2
AcRfInsAdjusterMgr
  3
AcMeServices
 90
     1024
280
     0
281
     0
  0
CLASS
  1
ACGREFACADMASTER
  2
AcGrefacadMaster
  3
AcGrefServices
 90
     1024
280
     0
281
     0
  0
CLASS
  1
AMDTMENUSTATEMGR
  2
AmdtMenuStateMgr
  3
McadcomServices
 90
     1024
280
     0
281
     0
  0
CLASS
  1
AMDTMCOMMENUSTATE
  2
AmdtMcomMenuState
  3
McadcomServices
 90
     1024
280
     0
281
     0
  0
CLASS
  1
AMIMASTER
  2
AmiMaster
  3
AmiServices
 90
     1024
280
     0
281
     0
  0
CLASS
  1
MAPIAMMOUDLE
  2
MApiAmModule
  3
MApiAmServices
 90
     1024
280
     0
281
     0
  0
CLASS
  1
ACIMSTRSYSVAR
  2
AcImStrSysVar
  3
AcMeServices
 90
     1024
280
     0
281
     0
  0
CLASS
  1
AMDTADMENUSTATE
  2
AmdtAdMenuState
  3
DesignerServices
 90
     1024
280
     0
281
     0
  0
CLASS
  1
ADAPPL
  2
AcAdAppl
  3
DesignerServices
 90
     1024
280
     0
281
     0
  0
CLASS
  1
DEPMGR
  2
AcAdDepMgr
  3
DesignerServices
 90
     1024
280
     0
281
     0
  0
CLASS
  1
PARAMMGR
  2
AcAdParamMgr
  3
DesignerServices
 90
     1024
280
     0
281
     0
  0
CLASS
  1
PARAMSCOPE
  2
AcAdParamScope
  3
DesignerServices
 90
     1024
280
     0
281
     0
  0
CLASS
  1
NAMEDAPPL
  2
AcAdNamedAppl
  3
DesignerServices
 90
     1024
280
     0
281
     0
  0
CLASS
  1
AMDTDMMENUSTATE
  2
AmdtDmMenuState
  3
AcMechDwgViewMgmt
 90
     1024
280
     0
281
     0
  0
CLASS
  1
AMDTAMMENUSTATE
  2
AmdtAmMenuState
  3
DesignerAssemblies
 90
     1024
280
     0
281
     0
  0
CLASS
  1
ACAMPROJECT
  2
AcAmProject
  3
DesignerAssemblies
 90
     1024
280
     0
281
     0
  0
CLASS
  1
ACAMGRCOMPDEF
  2
AcAmGrCompDef
  3
DesignerAssemblies
 90
     1024
280
     0
281
     0
  0
CLASS
  1
ACAMCOMPDEF
  2
AcAmCompDef
  3
DesignerAssemblies
 90
     1024
280
     0
281
     0
  0
CLASS
  1
ACAMCOMPDEFMGR
  2
AcAmCompDefMgr
  3
DesignerAssemblies
 90
     1024
280
     0
281
     0
  0
CLASS
  1
AMCONTEXTMGR
  2
AcAmContextMgr
  3
DesignerAssemblies
 90
     1024
280
     0
281
     0
  0
CLASS
  1
ACAMCONTEXTMODELER
  2
AcAmContextModeler
  3
DesignerAssemblies
 90
     1024
280
     0
281
     0
  0
CLASS
  1
ACMDATADICTIONARY
  2
AcmDataDictionary
  3
"AcmSymBB|Product Description: AutoCAD Mechanical|Company: Autodesk, Inc."
 90
     1024
280
     0
281
     0
  0
CLASS
  1
CATALOGSTATE
  2
AcAmCatalogState
  3
DesignerAssemblies
 90
     1024
280
     0
281
     0
  0
CLASS
  1
ACAMGRCOMPDEFSET
  2
AcAmGrCompDefSet
  3
DesignerAssemblies
 90
     1024
280
     0
281
     0
  0
CLASS
  1
AMDTBROWSERDBTAB
  2
AmdtBrowserDbTab
  3
McadcomServices
 90
     1024
280
     0
281
     0
  0
CLASS
  1
CBROWSERAPPOBJECT
  2
CBrowserAppObject
  3
McadcomServices
 90
     1024
280
     0
281
     0
  0
CLASS
  1
DM_PLACEHOLDER
  2
AcDmSelsetPlaceholder
  3
AcMechDwgViewMgmt
 90
     1024
280
     0
281
     0
  0
CLASS
  1
EXACXREFPANELOBJECT
  2
ExAcXREFPanelObject
  3
EXAC_ESW
 90
     1025
280
     0
281
     0
  0
CLASS
  1
NPOCOLLECTION
  2
AcDbImpNonPersistentObjectsCollection
  3
ObjectDBX Classes
 90
     1153
280
     0
281
     0
  0
CLASS
  1
ACMSTANDARDDIN
  2
AcmStandardDIN
  3
"Amdt_StdImp|Product Description: AutoCAD Mechanical|Company: Autodesk, Inc."
 90
     1024
280
     0
281
     0
  0
CLASS
  1
AMDTEDGESTANDARDDIN13715
  2
AmdtEdgeStdDIN13715
  3
"Amdt_StdImp|Product Description: AutoCAD Mechanical|Company: Autodesk, Inc."
 90
     1024
280
     0
281
     0
  0
CLASS
  1
ACMSURFSTANDARDDIN2002
  2
AcmSurfTextStdDIN2002
  3
"Amdt_StdImp|Product Description: AutoCAD Mechanical|Company: Autodesk, Inc."
 90
     1024
280
     0
281
     0
  0
CLASS
  1
ACMFCFSTANDARDDIN
  2
AcmFCFStdDIN
  3
"Amdt_StdImp|Product Description: AutoCAD Mechanical|Company: Autodesk, Inc."
 90
     1024
280
     0
281
     0
  0
CLASS
  1
ACMWELDSTANDARDDIN
  2
AcmWeldingStdDIN
  3
"Amdt_StdImp|Product Description: AutoCAD Mechanical|Company: Autodesk, Inc."
 90
     1024
280
     0
281
     0
  0
CLASS
  1
ACMIDSTANDARDDIN
  2
AcmIdStdDIN
  3
"Amdt_StdImp|Product Description: AutoCAD Mechanical|Company: Autodesk, Inc."
 90
     1024
280
     0
281
     0
  0
CLASS
  1
ACMDATUMSTANDARDDIN
  2
AcmDatumStdDIN
  3
"Amdt_StdImp|Product Description: AutoCAD Mechanical|Company: Autodesk, Inc."
 90
     1024
280
     0
281
     0
  0
CLASS
  1
ACMBOMSTANDARDDIN
  2
AcmBOMStdDIN
  3
"Amdt_StdImp|Product Description: AutoCAD Mechanical|Company: Autodesk, Inc."
 90
     1024
280
     0
281
     0
  0
CLASS
  1
ACMDETAILSTANDARDDIN
  2
AmdtDetailSymStdDIN
  3
"Amdt_StdImp|Product Description: AutoCAD Mechanical|Company: Autodesk, Inc."
 90
     1024
280
     0
281
     0
  0
CLASS
  1
ACMSECTIONSTANDARDDIN
  2
AmdtSectionSymStdDIN
  3
"Amdt_StdImp|Product Description: AutoCAD Mechanical|Company: Autodesk, Inc."
 90
     1024
280
     0
281
     0
  0
CLASS
  1
ACMCENTERLINESTANDARDDIN
  2
AmdtCenterLineStdDIN
  3
"Amdt_StdImp|Product Description: AutoCAD Mechanical|Company: Autodesk, Inc."
 90
     1024
280
     0
281
     0
  0
CLASS
  1
ACMTHREADLINESTANDARDDIN
  2
AmdtThreadLineStdDIN
  3
"Amdt_StdImp|Product Description: AutoCAD Mechanical|Company: Autodesk, Inc."
 90
     1024
280
     0
281
     0
  0
CLASS
  1
ACMNOTESTANDARDDIN
  2
AmdtNoteStdDIN
  3
"Amdt_StdImp|Product Description: AutoCAD Mechanical|Company: Autodesk, Inc."
 90
     1024
280
     0
281
     0
  0
CLASS
  1
ACMTAPERSTANDARDDIN
  2
AcmTaperStdDIN
  3
"Amdt_StdImp|Product Description: AutoCAD Mechanical|Company: Autodesk, Inc."
 90
     1024
280
     0
281
     0
  0
CLASS
  1
ACMANOOTATIONVIEWSTANDARDDIN
  2
AmdtAnViewStdDIN
  3
"Amdt_StdImp|Product Description: AutoCAD Mechanical|Company: Autodesk, Inc."
 90
     1024
280
     0
281
     0
  0
CLASS
  1
ACAMGLAYSTD
  2
AcAmgLayStd
  3
"AmgLay|Product Description: AutoCAD Mechanical|Company: Autodesk, Inc."
 90
     1024
280
     0
281
     0
  0
CLASS
  1
ACAMGDIMSTD
  2
AcAmgDimStd
  3
"AmgDim|Product Description: AutoCAD Mechanical|Company: Autodesk, Inc."
 90
     1024
280
     0
281
     0
  0
CLASS
  1
AMGOBJPROPCFG
  2
AmgObjPropCfg
  3
"AmgLay|Product Description: AutoCAD Mechanical|Company: Autodesk, Inc."
 90
     1025
280
     0
281
     0
  0
CLASS
  1
ACAMGHOLECHARTSTDDIN
  2
AcAmgHoleChartStdDIN
  3
AmgDim|Product Description: AutoCAD Mechanical|Company: Autodesk, Inc.
 90
     1024
280
     0
281
     0
  0
CLASS
  1
ACAMGTITLESTD
  2
AcAmgTitleStd
  3
"AmgTitle|Product Description: AutoCAD Mechanical|Company: Autodesk, Inc."
 90
     4095
280
     0
281
     0
  0
CLASS
  1
AMDTNOTETEMPLATEDB
  2
AmdtNoteTemplateDB
  3
AcmSymBB|Product Description: AutoCAD Mechanical|Company: Autodesk, Inc.
 90
     1024
280
     0
281
     0
  0
CLASS
  1
ACAMGFILTERDAT
  2
AcAmgFilterDat
  3
"AcadM|Product Description: AutoCAD Mechanical|Company: Autodesk, Inc."
 90
    33792
280
     0
281
     0
  0
CLASS
  1
DIMASSOC
  2
AcDbDimAssoc
  3
"AcDbDimAssoc|Product Desc:     AcDim ARX App For Dimension|Company:          Autodesk, Inc.|WEB Address:      www.autodesk.com"
 90
        0
280
     0
281
     0
  0
CLASS
  1
CAMSSTRUCTBTNSTATE
  2
StructBtnState
  3
DesignerAssemblies
 90
    33792
280
     0
281
     0
  0
CLASS
  1
DICTIONARYVAR
  2
AcDbDictionaryVar
  3
ObjectDBX Classes
 90
        0
280
     0
281
     0
  0
CLASS
  1
CELLSTYLEMAP
  2
AcDbCellStyleMap
  3
ObjectDBX Classes
 90
     1152
280
     0
281
     0
  0
ENDSEC
  0
SECTION
  2
TABLES
  0
TABLE
  2
VPORT
  5
8
330
0
100
AcDbSymbolTable
 70
     1
  0
VPORT
  5
1F4
330
8
100
AcDbSymbolTableRecord
100
AcDbViewportTableRecord
  2
*ACTIVE
 70
     0
 10
0.0
 20
0.0
 11
1.0
 21
1.0
 12
1202.589519926503
 22
-88.61002774836151
 13
0.0
 23
0.0
 14
1.0
 24
1.0
 15
0.0
 25
0.0
 16
0.0
 26
0.0
 36
1.0
 17
0.0
 27
0.0
 37
0.0
 40
1470.434265313907
 41
2.087105038428693
 42
50.0
 43
0.0
 44
0.0
 50
0.0
 51
0.0
 71
     0
 72
   100
 73
     1
 74
     1
 75
     0
 76
     0
 77
     0
 78
     0
281
     0
 65
     0
110
0.0
120
0.0
130
0.0
111
1.0
121
0.0
131
0.0
112
0.0
122
1.0
132
0.0
 79
     0
146
0.0
  0
ENDTAB
  0
TABLE
  2
LTYPE
  5
5
330
0
100
AcDbSymbolTable
 70
    22
  0
LTYPE
  5
14
330
5
100
AcDbSymbolTableRecord
100
AcDbLinetypeTableRecord
  2
BYBLOCK
 70
     0
  3

 72
    65
 73
     0
 40
0.0
  0
LTYPE
  5
15
330
5
100
AcDbSymbolTableRecord
100
AcDbLinetypeTableRecord
  2
BYLAYER
 70
     0
  3

 72
    65
 73
     0
 40
0.0
  0
LTYPE
  5
16
330
5
100
AcDbSymbolTableRecord
100
AcDbLinetypeTableRecord
  2
CONTINUOUS
 70
     0
  3
Solid line
 72
    65
 73
     0
 40
0.0
  0
LTYPE
  5
1F5
330
5
100
AcDbSymbolTableRecord
100
AcDbLinetypeTableRecord
  2
CENTER
 70
     0
  3
____ _ ____ _ ____ _ ____ _ ____ _ ____ _ ____
 72
    65
 73
     4
 40
0.6
 49
0.375
 74
     0
 49
-0.075
 74
     0
 49
0.075
 74
     0
 49
-0.075
 74
     0
  0
LTYPE
  5
1F6
330
5
100
AcDbSymbolTableRecord
100
AcDbLinetypeTableRecord
  2
HIDDEN
 70
     0
  3
- - - - - - - - - - - - - - - - - - - -
 72
    65
 73
     2
 40
0.2
 49
0.1
 74
     0
 49
-0.1
 74
     0
  0
LTYPE
  5
1F7
330
5
100
AcDbSymbolTableRecord
100
AcDbLinetypeTableRecord
  2
PHANTOM
 70
     0
  3
_____ _ _ _____ _ _ _____ _ _ _____
 72
    65
 73
     6
 40
0.8
 49
0.45
 74
     0
 49
-0.05
 74
     0
 49
0.1
 74
     0
 49
-0.05
 74
     0
 49
0.1
 74
     0
 49
-0.05
 74
     0
  0
LTYPE
  5
1F8
330
5
100
AcDbSymbolTableRecord
100
AcDbLinetypeTableRecord
  2
DOT
 70
     0
  3
. . . . . . . . . . . . . . . . . . . .
 72
    65
 73
     2
 40
0.2
 49
0.1
 74
     0
 49
-0.1
 74
     0
  0
LTYPE
  5
1F9
330
5
100
AcDbSymbolTableRecord
100
AcDbLinetypeTableRecord
  2
DASHED
 70
     0
  3
- - - - - - - - - - - - - - - - - - - -
 72
    65
 73
     2
 40
0.2
 49
0.1
 74
     0
 49
-0.1
 74
     0
  0
LTYPE
  5
CB9
330
5
100
AcDbSymbolTableRecord
100
AcDbLinetypeTableRecord
  2
PHANTOM2
 70
     0
  3
Phantom (.5x) ___ _ _ ___ _ _ ___ _ _ ___ _ _
 72
    65
 73
     6
 40
31.75
 49
15.875
 74
     0
 49
-3.174999999999998
 74
     0
 49
3.174999999999998
 74
     0
 49
-3.174999999999998
 74
     0
 49
3.174999999999998
 74
     0
 49
-3.174999999999998
 74
     0
  0
LTYPE
  5
D01
330
5
100
AcDbSymbolTableRecord
100
AcDbLinetypeTableRecord
  2
AM_ISO02W050
 70
     0
  3
__ __ __ __ __ __ __ __ __ __ __ __ __ __ __
 72
    65
 73
     2
 40
7.5
 49
6.0
 74
     0
 49
-1.5
 74
     0
  0
LTYPE
  5
D02
330
5
100
AcDbSymbolTableRecord
100
AcDbLinetypeTableRecord
  2
AM_ISO08W050
 70
     0
  3
____ . ____ . ____ . ____ . ____ . ____ . ____
 72
    65
 73
     4
 40
18.0
 49
12.0
 74
     0
 49
-1.5
 74
     0
 49
3.0
 74
     0
 49
-1.5
 74
     0
  0
LTYPE
  5
D03
330
5
100
AcDbSymbolTableRecord
100
AcDbLinetypeTableRecord
  2
AM_ISO09W050
 70
     0
  3
_____ . . _____ . . _____ . . ____ .. ____
 72
    65
 73
     6
 40
22.5
 49
12.0
 74
     0
 49
-1.5
 74
     0
 49
3.0
 74
     0
 49
-1.5
 74
     0
 49
3.0
 74
     0
 49
-1.5
 74
     0
  0
LTYPE
  5
D04
330
5
100
AcDbSymbolTableRecord
100
AcDbLinetypeTableRecord
  2
Amconstr
 70
     0
  3
_______________________
 72
    65
 73
     2
 40
9999.0
 49
9999.0
 74
     0
 49
0.0
 74
     0
  0
LTYPE
  5
D05
330
5
100
AcDbSymbolTableRecord
100
AcDbLinetypeTableRecord
  2
AM_ISO08W050x2
 70
     0
  3
__ . __ . __ . __ . __ . __
 72
    65
 73
     4
 40
9.0
 49
6.0
 74
     0
 49
-0.75
 74
     0
 49
1.5
 74
     0
 49
-0.75
 74
     0
  0
LTYPE
  5
D06
330
5
100
AcDbSymbolTableRecord
100
AcDbLinetypeTableRecord
  2
AM_ISO02W050x2
 70
     0
  3
 _ _ _ _ _ _ _ _ _ _ _ _
 72
    65
 73
     2
 40
3.75
 49
3.0
 74
     0
 49
-0.75
 74
     0
  0
LTYPE
  5
D09
330
5
100
AcDbSymbolTableRecord
100
AcDbLinetypeTableRecord
  2
Amzigzag
 70
     0
  3
/\/-/\/-/\/-/\/-/\/-/\/
 72
    65
 73
     2
 40
11.0001
 49
0.0001
 74
     4
 75
   136
340
D08
 46
0.04
 50
0.0
 44
0.0
 45
0.0
 49
-11.0
 74
     0
  0
LTYPE
  5
D0A
330
5
100
AcDbSymbolTableRecord
100
AcDbLinetypeTableRecord
  2
AM_DIN_F_W050
 70
     0
  3
__ __ __ __ __ __ __ __ __ __ __ __ __ __ __
 72
    65
 73
     2
 40
6.25
 49
4.75
 74
     0
 49
-1.5
 74
     0
  0
LTYPE
  5
D0B
330
5
100
AcDbSymbolTableRecord
100
AcDbLinetypeTableRecord
  2
AM_DIN_G_W050
 70
     0
  3
____ . ____ . ____ . ____ . ____ . ____ . ____
 72
    65
 73
     4
 40
13.75
 49
9.75
 74
     0
 49
-1.5
 74
     0
 49
1.0
 74
     0
 49
-1.5
 74
     0
  0
LTYPE
  5
D0C
330
5
100
AcDbSymbolTableRecord
100
AcDbLinetypeTableRecord
  2
AM_DIN_K_W050
 70
     0
  3
_____ . . _____ . . _____ . . ____ .. ____
 72
    65
 73
     6
 40
16.25
 49
9.75
 74
     0
 49
-1.5
 74
     0
 49
1.0
 74
     0
 49
-1.5
 74
     0
 49
1.0
 74
     0
 49
-1.5
 74
     0
  0
LTYPE
  5
D0D
330
5
100
AcDbSymbolTableRecord
100
AcDbLinetypeTableRecord
  2
AM_DIN_G_W050x2
 70
     0
  3
__ . __ . __ . __ . __ . __
 72
    65
 73
     4
 40
6.875
 49
4.75
 74
     0
 49
-0.875
 74
     0
 49
0.375
 74
     0
 49
-0.875
 74
     0
  0
LTYPE
  5
D0E
330
5
100
AcDbSymbolTableRecord
100
AcDbLinetypeTableRecord
  2
AM_DIN_F_W050x2
 70
     0
  3
 _ _ _ _ _ _ _ _ _ _ _ _
 72
    65
 73
     2
 40
3.125
 49
2.25
 74
     0
 49
-0.875
 74
     0
  0
LTYPE
  5
D1D
330
5
100
AcDbSymbolTableRecord
100
AcDbLinetypeTableRecord
  2
ACDINWELD
 70
     0
  3
_ _ _ _ _
 72
    65
 73
     2
 40
2.0
 49
2.0
 74
     0
 49
-1.0
 74
     0
  0
LTYPE
  5
D1E
330
5
100
AcDbSymbolTableRecord
100
AcDbLinetypeTableRecord
  2
ACDINTGB
 70
     0
  3
__ . . __ . .
 72
    65
 73
     6
 40
9.0
 49
4.0
 74
     0
 49
-1.0
 74
     0
 49
1.0
 74
     0
 49
-1.0
 74
     0
 49
1.0
 74
     0
 49
-1.0
 74
     0
  0
LTYPE
  5
D1F
330
5
100
AcDbSymbolTableRecord
100
AcDbLinetypeTableRecord
  2
ACDINTGL
 70
     0
  3
_ _ _ _ _
 72
    65
 73
     2
 40
3.0
 49
2.0
 74
     0
 49
-1.0
 74
     0
  0
ENDTAB
  0
TABLE
  2
LAYER
  5
2
102
{ACAD_XDICTIONARY
360
E27
102
}
330
0
100
AcDbSymbolTable
 70
    15
  0
LAYER
  5
10
330
2
100
AcDbSymbolTableRecord
100
AcDbLayerTableRecord
  2
0
 70
     0
 62
     7
  6
CONTINUOUS
370
    -3
390
F
  0
LAYER
  5
1FA
330
2
100
AcDbSymbolTableRecord
100
AcDbLayerTableRecord
  2
DEFAULT_1
 70
     0
 62
     7
  6
CENTER
370
    -3
390
F
  0
LAYER
  5
1FB
330
2
100
AcDbSymbolTableRecord
100
AcDbLayerTableRecord
  2
DEFAULT_2
 70
     0
 62
     8
  6
HIDDEN
370
    -3
390
F
  0
LAYER
  5
1FC
330
2
100
AcDbSymbolTableRecord
100
AcDbLayerTableRecord
  2
DEFAULT_3
 70
     0
 62
     7
  6
PHANTOM
370
    -3
390
F
  0
LAYER
  5
1FD
330
2
100
AcDbSymbolTableRecord
100
AcDbLayerTableRecord
  2
BEZUGSACHSEN
 70
     0
 62
     7
  6
CONTINUOUS
370
    -3
390
F
  0
LAYER
  5
1FE
330
2
100
AcDbSymbolTableRecord
100
AcDbLayerTableRecord
  2
BEZUGSEBENEN
 70
     0
 62
     7
  6
CONTINUOUS
370
    -3
390
F
  0
LAYER
  5
1FF
330
2
100
AcDbSymbolTableRecord
100
AcDbLayerTableRecord
  2
HILFEN
 70
     0
 62
     7
  6
CONTINUOUS
370
    -3
390
F
  0
LAYER
  5
200
330
2
100
AcDbSymbolTableRecord
100
AcDbLayerTableRecord
  2
PLATZIERUNG
 70
     0
 62
     7
  6
CONTINUOUS
370
    -3
390
F
  0
LAYER
  5
201
330
2
100
AcDbSymbolTableRecord
100
AcDbLayerTableRecord
  2
RUNDUNGEN
 70
     0
 62
     7
  6
CONTINUOUS
370
    -3
390
F
  0
LAYER
  5
202
330
2
100
AcDbSymbolTableRecord
100
AcDbLayerTableRecord
  2
TEIL_STARTBEZUEGE
 70
     0
 62
     7
  6
CONTINUOUS
370
    -3
390
F
  0
LAYER
  5
203
330
2
100
AcDbSymbolTableRecord
100
AcDbLayerTableRecord
  2
ZEICHNUNGSBEMASSUNGEN
 70
     0
 62
     7
  6
CONTINUOUS
370
    -3
390
F
  0
LAYER
  5
D34
330
2
100
AcDbSymbolTableRecord
100
AcDbLayerTableRecord
  2
AM_5
 70
     0
 62
     3
  6
CONTINUOUS
370
    25
390
F
1001
AcAecLayerStandard
1000

1000

  0
LAYER
  5
D39
330
2
100
AcDbSymbolTableRecord
100
AcDbLayerTableRecord
  2
Defpoints
 70
     0
 62
     7
  6
CONTINUOUS
290
     0
370
    -3
390
F
  0
LAYER
  5
E24
330
2
100
AcDbSymbolTableRecord
100
AcDbLayerTableRecord
  2
P-0000
 70
     0
 62
     7
  6
CONTINUOUS
370
    -3
390
F
  0
LAYER
  5
115F
330
2
100
AcDbSymbolTableRecord
100
AcDbLayerTableRecord
  2
AM_CL
 70
     0
 62
     1
  6
Amconstr
370
    25
390
F
1001
AcAecLayerStandard
1000

1000

  0
ENDTAB
  0
TABLE
  2
STYLE
  5
3
330
0
100
AcDbSymbolTable
 70
    14
  0
STYLE
  5
11
330
3
100
AcDbSymbolTableRecord
100
AcDbTextStyleTableRecord
  2
STANDARD
 70
     0
 40
0.0
 41
0.7
 50
0.0
 71
     0
 42
0.2
  3
txt
  4

  0
STYLE
  5
204
330
3
100
AcDbSymbolTableRecord
100
AcDbTextStyleTableRecord
  2
TEXTSTYLE_1
 70
     0
 40
0.0
 41
0.8
 50
0.0
 71
     0
 42
0.2
  3
gdt
  4

  0
STYLE
  5
205
330
3
100
AcDbSymbolTableRecord
100
AcDbTextStyleTableRecord
  2
TEXTSTYLE_2
 70
     0
 40
0.0
 41
0.7857142857
 50
0.0
 71
     0
 42
0.2
  3
txt
  4

  0
STYLE
  5
206
330
3
100
AcDbSymbolTableRecord
100
AcDbTextStyleTableRecord
  2
TEXTSTYLE_3
 70
     0
 40
0.0
 41
0.8333333333
 50
0.0
 71
     0
 42
0.2
  3
txt
  4

  0
STYLE
  5
207
330
3
100
AcDbSymbolTableRecord
100
AcDbTextStyleTableRecord
  2
TEXTSTYLE_4
 70
     0
 40
0.0
 41
0.9047619047999999
 50
0.0
 71
     0
 42
0.2
  3
txt
  4

  0
STYLE
  5
208
330
3
100
AcDbSymbolTableRecord
100
AcDbTextStyleTableRecord
  2
TEXTSTYLE_5
 70
     0
 40
0.0
 41
0.7142857143000001
 50
0.0
 71
     0
 42
0.2
  3
txt
  4

  0
STYLE
  5
209
330
3
100
AcDbSymbolTableRecord
100
AcDbTextStyleTableRecord
  2
TEXTSTYLE_6
 70
     0
 40
0.0
 41
0.5714285714000003
 50
0.0
 71
     0
 42
0.2
  3
txt
  4

  0
STYLE
  5
20A
330
3
100
AcDbSymbolTableRecord
100
AcDbTextStyleTableRecord
  2
TEXTSTYLE_7
 70
     0
 40
0.0
 41
0.8571428570999998
 50
0.0
 71
     0
 42
0.2
  3
txt
  4

  0
STYLE
  5
20B
330
3
100
AcDbSymbolTableRecord
100
AcDbTextStyleTableRecord
  2
TEXTSTYLE_8
 70
     0
 40
0.0
 41
0.7
 50
0.0
 71
     0
 42
0.2
  3
gdt
  4

  0
STYLE
  5
20C
330
3
100
AcDbSymbolTableRecord
100
AcDbTextStyleTableRecord
  2
TEXTSTYLE_9
 70
     0
 40
0.0
 41
1.0
 50
0.0
 71
     0
 42
0.2
  3
trium.ttf
  4

  0
STYLE
  5
20D
330
3
100
AcDbSymbolTableRecord
100
AcDbTextStyleTableRecord
  2
TEXTSTYLE_10
 70
     0
 40
0.0
 41
1.0
 50
0.0
 71
     0
 42
0.2
  3
trium.ttf
  4

  0
STYLE
  5
D08
330
3
100
AcDbSymbolTableRecord
100
AcDbTextStyleTableRecord
  2

 70
     1
 40
0.0
 41
1.0
 50
0.0
 71
     0
 42
0.2
  3
genltshp.shx
  4

  0
STYLE
  5
D1B
330
3
100
AcDbSymbolTableRecord
100
AcDbTextStyleTableRecord
  2
ACDINTS
 70
     0
 40
1.0
 41
1.0
 50
0.0
 71
     0
 42
0.2
  3
isocp.shx
  4

  0
STYLE
  5
D1C
330
3
100
AcDbSymbolTableRecord
100
AcDbTextStyleTableRecord
  2
ACDINGDT
 70
     0
 40
0.0
 41
1.0
 50
0.0
 71
     0
 42
0.2
  3
amgdt.shx
  4

  0
ENDTAB
  0
TABLE
  2
VIEW
  5
6
330
0
100
AcDbSymbolTable
 70
     0
  0
ENDTAB
  0
TABLE
  2
UCS
  5
7
330
0
100
AcDbSymbolTable
 70
     0
  0
ENDTAB
  0
TABLE
  2
APPID
  5
9
330
0
100
AcDbSymbolTable
 70
    18
  0
APPID
  5
20E
330
9
100
AcDbSymbolTableRecord
100
AcDbRegAppTableRecord
  2
ACAD
 70
     0
  0
APPID
  5
C8E
330
9
100
AcDbSymbolTableRecord
100
AcDbRegAppTableRecord
  2
MCAD_NO_VIS
 70
     0
  0
APPID
  5
C8F
330
9
100
AcDbSymbolTableRecord
100
AcDbRegAppTableRecord
  2
ACAD_TEMP_GRAPHIC
 70
     0
  0
APPID
  5
CBB
330
9
100
AcDbSymbolTableRecord
100
AcDbRegAppTableRecord
  2
AD_DRAW
 70
     0
  0
APPID
  5
CBE
330
9
100
AcDbSymbolTableRecord
100
AcDbRegAppTableRecord
  2
ACATTRIBSERVICES
 70
     0
  0
APPID
  5
CDE
330
9
100
AcDbSymbolTableRecord
100
AcDbRegAppTableRecord
  2
DESIGNERASSEMBLIES
 70
     0
  0
APPID
  5
CE4
330
9
100
AcDbSymbolTableRecord
100
AcDbRegAppTableRecord
  2
ACADM_DIM_EDIT
 70
     0
  0
APPID
  5
CE5
330
9
100
AcDbSymbolTableRecord
100
AcDbRegAppTableRecord
  2
AMDT_DM_ADJ
 70
     0
  0
APPID
  5
CFE
330
9
100
AcDbSymbolTableRecord
100
AcDbRegAppTableRecord
  2
ACAD_DSTYLE_DIMJAG
 70
     0
  0
APPID
  5
CFF
330
9
100
AcDbSymbolTableRecord
100
AcDbRegAppTableRecord
  2
ACAD_DSTYLE_DIMBREAK
 70
     0
  0
APPID
  5
D35
330
9
100
AcDbSymbolTableRecord
100
AcDbRegAppTableRecord
  2
AcAecLayerStandard
 70
     0
  0
APPID
  5
D53
330
9
100
AcDbSymbolTableRecord
100
AcDbRegAppTableRecord
  2
GENIUS_GENDTOL_13
 70
     0
  0
APPID
  5
D54
330
9
100
AcDbSymbolTableRecord
100
AcDbRegAppTableRecord
  2
ACAD_DSTYLE_DIMINSPECT
 70
     0
  0
APPID
  5
E26
330
9
100
AcDbSymbolTableRecord
100
AcDbRegAppTableRecord
  2
ACAD_DSTYLE_DIMJOGGED_JOGANGLE_SYMBOL
 70
     0
  0
APPID
  5
123F
330
9
100
AcDbSymbolTableRecord
100
AcDbRegAppTableRecord
  2
ACAD_MLEADERVER
 70
     0
  0
APPID
  5
1240
330
9
100
AcDbSymbolTableRecord
100
AcDbRegAppTableRecord
  2
ACAD_DSTYLE_DIM_LINETYPE
 70
     0
  0
APPID
  5
1241
330
9
100
AcDbSymbolTableRecord
100
AcDbRegAppTableRecord
  2
ACAD_DSTYLE_DIM_EXT1_LINETYPE
 70
     0
  0
APPID
  5
1242
330
9
100
AcDbSymbolTableRecord
100
AcDbRegAppTableRecord
  2
ACAD_DSTYLE_DIM_EXT2_LINETYPE
 70
     0
  0
ENDTAB
  0
TABLE
  2
DIMSTYLE
  5
A
330
0
100
AcDbSymbolTable
 70
    25
100
AcDbDimStyleTable
 71
     2
340
22E
340
E25
  0
DIMSTYLE
105
22E
330
A
100
AcDbSymbolTableRecord
100
AcDbDimStyleTableRecord
  2
STANDARD
 70
     0
 41
3.5
 42
1.5
 44
1.5
 47
0.005
 48
0.005
 71
     1
 73
     0
 74
     0
 77
     1
 78
     8
140
3.5
147
0.625
178
     5
271
     3
272
     3
284
     8
340
11
341
211
342
211
343
211
344
211
  0
DIMSTYLE
105
22F
330
A
100
AcDbSymbolTableRecord
100
AcDbDimStyleTableRecord
  2
DIMSTYLE_1
 70
     0
 41
3.5
 42
1.5
 44
1.5
 47
0.1
 48
0.1
 73
     0
 74
     0
 77
     1
 78
     8
140
3.5
144
0.5
147
0.875
178
     5
271
     3
272
     3
284
     8
340
11
341
211
342
211
343
211
344
211
  0
DIMSTYLE
105
230
330
A
100
AcDbSymbolTableRecord
100
AcDbDimStyleTableRecord
  2
DIMSTYLE_2
 70
     0
 41
3.5
 42
1.5
 44
1.5
 47
0.3
 48
0.3
 73
     0
 74
     0
 77
     1
 78
     8
140
3.5
144
0.5
147
0.875
178
     5
271
     3
272
     3
284
     8
340
11
341
211
342
211
343
211
344
211
  0
DIMSTYLE
105
231
330
A
100
AcDbSymbolTableRecord
100
AcDbDimStyleTableRecord
  2
DIMSTYLE_3
 70
     0
 41
3.5
 42
1.5
 44
1.5
 47
0.5
 48
0.5
 71
     1
 73
     0
 74
     0
 77
     1
 78
     8
140
3.5
144
0.5
147
0.875
178
     5
271
     3
272
     3
284
     8
340
11
341
211
342
211
343
211
344
211
  0
DIMSTYLE
105
232
330
A
100
AcDbSymbolTableRecord
100
AcDbDimStyleTableRecord
  2
DIMSTYLE_4
 70
     0
 41
3.5
 42
1.5
 44
1.5
 47
0.5
 71
     1
 73
     0
 74
     0
 77
     1
 78
     8
140
3.5
144
0.5
146
0.6
147
0.875
178
     5
271
     3
272
     3
284
     8
340
11
341
211
342
211
343
211
344
211
  0
DIMSTYLE
105
233
330
A
100
AcDbSymbolTableRecord
100
AcDbDimStyleTableRecord
  2
DIMSTYLE_5
 70
     0
 41
3.5
 42
1.5
 44
1.5
 47
0.2
 48
0.2
 73
     0
 74
     0
 77
     1
 78
     8
140
3.5
144
5.0
147
0.875
178
     5
271
     3
272
     3
284
     8
340
11
341
211
342
211
343
211
344
211
  0
DIMSTYLE
105
234
330
A
100
AcDbSymbolTableRecord
100
AcDbDimStyleTableRecord
  2
DIMSTYLE_6
 70
     0
 41
3.5
 42
1.5
 44
1.5
 47
1.0
 48
1.0
 71
     1
 73
     0
 74
     0
 77
     1
 78
     8
140
3.5
144
0.5
147
0.875
178
     5
271
     3
272
     3
284
     8
340
11
341
211
342
211
343
211
344
211
  0
DIMSTYLE
105
235
330
A
100
AcDbSymbolTableRecord
100
AcDbDimStyleTableRecord
  2
DIMSTYLE_7
 70
     0
 41
3.5
 42
1.5
 44
1.5
 47
0.2
 48
0.2
 73
     0
 74
     0
 77
     1
 78
     8
140
3.5
144
0.5
147
0.875
178
     5
271
     3
272
     3
284
     8
340
11
341
211
342
211
343
211
344
211
  0
DIMSTYLE
105
236
330
A
100
AcDbSymbolTableRecord
100
AcDbDimStyleTableRecord
  2
DIMSTYLE_8
 70
     0
 41
3.5
 42
1.5
 44
1.5
 47
0.2
 48
0.2
 73
     0
 74
     0
 77
     1
 78
     8
140
3.5
144
0.5
147
0.875
178
     5
271
     1
272
     1
284
     8
340
11
341
211
342
211
343
211
344
211
  0
DIMSTYLE
105
237
330
A
100
AcDbSymbolTableRecord
100
AcDbDimStyleTableRecord
  2
DIMSTYLE_9
 70
     0
 41
3.5
 42
1.5
 44
1.5
 47
1.199999999999999
 48
1.199999999999999
 73
     0
 74
     0
 77
     1
 78
     8
140
3.5
144
5.0
147
0.875
178
     5
271
     3
272
     3
284
     8
340
11
341
211
342
211
343
211
344
211
  0
DIMSTYLE
105
238
330
A
100
AcDbSymbolTableRecord
100
AcDbDimStyleTableRecord
  2
DIMSTYLE_10
 70
     0
 41
3.5
 42
1.5
 44
1.5
 47
0.2
 48
0.2
 73
     0
 74
     0
 77
     1
 78
     8
140
3.5
144
0.5
147
0.875
178
     5
271
     0
272
     0
284
     8
340
11
341
211
342
211
343
211
344
211
  0
DIMSTYLE
105
239
330
A
100
AcDbSymbolTableRecord
100
AcDbDimStyleTableRecord
  2
DIMSTYLE_11
 70
     0
 41
3.5
 42
1.5
 44
1.5
 47
1.0
 48
1.0
 73
     0
 74
     0
 77
     1
 78
     8
140
3.5
144
0.5
147
0.625
178
     5
271
     1
272
     1
284
     8
340
11
341
211
342
211
343
211
344
211
  0
DIMSTYLE
105
23A
330
A
100
AcDbSymbolTableRecord
100
AcDbDimStyleTableRecord
  2
DIMSTYLE_12
 70
     0
 41
3.5
 42
1.5
 44
1.5
 47
0.3
 48
0.3
 73
     0
 74
     0
 77
     1
 78
     8
140
3.5
144
5.0
147
0.875
178
     5
271
     3
272
     3
284
     8
340
11
341
211
342
211
343
211
344
211
  0
DIMSTYLE
105
23B
330
A
100
AcDbSymbolTableRecord
100
AcDbDimStyleTableRecord
  2
DIMSTYLE_13
 70
     0
 41
3.5
 42
1.5
 44
1.5
 47
1.0
 48
1.0
 71
     1
 73
     0
 74
     0
 77
     1
 78
     8
140
3.5
144
0.5
147
0.625
178
     5
271
     1
272
     1
284
     8
340
11
341
211
342
211
343
211
344
211
  0
DIMSTYLE
105
23C
330
A
100
AcDbSymbolTableRecord
100
AcDbDimStyleTableRecord
  2
DIMSTYLE_14
 70
     0
 41
3.5
 42
1.5
 44
1.5
 47
0.1
 48
0.1
 73
     0
 74
     0
 77
     1
 78
     8
140
3.5
144
5.0
147
0.625
178
     5
271
     3
272
     3
284
     8
340
11
341
211
342
211
343
211
344
211
  0
DIMSTYLE
105
23D
330
A
100
AcDbSymbolTableRecord
100
AcDbDimStyleTableRecord
  2
DIMSTYLE_15
 70
     0
 41
3.5
 42
1.5
 44
1.5
 47
0.1
 48
0.1
 73
     0
 74
     0
 77
     1
 78
     8
140
3.5
147
0.875
178
     5
271
     3
272
     3
284
     8
340
11
341
211
342
211
343
211
344
211
  0
DIMSTYLE
105
CFD
102
{ACAD_REACTORS
330
13B7
102
}
330
A
100
AcDbSymbolTableRecord
100
AcDbDimStyleTableRecord
  2
AM_DIN
 70
     0
  4
"
 41
3.5
 42
1.0
 43
10.0
 44
1.0
 47
0.1
 48
0.1
 73
     0
 74
     0
 77
     1
 78
     8
 79
     2
140
3.5
141
0.0
143
0.0393701
146
0.71
147
1.5
172
     1
176
   256
177
   256
178
     2
271
     2
272
     3
274
     4
283
     0
284
     8
340
11
371
    -1
372
    -1
1001
ACAD_DSTYLE_DIMJAG
1070
   388
1040
1.5
1001
ACAD_DSTYLE_DIMBREAK
1070
   391
1040
3.75
1001
ACAD_DSTYLE_DIMJOGGED_JOGANGLE_SYMBOL
1070
   384
1040
1.570796326794896
1001
ACAD_DSTYLE_DIM_LINETYPE
1070
   380
1005
14
1001
ACAD_DSTYLE_DIM_EXT1_LINETYPE
1070
   381
1005
14
1001
ACAD_DSTYLE_DIM_EXT2_LINETYPE
1070
   382
1005
14
  0
DIMSTYLE
105
D0F
330
A
100
AcDbSymbolTableRecord
100
AcDbDimStyleTableRecord
  2
AM_DIN$3
 70
     0
  4
"
 41
3.5
 42
1.0
 43
10.0
 44
1.0
 47
0.1
 48
0.1
 73
     0
 77
     1
 78
     8
 79
     2
140
3.5
141
0.0
143
0.0393701
146
0.71
147
1.5
176
   256
177
   256
178
     2
271
     2
272
     3
274
     4
283
     0
284
     8
288
     1
289
     0
340
11
371
    -1
372
    -1
1001
ACAD_DSTYLE_DIMBREAK
1070
   391
1040
3.75
1001
ACAD_DSTYLE_DIMJAG
1070
   388
1040
1.5
1001
ACAD_DSTYLE_DIMJOGGED_JOGANGLE_SYMBOL
1070
   384
1040
1.570796326794896
1001
ACAD_DSTYLE_DIM_LINETYPE
1070
   380
1005
14
1001
ACAD_DSTYLE_DIM_EXT1_LINETYPE
1070
   381
1005
14
1001
ACAD_DSTYLE_DIM_EXT2_LINETYPE
1070
   382
1005
14
  0
DIMSTYLE
105
D10
330
A
100
AcDbSymbolTableRecord
100
AcDbDimStyleTableRecord
  2
AM_DIN$4
 70
     0
  4
"
 41
3.5
 42
1.0
 43
10.0
 44
1.0
 47
0.1
 48
0.1
 73
     0
 77
     1
 78
     8
 79
     2
140
3.5
141
0.0
143
0.0393701
146
0.71
147
1.5
176
   256
177
   256
178
     2
271
     2
272
     3
274
     4
283
     0
284
     8
288
     1
289
     0
340
11
371
    -1
372
    -1
1001
ACAD_DSTYLE_DIMBREAK
1070
   391
1040
3.75
1001
ACAD_DSTYLE_DIMJAG
1070
   388
1040
1.5
1001
ACAD_DSTYLE_DIMJOGGED_JOGANGLE_SYMBOL
1070
   384
1040
1.570796326794896
1001
ACAD_DSTYLE_DIM_LINETYPE
1070
   380
1005
14
1001
ACAD_DSTYLE_DIM_EXT1_LINETYPE
1070
   381
1005
14
1001
ACAD_DSTYLE_DIM_EXT2_LINETYPE
1070
   382
1005
14
  0
DIMSTYLE
105
D11
330
A
100
AcDbSymbolTableRecord
100
AcDbDimStyleTableRecord
  2
AM_DIN$6
 70
     0
  4
"
 41
3.5
 42
1.0
 43
10.0
 44
1.0
 47
0.1
 48
0.1
 73
     0
 74
     0
 78
     8
 79
     2
140
3.5
141
0.0
143
0.0393701
146
0.71
147
1.5
172
     1
176
   256
177
   256
178
     2
271
     2
272
     3
274
     4
283
     0
284
     8
340
11
371
    -1
372
    -1
1001
ACAD_DSTYLE_DIMBREAK
1070
   391
1040
3.75
1001
ACAD_DSTYLE_DIMJAG
1070
   388
1040
1.5
1001
ACAD_DSTYLE_DIMJOGGED_JOGANGLE_SYMBOL
1070
   384
1040
1.570796326794896
1001
ACAD_DSTYLE_DIM_LINETYPE
1070
   380
1005
14
1001
ACAD_DSTYLE_DIM_EXT1_LINETYPE
1070
   381
1005
14
1001
ACAD_DSTYLE_DIM_EXT2_LINETYPE
1070
   382
1005
14
  0
DIMSTYLE
105
D12
330
A
100
AcDbSymbolTableRecord
100
AcDbDimStyleTableRecord
  2
AM_DIN$7
 70
     0
  4
"
 41
3.5
 42
1.0
 43
10.0
 44
1.0
 47
0.1
 48
0.1
 73
     0
 74
     0
 77
     1
 78
     8
 79
     2
140
3.5
141
0.0
143
0.0393701
146
0.71
147
1.5
172
     1
176
   256
177
   256
178
     2
271
     2
272
     3
274
     4
283
     0
284
     8
340
11
371
    -1
372
    -1
1001
ACAD_DSTYLE_DIMBREAK
1070
   391
1040
3.75
1001
ACAD_DSTYLE_DIMJAG
1070
   388
1040
1.5
1001
ACAD_DSTYLE_DIMJOGGED_JOGANGLE_SYMBOL
1070
   384
1040
1.570796326794896
1001
ACAD_DSTYLE_DIM_LINETYPE
1070
   380
1005
14
1001
ACAD_DSTYLE_DIM_EXT1_LINETYPE
1070
   381
1005
14
1001
ACAD_DSTYLE_DIM_EXT2_LINETYPE
1070
   382
1005
14
  0
DIMSTYLE
105
D13
330
A
100
AcDbSymbolTableRecord
100
AcDbDimStyleTableRecord
  2
AM_DIN$SF
 70
     0
  4
"
 41
3.5
 42
1.0
 43
10.0
 44
1.0
 47
0.1
 48
0.1
 73
     0
 74
     0
 75
     1
 76
     1
 77
     1
 78
     8
 79
     2
140
3.5
141
0.0
143
0.0393701
146
0.71
147
1.5
172
     1
176
   256
177
   256
178
     2
271
     2
272
     3
274
     4
283
     0
284
     8
340
11
371
    -1
372
    -1
1001
ACAD_DSTYLE_DIMBREAK
1070
   391
1040
3.75
1001
ACAD_DSTYLE_DIMJAG
1070
   388
1040
1.5
1001
ACAD_DSTYLE_DIMJOGGED_JOGANGLE_SYMBOL
1070
   384
1040
1.570796326794896
1001
ACAD_DSTYLE_DIM_LINETYPE
1070
   380
1005
14
1001
ACAD_DSTYLE_DIM_EXT1_LINETYPE
1070
   381
1005
14
1001
ACAD_DSTYLE_DIM_EXT2_LINETYPE
1070
   382
1005
14
  0
DIMSTYLE
105
D18
330
A
100
AcDbSymbolTableRecord
100
AcDbDimStyleTableRecord
  2
AM_DIN$SH
 70
     0
  4
"
 41
3.5
 42
1.0
 43
10.0
 44
1.0
 47
0.1
 48
0.1
 73
     0
 74
     0
 75
     1
 76
     1
 77
     1
 78
     8
 79
     2
140
3.5
141
0.0
143
0.0393701
144
2.0
146
0.71
147
1.5
172
     1
173
     1
176
   256
177
   256
178
     2
271
     2
272
     3
274
     4
283
     0
284
     8
340
11
343
D14
371
    -1
372
    -1
1001
ACAD_DSTYLE_DIMBREAK
1070
   391
1040
3.75
1001
ACAD_DSTYLE_DIMJAG
1070
   388
1040
1.5
1001
ACAD_DSTYLE_DIMJOGGED_JOGANGLE_SYMBOL
1070
   384
1040
1.570796326794896
1001
ACAD_DSTYLE_DIM_LINETYPE
1070
   380
1005
14
1001
ACAD_DSTYLE_DIM_EXT1_LINETYPE
1070
   381
1005
14
1001
ACAD_DSTYLE_DIM_EXT2_LINETYPE
1070
   382
1005
14
  0
DIMSTYLE
105
D36
330
A
100
AcDbSymbolTableRecord
100
AcDbDimStyleTableRecord
  2
STANDARD$0
 70
     0
 41
3.5
 42
1.5
 44
1.5
 47
0.005
 48
0.005
 71
     1
 73
     0
 74
     0
 77
     1
 78
     8
140
3.5
147
0.625
178
     5
271
     3
272
     3
284
     8
340
11
341
211
342
211
343
211
344
211
1001
ACAD_DSTYLE_DIMBREAK
1070
   391
1040
3.75
1001
ACAD_DSTYLE_DIMJAG
1070
   388
1040
1.5
  0
DIMSTYLE
105
E25
102
{ACAD_REACTORS
330
1039
330
109E
330
1070
102
}
330
A
100
AcDbSymbolTableRecord
100
AcDbDimStyleTableRecord
  2
883N99122_001_00149479900
 70
     0
 40
2.0
 41
3.149999999999999
 42
0.0
 43
3.75
 44
2.0
 73
     0
 74
     0
 77
     1
 78
     8
 79
     2
140
3.5
141
0.0
143
0.03937007874016
145
2.0
147
2.0
171
     3
172
     1
173
     1
176
     3
177
     3
178
     2
179
     2
271
     2
272
     2
274
     3
283
     0
284
     8
340
11
341
E21
  0
ENDTAB
  0
TABLE
  2
BLOCK_RECORD
  5
1
330
0
100
AcDbSymbolTable
 70
    37
  0
BLOCK_RECORD
  5
20F
330
1
100
AcDbSymbolTableRecord
100
AcDbBlockTableRecord
  2
*Model_Space
340
C3C
  0
BLOCK_RECORD
  5
210
330
1
100
AcDbSymbolTableRecord
100
AcDbBlockTableRecord
  2
*Paper_Space
340
C3D
  0
BLOCK_RECORD
  5
211
330
1
100
AcDbSymbolTableRecord
100
AcDbBlockTableRecord
  2
_FILLED
340
0
102
{BLKREFS
331
254
331
255
331
25D
331
25E
331
268
331
269
331
271
331
272
331
27C
331
27D
331
287
331
288
331
292
331
293
331
29D
331
29E
331
2A6
331
2A7
331
2AF
331
2B0
331
2C1
331
2C2
331
2DE
331
2DF
331
2EB
331
2EC
331
2FE
331
303
331
308
331
312
331
313
331
31D
331
31E
331
328
331
329
331
D6D
331
D6E
331
D91
331
D92
331
DC9
331
DCA
331
DD7
331
DD8
331
DE0
331
DE1
331
E0E
331
E0F
102
}
  0
BLOCK_RECORD
  5
212
330
1
100
AcDbSymbolTableRecord
100
AcDbBlockTableRecord
  2
*D1
340
0
  0
BLOCK_RECORD
  5
213
330
1
100
AcDbSymbolTableRecord
100
AcDbBlockTableRecord
  2
*D2
340
0
  0
BLOCK_RECORD
  5
214
330
1
100
AcDbSymbolTableRecord
100
AcDbBlockTableRecord
  2
*D3
340
0
  0
BLOCK_RECORD
  5
215
330
1
100
AcDbSymbolTableRecord
100
AcDbBlockTableRecord
  2
*D4
340
0
  0
BLOCK_RECORD
  5
216
330
1
100
AcDbSymbolTableRecord
100
AcDbBlockTableRecord
  2
*D5
340
0
  0
BLOCK_RECORD
  5
217
330
1
100
AcDbSymbolTableRecord
100
AcDbBlockTableRecord
  2
*D6
340
0
  0
BLOCK_RECORD
  5
218
330
1
100
AcDbSymbolTableRecord
100
AcDbBlockTableRecord
  2
*D7
340
0
  0
BLOCK_RECORD
  5
219
330
1
100
AcDbSymbolTableRecord
100
AcDbBlockTableRecord
  2
*D8
340
0
  0
BLOCK_RECORD
  5
21A
330
1
100
AcDbSymbolTableRecord
100
AcDbBlockTableRecord
  2
*D9
340
0
  0
BLOCK_RECORD
  5
21B
330
1
100
AcDbSymbolTableRecord
100
AcDbBlockTableRecord
  2
*D10
340
0
  0
BLOCK_RECORD
  5
21C
330
1
100
AcDbSymbolTableRecord
100
AcDbBlockTableRecord
  2
*D11
340
0
  0
BLOCK_RECORD
  5
21D
330
1
100
AcDbSymbolTableRecord
100
AcDbBlockTableRecord
  2
*D12
340
0
  0
BLOCK_RECORD
  5
21E
330
1
100
AcDbSymbolTableRecord
100
AcDbBlockTableRecord
  2
*D13
340
0
  0
BLOCK_RECORD
  5
21F
330
1
100
AcDbSymbolTableRecord
100
AcDbBlockTableRecord
  2
*D14
340
0
  0
BLOCK_RECORD
  5
220
330
1
100
AcDbSymbolTableRecord
100
AcDbBlockTableRecord
  2
*D15
340
0
  0
BLOCK_RECORD
  5
221
330
1
100
AcDbSymbolTableRecord
100
AcDbBlockTableRecord
  2
*D16
340
0
  0
BLOCK_RECORD
  5
222
330
1
100
AcDbSymbolTableRecord
100
AcDbBlockTableRecord
  2
*D17
340
0
  0
BLOCK_RECORD
  5
223
330
1
100
AcDbSymbolTableRecord
100
AcDbBlockTableRecord
  2
*D18
340
0
  0
BLOCK_RECORD
  5
224
330
1
100
AcDbSymbolTableRecord
100
AcDbBlockTableRecord
  2
*D19
340
0
  0
BLOCK_RECORD
  5
225
330
1
100
AcDbSymbolTableRecord
100
AcDbBlockTableRecord
  2
*D20
340
0
  0
BLOCK_RECORD
  5
226
330
1
100
AcDbSymbolTableRecord
100
AcDbBlockTableRecord
  2
*D21
340
0
  0
BLOCK_RECORD
  5
227
330
1
100
AcDbSymbolTableRecord
100
AcDbBlockTableRecord
  2
*D22
340
0
  0
BLOCK_RECORD
  5
228
330
1
100
AcDbSymbolTableRecord
100
AcDbBlockTableRecord
  2
*D23
340
0
  0
BLOCK_RECORD
  5
229
330
1
100
AcDbSymbolTableRecord
100
AcDbBlockTableRecord
  2
SYMBOL_1_BL0
340
0
  0
BLOCK_RECORD
  5
D14
330
1
100
AcDbSymbolTableRecord
100
AcDbBlockTableRecord
  2
GENAXEH
340
0
  0
BLOCK_RECORD
  5
D3A
330
1
100
AcDbSymbolTableRecord
100
AcDbBlockTableRecord
  2
*D26
340
0
  0
BLOCK_RECORD
  5
D74
330
1
100
AcDbSymbolTableRecord
100
AcDbBlockTableRecord
  2
*D27
340
0
  0
BLOCK_RECORD
  5
D98
330
1
100
AcDbSymbolTableRecord
100
AcDbBlockTableRecord
  2
*D28
340
0
  0
BLOCK_RECORD
  5
DE7
330
1
100
AcDbSymbolTableRecord
100
AcDbBlockTableRecord
  2
*D29
340
0
  0
BLOCK_RECORD
  5
E15
330
1
100
AcDbSymbolTableRecord
100
AcDbBlockTableRecord
  2
*D30
340
0
  0
BLOCK_RECORD
  5
E21
330
1
100
AcDbSymbolTableRecord
100
AcDbBlockTableRecord
  2
_None
340
0
  0
BLOCK_RECORD
  5
1029
330
1
100
AcDbSymbolTableRecord
100
AcDbBlockTableRecord
  2
*D32
340
0
  0
BLOCK_RECORD
  5
103A
330
1
100
AcDbSymbolTableRecord
100
AcDbBlockTableRecord
  2
*D33
340
0
  0
BLOCK_RECORD
  5
1071
330
1
100
AcDbSymbolTableRecord
100
AcDbBlockTableRecord
  2
*D34
340
0
  0
BLOCK_RECORD
  5
109F
330
1
100
AcDbSymbolTableRecord
100
AcDbBlockTableRecord
  2
*D35
340
0
  0
ENDTAB
  0
ENDSEC
  0
SECTION
  2
BLOCKS
  0
BLOCK
  5
20
330
20F
100
AcDbEntity
  8
0
100
AcDbBlockBegin
  2
*Model_Space
 70
     0
 10
0.0
 20
0.0
 30
0.0
  3
*Model_Space
  1

  0
ENDBLK
  5
21
330
20F
100
AcDbEntity
  8
0
100
AcDbBlockEnd
  0
BLOCK
  5
1C
330
210
100
AcDbEntity
 67
     1
  8
0
100
AcDbBlockBegin
  2
*Paper_Space
 70
     0
 10
0.0
 20
0.0
 30
0.0
  3
*Paper_Space
  1

  0
ENDBLK
  5
1D
330
210
100
AcDbEntity
 67
     1
  8
0
100
AcDbBlockEnd
  0
BLOCK
  5
249
330
211
100
AcDbEntity
  8
0
100
AcDbBlockBegin
  2
_FILLED
 70
     0
 10
0.0
 20
0.0
 30
0.0
  3
_FILLED
  1

  0
SOLID
  5
24A
330
211
100
AcDbEntity
  8
0
  6
ByBlock
 62
     0
100
AcDbTrace
 10
0.0
 20
0.0
 30
0.0
 11
-1.0
 21
0.125
 31
0.0
 12
-1.0
 22
-0.125
 32
0.0
 13
-1.0
 23
-0.125
 33
0.0
  0
ENDBLK
  5
24B
330
211
100
AcDbEntity
  8
0
  6
ByBlock
 62
     0
100
AcDbBlockEnd
  0
BLOCK
  5
24C
330
212
100
AcDbEntity
  8
ZEICHNUNGSBEMASSUNGEN
  6
Continuous
 62
     2
100
AcDbBlockBegin
  2
*D1
 70
     1
 10
0.0
 20
0.0
 30
0.0
  3
*D1
  1

  0
MTEXT
  5
24D
330
212
100
AcDbEntity
  8
ZEICHNUNGSBEMASSUNGEN
  6
Continuous
 62
     5
100
AcDbMText
 10
64.99925028559999
 20
131.7007408204
 30
0.0
 40
3.5
 41
7.5
 71
     3
 72
     1
  1
T=1
 11
0.0
 21
1.0
 31
0.0
 73
     1
 44
0.9
1001
ACAD
1000
MTEXTBEGIN
1070
    73
1070
     1
1070
    44
1040
0.9
1070
    74
1070
     0
1000
MTEXTEND
  0
LINE
  5
24E
330
212
100
AcDbEntity
  8
ZEICHNUNGSBEMASSUNGEN
  6
Continuous
 62
     2
100
AcDbLine
 10
73.5048071982
 20
137.1105334768
 30
0.0
 11
67.8742502856
 21
137.1105334768
 31
0.0
  0
LINE
  5
24F
330
212
100
AcDbEntity
  8
ZEICHNUNGSBEMASSUNGEN
  6
Continuous
 62
     2
100
AcDbLine
 10
73.5048071982
 20
135.1105334768
 30
0.0
 11
67.8742502856
 21
135.1105334768
 31
0.0
  0
LINE
  5
250
330
212
100
AcDbEntity
  8
ZEICHNUNGSBEMASSUNGEN
  6
Continuous
 62
     2
100
AcDbLine
 10
69.37425028559999
 20
137.1105334768
 30
0.0
 11
69.37425028559999
 21
143.1105334768
 31
0.0
  0
LINE
  5
251
330
212
100
AcDbEntity
  8
ZEICHNUNGSBEMASSUNGEN
  6
Continuous
 62
     2
100
AcDbLine
 10
69.37425028559999
 20
143.1105334768
 30
0.0
 11
69.37425028559999
 21
136.1105334768
 31
0.0
  0
LINE
  5
252
330
212
100
AcDbEntity
  8
ZEICHNUNGSBEMASSUNGEN
  6
Continuous
 62
     2
100
AcDbLine
 10
69.37425028559999
 20
135.1105334768
 30
0.0
 11
69.37425028559999
 21
124.2007408204
 31
0.0
  0
LINE
  5
253
330
212
100
AcDbEntity
  8
ZEICHNUNGSBEMASSUNGEN
  6
Continuous
 62
     2
100
AcDbLine
 10
69.37425028559999
 20
124.2007408204
 30
0.0
 11
69.37425028559999
 21
136.1105334768
 31
0.0
  0
INSERT
  5
254
330
212
100
AcDbEntity
  8
ZEICHNUNGSBEMASSUNGEN
  6
Continuous
 62
     2
100
AcDbBlockReference
  2
_FILLED
 10
69.37425028559999
 20
137.1105334768
 30
0.0
 41
3.5
 42
3.5
 43
3.5
 50
270.0
  0
INSERT
  5
255
330
212
100
AcDbEntity
  8
ZEICHNUNGSBEMASSUNGEN
  6
Continuous
 62
     2
100
AcDbBlockReference
  2
_FILLED
 10
69.37425028559999
 20
135.1105334768
 30
0.0
 41
3.5
 42
3.5
 43
3.5
 50
90.0
  0
ENDBLK
  5
256
330
212
100
AcDbEntity
  8
0
  6
ByBlock
 62
     0
100
AcDbBlockEnd
  0
BLOCK
  5
257
330
213
100
AcDbEntity
  8
ZEICHNUNGSBEMASSUNGEN
  6
Continuous
 62
     2
100
AcDbBlockBegin
  2
*D2
 70
     1
 10
0.0
 20
0.0
 30
0.0
  3
*D2
  1

  0
MTEXT
  5
258
330
213
100
AcDbEntity
  8
ZEICHNUNGSBEMASSUNGEN
  6
Continuous
 62
     5
100
AcDbMText
 10
121.005029064
 20
191.2692221034
 30
0.0
 40
3.5
 41
8.5
 71
     2
 72
     1
  1
(46)
 73
     1
 44
0.9
1001
ACAD
1000
MTEXTBEGIN
1070
    73
1070
     1
1070
    44
1040
0.9
1070
    74
1070
     0
1000
MTEXTEND
  0
LINE
  5
259
330
213
100
AcDbEntity
  8
ZEICHNUNGSBEMASSUNGEN
  6
Continuous
 62
     2
100
AcDbLine
 10
75.0048071982
 20
138.6105334768
 30
0.0
 11
75.0048071982
 21
188.3942221034
 31
0.0
  0
LINE
  5
25A
330
213
100
AcDbEntity
  8
ZEICHNUNGSBEMASSUNGEN
  6
Continuous
 62
     2
100
AcDbLine
 10
167.0052509298
 20
154.6105334768
 30
0.0
 11
167.0052509298
 21
188.3942221034
 31
0.0
  0
LINE
  5
25B
330
213
100
AcDbEntity
  8
ZEICHNUNGSBEMASSUNGEN
  6
Continuous
 62
     2
100
AcDbLine
 10
75.0048071982
 20
186.8942221034
 30
0.0
 11
121.005029064
 21
186.8942221034
 31
0.0
  0
LINE
  5
25C
330
213
100
AcDbEntity
  8
ZEICHNUNGSBEMASSUNGEN
  6
Continuous
 62
     2
100
AcDbLine
 10
167.0052509298
 20
186.8942221034
 30
0.0
 11
121.005029064
 21
186.8942221034
 31
0.0
  0
INSERT
  5
25D
330
213
100
AcDbEntity
  8
ZEICHNUNGSBEMASSUNGEN
  6
Continuous
 62
     2
100
AcDbBlockReference
  2
_FILLED
 10
75.0048071982
 20
186.8942221034
 30
0.0
 41
3.5
 42
3.5
 43
3.5
 50
180.0
  0
INSERT
  5
25E
330
213
100
AcDbEntity
  8
ZEICHNUNGSBEMASSUNGEN
  6
Continuous
 62
     2
100
AcDbBlockReference
  2
_FILLED
 10
167.0052509298
 20
186.8942221034
 30
0.0
 41
3.5
 42
3.5
 43
3.5
  0
ENDBLK
  5
25F
330
213
100
AcDbEntity
  8
0
  6
ByBlock
 62
     0
100
AcDbBlockEnd
  0
BLOCK
  5
260
330
214
100
AcDbEntity
  8
ZEICHNUNGSBEMASSUNGEN
  6
Continuous
 62
     2
100
AcDbBlockBegin
  2
*D3
 70
     1
 10
0.0
 20
0.0
 30
0.0
  3
*D3
  1

  0
TEXT
  5
261
330
214
100
AcDbEntity
  8
ZEICHNUNGSBEMASSUNGEN
  6
Continuous
 62
     5
100
AcDbText
 10
149.4553700347
 20
179.3600281125
 30
0.0
 40
3.5
  1
12
 41
0.6785714286
 72
     1
 11
151.0387033681
 21
179.3600281125
 31
0.0
100
AcDbText
  0
TEXT
  5
262
330
214
100
AcDbEntity
  8
ZEICHNUNGSBEMASSUNGEN
  6
Continuous
 62
     5
100
AcDbText
 10
153.7928700346999
 20
179.8850281125
 30
0.0
 40
2.45
  1
`
  7
TEXTSTYLE_8
 72
     1
 11
154.8428700347
 21
179.8850281125
 31
0.0
100
AcDbText
  0
TEXT
  5
263
330
214
100
AcDbEntity
  8
ZEICHNUNGSBEMASSUNGEN
  6
Continuous
 62
     5
100
AcDbText
 10
157.2588422569021
 20
179.8850281125
 30
0.0
 40
2.45
  1
0.5
 41
0.6904761905
 72
     1
 11
158.8095367014
 21
179.8850281125
 31
0.0
100
AcDbText
  0
LINE
  5
264
330
214
100
AcDbEntity
  8
ZEICHNUNGSBEMASSUNGEN
  6
Continuous
 62
     2
100
AcDbLine
 10
167.0052509298
 20
154.6105334768
 30
0.0
 11
167.0052509298
 21
179.9850281125
 31
0.0
  0
LINE
  5
265
330
214
100
AcDbEntity
  8
ZEICHNUNGSBEMASSUNGEN
  6
Continuous
 62
     2
100
AcDbLine
 10
143.0054891396
 20
154.2619105057999
 30
0.0
 11
143.0054891396
 21
179.9850281125
 31
0.0
  0
LINE
  5
266
330
214
100
AcDbEntity
  8
ZEICHNUNGSBEMASSUNGEN
  6
Continuous
 62
     2
100
AcDbLine
 10
167.0052509298
 20
178.4850281125
 30
0.0
 11
155.0053700347
 21
178.4850281125
 31
0.0
  0
LINE
  5
267
330
214
100
AcDbEntity
  8
ZEICHNUNGSBEMASSUNGEN
  6
Continuous
 62
     2
100
AcDbLine
 10
143.0054891396
 20
178.4850281125
 30
0.0
 11
155.0053700347
 21
178.4850281125
 31
0.0
  0
INSERT
  5
268
330
214
100
AcDbEntity
  8
ZEICHNUNGSBEMASSUNGEN
  6
Continuous
 62
     2
100
AcDbBlockReference
  2
_FILLED
 10
167.0052509298
 20
178.4850281125
 30
0.0
 41
3.5
 42
3.5
 43
3.5
  0
INSERT
  5
269
330
214
100
AcDbEntity
  8
ZEICHNUNGSBEMASSUNGEN
  6
Continuous
 62
     2
100
AcDbBlockReference
  2
_FILLED
 10
143.0054891396
 20
178.4850281125
 30
0.0
 41
3.5
 42
3.5
 43
3.5
 50
180.0
  0
ENDBLK
  5
26A
330
214
100
AcDbEntity
  8
0
  6
ByBlock
 62
     0
100
AcDbBlockEnd
  0
BLOCK
  5
26B
330
215
100
AcDbEntity
  8
ZEICHNUNGSBEMASSUNGEN
  6
Continuous
 62
     2
100
AcDbBlockBegin
  2
*D4
 70
     1
 10
0.0
 20
0.0
 30
0.0
  3
*D4
  1

  0
MTEXT
  5
26C
330
215
100
AcDbEntity
  8
ZEICHNUNGSBEMASSUNGEN
  6
Continuous
 62
     5
100
AcDbMText
 10
50.9772311573
 20
147.1105334768
 30
0.0
 40
3.5
 41
12.5
 71
     2
 72
     1
  1
H+0.5
 11
0.0
 21
1.0
 31
0.0
 73
     1
 44
0.9
1001
ACAD
1000
MTEXTBEGIN
1070
    73
1070
     1
1070
    44
1040
0.9
1070
    74
1070
     0
1000
MTEXTEND
  0
LINE
  5
26D
330
215
100
AcDbEntity
  8
ZEICHNUNGSBEMASSUNGEN
  6
Continuous
 62
     2
100
AcDbLine
 10
145.490267932
 20
157.1105334768
 30
0.0
 11
53.85223115729999
 21
157.1105334768
 31
0.0
  0
LINE
  5
26E
330
215
100
AcDbEntity
  8
ZEICHNUNGSBEMASSUNGEN
  6
Continuous
 62
     2
100
AcDbLine
 10
73.5048071982
 20
137.1105334768
 30
0.0
 11
53.85223115729999
 21
137.1105334768
 31
0.0
  0
LINE
  5
26F
330
215
100
AcDbEntity
  8
ZEICHNUNGSBEMASSUNGEN
  6
Continuous
 62
     2
100
AcDbLine
 10
55.3522311573
 20
157.1105334768
 30
0.0
 11
55.3522311573
 21
147.1105334768
 31
0.0
  0
LINE
  5
270
330
215
100
AcDbEntity
  8
ZEICHNUNGSBEMASSUNGEN
  6
Continuous
 62
     2
100
AcDbLine
 10
55.3522311573
 20
137.1105334768
 30
0.0
 11
55.3522311573
 21
147.1105334768
 31
0.0
  0
INSERT
  5
271
330
215
100
AcDbEntity
  8
ZEICHNUNGSBEMASSUNGEN
  6
Continuous
 62
     2
100
AcDbBlockReference
  2
_FILLED
 10
55.3522311573
 20
157.1105334768
 30
0.0
 41
3.5
 42
3.5
 43
3.5
 50
90.0
  0
INSERT
  5
272
330
215
100
AcDbEntity
  8
ZEICHNUNGSBEMASSUNGEN
  6
Continuous
 62
     2
100
AcDbBlockReference
  2
_FILLED
 10
55.3522311573
 20
137.1105334768
 30
0.0
 41
3.5
 42
3.5
 43
3.5
 50
270.0
  0
ENDBLK
  5
273
330
215
100
AcDbEntity
  8
0
  6
ByBlock
 62
     0
100
AcDbBlockEnd
  0
BLOCK
  5
274
330
216
100
AcDbEntity
  8
ZEICHNUNGSBEMASSUNGEN
  6
Continuous
 62
     2
100
AcDbBlockBegin
  2
*D5
 70
     1
 10
0.0
 20
0.0
 30
0.0
  3
*D5
  1

  0
MTEXT
  5
275
330
216
100
AcDbEntity
  8
ZEICHNUNGSBEMASSUNGEN
  6
Continuous
 62
     5
100
AcDbMText
 10
46.0554711281
 20
196.5150997729
 30
0.0
 40
3.5
 41
2.5
 71
     3
 72
     1
  1
a
 73
     1
 44
0.9
1001
ACAD
1000
MTEXTBEGIN
1070
    73
1070
     1
1070
    44
1040
0.9
1070
    74
1070
     0
1000
MTEXTEND
  0
LINE
  5
276
330
216
100
AcDbEntity
  8
ZEICHNUNGSBEMASSUNGEN
  6
Continuous
 62
     2
100
AcDbLine
 10
49.9638496974
 20
207.7032245483
 30
0.0
 11
49.9638496974
 21
190.6400997729
 31
0.0
  0
LINE
  5
277
330
216
100
AcDbEntity
  8
ZEICHNUNGSBEMASSUNGEN
  6
Continuous
 62
     2
100
AcDbLine
 10
48.56384969739998
 20
206.0720850165
 30
0.0
 11
48.56384969739998
 21
190.6400997729
 31
0.0
  0
LINE
  5
278
330
216
100
AcDbEntity
  8
ZEICHNUNGSBEMASSUNGEN
  6
Continuous
 62
     2
100
AcDbLine
 10
49.9638496974
 20
192.1400997729
 30
0.0
 11
55.9638496974
 21
192.1400997729
 31
0.0
  0
LINE
  5
279
330
216
100
AcDbEntity
  8
ZEICHNUNGSBEMASSUNGEN
  6
Continuous
 62
     2
100
AcDbLine
 10
55.9638496974
 20
192.1400997729
 30
0.0
 11
49.26384969739999
 21
192.1400997729
 31
0.0
  0
LINE
  5
27A
330
216
100
AcDbEntity
  8
ZEICHNUNGSBEMASSUNGEN
  6
Continuous
 62
     2
100
AcDbLine
 10
48.56384969739998
 20
192.1400997729
 30
0.0
 11
43.5554711281
 21
192.1400997729
 31
0.0
  0
LINE
  5
27B
330
216
100
AcDbEntity
  8
ZEICHNUNGSBEMASSUNGEN
  6
Continuous
 62
     2
100
AcDbLine
 10
43.5554711281
 20
192.1400997729
 30
0.0
 11
49.26384969739999
 21
192.1400997729
 31
0.0
  0
INSERT
  5
27C
330
216
100
AcDbEntity
  8
ZEICHNUNGSBEMASSUNGEN
  6
Continuous
 62
     2
100
AcDbBlockReference
  2
_FILLED
 10
49.9638496974
 20
192.1400997729
 30
0.0
 41
3.5
 42
3.5
 43
3.5
 50
180.0
  0
INSERT
  5
27D
330
216
100
AcDbEntity
  8
ZEICHNUNGSBEMASSUNGEN
  6
Continuous
 62
     2
100
AcDbBlockReference
  2
_FILLED
 10
48.56384969739998
 20
192.1400997729
 30
0.0
 41
3.5
 42
3.5
 43
3.5
  0
ENDBLK
  5
27E
330
216
100
AcDbEntity
  8
0
  6
ByBlock
 62
     0
100
AcDbBlockEnd
  0
BLOCK
  5
27F
330
217
100
AcDbEntity
  8
ZEICHNUNGSBEMASSUNGEN
  6
Continuous
 62
     2
100
AcDbBlockBegin
  2
*D6
 70
     1
 10
0.0
 20
0.0
 30
0.0
  3
*D6
  1

  0
MTEXT
  5
280
330
217
100
AcDbEntity
  8
ZEICHNUNGSBEMASSUNGEN
  6
Continuous
 62
     5
100
AcDbMText
 10
33.987229063
 20
216.7441073497
 30
0.0
 40
3.5
 41
10.3125
 71
     1
 72
     1
  1
{\Fgdt;o}\Ftxt;20
  7
TEXTSTYLE_8
 11
0.0
 21
1.0
 31
0.0
 73
     1
 44
0.9
1001
ACAD
1000
MTEXTBEGIN
1070
    73
1070
     1
1070
    44
1040
0.9
1070
    74
1070
     0
1000
MTEXTEND
  0
LINE
  5
281
330
217
100
AcDbEntity
  8
ZEICHNUNGSBEMASSUNGEN
  6
Continuous
 62
     2
100
AcDbLine
 10
48.4638496974
 20
211.6985807878
 30
0.0
 11
36.8622290631
 21
211.6985807878
 31
0.0
  0
LINE
  5
282
330
217
100
AcDbEntity
  8
ZEICHNUNGSBEMASSUNGEN
  6
Continuous
 62
     2
100
AcDbLine
 10
48.4638496974
 20
207.6985807878
 30
0.0
 11
36.8622290631
 21
207.6985807878
 31
0.0
  0
LINE
  5
283
330
217
100
AcDbEntity
  8
ZEICHNUNGSBEMASSUNGEN
  6
Continuous
 62
     2
100
AcDbLine
 10
38.3622290631
 20
211.6985807878
 30
0.0
 11
38.3622290631
 21
227.0566073497
 31
0.0
  0
LINE
  5
284
330
217
100
AcDbEntity
  8
ZEICHNUNGSBEMASSUNGEN
  6
Continuous
 62
     2
100
AcDbLine
 10
38.3622290631
 20
227.0566073497
 30
0.0
 11
38.3622290631
 21
209.6985807878
 31
0.0
  0
LINE
  5
285
330
217
100
AcDbEntity
  8
ZEICHNUNGSBEMASSUNGEN
  6
Continuous
 62
     2
100
AcDbLine
 10
38.3622290631
 20
207.6985807878
 30
0.0
 11
38.3622290631
 21
201.6985807878
 31
0.0
  0
LINE
  5
286
330
217
100
AcDbEntity
  8
ZEICHNUNGSBEMASSUNGEN
  6
Continuous
 62
     2
100
AcDbLine
 10
38.3622290631
 20
201.6985807878
 30
0.0
 11
38.3622290631
 21
209.6985807878
 31
0.0
  0
INSERT
  5
287
330
217
100
AcDbEntity
  8
ZEICHNUNGSBEMASSUNGEN
  6
Continuous
 62
     2
100
AcDbBlockReference
  2
_FILLED
 10
38.3622290631
 20
211.6985807878
 30
0.0
 41
3.5
 42
3.5
 43
3.5
 50
270.0
  0
INSERT
  5
288
330
217
100
AcDbEntity
  8
ZEICHNUNGSBEMASSUNGEN
  6
Continuous
 62
     2
100
AcDbBlockReference
  2
_FILLED
 10
38.3622290631
 20
207.6985807878
 30
0.0
 41
3.5
 42
3.5
 43
3.5
 50
90.0
  0
ENDBLK
  5
289
330
217
100
AcDbEntity
  8
0
  6
ByBlock
 62
     0
100
AcDbBlockEnd
  0
BLOCK
  5
28A
330
218
100
AcDbEntity
  8
ZEICHNUNGSBEMASSUNGEN
  6
Continuous
 62
     2
100
AcDbBlockBegin
  2
*D7
 70
     1
 10
0.0
 20
0.0
 30
0.0
  3
*D7
  1

  0
MTEXT
  5
28B
330
218
100
AcDbEntity
  8
ZEICHNUNGSBEMASSUNGEN
  6
Continuous
 62
     5
100
AcDbMText
 10
61.8442383195
 20
231.5497928376
 30
0.0
 40
3.5
 41
2.5
 71
     1
 72
     1
  1
b
 73
     1
 44
0.9
1001
ACAD
1000
MTEXTBEGIN
1070
    73
1070
     1
1070
    44
1040
0.9
1070
    74
1070
     0
1000
MTEXTEND
  0
LINE
  5
28C
330
218
100
AcDbEntity
  8
ZEICHNUNGSBEMASSUNGEN
  6
Continuous
 62
     2
100
AcDbLine
 10
49.9638496974
 20
213.1985807878
 30
0.0
 11
49.9638496974
 21
228.6747928376
 31
0.0
  0
LINE
  5
28D
330
218
100
AcDbEntity
  8
ZEICHNUNGSBEMASSUNGEN
  6
Continuous
 62
     2
100
AcDbLine
 10
55.56384969739998
 20
213.1985807878
 30
0.0
 11
55.56384969739998
 21
228.6747928376
 31
0.0
  0
LINE
  5
28E
330
218
100
AcDbEntity
  8
ZEICHNUNGSBEMASSUNGEN
  6
Continuous
 62
     2
100
AcDbLine
 10
49.9638496974
 20
227.1747928376
 30
0.0
 11
43.9638496974
 21
227.1747928376
 31
0.0
  0
LINE
  5
28F
330
218
100
AcDbEntity
  8
ZEICHNUNGSBEMASSUNGEN
  6
Continuous
 62
     2
100
AcDbLine
 10
43.9638496974
 20
227.1747928376
 30
0.0
 11
52.7638496974
 21
227.1747928376
 31
0.0
  0
LINE
  5
290
330
218
100
AcDbEntity
  8
ZEICHNUNGSBEMASSUNGEN
  6
Continuous
 62
     2
100
AcDbLine
 10
55.56384969739998
 20
227.1747928376
 30
0.0
 11
64.34423831949999
 21
227.1747928376
 31
0.0
  0
LINE
  5
291
330
218
100
AcDbEntity
  8
ZEICHNUNGSBEMASSUNGEN
  6
Continuous
 62
     2
100
AcDbLine
 10
64.34423831949999
 20
227.1747928376
 30
0.0
 11
52.7638496974
 21
227.1747928376
 31
0.0
  0
INSERT
  5
292
330
218
100
AcDbEntity
  8
ZEICHNUNGSBEMASSUNGEN
  6
Continuous
 62
     2
100
AcDbBlockReference
  2
_FILLED
 10
49.9638496974
 20
227.1747928376
 30
0.0
 41
3.5
 42
3.5
 43
3.5
  0
INSERT
  5
293
330
218
100
AcDbEntity
  8
ZEICHNUNGSBEMASSUNGEN
  6
Continuous
 62
     2
100
AcDbBlockReference
  2
_FILLED
 10
55.56384969739998
 20
227.1747928376
 30
0.0
 41
3.5
 42
3.5
 43
3.5
 50
180.0
  0
ENDBLK
  5
294
330
218
100
AcDbEntity
  8
0
  6
ByBlock
 62
     0
100
AcDbBlockEnd
  0
BLOCK
  5
295
330
219
100
AcDbEntity
  8
ZEICHNUNGSBEMASSUNGEN
  6
Continuous
 62
     2
100
AcDbBlockBegin
  2
*D8
 70
     1
 10
0.0
 20
0.0
 30
0.0
  3
*D8
  1

  0
TEXT
  5
296
330
219
100
AcDbEntity
  8
ZEICHNUNGSBEMASSUNGEN
  6
Continuous
 62
     5
100
AcDbText
 10
104.6884815022
 20
179.314376458
 30
0.0
 40
3.5
  1
34
 41
0.75
 72
     1
 11
106.8759815022
 21
179.314376458
 31
0.0
100
AcDbText
  0
TEXT
  5
297
330
219
100
AcDbEntity
  8
ZEICHNUNGSBEMASSUNGEN
  6
Continuous
 62
     5
100
AcDbText
 10
109.8801481689
 20
179.839376458
 30
0.0
 40
2.45
  1
`
  7
TEXTSTYLE_8
 72
     1
 11
110.9301481689
 21
179.839376458
 31
0.0
100
AcDbText
  0
TEXT
  5
298
330
219
100
AcDbEntity
  8
ZEICHNUNGSBEMASSUNGEN
  6
Continuous
 62
     5
100
AcDbText
 10
112.8259815022783
 20
179.839376458
 30
0.0
 40
2.45
  1
1
 41
0.5714285714000003
 72
     1
 11
113.0593148356
 21
179.839376458
 31
0.0
100
AcDbText
  0
LINE
  5
299
330
219
100
AcDbEntity
  8
ZEICHNUNGSBEMASSUNGEN
  6
Continuous
 62
     2
100
AcDbLine
 10
75.0048071982
 20
138.6105334768
 30
0.0
 11
75.0048071982
 21
179.939376458
 31
0.0
  0
LINE
  5
29A
330
219
100
AcDbEntity
  8
ZEICHNUNGSBEMASSUNGEN
  6
Continuous
 62
     2
100
AcDbLine
 10
143.0054891396
 20
154.2619105057999
 30
0.0
 11
143.0054891396
 21
179.939376458
 31
0.0
  0
LINE
  5
29B
330
219
100
AcDbEntity
  8
ZEICHNUNGSBEMASSUNGEN
  6
Continuous
 62
     2
100
AcDbLine
 10
75.0048071982
 20
178.439376458
 30
0.0
 11
109.0051481689
 21
178.439376458
 31
0.0
  0
LINE
  5
29C
330
219
100
AcDbEntity
  8
ZEICHNUNGSBEMASSUNGEN
  6
Continuous
 62
     2
100
AcDbLine
 10
143.0054891396
 20
178.439376458
 30
0.0
 11
109.0051481689
 21
178.439376458
 31
0.0
  0
INSERT
  5
29D
330
219
100
AcDbEntity
  8
ZEICHNUNGSBEMASSUNGEN
  6
Continuous
 62
     2
100
AcDbBlockReference
  2
_FILLED
 10
75.0048071982
 20
178.439376458
 30
0.0
 41
3.5
 42
3.5
 43
3.5
 50
180.0
  0
INSERT
  5
29E
330
219
100
AcDbEntity
  8
ZEICHNUNGSBEMASSUNGEN
  6
Continuous
 62
     2
100
AcDbBlockReference
  2
_FILLED
 10
143.0054891396
 20
178.439376458
 30
0.0
 41
3.5
 42
3.5
 43
3.5
  0
ENDBLK
  5
29F
330
219
100
AcDbEntity
  8
0
  6
ByBlock
 62
     0
100
AcDbBlockEnd
  0
BLOCK
  5
2A0
330
21A
100
AcDbEntity
  8
ZEICHNUNGSBEMASSUNGEN
  6
Continuous
 62
     2
100
AcDbBlockBegin
  2
*D9
 70
     1
 10
0.0
 20
0.0
 30
0.0
  3
*D9
  1

  0
MTEXT
  5
2A1
330
21A
100
AcDbEntity
  8
ZEICHNUNGSBEMASSUNGEN
  6
Continuous
 62
     5
100
AcDbMText
 10
82.00480719819998
 20
118.1161088396
 30
0.0
 40
3.5
 41
2.75
 71
     2
 72
     1
  1
7
 73
     1
 44
0.9
1001
ACAD
1000
MTEXTBEGIN
1070
    73
1070
     1
1070
    44
1040
0.9
1070
    74
1070
     0
1000
MTEXTEND
  0
LINE
  5
2A2
330
21A
100
AcDbEntity
  8
ZEICHNUNGSBEMASSUNGEN
  6
Continuous
 62
     2
100
AcDbLine
 10
89.0048071982
 20
133.6105334768
 30
0.0
 11
89.0048071982
 21
112.2411088396
 31
0.0
  0
LINE
  5
2A3
330
21A
100
AcDbEntity
  8
ZEICHNUNGSBEMASSUNGEN
  6
Continuous
 62
     2
100
AcDbLine
 10
75.0048071982
 20
133.6105334768
 30
0.0
 11
75.0048071982
 21
112.2411088396
 31
0.0
  0
LINE
  5
2A4
330
21A
100
AcDbEntity
  8
ZEICHNUNGSBEMASSUNGEN
  6
Continuous
 62
     2
100
AcDbLine
 10
89.0048071982
 20
113.7411088396
 30
0.0
 11
82.00480719819998
 21
113.7411088396
 31
0.0
  0
LINE
  5
2A5
330
21A
100
AcDbEntity
  8
ZEICHNUNGSBEMASSUNGEN
  6
Continuous
 62
     2
100
AcDbLine
 10
75.0048071982
 20
113.7411088396
 30
0.0
 11
82.00480719819998
 21
113.7411088396
 31
0.0
  0
INSERT
  5
2A6
330
21A
100
AcDbEntity
  8
ZEICHNUNGSBEMASSUNGEN
  6
Continuous
 62
     2
100
AcDbBlockReference
  2
_FILLED
 10
89.0048071982
 20
113.7411088396
 30
0.0
 41
3.5
 42
3.5
 43
3.5
  0
INSERT
  5
2A7
330
21A
100
AcDbEntity
  8
ZEICHNUNGSBEMASSUNGEN
  6
Continuous
 62
     2
100
AcDbBlockReference
  2
_FILLED
 10
75.0048071982
 20
113.7411088396
 30
0.0
 41
3.5
 42
3.5
 43
3.5
 50
180.0
  0
ENDBLK
  5
2A8
330
21A
100
AcDbEntity
  8
0
  6
ByBlock
 62
     0
100
AcDbBlockEnd
  0
BLOCK
  5
2A9
330
21B
100
AcDbEntity
  8
ZEICHNUNGSBEMASSUNGEN
  6
Continuous
 62
     2
100
AcDbBlockBegin
  2
*D10
 70
     1
 10
0.0
 20
0.0
 30
0.0
  3
*D10
  1

  0
MTEXT
  5
2AA
330
21B
100
AcDbEntity
  8
ZEICHNUNGSBEMASSUNGEN
  6
Continuous
 62
     5
100
AcDbMText
 10
136.0051481689
 20
118.1037103421
 30
0.0
 40
3.5
 41
5.75
 71
     2
 72
     1
  1
(7)
 73
     1
 44
0.9
1001
ACAD
1000
MTEXTBEGIN
1070
    73
1070
     1
1070
    44
1040
0.9
1070
    74
1070
     0
1000
MTEXTEND
  0
LINE
  5
2AB
330
21B
100
AcDbEntity
  8
ZEICHNUNGSBEMASSUNGEN
  6
Continuous
 62
     2
100
AcDbLine
 10
129.0048071981999
 20
133.6105334768
 30
0.0
 11
129.0048071981999
 21
112.2287103421
 31
0.0
  0
LINE
  5
2AC
330
21B
100
AcDbEntity
  8
ZEICHNUNGSBEMASSUNGEN
  6
Continuous
 62
     2
100
AcDbLine
 10
143.0054891396
 20
151.2619105058
 30
0.0
 11
143.0054891396
 21
112.2287103421
 31
0.0
  0
LINE
  5
2AD
330
21B
100
AcDbEntity
  8
ZEICHNUNGSBEMASSUNGEN
  6
Continuous
 62
     2
100
AcDbLine
 10
129.0048071981999
 20
113.7287103421
 30
0.0
 11
136.0051481689
 21
113.7287103421
 31
0.0
  0
LINE
  5
2AE
330
21B
100
AcDbEntity
  8
ZEICHNUNGSBEMASSUNGEN
  6
Continuous
 62
     2
100
AcDbLine
 10
143.0054891396
 20
113.7287103421
 30
0.0
 11
136.0051481689
 21
113.7287103421
 31
0.0
  0
INSERT
  5
2AF
330
21B
100
AcDbEntity
  8
ZEICHNUNGSBEMASSUNGEN
  6
Continuous
 62
     2
100
AcDbBlockReference
  2
_FILLED
 10
129.0048071981999
 20
113.7287103421
 30
0.0
 41
3.5
 42
3.5
 43
3.5
 50
180.0
  0
INSERT
  5
2B0
330
21B
100
AcDbEntity
  8
ZEICHNUNGSBEMASSUNGEN
  6
Continuous
 62
     2
100
AcDbBlockReference
  2
_FILLED
 10
143.0054891396
 20
113.7287103421
 30
0.0
 41
3.5
 42
3.5
 43
3.5
  0
ENDBLK
  5
2B1
330
21B
100
AcDbEntity
  8
0
  6
ByBlock
 62
     0
100
AcDbBlockEnd
  0
BLOCK
  5
2B2
330
21C
100
AcDbEntity
  8
ZEICHNUNGSBEMASSUNGEN
  6
Continuous
 62
     2
100
AcDbBlockBegin
  2
*D11
 70
     1
 10
0.0
 20
0.0
 30
0.0
  3
*D11
  1

  0
LINE
  5
DD4
330
21C
100
AcDbEntity
  8
ZEICHNUNGSBEMASSUNGEN
  6
Continuous
 62
     0
370
    -2
100
AcDbLine
 10
290.804511472705
 20
-110.0248155190029
 30
0.0
 11
290.804511472705
 21
34.06581371699713
 31
0.0
  0
LINE
  5
DD5
330
21C
100
AcDbEntity
  8
ZEICHNUNGSBEMASSUNGEN
  6
Continuous
 62
     0
370
    -2
100
AcDbLine
 10
1746.804511472705
 20
-110.0248155190029
 30
0.0
 11
1746.804511472705
 21
34.06581371699713
 31
0.0
  0
LINE
  5
DD6
330
21C
100
AcDbEntity
  8
ZEICHNUNGSBEMASSUNGEN
  6
Continuous
 62
     0
370
    -2
100
AcDbLine
 10
294.304511472705
 20
32.56581371699713
 30
0.0
 11
1743.304511472705
 21
32.56581371699713
 31
0.0
  0
INSERT
  5
DD7
330
21C
100
AcDbEntity
  8
ZEICHNUNGSBEMASSUNGEN
  6
Continuous
 62
     0
370
    -2
100
AcDbBlockReference
  2
_FILLED
 10
290.804511472705
 20
32.56581371699713
 30
0.0
 41
3.5
 42
3.5
 43
3.5
 50
180.0
  0
INSERT
  5
DD8
330
21C
100
AcDbEntity
  8
ZEICHNUNGSBEMASSUNGEN
  6
Continuous
 62
     0
370
    -2
100
AcDbBlockReference
  2
_FILLED
 10
1746.804511472705
 20
32.56581371699713
 30
0.0
 41
3.5
 42
3.5
 43
3.5
  0
MTEXT
  5
DD9
330
21C
100
AcDbEntity
  8
ZEICHNUNGSBEMASSUNGEN
  6
Continuous
 62
     5
100
AcDbMText
 10
1018.804511472705
 20
36.94081371699713
 30
0.0
 40
3.5
 41
0.0
 71
     2
 72
     1
  1
\A1;N x b=(7280)
 73
     1
 44
1.0
1001
ACAD
1000
MTEXTBEGIN
1070
    73
1070
     1
1070
    44
1040
1.0
1070
    74
1070
     0
1000
MTEXTEND
  0
POINT
  5
DDA
330
21C
100
AcDbEntity
  8
Defpoints
  6
Continuous
 62
     0
100
AcDbPoint
 10
290.804511472705
 20
-111.5248155190029
 30
0.0
  0
POINT
  5
DDB
330
21C
100
AcDbEntity
  8
Defpoints
  6
Continuous
 62
     0
100
AcDbPoint
 10
1746.804511472705
 20
-111.5248155190029
 30
0.0
  0
POINT
  5
DDC
330
21C
100
AcDbEntity
  8
Defpoints
  6
Continuous
 62
     0
100
AcDbPoint
 10
1746.804511472705
 20
32.56581371699713
 30
0.0
  0
ENDBLK
  5
2BA
330
21C
100
AcDbEntity
  8
0
  6
ByBlock
 62
     0
100
AcDbBlockEnd
  0
BLOCK
  5
2BB
330
21D
100
AcDbEntity
  8
ZEICHNUNGSBEMASSUNGEN
  6
Continuous
 62
     2
100
AcDbBlockBegin
  2
*D12
 70
     1
 10
0.0
 20
0.0
 30
0.0
  3
*D12
  1

  0
MTEXT
  5
2BC
330
21D
100
AcDbEntity
  8
ZEICHNUNGSBEMASSUNGEN
  6
Continuous
 62
     5
100
AcDbMText
 10
155.5911099591
 20
133.8566319434
 30
0.0
 40
3.5
 41
5.75
 71
     2
 72
     1
  1
(9)
 73
     1
 44
0.9
1001
ACAD
1000
MTEXTBEGIN
1070
    73
1070
     1
1070
    44
1040
0.9
1070
    74
1070
     0
1000
MTEXTEND
  0
LINE
  5
2BD
330
21D
100
AcDbEntity
  8
ZEICHNUNGSBEMASSUNGEN
  6
Continuous
 62
     2
100
AcDbLine
 10
165.0052509298
 20
133.9411784045
 30
0.0
 11
165.0052509298
 21
127.9816319434
 31
0.0
  0
LINE
  5
2BE
330
21D
100
AcDbEntity
  8
ZEICHNUNGSBEMASSUNGEN
  6
Continuous
 62
     2
100
AcDbLine
 10
146.1769689884
 20
137.9591564478
 30
0.0
 11
146.1769689884
 21
127.9816319434
 31
0.0
  0
LINE
  5
2BF
330
21D
100
AcDbEntity
  8
ZEICHNUNGSBEMASSUNGEN
  6
Continuous
 62
     2
100
AcDbLine
 10
165.0052509298
 20
129.4816319434
 30
0.0
 11
155.5911099591
 21
129.4816319434
 31
0.0
  0
LINE
  5
2C0
330
21D
100
AcDbEntity
  8
ZEICHNUNGSBEMASSUNGEN
  6
Continuous
 62
     2
100
AcDbLine
 10
146.1769689884
 20
129.4816319434
 30
0.0
 11
155.5911099591
 21
129.4816319434
 31
0.0
  0
INSERT
  5
2C1
330
21D
100
AcDbEntity
  8
ZEICHNUNGSBEMASSUNGEN
  6
Continuous
 62
     2
100
AcDbBlockReference
  2
_FILLED
 10
165.0052509298
 20
129.4816319434
 30
0.0
 41
3.5
 42
3.5
 43
3.5
  0
INSERT
  5
2C2
330
21D
100
AcDbEntity
  8
ZEICHNUNGSBEMASSUNGEN
  6
Continuous
 62
     2
100
AcDbBlockReference
  2
_FILLED
 10
146.1769689884
 20
129.4816319434
 30
0.0
 41
3.5
 42
3.5
 43
3.5
 50
180.0
  0
ENDBLK
  5
2C3
330
21D
100
AcDbEntity
  8
0
  6
ByBlock
 62
     0
100
AcDbBlockEnd
  0
BLOCK
  5
2C4
330
21E
100
AcDbEntity
  8
ZEICHNUNGSBEMASSUNGEN
  6
Continuous
 62
     2
100
AcDbBlockBegin
  2
*D13
 70
     1
 10
0.0
 20
0.0
 30
0.0
  3
*D13
  1

  0
MTEXT
  5
2C5
330
21E
100
AcDbEntity
  8
ZEICHNUNGSBEMASSUNGEN
  6
Continuous
 62
     5
100
AcDbMText
 10
129.825016998
 20
150.4429598126
 30
0.0
 40
3.5
 41
10.5833333333
 71
     2
 72
     1
  1
(85\Fgdt;{\Fgdt;~}\Ftxt;)
 11
0.6755902076121905
 21
0.7372773368133037
 31
0.0
 73
     1
 44
0.9
1001
ACAD
1000
MTEXTBEGIN
1070
    73
1070
     1
1070
    44
1040
0.9
1070
    74
1070
     0
1000
MTEXTEND
  0
LINE
  5
2C6
330
21E
100
AcDbEntity
  8
ZEICHNUNGSBEMASSUNGEN
  6
Continuous
 62
     2
100
AcDbLine
 10
143.6452586467
 20
145.4493115782
 30
0.0
 11
143.1341898896
 21
151.2908542015
 31
0.0
  0
LINE
  5
2C7
330
21E
100
AcDbEntity
  8
ZEICHNUNGSBEMASSUNGEN
  6
Continuous
 62
     2
100
AcDbLine
 10
134.2752637626
 20
137.1105334768
 30
0.0
 11
130.140319952
 21
137.1105334768
 31
0.0
  0
ARC
  5
2C8
330
21E
100
AcDbEntity
  8
ZEICHNUNGSBEMASSUNGEN
  6
Continuous
 62
     2
100
AcDbCircle
 10
144.3748071982
 20
137.1105334768
 30
0.0
 40
12.7344872462
100
AcDbArc
 50
95.0
 51
137.5
  0
ARC
  5
2C9
330
21E
100
AcDbEntity
  8
ZEICHNUNGSBEMASSUNGEN
  6
Continuous
 62
     2
100
AcDbCircle
 10
144.3748071982
 20
137.1105334768
 30
0.0
 40
12.7344872462
100
AcDbArc
 50
137.5
 51
180.0
  0
SOLID
  5
2CA
330
21E
100
AcDbEntity
  8
ZEICHNUNGSBEMASSUNGEN
  6
Continuous
 62
     2
100
AcDbTrace
 10
139.9503773128
 20
148.5902496749
 30
0.0
 11
143.2649235038
 21
149.7965621544
 31
0.0
 12
139.755424893
 22
149.4432552752
 32
0.0
 13
139.755424893
 23
149.4432552752
 33
0.0
  0
SOLID
  5
2CB
330
21E
100
AcDbEntity
  8
ZEICHNUNGSBEMASSUNGEN
  6
Continuous
 62
     2
100
AcDbTrace
 10
131.6864094338
 20
140.6374701093
 30
0.0
 11
131.640319952
 21
137.1105334768
 31
0.0
 12
132.5531603131
 22
140.5176038789
 32
0.0
 13
132.5531603131
 23
140.5176038789
 33
0.0
  0
ENDBLK
  5
2CC
330
21E
100
AcDbEntity
  8
0
  6
ByBlock
 62
     0
100
AcDbBlockEnd
  0
BLOCK
  5
2CD
330
21F
100
AcDbEntity
  8
ZEICHNUNGSBEMASSUNGEN
  6
Continuous
 62
     2
100
AcDbBlockBegin
  2
*D14
 70
     1
 10
0.0
 20
0.0
 30
0.0
  3
*D14
  1

  0
LINE
  5
DDD
330
21F
100
AcDbEntity
  8
ZEICHNUNGSBEMASSUNGEN
  6
Continuous
 62
     0
370
    -2
100
AcDbLine
 10
283.804511472705
 20
-103.0248155190029
 30
0.0
 11
283.804511472705
 21
71.61609702499709
 31
0.0
  0
LINE
  5
DDE
330
21F
100
AcDbEntity
  8
ZEICHNUNGSBEMASSUNGEN
  6
Continuous
 62
     0
370
    -2
100
AcDbLine
 10
1773.804511472705
 20
-103.0248155190029
 30
0.0
 11
1773.804511472705
 21
71.61609702499709
 31
0.0
  0
LINE
  5
DDF
330
21F
100
AcDbEntity
  8
ZEICHNUNGSBEMASSUNGEN
  6
Continuous
 62
     0
370
    -2
100
AcDbLine
 10
287.304511472705
 20
70.11609702499709
 30
0.0
 11
1770.304511472705
 21
70.11609702499709
 31
0.0
  0
INSERT
  5
DE0
330
21F
100
AcDbEntity
  8
ZEICHNUNGSBEMASSUNGEN
  6
Continuous
 62
     0
370
    -2
100
AcDbBlockReference
  2
_FILLED
 10
283.804511472705
 20
70.11609702499709
 30
0.0
 41
3.5
 42
3.5
 43
3.5
 50
180.0
  0
INSERT
  5
DE1
330
21F
100
AcDbEntity
  8
ZEICHNUNGSBEMASSUNGEN
  6
Continuous
 62
     0
370
    -2
100
AcDbBlockReference
  2
_FILLED
 10
1773.804511472705
 20
70.11609702499709
 30
0.0
 41
3.5
 42
3.5
 43
3.5
  0
MTEXT
  5
DE2
330
21F
100
AcDbEntity
  8
ZEICHNUNGSBEMASSUNGEN
  6
Continuous
 62
     5
100
AcDbMText
 10
1028.804511472705
 20
74.49109702499709
 30
0.0
 40
3.5
 41
0.0
 71
     2
 72
     1
  1
\A1;L%%p1
 73
     1
 44
1.0
1001
ACAD
1000
MTEXTBEGIN
1070
    73
1070
     1
1070
    44
1040
1.0
1070
    74
1070
     0
1000
MTEXTEND
  0
POINT
  5
DE3
330
21F
100
AcDbEntity
  8
Defpoints
  6
Continuous
 62
     0
100
AcDbPoint
 10
283.804511472705
 20
-104.5248155190029
 30
0.0
  0
POINT
  5
DE4
330
21F
100
AcDbEntity
  8
Defpoints
  6
Continuous
 62
     0
100
AcDbPoint
 10
1773.804511472705
 20
-104.5248155190029
 30
0.0
  0
POINT
  5
DE5
330
21F
100
AcDbEntity
  8
Defpoints
  6
Continuous
 62
     0
100
AcDbPoint
 10
1773.804511472705
 20
70.11609702499709
 30
0.0
  0
ENDBLK
  5
2D5
330
21F
100
AcDbEntity
  8
0
  6
ByBlock
 62
     0
100
AcDbBlockEnd
  0
BLOCK
  5
2D6
330
220
100
AcDbEntity
  8
ZEICHNUNGSBEMASSUNGEN
  6
Continuous
 62
     2
100
AcDbBlockBegin
  2
*D15
 70
     1
 10
0.0
 20
0.0
 30
0.0
  3
*D15
  1

  0
MTEXT
  5
2D7
330
220
100
AcDbEntity
  8
ZEICHNUNGSBEMASSUNGEN
  6
Continuous
 62
     5
100
AcDbMText
 10
33.6391608552
 20
263.5722853935
 30
0.0
 40
3.5
 41
9.75
 71
     3
 72
     1
  1
h2+1
 11
0.0
 21
1.0
 31
0.0
 73
     1
 44
0.9
1001
ACAD
1000
MTEXTBEGIN
1070
    73
1070
     1
1070
    44
1040
0.9
1070
    74
1070
     0
1000
MTEXTEND
  0
LINE
  5
2D8
330
220
100
AcDbEntity
  8
ZEICHNUNGSBEMASSUNGEN
  6
Continuous
 62
     2
100
AcDbLine
 10
47.06384969739999
 20
269.7190082962
 30
0.0
 11
36.5141608552
 21
269.7190082962
 31
0.0
  0
LINE
  5
2D9
330
220
100
AcDbEntity
  8
ZEICHNUNGSBEMASSUNGEN
  6
Continuous
 62
     2
100
AcDbLine
 10
47.06384969739999
 20
267.7190082962
 30
0.0
 11
36.5141608552
 21
267.7190082962
 31
0.0
  0
LINE
  5
2DA
330
220
100
AcDbEntity
  8
ZEICHNUNGSBEMASSUNGEN
  6
Continuous
 62
     2
100
AcDbLine
 10
38.0141608552
 20
269.7190082962
 30
0.0
 11
38.0141608552
 21
275.7190082962
 31
0.0
  0
LINE
  5
2DB
330
220
100
AcDbEntity
  8
ZEICHNUNGSBEMASSUNGEN
  6
Continuous
 62
     2
100
AcDbLine
 10
38.0141608552
 20
275.7190082962
 30
0.0
 11
38.0141608552
 21
268.7190082962
 31
0.0
  0
LINE
  5
2DC
330
220
100
AcDbEntity
  8
ZEICHNUNGSBEMASSUNGEN
  6
Continuous
 62
     2
100
AcDbLine
 10
38.0141608552
 20
267.7190082962
 30
0.0
 11
38.0141608552
 21
253.8222853935
 31
0.0
  0
LINE
  5
2DD
330
220
100
AcDbEntity
  8
ZEICHNUNGSBEMASSUNGEN
  6
Continuous
 62
     2
100
AcDbLine
 10
38.0141608552
 20
253.8222853935
 30
0.0
 11
38.0141608552
 21
268.7190082962
 31
0.0
  0
INSERT
  5
2DE
330
220
100
AcDbEntity
  8
ZEICHNUNGSBEMASSUNGEN
  6
Continuous
 62
     2
100
AcDbBlockReference
  2
_FILLED
 10
38.0141608552
 20
269.7190082962
 30
0.0
 41
3.5
 42
3.5
 43
3.5
 50
270.0
  0
INSERT
  5
2DF
330
220
100
AcDbEntity
  8
ZEICHNUNGSBEMASSUNGEN
  6
Continuous
 62
     2
100
AcDbBlockReference
  2
_FILLED
 10
38.0141608552
 20
267.7190082962
 30
0.0
 41
3.5
 42
3.5
 43
3.5
 50
90.0
  0
ENDBLK
  5
2E0
330
220
100
AcDbEntity
  8
0
  6
ByBlock
 62
     0
100
AcDbBlockEnd
  0
BLOCK
  5
2E1
330
221
100
AcDbEntity
  8
ZEICHNUNGSBEMASSUNGEN
  6
Continuous
 62
     2
100
AcDbBlockBegin
  2
*D16
 70
     1
 10
0.0
 20
0.0
 30
0.0
  3
*D16
  1

  0
MTEXT
  5
2E2
330
221
100
AcDbEntity
  8
ZEICHNUNGSBEMASSUNGEN
  6
Continuous
 62
     5
100
AcDbMText
 10
358.6560520918
 20
255.2873860123
 30
0.0
 40
3.5
 41
9.0
 71
     3
 72
     1
  1
h1+1
 11
0.0
 21
1.0
 31
0.0
 73
     1
 44
0.9
1001
ACAD
1000
MTEXTBEGIN
1070
    73
1070
     1
1070
    44
1040
0.9
1070
    74
1070
     0
1000
MTEXTEND
  0
LINE
  5
2E3
330
221
100
AcDbEntity
  8
ZEICHNUNGSBEMASSUNGEN
  6
Continuous
 62
     2
100
AcDbLine
 10
348.0638496974
 20
269.7190082962
 30
0.0
 11
362.1560520918
 21
269.7190082962
 31
0.0
  0
LINE
  5
2E4
330
221
100
AcDbEntity
  8
ZEICHNUNGSBEMASSUNGEN
  6
Continuous
 62
     2
100
AcDbLine
 10
362.1560520918
 20
269.7190082962
 30
0.0
 11
364.5310520918
 21
269.7190082962
 31
0.0
  0
LINE
  5
2E5
330
221
100
AcDbEntity
  8
ZEICHNUNGSBEMASSUNGEN
  6
Continuous
 62
     2
100
AcDbLine
 10
348.0638496974
 20
262.5190082962
 30
0.0
 11
362.1560520918
 21
262.5190082962
 31
0.0
  0
LINE
  5
2E6
330
221
100
AcDbEntity
  8
ZEICHNUNGSBEMASSUNGEN
  6
Continuous
 62
     2
100
AcDbLine
 10
362.1560520918
 20
262.5190082962
 30
0.0
 11
364.5310520918
 21
262.5190082962
 31
0.0
  0
LINE
  5
2E7
330
221
100
AcDbEntity
  8
ZEICHNUNGSBEMASSUNGEN
  6
Continuous
 62
     2
100
AcDbLine
 10
363.0310520918
 20
269.7190082962
 30
0.0
 11
363.0310520918
 21
275.7190082962
 31
0.0
  0
LINE
  5
2E8
330
221
100
AcDbEntity
  8
ZEICHNUNGSBEMASSUNGEN
  6
Continuous
 62
     2
100
AcDbLine
 10
363.0310520918
 20
275.7190082962
 30
0.0
 11
363.0310520918
 21
266.1190082962
 31
0.0
  0
LINE
  5
2E9
330
221
100
AcDbEntity
  8
ZEICHNUNGSBEMASSUNGEN
  6
Continuous
 62
     2
100
AcDbLine
 10
363.0310520918
 20
262.5190082962
 30
0.0
 11
363.0310520918
 21
246.2873860123
 31
0.0
  0
LINE
  5
2EA
330
221
100
AcDbEntity
  8
ZEICHNUNGSBEMASSUNGEN
  6
Continuous
 62
     2
100
AcDbLine
 10
363.0310520918
 20
246.2873860123
 30
0.0
 11
363.0310520918
 21
266.1190082962
 31
0.0
  0
INSERT
  5
2EB
330
221
100
AcDbEntity
  8
ZEICHNUNGSBEMASSUNGEN
  6
Continuous
 62
     2
100
AcDbBlockReference
  2
_FILLED
 10
363.0310520918
 20
269.7190082962
 30
0.0
 41
3.5
 42
3.5
 43
3.5
 50
270.0
  0
INSERT
  5
2EC
330
221
100
AcDbEntity
  8
ZEICHNUNGSBEMASSUNGEN
  6
Continuous
 62
     2
100
AcDbBlockReference
  2
_FILLED
 10
363.0310520918
 20
262.5190082962
 30
0.0
 41
3.5
 42
3.5
 43
3.5
 50
90.0
  0
ENDBLK
  5
2ED
330
221
100
AcDbEntity
  8
0
  6
ByBlock
 62
     0
100
AcDbBlockEnd
  0
BLOCK
  5
2EE
330
222
100
AcDbEntity
  8
ZEICHNUNGSBEMASSUNGEN
  6
Continuous
 62
     2
100
AcDbBlockBegin
  2
*D17
 70
     1
 10
0.0
 20
0.0
 30
0.0
  3
*D17
  1

  0
TEXT
  5
2EF
330
222
100
AcDbEntity
  8
ZEICHNUNGSBEMASSUNGEN
  6
Continuous
 62
     5
100
AcDbText
 10
150.3614255917407
 20
141.4764838797278
 30
0.0
 40
3.5
  1
85
 50
47.5
 41
0.75
 72
     1
 11
151.8392791709
 21
143.089278054
 31
0.0
100
AcDbText
  0
TEXT
  5
2F0
330
222
100
AcDbEntity
  8
ZEICHNUNGSBEMASSUNGEN
  6
Continuous
 62
     5
100
AcDbText
 10
154.1756953055281
 20
145.6390288437299
 30
0.0
 40
3.5
  1
~
 50
47.5
  7
TEXTSTYLE_8
 72
     1
 11
154.4008920414
 21
145.884787956
 31
0.0
100
AcDbText
  0
TEXT
  5
2F1
330
222
100
AcDbEntity
  8
ZEICHNUNGSBEMASSUNGEN
  6
Continuous
 62
     5
100
AcDbText
 10
155.0581713022035
 20
147.3791806981494
 30
0.0
 40
2.45
  1
`
 50
47.5
  7
TEXTSTYLE_8
 72
     1
 11
155.7675410202
 21
148.1533219018
 31
0.0
100
AcDbText
  0
TEXT
  5
2F2
330
222
100
AcDbEntity
  8
ZEICHNUNGSBEMASSUNGEN
  6
Continuous
 62
     5
100
AcDbText
 10
157.0483474554975
 20
149.5510768529195
 30
0.0
 40
2.45
  1
1
 50
47.5
 41
0.5714285714000003
 72
     1
 11
157.2059851706
 21
149.7231082315
 31
0.0
100
AcDbText
  0
TEXT
  5
2F3
330
222
100
AcDbEntity
  8
ZEICHNUNGSBEMASSUNGEN
  6
Continuous
 62
     5
100
AcDbText
 10
158.0729926036896
 20
150.669280813711
 30
0.0
 40
2.45
  1
~
 50
47.5
  7
TEXTSTYLE_8
 72
     1
 11
158.2306303188
 21
150.8413121923
 31
0.0
100
AcDbText
  0
LINE
  5
2F4
330
222
100
AcDbEntity
  8
ZEICHNUNGSBEMASSUNGEN
  6
Continuous
 62
     2
100
AcDbLine
 10
145.812323955
 20
143.6270682515
 30
0.0
 11
146.4030980356
 21
136.8744896119
 31
0.0
  0
LINE
  5
2F5
330
222
100
AcDbEntity
  8
ZEICHNUNGSBEMASSUNGEN
  6
Continuous
 62
     2
100
AcDbLine
 10
157.0919270683
 20
155.1105334768
 30
0.0
 11
163.1133535196999
 21
155.1105334768
 31
0.0
  0
ARC
  5
2F6
330
222
100
AcDbEntity
  8
ZEICHNUNGSBEMASSUNGEN
  6
Continuous
 62
     2
100
AcDbCircle
 10
144.8076509298
 20
155.1105334768
 30
0.0
 40
16.8057025899
100
AcDbArc
 50
275.0
 51
317.5
  0
ARC
  5
2F7
330
222
100
AcDbEntity
  8
ZEICHNUNGSBEMASSUNGEN
  6
Continuous
 62
     2
100
AcDbCircle
 10
144.8076509298
 20
155.1105334768
 30
0.0
 40
16.8057025899
100
AcDbArc
 50
317.5
 51
360.0
  0
SOLID
  5
2F8
330
222
100
AcDbEntity
  8
ZEICHNUNGSBEMASSUNGEN
  6
Continuous
 62
     2
100
AcDbTrace
 10
149.6252257332
 20
139.4641022851
 30
0.0
 11
146.2723644215
 21
138.368781659
 31
0.0
 12
149.7916781547
 22
138.6050804045
 32
0.0
 13
149.7916781547
 23
138.6050804045
 33
0.0
  0
SOLID
  5
2F9
330
222
100
AcDbEntity
  8
ZEICHNUNGSBEMASSUNGEN
  6
Continuous
 62
     2
100
AcDbTrace
 10
161.6846823647
 20
151.5840170022
 30
0.0
 11
161.6133535197
 21
155.1105334768
 31
0.0
 12
160.8144220372
 22
151.6749673318
 32
0.0
 13
160.8144220372
 23
151.6749673318
 33
0.0
  0
ENDBLK
  5
2FA
330
222
100
AcDbEntity
  8
0
  6
ByBlock
 62
     0
100
AcDbBlockEnd
  0
BLOCK
  5
2FB
330
223
100
AcDbEntity
  8
ZEICHNUNGSBEMASSUNGEN
  6
Continuous
 62
     2
100
AcDbBlockBegin
  2
*D18
 70
     1
 10
0.0
 20
0.0
 30
0.0
  3
*D18
  1

  0
MTEXT
  5
2FC
330
223
100
AcDbEntity
  8
ZEICHNUNGSBEMASSUNGEN
  6
Continuous
 62
     5
100
AcDbMText
 10
46.6862677338
 20
220.712354778
 30
0.0
 40
3.5
 41
5.5
 71
     3
 72
     1
  1
R2
 11
0.7377856718346643
 21
-0.675035037931716
 31
0.0
 73
     1
 44
0.9
1001
ACAD
1000
MTEXTBEGIN
1070
    73
1070
     1
1070
    44
1040
0.9
1070
    74
1070
     0
1000
MTEXTEND
  0
LINE
  5
2FD
330
223
100
AcDbEntity
  8
ZEICHNUNGSBEMASSUNGEN
  6
Continuous
 62
     2
100
AcDbLine
 10
48.66873542869999
 20
212.968594803
 30
0.0
 11
39.6751682478
 21
221.1972351725
 31
0.0
  0
INSERT
  5
2FE
330
223
100
AcDbEntity
  8
ZEICHNUNGSBEMASSUNGEN
  6
Continuous
 62
     2
100
AcDbBlockReference
  2
_FILLED
 10
48.66873542869999
 20
212.968594803
 30
0.0
 41
3.5
 42
3.5
 43
3.5
 50
317.5431288391
  0
ENDBLK
  5
2FF
330
223
100
AcDbEntity
  8
0
  6
ByBlock
 62
     0
100
AcDbBlockEnd
  0
BLOCK
  5
300
330
224
100
AcDbEntity
  8
ZEICHNUNGSBEMASSUNGEN
  6
Continuous
 62
     2
100
AcDbBlockBegin
  2
*D19
 70
     1
 10
0.0
 20
0.0
 30
0.0
  3
*D19
  1

  0
MTEXT
  5
301
330
224
100
AcDbEntity
  8
ZEICHNUNGSBEMASSUNGEN
  6
Continuous
 62
     5
100
AcDbMText
 10
349.3004751626
 20
222.3018099532
 30
0.0
 40
3.5
 41
5.5
 71
     1
 72
     1
  1
R2
 11
0.6915151860069403
 21
0.7223619228072498
 31
0.0
 73
     1
 44
0.9
1001
ACAD
1000
MTEXTBEGIN
1070
    73
1070
     1
1070
    44
1040
0.9
1070
    74
1070
     0
1000
MTEXTEND
  0
LINE
  5
302
330
224
100
AcDbEntity
  8
ZEICHNUNGSBEMASSUNGEN
  6
Continuous
 62
     2
100
AcDbLine
 10
346.4404557718
 20
212.9875255569
 30
0.0
 11
356.2641420979
 21
223.2494215902
 31
0.0
  0
INSERT
  5
303
330
224
100
AcDbEntity
  8
ZEICHNUNGSBEMASSUNGEN
  6
Continuous
 62
     2
100
AcDbBlockReference
  2
_FILLED
 10
346.4404557718
 20
212.9875255569
 30
0.0
 41
3.5
 42
3.5
 43
3.5
 50
226.249831039
  0
ENDBLK
  5
304
330
224
100
AcDbEntity
  8
0
  6
ByBlock
 62
     0
100
AcDbBlockEnd
  0
BLOCK
  5
305
330
225
100
AcDbEntity
  8
ZEICHNUNGSBEMASSUNGEN
  6
Continuous
 62
     2
100
AcDbBlockBegin
  2
*D20
 70
     1
 10
0.0
 20
0.0
 30
0.0
  3
*D20
  1

  0
MTEXT
  5
306
330
225
100
AcDbEntity
  8
ZEICHNUNGSBEMASSUNGEN
  6
Continuous
 62
     5
100
AcDbMText
 10
353.4169494621
 20
259.4155118056
 30
0.0
 40
3.5
 41
5.5
 71
     1
 72
     1
  1
R2
 11
0.519352933400613
 21
-0.8545598461010081
 31
0.0
 73
     1
 44
0.9
1001
ACAD
1000
MTEXTBEGIN
1070
    73
1070
     1
1070
    44
1040
0.9
1070
    74
1070
     0
1000
MTEXTEND
  0
LINE
  5
307
330
225
100
AcDbEntity
  8
ZEICHNUNGSBEMASSUNGEN
  6
Continuous
 62
     2
100
AcDbLine
 10
346.3715908708
 20
262.5842251171
 30
0.0
 11
352.5346912692
 21
252.4432635684
 31
0.0
  0
INSERT
  5
308
330
225
100
AcDbEntity
  8
ZEICHNUNGSBEMASSUNGEN
  6
Continuous
 62
     2
100
AcDbBlockReference
  2
_FILLED
 10
346.3715908708
 20
262.5842251171
 30
0.0
 41
3.5
 42
3.5
 43
3.5
 50
121.2888575534
  0
ENDBLK
  5
309
330
225
100
AcDbEntity
  8
0
  6
ByBlock
 62
     0
100
AcDbBlockEnd
  0
BLOCK
  5
30A
330
226
100
AcDbEntity
  8
0
  6
Continuous
 62
     2
100
AcDbBlockBegin
  2
*D21
 70
     1
 10
0.0
 20
0.0
 30
0.0
  3
*D21
  1

  0
MTEXT
  5
30B
330
226
100
AcDbEntity
  8
0
  6
Continuous
 62
     5
100
AcDbMText
 10
297.6419445911
 20
175.9840445718
 30
0.0
 40
3.5
 41
2.5
 71
     3
 72
     1
  1
5
 73
     1
 44
0.9
1001
ACAD
1000
MTEXTBEGIN
1070
    73
1070
     1
1070
    44
1040
0.9
1070
    74
1070
     0
1000
MTEXTEND
  0
LINE
  5
30C
330
226
100
AcDbEntity
  8
0
  6
Continuous
 62
     2
100
AcDbLine
 10
307.1062895974
 20
166.6271461912
 30
0.0
 11
307.1062895974
 21
173.1090445718
 31
0.0
  0
LINE
  5
30D
330
226
100
AcDbEntity
  8
0
  6
Continuous
 62
     2
100
AcDbLine
 10
302.1062895974
 20
163.3655219671999
 30
0.0
 11
302.1062895974
 21
173.1090445718
 31
0.0
  0
LINE
  5
30E
330
226
100
AcDbEntity
  8
0
  6
Continuous
 62
     2
100
AcDbLine
 10
307.1062895974
 20
171.6090445718
 30
0.0
 11
313.1062895974
 21
171.6090445718
 31
0.0
  0
LINE
  5
30F
330
226
100
AcDbEntity
  8
0
  6
Continuous
 62
     2
100
AcDbLine
 10
313.1062895974
 20
171.6090445718
 30
0.0
 11
304.6062895974
 21
171.6090445718
 31
0.0
  0
LINE
  5
310
330
226
100
AcDbEntity
  8
0
  6
Continuous
 62
     2
100
AcDbLine
 10
302.1062895974
 20
171.6090445718
 30
0.0
 11
295.1419445911
 21
171.6090445718
 31
0.0
  0
LINE
  5
311
330
226
100
AcDbEntity
  8
0
  6
Continuous
 62
     2
100
AcDbLine
 10
295.1419445911
 20
171.6090445718
 30
0.0
 11
304.6062895974
 21
171.6090445718
 31
0.0
  0
INSERT
  5
312
330
226
100
AcDbEntity
  8
0
  6
Continuous
 62
     2
100
AcDbBlockReference
  2
_FILLED
 10
307.1062895974
 20
171.6090445718
 30
0.0
 41
3.5
 42
3.5
 43
3.5
 50
180.0
  0
INSERT
  5
313
330
226
100
AcDbEntity
  8
0
  6
Continuous
 62
     2
100
AcDbBlockReference
  2
_FILLED
 10
302.1062895974
 20
171.6090445718
 30
0.0
 41
3.5
 42
3.5
 43
3.5
  0
ENDBLK
  5
314
330
226
100
AcDbEntity
  8
0
  6
ByBlock
 62
     0
100
AcDbBlockEnd
  0
BLOCK
  5
315
330
227
100
AcDbEntity
  8
0
  6
Continuous
 62
     2
100
AcDbBlockBegin
  2
*D22
 70
     1
 10
0.0
 20
0.0
 30
0.0
  3
*D22
  1

  0
MTEXT
  5
316
330
227
100
AcDbEntity
  8
0
  6
Continuous
 62
     5
100
AcDbMText
 10
322.3566084437
 20
153.1375469272
 30
0.0
 40
3.5
 41
7.0
 71
     3
 72
     1
  1
5.5
 11
0.0
 21
1.0
 31
0.0
 73
     1
 44
0.9
1001
ACAD
1000
MTEXTBEGIN
1070
    73
1070
     1
1070
    44
1040
0.9
1070
    74
1070
     0
1000
MTEXTEND
  0
LINE
  5
317
330
227
100
AcDbEntity
  8
0
  6
Continuous
 62
     2
100
AcDbLine
 10
308.6062895974
 20
167.3655219671999
 30
0.0
 11
328.2316084437
 21
167.3655219671999
 31
0.0
  0
LINE
  5
318
330
227
100
AcDbEntity
  8
0
  6
Continuous
 62
     2
100
AcDbLine
 10
308.007633675
 20
161.8655219672
 30
0.0
 11
328.2316084437
 21
161.8655219672
 31
0.0
  0
LINE
  5
319
330
227
100
AcDbEntity
  8
0
  6
Continuous
 62
     2
100
AcDbLine
 10
326.7316084437
 20
167.3655219671999
 30
0.0
 11
326.7316084437
 21
173.3655219672
 31
0.0
  0
LINE
  5
31A
330
227
100
AcDbEntity
  8
0
  6
Continuous
 62
     2
100
AcDbLine
 10
326.7316084437
 20
173.3655219672
 30
0.0
 11
326.7316084437
 21
164.6155219672
 31
0.0
  0
LINE
  5
31B
330
227
100
AcDbEntity
  8
0
  6
Continuous
 62
     2
100
AcDbLine
 10
326.7316084437
 20
161.8655219672
 30
0.0
 11
326.7316084437
 21
146.1375469272
 31
0.0
  0
LINE
  5
31C
330
227
100
AcDbEntity
  8
0
  6
Continuous
 62
     2
100
AcDbLine
 10
326.7316084437
 20
146.1375469272
 30
0.0
 11
326.7316084437
 21
164.6155219672
 31
0.0
  0
INSERT
  5
31D
330
227
100
AcDbEntity
  8
0
  6
Continuous
 62
     2
100
AcDbBlockReference
  2
_FILLED
 10
326.7316084437
 20
167.3655219671999
 30
0.0
 41
3.5
 42
3.5
 43
3.5
 50
270.0
  0
INSERT
  5
31E
330
227
100
AcDbEntity
  8
0
  6
Continuous
 62
     2
100
AcDbBlockReference
  2
_FILLED
 10
326.7316084437
 20
161.8655219672
 30
0.0
 41
3.5
 42
3.5
 43
3.5
 50
90.0
  0
ENDBLK
  5
31F
330
227
100
AcDbEntity
  8
0
  6
ByBlock
 62
     0
100
AcDbBlockEnd
  0
BLOCK
  5
320
330
228
100
AcDbEntity
  8
0
  6
Continuous
 62
     2
100
AcDbBlockBegin
  2
*D23
 70
     1
 10
0.0
 20
0.0
 30
0.0
  3
*D23
  1

  0
MTEXT
  5
321
330
228
100
AcDbEntity
  8
0
  6
Continuous
 62
     5
100
AcDbMText
 10
314.8708630886
 20
157.8932012245999
 30
0.0
 40
3.5
 41
2.75
 71
     1
 72
     1
  1
2
 73
     1
 44
0.9
1001
ACAD
1000
MTEXTBEGIN
1070
    73
1070
     1
1070
    44
1040
0.9
1070
    74
1070
     0
1000
MTEXTEND
  0
LINE
  5
322
330
228
100
AcDbEntity
  8
0
  6
Continuous
 62
     2
100
AcDbLine
 10
309.1062895974
 20
155.2865230062
 30
0.0
 11
309.1062895974
 21
152.0182012246
 31
0.0
  0
LINE
  5
323
330
228
100
AcDbEntity
  8
0
  6
Continuous
 62
     2
100
AcDbLine
 10
307.1062895974
 20
161.3112212718
 30
0.0
 11
307.1062895974
 21
152.0182012246
 31
0.0
  0
LINE
  5
324
330
228
100
AcDbEntity
  8
0
  6
Continuous
 62
     2
100
AcDbLine
 10
309.1062895974
 20
153.5182012246
 30
0.0
 11
317.6208630886
 21
153.5182012246
 31
0.0
  0
LINE
  5
325
330
228
100
AcDbEntity
  8
0
  6
Continuous
 62
     2
100
AcDbLine
 10
317.6208630886
 20
153.5182012246
 30
0.0
 11
308.1062895974
 21
153.5182012246
 31
0.0
  0
LINE
  5
326
330
228
100
AcDbEntity
  8
0
  6
Continuous
 62
     2
100
AcDbLine
 10
307.1062895974
 20
153.5182012246
 30
0.0
 11
301.1062895974
 21
153.5182012246
 31
0.0
  0
LINE
  5
327
330
228
100
AcDbEntity
  8
0
  6
Continuous
 62
     2
100
AcDbLine
 10
301.1062895974
 20
153.5182012246
 30
0.0
 11
308.1062895974
 21
153.5182012246
 31
0.0
  0
INSERT
  5
328
330
228
100
AcDbEntity
  8
0
  6
Continuous
 62
     2
100
AcDbBlockReference
  2
_FILLED
 10
309.1062895974
 20
153.5182012246
 30
0.0
 41
3.5
 42
3.5
 43
3.5
 50
180.0
  0
INSERT
  5
329
330
228
100
AcDbEntity
  8
0
  6
Continuous
 62
     2
100
AcDbBlockReference
  2
_FILLED
 10
307.1062895974
 20
153.5182012246
 30
0.0
 41
3.5
 42
3.5
 43
3.5
  0
ENDBLK
  5
32A
330
228
100
AcDbEntity
  8
0
  6
ByBlock
 62
     0
100
AcDbBlockEnd
  0
BLOCK
  5
23E
330
229
100
AcDbEntity
  8
0
  6
Continuous
 62
     2
100
AcDbBlockBegin
  2
SYMBOL_1_BL0
 70
     0
 10
316.3999935624
 20
37.62500189999999
 30
0.0
  3
SYMBOL_1_BL0
  1

  0
LINE
  5
23F
330
229
100
AcDbEntity
  8
0
  6
Continuous
 62
     7
100
AcDbLine
 10
410.0
 20
65.25000379999998
 30
0.0
 11
222.7999871247
 21
65.25000379999998
 31
0.0
  0
LINE
  5
240
330
229
100
AcDbEntity
  8
0
  6
Continuous
 62
     7
100
AcDbLine
 10
222.7999871247
 20
65.25000379999998
 30
0.0
 11
222.7999871247
 21
10.0
 31
0.0
  0
LINE
  5
241
330
229
100
AcDbEntity
  8
0
  6
Continuous
 62
     7
100
AcDbLine
 10
222.7999871247
 20
10.0
 30
0.0
 11
410.0
 21
10.0
 31
0.0
  0
LINE
  5
242
330
229
100
AcDbEntity
  8
0
  6
Continuous
 62
     7
100
AcDbLine
 10
410.0
 20
10.0
 30
0.0
 11
410.0
 21
65.25000379999998
 31
0.0
  0
LINE
  5
243
330
229
100
AcDbEntity
  8
0
  6
Continuous
 62
     7
100
AcDbLine
 10
277.39999088
 20
65.25000379999998
 30
0.0
 11
277.39999088
 21
10.0
 31
0.0
  0
LINE
  5
244
330
229
100
AcDbEntity
  8
0
  6
Continuous
 62
     7
100
AcDbLine
 10
321.59999392
 20
65.25000379999998
 30
0.0
 11
321.59999392
 21
10.0
 31
0.0
  0
LINE
  5
245
330
229
100
AcDbEntity
  8
0
  6
Continuous
 62
     7
100
AcDbLine
 10
222.7999871247
 20
48.25000263079999
 30
0.0
 11
410.0
 21
48.25000263079999
 31
0.0
  0
LINE
  5
246
330
229
100
AcDbEntity
  8
0
  6
Continuous
 62
     7
100
AcDbLine
 10
396.9999991059
 20
27.0000011692
 30
0.0
 11
396.9999991059
 21
14.2500002923
 31
0.0
  0
LINE
  5
247
330
229
100
AcDbEntity
  8
0
  6
Continuous
 62
     7
100
AcDbLine
 10
277.39999088
 20
27.0000011692
 30
0.0
 11
410.0
 21
27.0000011692
 31
0.0
  0
ENDBLK
  5
248
330
229
100
AcDbEntity
  8
0
  6
ByBlock
 62
     0
100
AcDbBlockEnd
  0
BLOCK
  5
D16
330
D14
100
AcDbEntity
  8
0
100
AcDbBlockBegin
  2
GENAXEH
 70
     0
 10
0.0
 20
0.0
 30
0.0
  3
GENAXEH
  1

  0
LINE
  5
D15
330
D14
100
AcDbEntity
  8
0
100
AcDbLine
 10
-1.0
 20
0.0
 30
0.0
 11
1.0
 21
0.0
 31
0.0
  0
ENDBLK
  5
D17
330
D14
100
AcDbEntity
  8
0
100
AcDbBlockEnd
  0
BLOCK
  5
D3B
330
D3A
100
AcDbEntity
  8
0
100
AcDbBlockBegin
  2
*D26
 70
     1
 10
0.0
 20
0.0
 30
0.0
  3
*D26
  1

  0
LINE
  5
D69
330
D3A
100
AcDbEntity
  8
AM_5
 62
     0
370
    -2
100
AcDbLine
 10
48.56384969739998
 20
202.7985364146
 30
0.0
 11
48.56384969739998
 21
175.071697775387
 31
0.0
  0
LINE
  5
D6A
330
D3A
100
AcDbEntity
  8
AM_5
 62
     0
370
    -2
100
AcDbLine
 10
346.5638496974
 20
203.6391894513
 30
0.0
 11
346.5638496974
 21
175.071697775387
 31
0.0
  0
LINE
  5
D6B
330
D3A
100
AcDbEntity
  8
AM_5
 62
     0
370
    -2
100
AcDbLine
 10
52.0638496974
 20
176.571697775387
 30
0.0
 11
193.6721830307333
 21
176.571697775387
 31
0.0
  0
LINE
  5
D6C
330
D3A
100
AcDbEntity
  8
AM_5
 62
     0
370
    -2
100
AcDbLine
 10
343.0638496974
 20
176.571697775387
 30
0.0
 11
201.4555163640666
 21
176.571697775387
 31
0.0
  0
INSERT
  5
D6D
330
D3A
100
AcDbEntity
  8
AM_5
 62
     0
370
    -2
100
AcDbBlockReference
  2
_FILLED
 10
48.56384969739998
 20
176.571697775387
 30
0.0
 41
3.5
 42
3.5
 43
3.5
 50
180.0
  0
INSERT
  5
D6E
330
D3A
100
AcDbEntity
  8
AM_5
 62
     0
370
    -2
100
AcDbBlockReference
  2
_FILLED
 10
346.5638496974
 20
176.571697775387
 30
0.0
 41
3.5
 42
3.5
 43
3.5
  0
MTEXT
  5
D6F
330
D3A
100
AcDbEntity
  8
AM_5
 62
     0
100
AcDbMText
 10
197.5638496973999
 20
176.571697775387
 30
0.0
 40
3.5
 41
0.0
 71
     5
 72
     1
  1
\A1;298
 73
     1
 44
1.0
1001
ACAD
1000
MTEXTBEGIN
1070
    73
1070
     1
1070
    44
1040
1.0
1070
    74
1070
     0
1000
MTEXTEND
  0
POINT
  5
D70
330
D3A
100
AcDbEntity
  8
Defpoints
 62
     0
100
AcDbPoint
 10
48.56384969739998
 20
204.2985364146
 30
0.0
  0
POINT
  5
D71
330
D3A
100
AcDbEntity
  8
Defpoints
 62
     0
100
AcDbPoint
 10
346.5638496974
 20
205.1391894513
 30
0.0
  0
POINT
  5
D72
330
D3A
100
AcDbEntity
  8
Defpoints
 62
     0
100
AcDbPoint
 10
346.5638496974
 20
176.571697775387
 30
0.0
  0
ENDBLK
  5
D3C
330
D3A
100
AcDbEntity
  8
0
100
AcDbBlockEnd
  0
BLOCK
  5
D75
330
D74
100
AcDbEntity
  8
0
100
AcDbBlockBegin
  2
*D27
 70
     1
 10
0.0
 20
0.0
 30
0.0
  3
*D27
  1

  0
LINE
  5
D8D
330
D74
100
AcDbEntity
  8
AM_5
 62
     0
370
    -2
100
AcDbLine
 10
48.56384969739998
 20
214.1985807878
 30
0.0
 11
48.56384969739998
 21
226.1985807878
 31
0.0
  0
LINE
  5
D8E
330
D74
100
AcDbEntity
  8
AM_5
 62
     0
370
    -2
100
AcDbLine
 10
346.5638496974
 20
211.0392116379
 30
0.0
 11
346.5638496974
 21
226.1985807878
 31
0.0
  0
LINE
  5
D8F
330
D74
100
AcDbEntity
  8
AM_5
 62
     0
370
    -2
100
AcDbLine
 10
52.0638496974
 20
224.6985807878
 30
0.0
 11
189.1805163640666
 21
224.6985807878
 31
0.0
  0
LINE
  5
D90
330
D74
100
AcDbEntity
  8
AM_5
 62
     0
370
    -2
100
AcDbLine
 10
343.0638496974
 20
224.6985807878
 30
0.0
 11
205.9471830307333
 21
224.6985807878
 31
0.0
  0
INSERT
  5
D91
330
D74
100
AcDbEntity
  8
AM_5
 62
     0
370
    -2
100
AcDbBlockReference
  2
_FILLED
 10
48.56384969739998
 20
224.6985807878
 30
0.0
 41
3.5
 42
3.5
 43
3.5
 50
180.0
  0
INSERT
  5
D92
330
D74
100
AcDbEntity
  8
AM_5
 62
     0
370
    -2
100
AcDbBlockReference
  2
_FILLED
 10
346.5638496974
 20
224.6985807878
 30
0.0
 41
3.5
 42
3.5
 43
3.5
  0
MTEXT
  5
D93
330
D74
100
AcDbEntity
  8
AM_5
 62
     0
100
AcDbMText
 10
197.5638496973999
 20
224.6985807878
 30
0.0
 40
3.5
 41
0.0
 71
     5
 72
     1
  1
\A1;298.0000
 73
     1
 44
1.0
1001
ACAD
1000
MTEXTBEGIN
1070
    73
1070
     1
1070
    44
1040
1.0
1070
    74
1070
     0
1000
MTEXTEND
  0
POINT
  5
D94
330
D74
100
AcDbEntity
  8
Defpoints
 62
     0
100
AcDbPoint
 10
48.56384969739998
 20
212.6985807878
 30
0.0
  0
POINT
  5
D95
330
D74
100
AcDbEntity
  8
Defpoints
 62
     0
100
AcDbPoint
 10
346.5638496974
 20
209.5392116379
 30
0.0
  0
POINT
  5
D96
330
D74
100
AcDbEntity
  8
Defpoints
 62
     0
100
AcDbPoint
 10
346.5638496974
 20
224.6985807878
 30
0.0
  0
ENDBLK
  5
D76
330
D74
100
AcDbEntity
  8
0
100
AcDbBlockEnd
  0
BLOCK
  5
D99
330
D98
100
AcDbEntity
  8
0
100
AcDbBlockBegin
  2
*D28
 70
     1
 10
0.0
 20
0.0
 30
0.0
  3
*D28
  1

  0
LINE
  5
DC5
330
D98
100
AcDbEntity
  8
AM_5
 62
     0
370
    -2
100
AcDbLine
 10
346.5638496974
 20
271.2190082962
 30
0.0
 11
346.5638496974
 21
283.2190082962
 31
0.0
  0
LINE
  5
DC6
330
D98
100
AcDbEntity
  8
AM_5
 62
     0
370
    -2
100
AcDbLine
 10
48.56384969739998
 20
271.2190082962
 30
0.0
 11
48.56384969739998
 21
283.2190082962
 31
0.0
  0
LINE
  5
DC7
330
D98
100
AcDbEntity
  8
AM_5
 62
     0
370
    -2
100
AcDbLine
 10
343.0638496974
 20
281.7190082962
 30
0.0
 11
201.4555163640666
 21
281.7190082962
 31
0.0
  0
LINE
  5
DC8
330
D98
100
AcDbEntity
  8
AM_5
 62
     0
370
    -2
100
AcDbLine
 10
52.0638496974
 20
281.7190082962
 30
0.0
 11
193.6721830307333
 21
281.7190082962
 31
0.0
  0
INSERT
  5
DC9
330
D98
100
AcDbEntity
  8
AM_5
 62
     0
370
    -2
100
AcDbBlockReference
  2
_FILLED
 10
346.5638496974
 20
281.7190082962
 30
0.0
 41
3.5
 42
3.5
 43
3.5
  0
INSERT
  5
DCA
330
D98
100
AcDbEntity
  8
AM_5
 62
     0
370
    -2
100
AcDbBlockReference
  2
_FILLED
 10
48.56384969739998
 20
281.7190082962
 30
0.0
 41
3.5
 42
3.5
 43
3.5
 50
180.0
  0
MTEXT
  5
DCB
330
D98
100
AcDbEntity
  8
AM_5
 62
     0
100
AcDbMText
 10
197.5638496973999
 20
281.7190082962
 30
0.0
 40
3.5
 41
0.0
 71
     5
 72
     1
  1
\A1;298
 73
     1
 44
1.0
1001
ACAD
1000
MTEXTBEGIN
1070
    73
1070
     1
1070
    44
1040
1.0
1070
    74
1070
     0
1000
MTEXTEND
  0
POINT
  5
DCC
330
D98
100
AcDbEntity
  8
Defpoints
 62
     0
100
AcDbPoint
 10
346.5638496974
 20
269.7190082962
 30
0.0
  0
POINT
  5
DCD
330
D98
100
AcDbEntity
  8
Defpoints
 62
     0
100
AcDbPoint
 10
48.56384969739998
 20
269.7190082962
 30
0.0
  0
POINT
  5
DCE
330
D98
100
AcDbEntity
  8
Defpoints
 62
     0
100
AcDbPoint
 10
48.56384969739998
 20
281.7190082962
 30
0.0
  0
ENDBLK
  5
D9A
330
D98
100
AcDbEntity
  8
0
100
AcDbBlockEnd
  0
BLOCK
  5
DE8
330
DE7
100
AcDbEntity
  8
0
100
AcDbBlockBegin
  2
*D29
 70
     1
 10
0.0
 20
0.0
 30
0.0
  3
*D29
  1

  0
LINE
  5
E0A
330
DE7
100
AcDbEntity
  8
AM_5
 62
     0
370
    -2
100
AcDbLine
 10
283.804511472705
 20
-111.8592572823595
 30
0.0
 11
283.804511472705
 21
-10.46504101429991
 31
0.0
  0
LINE
  5
E0B
330
DE7
100
AcDbEntity
  8
AM_5
 62
     0
370
    -2
100
AcDbLine
 10
1773.804511472705
 20
-111.8592572823595
 30
0.0
 11
1773.804511472705
 21
-10.46504101429991
 31
0.0
  0
LINE
  5
E0C
330
DE7
100
AcDbEntity
  8
AM_5
 62
     0
370
    -2
100
AcDbLine
 10
287.304511472705
 20
-11.96504101429991
 30
0.0
 11
1024.300344806038
 21
-11.96504101429991
 31
0.0
  0
LINE
  5
E0D
330
DE7
100
AcDbEntity
  8
AM_5
 62
     0
370
    -2
100
AcDbLine
 10
1770.304511472705
 20
-11.96504101429991
 30
0.0
 11
1033.308678139371
 21
-11.96504101429991
 31
0.0
  0
INSERT
  5
E0E
330
DE7
100
AcDbEntity
  8
AM_5
 62
     0
370
    -2
100
AcDbBlockReference
  2
_FILLED
 10
283.804511472705
 20
-11.96504101429991
 30
0.0
 41
3.5
 42
3.5
 43
3.5
 50
180.0
  0
INSERT
  5
E0F
330
DE7
100
AcDbEntity
  8
AM_5
 62
     0
370
    -2
100
AcDbBlockReference
  2
_FILLED
 10
1773.804511472705
 20
-11.96504101429991
 30
0.0
 41
3.5
 42
3.5
 43
3.5
  0
MTEXT
  5
E10
330
DE7
100
AcDbEntity
  8
AM_5
 62
     0
100
AcDbMText
 10
1028.804511472705
 20
-11.96504101429991
 30
0.0
 40
3.5
 41
0.0
 71
     5
 72
     1
  1
\A1;1490
 73
     1
 44
1.0
1001
ACAD
1000
MTEXTBEGIN
1070
    73
1070
     1
1070
    44
1040
1.0
1070
    74
1070
     0
1000
MTEXTEND
  0
POINT
  5
E11
330
DE7
100
AcDbEntity
  8
Defpoints
 62
     0
100
AcDbPoint
 10
283.804511472705
 20
-113.3592572823595
 30
0.0
  0
POINT
  5
E12
330
DE7
100
AcDbEntity
  8
Defpoints
 62
     0
100
AcDbPoint
 10
1773.804511472705
 20
-113.3592572823595
 30
0.0
  0
POINT
  5
E13
330
DE7
100
AcDbEntity
  8
Defpoints
 62
     0
100
AcDbPoint
 10
1773.804511472705
 20
-11.96504101429991
 30
0.0
  0
ENDBLK
  5
DE9
330
DE7
100
AcDbEntity
  8
0
100
AcDbBlockEnd
  0
BLOCK
  5
E16
330
E15
100
AcDbEntity
  8
0
100
AcDbBlockBegin
  2
*D30
 70
     1
 10
0.0
 20
0.0
 30
0.0
  3
*D30
  1

  0
LINE
  5
E17
330
E15
100
AcDbEntity
  8
P-0000
  6
Continuous
 62
     3
370
    -2
100
AcDbLine
 10
-159.4917773227203
 20
314.9854689923718
 30
0.0
 11
-159.4917773227203
 21
381.8815914239895
 31
0.0
  0
LINE
  5
E18
330
E15
100
AcDbEntity
  8
P-0000
  6
Continuous
 62
     3
370
    -2
100
AcDbLine
 10
1330.508222677279
 20
314.6382023260843
 30
0.0
 11
1330.508222677279
 21
381.8815914239895
 31
0.0
  0
LINE
  5
E19
330
E15
100
AcDbEntity
  8
P-0000
  6
Continuous
 62
     3
370
    -2
100
AcDbLine
 10
-153.1917773227203
 20
377.8815914239895
 30
0.0
 11
1324.208222677279
 21
377.8815914239895
 31
0.0
  0
SOLID
  5
E1A
330
E15
100
AcDbEntity
  8
P-0000
  6
Continuous
 62
     3
100
AcDbTrace
 10
-153.1917773227203
 20
378.9315914239895
 30
0.0
 11
-153.1917773227203
 21
376.8315914239895
 31
0.0
 12
-159.4917773227203
 22
377.8815914239895
 32
0.0
 13
-159.4917773227203
 23
377.8815914239895
 33
0.0
  0
SOLID
  5
E1B
330
E15
100
AcDbEntity
  8
P-0000
  6
Continuous
 62
     3
100
AcDbTrace
 10
1324.208222677279
 20
378.9315914239895
 30
0.0
 11
1324.208222677279
 21
376.8315914239895
 31
0.0
 12
1330.508222677279
 22
377.8815914239895
 32
0.0
 13
1330.508222677279
 23
377.8815914239895
 33
0.0
  0
MTEXT
  5
E1C
330
E15
100
AcDbEntity
  8
P-0000
  6
Continuous
 62
     2
100
AcDbMText
 10
585.5082226772792
 20
396.8815914239895
 30
0.0
 40
30.0
 41
0.0
 71
     5
 72
     1
  1
1490
 73
     1
 44
1.0
1001
ACAD
1000
MTEXTBEGIN
1070
    73
1070
     1
1070
    44
1040
1.0
1070
    74
1070
     0
1000
MTEXTEND
  0
POINT
  5
E1D
330
E15
100
AcDbEntity
  8
Defpoints
  6
Continuous
 62
     0
100
AcDbPoint
 10
-159.4917773227203
 20
314.9854689923718
 30
0.0
  0
POINT
  5
E1E
330
E15
100
AcDbEntity
  8
Defpoints
  6
Continuous
 62
     0
100
AcDbPoint
 10
1330.508222677279
 20
314.6382023260843
 30
0.0
  0
POINT
  5
E1F
330
E15
100
AcDbEntity
  8
Defpoints
  6
Continuous
 62
     0
100
AcDbPoint
 10
1330.508222677279
 20
377.8815914239895
 30
0.0
  0
ENDBLK
  5
E20
330
E15
100
AcDbEntity
  8
0
100
AcDbBlockEnd
  0
BLOCK
  5
E22
330
E21
100
AcDbEntity
  8
0
100
AcDbBlockBegin
  2
_None
 70
     0
 10
0.0
 20
0.0
 30
0.0
  3
_None
  1

  0
ENDBLK
  5
E23
330
E21
100
AcDbEntity
  8
0
100
AcDbBlockEnd
  0
BLOCK
  5
102A
330
1029
100
AcDbEntity
  8
0
100
AcDbBlockBegin
  2
*D32
 70
     1
 10
0.0
 20
0.0
 30
0.0
  3
*D32
  1

  0
LINE
  5
102C
330
1029
100
AcDbEntity
  8
P-0000
  6
Continuous
 62
     3
370
    -2
100
AcDbLine
 10
748.5532418482902
 20
-575.7474382162245
 30
0.0
 11
748.5532418482902
 21
-508.8513157846066
 31
0.0
  0
LINE
  5
102D
330
1029
100
AcDbEntity
  8
P-0000
  6
Continuous
 62
     3
370
    -2
100
AcDbLine
 10
2238.55324184829
 20
-576.0947048825117
 30
0.0
 11
2238.55324184829
 21
-508.8513157846066
 31
0.0
  0
LINE
  5
102E
330
1029
100
AcDbEntity
  8
P-0000
  6
Continuous
 62
     3
370
    -2
100
AcDbLine
 10
754.8532418482903
 20
-512.8513157846067
 30
0.0
 11
2232.25324184829
 21
-512.8513157846067
 31
0.0
  0
SOLID
  5
102F
330
1029
100
AcDbEntity
  8
P-0000
  6
Continuous
 62
     3
100
AcDbTrace
 10
754.8532418482903
 20
-511.8013157846069
 30
0.0
 11
754.8532418482903
 21
-513.9013157846068
 31
0.0
 12
748.5532418482902
 22
-512.8513157846067
 32
0.0
 13
748.5532418482902
 23
-512.8513157846067
 33
0.0
  0
SOLID
  5
1030
330
1029
100
AcDbEntity
  8
P-0000
  6
Continuous
 62
     3
100
AcDbTrace
 10
2232.25324184829
 20
-511.8013157846069
 30
0.0
 11
2232.25324184829
 21
-513.9013157846068
 31
0.0
 12
2238.55324184829
 22
-512.8513157846067
 32
0.0
 13
2238.55324184829
 23
-512.8513157846067
 33
0.0
  0
MTEXT
  5
1031
330
1029
100
AcDbEntity
  8
P-0000
  6
Continuous
 62
     2
100
AcDbMText
 10
1493.55324184829
 20
-493.8513157846069
 30
0.0
 40
30.0
 41
0.0
 71
     5
 72
     1
  1
1490
 73
     1
 44
1.0
1001
ACAD
1000
MTEXTBEGIN
1070
    73
1070
     1
1070
    44
1040
1.0
1070
    74
1070
     0
1000
MTEXTEND
  0
POINT
  5
1032
330
1029
100
AcDbEntity
  8
Defpoints
  6
Continuous
 62
     0
100
AcDbPoint
 10
748.5532418482902
 20
-575.7474382162245
 30
0.0
  0
POINT
  5
1033
330
1029
100
AcDbEntity
  8
Defpoints
  6
Continuous
 62
     0
100
AcDbPoint
 10
2238.55324184829
 20
-576.0947048825117
 30
0.0
  0
POINT
  5
1034
330
1029
100
AcDbEntity
  8
Defpoints
  6
Continuous
 62
     0
100
AcDbPoint
 10
2238.55324184829
 20
-512.8513157846067
 30
0.0
  0
ENDBLK
  5
102B
330
1029
100
AcDbEntity
  8
0
100
AcDbBlockEnd
  0
BLOCK
  5
103B
330
103A
100
AcDbEntity
  8
0
100
AcDbBlockBegin
  2
*D33
 70
     1
 10
0.0
 20
0.0
 30
0.0
  3
*D33
  1

  0
LINE
  5
1067
330
103A
100
AcDbEntity
  8
P-0000
  6
Continuous
 62
     3
370
    -2
100
AcDbLine
 10
283.804511472705
 20
-106.5248155190029
 30
0.0
 11
283.804511472705
 21
-1.334003489805581
 31
0.0
  0
LINE
  5
1068
330
103A
100
AcDbEntity
  8
P-0000
  6
Continuous
 62
     3
370
    -2
100
AcDbLine
 10
1773.804511472705
 20
-106.5248155190029
 30
0.0
 11
1773.804511472705
 21
-1.334003489805581
 31
0.0
  0
LINE
  5
1069
330
103A
100
AcDbEntity
  8
P-0000
  6
Continuous
 62
     3
370
    -2
100
AcDbLine
 10
290.104511472705
 20
-5.334003489805581
 30
0.0
 11
1767.504511472705
 21
-5.334003489805581
 31
0.0
  0
SOLID
  5
106A
330
103A
100
AcDbEntity
  8
P-0000
  6
Continuous
 62
     3
100
AcDbTrace
 10
290.104511472705
 20
-4.284003489805582
 30
0.0
 11
290.104511472705
 21
-6.384003489805581
 31
0.0
 12
283.804511472705
 22
-5.334003489805581
 32
0.0
 13
283.804511472705
 23
-5.334003489805581
 33
0.0
  0
SOLID
  5
106B
330
103A
100
AcDbEntity
  8
P-0000
  6
Continuous
 62
     3
100
AcDbTrace
 10
1767.504511472705
 20
-4.284003489805582
 30
0.0
 11
1767.504511472705
 21
-6.384003489805581
 31
0.0
 12
1773.804511472705
 22
-5.334003489805581
 32
0.0
 13
1773.804511472705
 23
-5.334003489805581
 33
0.0
  0
MTEXT
  5
106C
330
103A
100
AcDbEntity
  8
P-0000
  6
Continuous
 62
     2
100
AcDbMText
 10
1028.804511472705
 20
13.66599651019442
 30
0.0
 40
30.0
 41
0.0
 71
     5
 72
     1
  1
1490
 73
     1
 44
1.0
1001
ACAD
1000
MTEXTBEGIN
1070
    73
1070
     1
1070
    44
1040
1.0
1070
    74
1070
     0
1000
MTEXTEND
  0
POINT
  5
106D
330
103A
100
AcDbEntity
  8
Defpoints
  6
Continuous
 62
     0
100
AcDbPoint
 10
283.804511472705
 20
-106.5248155190029
 30
0.0
  0
POINT
  5
106E
330
103A
100
AcDbEntity
  8
Defpoints
  6
Continuous
 62
     0
100
AcDbPoint
 10
1773.804511472705
 20
-106.5248155190029
 30
0.0
  0
POINT
  5
106F
330
103A
100
AcDbEntity
  8
Defpoints
  6
Continuous
 62
     0
100
AcDbPoint
 10
1773.804511472705
 20
-5.334003489805581
 30
0.0
  0
ENDBLK
  5
103C
330
103A
100
AcDbEntity
  8
0
100
AcDbBlockEnd
  0
BLOCK
  5
1072
330
1071
100
AcDbEntity
  8
0
100
AcDbBlockBegin
  2
*D34
 70
     1
 10
0.0
 20
0.0
 30
0.0
  3
*D34
  1

  0
LINE
  5
10F8
330
1071
100
AcDbEntity
  8
P-0000
  6
Continuous
 62
     3
370
    -2
100
AcDbLine
 10
1773.804511472705
 20
178.5773220229971
 30
0.0
 11
1819.595986577559
 21
178.5773220229971
 31
0.0
  0
LINE
  5
10F9
330
1071
100
AcDbEntity
  8
P-0000
  6
Continuous
 62
     3
370
    -2
100
AcDbLine
 10
1771.769617455705
 20
142.612830240997
 30
0.0
 11
1819.595986577559
 21
142.612830240997
 31
0.0
  0
LINE
  5
10FA
330
1071
100
AcDbEntity
  8
P-0000
  6
Continuous
 62
     3
370
    -2
100
AcDbLine
 10
1815.595986577559
 20
172.2773220229971
 30
0.0
 11
1815.595986577559
 21
148.912830240997
 31
0.0
  0
LINE
  5
10FB
330
1071
100
AcDbEntity
  8
P-0000
  6
Continuous
 62
     3
370
    -2
100
AcDbLine
 10
1815.595986577559
 20
142.612830240997
 30
0.0
 11
1815.595986577559
 21
60.86179436513855
 31
0.0
  0
SOLID
  5
10FC
330
1071
100
AcDbEntity
  8
P-0000
  6
Continuous
 62
     3
100
AcDbTrace
 10
1814.545986577559
 20
172.2773220229971
 30
0.0
 11
1816.645986577559
 21
172.2773220229971
 31
0.0
 12
1815.595986577559
 22
178.5773220229971
 32
0.0
 13
1815.595986577559
 23
178.5773220229971
 33
0.0
  0
SOLID
  5
10FD
330
1071
100
AcDbEntity
  8
P-0000
  6
Continuous
 62
     3
100
AcDbTrace
 10
1814.545986577559
 20
148.912830240997
 30
0.0
 11
1816.645986577559
 21
148.912830240997
 31
0.0
 12
1815.595986577559
 22
142.612830240997
 32
0.0
 13
1815.595986577559
 23
142.612830240997
 33
0.0
  0
MTEXT
  5
10FE
330
1071
100
AcDbEntity
  8
P-0000
  6
Continuous
 62
     2
100
AcDbMText
 10
1796.595986577559
 20
82.36179436513884
 30
0.0
 40
30.0
 41
0.0
 71
     5
 72
     1
  1
36
 11
0.0000000000000001
 21
1.0
 31
0.0
 73
     1
 44
1.0
1001
ACAD
1000
MTEXTBEGIN
1070
    73
1070
     1
1070
    44
1040
1.0
1070
    74
1070
     0
1000
MTEXTEND
  0
POINT
  5
10FF
330
1071
100
AcDbEntity
  8
Defpoints
  6
Continuous
 62
     0
100
AcDbPoint
 10
1773.804511472705
 20
178.5773220229971
 30
0.0
  0
POINT
  5
1100
330
1071
100
AcDbEntity
  8
Defpoints
  6
Continuous
 62
     0
100
AcDbPoint
 10
1771.769617455705
 20
142.612830240997
 30
0.0
  0
POINT
  5
1101
330
1071
100
AcDbEntity
  8
Defpoints
  6
Continuous
 62
     0
100
AcDbPoint
 10
1815.595986577559
 20
142.612830240997
 30
0.0
  0
ENDBLK
  5
1073
330
1071
100
AcDbEntity
  8
0
100
AcDbBlockEnd
  0
BLOCK
  5
10A0
330
109F
100
AcDbEntity
  8
0
100
AcDbBlockBegin
  2
*D35
 70
     1
 10
0.0
 20
0.0
 30
0.0
  3
*D35
  1

  0
LINE
  5
12DD
330
109F
100
AcDbEntity
  8
P-0000
  6
Continuous
 62
     3
370
    -2
100
AcDbLine
 10
283.804511472705
 20
178.5773220229971
 30
0.0
 11
261.2840928818205
 21
178.5773220229971
 31
0.0
  0
LINE
  5
12DE
330
109F
100
AcDbEntity
  8
P-0000
  6
Continuous
 62
     3
370
    -2
100
AcDbLine
 10
283.8045114727052
 20
163.5759264588881
 30
0.0
 11
261.2840928818205
 21
163.5759264588881
 31
0.0
  0
LINE
  5
12DF
330
109F
100
AcDbEntity
  8
P-0000
  6
Continuous
 62
     3
370
    -2
100
AcDbLine
 10
265.2840928818205
 20
184.8773220229971
 30
0.0
 11
265.2840928818205
 21
191.1773220229971
 31
0.0
  0
LINE
  5
12E0
330
109F
100
AcDbEntity
  8
P-0000
  6
Continuous
 62
     3
370
    -2
100
AcDbLine
 10
265.2840928818205
 20
157.2759264588881
 30
0.0
 11
265.2840928818205
 21
71.65721619671035
 31
0.0
  0
LINE
  5
12E1
330
109F
100
AcDbEntity
  8
P-0000
  6
Continuous
 62
     3
370
    -2
100
AcDbLine
 10
265.2840928818205
 20
178.5773220229971
 30
0.0
 11
265.2840928818205
 21
163.5759264588881
 31
0.0
  0
SOLID
  5
12E2
330
109F
100
AcDbEntity
  8
P-0000
  6
Continuous
 62
     3
100
AcDbTrace
 10
264.2340928818205
 20
184.8773220229971
 30
0.0
 11
266.3340928818205
 21
184.8773220229971
 31
0.0
 12
265.2840928818205
 22
178.5773220229971
 32
0.0
 13
265.2840928818205
 23
178.5773220229971
 33
0.0
  0
SOLID
  5
12E3
330
109F
100
AcDbEntity
  8
P-0000
  6
Continuous
 62
     3
100
AcDbTrace
 10
264.2340928818205
 20
157.2759264588881
 30
0.0
 11
266.3340928818205
 21
157.2759264588881
 31
0.0
 12
265.2840928818205
 22
163.5759264588881
 32
0.0
 13
265.2840928818205
 23
163.5759264588881
 33
0.0
  0
MTEXT
  5
12E4
330
109F
100
AcDbEntity
  8
P-0000
  6
Continuous
 62
     2
100
AcDbMText
 10
246.2840928818205
 20
89.65721619671038
 30
0.0
 40
30.0
 41
0.0
 71
     5
 72
     1
  1
15
 11
0.0000000000000001
 21
1.0
 31
0.0
 73
     1
 44
1.0
1001
ACAD
1000
MTEXTBEGIN
1070
    73
1070
     1
1070
    44
1040
1.0
1070
    74
1070
     0
1000
MTEXTEND
  0
POINT
  5
12E5
330
109F
100
AcDbEntity
  8
Defpoints
  6
Continuous
 62
     0
100
AcDbPoint
 10
283.804511472705
 20
178.5773220229971
 30
0.0
  0
POINT
  5
12E6
330
109F
100
AcDbEntity
  8
Defpoints
  6
Continuous
 62
     0
100
AcDbPoint
 10
283.8045114727052
 20
163.5759264588881
 30
0.0
  0
POINT
  5
12E7
330
109F
100
AcDbEntity
  8
Defpoints
  6
Continuous
 62
     0
100
AcDbPoint
 10
265.2840928818205
 20
163.5759264588881
 30
0.0
  0
ENDBLK
  5
10A1
330
109F
100
AcDbEntity
  8
0
100
AcDbBlockEnd
  0
ENDSEC
  0
SECTION
  2
ENTITIES
  0
LINE
  5
462
330
20F
100
AcDbEntity
  8
0
  6
Continuous
 62
     9
100
AcDbLine
 10
283.804511472705
 20
-106.5248155190029
 30
0.0
 11
283.804511472705
 21
-138.1185070180029
 31
0.0
  0
LINE
  5
463
330
20F
100
AcDbEntity
  8
0
  6
Continuous
 62
     9
100
AcDbLine
 10
283.804511472705
 20
-138.1185070180029
 30
0.0
 11
283.804511472705
 21
-150.5250373850028
 31
0.0
  0
LINE
  5
464
330
20F
100
AcDbEntity
  8
0
  6
Continuous
 62
     9
100
AcDbLine
 10
290.804511472705
 20
-111.5248155190029
 30
0.0
 11
290.804511472705
 21
-131.5248155190029
 31
0.0
  0
LINE
  5
465
330
20F
100
AcDbEntity
  8
0
  6
Continuous
 62
     9
100
AcDbLine
 10
310.804511472705
 20
-131.5248155190029
 30
0.0
 11
310.804511472705
 21
-111.5248155190029
 31
0.0
  0
LINE
  5
466
330
20F
100
AcDbEntity
  8
0
  6
Continuous
 62
     9
100
AcDbLine
 10
318.804511472705
 20
-111.5248155190029
 30
0.0
 11
318.804511472705
 21
-131.5248155190029
 31
0.0
  0
LINE
  5
467
330
20F
100
AcDbEntity
  8
0
  6
Continuous
 62
     9
100
AcDbLine
 10
338.804511472705
 20
-131.5248155190029
 30
0.0
 11
338.804511472705
 21
-111.5248155190029
 31
0.0
  0
LINE
  5
468
330
20F
100
AcDbEntity
  8
0
  6
Continuous
 62
     9
100
AcDbLine
 10
346.8045114727051
 20
-111.5248155190029
 30
0.0
 11
346.8045114727051
 21
-131.5248155190029
 31
0.0
  0
LINE
  5
469
330
20F
100
AcDbEntity
  8
0
  6
Continuous
 62
     9
100
AcDbLine
 10
366.804511472705
 20
-131.5248155190029
 30
0.0
 11
366.804511472705
 21
-111.5248155190029
 31
0.0
  0
LINE
  5
46A
330
20F
100
AcDbEntity
  8
0
  6
Continuous
 62
     9
100
AcDbLine
 10
374.804511472705
 20
-111.5248155190029
 30
0.0
 11
374.804511472705
 21
-131.5248155190029
 31
0.0
  0
LINE
  5
46B
330
20F
100
AcDbEntity
  8
0
  6
Continuous
 62
     9
100
AcDbLine
 10
394.8045114727051
 20
-131.5248155190029
 30
0.0
 11
394.8045114727051
 21
-111.5248155190029
 31
0.0
  0
LINE
  5
46C
330
20F
100
AcDbEntity
  8
0
  6
Continuous
 62
     9
100
AcDbLine
 10
402.8045114727048
 20
-111.5248155190029
 30
0.0
 11
402.8045114727048
 21
-131.5248155190029
 31
0.0
  0
LINE
  5
46D
330
20F
100
AcDbEntity
  8
0
  6
Continuous
 62
     9
100
AcDbLine
 10
422.8045114727049
 20
-131.5248155190029
 30
0.0
 11
422.8045114727049
 21
-111.5248155190029
 31
0.0
  0
LINE
  5
46E
330
20F
100
AcDbEntity
  8
0
  6
Continuous
 62
     9
100
AcDbLine
 10
430.8045114727049
 20
-111.5248155190029
 30
0.0
 11
430.8045114727049
 21
-131.5248155190029
 31
0.0
  0
LINE
  5
46F
330
20F
100
AcDbEntity
  8
0
  6
Continuous
 62
     9
100
AcDbLine
 10
450.804511472705
 20
-131.5248155190029
 30
0.0
 11
450.804511472705
 21
-111.5248155190029
 31
0.0
  0
LINE
  5
470
330
20F
100
AcDbEntity
  8
0
  6
Continuous
 62
     9
100
AcDbLine
 10
458.804511472705
 20
-111.5248155190029
 30
0.0
 11
458.804511472705
 21
-131.5248155190029
 31
0.0
  0
LINE
  5
471
330
20F
100
AcDbEntity
  8
0
  6
Continuous
 62
     9
100
AcDbLine
 10
478.8045114727048
 20
-131.5248155190029
 30
0.0
 11
478.8045114727048
 21
-111.5248155190029
 31
0.0
  0
LINE
  5
472
330
20F
100
AcDbEntity
  8
0
  6
Continuous
 62
     9
100
AcDbLine
 10
486.8045114727048
 20
-111.5248155190029
 30
0.0
 11
486.8045114727048
 21
-131.5248155190029
 31
0.0
  0
LINE
  5
473
330
20F
100
AcDbEntity
  8
0
  6
Continuous
 62
     9
100
AcDbLine
 10
506.8045114727048
 20
-131.5248155190029
 30
0.0
 11
506.8045114727048
 21
-111.5248155190029
 31
0.0
  0
LINE
  5
474
330
20F
100
AcDbEntity
  8
0
  6
Continuous
 62
     9
100
AcDbLine
 10
514.804511472705
 20
-111.5248155190029
 30
0.0
 11
514.804511472705
 21
-131.5248155190029
 31
0.0
  0
LINE
  5
475
330
20F
100
AcDbEntity
  8
0
  6
Continuous
 62
     9
100
AcDbLine
 10
534.804511472705
 20
-131.5248155190029
 30
0.0
 11
534.804511472705
 21
-111.5248155190029
 31
0.0
  0
LINE
  5
476
330
20F
100
AcDbEntity
  8
0
  6
Continuous
 62
     9
100
AcDbLine
 10
542.804511472705
 20
-111.5248155190029
 30
0.0
 11
542.804511472705
 21
-131.5248155190029
 31
0.0
  0
LINE
  5
477
330
20F
100
AcDbEntity
  8
0
  6
Continuous
 62
     9
100
AcDbLine
 10
562.804511472705
 20
-131.5248155190029
 30
0.0
 11
562.804511472705
 21
-111.5248155190029
 31
0.0
  0
LINE
  5
478
330
20F
100
AcDbEntity
  8
0
  6
Continuous
 62
     9
100
AcDbLine
 10
570.804511472705
 20
-111.5248155190029
 30
0.0
 11
570.804511472705
 21
-131.5248155190029
 31
0.0
  0
LINE
  5
479
330
20F
100
AcDbEntity
  8
0
  6
Continuous
 62
     9
100
AcDbLine
 10
590.804511472705
 20
-131.5248155190029
 30
0.0
 11
590.804511472705
 21
-111.5248155190029
 31
0.0
  0
LINE
  5
47A
330
20F
100
AcDbEntity
  8
0
  6
Continuous
 62
     9
100
AcDbLine
 10
598.804511472705
 20
-111.5248155190029
 30
0.0
 11
598.804511472705
 21
-131.5248155190029
 31
0.0
  0
LINE
  5
47B
330
20F
100
AcDbEntity
  8
0
  6
Continuous
 62
     9
100
AcDbLine
 10
618.804511472705
 20
-131.5248155190029
 30
0.0
 11
618.804511472705
 21
-111.5248155190029
 31
0.0
  0
LINE
  5
47C
330
20F
100
AcDbEntity
  8
0
  6
Continuous
 62
     9
100
AcDbLine
 10
626.804511472705
 20
-111.5248155190029
 30
0.0
 11
626.804511472705
 21
-131.5248155190029
 31
0.0
  0
LINE
  5
47D
330
20F
100
AcDbEntity
  8
0
  6
Continuous
 62
     9
100
AcDbLine
 10
646.804511472705
 20
-131.5248155190029
 30
0.0
 11
646.804511472705
 21
-111.5248155190029
 31
0.0
  0
LINE
  5
47E
330
20F
100
AcDbEntity
  8
0
  6
Continuous
 62
     9
100
AcDbLine
 10
654.804511472705
 20
-111.5248155190029
 30
0.0
 11
654.804511472705
 21
-131.5248155190029
 31
0.0
  0
LINE
  5
47F
330
20F
100
AcDbEntity
  8
0
  6
Continuous
 62
     9
100
AcDbLine
 10
674.804511472705
 20
-131.5248155190029
 30
0.0
 11
674.804511472705
 21
-111.5248155190029
 31
0.0
  0
LINE
  5
480
330
20F
100
AcDbEntity
  8
0
  6
Continuous
 62
     9
100
AcDbLine
 10
682.8045114727047
 20
-111.5248155190029
 30
0.0
 11
682.8045114727047
 21
-131.5248155190029
 31
0.0
  0
LINE
  5
481
330
20F
100
AcDbEntity
  8
0
  6
Continuous
 62
     9
100
AcDbLine
 10
702.8045114727049
 20
-131.5248155190029
 30
0.0
 11
702.8045114727049
 21
-111.5248155190029
 31
0.0
  0
LINE
  5
482
330
20F
100
AcDbEntity
  8
0
  6
Continuous
 62
     9
100
AcDbLine
 10
710.8045114727048
 20
-111.5248155190029
 30
0.0
 11
710.8045114727048
 21
-131.5248155190029
 31
0.0
  0
LINE
  5
483
330
20F
100
AcDbEntity
  8
0
  6
Continuous
 62
     9
100
AcDbLine
 10
730.8045114727049
 20
-131.5248155190029
 30
0.0
 11
730.8045114727049
 21
-111.5248155190029
 31
0.0
  0
LINE
  5
484
330
20F
100
AcDbEntity
  8
0
  6
Continuous
 62
     9
100
AcDbLine
 10
738.8045114727049
 20
-111.5248155190029
 30
0.0
 11
738.8045114727049
 21
-131.5248155190029
 31
0.0
  0
LINE
  5
485
330
20F
100
AcDbEntity
  8
0
  6
Continuous
 62
     9
100
AcDbLine
 10
758.8045114727049
 20
-131.5248155190029
 30
0.0
 11
758.8045114727049
 21
-111.5248155190029
 31
0.0
  0
LINE
  5
486
330
20F
100
AcDbEntity
  8
0
  6
Continuous
 62
     9
100
AcDbLine
 10
766.8045114727049
 20
-111.5248155190029
 30
0.0
 11
766.8045114727049
 21
-131.5248155190029
 31
0.0
  0
LINE
  5
487
330
20F
100
AcDbEntity
  8
0
  6
Continuous
 62
     9
100
AcDbLine
 10
786.8045114727049
 20
-131.5248155190029
 30
0.0
 11
786.8045114727049
 21
-111.5248155190029
 31
0.0
  0
LINE
  5
488
330
20F
100
AcDbEntity
  8
0
  6
Continuous
 62
     9
100
AcDbLine
 10
794.8045114727049
 20
-111.5248155190029
 30
0.0
 11
794.8045114727049
 21
-131.5248155190029
 31
0.0
  0
LINE
  5
489
330
20F
100
AcDbEntity
  8
0
  6
Continuous
 62
     9
100
AcDbLine
 10
814.8045114727048
 20
-131.5248155190029
 30
0.0
 11
814.8045114727048
 21
-111.5248155190029
 31
0.0
  0
LINE
  5
48A
330
20F
100
AcDbEntity
  8
0
  6
Continuous
 62
     9
100
AcDbLine
 10
822.8045114727049
 20
-111.5248155190029
 30
0.0
 11
822.8045114727049
 21
-131.5248155190029
 31
0.0
  0
LINE
  5
48B
330
20F
100
AcDbEntity
  8
0
  6
Continuous
 62
     9
100
AcDbLine
 10
842.804511472705
 20
-131.5248155190029
 30
0.0
 11
842.804511472705
 21
-111.5248155190029
 31
0.0
  0
LINE
  5
48C
330
20F
100
AcDbEntity
  8
0
  6
Continuous
 62
     9
100
AcDbLine
 10
850.804511472705
 20
-111.5248155190029
 30
0.0
 11
850.804511472705
 21
-131.5248155190029
 31
0.0
  0
LINE
  5
48D
330
20F
100
AcDbEntity
  8
0
  6
Continuous
 62
     9
100
AcDbLine
 10
870.8045114727051
 20
-131.5248155190029
 30
0.0
 11
870.8045114727051
 21
-111.5248155190029
 31
0.0
  0
LINE
  5
48E
330
20F
100
AcDbEntity
  8
0
  6
Continuous
 62
     9
100
AcDbLine
 10
878.8045114727051
 20
-111.5248155190029
 30
0.0
 11
878.8045114727051
 21
-131.5248155190029
 31
0.0
  0
LINE
  5
48F
330
20F
100
AcDbEntity
  8
0
  6
Continuous
 62
     9
100
AcDbLine
 10
898.8045114727048
 20
-131.5248155190029
 30
0.0
 11
898.8045114727048
 21
-111.5248155190029
 31
0.0
  0
LINE
  5
490
330
20F
100
AcDbEntity
  8
0
  6
Continuous
 62
     9
100
AcDbLine
 10
906.8045114727052
 20
-111.5248155190029
 30
0.0
 11
906.8045114727052
 21
-131.5248155190029
 31
0.0
  0
LINE
  5
491
330
20F
100
AcDbEntity
  8
0
  6
Continuous
 62
     9
100
AcDbLine
 10
926.8045114727053
 20
-131.5248155190029
 30
0.0
 11
926.8045114727053
 21
-111.5248155190029
 31
0.0
  0
LINE
  5
492
330
20F
100
AcDbEntity
  8
0
  6
Continuous
 62
     9
100
AcDbLine
 10
934.8045114727053
 20
-111.5248155190029
 30
0.0
 11
934.8045114727053
 21
-131.5248155190029
 31
0.0
  0
LINE
  5
493
330
20F
100
AcDbEntity
  8
0
  6
Continuous
 62
     9
100
AcDbLine
 10
954.8045114727052
 20
-131.5248155190029
 30
0.0
 11
954.8045114727052
 21
-111.5248155190029
 31
0.0
  0
LINE
  5
494
330
20F
100
AcDbEntity
  8
0
  6
Continuous
 62
     9
100
AcDbLine
 10
962.8045114727052
 20
-111.5248155190029
 30
0.0
 11
962.8045114727052
 21
-131.5248155190029
 31
0.0
  0
LINE
  5
495
330
20F
100
AcDbEntity
  8
0
  6
Continuous
 62
     9
100
AcDbLine
 10
982.8045114727052
 20
-131.5248155190029
 30
0.0
 11
982.8045114727052
 21
-111.5248155190029
 31
0.0
  0
LINE
  5
496
330
20F
100
AcDbEntity
  8
0
  6
Continuous
 62
     9
100
AcDbLine
 10
990.8045114727052
 20
-111.5248155190029
 30
0.0
 11
990.8045114727052
 21
-131.5248155190029
 31
0.0
  0
LINE
  5
497
330
20F
100
AcDbEntity
  8
0
  6
Continuous
 62
     9
100
AcDbLine
 10
1010.804511472705
 20
-131.5248155190029
 30
0.0
 11
1010.804511472705
 21
-111.5248155190029
 31
0.0
  0
LINE
  5
498
330
20F
100
AcDbEntity
  8
0
  6
Continuous
 62
     9
100
AcDbLine
 10
1018.804511472705
 20
-111.5248155190029
 30
0.0
 11
1018.804511472705
 21
-131.5248155190029
 31
0.0
  0
LINE
  5
49A
330
20F
100
AcDbEntity
  8
0
  6
Continuous
 62
     9
100
AcDbLine
 10
283.804511472705
 20
-150.5250373850028
 30
0.0
 11
1773.804511472705
 21
-150.5250373850028
 31
0.0
  0
LINE
  5
49B
330
20F
100
AcDbEntity
  8
0
  6
Continuous
 62
     9
100
AcDbLine
 10
283.804511472705
 20
-148.5250373850028
 30
0.0
 11
1773.804511472705
 21
-148.5250373850028
 31
0.0
  0
LINE
  5
49C
330
20F
100
AcDbEntity
  8
0
  6
Continuous
 62
     9
100
AcDbLine
 10
283.804511472705
 20
-140.5175458860028
 30
0.0
 11
1773.804511472705
 21
-140.5175458860028
 31
0.0
  0
LINE
  5
49D
330
20F
100
AcDbEntity
  8
0
  6
Continuous
 62
     9
100
AcDbLine
 10
283.804511472705
 20
-138.5175458860028
 30
0.0
 11
1773.804511472705
 21
-138.5175458860028
 31
0.0
  0
LINE
  5
49E
330
20F
100
AcDbEntity
  8
0
  6
Continuous
 62
     9
100
AcDbLine
 10
1773.804511472705
 20
-138.1185070180029
 30
0.0
 11
283.804511472705
 21
-138.1185070180029
 31
0.0
  0
LINE
  5
49F
330
20F
100
AcDbEntity
  8
0
  6
Continuous
 62
     9
100
AcDbLine
 10
290.804511472705
 20
-131.5248155190029
 30
0.0
 11
310.804511472705
 21
-131.5248155190029
 31
0.0
  0
LINE
  5
4A0
330
20F
100
AcDbEntity
  8
0
  6
Continuous
 62
     9
100
AcDbLine
 10
318.804511472705
 20
-131.5248155190029
 30
0.0
 11
338.804511472705
 21
-131.5248155190029
 31
0.0
  0
LINE
  5
4A1
330
20F
100
AcDbEntity
  8
0
  6
Continuous
 62
     9
100
AcDbLine
 10
346.8045114727051
 20
-131.5248155190029
 30
0.0
 11
366.804511472705
 21
-131.5248155190029
 31
0.0
  0
LINE
  5
4A2
330
20F
100
AcDbEntity
  8
0
  6
Continuous
 62
     9
100
AcDbLine
 10
374.804511472705
 20
-131.5248155190029
 30
0.0
 11
394.8045114727051
 21
-131.5248155190029
 31
0.0
  0
LINE
  5
4A3
330
20F
100
AcDbEntity
  8
0
  6
Continuous
 62
     9
100
AcDbLine
 10
402.8045114727048
 20
-131.5248155190029
 30
0.0
 11
422.8045114727049
 21
-131.5248155190029
 31
0.0
  0
LINE
  5
4A4
330
20F
100
AcDbEntity
  8
0
  6
Continuous
 62
     9
100
AcDbLine
 10
430.8045114727049
 20
-131.5248155190029
 30
0.0
 11
450.804511472705
 21
-131.5248155190029
 31
0.0
  0
LINE
  5
4A5
330
20F
100
AcDbEntity
  8
0
  6
Continuous
 62
     9
100
AcDbLine
 10
458.804511472705
 20
-131.5248155190029
 30
0.0
 11
478.8045114727048
 21
-131.5248155190029
 31
0.0
  0
LINE
  5
4A6
330
20F
100
AcDbEntity
  8
0
  6
Continuous
 62
     9
100
AcDbLine
 10
486.8045114727048
 20
-131.5248155190029
 30
0.0
 11
506.8045114727048
 21
-131.5248155190029
 31
0.0
  0
LINE
  5
4A7
330
20F
100
AcDbEntity
  8
0
  6
Continuous
 62
     9
100
AcDbLine
 10
514.804511472705
 20
-131.5248155190029
 30
0.0
 11
534.804511472705
 21
-131.5248155190029
 31
0.0
  0
LINE
  5
4A8
330
20F
100
AcDbEntity
  8
0
  6
Continuous
 62
     9
100
AcDbLine
 10
542.804511472705
 20
-131.5248155190029
 30
0.0
 11
562.804511472705
 21
-131.5248155190029
 31
0.0
  0
LINE
  5
4A9
330
20F
100
AcDbEntity
  8
0
  6
Continuous
 62
     9
100
AcDbLine
 10
570.804511472705
 20
-131.5248155190029
 30
0.0
 11
590.804511472705
 21
-131.5248155190029
 31
0.0
  0
LINE
  5
4AA
330
20F
100
AcDbEntity
  8
0
  6
Continuous
 62
     9
100
AcDbLine
 10
598.804511472705
 20
-131.5248155190029
 30
0.0
 11
618.804511472705
 21
-131.5248155190029
 31
0.0
  0
LINE
  5
4AB
330
20F
100
AcDbEntity
  8
0
  6
Continuous
 62
     9
100
AcDbLine
 10
626.804511472705
 20
-131.5248155190029
 30
0.0
 11
646.804511472705
 21
-131.5248155190029
 31
0.0
  0
LINE
  5
4AC
330
20F
100
AcDbEntity
  8
0
  6
Continuous
 62
     9
100
AcDbLine
 10
654.804511472705
 20
-131.5248155190029
 30
0.0
 11
674.804511472705
 21
-131.5248155190029
 31
0.0
  0
LINE
  5
4AD
330
20F
100
AcDbEntity
  8
0
  6
Continuous
 62
     9
100
AcDbLine
 10
682.8045114727047
 20
-131.5248155190029
 30
0.0
 11
702.8045114727049
 21
-131.5248155190029
 31
0.0
  0
LINE
  5
4AE
330
20F
100
AcDbEntity
  8
0
  6
Continuous
 62
     9
100
AcDbLine
 10
710.8045114727048
 20
-131.5248155190029
 30
0.0
 11
730.8045114727049
 21
-131.5248155190029
 31
0.0
  0
LINE
  5
4AF
330
20F
100
AcDbEntity
  8
0
  6
Continuous
 62
     9
100
AcDbLine
 10
738.8045114727049
 20
-131.5248155190029
 30
0.0
 11
758.8045114727049
 21
-131.5248155190029
 31
0.0
  0
LINE
  5
4B0
330
20F
100
AcDbEntity
  8
0
  6
Continuous
 62
     9
100
AcDbLine
 10
766.8045114727049
 20
-131.5248155190029
 30
0.0
 11
786.8045114727049
 21
-131.5248155190029
 31
0.0
  0
LINE
  5
4B1
330
20F
100
AcDbEntity
  8
0
  6
Continuous
 62
     9
100
AcDbLine
 10
794.8045114727049
 20
-131.5248155190029
 30
0.0
 11
814.8045114727048
 21
-131.5248155190029
 31
0.0
  0
LINE
  5
4B2
330
20F
100
AcDbEntity
  8
0
  6
Continuous
 62
     9
100
AcDbLine
 10
822.8045114727049
 20
-131.5248155190029
 30
0.0
 11
842.804511472705
 21
-131.5248155190029
 31
0.0
  0
LINE
  5
4B3
330
20F
100
AcDbEntity
  8
0
  6
Continuous
 62
     9
100
AcDbLine
 10
850.804511472705
 20
-131.5248155190029
 30
0.0
 11
870.8045114727051
 21
-131.5248155190029
 31
0.0
  0
LINE
  5
4B4
330
20F
100
AcDbEntity
  8
0
  6
Continuous
 62
     9
100
AcDbLine
 10
878.8045114727051
 20
-131.5248155190029
 30
0.0
 11
898.8045114727048
 21
-131.5248155190029
 31
0.0
  0
LINE
  5
4B5
330
20F
100
AcDbEntity
  8
0
  6
Continuous
 62
     9
100
AcDbLine
 10
906.8045114727052
 20
-131.5248155190029
 30
0.0
 11
926.8045114727053
 21
-131.5248155190029
 31
0.0
  0
LINE
  5
4B6
330
20F
100
AcDbEntity
  8
0
  6
Continuous
 62
     9
100
AcDbLine
 10
934.8045114727053
 20
-131.5248155190029
 30
0.0
 11
954.8045114727052
 21
-131.5248155190029
 31
0.0
  0
LINE
  5
4B7
330
20F
100
AcDbEntity
  8
0
  6
Continuous
 62
     9
100
AcDbLine
 10
962.8045114727052
 20
-131.5248155190029
 30
0.0
 11
982.8045114727052
 21
-131.5248155190029
 31
0.0
  0
LINE
  5
4B8
330
20F
100
AcDbEntity
  8
0
  6
Continuous
 62
     9
100
AcDbLine
 10
990.8045114727052
 20
-131.5248155190029
 30
0.0
 11
1010.804511472705
 21
-131.5248155190029
 31
0.0
  0
LINE
  5
4B9
330
20F
100
AcDbEntity
  8
0
  6
Continuous
 62
     9
100
AcDbLine
 10
1018.804511472705
 20
-131.5248155190029
 30
0.0
 11
1038.804511472705
 21
-131.5248155190029
 31
0.0
  0
LINE
  5
4BA
330
20F
100
AcDbEntity
  8
0
  6
Continuous
 62
     9
100
AcDbLine
 10
1046.804511472705
 20
-131.5248155190029
 30
0.0
 11
1066.804511472705
 21
-131.5248155190029
 31
0.0
  0
LINE
  5
4BB
330
20F
100
AcDbEntity
  8
0
  6
Continuous
 62
     9
100
AcDbLine
 10
1074.804511472705
 20
-131.5248155190029
 30
0.0
 11
1094.804511472705
 21
-131.5248155190029
 31
0.0
  0
LINE
  5
4BC
330
20F
100
AcDbEntity
  8
0
  6
Continuous
 62
     9
100
AcDbLine
 10
1102.804511472705
 20
-131.5248155190029
 30
0.0
 11
1122.804511472705
 21
-131.5248155190029
 31
0.0
  0
LINE
  5
4BD
330
20F
100
AcDbEntity
  8
0
  6
Continuous
 62
     9
100
AcDbLine
 10
1130.804511472705
 20
-131.5248155190029
 30
0.0
 11
1150.804511472705
 21
-131.5248155190029
 31
0.0
  0
LINE
  5
4BE
330
20F
100
AcDbEntity
  8
0
  6
Continuous
 62
     9
100
AcDbLine
 10
1158.804511472705
 20
-131.5248155190029
 30
0.0
 11
1178.804511472705
 21
-131.5248155190029
 31
0.0
  0
LINE
  5
4BF
330
20F
100
AcDbEntity
  8
0
  6
Continuous
 62
     9
100
AcDbLine
 10
1186.804511472705
 20
-131.5248155190029
 30
0.0
 11
1206.804511472705
 21
-131.5248155190029
 31
0.0
  0
LINE
  5
4C0
330
20F
100
AcDbEntity
  8
0
  6
Continuous
 62
     9
100
AcDbLine
 10
1214.804511472705
 20
-131.5248155190029
 30
0.0
 11
1234.804511472705
 21
-131.5248155190029
 31
0.0
  0
LINE
  5
4C1
330
20F
100
AcDbEntity
  8
0
  6
Continuous
 62
     9
100
AcDbLine
 10
1242.804511472705
 20
-131.5248155190029
 30
0.0
 11
1262.804511472705
 21
-131.5248155190029
 31
0.0
  0
LINE
  5
4C2
330
20F
100
AcDbEntity
  8
0
  6
Continuous
 62
     9
100
AcDbLine
 10
1270.804511472705
 20
-131.5248155190029
 30
0.0
 11
1290.804511472705
 21
-131.5248155190029
 31
0.0
  0
LINE
  5
4C3
330
20F
100
AcDbEntity
  8
0
  6
Continuous
 62
     9
100
AcDbLine
 10
1298.804511472705
 20
-131.5248155190029
 30
0.0
 11
1318.804511472705
 21
-131.5248155190029
 31
0.0
  0
LINE
  5
4C4
330
20F
100
AcDbEntity
  8
0
  6
Continuous
 62
     9
100
AcDbLine
 10
1326.804511472705
 20
-131.5248155190029
 30
0.0
 11
1346.804511472705
 21
-131.5248155190029
 31
0.0
  0
LINE
  5
4C5
330
20F
100
AcDbEntity
  8
0
  6
Continuous
 62
     9
100
AcDbLine
 10
1354.804511472705
 20
-131.5248155190029
 30
0.0
 11
1374.804511472705
 21
-131.5248155190029
 31
0.0
  0
LINE
  5
4C6
330
20F
100
AcDbEntity
  8
0
  6
Continuous
 62
     9
100
AcDbLine
 10
1382.804511472705
 20
-131.5248155190029
 30
0.0
 11
1402.804511472705
 21
-131.5248155190029
 31
0.0
  0
LINE
  5
4C7
330
20F
100
AcDbEntity
  8
0
  6
Continuous
 62
     9
100
AcDbLine
 10
1410.804511472705
 20
-131.5248155190029
 30
0.0
 11
1430.804511472705
 21
-131.5248155190029
 31
0.0
  0
LINE
  5
4C8
330
20F
100
AcDbEntity
  8
0
  6
Continuous
 62
     9
100
AcDbLine
 10
1438.804511472705
 20
-131.5248155190029
 30
0.0
 11
1458.804511472705
 21
-131.5248155190029
 31
0.0
  0
LINE
  5
4C9
330
20F
100
AcDbEntity
  8
0
  6
Continuous
 62
     9
100
AcDbLine
 10
1466.804511472705
 20
-131.5248155190029
 30
0.0
 11
1486.804511472705
 21
-131.5248155190029
 31
0.0
  0
LINE
  5
4CA
330
20F
100
AcDbEntity
  8
0
  6
Continuous
 62
     9
100
AcDbLine
 10
1494.804511472705
 20
-131.5248155190029
 30
0.0
 11
1514.804511472705
 21
-131.5248155190029
 31
0.0
  0
LINE
  5
4CB
330
20F
100
AcDbEntity
  8
0
  6
Continuous
 62
     9
100
AcDbLine
 10
1522.804511472705
 20
-131.5248155190029
 30
0.0
 11
1542.804511472705
 21
-131.5248155190029
 31
0.0
  0
LINE
  5
4CC
330
20F
100
AcDbEntity
  8
0
  6
Continuous
 62
     9
100
AcDbLine
 10
1550.804511472705
 20
-131.5248155190029
 30
0.0
 11
1570.804511472705
 21
-131.5248155190029
 31
0.0
  0
LINE
  5
4CD
330
20F
100
AcDbEntity
  8
0
  6
Continuous
 62
     9
100
AcDbLine
 10
1578.804511472705
 20
-131.5248155190029
 30
0.0
 11
1598.804511472705
 21
-131.5248155190029
 31
0.0
  0
LINE
  5
4CE
330
20F
100
AcDbEntity
  8
0
  6
Continuous
 62
     9
100
AcDbLine
 10
1606.804511472705
 20
-131.5248155190029
 30
0.0
 11
1626.804511472705
 21
-131.5248155190029
 31
0.0
  0
LINE
  5
4CF
330
20F
100
AcDbEntity
  8
0
  6
Continuous
 62
     9
100
AcDbLine
 10
1634.804511472705
 20
-131.5248155190029
 30
0.0
 11
1654.804511472705
 21
-131.5248155190029
 31
0.0
  0
LINE
  5
4D0
330
20F
100
AcDbEntity
  8
0
  6
Continuous
 62
     9
100
AcDbLine
 10
1662.804511472705
 20
-131.5248155190029
 30
0.0
 11
1682.804511472705
 21
-131.5248155190029
 31
0.0
  0
LINE
  5
4D1
330
20F
100
AcDbEntity
  8
0
  6
Continuous
 62
     9
100
AcDbLine
 10
1690.804511472705
 20
-131.5248155190029
 30
0.0
 11
1710.804511472705
 21
-131.5248155190029
 31
0.0
  0
LINE
  5
4D2
330
20F
100
AcDbEntity
  8
0
  6
Continuous
 62
     9
100
AcDbLine
 10
1718.804511472705
 20
-131.5248155190029
 30
0.0
 11
1738.804511472705
 21
-131.5248155190029
 31
0.0
  0
LINE
  5
4D3
330
20F
100
AcDbEntity
  8
0
  6
Continuous
 62
     9
100
AcDbLine
 10
1746.804511472705
 20
-131.5248155190029
 30
0.0
 11
1766.804511472705
 21
-131.5248155190029
 31
0.0
  0
LINE
  5
4D4
330
20F
100
AcDbEntity
  8
0
  6
Continuous
 62
     9
100
AcDbLine
 10
1038.804511472705
 20
-131.5248155190029
 30
0.0
 11
1038.804511472705
 21
-111.5248155190029
 31
0.0
  0
LINE
  5
4D5
330
20F
100
AcDbEntity
  8
0
  6
Continuous
 62
     9
100
AcDbLine
 10
1046.804511472705
 20
-111.5248155190029
 30
0.0
 11
1046.804511472705
 21
-131.5248155190029
 31
0.0
  0
LINE
  5
4D6
330
20F
100
AcDbEntity
  8
0
  6
Continuous
 62
     9
100
AcDbLine
 10
1066.804511472705
 20
-131.5248155190029
 30
0.0
 11
1066.804511472705
 21
-111.5248155190029
 31
0.0
  0
LINE
  5
4D7
330
20F
100
AcDbEntity
  8
0
  6
Continuous
 62
     9
100
AcDbLine
 10
1074.804511472705
 20
-111.5248155190029
 30
0.0
 11
1074.804511472705
 21
-131.5248155190029
 31
0.0
  0
LINE
  5
4D8
330
20F
100
AcDbEntity
  8
0
  6
Continuous
 62
     9
100
AcDbLine
 10
1766.804511472705
 20
-111.5248155190029
 30
0.0
 11
1746.804511472705
 21
-111.5248155190029
 31
0.0
  0
LINE
  5
4D9
330
20F
100
AcDbEntity
  8
0
  6
Continuous
 62
     9
100
AcDbLine
 10
1738.804511472705
 20
-111.5248155190029
 30
0.0
 11
1718.804511472705
 21
-111.5248155190029
 31
0.0
  0
LINE
  5
4DA
330
20F
100
AcDbEntity
  8
0
  6
Continuous
 62
     9
100
AcDbLine
 10
1710.804511472705
 20
-111.5248155190029
 30
0.0
 11
1690.804511472705
 21
-111.5248155190029
 31
0.0
  0
LINE
  5
4DB
330
20F
100
AcDbEntity
  8
0
  6
Continuous
 62
     9
100
AcDbLine
 10
1682.804511472705
 20
-111.5248155190029
 30
0.0
 11
1662.804511472705
 21
-111.5248155190029
 31
0.0
  0
LINE
  5
4DC
330
20F
100
AcDbEntity
  8
0
  6
Continuous
 62
     9
100
AcDbLine
 10
1654.804511472705
 20
-111.5248155190029
 30
0.0
 11
1634.804511472705
 21
-111.5248155190029
 31
0.0
  0
LINE
  5
4DD
330
20F
100
AcDbEntity
  8
0
  6
Continuous
 62
     9
100
AcDbLine
 10
1626.804511472705
 20
-111.5248155190029
 30
0.0
 11
1606.804511472705
 21
-111.5248155190029
 31
0.0
  0
LINE
  5
4DE
330
20F
100
AcDbEntity
  8
0
  6
Continuous
 62
     9
100
AcDbLine
 10
1598.804511472705
 20
-111.5248155190029
 30
0.0
 11
1578.804511472705
 21
-111.5248155190029
 31
0.0
  0
LINE
  5
4DF
330
20F
100
AcDbEntity
  8
0
  6
Continuous
 62
     9
100
AcDbLine
 10
1570.804511472705
 20
-111.5248155190029
 30
0.0
 11
1550.804511472705
 21
-111.5248155190029
 31
0.0
  0
LINE
  5
4E0
330
20F
100
AcDbEntity
  8
0
  6
Continuous
 62
     9
100
AcDbLine
 10
1542.804511472705
 20
-111.5248155190029
 30
0.0
 11
1522.804511472705
 21
-111.5248155190029
 31
0.0
  0
LINE
  5
4E1
330
20F
100
AcDbEntity
  8
0
  6
Continuous
 62
     9
100
AcDbLine
 10
1514.804511472705
 20
-111.5248155190029
 30
0.0
 11
1494.804511472705
 21
-111.5248155190029
 31
0.0
  0
LINE
  5
4E2
330
20F
100
AcDbEntity
  8
0
  6
Continuous
 62
     9
100
AcDbLine
 10
1486.804511472705
 20
-111.5248155190029
 30
0.0
 11
1466.804511472705
 21
-111.5248155190029
 31
0.0
  0
LINE
  5
4E3
330
20F
100
AcDbEntity
  8
0
  6
Continuous
 62
     9
100
AcDbLine
 10
1458.804511472705
 20
-111.5248155190029
 30
0.0
 11
1438.804511472705
 21
-111.5248155190029
 31
0.0
  0
LINE
  5
4E4
330
20F
100
AcDbEntity
  8
0
  6
Continuous
 62
     9
100
AcDbLine
 10
1430.804511472705
 20
-111.5248155190029
 30
0.0
 11
1410.804511472705
 21
-111.5248155190029
 31
0.0
  0
LINE
  5
4E5
330
20F
100
AcDbEntity
  8
0
  6
Continuous
 62
     9
100
AcDbLine
 10
1402.804511472705
 20
-111.5248155190029
 30
0.0
 11
1382.804511472705
 21
-111.5248155190029
 31
0.0
  0
LINE
  5
4E6
330
20F
100
AcDbEntity
  8
0
  6
Continuous
 62
     9
100
AcDbLine
 10
1374.804511472705
 20
-111.5248155190029
 30
0.0
 11
1354.804511472705
 21
-111.5248155190029
 31
0.0
  0
LINE
  5
4E7
330
20F
100
AcDbEntity
  8
0
  6
Continuous
 62
     9
100
AcDbLine
 10
1346.804511472705
 20
-111.5248155190029
 30
0.0
 11
1326.804511472705
 21
-111.5248155190029
 31
0.0
  0
LINE
  5
4E8
330
20F
100
AcDbEntity
  8
0
  6
Continuous
 62
     9
100
AcDbLine
 10
1318.804511472705
 20
-111.5248155190029
 30
0.0
 11
1298.804511472705
 21
-111.5248155190029
 31
0.0
  0
LINE
  5
4E9
330
20F
100
AcDbEntity
  8
0
  6
Continuous
 62
     9
100
AcDbLine
 10
1290.804511472705
 20
-111.5248155190029
 30
0.0
 11
1270.804511472705
 21
-111.5248155190029
 31
0.0
  0
LINE
  5
4EA
330
20F
100
AcDbEntity
  8
0
  6
Continuous
 62
     9
100
AcDbLine
 10
1262.804511472705
 20
-111.5248155190029
 30
0.0
 11
1242.804511472705
 21
-111.5248155190029
 31
0.0
  0
LINE
  5
4EB
330
20F
100
AcDbEntity
  8
0
  6
Continuous
 62
     9
100
AcDbLine
 10
1234.804511472705
 20
-111.5248155190029
 30
0.0
 11
1214.804511472705
 21
-111.5248155190029
 31
0.0
  0
LINE
  5
4EC
330
20F
100
AcDbEntity
  8
0
  6
Continuous
 62
     9
100
AcDbLine
 10
1206.804511472705
 20
-111.5248155190029
 30
0.0
 11
1186.804511472705
 21
-111.5248155190029
 31
0.0
  0
LINE
  5
4ED
330
20F
100
AcDbEntity
  8
0
  6
Continuous
 62
     9
100
AcDbLine
 10
1178.804511472705
 20
-111.5248155190029
 30
0.0
 11
1158.804511472705
 21
-111.5248155190029
 31
0.0
  0
LINE
  5
4EE
330
20F
100
AcDbEntity
  8
0
  6
Continuous
 62
     9
100
AcDbLine
 10
1150.804511472705
 20
-111.5248155190029
 30
0.0
 11
1130.804511472705
 21
-111.5248155190029
 31
0.0
  0
LINE
  5
4EF
330
20F
100
AcDbEntity
  8
0
  6
Continuous
 62
     9
100
AcDbLine
 10
1122.804511472705
 20
-111.5248155190029
 30
0.0
 11
1102.804511472705
 21
-111.5248155190029
 31
0.0
  0
LINE
  5
4F0
330
20F
100
AcDbEntity
  8
0
  6
Continuous
 62
     9
100
AcDbLine
 10
1094.804511472705
 20
-111.5248155190029
 30
0.0
 11
1074.804511472705
 21
-111.5248155190029
 31
0.0
  0
LINE
  5
4F1
330
20F
100
AcDbEntity
  8
0
  6
Continuous
 62
     9
100
AcDbLine
 10
1066.804511472705
 20
-111.5248155190029
 30
0.0
 11
1046.804511472705
 21
-111.5248155190029
 31
0.0
  0
LINE
  5
4F2
330
20F
100
AcDbEntity
  8
0
  6
Continuous
 62
     9
100
AcDbLine
 10
1038.804511472705
 20
-111.5248155190029
 30
0.0
 11
1018.804511472705
 21
-111.5248155190029
 31
0.0
  0
LINE
  5
4F3
330
20F
100
AcDbEntity
  8
0
  6
Continuous
 62
     9
100
AcDbLine
 10
1010.804511472705
 20
-111.5248155190029
 30
0.0
 11
990.8045114727052
 21
-111.5248155190029
 31
0.0
  0
LINE
  5
4F4
330
20F
100
AcDbEntity
  8
0
  6
Continuous
 62
     9
100
AcDbLine
 10
982.8045114727052
 20
-111.5248155190029
 30
0.0
 11
962.8045114727052
 21
-111.5248155190029
 31
0.0
  0
LINE
  5
4F5
330
20F
100
AcDbEntity
  8
0
  6
Continuous
 62
     9
100
AcDbLine
 10
954.8045114727052
 20
-111.5248155190029
 30
0.0
 11
934.8045114727053
 21
-111.5248155190029
 31
0.0
  0
LINE
  5
4F6
330
20F
100
AcDbEntity
  8
0
  6
Continuous
 62
     9
100
AcDbLine
 10
926.8045114727053
 20
-111.5248155190029
 30
0.0
 11
906.8045114727052
 21
-111.5248155190029
 31
0.0
  0
LINE
  5
4F7
330
20F
100
AcDbEntity
  8
0
  6
Continuous
 62
     9
100
AcDbLine
 10
898.8045114727048
 20
-111.5248155190029
 30
0.0
 11
878.8045114727051
 21
-111.5248155190029
 31
0.0
  0
LINE
  5
4F8
330
20F
100
AcDbEntity
  8
0
  6
Continuous
 62
     9
100
AcDbLine
 10
870.8045114727051
 20
-111.5248155190029
 30
0.0
 11
850.804511472705
 21
-111.5248155190029
 31
0.0
  0
LINE
  5
4F9
330
20F
100
AcDbEntity
  8
0
  6
Continuous
 62
     9
100
AcDbLine
 10
842.804511472705
 20
-111.5248155190029
 30
0.0
 11
822.8045114727049
 21
-111.5248155190029
 31
0.0
  0
LINE
  5
4FA
330
20F
100
AcDbEntity
  8
0
  6
Continuous
 62
     9
100
AcDbLine
 10
814.8045114727048
 20
-111.5248155190029
 30
0.0
 11
794.8045114727049
 21
-111.5248155190029
 31
0.0
  0
LINE
  5
4FB
330
20F
100
AcDbEntity
  8
0
  6
Continuous
 62
     9
100
AcDbLine
 10
786.8045114727049
 20
-111.5248155190029
 30
0.0
 11
766.8045114727049
 21
-111.5248155190029
 31
0.0
  0
LINE
  5
4FC
330
20F
100
AcDbEntity
  8
0
  6
Continuous
 62
     9
100
AcDbLine
 10
758.8045114727049
 20
-111.5248155190029
 30
0.0
 11
738.8045114727049
 21
-111.5248155190029
 31
0.0
  0
LINE
  5
4FD
330
20F
100
AcDbEntity
  8
0
  6
Continuous
 62
     9
100
AcDbLine
 10
730.8045114727049
 20
-111.5248155190029
 30
0.0
 11
710.8045114727048
 21
-111.5248155190029
 31
0.0
  0
LINE
  5
4FE
330
20F
100
AcDbEntity
  8
0
  6
Continuous
 62
     9
100
AcDbLine
 10
702.8045114727049
 20
-111.5248155190029
 30
0.0
 11
682.8045114727047
 21
-111.5248155190029
 31
0.0
  0
LINE
  5
4FF
330
20F
100
AcDbEntity
  8
0
  6
Continuous
 62
     9
100
AcDbLine
 10
674.804511472705
 20
-111.5248155190029
 30
0.0
 11
654.804511472705
 21
-111.5248155190029
 31
0.0
  0
LINE
  5
500
330
20F
100
AcDbEntity
  8
0
  6
Continuous
 62
     9
100
AcDbLine
 10
646.804511472705
 20
-111.5248155190029
 30
0.0
 11
626.804511472705
 21
-111.5248155190029
 31
0.0
  0
LINE
  5
501
330
20F
100
AcDbEntity
  8
0
  6
Continuous
 62
     9
100
AcDbLine
 10
618.804511472705
 20
-111.5248155190029
 30
0.0
 11
598.804511472705
 21
-111.5248155190029
 31
0.0
  0
LINE
  5
502
330
20F
100
AcDbEntity
  8
0
  6
Continuous
 62
     9
100
AcDbLine
 10
590.804511472705
 20
-111.5248155190029
 30
0.0
 11
570.804511472705
 21
-111.5248155190029
 31
0.0
  0
LINE
  5
503
330
20F
100
AcDbEntity
  8
0
  6
Continuous
 62
     9
100
AcDbLine
 10
562.804511472705
 20
-111.5248155190029
 30
0.0
 11
542.804511472705
 21
-111.5248155190029
 31
0.0
  0
LINE
  5
504
330
20F
100
AcDbEntity
  8
0
  6
Continuous
 62
     9
100
AcDbLine
 10
534.804511472705
 20
-111.5248155190029
 30
0.0
 11
514.804511472705
 21
-111.5248155190029
 31
0.0
  0
LINE
  5
505
330
20F
100
AcDbEntity
  8
0
  6
Continuous
 62
     9
100
AcDbLine
 10
506.8045114727048
 20
-111.5248155190029
 30
0.0
 11
486.8045114727048
 21
-111.5248155190029
 31
0.0
  0
LINE
  5
506
330
20F
100
AcDbEntity
  8
0
  6
Continuous
 62
     9
100
AcDbLine
 10
478.8045114727048
 20
-111.5248155190029
 30
0.0
 11
458.804511472705
 21
-111.5248155190029
 31
0.0
  0
LINE
  5
507
330
20F
100
AcDbEntity
  8
0
  6
Continuous
 62
     9
100
AcDbLine
 10
450.804511472705
 20
-111.5248155190029
 30
0.0
 11
430.8045114727049
 21
-111.5248155190029
 31
0.0
  0
LINE
  5
508
330
20F
100
AcDbEntity
  8
0
  6
Continuous
 62
     9
100
AcDbLine
 10
422.8045114727049
 20
-111.5248155190029
 30
0.0
 11
402.8045114727048
 21
-111.5248155190029
 31
0.0
  0
LINE
  5
509
330
20F
100
AcDbEntity
  8
0
  6
Continuous
 62
     9
100
AcDbLine
 10
394.8045114727051
 20
-111.5248155190029
 30
0.0
 11
374.804511472705
 21
-111.5248155190029
 31
0.0
  0
LINE
  5
50A
330
20F
100
AcDbEntity
  8
0
  6
Continuous
 62
     9
100
AcDbLine
 10
366.804511472705
 20
-111.5248155190029
 30
0.0
 11
346.8045114727051
 21
-111.5248155190029
 31
0.0
  0
LINE
  5
50B
330
20F
100
AcDbEntity
  8
0
  6
Continuous
 62
     9
100
AcDbLine
 10
338.804511472705
 20
-111.5248155190029
 30
0.0
 11
318.804511472705
 21
-111.5248155190029
 31
0.0
  0
LINE
  5
50C
330
20F
100
AcDbEntity
  8
0
  6
Continuous
 62
     9
100
AcDbLine
 10
310.804511472705
 20
-111.5248155190029
 30
0.0
 11
290.804511472705
 21
-111.5248155190029
 31
0.0
  0
LINE
  5
50D
330
20F
100
AcDbEntity
  8
0
  6
Continuous
 62
     9
100
AcDbLine
 10
1766.804511472705
 20
-110.0248155190029
 30
0.0
 11
1771.804511472705
 21
-110.0248155190029
 31
0.0
  0
LINE
  5
50E
330
20F
100
AcDbEntity
  8
0
  6
Continuous
 62
     9
100
AcDbLine
 10
1771.166213601705
 20
-109.3998155190029
 30
0.0
 11
1766.804511472705
 21
-109.3998155190029
 31
0.0
  0
LINE
  5
50F
330
20F
100
AcDbEntity
  8
0
  6
Continuous
 62
     9
100
AcDbLine
 10
1771.804511472705
 20
-106.2748155190029
 30
0.0
 11
1771.166213601705
 21
-106.2748155190029
 31
0.0
  0
LINE
  5
510
330
20F
100
AcDbEntity
  8
0
  6
Continuous
 62
     9
100
AcDbLine
 10
1771.804511472705
 20
-104.5248155190029
 30
0.0
 11
285.804511472705
 21
-104.5248155190029
 31
0.0
  0
LINE
  5
511
330
20F
100
AcDbEntity
  8
0
  6
Continuous
 62
     9
100
AcDbLine
 10
1094.804511472705
 20
-131.5248155190029
 30
0.0
 11
1094.804511472705
 21
-111.5248155190029
 31
0.0
  0
LINE
  5
512
330
20F
100
AcDbEntity
  8
0
  6
Continuous
 62
     9
100
AcDbLine
 10
1102.804511472705
 20
-111.5248155190029
 30
0.0
 11
1102.804511472705
 21
-131.5248155190029
 31
0.0
  0
LINE
  5
513
330
20F
100
AcDbEntity
  8
0
  6
Continuous
 62
     9
100
AcDbLine
 10
1122.804511472705
 20
-131.5248155190029
 30
0.0
 11
1122.804511472705
 21
-111.5248155190029
 31
0.0
  0
LINE
  5
514
330
20F
100
AcDbEntity
  8
0
  6
Continuous
 62
     9
100
AcDbLine
 10
1130.804511472705
 20
-111.5248155190029
 30
0.0
 11
1130.804511472705
 21
-131.5248155190029
 31
0.0
  0
LINE
  5
515
330
20F
100
AcDbEntity
  8
0
  6
Continuous
 62
     9
100
AcDbLine
 10
1150.804511472705
 20
-131.5248155190029
 30
0.0
 11
1150.804511472705
 21
-111.5248155190029
 31
0.0
  0
LINE
  5
516
330
20F
100
AcDbEntity
  8
0
  6
Continuous
 62
     9
100
AcDbLine
 10
1158.804511472705
 20
-111.5248155190029
 30
0.0
 11
1158.804511472705
 21
-131.5248155190029
 31
0.0
  0
LINE
  5
517
330
20F
100
AcDbEntity
  8
0
  6
Continuous
 62
     9
100
AcDbLine
 10
1178.804511472705
 20
-131.5248155190029
 30
0.0
 11
1178.804511472705
 21
-111.5248155190029
 31
0.0
  0
LINE
  5
518
330
20F
100
AcDbEntity
  8
0
  6
Continuous
 62
     9
100
AcDbLine
 10
1186.804511472705
 20
-111.5248155190029
 30
0.0
 11
1186.804511472705
 21
-131.5248155190029
 31
0.0
  0
LINE
  5
519
330
20F
100
AcDbEntity
  8
0
  6
Continuous
 62
     9
100
AcDbLine
 10
1206.804511472705
 20
-131.5248155190029
 30
0.0
 11
1206.804511472705
 21
-111.5248155190029
 31
0.0
  0
LINE
  5
51A
330
20F
100
AcDbEntity
  8
0
  6
Continuous
 62
     9
100
AcDbLine
 10
1214.804511472705
 20
-111.5248155190029
 30
0.0
 11
1214.804511472705
 21
-131.5248155190029
 31
0.0
  0
LINE
  5
51B
330
20F
100
AcDbEntity
  8
0
  6
Continuous
 62
     9
100
AcDbLine
 10
1234.804511472705
 20
-131.5248155190029
 30
0.0
 11
1234.804511472705
 21
-111.5248155190029
 31
0.0
  0
LINE
  5
51C
330
20F
100
AcDbEntity
  8
0
  6
Continuous
 62
     9
100
AcDbLine
 10
1242.804511472705
 20
-111.5248155190029
 30
0.0
 11
1242.804511472705
 21
-131.5248155190029
 31
0.0
  0
LINE
  5
51D
330
20F
100
AcDbEntity
  8
0
  6
Continuous
 62
     9
100
AcDbLine
 10
1262.804511472705
 20
-131.5248155190029
 30
0.0
 11
1262.804511472705
 21
-111.5248155190029
 31
0.0
  0
LINE
  5
51E
330
20F
100
AcDbEntity
  8
0
  6
Continuous
 62
     9
100
AcDbLine
 10
1270.804511472705
 20
-111.5248155190029
 30
0.0
 11
1270.804511472705
 21
-131.5248155190029
 31
0.0
  0
LINE
  5
51F
330
20F
100
AcDbEntity
  8
0
  6
Continuous
 62
     9
100
AcDbLine
 10
1290.804511472705
 20
-131.5248155190029
 30
0.0
 11
1290.804511472705
 21
-111.5248155190029
 31
0.0
  0
LINE
  5
520
330
20F
100
AcDbEntity
  8
0
  6
Continuous
 62
     9
100
AcDbLine
 10
1298.804511472705
 20
-111.5248155190029
 30
0.0
 11
1298.804511472705
 21
-131.5248155190029
 31
0.0
  0
LINE
  5
521
330
20F
100
AcDbEntity
  8
0
  6
Continuous
 62
     9
100
AcDbLine
 10
1318.804511472705
 20
-131.5248155190029
 30
0.0
 11
1318.804511472705
 21
-111.5248155190029
 31
0.0
  0
LINE
  5
522
330
20F
100
AcDbEntity
  8
0
  6
Continuous
 62
     9
100
AcDbLine
 10
1326.804511472705
 20
-111.5248155190029
 30
0.0
 11
1326.804511472705
 21
-131.5248155190029
 31
0.0
  0
LINE
  5
523
330
20F
100
AcDbEntity
  8
0
  6
Continuous
 62
     9
100
AcDbLine
 10
1346.804511472705
 20
-131.5248155190029
 30
0.0
 11
1346.804511472705
 21
-111.5248155190029
 31
0.0
  0
LINE
  5
524
330
20F
100
AcDbEntity
  8
0
  6
Continuous
 62
     9
100
AcDbLine
 10
1354.804511472705
 20
-111.5248155190029
 30
0.0
 11
1354.804511472705
 21
-131.5248155190029
 31
0.0
  0
LINE
  5
525
330
20F
100
AcDbEntity
  8
0
  6
Continuous
 62
     9
100
AcDbLine
 10
1374.804511472705
 20
-131.5248155190029
 30
0.0
 11
1374.804511472705
 21
-111.5248155190029
 31
0.0
  0
LINE
  5
526
330
20F
100
AcDbEntity
  8
0
  6
Continuous
 62
     9
100
AcDbLine
 10
1382.804511472705
 20
-111.5248155190029
 30
0.0
 11
1382.804511472705
 21
-131.5248155190029
 31
0.0
  0
LINE
  5
527
330
20F
100
AcDbEntity
  8
0
  6
Continuous
 62
     9
100
AcDbLine
 10
1402.804511472705
 20
-131.5248155190029
 30
0.0
 11
1402.804511472705
 21
-111.5248155190029
 31
0.0
  0
LINE
  5
528
330
20F
100
AcDbEntity
  8
0
  6
Continuous
 62
     9
100
AcDbLine
 10
1410.804511472705
 20
-111.5248155190029
 30
0.0
 11
1410.804511472705
 21
-131.5248155190029
 31
0.0
  0
LINE
  5
529
330
20F
100
AcDbEntity
  8
0
  6
Continuous
 62
     9
100
AcDbLine
 10
1430.804511472705
 20
-131.5248155190029
 30
0.0
 11
1430.804511472705
 21
-111.5248155190029
 31
0.0
  0
LINE
  5
52A
330
20F
100
AcDbEntity
  8
0
  6
Continuous
 62
     9
100
AcDbLine
 10
1438.804511472705
 20
-111.5248155190029
 30
0.0
 11
1438.804511472705
 21
-131.5248155190029
 31
0.0
  0
LINE
  5
52B
330
20F
100
AcDbEntity
  8
0
  6
Continuous
 62
     9
100
AcDbLine
 10
1458.804511472705
 20
-131.5248155190029
 30
0.0
 11
1458.804511472705
 21
-111.5248155190029
 31
0.0
  0
LINE
  5
52C
330
20F
100
AcDbEntity
  8
0
  6
Continuous
 62
     9
100
AcDbLine
 10
1466.804511472705
 20
-111.5248155190029
 30
0.0
 11
1466.804511472705
 21
-131.5248155190029
 31
0.0
  0
LINE
  5
52D
330
20F
100
AcDbEntity
  8
0
  6
Continuous
 62
     9
100
AcDbLine
 10
1486.804511472705
 20
-131.5248155190029
 30
0.0
 11
1486.804511472705
 21
-111.5248155190029
 31
0.0
  0
LINE
  5
52E
330
20F
100
AcDbEntity
  8
0
  6
Continuous
 62
     9
100
AcDbLine
 10
1494.804511472705
 20
-111.5248155190029
 30
0.0
 11
1494.804511472705
 21
-131.5248155190029
 31
0.0
  0
LINE
  5
52F
330
20F
100
AcDbEntity
  8
0
  6
Continuous
 62
     9
100
AcDbLine
 10
1514.804511472705
 20
-131.5248155190029
 30
0.0
 11
1514.804511472705
 21
-111.5248155190029
 31
0.0
  0
LINE
  5
530
330
20F
100
AcDbEntity
  8
0
  6
Continuous
 62
     9
100
AcDbLine
 10
1522.804511472705
 20
-111.5248155190029
 30
0.0
 11
1522.804511472705
 21
-131.5248155190029
 31
0.0
  0
LINE
  5
531
330
20F
100
AcDbEntity
  8
0
  6
Continuous
 62
     9
100
AcDbLine
 10
1542.804511472705
 20
-131.5248155190029
 30
0.0
 11
1542.804511472705
 21
-111.5248155190029
 31
0.0
  0
LINE
  5
532
330
20F
100
AcDbEntity
  8
0
  6
Continuous
 62
     9
100
AcDbLine
 10
1550.804511472705
 20
-111.5248155190029
 30
0.0
 11
1550.804511472705
 21
-131.5248155190029
 31
0.0
  0
LINE
  5
533
330
20F
100
AcDbEntity
  8
0
  6
Continuous
 62
     9
100
AcDbLine
 10
1570.804511472705
 20
-131.5248155190029
 30
0.0
 11
1570.804511472705
 21
-111.5248155190029
 31
0.0
  0
LINE
  5
534
330
20F
100
AcDbEntity
  8
0
  6
Continuous
 62
     9
100
AcDbLine
 10
1578.804511472705
 20
-111.5248155190029
 30
0.0
 11
1578.804511472705
 21
-131.5248155190029
 31
0.0
  0
LINE
  5
535
330
20F
100
AcDbEntity
  8
0
  6
Continuous
 62
     9
100
AcDbLine
 10
1598.804511472705
 20
-131.5248155190029
 30
0.0
 11
1598.804511472705
 21
-111.5248155190029
 31
0.0
  0
LINE
  5
536
330
20F
100
AcDbEntity
  8
0
  6
Continuous
 62
     9
100
AcDbLine
 10
1606.804511472705
 20
-111.5248155190029
 30
0.0
 11
1606.804511472705
 21
-131.5248155190029
 31
0.0
  0
LINE
  5
537
330
20F
100
AcDbEntity
  8
0
  6
Continuous
 62
     9
100
AcDbLine
 10
1626.804511472705
 20
-131.5248155190029
 30
0.0
 11
1626.804511472705
 21
-111.5248155190029
 31
0.0
  0
LINE
  5
538
330
20F
100
AcDbEntity
  8
0
  6
Continuous
 62
     9
100
AcDbLine
 10
1634.804511472705
 20
-111.5248155190029
 30
0.0
 11
1634.804511472705
 21
-131.5248155190029
 31
0.0
  0
LINE
  5
539
330
20F
100
AcDbEntity
  8
0
  6
Continuous
 62
     9
100
AcDbLine
 10
1654.804511472705
 20
-131.5248155190029
 30
0.0
 11
1654.804511472705
 21
-111.5248155190029
 31
0.0
  0
LINE
  5
53A
330
20F
100
AcDbEntity
  8
0
  6
Continuous
 62
     9
100
AcDbLine
 10
1662.804511472705
 20
-111.5248155190029
 30
0.0
 11
1662.804511472705
 21
-131.5248155190029
 31
0.0
  0
LINE
  5
53B
330
20F
100
AcDbEntity
  8
0
  6
Continuous
 62
     9
100
AcDbLine
 10
1682.804511472705
 20
-131.5248155190029
 30
0.0
 11
1682.804511472705
 21
-111.5248155190029
 31
0.0
  0
LINE
  5
53C
330
20F
100
AcDbEntity
  8
0
  6
Continuous
 62
     9
100
AcDbLine
 10
1690.804511472705
 20
-111.5248155190029
 30
0.0
 11
1690.804511472705
 21
-131.5248155190029
 31
0.0
  0
LINE
  5
53D
330
20F
100
AcDbEntity
  8
0
  6
Continuous
 62
     9
100
AcDbLine
 10
1710.804511472705
 20
-131.5248155190029
 30
0.0
 11
1710.804511472705
 21
-111.5248155190029
 31
0.0
  0
LINE
  5
53E
330
20F
100
AcDbEntity
  8
0
  6
Continuous
 62
     9
100
AcDbLine
 10
1718.804511472705
 20
-111.5248155190029
 30
0.0
 11
1718.804511472705
 21
-131.5248155190029
 31
0.0
  0
LINE
  5
53F
330
20F
100
AcDbEntity
  8
0
  6
Continuous
 62
     9
100
AcDbLine
 10
1738.804511472705
 20
-131.5248155190029
 30
0.0
 11
1738.804511472705
 21
-111.5248155190029
 31
0.0
  0
LINE
  5
540
330
20F
100
AcDbEntity
  8
0
  6
Continuous
 62
     9
100
AcDbLine
 10
1746.804511472705
 20
-111.5248155190029
 30
0.0
 11
1746.804511472705
 21
-131.5248155190029
 31
0.0
  0
LINE
  5
541
330
20F
100
AcDbEntity
  8
0
  6
Continuous
 62
     9
100
AcDbLine
 10
1766.804511472705
 20
-109.3998155190029
 30
0.0
 11
1766.804511472705
 21
-110.0248155190029
 31
0.0
  0
LINE
  5
542
330
20F
100
AcDbEntity
  8
0
  6
Continuous
 62
     9
100
AcDbLine
 10
1766.804511472705
 20
-131.5248155190029
 30
0.0
 11
1766.804511472705
 21
-111.5248155190029
 31
0.0
  0
LINE
  5
543
330
20F
100
AcDbEntity
  8
0
  6
Continuous
 62
     9
100
AcDbLine
 10
1771.166213601705
 20
-106.2748155190029
 30
0.0
 11
1771.166213601705
 21
-109.3998155190029
 31
0.0
  0
LINE
  5
544
330
20F
100
AcDbEntity
  8
0
  6
Continuous
 62
     9
100
AcDbLine
 10
1771.804511472705
 20
-110.0248155190029
 30
0.0
 11
1771.804511472705
 21
-106.2748155190029
 31
0.0
  0
LINE
  5
545
330
20F
100
AcDbEntity
  8
0
  6
Continuous
 62
     9
100
AcDbLine
 10
1773.804511472705
 20
-138.1185070180029
 30
0.0
 11
1773.804511472705
 21
-150.5250373850028
 31
0.0
  0
LINE
  5
546
330
20F
100
AcDbEntity
  8
0
  6
Continuous
 62
     9
100
AcDbLine
 10
1773.804511472705
 20
-138.1185070180029
 30
0.0
 11
1773.804511472705
 21
-106.5248155190029
 31
0.0
  0
LINE
  5
56D
102
{ACAD_REACTORS
330
10AE
102
}
330
20F
100
AcDbEntity
  8
0
  6
Continuous
 62
     9
100
AcDbLine
 10
283.804511472705
 20
178.5773220229971
 30
0.0
 11
283.804511472705
 21
162.5773220229971
 31
0.0
  0
LINE
  5
56E
330
20F
100
AcDbEntity
  8
0
  6
Continuous
 62
     7
100
AcDbLine
 10
283.804511472705
 20
165.0773220229971
 30
0.0
 11
283.804511472705
 21
168.4880439529972
 31
0.0
  0
LINE
  5
56F
102
{ACAD_REACTORS
330
107F
330
10AE
102
}
330
20F
100
AcDbEntity
  8
0
  6
Continuous
 62
     9
100
AcDbLine
 10
1771.769617455705
 20
142.612830240997
 30
0.0
 11
283.7054540302488
 21
163.5773220229971
 31
0.0
  0
LINE
  5
571
330
20F
100
AcDbEntity
  8
0
  6
Continuous
 62
     9
100
AcDbLine
 10
283.804511472705
 20
176.5773220229971
 30
0.0
 11
1773.804511472705
 21
176.5773220229971
 31
0.0
  0
LINE
  5
572
102
{ACAD_REACTORS
330
10AE
102
}
330
20F
100
AcDbEntity
  8
0
  6
Continuous
 62
     9
100
AcDbLine
 10
283.804511472705
 20
178.5773220229971
 30
0.0
 11
1773.804511472705
 21
178.5773220229971
 31
0.0
  0
LINE
  5
573
102
{ACAD_REACTORS
330
107F
102
}
330
20F
100
AcDbEntity
  8
0
  6
Continuous
 62
     9
100
AcDbLine
 10
1773.804511472705
 20
178.5773220229971
 30
0.0
 11
1773.804511472705
 21
176.5773220229971
 31
0.0
  0
LINE
  5
574
330
20F
100
AcDbEntity
  8
0
  6
Continuous
 62
     9
100
AcDbLine
 10
1773.804511472705
 20
176.5773220229971
 30
0.0
 11
1773.804511472705
 21
144.6125258194972
 31
0.0
  0
ARC
  5
C0A
102
{ACAD_REACTORS
330
1048
102
}
330
20F
100
AcDbEntity
  8
0
  6
Continuous
 62
     9
100
AcDbCircle
 10
1771.804511472705
 20
-106.5248155190029
 30
0.0
 40
2.0
100
AcDbArc
 50
0.0
 51
90.0
  0
ARC
  5
C0B
102
{ACAD_REACTORS
330
1048
102
}
330
20F
100
AcDbEntity
  8
0
  6
Continuous
 62
     9
100
AcDbCircle
 10
285.804511472705
 20
-106.5248155190029
 30
0.0
 40
2.0
100
AcDbArc
 50
90.0
 51
180.0
  0
ARC
  5
C12
330
20F
100
AcDbEntity
  8
0
  6
Continuous
 62
     9
100
AcDbCircle
 10
1771.804511472705
 20
144.6125258194972
 30
0.0
 40
2.0
100
AcDbArc
 50
269.0003093316
 51
0.0
  0
DIMENSION
  5
1039
102
{ACAD_XDICTIONARY
360
1047
102
}
102
{ACAD_REACTORS
330
1048
102
}
330
20F
100
AcDbEntity
  8
P-0000
  6
Continuous
100
AcDbDimension
  2
*D33
 10
1773.804511472705
 20
-5.334003489805581
 30
0.0
 11
1028.804511472705
 21
13.66599651019442
 31
0.0
 70
    32
 71
     5
 42
1490.0
  3
883N99122_001_00149479900
100
AcDbAlignedDimension
 13
283.804511472705
 23
-106.5248155190029
 33
0.0
 14
1773.804511472705
 24
-106.5248155190029
 34
0.0
100
AcDbRotatedDimension
1001
ACAD_DSTYLE_DIMINSPECT
1070
   396
1000
100%
1070
   395
1000

1070
   394
1070
    33
1070
   393
1070
     0
1001
ACAD
1000
DSTYLE
1002
{
1070
    77
1070
     3
1070
   140
1040
15.0
1070
   288
1070
     1
1002
}
  0
DIMENSION
  5
1070
102
{ACAD_XDICTIONARY
360
107E
102
}
102
{ACAD_REACTORS
330
107F
102
}
330
20F
100
AcDbEntity
  8
P-0000
  6
Continuous
100
AcDbDimension
  2
*D34
 10
1815.595986577559
 20
142.612830240997
 30
0.0
 11
1815.595986577559
 21
82.36179436513884
 31
0.0
 70
   160
 71
     5
 42
35.9644917820001
  3
883N99122_001_00149479900
100
AcDbAlignedDimension
 13
1773.804511472705
 23
178.5773220229971
 33
0.0
 14
1771.769617455705
 24
142.612830240997
 34
0.0
 50
90.0
100
AcDbRotatedDimension
1001
ACAD_DSTYLE_DIMINSPECT
1070
   396
1000
100%
1070
   395
1000

1070
   394
1070
    33
1070
   393
1070
     0
1001
ACAD
1000
DSTYLE
1002
{
1070
    77
1070
     3
1070
   140
1040
15.0
1070
   271
1070
     0
1070
   288
1070
     1
1002
}
  0
DIMENSION
  5
109E
102
{ACAD_XDICTIONARY
360
10AD
102
}
102
{ACAD_REACTORS
330
10AE
102
}
330
20F
100
AcDbEntity
  8
P-0000
  6
Continuous
100
AcDbDimension
  2
*D35
 10
265.2840928818205
 20
163.5759264588881
 30
0.0
 11
265.2840928818205
 21
89.65721619671038
 31
0.0
 70
   160
 71
     5
 42
15.00139556410897
  3
883N99122_001_00149479900
100
AcDbAlignedDimension
 13
283.804511472705
 23
178.5773220229971
 33
0.0
 14
283.8045114727052
 24
163.5759264588881
 34
0.0
 50
90.00000000000005
100
AcDbRotatedDimension
1001
ACAD_DSTYLE_DIMINSPECT
1070
   396
1000
100%
1070
   395
1000

1070
   394
1070
    33
1070
   393
1070
     0
1001
ACAD
1000
DSTYLE
1002
{
1070
    77
1070
     3
1070
   140
1040
15.0
1070
   288
1070
     1
1002
}
  0
LINE
  5
12EA
330
20F
100
AcDbEntity
  8
0
100
AcDbLine
 10
283.804511472705
 20
162.5773220229971
 30
0.0
 11
354.5190100971057
 21
162.5796700058956
 31
0.0
  0
ENDSEC
  0
SECTION
  2
OBJECTS
  0
DICTIONARY
  5
C
330
0
100
AcDbDictionary
281
     1
  3
ACAD_2007HEADERVARS_RT
350
13D6
  3
ACAD_COLOR
350
C72
  3
ACAD_GROUP
350
D
  3
ACAD_IMAGE_DICT
350
C39
  3
ACAD_IMAGE_VARS
350
C3A
  3
ACAD_LAYOUT
350
1A
  3
ACAD_MATERIAL
350
C45
  3
ACAD_MLEADERSTYLE
350
C85
  3
ACAD_MLINESTYLE
350
17
  3
ACAD_PLOTSETTINGS
350
19
  3
ACAD_PLOTSTYLENAME
350
E
  3
ACAD_SCALELIST
350
C73
  3
ACAD_TABLESTYLE
350
C3B
  3
ACAD_VISUALSTYLE
350
C5E
  3
ACDB_RECOMPOSE_DATA
350
13D4
  3
AcDbVariableDictionary
350
11FD
  3
AcmDictionary
350
CDF
  3
AMG
350
C89
  3
AMGSNAPSETTINGS
350
D2D
  3
DWGPROPS
350
13D5
  0
DICTIONARY
  5
E27
330
2
100
AcDbDictionary
280
     1
281
     1
  3
ACAD_LAYERSTATES
360
E28
  0
DICTIONARY
  5
1047
330
1039
100
AcDbDictionary
280
     1
281
     1
  3
ACAD_DIMASSOC
360
1048
  0
DICTIONARY
  5
107E
330
1070
100
AcDbDictionary
280
     1
281
     1
  3
ACAD_DIMASSOC
360
107F
  0
DICTIONARY
  5
10AD
330
109E
100
AcDbDictionary
280
     1
281
     1
  3
ACAD_DIMASSOC
360
10AE
  0
DICTIONARY
  5
13D6
102
{ACAD_REACTORS
330
C
102
}
330
C
100
AcDbDictionary
281
     1
  3
DIMJOGANG
350
13D7
  3
DIMLTEX1
350
13D9
  3
DIMLTEX2
350
13DA
  3
DIMLTYPE
350
13D8
  0
DICTIONARY
  5
C72
102
{ACAD_REACTORS
330
C
102
}
330
C
100
AcDbDictionary
281
     1
  0
DICTIONARY
  5
D
102
{ACAD_REACTORS
330
C
102
}
330
C
100
AcDbDictionary
281
     1
  0
DICTIONARY
  5
C39
330
C
100
AcDbDictionary
281
     1
  3
01550585_img_1
350
C3E
  0
RASTERVARIABLES
  5
C3A
330
C
100
AcDbRasterVariables
 90
        0
 70
     0
 71
     1
 72
     1
  0
DICTIONARY
  5
1A
102
{ACAD_REACTORS
330
C
102
}
330
C
100
AcDbDictionary
281
     1
  3
Layout1
350
C3D
  3
Model
350
C3C
  0
DICTIONARY
  5
C45
102
{ACAD_REACTORS
330
C
102
}
330
C
100
AcDbDictionary
281
     1
  3
ByBlock
350
C4E
  3
ByLayer
350
C46
  3
Global
350
C56
  0
DICTIONARY
  5
C85
102
{ACAD_REACTORS
330
C
102
}
330
C
100
AcDbDictionary
281
     1
  3
Standard
350
C86
  0
DICTIONARY
  5
17
102
{ACAD_REACTORS
330
C
102
}
330
C
100
AcDbDictionary
281
     1
  3
Standard
350
18
  0
DICTIONARY
  5
19
102
{ACAD_REACTORS
330
C
102
}
330
C
100
AcDbDictionary
281
     1
  0
ACDBDICTIONARYWDFLT
  5
E
102
{ACAD_REACTORS
330
C
102
}
330
C
100
AcDbDictionary
281
     1
  3
Normal
350
F
100
AcDbDictionaryWithDefault
340
F
  0
DICTIONARY
  5
C73
102
{ACAD_REACTORS
330
C
102
}
330
C
100
AcDbDictionary
281
     1
  3
A0
350
C74
  3
A1
350
C75
  3
A2
350
C76
  3
A3
350
C77
  3
A4
350
C78
  3
A5
350
C79
  3
A6
350
C7A
  3
A7
350
C7B
  3
A8
350
C7C
  3
A9
350
C7D
  3
B0
350
C7E
  3
B1
350
C7F
  3
B2
350
C80
  3
B3
350
C81
  3
B4
350
C82
  3
B5
350
C83
  3
B6
350
C84
  0
DICTIONARY
  5
C3B
330
C
100
AcDbDictionary
281
     1
  3
Standard
350
C3F
  3
Standard1
350
C40
  0
DICTIONARY
  5
C5E
102
{ACAD_REACTORS
330
C
102
}
330
C
100
AcDbDictionary
281
     1
  3
2dWireframe
350
C64
  3
3D Hidden
350
C66
  3
3dWireframe
350
C65
  3
Basic
350
C63
  3
Brighten
350
C6A
  3
ColorChange
350
C6E
  3
Conceptual
350
C67
  3
Dim
350
C69
  3
EdgeColorOff
350
C71
  3
Facepattern
350
C6D
  3
Flat
350
C5F
  3
FlatWithEdges
350
C60
  3
Gouraud
350
C61
  3
GouraudWithEdges
350
C62
  3
JitterOff
350
C6F
  3
Linepattern
350
C6C
  3
OverhangOff
350
C70
  3
Realistic
350
C68
  3
Thicken
350
C6B
  0
XRECORD
  5
13D4
102
{ACAD_REACTORS
330
C
102
}
330
C
100
AcDbXrecord
280
     1
 90
        1
330
C3F
330
C40
  0
DICTIONARY
  5
11FD
102
{ACAD_REACTORS
330
C
102
}
330
C
100
AcDbDictionary
281
     1
  3
CANNOSCALE
350
1201
  3
CMLEADERSTYLE
350
11FF
  3
CTABLESTYLE
350
11FE
  3
DIMASSOC
350
1208
  3
HIDETEXT
350
1207
  3
INDEXCTL
350
1206
  3
LAYEREVAL
350
1203
  3
LAYERNOTIFY
350
1204
  3
LIGHTINGUNITS
350
1202
  3
MSLTSCALE
350
1200
  3
SORTENTS
350
1205
  3
XCLIPFRAME
350
13D1
  0
DICTIONARY
  5
CDF
102
{ACAD_REACTORS
330
C
102
}
330
C
100
AcDbDictionary
281
     1
  3
AcmStdDictionary
350
CEB
  0
DICTIONARY
  5
C89
102
{ACAD_REACTORS
330
C
102
}
330
C
100
AcDbDictionary
281
     1
  0
DICTIONARY
  5
D2D
102
{ACAD_REACTORS
330
C
102
}
330
C
100
AcDbDictionary
281
     1
  0
XRECORD
  5
13D5
102
{ACAD_REACTORS
330
C
102
}
330
C
100
AcDbXrecord
280
     1
  1
DWGPROPS COOKIE
  2

  3

  4

  6

  7

  8
MAlaie
  9

300
=
301
=
302
=
303
=
304
=
305
=
306
=
307
=
308
=
309
=
 40
0.0305155787037037
 41
2456701.643440776
 42
2456702.341317049
  1

 90
        0
  0
DICTIONARY
  5
E28
102
{ACAD_REACTORS
330
E27
102
}
330
E27
100
AcDbDictionary
281
     1
  0
DIMASSOC
  5
1048
102
{ACAD_REACTORS
330
1047
102
}
330
1047
100
AcDbDimAssoc
330
1039
 90
        3
 70
     0
 71
     0
  1
AcDbOsnapPointRef
 72
     1
331
C0B
 73
     0
 91
        0
 40
0.0
 10
0.0
 20
0.0
 30
2.000000000000000E+50
 75
     0
  1
AcDbOsnapPointRef
 72
    13
331
C0A
 73
     0
 91
        0
 40
0.0
 10
0.0
 20
0.0
 30
2.000000000000000E+50
 75
     0
  0
DIMASSOC
  5
107F
102
{ACAD_REACTORS
330
107E
102
}
330
107E
100
AcDbDimAssoc
330
1070
 90
        3
 70
     0
 71
     0
  1
AcDbOsnapPointRef
 72
    13
331
573
 73
     0
 91
        0
 40
0.0
 10
0.0
 20
0.0
 30
2.000000000000000E+50
 75
     0
  1
AcDbOsnapPointRef
 72
    13
331
56F
 73
     0
 91
        0
 40
0.0
 10
0.0
 20
0.0
 30
2.000000000000000E+50
 75
     0
  0
DIMASSOC
  5
10AE
102
{ACAD_REACTORS
330
10AD
102
}
330
10AD
100
AcDbDimAssoc
330
109E
 90
        3
 70
     0
 71
     0
  1
AcDbOsnapPointRef
 72
    13
331
572
 73
     0
 91
        0
 40
0.0
 10
0.0
 20
0.0
 30
2.000000000000000E+50
 75
     0
  1
AcDbOsnapPointRef
 72
    11
331
56D
 73
     0
 91
        0
 40
1.0
 10
0.0
 20
0.0
 30
0.0
332
56F
 74
     0
 92
        0
 75
     0
  0
XRECORD
  5
13D7
102
{ACAD_REACTORS
330
13D6
102
}
330
13D6
100
AcDbXrecord
280
     1
 40
1.570796326794896
  0
XRECORD
  5
13D9
102
{ACAD_REACTORS
330
13D6
102
}
330
13D6
100
AcDbXrecord
280
     1
340
14
  0
XRECORD
  5
13DA
102
{ACAD_REACTORS
330
13D6
102
}
330
13D6
100
AcDbXrecord
280
     1
340
14
  0
XRECORD
  5
13D8
102
{ACAD_REACTORS
330
13D6
102
}
330
13D6
100
AcDbXrecord
280
     1
340
14
  0
IMAGEDEF
  5
C3E
102
{ACAD_REACTORS
330
C39
102
}
330
C39
100
AcDbRasterImageDef
 90
        0
  1
01550585_img_1.jpg
 10
230.0
 20
73.0
 11
0.1693333333
 21
0.1693333333
280
     1
281
     0
  0
LAYOUT
  5
C3D
102
{ACAD_XDICTIONARY
360
13DD
102
}
102
{ACAD_REACTORS
330
1A
102
}
330
1A
100
AcDbPlotSettings
  1

  2
none_device
  4
ISO_A3_(420.00_x_297.00_MM)
  6

 40
0.0
 41
0.0
 42
0.0
 43
0.0
 44
420.0
 45
297.0
 46
0.0
 47
0.0
 48
0.0
 49
0.0
140
0.0
141
0.0
142
1.0
143
1.0
 70
     0
 72
     1
 73
     0
 74
     0
  7

 75
     0
147
1.0
148
0.0
149
0.0
100
AcDbLayout
  1
Layout1
 70
     1
 71
     1
 10
0.0
 20
0.0
 11
12.0
 21
9.0
 12
0.0
 22
0.0
 32
0.0
 14
1.000000000000000E+20
 24
1.000000000000000E+20
 34
1.000000000000000E+20
 15
-1.000000000000000E+20
 25
-1.000000000000000E+20
 35
-1.000000000000000E+20
146
0.0
 13
0.0
 23
0.0
 33
0.0
 16
1.0
 26
0.0
 36
0.0
 17
0.0
 27
1.0
 37
0.0
 76
     0
330
210
  0
LAYOUT
  5
C3C
102
{ACAD_XDICTIONARY
360
13DB
102
}
102
{ACAD_REACTORS
330
1A
102
}
330
1A
100
AcDbPlotSettings
  1

  2
none_device
  4
ISO_A3_(420.00_x_297.00_MM)
  6

 40
0.0
 41
0.0
 42
0.0
 43
0.0
 44
420.0
 45
297.0
 46
0.0
 47
0.0
 48
0.0
 49
0.0
140
0.0
141
0.0
142
1.0
143
1.0
 70
  1024
 72
     1
 73
     0
 74
     0
  7

 75
     0
147
1.0
148
0.0
149
0.0
100
AcDbLayout
  1
Model
 70
     0
 71
     0
 10
0.0
 20
0.0
 11
420.0
 21
297.0
 12
0.0
 22
0.0
 32
0.0
 14
0.0
 24
0.0
 34
0.0
 15
0.0
 25
0.0
 35
0.0
146
0.0
 13
0.0
 23
0.0
 33
0.0
 16
1.0
 26
0.0
 36
0.0
 17
0.0
 27
1.0
 37
0.0
 76
     0
330
20F
331
1F4
  0
MATERIAL
  5
C4E
102
{ACAD_XDICTIONARY
360
C4F
102
}
102
{ACAD_REACTORS
330
C45
102
}
330
C45
100
AcDbMaterial
  1
ByBlock
 72
     0
 43
0.0008202099737533
 43
0.0
 43
0.0
 43
0.0
 43
0.0
 43
0.0008202099737533
 43
0.0
 43
0.0
 43
0.0
 43
0.0
 43
1.0
 43
0.0
 43
0.0
 43
0.0
 43
0.0
 43
1.0
 77
     0
 47
0.0008202099737533
 47
0.0
 47
0.0
 47
0.0
 47
0.0
 47
0.0008202099737533
 47
0.0
 47
0.0
 47
0.0
 47
0.0
 47
1.0
 47
0.0
 47
0.0
 47
0.0
 47
0.0
 47
1.0
171
     0
 49
0.0008202099737533
 49
0.0
 49
0.0
 49
0.0
 49
0.0
 49
0.0008202099737533
 49
0.0
 49
0.0
 49
0.0
 49
0.0
 49
1.0
 49
0.0
 49
0.0
 49
0.0
 49
0.0
 49
1.0
175
     0
142
0.0008202099737533
142
0.0
142
0.0
142
0.0
142
0.0
142
0.0008202099737533
142
0.0
142
0.0
142
0.0
142
0.0
142
1.0
142
0.0
142
0.0
142
0.0
142
0.0
142
1.0
179
     0
144
0.0008202099737533
144
0.0
144
0.0
144
0.0
144
0.0
144
0.0008202099737533
144
0.0
144
0.0
144
0.0
144
0.0
144
1.0
144
0.0
144
0.0
144
0.0
144
0.0
144
1.0
147
0.0008202099737533
147
0.0
147
0.0
147
0.0
147
0.0
147
0.0008202099737533
147
0.0
147
0.0
147
0.0
147
0.0
147
1.0
147
0.0
147
0.0
147
0.0
147
0.0
147
1.0
  0
MATERIAL
  5
C46
102
{ACAD_XDICTIONARY
360
C47
102
}
102
{ACAD_REACTORS
330
C45
102
}
330
C45
100
AcDbMaterial
  1
ByLayer
 72
     0
 43
0.0008202099737533
 43
0.0
 43
0.0
 43
0.0
 43
0.0
 43
0.0008202099737533
 43
0.0
 43
0.0
 43
0.0
 43
0.0
 43
1.0
 43
0.0
 43
0.0
 43
0.0
 43
0.0
 43
1.0
 77
     0
 47
0.0008202099737533
 47
0.0
 47
0.0
 47
0.0
 47
0.0
 47
0.0008202099737533
 47
0.0
 47
0.0
 47
0.0
 47
0.0
 47
1.0
 47
0.0
 47
0.0
 47
0.0
 47
0.0
 47
1.0
171
     0
 49
0.0008202099737533
 49
0.0
 49
0.0
 49
0.0
 49
0.0
 49
0.0008202099737533
 49
0.0
 49
0.0
 49
0.0
 49
0.0
 49
1.0
 49
0.0
 49
0.0
 49
0.0
 49
0.0
 49
1.0
175
     0
142
0.0008202099737533
142
0.0
142
0.0
142
0.0
142
0.0
142
0.0008202099737533
142
0.0
142
0.0
142
0.0
142
0.0
142
1.0
142
0.0
142
0.0
142
0.0
142
0.0
142
1.0
179
     0
144
0.0008202099737533
144
0.0
144
0.0
144
0.0
144
0.0
144
0.0008202099737533
144
0.0
144
0.0
144
0.0
144
0.0
144
1.0
144
0.0
144
0.0
144
0.0
144
0.0
144
1.0
147
0.0008202099737533
147
0.0
147
0.0
147
0.0
147
0.0
147
0.0008202099737533
147
0.0
147
0.0
147
0.0
147
0.0
147
1.0
147
0.0
147
0.0
147
0.0
147
0.0
147
1.0
  0
MATERIAL
  5
C56
102
{ACAD_XDICTIONARY
360
C57
102
}
102
{ACAD_REACTORS
330
C45
102
}
330
C45
100
AcDbMaterial
  1
Global
 72
     0
 43
0.0008202099737533
 43
0.0
 43
0.0
 43
0.0
 43
0.0
 43
0.0008202099737533
 43
0.0
 43
0.0
 43
0.0
 43
0.0
 43
1.0
 43
0.0
 43
0.0
 43
0.0
 43
0.0
 43
1.0
 77
     0
 47
0.0008202099737533
 47
0.0
 47
0.0
 47
0.0
 47
0.0
 47
0.0008202099737533
 47
0.0
 47
0.0
 47
0.0
 47
0.0
 47
1.0
 47
0.0
 47
0.0
 47
0.0
 47
0.0
 47
1.0
171
     0
 49
0.0008202099737533
 49
0.0
 49
0.0
 49
0.0
 49
0.0
 49
0.0008202099737533
 49
0.0
 49
0.0
 49
0.0
 49
0.0
 49
1.0
 49
0.0
 49
0.0
 49
0.0
 49
0.0
 49
1.0
175
     0
142
0.0008202099737533
142
0.0
142
0.0
142
0.0
142
0.0
142
0.0008202099737533
142
0.0
142
0.0
142
0.0
142
0.0
142
1.0
142
0.0
142
0.0
142
0.0
142
0.0
142
1.0
179
     0
144
0.0008202099737533
144
0.0
144
0.0
144
0.0
144
0.0
144
0.0008202099737533
144
0.0
144
0.0
144
0.0
144
0.0
144
1.0
144
0.0
144
0.0
144
0.0
144
0.0
144
1.0
147
0.0008202099737533
147
0.0
147
0.0
147
0.0
147
0.0
147
0.0008202099737533
147
0.0
147
0.0
147
0.0
147
0.0
147
1.0
147
0.0
147
0.0
147
0.0
147
0.0
147
1.0
  0
MLEADERSTYLE
  5
C86
102
{ACAD_REACTORS
330
C85
102
}
330
C85
100
AcDbMLeaderStyle
170
     2
171
     1
172
     0
 90
        2
 40
0.0
 41
0.0
173
     1
 91
-1056964608
340
14
 92
       -2
290
     1
 42
2.0
291
     1
 43
0.36
  3
Standard
 44
4.0
300

342
11
174
     1
178
     6
175
     1
176
     0
 93
-1056964608
 45
4.0
292
     0
297
     0
 46
4.0
 94
-1056964608
 47
1.0
 49
1.0
140
1.0
293
     1
141
0.0
294
     1
177
     0
142
1.0
295
     0
296
     0
143
0.125
1001
ACAD_MLEADERVER
1070
     2
  0
MLINESTYLE
  5
18
102
{ACAD_REACTORS
330
17
102
}
330
17
100
AcDbMlineStyle
  2
STANDARD
 70
     0
  3

 62
   256
 51
90.0
 52
90.0
 71
     2
 49
0.5
 62
   256
  6
BYLAYER
 49
-0.5
 62
   256
  6
BYLAYER
  0
ACDBPLACEHOLDER
  5
F
102
{ACAD_REACTORS
330
E
102
}
330
E
  0
SCALE
  5
C74
102
{ACAD_REACTORS
330
C73
102
}
330
C73
100
AcDbScale
 70
     0
300
1:1
140
1.0
141
1.0
290
     1
  0
SCALE
  5
C75
102
{ACAD_REACTORS
330
C73
102
}
330
C73
100
AcDbScale
 70
     0
300
1:2
140
1.0
141
2.0
290
     0
  0
SCALE
  5
C76
102
{ACAD_REACTORS
330
C73
102
}
330
C73
100
AcDbScale
 70
     0
300
1:4
140
1.0
141
4.0
290
     0
  0
SCALE
  5
C77
102
{ACAD_REACTORS
330
C73
102
}
330
C73
100
AcDbScale
 70
     0
300
1:5
140
1.0
141
5.0
290
     0
  0
SCALE
  5
C78
102
{ACAD_REACTORS
330
C73
102
}
330
C73
100
AcDbScale
 70
     0
300
1:8
140
1.0
141
8.0
290
     0
  0
SCALE
  5
C79
102
{ACAD_REACTORS
330
C73
102
}
330
C73
100
AcDbScale
 70
     0
300
1:10
140
1.0
141
10.0
290
     0
  0
SCALE
  5
C7A
102
{ACAD_REACTORS
330
C73
102
}
330
C73
100
AcDbScale
 70
     0
300
1:16
140
1.0
141
16.0
290
     0
  0
SCALE
  5
C7B
102
{ACAD_REACTORS
330
C73
102
}
330
C73
100
AcDbScale
 70
     0
300
1:20
140
1.0
141
20.0
290
     0
  0
SCALE
  5
C7C
102
{ACAD_REACTORS
330
C73
102
}
330
C73
100
AcDbScale
 70
     0
300
1:30
140
1.0
141
30.0
290
     0
  0
SCALE
  5
C7D
102
{ACAD_REACTORS
330
C73
102
}
330
C73
100
AcDbScale
 70
     0
300
1:40
140
1.0
141
40.0
290
     0
  0
SCALE
  5
C7E
102
{ACAD_REACTORS
330
C73
102
}
330
C73
100
AcDbScale
 70
     0
300
1:50
140
1.0
141
50.0
290
     0
  0
SCALE
  5
C7F
102
{ACAD_REACTORS
330
C73
102
}
330
C73
100
AcDbScale
 70
     0
300
1:100
140
1.0
141
100.0
290
     0
  0
SCALE
  5
C80
102
{ACAD_REACTORS
330
C73
102
}
330
C73
100
AcDbScale
 70
     0
300
2:1
140
2.0
141
1.0
290
     0
  0
SCALE
  5
C81
102
{ACAD_REACTORS
330
C73
102
}
330
C73
100
AcDbScale
 70
     0
300
4:1
140
4.0
141
1.0
290
     0
  0
SCALE
  5
C82
102
{ACAD_REACTORS
330
C73
102
}
330
C73
100
AcDbScale
 70
     0
300
8:1
140
8.0
141
1.0
290
     0
  0
SCALE
  5
C83
102
{ACAD_REACTORS
330
C73
102
}
330
C73
100
AcDbScale
 70
     0
300
10:1
140
10.0
141
1.0
290
     0
  0
SCALE
  5
C84
102
{ACAD_REACTORS
330
C73
102
}
330
C73
100
AcDbScale
 70
     0
300
100:1
140
100.0
141
1.0
290
     0
  0
TABLESTYLE
  5
C3F
102
{ACAD_XDICTIONARY
360
120A
102
}
102
{ACAD_REACTORS
330
C3B
102
}
330
C3B
100
AcDbTableStyle
  3
Standard
 70
     0
 71
     0
 40
0.06
 41
0.06
280
     1
281
     1
  7
STANDARD
140
0.18
170
     1
 62
     0
 63
     7
283
     0
274
    -2
284
     1
 64
     0
275
    -2
285
     1
 65
     0
276
    -2
286
     1
 66
     0
277
    -2
287
     1
 67
     0
278
    -2
288
     1
 68
     0
279
    -2
289
     1
 69
     0
  7
STANDARD
140
0.18
170
     1
 62
     0
 63
     7
283
     0
274
    -2
284
     1
 64
     0
275
    -2
285
     1
 65
     0
276
    -2
286
     1
 66
     0
277
    -2
287
     1
 67
     0
278
    -2
288
     1
 68
     0
279
    -2
289
     1
 69
     0
  7
STANDARD
140
0.18
170
     1
 62
     0
 63
     7
283
     0
274
    -2
284
     1
 64
     0
275
    -2
285
     1
 65
     0
276
    -2
286
     1
 66
     0
277
    -2
287
     1
 67
     0
278
    -2
288
     1
 68
     0
279
    -2
289
     1
 69
     0
  0
TABLESTYLE
  5
C40
102
{ACAD_XDICTIONARY
360
120C
102
}
102
{ACAD_REACTORS
330
C3B
102
}
330
C3B
100
AcDbTableStyle
  3
Standard1
 70
     1
 71
     0
 40
0.06
 41
0.06
280
     1
281
     1
  7
STANDARD
140
0.18
170
     1
 62
     0
 63
     7
283
     0
274
    -2
284
     1
 64
     0
275
    -2
285
     1
 65
     0
276
    -2
286
     1
 66
     0
277
    -2
287
     1
 67
     0
278
    -2
288
     1
 68
     0
279
    -2
289
     1
 69
     0
  7
STANDARD
140
0.18
170
     1
 62
     0
 63
     7
283
     0
274
    -2
284
     1
 64
     0
275
    -2
285
     1
 65
     0
276
    -2
286
     1
 66
     0
277
    -2
287
     1
 67
     0
278
    -2
288
     1
 68
     0
279
    -2
289
     1
 69
     0
  7
STANDARD
140
0.18
170
     1
 62
     0
 63
     7
283
     0
274
    -2
284
     1
 64
     0
275
    -2
285
     1
 65
     0
276
    -2
286
     1
 66
     0
277
    -2
287
     1
 67
     0
278
    -2
288
     1
 68
     0
279
    -2
289
     1
 69
     0
  0
VISUALSTYLE
  5
C64
102
{ACAD_XDICTIONARY
360
13EB
102
}
102
{ACAD_REACTORS
330
C5E
102
}
330
C5E
100
AcDbVisualStyle
  2

 70
     4
 71
     0
 72
     2
 73
     0
 90
        0
 40
-0.6
 41
-30.0
 62
     5
 63
     7
 74
     1
 91
        4
 64
     7
 65
   257
 75
     1
175
     1
 42
1.0
 92
        0
 66
   257
 43
1.0
 76
     1
 77
     6
 78
     2
 67
     7
 79
     5
170
     0
171
     0
290
     0
174
     0
 93
        1
 44
0.0
173
     0
291
     0
 45
0.0
1001
ACAD
1000
AcDbSavedByObjectVersion
1070
     0
  0
VISUALSTYLE
  5
C66
102
{ACAD_XDICTIONARY
360
13EF
102
}
102
{ACAD_REACTORS
330
C5E
102
}
330
C5E
100
AcDbVisualStyle
  2

 70
     6
 71
     1
 72
     2
 73
     2
 90
        0
 40
-0.6
 41
-30.0
 62
     5
 63
     7
 74
     2
 91
        2
 64
     7
 65
   257
 75
     2
175
     1
 42
179.0
 92
        0
 66
   257
 43
1.0
 76
     1
 77
     6
 78
     2
 67
     7
 79
     3
170
     0
171
     0
290
     0
174
     0
 93
        1
 44
0.0
173
     0
291
     0
 45
0.0
1001
ACAD
1000
AcDbSavedByObjectVersion
1070
     0
  0
VISUALSTYLE
  5
C65
102
{ACAD_XDICTIONARY
360
13ED
102
}
102
{ACAD_REACTORS
330
C5E
102
}
330
C5E
100
AcDbVisualStyle
  2

 70
     5
 71
     0
 72
     2
 73
     0
 90
        0
 40
-0.6
 41
-30.0
 62
     5
 63
     7
 74
     1
 91
        4
 64
     7
 65
   257
 75
     1
175
     1
 42
1.0
 92
        0
 66
   257
 43
1.0
 76
     1
 77
     6
 78
     2
 67
     7
 79
     5
170
     0
171
     0
290
     0
174
     0
 93
        1
 44
0.0
173
     0
291
     0
 45
0.0
1001
ACAD
1000
AcDbSavedByObjectVersion
1070
     0
  0
VISUALSTYLE
  5
C63
102
{ACAD_XDICTIONARY
360
13E9
102
}
102
{ACAD_REACTORS
330
C5E
102
}
330
C5E
100
AcDbVisualStyle
  2

 70
     7
 71
     1
 72
     0
 73
     1
 90
        0
 40
-0.6
 41
-30.0
 62
     5
 63
     7
 74
     0
 91
        4
 64
     7
 65
   257
 75
     1
175
     1
 42
1.0
 92
        8
 66
     7
 43
1.0
 76
     1
 77
     6
 78
     2
 67
     7
 79
     5
170
     0
171
     0
290
     0
174
     0
 93
        1
 44
0.0
173
     0
291
     1
 45
0.0
1001
ACAD
1000
AcDbSavedByObjectVersion
1070
     0
  0
VISUALSTYLE
  5
C6A
102
{ACAD_XDICTIONARY
360
13F7
102
}
102
{ACAD_REACTORS
330
C5E
102
}
330
C5E
100
AcDbVisualStyle
  2

 70
    12
 71
     2
 72
     2
 73
     0
 90
        0
 40
-0.6
 41
-30.0
 62
     5
 63
     7
 74
     1
 91
        4
 64
     7
 65
   257
 75
     1
175
     1
 42
1.0
 92
        8
 66
     7
 43
1.0
 76
     1
 77
     6
 78
     2
 67
     7
 79
     5
170
     0
171
     0
290
     0
174
     0
 93
        1
 44
50.0
173
     0
291
     1
 45
0.0
1001
ACAD
1000
AcDbSavedByObjectVersion
1070
     0
  0
VISUALSTYLE
  5
C6E
102
{ACAD_XDICTIONARY
360
13FF
102
}
102
{ACAD_REACTORS
330
C5E
102
}
330
C5E
100
AcDbVisualStyle
  2

 70
    16
 71
     2
 72
     2
 73
     3
 90
        0
 40
-0.6
 41
-30.0
 62
     5
 63
     8
 74
     1
 91
        4
 64
     7
 65
   257
 75
     1
175
     1
 42
1.0
 92
        8
 66
     8
 43
1.0
 76
     1
 77
     6
 78
     2
 67
     7
 79
     5
170
     0
171
     0
290
     0
174
     0
 93
        1
 44
0.0
173
     0
291
     1
 45
0.0
1001
ACAD
1000
AcDbSavedByObjectVersion
1070
     0
  0
VISUALSTYLE
  5
C67
102
{ACAD_XDICTIONARY
360
13F1
102
}
102
{ACAD_REACTORS
330
C5E
102
}
330
C5E
100
AcDbVisualStyle
  2

 70
     9
 71
     3
 72
     2
 73
     0
 90
        0
 40
-0.6
 41
-30.0
 62
     5
 63
     7
 74
     2
 91
        2
 64
     7
 65
   257
 75
     1
175
     1
 42
179.0
 92
        8
 66
     7
 43
1.0
 76
     1
 77
     6
 78
     2
 67
     7
 79
     3
170
     0
171
     0
290
     0
174
     0
 93
        1
 44
0.0
173
     0
291
     0
 45
0.0
1001
ACAD
1000
AcDbSavedByObjectVersion
1070
     0
  0
VISUALSTYLE
  5
C69
102
{ACAD_XDICTIONARY
360
13F5
102
}
102
{ACAD_REACTORS
330
C5E
102
}
330
C5E
100
AcDbVisualStyle
  2

 70
    11
 71
     2
 72
     2
 73
     0
 90
        0
 40
-0.6
 41
-30.0
 62
     5
 63
     7
 74
     1
 91
        4
 64
     7
 65
   257
 75
     1
175
     1
 42
1.0
 92
        8
 66
     7
 43
1.0
 76
     1
 77
     6
 78
     2
 67
     7
 79
     5
170
     0
171
     0
290
     0
174
     0
 93
        1
 44
-50.0
173
     0
291
     1
 45
0.0
1001
ACAD
1000
AcDbSavedByObjectVersion
1070
     0
  0
VISUALSTYLE
  5
C71
102
{ACAD_XDICTIONARY
360
1405
102
}
102
{ACAD_REACTORS
330
C5E
102
}
330
C5E
100
AcDbVisualStyle
  2

 70
    22
 71
     2
 72
     2
 73
     0
 90
        0
 40
-0.6
 41
-30.0
 62
     5
 63
     7
 74
     1
 91
        4
 64
     7
 65
   257
 75
     1
175
     1
 42
1.0
 92
        8
 66
     7
 43
1.0
 76
     1
 77
     6
 78
     2
 67
     7
 79
     5
170
     0
171
     0
290
     0
174
     0
 93
        1
 44
0.0
173
     0
291
     1
 45
0.0
1001
ACAD
1000
AcDbSavedByObjectVersion
1070
     0
  0
VISUALSTYLE
  5
C6D
102
{ACAD_XDICTIONARY
360
13FD
102
}
102
{ACAD_REACTORS
330
C5E
102
}
330
C5E
100
AcDbVisualStyle
  2

 70
    15
 71
     2
 72
     2
 73
     0
 90
        0
 40
-0.6
 41
-30.0
 62
     5
 63
     7
 74
     1
 91
        4
 64
     7
 65
   257
 75
     1
175
     1
 42
1.0
 92
        8
 66
     7
 43
1.0
 76
     1
 77
     6
 78
     2
 67
     7
 79
     5
170
     0
171
     0
290
     0
174
     0
 93
        1
 44
0.0
173
     0
291
     1
 45
0.0
1001
ACAD
1000
AcDbSavedByObjectVersion
1070
     0
  0
VISUALSTYLE
  5
C5F
102
{ACAD_XDICTIONARY
360
13E1
102
}
102
{ACAD_REACTORS
330
C5E
102
}
330
C5E
100
AcDbVisualStyle
  2

 70
     0
 71
     2
 72
     1
 73
     1
 90
        2
 40
-0.6
 41
30.0
 62
     5
 63
     7
 74
     0
 91
        4
 64
     7
 65
   257
 75
     1
175
     1
 42
1.0
 92
        8
 66
     7
 43
1.0
 76
     1
 77
     6
 78
     2
 67
     7
 79
     5
170
     0
171
     0
290
     0
174
     0
 93
       13
 44
0.0
173
     0
291
     1
 45
0.0
1001
ACAD
1000
AcDbSavedByObjectVersion
1070
     0
  0
VISUALSTYLE
  5
C60
102
{ACAD_XDICTIONARY
360
13E3
102
}
102
{ACAD_REACTORS
330
C5E
102
}
330
C5E
100
AcDbVisualStyle
  2

 70
     1
 71
     2
 72
     1
 73
     1
 90
        2
 40
-0.6
 41
30.0
 62
     5
 63
     7
 74
     1
 91
        4
 64
     7
 65
   257
 75
     1
175
     1
 42
1.0
 92
        0
 66
   257
 43
1.0
 76
     1
 77
     6
 78
     2
 67
     7
 79
     5
170
     0
171
     0
290
     0
174
     0
 93
       13
 44
0.0
173
     0
291
     1
 45
0.0
1001
ACAD
1000
AcDbSavedByObjectVersion
1070
     0
  0
VISUALSTYLE
  5
C61
102
{ACAD_XDICTIONARY
360
13E5
102
}
102
{ACAD_REACTORS
330
C5E
102
}
330
C5E
100
AcDbVisualStyle
  2

 70
     2
 71
     2
 72
     2
 73
     1
 90
        2
 40
-0.6
 41
30.0
 62
     5
 63
     7
 74
     0
 91
        4
 64
     7
 65
   257
 75
     1
175
     1
 42
1.0
 92
        0
 66
     7
 43
1.0
 76
     1
 77
     6
 78
     2
 67
     7
 79
     5
170
     0
171
     0
290
     0
174
     0
 93
       13
 44
0.0
173
     0
291
     1
 45
0.0
1001
ACAD
1000
AcDbSavedByObjectVersion
1070
     0
  0
VISUALSTYLE
  5
C62
102
{ACAD_XDICTIONARY
360
13E7
102
}
102
{ACAD_REACTORS
330
C5E
102
}
330
C5E
100
AcDbVisualStyle
  2

 70
     3
 71
     2
 72
     2
 73
     1
 90
        2
 40
-0.6
 41
30.0
 62
     5
 63
     7
 74
     1
 91
        4
 64
     7
 65
   257
 75
     1
175
     1
 42
1.0
 92
        0
 66
   257
 43
1.0
 76
     1
 77
     6
 78
     2
 67
     7
 79
     5
170
     0
171
     0
290
     0
174
     0
 93
       13
 44
0.0
173
     0
291
     1
 45
0.0
1001
ACAD
1000
AcDbSavedByObjectVersion
1070
     0
  0
VISUALSTYLE
  5
C6F
102
{ACAD_XDICTIONARY
360
1401
102
}
102
{ACAD_REACTORS
330
C5E
102
}
330
C5E
100
AcDbVisualStyle
  2

 70
    20
 71
     2
 72
     2
 73
     0
 90
        0
 40
-0.6
 41
-30.0
 62
     5
 63
     7
 74
     1
 91
        4
 64
     7
 65
   257
 75
     1
175
     1
 42
1.0
 92
       10
 66
     7
 43
1.0
 76
     1
 77
     6
 78
     2
 67
     7
 79
     5
170
     0
171
     0
290
     0
174
     0
 93
        1
 44
0.0
173
     0
291
     1
 45
0.0
1001
ACAD
1000
AcDbSavedByObjectVersion
1070
     0
  0
VISUALSTYLE
  5
C6C
102
{ACAD_XDICTIONARY
360
13FB
102
}
102
{ACAD_REACTORS
330
C5E
102
}
330
C5E
100
AcDbVisualStyle
  2

 70
    14
 71
     2
 72
     2
 73
     0
 90
        0
 40
-0.6
 41
-30.0
 62
     5
 63
     7
 74
     1
 91
        4
 64
     7
 65
   257
 75
     7
175
     7
 42
1.0
 92
        8
 66
     7
 43
1.0
 76
     1
 77
     6
 78
     2
 67
     7
 79
     5
170
     0
171
     0
290
     0
174
     0
 93
        1
 44
0.0
173
     0
291
     1
 45
0.0
1001
ACAD
1000
AcDbSavedByObjectVersion
1070
     0
  0
VISUALSTYLE
  5
C70
102
{ACAD_XDICTIONARY
360
1403
102
}
102
{ACAD_REACTORS
330
C5E
102
}
330
C5E
100
AcDbVisualStyle
  2

 70
    21
 71
     2
 72
     2
 73
     0
 90
        0
 40
-0.6
 41
-30.0
 62
     5
 63
     7
 74
     1
 91
        4
 64
     7
 65
   257
 75
     1
175
     1
 42
1.0
 92
        9
 66
     7
 43
1.0
 76
     1
 77
     6
 78
     2
 67
     7
 79
     5
170
     0
171
     0
290
     0
174
     0
 93
        1
 44
0.0
173
     0
291
     1
 45
0.0
1001
ACAD
1000
AcDbSavedByObjectVersion
1070
     0
  0
VISUALSTYLE
  5
C68
102
{ACAD_XDICTIONARY
360
13F3
102
}
102
{ACAD_REACTORS
330
C5E
102
}
330
C5E
100
AcDbVisualStyle
  2

 70
     8
 71
     2
 72
     2
 73
     0
 90
        0
 40
-0.6
 41
-30.0
 62
     5
 63
     7
 74
     1
 91
        0
 64
     7
 65
   257
 75
     1
175
     1
 42
1.0
 92
        8
 66
     8
 43
1.0
 76
     1
 77
     6
 78
     2
 67
     7
 79
     5
170
     0
171
     0
290
     0
174
     0
 93
       13
 44
0.0
173
     0
291
     0
 45
0.0
1001
ACAD
1000
AcDbSavedByObjectVersion
1070
     0
  0
VISUALSTYLE
  5
C6B
102
{ACAD_XDICTIONARY
360
13F9
102
}
102
{ACAD_REACTORS
330
C5E
102
}
330
C5E
100
AcDbVisualStyle
  2

 70
    13
 71
     2
 72
     2
 73
     0
 90
        0
 40
-0.6
 41
-30.0
 62
     5
 63
     7
 74
     1
 91
        4
 64
     7
 65
   257
 75
     1
175
     1
 42
1.0
 92
       12
 66
     7
 43
1.0
 76
     1
 77
     6
 78
     2
 67
     7
 79
     5
170
     0
171
     0
290
     0
174
     0
 93
        1
 44
0.0
173
     0
291
     1
 45
0.0
1001
ACAD
1000
AcDbSavedByObjectVersion
1070
     0
  0
DICTIONARYVAR
  5
1201
102
{ACAD_REACTORS
330
11FD
102
}
330
11FD
100
DictionaryVariables
280
     0
  1
1:1
  0
DICTIONARYVAR
  5
11FF
102
{ACAD_REACTORS
330
11FD
102
}
330
11FD
100
DictionaryVariables
280
     0
  1
STANDARD
  0
DICTIONARYVAR
  5
11FE
102
{ACAD_REACTORS
330
11FD
102
}
330
11FD
100
DictionaryVariables
280
     0
  1
STANDARD
  0
DICTIONARYVAR
  5
1208
102
{ACAD_REACTORS
330
11FD
102
}
330
11FD
100
DictionaryVariables
280
     0
  1
2
  0
DICTIONARYVAR
  5
1207
102
{ACAD_REACTORS
330
11FD
102
}
330
11FD
100
DictionaryVariables
280
     0
  1
1
  0
DICTIONARYVAR
  5
1206
102
{ACAD_REACTORS
330
11FD
102
}
330
11FD
100
DictionaryVariables
280
     0
  1
0
  0
DICTIONARYVAR
  5
1203
102
{ACAD_REACTORS
330
11FD
102
}
330
11FD
100
DictionaryVariables
280
     0
  1
0
  0
DICTIONARYVAR
  5
1204
102
{ACAD_REACTORS
330
11FD
102
}
330
11FD
100
DictionaryVariables
280
     0
  1
0
  0
DICTIONARYVAR
  5
1202
102
{ACAD_REACTORS
330
11FD
102
}
330
11FD
100
DictionaryVariables
280
     0
  1
2
  0
DICTIONARYVAR
  5
1200
102
{ACAD_REACTORS
330
11FD
102
}
330
11FD
100
DictionaryVariables
280
     0
  1
1
  0
DICTIONARYVAR
  5
1205
102
{ACAD_REACTORS
330
11FD
102
}
330
11FD
100
DictionaryVariables
280
     0
  1
127
  0
DICTIONARYVAR
  5
13D1
102
{ACAD_REACTORS
330
11FD
102
}
330
11FD
100
DictionaryVariables
280
     0
  1
2
  0
DICTIONARY
  5
CEB
102
{ACAD_REACTORS
330
CDF
102
}
330
CDF
100
AcDbDictionary
281
     1
  0
DICTIONARY
  5
13DD
330
C3D
100
AcDbDictionary
280
     1
281
     1
  3
ACAD_XREC_ROUNDTRIP
360
13DE
  0
DICTIONARY
  5
13DB
330
C3C
100
AcDbDictionary
280
     1
281
     1
  3
ACAD_XREC_ROUNDTRIP
360
13DC
  0
DICTIONARY
  5
C4F
330
C4E
100
AcDbDictionary
280
     1
281
     1
  3
ACAD_XREC_ROUNDTRIP
360
1217
  3
BUMPTILE
360
C51
  3
DIFFUSETILE
360
C50
  3
OPACITYTILE
360
C54
  3
REFLECTIONTILE
360
C53
  3
REFRACTIONTILE
360
C55
  3
SPECULARTILE
360
C52
  0
DICTIONARY
  5
C47
330
C46
100
AcDbDictionary
280
     1
281
     1
  3
ACAD_XREC_ROUNDTRIP
360
1216
  3
BUMPTILE
360
C49
  3
DIFFUSETILE
360
C48
  3
OPACITYTILE
360
C4C
  3
REFLECTIONTILE
360
C4B
  3
REFRACTIONTILE
360
C4D
  3
SPECULARTILE
360
C4A
  0
DICTIONARY
  5
C57
330
C56
100
AcDbDictionary
280
     1
281
     1
  3
ACAD_XREC_ROUNDTRIP
360
1218
  3
BUMPTILE
360
C59
  3
DIFFUSETILE
360
C58
  3
OPACITYTILE
360
C5C
  3
REFLECTIONTILE
360
C5B
  3
REFRACTIONTILE
360
C5D
  3
SPECULARTILE
360
C5A
  0
DICTIONARY
  5
120A
330
C3F
100
AcDbDictionary
280
     1
281
     1
  3
ACAD_ROUNDTRIP_2008_TABLESTYLE_CELLSTYLEMAP
360
13D2
  3
ACAD_XREC_ROUNDTRIP
360
13DF
  0
DICTIONARY
  5
120C
330
C40
100
AcDbDictionary
280
     1
281
     1
  3
ACAD_ROUNDTRIP_2008_TABLESTYLE_CELLSTYLEMAP
360
13D3
  3
ACAD_XREC_ROUNDTRIP
360
13E0
  0
DICTIONARY
  5
13EB
330
C64
100
AcDbDictionary
280
     1
281
     1
  3
ACAD_XREC_ROUNDTRIP
360
13EC
  0
DICTIONARY
  5
13EF
330
C66
100
AcDbDictionary
280
     1
281
     1
  3
ACAD_XREC_ROUNDTRIP
360
13F0
  0
DICTIONARY
  5
13ED
330
C65
100
AcDbDictionary
280
     1
281
     1
  3
ACAD_XREC_ROUNDTRIP
360
13EE
  0
DICTIONARY
  5
13E9
330
C63
100
AcDbDictionary
280
     1
281
     1
  3
ACAD_XREC_ROUNDTRIP
360
13EA
  0
DICTIONARY
  5
13F7
330
C6A
100
AcDbDictionary
280
     1
281
     1
  3
ACAD_XREC_ROUNDTRIP
360
13F8
  0
DICTIONARY
  5
13FF
330
C6E
100
AcDbDictionary
280
     1
281
     1
  3
ACAD_XREC_ROUNDTRIP
360
1400
  0
DICTIONARY
  5
13F1
330
C67
100
AcDbDictionary
280
     1
281
     1
  3
ACAD_XREC_ROUNDTRIP
360
13F2
  0
DICTIONARY
  5
13F5
330
C69
100
AcDbDictionary
280
     1
281
     1
  3
ACAD_XREC_ROUNDTRIP
360
13F6
  0
DICTIONARY
  5
1405
330
C71
100
AcDbDictionary
280
     1
281
     1
  3
ACAD_XREC_ROUNDTRIP
360
1406
  0
DICTIONARY
  5
13FD
330
C6D
100
AcDbDictionary
280
     1
281
     1
  3
ACAD_XREC_ROUNDTRIP
360
13FE
  0
DICTIONARY
  5
13E1
330
C5F
100
AcDbDictionary
280
     1
281
     1
  3
ACAD_XREC_ROUNDTRIP
360
13E2
  0
DICTIONARY
  5
13E3
330
C60
100
AcDbDictionary
280
     1
281
     1
  3
ACAD_XREC_ROUNDTRIP
360
13E4
  0
DICTIONARY
  5
13E5
330
C61
100
AcDbDictionary
280
     1
281
     1
  3
ACAD_XREC_ROUNDTRIP
360
13E6
  0
DICTIONARY
  5
13E7
330
C62
100
AcDbDictionary
280
     1
281
     1
  3
ACAD_XREC_ROUNDTRIP
360
13E8
  0
DICTIONARY
  5
1401
330
C6F
100
AcDbDictionary
280
     1
281
     1
  3
ACAD_XREC_ROUNDTRIP
360
1402
  0
DICTIONARY
  5
13FB
330
C6C
100
AcDbDictionary
280
     1
281
     1
  3
ACAD_XREC_ROUNDTRIP
360
13FC
  0
DICTIONARY
  5
1403
330
C70
100
AcDbDictionary
280
     1
281
     1
  3
ACAD_XREC_ROUNDTRIP
360
1404
  0
DICTIONARY
  5
13F3
330
C68
100
AcDbDictionary
280
     1
281
     1
  3
ACAD_XREC_ROUNDTRIP
360
13F4
  0
DICTIONARY
  5
13F9
330
C6B
100
AcDbDictionary
280
     1
281
     1
  3
ACAD_XREC_ROUNDTRIP
360
13FA
  0
XRECORD
  5
13DE
102
{ACAD_REACTORS
330
13DD
102
}
330
13DD
100
AcDbXrecord
280
     1
102
SHADEPLOT
 70
     0
102
SHADEPLOTRESLEVEL
 70
     2
102
SHADEPLOTCUSTOMDPI
 70
   300
  0
XRECORD
  5
13DC
102
{ACAD_REACTORS
330
13DB
102
}
330
13DB
100
AcDbXrecord
280
     1
102
SHADEPLOT
 70
     0
102
SHADEPLOTRESLEVEL
 70
     2
102
SHADEPLOTCUSTOMDPI
 70
   300
  0
XRECORD
  5
1217
102
{ACAD_REACTORS
330
C4F
102
}
330
C4F
100
AcDbXrecord
280
     1
102
MATERIAL
148
0.0
149
0.0
149
0.0
 93
        0
 94
      127
282
     0
 72
     0
 77
     0
171
     0
175
     0
179
     0
273
     0
  0
XRECORD
  5
C51
102
{ACAD_REACTORS
330
C4F
102
}
330
C4F
100
AcDbXrecord
280
     1
270
     1
271
     1
  0
XRECORD
  5
C50
102
{ACAD_REACTORS
330
C4F
102
}
330
C4F
100
AcDbXrecord
280
     1
270
     1
271
     1
  0
XRECORD
  5
C54
102
{ACAD_REACTORS
330
C4F
102
}
330
C4F
100
AcDbXrecord
280
     1
270
     1
271
     1
  0
XRECORD
  5
C53
102
{ACAD_REACTORS
330
C4F
102
}
330
C4F
100
AcDbXrecord
280
     1
270
     1
271
     1
  0
XRECORD
  5
C55
102
{ACAD_REACTORS
330
C4F
102
}
330
C4F
100
AcDbXrecord
280
     1
270
     1
271
     1
  0
XRECORD
  5
C52
102
{ACAD_REACTORS
330
C4F
102
}
330
C4F
100
AcDbXrecord
280
     1
270
     1
271
     1
  0
XRECORD
  5
1216
102
{ACAD_REACTORS
330
C47
102
}
330
C47
100
AcDbXrecord
280
     1
102
MATERIAL
148
0.0
149
0.0
149
0.0
 93
        0
 94
      127
282
     0
 72
     0
 77
     0
171
     0
175
     0
179
     0
273
     0
  0
XRECORD
  5
C49
102
{ACAD_REACTORS
330
C47
102
}
330
C47
100
AcDbXrecord
280
     1
270
     1
271
     1
  0
XRECORD
  5
C48
102
{ACAD_REACTORS
330
C47
102
}
330
C47
100
AcDbXrecord
280
     1
270
     1
271
     1
  0
XRECORD
  5
C4C
102
{ACAD_REACTORS
330
C47
102
}
330
C47
100
AcDbXrecord
280
     1
270
     1
271
     1
  0
XRECORD
  5
C4B
102
{ACAD_REACTORS
330
C47
102
}
330
C47
100
AcDbXrecord
280
     1
270
     1
271
     1
  0
XRECORD
  5
C4D
102
{ACAD_REACTORS
330
C47
102
}
330
C47
100
AcDbXrecord
280
     1
270
     1
271
     1
  0
XRECORD
  5
C4A
102
{ACAD_REACTORS
330
C47
102
}
330
C47
100
AcDbXrecord
280
     1
270
     1
271
     1
  0
XRECORD
  5
1218
102
{ACAD_REACTORS
330
C57
102
}
330
C57
100
AcDbXrecord
280
     1
102
MATERIAL
148
0.0
149
0.0
149
0.0
 93
        0
 94
      127
282
     0
 72
     0
 77
     0
171
     0
175
     0
179
     0
273
     0
  0
XRECORD
  5
C59
102
{ACAD_REACTORS
330
C57
102
}
330
C57
100
AcDbXrecord
280
     1
270
     1
271
     1
  0
XRECORD
  5
C58
102
{ACAD_REACTORS
330
C57
102
}
330
C57
100
AcDbXrecord
280
     1
270
     1
271
     1
  0
XRECORD
  5
C5C
102
{ACAD_REACTORS
330
C57
102
}
330
C57
100
AcDbXrecord
280
     1
270
     1
271
     1
  0
XRECORD
  5
C5B
102
{ACAD_REACTORS
330
C57
102
}
330
C57
100
AcDbXrecord
280
     1
270
     1
271
     1
  0
XRECORD
  5
C5D
102
{ACAD_REACTORS
330
C57
102
}
330
C57
100
AcDbXrecord
280
     1
270
     1
271
     1
  0
XRECORD
  5
C5A
102
{ACAD_REACTORS
330
C57
102
}
330
C57
100
AcDbXrecord
280
     1
270
     1
271
     1
  0
CELLSTYLEMAP
  5
13D2
102
{ACAD_REACTORS
330
120A
102
}
330
120A
100
AcDbCellStyleMap
 90
        3
300
CELLSTYLE
  1
TABLEFORMAT_BEGIN
 90
        5
170
     1
 91
        0
 92
    32768
 62
   257
 93
        1
300
CONTENTFORMAT
  1
CONTENTFORMAT_BEGIN
 90
        0
 91
        0
 92
      512
 93
        0
300

 40
0.0
140
1.0
 94
        1
 62
     0
340
11
144
0.18
309
CONTENTFORMAT_END
171
     1
301
MARGIN
  1
CELLMARGIN_BEGIN
 40
0.06
 40
0.06
 40
0.06
 40
0.06
 40
0.18
 40
0.18
309
CELLMARGIN_END
 94
        6
 95
        1
302
GRIDFORMAT
  1
GRIDFORMAT_BEGIN
 90
        0
 91
        1
 62
     0
 92
       -2
340
0
 93
        0
 40
0.045
309
GRIDFORMAT_END
 95
        2
302
GRIDFORMAT
  1
GRIDFORMAT_BEGIN
 90
        0
 91
        1
 62
     0
 92
       -2
340
0
 93
        0
 40
0.045
309
GRIDFORMAT_END
 95
        4
302
GRIDFORMAT
  1
GRIDFORMAT_BEGIN
 90
        0
 91
        1
 62
     0
 92
       -2
340
0
 93
        0
 40
0.045
309
GRIDFORMAT_END
 95
        8
302
GRIDFORMAT
  1
GRIDFORMAT_BEGIN
 90
        0
 91
        1
 62
     0
 92
       -2
340
0
 93
        0
 40
0.045
309
GRIDFORMAT_END
 95
       16
302
GRIDFORMAT
  1
GRIDFORMAT_BEGIN
 90
        0
 91
        1
 62
     0
 92
       -2
340
0
 93
        0
 40
0.045
309
GRIDFORMAT_END
 95
       32
302
GRIDFORMAT
  1
GRIDFORMAT_BEGIN
 90
        0
 91
        1
 62
     0
 92
       -2
340
0
 93
        0
 40
0.045
309
GRIDFORMAT_END
309
TABLEFORMAT_END
  1
CELLSTYLE_BEGIN
 90
        1
 91
        1
300
_TITLE
309
CELLSTYLE_END
300
CELLSTYLE
  1
TABLEFORMAT_BEGIN
 90
        5
170
     1
 91
        0
 92
        0
 62
   257
 93
        1
300
CONTENTFORMAT
  1
CONTENTFORMAT_BEGIN
 90
        0
 91
        0
 92
      512
 93
        0
300

 40
0.0
140
1.0
 94
        1
 62
     0
340
11
144
0.18
309
CONTENTFORMAT_END
171
     1
301
MARGIN
  1
CELLMARGIN_BEGIN
 40
0.06
 40
0.06
 40
0.06
 40
0.06
 40
0.18
 40
0.18
309
CELLMARGIN_END
 94
        6
 95
        1
302
GRIDFORMAT
  1
GRIDFORMAT_BEGIN
 90
        0
 91
        1
 62
     0
 92
       -2
340
0
 93
        0
 40
0.045
309
GRIDFORMAT_END
 95
        2
302
GRIDFORMAT
  1
GRIDFORMAT_BEGIN
 90
        0
 91
        1
 62
     0
 92
       -2
340
0
 93
        0
 40
0.045
309
GRIDFORMAT_END
 95
        4
302
GRIDFORMAT
  1
GRIDFORMAT_BEGIN
 90
        0
 91
        1
 62
     0
 92
       -2
340
0
 93
        0
 40
0.045
309
GRIDFORMAT_END
 95
        8
302
GRIDFORMAT
  1
GRIDFORMAT_BEGIN
 90
        0
 91
        1
 62
     0
 92
       -2
340
0
 93
        0
 40
0.045
309
GRIDFORMAT_END
 95
       16
302
GRIDFORMAT
  1
GRIDFORMAT_BEGIN
 90
        0
 91
        1
 62
     0
 92
       -2
340
0
 93
        0
 40
0.045
309
GRIDFORMAT_END
 95
       32
302
GRIDFORMAT
  1
GRIDFORMAT_BEGIN
 90
        0
 91
        1
 62
     0
 92
       -2
340
0
 93
        0
 40
0.045
309
GRIDFORMAT_END
309
TABLEFORMAT_END
  1
CELLSTYLE_BEGIN
 90
        2
 91
        1
300
_HEADER
309
CELLSTYLE_END
300
CELLSTYLE
  1
TABLEFORMAT_BEGIN
 90
        5
170
     1
 91
        0
 92
        0
 62
   257
 93
        1
300
CONTENTFORMAT
  1
CONTENTFORMAT_BEGIN
 90
        0
 91
        0
 92
      512
 93
        0
300

 40
0.0
140
1.0
 94
        1
 62
     0
340
11
144
0.18
309
CONTENTFORMAT_END
171
     1
301
MARGIN
  1
CELLMARGIN_BEGIN
 40
0.06
 40
0.06
 40
0.06
 40
0.06
 40
0.18
 40
0.18
309
CELLMARGIN_END
 94
        6
 95
        1
302
GRIDFORMAT
  1
GRIDFORMAT_BEGIN
 90
        0
 91
        1
 62
     0
 92
       -2
340
0
 93
        0
 40
0.045
309
GRIDFORMAT_END
 95
        2
302
GRIDFORMAT
  1
GRIDFORMAT_BEGIN
 90
        0
 91
        1
 62
     0
 92
       -2
340
0
 93
        0
 40
0.045
309
GRIDFORMAT_END
 95
        4
302
GRIDFORMAT
  1
GRIDFORMAT_BEGIN
 90
        0
 91
        1
 62
     0
 92
       -2
340
0
 93
        0
 40
0.045
309
GRIDFORMAT_END
 95
        8
302
GRIDFORMAT
  1
GRIDFORMAT_BEGIN
 90
        0
 91
        1
 62
     0
 92
       -2
340
0
 93
        0
 40
0.045
309
GRIDFORMAT_END
 95
       16
302
GRIDFORMAT
  1
GRIDFORMAT_BEGIN
 90
        0
 91
        1
 62
     0
 92
       -2
340
0
 93
        0
 40
0.045
309
GRIDFORMAT_END
 95
       32
302
GRIDFORMAT
  1
GRIDFORMAT_BEGIN
 90
        0
 91
        1
 62
     0
 92
       -2
340
0
 93
        0
 40
0.045
309
GRIDFORMAT_END
309
TABLEFORMAT_END
  1
CELLSTYLE_BEGIN
 90
        3
 91
        2
300
_DATA
309
CELLSTYLE_END
  0
XRECORD
  5
13DF
102
{ACAD_REACTORS
330
120A
102
}
330
120A
100
AcDbXrecord
280
     1
102
ACAD_ROUNDTRIP_PRE2007_TABLESTYLE
 90
      512
 91
        0
  1

 92
      512
 93
        0
  2

 94
      512
 95
        0
  3

  0
CELLSTYLEMAP
  5
13D3
102
{ACAD_REACTORS
330
120C
102
}
330
120C
100
AcDbCellStyleMap
 90
        3
300
CELLSTYLE
  1
TABLEFORMAT_BEGIN
 90
        5
170
     1
 91
        0
 92
    32768
 62
   257
 93
        1
300
CONTENTFORMAT
  1
CONTENTFORMAT_BEGIN
 90
        0
 91
        0
 92
      512
 93
        0
300

 40
0.0
140
1.0
 94
        1
 62
     0
340
11
144
0.18
309
CONTENTFORMAT_END
171
     1
301
MARGIN
  1
CELLMARGIN_BEGIN
 40
0.06
 40
0.06
 40
0.06
 40
0.06
 40
0.18
 40
0.18
309
CELLMARGIN_END
 94
        6
 95
        1
302
GRIDFORMAT
  1
GRIDFORMAT_BEGIN
 90
        0
 91
        1
 62
     0
 92
       -2
340
0
 93
        0
 40
0.045
309
GRIDFORMAT_END
 95
        2
302
GRIDFORMAT
  1
GRIDFORMAT_BEGIN
 90
        0
 91
        1
 62
     0
 92
       -2
340
0
 93
        0
 40
0.045
309
GRIDFORMAT_END
 95
        4
302
GRIDFORMAT
  1
GRIDFORMAT_BEGIN
 90
        0
 91
        1
 62
     0
 92
       -2
340
0
 93
        0
 40
0.045
309
GRIDFORMAT_END
 95
        8
302
GRIDFORMAT
  1
GRIDFORMAT_BEGIN
 90
        0
 91
        1
 62
     0
 92
       -2
340
0
 93
        0
 40
0.045
309
GRIDFORMAT_END
 95
       16
302
GRIDFORMAT
  1
GRIDFORMAT_BEGIN
 90
        0
 91
        1
 62
     0
 92
       -2
340
0
 93
        0
 40
0.045
309
GRIDFORMAT_END
 95
       32
302
GRIDFORMAT
  1
GRIDFORMAT_BEGIN
 90
        0
 91
        1
 62
     0
 92
       -2
340
0
 93
        0
 40
0.045
309
GRIDFORMAT_END
309
TABLEFORMAT_END
  1
CELLSTYLE_BEGIN
 90
        1
 91
        1
300
_TITLE
309
CELLSTYLE_END
300
CELLSTYLE
  1
TABLEFORMAT_BEGIN
 90
        5
170
     1
 91
        0
 92
        0
 62
   257
 93
        1
300
CONTENTFORMAT
  1
CONTENTFORMAT_BEGIN
 90
        0
 91
        0
 92
      512
 93
        0
300

 40
0.0
140
1.0
 94
        1
 62
     0
340
11
144
0.18
309
CONTENTFORMAT_END
171
     1
301
MARGIN
  1
CELLMARGIN_BEGIN
 40
0.06
 40
0.06
 40
0.06
 40
0.06
 40
0.18
 40
0.18
309
CELLMARGIN_END
 94
        6
 95
        1
302
GRIDFORMAT
  1
GRIDFORMAT_BEGIN
 90
        0
 91
        1
 62
     0
 92
       -2
340
0
 93
        0
 40
0.045
309
GRIDFORMAT_END
 95
        2
302
GRIDFORMAT
  1
GRIDFORMAT_BEGIN
 90
        0
 91
        1
 62
     0
 92
       -2
340
0
 93
        0
 40
0.045
309
GRIDFORMAT_END
 95
        4
302
GRIDFORMAT
  1
GRIDFORMAT_BEGIN
 90
        0
 91
        1
 62
     0
 92
       -2
340
0
 93
        0
 40
0.045
309
GRIDFORMAT_END
 95
        8
302
GRIDFORMAT
  1
GRIDFORMAT_BEGIN
 90
        0
 91
        1
 62
     0
 92
       -2
340
0
 93
        0
 40
0.045
309
GRIDFORMAT_END
 95
       16
302
GRIDFORMAT
  1
GRIDFORMAT_BEGIN
 90
        0
 91
        1
 62
     0
 92
       -2
340
0
 93
        0
 40
0.045
309
GRIDFORMAT_END
 95
       32
302
GRIDFORMAT
  1
GRIDFORMAT_BEGIN
 90
        0
 91
        1
 62
     0
 92
       -2
340
0
 93
        0
 40
0.045
309
GRIDFORMAT_END
309
TABLEFORMAT_END
  1
CELLSTYLE_BEGIN
 90
        2
 91
        1
300
_HEADER
309
CELLSTYLE_END
300
CELLSTYLE
  1
TABLEFORMAT_BEGIN
 90
        5
170
     1
 91
        0
 92
        0
 62
   257
 93
        1
300
CONTENTFORMAT
  1
CONTENTFORMAT_BEGIN
 90
        0
 91
        0
 92
      512
 93
        0
300

 40
0.0
140
1.0
 94
        1
 62
     0
340
11
144
0.18
309
CONTENTFORMAT_END
171
     1
301
MARGIN
  1
CELLMARGIN_BEGIN
 40
0.06
 40
0.06
 40
0.06
 40
0.06
 40
0.18
 40
0.18
309
CELLMARGIN_END
 94
        6
 95
        1
302
GRIDFORMAT
  1
GRIDFORMAT_BEGIN
 90
        0
 91
        1
 62
     0
 92
       -2
340
0
 93
        0
 40
0.045
309
GRIDFORMAT_END
 95
        2
302
GRIDFORMAT
  1
GRIDFORMAT_BEGIN
 90
        0
 91
        1
 62
     0
 92
       -2
340
0
 93
        0
 40
0.045
309
GRIDFORMAT_END
 95
        4
302
GRIDFORMAT
  1
GRIDFORMAT_BEGIN
 90
        0
 91
        1
 62
     0
 92
       -2
340
0
 93
        0
 40
0.045
309
GRIDFORMAT_END
 95
        8
302
GRIDFORMAT
  1
GRIDFORMAT_BEGIN
 90
        0
 91
        1
 62
     0
 92
       -2
340
0
 93
        0
 40
0.045
309
GRIDFORMAT_END
 95
       16
302
GRIDFORMAT
  1
GRIDFORMAT_BEGIN
 90
        0
 91
        1
 62
     0
 92
       -2
340
0
 93
        0
 40
0.045
309
GRIDFORMAT_END
 95
       32
302
GRIDFORMAT
  1
GRIDFORMAT_BEGIN
 90
        0
 91
        1
 62
     0
 92
       -2
340
0
 93
        0
 40
0.045
309
GRIDFORMAT_END
309
TABLEFORMAT_END
  1
CELLSTYLE_BEGIN
 90
        3
 91
        2
300
_DATA
309
CELLSTYLE_END
  0
XRECORD
  5
13E0
102
{ACAD_REACTORS
330
120C
102
}
330
120C
100
AcDbXrecord
280
     1
102
ACAD_ROUNDTRIP_PRE2007_TABLESTYLE
 90
      512
 91
        0
  1

 92
      512
 93
        0
  2

 94
      512
 95
        0
  3

  0
XRECORD
  5
13EC
102
{ACAD_REACTORS
330
13EB
102
}
330
13EB
100
AcDbXrecord
280
     1
102
RTVSPropertyOp0
 70
     1
102
RTVSPropertyOp1
 70
     1
102
RTVSPropertyOp2
 70
     1
102
RTVSPropertyOp3
 70
     1
102
RTVSPropertyOp4
 70
     1
102
RTVSPropertyOp5
 70
     1
102
RTVSPropertyOp6
 70
     1
102
RTVSPropertyOp7
 70
     1
102
RTVSPropertyOp8
 70
     1
102
RTVSPropertyOp9
 70
     1
102
RTVSPropertyOp10
 70
     1
102
RTVSPropertyOp11
 70
     1
102
RTVSPropertyOp12
 70
     1
102
RTVSPropertyOp13
 70
     1
102
RTVSPropertyOp14
 70
     1
102
RTVSPropertyOp15
 70
     1
102
RTVSPropertyOp16
 70
     1
102
RTVSPropertyOp17
 70
     1
102
RTVSPropertyOp18
 70
     1
102
RTVSPropertyOp19
 70
     1
102
RTVSPropertyOp20
 70
     1
102
RTVSPropertyOp21
 70
     1
102
RTVSPropertyOp22
 70
     1
102
RTVSPropertyOp23
 70
     1
102
RTVSPropertyOp24
 70
     1
102
RTVSPropertyOp25
 70
     1
102
RTVSPropertyOp26
 70
     1
102
RTVSPropertyOp27
 70
     1
  0
XRECORD
  5
13F0
102
{ACAD_REACTORS
330
13EF
102
}
330
13EF
100
AcDbXrecord
280
     1
102
RTVSPropertyOp0
 70
     1
102
RTVSPropertyOp1
 70
     1
102
RTVSPropertyOp2
 70
     1
102
RTVSPropertyOp3
 70
     1
102
RTVSPropertyOp4
 70
     1
102
RTVSPropertyOp5
 70
     1
102
RTVSPropertyOp6
 70
     1
102
RTVSPropertyOp7
 70
     1
102
RTVSPropertyOp8
 70
     1
102
RTVSPropertyOp9
 70
     1
102
RTVSPropertyOp10
 70
     1
102
RTVSPropertyOp11
 70
     1
102
RTVSPropertyOp12
 70
     1
102
RTVSPropertyOp13
 70
     1
102
RTVSPropertyOp14
 70
     1
102
RTVSPropertyOp15
 70
     1
102
RTVSPropertyOp16
 70
     1
102
RTVSPropertyOp17
 70
     1
102
RTVSPropertyOp18
 70
     1
102
RTVSPropertyOp19
 70
     1
102
RTVSPropertyOp20
 70
     1
102
RTVSPropertyOp21
 70
     1
102
RTVSPropertyOp22
 70
     1
102
RTVSPropertyOp23
 70
     1
102
RTVSPropertyOp24
 70
     1
102
RTVSPropertyOp25
 70
     1
102
RTVSPropertyOp26
 70
     1
102
RTVSPropertyOp27
 70
     1
  0
XRECORD
  5
13EE
102
{ACAD_REACTORS
330
13ED
102
}
330
13ED
100
AcDbXrecord
280
     1
102
RTVSPropertyOp0
 70
     1
102
RTVSPropertyOp1
 70
     1
102
RTVSPropertyOp2
 70
     1
102
RTVSPropertyOp3
 70
     1
102
RTVSPropertyOp4
 70
     1
102
RTVSPropertyOp5
 70
     1
102
RTVSPropertyOp6
 70
     1
102
RTVSPropertyOp7
 70
     1
102
RTVSPropertyOp8
 70
     1
102
RTVSPropertyOp9
 70
     1
102
RTVSPropertyOp10
 70
     1
102
RTVSPropertyOp11
 70
     1
102
RTVSPropertyOp12
 70
     1
102
RTVSPropertyOp13
 70
     1
102
RTVSPropertyOp14
 70
     1
102
RTVSPropertyOp15
 70
     1
102
RTVSPropertyOp16
 70
     1
102
RTVSPropertyOp17
 70
     1
102
RTVSPropertyOp18
 70
     1
102
RTVSPropertyOp19
 70
     1
102
RTVSPropertyOp20
 70
     1
102
RTVSPropertyOp21
 70
     1
102
RTVSPropertyOp22
 70
     1
102
RTVSPropertyOp23
 70
     1
102
RTVSPropertyOp24
 70
     1
102
RTVSPropertyOp25
 70
     1
102
RTVSPropertyOp26
 70
     1
102
RTVSPropertyOp27
 70
     1
  0
XRECORD
  5
13EA
102
{ACAD_REACTORS
330
13E9
102
}
330
13E9
100
AcDbXrecord
280
     1
102
RTVSPropertyOp0
 70
     1
102
RTVSPropertyOp1
 70
     1
102
RTVSPropertyOp2
 70
     1
102
RTVSPropertyOp3
 70
     1
102
RTVSPropertyOp4
 70
     1
102
RTVSPropertyOp5
 70
     1
102
RTVSPropertyOp6
 70
     1
102
RTVSPropertyOp7
 70
     1
102
RTVSPropertyOp8
 70
     1
102
RTVSPropertyOp9
 70
     1
102
RTVSPropertyOp10
 70
     1
102
RTVSPropertyOp11
 70
     1
102
RTVSPropertyOp12
 70
     1
102
RTVSPropertyOp13
 70
     1
102
RTVSPropertyOp14
 70
     1
102
RTVSPropertyOp15
 70
     1
102
RTVSPropertyOp16
 70
     1
102
RTVSPropertyOp17
 70
     1
102
RTVSPropertyOp18
 70
     1
102
RTVSPropertyOp19
 70
     1
102
RTVSPropertyOp20
 70
     1
102
RTVSPropertyOp21
 70
     1
102
RTVSPropertyOp22
 70
     1
102
RTVSPropertyOp23
 70
     1
102
RTVSPropertyOp24
 70
     1
102
RTVSPropertyOp25
 70
     1
102
RTVSPropertyOp26
 70
     1
102
RTVSPropertyOp27
 70
     1
  0
XRECORD
  5
13F8
102
{ACAD_REACTORS
330
13F7
102
}
330
13F7
100
AcDbXrecord
280
     1
102
RTVSPropertyOp0
 70
     1
102
RTVSPropertyOp1
 70
     1
102
RTVSPropertyOp2
 70
     1
102
RTVSPropertyOp3
 70
     1
102
RTVSPropertyOp4
 70
     1
102
RTVSPropertyOp5
 70
     1
102
RTVSPropertyOp6
 70
     1
102
RTVSPropertyOp7
 70
     1
102
RTVSPropertyOp8
 70
     1
102
RTVSPropertyOp9
 70
     1
102
RTVSPropertyOp10
 70
     1
102
RTVSPropertyOp11
 70
     1
102
RTVSPropertyOp12
 70
     1
102
RTVSPropertyOp13
 70
     1
102
RTVSPropertyOp14
 70
     1
102
RTVSPropertyOp15
 70
     1
102
RTVSPropertyOp16
 70
     1
102
RTVSPropertyOp17
 70
     1
102
RTVSPropertyOp18
 70
     1
102
RTVSPropertyOp19
 70
     1
102
RTVSPropertyOp20
 70
     1
102
RTVSPropertyOp21
 70
     1
102
RTVSPropertyOp22
 70
     1
102
RTVSPropertyOp23
 70
     1
102
RTVSPropertyOp24
 70
     1
102
RTVSPropertyOp25
 70
     1
102
RTVSPropertyOp26
 70
     1
102
RTVSPropertyOp27
 70
     1
  0
XRECORD
  5
1400
102
{ACAD_REACTORS
330
13FF
102
}
330
13FF
100
AcDbXrecord
280
     1
102
RTVSPropertyOp0
 70
     1
102
RTVSPropertyOp1
 70
     1
102
RTVSPropertyOp2
 70
     1
102
RTVSPropertyOp3
 70
     1
102
RTVSPropertyOp4
 70
     1
102
RTVSPropertyOp5
 70
     1
102
RTVSPropertyOp6
 70
     1
102
RTVSPropertyOp7
 70
     1
102
RTVSPropertyOp8
 70
     1
102
RTVSPropertyOp9
 70
     1
102
RTVSPropertyOp10
 70
     1
102
RTVSPropertyOp11
 70
     1
102
RTVSPropertyOp12
 70
     1
102
RTVSPropertyOp13
 70
     1
102
RTVSPropertyOp14
 70
     1
102
RTVSPropertyOp15
 70
     1
102
RTVSPropertyOp16
 70
     1
102
RTVSPropertyOp17
 70
     1
102
RTVSPropertyOp18
 70
     1
102
RTVSPropertyOp19
 70
     1
102
RTVSPropertyOp20
 70
     1
102
RTVSPropertyOp21
 70
     1
102
RTVSPropertyOp22
 70
     1
102
RTVSPropertyOp23
 70
     1
102
RTVSPropertyOp24
 70
     1
102
RTVSPropertyOp25
 70
     1
102
RTVSPropertyOp26
 70
     1
102
RTVSPropertyOp27
 70
     1
  0
XRECORD
  5
13F2
102
{ACAD_REACTORS
330
13F1
102
}
330
13F1
100
AcDbXrecord
280
     1
102
RTVSPropertyOp0
 70
     1
102
RTVSPropertyOp1
 70
     1
102
RTVSPropertyOp2
 70
     1
102
RTVSPropertyOp3
 70
     1
102
RTVSPropertyOp4
 70
     1
102
RTVSPropertyOp5
 70
     1
102
RTVSPropertyOp6
 70
     1
102
RTVSPropertyOp7
 70
     1
102
RTVSPropertyOp8
 70
     1
102
RTVSPropertyOp9
 70
     1
102
RTVSPropertyOp10
 70
     1
102
RTVSPropertyOp11
 70
     1
102
RTVSPropertyOp12
 70
     1
102
RTVSPropertyOp13
 70
     1
102
RTVSPropertyOp14
 70
     1
102
RTVSPropertyOp15
 70
     1
102
RTVSPropertyOp16
 70
     1
102
RTVSPropertyOp17
 70
     1
102
RTVSPropertyOp18
 70
     1
102
RTVSPropertyOp19
 70
     1
102
RTVSPropertyOp20
 70
     1
102
RTVSPropertyOp21
 70
     1
102
RTVSPropertyOp22
 70
     1
102
RTVSPropertyOp23
 70
     1
102
RTVSPropertyOp24
 70
     1
102
RTVSPropertyOp25
 70
     1
102
RTVSPropertyOp26
 70
     1
102
RTVSPropertyOp27
 70
     1
  0
XRECORD
  5
13F6
102
{ACAD_REACTORS
330
13F5
102
}
330
13F5
100
AcDbXrecord
280
     1
102
RTVSPropertyOp0
 70
     1
102
RTVSPropertyOp1
 70
     1
102
RTVSPropertyOp2
 70
     1
102
RTVSPropertyOp3
 70
     1
102
RTVSPropertyOp4
 70
     1
102
RTVSPropertyOp5
 70
     1
102
RTVSPropertyOp6
 70
     1
102
RTVSPropertyOp7
 70
     1
102
RTVSPropertyOp8
 70
     1
102
RTVSPropertyOp9
 70
     1
102
RTVSPropertyOp10
 70
     1
102
RTVSPropertyOp11
 70
     1
102
RTVSPropertyOp12
 70
     1
102
RTVSPropertyOp13
 70
     1
102
RTVSPropertyOp14
 70
     1
102
RTVSPropertyOp15
 70
     1
102
RTVSPropertyOp16
 70
     1
102
RTVSPropertyOp17
 70
     1
102
RTVSPropertyOp18
 70
     1
102
RTVSPropertyOp19
 70
     1
102
RTVSPropertyOp20
 70
     1
102
RTVSPropertyOp21
 70
     1
102
RTVSPropertyOp22
 70
     1
102
RTVSPropertyOp23
 70
     1
102
RTVSPropertyOp24
 70
     1
102
RTVSPropertyOp25
 70
     1
102
RTVSPropertyOp26
 70
     1
102
RTVSPropertyOp27
 70
     1
  0
XRECORD
  5
1406
102
{ACAD_REACTORS
330
1405
102
}
330
1405
100
AcDbXrecord
280
     1
102
RTVSPropertyOp0
 70
     0
102
RTVSPropertyOp1
 70
     0
102
RTVSPropertyOp2
 70
     0
102
RTVSPropertyOp3
 70
     0
102
RTVSPropertyOp4
 70
     0
102
RTVSPropertyOp5
 70
     0
102
RTVSPropertyOp6
 70
     0
102
RTVSPropertyOp7
 70
     0
102
RTVSPropertyOp8
 70
     0
102
RTVSPropertyOp9
 70
     0
102
RTVSPropertyOp10
 70
     0
102
RTVSPropertyOp11
 70
     0
102
RTVSPropertyOp12
 70
     0
102
RTVSPropertyOp13
 70
     0
102
RTVSPropertyOp14
 70
     2
102
RTVSPropertyOp15
 70
     0
102
RTVSPropertyOp16
 70
     0
102
RTVSPropertyOp17
 70
     0
102
RTVSPropertyOp18
 70
     0
102
RTVSPropertyOp19
 70
     0
102
RTVSPropertyOp20
 70
     0
102
RTVSPropertyOp21
 70
     0
102
RTVSPropertyOp22
 70
     0
102
RTVSPropertyOp23
 70
     0
102
RTVSPropertyOp24
 70
     0
102
RTVSPropertyOp25
 70
     0
102
RTVSPropertyOp26
 70
     0
102
RTVSPropertyOp27
 70
     0
  0
XRECORD
  5
13FE
102
{ACAD_REACTORS
330
13FD
102
}
330
13FD
100
AcDbXrecord
280
     1
102
RTVSPropertyOp0
 70
     1
102
RTVSPropertyOp1
 70
     1
102
RTVSPropertyOp2
 70
     1
102
RTVSPropertyOp3
 70
     1
102
RTVSPropertyOp4
 70
     1
102
RTVSPropertyOp5
 70
     1
102
RTVSPropertyOp6
 70
     1
102
RTVSPropertyOp7
 70
     1
102
RTVSPropertyOp8
 70
     1
102
RTVSPropertyOp9
 70
     1
102
RTVSPropertyOp10
 70
     1
102
RTVSPropertyOp11
 70
     1
102
RTVSPropertyOp12
 70
     1
102
RTVSPropertyOp13
 70
     1
102
RTVSPropertyOp14
 70
     1
102
RTVSPropertyOp15
 70
     1
102
RTVSPropertyOp16
 70
     1
102
RTVSPropertyOp17
 70
     1
102
RTVSPropertyOp18
 70
     1
102
RTVSPropertyOp19
 70
     1
102
RTVSPropertyOp20
 70
     1
102
RTVSPropertyOp21
 70
     1
102
RTVSPropertyOp22
 70
     1
102
RTVSPropertyOp23
 70
     1
102
RTVSPropertyOp24
 70
     1
102
RTVSPropertyOp25
 70
     1
102
RTVSPropertyOp26
 70
     1
102
RTVSPropertyOp27
 70
     1
  0
XRECORD
  5
13E2
102
{ACAD_REACTORS
330
13E1
102
}
330
13E1
100
AcDbXrecord
280
     1
102
RTVSPropertyOp0
 70
     1
102
RTVSPropertyOp1
 70
     1
102
RTVSPropertyOp2
 70
     1
102
RTVSPropertyOp3
 70
     1
102
RTVSPropertyOp4
 70
     1
102
RTVSPropertyOp5
 70
     1
102
RTVSPropertyOp6
 70
     1
102
RTVSPropertyOp7
 70
     1
102
RTVSPropertyOp8
 70
     1
102
RTVSPropertyOp9
 70
     1
102
RTVSPropertyOp10
 70
     1
102
RTVSPropertyOp11
 70
     1
102
RTVSPropertyOp12
 70
     1
102
RTVSPropertyOp13
 70
     1
102
RTVSPropertyOp14
 70
     1
102
RTVSPropertyOp15
 70
     1
102
RTVSPropertyOp16
 70
     1
102
RTVSPropertyOp17
 70
     1
102
RTVSPropertyOp18
 70
     1
102
RTVSPropertyOp19
 70
     1
102
RTVSPropertyOp20
 70
     1
102
RTVSPropertyOp21
 70
     1
102
RTVSPropertyOp22
 70
     1
102
RTVSPropertyOp23
 70
     1
102
RTVSPropertyOp24
 70
     1
102
RTVSPropertyOp25
 70
     1
102
RTVSPropertyOp26
 70
     1
102
RTVSPropertyOp27
 70
     1
  0
XRECORD
  5
13E4
102
{ACAD_REACTORS
330
13E3
102
}
330
13E3
100
AcDbXrecord
280
     1
102
RTVSPropertyOp0
 70
     1
102
RTVSPropertyOp1
 70
     1
102
RTVSPropertyOp2
 70
     1
102
RTVSPropertyOp3
 70
     1
102
RTVSPropertyOp4
 70
     1
102
RTVSPropertyOp5
 70
     1
102
RTVSPropertyOp6
 70
     1
102
RTVSPropertyOp7
 70
     1
102
RTVSPropertyOp8
 70
     1
102
RTVSPropertyOp9
 70
     1
102
RTVSPropertyOp10
 70
     1
102
RTVSPropertyOp11
 70
     1
102
RTVSPropertyOp12
 70
     1
102
RTVSPropertyOp13
 70
     1
102
RTVSPropertyOp14
 70
     1
102
RTVSPropertyOp15
 70
     1
102
RTVSPropertyOp16
 70
     1
102
RTVSPropertyOp17
 70
     1
102
RTVSPropertyOp18
 70
     1
102
RTVSPropertyOp19
 70
     1
102
RTVSPropertyOp20
 70
     1
102
RTVSPropertyOp21
 70
     1
102
RTVSPropertyOp22
 70
     1
102
RTVSPropertyOp23
 70
     1
102
RTVSPropertyOp24
 70
     1
102
RTVSPropertyOp25
 70
     1
102
RTVSPropertyOp26
 70
     1
102
RTVSPropertyOp27
 70
     1
  0
XRECORD
  5
13E6
102
{ACAD_REACTORS
330
13E5
102
}
330
13E5
100
AcDbXrecord
280
     1
102
RTVSPropertyOp0
 70
     1
102
RTVSPropertyOp1
 70
     1
102
RTVSPropertyOp2
 70
     1
102
RTVSPropertyOp3
 70
     1
102
RTVSPropertyOp4
 70
     1
102
RTVSPropertyOp5
 70
     1
102
RTVSPropertyOp6
 70
     1
102
RTVSPropertyOp7
 70
     1
102
RTVSPropertyOp8
 70
     1
102
RTVSPropertyOp9
 70
     1
102
RTVSPropertyOp10
 70
     1
102
RTVSPropertyOp11
 70
     1
102
RTVSPropertyOp12
 70
     1
102
RTVSPropertyOp13
 70
     1
102
RTVSPropertyOp14
 70
     1
102
RTVSPropertyOp15
 70
     1
102
RTVSPropertyOp16
 70
     1
102
RTVSPropertyOp17
 70
     1
102
RTVSPropertyOp18
 70
     1
102
RTVSPropertyOp19
 70
     1
102
RTVSPropertyOp20
 70
     1
102
RTVSPropertyOp21
 70
     1
102
RTVSPropertyOp22
 70
     1
102
RTVSPropertyOp23
 70
     1
102
RTVSPropertyOp24
 70
     1
102
RTVSPropertyOp25
 70
     1
102
RTVSPropertyOp26
 70
     1
102
RTVSPropertyOp27
 70
     1
  0
XRECORD
  5
13E8
102
{ACAD_REACTORS
330
13E7
102
}
330
13E7
100
AcDbXrecord
280
     1
102
RTVSPropertyOp0
 70
     1
102
RTVSPropertyOp1
 70
     1
102
RTVSPropertyOp2
 70
     1
102
RTVSPropertyOp3
 70
     1
102
RTVSPropertyOp4
 70
     1
102
RTVSPropertyOp5
 70
     1
102
RTVSPropertyOp6
 70
     1
102
RTVSPropertyOp7
 70
     1
102
RTVSPropertyOp8
 70
     1
102
RTVSPropertyOp9
 70
     1
102
RTVSPropertyOp10
 70
     1
102
RTVSPropertyOp11
 70
     1
102
RTVSPropertyOp12
 70
     1
102
RTVSPropertyOp13
 70
     1
102
RTVSPropertyOp14
 70
     1
102
RTVSPropertyOp15
 70
     1
102
RTVSPropertyOp16
 70
     1
102
RTVSPropertyOp17
 70
     1
102
RTVSPropertyOp18
 70
     1
102
RTVSPropertyOp19
 70
     1
102
RTVSPropertyOp20
 70
     1
102
RTVSPropertyOp21
 70
     1
102
RTVSPropertyOp22
 70
     1
102
RTVSPropertyOp23
 70
     1
102
RTVSPropertyOp24
 70
     1
102
RTVSPropertyOp25
 70
     1
102
RTVSPropertyOp26
 70
     1
102
RTVSPropertyOp27
 70
     1
  0
XRECORD
  5
1402
102
{ACAD_REACTORS
330
1401
102
}
330
1401
100
AcDbXrecord
280
     1
102
RTVSPropertyOp0
 70
     0
102
RTVSPropertyOp1
 70
     0
102
RTVSPropertyOp2
 70
     0
102
RTVSPropertyOp3
 70
     0
102
RTVSPropertyOp4
 70
     0
102
RTVSPropertyOp5
 70
     0
102
RTVSPropertyOp6
 70
     0
102
RTVSPropertyOp7
 70
     0
102
RTVSPropertyOp8
 70
     0
102
RTVSPropertyOp9
 70
     0
102
RTVSPropertyOp10
 70
     0
102
RTVSPropertyOp11
 70
     0
102
RTVSPropertyOp12
 70
     0
102
RTVSPropertyOp13
 70
     0
102
RTVSPropertyOp14
 70
     2
102
RTVSPropertyOp15
 70
     0
102
RTVSPropertyOp16
 70
     0
102
RTVSPropertyOp17
 70
     0
102
RTVSPropertyOp18
 70
     0
102
RTVSPropertyOp19
 70
     0
102
RTVSPropertyOp20
 70
     0
102
RTVSPropertyOp21
 70
     0
102
RTVSPropertyOp22
 70
     0
102
RTVSPropertyOp23
 70
     0
102
RTVSPropertyOp24
 70
     0
102
RTVSPropertyOp25
 70
     0
102
RTVSPropertyOp26
 70
     0
102
RTVSPropertyOp27
 70
     0
  0
XRECORD
  5
13FC
102
{ACAD_REACTORS
330
13FB
102
}
330
13FB
100
AcDbXrecord
280
     1
102
RTVSPropertyOp0
 70
     1
102
RTVSPropertyOp1
 70
     1
102
RTVSPropertyOp2
 70
     1
102
RTVSPropertyOp3
 70
     1
102
RTVSPropertyOp4
 70
     1
102
RTVSPropertyOp5
 70
     1
102
RTVSPropertyOp6
 70
     1
102
RTVSPropertyOp7
 70
     1
102
RTVSPropertyOp8
 70
     1
102
RTVSPropertyOp9
 70
     1
102
RTVSPropertyOp10
 70
     1
102
RTVSPropertyOp11
 70
     1
102
RTVSPropertyOp12
 70
     1
102
RTVSPropertyOp13
 70
     1
102
RTVSPropertyOp14
 70
     1
102
RTVSPropertyOp15
 70
     1
102
RTVSPropertyOp16
 70
     1
102
RTVSPropertyOp17
 70
     1
102
RTVSPropertyOp18
 70
     1
102
RTVSPropertyOp19
 70
     1
102
RTVSPropertyOp20
 70
     1
102
RTVSPropertyOp21
 70
     1
102
RTVSPropertyOp22
 70
     1
102
RTVSPropertyOp23
 70
     1
102
RTVSPropertyOp24
 70
     1
102
RTVSPropertyOp25
 70
     1
102
RTVSPropertyOp26
 70
     1
102
RTVSPropertyOp27
 70
     1
  0
XRECORD
  5
1404
102
{ACAD_REACTORS
330
1403
102
}
330
1403
100
AcDbXrecord
280
     1
102
RTVSPropertyOp0
 70
     0
102
RTVSPropertyOp1
 70
     0
102
RTVSPropertyOp2
 70
     0
102
RTVSPropertyOp3
 70
     0
102
RTVSPropertyOp4
 70
     0
102
RTVSPropertyOp5
 70
     0
102
RTVSPropertyOp6
 70
     0
102
RTVSPropertyOp7
 70
     0
102
RTVSPropertyOp8
 70
     0
102
RTVSPropertyOp9
 70
     0
102
RTVSPropertyOp10
 70
     0
102
RTVSPropertyOp11
 70
     0
102
RTVSPropertyOp12
 70
     0
102
RTVSPropertyOp13
 70
     0
102
RTVSPropertyOp14
 70
     2
102
RTVSPropertyOp15
 70
     0
102
RTVSPropertyOp16
 70
     0
102
RTVSPropertyOp17
 70
     0
102
RTVSPropertyOp18
 70
     0
102
RTVSPropertyOp19
 70
     0
102
RTVSPropertyOp20
 70
     0
102
RTVSPropertyOp21
 70
     0
102
RTVSPropertyOp22
 70
     0
102
RTVSPropertyOp23
 70
     0
102
RTVSPropertyOp24
 70
     0
102
RTVSPropertyOp25
 70
     0
102
RTVSPropertyOp26
 70
     0
102
RTVSPropertyOp27
 70
     0
  0
XRECORD
  5
13F4
102
{ACAD_REACTORS
330
13F3
102
}
330
13F3
100
AcDbXrecord
280
     1
102
RTVSPropertyOp0
 70
     1
102
RTVSPropertyOp1
 70
     1
102
RTVSPropertyOp2
 70
     1
102
RTVSPropertyOp3
 70
     1
102
RTVSPropertyOp4
 70
     1
102
RTVSPropertyOp5
 70
     1
102
RTVSPropertyOp6
 70
     1
102
RTVSPropertyOp7
 70
     1
102
RTVSPropertyOp8
 70
     1
102
RTVSPropertyOp9
 70
     1
102
RTVSPropertyOp10
 70
     1
102
RTVSPropertyOp11
 70
     1
102
RTVSPropertyOp12
 70
     1
102
RTVSPropertyOp13
 70
     1
102
RTVSPropertyOp14
 70
     1
102
RTVSPropertyOp15
 70
     1
102
RTVSPropertyOp16
 70
     1
102
RTVSPropertyOp17
 70
     1
102
RTVSPropertyOp18
 70
     1
102
RTVSPropertyOp19
 70
     1
102
RTVSPropertyOp20
 70
     1
102
RTVSPropertyOp21
 70
     1
102
RTVSPropertyOp22
 70
     1
102
RTVSPropertyOp23
 70
     1
102
RTVSPropertyOp24
 70
     1
102
RTVSPropertyOp25
 70
     1
102
RTVSPropertyOp26
 70
     1
102
RTVSPropertyOp27
 70
     1
  0
XRECORD
  5
13FA
102
{ACAD_REACTORS
330
13F9
102
}
330
13F9
100
AcDbXrecord
280
     1
102
RTVSPropertyOp0
 70
     1
102
RTVSPropertyOp1
 70
     1
102
RTVSPropertyOp2
 70
     1
102
RTVSPropertyOp3
 70
     1
102
RTVSPropertyOp4
 70
     1
102
RTVSPropertyOp5
 70
     1
102
RTVSPropertyOp6
 70
     1
102
RTVSPropertyOp7
 70
     1
102
RTVSPropertyOp8
 70
     1
102
RTVSPropertyOp9
 70
     1
102
RTVSPropertyOp10
 70
     1
102
RTVSPropertyOp11
 70
     1
102
RTVSPropertyOp12
 70
     1
102
RTVSPropertyOp13
 70
     1
102
RTVSPropertyOp14
 70
     1
102
RTVSPropertyOp15
 70
     1
102
RTVSPropertyOp16
 70
     1
102
RTVSPropertyOp17
 70
     1
102
RTVSPropertyOp18
 70
     1
102
RTVSPropertyOp19
 70
     1
102
RTVSPropertyOp20
 70
     1
102
RTVSPropertyOp21
 70
     1
102
RTVSPropertyOp22
 70
     1
102
RTVSPropertyOp23
 70
     1
102
RTVSPropertyOp24
 70
     1
102
RTVSPropertyOp25
 70
     1
102
RTVSPropertyOp26
 70
     1
102
RTVSPropertyOp27
 70
     1
  0
ENDSEC
  0
EOF
