  0
SECTION
  2
HEADER
  9
$ACADVER
  1
AC1015
  9
$ACADMAINTVER
 70
     6
  9
$DWGCODEPAGE
  3
ANSI_1252
  9
$INSBASE
 10
0.0
 20
0.0
 30
0.0
  9
$EXTMIN
 10
0.0
 20
0.0
 30
0.0
  9
$EXTMAX
 10
420.0
 20
297.0
 30
0.0
  9
$LIMMIN
 10
0.0
 20
0.0
  9
$LIMMAX
 10
420.0
 20
297.0
  9
$ORTHOMODE
 70
     0
  9
$REGENMODE
 70
     1
  9
$FILLMODE
 70
     1
  9
$QTEXTMODE
 70
     0
  9
$MIRRTEXT
 70
     1
  9
$LTSCALE
 40
1.0
  9
$ATTMODE
 70
     1
  9
$TEXTSIZE
 40
3.5
  9
$TRACEWID
 40
1.0
  9
$TEXTSTYLE
  7
Standard
  9
$CLAYER
  8
0
  9
$CELTYPE
  6
ByLayer
  9
$CECOLOR
 62
   256
  9
$CELTSCALE
 40
1.0
  9
$DISPSILH
 70
     0
  9
$DIMSCALE
 40
1.0
  9
$DIMASZ
 40
3.5
  9
$DIMEXO
 40
0.1
  9
$DIMDLI
 40
3.75
  9
$DIMRND
 40
0.0
  9
$DIMDLE
 40
0.0
  9
$DIMEXE
 40
1.0
  9
$DIMTP
 40
0.0
  9
$DIMTM
 40
0.0
  9
$DIMTXT
 40
3.5
  9
$DIMCEN
 40
2.5
  9
$DIMTSZ
 40
0.0
  9
$DIMTOL
 70
     0
  9
$DIMLIM
 70
     0
  9
$DIMTIH
 70
     1
  9
$DIMTOH
 70
     1
  9
$DIMSE1
 70
     0
  9
$DIMSE2
 70
     0
  9
$DIMTAD
 70
     1
  9
$DIMZIN
 70
     0
  9
$DIMBLK
  1

  9
$DIMASO
 70
     1
  9
$DIMSHO
 70
     1
  9
$DIMPOST
  1

  9
$DIMAPOST
  1

  9
$DIMALT
 70
     0
  9
$DIMALTD
 70
     3
  9
$DIMALTF
 40
0.0393700787
  9
$DIMLFAC
 40
5.0
  9
$DIMTOFL
 70
     1
  9
$DIMTVP
 40
0.0
  9
$DIMTIX
 70
     0
  9
$DIMSOXD
 70
     0
  9
$DIMSAH
 70
     0
  9
$DIMBLK1
  1

  9
$DIMBLK2
  1

  9
$DIMSTYLE
  2
ISO-25
  9
$DIMCLRD
 70
     0
  9
$DIMCLRE
 70
     0
  9
$DIMCLRT
 70
     0
  9
$DIMTFAC
 40
1.0
  9
$DIMGAP
 40
2.0
  9
$DIMJUST
 70
     0
  9
$DIMSD1
 70
     0
  9
$DIMSD2
 70
     0
  9
$DIMTOLJ
 70
     0
  9
$DIMTZIN
 70
     0
  9
$DIMALTZ
 70
     0
  9
$DIMALTTZ
 70
     0
  9
$DIMUPT
 70
     0
  9
$DIMDEC
 70
     2
  9
$DIMTDEC
 70
     3
  9
$DIMALTU
 70
     2
  9
$DIMALTTD
 70
     3
  9
$DIMTXSTY
  7
Standard
  9
$DIMAUNIT
 70
     0
  9
$DIMADEC
 70
     2
  9
$DIMALTRND
 40
0.0
  9
$DIMAZIN
 70
     0
  9
$DIMDSEP
 70
    44
  9
$DIMATFIT
 70
     3
  9
$DIMFRAC
 70
     0
  9
$DIMLDRBLK
  1

  9
$DIMLUNIT
 70
     2
  9
$DIMLWD
 70
    -2
  9
$DIMLWE
 70
    -2
  9
$DIMTMOVE
 70
     0
  9
$LUNITS
 70
     2
  9
$LUPREC
 70
     2
  9
$SKETCHINC
 40
1.0
  9
$FILLETRAD
 40
10.0
  9
$AUNITS
 70
     0
  9
$AUPREC
 70
     2
  9
$MENU
  1
.
  9
$ELEVATION
 40
0.0
  9
$PELEVATION
 40
0.0
  9
$THICKNESS
 40
0.0
  9
$LIMCHECK
 70
     0
  9
$CHAMFERA
 40
0.0
  9
$CHAMFERB
 40
0.0
  9
$CHAMFERC
 40
0.0
  9
$CHAMFERD
 40
0.0
  9
$SKPOLY
 70
     0
  9
$TDCREATE
 40
2460569.679065023
  9
$TDUCREATE
 40
2460569.59573169
  9
$TDUPDATE
 40
2460569.679070775
  9
$TDUUPDATE
 40
2460569.595737442
  9
$TDINDWG
 40
0.0000000116
  9
$TDUSRTIMER
 40
0.0000000116
  9
$USRTIMER
 70
     1
  9
$ANGBASE
 50
0.0
  9
$ANGDIR
 70
     0
  9
$PDMODE
 70
     0
  9
$PDSIZE
 40
-1.0
  9
$PLINEWID
 40
0.0
  9
$SPLFRAME
 70
     0
  9
$SPLINETYPE
 70
     6
  9
$SPLINESEGS
 70
     8
  9
$HANDSEED
  5
2B6
  9
$SURFTAB1
 70
     6
  9
$SURFTAB2
 70
     6
  9
$SURFTYPE
 70
     6
  9
$SURFU
 70
     6
  9
$SURFV
 70
     6
  9
$UCSBASE
  2

  9
$UCSNAME
  2

  9
$UCSORG
 10
0.0
 20
0.0
 30
0.0
  9
$UCSXDIR
 10
1.0
 20
0.0
 30
0.0
  9
$UCSYDIR
 10
0.0
 20
1.0
 30
0.0
  9
$UCSORTHOREF
  2

  9
$UCSORTHOVIEW
 70
     0
  9
$UCSORGTOP
 10
0.0
 20
0.0
 30
0.0
  9
$UCSORGBOTTOM
 10
0.0
 20
0.0
 30
0.0
  9
$UCSORGLEFT
 10
0.0
 20
0.0
 30
0.0
  9
$UCSORGRIGHT
 10
0.0
 20
0.0
 30
0.0
  9
$UCSORGFRONT
 10
0.0
 20
0.0
 30
0.0
  9
$UCSORGBACK
 10
0.0
 20
0.0
 30
0.0
  9
$PUCSBASE
  2

  9
$PUCSNAME
  2

  9
$PUCSORG
 10
0.0
 20
0.0
 30
0.0
  9
$PUCSXDIR
 10
1.0
 20
0.0
 30
0.0
  9
$PUCSYDIR
 10
0.0
 20
1.0
 30
0.0
  9
$PUCSORTHOREF
  2

  9
$PUCSORTHOVIEW
 70
     0
  9
$PUCSORGTOP
 10
0.0
 20
0.0
 30
0.0
  9
$PUCSORGBOTTOM
 10
0.0
 20
0.0
 30
0.0
  9
$PUCSORGLEFT
 10
0.0
 20
0.0
 30
0.0
  9
$PUCSORGRIGHT
 10
0.0
 20
0.0
 30
0.0
  9
$PUCSORGFRONT
 10
0.0
 20
0.0
 30
0.0
  9
$PUCSORGBACK
 10
0.0
 20
0.0
 30
0.0
  9
$USERI1
 70
     0
  9
$USERI2
 70
     0
  9
$USERI3
 70
     0
  9
$USERI4
 70
     0
  9
$USERI5
 70
     0
  9
$USERR1
 40
0.0
  9
$USERR2
 40
0.0
  9
$USERR3
 40
0.0
  9
$USERR4
 40
0.0
  9
$USERR5
 40
0.0
  9
$WORLDVIEW
 70
     1
  9
$SHADEDGE
 70
     3
  9
$SHADEDIF
 70
    70
  9
$TILEMODE
 70
     1
  9
$MAXACTVP
 70
    64
  9
$PINSBASE
 10
0.0
 20
0.0
 30
0.0
  9
$PLIMCHECK
 70
     0
  9
$PEXTMIN
 10
1.0000000000E+20
 20
1.0000000000E+20
 30
1.0000000000E+20
  9
$PEXTMAX
 10
-1.0000000000E+20
 20
-1.0000000000E+20
 30
-1.0000000000E+20
  9
$PLIMMIN
 10
0.0
 20
0.0
  9
$PLIMMAX
 10
420.0
 20
297.0
  9
$UNITMODE
 70
     0
  9
$VISRETAIN
 70
     1
  9
$PLINEGEN
 70
     0
  9
$PSLTSCALE
 70
     1
  9
$TREEDEPTH
 70
  3020
  9
$CMLSTYLE
  2
Standard
  9
$CMLJUST
 70
     0
  9
$CMLSCALE
 40
20.0
  9
$PROXYGRAPHICS
 70
     1
  9
$MEASUREMENT
 70
     1
  9
$CELWEIGHT
370
    -1
  9
$ENDCAPS
280
     0
  9
$JOINSTYLE
280
     0
  9
$LWDISPLAY
290
     1
  9
$INSUNITS
 70
     4
  9
$HYPERLINKBASE
  1

  9
$STYLESHEET
  1

  9
$XEDIT
290
     1
  9
$CEPSNTYPE
380
     0
  9
$PSTYLEMODE
290
     1
  9
$FINGERPRINTGUID
  2
{12934215-ee38-446c-85b6-6c1a1c561b3b}
  9
$VERSIONGUID
  2
{FAEB1C32-E019-11D5-929B-00C0DF256EC4}
  9
$EXTNAMES
290
     1
  9
$PSVPSCALE
 40
0.0
  9
$OLESTARTUP
290
     0
  0
ENDSEC
  0
SECTION
  2
CLASSES
  0
CLASS
  1
ACDBDICTIONARYWDFLT
  2
AcDbDictionaryWithDefault
  3
ObjectDBX Classes
 90
        0
280
     0
281
     0
  0
CLASS
  1
VISUALSTYLE
  2
AcDbVisualStyle
  3
ObjectDBX Classes
 90
     4095
280
     0
281
     0
  0
CLASS
  1
MATERIAL
  2
AcDbMaterial
  3
ObjectDBX Classes
 90
     1153
280
     0
281
     0
  0
CLASS
  1
SCALE
  2
AcDbScale
  3
ObjectDBX Classes
 90
     1153
280
     0
281
     0
  0
CLASS
  1
TABLESTYLE
  2
AcDbTableStyle
  3
ObjectDBX Classes
 90
     4095
280
     0
281
     0
  0
CLASS
  1
MLEADERSTYLE
  2
AcDbMLeaderStyle
  3
ACDB_MLEADERSTYLE_CLASS
 90
     4095
280
     0
281
     0
  0
CLASS
  1
SUN
  2
AcDbSun
  3
SCENEOE
 90
     1153
280
     0
281
     0
  0
CLASS
  1
ACDBPLACEHOLDER
  2
AcDbPlaceHolder
  3
ObjectDBX Classes
 90
        0
280
     0
281
     0
  0
CLASS
  1
LAYOUT
  2
AcDbLayout
  3
ObjectDBX Classes
 90
        0
280
     0
281
     0
  0
ENDSEC
  0
SECTION
  2
TABLES
  0
TABLE
  2
VPORT
  5
8
330
0
100
AcDbSymbolTable
 70
     1
  0
VPORT
  5
29
330
8
100
AcDbSymbolTableRecord
100
AcDbViewportTableRecord
  2
*Active
 70
     0
 10
0.0
 20
0.0
 11
1.0
 21
1.0
 12
210.0
 22
148.5
 13
0.0
 23
0.0
 14
10.0
 24
10.0
 15
10.0
 25
10.0
 16
0.0
 26
0.0
 36
1.0
 17
0.0
 27
0.0
 37
0.0
 40
297.0
 41
1.4141414141
 42
50.0
 43
0.0
 44
0.0
 50
0.0
 51
0.0
 71
     0
 72
  2000
 73
     1
 74
     3
 75
     0
 76
     0
 77
     0
 78
     0
281
     0
 65
     1
110
0.0
120
0.0
130
0.0
111
1.0
121
0.0
131
0.0
112
0.0
122
1.0
132
0.0
 79
     0
146
0.0
  0
ENDTAB
  0
TABLE
  2
LTYPE
  5
5
330
0
100
AcDbSymbolTable
 70
     6
  0
LTYPE
  5
14
330
5
100
AcDbSymbolTableRecord
100
AcDbLinetypeTableRecord
  2
ByBlock
 70
     0
  3

 72
    65
 73
     0
 40
0.0
  0
LTYPE
  5
15
330
5
100
AcDbSymbolTableRecord
100
AcDbLinetypeTableRecord
  2
ByLayer
 70
     0
  3

 72
    65
 73
     0
 40
0.0
  0
LTYPE
  5
16
330
5
100
AcDbSymbolTableRecord
100
AcDbLinetypeTableRecord
  2
Continuous
 70
     0
  3
Solid line
 72
    65
 73
     0
 40
0.0
  0
LTYPE
  5
6E
330
5
100
AcDbSymbolTableRecord
100
AcDbLinetypeTableRecord
  2
HIDDEN
 70
     0
  3
Hidden __ __ __ __ __ __ __ __ __ __ __ __ __ __
 72
    65
 73
     2
 40
1.905
 49
1.27
 74
     0
 49
-0.635
 74
     0
  0
LTYPE
  5
6F
330
5
100
AcDbSymbolTableRecord
100
AcDbLinetypeTableRecord
  2
PHANTOM
 70
     0
  3
Phantom ______  __  __  ______  __  __  ______
 72
    65
 73
     6
 40
12.7
 49
6.35
 74
     0
 49
-1.27
 74
     0
 49
1.27
 74
     0
 49
-1.27
 74
     0
 49
1.27
 74
     0
 49
-1.27
 74
     0
  0
LTYPE
  5
70
330
5
100
AcDbSymbolTableRecord
100
AcDbLinetypeTableRecord
  2
CENTER
 70
     0
  3
Center ____ _ ____ _ ____ _ ____ _ ____ _ ____
 72
    65
 73
     4
 40
10.16
 49
6.35
 74
     0
 49
-1.27
 74
     0
 49
1.27
 74
     0
 49
-1.27
 74
     0
  0
LTYPE
  5
71
330
5
100
AcDbSymbolTableRecord
100
AcDbLinetypeTableRecord
  2
CENTERX2
 70
     0
  3
Center (2x) ________  __  ________  __  _____
 72
    65
 73
     4
 40
20.32
 49
12.7
 74
     0
 49
-2.54
 74
     0
 49
2.54
 74
     0
 49
-2.54
 74
     0
  0
LTYPE
  5
72
330
5
100
AcDbSymbolTableRecord
100
AcDbLinetypeTableRecord
  2
DOT2
 70
     0
  3
Dot (.5x) ........................................
 72
    65
 73
     2
 40
0.635
 49
0.0
 74
     0
 49
-0.635
 74
     0
  0
ENDTAB
  0
TABLE
  2
LAYER
  5
2
330
0
100
AcDbSymbolTable
 70
     1
  0
LAYER
  5
10
330
2
100
AcDbSymbolTableRecord
100
AcDbLayerTableRecord
  2
0
 70
     0
 62
     7
  6
Continuous
370
    -3
390
F
  0
ENDTAB
  0
TABLE
  2
STYLE
  5
3
330
0
100
AcDbSymbolTable
 70
     3
  0
STYLE
  5
11
330
3
100
AcDbSymbolTableRecord
100
AcDbTextStyleTableRecord
  2
Standard
 70
     0
 40
0.0
 41
1.0
 50
0.0
 71
     0
 42
3.5
  3
txt
  4

  0
STYLE
  5
E9
330
3
100
AcDbSymbolTableRecord
100
AcDbTextStyleTableRecord
  2
SLDTEXTSTYLE0
 70
     0
 40
0.0
 41
0.605
 50
0.0
 71
     0
 42
3.5
  3
TXT
  4

  0
STYLE
  5
198
330
3
100
AcDbSymbolTableRecord
100
AcDbTextStyleTableRecord
  2
SLDTEXTSTYLE1
 70
     0
 40
0.0
 41
0.563
 50
0.0
 71
     0
 42
3.5
  3
TXT
  4

  0
ENDTAB
  0
TABLE
  2
VIEW
  5
6
330
0
100
AcDbSymbolTable
 70
     0
  0
ENDTAB
  0
TABLE
  2
UCS
  5
7
330
0
100
AcDbSymbolTable
 70
     0
  0
ENDTAB
  0
TABLE
  2
APPID
  5
9
330
0
100
AcDbSymbolTable
 70
     1
  0
APPID
  5
12
330
9
100
AcDbSymbolTableRecord
100
AcDbRegAppTableRecord
  2
ACAD
 70
     0
  0
ENDTAB
  0
TABLE
  2
DIMSTYLE
  5
A
330
0
100
AcDbSymbolTable
 70
     4
100
AcDbDimStyleTable
  0
DIMSTYLE
105
27
330
A
100
AcDbSymbolTableRecord
100
AcDbDimStyleTableRecord
  2
ISO-25
 70
     0
 41
2.5
 42
0.625
 43
3.75
 44
1.25
 73
     0
 74
     0
 77
     1
 78
     8
140
2.5
141
2.5
143
0.0393700787
147
0.625
171
     3
172
     1
178
     0
271
     2
272
     2
274
     3
278
    44
283
     0
284
     8
340
11
  0
DIMSTYLE
105
1B5
102
{ACAD_REACTORS
330
1B4
102
}
330
A
100
AcDbSymbolTableRecord
100
AcDbDimStyleTableRecord
  2
SLDDIMSTYLE0
 70
     0
 41
3.5
 44
0.0
 45
0.000000001
 73
     0
 74
     0
 77
     1
 78
    12
 79
     3
140
3.5
144
5.0
147
0.875
173
     1
178
     0
271
     2
272
     3
276
     2
284
    12
340
E9
  0
DIMSTYLE
105
200
102
{ACAD_REACTORS
330
1FF
330
20A
330
214
330
21E
330
228
102
}
330
A
100
AcDbSymbolTableRecord
100
AcDbDimStyleTableRecord
  2
SLDDIMSTYLE1
 70
     0
 41
3.5
 44
0.0
 45
0.000000001
 73
     0
 74
     0
 77
     1
 78
    12
 79
     3
140
3.5
147
0.875
173
     1
178
     0
271
     2
272
     3
276
     2
284
    12
340
E9
  0
DIMSTYLE
105
233
102
{ACAD_REACTORS
330
232
330
23F
102
}
330
A
100
AcDbSymbolTableRecord
100
AcDbDimStyleTableRecord
  2
SLDDIMSTYLE2
 70
     0
 41
3.5
 44
0.0
 45
0.000000001
 73
     0
 74
     0
 77
     1
 78
    12
 79
     3
140
3.5
147
0.875
172
     1
173
     1
178
     0
271
     2
272
     3
276
     2
284
    12
289
     0
340
E9
  0
ENDTAB
  0
TABLE
  2
BLOCK_RECORD
  5
1
330
0
100
AcDbSymbolTable
 70
    14
  0
BLOCK_RECORD
  5
1F
330
1
100
AcDbSymbolTableRecord
100
AcDbBlockTableRecord
  2
*Model_Space
340
22
  0
BLOCK_RECORD
  5
1B
330
1
100
AcDbSymbolTableRecord
100
AcDbBlockTableRecord
  2
*Paper_Space
340
1E
  0
BLOCK_RECORD
  5
23
330
1
100
AcDbSymbolTableRecord
100
AcDbBlockTableRecord
  2
*Paper_Space0
340
26
  0
BLOCK_RECORD
  5
73
330
1
100
AcDbSymbolTableRecord
100
AcDbBlockTableRecord
  2
ACO-Logo
340
0
102
{BLKREFS
331
149
102
}
  0
BLOCK_RECORD
  5
E6
330
1
100
AcDbSymbolTableRecord
100
AcDbBlockTableRecord
  2
SW_NOTE_0
340
0
102
{BLKREFS
331
EB
102
}
  0
BLOCK_RECORD
  5
EC
330
1
100
AcDbSymbolTableRecord
100
AcDbBlockTableRecord
  2
SW_NOTE_0_1
340
0
102
{BLKREFS
331
F0
102
}
  0
BLOCK_RECORD
  5
F1
330
1
100
AcDbSymbolTableRecord
100
AcDbBlockTableRecord
  2
SW_NOTE_0_2
340
0
102
{BLKREFS
331
F8
102
}
  0
BLOCK_RECORD
  5
170
330
1
100
AcDbSymbolTableRecord
100
AcDbBlockTableRecord
  2
SW_NOTE_0_3
340
0
102
{BLKREFS
331
178
102
}
  0
BLOCK_RECORD
  5
1B6
330
1
100
AcDbSymbolTableRecord
100
AcDbBlockTableRecord
  2
_D
340
0
  0
BLOCK_RECORD
  5
201
330
1
100
AcDbSymbolTableRecord
100
AcDbBlockTableRecord
  2
_D_1
340
0
  0
BLOCK_RECORD
  5
20B
330
1
100
AcDbSymbolTableRecord
100
AcDbBlockTableRecord
  2
_D_2
340
0
  0
BLOCK_RECORD
  5
215
330
1
100
AcDbSymbolTableRecord
100
AcDbBlockTableRecord
  2
_D_3
340
0
  0
BLOCK_RECORD
  5
21F
330
1
100
AcDbSymbolTableRecord
100
AcDbBlockTableRecord
  2
_D_4
340
0
  0
BLOCK_RECORD
  5
229
330
1
100
AcDbSymbolTableRecord
100
AcDbBlockTableRecord
  2
_D_5
340
0
  0
BLOCK_RECORD
  5
234
330
1
100
AcDbSymbolTableRecord
100
AcDbBlockTableRecord
  2
_D_6
340
0
  0
BLOCK_RECORD
  5
240
330
1
100
AcDbSymbolTableRecord
100
AcDbBlockTableRecord
  2
_D_7
340
0
  0
ENDTAB
  0
ENDSEC
  0
SECTION
  2
BLOCKS
  0
BLOCK
  5
20
330
1F
100
AcDbEntity
  8
0
100
AcDbBlockBegin
  2
*Model_Space
 70
     0
 10
0.0
 20
0.0
 30
0.0
  3
*Model_Space
  1

  0
ENDBLK
  5
21
330
1F
100
AcDbEntity
  8
0
100
AcDbBlockEnd
  0
BLOCK
  5
1C
330
1B
100
AcDbEntity
 67
     1
  8
0
100
AcDbBlockBegin
  2
*Paper_Space
 70
     0
 10
0.0
 20
0.0
 30
0.0
  3
*Paper_Space
  1

  0
ENDBLK
  5
1D
330
1B
100
AcDbEntity
 67
     1
  8
0
100
AcDbBlockEnd
  0
BLOCK
  5
24
330
23
100
AcDbEntity
  8
0
100
AcDbBlockBegin
  2
*Paper_Space0
 70
     0
 10
0.0
 20
0.0
 30
0.0
  3
*Paper_Space0
  1

  0
ENDBLK
  5
25
330
23
100
AcDbEntity
  8
0
100
AcDbBlockEnd
  0
BLOCK
  5
74
330
73
100
AcDbEntity
  8
0
100
AcDbBlockBegin
  2
ACO-Logo
 70
     0
 10
0.0
 20
0.0
 30
0.0
  3
ACO-Logo
  1

  0
ARC
  5
76
330
73
100
AcDbEntity
  8
0
  6
Continuous
 62
   179
370
    18
100
AcDbCircle
 10
80.3853261169
 20
4.9940995715
 30
0.0
 40
0.3000000000000441
100
AcDbArc
 50
181.9349323096
 51
274.6062978506
  0
ARC
  5
77
330
73
100
AcDbEntity
  8
0
  6
Continuous
 62
   179
370
    18
100
AcDbCircle
 10
81.2359083165
 20
2.1946665956
 30
0.0
 40
1.000000000000021
100
AcDbArc
 50
221.4087409628
 51
276.0561297228
  0
ARC
  5
78
330
73
100
AcDbEntity
  8
0
  6
Continuous
 62
   179
370
    18
100
AcDbCircle
 10
79.1360017163
 20
3.654242048
 30
0.0
 40
0.300000000000004
100
AcDbArc
 50
181.2730300201
 51
274.4996077095
  0
ARC
  5
79
330
73
100
AcDbEntity
  8
0
  6
Continuous
 62
   179
370
    18
100
AcDbCircle
 10
78.7699033484
 20
3.2873137407
 30
0.0
 40
0.4000000000000358
100
AcDbArc
 50
221.0090869016
 51
274.5606296317
  0
ARC
  5
7A
330
73
100
AcDbEntity
  8
0
  6
Continuous
 62
   179
370
    18
100
AcDbCircle
 10
91.2333953062
 20
4.6062442307
 30
0.0
 40
0.3000000000000493
100
AcDbArc
 50
274.4996077095
 51
3.7249371334
  0
ARC
  5
7B
330
73
100
AcDbEntity
  8
0
  6
Continuous
 62
   179
370
    18
100
AcDbCircle
 10
81.5287571045
 20
9.7648973508
 30
0.0
 40
1.00000000000002
100
AcDbArc
 50
93.1134387481
 51
181.9414863909
  0
ARC
  5
7C
330
73
100
AcDbEntity
  8
0
  6
Continuous
 62
   179
370
    18
100
AcDbCircle
 10
81.6051675115
 20
7.5107903456
 30
0.0
 40
1.0
100
AcDbArc
 50
181.9414863909
 51
274.398705355
  0
ARC
  5
7D
330
73
100
AcDbEntity
  8
0
  6
Continuous
 62
   179
370
    18
100
AcDbCircle
 10
80.1506905656
 20
11.9393118923
 30
0.0
 40
0.300000000000045
100
AcDbArc
 50
93.0418421566
 51
181.9349323096
  0
ARC
  5
7E
330
73
100
AcDbEntity
  8
0
  6
Continuous
 62
   179
370
    18
100
AcDbCircle
 10
78.1879722102
 20
12.3499352608
 30
0.0
 40
0.7999999999953393
100
AcDbArc
 50
92.6995697565
 51
148.2554209065
  0
ARC
  5
7F
330
73
100
AcDbEntity
  8
0
  6
Continuous
 62
   179
370
    18
100
AcDbCircle
 10
78.930862229
 20
12.8855189761
 30
0.0
 40
0.3000000000000031
100
AcDbArc
 50
92.6995697565
 51
181.2730300201
  0
ARC
  5
80
330
73
100
AcDbEntity
  8
0
  6
Continuous
 62
   179
370
    18
100
AcDbCircle
 10
82.327743407
 20
9.8083568568
 30
0.0
 40
1.000000000000034
100
AcDbArc
 50
1.9414863909
 51
93.1134387481
  0
ARC
  5
81
330
73
100
AcDbEntity
  8
0
  6
Continuous
 62
   179
370
    18
100
AcDbCircle
 10
81.5287571045
 20
9.7648973508
 30
0.0
 40
0.3625000000000009
100
AcDbArc
 50
93.1134387481
 51
181.9414863909
  0
ARC
  5
82
330
73
100
AcDbEntity
  8
0
  6
Continuous
 62
   179
370
    18
100
AcDbCircle
 10
82.327743407
 20
9.8083568568
 30
0.0
 40
0.3625000000000146
100
AcDbArc
 50
1.9414863909
 51
93.1134387481
  0
ARC
  5
83
330
73
100
AcDbEntity
  8
0
  6
Continuous
 62
   179
370
    18
100
AcDbCircle
 10
82.4035451983
 20
7.5722040138
 30
0.0
 40
1.000000000000008
100
AcDbArc
 50
274.398705355
 51
1.9414863909
  0
ARC
  5
84
330
73
100
AcDbEntity
  8
0
  6
Continuous
 62
   179
370
    18
100
AcDbCircle
 10
82.4035451983
 20
7.5722040138
 30
0.0
 40
0.3625000000000068
100
AcDbArc
 50
274.398705355
 51
1.9414863909
  0
ARC
  5
85
330
73
100
AcDbEntity
  8
0
  6
Continuous
 62
   179
370
    18
100
AcDbCircle
 10
81.6051675115
 20
7.5107903456
 30
0.0
 40
0.3625000000000111
100
AcDbArc
 50
181.9414863909
 51
274.398705355
  0
ARC
  5
86
330
73
100
AcDbEntity
  8
0
  6
Continuous
 62
   179
370
    18
100
AcDbCircle
 10
88.825822761
 20
8.0662148274
 30
0.0
 40
0.9999999999999997
100
AcDbArc
 50
274.398705355
 51
2.6541955134
  0
ARC
  5
87
330
73
100
AcDbEntity
  8
0
  6
Continuous
 62
   179
370
    18
100
AcDbCircle
 10
90.1578295581
 20
5.7814576687
 30
0.0
 40
0.3000000000000043
100
AcDbArc
 50
274.6062978507
 51
2.5147526475
  0
ARC
  5
88
330
73
100
AcDbEntity
  8
0
  6
Continuous
 62
   179
370
    18
100
AcDbCircle
 10
88.825822761
 20
8.0662148274
 30
0.0
 40
0.3625000000000083
100
AcDbArc
 50
274.398705355
 51
2.6541955134
  0
ARC
  5
89
330
73
100
AcDbEntity
  8
0
  6
Continuous
 62
   179
370
    18
100
AcDbCircle
 10
88.728529747
 20
10.16496413
 30
0.0
 40
1.000000000000001
100
AcDbArc
 50
2.6541955134
 51
93.1134387481
  0
ARC
  5
8A
330
73
100
AcDbEntity
  8
0
  6
Continuous
 62
   179
370
    18
100
AcDbCircle
 10
88.728529747
 20
10.16496413
 30
0.0
 40
0.3625000000000085
100
AcDbArc
 50
2.6541955134
 51
93.1134387481
  0
ARC
  5
8B
330
73
100
AcDbEntity
  8
0
  6
Continuous
 62
   179
370
    18
100
AcDbCircle
 10
89.8647121341
 20
12.455515937
 30
0.0
 40
0.2999999999999984
100
AcDbArc
 50
2.5147526475
 51
93.0418421566
  0
ARC
  5
8C
330
73
100
AcDbEntity
  8
0
  6
Continuous
 62
   179
370
    18
100
AcDbCircle
 10
90.6583795404
 20
13.4384863935
 30
0.0
 40
0.2999999999999911
100
AcDbArc
 50
3.7249371334
 51
92.6995697565
  0
CIRCLE
  5
8D
330
73
100
AcDbEntity
  8
0
  6
Continuous
 62
   179
370
    18
100
AcDbCircle
 10
15.7233972286
 20
6.4054930194
 30
0.0
 40
1.579500000000014
  0
CIRCLE
  5
8E
330
73
100
AcDbEntity
  8
0
  6
Continuous
 62
   179
370
    18
100
AcDbCircle
 10
15.7233972286
 20
6.4054930194
 30
0.0
 40
2.281499999999994
  0
ARC
  5
8F
330
73
100
AcDbEntity
  8
0
  6
Continuous
 62
   179
370
    18
100
AcDbCircle
 10
89.7681336026
 20
2.3106616691
 30
0.0
 40
0.098384530246548
100
AcDbArc
 50
332.3802627259
 51
4.9765441602
  0
ARC
  5
90
330
73
100
AcDbEntity
  8
0
  6
Continuous
 62
   179
370
    18
100
AcDbCircle
 10
89.6886560089
 20
2.3522464185
 30
0.0
 40
0.1880839130754018
100
AcDbArc
 50
303.690067526
 51
332.3802627258
  0
ARC
  5
91
330
73
100
AcDbEntity
  8
0
  6
Continuous
 62
   179
370
    18
100
AcDbCircle
 10
89.4849700869
 20
2.6577753016
 30
0.0
 40
0.5552839311631531
100
AcDbArc
 50
287.108652213
 51
303.690067526
  0
ARC
  5
92
330
73
100
AcDbEntity
  8
0
  6
Continuous
 62
   179
370
    18
100
AcDbCircle
 10
88.0513010646
 20
7.3154864882
 30
0.0
 40
5.428648309393203
100
AcDbArc
 50
285.2551187031
 51
287.108652213
  0
ARC
  5
93
330
73
100
AcDbEntity
  8
0
  6
Continuous
 62
   179
370
    18
100
AcDbCircle
 10
89.1317168954
 20
3.3539617753
 30
0.0
 40
1.322436378825653
100
AcDbArc
 50
281.4991866428
 51
285.255118703
  0
ARC
  5
94
330
73
100
AcDbEntity
  8
0
  6
Continuous
 62
   179
370
    18
100
AcDbCircle
 10
89.3198255509
 20
2.4293110075
 30
0.0
 40
0.3788454141584939
100
AcDbArc
 50
279.1917900003
 51
281.499186643
  0
ARC
  5
95
330
73
100
AcDbEntity
  8
0
  6
Continuous
 62
   179
370
    18
100
AcDbCircle
 10
89.0487250788
 20
4.1046569124
 30
0.0
 40
2.07598399629105
100
AcDbArc
 50
277.7634675038
 51
279.1917900002
  0
ARC
  5
96
330
73
100
AcDbEntity
  8
0
  6
Continuous
 62
   179
370
    18
100
AcDbCircle
 10
9.2588909915
 20
6.4054930194
 30
0.0
 40
1.579500000000074
100
AcDbArc
 50
31.0558004991
 51
330.0
  0
ARC
  5
97
330
73
100
AcDbEntity
  8
0
  6
Continuous
 62
   179
370
    18
100
AcDbCircle
 10
9.2588909915
 20
6.4054930194
 30
0.0
 40
2.281500000000107
100
AcDbArc
 50
30.7309172659
 51
330.0
  0
ARC
  5
98
330
73
100
AcDbEntity
  8
0
  6
Continuous
 62
   179
370
    18
100
AcDbCircle
 10
6.1288847544
 20
4.0685261312
 30
0.0
 40
4.914000000000307
100
AcDbArc
 50
172.3058370354
 51
179.7113029221
  0
ARC
  5
99
330
73
100
AcDbEntity
  8
0
  6
Continuous
 62
   179
370
    18
100
AcDbCircle
 10
-0.5401152456
 20
4.0685261312
 30
0.0
 40
4.91400000000019
100
AcDbArc
 50
0.2886970779
 51
7.6941629646
  0
ARC
  5
9A
330
73
100
AcDbEntity
  8
0
  6
Continuous
 62
   179
370
    18
100
AcDbCircle
 10
-0.5401152456
 20
4.0685261312
 30
0.0
 40
5.616000000000127
100
AcDbArc
 50
0.2526096926
 51
53.5764263577
  0
ARC
  5
9B
330
73
100
AcDbEntity
  8
0
  6
Continuous
 62
   179
370
    18
100
AcDbCircle
 10
6.1288847544
 20
4.0685261312
 30
0.0
 40
5.61600000000074
100
AcDbArc
 50
126.4235736423
 51
179.7473903073
  0
ARC
  5
9C
330
73
100
AcDbEntity
  8
0
  6
Continuous
 62
   179
370
    18
100
AcDbCircle
 10
-0.5401152456
 20
4.0685261312
 30
0.0
 40
4.914000000000161
100
AcDbArc
 50
16.0658750272
 51
47.2678899574
  0
ARC
  5
9D
330
73
100
AcDbEntity
  8
0
  6
Continuous
 62
   179
370
    18
100
AcDbCircle
 10
6.1288847544
 20
4.0685261312
 30
0.0
 40
4.914000000000584
100
AcDbArc
 50
132.7321100426
 51
163.9341249728
  0
LINE
  5
9E
330
73
100
AcDbEntity
  8
0
  6
Continuous
 62
   179
370
    18
100
AcDbLine
 10
78.8017089389
 20
2.8885802402
 30
0.0
 11
90.7982178739
 21
3.8455002136
 31
0.0
  0
LINE
  5
9F
330
73
100
AcDbEntity
  8
0
  6
Continuous
 62
   179
370
    18
100
AcDbLine
 10
76.6545490427
 20
5.8693097374
 30
0.0
 11
78.0344191726
 21
3.5235305166
 31
0.0
  0
LINE
  5
A0
330
73
100
AcDbEntity
  8
0
  6
Continuous
 62
   179
370
    18
100
AcDbLine
 10
91.5327615373
 20
4.6257342197
 30
0.0
 11
90.9577457715
 21
13.4579763825
 31
0.0
  0
LINE
  5
A1
330
73
100
AcDbEntity
  8
0
  6
Continuous
 62
   179
370
    18
100
AcDbLine
 10
78.6309362756
 20
12.8788539549
 30
0.0
 11
78.8360757629
 21
3.6475770268
 31
0.0
  0
LINE
  5
A2
330
73
100
AcDbEntity
  8
0
  6
Continuous
 62
   179
370
    18
100
AcDbLine
 10
80.4094186633
 20
4.6950685544
 30
0.0
 11
90.1819221045
 21
5.4824266516
 31
0.0
  0
LINE
  5
A3
330
73
100
AcDbEntity
  8
0
  6
Continuous
 62
   179
370
    18
100
AcDbLine
 10
79.1595373973
 20
3.3551666867
 30
0.0
 11
91.2569309872
 21
4.3071688694
 31
0.0
  0
LINE
  5
A4
330
73
100
AcDbEntity
  8
0
  6
Continuous
 62
   179
370
    18
100
AcDbLine
 10
79.2585043218
 20
2.925017226
 30
0.0
 11
80.4858981444
 21
1.533240302
 31
0.0
  0
LINE
  5
A5
330
73
100
AcDbEntity
  8
0
  6
Continuous
 62
   179
370
    18
100
AcDbLine
 10
78.0344191726
 20
3.5235305166
 30
0.0
 11
78.3638740472
 21
3.1446574108
 31
0.0
  0
LINE
  5
A6
330
73
100
AcDbEntity
  8
0
  6
Continuous
 62
   179
370
    18
100
AcDbLine
 10
78.3638740472
 20
3.1446574108
 30
0.0
 11
78.4680611395
 21
3.0248422547
 31
0.0
  0
LINE
  5
A7
330
73
100
AcDbEntity
  8
0
  6
Continuous
 62
   179
370
    18
100
AcDbLine
 10
81.3414110113
 20
1.2002475785
 30
0.0
 11
89.3291569519
 21
2.0477010263
 31
0.0
  0
LINE
  5
A8
330
73
100
AcDbEntity
  8
0
  6
Continuous
 62
   179
370
    18
100
AcDbLine
 10
89.8661472522
 20
2.5197759309
 30
0.0
 11
89.8661472522
 21
2.3090867337
 31
0.0
  0
LINE
  5
A9
330
73
100
AcDbEntity
  8
0
  6
Continuous
 62
   179
370
    18
100
AcDbLine
 10
88.676842368
 20
3.6762854359
 30
0.0
 11
89.6713239345
 21
2.7875997807
 31
0.0
  0
LINE
  5
AA
330
73
100
AcDbEntity
  8
0
  6
Continuous
 62
   179
370
    18
100
AcDbLine
 10
89.6713239345
 20
2.7875997807
 30
0.0
 11
89.7459749087
 21
2.7242700694
 31
0.0
  0
LINE
  5
AB
330
73
100
AcDbEntity
  8
0
  6
Continuous
 62
   179
370
    18
100
AcDbLine
 10
90.7982178739
 20
3.8455002136
 30
0.0
 11
91.3961615969
 21
4.3514525945
 31
0.0
  0
LINE
  5
AC
330
73
100
AcDbEntity
  8
0
  6
Continuous
 62
   179
370
    18
100
AcDbLine
 10
90.6442498554
 20
13.7381534621
 30
0.0
 11
78.1502930503
 21
13.1490474438
 31
0.0
  0
LINE
  5
AD
330
73
100
AcDbEntity
  8
0
  6
Continuous
 62
   179
370
    18
100
AcDbLine
 10
80.1347709981
 20
12.2388892068
 30
0.0
 11
89.8487925667
 21
12.7550932515
 31
0.0
  0
LINE
  5
AE
330
73
100
AcDbEntity
  8
0
  6
Continuous
 62
   179
370
    18
100
AcDbLine
 10
76.4935641943
 20
11.7567556248
 30
0.0
 11
76.6545490427
 21
5.8693097374
 31
0.0
  0
LINE
  5
AF
330
73
100
AcDbEntity
  8
0
  6
Continuous
 62
   179
370
    18
100
AcDbLine
 10
79.8508616208
 20
11.929182536
 30
0.0
 11
80.0854971721
 21
4.9839702153
 31
0.0
  0
LINE
  5
B0
330
73
100
AcDbEntity
  8
0
  6
Continuous
 62
   179
370
    18
100
AcDbLine
 10
80.5293311574
 20
9.7310185051
 30
0.0
 11
80.6057415643
 21
7.4769115
 31
0.0
  0
LINE
  5
B1
330
73
100
AcDbEntity
  8
0
  6
Continuous
 62
   179
370
    18
100
AcDbLine
 10
77.507650604
 20
12.7708420346
 30
0.0
 11
76.4935641943
 21
11.7567556248
 31
0.0
  0
LINE
  5
B2
330
73
100
AcDbEntity
  8
0
  6
Continuous
 62
   179
370
    18
100
AcDbLine
 10
86.8848195129
 20
11.0661568594
 30
0.0
 11
88.6742167283
 21
11.1634880887
 31
0.0
  0
LINE
  5
B3
330
73
100
AcDbEntity
  8
0
  6
Continuous
 62
   179
370
    18
100
AcDbLine
 10
87.0766213517
 20
6.9287171941
 30
0.0
 11
88.90708891
 21
7.0695223909
 31
0.0
  0
LINE
  5
B4
330
73
100
AcDbEntity
  8
0
  6
Continuous
 62
   179
370
    18
100
AcDbLine
 10
87.6830038473
 20
7.6147347768
 30
0.0
 11
88.8536252418
 21
7.7047825764
 31
0.0
  0
LINE
  5
B5
330
73
100
AcDbEntity
  8
0
  6
Continuous
 62
   179
370
    18
100
AcDbLine
 10
87.5509212094
 20
10.4639459651
 30
0.0
 11
88.7088412777
 21
10.5269290651
 31
0.0
  0
LINE
  5
B6
330
73
100
AcDbEntity
  8
0
  6
Continuous
 62
   179
370
    18
100
AcDbLine
 10
87.0766218384
 20
6.9287066941
 30
0.0
 11
86.8848195129
 21
11.0661568594
 31
0.0
  0
LINE
  5
B7
330
73
100
AcDbEntity
  8
0
  6
Continuous
 62
   179
370
    18
100
AcDbLine
 10
83.7004598825
 20
6.6667911093
 30
0.0
 11
84.5054929504
 21
10.9267193262
 31
0.0
  0
LINE
  5
B8
330
73
100
AcDbEntity
  8
0
  6
Continuous
 62
   179
370
    18
100
AcDbLine
 10
85.3543248406
 20
10.9728900984
 30
0.0
 11
86.4940946704
 21
6.8816860929
 31
0.0
  0
LINE
  5
B9
330
73
100
AcDbEntity
  8
0
  6
Continuous
 62
   179
370
    18
100
AcDbLine
 10
84.9728575427
 20
9.9667192298
 30
0.0
 11
85.4540299774
 21
8.2395506903
 31
0.0
  0
LINE
  5
BA
330
73
100
AcDbEntity
  8
0
  6
Continuous
 62
   179
370
    18
100
AcDbLine
 10
84.6363094629
 20
8.1858350416
 30
0.0
 11
84.9728575427
 21
9.9667192298
 31
0.0
  0
LINE
  5
BB
330
73
100
AcDbEntity
  8
0
  6
Continuous
 62
   179
370
    18
100
AcDbLine
 10
87.6830038473
 20
7.6147347768
 30
0.0
 11
87.5509212094
 21
10.4639459651
 31
0.0
  0
LINE
  5
BC
330
73
100
AcDbEntity
  8
0
  6
Continuous
 62
   179
370
    18
100
AcDbLine
 10
84.6363094629
 20
8.1858350416
 30
0.0
 11
85.4540299774
 21
8.2395506903
 31
0.0
  0
LINE
  5
BD
330
73
100
AcDbEntity
  8
0
  6
Continuous
 62
   179
370
    18
100
AcDbLine
 10
84.5140586807
 20
7.5389304886
 30
0.0
 11
85.6288154243
 21
7.6121582976
 31
0.0
  0
LINE
  5
BE
330
73
100
AcDbEntity
  8
0
  6
Continuous
 62
   179
370
    18
100
AcDbLine
 10
84.3588137958
 20
6.717433718
 30
0.0
 11
84.5140586807
 21
7.5389304886
 31
0.0
  0
LINE
  5
BF
330
73
100
AcDbEntity
  8
0
  6
Continuous
 62
   179
370
    18
100
AcDbLine
 10
81.6818640104
 20
6.5137358601
 30
0.0
 11
82.4802416972
 21
6.5751495283
 31
0.0
  0
LINE
  5
C0
330
73
100
AcDbEntity
  8
0
  6
Continuous
 62
   179
370
    18
100
AcDbLine
 10
81.6329699923
 20
7.1493580946
 30
0.0
 11
82.4313476791
 21
7.2107717628
 31
0.0
  0
LINE
  5
C1
330
73
100
AcDbEntity
  8
0
  6
Continuous
 62
   179
370
    18
100
AcDbLine
 10
83.7004598825
 20
6.6667911093
 30
0.0
 11
84.3588137958
 21
6.717433718
 31
0.0
  0
LINE
  5
C2
330
73
100
AcDbEntity
  8
0
  6
Continuous
 62
   179
370
    18
100
AcDbLine
 10
82.7059483815
 20
9.3512024135
 30
0.0
 11
83.3423973297
 21
9.3930104243
 31
0.0
  0
LINE
  5
C3
330
73
100
AcDbEntity
  8
0
  6
Continuous
 62
   179
370
    18
100
AcDbLine
 10
82.7491656358
 20
8.0762934118
 30
0.0
 11
83.385614584
 21
8.1181014226
 31
0.0
  0
LINE
  5
C4
330
73
100
AcDbEntity
  8
0
  6
Continuous
 62
   179
370
    18
100
AcDbLine
 10
81.1664651987
 20
9.7526162692
 30
0.0
 11
81.2428756056
 21
7.4985092641
 31
0.0
  0
LINE
  5
C5
330
73
100
AcDbEntity
  8
0
  6
Continuous
 62
   179
370
    18
100
AcDbLine
 10
82.6900353128
 20
9.8206379383
 30
0.0
 11
82.7052632884
 21
9.3714126602
 31
0.0
  0
LINE
  5
C6
330
73
100
AcDbEntity
  8
0
  6
Continuous
 62
   179
370
    18
100
AcDbLine
 10
82.7491656358
 20
8.0762934118
 30
0.0
 11
82.7658371041
 21
7.5844850954
 31
0.0
  0
LINE
  5
C7
330
73
100
AcDbEntity
  8
0
  6
Continuous
 62
   179
370
    18
100
AcDbLine
 10
83.3271693541
 20
9.8422357024
 30
0.0
 11
83.3423973297
 21
9.3930104243
 31
0.0
  0
LINE
  5
C8
330
73
100
AcDbEntity
  8
0
  6
Continuous
 62
   179
370
    18
100
AcDbLine
 10
83.385614584
 20
8.1181014226
 30
0.0
 11
83.4029711454
 21
7.6060828595
 31
0.0
  0
LINE
  5
C9
330
73
100
AcDbEntity
  8
0
  6
Continuous
 62
   179
370
    18
100
AcDbLine
 10
85.6288154243
 20
7.6121582976
 30
0.0
 11
85.8462022593
 21
6.8318482152
 31
0.0
  0
LINE
  5
CA
330
73
100
AcDbEntity
  8
0
  6
Continuous
 62
   179
370
    18
100
AcDbLine
 10
85.8462022593
 20
6.8318482152
 30
0.0
 11
86.4940946704
 21
6.8816860929
 31
0.0
  0
LINE
  5
CB
330
73
100
AcDbEntity
  8
0
  6
Continuous
 62
   179
370
    18
100
AcDbLine
 10
84.5054929504
 20
10.9267193262
 30
0.0
 11
85.3543248406
 21
10.9728900984
 31
0.0
  0
LINE
  5
CC
330
73
100
AcDbEntity
  8
0
  6
Continuous
 62
   179
370
    18
100
AcDbLine
 10
81.4744440858
 20
10.7634213094
 30
0.0
 11
82.2734303883
 21
10.8068808154
 31
0.0
  0
LINE
  5
CD
330
73
100
AcDbEntity
  8
0
  6
Continuous
 62
   179
370
    18
100
AcDbLine
 10
81.5090686352
 20
10.1268622858
 30
0.0
 11
82.3080549377
 21
10.1703217918
 31
0.0
  0
LINE
  5
CE
330
73
100
AcDbEntity
  8
0
  6
Continuous
 62
   179
370
    18
100
AcDbLine
 10
90.4575406452
 20
5.7946206556
 30
0.0
 11
90.1644232213
 21
12.4686789239
 31
0.0
  0
LINE
  5
CF
330
73
100
AcDbEntity
  8
0
  6
Continuous
 62
   179
370
    18
100
AcDbLine
 10
89.8247499755
 20
8.1125227115
 30
0.0
 11
89.7274569615
 21
10.2112720142
 31
0.0
  0
LINE
  5
D0
330
73
100
AcDbEntity
  8
0
  6
Continuous
 62
   179
370
    18
100
AcDbLine
 10
89.1879338763
 20
8.0830014354
 30
0.0
 11
89.0906408622
 21
10.181750738
 31
0.0
  0
LINE
  5
D1
330
73
100
AcDbEntity
  8
0
  6
Continuous
 62
   179
370
    18
100
AcDbLine
 10
89.7459749087
 20
2.7242700694
 30
0.0
 11
89.7974962577
 21
2.6659765769
 31
0.0
  0
LINE
  5
D2
330
73
100
AcDbEntity
  8
0
  6
Continuous
 62
   179
370
    18
100
AcDbLine
 10
89.7974962577
 20
2.6659765769
 30
0.0
 11
89.8351851379
 21
2.60192886
 31
0.0
  0
LINE
  5
D3
330
73
100
AcDbEntity
  8
0
  6
Continuous
 62
   179
370
    18
100
AcDbLine
 10
89.8351851379
 20
2.60192886
 30
0.0
 11
89.8661472522
 21
2.5197759309
 31
0.0
  0
LINE
  5
D4
330
73
100
AcDbEntity
  8
0
  6
Continuous
 62
   179
370
    18
100
AcDbLine
 10
10.6119938288
 20
7.2203138351
 30
0.0
 11
11.2200151261
 21
7.5713550947
 31
0.0
  0
LINE
  5
D5
330
73
100
AcDbEntity
  8
0
  6
Continuous
 62
   179
370
    18
100
AcDbLine
 10
11.2347279503
 20
5.2647430194
 30
0.0
 11
10.6267781168
 21
5.6157430194
 31
0.0
  0
LINE
  5
D6
330
73
100
AcDbEntity
  8
0
  6
Continuous
 62
   179
370
    18
100
AcDbLine
 10
6.4645062371
 20
16.1712617198
 30
0.0
 11
6.4645062371
 21
2.9364593988
 31
0.0
  0
LINE
  5
D7
330
73
100
AcDbEntity
  8
0
  6
Continuous
 62
   179
370
    18
100
AcDbLine
 10
6.4645062371
 20
2.9364593988
 30
0.0
 11
12.0532757459
 21
2.9364593988
 31
0.0
  0
LINE
  5
D8
330
73
100
AcDbEntity
  8
0
  6
Continuous
 62
   179
370
    18
100
AcDbLine
 10
12.0532757459
 20
2.9364593988
 30
0.0
 11
12.0532757459
 21
16.1712617198
 31
0.0
  0
LINE
  5
D9
330
73
100
AcDbEntity
  8
0
  6
Continuous
 62
   179
370
    18
100
AcDbLine
 10
12.0532757459
 20
16.1712617198
 30
0.0
 11
6.4645062371
 21
16.1712617198
 31
0.0
  0
LINE
  5
DA
330
73
100
AcDbEntity
  8
0
  6
Continuous
 62
   179
370
    18
100
AcDbLine
 10
0.0
 20
16.1712617198
 30
0.0
 11
0.0
 21
2.9364593988
 31
0.0
  0
LINE
  5
DB
330
73
100
AcDbEntity
  8
0
  6
Continuous
 62
   179
370
    18
100
AcDbLine
 10
0.0
 20
2.9364593988
 30
0.0
 11
5.5887695089
 21
2.9364593988
 31
0.0
  0
LINE
  5
DC
330
73
100
AcDbEntity
  8
0
  6
Continuous
 62
   179
370
    18
100
AcDbLine
 10
5.5887695089
 20
2.9364593988
 30
0.0
 11
5.5887695089
 21
16.1712617198
 31
0.0
  0
LINE
  5
DD
330
73
100
AcDbEntity
  8
0
  6
Continuous
 62
   179
370
    18
100
AcDbLine
 10
5.5887695089
 20
16.1712617198
 30
0.0
 11
0.0
 21
16.1712617198
 31
0.0
  0
LINE
  5
DE
330
73
100
AcDbEntity
  8
0
  6
Continuous
 62
   179
370
    18
100
AcDbLine
 10
1.2591262606
 20
4.7264381407
 30
0.0
 11
4.3296432482
 21
4.7264381407
 31
0.0
  0
LINE
  5
DF
330
73
100
AcDbEntity
  8
0
  6
Continuous
 62
   179
370
    18
100
AcDbLine
 10
4.3738223747
 20
4.0932862697
 30
0.0
 11
5.0758301722
 21
4.0932862697
 31
0.0
  0
LINE
  5
E0
330
73
100
AcDbEntity
  8
0
  6
Continuous
 62
   179
370
    18
100
AcDbLine
 10
0.5129393366
 20
4.0932862697
 30
0.0
 11
1.2149471342
 21
4.0932862697
 31
0.0
  0
LINE
  5
E1
330
73
100
AcDbEntity
  8
0
  6
Continuous
 62
   179
370
    18
100
AcDbLine
 10
4.1819643097
 20
5.4284381407
 30
0.0
 11
1.4068051992
 21
5.4284381407
 31
0.0
  0
LINE
  5
E2
330
73
100
AcDbEntity
  8
0
  6
Continuous
 62
   179
370
    18
100
AcDbLine
 10
18.517781983
 20
16.1712617198
 30
0.0
 11
18.517781983
 21
2.9364593988
 31
0.0
  0
LINE
  5
E3
330
73
100
AcDbEntity
  8
0
  6
Continuous
 62
   179
370
    18
100
AcDbLine
 10
18.517781983
 20
2.9364593988
 30
0.0
 11
12.9290124742
 21
2.9364593988
 31
0.0
  0
LINE
  5
E4
330
73
100
AcDbEntity
  8
0
  6
Continuous
 62
   179
370
    18
100
AcDbLine
 10
12.9290124742
 20
2.9364593988
 30
0.0
 11
12.9290124742
 21
16.1712617198
 31
0.0
  0
LINE
  5
E5
330
73
100
AcDbEntity
  8
0
  6
Continuous
 62
   179
370
    18
100
AcDbLine
 10
12.9290124742
 20
16.1712617198
 30
0.0
 11
18.517781983
 21
16.1712617198
 31
0.0
  0
INSERT
  5
EB
330
73
100
AcDbEntity
  8
0
  6
Continuous
 62
     7
370
     0
100
AcDbBlockReference
  2
SW_NOTE_0
 10
1.8998941161
 20
-0.3226565443
 30
0.0
  0
INSERT
  5
F0
330
73
100
AcDbEntity
  8
0
  6
Continuous
 62
     7
370
     0
100
AcDbBlockReference
  2
SW_NOTE_0_1
 10
29.1164837035
 20
12.7459167441
 30
0.0
  0
INSERT
  5
F8
330
73
100
AcDbEntity
  8
0
  6
Continuous
 62
     7
370
     0
100
AcDbBlockReference
  2
SW_NOTE_0_2
 10
28.8863479825
 20
8.6365742194
 30
0.0
  0
ENDBLK
  5
75
330
73
100
AcDbEntity
  8
0
100
AcDbBlockEnd
  0
BLOCK
  5
E7
330
E6
100
AcDbEntity
  8
0
100
AcDbBlockBegin
  2
SW_NOTE_0
 70
     0
 10
0.0
 20
0.0
 30
0.0
  3
SW_NOTE_0
  1

  0
MTEXT
  5
EA
330
E6
100
AcDbEntity
  8
0
  6
Continuous
 62
     0
370
     0
100
AcDbMText
 10
7.46875
 20
2.5781354795
 30
0.0
 40
2.0
 41
0.0
 71
     2
 72
     1
  1
www.aco.ch
  7
SLDTEXTSTYLE0
 73
     1
 44
1.0
  0
ENDBLK
  5
E8
330
E6
100
AcDbEntity
  8
0
100
AcDbBlockEnd
  0
BLOCK
  5
ED
330
EC
100
AcDbEntity
  8
0
100
AcDbBlockBegin
  2
SW_NOTE_0_1
 70
     0
 10
0.0
 20
0.0
 30
0.0
  3
SW_NOTE_0_1
  1

  0
MTEXT
  5
EF
330
EC
100
AcDbEntity
  8
0
  6
Continuous
 62
     0
370
     0
100
AcDbMText
 10
0.0
 20
3.8672032193
 30
0.0
 40
3.0
 41
0.0
 71
     1
 72
     1
  1
ACO AG
  7
SLDTEXTSTYLE0
 73
     1
 44
1.0
  0
ENDBLK
  5
EE
330
EC
100
AcDbEntity
  8
0
100
AcDbBlockEnd
  0
BLOCK
  5
F2
330
F1
100
AcDbEntity
  8
0
100
AcDbBlockBegin
  2
SW_NOTE_0_2
 70
     0
 10
0.0
 20
0.0
 30
0.0
  3
SW_NOTE_0_2
  1

  0
MTEXT
  5
F4
330
F1
100
AcDbEntity
  8
0
  6
Continuous
 62
     0
370
     0
100
AcDbMText
 10
0.0
 20
2.5781354795
 30
0.0
 40
2.0
 41
0.0
 71
     1
 72
     1
  1
Industrie Kleinzaun
  7
SLDTEXTSTYLE0
 73
     1
 44
1.0
  0
MTEXT
  5
F5
330
F1
100
AcDbEntity
  8
0
  6
Continuous
 62
     0
370
     0
100
AcDbMText
 10
0.0
 20
-0.4218645465
 30
0.0
 40
2.0
 41
0.0
 71
     1
 72
     1
  1
CH-8754 Netstal
  7
SLDTEXTSTYLE0
 73
     1
 44
1.0
  0
MTEXT
  5
F6
330
F1
100
AcDbEntity
  8
0
  6
Continuous
 62
     0
370
     0
100
AcDbMText
 10
0.0
 20
-3.4218645726
 30
0.0
 40
2.0
 41
0.0
 71
     1
 72
     1
  1
Tel. 055 / 645 53 00
  7
SLDTEXTSTYLE0
 73
     1
 44
1.0
  0
MTEXT
  5
F7
330
F1
100
AcDbEntity
  8
0
  6
Continuous
 62
     0
370
     0
100
AcDbMText
 10
0.0
 20
-6.4218645987
 30
0.0
 40
2.0
 41
0.0
 71
     1
 72
     1
  1
E-Mail: aco@aco.ch
  7
SLDTEXTSTYLE0
 73
     1
 44
1.0
  0
ENDBLK
  5
F3
330
F1
100
AcDbEntity
  8
0
100
AcDbBlockEnd
  0
BLOCK
  5
171
330
170
100
AcDbEntity
  8
0
100
AcDbBlockBegin
  2
SW_NOTE_0_3
 70
     0
 10
0.0
 20
0.0
 30
0.0
  3
SW_NOTE_0_3
  1

  0
MTEXT
  5
173
330
170
100
AcDbEntity
  8
0
  6
Continuous
 62
     0
370
     0
100
AcDbMText
 10
0.0
 20
1.9336016097
 30
0.0
 40
1.5
 41
0.0
 71
     1
 72
     1
  1
Diese Zeichnung darf weder kopiert
  7
SLDTEXTSTYLE0
 73
     1
 44
1.0
  0
MTEXT
  5
174
330
170
100
AcDbEntity
  8
0
  6
Continuous
 62
     0
370
     0
100
AcDbMText
 10
0.0
 20
-0.5663983345
 30
0.0
 40
1.5
 41
0.0
 71
     1
 72
     1
  1
noch dritten Personen, insbesondere
  7
SLDTEXTSTYLE0
 73
     1
 44
1.0
  0
MTEXT
  5
175
330
170
100
AcDbEntity
  8
0
  6
Continuous
 62
     0
370
     0
100
AcDbMText
 10
0.0
 20
-3.0663982786
 30
0.0
 40
1.5
 41
0.0
 71
     1
 72
     1
  1
zum Zweck anderweitiger Benutzung
  7
SLDTEXTSTYLE0
 73
     1
 44
1.0
  0
MTEXT
  5
176
330
170
100
AcDbEntity
  8
0
  6
Continuous
 62
     0
370
     0
100
AcDbMText
 10
0.0
 20
-5.5663982227
 30
0.0
 40
1.5
 41
0.0
 71
     1
 72
     1
  1
mitgeteilt werden und bleibt unser
  7
SLDTEXTSTYLE0
 73
     1
 44
1.0
  0
MTEXT
  5
177
330
170
100
AcDbEntity
  8
0
  6
Continuous
 62
     0
370
     0
100
AcDbMText
 10
0.0
 20
-8.0663981668
 30
0.0
 40
1.5
 41
0.0
 71
     1
 72
     1
  1
Eigentum.
  7
SLDTEXTSTYLE0
 73
     1
 44
1.0
  0
ENDBLK
  5
172
330
170
100
AcDbEntity
  8
0
100
AcDbBlockEnd
  0
BLOCK
  5
1B7
330
1B6
100
AcDbEntity
  8
0
100
AcDbBlockBegin
  2
_D
 70
     0
 10
0.0
 20
0.0
 30
0.0
  3
_D
  1

  0
SOLID
  5
1B9
330
1B6
100
AcDbEntity
  8
0
  6
Continuous
 62
     7
370
    18
100
AcDbTrace
 10
234.8729173639
 20
237.9574419622
 30
0.0
 11
231.3729173639
 21
238.4959035007
 31
0.0
 12
231.3729173639
 22
237.4189804238
 32
0.0
 13
231.3729173639
 23
237.4189804238
 33
0.0
  0
SOLID
  5
1BA
330
1B6
100
AcDbEntity
  8
0
  6
Continuous
 62
     7
370
    18
100
AcDbTrace
 10
34.8729173639
 20
237.9574419622
 30
0.0
 11
38.3729173639
 21
237.4189804238
 31
0.0
 12
38.3729173639
 22
238.4959035007
 32
0.0
 13
38.3729173639
 23
238.4959035007
 33
0.0
  0
LINE
  5
1BB
330
1B6
100
AcDbEntity
  8
0
  6
Continuous
 62
     7
370
     0
100
AcDbLine
 10
234.8729173639
 20
247.8574419622
 30
0.0
 11
234.8729173639
 21
236.9574419622
 31
0.0
  0
LINE
  5
1BC
330
1B6
100
AcDbEntity
  8
0
  6
Continuous
 62
     7
370
     0
100
AcDbLine
 10
34.8729173639
 20
247.8574419622
 30
0.0
 11
34.8729173639
 21
236.9574419622
 31
0.0
  0
LINE
  5
1BD
330
1B6
100
AcDbEntity
  8
0
  6
Continuous
 62
     7
370
     0
100
AcDbLine
 10
234.8729173639
 20
237.9574419622
 30
0.0
 11
34.8729173639
 21
237.9574419622
 31
0.0
  0
MTEXT
  5
1BE
330
1B6
100
AcDbEntity
  8
0
  6
Continuous
 62
     7
370
    18
100
AcDbMText
 10
129.5256952741
 20
242.4691792843
 30
0.0
 40
3.5
 41
0.0
 71
     1
 72
     1
  1
1000
  7
SLDTEXTSTYLE0
 73
     1
 44
1.0
  0
ENDBLK
  5
1B8
330
1B6
100
AcDbEntity
  8
0
100
AcDbBlockEnd
  0
BLOCK
  5
202
330
201
100
AcDbEntity
  8
0
100
AcDbBlockBegin
  2
_D_1
 70
     0
 10
0.0
 20
0.0
 30
0.0
  3
_D_1
  1

  0
SOLID
  5
204
330
201
100
AcDbEntity
  8
0
  6
Continuous
 62
     7
370
    18
100
AcDbTrace
 10
262.4947766976
 20
86.9483126044
 30
0.0
 11
265.9947766976
 21
86.409851066
 31
0.0
 12
265.9947766976
 22
87.4867741429
 32
0.0
 13
265.9947766976
 23
87.4867741429
 33
0.0
  0
SOLID
  5
205
330
201
100
AcDbEntity
  8
0
  6
Continuous
 62
     7
370
    18
100
AcDbTrace
 10
362.4947766976
 20
86.9483126044
 30
0.0
 11
358.9947766976
 21
87.4867741429
 31
0.0
 12
358.9947766976
 22
86.409851066
 32
0.0
 13
358.9947766976
 23
86.409851066
 33
0.0
  0
LINE
  5
206
330
201
100
AcDbEntity
  8
0
  6
Continuous
 62
     7
370
     0
100
AcDbLine
 10
262.4947766976
 20
100.8483126044
 30
0.0
 11
262.4947766976
 21
85.9483126044
 31
0.0
  0
LINE
  5
207
330
201
100
AcDbEntity
  8
0
  6
Continuous
 62
     7
370
     0
100
AcDbLine
 10
362.4947766976
 20
100.8483126044
 30
0.0
 11
362.4947766976
 21
85.9483126044
 31
0.0
  0
LINE
  5
208
330
201
100
AcDbEntity
  8
0
  6
Continuous
 62
     7
370
     0
100
AcDbLine
 10
262.4947766976
 20
86.9483126044
 30
0.0
 11
362.4947766976
 21
86.9483126044
 31
0.0
  0
MTEXT
  5
209
330
201
100
AcDbEntity
  8
0
  6
Continuous
 62
     7
370
    18
100
AcDbMText
 10
308.4843601302
 20
91.4600499265
 30
0.0
 40
3.5
 41
0.0
 71
     1
 72
     1
  1
100
  7
SLDTEXTSTYLE0
 73
     1
 44
1.0
  0
ENDBLK
  5
203
330
201
100
AcDbEntity
  8
0
100
AcDbBlockEnd
  0
BLOCK
  5
20C
330
20B
100
AcDbEntity
  8
0
100
AcDbBlockBegin
  2
_D_2
 70
     0
 10
0.0
 20
0.0
 30
0.0
  3
_D_2
  1

  0
SOLID
  5
20E
330
20B
100
AcDbEntity
  8
0
  6
Continuous
 62
     7
370
    18
100
AcDbTrace
 10
249.9947766976
 20
206.9483126044
 30
0.0
 11
253.4947766976
 21
206.409851066
 31
0.0
 12
253.4947766976
 22
207.4867741429
 32
0.0
 13
253.4947766976
 23
207.4867741429
 33
0.0
  0
SOLID
  5
20F
330
20B
100
AcDbEntity
  8
0
  6
Continuous
 62
     7
370
    18
100
AcDbTrace
 10
374.9947766976
 20
206.9483126044
 30
0.0
 11
371.4947766976
 21
207.4867741429
 31
0.0
 12
371.4947766976
 22
206.409851066
 32
0.0
 13
371.4947766976
 23
206.409851066
 33
0.0
  0
LINE
  5
210
330
20B
100
AcDbEntity
  8
0
  6
Continuous
 62
     7
370
     0
100
AcDbLine
 10
249.9947766976
 20
193.0483126044
 30
0.0
 11
249.9947766976
 21
207.9483126044
 31
0.0
  0
LINE
  5
211
330
20B
100
AcDbEntity
  8
0
  6
Continuous
 62
     7
370
     0
100
AcDbLine
 10
374.9947766976
 20
193.0483126044
 30
0.0
 11
374.9947766976
 21
207.9483126044
 31
0.0
  0
LINE
  5
212
330
20B
100
AcDbEntity
  8
0
  6
Continuous
 62
     7
370
     0
100
AcDbLine
 10
249.9947766976
 20
206.9483126044
 30
0.0
 11
374.9947766976
 21
206.9483126044
 31
0.0
  0
MTEXT
  5
213
330
20B
100
AcDbEntity
  8
0
  6
Continuous
 62
     7
370
    18
100
AcDbMText
 10
308.4843601302
 20
211.4600499265
 30
0.0
 40
3.5
 41
0.0
 71
     1
 72
     1
  1
125
  7
SLDTEXTSTYLE0
 73
     1
 44
1.0
  0
ENDBLK
  5
20D
330
20B
100
AcDbEntity
  8
0
100
AcDbBlockEnd
  0
BLOCK
  5
216
330
215
100
AcDbEntity
  8
0
100
AcDbBlockBegin
  2
_D_3
 70
     0
 10
0.0
 20
0.0
 30
0.0
  3
_D_3
  1

  0
SOLID
  5
218
330
215
100
AcDbEntity
  8
0
  6
Continuous
 62
     7
370
    18
100
AcDbTrace
 10
229.9947766976
 20
216.9483126044
 30
0.0
 11
233.4947766976
 21
216.409851066
 31
0.0
 12
233.4947766976
 22
217.4867741429
 32
0.0
 13
233.4947766976
 23
217.4867741429
 33
0.0
  0
SOLID
  5
219
330
215
100
AcDbEntity
  8
0
  6
Continuous
 62
     7
370
    18
100
AcDbTrace
 10
394.9947766976
 20
216.9483126044
 30
0.0
 11
391.4947766976
 21
217.4867741429
 31
0.0
 12
391.4947766976
 22
216.409851066
 32
0.0
 13
391.4947766976
 23
216.409851066
 33
0.0
  0
LINE
  5
21A
330
215
100
AcDbEntity
  8
0
  6
Continuous
 62
     7
370
     0
100
AcDbLine
 10
229.9947766976
 20
193.0483126044
 30
0.0
 11
229.9947766976
 21
217.9483126044
 31
0.0
  0
LINE
  5
21B
330
215
100
AcDbEntity
  8
0
  6
Continuous
 62
     7
370
     0
100
AcDbLine
 10
394.9947766976
 20
193.0483126044
 30
0.0
 11
394.9947766976
 21
217.9483126044
 31
0.0
  0
LINE
  5
21C
330
215
100
AcDbEntity
  8
0
  6
Continuous
 62
     7
370
     0
100
AcDbLine
 10
229.9947766976
 20
216.9483126044
 30
0.0
 11
394.9947766976
 21
216.9483126044
 31
0.0
  0
MTEXT
  5
21D
330
215
100
AcDbEntity
  8
0
  6
Continuous
 62
     7
370
    18
100
AcDbMText
 10
308.4843601302
 20
221.4600499265
 30
0.0
 40
3.5
 41
0.0
 71
     1
 72
     1
  1
165
  7
SLDTEXTSTYLE0
 73
     1
 44
1.0
  0
ENDBLK
  5
217
330
215
100
AcDbEntity
  8
0
100
AcDbBlockEnd
  0
BLOCK
  5
220
330
21F
100
AcDbEntity
  8
0
100
AcDbBlockBegin
  2
_D_4
 70
     0
 10
0.0
 20
0.0
 30
0.0
  3
_D_4
  1

  0
SOLID
  5
222
330
21F
100
AcDbEntity
  8
0
  6
Continuous
 62
     7
370
    18
100
AcDbTrace
 10
275.5866777409
 20
196.9483126044
 30
0.0
 11
275.0482162024
 21
193.4483126044
 31
0.0
 12
276.1251392793
 22
193.4483126044
 32
0.0
 13
276.1251392793
 23
193.4483126044
 33
0.0
  0
SOLID
  5
223
330
21F
100
AcDbEntity
  8
0
  6
Continuous
 62
     7
370
    18
100
AcDbTrace
 10
275.5866777409
 20
175.9483126044
 30
0.0
 11
276.1251392793
 21
179.4483126044
 31
0.0
 12
275.0482162024
 22
179.4483126044
 32
0.0
 13
275.0482162024
 23
179.4483126044
 33
0.0
  0
LINE
  5
224
330
21F
100
AcDbEntity
  8
0
  6
Continuous
 62
     7
370
     0
100
AcDbLine
 10
246.0947766976
 20
196.9483126044
 30
0.0
 11
276.5866777409
 21
196.9483126044
 31
0.0
  0
LINE
  5
225
330
21F
100
AcDbEntity
  8
0
  6
Continuous
 62
     7
370
     0
100
AcDbLine
 10
260.5947766976
 20
175.9483126044
 30
0.0
 11
276.5866777409
 21
175.9483126044
 31
0.0
  0
LINE
  5
226
330
21F
100
AcDbEntity
  8
0
  6
Continuous
 62
     7
370
     0
100
AcDbLine
 10
275.5866777409
 20
196.9483126044
 30
0.0
 11
275.5866777409
 21
175.9483126044
 31
0.0
  0
MTEXT
  5
227
330
21F
100
AcDbEntity
  8
0
  6
Continuous
 62
     7
370
    18
100
AcDbMText
 10
271.0749404188
 20
183.7747015596
 30
0.0
 40
3.5
 41
0.0
 71
     1
 72
     1
  1
21
  7
SLDTEXTSTYLE0
 11
-8.820551857043885E-15
 21
1.0
 31
0.0
 73
     1
 44
1.0
  0
ENDBLK
  5
221
330
21F
100
AcDbEntity
  8
0
100
AcDbBlockEnd
  0
BLOCK
  5
22A
330
229
100
AcDbEntity
  8
0
100
AcDbBlockBegin
  2
_D_5
 70
     0
 10
0.0
 20
0.0
 30
0.0
  3
_D_5
  1

  0
SOLID
  5
22C
330
229
100
AcDbEntity
  8
0
  6
Continuous
 62
     7
370
    18
100
AcDbTrace
 10
209.9947766976
 20
196.9483126044
 30
0.0
 11
209.4563151591
 21
193.4483126044
 31
0.0
 12
210.533238236
 22
193.4483126044
 32
0.0
 13
210.533238236
 23
193.4483126044
 33
0.0
  0
SOLID
  5
22D
330
229
100
AcDbEntity
  8
0
  6
Continuous
 62
     7
370
    18
100
AcDbTrace
 10
209.9947766976
 20
96.9483126044
 30
0.0
 11
210.533238236
 21
100.4483126044
 31
0.0
 12
209.4563151591
 22
100.4483126044
 32
0.0
 13
209.4563151591
 23
100.4483126044
 33
0.0
  0
LINE
  5
22E
330
229
100
AcDbEntity
  8
0
  6
Continuous
 62
     7
370
     0
100
AcDbLine
 10
233.8947766976
 20
196.9483126044
 30
0.0
 11
208.9947766976
 21
196.9483126044
 31
0.0
  0
LINE
  5
22F
330
229
100
AcDbEntity
  8
0
  6
Continuous
 62
     7
370
     0
100
AcDbLine
 10
266.3947766976
 20
96.9483126044
 30
0.0
 11
208.9947766976
 21
96.9483126044
 31
0.0
  0
LINE
  5
230
330
229
100
AcDbEntity
  8
0
  6
Continuous
 62
     7
370
     0
100
AcDbLine
 10
209.9947766976
 20
196.9483126044
 30
0.0
 11
209.9947766976
 21
96.9483126044
 31
0.0
  0
MTEXT
  5
231
330
229
100
AcDbEntity
  8
0
  6
Continuous
 62
     7
370
    18
100
AcDbMText
 10
205.4830393755
 20
142.9378960371
 30
0.0
 40
3.5
 41
0.0
 71
     1
 72
     1
  1
100
  7
SLDTEXTSTYLE0
 11
-7.044195017643634E-15
 21
1.0
 31
0.0
 73
     1
 44
1.0
  0
ENDBLK
  5
22B
330
229
100
AcDbEntity
  8
0
100
AcDbBlockEnd
  0
BLOCK
  5
235
330
234
100
AcDbEntity
  8
0
100
AcDbBlockBegin
  2
_D_6
 70
     0
 10
0.0
 20
0.0
 30
0.0
  3
_D_6
  1

  0
SOLID
  5
237
330
234
100
AcDbEntity
  8
0
  6
Continuous
 62
     7
370
    18
100
AcDbTrace
 10
219.9947766976
 20
196.9483126044
 30
0.0
 11
220.533238236
 21
200.4483126044
 31
0.0
 12
219.4563151591
 22
200.4483126044
 32
0.0
 13
219.4563151591
 23
200.4483126044
 33
0.0
  0
SOLID
  5
238
330
234
100
AcDbEntity
  8
0
  6
Continuous
 62
     7
370
    18
100
AcDbTrace
 10
219.9947766976
 20
184.9483126044
 30
0.0
 11
219.4563151591
 21
181.4483126044
 31
0.0
 12
220.533238236
 22
181.4483126044
 32
0.0
 13
220.533238236
 23
181.4483126044
 33
0.0
  0
LINE
  5
239
330
234
100
AcDbEntity
  8
0
  6
Continuous
 62
     7
370
     0
100
AcDbLine
 10
233.8947766976
 20
196.9483126044
 30
0.0
 11
218.9947766976
 21
196.9483126044
 31
0.0
  0
LINE
  5
23A
330
234
100
AcDbEntity
  8
0
  6
Continuous
 62
     7
370
     0
100
AcDbLine
 10
229.8947766976
 20
184.9483126044
 30
0.0
 11
218.9947766976
 21
184.9483126044
 31
0.0
  0
LINE
  5
23B
330
234
100
AcDbEntity
  8
0
  6
Continuous
 62
     7
370
     0
100
AcDbLine
 10
219.9947766976
 20
196.9483126044
 30
0.0
 11
219.9947766976
 21
203.6790818352
 31
0.0
  0
LINE
  5
23C
330
234
100
AcDbEntity
  8
0
  6
Continuous
 62
     7
370
     0
100
AcDbLine
 10
219.9947766976
 20
196.9483126044
 30
0.0
 11
219.9947766976
 21
184.9483126044
 31
0.0
  0
LINE
  5
23D
330
234
100
AcDbEntity
  8
0
  6
Continuous
 62
     7
370
     0
100
AcDbLine
 10
219.9947766976
 20
184.9483126044
 30
0.0
 11
219.9947766976
 21
178.2175433737
 31
0.0
  0
MTEXT
  5
23E
330
234
100
AcDbEntity
  8
0
  6
Continuous
 62
     7
370
    18
100
AcDbMText
 10
215.4830393755
 20
188.2747015596
 30
0.0
 40
3.5
 41
0.0
 71
     1
 72
     1
  1
12
  7
SLDTEXTSTYLE0
 11
-8.820551857043885E-15
 21
1.0
 31
0.0
 73
     1
 44
1.0
  0
ENDBLK
  5
236
330
234
100
AcDbEntity
  8
0
100
AcDbBlockEnd
  0
BLOCK
  5
241
330
240
100
AcDbEntity
  8
0
100
AcDbBlockBegin
  2
_D_7
 70
     0
 10
0.0
 20
0.0
 30
0.0
  3
_D_7
  1

  0
SOLID
  5
243
330
240
100
AcDbEntity
  8
0
  6
Continuous
 62
     7
370
    18
100
AcDbTrace
 10
392.9947766976
 20
188.5864511959
 30
0.0
 11
389.4947766976
 21
189.1249127343
 31
0.0
 12
389.4947766976
 22
188.0479896574
 32
0.0
 13
389.4947766976
 23
188.0479896574
 33
0.0
  0
SOLID
  5
244
330
240
100
AcDbEntity
  8
0
  6
Continuous
 62
     7
370
    18
100
AcDbTrace
 10
394.9947766976
 20
188.5864511959
 30
0.0
 11
398.4947766976
 21
188.0479896574
 31
0.0
 12
398.4947766976
 22
189.1249127343
 32
0.0
 13
398.4947766976
 23
189.1249127343
 33
0.0
  0
LINE
  5
245
330
240
100
AcDbEntity
  8
0
  6
Continuous
 62
     7
370
     0
100
AcDbLine
 10
392.9947766976
 20
188.5864511959
 30
0.0
 11
386.2640074668
 21
188.5864511959
 31
0.0
  0
LINE
  5
246
330
240
100
AcDbEntity
  8
0
  6
Continuous
 62
     7
370
     0
100
AcDbLine
 10
392.9947766976
 20
188.5864511959
 30
0.0
 11
394.9947766976
 21
188.5864511959
 31
0.0
  0
LINE
  5
247
330
240
100
AcDbEntity
  8
0
  6
Continuous
 62
     7
370
     0
100
AcDbLine
 10
394.9947766976
 20
188.5864511959
 30
0.0
 11
402.5081735421
 21
188.5864511959
 31
0.0
  0
MTEXT
  5
248
330
240
100
AcDbEntity
  8
0
  6
Continuous
 62
     7
370
    18
100
AcDbMText
 10
399.8345624972
 20
193.0981885179
 30
0.0
 40
3.5
 41
0.0
 71
     1
 72
     1
  1
2
  7
SLDTEXTSTYLE0
 73
     1
 44
1.0
  0
ENDBLK
  5
242
330
240
100
AcDbEntity
  8
0
100
AcDbBlockEnd
  0
ENDSEC
  0
SECTION
  2
ENTITIES
  0
LINE
  5
F9
330
1F
100
AcDbEntity
  8
0
  6
CENTERX2
 62
     7
370
    18
100
AcDbLine
 10
352.6174545849
 20
46.9080238789
 30
0.0
 11
352.6174545849
 21
39.4621586124
 31
0.0
  0
LINE
  5
FA
330
1F
100
AcDbEntity
  8
0
  6
Continuous
 62
     7
370
    18
100
AcDbLine
 10
357.7661698132
 20
46.3720107039
 30
0.0
 11
357.7661698132
 21
39.9353173413
 31
0.0
  0
LINE
  5
FB
330
1F
100
AcDbEntity
  8
0
  6
Continuous
 62
     7
370
    18
100
AcDbLine
 10
364.6059427486
 20
44.7376225767
 30
0.0
 11
364.6059427486
 21
41.5697054685
 31
0.0
  0
LINE
  5
FC
330
1F
100
AcDbEntity
  8
0
  6
Continuous
 62
     7
370
    18
100
AcDbLine
 10
364.6059427486
 20
44.7376225767
 30
0.0
 11
357.7661698132
 21
46.3720107039
 31
0.0
  0
LINE
  5
FD
330
1F
100
AcDbEntity
  8
0
  6
Continuous
 62
     7
370
    18
100
AcDbLine
 10
15.0
 20
198.5
 30
0.0
 11
20.0
 21
198.5
 31
0.0
  0
LINE
  5
FE
330
1F
100
AcDbEntity
  8
0
  6
Continuous
 62
     7
370
    18
100
AcDbLine
 10
12.0
 20
148.5
 30
0.0
 11
0.0
 21
148.5
 31
0.0
  0
LINE
  5
FF
330
1F
100
AcDbEntity
  8
0
  6
Continuous
 62
     7
370
    18
100
AcDbLine
 10
357.7661698132
 20
39.9353173413
 30
0.0
 11
364.6059427486
 21
41.5697054685
 31
0.0
  0
LINE
  5
100
330
1F
100
AcDbEntity
  8
0
  6
CENTERX2
 62
     7
370
    18
100
AcDbLine
 10
348.6240467841
 20
43.1536640226
 30
0.0
 11
356.6108623857
 21
43.1536640226
 31
0.0
  0
LINE
  5
101
330
1F
100
AcDbEntity
  8
0
  6
CENTERX2
 62
     7
370
    18
100
AcDbLine
 10
357.1289238876
 20
43.1536640226
 30
0.0
 11
365.6255362296
 21
43.1536640226
 31
0.0
  0
LINE
  5
102
330
1F
100
AcDbEntity
  8
0
  6
Continuous
 62
     7
370
    18
100
AcDbLine
 10
0.0
 20
0.0
 30
0.0
 11
420.0
 21
0.0
 31
0.0
  0
LINE
  5
103
330
1F
100
AcDbEntity
  8
0
  6
Continuous
 62
     7
370
    18
100
AcDbLine
 10
0.0
 20
0.0
 30
0.0
 11
0.0
 21
297.0
 31
0.0
  0
LINE
  5
104
330
1F
100
AcDbEntity
  8
0
  6
Continuous
 62
     7
370
    18
100
AcDbLine
 10
0.0
 20
297.0
 30
0.0
 11
420.0
 21
297.0
 31
0.0
  0
LINE
  5
105
330
1F
100
AcDbEntity
  8
0
  6
Continuous
 62
     7
370
    18
100
AcDbLine
 10
420.0
 20
0.0
 30
0.0
 11
420.0
 21
297.0
 31
0.0
  0
LINE
  5
106
330
1F
100
AcDbEntity
  8
0
  6
Continuous
 62
     7
370
    25
100
AcDbLine
 10
228.0
 20
35.0
 30
0.0
 11
410.0
 21
35.0
 31
0.0
  0
LINE
  5
107
330
1F
100
AcDbEntity
  8
0
  6
Continuous
 62
     7
370
    18
100
AcDbLine
 10
410.0
 20
198.5
 30
0.0
 11
415.0
 21
198.5
 31
0.0
  0
LINE
  5
108
330
1F
100
AcDbEntity
  8
0
  6
Continuous
 62
     7
370
    18
100
AcDbLine
 10
15.0
 20
148.5
 30
0.0
 11
20.0
 21
148.5
 31
0.0
  0
LINE
  5
109
330
1F
100
AcDbEntity
  8
0
  6
Continuous
 62
     7
370
    18
100
AcDbLine
 10
228.0
 20
40.0
 30
0.0
 11
296.6
 21
40.0
 31
0.0
  0
LINE
  5
10A
330
1F
100
AcDbEntity
  8
0
  6
Continuous
 62
     7
370
    18
100
AcDbLine
 10
15.0
 20
248.5
 30
0.0
 11
20.0
 21
248.5
 31
0.0
  0
LINE
  5
10B
330
1F
100
AcDbEntity
  8
0
  6
Continuous
 62
     7
370
    35
100
AcDbLine
 10
20.0
 20
287.0
 30
0.0
 11
20.0
 21
10.0
 31
0.0
  0
LINE
  5
10C
330
1F
100
AcDbEntity
  8
0
  6
Continuous
 62
     7
370
    35
100
AcDbLine
 10
410.0
 20
287.0
 30
0.0
 11
20.0
 21
287.0
 31
0.0
  0
LINE
  5
10D
330
1F
100
AcDbEntity
  8
0
  6
Continuous
 62
     7
370
    35
100
AcDbLine
 10
410.0
 20
5.0
 30
0.0
 11
410.0
 21
287.0
 31
0.0
  0
LINE
  5
10E
330
1F
100
AcDbEntity
  8
0
  6
Continuous
 62
     7
370
    35
100
AcDbLine
 10
20.0
 20
10.0
 30
0.0
 11
415.0
 21
10.0
 31
0.0
  0
LINE
  5
10F
330
1F
100
AcDbEntity
  8
0
  6
Continuous
 62
     7
370
    18
100
AcDbLine
 10
410.0
 20
148.5
 30
0.0
 11
415.0
 21
148.5
 31
0.0
  0
LINE
  5
110
330
1F
100
AcDbEntity
  8
0
  6
Continuous
 62
     7
370
    18
100
AcDbLine
 10
228.0
 20
50.0
 30
0.0
 11
296.6
 21
50.0
 31
0.0
  0
LINE
  5
111
330
1F
100
AcDbEntity
  8
0
  6
Continuous
 62
     7
370
    18
100
AcDbLine
 10
15.0
 20
98.5
 30
0.0
 11
20.0
 21
98.5
 31
0.0
  0
LINE
  5
112
330
1F
100
AcDbEntity
  8
0
  6
Continuous
 62
     7
370
    18
100
AcDbLine
 10
296.6
 20
45.0
 30
0.0
 11
228.0
 21
45.0
 31
0.0
  0
LINE
  5
113
330
1F
100
AcDbEntity
  8
0
  6
Continuous
 62
     7
370
    18
100
AcDbLine
 10
65.0
 20
292.0
 30
0.0
 11
65.0
 21
287.0
 31
0.0
  0
LINE
  5
114
330
1F
100
AcDbEntity
  8
0
  6
Continuous
 62
     7
370
    18
100
AcDbLine
 10
230.0
 20
292.0
 30
0.0
 11
230.0
 21
297.0
 31
0.0
  0
LINE
  5
115
330
1F
100
AcDbEntity
  8
0
  6
Continuous
 62
     7
370
    25
100
AcDbLine
 10
296.6
 20
55.0
 30
0.0
 11
296.6
 21
35.0
 31
0.0
  0
LINE
  5
116
330
1F
100
AcDbEntity
  8
0
  6
Continuous
 62
     7
370
    18
100
AcDbLine
 10
410.0
 20
98.5
 30
0.0
 11
415.0
 21
98.5
 31
0.0
  0
LINE
  5
117
330
1F
100
AcDbEntity
  8
0
100
AcDbLine
 10
230.0
 20
5.0
 30
0.0
 11
230.0
 21
0.0
 31
0.0
  0
LINE
  5
118
330
1F
100
AcDbEntity
  8
0
  6
Continuous
 62
     7
370
    18
100
AcDbLine
 10
125.0
 20
292.0
 30
0.0
 11
125.0
 21
297.0
 31
0.0
  0
LINE
  5
119
330
1F
100
AcDbEntity
  8
0
  6
Continuous
 62
     7
370
    18
100
AcDbLine
 10
125.0
 20
5.0
 30
0.0
 11
125.0
 21
0.0
 31
0.0
  0
LINE
  5
11A
330
1F
100
AcDbEntity
  8
0
  6
Continuous
 62
     7
370
    25
100
AcDbLine
 10
410.0
 20
55.0
 30
0.0
 11
228.0
 21
55.0
 31
0.0
  0
LINE
  5
11B
330
1F
100
AcDbEntity
  8
0
  6
Continuous
 62
     7
370
    18
100
AcDbLine
 10
228.0
 20
55.0
 30
0.0
 11
410.0
 21
55.0
 31
0.0
  0
LINE
  5
11C
330
1F
100
AcDbEntity
  8
0
  6
Continuous
 62
     7
370
    18
100
AcDbLine
 10
410.0
 20
55.0
 30
0.0
 11
228.0
 21
55.0
 31
0.0
  0
LINE
  5
11D
330
1F
100
AcDbEntity
  8
0
  6
Continuous
 62
     7
370
    18
100
AcDbLine
 10
268.0
 20
76.5
 30
0.0
 11
268.0
 21
55.0
 31
0.0
  0
LINE
  5
11E
330
1F
100
AcDbEntity
  8
0
  6
Continuous
 62
     7
370
    18
100
AcDbLine
 10
271.6
 20
55.0
 30
0.0
 11
271.6
 21
40.0
 31
0.0
  0
LINE
  5
11F
330
1F
100
AcDbEntity
  8
0
  6
Continuous
 62
     7
370
    18
100
AcDbLine
 10
247.0
 20
55.0
 30
0.0
 11
247.0
 21
35.0
 31
0.0
  0
LINE
  5
120
330
1F
100
AcDbEntity
  8
0
  6
Continuous
 62
     7
370
    35
100
AcDbLine
 10
228.0
 20
76.5
 30
0.0
 11
228.0
 21
10.0
 31
0.0
  0
LINE
  5
121
330
1F
100
AcDbEntity
  8
0
  6
Continuous
 62
     7
370
    18
100
AcDbLine
 10
15.0
 20
292.0
 30
0.0
 11
415.0
 21
292.0
 31
0.0
  0
LINE
  5
122
330
1F
100
AcDbEntity
  8
0
  6
Continuous
 62
     7
370
    18
100
AcDbLine
 10
228.0
 20
65.75
 30
0.0
 11
310.0
 21
65.75
 31
0.0
  0
LINE
  5
123
330
1F
100
AcDbEntity
  8
0
  6
Continuous
 62
     7
370
    35
100
AcDbLine
 10
228.0
 20
76.5
 30
0.0
 11
410.0
 21
76.5
 31
0.0
  0
LINE
  5
124
330
1F
100
AcDbEntity
  8
0
  6
Continuous
 62
     7
370
    18
100
AcDbLine
 10
15.0
 20
48.5
 30
0.0
 11
20.0
 21
48.5
 31
0.0
  0
LINE
  5
125
330
1F
100
AcDbEntity
  8
0
  6
Continuous
 62
     7
370
    18
100
AcDbLine
 10
410.0
 20
48.5
 30
0.0
 11
415.0
 21
48.5
 31
0.0
  0
LINE
  5
126
330
1F
100
AcDbEntity
  8
0
  6
Continuous
 62
     7
370
    18
100
AcDbLine
 10
332.6610845472
 20
20.0
 30
0.0
 11
332.6610845472
 21
10.0
 31
0.0
  0
LINE
  5
127
330
1F
100
AcDbEntity
  8
0
  6
Continuous
 62
     7
370
    18
100
AcDbLine
 10
410.0
 20
248.5
 30
0.0
 11
415.0
 21
248.5
 31
0.0
  0
LINE
  5
128
330
1F
100
AcDbEntity
  8
0
  6
Continuous
 62
     7
370
    18
100
AcDbLine
 10
65.0
 20
10.0
 30
0.0
 11
65.0
 21
5.0
 31
0.0
  0
LINE
  5
129
330
1F
100
AcDbEntity
  8
0
  6
Continuous
 62
     7
370
    18
100
AcDbLine
 10
115.0
 20
10.0
 30
0.0
 11
115.0
 21
5.0
 31
0.0
  0
LINE
  5
12A
330
1F
100
AcDbEntity
  8
0
  6
Continuous
 62
     7
370
    18
100
AcDbLine
 10
115.0
 20
292.0
 30
0.0
 11
115.0
 21
287.0
 31
0.0
  0
LINE
  5
12B
330
1F
100
AcDbEntity
  8
0
  6
Continuous
 62
     7
370
    18
100
AcDbLine
 10
165.0
 20
10.0
 30
0.0
 11
165.0
 21
5.0
 31
0.0
  0
LINE
  5
12C
330
1F
100
AcDbEntity
  8
0
  6
Continuous
 62
     7
370
    18
100
AcDbLine
 10
165.0
 20
292.0
 30
0.0
 11
165.0
 21
287.0
 31
0.0
  0
LINE
  5
12D
330
1F
100
AcDbEntity
  8
0
  6
Continuous
 62
     7
370
    18
100
AcDbLine
 10
215.0
 20
10.0
 30
0.0
 11
215.0
 21
5.0
 31
0.0
  0
LINE
  5
12E
330
1F
100
AcDbEntity
  8
0
  6
Continuous
 62
     7
370
    18
100
AcDbLine
 10
215.0
 20
292.0
 30
0.0
 11
215.0
 21
287.0
 31
0.0
  0
LINE
  5
12F
330
1F
100
AcDbEntity
  8
0
  6
Continuous
 62
     7
370
    18
100
AcDbLine
 10
265.0
 20
10.0
 30
0.0
 11
265.0
 21
5.0
 31
0.0
  0
LINE
  5
130
330
1F
100
AcDbEntity
  8
0
  6
Continuous
 62
     7
370
    18
100
AcDbLine
 10
265.0
 20
292.0
 30
0.0
 11
265.0
 21
287.0
 31
0.0
  0
LINE
  5
131
330
1F
100
AcDbEntity
  8
0
  6
Continuous
 62
     7
370
    18
100
AcDbLine
 10
347.6610845472
 20
20.0
 30
0.0
 11
347.6610845472
 21
10.0
 31
0.0
  0
LINE
  5
132
330
1F
100
AcDbEntity
  8
0
  6
Continuous
 62
     7
370
    18
100
AcDbLine
 10
362.6610845472
 20
20.0
 30
0.0
 11
362.6610845472
 21
10.0
 31
0.0
  0
LINE
  5
133
330
1F
100
AcDbEntity
  8
0
  6
Continuous
 62
     7
370
    25
100
AcDbLine
 10
327.6610845472
 20
10.0
 30
0.0
 11
327.6610845472
 21
55.0
 31
0.0
  0
LINE
  5
134
330
1F
100
AcDbEntity
  8
0
  6
Continuous
 62
     7
370
    18
100
AcDbLine
 10
20.0
 20
292.0
 30
0.0
 11
20.0
 21
297.0
 31
0.0
  0
LINE
  5
135
330
1F
100
AcDbEntity
  8
0
  6
Continuous
 62
     7
370
    18
100
AcDbLine
 10
20.0
 20
5.0
 30
0.0
 11
20.0
 21
0.0
 31
0.0
  0
LINE
  5
136
330
1F
100
AcDbEntity
  8
0
  6
Continuous
 62
     7
370
    18
100
AcDbLine
 10
315.0
 20
10.0
 30
0.0
 11
315.0
 21
5.0
 31
0.0
  0
LINE
  5
137
330
1F
100
AcDbEntity
  8
0
  6
Continuous
 62
     7
370
    18
100
AcDbLine
 10
315.0
 20
292.0
 30
0.0
 11
315.0
 21
287.0
 31
0.0
  0
LINE
  5
138
330
1F
100
AcDbEntity
  8
0
  6
Continuous
 62
     7
370
    18
100
AcDbLine
 10
365.0
 20
10.0
 30
0.0
 11
365.0
 21
5.0
 31
0.0
  0
LINE
  5
139
330
1F
100
AcDbEntity
  8
0
  6
Continuous
 62
     7
370
    18
100
AcDbLine
 10
365.0
 20
292.0
 30
0.0
 11
365.0
 21
287.0
 31
0.0
  0
LINE
  5
13A
330
1F
100
AcDbEntity
  8
0
  6
Continuous
 62
     7
370
    18
100
AcDbLine
 10
15.0
 20
292.0
 30
0.0
 11
15.0
 21
5.0
 31
0.0
  0
LINE
  5
13B
330
1F
100
AcDbEntity
  8
0
  6
Continuous
 62
     7
370
    18
100
AcDbLine
 10
15.0
 20
5.0
 30
0.0
 11
415.0
 21
5.0
 31
0.0
  0
LINE
  5
13C
330
1F
100
AcDbEntity
  8
0
  6
Continuous
 62
     7
370
    18
100
AcDbLine
 10
415.0
 20
292.0
 30
0.0
 11
415.0
 21
5.0
 31
0.0
  0
LINE
  5
13D
330
1F
100
AcDbEntity
  8
0
  6
Continuous
 62
     7
370
    18
100
AcDbLine
 10
347.6610845472
 20
44.213444
 30
0.0
 11
327.6610845472
 21
44.213444
 31
0.0
  0
LINE
  5
13E
330
1F
100
AcDbEntity
  8
0
  6
Continuous
 62
     7
370
    18
100
AcDbLine
 10
347.6610845472
 20
35.0
 30
0.0
 11
347.6610845472
 21
55.0
 31
0.0
  0
LINE
  5
13F
330
1F
100
AcDbEntity
  8
0
  6
Continuous
 62
     7
370
    18
100
AcDbLine
 10
370.057188
 20
55.012032
 30
0.0
 11
370.057188
 21
35.0
 31
0.0
  0
LINE
  5
140
330
1F
100
AcDbEntity
  8
0
  6
Continuous
 62
     7
370
    18
100
AcDbLine
 10
398.0
 20
35.0
 30
0.0
 11
398.0
 21
20.0
 31
0.0
  0
LINE
  5
141
330
1F
100
AcDbEntity
  8
0
  6
Continuous
 62
     7
370
    18
100
AcDbLine
 10
410.0
 20
15.0
 30
0.0
 11
327.6610845472
 21
15.0
 31
0.0
  0
LINE
  5
142
330
1F
100
AcDbEntity
  8
0
  6
Continuous
 62
     7
370
    18
100
AcDbLine
 10
327.6610845472
 20
20.0
 30
0.0
 11
410.0
 21
20.0
 31
0.0
  0
LINE
  5
143
330
1F
100
AcDbEntity
  8
0
  6
Continuous
 62
     7
370
    18
100
AcDbLine
 10
341.485486
 20
20.0
 30
0.0
 11
341.485486
 21
27.564675
 31
0.0
  0
LINE
  5
144
330
1F
100
AcDbEntity
  8
0
  6
Continuous
 62
     7
370
    25
100
AcDbLine
 10
310.0
 20
76.5
 30
0.0
 11
310.0
 21
55.0
 31
0.0
  0
CIRCLE
  5
145
330
1F
100
AcDbEntity
  8
0
  6
Continuous
 62
     7
370
    18
100
AcDbCircle
 10
11.0
 20
108.5
 30
0.0
 40
2.749999999999999
  0
CIRCLE
  5
146
330
1F
100
AcDbEntity
  8
0
  6
Continuous
 62
     7
370
    18
100
AcDbCircle
 10
11.0
 20
188.5
 30
0.0
 40
2.75000000000001
  0
CIRCLE
  5
147
330
1F
100
AcDbEntity
  8
0
  6
Continuous
 62
     7
370
    18
100
AcDbCircle
 10
352.6174545849
 20
43.1536640226
 30
0.0
 40
3.218346681300192
  0
CIRCLE
  5
148
330
1F
100
AcDbEntity
  8
0
  6
Continuous
 62
     7
370
    18
100
AcDbCircle
 10
352.6174545849
 20
43.1536640226
 30
0.0
 40
1.583958554121557
  0
INSERT
  5
149
330
1F
100
AcDbEntity
  8
0
  6
Continuous
 62
     7
100
AcDbBlockReference
  2
ACO-Logo
 10
314.3510726297
 20
57.6366106772
 30
0.0
  0
POINT
  5
14A
330
1F
100
AcDbEntity
  8
0
100
AcDbPoint
 10
0.0
 20
0.0
 30
0.0
  0
POINT
  5
14B
330
1F
100
AcDbEntity
  8
0
100
AcDbPoint
 10
410.0
 20
10.0
 30
0.0
  0
MTEXT
  5
14C
330
1F
100
AcDbEntity
  8
0
  6
Continuous
 62
     7
370
    18
100
AcDbMText
 10
17.7359443114
 20
124.8017866468
 30
0.0
 40
2.0
 41
0.0
 71
     2
 72
     1
  1
D
  7
SLDTEXTSTYLE0
 73
     1
 44
1.0
  0
MTEXT
  5
14D
330
1F
100
AcDbEntity
  8
0
  6
Continuous
 62
     7
370
    18
100
AcDbMText
 10
17.6274822413
 20
174.7261854936
 30
0.0
 40
2.0
 41
0.0
 71
     2
 72
     1
  1
C
  7
SLDTEXTSTYLE0
 73
     1
 44
1.0
  0
MTEXT
  5
14E
330
1F
100
AcDbEntity
  8
0
  6
Continuous
 62
     7
370
    18
100
AcDbMText
 10
17.5516905072
 20
224.4926420442
 30
0.0
 40
2.0
 41
0.0
 71
     2
 72
     1
  1
B
  7
SLDTEXTSTYLE0
 73
     1
 44
1.0
  0
MTEXT
  5
14F
330
1F
100
AcDbEntity
  8
0
  6
Continuous
 62
     7
370
    18
100
AcDbMText
 10
290.0344258799
 20
290.5428789914
 30
0.0
 40
2.0
 41
0.0
 71
     2
 72
     1
  1
6
  7
SLDTEXTSTYLE0
 73
     1
 44
1.0
  0
MTEXT
  5
150
330
1F
100
AcDbEntity
  8
0
  6
Continuous
 62
     7
370
    18
100
AcDbMText
 10
240.0417859812
 20
290.6369260235
 30
0.0
 40
2.0
 41
0.0
 71
     2
 72
     1
  1
5
  7
SLDTEXTSTYLE0
 73
     1
 44
1.0
  0
MTEXT
  5
151
330
1F
100
AcDbEntity
  8
0
  6
Continuous
 62
     7
370
    18
100
AcDbMText
 10
190.0300404524
 20
290.6343268032
 30
0.0
 40
2.0
 41
0.0
 71
     2
 72
     1
  1
4
  7
SLDTEXTSTYLE0
 73
     1
 44
1.0
  0
MTEXT
  5
152
330
1F
100
AcDbEntity
  8
0
  6
Continuous
 62
     7
370
    18
100
AcDbMText
 10
140.0165868337
 20
290.6378887952
 30
0.0
 40
2.0
 41
0.0
 71
     2
 72
     1
  1
3
  7
SLDTEXTSTYLE0
 73
     1
 44
1.0
  0
MTEXT
  5
153
330
1F
100
AcDbEntity
  8
0
  6
Continuous
 62
     7
370
    18
100
AcDbMText
 10
90.033223
 20
290.5566702875
 30
0.0
 40
2.0
 41
0.0
 71
     2
 72
     1
  1
2
  7
SLDTEXTSTYLE0
 73
     1
 44
1.0
  0
MTEXT
  5
154
330
1F
100
AcDbEntity
  8
0
  6
Continuous
 62
     7
370
    18
100
AcDbMText
 10
40.0509551097
 20
290.5530165805
 30
0.0
 40
2.0
 41
0.0
 71
     2
 72
     1
  1
1
  7
SLDTEXTSTYLE0
 73
     1
 44
1.0
  0
MTEXT
  5
155
330
1F
100
AcDbEntity
  8
0
  6
Continuous
 62
     7
370
    18
100
AcDbMText
 10
17.5609786315
 20
271.2966048816
 30
0.0
 40
2.0
 41
0.0
 71
     2
 72
     1
  1
A
  7
SLDTEXTSTYLE0
 73
     1
 44
1.0
  0
MTEXT
  5
156
330
1F
100
AcDbEntity
  8
0
  6
Continuous
 62
     7
370
    18
100
AcDbMText
 10
89.9333968896
 20
8.5904490253
 30
0.0
 40
2.0
 41
0.0
 71
     2
 72
     1
  1
2
  7
SLDTEXTSTYLE0
 73
     1
 44
1.0
  0
MTEXT
  5
157
330
1F
100
AcDbEntity
  8
0
  6
Continuous
 62
     7
370
    18
100
AcDbMText
 10
39.9009486579
 20
8.6623118453
 30
0.0
 40
2.0
 41
0.0
 71
     2
 72
     1
  1
1
  7
SLDTEXTSTYLE0
 73
     1
 44
1.0
  0
MTEXT
  5
158
330
1F
100
AcDbEntity
  8
0
  6
Continuous
 62
     7
370
    18
100
AcDbMText
 10
190.0227230239
 20
8.7073169286
 30
0.0
 40
2.0
 41
0.0
 71
     2
 72
     1
  1
4
  7
SLDTEXTSTYLE0
 73
     1
 44
1.0
  0
MTEXT
  5
159
330
1F
100
AcDbEntity
  8
0
  6
Continuous
 62
     7
370
    18
100
AcDbMText
 10
140.0453427777
 20
8.5647154541
 30
0.0
 40
2.0
 41
0.0
 71
     2
 72
     1
  1
3
  7
SLDTEXTSTYLE0
 73
     1
 44
1.0
  0
MTEXT
  5
15A
330
1F
100
AcDbEntity
  8
0
  6
Continuous
 62
     7
370
    18
100
AcDbMText
 10
239.8749782531
 20
8.5637526825
 30
0.0
 40
2.0
 41
0.0
 71
     2
 72
     1
  1
5
  7
SLDTEXTSTYLE0
 73
     1
 44
1.0
  0
MTEXT
  5
15B
330
1F
100
AcDbEntity
  8
0
  6
Continuous
 62
     7
370
    18
100
AcDbMText
 10
412.6717254925
 20
224.51208263
 30
0.0
 40
2.0
 41
0.0
 71
     2
 72
     1
  1
B
  7
SLDTEXTSTYLE0
 73
     1
 44
1.0
  0
MTEXT
  5
15C
330
1F
100
AcDbEntity
  8
0
  6
Continuous
 62
     7
370
    18
100
AcDbMText
 10
412.5951211154
 20
271.2798202564
 30
0.0
 40
2.0
 41
0.0
 71
     2
 72
     1
  1
A
  7
SLDTEXTSTYLE0
 73
     1
 44
1.0
  0
MTEXT
  5
15D
330
1F
100
AcDbEntity
  8
0
  6
Continuous
 62
     7
370
    18
100
AcDbMText
 10
412.6491448679
 20
174.7279841048
 30
0.0
 40
2.0
 41
0.0
 71
     2
 72
     1
  1
C
  7
SLDTEXTSTYLE0
 73
     1
 44
1.0
  0
MTEXT
  5
15E
330
1F
100
AcDbEntity
  8
0
  6
Continuous
 62
     7
370
    18
100
AcDbMText
 10
340.0216466634
 20
290.5954278102
 30
0.0
 40
2.0
 41
0.0
 71
     2
 72
     1
  1
7
  7
SLDTEXTSTYLE0
 73
     1
 44
1.0
  0
MTEXT
  5
15F
330
1F
100
AcDbEntity
  8
0
  6
Continuous
 62
     7
370
    18
100
AcDbMText
 10
390.037657264
 20
290.6215496941
 30
0.0
 40
2.0
 41
0.0
 71
     2
 72
     1
  1
8
  7
SLDTEXTSTYLE0
 73
     1
 44
1.0
  0
MTEXT
  5
160
330
1F
100
AcDbEntity
  8
0
  6
Continuous
 62
     7
370
    18
100
AcDbMText
 10
17.6897935208
 20
74.7267628143
 30
0.0
 40
2.0
 41
0.0
 71
     2
 72
     1
  1
E
  7
SLDTEXTSTYLE0
 73
     1
 44
1.0
  0
MTEXT
  5
161
330
1F
100
AcDbEntity
  8
0
  6
Continuous
 62
     7
370
    18
100
AcDbMText
 10
17.5936930126
 20
27.773321616
 30
0.0
 40
2.0
 41
0.0
 71
     2
 72
     1
  1
F
  7
SLDTEXTSTYLE0
 73
     1
 44
1.0
  0
MTEXT
  5
162
330
1F
100
AcDbEntity
  8
0
  6
Continuous
 62
     7
370
    18
100
AcDbMText
 10
339.8003474583
 20
8.7205095051
 30
0.0
 40
2.0
 41
0.0
 71
     2
 72
     1
  1
7
  7
SLDTEXTSTYLE0
 73
     1
 44
1.0
  0
MTEXT
  5
163
330
1F
100
AcDbEntity
  8
0
  6
Continuous
 62
     7
370
    18
100
AcDbMText
 10
289.7886477179
 20
8.6884673623
 30
0.0
 40
2.0
 41
0.0
 71
     2
 72
     1
  1
6
  7
SLDTEXTSTYLE0
 73
     1
 44
1.0
  0
MTEXT
  5
164
330
1F
100
AcDbEntity
  8
0
  6
Continuous
 62
     7
370
    18
100
AcDbMText
 10
412.5160699095
 20
74.5096307526
 30
0.0
 40
2.0
 41
0.0
 71
     2
 72
     1
  1
E
  7
SLDTEXTSTYLE0
 73
     1
 44
1.0
  0
MTEXT
  5
165
330
1F
100
AcDbEntity
  8
0
  6
Continuous
 62
     7
370
    18
100
AcDbMText
 10
412.6234021365
 20
124.4517683275
 30
0.0
 40
2.0
 41
0.0
 71
     2
 72
     1
  1
D
  7
SLDTEXTSTYLE0
 73
     1
 44
1.0
  0
MTEXT
  5
166
330
1F
100
AcDbEntity
  8
0
  6
Continuous
 62
     7
370
    18
100
AcDbMText
 10
411.7952690469
 20
41.8457885264
 30
0.0
 40
1.8
 41
0.0
 71
     3
 72
     1
  1
Plotdatum: 15.09.2024
  7
SLDTEXTSTYLE0
 11
-3.269436733918102E-15
 21
1.0
 31
0.0
 73
     1
 44
1.0
  0
MTEXT
  5
167
330
1F
100
AcDbEntity
  8
0
  6
Continuous
 62
     7
370
    18
100
AcDbMText
 10
412.557933251
 20
8.2549718046
 30
0.0
 40
1.8
 41
0.0
 71
     2
 72
     1
  1
A3
  7
SLDTEXTSTYLE0
 73
     1
 44
1.0
  0
MTEXT
  5
168
330
1F
100
AcDbEntity
  8
0
  6
Continuous
 62
     7
370
    18
100
AcDbMText
 10
390.594604279
 20
8.3847467643
 30
0.0
 40
1.8
 41
0.0
 71
     2
 72
     1
  1
CAD-System: SolidWorks
  7
SLDTEXTSTYLE0
 73
     1
 44
1.0
  0
MTEXT
  5
169
330
1F
100
AcDbEntity
  8
0
  6
Continuous
 62
     7
370
    18
100
AcDbMText
 10
404.0455117056
 20
28.4394692021
 30
0.0
 40
5.0
 41
0.0
 71
     2
 72
     1
  1
D
  7
SLDTEXTSTYLE0
 73
     1
 44
1.0
  0
MTEXT
  5
16A
330
1F
100
AcDbEntity
  8
0
  6
Continuous
 62
     7
370
    18
100
AcDbMText
 10
249.556836311
 20
38.5581729516
 30
0.0
 40
2.0
 41
0.0
 71
     1
 72
     1
  1
Freigegeben
  7
SLDTEXTSTYLE0
 73
     1
 44
1.0
  0
MTEXT
  5
16B
330
1F
100
AcDbEntity
  8
0
  6
Continuous
 62
     7
370
    18
100
AcDbMText
 10
284.1045975735
 20
43.5473338598
 30
0.0
 40
2.0
 41
0.0
 71
     2
 72
     1
  1
Hans
  7
SLDTEXTSTYLE0
 73
     1
 44
1.0
  0
MTEXT
  5
16C
330
1F
100
AcDbEntity
  8
0
  6
Continuous
 62
     7
370
    18
100
AcDbMText
 10
249.5284668163
 20
43.5603133928
 30
0.0
 40
2.0
 41
0.0
 71
     1
 72
     1
  1
15.09.2024
  7
SLDTEXTSTYLE0
 73
     1
 44
1.0
  0
MTEXT
  5
16D
330
1F
100
AcDbEntity
  8
0
  6
Continuous
 62
     7
370
    18
100
AcDbMText
 10
284.1413255175
 20
48.5138972561
 30
0.0
 40
2.0
 41
0.0
 71
     2
 72
     1
  1
KJ
  7
SLDTEXTSTYLE0
 73
     1
 44
1.0
  0
MTEXT
  5
16E
330
1F
100
AcDbEntity
  8
0
  6
Continuous
 62
     7
370
    18
100
AcDbMText
 10
249.5284668163
 20
48.4989062069
 30
0.0
 40
2.0
 41
0.0
 71
     1
 72
     1
  1
13.09.2019
  7
SLDTEXTSTYLE0
 73
     1
 44
1.0
  0
MTEXT
  5
16F
330
1F
100
AcDbEntity
  8
0
  6
Continuous
 62
     7
370
     0
100
AcDbMText
 10
372.2007348103
 20
38.8723054925
 30
0.0
 40
1.5
 41
0.0
 71
     1
 72
     1
  1
Copyright reserved! © ACO AG
  7
SLDTEXTSTYLE0
 73
     1
 44
1.0
  0
INSERT
  5
178
330
1F
100
AcDbEntity
  8
0
  6
Continuous
 62
     7
370
     0
100
AcDbBlockReference
  2
SW_NOTE_0_3
 10
372.2203831445
 20
51.2202922854
 30
0.0
  0
MTEXT
  5
179
330
1F
100
AcDbEntity
  8
0
  6
Continuous
 62
     7
370
    18
100
AcDbMText
 10
340.2612530209
 20
13.606872109
 30
0.0
 40
2.0
 41
0.0
 71
     2
 72
     1
  1
04.10.2023
  7
SLDTEXTSTYLE0
 73
     1
 44
1.0
  0
MTEXT
  5
17A
330
1F
100
AcDbEntity
  8
0
  6
Continuous
 62
     7
370
    18
100
AcDbMText
 10
364.9468572407
 20
13.5417229519
 30
0.0
 40
2.0
 41
0.0
 71
     1
 72
     1
  1
Bezeichnung
  7
SLDTEXTSTYLE0
 73
     1
 44
1.0
  0
MTEXT
  5
17B
330
1F
100
AcDbEntity
  8
0
  6
Continuous
 62
     7
370
    18
100
AcDbMText
 10
354.2412775789
 20
13.606872109
 30
0.0
 40
2.0
 41
0.0
 71
     2
 72
     1
  1
nae
  7
SLDTEXTSTYLE0
 73
     1
 44
1.0
  0
MTEXT
  5
17C
330
1F
100
AcDbEntity
  8
0
  6
Continuous
 62
     7
370
    18
100
AcDbMText
 10
330.2617921867
 20
13.524501801
 30
0.0
 40
2.0
 41
0.0
 71
     2
 72
     1
  1
C
  7
SLDTEXTSTYLE0
 73
     1
 44
1.0
  0
MTEXT
  5
17D
330
1F
100
AcDbEntity
  8
0
  6
Continuous
 62
     7
370
    18
100
AcDbMText
 10
364.9468572407
 20
18.4594173137
 30
0.0
 40
2.0
 41
0.0
 71
     1
 72
     1
  1
SAP-Nr.
  7
SLDTEXTSTYLE0
 73
     1
 44
1.0
  0
MTEXT
  5
17E
330
1F
100
AcDbEntity
  8
0
  6
Continuous
 62
     7
370
    18
100
AcDbMText
 10
354.2897149303
 20
18.5245664709
 30
0.0
 40
2.0
 41
0.0
 71
     2
 72
     1
  1
Hans
  7
SLDTEXTSTYLE0
 73
     1
 44
1.0
  0
MTEXT
  5
17F
330
1F
100
AcDbEntity
  8
0
  6
Continuous
 62
     7
370
    18
100
AcDbMText
 10
340.3028682291
 20
18.5245664709
 30
0.0
 40
2.0
 41
0.0
 71
     2
 72
     1
  1
12.09.2024
  7
SLDTEXTSTYLE0
 73
     1
 44
1.0
  0
MTEXT
  5
180
330
1F
100
AcDbEntity
  8
0
  6
Continuous
 62
     7
370
    18
100
AcDbMText
 10
330.2689102269
 20
18.524501801
 30
0.0
 40
2.0
 41
0.0
 71
     2
 72
     1
  1
D
  7
SLDTEXTSTYLE0
 73
     1
 44
1.0
  0
MTEXT
  5
181
330
1F
100
AcDbEntity
  8
0
  6
Continuous
 62
     7
370
    18
100
AcDbMText
 10
311.764909851
 20
46.3490312465
 30
0.0
 40
5.0
 41
0.0
 71
     2
 72
     1
  1
1:5
  7
SLDTEXTSTYLE0
 73
     1
 44
1.0
  0
MTEXT
  5
182
330
1F
100
AcDbEntity
  8
0
  6
Continuous
 62
     7
370
    18
100
AcDbMText
 10
230.1851195342
 20
38.7793829468
 30
0.0
 40
2.0
 41
0.0
 71
     1
 72
     1
  1
Status:
  7
SLDTEXTSTYLE0
 73
     1
 44
1.0
  0
MTEXT
  5
183
330
1F
100
AcDbEntity
  8
0
  6
Continuous
 62
     7
370
    18
100
AcDbMText
 10
344.926838705
 20
28.2772828851
 30
0.0
 40
5.0
 41
0.0
 71
     1
 72
     1
  1
420008
  7
SLDTEXTSTYLE0
 73
     1
 44
1.0
  0
MTEXT
  5
184
330
1F
100
AcDbEntity
  8
0
  6
Continuous
 62
     7
370
    18
100
AcDbMText
 10
231.1132118803
 20
14.9211049657
 30
0.0
 40
2.5
 41
0.0
 71
     1
 72
     1
  1
Art. Nr.: 2090484
  7
SLDTEXTSTYLE0
 73
     1
 44
1.0
  0
MTEXT
  5
185
330
1F
100
AcDbEntity
  8
0
  6
Continuous
 62
     7
370
    18
100
AcDbMText
 10
231.1475981734
 20
21.4529560996
 30
0.0
 40
2.5
 41
0.0
 71
     1
 72
     1
  1
ohne Sohlengefälle
  7
SLDTEXTSTYLE0
 73
     1
 44
1.0
  0
MTEXT
  5
186
330
1F
100
AcDbEntity
  8
0
  6
Continuous
 62
     7
370
    18
100
AcDbMText
 10
231.1159560181
 20
33.0904969858
 30
0.0
 40
2.5
 41
0.0
 71
     1
 72
     1
  1
Haustechnik
  7
SLDTEXTSTYLE0
 73
     1
 44
1.0
  0
MTEXT
  5
187
330
1F
100
AcDbEntity
  8
0
  6
Continuous
 62
     7
370
    18
100
AcDbMText
 10
231.1475981734
 20
28.0307932366
 30
0.0
 40
3.5
 41
0.0
 71
     1
 72
     1
  1
Kastenrinne K100
  7
SLDTEXTSTYLE0
 73
     1
 44
1.0
  0
MTEXT
  5
188
330
1F
100
AcDbEntity
  8
0
  6
Continuous
 62
     7
370
    18
100
AcDbMText
 10
348.2746465368
 20
53.819119072
 30
0.0
 40
2.0
 41
0.0
 71
     1
 72
     1
  1
Projektion: ISO-E
  7
SLDTEXTSTYLE0
 73
     1
 44
1.0
  0
MTEXT
  5
189
330
1F
100
AcDbEntity
  8
0
  6
Continuous
 62
     7
370
    18
100
AcDbMText
 10
337.7677091855
 20
49.3670227094
 30
0.0
 40
2.5
 41
0.0
 71
     2
 72
     1
  1
Millimeter
  7
SLDTEXTSTYLE0
 73
     1
 44
1.0
  0
MTEXT
  5
18A
330
1F
100
AcDbEntity
  8
0
  6
Continuous
 62
     7
370
    18
100
AcDbMText
 10
337.6323777421
 20
53.855374072
 30
0.0
 40
2.0
 41
0.0
 71
     2
 72
     1
  1
Masseinheit:
  7
SLDTEXTSTYLE0
 73
     1
 44
1.0
  0
MTEXT
  5
18B
330
1F
100
AcDbEntity
  8
0
  6
Continuous
 62
     7
370
    18
100
AcDbMText
 10
337.6114490186
 20
43.5452078816
 30
0.0
 40
2.0
 41
0.0
 71
     2
 72
     1
  1
Blatt / Anz.:
  7
SLDTEXTSTYLE0
 73
     1
 44
1.0
  0
MTEXT
  5
18C
330
1F
100
AcDbEntity
  8
0
  6
Continuous
 62
     7
370
    18
100
AcDbMText
 10
329.2895578243
 20
28.4139191092
 30
0.0
 40
5.0
 41
0.0
 71
     1
 72
     1
  1
CH
  7
SLDTEXTSTYLE0
 73
     1
 44
1.0
  0
MTEXT
  5
18D
330
1F
100
AcDbEntity
  8
0
  6
Continuous
 62
     7
370
    18
100
AcDbMText
 10
330.40704
 20
33.692638072
 30
0.0
 40
2.0
 41
0.0
 71
     1
 72
     1
  1
Zeichnung Nr.:
  7
SLDTEXTSTYLE0
 73
     1
 44
1.0
  0
MTEXT
  5
18E
330
1F
100
AcDbEntity
  8
0
  6
Continuous
 62
     7
370
    18
100
AcDbMText
 10
269.897953
 20
75.161075072
 30
0.0
 40
2.0
 41
0.0
 71
     1
 72
     1
  1
Gewicht:
  7
SLDTEXTSTYLE0
 73
     1
 44
1.0
  0
MTEXT
  5
18F
330
1F
100
AcDbEntity
  8
0
  6
Continuous
 62
     7
370
    18
100
AcDbMText
 10
230.0
 20
64.542328072
 30
0.0
 40
2.0
 41
0.0
 71
     1
 72
     1
  1
zul. Abweichung:
  7
SLDTEXTSTYLE0
 73
     1
 44
1.0
  0
MTEXT
  5
190
330
1F
100
AcDbEntity
  8
0
  6
Continuous
 62
     7
370
    18
100
AcDbMText
 10
269.612607
 20
64.542328072
 30
0.0
 40
2.0
 41
0.0
 71
     1
 72
     1
  1
Oberfläche:
  7
SLDTEXTSTYLE0
 73
     1
 44
1.0
  0
MTEXT
  5
191
330
1F
100
AcDbEntity
  8
0
  6
Continuous
 62
     7
370
    18
100
AcDbMText
 10
230.261411
 20
43.4433838912
 30
0.0
 40
2.0
 41
0.0
 71
     1
 72
     1
  1
Freigegeben:
  7
SLDTEXTSTYLE0
 73
     1
 44
1.0
  0
MTEXT
  5
192
330
1F
100
AcDbEntity
  8
0
  6
Continuous
 62
     7
370
    18
100
AcDbMText
 10
230.0
 20
75.161075072
 30
0.0
 40
2.0
 41
0.0
 71
     1
 72
     1
  1
Werkstoff:
  7
SLDTEXTSTYLE0
 73
     1
 44
1.0
  0
MTEXT
  5
193
330
1F
100
AcDbEntity
  8
0
  6
Continuous
 62
     7
370
    18
100
AcDbMText
 10
254.035545
 20
53.129475072
 30
0.0
 40
2.0
 41
0.0
 71
     1
 72
     1
  1
Datum:
  7
SLDTEXTSTYLE0
 73
     1
 44
1.0
  0
MTEXT
  5
194
330
1F
100
AcDbEntity
  8
0
  6
Continuous
 62
     7
370
    18
100
AcDbMText
 10
279.934928
 20
53.136060072
 30
0.0
 40
2.0
 41
0.0
 71
     1
 72
     1
  1
Name:
  7
SLDTEXTSTYLE0
 73
     1
 44
1.0
  0
MTEXT
  5
195
330
1F
100
AcDbEntity
  8
0
  6
Continuous
 62
     7
370
    18
100
AcDbMText
 10
312.162455406
 20
53.881591072
 30
0.0
 40
2.0
 41
0.0
 71
     2
 72
     1
  1
Massstab:
  7
SLDTEXTSTYLE0
 73
     1
 44
1.0
  0
MTEXT
  5
196
330
1F
100
AcDbEntity
  8
0
  6
Continuous
 62
     7
370
    18
100
AcDbMText
 10
403.9552944035
 20
33.324874072
 30
0.0
 40
2.0
 41
0.0
 71
     2
 72
     1
  1
Index:
  7
SLDTEXTSTYLE0
 73
     1
 44
1.0
  0
MTEXT
  5
197
330
1F
100
AcDbEntity
  8
0
  6
Continuous
 62
     7
370
    18
100
AcDbMText
 10
230.261411
 20
48.4499477886
 30
0.0
 40
2.0
 41
0.0
 71
     1
 72
     1
  1
Erstellt:
  7
SLDTEXTSTYLE0
 73
     1
 44
1.0
  0
MTEXT
  5
199
330
1F
100
AcDbEntity
  8
0
  6
Continuous
 62
     7
370
    18
100
AcDbMText
 10
337.6348165843
 20
39.869706576
 30
0.0
 40
2.5
 41
0.0
 71
     2
 72
     1
  1
1 / 1
  7
SLDTEXTSTYLE1
 73
     1
 44
1.0
  0
MTEXT
  5
19A
330
1F
100
AcDbEntity
  8
0
  6
Continuous
 62
     7
370
    18
100
AcDbMText
 10
269.612607
 20
60.8119428599
 30
0.0
 40
3.0
 41
0.0
 71
     1
 72
     1
  1
DIN ISO 1302
  7
SLDTEXTSTYLE0
 73
     1
 44
1.0
  0
MTEXT
  5
19B
330
1F
100
AcDbEntity
  8
0
  6
Continuous
 62
     7
370
    18
100
AcDbMText
 10
230.0
 20
60.8119428599
 30
0.0
 40
3.0
 41
0.0
 71
     1
 72
     1
  1
Norm
  7
SLDTEXTSTYLE0
 73
     1
 44
1.0
  0
MTEXT
  5
19C
330
1F
100
AcDbEntity
  8
0
  6
Continuous
 62
     7
370
    18
100
AcDbMText
 10
269.612607
 20
71.2121947186
 30
0.0
 40
3.0
 41
0.0
 71
     1
 72
     1
  1
5.82 kg
  7
SLDTEXTSTYLE0
 73
     1
 44
1.0
  0
MTEXT
  5
19D
330
1F
100
AcDbEntity
  8
0
  6
Continuous
 62
     7
370
    18
100
AcDbMText
 10
230.0
 20
71.2121947186
 30
0.0
 40
3.0
 41
0.0
 71
     1
 72
     1
  1
1.4301 (X5CrNi18-10)
  7
SLDTEXTSTYLE0
 73
     1
 44
1.0
  0
LINE
  5
19E
330
1F
100
AcDbEntity
  8
0
  6
Continuous
 62
     7
370
    25
100
AcDbLine
 10
234.8729173639
 20
265.5574419622
 30
0.0
 11
234.8729173639
 21
267.1574419622
 31
0.0
  0
LINE
  5
19F
330
1F
100
AcDbEntity
  8
0
  6
Continuous
 62
     7
370
    25
100
AcDbLine
 10
34.8729173639
 20
265.5574419622
 30
0.0
 11
34.8729173639
 21
267.1574419622
 31
0.0
  0
LINE
  5
1A0
330
1F
100
AcDbEntity
  8
0
  6
Continuous
 62
     7
370
    25
100
AcDbLine
 10
234.8729173639
 20
265.5574419622
 30
0.0
 11
34.8729173639
 21
265.5574419622
 31
0.0
  0
LINE
  5
1A1
330
1F
100
AcDbEntity
  8
0
  6
Continuous
 62
     7
370
    25
100
AcDbLine
 10
34.8729173639
 20
267.9574419622
 30
0.0
 11
34.8729173639
 21
267.1574419622
 31
0.0
  0
LINE
  5
1A2
330
1F
100
AcDbEntity
  8
0
  6
Continuous
 62
     7
370
    25
100
AcDbLine
 10
34.8729173639
 20
267.9574419622
 30
0.0
 11
234.8729173639
 21
267.9574419622
 31
0.0
  0
LINE
  5
1A3
330
1F
100
AcDbEntity
  8
0
  6
Continuous
 62
     7
370
    25
100
AcDbLine
 10
234.8729173639
 20
267.1574419622
 30
0.0
 11
234.8729173639
 21
267.9574419622
 31
0.0
  0
LINE
  5
1A4
330
1F
100
AcDbEntity
  8
0
  6
Continuous
 62
     7
370
    25
100
AcDbLine
 10
234.8729173639
 20
264.1574419622
 30
0.0
 11
234.8729173639
 21
265.5574419622
 31
0.0
  0
LINE
  5
1A5
330
1F
100
AcDbEntity
  8
0
  6
Continuous
 62
     7
370
    25
100
AcDbLine
 10
34.8729173639
 20
264.1574419622
 30
0.0
 11
34.8729173639
 21
265.5574419622
 31
0.0
  0
LINE
  5
1A6
330
1F
100
AcDbEntity
  8
0
  6
Continuous
 62
     7
370
    25
100
AcDbLine
 10
234.8729173639
 20
263.3574419622
 30
0.0
 11
34.8729173639
 21
263.3574419622
 31
0.0
  0
LINE
  5
1A7
330
1F
100
AcDbEntity
  8
0
  6
Continuous
 62
     7
370
    25
100
AcDbLine
 10
34.8729173639
 20
263.3574419622
 30
0.0
 11
34.8729173639
 21
264.1574419622
 31
0.0
  0
LINE
  5
1A8
330
1F
100
AcDbEntity
  8
0
  6
Continuous
 62
     7
370
    25
100
AcDbLine
 10
234.8729173639
 20
264.1574419622
 30
0.0
 11
234.8729173639
 21
263.3574419622
 31
0.0
  0
LINE
  5
1A9
330
1F
100
AcDbEntity
  8
0
  6
Continuous
 62
     7
370
    25
100
AcDbLine
 10
234.8729173639
 20
262.9574419622
 30
0.0
 11
234.8729173639
 21
263.3574419622
 31
0.0
  0
LINE
  5
1AA
330
1F
100
AcDbEntity
  8
0
  6
Continuous
 62
     7
370
    25
100
AcDbLine
 10
34.8729173639
 20
263.3574419622
 30
0.0
 11
34.8729173639
 21
262.9574419622
 31
0.0
  0
LINE
  5
1AB
330
1F
100
AcDbEntity
  8
0
  6
Continuous
 62
     7
370
    25
100
AcDbLine
 10
34.8729173639
 20
248.7574419622
 30
0.0
 11
34.8729173639
 21
262.9574419622
 31
0.0
  0
LINE
  5
1AC
330
1F
100
AcDbEntity
  8
0
  6
Continuous
 62
     7
370
    25
100
AcDbLine
 10
234.8729173639
 20
248.7574419622
 30
0.0
 11
234.8729173639
 21
262.9574419622
 31
0.0
  0
LINE
  5
1AD
330
1F
100
AcDbEntity
  8
0
  6
Continuous
 62
     7
370
    25
100
AcDbLine
 10
234.8729173639
 20
247.9574419622
 30
0.0
 11
34.8729173639
 21
247.9574419622
 31
0.0
  0
LINE
  5
1AE
330
1F
100
AcDbEntity
  8
0
  6
Continuous
 62
     7
370
    25
100
AcDbLine
 10
34.8729173639
 20
248.7574419622
 30
0.0
 11
34.8729173639
 21
247.9574419622
 31
0.0
  0
LINE
  5
1AF
330
1F
100
AcDbEntity
  8
0
  6
Continuous
 62
     7
370
    25
100
AcDbLine
 10
234.8729173639
 20
247.9574419622
 30
0.0
 11
234.8729173639
 21
248.7574419622
 31
0.0
  0
LINE
  5
1B0
330
1F
100
AcDbEntity
  8
0
  6
Continuous
 62
     8
370
    18
100
AcDbLine
 10
234.8729173639
 20
267.1574419622
 30
0.0
 11
34.8729173639
 21
267.1574419622
 31
0.0
  0
LINE
  5
1B1
330
1F
100
AcDbEntity
  8
0
  6
Continuous
 62
     8
370
    18
100
AcDbLine
 10
34.8729173639
 20
264.1574419622
 30
0.0
 11
234.8729173639
 21
264.1574419622
 31
0.0
  0
LINE
  5
1B2
330
1F
100
AcDbEntity
  8
0
  6
Continuous
 62
     8
370
    18
100
AcDbLine
 10
234.8729173639
 20
262.9574419622
 30
0.0
 11
34.8729173639
 21
262.9574419622
 31
0.0
  0
LINE
  5
1B3
330
1F
100
AcDbEntity
  8
0
  6
Continuous
 62
     8
370
    18
100
AcDbLine
 10
34.8729173639
 20
248.7574419622
 30
0.0
 11
234.8729173639
 21
248.7574419622
 31
0.0
  0
DIMENSION
  5
1B4
330
1F
100
AcDbEntity
  8
0
  6
Continuous
 62
     7
370
    18
100
AcDbDimension
  2
_D
 10
34.8729173639
 20
237.9574419622
 30
0.0
 11
134.8729173639
 21
237.9574419622
 31
0.0
 70
   160
  1
<>
 71
     2
 42
-1.0
  3
SLDDIMSTYLE0
100
AcDbAlignedDimension
 13
234.8729173639
 23
247.9574419622
 33
0.0
 14
34.8729173639
 24
247.9574419622
 34
0.0
100
AcDbRotatedDimension
  0
ARC
  5
1BF
330
1F
100
AcDbEntity
  8
0
  6
Continuous
 62
     7
370
    25
100
AcDbCircle
 10
233.9947766976
 20
192.9483126044
 30
0.0
 40
2.0
100
AcDbArc
 50
90.0
 51
180.0
  0
ARC
  5
1C0
330
1F
100
AcDbEntity
  8
0
  6
Continuous
 62
     7
370
    25
100
AcDbCircle
 10
233.9947766976
 20
192.9483126044
 30
0.0
 40
4.0
100
AcDbArc
 50
90.0
 51
180.0
  0
LINE
  5
1C1
330
1F
100
AcDbEntity
  8
0
  6
Continuous
 62
     7
370
    25
100
AcDbLine
 10
233.9947766976
 20
194.9483126044
 30
0.0
 11
245.9947766976
 21
194.9483126044
 31
0.0
  0
LINE
  5
1C2
330
1F
100
AcDbEntity
  8
0
  6
Continuous
 62
     7
370
    25
100
AcDbLine
 10
245.9947766976
 20
196.9483126044
 30
0.0
 11
233.9947766976
 21
196.9483126044
 31
0.0
  0
LINE
  5
1C3
330
1F
100
AcDbEntity
  8
0
  6
Continuous
 62
     7
370
    25
100
AcDbLine
 10
231.9947766976
 20
184.9483126044
 30
0.0
 11
229.9947766976
 21
184.9483126044
 31
0.0
  0
LINE
  5
1C4
330
1F
100
AcDbEntity
  8
0
  6
Continuous
 62
     7
370
    25
100
AcDbLine
 10
231.9947766976
 20
184.9483126044
 30
0.0
 11
231.9947766976
 21
192.9483126044
 31
0.0
  0
LINE
  5
1C5
330
1F
100
AcDbEntity
  8
0
  6
Continuous
 62
     7
370
    25
100
AcDbLine
 10
229.9947766976
 20
192.9483126044
 30
0.0
 11
229.9947766976
 21
184.9483126044
 31
0.0
  0
LINE
  5
1C6
330
1F
100
AcDbEntity
  8
0
  6
Continuous
 62
     7
370
    25
100
AcDbLine
 10
392.9947766976
 20
192.9483126044
 30
0.0
 11
392.9947766976
 21
184.9483126044
 31
0.0
  0
LINE
  5
1C7
330
1F
100
AcDbEntity
  8
0
  6
Continuous
 62
     7
370
    25
100
AcDbLine
 10
392.9947766976
 20
184.9483126044
 30
0.0
 11
394.9947766976
 21
184.9483126044
 31
0.0
  0
LINE
  5
1C8
330
1F
100
AcDbEntity
  8
0
  6
Continuous
 62
     7
370
    25
100
AcDbLine
 10
394.9947766976
 20
184.9483126044
 30
0.0
 11
394.9947766976
 21
192.9483126044
 31
0.0
  0
ARC
  5
1C9
330
1F
100
AcDbEntity
  8
0
  6
Continuous
 62
     7
370
    25
100
AcDbCircle
 10
390.9947766976
 20
192.9483126044
 30
0.0
 40
2.0
100
AcDbArc
 50
0.0
 51
90.0
  0
ARC
  5
1CA
330
1F
100
AcDbEntity
  8
0
  6
Continuous
 62
     7
370
    25
100
AcDbCircle
 10
390.9947766976
 20
192.9483126044
 30
0.0
 40
4.0
100
AcDbArc
 50
0.0
 51
90.0
  0
LINE
  5
1CB
330
1F
100
AcDbEntity
  8
0
  6
Continuous
 62
     7
370
    25
100
AcDbLine
 10
378.9947766976
 20
194.9483126044
 30
0.0
 11
390.9947766976
 21
194.9483126044
 31
0.0
  0
LINE
  5
1CC
330
1F
100
AcDbEntity
  8
0
  6
Continuous
 62
     7
370
    25
100
AcDbLine
 10
390.9947766976
 20
196.9483126044
 30
0.0
 11
378.9947766976
 21
196.9483126044
 31
0.0
  0
ARC
  5
1CD
330
1F
100
AcDbEntity
  8
0
  6
Continuous
 62
     7
370
    25
100
AcDbCircle
 10
378.9947766976
 20
192.9483126044
 30
0.0
 40
2.0
100
AcDbArc
 50
90.0
 51
180.0
  0
ARC
  5
1CE
330
1F
100
AcDbEntity
  8
0
  6
Continuous
 62
     7
370
    25
100
AcDbCircle
 10
378.9947766976
 20
192.9483126044
 30
0.0
 40
4.0
100
AcDbArc
 50
90.0
 51
180.0
  0
LINE
  5
1CF
330
1F
100
AcDbEntity
  8
0
  6
Continuous
 62
     7
370
    25
100
AcDbLine
 10
364.4947766976
 20
173.9483126044
 30
0.0
 11
372.9947766976
 21
173.9483126044
 31
0.0
  0
LINE
  5
1D0
330
1F
100
AcDbEntity
  8
0
  6
Continuous
 62
     7
370
    25
100
AcDbLine
 10
372.9947766976
 20
175.9483126044
 30
0.0
 11
364.4947766976
 21
175.9483126044
 31
0.0
  0
ARC
  5
1D1
330
1F
100
AcDbEntity
  8
0
  6
Continuous
 62
     7
370
    25
100
AcDbCircle
 10
372.9947766976
 20
177.9483126044
 30
0.0
 40
4.000000000000028
100
AcDbArc
 50
270.0
 51
0.0
  0
ARC
  5
1D2
330
1F
100
AcDbEntity
  8
0
  6
Continuous
 62
     7
370
    25
100
AcDbCircle
 10
372.9947766976
 20
177.9483126044
 30
0.0
 40
2.0
100
AcDbArc
 50
270.0
 51
0.0
  0
ARC
  5
1D3
330
1F
100
AcDbEntity
  8
0
  6
Continuous
 62
     7
370
    25
100
AcDbCircle
 10
364.4947766976
 20
171.9483126044
 30
0.0
 40
2.000000000000028
100
AcDbArc
 50
90.0
 51
180.0
  0
ARC
  5
1D4
330
1F
100
AcDbEntity
  8
0
  6
Continuous
 62
     7
370
    25
100
AcDbCircle
 10
364.4947766976
 20
171.9483126044
 30
0.0
 40
4.000000000000028
100
AcDbArc
 50
90.0
 51
180.0
  0
LINE
  5
1D5
330
1F
100
AcDbEntity
  8
0
  6
Continuous
 62
     7
370
    25
100
AcDbLine
 10
264.4947766976
 20
100.9483126044
 30
0.0
 11
264.4947766976
 21
171.9483126044
 31
0.0
  0
LINE
  5
1D6
330
1F
100
AcDbEntity
  8
0
  6
Continuous
 62
     7
370
    25
100
AcDbLine
 10
262.4947766976
 20
171.9483126044
 30
0.0
 11
262.4947766976
 21
100.9483126044
 31
0.0
  0
ARC
  5
1D7
330
1F
100
AcDbEntity
  8
0
  6
Continuous
 62
     7
370
    25
100
AcDbCircle
 10
260.4947766976
 20
171.9483126044
 30
0.0
 40
4.0
100
AcDbArc
 50
360.0
 51
90.0
  0
ARC
  5
1D8
330
1F
100
AcDbEntity
  8
0
  6
Continuous
 62
     7
370
    25
100
AcDbCircle
 10
260.4947766976
 20
171.9483126044
 30
0.0
 40
2.000000000000057
100
AcDbArc
 50
360.0
 51
90.0
  0
ARC
  5
1D9
330
1F
100
AcDbEntity
  8
0
  6
Continuous
 62
     7
370
    25
100
AcDbCircle
 10
245.9947766976
 20
192.9483126044
 30
0.0
 40
4.0
100
AcDbArc
 50
0.0
 51
90.0
  0
ARC
  5
1DA
330
1F
100
AcDbEntity
  8
0
  6
Continuous
 62
     7
370
    25
100
AcDbCircle
 10
245.9947766976
 20
192.9483126044
 30
0.0
 40
2.000000000000028
100
AcDbArc
 50
0.0
 51
90.0
  0
LINE
  5
1DB
330
1F
100
AcDbEntity
  8
0
  6
Continuous
 62
     7
370
    25
100
AcDbLine
 10
249.9947766976
 20
177.9483126044
 30
0.0
 11
249.9947766976
 21
192.9483126044
 31
0.0
  0
LINE
  5
1DC
330
1F
100
AcDbEntity
  8
0
  6
Continuous
 62
     7
370
    25
100
AcDbLine
 10
247.9947766976
 20
192.9483126044
 30
0.0
 11
247.9947766976
 21
177.9483126044
 31
0.0
  0
ARC
  5
1DD
330
1F
100
AcDbEntity
  8
0
  6
Continuous
 62
     7
370
    25
100
AcDbCircle
 10
251.9947766976
 20
177.9483126044
 30
0.0
 40
2.0
100
AcDbArc
 50
180.0
 51
270.0
  0
ARC
  5
1DE
330
1F
100
AcDbEntity
  8
0
  6
Continuous
 62
     7
370
    25
100
AcDbCircle
 10
251.9947766976
 20
177.9483126044
 30
0.0
 40
4.000000000000028
100
AcDbArc
 50
180.0
 51
270.0
  0
ARC
  5
1DF
330
1F
100
AcDbEntity
  8
0
  6
Continuous
 62
     7
370
    25
100
AcDbCircle
 10
266.4947766976
 20
100.9483126044
 30
0.0
 40
2.0
100
AcDbArc
 50
180.0
 51
270.0
  0
ARC
  5
1E0
330
1F
100
AcDbEntity
  8
0
  6
Continuous
 62
     7
370
    25
100
AcDbCircle
 10
266.4947766976
 20
100.9483126044
 30
0.0
 40
4.0
100
AcDbArc
 50
180.0
 51
270.0
  0
LINE
  5
1E1
330
1F
100
AcDbEntity
  8
0
  6
Continuous
 62
     7
370
    25
100
AcDbLine
 10
251.9947766976
 20
173.9483126044
 30
0.0
 11
260.4947766976
 21
173.9483126044
 31
0.0
  0
LINE
  5
1E2
330
1F
100
AcDbEntity
  8
0
  6
Continuous
 62
     7
370
    25
100
AcDbLine
 10
260.4947766976
 20
175.9483126044
 30
0.0
 11
251.9947766976
 21
175.9483126044
 31
0.0
  0
ARC
  5
1E3
330
1F
100
AcDbEntity
  8
0
  6
Continuous
 62
     7
370
    25
100
AcDbCircle
 10
358.4947766976
 20
100.9483126044
 30
0.0
 40
4.0
100
AcDbArc
 50
270.0
 51
0.0
  0
ARC
  5
1E4
330
1F
100
AcDbEntity
  8
0
  6
Continuous
 62
     7
370
    25
100
AcDbCircle
 10
358.4947766976
 20
100.9483126044
 30
0.0
 40
2.0
100
AcDbArc
 50
270.0
 51
0.0
  0
LINE
  5
1E5
330
1F
100
AcDbEntity
  8
0
  6
Continuous
 62
     7
370
    25
100
AcDbLine
 10
358.4947766976
 20
98.9483126044
 30
0.0
 11
266.4947766976
 21
98.9483126044
 31
0.0
  0
LINE
  5
1E6
330
1F
100
AcDbEntity
  8
0
  6
Continuous
 62
     7
370
    25
100
AcDbLine
 10
266.4947766976
 20
96.9483126044
 30
0.0
 11
358.4947766976
 21
96.9483126044
 31
0.0
  0
LINE
  5
1E7
330
1F
100
AcDbEntity
  8
0
  6
Continuous
 62
     7
370
    25
100
AcDbLine
 10
360.4947766976
 20
171.9483126044
 30
0.0
 11
360.4947766976
 21
100.9483126044
 31
0.0
  0
LINE
  5
1E8
330
1F
100
AcDbEntity
  8
0
  6
Continuous
 62
     7
370
    25
100
AcDbLine
 10
362.4947766976
 20
100.9483126044
 30
0.0
 11
362.4947766976
 21
171.9483126044
 31
0.0
  0
LINE
  5
1E9
330
1F
100
AcDbEntity
  8
0
  6
Continuous
 62
     7
370
    25
100
AcDbLine
 10
374.9947766976
 20
192.9483126044
 30
0.0
 11
374.9947766976
 21
177.9483126044
 31
0.0
  0
LINE
  5
1EA
330
1F
100
AcDbEntity
  8
0
  6
Continuous
 62
     7
370
    25
100
AcDbLine
 10
376.9947766976
 20
177.9483126044
 30
0.0
 11
376.9947766976
 21
192.9483126044
 31
0.0
  0
LINE
  5
1EB
330
1F
100
AcDbEntity
  8
0
  6
Continuous
 62
     8
370
    18
100
AcDbLine
 10
233.9947766976
 20
194.9483126044
 30
0.0
 11
233.9947766976
 21
196.9483126044
 31
0.0
  0
LINE
  5
1EC
330
1F
100
AcDbEntity
  8
0
  6
Continuous
 62
     8
370
    18
100
AcDbLine
 10
231.9947766976
 20
192.9483126044
 30
0.0
 11
229.9947766976
 21
192.9483126044
 31
0.0
  0
LINE
  5
1ED
330
1F
100
AcDbEntity
  8
0
  6
Continuous
 62
     8
370
    18
100
AcDbLine
 10
245.9947766976
 20
194.9483126044
 30
0.0
 11
245.9947766976
 21
196.9483126044
 31
0.0
  0
LINE
  5
1EE
330
1F
100
AcDbEntity
  8
0
  6
Continuous
 62
     8
370
    18
100
AcDbLine
 10
392.9947766976
 20
192.9483126044
 30
0.0
 11
394.9947766976
 21
192.9483126044
 31
0.0
  0
LINE
  5
1EF
330
1F
100
AcDbEntity
  8
0
  6
Continuous
 62
     8
370
    18
100
AcDbLine
 10
390.9947766976
 20
194.9483126044
 30
0.0
 11
390.9947766976
 21
196.9483126044
 31
0.0
  0
LINE
  5
1F0
330
1F
100
AcDbEntity
  8
0
  6
Continuous
 62
     8
370
    18
100
AcDbLine
 10
378.9947766976
 20
194.9483126044
 30
0.0
 11
378.9947766976
 21
196.9483126044
 31
0.0
  0
LINE
  5
1F1
330
1F
100
AcDbEntity
  8
0
  6
Continuous
 62
     8
370
    18
100
AcDbLine
 10
374.9947766976
 20
192.9483126044
 30
0.0
 11
376.9947766976
 21
192.9483126044
 31
0.0
  0
LINE
  5
1F2
330
1F
100
AcDbEntity
  8
0
  6
Continuous
 62
     8
370
    18
100
AcDbLine
 10
364.4947766976
 20
173.9483126044
 30
0.0
 11
364.4947766976
 21
175.9483126044
 31
0.0
  0
LINE
  5
1F3
330
1F
100
AcDbEntity
  8
0
  6
Continuous
 62
     8
370
    18
100
AcDbLine
 10
372.9947766976
 20
173.9483126044
 30
0.0
 11
372.9947766976
 21
175.9483126044
 31
0.0
  0
LINE
  5
1F4
330
1F
100
AcDbEntity
  8
0
  6
Continuous
 62
     8
370
    18
100
AcDbLine
 10
374.9947766976
 20
177.9483126044
 30
0.0
 11
376.9947766976
 21
177.9483126044
 31
0.0
  0
LINE
  5
1F5
330
1F
100
AcDbEntity
  8
0
  6
Continuous
 62
     8
370
    18
100
AcDbLine
 10
360.4947766976
 20
171.9483126044
 30
0.0
 11
362.4947766976
 21
171.9483126044
 31
0.0
  0
LINE
  5
1F6
330
1F
100
AcDbEntity
  8
0
  6
Continuous
 62
     8
370
    18
100
AcDbLine
 10
264.4947766976
 20
100.9483126044
 30
0.0
 11
262.4947766976
 21
100.9483126044
 31
0.0
  0
LINE
  5
1F7
330
1F
100
AcDbEntity
  8
0
  6
Continuous
 62
     8
370
    18
100
AcDbLine
 10
264.4947766976
 20
171.9483126044
 30
0.0
 11
262.4947766976
 21
171.9483126044
 31
0.0
  0
LINE
  5
1F8
330
1F
100
AcDbEntity
  8
0
  6
Continuous
 62
     8
370
    18
100
AcDbLine
 10
260.4947766976
 20
173.9483126044
 30
0.0
 11
260.4947766976
 21
175.9483126044
 31
0.0
  0
LINE
  5
1F9
330
1F
100
AcDbEntity
  8
0
  6
Continuous
 62
     8
370
    18
100
AcDbLine
 10
249.9947766976
 20
192.9483126044
 30
0.0
 11
247.9947766976
 21
192.9483126044
 31
0.0
  0
LINE
  5
1FA
330
1F
100
AcDbEntity
  8
0
  6
Continuous
 62
     8
370
    18
100
AcDbLine
 10
249.9947766976
 20
177.9483126044
 30
0.0
 11
247.9947766976
 21
177.9483126044
 31
0.0
  0
LINE
  5
1FB
330
1F
100
AcDbEntity
  8
0
  6
Continuous
 62
     8
370
    18
100
AcDbLine
 10
251.9947766976
 20
173.9483126044
 30
0.0
 11
251.9947766976
 21
175.9483126044
 31
0.0
  0
LINE
  5
1FC
330
1F
100
AcDbEntity
  8
0
  6
Continuous
 62
     8
370
    18
100
AcDbLine
 10
266.4947766976
 20
98.9483126044
 30
0.0
 11
266.4947766976
 21
96.9483126044
 31
0.0
  0
LINE
  5
1FD
330
1F
100
AcDbEntity
  8
0
  6
Continuous
 62
     8
370
    18
100
AcDbLine
 10
358.4947766976
 20
98.9483126044
 30
0.0
 11
358.4947766976
 21
96.9483126044
 31
0.0
  0
LINE
  5
1FE
330
1F
100
AcDbEntity
  8
0
  6
Continuous
 62
     8
370
    18
100
AcDbLine
 10
360.4947766976
 20
100.9483126044
 30
0.0
 11
362.4947766976
 21
100.9483126044
 31
0.0
  0
DIMENSION
  5
1FF
330
1F
100
AcDbEntity
  8
0
  6
Continuous
 62
     7
370
    18
100
AcDbDimension
  2
_D_1
 10
362.4947766976
 20
86.9483126044
 30
0.0
 11
312.4947766976
 21
86.9483126044
 31
0.0
 70
   160
  1
<>
 71
     2
 42
-1.0
  3
SLDDIMSTYLE1
100
AcDbAlignedDimension
 13
262.4947766976
 23
100.9483126044
 33
0.0
 14
362.4947766976
 24
100.9483126044
 34
0.0
 50
0.0
100
AcDbRotatedDimension
  0
DIMENSION
  5
20A
330
1F
100
AcDbEntity
  8
0
  6
Continuous
 62
     7
370
    18
100
AcDbDimension
  2
_D_2
 10
374.9947766976
 20
206.9483126044
 30
0.0
 11
312.4947766976
 21
206.9483126044
 31
0.0
 70
   160
  1
<>
 71
     2
 42
-1.0
  3
SLDDIMSTYLE1
100
AcDbAlignedDimension
 13
249.9947766976
 23
192.9483126044
 33
0.0
 14
374.9947766976
 24
192.9483126044
 34
0.0
 50
0.0
100
AcDbRotatedDimension
  0
DIMENSION
  5
214
330
1F
100
AcDbEntity
  8
0
  6
Continuous
 62
     7
370
    18
100
AcDbDimension
  2
_D_3
 10
394.9947766976
 20
216.9483126044
 30
0.0
 11
312.4947766976
 21
216.9483126044
 31
0.0
 70
   160
  1
<>
 71
     2
 42
-1.0
  3
SLDDIMSTYLE1
100
AcDbAlignedDimension
 13
229.9947766976
 23
192.9483126044
 33
0.0
 14
394.9947766976
 24
192.9483126044
 34
0.0
 50
0.0
100
AcDbRotatedDimension
  0
DIMENSION
  5
21E
330
1F
100
AcDbEntity
  8
0
  6
Continuous
 62
     7
370
    18
100
AcDbDimension
  2
_D_4
 10
275.5866777409
 20
175.9483126044
 30
0.0
 11
275.5866777409
 21
186.4483126044
 31
0.0
 70
   160
  1
<>
 71
     2
 42
-1.0
  3
SLDDIMSTYLE1
100
AcDbAlignedDimension
 13
245.9947766976
 23
196.9483126044
 33
0.0
 14
260.4947766976
 24
175.9483126044
 34
0.0
 50
90.0
100
AcDbRotatedDimension
  0
DIMENSION
  5
228
330
1F
100
AcDbEntity
  8
0
  6
Continuous
 62
     7
370
    18
100
AcDbDimension
  2
_D_5
 10
209.9947766976
 20
96.9483126044
 30
0.0
 11
209.9947766976
 21
146.9483126044
 31
0.0
 70
   160
  1
<>
 71
     2
 42
-1.0
  3
SLDDIMSTYLE1
100
AcDbAlignedDimension
 13
233.9947766976
 23
196.9483126044
 33
0.0
 14
266.4947766976
 24
96.9483126044
 34
0.0
 50
90.0
100
AcDbRotatedDimension
  0
DIMENSION
  5
232
330
1F
100
AcDbEntity
  8
0
  6
Continuous
 62
     7
370
    18
100
AcDbDimension
  2
_D_6
 10
219.9947766976
 20
184.9483126044
 30
0.0
 11
219.9947766976
 21
190.9483126044
 31
0.0
 70
   160
  1
<>
 71
     2
 42
-1.0
  3
SLDDIMSTYLE2
100
AcDbAlignedDimension
 13
233.9947766976
 23
196.9483126044
 33
0.0
 14
229.9947766976
 24
184.9483126044
 34
0.0
 50
90.0
100
AcDbRotatedDimension
  0
DIMENSION
  5
23F
330
1F
100
AcDbEntity
  8
0
  6
Continuous
 62
     7
370
    18
100
AcDbDimension
  2
_D_7
 10
394.9947766976
 20
188.5864511959
 30
0.0
 11
401.1713680197
 21
188.5864511959
 31
0.0
 70
   160
  1
<>
 71
     2
 42
-1.0
  3
SLDDIMSTYLE2
100
AcDbAlignedDimension
 13
392.9947766976
 23
184.9483126044
 33
0.0
 14
394.9947766976
 24
184.9483126044
 34
0.0
100
AcDbRotatedDimension
  0
MTEXT
  5
249
330
1F
100
AcDbEntity
  8
0
  6
Continuous
 62
     7
370
     0
100
AcDbMText
 10
313.387137504
 20
233.7092155197
 30
0.0
 40
5.0
 41
0.0
 71
     2
 72
     1
  1
(1:1)
  7
SLDTEXTSTYLE0
 73
     1
 44
1.0
  0
LINE
  5
24A
330
1F
100
AcDbEntity
  8
0
  6
Continuous
 62
     7
370
    25
100
AcDbLine
 10
179.0936890714
 20
37.1650666351
 30
0.0
 11
37.6723328341
 21
118.785722156
 31
0.0
  0
LINE
  5
24B
330
1F
100
AcDbEntity
  8
0
  6
Continuous
 62
     7
370
    25
100
AcDbLine
 10
176.7138966605
 20
35.2207187592
 30
0.0
 11
179.1424303617
 21
33.8191022147
 31
0.0
  0
LINE
  5
24C
330
1F
100
AcDbEntity
  8
0
  6
Continuous
 62
     7
370
    25
100
AcDbLine
 10
181.1442987368
 20
34.9186716085
 30
0.0
 11
179.2594810728
 21
36.0064850574
 31
0.0
  0
LINE
  5
24D
330
1F
100
AcDbEntity
  8
0
  6
Continuous
 62
     7
370
    25
100
AcDbLine
 10
39.7716837899
 20
104.0469772912
 30
0.0
 11
181.1930400272
 21
22.4263217702
 31
0.0
  0
LINE
  5
24E
330
1F
100
AcDbEntity
  8
0
  6
Continuous
 62
     7
370
    25
100
AcDbLine
 10
199.5997857258
 20
49.0000616857
 30
0.0
 11
58.1784294885
 21
130.6207172066
 31
0.0
  0
ARC
  5
24F
330
1F
100
AcDbEntity
  8
0
  6
Continuous
 62
     7
370
    25
100
AcDbCircle
 10
36.2377419471
 20
116.7310953853
 30
0.0
 40
1.229311961243796
100
AcDbArc
 50
122.602292723
 51
177.3977057122
  0
ARC
  5
250
330
1F
100
AcDbEntity
  8
0
  6
Continuous
 62
     7
370
    25
100
AcDbCircle
 10
177.6590981844
 20
35.1104398644
 30
0.0
 40
1.229311961243829
100
AcDbArc
 50
122.602292723
 51
177.3977057122
  0
ARC
  5
251
330
1F
100
AcDbEntity
  8
0
  6
Continuous
 62
     7
370
    25
100
AcDbCircle
 10
177.3279187787
 20
35.3015883946
 30
0.0
 40
0.6146559806218913
100
AcDbArc
 50
122.602292723
 51
177.3977057122
  0
LINE
  5
252
330
1F
100
AcDbEntity
  8
0
  6
Continuous
 62
     7
370
    25
100
AcDbLine
 10
176.4310539481
 20
33.8596278145
 30
0.0
 11
35.0096977107
 21
115.4802833354
 31
0.0
  0
LINE
  5
253
330
1F
100
AcDbEntity
  8
0
  6
Continuous
 62
     7
370
    25
100
AcDbLine
 10
35.0096977107
 20
115.4802833354
 30
0.0
 11
35.0096977107
 21
116.7869098237
 31
0.0
  0
LINE
  5
254
330
1F
100
AcDbEntity
  8
0
  6
Continuous
 62
     7
370
    25
100
AcDbLine
 10
176.4310539481
 20
33.8596278145
 30
0.0
 11
176.4310539481
 21
35.1662543027
 31
0.0
  0
LINE
  5
255
330
1F
100
AcDbEntity
  8
0
  6
Continuous
 62
     7
370
    25
100
AcDbLine
 10
176.7138966605
 20
35.3294956138
 30
0.0
 11
176.7138966605
 21
34.0228691255
 31
0.0
  0
LINE
  5
256
330
1F
100
AcDbEntity
  8
0
  6
Continuous
 62
     7
370
    25
100
AcDbLine
 10
176.7138966605
 20
34.0228691255
 30
0.0
 11
176.4310539481
 21
33.8596278145
 31
0.0
  0
LINE
  5
257
330
1F
100
AcDbEntity
  8
0
  6
Continuous
 62
     7
370
    25
100
AcDbLine
 10
176.996739373
 20
36.146050169
 30
0.0
 11
178.6937956478
 21
37.1254980352
 31
0.0
  0
LINE
  5
258
330
1F
100
AcDbEntity
  8
0
  6
Continuous
 62
     7
370
    25
100
AcDbLine
 10
35.5753831357
 20
117.7667056899
 30
0.0
 11
37.2724394105
 21
118.7461535561
 31
0.0
  0
LINE
  5
259
330
1F
100
AcDbEntity
  8
0
  6
Continuous
 62
     7
370
    25
100
AcDbLine
 10
178.6937956478
 20
36.7988414131
 30
0.0
 11
176.996739373
 21
35.8193935469
 31
0.0
  0
ARC
  5
25A
330
1F
100
AcDbEntity
  8
0
  6
Continuous
 62
     7
370
    25
100
AcDbCircle
 10
178.9145713435
 20
36.8546558052
 30
0.0
 40
0.3494244143976429
100
AcDbArc
 50
350.7797338915
 51
129.1850265523
  0
ARC
  5
25B
330
1F
100
AcDbEntity
  8
0
  6
Continuous
 62
     7
370
    25
100
AcDbCircle
 10
37.5067113424
 20
118.4190357715
 30
0.0
 40
0.4023547975458259
100
AcDbArc
 50
65.6927008288
 51
125.6091008198
  0
ARC
  5
25C
330
1F
100
AcDbEntity
  8
0
  6
Continuous
 62
     7
370
    25
100
AcDbCircle
 10
178.8041834957
 20
36.6634202981
 30
0.0
 40
0.1747122071988285
100
AcDbArc
 50
350.7797338916
 51
129.1850265523
  0
LINE
  5
25D
330
1F
100
AcDbEntity
  8
0
  6
Continuous
 62
     7
370
    25
100
AcDbLine
 10
178.9766383603
 20
34.1855014366
 30
0.0
 11
178.9766383603
 21
36.6354261021
 31
0.0
  0
LINE
  5
25E
330
1F
100
AcDbEntity
  8
0
  6
Continuous
 62
     7
370
    25
100
AcDbLine
 10
179.2594810728
 20
36.7986674132
 30
0.0
 11
179.2594810728
 21
34.3487427477
 31
0.0
  0
ARC
  5
25F
330
1F
100
AcDbEntity
  8
0
  6
Continuous
 62
     7
370
    25
100
AcDbCircle
 10
179.3215480896
 20
34.1295130446
 30
0.0
 40
0.3494244143977064
100
AcDbArc
 50
170.7797338916
 51
309.1850265524
  0
ARC
  5
260
330
1F
100
AcDbEntity
  8
0
  6
Continuous
 62
     7
370
    25
100
AcDbCircle
 10
179.4319359374
 20
34.3207485517
 30
0.0
 40
0.1747122071988566
100
AcDbArc
 50
170.7797338916
 51
309.1850265523
  0
LINE
  5
261
330
1F
100
AcDbEntity
  8
0
  6
Continuous
 62
     7
370
    25
100
AcDbLine
 10
179.5423237853
 20
34.1853274367
 30
0.0
 11
180.7444053133
 21
34.8791030086
 31
0.0
  0
LINE
  5
262
330
1F
100
AcDbEntity
  8
0
  6
Continuous
 62
     7
370
    25
100
AcDbLine
 10
180.7444053133
 20
34.5524463865
 30
0.0
 11
179.5423237853
 21
33.8586708146
 31
0.0
  0
ARC
  5
263
330
1F
100
AcDbEntity
  8
0
  6
Continuous
 62
     7
370
    25
100
AcDbCircle
 10
180.965181009
 20
34.6082607786
 30
0.0
 40
0.3494244143976595
100
AcDbArc
 50
350.7797338916
 51
129.1850265523
  0
ARC
  5
264
330
1F
100
AcDbEntity
  8
0
  6
Continuous
 62
     7
370
    25
100
AcDbCircle
 10
180.8547931611
 20
34.4170252715
 30
0.0
 40
0.1747122071988373
100
AcDbArc
 50
350.7797338916
 51
129.1850265523
  0
LINE
  5
265
330
1F
100
AcDbEntity
  8
0
  6
Continuous
 62
     7
370
    25
100
AcDbLine
 10
181.0272480258
 20
22.7927209922
 30
0.0
 11
181.0272480258
 21
34.3890310755
 31
0.0
  0
LINE
  5
266
330
1F
100
AcDbEntity
  8
0
  6
Continuous
 62
     7
370
    25
100
AcDbLine
 10
39.6058917885
 20
104.4133765131
 30
0.0
 11
39.6058917885
 21
112.827612031
 31
0.0
  0
LINE
  5
267
330
1F
100
AcDbEntity
  8
0
  6
Continuous
 62
     7
370
    25
100
AcDbLine
 10
181.3100907382
 20
34.5522723865
 30
0.0
 11
181.3100907382
 21
22.9559623032
 31
0.0
  0
ARC
  5
268
330
1F
100
AcDbEntity
  8
0
  6
Continuous
 62
     7
370
    25
100
AcDbCircle
 10
181.372157755
 20
22.7367326002
 30
0.0
 40
0.3494244143976616
100
AcDbArc
 50
170.7797338915
 51
309.1850265524
  0
ARC
  5
269
330
1F
100
AcDbEntity
  8
0
  6
Continuous
 62
     7
370
    25
100
AcDbCircle
 10
39.9865577228
 20
104.3649148336
 30
0.0
 40
0.3837383066307717
100
AcDbArc
 50
172.7448372604
 51
235.9477198169
  0
ARC
  5
26A
330
1F
100
AcDbEntity
  8
0
  6
Continuous
 62
     7
370
    25
100
AcDbCircle
 10
181.4825456029
 20
22.9279681072
 30
0.0
 40
0.174712207198858
100
AcDbArc
 50
170.7797338916
 51
309.1850265523
  0
LINE
  5
26B
330
1F
100
AcDbEntity
  8
0
  6
Continuous
 62
     7
370
    25
100
AcDbLine
 10
181.5929334507
 20
22.7925469922
 30
0.0
 11
194.6036982245
 21
30.3016473001
 31
0.0
  0
LINE
  5
26C
330
1F
100
AcDbEntity
  8
0
  6
Continuous
 62
     7
370
    25
100
AcDbLine
 10
194.6036982245
 20
29.9749906781
 30
0.0
 11
181.5929334507
 21
22.4658903702
 31
0.0
  0
LINE
  5
26D
330
1F
100
AcDbEntity
  8
0
  6
Continuous
 62
     7
370
    25
100
AcDbLine
 10
51.3733449781
 20
110.8782488985
 30
0.0
 11
53.1823419872
 21
111.922302821
 31
0.0
  0
ARC
  5
26E
330
1F
100
AcDbEntity
  8
0
  6
Continuous
 62
     7
370
    25
100
AcDbCircle
 10
56.7438386015
 20
128.5660904358
 30
0.0
 40
1.229311961243903
100
AcDbArc
 50
122.602292723
 51
177.3977057122
  0
ARC
  5
26F
330
1F
100
AcDbEntity
  8
0
  6
Continuous
 62
     7
370
    25
100
AcDbCircle
 10
198.1651948389
 20
46.9454349149
 30
0.0
 40
1.229311961243761
100
AcDbArc
 50
122.602292723
 51
177.3977057122
  0
ARC
  5
270
330
1F
100
AcDbEntity
  8
0
  6
Continuous
 62
     7
370
    25
100
AcDbCircle
 10
197.8340154331
 20
47.1365834451
 30
0.0
 40
0.6146559806217938
100
AcDbArc
 50
122.602292723
 51
177.3977057122
  0
LINE
  5
271
330
1F
100
AcDbEntity
  8
0
  6
Continuous
 62
     7
370
    25
100
AcDbLine
 10
196.9371506025
 20
44.5513246878
 30
0.0
 11
196.9371506025
 21
47.0012493533
 31
0.0
  0
LINE
  5
272
330
1F
100
AcDbEntity
  8
0
  6
Continuous
 62
     7
370
    25
100
AcDbLine
 10
197.2199933149
 20
47.1644906643
 30
0.0
 11
197.2199933149
 21
44.7145659988
 31
0.0
  0
LINE
  5
273
330
1F
100
AcDbEntity
  8
0
  6
Continuous
 62
     7
370
    25
100
AcDbLine
 10
55.5157943652
 20
126.1719802087
 30
0.0
 11
55.5157943652
 21
128.6219048742
 31
0.0
  0
LINE
  5
274
330
1F
100
AcDbEntity
  8
0
  6
Continuous
 62
     7
370
    25
100
AcDbLine
 10
197.5028360274
 20
47.9810452195
 30
0.0
 11
199.1998923023
 21
48.9604930857
 31
0.0
  0
LINE
  5
275
330
1F
100
AcDbEntity
  8
0
  6
Continuous
 62
     7
370
    25
100
AcDbLine
 10
56.0814797901
 20
129.6017007404
 30
0.0
 11
57.7785360649
 21
130.5811486066
 31
0.0
  0
LINE
  5
276
330
1F
100
AcDbEntity
  8
0
  6
Continuous
 62
     7
370
    25
100
AcDbLine
 10
199.1998923023
 20
48.6338364637
 30
0.0
 11
197.5028360274
 21
47.6543885974
 31
0.0
  0
ARC
  5
277
330
1F
100
AcDbEntity
  8
0
  6
Continuous
 62
     7
370
    25
100
AcDbCircle
 10
196.1145851734
 20
42.3320408782
 30
0.0
 40
1.229311961243707
100
AcDbArc
 50
122.602292723
 51
177.3977057122
  0
ARC
  5
278
330
1F
100
AcDbEntity
  8
0
  6
Continuous
 62
     7
370
    25
100
AcDbCircle
 10
195.7834057677
 20
42.5231894084
 30
0.0
 40
0.6146559806217345
100
AcDbArc
 50
122.6022927229
 51
177.3977057122
  0
ARC
  5
279
330
1F
100
AcDbEntity
  8
0
  6
Continuous
 62
     7
370
    25
100
AcDbCircle
 10
54.6932289361
 20
123.9526963991
 30
0.0
 40
1.229311961243716
100
AcDbArc
 50
122.602292723
 51
177.3977057122
  0
LINE
  5
27A
330
1F
100
AcDbEntity
  8
0
  6
Continuous
 62
     7
370
    25
100
AcDbLine
 10
194.886540937
 20
30.7915452332
 30
0.0
 11
194.886540937
 21
42.3878553165
 31
0.0
  0
LINE
  5
27B
330
1F
100
AcDbEntity
  8
0
  6
Continuous
 62
     7
370
    25
100
AcDbLine
 10
195.1693836495
 20
42.5510966276
 30
0.0
 11
195.1693836495
 21
30.9547865443
 31
0.0
  0
LINE
  5
27C
330
1F
100
AcDbEntity
  8
0
  6
Continuous
 62
     7
370
    25
100
AcDbLine
 10
53.4651846997
 20
112.4122007542
 30
0.0
 11
53.4651846997
 21
124.0085108375
 31
0.0
  0
LINE
  5
27D
330
1F
100
AcDbEntity
  8
0
  6
Continuous
 62
     7
370
    25
100
AcDbLine
 10
196.65430789
 20
43.7347701326
 30
0.0
 11
195.452226362
 21
43.0409945607
 31
0.0
  0
LINE
  5
27E
330
1F
100
AcDbEntity
  8
0
  6
Continuous
 62
     7
370
    25
100
AcDbLine
 10
195.452226362
 20
43.3676511828
 30
0.0
 11
196.65430789
 21
44.0614267547
 31
0.0
  0
LINE
  5
27F
330
1F
100
AcDbEntity
  8
0
  6
Continuous
 62
     7
370
    25
100
AcDbLine
 10
54.0308701247
 20
124.9883067037
 30
0.0
 11
55.2329516527
 21
125.6820822756
 31
0.0
  0
ARC
  5
280
330
1F
100
AcDbEntity
  8
0
  6
Continuous
 62
     7
370
    25
100
AcDbCircle
 10
199.420667998
 20
48.6896508557
 30
0.0
 40
0.349424414397814
100
AcDbArc
 50
350.7797338916
 51
129.1850265523
  0
ARC
  5
281
330
1F
100
AcDbEntity
  8
0
  6
Continuous
 62
     7
370
    25
100
AcDbCircle
 10
58.0128079969
 20
130.254030822
 30
0.0
 40
0.4023547975459423
100
AcDbArc
 50
65.6927008288
 51
125.6091008198
  0
ARC
  5
282
330
1F
100
AcDbEntity
  8
0
  6
Continuous
 62
     7
370
    25
100
AcDbCircle
 10
199.3102801501
 20
48.4984153487
 30
0.0
 40
0.1747122071987546
100
AcDbArc
 50
350.7797338915
 51
129.1850265524
  0
ARC
  5
283
330
1F
100
AcDbEntity
  8
0
  6
Continuous
 62
     7
370
    25
100
AcDbCircle
 10
196.3231284843
 20
44.579231907
 30
0.0
 40
0.6146559806219091
100
AcDbArc
 50
302.602292723
 51
357.3977057122
  0
ARC
  5
284
330
1F
100
AcDbEntity
  8
0
  6
Continuous
 62
     7
370
    25
100
AcDbCircle
 10
195.9919490785
 20
44.7703804372
 30
0.0
 40
1.229311961243768
100
AcDbArc
 50
302.602292723
 51
357.3977057122
  0
ARC
  5
285
330
1F
100
AcDbEntity
  8
0
  6
Continuous
 62
     7
370
    25
100
AcDbCircle
 10
54.901772247
 20
126.1998874279
 30
0.0
 40
0.6146559806218952
100
AcDbArc
 50
302.602292723
 51
357.3977057122
  0
LINE
  5
286
330
1F
100
AcDbEntity
  8
0
  6
Continuous
 62
     7
370
    25
100
AcDbLine
 10
199.4827350147
 20
47.1637946644
 30
0.0
 11
199.7655777272
 21
47.3270359754
 31
0.0
  0
LINE
  5
287
330
1F
100
AcDbEntity
  8
0
  6
Continuous
 62
     7
370
    25
100
AcDbLine
 10
199.4827350147
 20
47.1637946644
 30
0.0
 11
199.4827350147
 21
48.4704211527
 31
0.0
  0
LINE
  5
288
330
1F
100
AcDbEntity
  8
0
  6
Continuous
 62
     7
370
    25
100
AcDbLine
 10
199.7655777272
 20
48.6336624637
 30
0.0
 11
199.7655777272
 21
47.3270359754
 31
0.0
  0
LINE
  5
289
330
1F
100
AcDbEntity
  8
0
  6
Continuous
 62
     7
370
    25
100
AcDbLine
 10
199.4827350147
 20
47.1637946644
 30
0.0
 11
198.0677677426
 21
47.9804362196
 31
0.0
  0
ARC
  5
28A
330
1F
100
AcDbEntity
  8
0
  6
Continuous
 62
     7
370
    25
100
AcDbCircle
 10
194.2725188188
 20
30.8194524524
 30
0.0
 40
0.6146559806219096
100
AcDbArc
 50
302.602292723
 51
357.3977057122
  0
ARC
  5
28B
330
1F
100
AcDbEntity
  8
0
  6
Continuous
 62
     7
370
    25
100
AcDbCircle
 10
193.9413394131
 20
31.0106009827
 30
0.0
 40
1.229311961243775
100
AcDbArc
 50
302.602292723
 51
357.3977057122
  0
ARC
  5
28C
330
1F
100
AcDbEntity
  8
0
  6
Continuous
 62
     7
370
    25
100
AcDbCircle
 10
52.8511625815
 20
112.4401079733
 30
0.0
 40
0.6146559806219604
100
AcDbArc
 50
302.602292723
 51
357.3977057122
  0
LINE
  5
28D
330
1F
100
AcDbEntity
  8
0
  6
Continuous
 62
     8
370
    18
100
AcDbLine
 10
176.4310539481
 20
35.1662543027
 30
0.0
 11
35.0096977107
 21
116.7869098237
 31
0.0
  0
LINE
  5
28E
330
1F
100
AcDbEntity
  8
0
  6
Continuous
 62
     8
370
    18
100
AcDbLine
 10
35.5753831357
 20
117.7667056899
 30
0.0
 11
176.996739373
 21
36.146050169
 31
0.0
  0
LINE
  5
28F
330
1F
100
AcDbEntity
  8
0
  6
Continuous
 62
     8
370
    18
100
AcDbLine
 10
176.996739373
 20
35.8193935469
 30
0.0
 11
176.996739373
 21
36.146050169
 31
0.0
  0
LINE
  5
290
330
1F
100
AcDbEntity
  8
0
  6
Continuous
 62
     8
370
    18
100
AcDbLine
 10
176.7138966605
 20
35.3294956138
 30
0.0
 11
176.4310539481
 21
35.1662543027
 31
0.0
  0
LINE
  5
291
330
1F
100
AcDbEntity
  8
0
  6
Continuous
 62
     8
370
    18
100
AcDbLine
 10
178.6937956478
 20
37.1254980352
 30
0.0
 11
37.2724394105
 21
118.7461535561
 31
0.0
  0
LINE
  5
292
330
1F
100
AcDbEntity
  8
0
  6
Continuous
 62
     8
370
    18
100
AcDbLine
 10
178.6937956478
 20
36.7988414131
 30
0.0
 11
178.6937956478
 21
37.1254980352
 31
0.0
  0
LINE
  5
293
330
1F
100
AcDbEntity
  8
0
  6
Continuous
 62
     8
370
    18
100
AcDbLine
 10
179.2594810728
 20
36.7986674132
 30
0.0
 11
178.9766383603
 21
36.6354261021
 31
0.0
  0
LINE
  5
294
330
1F
100
AcDbEntity
  8
0
  6
Continuous
 62
     8
370
    18
100
AcDbLine
 10
178.9766383603
 20
36.6354261021
 30
0.0
 11
178.6936449059
 21
36.7987544132
 31
0.0
  0
LINE
  5
295
330
1F
100
AcDbEntity
  8
0
  6
Continuous
 62
     8
370
    18
100
AcDbLine
 10
176.7385761331
 20
35.4771882861
 30
0.0
 11
178.9766383603
 21
34.1855014366
 31
0.0
  0
LINE
  5
296
330
1F
100
AcDbEntity
  8
0
  6
Continuous
 62
     8
370
    18
100
AcDbLine
 10
179.2594810728
 20
34.3487427477
 30
0.0
 11
178.9766383603
 21
34.1855014366
 31
0.0
  0
LINE
  5
297
330
1F
100
AcDbEntity
  8
0
  6
Continuous
 62
     8
370
    18
100
AcDbLine
 10
179.5423237853
 20
33.8586708146
 30
0.0
 11
179.5423237853
 21
34.1853274367
 31
0.0
  0
LINE
  5
298
330
1F
100
AcDbEntity
  8
0
  6
Continuous
 62
     8
370
    18
100
AcDbLine
 10
179.2594811129
 20
34.3485687245
 30
0.0
 11
179.5423237853
 21
34.1853274367
 31
0.0
  0
LINE
  5
299
330
1F
100
AcDbEntity
  8
0
  6
Continuous
 62
     8
370
    18
100
AcDbLine
 10
180.7444053133
 20
34.8791030086
 30
0.0
 11
179.2594810728
 21
35.7361198916
 31
0.0
  0
LINE
  5
29A
330
1F
100
AcDbEntity
  8
0
  6
Continuous
 62
     8
370
    18
100
AcDbLine
 10
180.7444053133
 20
34.5524463865
 30
0.0
 11
180.7444053133
 21
34.8791030086
 31
0.0
  0
LINE
  5
29B
330
1F
100
AcDbEntity
  8
0
  6
Continuous
 62
     8
370
    18
100
AcDbLine
 10
181.3100907382
 20
34.5522723865
 30
0.0
 11
181.0272480258
 21
34.3890310755
 31
0.0
  0
LINE
  5
29C
330
1F
100
AcDbEntity
  8
0
  6
Continuous
 62
     8
370
    18
100
AcDbLine
 10
181.0272480258
 20
34.3890310755
 30
0.0
 11
180.7442545713
 21
34.5523593865
 31
0.0
  0
LINE
  5
29D
330
1F
100
AcDbEntity
  8
0
  6
Continuous
 62
     8
370
    18
100
AcDbLine
 10
39.6058917885
 20
104.4133765131
 30
0.0
 11
181.0272480258
 21
22.7927209922
 31
0.0
  0
LINE
  5
29E
330
1F
100
AcDbEntity
  8
0
  6
Continuous
 62
     8
370
    18
100
AcDbLine
 10
181.3100907382
 20
22.9559623032
 30
0.0
 11
181.0272480258
 21
22.7927209922
 31
0.0
  0
LINE
  5
29F
330
1F
100
AcDbEntity
  8
0
  6
Continuous
 62
     8
370
    18
100
AcDbLine
 10
181.5929334507
 20
22.7925469922
 30
0.0
 11
181.5929334507
 21
22.4658903702
 31
0.0
  0
LINE
  5
2A0
330
1F
100
AcDbEntity
  8
0
  6
Continuous
 62
     8
370
    18
100
AcDbLine
 10
181.3100907784
 20
22.9557882801
 30
0.0
 11
181.5929334507
 21
22.7925469922
 31
0.0
  0
LINE
  5
2A1
330
1F
100
AcDbEntity
  8
0
  6
Continuous
 62
     8
370
    18
100
AcDbLine
 10
194.6036982245
 20
30.3016473001
 30
0.0
 11
194.6036982245
 21
29.9749906781
 31
0.0
  0
LINE
  5
2A2
330
1F
100
AcDbEntity
  8
0
  6
Continuous
 62
     8
370
    18
100
AcDbLine
 10
194.6036982245
 20
30.3016473001
 30
0.0
 11
53.1823419872
 21
111.922302821
 31
0.0
  0
LINE
  5
2A3
330
1F
100
AcDbEntity
  8
0
  6
Continuous
 62
     8
370
    18
100
AcDbLine
 10
196.9371506025
 20
47.0012493533
 30
0.0
 11
55.5157943652
 21
128.6219048742
 31
0.0
  0
LINE
  5
2A4
330
1F
100
AcDbEntity
  8
0
  6
Continuous
 62
     8
370
    18
100
AcDbLine
 10
56.0814797901
 20
129.6017007404
 30
0.0
 11
197.5028360274
 21
47.9810452195
 31
0.0
  0
LINE
  5
2A5
330
1F
100
AcDbEntity
  8
0
  6
Continuous
 62
     8
370
    18
100
AcDbLine
 10
197.5028360274
 20
47.6543885974
 30
0.0
 11
197.5028360274
 21
47.9810452195
 31
0.0
  0
LINE
  5
2A6
330
1F
100
AcDbEntity
  8
0
  6
Continuous
 62
     8
370
    18
100
AcDbLine
 10
196.9371506025
 20
47.0012493533
 30
0.0
 11
197.2199933149
 21
47.1644906643
 31
0.0
  0
LINE
  5
2A7
330
1F
100
AcDbEntity
  8
0
  6
Continuous
 62
     8
370
    18
100
AcDbLine
 10
196.9371506025
 20
44.5513246878
 30
0.0
 11
197.2199933149
 21
44.7145659988
 31
0.0
  0
LINE
  5
2A8
330
1F
100
AcDbEntity
  8
0
  6
Continuous
 62
     8
370
    18
100
AcDbLine
 10
55.5157943652
 20
126.1719802087
 30
0.0
 11
196.9371506025
 21
44.5513246878
 31
0.0
  0
LINE
  5
2A9
330
1F
100
AcDbEntity
  8
0
  6
Continuous
 62
     8
370
    18
100
AcDbLine
 10
199.1998923023
 20
48.9604930857
 30
0.0
 11
57.7785360649
 21
130.5811486066
 31
0.0
  0
LINE
  5
2AA
330
1F
100
AcDbEntity
  8
0
  6
Continuous
 62
     8
370
    18
100
AcDbLine
 10
199.1998923023
 20
48.6338364637
 30
0.0
 11
199.1998923023
 21
48.9604930857
 31
0.0
  0
LINE
  5
2AB
330
1F
100
AcDbEntity
  8
0
  6
Continuous
 62
     8
370
    18
100
AcDbLine
 10
195.452226362
 20
43.0409945607
 30
0.0
 11
195.452226362
 21
43.3676511828
 31
0.0
  0
LINE
  5
2AC
330
1F
100
AcDbEntity
  8
0
  6
Continuous
 62
     8
370
    18
100
AcDbLine
 10
194.886540937
 20
42.3878553165
 30
0.0
 11
195.1693836495
 21
42.5510966276
 31
0.0
  0
LINE
  5
2AD
330
1F
100
AcDbEntity
  8
0
  6
Continuous
 62
     8
370
    18
100
AcDbLine
 10
194.886540937
 20
42.3878553165
 30
0.0
 11
53.4651846997
 21
124.0085108375
 31
0.0
  0
LINE
  5
2AE
330
1F
100
AcDbEntity
  8
0
  6
Continuous
 62
     8
370
    18
100
AcDbLine
 10
54.0308701247
 20
124.9883067037
 30
0.0
 11
195.452226362
 21
43.3676511828
 31
0.0
  0
LINE
  5
2AF
330
1F
100
AcDbEntity
  8
0
  6
Continuous
 62
     8
370
    18
100
AcDbLine
 10
194.886540937
 20
30.7915452332
 30
0.0
 11
195.1693836495
 21
30.9547865443
 31
0.0
  0
LINE
  5
2B0
330
1F
100
AcDbEntity
  8
0
  6
Continuous
 62
     8
370
    18
100
AcDbLine
 10
53.4651846997
 20
112.4122007542
 30
0.0
 11
194.886540937
 21
30.7915452332
 31
0.0
  0
LINE
  5
2B1
330
1F
100
AcDbEntity
  8
0
  6
Continuous
 62
     8
370
    18
100
AcDbLine
 10
196.65430789
 20
43.7347701326
 30
0.0
 11
196.65430789
 21
44.0614267547
 31
0.0
  0
LINE
  5
2B2
330
1F
100
AcDbEntity
  8
0
  6
Continuous
 62
     8
370
    18
100
AcDbLine
 10
196.65430789
 20
44.0614267547
 30
0.0
 11
55.2329516527
 21
125.6820822756
 31
0.0
  0
LINE
  5
2B3
330
1F
100
AcDbEntity
  8
0
  6
Continuous
 62
     8
370
    18
100
AcDbLine
 10
199.4827350147
 20
48.4704211527
 30
0.0
 11
199.7655777272
 21
48.6336624637
 31
0.0
  0
LINE
  5
2B4
330
1F
100
AcDbEntity
  8
0
  6
Continuous
 62
     8
370
    18
100
AcDbLine
 10
199.4827350147
 20
48.4704211527
 30
0.0
 11
199.1997415603
 21
48.6337494637
 31
0.0
  0
ENDSEC
  0
SECTION
  2
OBJECTS
  0
DICTIONARY
  5
C
330
0
100
AcDbDictionary
281
     1
  3
ACAD_GROUP
350
D
  3
ACAD_LAYOUT
350
1A
  3
ACAD_MLINESTYLE
350
17
  3
ACAD_PLOTSETTINGS
350
19
  3
ACAD_PLOTSTYLENAME
350
E
  3
ACAD_SCALELIST
350
47
  3
DWGPROPS
350
2B5
  0
DICTIONARY
  5
D
102
{ACAD_REACTORS
330
C
102
}
330
C
100
AcDbDictionary
281
     1
  0
DICTIONARY
  5
1A
102
{ACAD_REACTORS
330
C
102
}
330
C
100
AcDbDictionary
281
     1
  3
Layout1
350
1E
  3
Layout2
350
26
  3
Model
350
22
  0
DICTIONARY
  5
17
102
{ACAD_REACTORS
330
C
102
}
330
C
100
AcDbDictionary
281
     1
  3
Standard
350
18
  0
DICTIONARY
  5
19
102
{ACAD_REACTORS
330
C
102
}
330
C
100
AcDbDictionary
281
     1
  0
ACDBDICTIONARYWDFLT
  5
E
102
{ACAD_REACTORS
330
C
102
}
330
C
100
AcDbDictionary
281
     1
  3
Normal
350
F
100
AcDbDictionaryWithDefault
340
F
  0
DICTIONARY
  5
47
102
{ACAD_REACTORS
330
C
102
}
330
C
100
AcDbDictionary
281
     1
  3
A0
350
48
  3
A1
350
49
  3
A2
350
4A
  3
A3
350
4B
  3
A4
350
4C
  3
A5
350
4D
  3
A6
350
4E
  3
A7
350
4F
  3
A8
350
50
  3
A9
350
51
  3
B0
350
52
  3
B1
350
53
  3
B2
350
54
  3
B3
350
55
  3
B4
350
56
  3
B5
350
57
  3
B6
350
58
  3
B7
350
59
  3
B8
350
5A
  3
B9
350
5B
  3
C0
350
5C
  3
C1
350
5D
  3
C2
350
5E
  3
C3
350
5F
  3
C4
350
60
  3
C5
350
61
  3
C6
350
62
  3
C7
350
63
  3
C8
350
64
  3
C9
350
65
  3
D0
350
66
  3
D1
350
67
  3
D2
350
68
  0
XRECORD
  5
2B5
102
{ACAD_REACTORS
330
C
102
}
330
C
100
AcDbXrecord
280
     1
  1
DWGPROPS COOKIE
  2

  3

  4

  6

  7

  8
ch-ntl-rs-wscad
  9

300
=
301
=
302
=
303
=
304
=
305
=
306
=
307
=
308
=
309
=
 40
0.0
 41
2460569.59573169
 42
2460569.595737442
  1

 90
        0
  0
LAYOUT
  5
1E
102
{ACAD_REACTORS
330
1A
102
}
330
1A
100
AcDbPlotSettings
  1

  2
none_device
  4

  6

 40
0.0
 41
0.0
 42
0.0
 43
0.0
 44
0.0
 45
0.0
 46
0.0
 47
0.0
 48
0.0
 49
0.0
140
0.0
141
0.0
142
1.0
143
1.0
 70
   688
 72
     1
 73
     0
 74
     5
  7

 75
    16
147
1.0
148
0.0
149
0.0
100
AcDbLayout
  1
Layout1
 70
     1
 71
     1
 10
0.0
 20
0.0
 11
420.0
 21
297.0
 12
0.0
 22
0.0
 32
0.0
 14
1.0000000000E+20
 24
1.0000000000E+20
 34
1.0000000000E+20
 15
-1.0000000000E+20
 25
-1.0000000000E+20
 35
-1.0000000000E+20
146
0.0
 13
0.0
 23
0.0
 33
0.0
 16
1.0
 26
0.0
 36
0.0
 17
0.0
 27
1.0
 37
0.0
 76
     0
330
1B
  0
LAYOUT
  5
26
102
{ACAD_REACTORS
330
1A
102
}
330
1A
100
AcDbPlotSettings
  1

  2
none_device
  4

  6

 40
0.0
 41
0.0
 42
0.0
 43
0.0
 44
0.0
 45
0.0
 46
0.0
 47
0.0
 48
0.0
 49
0.0
140
0.0
141
0.0
142
1.0
143
1.0
 70
   688
 72
     1
 73
     0
 74
     5
  7

 75
    16
147
1.0
148
0.0
149
0.0
100
AcDbLayout
  1
Layout2
 70
     1
 71
     2
 10
0.0
 20
0.0
 11
0.0
 21
0.0
 12
0.0
 22
0.0
 32
0.0
 14
0.0
 24
0.0
 34
0.0
 15
0.0
 25
0.0
 35
0.0
146
0.0
 13
0.0
 23
0.0
 33
0.0
 16
1.0
 26
0.0
 36
0.0
 17
0.0
 27
1.0
 37
0.0
 76
     0
330
23
  0
LAYOUT
  5
22
102
{ACAD_REACTORS
330
1A
102
}
330
1A
100
AcDbPlotSettings
  1

  2
none_device
  4
Letter_(8.50_x_11.00_Inches)
  6

 40
6.35
 41
6.35
 42
6.35000508
 43
6.35000508
 44
215.9
 45
279.4
 46
0.0
 47
0.0
 48
0.0
 49
0.0
140
0.0
141
0.0
142
1.0
143
1.0
 70
  1712
 72
     1
 73
     0
 74
     0
  7

 75
     0
147
1.0
148
0.0
149
0.0
100
AcDbLayout
  1
Model
 70
     1
 71
     0
 10
0.0
 20
0.0
 11
420.0
 21
297.0
 12
0.0
 22
0.0
 32
0.0
 14
0.0
 24
0.0
 34
0.0
 15
420.0
 25
297.0
 35
0.0
146
0.0
 13
0.0
 23
0.0
 33
0.0
 16
1.0
 26
0.0
 36
0.0
 17
0.0
 27
1.0
 37
0.0
 76
     0
330
1F
331
29
  0
MLINESTYLE
  5
18
102
{ACAD_REACTORS
330
17
102
}
330
17
100
AcDbMlineStyle
  2
Standard
 70
     0
  3

 62
   256
 51
90.0
 52
90.0
 71
     2
 49
0.5
 62
   256
  6
BYLAYER
 49
-0.5
 62
   256
  6
BYLAYER
  0
ACDBPLACEHOLDER
  5
F
102
{ACAD_REACTORS
330
E
102
}
330
E
  0
SCALE
  5
48
102
{ACAD_REACTORS
330
47
102
}
330
47
100
AcDbScale
 70
     0
300
1:1
140
1.0
141
1.0
290
     1
  0
SCALE
  5
49
102
{ACAD_REACTORS
330
47
102
}
330
47
100
AcDbScale
 70
     0
300
1:2
140
1.0
141
2.0
290
     0
  0
SCALE
  5
4A
102
{ACAD_REACTORS
330
47
102
}
330
47
100
AcDbScale
 70
     0
300
1:4
140
1.0
141
4.0
290
     0
  0
SCALE
  5
4B
102
{ACAD_REACTORS
330
47
102
}
330
47
100
AcDbScale
 70
     0
300
1:5
140
1.0
141
5.0
290
     0
  0
SCALE
  5
4C
102
{ACAD_REACTORS
330
47
102
}
330
47
100
AcDbScale
 70
     0
300
1:8
140
1.0
141
8.0
290
     0
  0
SCALE
  5
4D
102
{ACAD_REACTORS
330
47
102
}
330
47
100
AcDbScale
 70
     0
300
1:10
140
1.0
141
10.0
290
     0
  0
SCALE
  5
4E
102
{ACAD_REACTORS
330
47
102
}
330
47
100
AcDbScale
 70
     0
300
1:16
140
1.0
141
16.0
290
     0
  0
SCALE
  5
4F
102
{ACAD_REACTORS
330
47
102
}
330
47
100
AcDbScale
 70
     0
300
1:20
140
1.0
141
20.0
290
     0
  0
SCALE
  5
50
102
{ACAD_REACTORS
330
47
102
}
330
47
100
AcDbScale
 70
     0
300
1:30
140
1.0
141
30.0
290
     0
  0
SCALE
  5
51
102
{ACAD_REACTORS
330
47
102
}
330
47
100
AcDbScale
 70
     0
300
1:40
140
1.0
141
40.0
290
     0
  0
SCALE
  5
52
102
{ACAD_REACTORS
330
47
102
}
330
47
100
AcDbScale
 70
     0
300
1:50
140
1.0
141
50.0
290
     0
  0
SCALE
  5
53
102
{ACAD_REACTORS
330
47
102
}
330
47
100
AcDbScale
 70
     0
300
1:100
140
1.0
141
100.0
290
     0
  0
SCALE
  5
54
102
{ACAD_REACTORS
330
47
102
}
330
47
100
AcDbScale
 70
     0
300
2:1
140
2.0
141
1.0
290
     0
  0
SCALE
  5
55
102
{ACAD_REACTORS
330
47
102
}
330
47
100
AcDbScale
 70
     0
300
4:1
140
4.0
141
1.0
290
     0
  0
SCALE
  5
56
102
{ACAD_REACTORS
330
47
102
}
330
47
100
AcDbScale
 70
     0
300
8:1
140
8.0
141
1.0
290
     0
  0
SCALE
  5
57
102
{ACAD_REACTORS
330
47
102
}
330
47
100
AcDbScale
 70
     0
300
10:1
140
10.0
141
1.0
290
     0
  0
SCALE
  5
58
102
{ACAD_REACTORS
330
47
102
}
330
47
100
AcDbScale
 70
     0
300
100:1
140
100.0
141
1.0
290
     0
  0
SCALE
  5
59
102
{ACAD_REACTORS
330
47
102
}
330
47
100
AcDbScale
 70
     0
300
1/128" = 1'-0"
140
0.0078125
141
12.0
290
     0
  0
SCALE
  5
5A
102
{ACAD_REACTORS
330
47
102
}
330
47
100
AcDbScale
 70
     0
300
1/64" = 1'-0"
140
0.015625
141
12.0
290
     0
  0
SCALE
  5
5B
102
{ACAD_REACTORS
330
47
102
}
330
47
100
AcDbScale
 70
     0
300
1/32" = 1'-0"
140
0.03125
141
12.0
290
     0
  0
SCALE
  5
5C
102
{ACAD_REACTORS
330
47
102
}
330
47
100
AcDbScale
 70
     0
300
1/16" = 1'-0"
140
0.0625
141
12.0
290
     0
  0
SCALE
  5
5D
102
{ACAD_REACTORS
330
47
102
}
330
47
100
AcDbScale
 70
     0
300
3/32" = 1'-0"
140
0.09375
141
12.0
290
     0
  0
SCALE
  5
5E
102
{ACAD_REACTORS
330
47
102
}
330
47
100
AcDbScale
 70
     0
300
1/8" = 1'-0"
140
0.125
141
12.0
290
     0
  0
SCALE
  5
5F
102
{ACAD_REACTORS
330
47
102
}
330
47
100
AcDbScale
 70
     0
300
3/16" = 1'-0"
140
0.1875
141
12.0
290
     0
  0
SCALE
  5
60
102
{ACAD_REACTORS
330
47
102
}
330
47
100
AcDbScale
 70
     0
300
1/4" = 1'-0"
140
0.25
141
12.0
290
     0
  0
SCALE
  5
61
102
{ACAD_REACTORS
330
47
102
}
330
47
100
AcDbScale
 70
     0
300
3/8" = 1'-0"
140
0.375
141
12.0
290
     0
  0
SCALE
  5
62
102
{ACAD_REACTORS
330
47
102
}
330
47
100
AcDbScale
 70
     0
300
1/2" = 1'-0"
140
0.5
141
12.0
290
     0
  0
SCALE
  5
63
102
{ACAD_REACTORS
330
47
102
}
330
47
100
AcDbScale
 70
     0
300
3/4" = 1'-0"
140
0.75
141
12.0
290
     0
  0
SCALE
  5
64
102
{ACAD_REACTORS
330
47
102
}
330
47
100
AcDbScale
 70
     0
300
1" = 1'-0"
140
1.0
141
12.0
290
     0
  0
SCALE
  5
65
102
{ACAD_REACTORS
330
47
102
}
330
47
100
AcDbScale
 70
     0
300
1-1/2" = 1'-0"
140
1.5
141
12.0
290
     0
  0
SCALE
  5
66
102
{ACAD_REACTORS
330
47
102
}
330
47
100
AcDbScale
 70
     0
300
3" = 1'-0"
140
3.0
141
12.0
290
     0
  0
SCALE
  5
67
102
{ACAD_REACTORS
330
47
102
}
330
47
100
AcDbScale
 70
     0
300
6" = 1'-0"
140
6.0
141
12.0
290
     0
  0
SCALE
  5
68
102
{ACAD_REACTORS
330
47
102
}
330
47
100
AcDbScale
 70
     0
300
1'-0" = 1'-0"
140
12.0
141
12.0
290
     0
  0
ENDSEC
  0
EOF
