  0
SECTION
  2
HEADER
  9
$ACADVER
  1
AC1015
  9
$ACADMAINTVER
 70
     6
  9
$DWGCODEPAGE
  3
ANSI_1252
  9
$INSBASE
 10
0.0
 20
0.0
 30
0.0
  9
$EXTMIN
 10
0.0
 20
0.0
 30
0.0
  9
$EXTMAX
 10
420.0
 20
297.0
 30
0.0
  9
$LIMMIN
 10
0.0
 20
0.0
  9
$LIMMAX
 10
420.0
 20
297.0
  9
$ORTHOMODE
 70
     0
  9
$REGENMODE
 70
     1
  9
$FILLMODE
 70
     1
  9
$QTEXTMODE
 70
     0
  9
$MIRRTEXT
 70
     1
  9
$LTSCALE
 40
1.0
  9
$ATTMODE
 70
     1
  9
$TEXTSIZE
 40
3.5
  9
$TRACEWID
 40
1.0
  9
$TEXTSTYLE
  7
Standard
  9
$CLAYER
  8
0
  9
$CELTYPE
  6
ByLayer
  9
$CECOLOR
 62
   256
  9
$CELTSCALE
 40
1.0
  9
$DISPSILH
 70
     0
  9
$DIMSCALE
 40
1.0
  9
$DIMASZ
 40
3.5
  9
$DIMEXO
 40
0.1
  9
$DIMDLI
 40
3.75
  9
$DIMRND
 40
0.0
  9
$DIMDLE
 40
0.0
  9
$DIMEXE
 40
1.0
  9
$DIMTP
 40
0.0
  9
$DIMTM
 40
0.0
  9
$DIMTXT
 40
3.5
  9
$DIMCEN
 40
2.5
  9
$DIMTSZ
 40
0.0
  9
$DIMTOL
 70
     0
  9
$DIMLIM
 70
     0
  9
$DIMTIH
 70
     1
  9
$DIMTOH
 70
     1
  9
$DIMSE1
 70
     0
  9
$DIMSE2
 70
     0
  9
$DIMTAD
 70
     1
  9
$DIMZIN
 70
     0
  9
$DIMBLK
  1

  9
$DIMASO
 70
     1
  9
$DIMSHO
 70
     1
  9
$DIMPOST
  1

  9
$DIMAPOST
  1

  9
$DIMALT
 70
     0
  9
$DIMALTD
 70
     3
  9
$DIMALTF
 40
0.0393700787
  9
$DIMLFAC
 40
1.0
  9
$DIMTOFL
 70
     1
  9
$DIMTVP
 40
0.0
  9
$DIMTIX
 70
     0
  9
$DIMSOXD
 70
     0
  9
$DIMSAH
 70
     0
  9
$DIMBLK1
  1

  9
$DIMBLK2
  1

  9
$DIMSTYLE
  2
ISO-25
  9
$DIMCLRD
 70
     0
  9
$DIMCLRE
 70
     0
  9
$DIMCLRT
 70
     0
  9
$DIMTFAC
 40
1.0
  9
$DIMGAP
 40
2.0
  9
$DIMJUST
 70
     0
  9
$DIMSD1
 70
     0
  9
$DIMSD2
 70
     0
  9
$DIMTOLJ
 70
     0
  9
$DIMTZIN
 70
     0
  9
$DIMALTZ
 70
     0
  9
$DIMALTTZ
 70
     0
  9
$DIMUPT
 70
     0
  9
$DIMDEC
 70
     2
  9
$DIMTDEC
 70
     3
  9
$DIMALTU
 70
     2
  9
$DIMALTTD
 70
     3
  9
$DIMTXSTY
  7
Standard
  9
$DIMAUNIT
 70
     0
  9
$DIMADEC
 70
     2
  9
$DIMALTRND
 40
0.0
  9
$DIMAZIN
 70
     0
  9
$DIMDSEP
 70
    44
  9
$DIMATFIT
 70
     3
  9
$DIMFRAC
 70
     0
  9
$DIMLDRBLK
  1

  9
$DIMLUNIT
 70
     2
  9
$DIMLWD
 70
    -2
  9
$DIMLWE
 70
    -2
  9
$DIMTMOVE
 70
     0
  9
$LUNITS
 70
     2
  9
$LUPREC
 70
     2
  9
$SKETCHINC
 40
1.0
  9
$FILLETRAD
 40
10.0
  9
$AUNITS
 70
     0
  9
$AUPREC
 70
     2
  9
$MENU
  1
.
  9
$ELEVATION
 40
0.0
  9
$PELEVATION
 40
0.0
  9
$THICKNESS
 40
0.0
  9
$LIMCHECK
 70
     0
  9
$CHAMFERA
 40
0.0
  9
$CHAMFERB
 40
0.0
  9
$CHAMFERC
 40
0.0
  9
$CHAMFERD
 40
0.0
  9
$SKPOLY
 70
     0
  9
$TDCREATE
 40
2460565.156485266
  9
$TDUCREATE
 40
2460565.073151933
  9
$TDUPDATE
 40
2460565.156489954
  9
$TDUUPDATE
 40
2460565.07315662
  9
$TDINDWG
 40
0.0000000116
  9
$TDUSRTIMER
 40
0.0000000116
  9
$USRTIMER
 70
     1
  9
$ANGBASE
 50
0.0
  9
$ANGDIR
 70
     0
  9
$PDMODE
 70
     0
  9
$PDSIZE
 40
-1.0
  9
$PLINEWID
 40
0.0
  9
$SPLFRAME
 70
     0
  9
$SPLINETYPE
 70
     6
  9
$SPLINESEGS
 70
     8
  9
$HANDSEED
  5
4E1
  9
$SURFTAB1
 70
     6
  9
$SURFTAB2
 70
     6
  9
$SURFTYPE
 70
     6
  9
$SURFU
 70
     6
  9
$SURFV
 70
     6
  9
$UCSBASE
  2

  9
$UCSNAME
  2

  9
$UCSORG
 10
0.0
 20
0.0
 30
0.0
  9
$UCSXDIR
 10
1.0
 20
0.0
 30
0.0
  9
$UCSYDIR
 10
0.0
 20
1.0
 30
0.0
  9
$UCSORTHOREF
  2

  9
$UCSORTHOVIEW
 70
     0
  9
$UCSORGTOP
 10
0.0
 20
0.0
 30
0.0
  9
$UCSORGBOTTOM
 10
0.0
 20
0.0
 30
0.0
  9
$UCSORGLEFT
 10
0.0
 20
0.0
 30
0.0
  9
$UCSORGRIGHT
 10
0.0
 20
0.0
 30
0.0
  9
$UCSORGFRONT
 10
0.0
 20
0.0
 30
0.0
  9
$UCSORGBACK
 10
0.0
 20
0.0
 30
0.0
  9
$PUCSBASE
  2

  9
$PUCSNAME
  2

  9
$PUCSORG
 10
0.0
 20
0.0
 30
0.0
  9
$PUCSXDIR
 10
1.0
 20
0.0
 30
0.0
  9
$PUCSYDIR
 10
0.0
 20
1.0
 30
0.0
  9
$PUCSORTHOREF
  2

  9
$PUCSORTHOVIEW
 70
     0
  9
$PUCSORGTOP
 10
0.0
 20
0.0
 30
0.0
  9
$PUCSORGBOTTOM
 10
0.0
 20
0.0
 30
0.0
  9
$PUCSORGLEFT
 10
0.0
 20
0.0
 30
0.0
  9
$PUCSORGRIGHT
 10
0.0
 20
0.0
 30
0.0
  9
$PUCSORGFRONT
 10
0.0
 20
0.0
 30
0.0
  9
$PUCSORGBACK
 10
0.0
 20
0.0
 30
0.0
  9
$USERI1
 70
     0
  9
$USERI2
 70
     0
  9
$USERI3
 70
     0
  9
$USERI4
 70
     0
  9
$USERI5
 70
     0
  9
$USERR1
 40
0.0
  9
$USERR2
 40
0.0
  9
$USERR3
 40
0.0
  9
$USERR4
 40
0.0
  9
$USERR5
 40
0.0
  9
$WORLDVIEW
 70
     1
  9
$SHADEDGE
 70
     3
  9
$SHADEDIF
 70
    70
  9
$TILEMODE
 70
     1
  9
$MAXACTVP
 70
    64
  9
$PINSBASE
 10
0.0
 20
0.0
 30
0.0
  9
$PLIMCHECK
 70
     0
  9
$PEXTMIN
 10
1.0000000000E+20
 20
1.0000000000E+20
 30
1.0000000000E+20
  9
$PEXTMAX
 10
-1.0000000000E+20
 20
-1.0000000000E+20
 30
-1.0000000000E+20
  9
$PLIMMIN
 10
0.0
 20
0.0
  9
$PLIMMAX
 10
420.0
 20
297.0
  9
$UNITMODE
 70
     0
  9
$VISRETAIN
 70
     1
  9
$PLINEGEN
 70
     0
  9
$PSLTSCALE
 70
     1
  9
$TREEDEPTH
 70
  3020
  9
$CMLSTYLE
  2
Standard
  9
$CMLJUST
 70
     0
  9
$CMLSCALE
 40
20.0
  9
$PROXYGRAPHICS
 70
     1
  9
$MEASUREMENT
 70
     1
  9
$CELWEIGHT
370
    -1
  9
$ENDCAPS
280
     0
  9
$JOINSTYLE
280
     0
  9
$LWDISPLAY
290
     1
  9
$INSUNITS
 70
     4
  9
$HYPERLINKBASE
  1

  9
$STYLESHEET
  1

  9
$XEDIT
290
     1
  9
$CEPSNTYPE
380
     0
  9
$PSTYLEMODE
290
     1
  9
$FINGERPRINTGUID
  2
{186ca2be-b596-4e09-aedf-5de79f5784ea}
  9
$VERSIONGUID
  2
{FAEB1C32-E019-11D5-929B-00C0DF256EC4}
  9
$EXTNAMES
290
     1
  9
$PSVPSCALE
 40
0.0
  9
$OLESTARTUP
290
     0
  0
ENDSEC
  0
SECTION
  2
CLASSES
  0
CLASS
  1
ACDBDICTIONARYWDFLT
  2
AcDbDictionaryWithDefault
  3
ObjectDBX Classes
 90
        0
280
     0
281
     0
  0
CLASS
  1
VISUALSTYLE
  2
AcDbVisualStyle
  3
ObjectDBX Classes
 90
     4095
280
     0
281
     0
  0
CLASS
  1
MATERIAL
  2
AcDbMaterial
  3
ObjectDBX Classes
 90
     1153
280
     0
281
     0
  0
CLASS
  1
SCALE
  2
AcDbScale
  3
ObjectDBX Classes
 90
     1153
280
     0
281
     0
  0
CLASS
  1
TABLESTYLE
  2
AcDbTableStyle
  3
ObjectDBX Classes
 90
     4095
280
     0
281
     0
  0
CLASS
  1
MLEADERSTYLE
  2
AcDbMLeaderStyle
  3
ACDB_MLEADERSTYLE_CLASS
 90
     4095
280
     0
281
     0
  0
CLASS
  1
SUN
  2
AcDbSun
  3
SCENEOE
 90
     1153
280
     0
281
     0
  0
CLASS
  1
ACDBPLACEHOLDER
  2
AcDbPlaceHolder
  3
ObjectDBX Classes
 90
        0
280
     0
281
     0
  0
CLASS
  1
LAYOUT
  2
AcDbLayout
  3
ObjectDBX Classes
 90
        0
280
     0
281
     0
  0
ENDSEC
  0
SECTION
  2
TABLES
  0
TABLE
  2
VPORT
  5
8
330
0
100
AcDbSymbolTable
 70
     1
  0
VPORT
  5
29
330
8
100
AcDbSymbolTableRecord
100
AcDbViewportTableRecord
  2
*Active
 70
     0
 10
0.0
 20
0.0
 11
1.0
 21
1.0
 12
210.0
 22
148.5
 13
0.0
 23
0.0
 14
10.0
 24
10.0
 15
10.0
 25
10.0
 16
0.0
 26
0.0
 36
1.0
 17
0.0
 27
0.0
 37
0.0
 40
297.0
 41
1.4141414141
 42
50.0
 43
0.0
 44
0.0
 50
0.0
 51
0.0
 71
     0
 72
  2000
 73
     1
 74
     3
 75
     0
 76
     0
 77
     0
 78
     0
281
     0
 65
     1
110
0.0
120
0.0
130
0.0
111
1.0
121
0.0
131
0.0
112
0.0
122
1.0
132
0.0
 79
     0
146
0.0
  0
ENDTAB
  0
TABLE
  2
LTYPE
  5
5
330
0
100
AcDbSymbolTable
 70
     6
  0
LTYPE
  5
14
330
5
100
AcDbSymbolTableRecord
100
AcDbLinetypeTableRecord
  2
ByBlock
 70
     0
  3

 72
    65
 73
     0
 40
0.0
  0
LTYPE
  5
15
330
5
100
AcDbSymbolTableRecord
100
AcDbLinetypeTableRecord
  2
ByLayer
 70
     0
  3

 72
    65
 73
     0
 40
0.0
  0
LTYPE
  5
16
330
5
100
AcDbSymbolTableRecord
100
AcDbLinetypeTableRecord
  2
Continuous
 70
     0
  3
Solid line
 72
    65
 73
     0
 40
0.0
  0
LTYPE
  5
6E
330
5
100
AcDbSymbolTableRecord
100
AcDbLinetypeTableRecord
  2
HIDDEN
 70
     0
  3
Hidden __ __ __ __ __ __ __ __ __ __ __ __ __ __
 72
    65
 73
     2
 40
1.905
 49
1.27
 74
     0
 49
-0.635
 74
     0
  0
LTYPE
  5
6F
330
5
100
AcDbSymbolTableRecord
100
AcDbLinetypeTableRecord
  2
PHANTOM
 70
     0
  3
Phantom ______  __  __  ______  __  __  ______
 72
    65
 73
     6
 40
12.7
 49
6.35
 74
     0
 49
-1.27
 74
     0
 49
1.27
 74
     0
 49
-1.27
 74
     0
 49
1.27
 74
     0
 49
-1.27
 74
     0
  0
LTYPE
  5
70
330
5
100
AcDbSymbolTableRecord
100
AcDbLinetypeTableRecord
  2
CENTER
 70
     0
  3
Center ____ _ ____ _ ____ _ ____ _ ____ _ ____
 72
    65
 73
     4
 40
10.16
 49
6.35
 74
     0
 49
-1.27
 74
     0
 49
1.27
 74
     0
 49
-1.27
 74
     0
  0
LTYPE
  5
71
330
5
100
AcDbSymbolTableRecord
100
AcDbLinetypeTableRecord
  2
CENTERX2
 70
     0
  3
Center (2x) ________  __  ________  __  _____
 72
    65
 73
     4
 40
20.32
 49
12.7
 74
     0
 49
-2.54
 74
     0
 49
2.54
 74
     0
 49
-2.54
 74
     0
  0
LTYPE
  5
72
330
5
100
AcDbSymbolTableRecord
100
AcDbLinetypeTableRecord
  2
DOT2
 70
     0
  3
Dot (.5x) ........................................
 72
    65
 73
     2
 40
0.635
 49
0.0
 74
     0
 49
-0.635
 74
     0
  0
ENDTAB
  0
TABLE
  2
LAYER
  5
2
330
0
100
AcDbSymbolTable
 70
     1
  0
LAYER
  5
10
330
2
100
AcDbSymbolTableRecord
100
AcDbLayerTableRecord
  2
0
 70
     0
 62
     7
  6
Continuous
370
    -3
390
F
  0
ENDTAB
  0
TABLE
  2
STYLE
  5
3
330
0
100
AcDbSymbolTable
 70
     3
  0
STYLE
  5
11
330
3
100
AcDbSymbolTableRecord
100
AcDbTextStyleTableRecord
  2
Standard
 70
     0
 40
0.0
 41
1.0
 50
0.0
 71
     0
 42
3.5
  3
txt
  4

  0
STYLE
  5
E9
330
3
100
AcDbSymbolTableRecord
100
AcDbTextStyleTableRecord
  2
SLDTEXTSTYLE0
 70
     0
 40
0.0
 41
0.605
 50
0.0
 71
     0
 42
3.5
  3
TXT
  4

  0
STYLE
  5
196
330
3
100
AcDbSymbolTableRecord
100
AcDbTextStyleTableRecord
  2
SLDTEXTSTYLE1
 70
     0
 40
0.0
 41
0.563
 50
0.0
 71
     0
 42
3.5
  3
TXT
  4

  0
ENDTAB
  0
TABLE
  2
VIEW
  5
6
330
0
100
AcDbSymbolTable
 70
     0
  0
ENDTAB
  0
TABLE
  2
UCS
  5
7
330
0
100
AcDbSymbolTable
 70
     0
  0
ENDTAB
  0
TABLE
  2
APPID
  5
9
330
0
100
AcDbSymbolTable
 70
     1
  0
APPID
  5
12
330
9
100
AcDbSymbolTableRecord
100
AcDbRegAppTableRecord
  2
ACAD
 70
     0
  0
ENDTAB
  0
TABLE
  2
DIMSTYLE
  5
A
330
0
100
AcDbSymbolTable
 70
     4
100
AcDbDimStyleTable
  0
DIMSTYLE
105
27
330
A
100
AcDbSymbolTableRecord
100
AcDbDimStyleTableRecord
  2
ISO-25
 70
     0
 41
2.5
 42
0.625
 43
3.75
 44
1.25
 73
     0
 74
     0
 77
     1
 78
     8
140
2.5
141
2.5
143
0.0393700787
147
0.625
171
     3
172
     1
178
     0
271
     2
272
     2
274
     3
278
    44
283
     0
284
     8
340
11
  0
DIMSTYLE
105
211
102
{ACAD_REACTORS
330
210
330
21B
330
230
330
294
330
2A0
330
2C3
330
396
330
3A0
330
3AA
330
3B4
330
3BE
102
}
330
A
100
AcDbSymbolTableRecord
100
AcDbDimStyleTableRecord
  2
SLDDIMSTYLE0
 70
     0
 41
3.5
 44
0.0
 45
0.000000001
 73
     0
 74
     0
 77
     1
 78
    12
 79
     3
140
3.5
147
0.875
173
     1
178
     0
271
     2
272
     3
276
     2
284
    12
340
E9
  0
DIMSTYLE
105
226
102
{ACAD_REACTORS
330
225
102
}
330
A
100
AcDbSymbolTableRecord
100
AcDbDimStyleTableRecord
  2
SLDDIMSTYLE1
 70
     0
 41
3.5
 44
0.0
 45
0.000000001
 73
     0
 74
     0
 77
     1
 78
    12
 79
     3
140
3.5
147
0.875
173
     1
178
     0
271
     1
272
     3
276
     2
284
    12
340
E9
  0
DIMSTYLE
105
2AB
102
{ACAD_REACTORS
330
2AA
330
2B7
102
}
330
A
100
AcDbSymbolTableRecord
100
AcDbDimStyleTableRecord
  2
SLDDIMSTYLE2
 70
     0
 41
3.5
 44
0.0
 45
0.000000001
 73
     0
 74
     0
 77
     1
 78
    12
 79
     3
140
3.5
147
0.875
172
     1
173
     1
178
     0
271
     2
272
     3
276
     2
284
    12
289
     0
340
E9
  0
ENDTAB
  0
TABLE
  2
BLOCK_RECORD
  5
1
330
0
100
AcDbSymbolTable
 70
    22
  0
BLOCK_RECORD
  5
1F
330
1
100
AcDbSymbolTableRecord
100
AcDbBlockTableRecord
  2
*Model_Space
340
22
  0
BLOCK_RECORD
  5
1B
330
1
100
AcDbSymbolTableRecord
100
AcDbBlockTableRecord
  2
*Paper_Space
340
1E
  0
BLOCK_RECORD
  5
23
330
1
100
AcDbSymbolTableRecord
100
AcDbBlockTableRecord
  2
*Paper_Space0
340
26
  0
BLOCK_RECORD
  5
73
330
1
100
AcDbSymbolTableRecord
100
AcDbBlockTableRecord
  2
ACO-Logo
340
0
102
{BLKREFS
331
149
102
}
  0
BLOCK_RECORD
  5
E6
330
1
100
AcDbSymbolTableRecord
100
AcDbBlockTableRecord
  2
SW_NOTE_0
340
0
102
{BLKREFS
331
EB
102
}
  0
BLOCK_RECORD
  5
EC
330
1
100
AcDbSymbolTableRecord
100
AcDbBlockTableRecord
  2
SW_NOTE_0_1
340
0
102
{BLKREFS
331
F0
102
}
  0
BLOCK_RECORD
  5
F1
330
1
100
AcDbSymbolTableRecord
100
AcDbBlockTableRecord
  2
SW_NOTE_0_2
340
0
102
{BLKREFS
331
F8
102
}
  0
BLOCK_RECORD
  5
171
330
1
100
AcDbSymbolTableRecord
100
AcDbBlockTableRecord
  2
SW_NOTE_0_3
340
0
102
{BLKREFS
331
179
102
}
  0
BLOCK_RECORD
  5
212
330
1
100
AcDbSymbolTableRecord
100
AcDbBlockTableRecord
  2
_D
340
0
  0
BLOCK_RECORD
  5
21C
330
1
100
AcDbSymbolTableRecord
100
AcDbBlockTableRecord
  2
_D_1
340
0
  0
BLOCK_RECORD
  5
227
330
1
100
AcDbSymbolTableRecord
100
AcDbBlockTableRecord
  2
_D_2
340
0
  0
BLOCK_RECORD
  5
231
330
1
100
AcDbSymbolTableRecord
100
AcDbBlockTableRecord
  2
_D_3
340
0
  0
BLOCK_RECORD
  5
295
330
1
100
AcDbSymbolTableRecord
100
AcDbBlockTableRecord
  2
_D_4
340
0
  0
BLOCK_RECORD
  5
2A1
330
1
100
AcDbSymbolTableRecord
100
AcDbBlockTableRecord
  2
_D_5
340
0
  0
BLOCK_RECORD
  5
2AC
330
1
100
AcDbSymbolTableRecord
100
AcDbBlockTableRecord
  2
_D_6
340
0
  0
BLOCK_RECORD
  5
2B8
330
1
100
AcDbSymbolTableRecord
100
AcDbBlockTableRecord
  2
_D_7
340
0
  0
BLOCK_RECORD
  5
2C4
330
1
100
AcDbSymbolTableRecord
100
AcDbBlockTableRecord
  2
_D_8
340
0
  0
BLOCK_RECORD
  5
397
330
1
100
AcDbSymbolTableRecord
100
AcDbBlockTableRecord
  2
_D_9
340
0
  0
BLOCK_RECORD
  5
3A1
330
1
100
AcDbSymbolTableRecord
100
AcDbBlockTableRecord
  2
_D_10
340
0
  0
BLOCK_RECORD
  5
3AB
330
1
100
AcDbSymbolTableRecord
100
AcDbBlockTableRecord
  2
_D_11
340
0
  0
BLOCK_RECORD
  5
3B5
330
1
100
AcDbSymbolTableRecord
100
AcDbBlockTableRecord
  2
_D_12
340
0
  0
BLOCK_RECORD
  5
3BF
330
1
100
AcDbSymbolTableRecord
100
AcDbBlockTableRecord
  2
_D_13
340
0
  0
BLOCK_RECORD
  5
3C8
330
1
100
AcDbSymbolTableRecord
100
AcDbBlockTableRecord
  2
SW_CENTERMARKSYMBOL_0
340
0
102
{BLKREFS
331
3DB
102
}
  0
BLOCK_RECORD
  5
3DC
330
1
100
AcDbSymbolTableRecord
100
AcDbBlockTableRecord
  2
SW_CENTERMARKSYMBOL_1
340
0
102
{BLKREFS
331
3EF
102
}
  0
ENDTAB
  0
ENDSEC
  0
SECTION
  2
BLOCKS
  0
BLOCK
  5
20
330
1F
100
AcDbEntity
  8
0
100
AcDbBlockBegin
  2
*Model_Space
 70
     0
 10
0.0
 20
0.0
 30
0.0
  3
*Model_Space
  1

  0
ENDBLK
  5
21
330
1F
100
AcDbEntity
  8
0
100
AcDbBlockEnd
  0
BLOCK
  5
1C
330
1B
100
AcDbEntity
 67
     1
  8
0
100
AcDbBlockBegin
  2
*Paper_Space
 70
     0
 10
0.0
 20
0.0
 30
0.0
  3
*Paper_Space
  1

  0
ENDBLK
  5
1D
330
1B
100
AcDbEntity
 67
     1
  8
0
100
AcDbBlockEnd
  0
BLOCK
  5
24
330
23
100
AcDbEntity
  8
0
100
AcDbBlockBegin
  2
*Paper_Space0
 70
     0
 10
0.0
 20
0.0
 30
0.0
  3
*Paper_Space0
  1

  0
ENDBLK
  5
25
330
23
100
AcDbEntity
  8
0
100
AcDbBlockEnd
  0
BLOCK
  5
74
330
73
100
AcDbEntity
  8
0
100
AcDbBlockBegin
  2
ACO-Logo
 70
     0
 10
0.0
 20
0.0
 30
0.0
  3
ACO-Logo
  1

  0
ARC
  5
76
330
73
100
AcDbEntity
  8
0
  6
Continuous
 62
   179
370
    18
100
AcDbCircle
 10
80.3853261169
 20
4.9940995715
 30
0.0
 40
0.3000000000000441
100
AcDbArc
 50
181.9349323096
 51
274.6062978506
  0
ARC
  5
77
330
73
100
AcDbEntity
  8
0
  6
Continuous
 62
   179
370
    18
100
AcDbCircle
 10
81.2359083165
 20
2.1946665956
 30
0.0
 40
1.000000000000021
100
AcDbArc
 50
221.4087409628
 51
276.0561297228
  0
ARC
  5
78
330
73
100
AcDbEntity
  8
0
  6
Continuous
 62
   179
370
    18
100
AcDbCircle
 10
79.1360017163
 20
3.654242048
 30
0.0
 40
0.300000000000004
100
AcDbArc
 50
181.2730300201
 51
274.4996077095
  0
ARC
  5
79
330
73
100
AcDbEntity
  8
0
  6
Continuous
 62
   179
370
    18
100
AcDbCircle
 10
78.7699033484
 20
3.2873137407
 30
0.0
 40
0.4000000000000358
100
AcDbArc
 50
221.0090869016
 51
274.5606296317
  0
ARC
  5
7A
330
73
100
AcDbEntity
  8
0
  6
Continuous
 62
   179
370
    18
100
AcDbCircle
 10
91.2333953062
 20
4.6062442307
 30
0.0
 40
0.3000000000000493
100
AcDbArc
 50
274.4996077095
 51
3.7249371334
  0
ARC
  5
7B
330
73
100
AcDbEntity
  8
0
  6
Continuous
 62
   179
370
    18
100
AcDbCircle
 10
81.5287571045
 20
9.7648973508
 30
0.0
 40
1.00000000000002
100
AcDbArc
 50
93.1134387481
 51
181.9414863909
  0
ARC
  5
7C
330
73
100
AcDbEntity
  8
0
  6
Continuous
 62
   179
370
    18
100
AcDbCircle
 10
81.6051675115
 20
7.5107903456
 30
0.0
 40
1.0
100
AcDbArc
 50
181.9414863909
 51
274.398705355
  0
ARC
  5
7D
330
73
100
AcDbEntity
  8
0
  6
Continuous
 62
   179
370
    18
100
AcDbCircle
 10
80.1506905656
 20
11.9393118923
 30
0.0
 40
0.300000000000045
100
AcDbArc
 50
93.0418421566
 51
181.9349323096
  0
ARC
  5
7E
330
73
100
AcDbEntity
  8
0
  6
Continuous
 62
   179
370
    18
100
AcDbCircle
 10
78.1879722102
 20
12.3499352608
 30
0.0
 40
0.7999999999953393
100
AcDbArc
 50
92.6995697565
 51
148.2554209065
  0
ARC
  5
7F
330
73
100
AcDbEntity
  8
0
  6
Continuous
 62
   179
370
    18
100
AcDbCircle
 10
78.930862229
 20
12.8855189761
 30
0.0
 40
0.3000000000000031
100
AcDbArc
 50
92.6995697565
 51
181.2730300201
  0
ARC
  5
80
330
73
100
AcDbEntity
  8
0
  6
Continuous
 62
   179
370
    18
100
AcDbCircle
 10
82.327743407
 20
9.8083568568
 30
0.0
 40
1.000000000000034
100
AcDbArc
 50
1.9414863909
 51
93.1134387481
  0
ARC
  5
81
330
73
100
AcDbEntity
  8
0
  6
Continuous
 62
   179
370
    18
100
AcDbCircle
 10
81.5287571045
 20
9.7648973508
 30
0.0
 40
0.3625000000000009
100
AcDbArc
 50
93.1134387481
 51
181.9414863909
  0
ARC
  5
82
330
73
100
AcDbEntity
  8
0
  6
Continuous
 62
   179
370
    18
100
AcDbCircle
 10
82.327743407
 20
9.8083568568
 30
0.0
 40
0.3625000000000146
100
AcDbArc
 50
1.9414863909
 51
93.1134387481
  0
ARC
  5
83
330
73
100
AcDbEntity
  8
0
  6
Continuous
 62
   179
370
    18
100
AcDbCircle
 10
82.4035451983
 20
7.5722040138
 30
0.0
 40
1.000000000000008
100
AcDbArc
 50
274.398705355
 51
1.9414863909
  0
ARC
  5
84
330
73
100
AcDbEntity
  8
0
  6
Continuous
 62
   179
370
    18
100
AcDbCircle
 10
82.4035451983
 20
7.5722040138
 30
0.0
 40
0.3625000000000068
100
AcDbArc
 50
274.398705355
 51
1.9414863909
  0
ARC
  5
85
330
73
100
AcDbEntity
  8
0
  6
Continuous
 62
   179
370
    18
100
AcDbCircle
 10
81.6051675115
 20
7.5107903456
 30
0.0
 40
0.3625000000000111
100
AcDbArc
 50
181.9414863909
 51
274.398705355
  0
ARC
  5
86
330
73
100
AcDbEntity
  8
0
  6
Continuous
 62
   179
370
    18
100
AcDbCircle
 10
88.825822761
 20
8.0662148274
 30
0.0
 40
0.9999999999999997
100
AcDbArc
 50
274.398705355
 51
2.6541955134
  0
ARC
  5
87
330
73
100
AcDbEntity
  8
0
  6
Continuous
 62
   179
370
    18
100
AcDbCircle
 10
90.1578295581
 20
5.7814576687
 30
0.0
 40
0.3000000000000043
100
AcDbArc
 50
274.6062978507
 51
2.5147526475
  0
ARC
  5
88
330
73
100
AcDbEntity
  8
0
  6
Continuous
 62
   179
370
    18
100
AcDbCircle
 10
88.825822761
 20
8.0662148274
 30
0.0
 40
0.3625000000000083
100
AcDbArc
 50
274.398705355
 51
2.6541955134
  0
ARC
  5
89
330
73
100
AcDbEntity
  8
0
  6
Continuous
 62
   179
370
    18
100
AcDbCircle
 10
88.728529747
 20
10.16496413
 30
0.0
 40
1.000000000000001
100
AcDbArc
 50
2.6541955134
 51
93.1134387481
  0
ARC
  5
8A
330
73
100
AcDbEntity
  8
0
  6
Continuous
 62
   179
370
    18
100
AcDbCircle
 10
88.728529747
 20
10.16496413
 30
0.0
 40
0.3625000000000085
100
AcDbArc
 50
2.6541955134
 51
93.1134387481
  0
ARC
  5
8B
330
73
100
AcDbEntity
  8
0
  6
Continuous
 62
   179
370
    18
100
AcDbCircle
 10
89.8647121341
 20
12.455515937
 30
0.0
 40
0.2999999999999984
100
AcDbArc
 50
2.5147526475
 51
93.0418421566
  0
ARC
  5
8C
330
73
100
AcDbEntity
  8
0
  6
Continuous
 62
   179
370
    18
100
AcDbCircle
 10
90.6583795404
 20
13.4384863935
 30
0.0
 40
0.2999999999999911
100
AcDbArc
 50
3.7249371334
 51
92.6995697565
  0
CIRCLE
  5
8D
330
73
100
AcDbEntity
  8
0
  6
Continuous
 62
   179
370
    18
100
AcDbCircle
 10
15.7233972286
 20
6.4054930194
 30
0.0
 40
1.579500000000014
  0
CIRCLE
  5
8E
330
73
100
AcDbEntity
  8
0
  6
Continuous
 62
   179
370
    18
100
AcDbCircle
 10
15.7233972286
 20
6.4054930194
 30
0.0
 40
2.281499999999994
  0
ARC
  5
8F
330
73
100
AcDbEntity
  8
0
  6
Continuous
 62
   179
370
    18
100
AcDbCircle
 10
89.7681336026
 20
2.3106616691
 30
0.0
 40
0.098384530246548
100
AcDbArc
 50
332.3802627259
 51
4.9765441602
  0
ARC
  5
90
330
73
100
AcDbEntity
  8
0
  6
Continuous
 62
   179
370
    18
100
AcDbCircle
 10
89.6886560089
 20
2.3522464185
 30
0.0
 40
0.1880839130754018
100
AcDbArc
 50
303.690067526
 51
332.3802627258
  0
ARC
  5
91
330
73
100
AcDbEntity
  8
0
  6
Continuous
 62
   179
370
    18
100
AcDbCircle
 10
89.4849700869
 20
2.6577753016
 30
0.0
 40
0.5552839311631531
100
AcDbArc
 50
287.108652213
 51
303.690067526
  0
ARC
  5
92
330
73
100
AcDbEntity
  8
0
  6
Continuous
 62
   179
370
    18
100
AcDbCircle
 10
88.0513010646
 20
7.3154864882
 30
0.0
 40
5.428648309393203
100
AcDbArc
 50
285.2551187031
 51
287.108652213
  0
ARC
  5
93
330
73
100
AcDbEntity
  8
0
  6
Continuous
 62
   179
370
    18
100
AcDbCircle
 10
89.1317168954
 20
3.3539617753
 30
0.0
 40
1.322436378825653
100
AcDbArc
 50
281.4991866428
 51
285.255118703
  0
ARC
  5
94
330
73
100
AcDbEntity
  8
0
  6
Continuous
 62
   179
370
    18
100
AcDbCircle
 10
89.3198255509
 20
2.4293110075
 30
0.0
 40
0.3788454141584939
100
AcDbArc
 50
279.1917900003
 51
281.499186643
  0
ARC
  5
95
330
73
100
AcDbEntity
  8
0
  6
Continuous
 62
   179
370
    18
100
AcDbCircle
 10
89.0487250788
 20
4.1046569124
 30
0.0
 40
2.07598399629105
100
AcDbArc
 50
277.7634675038
 51
279.1917900002
  0
ARC
  5
96
330
73
100
AcDbEntity
  8
0
  6
Continuous
 62
   179
370
    18
100
AcDbCircle
 10
9.2588909915
 20
6.4054930194
 30
0.0
 40
1.579500000000074
100
AcDbArc
 50
31.0558004991
 51
330.0
  0
ARC
  5
97
330
73
100
AcDbEntity
  8
0
  6
Continuous
 62
   179
370
    18
100
AcDbCircle
 10
9.2588909915
 20
6.4054930194
 30
0.0
 40
2.281500000000107
100
AcDbArc
 50
30.7309172659
 51
330.0
  0
ARC
  5
98
330
73
100
AcDbEntity
  8
0
  6
Continuous
 62
   179
370
    18
100
AcDbCircle
 10
6.1288847544
 20
4.0685261312
 30
0.0
 40
4.914000000000307
100
AcDbArc
 50
172.3058370354
 51
179.7113029221
  0
ARC
  5
99
330
73
100
AcDbEntity
  8
0
  6
Continuous
 62
   179
370
    18
100
AcDbCircle
 10
-0.5401152456
 20
4.0685261312
 30
0.0
 40
4.91400000000019
100
AcDbArc
 50
0.2886970779
 51
7.6941629646
  0
ARC
  5
9A
330
73
100
AcDbEntity
  8
0
  6
Continuous
 62
   179
370
    18
100
AcDbCircle
 10
-0.5401152456
 20
4.0685261312
 30
0.0
 40
5.616000000000127
100
AcDbArc
 50
0.2526096926
 51
53.5764263577
  0
ARC
  5
9B
330
73
100
AcDbEntity
  8
0
  6
Continuous
 62
   179
370
    18
100
AcDbCircle
 10
6.1288847544
 20
4.0685261312
 30
0.0
 40
5.61600000000074
100
AcDbArc
 50
126.4235736423
 51
179.7473903073
  0
ARC
  5
9C
330
73
100
AcDbEntity
  8
0
  6
Continuous
 62
   179
370
    18
100
AcDbCircle
 10
-0.5401152456
 20
4.0685261312
 30
0.0
 40
4.914000000000161
100
AcDbArc
 50
16.0658750272
 51
47.2678899574
  0
ARC
  5
9D
330
73
100
AcDbEntity
  8
0
  6
Continuous
 62
   179
370
    18
100
AcDbCircle
 10
6.1288847544
 20
4.0685261312
 30
0.0
 40
4.914000000000584
100
AcDbArc
 50
132.7321100426
 51
163.9341249728
  0
LINE
  5
9E
330
73
100
AcDbEntity
  8
0
  6
Continuous
 62
   179
370
    18
100
AcDbLine
 10
78.8017089389
 20
2.8885802402
 30
0.0
 11
90.7982178739
 21
3.8455002136
 31
0.0
  0
LINE
  5
9F
330
73
100
AcDbEntity
  8
0
  6
Continuous
 62
   179
370
    18
100
AcDbLine
 10
76.6545490427
 20
5.8693097374
 30
0.0
 11
78.0344191726
 21
3.5235305166
 31
0.0
  0
LINE
  5
A0
330
73
100
AcDbEntity
  8
0
  6
Continuous
 62
   179
370
    18
100
AcDbLine
 10
91.5327615373
 20
4.6257342197
 30
0.0
 11
90.9577457715
 21
13.4579763825
 31
0.0
  0
LINE
  5
A1
330
73
100
AcDbEntity
  8
0
  6
Continuous
 62
   179
370
    18
100
AcDbLine
 10
78.6309362756
 20
12.8788539549
 30
0.0
 11
78.8360757629
 21
3.6475770268
 31
0.0
  0
LINE
  5
A2
330
73
100
AcDbEntity
  8
0
  6
Continuous
 62
   179
370
    18
100
AcDbLine
 10
80.4094186633
 20
4.6950685544
 30
0.0
 11
90.1819221045
 21
5.4824266516
 31
0.0
  0
LINE
  5
A3
330
73
100
AcDbEntity
  8
0
  6
Continuous
 62
   179
370
    18
100
AcDbLine
 10
79.1595373973
 20
3.3551666867
 30
0.0
 11
91.2569309872
 21
4.3071688694
 31
0.0
  0
LINE
  5
A4
330
73
100
AcDbEntity
  8
0
  6
Continuous
 62
   179
370
    18
100
AcDbLine
 10
79.2585043218
 20
2.925017226
 30
0.0
 11
80.4858981444
 21
1.533240302
 31
0.0
  0
LINE
  5
A5
330
73
100
AcDbEntity
  8
0
  6
Continuous
 62
   179
370
    18
100
AcDbLine
 10
78.0344191726
 20
3.5235305166
 30
0.0
 11
78.3638740472
 21
3.1446574108
 31
0.0
  0
LINE
  5
A6
330
73
100
AcDbEntity
  8
0
  6
Continuous
 62
   179
370
    18
100
AcDbLine
 10
78.3638740472
 20
3.1446574108
 30
0.0
 11
78.4680611395
 21
3.0248422547
 31
0.0
  0
LINE
  5
A7
330
73
100
AcDbEntity
  8
0
  6
Continuous
 62
   179
370
    18
100
AcDbLine
 10
81.3414110113
 20
1.2002475785
 30
0.0
 11
89.3291569519
 21
2.0477010263
 31
0.0
  0
LINE
  5
A8
330
73
100
AcDbEntity
  8
0
  6
Continuous
 62
   179
370
    18
100
AcDbLine
 10
89.8661472522
 20
2.5197759309
 30
0.0
 11
89.8661472522
 21
2.3090867337
 31
0.0
  0
LINE
  5
A9
330
73
100
AcDbEntity
  8
0
  6
Continuous
 62
   179
370
    18
100
AcDbLine
 10
88.676842368
 20
3.6762854359
 30
0.0
 11
89.6713239345
 21
2.7875997807
 31
0.0
  0
LINE
  5
AA
330
73
100
AcDbEntity
  8
0
  6
Continuous
 62
   179
370
    18
100
AcDbLine
 10
89.6713239345
 20
2.7875997807
 30
0.0
 11
89.7459749087
 21
2.7242700694
 31
0.0
  0
LINE
  5
AB
330
73
100
AcDbEntity
  8
0
  6
Continuous
 62
   179
370
    18
100
AcDbLine
 10
90.7982178739
 20
3.8455002136
 30
0.0
 11
91.3961615969
 21
4.3514525945
 31
0.0
  0
LINE
  5
AC
330
73
100
AcDbEntity
  8
0
  6
Continuous
 62
   179
370
    18
100
AcDbLine
 10
90.6442498554
 20
13.7381534621
 30
0.0
 11
78.1502930503
 21
13.1490474438
 31
0.0
  0
LINE
  5
AD
330
73
100
AcDbEntity
  8
0
  6
Continuous
 62
   179
370
    18
100
AcDbLine
 10
80.1347709981
 20
12.2388892068
 30
0.0
 11
89.8487925667
 21
12.7550932515
 31
0.0
  0
LINE
  5
AE
330
73
100
AcDbEntity
  8
0
  6
Continuous
 62
   179
370
    18
100
AcDbLine
 10
76.4935641943
 20
11.7567556248
 30
0.0
 11
76.6545490427
 21
5.8693097374
 31
0.0
  0
LINE
  5
AF
330
73
100
AcDbEntity
  8
0
  6
Continuous
 62
   179
370
    18
100
AcDbLine
 10
79.8508616208
 20
11.929182536
 30
0.0
 11
80.0854971721
 21
4.9839702153
 31
0.0
  0
LINE
  5
B0
330
73
100
AcDbEntity
  8
0
  6
Continuous
 62
   179
370
    18
100
AcDbLine
 10
80.5293311574
 20
9.7310185051
 30
0.0
 11
80.6057415643
 21
7.4769115
 31
0.0
  0
LINE
  5
B1
330
73
100
AcDbEntity
  8
0
  6
Continuous
 62
   179
370
    18
100
AcDbLine
 10
77.507650604
 20
12.7708420346
 30
0.0
 11
76.4935641943
 21
11.7567556248
 31
0.0
  0
LINE
  5
B2
330
73
100
AcDbEntity
  8
0
  6
Continuous
 62
   179
370
    18
100
AcDbLine
 10
86.8848195129
 20
11.0661568594
 30
0.0
 11
88.6742167283
 21
11.1634880887
 31
0.0
  0
LINE
  5
B3
330
73
100
AcDbEntity
  8
0
  6
Continuous
 62
   179
370
    18
100
AcDbLine
 10
87.0766213517
 20
6.9287171941
 30
0.0
 11
88.90708891
 21
7.0695223909
 31
0.0
  0
LINE
  5
B4
330
73
100
AcDbEntity
  8
0
  6
Continuous
 62
   179
370
    18
100
AcDbLine
 10
87.6830038473
 20
7.6147347768
 30
0.0
 11
88.8536252418
 21
7.7047825764
 31
0.0
  0
LINE
  5
B5
330
73
100
AcDbEntity
  8
0
  6
Continuous
 62
   179
370
    18
100
AcDbLine
 10
87.5509212094
 20
10.4639459651
 30
0.0
 11
88.7088412777
 21
10.5269290651
 31
0.0
  0
LINE
  5
B6
330
73
100
AcDbEntity
  8
0
  6
Continuous
 62
   179
370
    18
100
AcDbLine
 10
87.0766218384
 20
6.9287066941
 30
0.0
 11
86.8848195129
 21
11.0661568594
 31
0.0
  0
LINE
  5
B7
330
73
100
AcDbEntity
  8
0
  6
Continuous
 62
   179
370
    18
100
AcDbLine
 10
83.7004598825
 20
6.6667911093
 30
0.0
 11
84.5054929504
 21
10.9267193262
 31
0.0
  0
LINE
  5
B8
330
73
100
AcDbEntity
  8
0
  6
Continuous
 62
   179
370
    18
100
AcDbLine
 10
85.3543248406
 20
10.9728900984
 30
0.0
 11
86.4940946704
 21
6.8816860929
 31
0.0
  0
LINE
  5
B9
330
73
100
AcDbEntity
  8
0
  6
Continuous
 62
   179
370
    18
100
AcDbLine
 10
84.9728575427
 20
9.9667192298
 30
0.0
 11
85.4540299774
 21
8.2395506903
 31
0.0
  0
LINE
  5
BA
330
73
100
AcDbEntity
  8
0
  6
Continuous
 62
   179
370
    18
100
AcDbLine
 10
84.6363094629
 20
8.1858350416
 30
0.0
 11
84.9728575427
 21
9.9667192298
 31
0.0
  0
LINE
  5
BB
330
73
100
AcDbEntity
  8
0
  6
Continuous
 62
   179
370
    18
100
AcDbLine
 10
87.6830038473
 20
7.6147347768
 30
0.0
 11
87.5509212094
 21
10.4639459651
 31
0.0
  0
LINE
  5
BC
330
73
100
AcDbEntity
  8
0
  6
Continuous
 62
   179
370
    18
100
AcDbLine
 10
84.6363094629
 20
8.1858350416
 30
0.0
 11
85.4540299774
 21
8.2395506903
 31
0.0
  0
LINE
  5
BD
330
73
100
AcDbEntity
  8
0
  6
Continuous
 62
   179
370
    18
100
AcDbLine
 10
84.5140586807
 20
7.5389304886
 30
0.0
 11
85.6288154243
 21
7.6121582976
 31
0.0
  0
LINE
  5
BE
330
73
100
AcDbEntity
  8
0
  6
Continuous
 62
   179
370
    18
100
AcDbLine
 10
84.3588137958
 20
6.717433718
 30
0.0
 11
84.5140586807
 21
7.5389304886
 31
0.0
  0
LINE
  5
BF
330
73
100
AcDbEntity
  8
0
  6
Continuous
 62
   179
370
    18
100
AcDbLine
 10
81.6818640104
 20
6.5137358601
 30
0.0
 11
82.4802416972
 21
6.5751495283
 31
0.0
  0
LINE
  5
C0
330
73
100
AcDbEntity
  8
0
  6
Continuous
 62
   179
370
    18
100
AcDbLine
 10
81.6329699923
 20
7.1493580946
 30
0.0
 11
82.4313476791
 21
7.2107717628
 31
0.0
  0
LINE
  5
C1
330
73
100
AcDbEntity
  8
0
  6
Continuous
 62
   179
370
    18
100
AcDbLine
 10
83.7004598825
 20
6.6667911093
 30
0.0
 11
84.3588137958
 21
6.717433718
 31
0.0
  0
LINE
  5
C2
330
73
100
AcDbEntity
  8
0
  6
Continuous
 62
   179
370
    18
100
AcDbLine
 10
82.7059483815
 20
9.3512024135
 30
0.0
 11
83.3423973297
 21
9.3930104243
 31
0.0
  0
LINE
  5
C3
330
73
100
AcDbEntity
  8
0
  6
Continuous
 62
   179
370
    18
100
AcDbLine
 10
82.7491656358
 20
8.0762934118
 30
0.0
 11
83.385614584
 21
8.1181014226
 31
0.0
  0
LINE
  5
C4
330
73
100
AcDbEntity
  8
0
  6
Continuous
 62
   179
370
    18
100
AcDbLine
 10
81.1664651987
 20
9.7526162692
 30
0.0
 11
81.2428756056
 21
7.4985092641
 31
0.0
  0
LINE
  5
C5
330
73
100
AcDbEntity
  8
0
  6
Continuous
 62
   179
370
    18
100
AcDbLine
 10
82.6900353128
 20
9.8206379383
 30
0.0
 11
82.7052632884
 21
9.3714126602
 31
0.0
  0
LINE
  5
C6
330
73
100
AcDbEntity
  8
0
  6
Continuous
 62
   179
370
    18
100
AcDbLine
 10
82.7491656358
 20
8.0762934118
 30
0.0
 11
82.7658371041
 21
7.5844850954
 31
0.0
  0
LINE
  5
C7
330
73
100
AcDbEntity
  8
0
  6
Continuous
 62
   179
370
    18
100
AcDbLine
 10
83.3271693541
 20
9.8422357024
 30
0.0
 11
83.3423973297
 21
9.3930104243
 31
0.0
  0
LINE
  5
C8
330
73
100
AcDbEntity
  8
0
  6
Continuous
 62
   179
370
    18
100
AcDbLine
 10
83.385614584
 20
8.1181014226
 30
0.0
 11
83.4029711454
 21
7.6060828595
 31
0.0
  0
LINE
  5
C9
330
73
100
AcDbEntity
  8
0
  6
Continuous
 62
   179
370
    18
100
AcDbLine
 10
85.6288154243
 20
7.6121582976
 30
0.0
 11
85.8462022593
 21
6.8318482152
 31
0.0
  0
LINE
  5
CA
330
73
100
AcDbEntity
  8
0
  6
Continuous
 62
   179
370
    18
100
AcDbLine
 10
85.8462022593
 20
6.8318482152
 30
0.0
 11
86.4940946704
 21
6.8816860929
 31
0.0
  0
LINE
  5
CB
330
73
100
AcDbEntity
  8
0
  6
Continuous
 62
   179
370
    18
100
AcDbLine
 10
84.5054929504
 20
10.9267193262
 30
0.0
 11
85.3543248406
 21
10.9728900984
 31
0.0
  0
LINE
  5
CC
330
73
100
AcDbEntity
  8
0
  6
Continuous
 62
   179
370
    18
100
AcDbLine
 10
81.4744440858
 20
10.7634213094
 30
0.0
 11
82.2734303883
 21
10.8068808154
 31
0.0
  0
LINE
  5
CD
330
73
100
AcDbEntity
  8
0
  6
Continuous
 62
   179
370
    18
100
AcDbLine
 10
81.5090686352
 20
10.1268622858
 30
0.0
 11
82.3080549377
 21
10.1703217918
 31
0.0
  0
LINE
  5
CE
330
73
100
AcDbEntity
  8
0
  6
Continuous
 62
   179
370
    18
100
AcDbLine
 10
90.4575406452
 20
5.7946206556
 30
0.0
 11
90.1644232213
 21
12.4686789239
 31
0.0
  0
LINE
  5
CF
330
73
100
AcDbEntity
  8
0
  6
Continuous
 62
   179
370
    18
100
AcDbLine
 10
89.8247499755
 20
8.1125227115
 30
0.0
 11
89.7274569615
 21
10.2112720142
 31
0.0
  0
LINE
  5
D0
330
73
100
AcDbEntity
  8
0
  6
Continuous
 62
   179
370
    18
100
AcDbLine
 10
89.1879338763
 20
8.0830014354
 30
0.0
 11
89.0906408622
 21
10.181750738
 31
0.0
  0
LINE
  5
D1
330
73
100
AcDbEntity
  8
0
  6
Continuous
 62
   179
370
    18
100
AcDbLine
 10
89.7459749087
 20
2.7242700694
 30
0.0
 11
89.7974962577
 21
2.6659765769
 31
0.0
  0
LINE
  5
D2
330
73
100
AcDbEntity
  8
0
  6
Continuous
 62
   179
370
    18
100
AcDbLine
 10
89.7974962577
 20
2.6659765769
 30
0.0
 11
89.8351851379
 21
2.60192886
 31
0.0
  0
LINE
  5
D3
330
73
100
AcDbEntity
  8
0
  6
Continuous
 62
   179
370
    18
100
AcDbLine
 10
89.8351851379
 20
2.60192886
 30
0.0
 11
89.8661472522
 21
2.5197759309
 31
0.0
  0
LINE
  5
D4
330
73
100
AcDbEntity
  8
0
  6
Continuous
 62
   179
370
    18
100
AcDbLine
 10
10.6119938288
 20
7.2203138351
 30
0.0
 11
11.2200151261
 21
7.5713550947
 31
0.0
  0
LINE
  5
D5
330
73
100
AcDbEntity
  8
0
  6
Continuous
 62
   179
370
    18
100
AcDbLine
 10
11.2347279503
 20
5.2647430194
 30
0.0
 11
10.6267781168
 21
5.6157430194
 31
0.0
  0
LINE
  5
D6
330
73
100
AcDbEntity
  8
0
  6
Continuous
 62
   179
370
    18
100
AcDbLine
 10
6.4645062371
 20
16.1712617198
 30
0.0
 11
6.4645062371
 21
2.9364593988
 31
0.0
  0
LINE
  5
D7
330
73
100
AcDbEntity
  8
0
  6
Continuous
 62
   179
370
    18
100
AcDbLine
 10
6.4645062371
 20
2.9364593988
 30
0.0
 11
12.0532757459
 21
2.9364593988
 31
0.0
  0
LINE
  5
D8
330
73
100
AcDbEntity
  8
0
  6
Continuous
 62
   179
370
    18
100
AcDbLine
 10
12.0532757459
 20
2.9364593988
 30
0.0
 11
12.0532757459
 21
16.1712617198
 31
0.0
  0
LINE
  5
D9
330
73
100
AcDbEntity
  8
0
  6
Continuous
 62
   179
370
    18
100
AcDbLine
 10
12.0532757459
 20
16.1712617198
 30
0.0
 11
6.4645062371
 21
16.1712617198
 31
0.0
  0
LINE
  5
DA
330
73
100
AcDbEntity
  8
0
  6
Continuous
 62
   179
370
    18
100
AcDbLine
 10
0.0
 20
16.1712617198
 30
0.0
 11
0.0
 21
2.9364593988
 31
0.0
  0
LINE
  5
DB
330
73
100
AcDbEntity
  8
0
  6
Continuous
 62
   179
370
    18
100
AcDbLine
 10
0.0
 20
2.9364593988
 30
0.0
 11
5.5887695089
 21
2.9364593988
 31
0.0
  0
LINE
  5
DC
330
73
100
AcDbEntity
  8
0
  6
Continuous
 62
   179
370
    18
100
AcDbLine
 10
5.5887695089
 20
2.9364593988
 30
0.0
 11
5.5887695089
 21
16.1712617198
 31
0.0
  0
LINE
  5
DD
330
73
100
AcDbEntity
  8
0
  6
Continuous
 62
   179
370
    18
100
AcDbLine
 10
5.5887695089
 20
16.1712617198
 30
0.0
 11
0.0
 21
16.1712617198
 31
0.0
  0
LINE
  5
DE
330
73
100
AcDbEntity
  8
0
  6
Continuous
 62
   179
370
    18
100
AcDbLine
 10
1.2591262606
 20
4.7264381407
 30
0.0
 11
4.3296432482
 21
4.7264381407
 31
0.0
  0
LINE
  5
DF
330
73
100
AcDbEntity
  8
0
  6
Continuous
 62
   179
370
    18
100
AcDbLine
 10
4.3738223747
 20
4.0932862697
 30
0.0
 11
5.0758301722
 21
4.0932862697
 31
0.0
  0
LINE
  5
E0
330
73
100
AcDbEntity
  8
0
  6
Continuous
 62
   179
370
    18
100
AcDbLine
 10
0.5129393366
 20
4.0932862697
 30
0.0
 11
1.2149471342
 21
4.0932862697
 31
0.0
  0
LINE
  5
E1
330
73
100
AcDbEntity
  8
0
  6
Continuous
 62
   179
370
    18
100
AcDbLine
 10
4.1819643097
 20
5.4284381407
 30
0.0
 11
1.4068051992
 21
5.4284381407
 31
0.0
  0
LINE
  5
E2
330
73
100
AcDbEntity
  8
0
  6
Continuous
 62
   179
370
    18
100
AcDbLine
 10
18.517781983
 20
16.1712617198
 30
0.0
 11
18.517781983
 21
2.9364593988
 31
0.0
  0
LINE
  5
E3
330
73
100
AcDbEntity
  8
0
  6
Continuous
 62
   179
370
    18
100
AcDbLine
 10
18.517781983
 20
2.9364593988
 30
0.0
 11
12.9290124742
 21
2.9364593988
 31
0.0
  0
LINE
  5
E4
330
73
100
AcDbEntity
  8
0
  6
Continuous
 62
   179
370
    18
100
AcDbLine
 10
12.9290124742
 20
2.9364593988
 30
0.0
 11
12.9290124742
 21
16.1712617198
 31
0.0
  0
LINE
  5
E5
330
73
100
AcDbEntity
  8
0
  6
Continuous
 62
   179
370
    18
100
AcDbLine
 10
12.9290124742
 20
16.1712617198
 30
0.0
 11
18.517781983
 21
16.1712617198
 31
0.0
  0
INSERT
  5
EB
330
73
100
AcDbEntity
  8
0
  6
Continuous
 62
     7
370
     0
100
AcDbBlockReference
  2
SW_NOTE_0
 10
1.8998941161
 20
-0.3226565443
 30
0.0
  0
INSERT
  5
F0
330
73
100
AcDbEntity
  8
0
  6
Continuous
 62
     7
370
     0
100
AcDbBlockReference
  2
SW_NOTE_0_1
 10
29.1164837035
 20
12.7459167441
 30
0.0
  0
INSERT
  5
F8
330
73
100
AcDbEntity
  8
0
  6
Continuous
 62
     7
370
     0
100
AcDbBlockReference
  2
SW_NOTE_0_2
 10
28.8863479825
 20
8.6365742194
 30
0.0
  0
ENDBLK
  5
75
330
73
100
AcDbEntity
  8
0
100
AcDbBlockEnd
  0
BLOCK
  5
E7
330
E6
100
AcDbEntity
  8
0
100
AcDbBlockBegin
  2
SW_NOTE_0
 70
     0
 10
0.0
 20
0.0
 30
0.0
  3
SW_NOTE_0
  1

  0
MTEXT
  5
EA
330
E6
100
AcDbEntity
  8
0
  6
Continuous
 62
     0
370
     0
100
AcDbMText
 10
7.46875
 20
2.5781354795
 30
0.0
 40
2.0
 41
0.0
 71
     2
 72
     1
  1
www.aco.ch
  7
SLDTEXTSTYLE0
 73
     1
 44
1.0
  0
ENDBLK
  5
E8
330
E6
100
AcDbEntity
  8
0
100
AcDbBlockEnd
  0
BLOCK
  5
ED
330
EC
100
AcDbEntity
  8
0
100
AcDbBlockBegin
  2
SW_NOTE_0_1
 70
     0
 10
0.0
 20
0.0
 30
0.0
  3
SW_NOTE_0_1
  1

  0
MTEXT
  5
EF
330
EC
100
AcDbEntity
  8
0
  6
Continuous
 62
     0
370
     0
100
AcDbMText
 10
0.0
 20
3.8672032193
 30
0.0
 40
3.0
 41
0.0
 71
     1
 72
     1
  1
ACO AG
  7
SLDTEXTSTYLE0
 73
     1
 44
1.0
  0
ENDBLK
  5
EE
330
EC
100
AcDbEntity
  8
0
100
AcDbBlockEnd
  0
BLOCK
  5
F2
330
F1
100
AcDbEntity
  8
0
100
AcDbBlockBegin
  2
SW_NOTE_0_2
 70
     0
 10
0.0
 20
0.0
 30
0.0
  3
SW_NOTE_0_2
  1

  0
MTEXT
  5
F4
330
F1
100
AcDbEntity
  8
0
  6
Continuous
 62
     0
370
     0
100
AcDbMText
 10
0.0
 20
2.5781354795
 30
0.0
 40
2.0
 41
0.0
 71
     1
 72
     1
  1
Industrie Kleinzaun
  7
SLDTEXTSTYLE0
 73
     1
 44
1.0
  0
MTEXT
  5
F5
330
F1
100
AcDbEntity
  8
0
  6
Continuous
 62
     0
370
     0
100
AcDbMText
 10
0.0
 20
-0.4218645465
 30
0.0
 40
2.0
 41
0.0
 71
     1
 72
     1
  1
CH-8754 Netstal
  7
SLDTEXTSTYLE0
 73
     1
 44
1.0
  0
MTEXT
  5
F6
330
F1
100
AcDbEntity
  8
0
  6
Continuous
 62
     0
370
     0
100
AcDbMText
 10
0.0
 20
-3.4218645726
 30
0.0
 40
2.0
 41
0.0
 71
     1
 72
     1
  1
Tel. 055 / 645 53 00
  7
SLDTEXTSTYLE0
 73
     1
 44
1.0
  0
MTEXT
  5
F7
330
F1
100
AcDbEntity
  8
0
  6
Continuous
 62
     0
370
     0
100
AcDbMText
 10
0.0
 20
-6.4218645987
 30
0.0
 40
2.0
 41
0.0
 71
     1
 72
     1
  1
E-Mail: aco@aco.ch
  7
SLDTEXTSTYLE0
 73
     1
 44
1.0
  0
ENDBLK
  5
F3
330
F1
100
AcDbEntity
  8
0
100
AcDbBlockEnd
  0
BLOCK
  5
172
330
171
100
AcDbEntity
  8
0
100
AcDbBlockBegin
  2
SW_NOTE_0_3
 70
     0
 10
0.0
 20
0.0
 30
0.0
  3
SW_NOTE_0_3
  1

  0
MTEXT
  5
174
330
171
100
AcDbEntity
  8
0
  6
Continuous
 62
     0
370
     0
100
AcDbMText
 10
0.0
 20
1.9336016097
 30
0.0
 40
1.5
 41
0.0
 71
     1
 72
     1
  1
Diese Zeichnung darf weder kopiert
  7
SLDTEXTSTYLE0
 73
     1
 44
1.0
  0
MTEXT
  5
175
330
171
100
AcDbEntity
  8
0
  6
Continuous
 62
     0
370
     0
100
AcDbMText
 10
0.0
 20
-0.5663983345
 30
0.0
 40
1.5
 41
0.0
 71
     1
 72
     1
  1
noch dritten Personen, insbesondere
  7
SLDTEXTSTYLE0
 73
     1
 44
1.0
  0
MTEXT
  5
176
330
171
100
AcDbEntity
  8
0
  6
Continuous
 62
     0
370
     0
100
AcDbMText
 10
0.0
 20
-3.0663982786
 30
0.0
 40
1.5
 41
0.0
 71
     1
 72
     1
  1
zum Zweck anderweitiger Benutzung
  7
SLDTEXTSTYLE0
 73
     1
 44
1.0
  0
MTEXT
  5
177
330
171
100
AcDbEntity
  8
0
  6
Continuous
 62
     0
370
     0
100
AcDbMText
 10
0.0
 20
-5.5663982227
 30
0.0
 40
1.5
 41
0.0
 71
     1
 72
     1
  1
mitgeteilt werden und bleibt unser
  7
SLDTEXTSTYLE0
 73
     1
 44
1.0
  0
MTEXT
  5
178
330
171
100
AcDbEntity
  8
0
  6
Continuous
 62
     0
370
     0
100
AcDbMText
 10
0.0
 20
-8.0663981668
 30
0.0
 40
1.5
 41
0.0
 71
     1
 72
     1
  1
Eigentum.
  7
SLDTEXTSTYLE0
 73
     1
 44
1.0
  0
ENDBLK
  5
173
330
171
100
AcDbEntity
  8
0
100
AcDbBlockEnd
  0
BLOCK
  5
213
330
212
100
AcDbEntity
  8
0
100
AcDbBlockBegin
  2
_D
 70
     0
 10
0.0
 20
0.0
 30
0.0
  3
_D
  1

  0
SOLID
  5
215
330
212
100
AcDbEntity
  8
0
  6
Continuous
 62
     7
370
    18
100
AcDbTrace
 10
245.0244371517
 20
181.1984325782
 30
0.0
 11
245.5628986902
 21
184.6984325782
 31
0.0
 12
244.4859756133
 22
184.6984325782
 32
0.0
 13
244.4859756133
 23
184.6984325782
 33
0.0
  0
SOLID
  5
216
330
212
100
AcDbEntity
  8
0
  6
Continuous
 62
     7
370
    18
100
AcDbTrace
 10
245.0244371517
 20
245.6984325782
 30
0.0
 11
244.4859756133
 21
242.1984325782
 31
0.0
 12
245.5628986902
 22
242.1984325782
 32
0.0
 13
245.5628986902
 23
242.1984325782
 33
0.0
  0
LINE
  5
217
330
212
100
AcDbEntity
  8
0
  6
Continuous
 62
     7
370
     0
100
AcDbLine
 10
237.0704561153
 20
181.1984325782
 30
0.0
 11
246.0244371517
 21
181.1984325782
 31
0.0
  0
LINE
  5
218
330
212
100
AcDbEntity
  8
0
  6
Continuous
 62
     7
370
     0
100
AcDbLine
 10
206.5704561153
 20
245.6984325782
 30
0.0
 11
246.0244371517
 21
245.6984325782
 31
0.0
  0
LINE
  5
219
330
212
100
AcDbEntity
  8
0
  6
Continuous
 62
     7
370
     0
100
AcDbLine
 10
245.0244371517
 20
181.1984325782
 30
0.0
 11
245.0244371517
 21
245.6984325782
 31
0.0
  0
MTEXT
  5
21A
330
212
100
AcDbEntity
  8
0
  6
Continuous
 62
     7
370
    18
100
AcDbMText
 10
240.5126998297
 20
208.7696132497
 30
0.0
 40
3.5
 41
0.0
 71
     1
 72
     1
  1
64.5
  7
SLDTEXTSTYLE0
 11
5.053215498074303E-16
 21
1.0
 31
0.0
 73
     1
 44
1.0
  0
ENDBLK
  5
214
330
212
100
AcDbEntity
  8
0
100
AcDbBlockEnd
  0
BLOCK
  5
21D
330
21C
100
AcDbEntity
  8
0
100
AcDbBlockBegin
  2
_D_1
 70
     0
 10
0.0
 20
0.0
 30
0.0
  3
_D_1
  1

  0
SOLID
  5
21F
330
21C
100
AcDbEntity
  8
0
  6
Continuous
 62
     7
370
    18
100
AcDbTrace
 10
66.4704561153
 20
275.6984325782
 30
0.0
 11
69.9704561153
 21
275.1599710397
 31
0.0
 12
69.9704561153
 22
276.2368941167
 32
0.0
 13
69.9704561153
 23
276.2368941167
 33
0.0
  0
SOLID
  5
220
330
21C
100
AcDbEntity
  8
0
  6
Continuous
 62
     7
370
    18
100
AcDbTrace
 10
212.4704561153
 20
275.6984325782
 30
0.0
 11
208.9704561153
 21
276.2368941167
 31
0.0
 12
208.9704561153
 22
275.1599710397
 32
0.0
 13
208.9704561153
 23
275.1599710397
 33
0.0
  0
LINE
  5
221
330
21C
100
AcDbEntity
  8
0
  6
Continuous
 62
     7
370
     0
100
AcDbLine
 10
66.4704561153
 20
209.2984325782
 30
0.0
 11
66.4704561153
 21
276.6984325782
 31
0.0
  0
LINE
  5
222
330
21C
100
AcDbEntity
  8
0
  6
Continuous
 62
     7
370
     0
100
AcDbLine
 10
212.4704561153
 20
209.2984325782
 30
0.0
 11
212.4704561153
 21
276.6984325782
 31
0.0
  0
LINE
  5
223
330
21C
100
AcDbEntity
  8
0
  6
Continuous
 62
     7
370
     0
100
AcDbLine
 10
66.4704561153
 20
275.6984325782
 30
0.0
 11
212.4704561153
 21
275.6984325782
 31
0.0
  0
MTEXT
  5
224
330
21C
100
AcDbEntity
  8
0
  6
Continuous
 62
     7
370
    18
100
AcDbMText
 10
135.460039548
 20
280.2101699002
 30
0.0
 40
3.5
 41
0.0
 71
     1
 72
     1
  1
146
  7
SLDTEXTSTYLE0
 73
     1
 44
1.0
  0
ENDBLK
  5
21E
330
21C
100
AcDbEntity
  8
0
100
AcDbBlockEnd
  0
BLOCK
  5
228
330
227
100
AcDbEntity
  8
0
100
AcDbBlockBegin
  2
_D_2
 70
     0
 10
0.0
 20
0.0
 30
0.0
  3
_D_2
  1

  0
SOLID
  5
22A
330
227
100
AcDbEntity
  8
0
  6
Continuous
 62
     7
370
    18
100
AcDbTrace
 10
81.4927329992
 20
255.6984325782
 30
0.0
 11
84.9927329992
 21
255.1599710397
 31
0.0
 12
84.9927329992
 22
256.2368941167
 32
0.0
 13
84.9927329992
 23
256.2368941167
 33
0.0
  0
SOLID
  5
22B
330
227
100
AcDbEntity
  8
0
  6
Continuous
 62
     7
370
    18
100
AcDbTrace
 10
197.4481792315
 20
255.6984325782
 30
0.0
 11
193.9481792315
 21
256.2368941167
 31
0.0
 12
193.9481792315
 22
255.1599710397
 32
0.0
 13
193.9481792315
 23
255.1599710397
 33
0.0
  0
LINE
  5
22C
330
227
100
AcDbEntity
  8
0
  6
Continuous
 62
     7
370
     0
100
AcDbLine
 10
81.4927329992
 20
201.7984325782
 30
0.0
 11
81.4927329992
 21
256.6984325782
 31
0.0
  0
LINE
  5
22D
330
227
100
AcDbEntity
  8
0
  6
Continuous
 62
     7
370
     0
100
AcDbLine
 10
197.4481792315
 20
201.7984325782
 30
0.0
 11
197.4481792315
 21
256.6984325782
 31
0.0
  0
LINE
  5
22E
330
227
100
AcDbEntity
  8
0
  6
Continuous
 62
     7
370
     0
100
AcDbLine
 10
81.4927329992
 20
255.6984325782
 30
0.0
 11
197.4481792315
 21
255.6984325782
 31
0.0
  0
MTEXT
  5
22F
330
227
100
AcDbEntity
  8
0
  6
Continuous
 62
     7
370
    18
100
AcDbMText
 10
135.460039548
 20
260.2101699002
 30
0.0
 40
3.5
 41
0.0
 71
     1
 72
     1
  1
116
  7
SLDTEXTSTYLE0
 73
     1
 44
1.0
  0
ENDBLK
  5
229
330
227
100
AcDbEntity
  8
0
100
AcDbBlockEnd
  0
BLOCK
  5
232
330
231
100
AcDbEntity
  8
0
100
AcDbBlockBegin
  2
_D_3
 70
     0
 10
0.0
 20
0.0
 30
0.0
  3
_D_3
  1

  0
SOLID
  5
234
330
231
100
AcDbEntity
  8
0
  6
Continuous
 62
     7
370
    18
100
AcDbTrace
 10
76.9704561153
 20
265.6984325782
 30
0.0
 11
80.4704561153
 21
265.1599710397
 31
0.0
 12
80.4704561153
 22
266.2368941167
 32
0.0
 13
80.4704561153
 23
266.2368941167
 33
0.0
  0
SOLID
  5
235
330
231
100
AcDbEntity
  8
0
  6
Continuous
 62
     7
370
    18
100
AcDbTrace
 10
201.9704561153
 20
265.6984325782
 30
0.0
 11
198.4704561153
 21
266.2368941167
 31
0.0
 12
198.4704561153
 22
265.1599710397
 32
0.0
 13
198.4704561153
 23
265.1599710397
 33
0.0
  0
LINE
  5
236
330
231
100
AcDbEntity
  8
0
  6
Continuous
 62
     7
370
     0
100
AcDbLine
 10
76.9704561153
 20
245.7984325782
 30
0.0
 11
76.9704561153
 21
266.6984325782
 31
0.0
  0
LINE
  5
237
330
231
100
AcDbEntity
  8
0
  6
Continuous
 62
     7
370
     0
100
AcDbLine
 10
201.9704561153
 20
245.7984325782
 30
0.0
 11
201.9704561153
 21
266.6984325782
 31
0.0
  0
LINE
  5
238
330
231
100
AcDbEntity
  8
0
  6
Continuous
 62
     7
370
     0
100
AcDbLine
 10
76.9704561153
 20
265.6984325782
 30
0.0
 11
201.9704561153
 21
265.6984325782
 31
0.0
  0
MTEXT
  5
239
330
231
100
AcDbEntity
  8
0
  6
Continuous
 62
     7
370
    18
100
AcDbMText
 10
135.460039548
 20
270.2101699002
 30
0.0
 40
3.5
 41
0.0
 71
     1
 72
     1
  1
125
  7
SLDTEXTSTYLE0
 73
     1
 44
1.0
  0
ENDBLK
  5
233
330
231
100
AcDbEntity
  8
0
100
AcDbBlockEnd
  0
BLOCK
  5
296
330
295
100
AcDbEntity
  8
0
100
AcDbBlockBegin
  2
_D_4
 70
     0
 10
0.0
 20
0.0
 30
0.0
  3
_D_4
  1

  0
SOLID
  5
298
330
295
100
AcDbEntity
  8
0
  6
Continuous
 62
     7
370
    18
100
AcDbTrace
 10
365.2414153302
 20
213.1984325782
 30
0.0
 11
364.7029537917
 21
209.6984325782
 31
0.0
 12
365.7798768686
 22
209.6984325782
 32
0.0
 13
365.7798768686
 23
209.6984325782
 33
0.0
  0
SOLID
  5
299
330
295
100
AcDbEntity
  8
0
  6
Continuous
 62
     7
370
    18
100
AcDbTrace
 10
365.2414153302
 20
205.1984325782
 30
0.0
 11
365.7798768686
 21
208.6984325782
 31
0.0
 12
364.7029537917
 22
208.6984325782
 32
0.0
 13
364.7029537917
 23
208.6984325782
 33
0.0
  0
LINE
  5
29A
330
295
100
AcDbEntity
  8
0
  6
Continuous
 62
     7
370
     0
100
AcDbLine
 10
349.9699901228
 20
213.1984325782
 30
0.0
 11
366.2414153302
 21
213.1984325782
 31
0.0
  0
LINE
  5
29B
330
295
100
AcDbEntity
  8
0
  6
Continuous
 62
     7
370
     0
100
AcDbLine
 10
349.9699901228
 20
205.1984325782
 30
0.0
 11
366.2414153302
 21
205.1984325782
 31
0.0
  0
LINE
  5
29C
330
295
100
AcDbEntity
  8
0
  6
Continuous
 62
     7
370
     0
100
AcDbLine
 10
365.2414153302
 20
213.1984325782
 30
0.0
 11
365.2414153302
 21
226.3917201457
 31
0.0
  0
LINE
  5
29D
330
295
100
AcDbEntity
  8
0
  6
Continuous
 62
     7
370
     0
100
AcDbLine
 10
365.2414153302
 20
213.1984325782
 30
0.0
 11
365.2414153302
 21
205.1984325782
 31
0.0
  0
MTEXT
  5
29E
330
295
100
AcDbEntity
  8
0
  6
Continuous
 62
     7
370
    18
100
AcDbMText
 10
360.7296780081
 20
219.7125535717
 30
0.0
 40
3.5
 41
0.0
 71
     1
 72
     1
  1
M
  7
SLDTEXTSTYLE0
 11
-7.044195017643634E-15
 21
1.0
 31
0.0
 73
     1
 44
1.0
  0
MTEXT
  5
29F
330
295
100
AcDbEntity
  8
0
  6
Continuous
 62
     7
370
    18
100
AcDbMText
 10
360.7296780081
 20
223.7181091008
 30
0.0
 40
3.5
 41
0.0
 71
     1
 72
     1
  1
8
  7
SLDTEXTSTYLE0
 11
-7.044195017643634E-15
 21
1.0
 31
0.0
 73
     1
 44
1.0
  0
ENDBLK
  5
297
330
295
100
AcDbEntity
  8
0
100
AcDbBlockEnd
  0
BLOCK
  5
2A2
330
2A1
100
AcDbEntity
  8
0
100
AcDbBlockBegin
  2
_D_5
 70
     0
 10
0.0
 20
0.0
 30
0.0
  3
_D_5
  1

  0
SOLID
  5
2A4
330
2A1
100
AcDbEntity
  8
0
  6
Continuous
 62
     7
370
    18
100
AcDbTrace
 10
335.5604901228
 20
169.957239369
 30
0.0
 11
339.0604901228
 21
169.4187778306
 31
0.0
 12
339.0604901228
 22
170.4957009075
 32
0.0
 13
339.0604901228
 23
170.4957009075
 33
0.0
  0
SOLID
  5
2A5
330
2A1
100
AcDbEntity
  8
0
  6
Continuous
 62
     7
370
    18
100
AcDbTrace
 10
362.5604901228
 20
169.957239369
 30
0.0
 11
359.0604901228
 21
170.4957009075
 31
0.0
 12
359.0604901228
 22
169.4187778306
 32
0.0
 13
359.0604901228
 23
169.4187778306
 33
0.0
  0
LINE
  5
2A6
330
2A1
100
AcDbEntity
  8
0
  6
Continuous
 62
     7
370
     0
100
AcDbLine
 10
335.5604901228
 20
181.0984325782
 30
0.0
 11
335.5604901228
 21
168.957239369
 31
0.0
  0
LINE
  5
2A7
330
2A1
100
AcDbEntity
  8
0
  6
Continuous
 62
     7
370
     0
100
AcDbLine
 10
362.5604901228
 20
181.0984325782
 30
0.0
 11
362.5604901228
 21
168.957239369
 31
0.0
  0
LINE
  5
2A8
330
2A1
100
AcDbEntity
  8
0
  6
Continuous
 62
     7
370
     0
100
AcDbLine
 10
335.5604901228
 20
169.957239369
 30
0.0
 11
362.5604901228
 21
169.957239369
 31
0.0
  0
MTEXT
  5
2A9
330
2A1
100
AcDbEntity
  8
0
  6
Continuous
 62
     7
370
    18
100
AcDbMText
 10
346.3868790779
 20
174.4689766911
 30
0.0
 40
3.5
 41
0.0
 71
     1
 72
     1
  1
27
  7
SLDTEXTSTYLE0
 73
     1
 44
1.0
  0
ENDBLK
  5
2A3
330
2A1
100
AcDbEntity
  8
0
100
AcDbBlockEnd
  0
BLOCK
  5
2AD
330
2AC
100
AcDbEntity
  8
0
100
AcDbBlockBegin
  2
_D_6
 70
     0
 10
0.0
 20
0.0
 30
0.0
  3
_D_6
  1

  0
SOLID
  5
2AF
330
2AC
100
AcDbEntity
  8
0
  6
Continuous
 62
     7
370
    18
100
AcDbTrace
 10
335.5604901228
 20
251.7257316124
 30
0.0
 11
339.0604901228
 21
251.187270074
 31
0.0
 12
339.0604901228
 22
252.2641931509
 32
0.0
 13
339.0604901228
 23
252.2641931509
 33
0.0
  0
SOLID
  5
2B0
330
2AC
100
AcDbEntity
  8
0
  6
Continuous
 62
     7
370
    18
100
AcDbTrace
 10
332.5604901228
 20
251.7257316124
 30
0.0
 11
329.0604901228
 21
252.2641931509
 31
0.0
 12
329.0604901228
 22
251.187270074
 32
0.0
 13
329.0604901228
 23
251.187270074
 33
0.0
  0
LINE
  5
2B1
330
2AC
100
AcDbEntity
  8
0
  6
Continuous
 62
     7
370
     0
100
AcDbLine
 10
335.5604901228
 20
245.7984325782
 30
0.0
 11
335.5604901228
 21
252.7257316124
 31
0.0
  0
LINE
  5
2B2
330
2AC
100
AcDbEntity
  8
0
  6
Continuous
 62
     7
370
     0
100
AcDbLine
 10
332.5604901228
 20
245.7984325782
 30
0.0
 11
332.5604901228
 21
252.7257316124
 31
0.0
  0
LINE
  5
2B3
330
2AC
100
AcDbEntity
  8
0
  6
Continuous
 62
     7
370
     0
100
AcDbLine
 10
335.5604901228
 20
251.7257316124
 30
0.0
 11
349.5644581246
 21
251.7257316124
 31
0.0
  0
LINE
  5
2B4
330
2AC
100
AcDbEntity
  8
0
  6
Continuous
 62
     7
370
     0
100
AcDbLine
 10
335.5604901228
 20
251.7257316124
 30
0.0
 11
332.5604901228
 21
251.7257316124
 31
0.0
  0
LINE
  5
2B5
330
2AC
100
AcDbEntity
  8
0
  6
Continuous
 62
     7
370
     0
100
AcDbLine
 10
332.5604901228
 20
251.7257316124
 30
0.0
 11
325.829720892
 21
251.7257316124
 31
0.0
  0
MTEXT
  5
2B6
330
2AC
100
AcDbEntity
  8
0
  6
Continuous
 62
     7
370
    18
100
AcDbMText
 10
346.8908470797
 20
256.2374689345
 30
0.0
 40
3.5
 41
0.0
 71
     1
 72
     1
  1
3
  7
SLDTEXTSTYLE0
 73
     1
 44
1.0
  0
ENDBLK
  5
2AE
330
2AC
100
AcDbEntity
  8
0
100
AcDbBlockEnd
  0
BLOCK
  5
2B9
330
2B8
100
AcDbEntity
  8
0
100
AcDbBlockBegin
  2
_D_7
 70
     0
 10
0.0
 20
0.0
 30
0.0
  3
_D_7
  1

  0
SOLID
  5
2BB
330
2B8
100
AcDbEntity
  8
0
  6
Continuous
 62
     7
370
    18
100
AcDbTrace
 10
332.5604901228
 20
165.9649260045
 30
0.0
 11
336.0604901228
 21
165.4264644661
 31
0.0
 12
336.0604901228
 22
166.503387543
 32
0.0
 13
336.0604901228
 23
166.503387543
 33
0.0
  0
SOLID
  5
2BC
330
2B8
100
AcDbEntity
  8
0
  6
Continuous
 62
     7
370
    18
100
AcDbTrace
 10
330.5604901228
 20
165.9649260045
 30
0.0
 11
327.0604901228
 21
166.503387543
 31
0.0
 12
327.0604901228
 22
165.4264644661
 32
0.0
 13
327.0604901228
 23
165.4264644661
 33
0.0
  0
LINE
  5
2BD
330
2B8
100
AcDbEntity
  8
0
  6
Continuous
 62
     7
370
     0
100
AcDbLine
 10
332.5604901228
 20
185.0984325782
 30
0.0
 11
332.5604901228
 21
164.9649260045
 31
0.0
  0
LINE
  5
2BE
330
2B8
100
AcDbEntity
  8
0
  6
Continuous
 62
     7
370
     0
100
AcDbLine
 10
330.5604901228
 20
185.0984325782
 30
0.0
 11
330.5604901228
 21
164.9649260045
 31
0.0
  0
LINE
  5
2BF
330
2B8
100
AcDbEntity
  8
0
  6
Continuous
 62
     7
370
     0
100
AcDbLine
 10
332.5604901228
 20
165.9649260045
 30
0.0
 11
339.2912593535
 21
165.9649260045
 31
0.0
  0
LINE
  5
2C0
330
2B8
100
AcDbEntity
  8
0
  6
Continuous
 62
     7
370
     0
100
AcDbLine
 10
332.5604901228
 20
165.9649260045
 30
0.0
 11
330.5604901228
 21
165.9649260045
 31
0.0
  0
LINE
  5
2C1
330
2B8
100
AcDbEntity
  8
0
  6
Continuous
 62
     7
370
     0
100
AcDbLine
 10
330.5604901228
 20
165.9649260045
 30
0.0
 11
303.5486846003
 21
165.9649260045
 31
0.0
  0
MTEXT
  5
2C2
330
2B8
100
AcDbEntity
  8
0
  6
Continuous
 62
     7
370
    18
100
AcDbMText
 10
303.5486846003
 20
170.4766633266
 30
0.0
 40
3.5
 41
0.0
 71
     1
 72
     1
  1
2
  7
SLDTEXTSTYLE0
 73
     1
 44
1.0
  0
ENDBLK
  5
2BA
330
2B8
100
AcDbEntity
  8
0
100
AcDbBlockEnd
  0
BLOCK
  5
2C5
330
2C4
100
AcDbEntity
  8
0
100
AcDbBlockBegin
  2
_D_8
 70
     0
 10
0.0
 20
0.0
 30
0.0
  3
_D_8
  1

  0
SOLID
  5
2C7
330
2C4
100
AcDbEntity
  8
0
  6
Continuous
 62
     7
370
    18
100
AcDbTrace
 10
307.5280846153
 20
181.1984325782
 30
0.0
 11
308.0665461537
 21
184.6984325782
 31
0.0
 12
306.9896230768
 22
184.6984325782
 32
0.0
 13
306.9896230768
 23
184.6984325782
 33
0.0
  0
SOLID
  5
2C8
330
2C4
100
AcDbEntity
  8
0
  6
Continuous
 62
     7
370
    18
100
AcDbTrace
 10
307.5280846153
 20
209.1984325782
 30
0.0
 11
306.9896230768
 21
205.6984325782
 31
0.0
 12
308.0665461537
 22
205.6984325782
 32
0.0
 13
308.0665461537
 23
205.6984325782
 33
0.0
  0
LINE
  5
2C9
330
2C4
100
AcDbEntity
  8
0
  6
Continuous
 62
     7
370
     0
100
AcDbLine
 10
338.1970901228
 20
181.1984325782
 30
0.0
 11
306.5280846153
 21
181.1984325782
 31
0.0
  0
LINE
  5
2CA
330
2C4
100
AcDbEntity
  8
0
  6
Continuous
 62
     7
370
     0
100
AcDbLine
 10
328.4604901228
 20
209.1984325782
 30
0.0
 11
306.5280846153
 21
209.1984325782
 31
0.0
  0
LINE
  5
2CB
330
2C4
100
AcDbEntity
  8
0
  6
Continuous
 62
     7
370
     0
100
AcDbLine
 10
307.5280846153
 20
181.1984325782
 30
0.0
 11
307.5280846153
 21
209.1984325782
 31
0.0
  0
MTEXT
  5
2CC
330
2C4
100
AcDbEntity
  8
0
  6
Continuous
 62
     7
370
    18
100
AcDbMText
 10
303.0163472932
 20
192.5248215333
 30
0.0
 40
3.5
 41
0.0
 71
     1
 72
     1
  1
28
  7
SLDTEXTSTYLE0
 11
3.613946018757869E-15
 21
1.0
 31
0.0
 73
     1
 44
1.0
  0
ENDBLK
  5
2C6
330
2C4
100
AcDbEntity
  8
0
100
AcDbBlockEnd
  0
BLOCK
  5
398
330
397
100
AcDbEntity
  8
0
100
AcDbBlockBegin
  2
_D_9
 70
     0
 10
0.0
 20
0.0
 30
0.0
  3
_D_9
  1

  0
SOLID
  5
39A
330
397
100
AcDbEntity
  8
0
  6
Continuous
 62
     7
370
    18
100
AcDbTrace
 10
57.7204561153
 20
95.1967334501
 30
0.0
 11
61.2204561153
 21
94.6582719116
 31
0.0
 12
61.2204561153
 22
95.7351949885
 32
0.0
 13
61.2204561153
 23
95.7351949885
 33
0.0
  0
SOLID
  5
39B
330
397
100
AcDbEntity
  8
0
  6
Continuous
 62
     7
370
    18
100
AcDbTrace
 10
221.2204561153
 20
95.1967334501
 30
0.0
 11
217.7204561153
 21
95.7351949885
 31
0.0
 12
217.7204561153
 22
94.6582719116
 32
0.0
 13
217.7204561153
 23
94.6582719116
 33
0.0
  0
LINE
  5
39C
330
397
100
AcDbEntity
  8
0
  6
Continuous
 62
     7
370
     0
100
AcDbLine
 10
57.7204561153
 20
104.1285707718
 30
0.0
 11
57.7204561153
 21
94.1967334501
 31
0.0
  0
LINE
  5
39D
330
397
100
AcDbEntity
  8
0
  6
Continuous
 62
     7
370
     0
100
AcDbLine
 10
221.2204561153
 20
104.1285707718
 30
0.0
 11
221.2204561153
 21
94.1967334501
 31
0.0
  0
LINE
  5
39E
330
397
100
AcDbEntity
  8
0
  6
Continuous
 62
     7
370
     0
100
AcDbLine
 10
57.7204561153
 20
95.1967334501
 30
0.0
 11
221.2204561153
 21
95.1967334501
 31
0.0
  0
MTEXT
  5
39F
330
397
100
AcDbEntity
  8
0
  6
Continuous
 62
     7
370
    18
100
AcDbMText
 10
133.4548312643
 20
99.7084707721
 30
0.0
 40
3.5
 41
0.0
 71
     1
 72
     1
  1
163.5
  7
SLDTEXTSTYLE0
 73
     1
 44
1.0
  0
ENDBLK
  5
399
330
397
100
AcDbEntity
  8
0
100
AcDbBlockEnd
  0
BLOCK
  5
3A2
330
3A1
100
AcDbEntity
  8
0
100
AcDbBlockBegin
  2
_D_10
 70
     0
 10
0.0
 20
0.0
 30
0.0
  3
_D_10
  1

  0
SOLID
  5
3A4
330
3A1
100
AcDbEntity
  8
0
  6
Continuous
 62
     7
370
    18
100
AcDbTrace
 10
50.2204561153
 20
82.9785707718
 30
0.0
 11
53.7204561153
 21
82.4401092333
 31
0.0
 12
53.7204561153
 22
83.5170323103
 32
0.0
 13
53.7204561153
 23
83.5170323103
 33
0.0
  0
SOLID
  5
3A5
330
3A1
100
AcDbEntity
  8
0
  6
Continuous
 62
     7
370
    18
100
AcDbTrace
 10
228.7204561153
 20
82.9785707718
 30
0.0
 11
225.2204561153
 21
83.5170323103
 31
0.0
 12
225.2204561153
 22
82.4401092333
 32
0.0
 13
225.2204561153
 23
82.4401092333
 33
0.0
  0
LINE
  5
3A6
330
3A1
100
AcDbEntity
  8
0
  6
Continuous
 62
     7
370
     0
100
AcDbLine
 10
50.2204561153
 20
111.8785707718
 30
0.0
 11
50.2204561153
 21
81.9785707718
 31
0.0
  0
LINE
  5
3A7
330
3A1
100
AcDbEntity
  8
0
  6
Continuous
 62
     7
370
     0
100
AcDbLine
 10
228.7204561153
 20
104.1285707718
 30
0.0
 11
228.7204561153
 21
81.9785707718
 31
0.0
  0
LINE
  5
3A8
330
3A1
100
AcDbEntity
  8
0
  6
Continuous
 62
     7
370
     0
100
AcDbLine
 10
50.2204561153
 20
82.9785707718
 30
0.0
 11
228.7204561153
 21
82.9785707718
 31
0.0
  0
MTEXT
  5
3A9
330
3A1
100
AcDbEntity
  8
0
  6
Continuous
 62
     7
370
    18
100
AcDbMText
 10
133.4548312643
 20
87.4903080938
 30
0.0
 40
3.5
 41
0.0
 71
     1
 72
     1
  1
178.5
  7
SLDTEXTSTYLE0
 73
     1
 44
1.0
  0
ENDBLK
  5
3A3
330
3A1
100
AcDbEntity
  8
0
100
AcDbBlockEnd
  0
BLOCK
  5
3AC
330
3AB
100
AcDbEntity
  8
0
100
AcDbBlockBegin
  2
_D_11
 70
     0
 10
0.0
 20
0.0
 30
0.0
  3
_D_11
  1

  0
SOLID
  5
3AE
330
3AB
100
AcDbEntity
  8
0
  6
Continuous
 62
     7
370
    18
100
AcDbTrace
 10
250.3664488266
 20
106.7285707718
 30
0.0
 11
250.904910365
 21
110.2285707718
 31
0.0
 12
249.8279872881
 22
110.2285707718
 32
0.0
 13
249.8279872881
 23
110.2285707718
 33
0.0
  0
SOLID
  5
3AF
330
3AB
100
AcDbEntity
  8
0
  6
Continuous
 62
     7
370
    18
100
AcDbTrace
 10
250.3664488266
 20
117.2285707718
 30
0.0
 11
249.8279872881
 21
113.7285707718
 31
0.0
 12
250.904910365
 22
113.7285707718
 32
0.0
 13
250.904910365
 23
113.7285707718
 33
0.0
  0
LINE
  5
3B0
330
3AB
100
AcDbEntity
  8
0
  6
Continuous
 62
     7
370
     0
100
AcDbLine
 10
228.8204561153
 20
106.7285707718
 30
0.0
 11
251.3664488266
 21
106.7285707718
 31
0.0
  0
LINE
  5
3B1
330
3AB
100
AcDbEntity
  8
0
  6
Continuous
 62
     7
370
     0
100
AcDbLine
 10
228.8204561153
 20
117.2285707718
 30
0.0
 11
251.3664488266
 21
117.2285707718
 31
0.0
  0
LINE
  5
3B2
330
3AB
100
AcDbEntity
  8
0
  6
Continuous
 62
     7
370
     0
100
AcDbLine
 10
250.3664488266
 20
106.7285707718
 30
0.0
 11
250.3664488266
 21
117.2285707718
 31
0.0
  0
MTEXT
  5
3B3
330
3AB
100
AcDbEntity
  8
0
  6
Continuous
 62
     7
370
    18
100
AcDbMText
 10
245.8547115045
 20
107.2997514432
 30
0.0
 40
3.5
 41
0.0
 71
     1
 72
     1
  1
10.5
  7
SLDTEXTSTYLE0
 11
-2.969274471999683E-14
 21
1.0
 31
0.0
 73
     1
 44
1.0
  0
ENDBLK
  5
3AD
330
3AB
100
AcDbEntity
  8
0
100
AcDbBlockEnd
  0
BLOCK
  5
3B6
330
3B5
100
AcDbEntity
  8
0
100
AcDbBlockBegin
  2
_D_12
 70
     0
 10
0.0
 20
0.0
 30
0.0
  3
_D_12
  1

  0
SOLID
  5
3B8
330
3B5
100
AcDbEntity
  8
0
  6
Continuous
 62
     7
370
    18
100
AcDbTrace
 10
264.4815203251
 20
102.9785707718
 30
0.0
 11
265.0199818636
 21
106.4785707718
 31
0.0
 12
263.9430587867
 22
106.4785707718
 32
0.0
 13
263.9430587867
 23
106.4785707718
 33
0.0
  0
SOLID
  5
3B9
330
3B5
100
AcDbEntity
  8
0
  6
Continuous
 62
     7
370
    18
100
AcDbTrace
 10
264.4815203251
 20
134.9785707718
 30
0.0
 11
263.9430587867
 21
131.4785707718
 31
0.0
 12
265.0199818636
 22
131.4785707718
 32
0.0
 13
265.0199818636
 23
131.4785707718
 33
0.0
  0
LINE
  5
3BA
330
3B5
100
AcDbEntity
  8
0
  6
Continuous
 62
     7
370
     0
100
AcDbLine
 10
237.0704561153
 20
102.9785707718
 30
0.0
 11
265.4815203251
 21
102.9785707718
 31
0.0
  0
LINE
  5
3BB
330
3B5
100
AcDbEntity
  8
0
  6
Continuous
 62
     7
370
     0
100
AcDbLine
 10
239.0704561153
 20
134.9785707718
 30
0.0
 11
265.4815203251
 21
134.9785707718
 31
0.0
  0
LINE
  5
3BC
330
3B5
100
AcDbEntity
  8
0
  6
Continuous
 62
     7
370
     0
100
AcDbLine
 10
264.4815203251
 20
102.9785707718
 30
0.0
 11
264.4815203251
 21
134.9785707718
 31
0.0
  0
MTEXT
  5
3BD
330
3B5
100
AcDbEntity
  8
0
  6
Continuous
 62
     7
370
    18
100
AcDbMText
 10
259.9697830031
 20
116.3049597269
 30
0.0
 40
3.5
 41
0.0
 71
     1
 72
     1
  1
32
  7
SLDTEXTSTYLE0
 11
6.123233995736766E-17
 21
1.0
 31
0.0
 73
     1
 44
1.0
  0
ENDBLK
  5
3B7
330
3B5
100
AcDbEntity
  8
0
100
AcDbBlockEnd
  0
BLOCK
  5
3C0
330
3BF
100
AcDbEntity
  8
0
100
AcDbBlockBegin
  2
_D_13
 70
     0
 10
0.0
 20
0.0
 30
0.0
  3
_D_13
  1

  0
SOLID
  5
3C2
330
3BF
100
AcDbEntity
  8
0
  6
Continuous
 62
     7
370
    18
100
AcDbTrace
 10
76.9704561153
 20
105.8373258105
 30
0.0
 11
80.4704561153
 21
105.2988642721
 31
0.0
 12
80.4704561153
 22
106.375787349
 32
0.0
 13
80.4704561153
 23
106.375787349
 33
0.0
  0
SOLID
  5
3C3
330
3BF
100
AcDbEntity
  8
0
  6
Continuous
 62
     7
370
    18
100
AcDbTrace
 10
201.9704561153
 20
105.8373258105
 30
0.0
 11
198.4704561153
 21
106.375787349
 31
0.0
 12
198.4704561153
 22
105.2988642721
 32
0.0
 13
198.4704561153
 23
105.2988642721
 33
0.0
  0
LINE
  5
3C4
330
3BF
100
AcDbEntity
  8
0
  6
Continuous
 62
     7
370
     0
100
AcDbLine
 10
76.9704561153
 20
114.8785707718
 30
0.0
 11
76.9704561153
 21
104.8373258105
 31
0.0
  0
LINE
  5
3C5
330
3BF
100
AcDbEntity
  8
0
  6
Continuous
 62
     7
370
     0
100
AcDbLine
 10
201.9704561153
 20
114.8785707718
 30
0.0
 11
201.9704561153
 21
104.8373258105
 31
0.0
  0
LINE
  5
3C6
330
3BF
100
AcDbEntity
  8
0
  6
Continuous
 62
     7
370
     0
100
AcDbLine
 10
76.9704561153
 20
105.8373258105
 30
0.0
 11
201.9704561153
 21
105.8373258105
 31
0.0
  0
MTEXT
  5
3C7
330
3BF
100
AcDbEntity
  8
0
  6
Continuous
 62
     7
370
    18
100
AcDbMText
 10
135.460039548
 20
110.3490631326
 30
0.0
 40
3.5
 41
0.0
 71
     1
 72
     1
  1
125
  7
SLDTEXTSTYLE0
 73
     1
 44
1.0
  0
ENDBLK
  5
3C1
330
3BF
100
AcDbEntity
  8
0
100
AcDbBlockEnd
  0
BLOCK
  5
3C9
330
3C8
100
AcDbEntity
  8
0
100
AcDbBlockBegin
  2
SW_CENTERMARKSYMBOL_0
 70
     0
 10
0.0
 20
0.0
 30
0.0
  3
SW_CENTERMARKSYMBOL_0
  1

  0
LINE
  5
3CB
330
3C8
100
AcDbEntity
  8
0
  6
Continuous
 62
     0
370
    18
100
AcDbLine
 10
0.0
 20
0.0
 30
0.0
 11
0.0
 21
-2.5
 31
0.0
  0
LINE
  5
3CC
330
3C8
100
AcDbEntity
  8
0
  6
Continuous
 62
     0
370
    18
100
AcDbLine
 10
0.0
 20
0.0
 30
0.0
 11
2.5
 21
0.0
 31
0.0
  0
LINE
  5
3CD
330
3C8
100
AcDbEntity
  8
0
  6
Continuous
 62
     0
370
    18
100
AcDbLine
 10
0.0
 20
0.0
 30
0.0
 11
0.0
 21
2.5
 31
0.0
  0
LINE
  5
3CE
330
3C8
100
AcDbEntity
  8
0
  6
Continuous
 62
     0
370
    18
100
AcDbLine
 10
0.0
 20
0.0
 30
0.0
 11
-2.5
 21
0.0
 31
0.0
  0
LINE
  5
3CF
330
3C8
100
AcDbEntity
  8
0
  6
Continuous
 62
     0
370
    18
100
AcDbLine
 10
0.0
 20
-5.0
 30
0.0
 11
0.0
 21
-7.75
 31
0.0
  0
LINE
  5
3D0
330
3C8
100
AcDbEntity
  8
0
  6
Continuous
 62
     0
370
    18
100
AcDbLine
 10
5.0
 20
0.0
 30
0.0
 11
7.75
 21
0.0
 31
0.0
  0
LINE
  5
3D1
330
3C8
100
AcDbEntity
  8
0
  6
Continuous
 62
     0
370
    18
100
AcDbLine
 10
0.0
 20
5.0
 30
0.0
 11
0.0
 21
7.75
 31
0.0
  0
LINE
  5
3D2
330
3C8
100
AcDbEntity
  8
0
  6
Continuous
 62
     0
370
    18
100
AcDbLine
 10
-5.0
 20
0.0
 30
0.0
 11
-7.75
 21
0.0
 31
0.0
  0
LINE
  5
3D3
330
3C8
100
AcDbEntity
  8
0
  6
Continuous
 62
     0
370
    18
100
AcDbLine
 10
-7.5
 20
0.0
 30
0.0
 11
-7.5
 21
-2.5
 31
0.0
  0
LINE
  5
3D4
330
3C8
100
AcDbEntity
  8
0
  6
Continuous
 62
     0
370
    18
100
AcDbLine
 10
-7.5
 20
0.0
 30
0.0
 11
-5.0
 21
0.0
 31
0.0
  0
LINE
  5
3D5
330
3C8
100
AcDbEntity
  8
0
  6
Continuous
 62
     0
370
    18
100
AcDbLine
 10
-7.5
 20
0.0
 30
0.0
 11
-7.5
 21
2.5
 31
0.0
  0
LINE
  5
3D6
330
3C8
100
AcDbEntity
  8
0
  6
Continuous
 62
     0
370
    18
100
AcDbLine
 10
-7.5
 20
0.0
 30
0.0
 11
-10.0
 21
0.0
 31
0.0
  0
LINE
  5
3D7
330
3C8
100
AcDbEntity
  8
0
  6
Continuous
 62
     0
370
    18
100
AcDbLine
 10
-7.5
 20
-5.0
 30
0.0
 11
-7.5
 21
-7.75
 31
0.0
  0
LINE
  5
3D8
330
3C8
100
AcDbEntity
  8
0
  6
Continuous
 62
     0
370
    18
100
AcDbLine
 10
-2.5
 20
0.0
 30
0.0
 11
0.25
 21
0.0
 31
0.0
  0
LINE
  5
3D9
330
3C8
100
AcDbEntity
  8
0
  6
Continuous
 62
     0
370
    18
100
AcDbLine
 10
-7.5
 20
5.0
 30
0.0
 11
-7.5
 21
7.75
 31
0.0
  0
LINE
  5
3DA
330
3C8
100
AcDbEntity
  8
0
  6
Continuous
 62
     0
370
    18
100
AcDbLine
 10
-12.5
 20
0.0
 30
0.0
 11
-15.25
 21
0.0
 31
0.0
  0
ENDBLK
  5
3CA
330
3C8
100
AcDbEntity
  8
0
100
AcDbBlockEnd
  0
BLOCK
  5
3DD
330
3DC
100
AcDbEntity
  8
0
100
AcDbBlockBegin
  2
SW_CENTERMARKSYMBOL_1
 70
     0
 10
0.0
 20
0.0
 30
0.0
  3
SW_CENTERMARKSYMBOL_1
  1

  0
LINE
  5
3DF
330
3DC
100
AcDbEntity
  8
0
  6
Continuous
 62
     0
370
    18
100
AcDbLine
 10
0.0
 20
0.0
 30
0.0
 11
0.0
 21
-2.5
 31
0.0
  0
LINE
  5
3E0
330
3DC
100
AcDbEntity
  8
0
  6
Continuous
 62
     0
370
    18
100
AcDbLine
 10
0.0
 20
0.0
 30
0.0
 11
2.5
 21
0.0
 31
0.0
  0
LINE
  5
3E1
330
3DC
100
AcDbEntity
  8
0
  6
Continuous
 62
     0
370
    18
100
AcDbLine
 10
0.0
 20
0.0
 30
0.0
 11
0.0
 21
2.5
 31
0.0
  0
LINE
  5
3E2
330
3DC
100
AcDbEntity
  8
0
  6
Continuous
 62
     0
370
    18
100
AcDbLine
 10
0.0
 20
0.0
 30
0.0
 11
-2.5
 21
0.0
 31
0.0
  0
LINE
  5
3E3
330
3DC
100
AcDbEntity
  8
0
  6
Continuous
 62
     0
370
    18
100
AcDbLine
 10
0.0
 20
-5.0
 30
0.0
 11
0.0
 21
-7.75
 31
0.0
  0
LINE
  5
3E4
330
3DC
100
AcDbEntity
  8
0
  6
Continuous
 62
     0
370
    18
100
AcDbLine
 10
5.0
 20
0.0
 30
0.0
 11
7.75
 21
0.0
 31
0.0
  0
LINE
  5
3E5
330
3DC
100
AcDbEntity
  8
0
  6
Continuous
 62
     0
370
    18
100
AcDbLine
 10
0.0
 20
5.0
 30
0.0
 11
0.0
 21
7.75
 31
0.0
  0
LINE
  5
3E6
330
3DC
100
AcDbEntity
  8
0
  6
Continuous
 62
     0
370
    18
100
AcDbLine
 10
-5.0
 20
0.0
 30
0.0
 11
-7.75
 21
0.0
 31
0.0
  0
LINE
  5
3E7
330
3DC
100
AcDbEntity
  8
0
  6
Continuous
 62
     0
370
    18
100
AcDbLine
 10
-7.5
 20
0.0
 30
0.0
 11
-7.5
 21
-2.5
 31
0.0
  0
LINE
  5
3E8
330
3DC
100
AcDbEntity
  8
0
  6
Continuous
 62
     0
370
    18
100
AcDbLine
 10
-7.5
 20
0.0
 30
0.0
 11
-5.0
 21
0.0
 31
0.0
  0
LINE
  5
3E9
330
3DC
100
AcDbEntity
  8
0
  6
Continuous
 62
     0
370
    18
100
AcDbLine
 10
-7.5
 20
0.0
 30
0.0
 11
-7.5
 21
2.5
 31
0.0
  0
LINE
  5
3EA
330
3DC
100
AcDbEntity
  8
0
  6
Continuous
 62
     0
370
    18
100
AcDbLine
 10
-7.5
 20
0.0
 30
0.0
 11
-10.0
 21
0.0
 31
0.0
  0
LINE
  5
3EB
330
3DC
100
AcDbEntity
  8
0
  6
Continuous
 62
     0
370
    18
100
AcDbLine
 10
-7.5
 20
-5.0
 30
0.0
 11
-7.5
 21
-7.75
 31
0.0
  0
LINE
  5
3EC
330
3DC
100
AcDbEntity
  8
0
  6
Continuous
 62
     0
370
    18
100
AcDbLine
 10
-2.5
 20
0.0
 30
0.0
 11
0.25
 21
0.0
 31
0.0
  0
LINE
  5
3ED
330
3DC
100
AcDbEntity
  8
0
  6
Continuous
 62
     0
370
    18
100
AcDbLine
 10
-7.5
 20
5.0
 30
0.0
 11
-7.5
 21
7.75
 31
0.0
  0
LINE
  5
3EE
330
3DC
100
AcDbEntity
  8
0
  6
Continuous
 62
     0
370
    18
100
AcDbLine
 10
-12.5
 20
0.0
 30
0.0
 11
-15.25
 21
0.0
 31
0.0
  0
ENDBLK
  5
3DE
330
3DC
100
AcDbEntity
  8
0
100
AcDbBlockEnd
  0
ENDSEC
  0
SECTION
  2
ENTITIES
  0
LINE
  5
F9
330
1F
100
AcDbEntity
  8
0
  6
CENTERX2
 62
     7
370
    18
100
AcDbLine
 10
352.6174545849
 20
46.9080238789
 30
0.0
 11
352.6174545849
 21
39.4621586124
 31
0.0
  0
LINE
  5
FA
330
1F
100
AcDbEntity
  8
0
  6
Continuous
 62
     7
370
    18
100
AcDbLine
 10
357.7661698132
 20
46.3720107039
 30
0.0
 11
357.7661698132
 21
39.9353173413
 31
0.0
  0
LINE
  5
FB
330
1F
100
AcDbEntity
  8
0
  6
Continuous
 62
     7
370
    18
100
AcDbLine
 10
364.6059427486
 20
44.7376225767
 30
0.0
 11
364.6059427486
 21
41.5697054685
 31
0.0
  0
LINE
  5
FC
330
1F
100
AcDbEntity
  8
0
  6
Continuous
 62
     7
370
    18
100
AcDbLine
 10
364.6059427486
 20
44.7376225767
 30
0.0
 11
357.7661698132
 21
46.3720107039
 31
0.0
  0
LINE
  5
FD
330
1F
100
AcDbEntity
  8
0
  6
Continuous
 62
     7
370
    18
100
AcDbLine
 10
15.0
 20
198.5
 30
0.0
 11
20.0
 21
198.5
 31
0.0
  0
LINE
  5
FE
330
1F
100
AcDbEntity
  8
0
  6
Continuous
 62
     7
370
    18
100
AcDbLine
 10
12.0
 20
148.5
 30
0.0
 11
0.0
 21
148.5
 31
0.0
  0
LINE
  5
FF
330
1F
100
AcDbEntity
  8
0
  6
Continuous
 62
     7
370
    18
100
AcDbLine
 10
357.7661698132
 20
39.9353173413
 30
0.0
 11
364.6059427486
 21
41.5697054685
 31
0.0
  0
LINE
  5
100
330
1F
100
AcDbEntity
  8
0
  6
CENTERX2
 62
     7
370
    18
100
AcDbLine
 10
348.6240467841
 20
43.1536640226
 30
0.0
 11
356.6108623857
 21
43.1536640226
 31
0.0
  0
LINE
  5
101
330
1F
100
AcDbEntity
  8
0
  6
CENTERX2
 62
     7
370
    18
100
AcDbLine
 10
357.1289238876
 20
43.1536640226
 30
0.0
 11
365.6255362296
 21
43.1536640226
 31
0.0
  0
LINE
  5
102
330
1F
100
AcDbEntity
  8
0
  6
Continuous
 62
     7
370
    18
100
AcDbLine
 10
0.0
 20
0.0
 30
0.0
 11
420.0
 21
0.0
 31
0.0
  0
LINE
  5
103
330
1F
100
AcDbEntity
  8
0
  6
Continuous
 62
     7
370
    18
100
AcDbLine
 10
0.0
 20
0.0
 30
0.0
 11
0.0
 21
297.0
 31
0.0
  0
LINE
  5
104
330
1F
100
AcDbEntity
  8
0
  6
Continuous
 62
     7
370
    18
100
AcDbLine
 10
0.0
 20
297.0
 30
0.0
 11
420.0
 21
297.0
 31
0.0
  0
LINE
  5
105
330
1F
100
AcDbEntity
  8
0
  6
Continuous
 62
     7
370
    18
100
AcDbLine
 10
420.0
 20
0.0
 30
0.0
 11
420.0
 21
297.0
 31
0.0
  0
LINE
  5
106
330
1F
100
AcDbEntity
  8
0
  6
Continuous
 62
     7
370
    25
100
AcDbLine
 10
228.0
 20
35.0
 30
0.0
 11
410.0
 21
35.0
 31
0.0
  0
LINE
  5
107
330
1F
100
AcDbEntity
  8
0
  6
Continuous
 62
     7
370
    18
100
AcDbLine
 10
410.0
 20
198.5
 30
0.0
 11
415.0
 21
198.5
 31
0.0
  0
LINE
  5
108
330
1F
100
AcDbEntity
  8
0
  6
Continuous
 62
     7
370
    18
100
AcDbLine
 10
15.0
 20
148.5
 30
0.0
 11
20.0
 21
148.5
 31
0.0
  0
LINE
  5
109
330
1F
100
AcDbEntity
  8
0
  6
Continuous
 62
     7
370
    18
100
AcDbLine
 10
228.0
 20
40.0
 30
0.0
 11
296.6
 21
40.0
 31
0.0
  0
LINE
  5
10A
330
1F
100
AcDbEntity
  8
0
  6
Continuous
 62
     7
370
    18
100
AcDbLine
 10
15.0
 20
248.5
 30
0.0
 11
20.0
 21
248.5
 31
0.0
  0
LINE
  5
10B
330
1F
100
AcDbEntity
  8
0
  6
Continuous
 62
     7
370
    35
100
AcDbLine
 10
20.0
 20
287.0
 30
0.0
 11
20.0
 21
10.0
 31
0.0
  0
LINE
  5
10C
330
1F
100
AcDbEntity
  8
0
  6
Continuous
 62
     7
370
    35
100
AcDbLine
 10
410.0
 20
287.0
 30
0.0
 11
20.0
 21
287.0
 31
0.0
  0
LINE
  5
10D
330
1F
100
AcDbEntity
  8
0
  6
Continuous
 62
     7
370
    35
100
AcDbLine
 10
410.0
 20
5.0
 30
0.0
 11
410.0
 21
287.0
 31
0.0
  0
LINE
  5
10E
330
1F
100
AcDbEntity
  8
0
  6
Continuous
 62
     7
370
    35
100
AcDbLine
 10
20.0
 20
10.0
 30
0.0
 11
415.0
 21
10.0
 31
0.0
  0
LINE
  5
10F
330
1F
100
AcDbEntity
  8
0
  6
Continuous
 62
     7
370
    18
100
AcDbLine
 10
410.0
 20
148.5
 30
0.0
 11
415.0
 21
148.5
 31
0.0
  0
LINE
  5
110
330
1F
100
AcDbEntity
  8
0
  6
Continuous
 62
     7
370
    18
100
AcDbLine
 10
228.0
 20
50.0
 30
0.0
 11
296.6
 21
50.0
 31
0.0
  0
LINE
  5
111
330
1F
100
AcDbEntity
  8
0
  6
Continuous
 62
     7
370
    18
100
AcDbLine
 10
15.0
 20
98.5
 30
0.0
 11
20.0
 21
98.5
 31
0.0
  0
LINE
  5
112
330
1F
100
AcDbEntity
  8
0
  6
Continuous
 62
     7
370
    18
100
AcDbLine
 10
296.6
 20
45.0
 30
0.0
 11
228.0
 21
45.0
 31
0.0
  0
LINE
  5
113
330
1F
100
AcDbEntity
  8
0
  6
Continuous
 62
     7
370
    18
100
AcDbLine
 10
65.0
 20
292.0
 30
0.0
 11
65.0
 21
287.0
 31
0.0
  0
LINE
  5
114
330
1F
100
AcDbEntity
  8
0
  6
Continuous
 62
     7
370
    18
100
AcDbLine
 10
230.0
 20
292.0
 30
0.0
 11
230.0
 21
297.0
 31
0.0
  0
LINE
  5
115
330
1F
100
AcDbEntity
  8
0
  6
Continuous
 62
     7
370
    25
100
AcDbLine
 10
296.6
 20
55.0
 30
0.0
 11
296.6
 21
35.0
 31
0.0
  0
LINE
  5
116
330
1F
100
AcDbEntity
  8
0
  6
Continuous
 62
     7
370
    18
100
AcDbLine
 10
410.0
 20
98.5
 30
0.0
 11
415.0
 21
98.5
 31
0.0
  0
LINE
  5
117
330
1F
100
AcDbEntity
  8
0
100
AcDbLine
 10
230.0
 20
5.0
 30
0.0
 11
230.0
 21
0.0
 31
0.0
  0
LINE
  5
118
330
1F
100
AcDbEntity
  8
0
  6
Continuous
 62
     7
370
    18
100
AcDbLine
 10
125.0
 20
292.0
 30
0.0
 11
125.0
 21
297.0
 31
0.0
  0
LINE
  5
119
330
1F
100
AcDbEntity
  8
0
  6
Continuous
 62
     7
370
    18
100
AcDbLine
 10
125.0
 20
5.0
 30
0.0
 11
125.0
 21
0.0
 31
0.0
  0
LINE
  5
11A
330
1F
100
AcDbEntity
  8
0
  6
Continuous
 62
     7
370
    25
100
AcDbLine
 10
410.0
 20
55.0
 30
0.0
 11
228.0
 21
55.0
 31
0.0
  0
LINE
  5
11B
330
1F
100
AcDbEntity
  8
0
  6
Continuous
 62
     7
370
    18
100
AcDbLine
 10
228.0
 20
55.0
 30
0.0
 11
410.0
 21
55.0
 31
0.0
  0
LINE
  5
11C
330
1F
100
AcDbEntity
  8
0
  6
Continuous
 62
     7
370
    18
100
AcDbLine
 10
410.0
 20
55.0
 30
0.0
 11
228.0
 21
55.0
 31
0.0
  0
LINE
  5
11D
330
1F
100
AcDbEntity
  8
0
  6
Continuous
 62
     7
370
    18
100
AcDbLine
 10
268.0
 20
76.5
 30
0.0
 11
268.0
 21
55.0
 31
0.0
  0
LINE
  5
11E
330
1F
100
AcDbEntity
  8
0
  6
Continuous
 62
     7
370
    18
100
AcDbLine
 10
271.6
 20
55.0
 30
0.0
 11
271.6
 21
40.0
 31
0.0
  0
LINE
  5
11F
330
1F
100
AcDbEntity
  8
0
  6
Continuous
 62
     7
370
    18
100
AcDbLine
 10
247.0
 20
55.0
 30
0.0
 11
247.0
 21
35.0
 31
0.0
  0
LINE
  5
120
330
1F
100
AcDbEntity
  8
0
  6
Continuous
 62
     7
370
    35
100
AcDbLine
 10
228.0
 20
76.5
 30
0.0
 11
228.0
 21
10.0
 31
0.0
  0
LINE
  5
121
330
1F
100
AcDbEntity
  8
0
  6
Continuous
 62
     7
370
    18
100
AcDbLine
 10
15.0
 20
292.0
 30
0.0
 11
415.0
 21
292.0
 31
0.0
  0
LINE
  5
122
330
1F
100
AcDbEntity
  8
0
  6
Continuous
 62
     7
370
    18
100
AcDbLine
 10
228.0
 20
65.75
 30
0.0
 11
310.0
 21
65.75
 31
0.0
  0
LINE
  5
123
330
1F
100
AcDbEntity
  8
0
  6
Continuous
 62
     7
370
    35
100
AcDbLine
 10
228.0
 20
76.5
 30
0.0
 11
410.0
 21
76.5
 31
0.0
  0
LINE
  5
124
330
1F
100
AcDbEntity
  8
0
  6
Continuous
 62
     7
370
    18
100
AcDbLine
 10
15.0
 20
48.5
 30
0.0
 11
20.0
 21
48.5
 31
0.0
  0
LINE
  5
125
330
1F
100
AcDbEntity
  8
0
  6
Continuous
 62
     7
370
    18
100
AcDbLine
 10
410.0
 20
48.5
 30
0.0
 11
415.0
 21
48.5
 31
0.0
  0
LINE
  5
126
330
1F
100
AcDbEntity
  8
0
  6
Continuous
 62
     7
370
    18
100
AcDbLine
 10
332.6610845472
 20
20.0
 30
0.0
 11
332.6610845472
 21
10.0
 31
0.0
  0
LINE
  5
127
330
1F
100
AcDbEntity
  8
0
  6
Continuous
 62
     7
370
    18
100
AcDbLine
 10
410.0
 20
248.5
 30
0.0
 11
415.0
 21
248.5
 31
0.0
  0
LINE
  5
128
330
1F
100
AcDbEntity
  8
0
  6
Continuous
 62
     7
370
    18
100
AcDbLine
 10
65.0
 20
10.0
 30
0.0
 11
65.0
 21
5.0
 31
0.0
  0
LINE
  5
129
330
1F
100
AcDbEntity
  8
0
  6
Continuous
 62
     7
370
    18
100
AcDbLine
 10
115.0
 20
10.0
 30
0.0
 11
115.0
 21
5.0
 31
0.0
  0
LINE
  5
12A
330
1F
100
AcDbEntity
  8
0
  6
Continuous
 62
     7
370
    18
100
AcDbLine
 10
115.0
 20
292.0
 30
0.0
 11
115.0
 21
287.0
 31
0.0
  0
LINE
  5
12B
330
1F
100
AcDbEntity
  8
0
  6
Continuous
 62
     7
370
    18
100
AcDbLine
 10
165.0
 20
10.0
 30
0.0
 11
165.0
 21
5.0
 31
0.0
  0
LINE
  5
12C
330
1F
100
AcDbEntity
  8
0
  6
Continuous
 62
     7
370
    18
100
AcDbLine
 10
165.0
 20
292.0
 30
0.0
 11
165.0
 21
287.0
 31
0.0
  0
LINE
  5
12D
330
1F
100
AcDbEntity
  8
0
  6
Continuous
 62
     7
370
    18
100
AcDbLine
 10
215.0
 20
10.0
 30
0.0
 11
215.0
 21
5.0
 31
0.0
  0
LINE
  5
12E
330
1F
100
AcDbEntity
  8
0
  6
Continuous
 62
     7
370
    18
100
AcDbLine
 10
215.0
 20
292.0
 30
0.0
 11
215.0
 21
287.0
 31
0.0
  0
LINE
  5
12F
330
1F
100
AcDbEntity
  8
0
  6
Continuous
 62
     7
370
    18
100
AcDbLine
 10
265.0
 20
10.0
 30
0.0
 11
265.0
 21
5.0
 31
0.0
  0
LINE
  5
130
330
1F
100
AcDbEntity
  8
0
  6
Continuous
 62
     7
370
    18
100
AcDbLine
 10
265.0
 20
292.0
 30
0.0
 11
265.0
 21
287.0
 31
0.0
  0
LINE
  5
131
330
1F
100
AcDbEntity
  8
0
  6
Continuous
 62
     7
370
    18
100
AcDbLine
 10
347.6610845472
 20
20.0
 30
0.0
 11
347.6610845472
 21
10.0
 31
0.0
  0
LINE
  5
132
330
1F
100
AcDbEntity
  8
0
  6
Continuous
 62
     7
370
    18
100
AcDbLine
 10
362.6610845472
 20
20.0
 30
0.0
 11
362.6610845472
 21
10.0
 31
0.0
  0
LINE
  5
133
330
1F
100
AcDbEntity
  8
0
  6
Continuous
 62
     7
370
    25
100
AcDbLine
 10
327.6610845472
 20
10.0
 30
0.0
 11
327.6610845472
 21
55.0
 31
0.0
  0
LINE
  5
134
330
1F
100
AcDbEntity
  8
0
  6
Continuous
 62
     7
370
    18
100
AcDbLine
 10
20.0
 20
292.0
 30
0.0
 11
20.0
 21
297.0
 31
0.0
  0
LINE
  5
135
330
1F
100
AcDbEntity
  8
0
  6
Continuous
 62
     7
370
    18
100
AcDbLine
 10
20.0
 20
5.0
 30
0.0
 11
20.0
 21
0.0
 31
0.0
  0
LINE
  5
136
330
1F
100
AcDbEntity
  8
0
  6
Continuous
 62
     7
370
    18
100
AcDbLine
 10
315.0
 20
10.0
 30
0.0
 11
315.0
 21
5.0
 31
0.0
  0
LINE
  5
137
330
1F
100
AcDbEntity
  8
0
  6
Continuous
 62
     7
370
    18
100
AcDbLine
 10
315.0
 20
292.0
 30
0.0
 11
315.0
 21
287.0
 31
0.0
  0
LINE
  5
138
330
1F
100
AcDbEntity
  8
0
  6
Continuous
 62
     7
370
    18
100
AcDbLine
 10
365.0
 20
10.0
 30
0.0
 11
365.0
 21
5.0
 31
0.0
  0
LINE
  5
139
330
1F
100
AcDbEntity
  8
0
  6
Continuous
 62
     7
370
    18
100
AcDbLine
 10
365.0
 20
292.0
 30
0.0
 11
365.0
 21
287.0
 31
0.0
  0
LINE
  5
13A
330
1F
100
AcDbEntity
  8
0
  6
Continuous
 62
     7
370
    18
100
AcDbLine
 10
15.0
 20
292.0
 30
0.0
 11
15.0
 21
5.0
 31
0.0
  0
LINE
  5
13B
330
1F
100
AcDbEntity
  8
0
  6
Continuous
 62
     7
370
    18
100
AcDbLine
 10
15.0
 20
5.0
 30
0.0
 11
415.0
 21
5.0
 31
0.0
  0
LINE
  5
13C
330
1F
100
AcDbEntity
  8
0
  6
Continuous
 62
     7
370
    18
100
AcDbLine
 10
415.0
 20
292.0
 30
0.0
 11
415.0
 21
5.0
 31
0.0
  0
LINE
  5
13D
330
1F
100
AcDbEntity
  8
0
  6
Continuous
 62
     7
370
    18
100
AcDbLine
 10
347.6610845472
 20
44.213444
 30
0.0
 11
327.6610845472
 21
44.213444
 31
0.0
  0
LINE
  5
13E
330
1F
100
AcDbEntity
  8
0
  6
Continuous
 62
     7
370
    18
100
AcDbLine
 10
347.6610845472
 20
35.0
 30
0.0
 11
347.6610845472
 21
55.0
 31
0.0
  0
LINE
  5
13F
330
1F
100
AcDbEntity
  8
0
  6
Continuous
 62
     7
370
    18
100
AcDbLine
 10
370.057188
 20
55.012032
 30
0.0
 11
370.057188
 21
35.0
 31
0.0
  0
LINE
  5
140
330
1F
100
AcDbEntity
  8
0
  6
Continuous
 62
     7
370
    18
100
AcDbLine
 10
398.0
 20
35.0
 30
0.0
 11
398.0
 21
20.0
 31
0.0
  0
LINE
  5
141
330
1F
100
AcDbEntity
  8
0
  6
Continuous
 62
     7
370
    18
100
AcDbLine
 10
410.0
 20
15.0
 30
0.0
 11
327.6610845472
 21
15.0
 31
0.0
  0
LINE
  5
142
330
1F
100
AcDbEntity
  8
0
  6
Continuous
 62
     7
370
    18
100
AcDbLine
 10
327.6610845472
 20
20.0
 30
0.0
 11
410.0
 21
20.0
 31
0.0
  0
LINE
  5
143
330
1F
100
AcDbEntity
  8
0
  6
Continuous
 62
     7
370
    18
100
AcDbLine
 10
341.485486
 20
20.0
 30
0.0
 11
341.485486
 21
27.564675
 31
0.0
  0
LINE
  5
144
330
1F
100
AcDbEntity
  8
0
  6
Continuous
 62
     7
370
    25
100
AcDbLine
 10
310.0
 20
76.5
 30
0.0
 11
310.0
 21
55.0
 31
0.0
  0
CIRCLE
  5
145
330
1F
100
AcDbEntity
  8
0
  6
Continuous
 62
     7
370
    18
100
AcDbCircle
 10
11.0
 20
108.5
 30
0.0
 40
2.750000000000001
  0
CIRCLE
  5
146
330
1F
100
AcDbEntity
  8
0
  6
Continuous
 62
     7
370
    18
100
AcDbCircle
 10
11.0
 20
188.5
 30
0.0
 40
2.750000000000001
  0
CIRCLE
  5
147
330
1F
100
AcDbEntity
  8
0
  6
Continuous
 62
     7
370
    18
100
AcDbCircle
 10
352.6174545849
 20
43.1536640226
 30
0.0
 40
3.218346681300138
  0
CIRCLE
  5
148
330
1F
100
AcDbEntity
  8
0
  6
Continuous
 62
     7
370
    18
100
AcDbCircle
 10
352.6174545849
 20
43.1536640226
 30
0.0
 40
1.583958554121555
  0
INSERT
  5
149
330
1F
100
AcDbEntity
  8
0
  6
Continuous
 62
     7
100
AcDbBlockReference
  2
ACO-Logo
 10
314.3510726297
 20
57.6366106772
 30
0.0
  0
POINT
  5
14A
330
1F
100
AcDbEntity
  8
0
100
AcDbPoint
 10
0.0
 20
0.0
 30
0.0
  0
POINT
  5
14B
330
1F
100
AcDbEntity
  8
0
100
AcDbPoint
 10
410.0
 20
10.0
 30
0.0
  0
MTEXT
  5
14C
330
1F
100
AcDbEntity
  8
0
  6
Continuous
 62
     7
370
     0
100
AcDbMText
 10
262.6613949581
 20
274.8835420388
 30
0.0
 40
5.8208333333
 41
0.0
 71
     1
 72
     1
  1
2x M8 Schrauben & Muttern
  7
SLDTEXTSTYLE0
 73
     1
 44
1.0
  0
MTEXT
  5
14D
330
1F
100
AcDbEntity
  8
0
  6
Continuous
 62
     7
370
    18
100
AcDbMText
 10
17.7359443114
 20
124.8017866468
 30
0.0
 40
2.0
 41
0.0
 71
     2
 72
     1
  1
D
  7
SLDTEXTSTYLE0
 73
     1
 44
1.0
  0
MTEXT
  5
14E
330
1F
100
AcDbEntity
  8
0
  6
Continuous
 62
     7
370
    18
100
AcDbMText
 10
17.6274822413
 20
174.7261854936
 30
0.0
 40
2.0
 41
0.0
 71
     2
 72
     1
  1
C
  7
SLDTEXTSTYLE0
 73
     1
 44
1.0
  0
MTEXT
  5
14F
330
1F
100
AcDbEntity
  8
0
  6
Continuous
 62
     7
370
    18
100
AcDbMText
 10
17.5516905072
 20
224.4926420442
 30
0.0
 40
2.0
 41
0.0
 71
     2
 72
     1
  1
B
  7
SLDTEXTSTYLE0
 73
     1
 44
1.0
  0
MTEXT
  5
150
330
1F
100
AcDbEntity
  8
0
  6
Continuous
 62
     7
370
    18
100
AcDbMText
 10
290.0344258799
 20
290.5428789914
 30
0.0
 40
2.0
 41
0.0
 71
     2
 72
     1
  1
6
  7
SLDTEXTSTYLE0
 73
     1
 44
1.0
  0
MTEXT
  5
151
330
1F
100
AcDbEntity
  8
0
  6
Continuous
 62
     7
370
    18
100
AcDbMText
 10
240.0417859812
 20
290.6369260235
 30
0.0
 40
2.0
 41
0.0
 71
     2
 72
     1
  1
5
  7
SLDTEXTSTYLE0
 73
     1
 44
1.0
  0
MTEXT
  5
152
330
1F
100
AcDbEntity
  8
0
  6
Continuous
 62
     7
370
    18
100
AcDbMText
 10
190.0300404524
 20
290.6343268032
 30
0.0
 40
2.0
 41
0.0
 71
     2
 72
     1
  1
4
  7
SLDTEXTSTYLE0
 73
     1
 44
1.0
  0
MTEXT
  5
153
330
1F
100
AcDbEntity
  8
0
  6
Continuous
 62
     7
370
    18
100
AcDbMText
 10
140.0165868337
 20
290.6378887952
 30
0.0
 40
2.0
 41
0.0
 71
     2
 72
     1
  1
3
  7
SLDTEXTSTYLE0
 73
     1
 44
1.0
  0
MTEXT
  5
154
330
1F
100
AcDbEntity
  8
0
  6
Continuous
 62
     7
370
    18
100
AcDbMText
 10
90.033223
 20
290.5566702875
 30
0.0
 40
2.0
 41
0.0
 71
     2
 72
     1
  1
2
  7
SLDTEXTSTYLE0
 73
     1
 44
1.0
  0
MTEXT
  5
155
330
1F
100
AcDbEntity
  8
0
  6
Continuous
 62
     7
370
    18
100
AcDbMText
 10
40.0509551097
 20
290.5530165805
 30
0.0
 40
2.0
 41
0.0
 71
     2
 72
     1
  1
1
  7
SLDTEXTSTYLE0
 73
     1
 44
1.0
  0
MTEXT
  5
156
330
1F
100
AcDbEntity
  8
0
  6
Continuous
 62
     7
370
    18
100
AcDbMText
 10
17.5609786315
 20
271.2966048816
 30
0.0
 40
2.0
 41
0.0
 71
     2
 72
     1
  1
A
  7
SLDTEXTSTYLE0
 73
     1
 44
1.0
  0
MTEXT
  5
157
330
1F
100
AcDbEntity
  8
0
  6
Continuous
 62
     7
370
    18
100
AcDbMText
 10
89.9333968896
 20
8.5904490253
 30
0.0
 40
2.0
 41
0.0
 71
     2
 72
     1
  1
2
  7
SLDTEXTSTYLE0
 73
     1
 44
1.0
  0
MTEXT
  5
158
330
1F
100
AcDbEntity
  8
0
  6
Continuous
 62
     7
370
    18
100
AcDbMText
 10
39.9009486579
 20
8.6623118453
 30
0.0
 40
2.0
 41
0.0
 71
     2
 72
     1
  1
1
  7
SLDTEXTSTYLE0
 73
     1
 44
1.0
  0
MTEXT
  5
159
330
1F
100
AcDbEntity
  8
0
  6
Continuous
 62
     7
370
    18
100
AcDbMText
 10
190.0227230239
 20
8.7073169286
 30
0.0
 40
2.0
 41
0.0
 71
     2
 72
     1
  1
4
  7
SLDTEXTSTYLE0
 73
     1
 44
1.0
  0
MTEXT
  5
15A
330
1F
100
AcDbEntity
  8
0
  6
Continuous
 62
     7
370
    18
100
AcDbMText
 10
140.0453427777
 20
8.5647154541
 30
0.0
 40
2.0
 41
0.0
 71
     2
 72
     1
  1
3
  7
SLDTEXTSTYLE0
 73
     1
 44
1.0
  0
MTEXT
  5
15B
330
1F
100
AcDbEntity
  8
0
  6
Continuous
 62
     7
370
    18
100
AcDbMText
 10
239.8749782531
 20
8.5637526825
 30
0.0
 40
2.0
 41
0.0
 71
     2
 72
     1
  1
5
  7
SLDTEXTSTYLE0
 73
     1
 44
1.0
  0
MTEXT
  5
15C
330
1F
100
AcDbEntity
  8
0
  6
Continuous
 62
     7
370
    18
100
AcDbMText
 10
412.6717254925
 20
224.51208263
 30
0.0
 40
2.0
 41
0.0
 71
     2
 72
     1
  1
B
  7
SLDTEXTSTYLE0
 73
     1
 44
1.0
  0
MTEXT
  5
15D
330
1F
100
AcDbEntity
  8
0
  6
Continuous
 62
     7
370
    18
100
AcDbMText
 10
412.5951211154
 20
271.2798202564
 30
0.0
 40
2.0
 41
0.0
 71
     2
 72
     1
  1
A
  7
SLDTEXTSTYLE0
 73
     1
 44
1.0
  0
MTEXT
  5
15E
330
1F
100
AcDbEntity
  8
0
  6
Continuous
 62
     7
370
    18
100
AcDbMText
 10
412.6491448679
 20
174.7279841048
 30
0.0
 40
2.0
 41
0.0
 71
     2
 72
     1
  1
C
  7
SLDTEXTSTYLE0
 73
     1
 44
1.0
  0
MTEXT
  5
15F
330
1F
100
AcDbEntity
  8
0
  6
Continuous
 62
     7
370
    18
100
AcDbMText
 10
340.0216466634
 20
290.5954278102
 30
0.0
 40
2.0
 41
0.0
 71
     2
 72
     1
  1
7
  7
SLDTEXTSTYLE0
 73
     1
 44
1.0
  0
MTEXT
  5
160
330
1F
100
AcDbEntity
  8
0
  6
Continuous
 62
     7
370
    18
100
AcDbMText
 10
390.037657264
 20
290.6215496941
 30
0.0
 40
2.0
 41
0.0
 71
     2
 72
     1
  1
8
  7
SLDTEXTSTYLE0
 73
     1
 44
1.0
  0
MTEXT
  5
161
330
1F
100
AcDbEntity
  8
0
  6
Continuous
 62
     7
370
    18
100
AcDbMText
 10
17.6897935208
 20
74.7267628143
 30
0.0
 40
2.0
 41
0.0
 71
     2
 72
     1
  1
E
  7
SLDTEXTSTYLE0
 73
     1
 44
1.0
  0
MTEXT
  5
162
330
1F
100
AcDbEntity
  8
0
  6
Continuous
 62
     7
370
    18
100
AcDbMText
 10
17.5936930126
 20
27.773321616
 30
0.0
 40
2.0
 41
0.0
 71
     2
 72
     1
  1
F
  7
SLDTEXTSTYLE0
 73
     1
 44
1.0
  0
MTEXT
  5
163
330
1F
100
AcDbEntity
  8
0
  6
Continuous
 62
     7
370
    18
100
AcDbMText
 10
339.8003474583
 20
8.7205095051
 30
0.0
 40
2.0
 41
0.0
 71
     2
 72
     1
  1
7
  7
SLDTEXTSTYLE0
 73
     1
 44
1.0
  0
MTEXT
  5
164
330
1F
100
AcDbEntity
  8
0
  6
Continuous
 62
     7
370
    18
100
AcDbMText
 10
289.7886477179
 20
8.6884673623
 30
0.0
 40
2.0
 41
0.0
 71
     2
 72
     1
  1
6
  7
SLDTEXTSTYLE0
 73
     1
 44
1.0
  0
MTEXT
  5
165
330
1F
100
AcDbEntity
  8
0
  6
Continuous
 62
     7
370
    18
100
AcDbMText
 10
412.5160699095
 20
74.5096307526
 30
0.0
 40
2.0
 41
0.0
 71
     2
 72
     1
  1
E
  7
SLDTEXTSTYLE0
 73
     1
 44
1.0
  0
MTEXT
  5
166
330
1F
100
AcDbEntity
  8
0
  6
Continuous
 62
     7
370
    18
100
AcDbMText
 10
412.6234021365
 20
124.4517683275
 30
0.0
 40
2.0
 41
0.0
 71
     2
 72
     1
  1
D
  7
SLDTEXTSTYLE0
 73
     1
 44
1.0
  0
MTEXT
  5
167
330
1F
100
AcDbEntity
  8
0
  6
Continuous
 62
     7
370
    18
100
AcDbMText
 10
411.7952690469
 20
41.9107873916
 30
0.0
 40
1.8
 41
0.0
 71
     3
 72
     1
  1
Plotdatum: 11.09.2024
  7
SLDTEXTSTYLE0
 11
-3.269436733918102E-15
 21
1.0
 31
0.0
 73
     1
 44
1.0
  0
MTEXT
  5
168
330
1F
100
AcDbEntity
  8
0
  6
Continuous
 62
     7
370
    18
100
AcDbMText
 10
412.557933251
 20
8.2549718046
 30
0.0
 40
1.8
 41
0.0
 71
     2
 72
     1
  1
A3
  7
SLDTEXTSTYLE0
 73
     1
 44
1.0
  0
MTEXT
  5
169
330
1F
100
AcDbEntity
  8
0
  6
Continuous
 62
     7
370
    18
100
AcDbMText
 10
390.594604279
 20
8.3847467643
 30
0.0
 40
1.8
 41
0.0
 71
     2
 72
     1
  1
CAD-System: SolidWorks
  7
SLDTEXTSTYLE0
 73
     1
 44
1.0
  0
MTEXT
  5
16A
330
1F
100
AcDbEntity
  8
0
  6
Continuous
 62
     7
370
    18
100
AcDbMText
 10
403.9986368527
 20
28.4394692021
 30
0.0
 40
5.0
 41
0.0
 71
     2
 72
     1
  1
A
  7
SLDTEXTSTYLE0
 73
     1
 44
1.0
  0
MTEXT
  5
16B
330
1F
100
AcDbEntity
  8
0
  6
Continuous
 62
     7
370
    18
100
AcDbMText
 10
249.556836311
 20
38.5581729516
 30
0.0
 40
2.0
 41
0.0
 71
     1
 72
     1
  1
Freigegeben
  7
SLDTEXTSTYLE0
 73
     1
 44
1.0
  0
MTEXT
  5
16C
330
1F
100
AcDbEntity
  8
0
  6
Continuous
 62
     7
370
    18
100
AcDbMText
 10
284.096264263
 20
43.5473338598
 30
0.0
 40
2.0
 41
0.0
 71
     2
 72
     1
  1
dca
  7
SLDTEXTSTYLE0
 73
     1
 44
1.0
  0
MTEXT
  5
16D
330
1F
100
AcDbEntity
  8
0
  6
Continuous
 62
     7
370
    18
100
AcDbMText
 10
249.5284668163
 20
43.5603133928
 30
0.0
 40
2.0
 41
0.0
 71
     1
 72
     1
  1
10.09.2024
  7
SLDTEXTSTYLE0
 73
     1
 44
1.0
  0
MTEXT
  5
16E
330
1F
100
AcDbEntity
  8
0
  6
Continuous
 62
     7
370
    18
100
AcDbMText
 10
283.7836865885
 20
48.5138972561
 30
0.0
 40
2.0
 41
0.0
 71
     2
 72
     1
  1
haljilji
  7
SLDTEXTSTYLE0
 73
     1
 44
1.0
  0
MTEXT
  5
16F
330
1F
100
AcDbEntity
  8
0
  6
Continuous
 62
     7
370
    18
100
AcDbMText
 10
249.5284668163
 20
48.4989062069
 30
0.0
 40
2.0
 41
0.0
 71
     1
 72
     1
  1
19.07.17
  7
SLDTEXTSTYLE0
 73
     1
 44
1.0
  0
MTEXT
  5
170
330
1F
100
AcDbEntity
  8
0
  6
Continuous
 62
     7
370
     0
100
AcDbMText
 10
372.2007348103
 20
38.8723054925
 30
0.0
 40
1.5
 41
0.0
 71
     1
 72
     1
  1
Copyright reserved! © ACO AG
  7
SLDTEXTSTYLE0
 73
     1
 44
1.0
  0
INSERT
  5
179
330
1F
100
AcDbEntity
  8
0
  6
Continuous
 62
     7
370
     0
100
AcDbBlockReference
  2
SW_NOTE_0_3
 10
372.2203831445
 20
51.2202922854
 30
0.0
  0
MTEXT
  5
17A
330
1F
100
AcDbEntity
  8
0
  6
Continuous
 62
     7
370
    18
100
AcDbMText
 10
330.2607505021
 20
13.524501801
 30
0.0
 40
2.0
 41
0.0
 71
     2
 72
     1
  1
-
  7
SLDTEXTSTYLE0
 73
     1
 44
1.0
  0
MTEXT
  5
17B
330
1F
100
AcDbEntity
  8
0
  6
Continuous
 62
     7
370
    18
100
AcDbMText
 10
364.9468572407
 20
18.4594173137
 30
0.0
 40
2.0
 41
0.0
 71
     1
 72
     1
  1
SAP Nr.
  7
SLDTEXTSTYLE0
 73
     1
 44
1.0
  0
MTEXT
  5
17C
330
1F
100
AcDbEntity
  8
0
  6
Continuous
 62
     7
370
    18
100
AcDbMText
 10
354.24544421
 20
18.5245664709
 30
0.0
 40
2.0
 41
0.0
 71
     2
 72
     1
  1
dca
  7
SLDTEXTSTYLE0
 73
     1
 44
1.0
  0
MTEXT
  5
17D
330
1F
100
AcDbEntity
  8
0
  6
Continuous
 62
     7
370
    18
100
AcDbMText
 10
340.2667571276
 20
18.5245664709
 30
0.0
 40
2.0
 41
0.0
 71
     2
 72
     1
  1
26.08.2024
  7
SLDTEXTSTYLE0
 73
     1
 44
1.0
  0
MTEXT
  5
17E
330
1F
100
AcDbEntity
  8
0
  6
Continuous
 62
     7
370
    18
100
AcDbMText
 10
330.227417144
 20
18.524501801
 30
0.0
 40
2.0
 41
0.0
 71
     2
 72
     1
  1
A
  7
SLDTEXTSTYLE0
 73
     1
 44
1.0
  0
MTEXT
  5
17F
330
1F
100
AcDbEntity
  8
0
  6
Continuous
 62
     7
370
    18
100
AcDbMText
 10
311.764909851
 20
46.3490312465
 30
0.0
 40
5.0
 41
0.0
 71
     2
 72
     1
  1
1:1
  7
SLDTEXTSTYLE0
 73
     1
 44
1.0
  0
MTEXT
  5
180
330
1F
100
AcDbEntity
  8
0
  6
Continuous
 62
     7
370
    18
100
AcDbMText
 10
230.1851195342
 20
38.7793829468
 30
0.0
 40
2.0
 41
0.0
 71
     1
 72
     1
  1
Status:
  7
SLDTEXTSTYLE0
 73
     1
 44
1.0
  0
MTEXT
  5
181
330
1F
100
AcDbEntity
  8
0
  6
Continuous
 62
     7
370
    18
100
AcDbMText
 10
344.926838705
 20
28.2772828851
 30
0.0
 40
5.0
 41
0.0
 71
     1
 72
     1
  1
420216
  7
SLDTEXTSTYLE0
 73
     1
 44
1.0
  0
MTEXT
  5
182
330
1F
100
AcDbEntity
  8
0
  6
Continuous
 62
     7
370
    18
100
AcDbMText
 10
231.1132118803
 20
14.9211049657
 30
0.0
 40
2.5
 41
0.0
 71
     1
 72
     1
  1
Art. Nr.: 2090846
  7
SLDTEXTSTYLE0
 73
     1
 44
1.0
  0
MTEXT
  5
183
330
1F
100
AcDbEntity
  8
0
  6
Continuous
 62
     7
370
    18
100
AcDbMText
 10
231.1475981734
 20
21.4529560996
 30
0.0
 40
2.5
 41
0.0
 71
     1
 72
     1
  1
Stirnwandset für Typ 1
  7
SLDTEXTSTYLE0
 73
     1
 44
1.0
  0
MTEXT
  5
184
330
1F
100
AcDbEntity
  8
0
  6
Continuous
 62
     7
370
    18
100
AcDbMText
 10
231.1159560181
 20
33.0904969858
 30
0.0
 40
2.5
 41
0.0
 71
     1
 72
     1
  1
Bauelemente
  7
SLDTEXTSTYLE0
 73
     1
 44
1.0
  0
MTEXT
  5
185
330
1F
100
AcDbEntity
  8
0
  6
Continuous
 62
     7
370
    18
100
AcDbMText
 10
231.1475981734
 20
28.0307932366
 30
0.0
 40
3.5
 41
0.0
 71
     1
 72
     1
  1
Zubehör Edelstahl
  7
SLDTEXTSTYLE0
 73
     1
 44
1.0
  0
MTEXT
  5
186
330
1F
100
AcDbEntity
  8
0
  6
Continuous
 62
     7
370
    18
100
AcDbMText
 10
348.2746465368
 20
53.819119072
 30
0.0
 40
2.0
 41
0.0
 71
     1
 72
     1
  1
Projektion: ISO-E
  7
SLDTEXTSTYLE0
 73
     1
 44
1.0
  0
MTEXT
  5
187
330
1F
100
AcDbEntity
  8
0
  6
Continuous
 62
     7
370
    18
100
AcDbMText
 10
337.7677091855
 20
49.3670227094
 30
0.0
 40
2.5
 41
0.0
 71
     2
 72
     1
  1
Millimeter
  7
SLDTEXTSTYLE0
 73
     1
 44
1.0
  0
MTEXT
  5
188
330
1F
100
AcDbEntity
  8
0
  6
Continuous
 62
     7
370
    18
100
AcDbMText
 10
337.6323777421
 20
53.855374072
 30
0.0
 40
2.0
 41
0.0
 71
     2
 72
     1
  1
Masseinheit:
  7
SLDTEXTSTYLE0
 73
     1
 44
1.0
  0
MTEXT
  5
189
330
1F
100
AcDbEntity
  8
0
  6
Continuous
 62
     7
370
    18
100
AcDbMText
 10
337.6114490186
 20
43.5452078816
 30
0.0
 40
2.0
 41
0.0
 71
     2
 72
     1
  1
Blatt / Anz.:
  7
SLDTEXTSTYLE0
 73
     1
 44
1.0
  0
MTEXT
  5
18A
330
1F
100
AcDbEntity
  8
0
  6
Continuous
 62
     7
370
    18
100
AcDbMText
 10
329.2895578243
 20
28.4139191092
 30
0.0
 40
5.0
 41
0.0
 71
     1
 72
     1
  1
CH
  7
SLDTEXTSTYLE0
 73
     1
 44
1.0
  0
MTEXT
  5
18B
330
1F
100
AcDbEntity
  8
0
  6
Continuous
 62
     7
370
    18
100
AcDbMText
 10
330.40704
 20
33.692638072
 30
0.0
 40
2.0
 41
0.0
 71
     1
 72
     1
  1
Zeichnung Nr.:
  7
SLDTEXTSTYLE0
 73
     1
 44
1.0
  0
MTEXT
  5
18C
330
1F
100
AcDbEntity
  8
0
  6
Continuous
 62
     7
370
    18
100
AcDbMText
 10
269.897953
 20
75.161075072
 30
0.0
 40
2.0
 41
0.0
 71
     1
 72
     1
  1
Gewicht:
  7
SLDTEXTSTYLE0
 73
     1
 44
1.0
  0
MTEXT
  5
18D
330
1F
100
AcDbEntity
  8
0
  6
Continuous
 62
     7
370
    18
100
AcDbMText
 10
230.0
 20
64.542328072
 30
0.0
 40
2.0
 41
0.0
 71
     1
 72
     1
  1
zul. Abweichung:
  7
SLDTEXTSTYLE0
 73
     1
 44
1.0
  0
MTEXT
  5
18E
330
1F
100
AcDbEntity
  8
0
  6
Continuous
 62
     7
370
    18
100
AcDbMText
 10
269.612607
 20
64.542328072
 30
0.0
 40
2.0
 41
0.0
 71
     1
 72
     1
  1
Oberfläche:
  7
SLDTEXTSTYLE0
 73
     1
 44
1.0
  0
MTEXT
  5
18F
330
1F
100
AcDbEntity
  8
0
  6
Continuous
 62
     7
370
    18
100
AcDbMText
 10
230.261411
 20
43.4433838912
 30
0.0
 40
2.0
 41
0.0
 71
     1
 72
     1
  1
Freigegeben:
  7
SLDTEXTSTYLE0
 73
     1
 44
1.0
  0
MTEXT
  5
190
330
1F
100
AcDbEntity
  8
0
  6
Continuous
 62
     7
370
    18
100
AcDbMText
 10
230.0
 20
75.161075072
 30
0.0
 40
2.0
 41
0.0
 71
     1
 72
     1
  1
Werkstoff:
  7
SLDTEXTSTYLE0
 73
     1
 44
1.0
  0
MTEXT
  5
191
330
1F
100
AcDbEntity
  8
0
  6
Continuous
 62
     7
370
    18
100
AcDbMText
 10
254.035545
 20
53.129475072
 30
0.0
 40
2.0
 41
0.0
 71
     1
 72
     1
  1
Datum:
  7
SLDTEXTSTYLE0
 73
     1
 44
1.0
  0
MTEXT
  5
192
330
1F
100
AcDbEntity
  8
0
  6
Continuous
 62
     7
370
    18
100
AcDbMText
 10
279.934928
 20
53.136060072
 30
0.0
 40
2.0
 41
0.0
 71
     1
 72
     1
  1
Name:
  7
SLDTEXTSTYLE0
 73
     1
 44
1.0
  0
MTEXT
  5
193
330
1F
100
AcDbEntity
  8
0
  6
Continuous
 62
     7
370
    18
100
AcDbMText
 10
312.162455406
 20
53.881591072
 30
0.0
 40
2.0
 41
0.0
 71
     2
 72
     1
  1
Massstab:
  7
SLDTEXTSTYLE0
 73
     1
 44
1.0
  0
MTEXT
  5
194
330
1F
100
AcDbEntity
  8
0
  6
Continuous
 62
     7
370
    18
100
AcDbMText
 10
403.9552944035
 20
33.324874072
 30
0.0
 40
2.0
 41
0.0
 71
     2
 72
     1
  1
Index:
  7
SLDTEXTSTYLE0
 73
     1
 44
1.0
  0
MTEXT
  5
195
330
1F
100
AcDbEntity
  8
0
  6
Continuous
 62
     7
370
    18
100
AcDbMText
 10
230.261411
 20
48.4499477886
 30
0.0
 40
2.0
 41
0.0
 71
     1
 72
     1
  1
Erstellt:
  7
SLDTEXTSTYLE0
 73
     1
 44
1.0
  0
MTEXT
  5
197
330
1F
100
AcDbEntity
  8
0
  6
Continuous
 62
     7
370
    18
100
AcDbMText
 10
337.6348165843
 20
39.869706576
 30
0.0
 40
2.5
 41
0.0
 71
     2
 72
     1
  1
1 / 1
  7
SLDTEXTSTYLE1
 73
     1
 44
1.0
  0
MTEXT
  5
198
330
1F
100
AcDbEntity
  8
0
  6
Continuous
 62
     7
370
    18
100
AcDbMText
 10
269.612607
 20
60.8119428599
 30
0.0
 40
3.0
 41
0.0
 71
     1
 72
     1
  1
DIN ISO 1302
  7
SLDTEXTSTYLE0
 73
     1
 44
1.0
  0
MTEXT
  5
199
330
1F
100
AcDbEntity
  8
0
  6
Continuous
 62
     7
370
    18
100
AcDbMText
 10
230.0
 20
60.8119428599
 30
0.0
 40
3.0
 41
0.0
 71
     1
 72
     1
  1
Norm
  7
SLDTEXTSTYLE0
 73
     1
 44
1.0
  0
MTEXT
  5
19A
330
1F
100
AcDbEntity
  8
0
  6
Continuous
 62
     7
370
    18
100
AcDbMText
 10
269.612607
 20
71.2121947186
 30
0.0
 40
3.0
 41
0.0
 71
     1
 72
     1
  1
0.31 kg
  7
SLDTEXTSTYLE0
 73
     1
 44
1.0
  0
MTEXT
  5
19B
330
1F
100
AcDbEntity
  8
0
  6
Continuous
 62
     7
370
    18
100
AcDbMText
 10
230.0
 20
71.2121947186
 30
0.0
 40
3.0
 41
0.0
 71
     1
 72
     1
  1
1.4301
  7
SLDTEXTSTYLE0
 73
     1
 44
1.0
  0
SPLINE
  5
19C
330
1F
100
AcDbEntity
  8
0
  6
Continuous
 62
     7
370
    25
100
AcDbSpline
210
0.0
220
0.0
230
1.0
 70
    24
 71
     3
 72
    10
 73
     6
 74
     0
 42
0.00000001
 43
0.00000001
 40
0.0
 40
0.0
 40
0.0
 40
0.0
 40
0.0700769119682022
 40
0.5307776640394175
 40
1.0
 40
1.0
 40
1.0
 40
1.0
 10
69.72045611532371
 20
203.5692674536135
 30
0.0
 10
69.64343505837907
 20
203.5247993256532
 30
0.0
 10
69.06006094073139
 20
203.187988121791
 30
0.0
 10
67.96012376923427
 20
202.5529390997355
 30
0.0
 10
66.97003630504996
 20
201.9813118357675
 30
0.0
 10
66.4704561153236
 20
201.6928790787472
 30
0.0
  0
SPLINE
  5
19D
330
1F
100
AcDbEntity
  8
0
  6
Continuous
 62
     7
370
    25
100
AcDbSpline
210
0.0
220
0.0
230
1.0
 70
    24
 71
     3
 72
     9
 73
     5
 74
     0
 42
0.00000001
 43
0.00000001
 40
0.0
 40
0.0
 40
0.0
 40
0.0
 40
0.4954579634770057
 40
1.0
 40
1.0
 40
1.0
 40
1.0
 10
66.4704561153236
 20
201.6928790787472
 30
0.0
 10
65.9426418275361
 20
201.9976127998835
 30
0.0
 10
64.87733593542079
 20
202.6126674434655
 30
0.0
 10
63.77608400634462
 20
203.2484755411633
 30
0.0
 10
63.22045611532368
 20
203.5692674536135
 30
0.0
  0
ARC
  5
19E
330
1F
100
AcDbEntity
  8
0
  6
Continuous
 62
     7
370
    25
100
AcDbCircle
 10
66.4704561153
 20
209.1984325782
 30
0.0
 40
6.500000000000006
100
AcDbArc
 50
240.0
 51
300.0
  0
SPLINE
  5
19F
330
1F
100
AcDbEntity
  8
0
  6
Continuous
 62
     7
370
    25
100
AcDbSpline
210
0.0
220
0.0
230
1.0
 70
    24
 71
     3
 72
    10
 73
     6
 74
     0
 42
0.00000001
 43
0.00000001
 40
0.0
 40
0.0
 40
0.0
 40
0.0
 40
0.0700769119681871
 40
0.5307776640394103
 40
1.0
 40
1.0
 40
1.0
 40
1.0
 10
63.22045611532368
 20
203.5692674536135
 30
0.0
 10
63.14343505837905
 20
203.6137355815738
 30
0.0
 10
62.56006094073133
 20
203.9505467854358
 30
0.0
 10
61.46012376923432
 20
204.5855958074914
 30
0.0
 10
60.47003630505003
 20
205.1572230714594
 30
0.0
 10
59.9704561153237
 20
205.4456558284798
 30
0.0
  0
ARC
  5
1A0
330
1F
100
AcDbEntity
  8
0
  6
Continuous
 62
     7
370
    25
100
AcDbCircle
 10
66.4704561153
 20
209.1984325782
 30
0.0
 40
6.499999999999996
100
AcDbArc
 50
180.0
 51
240.0
  0
SPLINE
  5
1A1
330
1F
100
AcDbEntity
  8
0
  6
Continuous
 62
     7
370
    25
100
AcDbSpline
210
0.0
220
0.0
230
1.0
 70
    24
 71
     3
 72
    10
 73
     6
 74
     0
 42
0.00000001
 43
0.00000001
 40
0.0
 40
0.0
 40
0.0
 40
0.0
 40
0.2572432618847622
 40
0.6263798857723027
 40
0.9999999999999999
 40
0.9999999999999999
 40
0.9999999999999999
 40
0.9999999999999999
 10
59.9704561153237
 20
205.4456558284798
 30
0.0
 10
59.9704561153237
 20
205.7607974043813
 30
0.0
 10
59.97045611532371
 20
206.5281580064394
 30
0.0
 10
59.97045611532371
 20
207.7805981364116
 30
0.0
 10
59.97045611532369
 20
208.7239230387232
 30
0.0
 10
59.9704561153237
 20
209.1984325782124
 30
0.0
  0
SPLINE
  5
1A2
330
1F
100
AcDbEntity
  8
0
  6
Continuous
 62
     7
370
    25
100
AcDbSpline
210
0.0
220
0.0
230
1.0
 70
    24
 71
     3
 72
     9
 73
     5
 74
     0
 42
0.00000001
 43
0.00000001
 40
0.0
 40
0.0
 40
0.0
 40
0.0
 40
0.4954579634770075
 40
1.0
 40
1.0
 40
1.0
 40
1.0
 10
72.97045611532369
 20
205.4456558284797
 30
0.0
 10
72.44264182753618
 20
205.1409221073435
 30
0.0
 10
71.37733593542086
 20
204.5258674637614
 30
0.0
 10
70.27608400634468
 20
203.8900593660637
 30
0.0
 10
69.72045611532371
 20
203.5692674536135
 30
0.0
  0
ARC
  5
1A3
330
1F
100
AcDbEntity
  8
0
  6
Continuous
 62
     7
370
    25
100
AcDbCircle
 10
66.4704561153
 20
209.1984325782
 30
0.0
 40
6.500000000000006
100
AcDbArc
 50
300.0
 51
0.0
  0
SPLINE
  5
1A4
330
1F
100
AcDbEntity
  8
0
  6
Continuous
 62
     7
370
    25
100
AcDbSpline
210
0.0
220
0.0
230
1.0
 70
    24
 71
     3
 72
    10
 73
     6
 74
     0
 42
0.00000001
 43
0.00000001
 40
0.0
 40
0.0
 40
0.0
 40
0.0
 40
0.2572432618847658
 40
0.6263798857723047
 40
0.9999999999999999
 40
0.9999999999999999
 40
0.9999999999999999
 40
0.9999999999999999
 10
72.97045611532369
 20
205.4456558284797
 30
0.0
 10
72.97045611532369
 20
205.7607974043813
 30
0.0
 10
72.97045611532369
 20
206.5281580064394
 30
0.0
 10
72.97045611532369
 20
207.7805981364116
 30
0.0
 10
72.97045611532369
 20
208.7239230387232
 30
0.0
 10
72.97045611532369
 20
209.1984325782124
 30
0.0
  0
ARC
  5
1A5
330
1F
100
AcDbEntity
  8
0
  6
Continuous
 62
     7
370
    25
100
AcDbCircle
 10
66.4704561153
 20
209.1984325782
 30
0.0
 40
6.499999999999986
100
AcDbArc
 50
120.0
 51
180.0
  0
SPLINE
  5
1A6
330
1F
100
AcDbEntity
  8
0
  6
Continuous
 62
     7
370
    25
100
AcDbSpline
210
0.0
220
0.0
230
1.0
 70
    24
 71
     3
 72
     9
 73
     5
 74
     0
 42
0.00000001
 43
0.00000001
 40
0.0
 40
0.0
 40
0.0
 40
0.0
 40
0.4954579634770056
 40
1.0
 40
1.0
 40
1.0
 40
1.0
 10
59.9704561153237
 20
212.9512093279449
 30
0.0
 10
60.49827040311122
 20
213.2559430490811
 30
0.0
 10
61.56357629522652
 20
213.8709976926632
 30
0.0
 10
62.66482822430271
 20
214.506805790361
 30
0.0
 10
63.22045611532368
 20
214.8275977028112
 30
0.0
  0
SPLINE
  5
1A7
330
1F
100
AcDbEntity
  8
0
  6
Continuous
 62
     7
370
    25
100
AcDbSpline
210
0.0
220
0.0
230
1.0
 70
    24
 71
     3
 72
    10
 73
     6
 74
     0
 42
0.00000001
 43
0.00000001
 40
0.0
 40
0.0
 40
0.0
 40
0.0
 40
0.2684065359321904
 40
0.6323728964502868
 40
1.0
 40
1.0
 40
1.0
 40
1.0
 10
59.9704561153237
 20
209.1984325782124
 30
0.0
 10
59.97045611532371
 20
209.5392398444199
 30
0.0
 10
59.9704561153237
 20
210.3421907759778
 30
0.0
 10
59.97045611532371
 20
211.6019166063815
 30
0.0
 10
59.97045611532371
 20
212.499947233983
 30
0.0
 10
59.97045611532369
 20
212.9512093279449
 30
0.0
  0
ARC
  5
1A8
330
1F
100
AcDbEntity
  8
0
  6
Continuous
 62
     7
370
    25
100
AcDbCircle
 10
66.4704561153
 20
209.1984325782
 30
0.0
 40
6.499999999999981
100
AcDbArc
 50
60.0
 51
120.0
  0
SPLINE
  5
1A9
330
1F
100
AcDbEntity
  8
0
  6
Continuous
 62
     7
370
    25
100
AcDbSpline
210
0.0
220
0.0
230
1.0
 70
    24
 71
     3
 72
    10
 73
     6
 74
     0
 42
0.00000001
 43
0.00000001
 40
0.0
 40
0.0
 40
0.0
 40
0.0
 40
0.0700769119681922
 40
0.5307776640394113
 40
1.0
 40
1.0
 40
1.0
 40
1.0
 10
63.22045611532368
 20
214.8275977028112
 30
0.0
 10
63.2974771722683
 20
214.8720658307714
 30
0.0
 10
63.88085128991595
 20
215.2088770346336
 30
0.0
 10
64.98078846141307
 20
215.8439260566891
 30
0.0
 10
65.97087592559734
 20
216.4155533206572
 30
0.0
 10
66.47045611532369
 20
216.7039860776775
 30
0.0
  0
SPLINE
  5
1AA
330
1F
100
AcDbEntity
  8
0
  6
Continuous
 62
     7
370
    25
100
AcDbSpline
210
0.0
220
0.0
230
1.0
 70
    24
 71
     3
 72
     9
 73
     5
 74
     0
 42
0.00000001
 43
0.00000001
 40
0.0
 40
0.0
 40
0.0
 40
0.0
 40
0.4954579634770076
 40
1.0
 40
1.0
 40
1.0
 40
1.0
 10
66.47045611532369
 20
216.7039860776775
 30
0.0
 10
66.99827040311122
 20
216.3992523565412
 30
0.0
 10
68.06357629522654
 20
215.7841977129592
 30
0.0
 10
69.16482822430272
 20
215.1483896152614
 30
0.0
 10
69.72045611532371
 20
214.8275977028112
 30
0.0
  0
ARC
  5
1AB
330
1F
100
AcDbEntity
  8
0
  6
Continuous
 62
     7
370
    25
100
AcDbCircle
 10
66.4704561153
 20
209.1984325782
 30
0.0
 40
6.5
100
AcDbArc
 50
0.0
 51
60.0
  0
SPLINE
  5
1AC
330
1F
100
AcDbEntity
  8
0
  6
Continuous
 62
     7
370
    25
100
AcDbSpline
210
0.0
220
0.0
230
1.0
 70
    24
 71
     3
 72
    10
 73
     6
 74
     0
 42
0.00000001
 43
0.00000001
 40
0.0
 40
0.0
 40
0.0
 40
0.0
 40
0.2684065359321884
 40
0.6323728964502854
 40
1.0
 40
1.0
 40
1.0
 40
1.0
 10
72.97045611532369
 20
209.1984325782124
 30
0.0
 10
72.97045611532369
 20
209.5392398444199
 30
0.0
 10
72.97045611532371
 20
210.3421907759778
 30
0.0
 10
72.97045611532369
 20
211.6019166063815
 30
0.0
 10
72.97045611532369
 20
212.499947233983
 30
0.0
 10
72.97045611532369
 20
212.9512093279449
 30
0.0
  0
SPLINE
  5
1AD
330
1F
100
AcDbEntity
  8
0
  6
Continuous
 62
     7
370
    25
100
AcDbSpline
210
0.0
220
0.0
230
1.0
 70
    24
 71
     3
 72
    10
 73
     6
 74
     0
 42
0.00000001
 43
0.00000001
 40
0.0
 40
0.0
 40
0.0
 40
0.0
 40
0.0700769119681857
 40
0.5307776640394084
 40
1.0
 40
1.0
 40
1.0
 40
1.0
 10
69.72045611532371
 20
214.8275977028112
 30
0.0
 10
69.79747717226833
 20
214.7831295748509
 30
0.0
 10
70.38085128991601
 20
214.4463183709888
 30
0.0
 10
71.48078846141306
 20
213.8112693489333
 30
0.0
 10
72.47087592559733
 20
213.2396420849652
 30
0.0
 10
72.97045611532369
 20
212.9512093279449
 30
0.0
  0
SPLINE
  5
1AE
330
1F
100
AcDbEntity
  8
0
  6
Continuous
 62
     7
370
    25
100
AcDbSpline
210
0.0
220
0.0
230
1.0
 70
    24
 71
     3
 72
    10
 73
     6
 74
     0
 42
0.00000001
 43
0.00000001
 40
0.0
 40
0.0
 40
0.0
 40
0.0
 40
0.2684065359321884
 40
0.6323728964502854
 40
1.0
 40
1.0
 40
1.0
 40
1.0
 10
218.9704561153236
 20
209.1984325782124
 30
0.0
 10
218.9704561153237
 20
209.5392398444199
 30
0.0
 10
218.9704561153236
 20
210.3421907759778
 30
0.0
 10
218.9704561153236
 20
211.6019166063815
 30
0.0
 10
218.9704561153237
 20
212.499947233983
 30
0.0
 10
218.9704561153237
 20
212.951209327945
 30
0.0
  0
ARC
  5
1AF
330
1F
100
AcDbEntity
  8
0
  6
Continuous
 62
     7
370
    25
100
AcDbCircle
 10
212.4704561153
 20
209.1984325782
 30
0.0
 40
6.5
100
AcDbArc
 50
0.0
 51
60.0
  0
SPLINE
  5
1B0
330
1F
100
AcDbEntity
  8
0
  6
Continuous
 62
     7
370
    25
100
AcDbSpline
210
0.0
220
0.0
230
1.0
 70
    24
 71
     3
 72
    10
 73
     6
 74
     0
 42
0.00000001
 43
0.00000001
 40
0.0
 40
0.0
 40
0.0
 40
0.0
 40
0.0700769119681857
 40
0.5307776640394084
 40
1.0
 40
1.0
 40
1.0
 40
1.0
 10
215.7204561153237
 20
214.8275977028112
 30
0.0
 10
215.7974771722683
 20
214.7831295748509
 30
0.0
 10
216.3808512899159
 20
214.4463183709888
 30
0.0
 10
217.4807884614131
 20
213.8112693489333
 30
0.0
 10
218.4708759255973
 20
213.2396420849652
 30
0.0
 10
218.9704561153236
 20
212.951209327945
 30
0.0
  0
SPLINE
  5
1B1
330
1F
100
AcDbEntity
  8
0
  6
Continuous
 62
     7
370
    25
100
AcDbSpline
210
0.0
220
0.0
230
1.0
 70
    24
 71
     3
 72
    10
 73
     6
 74
     0
 42
0.00000001
 43
0.00000001
 40
0.0
 40
0.0
 40
0.0
 40
0.0
 40
0.0700769119681922
 40
0.5307776640394113
 40
1.0
 40
1.0
 40
1.0
 40
1.0
 10
209.2204561153236
 20
214.8275977028112
 30
0.0
 10
209.2974771722683
 20
214.8720658307714
 30
0.0
 10
209.880851289916
 20
215.2088770346336
 30
0.0
 10
210.9807884614131
 20
215.8439260566891
 30
0.0
 10
211.9708759255973
 20
216.4155533206572
 30
0.0
 10
212.4704561153236
 20
216.7039860776775
 30
0.0
  0
ARC
  5
1B2
330
1F
100
AcDbEntity
  8
0
  6
Continuous
 62
     7
370
    25
100
AcDbCircle
 10
212.4704561153
 20
209.1984325782
 30
0.0
 40
6.499999999999981
100
AcDbArc
 50
60.0
 51
120.0
  0
SPLINE
  5
1B3
330
1F
100
AcDbEntity
  8
0
  6
Continuous
 62
     7
370
    25
100
AcDbSpline
210
0.0
220
0.0
230
1.0
 70
    24
 71
     3
 72
     9
 73
     5
 74
     0
 42
0.00000001
 43
0.00000001
 40
0.0
 40
0.0
 40
0.0
 40
0.0
 40
0.4954579634770076
 40
1.0
 40
1.0
 40
1.0
 40
1.0
 10
212.4704561153236
 20
216.7039860776775
 30
0.0
 10
212.9982704031111
 20
216.3992523565412
 30
0.0
 10
214.0635762952265
 20
215.7841977129592
 30
0.0
 10
215.1648282243027
 20
215.1483896152614
 30
0.0
 10
215.7204561153237
 20
214.8275977028112
 30
0.0
  0
ARC
  5
1B4
330
1F
100
AcDbEntity
  8
0
  6
Continuous
 62
     7
370
    25
100
AcDbCircle
 10
212.4704561153
 20
209.1984325782
 30
0.0
 40
6.500000000000006
100
AcDbArc
 50
240.0
 51
300.0
  0
ARC
  5
1B5
330
1F
100
AcDbEntity
  8
0
  6
Continuous
 62
     7
370
    25
100
AcDbCircle
 10
212.4704561153
 20
209.1984325782
 30
0.0
 40
6.499999999999992
100
AcDbArc
 50
180.0
 51
240.0
  0
ARC
  5
1B6
330
1F
100
AcDbEntity
  8
0
  6
Continuous
 62
     7
370
    25
100
AcDbCircle
 10
212.4704561153
 20
209.1984325782
 30
0.0
 40
6.499999999999972
100
AcDbArc
 50
120.0
 51
180.0
  0
ARC
  5
1B7
330
1F
100
AcDbEntity
  8
0
  6
Continuous
 62
     7
370
    25
100
AcDbCircle
 10
212.4704561153
 20
209.1984325782
 30
0.0
 40
6.500000000000006
100
AcDbArc
 50
300.0
 51
0.0
  0
SPLINE
  5
1B8
330
1F
100
AcDbEntity
  8
0
  6
Continuous
 62
     7
370
    25
100
AcDbSpline
210
0.0
220
0.0
230
1.0
 70
    24
 71
     3
 72
    10
 73
     6
 74
     0
 42
0.00000001
 43
0.00000001
 40
0.0
 40
0.0
 40
0.0
 40
0.0
 40
0.2684065359321904
 40
0.6323728964502868
 40
1.0
 40
1.0
 40
1.0
 40
1.0
 10
205.9704561153237
 20
209.1984325782124
 30
0.0
 10
205.9704561153237
 20
209.5392398444199
 30
0.0
 10
205.9704561153237
 20
210.3421907759778
 30
0.0
 10
205.9704561153236
 20
211.6019166063815
 30
0.0
 10
205.9704561153237
 20
212.499947233983
 30
0.0
 10
205.9704561153237
 20
212.9512093279449
 30
0.0
  0
SPLINE
  5
1B9
330
1F
100
AcDbEntity
  8
0
  6
Continuous
 62
     7
370
    25
100
AcDbSpline
210
0.0
220
0.0
230
1.0
 70
    24
 71
     3
 72
     9
 73
     5
 74
     0
 42
0.00000001
 43
0.00000001
 40
0.0
 40
0.0
 40
0.0
 40
0.0
 40
0.4954579634770056
 40
1.0
 40
1.0
 40
1.0
 40
1.0
 10
205.9704561153237
 20
212.9512093279449
 30
0.0
 10
206.4982704031111
 20
213.2559430490812
 30
0.0
 10
207.5635762952265
 20
213.8709976926632
 30
0.0
 10
208.6648282243026
 20
214.506805790361
 30
0.0
 10
209.2204561153236
 20
214.8275977028112
 30
0.0
  0
SPLINE
  5
1BA
330
1F
100
AcDbEntity
  8
0
  6
Continuous
 62
     7
370
    25
100
AcDbSpline
210
0.0
220
0.0
230
1.0
 70
    24
 71
     3
 72
    10
 73
     6
 74
     0
 42
0.00000001
 43
0.00000001
 40
0.0
 40
0.0
 40
0.0
 40
0.0
 40
0.0700769119681871
 40
0.5307776640394103
 40
1.0
 40
1.0
 40
1.0
 40
1.0
 10
209.2204561153236
 20
203.5692674536135
 30
0.0
 10
209.143435058379
 20
203.6137355815738
 30
0.0
 10
208.5600609407313
 20
203.9505467854358
 30
0.0
 10
207.4601237692342
 20
204.5855958074914
 30
0.0
 10
206.47003630505
 20
205.1572230714594
 30
0.0
 10
205.9704561153237
 20
205.4456558284798
 30
0.0
  0
SPLINE
  5
1BB
330
1F
100
AcDbEntity
  8
0
  6
Continuous
 62
     7
370
    25
100
AcDbSpline
210
0.0
220
0.0
230
1.0
 70
    24
 71
     3
 72
    10
 73
     6
 74
     0
 42
0.00000001
 43
0.00000001
 40
0.0
 40
0.0
 40
0.0
 40
0.0
 40
0.2572432618847622
 40
0.6263798857723027
 40
0.9999999999999999
 40
0.9999999999999999
 40
0.9999999999999999
 40
0.9999999999999999
 10
205.9704561153237
 20
205.4456558284798
 30
0.0
 10
205.9704561153237
 20
205.7607974043813
 30
0.0
 10
205.9704561153237
 20
206.5281580064395
 30
0.0
 10
205.9704561153236
 20
207.7805981364116
 30
0.0
 10
205.9704561153237
 20
208.7239230387232
 30
0.0
 10
205.9704561153237
 20
209.1984325782124
 30
0.0
  0
SPLINE
  5
1BC
330
1F
100
AcDbEntity
  8
0
  6
Continuous
 62
     7
370
    25
100
AcDbSpline
210
0.0
220
0.0
230
1.0
 70
    24
 71
     3
 72
    10
 73
     6
 74
     0
 42
0.00000001
 43
0.00000001
 40
0.0
 40
0.0
 40
0.0
 40
0.0
 40
0.0700769119682022
 40
0.5307776640394175
 40
1.0
 40
1.0
 40
1.0
 40
1.0
 10
215.7204561153237
 20
203.5692674536135
 30
0.0
 10
215.643435058379
 20
203.5247993256532
 30
0.0
 10
215.0600609407314
 20
203.187988121791
 30
0.0
 10
213.9601237692342
 20
202.5529390997355
 30
0.0
 10
212.9700363050499
 20
201.9813118357675
 30
0.0
 10
212.4704561153236
 20
201.6928790787472
 30
0.0
  0
SPLINE
  5
1BD
330
1F
100
AcDbEntity
  8
0
  6
Continuous
 62
     7
370
    25
100
AcDbSpline
210
0.0
220
0.0
230
1.0
 70
    24
 71
     3
 72
     9
 73
     5
 74
     0
 42
0.00000001
 43
0.00000001
 40
0.0
 40
0.0
 40
0.0
 40
0.0
 40
0.4954579634770057
 40
1.0
 40
1.0
 40
1.0
 40
1.0
 10
212.4704561153236
 20
201.6928790787472
 30
0.0
 10
211.9426418275361
 20
201.9976127998835
 30
0.0
 10
210.8773359354207
 20
202.6126674434655
 30
0.0
 10
209.7760840063446
 20
203.2484755411633
 30
0.0
 10
209.2204561153236
 20
203.5692674536135
 30
0.0
  0
SPLINE
  5
1BE
330
1F
100
AcDbEntity
  8
0
  6
Continuous
 62
     7
370
    25
100
AcDbSpline
210
0.0
220
0.0
230
1.0
 70
    24
 71
     3
 72
     9
 73
     5
 74
     0
 42
0.00000001
 43
0.00000001
 40
0.0
 40
0.0
 40
0.0
 40
0.0
 40
0.4954579634770075
 40
1.0
 40
1.0
 40
1.0
 40
1.0
 10
218.9704561153236
 20
205.4456558284797
 30
0.0
 10
218.4426418275361
 20
205.1409221073435
 30
0.0
 10
217.3773359354209
 20
204.5258674637614
 30
0.0
 10
216.2760840063447
 20
203.8900593660637
 30
0.0
 10
215.7204561153237
 20
203.5692674536135
 30
0.0
  0
SPLINE
  5
1BF
330
1F
100
AcDbEntity
  8
0
  6
Continuous
 62
     7
370
    25
100
AcDbSpline
210
0.0
220
0.0
230
1.0
 70
    24
 71
     3
 72
    10
 73
     6
 74
     0
 42
0.00000001
 43
0.00000001
 40
0.0
 40
0.0
 40
0.0
 40
0.0
 40
0.2572432618847658
 40
0.6263798857723047
 40
0.9999999999999999
 40
0.9999999999999999
 40
0.9999999999999999
 40
0.9999999999999999
 10
218.9704561153236
 20
205.4456558284797
 30
0.0
 10
218.9704561153236
 20
205.7607974043813
 30
0.0
 10
218.9704561153237
 20
206.5281580064394
 30
0.0
 10
218.9704561153237
 20
207.7805981364116
 30
0.0
 10
218.9704561153236
 20
208.7239230387232
 30
0.0
 10
218.9704561153236
 20
209.1984325782124
 30
0.0
  0
CIRCLE
  5
1C0
330
1F
100
AcDbEntity
  8
0
  6
Continuous
 62
     7
370
    25
100
AcDbCircle
 10
66.4704561153
 20
209.1984325782
 30
0.0
 40
3.309499999999986
  0
CIRCLE
  5
1C1
330
1F
100
AcDbEntity
  8
0
  6
Continuous
 62
     7
370
    25
100
AcDbCircle
 10
66.4704561153
 20
209.1984325782
 30
0.0
 40
4.0
  0
CIRCLE
  5
1C2
330
1F
100
AcDbEntity
  8
0
  6
Continuous
 62
     7
370
    25
100
AcDbCircle
 10
212.4704561153
 20
209.1984325782
 30
0.0
 40
3.309500000000014
  0
CIRCLE
  5
1C3
330
1F
100
AcDbEntity
  8
0
  6
Continuous
 62
     7
370
    25
100
AcDbCircle
 10
212.4704561153
 20
209.1984325782
 30
0.0
 40
4.0
  0
LINE
  5
1C4
330
1F
100
AcDbEntity
  8
0
  6
Continuous
 62
     7
370
    25
100
AcDbLine
 10
39.9704561153
 20
181.1984325782
 30
0.0
 11
39.9704561153
 21
183.1984325782
 31
0.0
  0
LINE
  5
1C5
330
1F
100
AcDbEntity
  8
0
  6
Continuous
 62
     7
370
    25
100
AcDbLine
 10
39.9704561153
 20
183.1984325782
 30
0.0
 11
41.9704561153
 21
183.1984325782
 31
0.0
  0
LINE
  5
1C6
330
1F
100
AcDbEntity
  8
0
  6
Continuous
 62
     7
370
    25
100
AcDbLine
 10
41.9704561153
 20
181.1984325782
 30
0.0
 11
39.9704561153
 21
181.1984325782
 31
0.0
  0
LINE
  5
1C7
330
1F
100
AcDbEntity
  8
0
  6
Continuous
 62
     7
370
    25
100
AcDbLine
 10
238.9704561153
 20
183.1984325782
 30
0.0
 11
238.9704561153
 21
181.1984325782
 31
0.0
  0
LINE
  5
1C8
330
1F
100
AcDbEntity
  8
0
  6
Continuous
 62
     7
370
    25
100
AcDbLine
 10
238.9704561153
 20
181.1984325782
 30
0.0
 11
236.9704561153
 21
181.1984325782
 31
0.0
  0
LINE
  5
1C9
330
1F
100
AcDbEntity
  8
0
  6
Continuous
 62
     7
370
    25
100
AcDbLine
 10
236.9704561153
 20
183.1984325782
 30
0.0
 11
238.9704561153
 21
183.1984325782
 31
0.0
  0
LINE
  5
1CA
330
1F
100
AcDbEntity
  8
0
  6
Continuous
 62
     7
370
    25
100
AcDbLine
 10
213.4704561153
 20
183.1984325782
 30
0.0
 11
213.4704561153
 21
181.1984325782
 31
0.0
  0
LINE
  5
1CB
330
1F
100
AcDbEntity
  8
0
  6
Continuous
 62
     7
370
    25
100
AcDbLine
 10
236.9704561153
 20
181.1984325782
 30
0.0
 11
213.4704561153
 21
181.1984325782
 31
0.0
  0
LINE
  5
1CC
330
1F
100
AcDbEntity
  8
0
  6
Continuous
 62
     7
370
    25
100
AcDbLine
 10
236.9704561153
 20
183.1984325782
 30
0.0
 11
213.4704561153
 21
183.1984325782
 31
0.0
  0
LINE
  5
1CD
330
1F
100
AcDbEntity
  8
0
  6
Continuous
 62
     7
370
    25
100
AcDbLine
 10
65.4704561153
 20
183.1984325782
 30
0.0
 11
65.4704561153
 21
181.1984325782
 31
0.0
  0
LINE
  5
1CE
330
1F
100
AcDbEntity
  8
0
  6
Continuous
 62
     7
370
    25
100
AcDbLine
 10
65.4704561153
 20
181.1984325782
 30
0.0
 11
41.9704561153
 21
181.1984325782
 31
0.0
  0
LINE
  5
1CF
330
1F
100
AcDbEntity
  8
0
  6
Continuous
 62
     7
370
    25
100
AcDbLine
 10
65.4704561153
 20
183.1984325782
 30
0.0
 11
41.9704561153
 21
183.1984325782
 31
0.0
  0
LINE
  5
1D0
330
1F
100
AcDbEntity
  8
0
  6
Continuous
 62
     7
370
    25
100
AcDbLine
 10
201.9704561153
 20
183.1984325782
 30
0.0
 11
201.9704561153
 21
181.1984325782
 31
0.0
  0
LINE
  5
1D1
330
1F
100
AcDbEntity
  8
0
  6
Continuous
 62
     7
370
    25
100
AcDbLine
 10
213.4704561153
 20
181.1984325782
 30
0.0
 11
201.9704561153
 21
181.1984325782
 31
0.0
  0
LINE
  5
1D2
330
1F
100
AcDbEntity
  8
0
  6
Continuous
 62
     7
370
    25
100
AcDbLine
 10
213.4704561153
 20
183.1984325782
 30
0.0
 11
201.9704561153
 21
183.1984325782
 31
0.0
  0
LINE
  5
1D3
330
1F
100
AcDbEntity
  8
0
  6
Continuous
 62
     7
370
    25
100
AcDbLine
 10
76.9704561153
 20
183.1984325782
 30
0.0
 11
76.9704561153
 21
181.1984325782
 31
0.0
  0
LINE
  5
1D4
330
1F
100
AcDbEntity
  8
0
  6
Continuous
 62
     7
370
    25
100
AcDbLine
 10
65.4704561153
 20
181.1984325782
 30
0.0
 11
76.9704561153
 21
181.1984325782
 31
0.0
  0
LINE
  5
1D5
330
1F
100
AcDbEntity
  8
0
  6
Continuous
 62
     7
370
    25
100
AcDbLine
 10
65.4704561153
 20
183.1984325782
 30
0.0
 11
76.9704561153
 21
183.1984325782
 31
0.0
  0
LINE
  5
1D6
330
1F
100
AcDbEntity
  8
0
  6
Continuous
 62
     7
370
    25
100
AcDbLine
 10
76.9704561153
 20
181.1984325782
 30
0.0
 11
201.9704561153
 21
181.1984325782
 31
0.0
  0
LINE
  5
1D7
330
1F
100
AcDbEntity
  8
0
  6
Continuous
 62
     7
370
    25
100
AcDbLine
 10
76.9704561153
 20
183.1984325782
 30
0.0
 11
201.9704561153
 21
183.1984325782
 31
0.0
  0
SPLINE
  5
1D8
330
1F
100
AcDbEntity
  8
0
  6
Continuous
 62
     7
370
    25
100
AcDbSpline
210
0.0
220
0.0
230
1.0
 70
     8
 71
     3
 72
    11
 73
     7
 74
     0
 42
0.00000001
 43
0.00000001
 40
0.0
 40
0.0
 40
0.0
 40
0.0
 40
0.2472454926704311
 40
0.5282132489579149
 40
0.8093312418986075
 40
1.0
 40
1.0
 40
1.0
 40
1.0
 10
238.9704561153237
 20
183.1984325782122
 30
0.0
 10
238.8902604282424
 20
183.209329667445
 30
0.0
 10
238.7189310180755
 20
183.2326101197826
 30
0.0
 10
238.4560494469711
 20
183.4230465997108
 30
0.0
 10
238.2113368143142
 20
183.6798475673103
 30
0.0
 10
238.0585895830525
 20
183.861584915021
 30
0.0
 10
237.9968580384006
 20
183.9350325782123
 30
0.0
  0
SPLINE
  5
1D9
330
1F
100
AcDbEntity
  8
0
  6
Continuous
 62
     7
370
    25
100
AcDbSpline
210
0.0
220
0.0
230
1.0
 70
     8
 71
     3
 72
    11
 73
     7
 74
     0
 42
0.00000001
 43
0.00000001
 40
0.0
 40
0.0
 40
0.0
 40
0.0
 40
0.2472454926703052
 40
0.5282132489579738
 40
0.8093312418985419
 40
1.0
 40
1.0
 40
1.0
 40
1.0
 10
40.94405419224675
 20
183.9350325782124
 30
0.0
 10
40.86385850516541
 20
183.8396367509395
 30
0.0
 10
40.69252909499836
 20
183.6358338855499
 30
0.0
 10
40.42964752389445
 20
183.3748654144505
 30
0.0
 10
40.18493489123711
 20
183.2210948080335
 30
0.0
 10
40.0321876599755
 20
183.2049552490275
 30
0.0
 10
39.97045611532369
 20
183.1984325782124
 30
0.0
  0
LINE
  5
1DA
330
1F
100
AcDbEntity
  8
0
  6
Continuous
 62
     7
370
    25
100
AcDbLine
 10
58.4704561153
 20
233.1984325782
 30
0.0
 11
40.9440541922
 21
183.9350325782
 31
0.0
  0
LINE
  5
1DB
330
1F
100
AcDbEntity
  8
0
  6
Continuous
 62
     7
370
    25
100
AcDbLine
 10
72.9704561153
 20
233.1984325782
 30
0.0
 11
58.4704561153
 21
233.1984325782
 31
0.0
  0
ARC
  5
1DC
330
1F
100
AcDbEntity
  8
0
  6
Continuous
 62
     7
370
    25
100
AcDbCircle
 10
72.9704561153
 20
231.1984325782
 30
0.0
 40
2.0
100
AcDbArc
 50
0.0
 51
90.0
  0
LINE
  5
1DD
330
1F
100
AcDbEntity
  8
0
  6
Continuous
 62
     7
370
    25
100
AcDbLine
 10
74.9704561153
 20
226.6984325782
 30
0.0
 11
74.9704561153
 21
231.1984325782
 31
0.0
  0
ARC
  5
1DE
330
1F
100
AcDbEntity
  8
0
  6
Continuous
 62
     7
370
    25
100
AcDbCircle
 10
78.9704561153
 20
226.6984325782
 30
0.0
 40
4.0
100
AcDbArc
 50
180.0
 51
270.0
  0
ARC
  5
1DF
330
1F
100
AcDbEntity
  8
0
  6
Continuous
 62
     7
370
    25
100
AcDbCircle
 10
193.5875071455
 20
220.6984325782
 30
0.0
 40
2.000000000000003
100
AcDbArc
 50
90.0
 51
199.0
  0
LINE
  5
1E0
330
1F
100
AcDbEntity
  8
0
  6
Continuous
 62
     7
370
    25
100
AcDbLine
 10
199.9704561153
 20
222.6984325782
 30
0.0
 11
193.5875071455
 21
222.6984325782
 31
0.0
  0
ARC
  5
1E1
330
1F
100
AcDbEntity
  8
0
  6
Continuous
 62
     7
370
    25
100
AcDbCircle
 10
199.9704561153
 20
226.6984325782
 30
0.0
 40
3.999999999999972
100
AcDbArc
 50
270.0
 51
0.0
  0
LINE
  5
1E2
330
1F
100
AcDbEntity
  8
0
  6
Continuous
 62
     7
370
    25
100
AcDbLine
 10
203.9704561153
 20
231.1984325782
 30
0.0
 11
203.9704561153
 21
226.6984325782
 31
0.0
  0
LINE
  5
1E3
330
1F
100
AcDbEntity
  8
0
  6
Continuous
 62
     7
370
    25
100
AcDbLine
 10
220.4704561153
 20
233.1984325782
 30
0.0
 11
205.9704561153
 21
233.1984325782
 31
0.0
  0
ARC
  5
1E4
330
1F
100
AcDbEntity
  8
0
  6
Continuous
 62
     7
370
    25
100
AcDbCircle
 10
205.9704561153
 20
231.1984325782
 30
0.0
 40
2.000000000000256
100
AcDbArc
 50
90.0
 51
180.0
  0
LINE
  5
1E5
330
1F
100
AcDbEntity
  8
0
  6
Continuous
 62
     7
370
    25
100
AcDbLine
 10
191.6964699943
 20
220.0472962693
 30
0.0
 11
200.0804561153
 21
195.6984325782
 31
0.0
  0
LINE
  5
1E6
330
1F
100
AcDbEntity
  8
0
  6
Continuous
 62
     7
370
    25
100
AcDbLine
 10
200.0804561153
 20
195.6984325782
 30
0.0
 11
78.8604561153
 21
195.6984325782
 31
0.0
  0
LINE
  5
1E7
330
1F
100
AcDbEntity
  8
0
  6
Continuous
 62
     7
370
    25
100
AcDbLine
 10
78.8604561153
 20
195.6984325782
 30
0.0
 11
87.2444422364
 21
220.0472962693
 31
0.0
  0
LINE
  5
1E8
330
1F
100
AcDbEntity
  8
0
  6
Continuous
 62
     7
370
    25
100
AcDbLine
 10
237.9968580384
 20
183.9350325782
 30
0.0
 11
220.4704561153
 21
233.1984325782
 31
0.0
  0
ARC
  5
1E9
330
1F
100
AcDbEntity
  8
0
  6
Continuous
 62
     7
370
    25
100
AcDbCircle
 10
85.3534050852
 20
220.6984325782
 30
0.0
 40
1.999999999999999
100
AcDbArc
 50
341.0
 51
90.0
  0
LINE
  5
1EA
330
1F
100
AcDbEntity
  8
0
  6
Continuous
 62
     7
370
    25
100
AcDbLine
 10
85.3534050852
 20
222.6984325782
 30
0.0
 11
78.9704561153
 21
222.6984325782
 31
0.0
  0
LINE
  5
1EB
330
1F
100
AcDbEntity
  8
0
  6
Continuous
 62
     7
370
    25
100
AcDbLine
 10
238.0072888028
 20
183.9228201194
 30
0.0
 11
221.4704561153
 21
230.6984325782
 31
0.0
  0
ARC
  5
1EC
330
1F
100
AcDbEntity
  8
0
  6
Continuous
 62
     7
370
    25
100
AcDbCircle
 10
85.4927329992
 20
201.6984325782
 30
0.0
 40
4.000000000000028
100
AcDbArc
 50
161.5
 51
270.0
  0
LINE
  5
1ED
330
1F
100
AcDbEntity
  8
0
  6
Continuous
 62
     7
370
    25
100
AcDbLine
 10
76.9704561153
 20
228.6984325782
 30
0.0
 11
76.9704561153
 21
245.6984325782
 31
0.0
  0
ARC
  5
1EE
330
1F
100
AcDbEntity
  8
0
  6
Continuous
 62
     7
370
    25
100
AcDbCircle
 10
197.9704561153
 20
228.6984325782
 30
0.0
 40
4.0
100
AcDbArc
 50
270.0
 51
0.0
  0
ARC
  5
1EF
330
1F
100
AcDbEntity
  8
0
  6
Continuous
 62
     7
370
    25
100
AcDbCircle
 10
80.9704561153
 20
228.6984325782
 30
0.0
 40
4.0
100
AcDbArc
 50
180.0
 51
270.0
  0
ARC
  5
1F0
330
1F
100
AcDbEntity
  8
0
  6
Continuous
 62
     7
370
    25
100
AcDbCircle
 10
85.4977370463
 20
222.1984325782
 30
0.0
 40
2.5
100
AcDbArc
 50
341.5
 51
90.0
  0
ARC
  5
1F1
330
1F
100
AcDbEntity
  8
0
  6
Continuous
 62
     7
370
    25
100
AcDbCircle
 10
193.4431751843
 20
222.1984325782
 30
0.0
 40
2.5
100
AcDbArc
 50
90.0
 51
198.5
  0
LINE
  5
1F2
330
1F
100
AcDbEntity
  8
0
  6
Continuous
 62
     7
370
    25
100
AcDbLine
 10
57.4704561153
 20
230.6984325782
 30
0.0
 11
40.9336985035
 21
183.9230324762
 31
0.0
  0
LINE
  5
1F3
330
1F
100
AcDbEntity
  8
0
  6
Continuous
 62
     7
370
    25
100
AcDbLine
 10
72.9704561153
 20
245.6984325782
 30
0.0
 11
60.0537894487
 21
233.1984325782
 31
0.0
  0
LINE
  5
1F4
330
1F
100
AcDbEntity
  8
0
  6
Continuous
 62
     7
370
    25
100
AcDbLine
 10
57.6390937691
 20
230.8616303076
 30
0.0
 11
57.4704561153
 21
230.6984325782
 31
0.0
  0
LINE
  5
1F5
330
1F
100
AcDbEntity
  8
0
  6
Continuous
 62
     7
370
    25
100
AcDbLine
 10
76.9704561153
 20
245.6984325782
 30
0.0
 11
72.9704561153
 21
245.6984325782
 31
0.0
  0
LINE
  5
1F6
330
1F
100
AcDbEntity
  8
0
  6
Continuous
 62
     7
370
    25
100
AcDbLine
 10
85.4977370463
 20
224.6984325782
 30
0.0
 11
80.9704561153
 21
224.6984325782
 31
0.0
  0
LINE
  5
1F7
330
1F
100
AcDbEntity
  8
0
  6
Continuous
 62
     7
370
    25
100
AcDbLine
 10
81.6994383783
 20
202.9676512038
 30
0.0
 11
87.8685461843
 21
221.4051709372
 31
0.0
  0
LINE
  5
1F8
330
1F
100
AcDbEntity
  8
0
  6
Continuous
 62
     7
370
    25
100
AcDbLine
 10
193.4481792315
 20
197.6984325782
 30
0.0
 11
85.4927329992
 21
197.6984325782
 31
0.0
  0
LINE
  5
1F9
330
1F
100
AcDbEntity
  8
0
  6
Continuous
 62
     7
370
    25
100
AcDbLine
 10
191.0723660463
 20
221.4051709372
 30
0.0
 11
197.2414738523
 21
202.9676512038
 31
0.0
  0
LINE
  5
1FA
330
1F
100
AcDbEntity
  8
0
  6
Continuous
 62
     7
370
    25
100
AcDbLine
 10
205.9704561153
 20
245.6984325782
 30
0.0
 11
201.9704561153
 21
245.6984325782
 31
0.0
  0
LINE
  5
1FB
330
1F
100
AcDbEntity
  8
0
  6
Continuous
 62
     7
370
    25
100
AcDbLine
 10
201.9704561153
 20
245.6984325782
 30
0.0
 11
201.9704561153
 21
228.6984325782
 31
0.0
  0
LINE
  5
1FC
330
1F
100
AcDbEntity
  8
0
  6
Continuous
 62
     7
370
    25
100
AcDbLine
 10
197.9704561153
 20
224.6984325782
 30
0.0
 11
193.4431751843
 21
224.6984325782
 31
0.0
  0
LINE
  5
1FD
330
1F
100
AcDbEntity
  8
0
  6
Continuous
 62
     7
370
    25
100
AcDbLine
 10
221.4704561153
 20
230.6984325782
 30
0.0
 11
221.3018184616
 21
230.8616303076
 31
0.0
  0
LINE
  5
1FE
330
1F
100
AcDbEntity
  8
0
  6
Continuous
 62
     7
370
    25
100
AcDbLine
 10
218.887122782
 20
233.1984325782
 30
0.0
 11
205.9704561153
 21
245.6984325782
 31
0.0
  0
ARC
  5
1FF
330
1F
100
AcDbEntity
  8
0
  6
Continuous
 62
     7
370
    25
100
AcDbCircle
 10
193.4481792315
 20
201.6984325782
 30
0.0
 40
4.000000000000028
100
AcDbArc
 50
270.0
 51
18.5
  0
ARC
  5
200
330
1F
100
AcDbEntity
  8
0
  6
Continuous
 62
     7
370
    25
100
AcDbCircle
 10
206.4704561153
 20
243.6984325782
 30
0.0
 40
2.0
100
AcDbArc
 50
0.0
 51
90.0
  0
LINE
  5
201
330
1F
100
AcDbEntity
  8
0
  6
Continuous
 62
     7
370
    25
100
AcDbLine
 10
208.4704561153
 20
243.2790777395
 30
0.0
 11
208.4704561153
 21
243.6984325782
 31
0.0
  0
LINE
  5
202
330
1F
100
AcDbEntity
  8
0
  6
Continuous
 62
     7
370
    25
100
AcDbLine
 10
39.9704561153
 20
185.1984325782
 30
0.0
 11
41.3845975295
 21
185.1984325782
 31
0.0
  0
LINE
  5
203
330
1F
100
AcDbEntity
  8
0
  6
Continuous
 62
     7
370
    25
100
AcDbLine
 10
237.5563147012
 20
185.1984325782
 30
0.0
 11
238.9704561153
 21
185.1984325782
 31
0.0
  0
LINE
  5
204
330
1F
100
AcDbEntity
  8
0
  6
Continuous
 62
     7
370
    25
100
AcDbLine
 10
58.4704561153
 20
233.1984325782
 30
0.0
 11
57.5286018817
 21
230.7547026747
 31
0.0
  0
LINE
  5
205
330
1F
100
AcDbEntity
  8
0
  6
Continuous
 62
     7
370
    25
100
AcDbLine
 10
57.0661656863
 20
229.5548682218
 30
0.0
 11
39.9704561153
 21
185.1984325782
 31
0.0
  0
ARC
  5
206
330
1F
100
AcDbEntity
  8
0
  6
Continuous
 62
     7
370
    25
100
AcDbCircle
 10
72.4704561153
 20
243.6984325782
 30
0.0
 40
2.0
100
AcDbArc
 50
90.0
 51
180.0
  0
LINE
  5
207
330
1F
100
AcDbEntity
  8
0
  6
Continuous
 62
     7
370
    25
100
AcDbLine
 10
70.4704561153
 20
243.6984325782
 30
0.0
 11
70.4704561153
 21
243.2790777395
 31
0.0
  0
LINE
  5
208
330
1F
100
AcDbEntity
  8
0
  6
Continuous
 62
     7
370
    25
100
AcDbLine
 10
238.9704561153
 20
185.1984325782
 30
0.0
 11
221.8747465444
 21
229.5548682218
 31
0.0
  0
LINE
  5
209
330
1F
100
AcDbEntity
  8
0
  6
Continuous
 62
     7
370
    25
100
AcDbLine
 10
221.412310349
 20
230.7547026747
 30
0.0
 11
220.4704561153
 21
233.1984325782
 31
0.0
  0
LINE
  5
20A
330
1F
100
AcDbEntity
  8
0
  6
Continuous
 62
     7
370
    25
100
AcDbLine
 10
206.4704561153
 20
245.6984325782
 30
0.0
 11
205.9704561153
 21
245.6984325782
 31
0.0
  0
LINE
  5
20B
330
1F
100
AcDbEntity
  8
0
  6
Continuous
 62
     7
370
    25
100
AcDbLine
 10
201.9704561153
 20
245.6984325782
 30
0.0
 11
76.9704561153
 21
245.6984325782
 31
0.0
  0
LINE
  5
20C
330
1F
100
AcDbEntity
  8
0
  6
Continuous
 62
     7
370
    25
100
AcDbLine
 10
72.9704561153
 20
245.6984325782
 30
0.0
 11
72.4704561153
 21
245.6984325782
 31
0.0
  0
LINE
  5
20D
330
1F
100
AcDbEntity
  8
0
  6
Continuous
 62
     8
370
    18
100
AcDbLine
 10
41.9704561153
 20
183.1984325782
 30
0.0
 11
41.9704561153
 21
181.1984325782
 31
0.0
  0
LINE
  5
20E
330
1F
100
AcDbEntity
  8
0
  6
Continuous
 62
     8
370
    18
100
AcDbLine
 10
236.9704561153
 20
181.1984325782
 30
0.0
 11
236.9704561153
 21
183.1984325782
 31
0.0
  0
LINE
  5
20F
330
1F
100
AcDbEntity
  8
0
  6
Continuous
 62
     8
370
    18
100
AcDbLine
 10
237.9968580384
 20
183.9350325782
 30
0.0
 11
40.9440541922
 21
183.9350325782
 31
0.0
  0
DIMENSION
  5
210
330
1F
100
AcDbEntity
  8
0
  6
Continuous
 62
     7
370
    18
100
AcDbDimension
  2
_D
 10
245.0244371517
 20
245.6984325782
 30
0.0
 11
245.0244371517
 21
213.4484325782
 31
0.0
 70
   160
  1
<>
 71
     2
 42
-1.0
  3
SLDDIMSTYLE0
100
AcDbAlignedDimension
 13
236.9704561153
 23
181.1984325782
 33
0.0
 14
206.4704561153
 24
245.6984325782
 34
0.0
 50
90.0
100
AcDbRotatedDimension
  0
DIMENSION
  5
21B
330
1F
100
AcDbEntity
  8
0
  6
Continuous
 62
     7
370
    18
100
AcDbDimension
  2
_D_1
 10
212.4704561153
 20
275.6984325782
 30
0.0
 11
139.4704561153
 21
275.6984325782
 31
0.0
 70
   160
  1
<>
 71
     2
 42
-1.0
  3
SLDDIMSTYLE0
100
AcDbAlignedDimension
 13
66.4704561153
 23
209.1984325782
 33
0.0
 14
212.4704561153
 24
209.1984325782
 34
0.0
100
AcDbRotatedDimension
  0
DIMENSION
  5
225
330
1F
100
AcDbEntity
  8
0
  6
Continuous
 62
     7
370
    18
100
AcDbDimension
  2
_D_2
 10
197.4481792315
 20
255.6984325782
 30
0.0
 11
139.4704561153
 21
255.6984325782
 31
0.0
 70
   160
  1
<>
 71
     2
 42
-1.0
  3
SLDDIMSTYLE1
100
AcDbAlignedDimension
 13
81.4927329992
 23
201.6984325782
 33
0.0
 14
197.4481792315
 24
201.6984325782
 34
0.0
100
AcDbRotatedDimension
  0
DIMENSION
  5
230
330
1F
100
AcDbEntity
  8
0
  6
Continuous
 62
     7
370
    18
100
AcDbDimension
  2
_D_3
 10
201.9704561153
 20
265.6984325782
 30
0.0
 11
139.4704561153
 21
265.6984325782
 31
0.0
 70
   160
  1
<>
 71
     2
 42
-1.0
  3
SLDDIMSTYLE0
100
AcDbAlignedDimension
 13
76.9704561153
 23
245.6984325782
 33
0.0
 14
201.9704561153
 24
245.6984325782
 34
0.0
100
AcDbRotatedDimension
  0
LINE
  5
23A
330
1F
100
AcDbEntity
  8
0
  6
Continuous
 62
     7
370
    25
100
AcDbLine
 10
338.1410467064
 20
216.7039860777
 30
0.0
 11
337.5604901228
 21
215.6984325782
 31
0.0
  0
LINE
  5
23B
330
1F
100
AcDbEntity
  8
0
  6
Continuous
 62
     7
370
    25
100
AcDbLine
 10
337.5604901228
 20
202.6984325782
 30
0.0
 11
338.1410467064
 21
201.6928790787
 31
0.0
  0
LINE
  5
23C
330
1F
100
AcDbEntity
  8
0
  6
Continuous
 62
     7
370
    25
100
AcDbLine
 10
345.4604901228
 20
215.6984325782
 30
0.0
 11
344.8799335392
 21
216.7039860777
 31
0.0
  0
LINE
  5
23D
330
1F
100
AcDbEntity
  8
0
  6
Continuous
 62
     7
370
    25
100
AcDbLine
 10
344.8799335392
 20
201.6928790787
 30
0.0
 11
345.4604901228
 21
202.6984325782
 31
0.0
  0
LINE
  5
23E
330
1F
100
AcDbEntity
  8
0
  6
Continuous
 62
     7
370
    25
100
AcDbLine
 10
329.9604901228
 20
202.6984325782
 30
0.0
 11
330.5604901228
 21
202.6984325782
 31
0.0
  0
LINE
  5
23F
330
1F
100
AcDbEntity
  8
0
  6
Continuous
 62
     7
370
    25
100
AcDbLine
 10
330.5604901228
 20
215.6984325782
 30
0.0
 11
329.9604901228
 21
215.6984325782
 31
0.0
  0
LINE
  5
240
330
1F
100
AcDbEntity
  8
0
  6
Continuous
 62
     7
370
    25
100
AcDbLine
 10
345.4604901228
 20
205.1984325782
 30
0.0
 11
349.8699901228
 21
205.1984325782
 31
0.0
  0
LINE
  5
241
330
1F
100
AcDbEntity
  8
0
  6
Continuous
 62
     7
370
    25
100
AcDbLine
 10
349.8699901228
 20
213.1984325782
 30
0.0
 11
345.4604901228
 21
213.1984325782
 31
0.0
  0
LINE
  5
242
330
1F
100
AcDbEntity
  8
0
  6
Continuous
 62
     7
370
    25
100
AcDbLine
 10
349.8699901228
 20
205.1984325782
 30
0.0
 11
350.5604901228
 21
205.8889325782
 31
0.0
  0
LINE
  5
243
330
1F
100
AcDbEntity
  8
0
  6
Continuous
 62
     7
370
    25
100
AcDbLine
 10
350.5604901228
 20
212.5079325782
 30
0.0
 11
349.8699901228
 21
213.1984325782
 31
0.0
  0
LINE
  5
244
330
1F
100
AcDbEntity
  8
0
  6
Continuous
 62
     7
370
    25
100
AcDbLine
 10
324.8854901228
 20
202.6984325782
 30
0.0
 11
325.4660467064
 21
201.6928790787
 31
0.0
  0
LINE
  5
245
330
1F
100
AcDbEntity
  8
0
  6
Continuous
 62
     7
370
    25
100
AcDbLine
 10
325.4660467064
 20
216.7039860777
 30
0.0
 11
324.8854901228
 21
215.6984325782
 31
0.0
  0
SPLINE
  5
246
330
1F
100
AcDbEntity
  8
0
  6
Continuous
 62
     7
370
    25
100
AcDbSpline
210
0.0
220
0.0
230
1.0
 70
     8
 71
     3
 72
    10
 73
     6
 74
     0
 42
0.00000001
 43
0.00000001
 40
0.0
 40
0.0
 40
0.0
 40
0.0
 40
0.2572432618847617
 40
0.6263798857723036
 40
1.0
 40
1.0
 40
1.0
 40
1.0
 10
338.141046706377
 20
205.4456558284798
 30
0.0
 10
338.0554937178333
 20
205.7607974043813
 30
0.0
 10
337.8471746707223
 20
206.5281580064394
 30
0.0
 10
337.6139942226087
 20
207.7805981364115
 30
0.0
 10
337.5783964488068
 20
208.7239230387232
 30
0.0
 10
337.5604901227763
 20
209.1984325782124
 30
0.0
  0
SPLINE
  5
247
330
1F
100
AcDbEntity
  8
0
  6
Continuous
 62
     7
370
    25
100
AcDbSpline
210
0.0
220
0.0
230
1.0
 70
     8
 71
     3
 72
    10
 73
     6
 74
     0
 42
0.00000001
 43
0.00000001
 40
0.0
 40
0.0
 40
0.0
 40
0.0
 40
0.2684065359321873
 40
0.6323728964502838
 40
0.9999999999999999
 40
0.9999999999999999
 40
0.9999999999999999
 40
0.9999999999999999
 10
337.5604901227763
 20
209.1984325782124
 30
0.0
 10
337.5699226032751
 20
209.5392398444199
 30
0.0
 10
337.5921457767645
 20
210.3421907759778
 30
0.0
 10
337.7830248120956
 20
211.6019166063815
 30
0.0
 10
338.0213086338924
 20
212.499947233983
 30
0.0
 10
338.1410467063771
 20
212.9512093279449
 30
0.0
  0
LINE
  5
248
330
1F
100
AcDbEntity
  8
0
  6
Continuous
 62
     7
370
    25
100
AcDbLine
 10
338.1410467064
 20
212.9512093279
 30
0.0
 11
344.8799335392
 21
212.9512093279
 31
0.0
  0
SPLINE
  5
249
330
1F
100
AcDbEntity
  8
0
  6
Continuous
 62
     7
370
    25
100
AcDbSpline
210
0.0
220
0.0
230
1.0
 70
     8
 71
     3
 72
    10
 73
     6
 74
     0
 42
0.00000001
 43
0.00000001
 40
0.0
 40
0.0
 40
0.0
 40
0.0
 40
0.2684065359321904
 40
0.6323728964502868
 40
1.0
 40
1.0
 40
1.0
 40
1.0
 10
345.4604901227763
 20
209.1984325782124
 30
0.0
 10
345.4510576422775
 20
209.5392398444199
 30
0.0
 10
345.428834468788
 20
210.3421907759778
 30
0.0
 10
345.237955433457
 20
211.6019166063815
 30
0.0
 10
344.9996716116602
 20
212.499947233983
 30
0.0
 10
344.8799335391756
 20
212.9512093279449
 30
0.0
  0
SPLINE
  5
24A
330
1F
100
AcDbEntity
  8
0
  6
Continuous
 62
     7
370
    25
100
AcDbSpline
210
0.0
220
0.0
230
1.0
 70
     8
 71
     3
 72
    10
 73
     6
 74
     0
 42
0.00000001
 43
0.00000001
 40
0.0
 40
0.0
 40
0.0
 40
0.0
 40
0.2572432618847622
 40
0.6263798857723027
 40
0.9999999999999999
 40
0.9999999999999999
 40
0.9999999999999999
 40
0.9999999999999999
 10
344.8799335391755
 20
205.4456558284798
 30
0.0
 10
344.9654865277193
 20
205.7607974043813
 30
0.0
 10
345.1738055748303
 20
206.5281580064394
 30
0.0
 10
345.4069860229437
 20
207.7805981364116
 30
0.0
 10
345.4425837967456
 20
208.7239230387232
 30
0.0
 10
345.4604901227763
 20
209.1984325782124
 30
0.0
  0
LINE
  5
24B
330
1F
100
AcDbEntity
  8
0
  6
Continuous
 62
     7
370
    25
100
AcDbLine
 10
338.1410467064
 20
205.4456558285
 30
0.0
 11
344.8799335392
 21
205.4456558285
 31
0.0
  0
SPLINE
  5
24C
330
1F
100
AcDbEntity
  8
0
  6
Continuous
 62
     7
370
    25
100
AcDbSpline
210
0.0
220
0.0
230
1.0
 70
     8
 71
     3
 72
     9
 73
     5
 74
     0
 42
0.00000001
 43
0.00000001
 40
0.0
 40
0.0
 40
0.0
 40
0.0
 40
0.4954579634770065
 40
1.0
 40
1.0
 40
1.0
 40
1.0
 10
338.141046706377
 20
212.9512093279449
 30
0.0
 10
337.9787822936102
 20
213.2559430490812
 30
0.0
 10
337.6512783987729
 20
213.8709976926632
 30
0.0
 10
337.590935600903
 20
214.506805790361
 30
0.0
 10
337.5604901227763
 20
214.8275977028112
 30
0.0
  0
SPLINE
  5
24D
330
1F
100
AcDbEntity
  8
0
  6
Continuous
 62
     7
370
    25
100
AcDbSpline
210
0.0
220
0.0
230
1.0
 70
     8
 71
     3
 72
    10
 73
     6
 74
     0
 42
0.00000001
 43
0.00000001
 40
0.0
 40
0.0
 40
0.0
 40
0.0
 40
0.0700769119681922
 40
0.5307776640394113
 40
1.0
 40
1.0
 40
1.0
 40
1.0
 10
337.5604901227763
 20
214.8275977028112
 30
0.0
 10
337.5611830610047
 20
214.8720658307714
 30
0.0
 10
337.5664315247837
 20
215.2088770346336
 30
0.0
 10
337.6932227358008
 20
215.8439260566891
 30
0.0
 10
337.9908628827589
 20
216.4155533206572
 30
0.0
 10
338.141046706377
 20
216.7039860776775
 30
0.0
  0
LINE
  5
24E
330
1F
100
AcDbEntity
  8
0
  6
Continuous
 62
     7
370
    25
100
AcDbLine
 10
338.1410467064
 20
216.7039860777
 30
0.0
 11
344.8799335392
 21
216.7039860777
 31
0.0
  0
SPLINE
  5
24F
330
1F
100
AcDbEntity
  8
0
  6
Continuous
 62
     7
370
    25
100
AcDbSpline
210
0.0
220
0.0
230
1.0
 70
     8
 71
     3
 72
    10
 73
     6
 74
     0
 42
0.00000001
 43
0.00000001
 40
0.0
 40
0.0
 40
0.0
 40
0.0
 40
0.0700769119681922
 40
0.5307776640394113
 40
1.0
 40
1.0
 40
1.0
 40
1.0
 10
345.4604901227763
 20
214.8275977028112
 30
0.0
 10
345.4597971845479
 20
214.8720658307714
 30
0.0
 10
345.4545487207689
 20
215.2088770346336
 30
0.0
 10
345.3277575097517
 20
215.8439260566891
 30
0.0
 10
345.0301173627936
 20
216.4155533206572
 30
0.0
 10
344.8799335391755
 20
216.7039860776775
 30
0.0
  0
SPLINE
  5
250
330
1F
100
AcDbEntity
  8
0
  6
Continuous
 62
     7
370
    25
100
AcDbSpline
210
0.0
220
0.0
230
1.0
 70
     8
 71
     3
 72
     9
 73
     5
 74
     0
 42
0.00000001
 43
0.00000001
 40
0.0
 40
0.0
 40
0.0
 40
0.0
 40
0.4954579634770056
 40
1.0
 40
1.0
 40
1.0
 40
1.0
 10
344.8799335391755
 20
212.9512093279449
 30
0.0
 10
345.0421979519422
 20
213.2559430490811
 30
0.0
 10
345.3697018467794
 20
213.8709976926632
 30
0.0
 10
345.4300446446495
 20
214.506805790361
 30
0.0
 10
345.4604901227763
 20
214.8275977028112
 30
0.0
  0
SPLINE
  5
251
330
1F
100
AcDbEntity
  8
0
  6
Continuous
 62
     7
370
    25
100
AcDbSpline
210
0.0
220
0.0
230
1.0
 70
     8
 71
     3
 72
     9
 73
     5
 74
     0
 42
0.00000001
 43
0.00000001
 40
0.0
 40
0.0
 40
0.0
 40
0.0
 40
0.4954579634770057
 40
1.0
 40
1.0
 40
1.0
 40
1.0
 10
338.141046706377
 20
201.6928790787472
 30
0.0
 10
337.9787822936102
 20
201.9976127998835
 30
0.0
 10
337.6512783987731
 20
202.6126674434655
 30
0.0
 10
337.5909356009032
 20
203.2484755411633
 30
0.0
 10
337.5604901227763
 20
203.5692674536135
 30
0.0
  0
SPLINE
  5
252
330
1F
100
AcDbEntity
  8
0
  6
Continuous
 62
     7
370
    25
100
AcDbSpline
210
0.0
220
0.0
230
1.0
 70
     8
 71
     3
 72
    10
 73
     6
 74
     0
 42
0.00000001
 43
0.00000001
 40
0.0
 40
0.0
 40
0.0
 40
0.0
 40
0.0700769119681871
 40
0.5307776640394103
 40
1.0
 40
1.0
 40
1.0
 40
1.0
 10
337.5604901227763
 20
203.5692674536135
 30
0.0
 10
337.5611830610047
 20
203.6137355815738
 30
0.0
 10
337.5664315247837
 20
203.9505467854358
 30
0.0
 10
337.6932227358008
 20
204.5855958074914
 30
0.0
 10
337.990862882759
 20
205.1572230714594
 30
0.0
 10
338.141046706377
 20
205.4456558284798
 30
0.0
  0
SPLINE
  5
253
330
1F
100
AcDbEntity
  8
0
  6
Continuous
 62
     7
370
    25
100
AcDbSpline
210
0.0
220
0.0
230
1.0
 70
     8
 71
     3
 72
    10
 73
     6
 74
     0
 42
0.00000001
 43
0.00000001
 40
0.0
 40
0.0
 40
0.0
 40
0.0
 40
0.0700769119681871
 40
0.5307776640394103
 40
1.0
 40
1.0
 40
1.0
 40
1.0
 10
345.4604901227763
 20
203.5692674536135
 30
0.0
 10
345.4597971845478
 20
203.6137355815738
 30
0.0
 10
345.4545487207687
 20
203.9505467854358
 30
0.0
 10
345.3277575097516
 20
204.5855958074914
 30
0.0
 10
345.0301173627936
 20
205.1572230714594
 30
0.0
 10
344.8799335391755
 20
205.4456558284798
 30
0.0
  0
SPLINE
  5
254
330
1F
100
AcDbEntity
  8
0
  6
Continuous
 62
     7
370
    25
100
AcDbSpline
210
0.0
220
0.0
230
1.0
 70
     8
 71
     3
 72
     9
 73
     5
 74
     0
 42
0.00000001
 43
0.00000001
 40
0.0
 40
0.0
 40
0.0
 40
0.0
 40
0.4954579634770057
 40
1.0
 40
1.0
 40
1.0
 40
1.0
 10
344.8799335391755
 20
201.6928790787472
 30
0.0
 10
345.0421979519423
 20
201.9976127998835
 30
0.0
 10
345.3697018467795
 20
202.6126674434655
 30
0.0
 10
345.4300446446495
 20
203.2484755411633
 30
0.0
 10
345.4604901227763
 20
203.5692674536135
 30
0.0
  0
LINE
  5
255
330
1F
100
AcDbEntity
  8
0
  6
Continuous
 62
     7
370
    25
100
AcDbLine
 10
338.1410467064
 20
201.6928790787
 30
0.0
 11
344.8799335392
 21
201.6928790787
 31
0.0
  0
LINE
  5
256
330
1F
100
AcDbEntity
  8
0
  6
Continuous
 62
     7
370
    25
100
AcDbLine
 10
345.4604901228
 20
209.1984325782
 30
0.0
 11
345.4604901228
 21
203.5692674536
 31
0.0
  0
LINE
  5
257
330
1F
100
AcDbEntity
  8
0
  6
Continuous
 62
     7
370
    25
100
AcDbLine
 10
345.4604901228
 20
214.8275977028
 30
0.0
 11
345.4604901228
 21
209.1984325782
 31
0.0
  0
LINE
  5
258
330
1F
100
AcDbEntity
  8
0
  6
Continuous
 62
     7
370
    25
100
AcDbLine
 10
345.4604901228
 20
215.6984325782
 30
0.0
 11
345.4604901228
 21
214.8275977028
 31
0.0
  0
LINE
  5
259
330
1F
100
AcDbEntity
  8
0
  6
Continuous
 62
     7
370
    25
100
AcDbLine
 10
345.4604901228
 20
203.5692674536
 30
0.0
 11
345.4604901228
 21
202.6984325782
 31
0.0
  0
LINE
  5
25A
330
1F
100
AcDbEntity
  8
0
  6
Continuous
 62
     7
370
    25
100
AcDbLine
 10
329.9604901228
 20
209.1984325782
 30
0.0
 11
329.9604901228
 21
205.4456558285
 31
0.0
  0
LINE
  5
25B
330
1F
100
AcDbEntity
  8
0
  6
Continuous
 62
     7
370
    25
100
AcDbLine
 10
329.9604901228
 20
205.4456558285
 30
0.0
 11
325.4660467064
 21
205.4456558285
 31
0.0
  0
SPLINE
  5
25C
330
1F
100
AcDbEntity
  8
0
  6
Continuous
 62
     7
370
    25
100
AcDbSpline
210
0.0
220
0.0
230
1.0
 70
     8
 71
     3
 72
    10
 73
     6
 74
     0
 42
0.00000001
 43
0.00000001
 40
0.0
 40
0.0
 40
0.0
 40
0.0
 40
0.223412705133554
 40
0.6092013713252109
 40
1.0
 40
1.0
 40
1.0
 40
1.0
 10
325.4660467063771
 20
205.4456558284798
 30
0.0
 10
325.3912483589885
 20
205.7191852421316
 30
0.0
 10
325.1872883569166
 20
206.4650447660778
 30
0.0
 10
324.943951211651
 20
207.7157953752541
 30
0.0
 10
324.9050607830887
 20
208.7020992114533
 30
0.0
 10
324.8854901227763
 20
209.1984325782124
 30
0.0
  0
SPLINE
  5
25D
330
1F
100
AcDbEntity
  8
0
  6
Continuous
 62
     7
370
    25
100
AcDbSpline
210
0.0
220
0.0
230
1.0
 70
     8
 71
     3
 72
    10
 73
     6
 74
     0
 42
0.00000001
 43
0.00000001
 40
0.0
 40
0.0
 40
0.0
 40
0.0
 40
0.2416195576541313
 40
0.6187318536530445
 40
0.9999999999999999
 40
0.9999999999999999
 40
0.9999999999999999
 40
0.9999999999999999
 10
324.8854901227763
 20
209.1984325782124
 30
0.0
 10
324.8931972354443
 20
209.5052045870764
 30
0.0
 10
324.9129333700261
 20
210.2907768128358
 30
0.0
 10
325.0957863221017
 20
211.5519754711935
 30
0.0
 10
325.342176513601
 20
212.483097223773
 30
0.0
 10
325.466046706377
 20
212.9512093279449
 30
0.0
  0
LINE
  5
25E
330
1F
100
AcDbEntity
  8
0
  6
Continuous
 62
     7
370
    25
100
AcDbLine
 10
329.9604901228
 20
212.9512093279
 30
0.0
 11
325.4660467064
 21
212.9512093279
 31
0.0
  0
LINE
  5
25F
330
1F
100
AcDbEntity
  8
0
  6
Continuous
 62
     7
370
    25
100
AcDbLine
 10
329.9604901228
 20
212.9512093279
 30
0.0
 11
329.9604901228
 21
209.1984325782
 31
0.0
  0
SPLINE
  5
260
330
1F
100
AcDbEntity
  8
0
  6
Continuous
 62
     7
370
    25
100
AcDbSpline
210
0.0
220
0.0
230
1.0
 70
     8
 71
     3
 72
     9
 73
     5
 74
     0
 42
0.00000001
 43
0.00000001
 40
0.0
 40
0.0
 40
0.0
 40
0.0
 40
0.4954579634770075
 40
1.0
 40
1.0
 40
1.0
 40
1.0
 10
325.466046706377
 20
212.9512093279449
 30
0.0
 10
325.3037822936103
 20
213.2559430490812
 30
0.0
 10
324.9762783987731
 20
213.8709976926633
 30
0.0
 10
324.9159356009031
 20
214.506805790361
 30
0.0
 10
324.8854901227763
 20
214.8275977028112
 30
0.0
  0
LINE
  5
261
330
1F
100
AcDbEntity
  8
0
  6
Continuous
 62
     7
370
    25
100
AcDbLine
 10
324.8854901228
 20
209.1984325782
 30
0.0
 11
324.8854901228
 21
214.8275977028
 31
0.0
  0
SPLINE
  5
262
330
1F
100
AcDbEntity
  8
0
  6
Continuous
 62
     7
370
    25
100
AcDbSpline
210
0.0
220
0.0
230
1.0
 70
     8
 71
     3
 72
    10
 73
     6
 74
     0
 42
0.00000001
 43
0.00000001
 40
0.0
 40
0.0
 40
0.0
 40
0.0
 40
0.0700769119681855
 40
0.530777664039408
 40
1.0
 40
1.0
 40
1.0
 40
1.0
 10
324.8854901227763
 20
203.5692674536135
 30
0.0
 10
324.8861830610047
 20
203.6137355815738
 30
0.0
 10
324.8914315247835
 20
203.9505467854359
 30
0.0
 10
325.0182227358008
 20
204.5855958074914
 30
0.0
 10
325.3158628827589
 20
205.1572230714595
 30
0.0
 10
325.466046706377
 20
205.4456558284798
 30
0.0
  0
LINE
  5
263
330
1F
100
AcDbEntity
  8
0
  6
Continuous
 62
     7
370
    25
100
AcDbLine
 10
324.8854901228
 20
209.1984325782
 30
0.0
 11
324.8854901228
 21
203.5692674536
 31
0.0
  0
LINE
  5
264
330
1F
100
AcDbEntity
  8
0
  6
Continuous
 62
     7
370
    25
100
AcDbLine
 10
329.9604901228
 20
203.5692674536
 30
0.0
 11
329.9604901228
 21
201.6928790787
 31
0.0
  0
LINE
  5
265
330
1F
100
AcDbEntity
  8
0
  6
Continuous
 62
     7
370
    25
100
AcDbLine
 10
329.9604901228
 20
201.6928790787
 30
0.0
 11
325.4660467064
 21
201.6928790787
 31
0.0
  0
SPLINE
  5
266
330
1F
100
AcDbEntity
  8
0
  6
Continuous
 62
     7
370
    25
100
AcDbSpline
210
0.0
220
0.0
230
1.0
 70
     8
 71
     3
 72
     9
 73
     5
 74
     0
 42
0.00000001
 43
0.00000001
 40
0.0
 40
0.0
 40
0.0
 40
0.0
 40
0.4954579634770075
 40
0.9999999999999999
 40
0.9999999999999999
 40
0.9999999999999999
 40
0.9999999999999999
 10
325.4660467063771
 20
201.6928790787472
 30
0.0
 10
325.3037822936103
 20
201.9976127998835
 30
0.0
 10
324.9762783987731
 20
202.6126674434655
 30
0.0
 10
324.9159356009031
 20
203.2484755411633
 30
0.0
 10
324.8854901227763
 20
203.5692674536135
 30
0.0
  0
LINE
  5
267
330
1F
100
AcDbEntity
  8
0
  6
Continuous
 62
     7
370
    25
100
AcDbLine
 10
329.9604901228
 20
205.4456558285
 30
0.0
 11
329.9604901228
 21
203.5692674536
 31
0.0
  0
LINE
  5
268
330
1F
100
AcDbEntity
  8
0
  6
Continuous
 62
     7
370
    25
100
AcDbLine
 10
329.9604901228
 20
214.8275977028
 30
0.0
 11
329.9604901228
 21
212.9512093279
 31
0.0
  0
SPLINE
  5
269
330
1F
100
AcDbEntity
  8
0
  6
Continuous
 62
     7
370
    25
100
AcDbSpline
210
0.0
220
0.0
230
1.0
 70
     8
 71
     3
 72
    10
 73
     6
 74
     0
 42
0.00000001
 43
0.00000001
 40
0.0
 40
0.0
 40
0.0
 40
0.0
 40
0.0700769119681896
 40
0.5307776640394098
 40
0.9999999999999999
 40
0.9999999999999999
 40
0.9999999999999999
 40
0.9999999999999999
 10
324.8854901227763
 20
214.8275977028112
 30
0.0
 10
324.8861830610047
 20
214.8720658307714
 30
0.0
 10
324.8914315247836
 20
215.2088770346336
 30
0.0
 10
325.0182227358008
 20
215.8439260566891
 30
0.0
 10
325.315862882759
 20
216.4155533206572
 30
0.0
 10
325.466046706377
 20
216.7039860776775
 30
0.0
  0
LINE
  5
26A
330
1F
100
AcDbEntity
  8
0
  6
Continuous
 62
     7
370
    25
100
AcDbLine
 10
329.9604901228
 20
216.7039860777
 30
0.0
 11
325.4660467064
 21
216.7039860777
 31
0.0
  0
LINE
  5
26B
330
1F
100
AcDbEntity
  8
0
  6
Continuous
 62
     7
370
    25
100
AcDbLine
 10
329.9604901228
 20
216.7039860777
 30
0.0
 11
329.9604901228
 21
214.8275977028
 31
0.0
  0
LINE
  5
26C
330
1F
100
AcDbEntity
  8
0
  6
Continuous
 62
     7
370
    25
100
AcDbLine
 10
349.8699901228
 20
209.1984325782
 30
0.0
 11
349.8699901228
 21
213.1984325782
 31
0.0
  0
LINE
  5
26D
330
1F
100
AcDbEntity
  8
0
  6
Continuous
 62
     7
370
    25
100
AcDbLine
 10
349.8699901228
 20
205.1984325782
 30
0.0
 11
349.8699901228
 21
209.1984325782
 31
0.0
  0
LINE
  5
26E
330
1F
100
AcDbEntity
  8
0
  6
Continuous
 62
     7
370
    25
100
AcDbLine
 10
350.5604901228
 20
209.1984325782
 30
0.0
 11
350.5604901228
 21
212.5079325782
 31
0.0
  0
LINE
  5
26F
330
1F
100
AcDbEntity
  8
0
  6
Continuous
 62
     7
370
    25
100
AcDbLine
 10
350.5604901228
 20
205.8889325782
 30
0.0
 11
350.5604901228
 21
209.1984325782
 31
0.0
  0
LINE
  5
270
330
1F
100
AcDbEntity
  8
0
  6
Continuous
 62
     7
370
    25
100
AcDbLine
 10
324.8854901228
 20
203.5692674536
 30
0.0
 11
324.8854901228
 21
202.6984325782
 31
0.0
  0
LINE
  5
271
330
1F
100
AcDbEntity
  8
0
  6
Continuous
 62
     7
370
    25
100
AcDbLine
 10
324.8854901228
 20
215.6984325782
 30
0.0
 11
324.8854901228
 21
214.8275977028
 31
0.0
  0
LINE
  5
272
330
1F
100
AcDbEntity
  8
0
  6
Continuous
 62
     7
370
    25
100
AcDbLine
 10
337.5604901228
 20
183.9350325782
 30
0.0
 11
335.5604901228
 21
183.9350325782
 31
0.0
  0
SPLINE
  5
273
330
1F
100
AcDbEntity
  8
0
  6
Continuous
 62
     7
370
    25
100
AcDbSpline
210
0.0
220
0.0
230
1.0
 70
     8
 71
     3
 72
    11
 73
     7
 74
     0
 42
0.00000001
 43
0.00000001
 40
0.0
 40
0.0
 40
0.0
 40
0.0
 40
0.2472454926703052
 40
0.5282132489579738
 40
0.8093312418985419
 40
1.0
 40
1.0
 40
1.0
 40
1.0
 10
337.5604901227763
 20
183.9350325782124
 30
0.0
 10
337.571387212009
 20
183.8396367509395
 30
0.0
 10
337.5946676643468
 20
183.6358338855499
 30
0.0
 10
337.7851041442748
 20
183.3748654144505
 30
0.0
 10
338.0419051118743
 20
183.2210948080335
 30
0.0
 10
338.223642459585
 20
183.2049552490275
 30
0.0
 10
338.2970901227762
 20
183.1984325782124
 30
0.0
  0
LINE
  5
274
330
1F
100
AcDbEntity
  8
0
  6
Continuous
 62
     7
370
    25
100
AcDbLine
 10
338.2970901228
 20
183.1984325782
 30
0.0
 11
338.2970901228
 21
181.1984325782
 31
0.0
  0
SPLINE
  5
275
330
1F
100
AcDbEntity
  8
0
  6
Continuous
 62
     7
370
    25
100
AcDbSpline
210
0.0
220
0.0
230
1.0
 70
     8
 71
     3
 72
    12
 73
     8
 74
     0
 42
0.00000001
 43
0.00000001
 40
0.0
 40
0.0
 40
0.0
 40
0.0
 40
0.2335879420900816
 40
0.4537901450808384
 40
0.6739877272615065
 40
0.894185218480903
 40
1.0
 40
1.0
 40
1.0
 40
1.0
 10
335.5604901227763
 20
183.9350325782125
 30
0.0
 10
335.59628296683
 20
183.6001001887049
 30
0.0
 10
335.6658175487552
 20
182.9494286845728
 30
0.0
 10
336.1899651050757
 20
182.1078610816513
 30
0.0
 10
336.9288260132023
 20
181.5033265011283
 30
0.0
 10
337.6809259308598
 20
181.2292871339784
 30
0.0
 10
338.146105420209
 20
181.2059931699934
 30
0.0
 10
338.2970901227762
 20
181.1984325782124
 30
0.0
  0
LINE
  5
276
330
1F
100
AcDbEntity
  8
0
  6
Continuous
 62
     7
370
    25
100
AcDbLine
 10
360.5604901228
 20
181.1984325782
 30
0.0
 11
338.2970901228
 21
181.1984325782
 31
0.0
  0
LINE
  5
277
330
1F
100
AcDbEntity
  8
0
  6
Continuous
 62
     7
370
    25
100
AcDbLine
 10
360.5604901228
 20
183.1984325782
 30
0.0
 11
338.2970901228
 21
183.1984325782
 31
0.0
  0
LINE
  5
278
330
1F
100
AcDbEntity
  8
0
  6
Continuous
 62
     7
370
    25
100
AcDbLine
 10
362.5604901228
 20
183.1984325782
 30
0.0
 11
362.5604901228
 21
181.1984325782
 31
0.0
  0
LINE
  5
279
330
1F
100
AcDbEntity
  8
0
  6
Continuous
 62
     7
370
    25
100
AcDbLine
 10
362.5604901228
 20
181.1984325782
 30
0.0
 11
360.5604901228
 21
181.1984325782
 31
0.0
  0
LINE
  5
27A
330
1F
100
AcDbEntity
  8
0
  6
Continuous
 62
     7
370
    25
100
AcDbLine
 10
360.5604901228
 20
183.1984325782
 30
0.0
 11
362.5604901228
 21
183.1984325782
 31
0.0
  0
LINE
  5
27B
330
1F
100
AcDbEntity
  8
0
  6
Continuous
 62
     7
370
    25
100
AcDbLine
 10
335.5604901228
 20
233.1984325782
 30
0.0
 11
335.5604901228
 21
230.8616303076
 31
0.0
  0
LINE
  5
27C
330
1F
100
AcDbEntity
  8
0
  6
Continuous
 62
     7
370
    25
100
AcDbLine
 10
335.5604901228
 20
233.1984325782
 30
0.0
 11
337.5604901228
 21
233.1984325782
 31
0.0
  0
LINE
  5
27D
330
1F
100
AcDbEntity
  8
0
  6
Continuous
 62
     7
370
    25
100
AcDbLine
 10
337.5604901228
 20
233.1984325782
 30
0.0
 11
337.5604901228
 21
183.9350325782
 31
0.0
  0
LINE
  5
27E
330
1F
100
AcDbEntity
  8
0
  6
Continuous
 62
     7
370
    25
100
AcDbLine
 10
335.5604901228
 20
230.6984325782
 30
0.0
 11
332.5604901228
 21
230.6984325782
 31
0.0
  0
LINE
  5
27F
330
1F
100
AcDbEntity
  8
0
  6
Continuous
 62
     7
370
    25
100
AcDbLine
 10
335.5604901228
 20
230.6984325782
 30
0.0
 11
335.5604901228
 21
181.1984325782
 31
0.0
  0
LINE
  5
280
330
1F
100
AcDbEntity
  8
0
  6
Continuous
 62
     7
370
    25
100
AcDbLine
 10
335.5604901228
 20
181.1984325782
 30
0.0
 11
332.5604901228
 21
181.1984325782
 31
0.0
  0
LINE
  5
281
330
1F
100
AcDbEntity
  8
0
  6
Continuous
 62
     7
370
    25
100
AcDbLine
 10
332.5604901228
 20
230.6984325782
 30
0.0
 11
332.5604901228
 21
229.5548682218
 31
0.0
  0
LINE
  5
282
330
1F
100
AcDbEntity
  8
0
  6
Continuous
 62
     7
370
    25
100
AcDbLine
 10
332.5604901228
 20
185.1984325782
 30
0.0
 11
332.5604901228
 21
181.1984325782
 31
0.0
  0
LINE
  5
283
330
1F
100
AcDbEntity
  8
0
  6
Continuous
 62
     7
370
    25
100
AcDbLine
 10
335.5604901228
 20
245.6984325782
 30
0.0
 11
332.5604901228
 21
245.6984325782
 31
0.0
  0
LINE
  5
284
330
1F
100
AcDbEntity
  8
0
  6
Continuous
 62
     7
370
    25
100
AcDbLine
 10
335.5604901228
 20
245.6984325782
 30
0.0
 11
335.5604901228
 21
233.1984325782
 31
0.0
  0
LINE
  5
285
330
1F
100
AcDbEntity
  8
0
  6
Continuous
 62
     7
370
    25
100
AcDbLine
 10
335.5604901228
 20
230.8616303076
 30
0.0
 11
335.5604901228
 21
230.6984325782
 31
0.0
  0
LINE
  5
286
330
1F
100
AcDbEntity
  8
0
  6
Continuous
 62
     7
370
    25
100
AcDbLine
 10
332.5604901228
 20
243.2790777395
 30
0.0
 11
332.5604901228
 21
233.1984325782
 31
0.0
  0
LINE
  5
287
330
1F
100
AcDbEntity
  8
0
  6
Continuous
 62
     7
370
    25
100
AcDbLine
 10
332.5604901228
 20
230.7547026747
 30
0.0
 11
332.5604901228
 21
230.6984325782
 31
0.0
  0
LINE
  5
288
330
1F
100
AcDbEntity
  8
0
  6
Continuous
 62
     7
370
    25
100
AcDbLine
 10
332.5604901228
 20
233.1984325782
 30
0.0
 11
330.5604901228
 21
233.1984325782
 31
0.0
  0
LINE
  5
289
330
1F
100
AcDbEntity
  8
0
  6
Continuous
 62
     7
370
    25
100
AcDbLine
 10
332.5604901228
 20
185.1984325782
 30
0.0
 11
330.5604901228
 21
185.1984325782
 31
0.0
  0
LINE
  5
28A
330
1F
100
AcDbEntity
  8
0
  6
Continuous
 62
     7
370
    25
100
AcDbLine
 10
330.5604901228
 20
233.1984325782
 30
0.0
 11
330.5604901228
 21
185.1984325782
 31
0.0
  0
LINE
  5
28B
330
1F
100
AcDbEntity
  8
0
  6
Continuous
 62
     7
370
    25
100
AcDbLine
 10
332.5604901228
 20
233.1984325782
 30
0.0
 11
332.5604901228
 21
230.7547026747
 31
0.0
  0
LINE
  5
28C
330
1F
100
AcDbEntity
  8
0
  6
Continuous
 62
     7
370
    25
100
AcDbLine
 10
332.5604901228
 20
229.5548682218
 30
0.0
 11
332.5604901228
 21
185.1984325782
 31
0.0
  0
LINE
  5
28D
330
1F
100
AcDbEntity
  8
0
  6
Continuous
 62
     7
370
    25
100
AcDbLine
 10
330.5604901228
 20
245.6984325782
 30
0.0
 11
332.5604901228
 21
245.6984325782
 31
0.0
  0
LINE
  5
28E
330
1F
100
AcDbEntity
  8
0
  6
Continuous
 62
     7
370
    25
100
AcDbLine
 10
330.5604901228
 20
243.6984325782
 30
0.0
 11
330.5604901228
 21
245.6984325782
 31
0.0
  0
LINE
  5
28F
330
1F
100
AcDbEntity
  8
0
  6
Continuous
 62
     7
370
    25
100
AcDbLine
 10
332.5604901228
 20
245.6984325782
 30
0.0
 11
332.5604901228
 21
243.6984325782
 31
0.0
  0
LINE
  5
290
330
1F
100
AcDbEntity
  8
0
  6
Continuous
 62
     7
370
    25
100
AcDbLine
 10
330.5604901228
 20
243.6984325782
 30
0.0
 11
330.5604901228
 21
233.1984325782
 31
0.0
  0
LINE
  5
291
330
1F
100
AcDbEntity
  8
0
  6
Continuous
 62
     7
370
    25
100
AcDbLine
 10
332.5604901228
 20
243.6984325782
 30
0.0
 11
332.5604901228
 21
243.2790777395
 31
0.0
  0
LINE
  5
292
330
1F
100
AcDbEntity
  8
0
  6
Continuous
 62
     8
370
    18
100
AcDbLine
 10
360.5604901228
 20
181.1984325782
 30
0.0
 11
360.5604901228
 21
183.1984325782
 31
0.0
  0
LINE
  5
293
330
1F
100
AcDbEntity
  8
0
  6
Continuous
 62
     8
370
    18
100
AcDbLine
 10
332.5604901228
 20
243.6984325782
 30
0.0
 11
330.5604901228
 21
243.6984325782
 31
0.0
  0
DIMENSION
  5
294
330
1F
100
AcDbEntity
  8
0
  6
Continuous
 62
     7
370
    18
100
AcDbDimension
  2
_D_4
 10
365.2414153302
 20
205.1984325782
 30
0.0
 11
365.2414153302
 21
223.0521368587
 31
0.0
 70
   160
  1
M<>
 71
     2
 42
-1.0
  3
SLDDIMSTYLE0
100
AcDbAlignedDimension
 13
349.8699901228
 23
213.1984325782
 33
0.0
 14
349.8699901228
 24
205.1984325782
 34
0.0
 50
90.0
100
AcDbRotatedDimension
  0
DIMENSION
  5
2A0
330
1F
100
AcDbEntity
  8
0
  6
Continuous
 62
     7
370
    18
100
AcDbDimension
  2
_D_5
 10
362.5604901228
 20
169.957239369
 30
0.0
 11
349.0604901228
 21
169.957239369
 31
0.0
 70
   160
  1
<>
 71
     2
 42
-1.0
  3
SLDDIMSTYLE0
100
AcDbAlignedDimension
 13
335.5604901228
 23
181.1984325782
 33
0.0
 14
362.5604901228
 24
181.1984325782
 34
0.0
 50
0.0
100
AcDbRotatedDimension
  0
DIMENSION
  5
2AA
330
1F
100
AcDbEntity
  8
0
  6
Continuous
 62
     7
370
    18
100
AcDbDimension
  2
_D_6
 10
332.5604901228
 20
251.7257316124
 30
0.0
 11
348.2276526022
 21
251.7257316124
 31
0.0
 70
   160
  1
<>
 71
     2
 42
-1.0
  3
SLDDIMSTYLE2
100
AcDbAlignedDimension
 13
335.5604901228
 23
245.6984325782
 33
0.0
 14
332.5604901228
 24
245.6984325782
 34
0.0
100
AcDbRotatedDimension
  0
DIMENSION
  5
2B7
330
1F
100
AcDbEntity
  8
0
  6
Continuous
 62
     7
370
    18
100
AcDbDimension
  2
_D_7
 10
330.5604901228
 20
165.9649260045
 30
0.0
 11
304.8854901228
 21
165.9649260045
 31
0.0
 70
   160
  1
<>
 71
     2
 42
-1.0
  3
SLDDIMSTYLE2
100
AcDbAlignedDimension
 13
332.5604901228
 23
185.1984325782
 33
0.0
 14
330.5604901228
 24
185.1984325782
 34
0.0
100
AcDbRotatedDimension
  0
DIMENSION
  5
2C3
330
1F
100
AcDbEntity
  8
0
  6
Continuous
 62
     7
370
    18
100
AcDbDimension
  2
_D_8
 10
307.5280846153
 20
209.1984325782
 30
0.0
 11
307.5280846153
 21
195.1984325782
 31
0.0
 70
   160
  1
<>
 71
     2
 42
-1.0
  3
SLDDIMSTYLE0
100
AcDbAlignedDimension
 13
338.2970901228
 23
181.1984325782
 33
0.0
 14
328.5604901228
 24
209.1984325782
 34
0.0
 50
90.0
100
AcDbRotatedDimension
  0
LINE
  5
2CD
330
1F
100
AcDbEntity
  8
0
  6
CENTERX2
 62
     7
370
    18
100
AcDbLine
 10
328.5604901228
 20
209.1984325782
 30
0.0
 11
352.5604901228
 21
209.1984325782
 31
0.0
  0
LINE
  5
2CE
330
1F
100
AcDbEntity
  8
0
  6
Continuous
 62
     7
370
    25
100
AcDbLine
 10
59.9704561153
 20
135.5785707718
 30
0.0
 11
59.9704561153
 21
134.9785707718
 31
0.0
  0
LINE
  5
2CF
330
1F
100
AcDbEntity
  8
0
  6
Continuous
 62
     7
370
    25
100
AcDbLine
 10
72.9704561153
 20
134.9785707718
 30
0.0
 11
72.9704561153
 21
135.5785707718
 31
0.0
  0
LINE
  5
2D0
330
1F
100
AcDbEntity
  8
0
  6
Continuous
 62
     7
370
    25
100
AcDbLine
 10
62.4704561153
 20
120.0785707718
 30
0.0
 11
62.4704561153
 21
115.6690707718
 31
0.0
  0
LINE
  5
2D1
330
1F
100
AcDbEntity
  8
0
  6
Continuous
 62
     7
370
    25
100
AcDbLine
 10
70.4704561153
 20
115.6690707718
 30
0.0
 11
70.4704561153
 21
120.0785707718
 31
0.0
  0
LINE
  5
2D2
330
1F
100
AcDbEntity
  8
0
  6
Continuous
 62
     7
370
    25
100
AcDbLine
 10
62.4704561153
 20
115.6690707718
 30
0.0
 11
63.1609561153
 21
114.9785707718
 31
0.0
  0
LINE
  5
2D3
330
1F
100
AcDbEntity
  8
0
  6
Continuous
 62
     7
370
    25
100
AcDbLine
 10
69.7799561153
 20
114.9785707718
 30
0.0
 11
70.4704561153
 21
115.6690707718
 31
0.0
  0
LINE
  5
2D4
330
1F
100
AcDbEntity
  8
0
  6
Continuous
 62
     7
370
    25
100
AcDbLine
 10
205.9704561153
 20
135.5785707718
 30
0.0
 11
205.9704561153
 21
134.9785707718
 31
0.0
  0
LINE
  5
2D5
330
1F
100
AcDbEntity
  8
0
  6
Continuous
 62
     7
370
    25
100
AcDbLine
 10
218.9704561153
 20
134.9785707718
 30
0.0
 11
218.9704561153
 21
135.5785707718
 31
0.0
  0
LINE
  5
2D6
330
1F
100
AcDbEntity
  8
0
  6
Continuous
 62
     7
370
    25
100
AcDbLine
 10
208.4704561153
 20
120.0785707718
 30
0.0
 11
208.4704561153
 21
115.6690707718
 31
0.0
  0
LINE
  5
2D7
330
1F
100
AcDbEntity
  8
0
  6
Continuous
 62
     7
370
    25
100
AcDbLine
 10
216.4704561153
 20
115.6690707718
 30
0.0
 11
216.4704561153
 21
120.0785707718
 31
0.0
  0
LINE
  5
2D8
330
1F
100
AcDbEntity
  8
0
  6
Continuous
 62
     7
370
    25
100
AcDbLine
 10
208.4704561153
 20
115.6690707718
 30
0.0
 11
209.1609561153
 21
114.9785707718
 31
0.0
  0
LINE
  5
2D9
330
1F
100
AcDbEntity
  8
0
  6
Continuous
 62
     7
370
    25
100
AcDbLine
 10
215.7799561153
 20
114.9785707718
 30
0.0
 11
216.4704561153
 21
115.6690707718
 31
0.0
  0
LINE
  5
2DA
330
1F
100
AcDbEntity
  8
0
  6
Continuous
 62
     7
370
    25
100
AcDbLine
 10
87.3534050852
 20
127.9785707718
 30
0.0
 11
87.3534050852
 21
129.9785707718
 31
0.0
  0
LINE
  5
2DB
330
1F
100
AcDbEntity
  8
0
  6
Continuous
 62
     7
370
    25
100
AcDbLine
 10
191.5875071455
 20
129.9785707718
 30
0.0
 11
191.5875071455
 21
127.9785707718
 31
0.0
  0
LINE
  5
2DC
330
1F
100
AcDbEntity
  8
0
  6
Continuous
 62
     7
370
    25
100
AcDbLine
 10
87.9977370463
 20
129.9785707718
 30
0.0
 11
87.9977370463
 21
132.9785707718
 31
0.0
  0
LINE
  5
2DD
330
1F
100
AcDbEntity
  8
0
  6
Continuous
 62
     7
370
    25
100
AcDbLine
 10
190.9431751843
 20
132.9785707718
 30
0.0
 11
190.9431751843
 21
129.9785707718
 31
0.0
  0
SPLINE
  5
2DE
330
1F
100
AcDbEntity
  8
0
  6
Continuous
 62
     7
370
    25
100
AcDbSpline
210
0.0
220
0.0
230
1.0
 70
     8
 71
     3
 72
     9
 73
     5
 74
     0
 42
0.00000001
 43
0.00000001
 40
0.0
 40
0.0
 40
0.0
 40
0.0
 40
0.4954579634770065
 40
1.0
 40
1.0
 40
1.0
 40
1.0
 10
59.9704561153237
 20
127.3980141881951
 30
0.0
 10
60.49827040311122
 20
127.5602786009619
 30
0.0
 10
61.56357629522655
 20
127.8877824957991
 30
0.0
 10
62.66482822430271
 20
127.9481252936691
 30
0.0
 10
63.22045611532368
 20
127.9785707717958
 30
0.0
  0
SPLINE
  5
2DF
330
1F
100
AcDbEntity
  8
0
  6
Continuous
 62
     7
370
    25
100
AcDbSpline
210
0.0
220
0.0
230
1.0
 70
     8
 71
     3
 72
    10
 73
     6
 74
     0
 42
0.00000001
 43
0.00000001
 40
0.0
 40
0.0
 40
0.0
 40
0.0
 40
0.0700769119681922
 40
0.5307776640394113
 40
1.0
 40
1.0
 40
1.0
 40
1.0
 10
63.22045611532368
 20
127.9785707717958
 30
0.0
 10
63.2974771722683
 20
127.9778778335674
 30
0.0
 10
63.88085128991595
 20
127.9726293697884
 30
0.0
 10
64.98078846141307
 20
127.8458381587713
 30
0.0
 10
65.97087592559734
 20
127.5481980118132
 30
0.0
 10
66.47045611532369
 20
127.3980141881951
 30
0.0
  0
LINE
  5
2E0
330
1F
100
AcDbEntity
  8
0
  6
Continuous
 62
     7
370
    25
100
AcDbLine
 10
66.4704561153
 20
127.3980141882
 30
0.0
 11
66.4704561153
 21
120.6591273554
 31
0.0
  0
SPLINE
  5
2E1
330
1F
100
AcDbEntity
  8
0
  6
Continuous
 62
     7
370
    25
100
AcDbSpline
210
0.0
220
0.0
230
1.0
 70
     8
 71
     3
 72
    10
 73
     6
 74
     0
 42
0.00000001
 43
0.00000001
 40
0.0
 40
0.0
 40
0.0
 40
0.0
 40
0.0700769119681922
 40
0.5307776640394113
 40
1.0
 40
1.0
 40
1.0
 40
1.0
 10
63.22045611532368
 20
120.0785707717958
 30
0.0
 10
63.2974771722683
 20
120.0792637100242
 30
0.0
 10
63.88085128991595
 20
120.0845121738032
 30
0.0
 10
64.98078846141307
 20
120.2113033848203
 30
0.0
 10
65.97087592559734
 20
120.5089435317785
 30
0.0
 10
66.47045611532369
 20
120.6591273553966
 30
0.0
  0
SPLINE
  5
2E2
330
1F
100
AcDbEntity
  8
0
  6
Continuous
 62
     7
370
    25
100
AcDbSpline
210
0.0
220
0.0
230
1.0
 70
     8
 71
     3
 72
     9
 73
     5
 74
     0
 42
0.00000001
 43
0.00000001
 40
0.0
 40
0.0
 40
0.0
 40
0.0
 40
0.4954579634770056
 40
1.0
 40
1.0
 40
1.0
 40
1.0
 10
59.9704561153237
 20
120.6591273553966
 30
0.0
 10
60.49827040311122
 20
120.4968629426298
 30
0.0
 10
61.56357629522652
 20
120.1693590477927
 30
0.0
 10
62.66482822430271
 20
120.1090162499227
 30
0.0
 10
63.22045611532368
 20
120.0785707717958
 30
0.0
  0
LINE
  5
2E3
330
1F
100
AcDbEntity
  8
0
  6
Continuous
 62
     7
370
    25
100
AcDbLine
 10
59.9704561153
 20
127.3980141882
 30
0.0
 11
59.9704561153
 21
120.6591273554
 31
0.0
  0
SPLINE
  5
2E4
330
1F
100
AcDbEntity
  8
0
  6
Continuous
 62
     7
370
    25
100
AcDbSpline
210
0.0
220
0.0
230
1.0
 70
     8
 71
     3
 72
     9
 73
     5
 74
     0
 42
0.00000001
 43
0.00000001
 40
0.0
 40
0.0
 40
0.0
 40
0.0
 40
0.4954579634770076
 40
1.0
 40
1.0
 40
1.0
 40
1.0
 10
66.47045611532369
 20
127.3980141881951
 30
0.0
 10
66.99827040311122
 20
127.5602786009619
 30
0.0
 10
68.06357629522654
 20
127.8877824957991
 30
0.0
 10
69.16482822430272
 20
127.948125293669
 30
0.0
 10
69.72045611532371
 20
127.9785707717958
 30
0.0
  0
SPLINE
  5
2E5
330
1F
100
AcDbEntity
  8
0
  6
Continuous
 62
     7
370
    25
100
AcDbSpline
210
0.0
220
0.0
230
1.0
 70
     8
 71
     3
 72
    10
 73
     6
 74
     0
 42
0.00000001
 43
0.00000001
 40
0.0
 40
0.0
 40
0.0
 40
0.0
 40
0.0700769119681857
 40
0.5307776640394084
 40
1.0
 40
1.0
 40
1.0
 40
1.0
 10
69.72045611532371
 20
127.9785707717958
 30
0.0
 10
69.79747717226833
 20
127.9778778335674
 30
0.0
 10
70.38085128991601
 20
127.9726293697885
 30
0.0
 10
71.48078846141306
 20
127.8458381587712
 30
0.0
 10
72.47087592559733
 20
127.5481980118131
 30
0.0
 10
72.97045611532369
 20
127.3980141881951
 30
0.0
  0
LINE
  5
2E6
330
1F
100
AcDbEntity
  8
0
  6
Continuous
 62
     7
370
    25
100
AcDbLine
 10
72.9704561153
 20
127.3980141882
 30
0.0
 11
72.9704561153
 21
120.6591273554
 31
0.0
  0
SPLINE
  5
2E7
330
1F
100
AcDbEntity
  8
0
  6
Continuous
 62
     7
370
    25
100
AcDbSpline
210
0.0
220
0.0
230
1.0
 70
     8
 71
     3
 72
    10
 73
     6
 74
     0
 42
0.00000001
 43
0.00000001
 40
0.0
 40
0.0
 40
0.0
 40
0.0
 40
0.0700769119681857
 40
0.5307776640394084
 40
1.0
 40
1.0
 40
1.0
 40
1.0
 10
69.72045611532371
 20
120.0785707717958
 30
0.0
 10
69.79747717226833
 20
120.0792637100243
 30
0.0
 10
70.38085128991601
 20
120.0845121738033
 30
0.0
 10
71.48078846141306
 20
120.2113033848203
 30
0.0
 10
72.47087592559733
 20
120.5089435317785
 30
0.0
 10
72.97045611532369
 20
120.6591273553966
 30
0.0
  0
SPLINE
  5
2E8
330
1F
100
AcDbEntity
  8
0
  6
Continuous
 62
     7
370
    25
100
AcDbSpline
210
0.0
220
0.0
230
1.0
 70
     8
 71
     3
 72
     9
 73
     5
 74
     0
 42
0.00000001
 43
0.00000001
 40
0.0
 40
0.0
 40
0.0
 40
0.0
 40
0.4954579634770076
 40
1.0
 40
1.0
 40
1.0
 40
1.0
 10
66.47045611532369
 20
120.6591273553966
 30
0.0
 10
66.99827040311122
 20
120.4968629426298
 30
0.0
 10
68.06357629522654
 20
120.1693590477927
 30
0.0
 10
69.16482822430272
 20
120.1090162499227
 30
0.0
 10
69.72045611532371
 20
120.0785707717958
 30
0.0
  0
LINE
  5
2E9
330
1F
100
AcDbEntity
  8
0
  6
Continuous
 62
     7
370
    25
100
AcDbLine
 10
69.7204561153
 20
120.0785707718
 30
0.0
 11
63.2204561153
 21
120.0785707718
 31
0.0
  0
SPLINE
  5
2EA
330
1F
100
AcDbEntity
  8
0
  6
Continuous
 62
     7
370
    25
100
AcDbSpline
210
0.0
220
0.0
230
1.0
 70
    24
 71
     3
 72
    10
 73
     6
 74
     0
 42
0.00000001
 43
0.00000001
 40
0.0
 40
0.0
 40
0.0
 40
0.0
 40
0.268406535932188
 40
0.6323728964502854
 40
1.0
 40
1.0
 40
1.0
 40
1.0
 10
72.97045611532369
 20
127.9785707717958
 30
0.0
 10
72.97045611532369
 20
127.969138291297
 30
0.0
 10
72.97045611532371
 20
127.9469151178076
 30
0.0
 10
72.97045611532369
 20
127.7560360824766
 30
0.0
 10
72.97045611532369
 20
127.5177522606798
 30
0.0
 10
72.97045611532369
 20
127.398014188195
 30
0.0
  0
SPLINE
  5
2EB
330
1F
100
AcDbEntity
  8
0
  6
Continuous
 62
     7
370
    25
100
AcDbSpline
210
0.0
220
0.0
230
1.0
 70
    24
 71
     3
 72
    10
 73
     6
 74
     0
 42
0.00000001
 43
0.00000001
 40
0.0
 40
0.0
 40
0.0
 40
0.0
 40
0.2684065359321873
 40
0.6323728964502838
 40
0.9999999999999999
 40
0.9999999999999999
 40
0.9999999999999999
 40
0.9999999999999999
 10
59.9704561153237
 20
127.9785707717958
 30
0.0
 10
59.9704561153237
 20
127.969138291297
 30
0.0
 10
59.97045611532371
 20
127.9469151178075
 30
0.0
 10
59.97045611532369
 20
127.7560360824766
 30
0.0
 10
59.97045611532369
 20
127.5177522606798
 30
0.0
 10
59.97045611532369
 20
127.398014188195
 30
0.0
  0
SPLINE
  5
2EC
330
1F
100
AcDbEntity
  8
0
  6
Continuous
 62
     7
370
    25
100
AcDbSpline
210
0.0
220
0.0
230
1.0
 70
    24
 71
     3
 72
    10
 73
     6
 74
     0
 42
0.00000001
 43
0.00000001
 40
0.0
 40
0.0
 40
0.0
 40
0.0
 40
0.2684065359321884
 40
0.6323728964502854
 40
1.0
 40
1.0
 40
1.0
 40
1.0
 10
72.97045611532369
 20
120.0785707717958
 30
0.0
 10
72.97045611532369
 20
120.0880032522946
 30
0.0
 10
72.97045611532371
 20
120.1102264257842
 30
0.0
 10
72.97045611532369
 20
120.3011054611151
 30
0.0
 10
72.97045611532369
 20
120.5393892829118
 30
0.0
 10
72.97045611532369
 20
120.6591273553966
 30
0.0
  0
LINE
  5
2ED
330
1F
100
AcDbEntity
  8
0
  6
Continuous
 62
     7
370
    25
100
AcDbLine
 10
72.9704561153
 20
120.0785707718
 30
0.0
 11
69.7204561153
 21
120.0785707718
 31
0.0
  0
SPLINE
  5
2EE
330
1F
100
AcDbEntity
  8
0
  6
Continuous
 62
     7
370
    25
100
AcDbSpline
210
0.0
220
0.0
230
1.0
 70
    24
 71
     3
 72
    10
 73
     6
 74
     0
 42
0.00000001
 43
0.00000001
 40
0.0
 40
0.0
 40
0.0
 40
0.0
 40
0.2684065359321904
 40
0.6323728964502868
 40
1.0
 40
1.0
 40
1.0
 40
1.0
 10
59.9704561153237
 20
120.0785707717958
 30
0.0
 10
59.97045611532371
 20
120.0880032522946
 30
0.0
 10
59.9704561153237
 20
120.1102264257841
 30
0.0
 10
59.97045611532371
 20
120.3011054611151
 30
0.0
 10
59.97045611532371
 20
120.5393892829119
 30
0.0
 10
59.97045611532369
 20
120.6591273553966
 30
0.0
  0
LINE
  5
2EF
330
1F
100
AcDbEntity
  8
0
  6
Continuous
 62
     7
370
    25
100
AcDbLine
 10
63.2204561153
 20
120.0785707718
 30
0.0
 11
59.9704561153
 21
120.0785707718
 31
0.0
  0
SPLINE
  5
2F0
330
1F
100
AcDbEntity
  8
0
  6
Continuous
 62
     7
370
    25
100
AcDbSpline
210
0.0
220
0.0
230
1.0
 70
     8
 71
     3
 72
     9
 73
     5
 74
     0
 42
0.00000001
 43
0.00000001
 40
0.0
 40
0.0
 40
0.0
 40
0.0
 40
0.4954579634770076
 40
1.0
 40
1.0
 40
1.0
 40
1.0
 10
212.4704561153236
 20
127.3980141881951
 30
0.0
 10
212.9982704031111
 20
127.5602786009619
 30
0.0
 10
214.0635762952265
 20
127.8877824957991
 30
0.0
 10
215.1648282243027
 20
127.948125293669
 30
0.0
 10
215.7204561153237
 20
127.9785707717958
 30
0.0
  0
SPLINE
  5
2F1
330
1F
100
AcDbEntity
  8
0
  6
Continuous
 62
     7
370
    25
100
AcDbSpline
210
0.0
220
0.0
230
1.0
 70
     8
 71
     3
 72
    10
 73
     6
 74
     0
 42
0.00000001
 43
0.00000001
 40
0.0
 40
0.0
 40
0.0
 40
0.0
 40
0.0700769119681922
 40
0.5307776640394113
 40
1.0
 40
1.0
 40
1.0
 40
1.0
 10
209.2204561153236
 20
127.9785707717958
 30
0.0
 10
209.2974771722683
 20
127.9778778335674
 30
0.0
 10
209.880851289916
 20
127.9726293697884
 30
0.0
 10
210.9807884614131
 20
127.8458381587713
 30
0.0
 10
211.9708759255973
 20
127.5481980118132
 30
0.0
 10
212.4704561153236
 20
127.3980141881951
 30
0.0
  0
SPLINE
  5
2F2
330
1F
100
AcDbEntity
  8
0
  6
Continuous
 62
     7
370
    25
100
AcDbSpline
210
0.0
220
0.0
230
1.0
 70
     8
 71
     3
 72
     9
 73
     5
 74
     0
 42
0.00000001
 43
0.00000001
 40
0.0
 40
0.0
 40
0.0
 40
0.0
 40
0.4954579634770065
 40
1.0
 40
1.0
 40
1.0
 40
1.0
 10
205.9704561153237
 20
127.3980141881951
 30
0.0
 10
206.4982704031111
 20
127.5602786009619
 30
0.0
 10
207.5635762952265
 20
127.8877824957991
 30
0.0
 10
208.6648282243027
 20
127.9481252936691
 30
0.0
 10
209.2204561153236
 20
127.9785707717958
 30
0.0
  0
LINE
  5
2F3
330
1F
100
AcDbEntity
  8
0
  6
Continuous
 62
     7
370
    25
100
AcDbLine
 10
212.4704561153
 20
127.3980141882
 30
0.0
 11
212.4704561153
 21
120.6591273554
 31
0.0
  0
SPLINE
  5
2F4
330
1F
100
AcDbEntity
  8
0
  6
Continuous
 62
     7
370
    25
100
AcDbSpline
210
0.0
220
0.0
230
1.0
 70
     8
 71
     3
 72
    10
 73
     6
 74
     0
 42
0.00000001
 43
0.00000001
 40
0.0
 40
0.0
 40
0.0
 40
0.0
 40
0.0700769119681922
 40
0.5307776640394113
 40
1.0
 40
1.0
 40
1.0
 40
1.0
 10
209.2204561153236
 20
120.0785707717958
 30
0.0
 10
209.2974771722683
 20
120.0792637100242
 30
0.0
 10
209.880851289916
 20
120.0845121738032
 30
0.0
 10
210.9807884614131
 20
120.2113033848203
 30
0.0
 10
211.9708759255973
 20
120.5089435317785
 30
0.0
 10
212.4704561153236
 20
120.6591273553966
 30
0.0
  0
SPLINE
  5
2F5
330
1F
100
AcDbEntity
  8
0
  6
Continuous
 62
     7
370
    25
100
AcDbSpline
210
0.0
220
0.0
230
1.0
 70
     8
 71
     3
 72
     9
 73
     5
 74
     0
 42
0.00000001
 43
0.00000001
 40
0.0
 40
0.0
 40
0.0
 40
0.0
 40
0.4954579634770056
 40
1.0
 40
1.0
 40
1.0
 40
1.0
 10
205.9704561153237
 20
120.6591273553966
 30
0.0
 10
206.4982704031111
 20
120.4968629426298
 30
0.0
 10
207.5635762952265
 20
120.1693590477927
 30
0.0
 10
208.6648282243026
 20
120.1090162499227
 30
0.0
 10
209.2204561153236
 20
120.0785707717958
 30
0.0
  0
LINE
  5
2F6
330
1F
100
AcDbEntity
  8
0
  6
Continuous
 62
     7
370
    25
100
AcDbLine
 10
205.9704561153
 20
127.3980141882
 30
0.0
 11
205.9704561153
 21
120.6591273554
 31
0.0
  0
SPLINE
  5
2F7
330
1F
100
AcDbEntity
  8
0
  6
Continuous
 62
     7
370
    25
100
AcDbSpline
210
0.0
220
0.0
230
1.0
 70
     8
 71
     3
 72
    10
 73
     6
 74
     0
 42
0.00000001
 43
0.00000001
 40
0.0
 40
0.0
 40
0.0
 40
0.0
 40
0.0700769119681857
 40
0.5307776640394084
 40
1.0
 40
1.0
 40
1.0
 40
1.0
 10
215.7204561153237
 20
127.9785707717958
 30
0.0
 10
215.7974771722683
 20
127.9778778335674
 30
0.0
 10
216.3808512899159
 20
127.9726293697885
 30
0.0
 10
217.4807884614131
 20
127.8458381587712
 30
0.0
 10
218.4708759255973
 20
127.5481980118131
 30
0.0
 10
218.9704561153236
 20
127.3980141881951
 30
0.0
  0
LINE
  5
2F8
330
1F
100
AcDbEntity
  8
0
  6
Continuous
 62
     7
370
    25
100
AcDbLine
 10
218.9704561153
 20
127.3980141882
 30
0.0
 11
218.9704561153
 21
120.6591273554
 31
0.0
  0
SPLINE
  5
2F9
330
1F
100
AcDbEntity
  8
0
  6
Continuous
 62
     7
370
    25
100
AcDbSpline
210
0.0
220
0.0
230
1.0
 70
     8
 71
     3
 72
    10
 73
     6
 74
     0
 42
0.00000001
 43
0.00000001
 40
0.0
 40
0.0
 40
0.0
 40
0.0
 40
0.0700769119681857
 40
0.5307776640394084
 40
1.0
 40
1.0
 40
1.0
 40
1.0
 10
215.7204561153237
 20
120.0785707717958
 30
0.0
 10
215.7974771722683
 20
120.0792637100243
 30
0.0
 10
216.3808512899159
 20
120.0845121738033
 30
0.0
 10
217.4807884614131
 20
120.2113033848203
 30
0.0
 10
218.4708759255973
 20
120.5089435317785
 30
0.0
 10
218.9704561153236
 20
120.6591273553966
 30
0.0
  0
SPLINE
  5
2FA
330
1F
100
AcDbEntity
  8
0
  6
Continuous
 62
     7
370
    25
100
AcDbSpline
210
0.0
220
0.0
230
1.0
 70
     8
 71
     3
 72
     9
 73
     5
 74
     0
 42
0.00000001
 43
0.00000001
 40
0.0
 40
0.0
 40
0.0
 40
0.0
 40
0.4954579634770076
 40
1.0
 40
1.0
 40
1.0
 40
1.0
 10
212.4704561153236
 20
120.6591273553966
 30
0.0
 10
212.9982704031111
 20
120.4968629426298
 30
0.0
 10
214.0635762952265
 20
120.1693590477927
 30
0.0
 10
215.1648282243027
 20
120.1090162499227
 30
0.0
 10
215.7204561153237
 20
120.0785707717958
 30
0.0
  0
LINE
  5
2FB
330
1F
100
AcDbEntity
  8
0
  6
Continuous
 62
     7
370
    25
100
AcDbLine
 10
215.7204561153
 20
120.0785707718
 30
0.0
 11
209.2204561153
 21
120.0785707718
 31
0.0
  0
SPLINE
  5
2FC
330
1F
100
AcDbEntity
  8
0
  6
Continuous
 62
     7
370
    25
100
AcDbSpline
210
0.0
220
0.0
230
1.0
 70
    24
 71
     3
 72
    10
 73
     6
 74
     0
 42
0.00000001
 43
0.00000001
 40
0.0
 40
0.0
 40
0.0
 40
0.0
 40
0.268406535932188
 40
0.6323728964502854
 40
1.0
 40
1.0
 40
1.0
 40
1.0
 10
218.9704561153236
 20
127.9785707717958
 30
0.0
 10
218.9704561153237
 20
127.969138291297
 30
0.0
 10
218.9704561153236
 20
127.9469151178076
 30
0.0
 10
218.9704561153236
 20
127.7560360824766
 30
0.0
 10
218.9704561153237
 20
127.5177522606798
 30
0.0
 10
218.9704561153237
 20
127.398014188195
 30
0.0
  0
SPLINE
  5
2FD
330
1F
100
AcDbEntity
  8
0
  6
Continuous
 62
     7
370
    25
100
AcDbSpline
210
0.0
220
0.0
230
1.0
 70
    24
 71
     3
 72
    10
 73
     6
 74
     0
 42
0.00000001
 43
0.00000001
 40
0.0
 40
0.0
 40
0.0
 40
0.0
 40
0.2684065359321873
 40
0.6323728964502838
 40
0.9999999999999999
 40
0.9999999999999999
 40
0.9999999999999999
 40
0.9999999999999999
 10
205.9704561153237
 20
127.9785707717958
 30
0.0
 10
205.9704561153237
 20
127.969138291297
 30
0.0
 10
205.9704561153236
 20
127.9469151178075
 30
0.0
 10
205.9704561153237
 20
127.7560360824766
 30
0.0
 10
205.9704561153237
 20
127.5177522606798
 30
0.0
 10
205.9704561153237
 20
127.398014188195
 30
0.0
  0
SPLINE
  5
2FE
330
1F
100
AcDbEntity
  8
0
  6
Continuous
 62
     7
370
    25
100
AcDbSpline
210
0.0
220
0.0
230
1.0
 70
    24
 71
     3
 72
    10
 73
     6
 74
     0
 42
0.00000001
 43
0.00000001
 40
0.0
 40
0.0
 40
0.0
 40
0.0
 40
0.2684065359321884
 40
0.6323728964502854
 40
1.0
 40
1.0
 40
1.0
 40
1.0
 10
218.9704561153236
 20
120.0785707717958
 30
0.0
 10
218.9704561153237
 20
120.0880032522946
 30
0.0
 10
218.9704561153236
 20
120.1102264257842
 30
0.0
 10
218.9704561153236
 20
120.3011054611151
 30
0.0
 10
218.9704561153237
 20
120.5393892829118
 30
0.0
 10
218.9704561153237
 20
120.6591273553966
 30
0.0
  0
LINE
  5
2FF
330
1F
100
AcDbEntity
  8
0
  6
Continuous
 62
     7
370
    25
100
AcDbLine
 10
218.9704561153
 20
120.0785707718
 30
0.0
 11
215.7204561153
 21
120.0785707718
 31
0.0
  0
SPLINE
  5
300
330
1F
100
AcDbEntity
  8
0
  6
Continuous
 62
     7
370
    25
100
AcDbSpline
210
0.0
220
0.0
230
1.0
 70
    24
 71
     3
 72
    10
 73
     6
 74
     0
 42
0.00000001
 43
0.00000001
 40
0.0
 40
0.0
 40
0.0
 40
0.0
 40
0.2684065359321904
 40
0.6323728964502868
 40
1.0
 40
1.0
 40
1.0
 40
1.0
 10
205.9704561153237
 20
120.0785707717958
 30
0.0
 10
205.9704561153237
 20
120.0880032522946
 30
0.0
 10
205.9704561153237
 20
120.1102264257841
 30
0.0
 10
205.9704561153236
 20
120.3011054611151
 30
0.0
 10
205.9704561153237
 20
120.5393892829119
 30
0.0
 10
205.9704561153237
 20
120.6591273553966
 30
0.0
  0
LINE
  5
301
330
1F
100
AcDbEntity
  8
0
  6
Continuous
 62
     7
370
    25
100
AcDbLine
 10
209.2204561153
 20
120.0785707718
 30
0.0
 11
205.9704561153
 21
120.0785707718
 31
0.0
  0
LINE
  5
302
330
1F
100
AcDbEntity
  8
0
  6
Continuous
 62
     7
370
    25
100
AcDbLine
 10
63.2204561153
 20
135.5785707718
 30
0.0
 11
59.9704561153
 21
135.5785707718
 31
0.0
  0
LINE
  5
303
330
1F
100
AcDbEntity
  8
0
  6
Continuous
 62
     7
370
    25
100
AcDbLine
 10
59.9704561153
 20
135.5785707718
 30
0.0
 11
59.9704561153
 21
140.0730141882
 31
0.0
  0
SPLINE
  5
304
330
1F
100
AcDbEntity
  8
0
  6
Continuous
 62
     7
370
    25
100
AcDbSpline
210
0.0
220
0.0
230
1.0
 70
     8
 71
     3
 72
     9
 73
     5
 74
     0
 42
0.00000001
 43
0.00000001
 40
0.0
 40
0.0
 40
0.0
 40
0.0
 40
0.4954579634770075
 40
1.0
 40
1.0
 40
1.0
 40
1.0
 10
59.9704561153237
 20
140.0730141881951
 30
0.0
 10
60.49827040311119
 20
140.2352786009619
 30
0.0
 10
61.5635762952265
 20
140.5627824957991
 30
0.0
 10
62.66482822430271
 20
140.623125293669
 30
0.0
 10
63.22045611532369
 20
140.6535707717958
 30
0.0
  0
SPLINE
  5
305
330
1F
100
AcDbEntity
  8
0
  6
Continuous
 62
     7
370
    25
100
AcDbSpline
210
0.0
220
0.0
230
1.0
 70
     8
 71
     3
 72
    10
 73
     6
 74
     0
 42
0.00000001
 43
0.00000001
 40
0.0
 40
0.0
 40
0.0
 40
0.0
 40
0.0700769119681896
 40
0.5307776640394098
 40
0.9999999999999999
 40
0.9999999999999999
 40
0.9999999999999999
 40
0.9999999999999999
 10
63.22045611532369
 20
140.6535707717958
 30
0.0
 10
63.29747717226832
 20
140.6528778335674
 30
0.0
 10
63.88085128991598
 20
140.6476293697885
 30
0.0
 10
64.98078846141308
 20
140.5208381587713
 30
0.0
 10
65.97087592559734
 20
140.2231980118131
 30
0.0
 10
66.47045611532369
 20
140.0730141881951
 30
0.0
  0
LINE
  5
306
330
1F
100
AcDbEntity
  8
0
  6
Continuous
 62
     7
370
    25
100
AcDbLine
 10
66.4704561153
 20
135.5785707718
 30
0.0
 11
66.4704561153
 21
140.0730141882
 31
0.0
  0
LINE
  5
307
330
1F
100
AcDbEntity
  8
0
  6
Continuous
 62
     7
370
    25
100
AcDbLine
 10
66.4704561153
 20
135.5785707718
 30
0.0
 11
63.2204561153
 21
135.5785707718
 31
0.0
  0
LINE
  5
308
330
1F
100
AcDbEntity
  8
0
  6
Continuous
 62
     7
370
    25
100
AcDbLine
 10
69.7204561153
 20
140.6535707718
 30
0.0
 11
63.2204561153
 21
140.6535707718
 31
0.0
  0
SPLINE
  5
309
330
1F
100
AcDbEntity
  8
0
  6
Continuous
 62
     7
370
    25
100
AcDbSpline
210
0.0
220
0.0
230
1.0
 70
     8
 71
     3
 72
     9
 73
     5
 74
     0
 42
0.00000001
 43
0.00000001
 40
0.0
 40
0.0
 40
0.0
 40
0.0
 40
0.4954579634770077
 40
1.0
 40
1.0
 40
1.0
 40
1.0
 10
66.47045611532369
 20
140.0730141881951
 30
0.0
 10
66.9982704031112
 20
140.2352786009619
 30
0.0
 10
68.06357629522653
 20
140.562782495799
 30
0.0
 10
69.16482822430272
 20
140.623125293669
 30
0.0
 10
69.72045611532371
 20
140.6535707717958
 30
0.0
  0
LINE
  5
30A
330
1F
100
AcDbEntity
  8
0
  6
Continuous
 62
     7
370
    25
100
AcDbLine
 10
69.7204561153
 20
135.5785707718
 30
0.0
 11
66.4704561153
 21
135.5785707718
 31
0.0
  0
SPLINE
  5
30B
330
1F
100
AcDbEntity
  8
0
  6
Continuous
 62
     7
370
    25
100
AcDbSpline
210
0.0
220
0.0
230
1.0
 70
     8
 71
     3
 72
    10
 73
     6
 74
     0
 42
0.00000001
 43
0.00000001
 40
0.0
 40
0.0
 40
0.0
 40
0.0
 40
0.0700769119681853
 40
0.530777664039408
 40
1.0
 40
1.0
 40
1.0
 40
1.0
 10
69.72045611532371
 20
140.6535707717958
 30
0.0
 10
69.79747717226833
 20
140.6528778335674
 30
0.0
 10
70.38085128991602
 20
140.6476293697886
 30
0.0
 10
71.48078846141308
 20
140.5208381587713
 30
0.0
 10
72.47087592559734
 20
140.2231980118131
 30
0.0
 10
72.9704561153237
 20
140.0730141881951
 30
0.0
  0
LINE
  5
30C
330
1F
100
AcDbEntity
  8
0
  6
Continuous
 62
     7
370
    25
100
AcDbLine
 10
72.9704561153
 20
135.5785707718
 30
0.0
 11
72.9704561153
 21
140.0730141882
 31
0.0
  0
LINE
  5
30D
330
1F
100
AcDbEntity
  8
0
  6
Continuous
 62
     7
370
    25
100
AcDbLine
 10
72.9704561153
 20
135.5785707718
 30
0.0
 11
69.7204561153
 21
135.5785707718
 31
0.0
  0
SPLINE
  5
30E
330
1F
100
AcDbEntity
  8
0
  6
Continuous
 62
     7
370
    25
100
AcDbSpline
210
0.0
220
0.0
230
1.0
 70
    24
 71
     3
 72
    10
 73
     6
 74
     0
 42
0.00000001
 43
0.00000001
 40
0.0
 40
0.0
 40
0.0
 40
0.0
 40
0.2416195576541313
 40
0.6187318536530445
 40
0.9999999999999999
 40
0.9999999999999999
 40
0.9999999999999999
 40
0.9999999999999999
 10
59.97045611532369
 20
140.6535707717958
 30
0.0
 10
59.97045611532371
 20
140.6458636591277
 30
0.0
 10
59.97045611532374
 20
140.6261275245461
 30
0.0
 10
59.97045611532367
 20
140.4432745724704
 30
0.0
 10
59.97045611532369
 20
140.1968843809712
 30
0.0
 10
59.9704561153237
 20
140.0730141881951
 30
0.0
  0
LINE
  5
30F
330
1F
100
AcDbEntity
  8
0
  6
Continuous
 62
     7
370
    25
100
AcDbLine
 10
59.9704561153
 20
140.6535707718
 30
0.0
 11
63.2204561153
 21
140.6535707718
 31
0.0
  0
SPLINE
  5
310
330
1F
100
AcDbEntity
  8
0
  6
Continuous
 62
     7
370
    25
100
AcDbSpline
210
0.0
220
0.0
230
1.0
 70
    24
 71
     3
 72
    10
 73
     6
 74
     0
 42
0.00000001
 43
0.00000001
 40
0.0
 40
0.0
 40
0.0
 40
0.0
 40
0.3774426993277827
 40
0.7583800352693507
 40
1.0
 40
1.0
 40
1.0
 40
1.0
 10
72.9704561153237
 20
140.0730141881951
 30
0.0
 10
72.97045611532371
 20
140.1957278461552
 30
0.0
 10
72.97045611532371
 20
140.4422913335867
 30
0.0
 10
72.9704561153237
 20
140.6259950010091
 30
0.0
 10
72.97045611532369
 20
140.645860713881
 30
0.0
 10
72.97045611532369
 20
140.6535707717958
 30
0.0
  0
LINE
  5
311
330
1F
100
AcDbEntity
  8
0
  6
Continuous
 62
     7
370
    25
100
AcDbLine
 10
72.9704561153
 20
140.6535707718
 30
0.0
 11
69.7204561153
 21
140.6535707718
 31
0.0
  0
LINE
  5
312
330
1F
100
AcDbEntity
  8
0
  6
Continuous
 62
     7
370
    25
100
AcDbLine
 10
62.4704561153
 20
115.6690707718
 30
0.0
 11
70.4704561153
 21
115.6690707718
 31
0.0
  0
LINE
  5
313
330
1F
100
AcDbEntity
  8
0
  6
Continuous
 62
     7
370
    25
100
AcDbLine
 10
63.1609561153
 20
114.9785707718
 30
0.0
 11
69.7799561153
 21
114.9785707718
 31
0.0
  0
LINE
  5
314
330
1F
100
AcDbEntity
  8
0
  6
Continuous
 62
     7
370
    25
100
AcDbLine
 10
215.7204561153
 20
135.5785707718
 30
0.0
 11
212.4704561153
 21
135.5785707718
 31
0.0
  0
LINE
  5
315
330
1F
100
AcDbEntity
  8
0
  6
Continuous
 62
     7
370
    25
100
AcDbLine
 10
212.4704561153
 20
135.5785707718
 30
0.0
 11
212.4704561153
 21
140.0730141882
 31
0.0
  0
SPLINE
  5
316
330
1F
100
AcDbEntity
  8
0
  6
Continuous
 62
     7
370
    25
100
AcDbSpline
210
0.0
220
0.0
230
1.0
 70
     8
 71
     3
 72
     9
 73
     5
 74
     0
 42
0.00000001
 43
0.00000001
 40
0.0
 40
0.0
 40
0.0
 40
0.0
 40
0.4954579634770077
 40
1.0
 40
1.0
 40
1.0
 40
1.0
 10
212.4704561153237
 20
140.0730141881951
 30
0.0
 10
212.9982704031111
 20
140.2352786009619
 30
0.0
 10
214.0635762952265
 20
140.562782495799
 30
0.0
 10
215.1648282243027
 20
140.623125293669
 30
0.0
 10
215.7204561153237
 20
140.6535707717958
 30
0.0
  0
SPLINE
  5
317
330
1F
100
AcDbEntity
  8
0
  6
Continuous
 62
     7
370
    25
100
AcDbSpline
210
0.0
220
0.0
230
1.0
 70
     8
 71
     3
 72
    10
 73
     6
 74
     0
 42
0.00000001
 43
0.00000001
 40
0.0
 40
0.0
 40
0.0
 40
0.0
 40
0.0700769119681853
 40
0.530777664039408
 40
1.0
 40
1.0
 40
1.0
 40
1.0
 10
215.7204561153237
 20
140.6535707717958
 30
0.0
 10
215.7974771722683
 20
140.6528778335674
 30
0.0
 10
216.3808512899159
 20
140.6476293697886
 30
0.0
 10
217.4807884614131
 20
140.5208381587713
 30
0.0
 10
218.4708759255973
 20
140.2231980118131
 30
0.0
 10
218.9704561153237
 20
140.0730141881951
 30
0.0
  0
LINE
  5
318
330
1F
100
AcDbEntity
  8
0
  6
Continuous
 62
     7
370
    25
100
AcDbLine
 10
218.9704561153
 20
135.5785707718
 30
0.0
 11
218.9704561153
 21
140.0730141882
 31
0.0
  0
LINE
  5
319
330
1F
100
AcDbEntity
  8
0
  6
Continuous
 62
     7
370
    25
100
AcDbLine
 10
218.9704561153
 20
135.5785707718
 30
0.0
 11
215.7204561153
 21
135.5785707718
 31
0.0
  0
LINE
  5
31A
330
1F
100
AcDbEntity
  8
0
  6
Continuous
 62
     7
370
    25
100
AcDbLine
 10
215.7204561153
 20
140.6535707718
 30
0.0
 11
209.2204561153
 21
140.6535707718
 31
0.0
  0
SPLINE
  5
31B
330
1F
100
AcDbEntity
  8
0
  6
Continuous
 62
     7
370
    25
100
AcDbSpline
210
0.0
220
0.0
230
1.0
 70
     8
 71
     3
 72
    10
 73
     6
 74
     0
 42
0.00000001
 43
0.00000001
 40
0.0
 40
0.0
 40
0.0
 40
0.0
 40
0.0700769119681896
 40
0.5307776640394098
 40
0.9999999999999999
 40
0.9999999999999999
 40
0.9999999999999999
 40
0.9999999999999999
 10
209.2204561153236
 20
140.6535707717958
 30
0.0
 10
209.2974771722683
 20
140.6528778335674
 30
0.0
 10
209.8808512899159
 20
140.6476293697885
 30
0.0
 10
210.9807884614131
 20
140.5208381587713
 30
0.0
 10
211.9708759255973
 20
140.2231980118131
 30
0.0
 10
212.4704561153237
 20
140.0730141881951
 30
0.0
  0
LINE
  5
31C
330
1F
100
AcDbEntity
  8
0
  6
Continuous
 62
     7
370
    25
100
AcDbLine
 10
209.2204561153
 20
135.5785707718
 30
0.0
 11
205.9704561153
 21
135.5785707718
 31
0.0
  0
LINE
  5
31D
330
1F
100
AcDbEntity
  8
0
  6
Continuous
 62
     7
370
    25
100
AcDbLine
 10
205.9704561153
 20
135.5785707718
 30
0.0
 11
205.9704561153
 21
140.0730141882
 31
0.0
  0
SPLINE
  5
31E
330
1F
100
AcDbEntity
  8
0
  6
Continuous
 62
     7
370
    25
100
AcDbSpline
210
0.0
220
0.0
230
1.0
 70
     8
 71
     3
 72
     9
 73
     5
 74
     0
 42
0.00000001
 43
0.00000001
 40
0.0
 40
0.0
 40
0.0
 40
0.0
 40
0.4954579634770075
 40
1.0
 40
1.0
 40
1.0
 40
1.0
 10
205.9704561153237
 20
140.0730141881951
 30
0.0
 10
206.4982704031112
 20
140.2352786009619
 30
0.0
 10
207.5635762952265
 20
140.5627824957991
 30
0.0
 10
208.6648282243027
 20
140.623125293669
 30
0.0
 10
209.2204561153236
 20
140.6535707717958
 30
0.0
  0
LINE
  5
31F
330
1F
100
AcDbEntity
  8
0
  6
Continuous
 62
     7
370
    25
100
AcDbLine
 10
212.4704561153
 20
135.5785707718
 30
0.0
 11
209.2204561153
 21
135.5785707718
 31
0.0
  0
SPLINE
  5
320
330
1F
100
AcDbEntity
  8
0
  6
Continuous
 62
     7
370
    25
100
AcDbSpline
210
0.0
220
0.0
230
1.0
 70
    24
 71
     3
 72
    10
 73
     6
 74
     0
 42
0.00000001
 43
0.00000001
 40
0.0
 40
0.0
 40
0.0
 40
0.0
 40
0.2416195576541313
 40
0.6187318536530445
 40
0.9999999999999999
 40
0.9999999999999999
 40
0.9999999999999999
 40
0.9999999999999999
 10
205.9704561153237
 20
140.6535707717958
 30
0.0
 10
205.9704561153237
 20
140.6458636591277
 30
0.0
 10
205.9704561153237
 20
140.6261275245461
 30
0.0
 10
205.9704561153237
 20
140.4432745724704
 30
0.0
 10
205.9704561153237
 20
140.1968843809712
 30
0.0
 10
205.9704561153237
 20
140.0730141881951
 30
0.0
  0
LINE
  5
321
330
1F
100
AcDbEntity
  8
0
  6
Continuous
 62
     7
370
    25
100
AcDbLine
 10
205.9704561153
 20
140.6535707718
 30
0.0
 11
209.2204561153
 21
140.6535707718
 31
0.0
  0
SPLINE
  5
322
330
1F
100
AcDbEntity
  8
0
  6
Continuous
 62
     7
370
    25
100
AcDbSpline
210
0.0
220
0.0
230
1.0
 70
    24
 71
     3
 72
    10
 73
     6
 74
     0
 42
0.00000001
 43
0.00000001
 40
0.0
 40
0.0
 40
0.0
 40
0.0
 40
0.3774426993277827
 40
0.7583800352693507
 40
1.0
 40
1.0
 40
1.0
 40
1.0
 10
218.9704561153237
 20
140.0730141881951
 30
0.0
 10
218.9704561153237
 20
140.1957278461552
 30
0.0
 10
218.9704561153237
 20
140.4422913335867
 30
0.0
 10
218.9704561153237
 20
140.6259950010091
 30
0.0
 10
218.9704561153237
 20
140.645860713881
 30
0.0
 10
218.9704561153237
 20
140.6535707717958
 30
0.0
  0
LINE
  5
323
330
1F
100
AcDbEntity
  8
0
  6
Continuous
 62
     7
370
    25
100
AcDbLine
 10
218.9704561153
 20
140.6535707718
 30
0.0
 11
215.7204561153
 21
140.6535707718
 31
0.0
  0
LINE
  5
324
330
1F
100
AcDbEntity
  8
0
  6
Continuous
 62
     7
370
    25
100
AcDbLine
 10
208.4704561153
 20
115.6690707718
 30
0.0
 11
216.4704561153
 21
115.6690707718
 31
0.0
  0
LINE
  5
325
330
1F
100
AcDbEntity
  8
0
  6
Continuous
 62
     7
370
    25
100
AcDbLine
 10
209.1609561153
 20
114.9785707718
 30
0.0
 11
215.7799561153
 21
114.9785707718
 31
0.0
  0
LINE
  5
326
330
1F
100
AcDbEntity
  8
0
  6
Continuous
 62
     7
370
    25
100
AcDbLine
 10
58.4704561153
 20
129.9785707718
 30
0.0
 11
58.4704561153
 21
127.9785707718
 31
0.0
  0
LINE
  5
327
330
1F
100
AcDbEntity
  8
0
  6
Continuous
 62
     7
370
    25
100
AcDbLine
 10
58.4704561153
 20
127.9785707718
 30
0.0
 11
40.9440541922
 21
127.9785707718
 31
0.0
  0
LINE
  5
328
330
1F
100
AcDbEntity
  8
0
  6
Continuous
 62
     7
370
    25
100
AcDbLine
 10
40.9440541922
 20
127.9785707718
 30
0.0
 11
40.9440541922
 21
129.9785707718
 31
0.0
  0
LINE
  5
329
330
1F
100
AcDbEntity
  8
0
  6
Continuous
 62
     7
370
    25
100
AcDbLine
 10
58.4704561153
 20
129.9785707718
 30
0.0
 11
57.6390937691
 21
129.9785707718
 31
0.0
  0
LINE
  5
32A
330
1F
100
AcDbEntity
  8
0
  6
Continuous
 62
     7
370
    25
100
AcDbLine
 10
72.9704561153
 20
127.9785707718
 30
0.0
 11
58.4704561153
 21
127.9785707718
 31
0.0
  0
LINE
  5
32B
330
1F
100
AcDbEntity
  8
0
  6
Continuous
 62
     7
370
    25
100
AcDbLine
 10
60.0537894487
 20
129.9785707718
 30
0.0
 11
58.4704561153
 21
129.9785707718
 31
0.0
  0
LINE
  5
32C
330
1F
100
AcDbEntity
  8
0
  6
Continuous
 62
     7
370
    25
100
AcDbLine
 10
203.9704561153
 20
127.9785707718
 30
0.0
 11
203.9704561153
 21
129.9785707718
 31
0.0
  0
LINE
  5
32D
330
1F
100
AcDbEntity
  8
0
  6
Continuous
 62
     7
370
    25
100
AcDbLine
 10
205.9704561153
 20
127.9785707718
 30
0.0
 11
203.9704561153
 21
127.9785707718
 31
0.0
  0
LINE
  5
32E
330
1F
100
AcDbEntity
  8
0
  6
Continuous
 62
     7
370
    25
100
AcDbLine
 10
220.4704561153
 20
129.9785707718
 30
0.0
 11
220.4704561153
 21
127.9785707718
 31
0.0
  0
LINE
  5
32F
330
1F
100
AcDbEntity
  8
0
  6
Continuous
 62
     7
370
    25
100
AcDbLine
 10
220.4704561153
 20
127.9785707718
 30
0.0
 11
205.9704561153
 21
127.9785707718
 31
0.0
  0
LINE
  5
330
330
1F
100
AcDbEntity
  8
0
  6
Continuous
 62
     7
370
    25
100
AcDbLine
 10
220.4704561153
 20
129.9785707718
 30
0.0
 11
218.887122782
 21
129.9785707718
 31
0.0
  0
LINE
  5
331
330
1F
100
AcDbEntity
  8
0
  6
Continuous
 62
     7
370
    25
100
AcDbLine
 10
74.9704561153
 20
129.9785707718
 30
0.0
 11
74.9704561153
 21
127.9785707718
 31
0.0
  0
LINE
  5
332
330
1F
100
AcDbEntity
  8
0
  6
Continuous
 62
     7
370
    25
100
AcDbLine
 10
74.9704561153
 20
127.9785707718
 30
0.0
 11
72.9704561153
 21
127.9785707718
 31
0.0
  0
LINE
  5
333
330
1F
100
AcDbEntity
  8
0
  6
Continuous
 62
     7
370
    25
100
AcDbLine
 10
237.9968580384
 20
127.9785707718
 30
0.0
 11
237.9968580384
 21
129.9785707718
 31
0.0
  0
LINE
  5
334
330
1F
100
AcDbEntity
  8
0
  6
Continuous
 62
     7
370
    25
100
AcDbLine
 10
237.9968580384
 20
127.9785707718
 30
0.0
 11
220.4704561153
 21
127.9785707718
 31
0.0
  0
LINE
  5
335
330
1F
100
AcDbEntity
  8
0
  6
Continuous
 62
     7
370
    25
100
AcDbLine
 10
221.3018184616
 20
129.9785707718
 30
0.0
 11
220.4704561153
 21
129.9785707718
 31
0.0
  0
LINE
  5
336
330
1F
100
AcDbEntity
  8
0
  6
Continuous
 62
     7
370
    25
100
AcDbLine
 10
78.9704561153
 20
127.9785707718
 30
0.0
 11
74.9704561153
 21
127.9785707718
 31
0.0
  0
LINE
  5
337
330
1F
100
AcDbEntity
  8
0
  6
Continuous
 62
     7
370
    25
100
AcDbLine
 10
203.9704561153
 20
127.9785707718
 30
0.0
 11
199.9704561153
 21
127.9785707718
 31
0.0
  0
LINE
  5
338
330
1F
100
AcDbEntity
  8
0
  6
Continuous
 62
     7
370
    25
100
AcDbLine
 10
85.3534050852
 20
127.9785707718
 30
0.0
 11
78.9704561153
 21
127.9785707718
 31
0.0
  0
LINE
  5
339
330
1F
100
AcDbEntity
  8
0
  6
Continuous
 62
     7
370
    25
100
AcDbLine
 10
87.3534050852
 20
127.9785707718
 30
0.0
 11
85.3534050852
 21
127.9785707718
 31
0.0
  0
LINE
  5
33A
330
1F
100
AcDbEntity
  8
0
  6
Continuous
 62
     7
370
    25
100
AcDbLine
 10
193.5875071455
 20
127.9785707718
 30
0.0
 11
191.5875071455
 21
127.9785707718
 31
0.0
  0
LINE
  5
33B
330
1F
100
AcDbEntity
  8
0
  6
Continuous
 62
     7
370
    25
100
AcDbLine
 10
199.9704561153
 20
127.9785707718
 30
0.0
 11
193.5875071455
 21
127.9785707718
 31
0.0
  0
LINE
  5
33C
330
1F
100
AcDbEntity
  8
0
  6
Continuous
 62
     7
370
    25
100
AcDbLine
 10
191.5875071455
 20
127.9785707718
 30
0.0
 11
87.3534050852
 21
127.9785707718
 31
0.0
  0
SPLINE
  5
33D
330
1F
100
AcDbEntity
  8
0
  6
Continuous
 62
     7
370
    25
100
AcDbSpline
210
0.0
220
0.0
230
1.0
 70
     8
 71
     3
 72
    12
 73
     8
 74
     0
 42
0.00000001
 43
0.00000001
 40
0.0
 40
0.0
 40
0.0
 40
0.0
 40
0.2335879420900816
 40
0.4537901450808384
 40
0.6739877272615065
 40
0.894185218480903
 40
1.0
 40
1.0
 40
1.0
 40
1.0
 10
40.94405419224675
 20
129.9785707717958
 30
0.0
 10
40.86817230115265
 20
129.9427779277421
 30
0.0
 10
40.72075692491153
 20
129.8732433458169
 30
0.0
 10
40.50199057297937
 20
129.3490957894964
 30
0.0
 10
40.28763983135554
 20
128.6102348813698
 30
0.0
 10
40.11003076517358
 20
127.8581349637124
 30
0.0
 10
40.00465744878312
 20
127.3929554743631
 30
0.0
 10
39.97045611532369
 20
127.2419707717958
 30
0.0
  0
SPLINE
  5
33E
330
1F
100
AcDbEntity
  8
0
  6
Continuous
 62
     7
370
    25
100
AcDbSpline
210
0.0
220
0.0
230
1.0
 70
     8
 71
     3
 72
    11
 73
     7
 74
     0
 42
0.00000001
 43
0.00000001
 40
0.0
 40
0.0
 40
0.0
 40
0.0
 40
0.2472454926703052
 40
0.5282132489579738
 40
0.8093312418985419
 40
1.0
 40
1.0
 40
1.0
 40
1.0
 10
40.94405419224675
 20
127.9785707717958
 30
0.0
 10
40.86385850516541
 20
127.9676736825631
 30
0.0
 10
40.69252909499836
 20
127.9443932302253
 30
0.0
 10
40.42964752389445
 20
127.7539567502973
 30
0.0
 10
40.18493489123711
 20
127.4971557826978
 30
0.0
 10
40.0321876599755
 20
127.3154184349871
 30
0.0
 10
39.97045611532369
 20
127.2419707717958
 30
0.0
  0
SPLINE
  5
33F
330
1F
100
AcDbEntity
  8
0
  6
Continuous
 62
     7
370
    25
100
AcDbSpline
210
0.0
220
0.0
230
1.0
 70
     8
 71
     3
 72
    12
 73
     8
 74
     0
 42
0.00000001
 43
0.00000001
 40
0.0
 40
0.0
 40
0.0
 40
0.0
 40
0.2335879420900659
 40
0.4537901450808095
 40
0.6739877272614916
 40
0.8941852184808515
 40
0.9999999999999999
 40
0.9999999999999999
 40
0.9999999999999999
 40
0.9999999999999999
 10
238.9704561153237
 20
127.2419707717958
 30
0.0
 10
238.8945742242296
 20
127.5769031613033
 30
0.0
 10
238.7471588479885
 20
128.2275746654354
 30
0.0
 10
238.5283924960562
 20
129.0691422683567
 30
0.0
 10
238.3140417544325
 20
129.6736768488801
 30
0.0
 10
238.1364326882505
 20
129.9477162160295
 30
0.0
 10
238.0310593718601
 20
129.9710101800148
 30
0.0
 10
237.9968580384006
 20
129.9785707717958
 30
0.0
  0
SPLINE
  5
340
330
1F
100
AcDbEntity
  8
0
  6
Continuous
 62
     7
370
    25
100
AcDbSpline
210
0.0
220
0.0
230
1.0
 70
     8
 71
     3
 72
    11
 73
     7
 74
     0
 42
0.00000001
 43
0.00000001
 40
0.0
 40
0.0
 40
0.0
 40
0.0
 40
0.2472454926704311
 40
0.5282132489579149
 40
0.8093312418986075
 40
1.0
 40
1.0
 40
1.0
 40
1.0
 10
238.9704561153237
 20
127.2419707717956
 30
0.0
 10
238.8902604282424
 20
127.3373665990687
 30
0.0
 10
238.7189310180755
 20
127.5411694644585
 30
0.0
 10
238.4560494469711
 20
127.8021379355576
 30
0.0
 10
238.2113368143142
 20
127.955908541975
 30
0.0
 10
238.0585895830525
 20
127.9720481009807
 30
0.0
 10
237.9968580384006
 20
127.9785707717958
 30
0.0
  0
LINE
  5
341
330
1F
100
AcDbEntity
  8
0
  6
Continuous
 62
     7
370
    25
100
AcDbLine
 10
213.4704561153
 20
102.9785707718
 30
0.0
 11
201.9704561153
 21
114.9785707718
 31
0.0
  0
LINE
  5
342
330
1F
100
AcDbEntity
  8
0
  6
Continuous
 62
     7
370
    25
100
AcDbLine
 10
76.9704561153
 20
114.9785707718
 30
0.0
 11
201.9704561153
 21
114.9785707718
 31
0.0
  0
LINE
  5
343
330
1F
100
AcDbEntity
  8
0
  6
Continuous
 62
     7
370
    25
100
AcDbLine
 10
65.4704561153
 20
102.9785707718
 30
0.0
 11
76.9704561153
 21
114.9785707718
 31
0.0
  0
LINE
  5
344
330
1F
100
AcDbEntity
  8
0
  6
Continuous
 62
     7
370
    25
100
AcDbLine
 10
65.4704561153
 20
102.9785707718
 30
0.0
 11
41.9704561153
 21
102.9785707718
 31
0.0
  0
ARC
  5
345
330
1F
100
AcDbEntity
  8
0
  6
Continuous
 62
     7
370
    25
100
AcDbCircle
 10
41.9704561153
 20
104.9785707718
 30
0.0
 40
2.0
100
AcDbArc
 50
180.0
 51
270.0
  0
LINE
  5
346
330
1F
100
AcDbEntity
  8
0
  6
Continuous
 62
     7
370
    25
100
AcDbLine
 10
238.9704561153
 20
127.2419707718
 30
0.0
 11
238.9704561153
 21
104.9785707718
 31
0.0
  0
ARC
  5
347
330
1F
100
AcDbEntity
  8
0
  6
Continuous
 62
     7
370
    25
100
AcDbCircle
 10
236.9704561153
 20
104.9785707718
 30
0.0
 40
2.0
100
AcDbArc
 50
270.0
 51
0.0
  0
LINE
  5
348
330
1F
100
AcDbEntity
  8
0
  6
Continuous
 62
     7
370
    25
100
AcDbLine
 10
236.9704561153
 20
102.9785707718
 30
0.0
 11
213.4704561153
 21
102.9785707718
 31
0.0
  0
ARC
  5
349
330
1F
100
AcDbEntity
  8
0
  6
Continuous
 62
     7
370
    25
100
AcDbCircle
 10
221.2204561153
 20
111.9785707718
 30
0.0
 40
5.249999999999986
100
AcDbArc
 50
90.0
 51
270.0
  0
LINE
  5
34A
330
1F
100
AcDbEntity
  8
0
  6
Continuous
 62
     7
370
    25
100
AcDbLine
 10
221.2204561153
 20
106.7285707718
 30
0.0
 11
228.7204561153
 21
106.7285707718
 31
0.0
  0
ARC
  5
34B
330
1F
100
AcDbEntity
  8
0
  6
Continuous
 62
     7
370
    25
100
AcDbCircle
 10
228.7204561153
 20
111.9785707718
 30
0.0
 40
5.250000000000199
100
AcDbArc
 50
270.0
 51
90.0
  0
LINE
  5
34C
330
1F
100
AcDbEntity
  8
0
  6
Continuous
 62
     7
370
    25
100
AcDbLine
 10
221.2204561153
 20
117.2285707718
 30
0.0
 11
228.7204561153
 21
117.2285707718
 31
0.0
  0
ARC
  5
34D
330
1F
100
AcDbEntity
  8
0
  6
Continuous
 62
     7
370
    25
100
AcDbCircle
 10
57.7204561153
 20
111.9785707718
 30
0.0
 40
5.250000000000199
100
AcDbArc
 50
270.0
 51
90.0
  0
LINE
  5
34E
330
1F
100
AcDbEntity
  8
0
  6
Continuous
 62
     7
370
    25
100
AcDbLine
 10
57.7204561153
 20
117.2285707718
 30
0.0
 11
50.2204561153
 21
117.2285707718
 31
0.0
  0
ARC
  5
34F
330
1F
100
AcDbEntity
  8
0
  6
Continuous
 62
     7
370
    25
100
AcDbCircle
 10
50.2204561153
 20
111.9785707718
 30
0.0
 40
5.250000000000199
100
AcDbArc
 50
90.0
 51
270.0
  0
LINE
  5
350
330
1F
100
AcDbEntity
  8
0
  6
Continuous
 62
     7
370
    25
100
AcDbLine
 10
57.7204561153
 20
106.7285707718
 30
0.0
 11
50.2204561153
 21
106.7285707718
 31
0.0
  0
LINE
  5
351
330
1F
100
AcDbEntity
  8
0
  6
Continuous
 62
     7
370
    25
100
AcDbLine
 10
39.9704561153
 20
104.9785707718
 30
0.0
 11
39.9704561153
 21
127.2419707718
 31
0.0
  0
LINE
  5
352
330
1F
100
AcDbEntity
  8
0
  6
Continuous
 62
     7
370
    25
100
AcDbLine
 10
205.9704561153
 20
129.9785707718
 30
0.0
 11
205.9704561153
 21
132.9785707718
 31
0.0
  0
LINE
  5
353
330
1F
100
AcDbEntity
  8
0
  6
Continuous
 62
     7
370
    25
100
AcDbLine
 10
205.9704561153
 20
129.9785707718
 30
0.0
 11
201.9704561153
 21
129.9785707718
 31
0.0
  0
LINE
  5
354
330
1F
100
AcDbEntity
  8
0
  6
Continuous
 62
     7
370
    25
100
AcDbLine
 10
201.9704561153
 20
129.9785707718
 30
0.0
 11
201.9704561153
 21
132.9785707718
 31
0.0
  0
LINE
  5
355
330
1F
100
AcDbEntity
  8
0
  6
Continuous
 62
     7
370
    25
100
AcDbLine
 10
205.9704561153
 20
132.9785707718
 30
0.0
 11
201.9704561153
 21
132.9785707718
 31
0.0
  0
LINE
  5
356
330
1F
100
AcDbEntity
  8
0
  6
Continuous
 62
     7
370
    25
100
AcDbLine
 10
72.9704561153
 20
129.9785707718
 30
0.0
 11
72.9704561153
 21
132.9785707718
 31
0.0
  0
LINE
  5
357
330
1F
100
AcDbEntity
  8
0
  6
Continuous
 62
     7
370
    25
100
AcDbLine
 10
72.9704561153
 20
129.9785707718
 30
0.0
 11
60.0537894487
 21
129.9785707718
 31
0.0
  0
LINE
  5
358
330
1F
100
AcDbEntity
  8
0
  6
Continuous
 62
     7
370
    25
100
AcDbLine
 10
57.6390937691
 20
129.9785707718
 30
0.0
 11
57.4704561153
 21
129.9785707718
 31
0.0
  0
LINE
  5
359
330
1F
100
AcDbEntity
  8
0
  6
Continuous
 62
     7
370
    25
100
AcDbLine
 10
57.4704561153
 20
129.9785707718
 30
0.0
 11
57.4704561153
 21
132.9785707718
 31
0.0
  0
LINE
  5
35A
330
1F
100
AcDbEntity
  8
0
  6
Continuous
 62
     7
370
    25
100
AcDbLine
 10
70.4704561153
 20
132.9785707718
 30
0.0
 11
60.0537894487
 21
132.9785707718
 31
0.0
  0
LINE
  5
35B
330
1F
100
AcDbEntity
  8
0
  6
Continuous
 62
     7
370
    25
100
AcDbLine
 10
57.5286018817
 20
132.9785707718
 30
0.0
 11
57.4704561153
 21
132.9785707718
 31
0.0
  0
LINE
  5
35C
330
1F
100
AcDbEntity
  8
0
  6
Continuous
 62
     7
370
    25
100
AcDbLine
 10
76.9704561153
 20
129.9785707718
 30
0.0
 11
72.9704561153
 21
129.9785707718
 31
0.0
  0
LINE
  5
35D
330
1F
100
AcDbEntity
  8
0
  6
Continuous
 62
     7
370
    25
100
AcDbLine
 10
76.9704561153
 20
132.9785707718
 30
0.0
 11
72.9704561153
 21
132.9785707718
 31
0.0
  0
LINE
  5
35E
330
1F
100
AcDbEntity
  8
0
  6
Continuous
 62
     7
370
    25
100
AcDbLine
 10
76.9704561153
 20
129.9785707718
 30
0.0
 11
76.9704561153
 21
132.9785707718
 31
0.0
  0
LINE
  5
35F
330
1F
100
AcDbEntity
  8
0
  6
Continuous
 62
     7
370
    25
100
AcDbLine
 10
221.4704561153
 20
129.9785707718
 30
0.0
 11
221.4704561153
 21
132.9785707718
 31
0.0
  0
LINE
  5
360
330
1F
100
AcDbEntity
  8
0
  6
Continuous
 62
     7
370
    25
100
AcDbLine
 10
221.4704561153
 20
129.9785707718
 30
0.0
 11
221.3018184616
 21
129.9785707718
 31
0.0
  0
LINE
  5
361
330
1F
100
AcDbEntity
  8
0
  6
Continuous
 62
     7
370
    25
100
AcDbLine
 10
218.887122782
 20
129.9785707718
 30
0.0
 11
205.9704561153
 21
129.9785707718
 31
0.0
  0
LINE
  5
362
330
1F
100
AcDbEntity
  8
0
  6
Continuous
 62
     7
370
    25
100
AcDbLine
 10
221.4704561153
 20
132.9785707718
 30
0.0
 11
221.412310349
 21
132.9785707718
 31
0.0
  0
LINE
  5
363
330
1F
100
AcDbEntity
  8
0
  6
Continuous
 62
     7
370
    25
100
AcDbLine
 10
218.887122782
 20
132.9785707718
 30
0.0
 11
208.4704561153
 21
132.9785707718
 31
0.0
  0
LINE
  5
364
330
1F
100
AcDbEntity
  8
0
  6
Continuous
 62
     7
370
    25
100
AcDbLine
 10
39.9704561153
 20
129.9785707718
 30
0.0
 11
39.9704561153
 21
132.9785707718
 31
0.0
  0
LINE
  5
365
330
1F
100
AcDbEntity
  8
0
  6
Continuous
 62
     7
370
    25
100
AcDbLine
 10
57.4704561153
 20
129.9785707718
 30
0.0
 11
39.9704561153
 21
129.9785707718
 31
0.0
  0
LINE
  5
366
330
1F
100
AcDbEntity
  8
0
  6
Continuous
 62
     7
370
    25
100
AcDbLine
 10
57.4704561153
 20
132.9785707718
 30
0.0
 11
57.0661656863
 21
132.9785707718
 31
0.0
  0
LINE
  5
367
330
1F
100
AcDbEntity
  8
0
  6
Continuous
 62
     7
370
    25
100
AcDbLine
 10
238.9704561153
 20
129.9785707718
 30
0.0
 11
238.9704561153
 21
132.9785707718
 31
0.0
  0
LINE
  5
368
330
1F
100
AcDbEntity
  8
0
  6
Continuous
 62
     7
370
    25
100
AcDbLine
 10
238.9704561153
 20
129.9785707718
 30
0.0
 11
221.4704561153
 21
129.9785707718
 31
0.0
  0
LINE
  5
369
330
1F
100
AcDbEntity
  8
0
  6
Continuous
 62
     7
370
    25
100
AcDbLine
 10
221.8747465444
 20
132.9785707718
 30
0.0
 11
221.4704561153
 21
132.9785707718
 31
0.0
  0
LINE
  5
36A
330
1F
100
AcDbEntity
  8
0
  6
Continuous
 62
     7
370
    25
100
AcDbLine
 10
80.9704561153
 20
129.9785707718
 30
0.0
 11
76.9704561153
 21
129.9785707718
 31
0.0
  0
LINE
  5
36B
330
1F
100
AcDbEntity
  8
0
  6
Continuous
 62
     7
370
    25
100
AcDbLine
 10
201.9704561153
 20
129.9785707718
 30
0.0
 11
197.9704561153
 21
129.9785707718
 31
0.0
  0
LINE
  5
36C
330
1F
100
AcDbEntity
  8
0
  6
Continuous
 62
     7
370
    25
100
AcDbLine
 10
87.9977370463
 20
129.9785707718
 30
0.0
 11
85.4977370463
 21
129.9785707718
 31
0.0
  0
LINE
  5
36D
330
1F
100
AcDbEntity
  8
0
  6
Continuous
 62
     7
370
    25
100
AcDbLine
 10
193.4431751843
 20
129.9785707718
 30
0.0
 11
190.9431751843
 21
129.9785707718
 31
0.0
  0
LINE
  5
36E
330
1F
100
AcDbEntity
  8
0
  6
Continuous
 62
     7
370
    25
100
AcDbLine
 10
85.4977370463
 20
129.9785707718
 30
0.0
 11
80.9704561153
 21
129.9785707718
 31
0.0
  0
LINE
  5
36F
330
1F
100
AcDbEntity
  8
0
  6
Continuous
 62
     7
370
    25
100
AcDbLine
 10
197.9704561153
 20
129.9785707718
 30
0.0
 11
193.4431751843
 21
129.9785707718
 31
0.0
  0
LINE
  5
370
330
1F
100
AcDbEntity
  8
0
  6
Continuous
 62
     7
370
    25
100
AcDbLine
 10
190.9431751843
 20
129.9785707718
 30
0.0
 11
87.9977370463
 21
129.9785707718
 31
0.0
  0
LINE
  5
371
330
1F
100
AcDbEntity
  8
0
  6
Continuous
 62
     7
370
    25
100
AcDbLine
 10
206.4704561153
 20
134.9785707718
 30
0.0
 11
208.4704561153
 21
134.9785707718
 31
0.0
  0
LINE
  5
372
330
1F
100
AcDbEntity
  8
0
  6
Continuous
 62
     7
370
    25
100
AcDbLine
 10
208.4704561153
 20
134.9785707718
 30
0.0
 11
208.4704561153
 21
132.9785707718
 31
0.0
  0
LINE
  5
373
330
1F
100
AcDbEntity
  8
0
  6
Continuous
 62
     7
370
    25
100
AcDbLine
 10
208.4704561153
 20
132.9785707718
 30
0.0
 11
206.4704561153
 21
132.9785707718
 31
0.0
  0
LINE
  5
374
330
1F
100
AcDbEntity
  8
0
  6
Continuous
 62
     7
370
    25
100
AcDbLine
 10
206.4704561153
 20
132.9785707718
 30
0.0
 11
72.4704561153
 21
132.9785707718
 31
0.0
  0
LINE
  5
375
330
1F
100
AcDbEntity
  8
0
  6
Continuous
 62
     7
370
    25
100
AcDbLine
 10
206.4704561153
 20
134.9785707718
 30
0.0
 11
72.4704561153
 21
134.9785707718
 31
0.0
  0
LINE
  5
376
330
1F
100
AcDbEntity
  8
0
  6
Continuous
 62
     7
370
    25
100
AcDbLine
 10
70.4704561153
 20
132.9785707718
 30
0.0
 11
70.4704561153
 21
134.9785707718
 31
0.0
  0
LINE
  5
377
330
1F
100
AcDbEntity
  8
0
  6
Continuous
 62
     7
370
    25
100
AcDbLine
 10
70.4704561153
 20
134.9785707718
 30
0.0
 11
72.4704561153
 21
134.9785707718
 31
0.0
  0
LINE
  5
378
330
1F
100
AcDbEntity
  8
0
  6
Continuous
 62
     7
370
    25
100
AcDbLine
 10
72.4704561153
 20
132.9785707718
 30
0.0
 11
70.4704561153
 21
132.9785707718
 31
0.0
  0
LINE
  5
379
330
1F
100
AcDbEntity
  8
0
  6
Continuous
 62
     7
370
    25
100
AcDbLine
 10
238.9704561153
 20
132.9785707718
 30
0.0
 11
238.9704561153
 21
134.9785707718
 31
0.0
  0
LINE
  5
37A
330
1F
100
AcDbEntity
  8
0
  6
Continuous
 62
     7
370
    25
100
AcDbLine
 10
220.4704561153
 20
132.9785707718
 30
0.0
 11
220.4704561153
 21
134.9785707718
 31
0.0
  0
LINE
  5
37B
330
1F
100
AcDbEntity
  8
0
  6
Continuous
 62
     7
370
    25
100
AcDbLine
 10
238.9704561153
 20
132.9785707718
 30
0.0
 11
221.8747465444
 21
132.9785707718
 31
0.0
  0
LINE
  5
37C
330
1F
100
AcDbEntity
  8
0
  6
Continuous
 62
     7
370
    25
100
AcDbLine
 10
221.412310349
 20
132.9785707718
 30
0.0
 11
220.4704561153
 21
132.9785707718
 31
0.0
  0
LINE
  5
37D
330
1F
100
AcDbEntity
  8
0
  6
Continuous
 62
     7
370
    25
100
AcDbLine
 10
238.9704561153
 20
134.9785707718
 30
0.0
 11
220.4704561153
 21
134.9785707718
 31
0.0
  0
LINE
  5
37E
330
1F
100
AcDbEntity
  8
0
  6
Continuous
 62
     7
370
    25
100
AcDbLine
 10
220.4704561153
 20
132.9785707718
 30
0.0
 11
218.887122782
 21
132.9785707718
 31
0.0
  0
LINE
  5
37F
330
1F
100
AcDbEntity
  8
0
  6
Continuous
 62
     7
370
    25
100
AcDbLine
 10
220.4704561153
 20
134.9785707718
 30
0.0
 11
208.4704561153
 21
134.9785707718
 31
0.0
  0
LINE
  5
380
330
1F
100
AcDbEntity
  8
0
  6
Continuous
 62
     7
370
    25
100
AcDbLine
 10
58.4704561153
 20
132.9785707718
 30
0.0
 11
58.4704561153
 21
134.9785707718
 31
0.0
  0
LINE
  5
381
330
1F
100
AcDbEntity
  8
0
  6
Continuous
 62
     7
370
    25
100
AcDbLine
 10
39.9704561153
 20
132.9785707718
 30
0.0
 11
39.9704561153
 21
134.9785707718
 31
0.0
  0
LINE
  5
382
330
1F
100
AcDbEntity
  8
0
  6
Continuous
 62
     7
370
    25
100
AcDbLine
 10
58.4704561153
 20
132.9785707718
 30
0.0
 11
57.5286018817
 21
132.9785707718
 31
0.0
  0
LINE
  5
383
330
1F
100
AcDbEntity
  8
0
  6
Continuous
 62
     7
370
    25
100
AcDbLine
 10
57.0661656863
 20
132.9785707718
 30
0.0
 11
39.9704561153
 21
132.9785707718
 31
0.0
  0
LINE
  5
384
330
1F
100
AcDbEntity
  8
0
  6
Continuous
 62
     7
370
    25
100
AcDbLine
 10
58.4704561153
 20
134.9785707718
 30
0.0
 11
39.9704561153
 21
134.9785707718
 31
0.0
  0
LINE
  5
385
330
1F
100
AcDbEntity
  8
0
  6
Continuous
 62
     7
370
    25
100
AcDbLine
 10
60.0537894487
 20
132.9785707718
 30
0.0
 11
58.4704561153
 21
132.9785707718
 31
0.0
  0
LINE
  5
386
330
1F
100
AcDbEntity
  8
0
  6
Continuous
 62
     7
370
    25
100
AcDbLine
 10
70.4704561153
 20
134.9785707718
 30
0.0
 11
58.4704561153
 21
134.9785707718
 31
0.0
  0
LINE
  5
387
330
1F
100
AcDbEntity
  8
0
  6
Continuous
 62
     8
370
    18
100
AcDbLine
 10
72.9704561153
 20
127.9785707718
 30
0.0
 11
72.9704561153
 21
129.9785707718
 31
0.0
  0
LINE
  5
388
330
1F
100
AcDbEntity
  8
0
  6
Continuous
 62
     8
370
    18
100
AcDbLine
 10
205.9704561153
 20
129.9785707718
 30
0.0
 11
205.9704561153
 21
127.9785707718
 31
0.0
  0
LINE
  5
389
330
1F
100
AcDbEntity
  8
0
  6
Continuous
 62
     8
370
    18
100
AcDbLine
 10
78.9704561153
 20
129.9785707718
 30
0.0
 11
78.9704561153
 21
127.9785707718
 31
0.0
  0
LINE
  5
38A
330
1F
100
AcDbEntity
  8
0
  6
Continuous
 62
     8
370
    18
100
AcDbLine
 10
199.9704561153
 20
127.9785707718
 30
0.0
 11
199.9704561153
 21
129.9785707718
 31
0.0
  0
LINE
  5
38B
330
1F
100
AcDbEntity
  8
0
  6
Continuous
 62
     8
370
    18
100
AcDbLine
 10
85.3534050852
 20
127.9785707718
 30
0.0
 11
85.3534050852
 21
129.9785707718
 31
0.0
  0
LINE
  5
38C
330
1F
100
AcDbEntity
  8
0
  6
Continuous
 62
     8
370
    18
100
AcDbLine
 10
193.5875071455
 20
129.9785707718
 30
0.0
 11
193.5875071455
 21
127.9785707718
 31
0.0
  0
LINE
  5
38D
330
1F
100
AcDbEntity
  8
0
  6
Continuous
 62
     8
370
    18
100
AcDbLine
 10
39.9704561153
 20
127.2419707718
 30
0.0
 11
59.9704561153
 21
127.2419707718
 31
0.0
  0
LINE
  5
38E
330
1F
100
AcDbEntity
  8
0
  6
Continuous
 62
     8
370
    18
100
AcDbLine
 10
72.9704561153
 20
127.2419707718
 30
0.0
 11
205.9704561153
 21
127.2419707718
 31
0.0
  0
LINE
  5
38F
330
1F
100
AcDbEntity
  8
0
  6
Continuous
 62
     8
370
    18
100
AcDbLine
 10
218.9704561153
 20
127.2419707718
 30
0.0
 11
238.9704561153
 21
127.2419707718
 31
0.0
  0
LINE
  5
390
330
1F
100
AcDbEntity
  8
0
  6
Continuous
 62
     8
370
    18
100
AcDbLine
 10
80.9704561153
 20
132.9785707718
 30
0.0
 11
80.9704561153
 21
129.9785707718
 31
0.0
  0
LINE
  5
391
330
1F
100
AcDbEntity
  8
0
  6
Continuous
 62
     8
370
    18
100
AcDbLine
 10
197.9704561153
 20
129.9785707718
 30
0.0
 11
197.9704561153
 21
132.9785707718
 31
0.0
  0
LINE
  5
392
330
1F
100
AcDbEntity
  8
0
  6
Continuous
 62
     8
370
    18
100
AcDbLine
 10
85.4977370463
 20
129.9785707718
 30
0.0
 11
85.4977370463
 21
132.9785707718
 31
0.0
  0
LINE
  5
393
330
1F
100
AcDbEntity
  8
0
  6
Continuous
 62
     8
370
    18
100
AcDbLine
 10
193.4431751843
 20
132.9785707718
 30
0.0
 11
193.4431751843
 21
129.9785707718
 31
0.0
  0
LINE
  5
394
330
1F
100
AcDbEntity
  8
0
  6
Continuous
 62
     8
370
    18
100
AcDbLine
 10
206.4704561153
 20
132.9785707718
 30
0.0
 11
206.4704561153
 21
134.9785707718
 31
0.0
  0
LINE
  5
395
330
1F
100
AcDbEntity
  8
0
  6
Continuous
 62
     8
370
    18
100
AcDbLine
 10
72.4704561153
 20
134.9785707718
 30
0.0
 11
72.4704561153
 21
132.9785707718
 31
0.0
  0
DIMENSION
  5
396
330
1F
100
AcDbEntity
  8
0
  6
Continuous
 62
     7
370
    18
100
AcDbDimension
  2
_D_9
 10
221.2204561153
 20
95.1967334501
 30
0.0
 11
139.4704561153
 21
95.1967334501
 31
0.0
 70
   160
  1
<>
 71
     2
 42
-1.0
  3
SLDDIMSTYLE0
100
AcDbAlignedDimension
 13
57.7204561153
 23
104.2285707718
 33
0.0
 14
221.2204561153
 24
104.2285707718
 34
0.0
100
AcDbRotatedDimension
  0
DIMENSION
  5
3A0
330
1F
100
AcDbEntity
  8
0
  6
Continuous
 62
     7
370
    18
100
AcDbDimension
  2
_D_10
 10
228.7204561153
 20
82.9785707718
 30
0.0
 11
139.4704561153
 21
82.9785707718
 31
0.0
 70
   160
  1
<>
 71
     2
 42
-1.0
  3
SLDDIMSTYLE0
100
AcDbAlignedDimension
 13
50.2204561153
 23
111.9785707718
 33
0.0
 14
228.7204561153
 24
104.2285707718
 34
0.0
100
AcDbRotatedDimension
  0
DIMENSION
  5
3AA
330
1F
100
AcDbEntity
  8
0
  6
Continuous
 62
     7
370
    18
100
AcDbDimension
  2
_D_11
 10
250.3664488266
 20
117.2285707718
 30
0.0
 11
250.3664488266
 21
111.9785707718
 31
0.0
 70
   160
  1
<>
 71
     2
 42
-1.0
  3
SLDDIMSTYLE0
100
AcDbAlignedDimension
 13
228.7204561153
 23
106.7285707718
 33
0.0
 14
228.7204561153
 24
117.2285707718
 34
0.0
 50
90.0
100
AcDbRotatedDimension
  0
DIMENSION
  5
3B4
330
1F
100
AcDbEntity
  8
0
  6
Continuous
 62
     7
370
    18
100
AcDbDimension
  2
_D_12
 10
264.4815203251
 20
134.9785707718
 30
0.0
 11
264.4815203251
 21
118.9785707718
 31
0.0
 70
   160
  1
<>
 71
     2
 42
-1.0
  3
SLDDIMSTYLE0
100
AcDbAlignedDimension
 13
236.9704561153
 23
102.9785707718
 33
0.0
 14
238.9704561153
 24
134.9785707718
 34
0.0
 50
90.0
100
AcDbRotatedDimension
  0
DIMENSION
  5
3BE
330
1F
100
AcDbEntity
  8
0
  6
Continuous
 62
     7
370
    18
100
AcDbDimension
  2
_D_13
 10
201.9704561153
 20
105.8373258105
 30
0.0
 11
139.4704561153
 21
105.8373258105
 31
0.0
 70
   160
  1
<>
 71
     2
 42
-1.0
  3
SLDDIMSTYLE0
100
AcDbAlignedDimension
 13
76.9704561153
 23
114.9785707718
 33
0.0
 14
201.9704561153
 24
114.9785707718
 34
0.0
 50
0.0
100
AcDbRotatedDimension
  0
INSERT
  5
3DB
330
1F
100
AcDbEntity
  8
0
  6
Continuous
 62
     7
370
     0
100
AcDbBlockReference
  2
SW_CENTERMARKSYMBOL_0
 10
228.7204561153
 20
111.9785707718
 30
0.0
  0
INSERT
  5
3EF
330
1F
100
AcDbEntity
  8
0
  6
Continuous
 62
     7
370
     0
100
AcDbBlockReference
  2
SW_CENTERMARKSYMBOL_1
 10
57.7204561153
 20
111.9785707718
 30
0.0
  0
LINE
  5
3F0
330
1F
100
AcDbEntity
  8
0
  6
Continuous
 62
     7
370
    25
100
AcDbLine
 10
313.1972363251
 20
133.0328127798
 30
0.0
 11
313.1972363251
 21
132.7509478792
 31
0.0
  0
LINE
  5
3F1
330
1F
100
AcDbEntity
  8
0
  6
Continuous
 62
     7
370
    25
100
AcDbLine
 10
314.3671310995
 20
130.7244111109
 30
0.0
 11
314.611220038
 21
130.5834557551
 31
0.0
  0
LINE
  5
3F2
330
1F
100
AcDbEntity
  8
0
  6
Continuous
 62
     7
370
    25
100
AcDbLine
 10
315.1705248306
 20
134.848490285
 30
0.0
 11
313.6115311548
 21
133.9485023928
 31
0.0
  0
LINE
  5
3F3
330
1F
100
AcDbEntity
  8
0
  6
Continuous
 62
     7
370
    25
100
AcDbLine
 10
315.6113686201
 20
130.4843069432
 30
0.0
 11
317.1703622959
 21
131.3842948355
 31
0.0
  0
LINE
  5
3F4
330
1F
100
AcDbEntity
  8
0
  6
Continuous
 62
     7
370
    25
100
AcDbLine
 10
364.8160313517
 20
103.2339166983
 30
0.0
 11
364.8160313517
 21
102.9520517977
 31
0.0
  0
LINE
  5
3F5
330
1F
100
AcDbEntity
  8
0
  6
Continuous
 62
     7
370
    25
100
AcDbLine
 10
365.9859261262
 20
100.9255150293
 30
0.0
 11
366.2300150646
 21
100.7845596736
 31
0.0
  0
LINE
  5
3F6
330
1F
100
AcDbEntity
  8
0
  6
Continuous
 62
     7
370
    25
100
AcDbLine
 10
366.7893198573
 20
105.0495942035
 30
0.0
 11
365.2303261814
 21
104.1496063112
 31
0.0
  0
LINE
  5
3F7
330
1F
100
AcDbEntity
  8
0
  6
Continuous
 62
     7
370
    25
100
AcDbLine
 10
367.2301636467
 20
100.6854108617
 30
0.0
 11
368.7891573225
 21
101.585398754
 31
0.0
  0
LINE
  5
3F8
330
1F
100
AcDbEntity
  8
0
  6
Continuous
 62
     7
370
    25
100
AcDbLine
 10
368.4913607516
 20
116.5127675303
 30
0.0
 11
367.7842539704
 21
116.1045634744
 31
0.0
  0
LINE
  5
3F9
330
1F
100
AcDbEntity
  8
0
  6
Continuous
 62
     7
370
    25
100
AcDbLine
 10
364.1133271578
 20
114.7533132648
 30
0.0
 11
363.4062203766
 21
114.3451092089
 31
0.0
  0
LINE
  5
3FA
330
1F
100
AcDbEntity
  8
0
  6
Continuous
 62
     7
370
    25
100
AcDbLine
 10
301.1697292958
 20
124.4199210685
 30
0.0
 11
301.1697292958
 21
123.6033802567
 31
0.0
  0
LINE
  5
3FB
330
1F
100
AcDbEntity
  8
0
  6
Continuous
 62
     7
370
    25
100
AcDbLine
 10
364.9979684337
 20
116.2239956191
 30
0.0
 11
363.9373082619
 21
115.6116895352
 31
0.0
  0
LINE
  5
3FC
330
1F
100
AcDbEntity
  8
0
  6
Continuous
 62
     7
370
    25
100
AcDbLine
 10
323.0597500604
 20
149.8842784765
 30
0.0
 11
322.3526432792
 21
149.4760744206
 31
0.0
  0
SPLINE
  5
3FD
330
1F
100
AcDbEntity
  8
0
  6
Continuous
 62
     7
370
    25
100
AcDbSpline
210
0.0
220
0.0
230
1.0
 70
     8
 71
     3
 72
     9
 73
     5
 74
     0
 42
0.00000001
 43
0.00000001
 40
0.0
 40
0.0
 40
0.0
 40
0.0
 40
0.4954579634770076
 40
1.0
 40
1.0
 40
1.0
 40
1.0
 10
318.7582576004039
 20
137.6746011791251
 30
0.0
 10
319.0022372647611
 20
137.4755779482816
 30
0.0
 10
319.4946698873896
 20
137.0738824553951
 30
0.0
 10
319.9053556415967
 20
136.6018491606495
 30
0.0
 10
320.1125638683954
 20
136.3636885208119
 30
0.0
  0
SPLINE
  5
3FE
330
1F
100
AcDbEntity
  8
0
  6
Continuous
 62
     7
370
    25
100
AcDbSpline
210
0.0
220
0.0
230
1.0
 70
     8
 71
     3
 72
    10
 73
     6
 74
     0
 42
0.00000001
 43
0.00000001
 40
0.0
 40
0.0
 40
0.0
 40
0.0
 40
0.0700769119681857
 40
0.5307776640394084
 40
1.0
 40
1.0
 40
1.0
 40
1.0
 10
320.1125638683954
 20
136.3636885208119
 30
0.0
 10
320.1395499335651
 20
136.3296719161427
 30
0.0
 10
320.3439482186793
 20
136.0720228066461
 30
0.0
 10
320.6880072725491
 20
135.5623733339959
 30
0.0
 10
320.9328243693616
 20
135.066167021999
 30
0.0
 10
321.0563546392602
 20
134.8157903103869
 30
0.0
  0
LINE
  5
3FF
330
1F
100
AcDbEntity
  8
0
  6
Continuous
 62
     7
370
    25
100
AcDbLine
 10
321.0563546393
 20
134.8157903104
 30
0.0
 11
318.6737983507
 21
133.4403698416
 31
0.0
  0
SPLINE
  5
400
330
1F
100
AcDbEntity
  8
0
  6
Continuous
 62
     7
370
    25
100
AcDbSpline
210
0.0
220
0.0
230
1.0
 70
     8
 71
     3
 72
    10
 73
     6
 74
     0
 42
0.00000001
 43
0.00000001
 40
0.0
 40
0.0
 40
0.0
 40
0.0
 40
0.0700769119681857
 40
0.5307776640394084
 40
1.0
 40
1.0
 40
1.0
 40
1.0
 10
317.3194920827085
 20
134.751282499962
 30
0.0
 10
317.3469681291984
 20
134.7175487554882
 30
0.0
 10
317.5550776386416
 20
134.4620420901935
 30
0.0
 10
317.9887916176165
 20
134.0041493041344
 30
0.0
 10
318.4440720806965
 20
133.6294409073278
 30
0.0
 10
318.6737983506999
 20
133.4403698416489
 30
0.0
  0
SPLINE
  5
401
330
1F
100
AcDbEntity
  8
0
  6
Continuous
 62
     7
370
    25
100
AcDbSpline
210
0.0
220
0.0
230
1.0
 70
     8
 71
     3
 72
     9
 73
     5
 74
     0
 42
0.00000001
 43
0.00000001
 40
0.0
 40
0.0
 40
0.0
 40
0.0
 40
0.4954579634770076
 40
1.0
 40
1.0
 40
1.0
 40
1.0
 10
316.3757013118436
 20
136.2991807103871
 30
0.0
 10
316.5049427095882
 20
136.0339204881221
 30
0.0
 10
316.7657951073123
 20
135.4985365770363
 30
0.0
 10
317.1338120599498
 20
135.0018711074551
 30
0.0
 10
317.3194920827085
 20
134.751282499962
 30
0.0
  0
LINE
  5
402
330
1F
100
AcDbEntity
  8
0
  6
Continuous
 62
     7
370
    25
100
AcDbLine
 10
318.7582576004
 20
137.6746011791
 30
0.0
 11
316.3757013118
 21
136.2991807104
 31
0.0
  0
ARC
  5
403
330
1F
100
AcDbEntity
  8
0
  6
Continuous
 62
     7
370
    25
100
AcDbCircle
 10
317.2704014606
 20
132.3436168409
 30
0.0
 40
2.189327843173666
100
AcDbArc
 50
230.8913667764
 51
271.2848332496
  0
LINE
  5
404
330
1F
100
AcDbEntity
  8
0
  6
Continuous
 62
     7
370
    25
100
AcDbLine
 10
313.8723465244
 20
134.443055742
 30
0.0
 11
313.8895519005
 21
134.109000353
 31
0.0
  0
ARC
  5
405
330
1F
100
AcDbEntity
  8
0
  6
Continuous
 62
     7
370
    25
100
AcDbCircle
 10
315.2830021646
 20
134.6728430956
 30
0.0
 40
1.429248600863862
100
AcDbArc
 50
100.5467778285
 51
189.2518791787
  0
ARC
  5
406
330
1F
100
AcDbEntity
  8
0
  6
Continuous
 62
     7
370
    25
100
AcDbCircle
 10
314.8439379596
 20
133.1167900148
 30
0.0
 40
2.966468253722325
100
AcDbArc
 50
33.4349146449
 51
86.5704618878
  0
ARC
  5
407
330
1F
100
AcDbEntity
  8
0
  6
Continuous
 62
     7
370
    25
100
AcDbCircle
 10
313.4854253837
 20
131.5600233964
 30
0.0
 40
4.988406771507554
100
AcDbArc
 50
2.6392873612
 51
39.7720723791
  0
ARC
  5
408
330
1F
100
AcDbEntity
  8
0
  6
Continuous
 62
     7
370
    25
100
AcDbCircle
 10
317.0578849619
 20
131.559942025
 30
0.0
 40
1.429248600863862
100
AcDbArc
 50
280.5467778285
 51
9.2518791787
  0
LWPOLYLINE
  5
409
330
1F
100
AcDbEntity
  8
0
  6
Continuous
 62
     7
370
    25
100
AcDbPolyline
 90
       14
 70
   128
 43
0.0
 10
317.5846571257
 20
132.2999844485
 10
317.5591004442
 20
132.623800736
 10
317.483354085
 20
132.9654205756
 10
317.3601557188
 20
133.312496936
 10
317.1939580555
 20
133.6524855734
 10
316.9907679117
 20
133.9730984124
 10
316.7579291087
 20
134.2627476699
 10
316.5038570473
 20
134.5109646669
 10
316.237734554
 20
134.7087781944
 10
315.9691799889
 20
134.8490387562
 10
315.7078996137
 20
134.9266769701
 10
315.4633367821
 20
134.9388867888
 10
315.2443306319
 20
134.8852269176
 10
315.1705248306
 20
134.848490285
  0
ARC
  5
40A
330
1F
100
AcDbEntity
  8
0
  6
Continuous
 62
     7
370
    25
100
AcDbCircle
 10
316.5994060802
 20
132.1941850366
 30
0.0
 40
0.9909153031687109
100
AcDbArc
 50
305.183062727
 51
6.1291176664
  0
SPLINE
  5
40B
330
1F
100
AcDbEntity
  8
0
  6
Continuous
 62
     7
370
    25
100
AcDbSpline
210
0.0
220
0.0
230
1.0
 70
     8
 71
     3
 72
    10
 73
     6
 74
     0
 42
0.00000001
 43
0.00000001
 40
0.0
 40
0.0
 40
0.0
 40
0.0
 40
0.2684065359321884
 40
0.6323728964502854
 40
1.0
 40
1.0
 40
1.0
 40
1.0
 10
318.4685406021366
 20
131.7897293785666
 30
0.0
 10
318.4718754875987
 20
131.9307960878879
 30
0.0
 10
318.4797325659356
 20
132.2631529854441
 30
0.0
 10
318.5472184960701
 20
132.816420559805
 30
0.0
 10
318.6314645491898
 20
133.2316940999428
 30
0.0
 10
318.6737983506999
 20
133.4403698416489
 30
0.0
  0
SPLINE
  5
40C
330
1F
100
AcDbEntity
  8
0
  6
Continuous
 62
     7
370
    25
100
AcDbSpline
210
0.0
220
0.0
230
1.0
 70
     8
 71
     3
 72
    10
 73
     6
 74
     0
 42
0.00000001
 43
0.00000001
 40
0.0
 40
0.0
 40
0.0
 40
0.0
 40
0.0700769119681922
 40
0.5307776640394113
 40
1.0
 40
1.0
 40
1.0
 40
1.0
 10
315.0213950438522
 20
136.077945681674
 30
0.0
 10
315.0488710903422
 20
136.0805219785078
 30
0.0
 10
315.2569805997854
 20
136.1000354070669
 30
0.0
 10
315.6906945787602
 20
136.1606860650643
 30
0.0
 10
316.1459750418402
 20
136.2527346584742
 30
0.0
 10
316.3757013118436
 20
136.2991807103871
 30
0.0
  0
SPLINE
  5
40D
330
1F
100
AcDbEntity
  8
0
  6
Continuous
 62
     7
370
    25
100
AcDbSpline
210
0.0
220
0.0
230
1.0
 70
     8
 71
     3
 72
    10
 73
     6
 74
     0
 42
0.00000001
 43
0.00000001
 40
0.0
 40
0.0
 40
0.0
 40
0.0
 40
0.268406535932188
 40
0.6323728964502854
 40
1.0
 40
1.0
 40
1.0
 40
1.0
 10
321.2616123878234
 20
133.4021353994165
 30
0.0
 10
321.2582775023614
 20
133.5393517319409
 30
0.0
 10
321.2504204240245
 20
133.8626370399434
 30
0.0
 10
321.18293449389
 20
134.3379870178938
 30
0.0
 10
321.0986884407703
 20
134.655992135516
 30
0.0
 10
321.0563546392602
 20
134.8157903103869
 30
0.0
  0
SPLINE
  5
40E
330
1F
100
AcDbEntity
  8
0
  6
Continuous
 62
     7
370
    25
100
AcDbSpline
210
0.0
220
0.0
230
1.0
 70
     8
 71
     3
 72
    10
 73
     6
 74
     0
 42
0.00000001
 43
0.00000001
 40
0.0
 40
0.0
 40
0.0
 40
0.0
 40
0.2572432618847653
 40
0.6263798857723052
 40
1.0
 40
1.0
 40
1.0
 40
1.0
 10
321.0563546392602
 20
131.7514949363342
 30
0.0
 10
321.0866021884352
 20
131.8976194539165
 30
0.0
 10
321.1602540938665
 20
132.2534284184005
 30
0.0
 10
321.242695831917
 20
132.8123552610229
 30
0.0
 10
321.2552815455423
 20
133.2047524796494
 30
0.0
 10
321.2616123878234
 20
133.4021353994165
 30
0.0
  0
LINE
  5
40F
330
1F
100
AcDbEntity
  8
0
  6
Continuous
 62
     7
370
    25
100
AcDbLine
 10
321.0563546393
 20
131.7514949363
 30
0.0
 11
318.6737983507
 21
130.3760744676
 31
0.0
  0
SPLINE
  5
410
330
1F
100
AcDbEntity
  8
0
  6
Continuous
 62
     7
370
    25
100
AcDbSpline
210
0.0
220
0.0
230
1.0
 70
     8
 71
     3
 72
    10
 73
     6
 74
     0
 42
0.00000001
 43
0.00000001
 40
0.0
 40
0.0
 40
0.0
 40
0.0
 40
0.2572432618847658
 40
0.6263798857723047
 40
0.9999999999999999
 40
0.9999999999999999
 40
0.9999999999999999
 40
0.9999999999999999
 10
318.6737983506999
 20
130.3760744675963
 30
0.0
 10
318.6435508015248
 20
130.4872759082596
 30
0.0
 10
318.5698988960936
 20
130.7580481927893
 30
0.0
 10
318.4874571580431
 20
131.2217898307326
 30
0.0
 10
318.4748714444178
 20
131.5996558937117
 30
0.0
 10
318.4685406021366
 20
131.7897293785666
 30
0.0
  0
SPLINE
  5
411
330
1F
100
AcDbEntity
  8
0
  6
Continuous
 62
     7
370
    25
100
AcDbSpline
210
0.0
220
0.0
230
1.0
 70
     8
 71
     3
 72
     9
 73
     5
 74
     0
 42
0.00000001
 43
0.00000001
 40
0.0
 40
0.0
 40
0.0
 40
0.0
 40
0.4954579634770065
 40
1.0
 40
1.0
 40
1.0
 40
1.0
 10
316.4601605615476
 20
137.4691166738107
 30
0.0
 10
316.7041402259048
 20
137.5189209630327
 30
0.0
 10
317.1965728485334
 20
137.6194426881708
 30
0.0
 10
317.6072586027404
 20
137.6665726537229
 30
0.0
 10
317.8144668295391
 20
137.6903517025238
 30
0.0
  0
SPLINE
  5
412
330
1F
100
AcDbEntity
  8
0
  6
Continuous
 62
     7
370
    25
100
AcDbSpline
210
0.0
220
0.0
230
1.0
 70
     8
 71
     3
 72
    10
 73
     6
 74
     0
 42
0.00000001
 43
0.00000001
 40
0.0
 40
0.0
 40
0.0
 40
0.0
 40
0.0700769119681922
 40
0.5307776640394113
 40
1.0
 40
1.0
 40
1.0
 40
1.0
 10
317.8144668295391
 20
137.6903517025238
 30
0.0
 10
317.8414528947088
 20
137.6926451391623
 30
0.0
 10
318.045851179823
 20
137.7100161235195
 30
0.0
 10
318.3899102336928
 20
137.7189100949258
 30
0.0
 10
318.6347273305054
 20
137.6894607731454
 30
0.0
 10
318.7582576004039
 20
137.6746011791251
 30
0.0
  0
SPLINE
  5
413
330
1F
100
AcDbEntity
  8
0
  6
Continuous
 62
     7
370
    25
100
AcDbSpline
210
0.0
220
0.0
230
1.0
 70
     8
 71
     3
 72
     9
 73
     5
 74
     0
 42
0.00000001
 43
0.00000001
 40
0.0
 40
0.0
 40
0.0
 40
0.0
 40
0.4954579634770056
 40
1.0
 40
1.0
 40
1.0
 40
1.0
 10
314.0776042729873
 20
136.0936962050727
 30
0.0
 10
314.2068456707319
 20
136.0772635028733
 30
0.0
 10
314.4676980684561
 20
136.0440968098121
 30
0.0
 10
314.8357150210935
 20
136.0665946005286
 30
0.0
 10
315.0213950438522
 20
136.077945681674
 30
0.0
  0
LINE
  5
414
330
1F
100
AcDbEntity
  8
0
  6
Continuous
 62
     7
370
    25
100
AcDbLine
 10
316.4601605615
 20
137.4691166738
 30
0.0
 11
314.077604273
 21
136.0936962051
 31
0.0
  0
SPLINE
  5
415
330
1F
100
AcDbEntity
  8
0
  6
Continuous
 62
     7
370
    25
100
AcDbSpline
210
0.0
220
0.0
230
1.0
 70
     8
 71
     3
 72
     9
 73
     5
 74
     0
 42
0.00000001
 43
0.00000001
 40
0.0
 40
0.0
 40
0.0
 40
0.0
 40
0.4954579634770075
 40
1.0
 40
1.0
 40
1.0
 40
1.0
 10
318.6737983506999
 20
130.3760744675963
 30
0.0
 10
318.4298186863427
 20
130.3262701783741
 30
0.0
 10
317.9373860637142
 20
130.2257484532361
 30
0.0
 10
317.5267003095071
 20
130.178618487684
 30
0.0
 10
317.3194920827085
 20
130.1548394388832
 30
0.0
  0
SPLINE
  5
416
330
1F
100
AcDbEntity
  8
0
  6
Continuous
 62
     7
370
    25
100
AcDbSpline
210
0.0
220
0.0
230
1.0
 70
     8
 71
     3
 72
    10
 73
     6
 74
     0
 42
0.00000001
 43
0.00000001
 40
0.0
 40
0.0
 40
0.0
 40
0.0
 40
0.2684065359321904
 40
0.6323728964502868
 40
1.0
 40
1.0
 40
1.0
 40
1.0
 10
313.8723465244241
 20
134.4430557419904
 30
0.0
 10
313.8756814098861
 20
134.5841224513117
 30
0.0
 10
313.8835384882231
 20
134.9164793488679
 30
0.0
 10
313.9510244183575
 20
135.4697469232288
 30
0.0
 10
314.0352704714773
 20
135.8850204633666
 30
0.0
 10
314.0776042729873
 20
136.0936962050727
 30
0.0
  0
LINE
  5
417
330
1F
100
AcDbEntity
  8
0
  6
Continuous
 62
     7
370
    25
100
AcDbLine
 10
316.3757013118
 20
130.1705899623
 30
0.0
 11
315.8515256843
 21
130.6229466654
 31
0.0
  0
SPLINE
  5
418
330
1F
100
AcDbEntity
  8
0
  6
Continuous
 62
     7
370
    25
100
AcDbSpline
210
0.0
220
0.0
230
1.0
 70
     8
 71
     3
 72
    10
 73
     6
 74
     0
 42
0.00000001
 43
0.00000001
 40
0.0
 40
0.0
 40
0.0
 40
0.0
 40
0.0700769119682022
 40
0.5307776640394175
 40
1.0
 40
1.0
 40
1.0
 40
1.0
 10
317.3194920827085
 20
130.1548394388832
 30
0.0
 10
317.2925060175388
 20
130.1525460022447
 30
0.0
 10
317.0881077324245
 20
130.1351750178873
 30
0.0
 10
316.7440486785546
 20
130.1262810464811
 30
0.0
 10
316.4992315817422
 20
130.1557303682615
 30
0.0
 10
316.3757013118436
 20
130.1705899622819
 30
0.0
  0
LINE
  5
419
330
1F
100
AcDbEntity
  8
0
  6
Continuous
 62
     7
370
    25
100
AcDbLine
 10
313.8909164278
 20
134.1097880778
 30
0.0
 11
313.8723465244
 21
134.443055742
 31
0.0
  0
SPLINE
  5
41A
330
1F
100
AcDbEntity
  8
0
  6
Continuous
 62
     7
370
    25
100
AcDbSpline
210
0.0
220
0.0
230
1.0
 70
     8
 71
     3
 72
     9
 73
     5
 74
     0
 42
0.00000001
 43
0.00000001
 40
0.0
 40
0.0
 40
0.0
 40
0.0
 40
0.4954579634770076
 40
1.0
 40
1.0
 40
1.0
 40
1.0
 10
370.3770526270217
 20
107.8757050975961
 30
0.0
 10
370.621032291379
 20
107.6766818667527
 30
0.0
 10
371.1134649140075
 20
107.2749863738662
 30
0.0
 10
371.5241506682146
 20
106.8029530791206
 30
0.0
 10
371.7313588950132
 20
106.564792439283
 30
0.0
  0
SPLINE
  5
41B
330
1F
100
AcDbEntity
  8
0
  6
Continuous
 62
     7
370
    25
100
AcDbSpline
210
0.0
220
0.0
230
1.0
 70
     8
 71
     3
 72
    10
 73
     6
 74
     0
 42
0.00000001
 43
0.00000001
 40
0.0
 40
0.0
 40
0.0
 40
0.0
 40
0.0700769119681857
 40
0.5307776640394084
 40
1.0
 40
1.0
 40
1.0
 40
1.0
 10
371.7313588950132
 20
106.564792439283
 30
0.0
 10
371.7583449601829
 20
106.5307758346138
 30
0.0
 10
371.9627432452972
 20
106.2731267251172
 30
0.0
 10
372.306802299167
 20
105.763477252467
 30
0.0
 10
372.5516193959795
 20
105.2672709404701
 30
0.0
 10
372.6751496658781
 20
105.0168942288579
 30
0.0
  0
LINE
  5
41C
330
1F
100
AcDbEntity
  8
0
  6
Continuous
 62
     7
370
    25
100
AcDbLine
 10
372.6751496659
 20
105.0168942289
 30
0.0
 11
370.2925933773
 21
103.6414737601
 31
0.0
  0
SPLINE
  5
41D
330
1F
100
AcDbEntity
  8
0
  6
Continuous
 62
     7
370
    25
100
AcDbSpline
210
0.0
220
0.0
230
1.0
 70
     8
 71
     3
 72
    10
 73
     6
 74
     0
 42
0.00000001
 43
0.00000001
 40
0.0
 40
0.0
 40
0.0
 40
0.0
 40
0.0700769119681857
 40
0.5307776640394084
 40
1.0
 40
1.0
 40
1.0
 40
1.0
 10
368.9382871093264
 20
104.9523864184331
 30
0.0
 10
368.9657631558163
 20
104.9186526739592
 30
0.0
 10
369.1738726652595
 20
104.6631460086646
 30
0.0
 10
369.6075866442343
 20
104.2052532226054
 30
0.0
 10
370.0628671073143
 20
103.8305448257989
 30
0.0
 10
370.2925933773178
 20
103.64147376012
 30
0.0
  0
SPLINE
  5
41E
330
1F
100
AcDbEntity
  8
0
  6
Continuous
 62
     7
370
    25
100
AcDbSpline
210
0.0
220
0.0
230
1.0
 70
     8
 71
     3
 72
     9
 73
     5
 74
     0
 42
0.00000001
 43
0.00000001
 40
0.0
 40
0.0
 40
0.0
 40
0.0
 40
0.4954579634770076
 40
1.0
 40
1.0
 40
1.0
 40
1.0
 10
367.9944963384615
 20
106.5002846288582
 30
0.0
 10
368.123737736206
 20
106.2350244065932
 30
0.0
 10
368.3845901339302
 20
105.6996404955074
 30
0.0
 10
368.7526070865677
 20
105.2029750259262
 30
0.0
 10
368.9382871093264
 20
104.9523864184331
 30
0.0
  0
LINE
  5
41F
330
1F
100
AcDbEntity
  8
0
  6
Continuous
 62
     7
370
    25
100
AcDbLine
 10
370.377052627
 20
107.8757050976
 30
0.0
 11
367.9944963385
 21
106.5002846289
 31
0.0
  0
ARC
  5
420
330
1F
100
AcDbEntity
  8
0
  6
Continuous
 62
     7
370
    25
100
AcDbCircle
 10
368.8891964872
 20
102.5447207594
 30
0.0
 40
2.189327843173969
100
AcDbArc
 50
230.8913667764
 51
271.2848332496
  0
LINE
  5
421
330
1F
100
AcDbEntity
  8
0
  6
Continuous
 62
     7
370
    25
100
AcDbLine
 10
365.491141551
 20
104.6441596605
 30
0.0
 11
365.5083469271
 21
104.3101042714
 31
0.0
  0
ARC
  5
422
330
1F
100
AcDbEntity
  8
0
  6
Continuous
 62
     7
370
    25
100
AcDbCircle
 10
366.9017971912
 20
104.8739470141
 30
0.0
 40
1.42924860086393
100
AcDbArc
 50
100.5467778285
 51
189.2518791787
  0
ARC
  5
423
330
1F
100
AcDbEntity
  8
0
  6
Continuous
 62
     7
370
    25
100
AcDbCircle
 10
366.4627329863
 20
103.3178939332
 30
0.0
 40
2.966468253722441
100
AcDbArc
 50
33.4349146449
 51
86.5704618878
  0
ARC
  5
424
330
1F
100
AcDbEntity
  8
0
  6
Continuous
 62
     7
370
    25
100
AcDbCircle
 10
365.1042204104
 20
101.7611273149
 30
0.0
 40
4.988406771507075
100
AcDbArc
 50
2.6392873612
 51
39.7720723791
  0
ARC
  5
425
330
1F
100
AcDbEntity
  8
0
  6
Continuous
 62
     7
370
    25
100
AcDbCircle
 10
368.6766799886
 20
101.7610459434
 30
0.0
 40
1.429248600863763
100
AcDbArc
 50
280.5467778285
 51
9.2518791787
  0
LWPOLYLINE
  5
426
330
1F
100
AcDbEntity
  8
0
  6
Continuous
 62
     7
370
    25
100
AcDbPolyline
 90
       14
 70
   128
 43
0.0
 10
369.2034521523
 20
102.5010883669
 10
369.1778954709
 20
102.8249046545
 10
369.1021491116
 20
103.1665244941
 10
368.9789507454
 20
103.5136008545
 10
368.8127530821
 20
103.8535894918
 10
368.6095629384
 20
104.1742023309
 10
368.3767241353
 20
104.4638515884
 10
368.1226520739
 20
104.7120685854
 10
367.8565295806
 20
104.9098821129
 10
367.5879750155
 20
105.0501426747
 10
367.3266946404
 20
105.1277808886
 10
367.0821318087
 20
105.1399907073
 10
366.8631256585
 20
105.0863308361
 10
366.7893198573
 20
105.0495942035
  0
ARC
  5
427
330
1F
100
AcDbEntity
  8
0
  6
Continuous
 62
     7
370
    25
100
AcDbCircle
 10
368.2182011068
 20
102.3952889551
 30
0.0
 40
0.9909153031685707
100
AcDbArc
 50
305.183062727
 51
6.1291176664
  0
SPLINE
  5
428
330
1F
100
AcDbEntity
  8
0
  6
Continuous
 62
     7
370
    25
100
AcDbSpline
210
0.0
220
0.0
230
1.0
 70
     8
 71
     3
 72
    10
 73
     6
 74
     0
 42
0.00000001
 43
0.00000001
 40
0.0
 40
0.0
 40
0.0
 40
0.0
 40
0.2684065359321884
 40
0.6323728964502854
 40
1.0
 40
1.0
 40
1.0
 40
1.0
 10
370.0873356287544
 20
101.9908332970377
 30
0.0
 10
370.0906705142165
 20
102.131900006359
 30
0.0
 10
370.0985275925535
 20
102.4642569039152
 30
0.0
 10
370.1660135226879
 20
103.0175244782761
 30
0.0
 10
370.2502595758077
 20
103.4327980184138
 30
0.0
 10
370.2925933773178
 20
103.64147376012
 30
0.0
  0
SPLINE
  5
429
330
1F
100
AcDbEntity
  8
0
  6
Continuous
 62
     7
370
    25
100
AcDbSpline
210
0.0
220
0.0
230
1.0
 70
     8
 71
     3
 72
    10
 73
     6
 74
     0
 42
0.00000001
 43
0.00000001
 40
0.0
 40
0.0
 40
0.0
 40
0.0
 40
0.0700769119681922
 40
0.5307776640394113
 40
1.0
 40
1.0
 40
1.0
 40
1.0
 10
366.6401900704701
 20
106.279049600145
 30
0.0
 10
366.66766611696
 20
106.2816258969788
 30
0.0
 10
366.8757756264032
 20
106.3011393255379
 30
0.0
 10
367.3094896053781
 20
106.3617899835353
 30
0.0
 10
367.7647700684581
 20
106.4538385769453
 30
0.0
 10
367.9944963384615
 20
106.5002846288582
 30
0.0
  0
SPLINE
  5
42A
330
1F
100
AcDbEntity
  8
0
  6
Continuous
 62
     7
370
    25
100
AcDbSpline
210
0.0
220
0.0
230
1.0
 70
     8
 71
     3
 72
    10
 73
     6
 74
     0
 42
0.00000001
 43
0.00000001
 40
0.0
 40
0.0
 40
0.0
 40
0.0
 40
0.268406535932188
 40
0.6323728964502854
 40
1.0
 40
1.0
 40
1.0
 40
1.0
 10
372.8804074144413
 20
103.6032393178876
 30
0.0
 10
372.8770725289793
 20
103.7404556504119
 30
0.0
 10
372.8692154506423
 20
104.0637409584145
 30
0.0
 10
372.8017295205079
 20
104.5390909363648
 30
0.0
 10
372.7174834673881
 20
104.8570960539871
 30
0.0
 10
372.675149665878
 20
105.0168942288579
 30
0.0
  0
SPLINE
  5
42B
330
1F
100
AcDbEntity
  8
0
  6
Continuous
 62
     7
370
    25
100
AcDbSpline
210
0.0
220
0.0
230
1.0
 70
     8
 71
     3
 72
    10
 73
     6
 74
     0
 42
0.00000001
 43
0.00000001
 40
0.0
 40
0.0
 40
0.0
 40
0.0
 40
0.2572432618847653
 40
0.6263798857723052
 40
1.0
 40
1.0
 40
1.0
 40
1.0
 10
372.6751496658781
 20
101.9525988548053
 30
0.0
 10
372.7053972150531
 20
102.0987233723876
 30
0.0
 10
372.7790491204843
 20
102.4545323368716
 30
0.0
 10
372.8614908585349
 20
103.013459179494
 30
0.0
 10
372.8740765721602
 20
103.4058563981205
 30
0.0
 10
372.8804074144413
 20
103.6032393178876
 30
0.0
  0
LINE
  5
42C
330
1F
100
AcDbEntity
  8
0
  6
Continuous
 62
     7
370
    25
100
AcDbLine
 10
372.6751496659
 20
101.9525988548
 30
0.0
 11
370.2925933773
 21
100.5771783861
 31
0.0
  0
SPLINE
  5
42D
330
1F
100
AcDbEntity
  8
0
  6
Continuous
 62
     7
370
    25
100
AcDbSpline
210
0.0
220
0.0
230
1.0
 70
     8
 71
     3
 72
    10
 73
     6
 74
     0
 42
0.00000001
 43
0.00000001
 40
0.0
 40
0.0
 40
0.0
 40
0.0
 40
0.2572432618847658
 40
0.6263798857723047
 40
0.9999999999999999
 40
0.9999999999999999
 40
0.9999999999999999
 40
0.9999999999999999
 10
370.2925933773178
 20
100.5771783860673
 30
0.0
 10
370.2623458281427
 20
100.6883798267307
 30
0.0
 10
370.1886939227115
 20
100.9591521112604
 30
0.0
 10
370.1062521846609
 20
101.4228937492037
 30
0.0
 10
370.0936664710357
 20
101.8007598121828
 30
0.0
 10
370.0873356287544
 20
101.9908332970377
 30
0.0
  0
SPLINE
  5
42E
330
1F
100
AcDbEntity
  8
0
  6
Continuous
 62
     7
370
    25
100
AcDbSpline
210
0.0
220
0.0
230
1.0
 70
     8
 71
     3
 72
     9
 73
     5
 74
     0
 42
0.00000001
 43
0.00000001
 40
0.0
 40
0.0
 40
0.0
 40
0.0
 40
0.4954579634770065
 40
1.0
 40
1.0
 40
1.0
 40
1.0
 10
368.0789555881655
 20
107.6702205922818
 30
0.0
 10
368.3229352525227
 20
107.7200248815039
 30
0.0
 10
368.8153678751513
 20
107.8205466066419
 30
0.0
 10
369.2260536293583
 20
107.867676572194
 30
0.0
 10
369.4332618561569
 20
107.8914556209949
 30
0.0
  0
SPLINE
  5
42F
330
1F
100
AcDbEntity
  8
0
  6
Continuous
 62
     7
370
    25
100
AcDbSpline
210
0.0
220
0.0
230
1.0
 70
     8
 71
     3
 72
    10
 73
     6
 74
     0
 42
0.00000001
 43
0.00000001
 40
0.0
 40
0.0
 40
0.0
 40
0.0
 40
0.0700769119681922
 40
0.5307776640394113
 40
1.0
 40
1.0
 40
1.0
 40
1.0
 10
369.4332618561569
 20
107.8914556209949
 30
0.0
 10
369.4602479213266
 20
107.8937490576334
 30
0.0
 10
369.6646462064409
 20
107.9111200419906
 30
0.0
 10
370.0087052603107
 20
107.9200140133969
 30
0.0
 10
370.2535223571232
 20
107.8905646916164
 30
0.0
 10
370.3770526270217
 20
107.8757050975961
 30
0.0
  0
SPLINE
  5
430
330
1F
100
AcDbEntity
  8
0
  6
Continuous
 62
     7
370
    25
100
AcDbSpline
210
0.0
220
0.0
230
1.0
 70
     8
 71
     3
 72
     9
 73
     5
 74
     0
 42
0.00000001
 43
0.00000001
 40
0.0
 40
0.0
 40
0.0
 40
0.0
 40
0.4954579634770056
 40
1.0
 40
1.0
 40
1.0
 40
1.0
 10
365.6963992996052
 20
106.2948001235438
 30
0.0
 10
365.8256406973497
 20
106.2783674213444
 30
0.0
 10
366.0864930950739
 20
106.2452007282832
 30
0.0
 10
366.4545100477113
 20
106.2676985189997
 30
0.0
 10
366.6401900704701
 20
106.279049600145
 30
0.0
  0
LINE
  5
431
330
1F
100
AcDbEntity
  8
0
  6
Continuous
 62
     7
370
    25
100
AcDbLine
 10
368.0789555882
 20
107.6702205923
 30
0.0
 11
365.6963992996
 21
106.2948001235
 31
0.0
  0
SPLINE
  5
432
330
1F
100
AcDbEntity
  8
0
  6
Continuous
 62
     7
370
    25
100
AcDbSpline
210
0.0
220
0.0
230
1.0
 70
     8
 71
     3
 72
     9
 73
     5
 74
     0
 42
0.00000001
 43
0.00000001
 40
0.0
 40
0.0
 40
0.0
 40
0.0
 40
0.4954579634770075
 40
1.0
 40
1.0
 40
1.0
 40
1.0
 10
370.2925933773178
 20
100.5771783860673
 30
0.0
 10
370.0486137129606
 20
100.5273740968452
 30
0.0
 10
369.5561810903321
 20
100.4268523717071
 30
0.0
 10
369.145495336125
 20
100.3797224061551
 30
0.0
 10
368.9382871093264
 20
100.3559433573542
 30
0.0
  0
SPLINE
  5
433
330
1F
100
AcDbEntity
  8
0
  6
Continuous
 62
     7
370
    25
100
AcDbSpline
210
0.0
220
0.0
230
1.0
 70
     8
 71
     3
 72
    10
 73
     6
 74
     0
 42
0.00000001
 43
0.00000001
 40
0.0
 40
0.0
 40
0.0
 40
0.0
 40
0.2684065359321904
 40
0.6323728964502868
 40
1.0
 40
1.0
 40
1.0
 40
1.0
 10
365.4911415510419
 20
104.6441596604615
 30
0.0
 10
365.494476436504
 20
104.7852263697828
 30
0.0
 10
365.502333514841
 20
105.117583267339
 30
0.0
 10
365.5698194449753
 20
105.6708508416999
 30
0.0
 10
365.6540654980951
 20
106.0861243818376
 30
0.0
 10
365.6963992996052
 20
106.2948001235438
 30
0.0
  0
LINE
  5
434
330
1F
100
AcDbEntity
  8
0
  6
Continuous
 62
     7
370
    25
100
AcDbLine
 10
367.9944963385
 20
100.3716938808
 30
0.0
 11
367.4703207109
 21
100.8240505839
 31
0.0
  0
SPLINE
  5
435
330
1F
100
AcDbEntity
  8
0
  6
Continuous
 62
     7
370
    25
100
AcDbSpline
210
0.0
220
0.0
230
1.0
 70
     8
 71
     3
 72
    10
 73
     6
 74
     0
 42
0.00000001
 43
0.00000001
 40
0.0
 40
0.0
 40
0.0
 40
0.0
 40
0.0700769119682022
 40
0.5307776640394175
 40
1.0
 40
1.0
 40
1.0
 40
1.0
 10
368.9382871093264
 20
100.3559433573542
 30
0.0
 10
368.9113010441566
 20
100.3536499207157
 30
0.0
 10
368.7069027590424
 20
100.3362789363584
 30
0.0
 10
368.3628437051725
 20
100.3273849649522
 30
0.0
 10
368.11802660836
 20
100.3568342867326
 30
0.0
 10
367.9944963384615
 20
100.371693880753
 30
0.0
  0
LINE
  5
436
330
1F
100
AcDbEntity
  8
0
  6
Continuous
 62
     7
370
    25
100
AcDbLine
 10
365.5097114545
 20
104.3108919963
 30
0.0
 11
365.491141551
 21
104.6441596605
 31
0.0
  0
LWPOLYLINE
  5
437
330
1F
100
AcDbEntity
  8
0
  6
Continuous
 62
     7
370
    25
100
AcDbPolyline
 90
       31
 70
   128
 43
0.0
 10
313.1972363251
 20
132.7509478792
 10
313.2228054885
 20
133.0171113435
 10
313.2983954836
 20
133.2421206596
 10
313.4207026649
 20
133.4161418405
 10
313.5843816217
 20
133.5315693256
 10
313.7822787982
 20
133.5833583801
 10
314.005745138
 20
133.5692455735
 10
314.2450140899
 20
133.4898477034
 10
314.4896284526
 20
133.3486348377
 10
314.7288974045
 20
133.1517786561
 10
314.9523637443
 20
132.9078827185
 10
315.1502609208
 20
132.6276064477
 10
315.3139398776
 20
132.3231992616
 10
315.4362470589
 20
132.0079652149
 10
315.511837054
 20
131.6956815482
 10
315.5374062174
 20
131.3999965562
 10
315.511837054
 20
131.1338330919
 10
315.4362470589
 20
130.9088237758
 10
315.3139398776
 20
130.7348025949
 10
315.1502609208
 20
130.6193751098
 10
314.9523637443
 20
130.5675860554
 10
314.7288974045
 20
130.5816988619
 10
314.4896284526
 20
130.661096732
 10
314.2450140899
 20
130.8023095977
 10
314.005745138
 20
130.9991657793
 10
313.7822787982
 20
131.2430617169
 10
313.5843816217
 20
131.5233379877
 10
313.4207026649
 20
131.8277451738
 10
313.2983954836
 20
132.1429792205
 10
313.2228054885
 20
132.4552628872
 10
313.1972363251
 20
132.7509478792
  0
LWPOLYLINE
  5
438
330
1F
100
AcDbEntity
  8
0
  6
Continuous
 62
     7
370
    25
100
AcDbPolyline
 90
       26
 70
   128
 43
0.0
 10
313.1972363251
 20
133.0328127798
 10
313.2227930065
 20
133.3271219511
 10
313.2985393657
 20
133.5812869059
 10
313.4217377319
 20
133.7861214604
 10
313.5879353952
 20
133.9342223601
 10
313.791125539
 20
134.0202368528
 10
314.0239643421
 20
134.0410561504
 10
314.2780364034
 20
133.9959277894
 10
314.5441588968
 20
133.8864828263
 10
314.8127134619
 20
133.7166768872
 10
315.073993837
 20
133.4926472011
 10
315.3185566686
 20
133.2224907847
 10
315.5375628189
 20
132.9159717948
 10
315.7230968348
 20
132.5841686261
 10
315.8684530337
 20
132.2390735098
 10
315.9683778637
 20
131.8931590825
 10
316.0192597813
 20
131.5589275929
 10
316.0192597813
 20
131.2484590378
 10
315.9683778637
 20
130.9729745597
 10
315.8684530337
 20
130.7424308855
 10
315.7230968348
 20
130.5651604642
 10
315.5375628189
 20
130.4475703106
 10
315.3185566686
 20
130.3939104395
 10
315.073993837
 20
130.4061202581
 10
314.8127134619
 20
130.4837584721
 10
314.611220038
 20
130.5834557551
  0
LWPOLYLINE
  5
439
330
1F
100
AcDbEntity
  8
0
  6
Continuous
 62
     7
370
    25
100
AcDbPolyline
 90
       31
 70
   128
 43
0.0
 10
364.8160313517
 20
102.9520517977
 10
364.8416005151
 20
103.218215262
 10
364.9171905102
 20
103.443224578
 10
365.0394976916
 20
103.617245759
 10
365.2031766484
 20
103.7326732441
 10
365.4010738248
 20
103.7844622985
 10
365.6245401646
 20
103.770349492
 10
365.8638091166
 20
103.6909516219
 10
366.1084234792
 20
103.5497387562
 10
366.3476924311
 20
103.3528825746
 10
366.571158771
 20
103.108986637
 10
366.7690559474
 20
102.8287103662
 10
366.9327349042
 20
102.52430318
 10
367.0550420855
 20
102.2090691334
 10
367.1306320806
 20
101.8967854667
 10
367.156201244
 20
101.6011004747
 10
367.1306320806
 20
101.3349370103
 10
367.0550420855
 20
101.1099276943
 10
366.9327349042
 20
100.9359065134
 10
366.7690559474
 20
100.8204790282
 10
366.571158771
 20
100.7686899738
 10
366.3476924311
 20
100.7828027804
 10
366.1084234792
 20
100.8622006504
 10
365.8638091166
 20
101.0034135162
 10
365.6245401646
 20
101.2002696977
 10
365.4010738248
 20
101.4441656353
 10
365.2031766484
 20
101.7244419062
 10
365.0394976916
 20
102.0288490923
 10
364.9171905102
 20
102.344083139
 10
364.8416005151
 20
102.6563668057
 10
364.8160313517
 20
102.9520517977
  0
LWPOLYLINE
  5
43A
330
1F
100
AcDbEntity
  8
0
  6
Continuous
 62
     7
370
    25
100
AcDbPolyline
 90
       26
 70
   128
 43
0.0
 10
364.8160313517
 20
103.2339166983
 10
364.8415880331
 20
103.5282258696
 10
364.9173343923
 20
103.7823908243
 10
365.0405327586
 20
103.9872253788
 10
365.2067304218
 20
104.1353262786
 10
365.4099205656
 20
104.2213407712
 10
365.6427593687
 20
104.2421600689
 10
365.89683143
 20
104.1970317079
 10
366.1629539234
 20
104.0875867447
 10
366.4315084885
 20
103.9177808056
 10
366.6927888636
 20
103.6937511196
 10
366.9373516953
 20
103.4235947032
 10
367.1563578455
 20
103.1170757132
 10
367.3418918614
 20
102.7852725446
 10
367.4872480603
 20
102.4401774283
 10
367.5871728904
 20
102.094263001
 10
367.6380548079
 20
101.7600315113
 10
367.6380548079
 20
101.4495629563
 10
367.5871728904
 20
101.1740784782
 10
367.4872480603
 20
100.943534804
 10
367.3418918614
 20
100.7662643826
 10
367.1563578455
 20
100.6486742291
 10
366.9373516953
 20
100.5950143579
 10
366.6927888636
 20
100.6072241766
 10
366.4315084885
 20
100.6848623905
 10
366.2300150646
 20
100.7845596736
  0
LINE
  5
43B
330
1F
100
AcDbEntity
  8
0
  6
Continuous
 62
     7
370
    25
100
AcDbLine
 10
379.6072563251
 20
89.4056135272
 30
0.0
 11
373.4107375003
 21
113.0955760186
 31
0.0
  0
LINE
  5
43C
330
1F
100
AcDbEntity
  8
0
  6
Continuous
 62
     7
370
    25
100
AcDbLine
 10
316.1350882242
 20
146.1601045474
 30
0.0
 11
309.9385693994
 21
129.6244904065
 31
0.0
  0
LINE
  5
43D
330
1F
100
AcDbEntity
  8
0
  6
Continuous
 62
     7
370
    25
100
AcDbLine
 10
321.2616123878
 20
143.200625142
 30
0.0
 11
316.1350882242
 21
146.1601045474
 31
0.0
  0
ARC
  5
43E
330
1F
100
AcDbEntity
  8
0
  6
Continuous
 62
     7
370
    25
100
AcDbCircle
 10
320.4335030676
 20
141.906019422
 30
0.0
 40
1.536804807572259
100
AcDbArc
 50
2.6054784857
 51
57.39452166
  0
LINE
  5
43F
330
1F
100
AcDbEntity
  8
0
  6
Continuous
 62
     7
370
    25
100
AcDbLine
 10
321.968719169
 20
140.1386634475
 30
0.0
 11
321.968719169
 21
141.9758802742
 31
0.0
  0
ARC
  5
440
330
1F
100
AcDbEntity
  8
0
  6
Continuous
 62
     7
370
    25
100
AcDbCircle
 10
325.0391513717
 20
140.278385152
 30
0.0
 40
3.073609615144397
100
AcDbArc
 50
182.6054784857
 51
237.39452166
  0
LINE
  5
441
330
1F
100
AcDbEntity
  8
0
  6
Continuous
 62
     7
370
    25
100
AcDbLine
 10
325.6396459817
 20
136.3864008828
 30
0.0
 11
323.3829327314
 21
137.6891737119
 31
0.0
  0
ARC
  5
442
330
1F
100
AcDbEntity
  8
0
  6
Continuous
 62
     7
370
    25
100
AcDbCircle
 10
324.9134170805
 20
135.1693409468
 30
0.0
 40
1.417266137647853
100
AcDbArc
 50
349.7873124506
 51
59.1751517324
  0
LINE
  5
443
330
1F
100
AcDbEntity
  8
0
  6
Continuous
 62
     7
370
    25
100
AcDbLine
 10
323.3440418584
 20
126.6883239745
 30
0.0
 11
326.3082285782
 21
134.9180558683
 31
0.0
  0
LINE
  5
444
330
1F
100
AcDbEntity
  8
0
  6
Continuous
 62
     7
370
    25
100
AcDbLine
 10
364.8295765724
 20
102.7392345548
 30
0.0
 11
323.3440418584
 21
126.6883239745
 31
0.0
  0
LINE
  5
445
330
1F
100
AcDbEntity
  8
0
  6
Continuous
 62
     7
370
    25
100
AcDbLine
 10
363.2375971463
 20
113.5991851788
 30
0.0
 11
365.4943424937
 21
104.7280021756
 31
0.0
  0
LWPOLYLINE
  5
446
330
1F
100
AcDbEntity
  8
0
  6
Continuous
 62
     7
370
    25
100
AcDbPolyline
 90
        9
 70
   128
 43
0.0
 10
363.9061797429
 20
114.2956011584
 10
363.7396092934
 20
114.368781392
 10
363.5824139926
 20
114.3918851142
 10
363.4434413238
 20
114.3636119695
 10
363.3305131392
 20
114.285553266
 10
363.2499854191
 20
114.1621024117
 10
363.2063905363
 20
114.0002076386
 10
363.2021821581
 20
113.8089809322
 10
363.2375971463
 20
113.5991851788
  0
LINE
  5
447
330
1F
100
AcDbEntity
  8
0
  6
Continuous
 62
     7
370
    25
100
AcDbLine
 10
366.1628929932
 20
112.9928283293
 30
0.0
 11
363.9061797429
 21
114.2956011584
 31
0.0
  0
ARC
  5
448
330
1F
100
AcDbEntity
  8
0
  6
Continuous
 62
     7
370
    25
100
AcDbCircle
 10
366.7149578207
 20
113.6696474474
 30
0.0
 40
0.8734183948569734
100
AcDbArc
 50
230.7967147643
 51
9.2140369905
  0
LINE
  5
449
330
1F
100
AcDbEntity
  8
0
  6
Continuous
 62
     7
370
    25
100
AcDbLine
 10
367.5771065555
 20
115.646718668
 30
0.0
 11
367.5771065555
 21
113.8095018412
 31
0.0
  0
ARC
  5
44A
330
1F
100
AcDbEntity
  8
0
  6
Continuous
 62
     7
370
    25
100
AcDbCircle
 10
368.008180923
 20
115.7166458649
 30
0.0
 40
0.4367091974285501
100
AcDbArc
 50
50.7967147643
 51
189.2140369904
  0
LINE
  5
44B
330
1F
100
AcDbEntity
  8
0
  6
Continuous
 62
     7
370
    25
100
AcDbLine
 10
373.4107375003
 20
113.0955760186
 30
0.0
 11
368.2842133367
 21
116.0550554239
 31
0.0
  0
LINE
  5
44C
330
1F
100
AcDbEntity
  8
0
  6
Continuous
 62
     7
370
    25
100
AcDbLine
 10
374.1178442815
 20
113.5037800745
 30
0.0
 11
373.4107375003
 21
113.0955760186
 31
0.0
  0
LINE
  5
44D
330
1F
100
AcDbEntity
  8
0
  6
Continuous
 62
     7
370
    25
100
AcDbLine
 10
380.3143631063
 20
89.8138175831
 30
0.0
 11
374.1178442815
 21
113.5037800745
 31
0.0
  0
LINE
  5
44E
330
1F
100
AcDbEntity
  8
0
  6
Continuous
 62
     7
370
    25
100
AcDbLine
 10
379.6072563251
 20
89.4056135272
 30
0.0
 11
380.3143631063
 21
89.8138175831
 31
0.0
  0
LINE
  5
44F
330
1F
100
AcDbEntity
  8
0
  6
Continuous
 62
     7
370
    25
100
AcDbLine
 10
374.1178442815
 20
113.5037800745
 30
0.0
 11
368.9913201179
 21
116.4632594799
 31
0.0
  0
LINE
  5
450
330
1F
100
AcDbEntity
  8
0
  6
Continuous
 62
     7
370
    25
100
AcDbLine
 10
362.0970290013
 20
89.0082192182
 30
0.0
 11
362.2738056966
 21
93.8046168752
 31
0.0
  0
LINE
  5
451
330
1F
100
AcDbEntity
  8
0
  6
Continuous
 62
     7
370
    25
100
AcDbLine
 10
318.0796318725
 20
119.3173703697
 30
0.0
 11
362.2738056966
 21
93.8046168752
 31
0.0
  0
LINE
  5
452
330
1F
100
AcDbEntity
  8
0
  6
Continuous
 62
     7
370
    25
100
AcDbLine
 10
309.7711271935
 20
119.2153193557
 30
0.0
 11
318.0796318725
 21
119.3173703697
 31
0.0
  0
LINE
  5
453
330
1F
100
AcDbEntity
  8
0
  6
Continuous
 62
     7
370
    25
100
AcDbLine
 10
309.7711271935
 20
119.2153193557
 30
0.0
 11
301.4626225146
 21
124.0117170126
 31
0.0
  0
ARC
  5
454
330
1F
100
AcDbEntity
  8
0
  6
Continuous
 62
     7
370
    25
100
AcDbCircle
 10
301.6175495414
 20
124.4199210685
 30
0.0
 40
0.4366153168342182
100
AcDbArc
 50
110.7834207995
 51
249.2165792006
  0
LINE
  5
455
330
1F
100
AcDbEntity
  8
0
  6
Continuous
 62
     7
370
    25
100
AcDbLine
 10
301.4626225146
 20
124.8281251245
 30
0.0
 11
309.3339230707
 21
129.3721302136
 31
0.0
  0
LINE
  5
456
330
1F
100
AcDbEntity
  8
0
  6
Continuous
 62
     7
370
    25
100
AcDbLine
 10
379.6910477988
 20
88.7558266505
 30
0.0
 11
371.8197472427
 21
84.2118215613
 31
0.0
  0
ARC
  5
457
330
1F
100
AcDbEntity
  8
0
  6
Continuous
 62
     7
370
    25
100
AcDbCircle
 10
371.1126404615
 20
85.5765326462
 30
0.0
 40
1.537021907911921
100
AcDbArc
 50
242.6096722366
 51
297.3903277634
  0
LINE
  5
458
330
1F
100
AcDbEntity
  8
0
  6
Continuous
 62
     7
370
    25
100
AcDbLine
 10
370.4055336803
 20
84.2118215613
 30
0.0
 11
362.0970290013
 21
89.0082192182
 31
0.0
  0
LWPOLYLINE
  5
459
330
1F
100
AcDbEntity
  8
0
  6
Continuous
 62
     7
370
    25
100
AcDbPolyline
 90
       19
 70
   128
 43
0.0
 10
366.1628929932
 20
88.1918111064
 10
365.8687741775
 20
88.394160353
 10
365.6399903528
 20
88.6229193885
 10
365.4834929998
 20
88.8711374854
 10
365.4040372113
 20
89.1312726625
 10
365.4040372113
 20
89.3954208439
 10
365.4834929998
 20
89.655556021
 10
365.6399903528
 20
89.9037741179
 10
365.8687741775
 20
90.1325331534
 10
366.1628929932
 20
90.3348823999
 10
366.5134101484
 20
90.5046735781
 10
366.9096753567
 20
90.6367476688
 10
367.3396483004
 20
90.7270916677
 10
367.7902644691
 20
90.7729605181
 10
368.2478321185
 20
90.7729605181
 10
368.6984482872
 20
90.7270916677
 10
369.1284212309
 20
90.6367476688
 10
369.5246864392
 20
90.5046735781
 10
369.8752035944
 20
90.3348823999
  0
LINE
  5
45A
330
1F
100
AcDbEntity
  8
0
  6
Continuous
 62
     7
370
    25
100
AcDbLine
 10
366.1628929932
 20
88.1918111064
 30
0.0
 11
368.8145434226
 21
86.6610458967
 31
0.0
  0
LWPOLYLINE
  5
45B
330
1F
100
AcDbEntity
  8
0
  6
Continuous
 62
     7
370
    25
100
AcDbPolyline
 90
       19
 70
   128
 43
0.0
 10
372.5268540238
 20
88.8041171903
 10
372.8209728395
 20
88.6017679437
 10
373.0497566642
 20
88.3730089082
 10
373.2062540172
 20
88.1247908113
 10
373.2857098057
 20
87.8646556342
 10
373.2857098057
 20
87.6005074528
 10
373.2062540172
 20
87.3403722757
 10
373.0497566642
 20
87.0921541788
 10
372.8209728395
 20
86.8633951433
 10
372.5268540238
 20
86.6610458967
 10
372.1763368687
 20
86.4912547186
 10
371.7800716603
 20
86.3591806279
 10
371.3500987166
 20
86.268836629
 10
370.8994825479
 20
86.2229677786
 10
370.4419148985
 20
86.2229677786
 10
369.9912987298
 20
86.268836629
 10
369.5613257862
 20
86.3591806279
 10
369.1650605778
 20
86.4912547186
 10
368.8145434226
 20
86.6610458967
  0
LINE
  5
45C
330
1F
100
AcDbEntity
  8
0
  6
Continuous
 62
     7
370
    25
100
AcDbLine
 10
369.8752035944
 20
90.3348823999
 30
0.0
 11
372.5268540238
 21
88.8041171903
 31
0.0
  0
LWPOLYLINE
  5
45D
330
1F
100
AcDbEntity
  8
0
  6
Continuous
 62
     7
370
    25
100
AcDbPolyline
 90
       19
 70
   128
 43
0.0
 10
308.3569136312
 20
121.5624926772
 10
308.7074307864
 20
121.392701499
 10
309.1036959947
 20
121.2606274083
 10
309.5336689384
 20
121.1702834094
 10
309.9842851071
 20
121.124414559
 10
310.4418527565
 20
121.124414559
 10
310.8924689252
 20
121.1702834094
 10
311.3224418689
 20
121.2606274083
 10
311.7187070772
 20
121.392701499
 10
312.0692242324
 20
121.5624926772
 10
312.363343048
 20
121.7648419237
 10
312.5921268728
 20
121.9936009592
 10
312.7486242258
 20
122.2418190562
 10
312.8280800143
 20
122.5019542332
 10
312.8280800143
 20
122.7661024147
 10
312.7486242258
 20
123.0262375917
 10
312.5921268728
 20
123.2744556886
 10
312.363343048
 20
123.5032147241
 10
312.0692242324
 20
123.7055639707
  0
LINE
  5
45E
330
1F
100
AcDbEntity
  8
0
  6
Continuous
 62
     7
370
    25
100
AcDbLine
 10
312.0692242324
 20
123.7055639707
 30
0.0
 11
309.4175738029
 21
125.2363291804
 31
0.0
  0
LWPOLYLINE
  5
45F
330
1F
100
AcDbEntity
  8
0
  6
Continuous
 62
     7
370
    25
100
AcDbPolyline
 90
       19
 70
   128
 43
0.0
 10
309.4175738029
 20
125.2363291804
 10
309.0670566478
 20
125.4061203585
 10
308.6707914394
 20
125.5381944493
 10
308.2408184957
 20
125.6285384481
 10
307.790202327
 20
125.6744072985
 10
307.3326346776
 20
125.6744072985
 10
306.8820185089
 20
125.6285384481
 10
306.4520455653
 20
125.5381944493
 10
306.0557803569
 20
125.4061203585
 10
305.7052632017
 20
125.2363291804
 10
305.4111443861
 20
125.0339799338
 10
305.1823605614
 20
124.8052208983
 10
305.0258632083
 20
124.5570028014
 10
304.9464074198
 20
124.2968676243
 10
304.9464074198
 20
124.0327194429
 10
305.0258632083
 20
123.7725842658
 10
305.1823605614
 20
123.5243661689
 10
305.4111443861
 20
123.2956071334
 10
305.7052632017
 20
123.0932578868
  0
LINE
  5
460
330
1F
100
AcDbEntity
  8
0
  6
Continuous
 62
     7
370
    25
100
AcDbLine
 10
308.3569136312
 20
121.5624926772
 30
0.0
 11
305.7052632017
 21
123.0932578868
 31
0.0
  0
ARC
  5
461
330
1F
100
AcDbEntity
  8
0
  6
Continuous
 62
     7
370
    25
100
AcDbCircle
 10
371.1126404615
 20
84.7599918343
 30
0.0
 40
1.537021907911216
100
AcDbArc
 50
242.6096722366
 51
297.3903277634
  0
LINE
  5
462
330
1F
100
AcDbEntity
  8
0
  6
Continuous
 62
     7
370
    25
100
AcDbLine
 10
379.6910477988
 20
88.7558266505
 30
0.0
 11
379.6910477988
 21
87.9392858386
 31
0.0
  0
LINE
  5
463
330
1F
100
AcDbEntity
  8
0
  6
Continuous
 62
     7
370
    25
100
AcDbLine
 10
379.6910477988
 20
87.9392858386
 30
0.0
 11
371.8197472427
 21
83.3952807494
 31
0.0
  0
LINE
  5
464
330
1F
100
AcDbEntity
  8
0
  6
Continuous
 62
     7
370
    25
100
AcDbLine
 10
362.0970290013
 20
89.0082192182
 30
0.0
 11
362.0970290013
 21
88.1916784064
 31
0.0
  0
LINE
  5
465
330
1F
100
AcDbEntity
  8
0
  6
Continuous
 62
     7
370
    25
100
AcDbLine
 10
370.4055336803
 20
83.3952807494
 30
0.0
 11
362.0970290013
 21
88.1916784064
 31
0.0
  0
ARC
  5
466
330
1F
100
AcDbEntity
  8
0
  6
Continuous
 62
     7
370
    25
100
AcDbCircle
 10
368.6984000631
 20
116.0543781507
 30
0.0
 40
0.5029772359010826
100
AcDbArc
 50
54.3824225248
 51
114.3071190462
  0
ARC
  5
467
330
1F
100
AcDbEntity
  8
0
  6
Continuous
 62
     7
370
    25
100
AcDbCircle
 10
371.7741552426
 20
86.5533777054
 30
0.0
 40
1.619716422372408
100
AcDbArc
 50
28.4224050343
 51
62.3085301495
  0
ARC
  5
468
330
1F
100
AcDbEntity
  8
0
  6
Continuous
 62
     7
370
    25
100
AcDbCircle
 10
367.5472535089
 20
114.4806072831
 30
0.0
 40
1.274423234718016
100
AcDbArc
 50
237.8985650384
 51
265.7043593161
  0
LWPOLYLINE
  5
469
330
1F
100
AcDbEntity
  8
0
  6
Continuous
 62
     7
370
    25
100
AcDbPolyline
 90
       13
 70
   128
 43
0.0
 10
365.4911118932
 20
88.8550763472
 10
365.6399903528
 20
89.087233306
 10
365.8687741775
 20
89.3159923415
 10
366.1628929932
 20
89.5183415881
 10
366.5134101484
 20
89.6881327662
 10
366.9096753567
 20
89.820206857
 10
367.3396483004
 20
89.9105508558
 10
367.7902644691
 20
89.9564197062
 10
368.2478321185
 20
89.9564197062
 10
368.6984482872
 20
89.9105508558
 10
369.1284212309
 20
89.820206857
 10
369.5246864392
 20
89.6881327662
 10
369.8752035944
 20
89.5183415881
  0
SPLINE
  5
46A
330
1F
100
AcDbEntity
  8
0
  6
Continuous
 62
     7
370
    25
100
AcDbSpline
210
0.0
220
0.0
230
1.0
 70
     8
 71
     3
 72
    11
 73
     7
 74
     0
 42
0.00000001
 43
0.00000001
 40
0.0
 40
0.0
 40
0.0
 40
0.0
 40
0.2472454926704311
 40
0.5282132489579149
 40
0.8093312418986075
 40
1.0
 40
1.0
 40
1.0
 40
1.0
 10
379.6910477987958
 20
88.755826650467
 30
0.0
 10
379.6964218598981
 20
88.79611419368322
 30
0.0
 10
379.7079029600964
 20
88.8821841716024
 30
0.0
 10
379.7072265771029
 20
89.06685260652736
 30
0.0
 10
379.6750737153786
 20
89.25302807901714
 30
0.0
 10
379.6267756096714
 20
89.3616961961305
 30
0.0
 10
379.6072563251356
 20
89.40561352719048
 30
0.0
  0
SPLINE
  5
46B
330
1F
100
AcDbEntity
  8
0
  6
Continuous
 62
     7
370
    25
100
AcDbSpline
210
0.0
220
0.0
230
1.0
 70
     8
 71
     3
 72
    12
 73
     8
 74
     0
 42
0.00000001
 43
0.00000001
 40
0.0
 40
0.0
 40
0.0
 40
0.0
 40
0.2335879420900659
 40
0.4537901450808095
 40
0.6739877272614916
 40
0.8941852184808515
 40
0.9999999999999999
 40
0.9999999999999999
 40
0.9999999999999999
 40
0.9999999999999999
 10
379.6910477987958
 20
87.93928583858133
 30
0.0
 10
379.7826359808448
 20
88.0377470253369
 30
0.0
 10
379.9605638911975
 20
88.22902708809552
 30
0.0
 10
380.1807573851503
 20
88.65943733418449
 30
0.0
 10
380.3187082043481
 20
89.12822853199384
 30
0.0
 10
380.352801464211
 20
89.5274710318514
 30
0.0
 10
380.3237820308704
 20
89.7436513036606
 30
0.0
 10
380.3143631063221
 20
89.81381758310184
 30
0.0
  0
SPLINE
  5
46C
330
1F
100
AcDbEntity
  8
0
  6
Continuous
 62
     7
370
    25
100
AcDbSpline
210
0.0
220
0.0
230
1.0
 70
     8
 71
     3
 72
    11
 73
     7
 74
     0
 42
0.00000001
 43
0.00000001
 40
0.0
 40
0.0
 40
0.0
 40
0.0
 40
0.2472454926703052
 40
0.5282132489579738
 40
0.8093312418985419
 40
1.0
 40
1.0
 40
1.0
 40
1.0
 10
309.9385693994167
 20
129.6244904065429
 30
0.0
 10
309.9063632394923
 20
129.5996870977723
 30
0.0
 10
309.8375582627608
 20
129.546697511717
 30
0.0
 10
309.6772861288014
 20
129.4549379981074
 30
0.0
 10
309.4999742950019
 20
129.3896907565272
 30
0.0
 10
309.3817161380051
 20
129.3771845106621
 30
0.0
 10
309.3339230707345
 20
129.372130213647
 30
0.0
  0
LINE
  5
46D
330
1F
100
AcDbEntity
  8
0
  6
Continuous
 62
     7
370
    25
100
AcDbLine
 10
369.8752035944
 20
89.5183415881
 30
0.0
 11
372.5268540238
 21
87.9875763784
 31
0.0
  0
LINE
  5
46E
330
1F
100
AcDbEntity
  8
0
  6
Continuous
 62
     7
370
    25
100
AcDbLine
 10
366.8699997744
 20
113.4010323852
 30
0.0
 11
364.6132865241
 21
114.7038052143
 31
0.0
  0
ARC
  5
46F
330
1F
100
AcDbEntity
  8
0
  6
Continuous
 62
     7
370
    25
100
AcDbCircle
 10
364.3222657499
 20
114.3141038595
 30
0.0
 40
0.4863745850035938
100
AcDbArc
 50
53.2483981923
 51
115.4411433786
  0
LINE
  5
470
330
1F
100
AcDbEntity
  8
0
  6
Continuous
 62
     7
370
    25
100
AcDbLine
 10
318.0796318725
 20
119.3173703697
 30
0.0
 11
318.0796318725
 21
118.5008295578
 31
0.0
  0
LINE
  5
471
330
1F
100
AcDbEntity
  8
0
  6
Continuous
 62
     7
370
    25
100
AcDbLine
 10
318.0796318725
 20
118.5008295578
 30
0.0
 11
362.2443381252
 21
93.0050873302
 31
0.0
  0
LINE
  5
472
330
1F
100
AcDbEntity
  8
0
  6
Continuous
 62
     7
370
    25
100
AcDbLine
 10
324.0511486396
 20
127.0965280304
 30
0.0
 11
323.3440418584
 21
126.6883239745
 31
0.0
  0
LINE
  5
473
330
1F
100
AcDbEntity
  8
0
  6
Continuous
 62
     7
370
    25
100
AcDbLine
 10
364.8451244618
 20
103.5466670612
 30
0.0
 11
324.0511486396
 21
127.0965280304
 31
0.0
  0
ARC
  5
474
330
1F
100
AcDbEntity
  8
0
  6
Continuous
 62
     7
370
    25
100
AcDbCircle
 10
325.6205238616
 20
135.5775450027
 30
0.0
 40
1.417266137647835
100
AcDbArc
 50
349.7873124506
 51
59.1751517324
  0
ARC
  5
475
330
1F
100
AcDbEntity
  8
0
  6
Continuous
 62
     7
370
    25
100
AcDbCircle
 10
321.1406098488
 20
142.3142234779
 30
0.0
 40
1.536804807571944
100
AcDbArc
 50
2.6054784856
 51
57.39452166
  0
LINE
  5
476
330
1F
100
AcDbEntity
  8
0
  6
Continuous
 62
     7
370
    25
100
AcDbLine
 10
326.3467527629
 20
136.7946049387
 30
0.0
 11
324.0900395126
 21
138.0973777678
 31
0.0
  0
LINE
  5
477
330
1F
100
AcDbEntity
  8
0
  6
Continuous
 62
     7
370
    25
100
AcDbLine
 10
324.0511486396
 20
127.0965280304
 30
0.0
 11
327.0153353594
 21
135.3262599242
 31
0.0
  0
LINE
  5
478
330
1F
100
AcDbEntity
  8
0
  6
Continuous
 62
     7
370
    25
100
AcDbLine
 10
322.6758259502
 20
140.5468675034
 30
0.0
 11
322.6758259502
 21
142.3840843302
 31
0.0
  0
LINE
  5
479
330
1F
100
AcDbEntity
  8
0
  6
Continuous
 62
     7
370
    25
100
AcDbLine
 10
316.8421950054
 20
146.5683086033
 30
0.0
 11
316.1350882242
 21
146.1601045474
 31
0.0
  0
LINE
  5
47A
330
1F
100
AcDbEntity
  8
0
  6
Continuous
 62
     7
370
    25
100
AcDbLine
 10
321.968719169
 20
143.608829198
 30
0.0
 11
316.8421950054
 21
146.5683086033
 31
0.0
  0
ARC
  5
47B
330
1F
100
AcDbEntity
  8
0
  6
Continuous
 62
     7
370
    25
100
AcDbCircle
 10
325.7462581529
 20
140.6865892079
 30
0.0
 40
3.07360961514423
100
AcDbArc
 50
182.6054784857
 51
237.39452166
  0
LINE
  5
47C
330
1F
100
AcDbEntity
  8
0
  6
Continuous
 62
     7
370
    25
100
AcDbLine
 10
309.7711271935
 20
119.2153193557
 30
0.0
 11
309.7711271935
 21
118.3987785438
 31
0.0
  0
LINE
  5
47D
330
1F
100
AcDbEntity
  8
0
  6
Continuous
 62
     7
370
    25
100
AcDbLine
 10
309.7711271935
 20
118.3987785438
 30
0.0
 11
318.0796318725
 21
118.5008295578
 31
0.0
  0
LINE
  5
47E
330
1F
100
AcDbEntity
  8
0
  6
Continuous
 62
     7
370
    25
100
AcDbLine
 10
309.7711271935
 20
118.3987785438
 30
0.0
 11
301.4626225146
 21
123.1951762008
 31
0.0
  0
ARC
  5
47F
330
1F
100
AcDbEntity
  8
0
  6
Continuous
 62
     7
370
    25
100
AcDbCircle
 10
311.3165254511
 20
121.4548244858
 30
0.0
 40
1.619716422375846
100
AcDbArc
 50
28.4224050344
 51
62.3085301494
  0
LWPOLYLINE
  5
480
330
1F
100
AcDbEntity
  8
0
  6
Continuous
 62
     7
370
    25
100
AcDbPolyline
 90
       13
 70
   128
 43
0.0
 10
309.4175738029
 20
124.4197883685
 10
309.0670566478
 20
124.5895795466
 10
308.6707914394
 20
124.7216536374
 10
308.2408184957
 20
124.8119976363
 10
307.790202327
 20
124.8578664866
 10
307.3326346776
 20
124.8578664866
 10
306.8820185089
 20
124.8119976363
 10
306.4520455653
 20
124.7216536374
 10
306.0557803569
 20
124.5895795466
 10
305.7052632017
 20
124.4197883685
 10
305.4111443861
 20
124.2174391219
 10
305.1823605614
 20
123.9886800864
 10
305.0334821017
 20
123.7565231277
  0
LINE
  5
481
330
1F
100
AcDbEntity
  8
0
  6
Continuous
 62
     7
370
    25
100
AcDbLine
 10
312.0692242324
 20
122.8890231588
 30
0.0
 11
309.4175738029
 21
124.4197883685
 31
0.0
  0
ARC
  5
482
330
1F
100
AcDbEntity
  8
0
  6
Continuous
 62
     7
370
    25
100
AcDbCircle
 10
301.6701863583
 20
123.6532866336
 30
0.0
 40
0.5029392784934688
100
AcDbArc
 50
185.6947992512
 51
245.6253417064
  0
LINE
  5
483
330
1F
100
AcDbEntity
  8
0
  6
Continuous
 62
     7
370
    25
100
AcDbLine
 10
368.9913201179
 20
121.5666395541
 30
0.0
 11
367.5771065555
 21
122.383047666
 31
0.0
  0
LINE
  5
484
330
1F
100
AcDbEntity
  8
0
  6
Continuous
 62
     7
370
    25
100
AcDbLine
 10
374.4713976721
 20
112.2790020317
 30
0.0
 11
374.4117752579
 21
112.380050122
 31
0.0
  0
LINE
  5
485
330
1F
100
AcDbEntity
  8
0
  6
Continuous
 62
     7
370
    25
100
AcDbLine
 10
373.5580514131
 20
113.8269416188
 30
0.0
 11
368.9913201179
 21
121.5666395541
 31
0.0
  0
LINE
  5
486
330
1F
100
AcDbEntity
  8
0
  6
Continuous
 62
     7
370
    25
100
AcDbLine
 10
380.6585820075
 20
88.4978314483
 30
0.0
 11
374.4713976721
 21
112.2790020317
 31
0.0
  0
LINE
  5
487
330
1F
100
AcDbEntity
  8
0
  6
Continuous
 62
     7
370
    25
100
AcDbLine
 10
380.1961562364
 20
88.7647841637
 30
0.0
 11
380.6585820075
 21
88.4978314483
 31
0.0
  0
LINE
  5
488
330
1F
100
AcDbEntity
  8
0
  6
Continuous
 62
     7
370
    25
100
AcDbLine
 10
321.968719169
 20
148.7122092722
 30
0.0
 11
317.4019878738
 21
146.2451470591
 31
0.0
  0
LINE
  5
489
330
1F
100
AcDbEntity
  8
0
  6
Continuous
 62
     7
370
    25
100
AcDbLine
 10
323.3829327314
 20
147.8958011604
 30
0.0
 11
321.968719169
 21
148.7122092722
 31
0.0
  0
LINE
  5
48A
330
1F
100
AcDbEntity
  8
0
  6
Continuous
 62
     7
370
    25
100
AcDbLine
 10
323.3829327314
 20
140.9552042594
 30
0.0
 11
323.3829327314
 21
147.8958011604
 31
0.0
  0
ARC
  5
48B
330
1F
100
AcDbEntity
  8
0
  6
Continuous
 62
     7
370
    25
100
AcDbCircle
 10
326.4533649341
 20
141.0949259639
 30
0.0
 40
3.073609615144521
100
AcDbArc
 50
182.6054784857
 51
237.39452166
  0
LINE
  5
48C
330
1F
100
AcDbEntity
  8
0
  6
Continuous
 62
     7
370
    25
100
AcDbLine
 10
326.3977818171
 20
137.5816873047
 30
0.0
 11
324.7971462938
 21
138.5057145238
 31
0.0
  0
ARC
  5
48D
330
1F
100
AcDbEntity
  8
0
  6
Continuous
 62
     7
370
    25
100
AcDbCircle
 10
325.4854463672
 20
136.0571005795
 30
0.0
 40
1.77671625638175
100
AcDbArc
 50
350.1532804642
 51
59.1030682136
  0
LINE
  5
48E
330
1F
100
AcDbEntity
  8
0
  6
Continuous
 62
     7
370
    25
100
AcDbLine
 10
325.0548804445
 20
129.4848928324
 30
0.0
 11
327.2359894263
 21
135.7532590846
 31
0.0
  0
ARC
  5
48F
330
1F
100
AcDbEntity
  8
0
  6
Continuous
 62
     7
370
    25
100
AcDbCircle
 10
327.8258003872
 20
128.985016922
 30
0.0
 40
2.815647928040045
100
AcDbArc
 50
169.7737896605
 51
239.4825590173
  0
LINE
  5
490
330
1F
100
AcDbEntity
  8
0
  6
Continuous
 62
     7
370
    25
100
AcDbLine
 10
364.5640266677
 20
104.5254821755
 30
0.0
 11
326.3960126192
 21
126.5594076804
 31
0.0
  0
ARC
  5
491
330
1F
100
AcDbEntity
  8
0
  6
Continuous
 62
     7
370
    25
100
AcDbCircle
 10
365.1485244462
 20
105.3296892397
 30
0.0
 40
0.9941763703148756
100
AcDbArc
 50
233.9903419061
 51
294.6991996648
  0
LINE
  5
492
330
1F
100
AcDbEntity
  8
0
  6
Continuous
 62
     7
370
    25
100
AcDbLine
 10
363.7240498606
 20
114.689150158
 30
0.0
 11
363.7589106765
 21
114.5487129852
 31
0.0
  0
LWPOLYLINE
  5
493
330
1F
100
AcDbEntity
  8
0
  6
Continuous
 62
     7
370
    25
100
AcDbPolyline
 90
        9
 70
   128
 43
0.0
 10
364.5622574698
 20
115.5498044721
 10
364.3549815657
 20
115.6410004401
 10
364.1592655663
 20
115.6701866239
 10
363.986024673
 20
115.635735292
 10
363.8449206372
 20
115.5395678166
 10
363.7438229177
 20
115.3870475167
 10
363.6883697964
 20
115.1866805433
 10
363.681653928
 20
114.9496414858
 10
363.7240498606
 20
114.689150158
  0
LINE
  5
494
330
1F
100
AcDbEntity
  8
0
  6
Continuous
 62
     7
370
    25
100
AcDbLine
 10
366.1628929932
 20
114.625777253
 30
0.0
 11
364.5622574698
 21
115.5498044721
 31
0.0
  0
ARC
  5
495
330
1F
100
AcDbEntity
  8
0
  6
Continuous
 62
     7
370
    25
100
AcDbCircle
 10
366.7149578207
 20
115.3025963711
 30
0.0
 40
0.8734183948569917
100
AcDbArc
 50
230.7967147643
 51
9.2140369905
  0
LINE
  5
496
330
1F
100
AcDbEntity
  8
0
  6
Continuous
 62
     7
370
    25
100
AcDbLine
 10
367.5771065555
 20
122.383047666
 30
0.0
 11
367.5771065555
 21
115.646718668
 31
0.0
  0
LINE
  5
497
330
1F
100
AcDbEntity
  8
0
  6
Continuous
 62
     7
370
    25
100
AcDbLine
 10
380.6585820075
 20
88.4978314483
 30
0.0
 11
381.7192421793
 21
89.1101375322
 31
0.0
  0
LINE
  5
498
330
1F
100
AcDbEntity
  8
0
  6
Continuous
 62
     7
370
    25
100
AcDbLine
 10
374.4713976721
 20
112.2790020317
 30
0.0
 11
375.5320578439
 21
112.8913081155
 31
0.0
  0
LINE
  5
499
330
1F
100
AcDbEntity
  8
0
  6
Continuous
 62
     7
370
    25
100
AcDbLine
 10
381.7192421793
 20
89.1101375322
 30
0.0
 11
375.5320578439
 21
112.8913081155
 31
0.0
  0
LINE
  5
49A
330
1F
100
AcDbEntity
  8
0
  6
Continuous
 62
     7
370
    25
100
AcDbLine
 10
368.9913201179
 20
121.5666395541
 30
0.0
 11
370.0519802897
 21
122.178945638
 31
0.0
  0
LINE
  5
49B
330
1F
100
AcDbEntity
  8
0
  6
Continuous
 62
     7
370
    25
100
AcDbLine
 10
375.5320578439
 20
112.8913081155
 30
0.0
 11
370.0519802897
 21
122.178945638
 31
0.0
  0
LINE
  5
49C
330
1F
100
AcDbEntity
  8
0
  6
Continuous
 62
     7
370
    25
100
AcDbLine
 10
367.5771065555
 20
122.383047666
 30
0.0
 11
368.6377667273
 21
122.9953537498
 31
0.0
  0
LINE
  5
49D
330
1F
100
AcDbEntity
  8
0
  6
Continuous
 62
     7
370
    25
100
AcDbLine
 10
370.0519802897
 20
122.178945638
 30
0.0
 11
368.6377667273
 21
122.9953537498
 31
0.0
  0
LWPOLYLINE
  5
49E
330
1F
100
AcDbEntity
  8
0
  6
Continuous
 62
     7
370
    25
100
AcDbPolyline
 90
        3
 70
   128
 43
0.0
 10
367.2235531649
 20
115.2380833368
 10
367.4994525442
 20
115.1101892209
 10
367.5409723811
 20
115.09650794
  0
LINE
  5
49F
330
1F
100
AcDbEntity
  8
0
  6
Continuous
 62
     7
370
    25
100
AcDbLine
 10
367.2235531649
 20
115.2380833368
 30
0.0
 11
365.6229176416
 21
116.162110556
 31
0.0
  0
ARC
  5
4A0
330
1F
100
AcDbEntity
  8
0
  6
Continuous
 62
     7
370
    25
100
AcDbCircle
 10
365.2590831095
 20
115.6743924476
 30
0.0
 40
0.6084772140770686
100
AcDbArc
 50
53.2773011525
 51
115.4122404184
  0
LINE
  5
4A1
330
1F
100
AcDbEntity
  8
0
  6
Continuous
 62
     7
370
    25
100
AcDbLine
 10
365.3497154214
 20
105.2965258802
 30
0.0
 11
327.456672791
 21
127.1717137642
 31
0.0
  0
LINE
  5
4A2
330
1F
100
AcDbEntity
  8
0
  6
Continuous
 62
     7
370
    25
100
AcDbLine
 10
323.3829327314
 20
147.8958011604
 30
0.0
 11
324.4435929032
 21
148.5081072443
 31
0.0
  0
LINE
  5
4A3
330
1F
100
AcDbEntity
  8
0
  6
Continuous
 62
     7
370
    25
100
AcDbLine
 10
321.968719169
 20
148.7122092722
 30
0.0
 11
323.0293793408
 21
149.3245153561
 31
0.0
  0
LINE
  5
4A4
330
1F
100
AcDbEntity
  8
0
  6
Continuous
 62
     7
370
    25
100
AcDbLine
 10
324.4435929032
 20
148.5081072443
 30
0.0
 11
323.0293793408
 21
149.3245153561
 31
0.0
  0
LINE
  5
4A5
330
1F
100
AcDbEntity
  8
0
  6
Continuous
 62
     7
370
    25
100
AcDbLine
 10
324.4435929032
 20
141.5675103433
 30
0.0
 11
324.4435929032
 21
148.5081072443
 31
0.0
  0
LINE
  5
4A6
330
1F
100
AcDbEntity
  8
0
  6
Continuous
 62
     7
370
    25
100
AcDbLine
 10
317.3726687589
 20
146.2620726238
 30
0.0
 11
317.5493017866
 21
146.3640407003
 31
0.0
  0
LINE
  5
4A7
330
1F
100
AcDbEntity
  8
0
  6
Continuous
 62
     7
370
    25
100
AcDbLine
 10
323.0293793408
 20
149.3245153561
 30
0.0
 11
317.5493017866
 21
146.3640407003
 31
0.0
  0
ARC
  5
4A8
330
1F
100
AcDbEntity
  8
0
  6
Continuous
 62
     7
370
    25
100
AcDbCircle
 10
326.546106539
 20
136.6694066633
 30
0.0
 40
1.776716256381555
100
AcDbArc
 50
350.1532804642
 51
59.1030682137
  0
LINE
  5
4A9
330
1F
100
AcDbEntity
  8
0
  6
Continuous
 62
     7
370
    25
100
AcDbLine
 10
327.4584419889
 20
138.1939933885
 30
0.0
 11
325.8578064655
 21
139.1180206077
 31
0.0
  0
ARC
  5
4AA
330
1F
100
AcDbEntity
  8
0
  6
Continuous
 62
     7
370
    25
100
AcDbCircle
 10
327.5140251059
 20
141.7072320478
 30
0.0
 40
3.073609615144142
100
AcDbArc
 50
182.6054784857
 51
237.39452166
  0
LINE
  5
4AB
330
1F
100
AcDbEntity
  8
0
  6
Continuous
 62
     7
370
    25
100
AcDbLine
 10
326.1155406163
 20
130.0971989163
 30
0.0
 11
328.2966495981
 21
136.3655651685
 31
0.0
  0
ARC
  5
4AC
330
1F
100
AcDbEntity
  8
0
  6
Continuous
 62
     7
370
    25
100
AcDbCircle
 10
328.9095620205
 20
129.6079134248
 30
0.0
 40
2.836539423141752
100
AcDbArc
 50
170.0671538107
 51
239.1891948672
  0
ARC
  5
4AD
330
1F
100
AcDbEntity
  8
0
  6
Continuous
 62
     7
370
    25
100
AcDbCircle
 10
369.4006476648
 20
120.782288904
 30
0.0
 40
1.536804807572232
100
AcDbArc
 50
2.6054784857
 51
57.39452166
  0
LINE
  5
4AE
330
1F
100
AcDbEntity
  8
0
  6
Continuous
 62
     7
370
    25
100
AcDbLine
 10
370.9358637662
 20
120.680939586
 30
0.0
 11
370.9358637662
 21
120.8521497562
 31
0.0
  0
LINE
  5
4AF
330
1F
100
AcDbEntity
  8
0
  6
Continuous
 62
     7
370
    25
100
AcDbLine
 10
375.1785044533
 20
114.1160861584
 30
0.0
 11
374.6187115849
 21
114.4392477026
 31
0.0
  0
LINE
  5
4B0
330
1F
100
AcDbEntity
  8
0
  6
Continuous
 62
     7
370
    25
100
AcDbLine
 10
381.7192421793
 20
90.7432191559
 30
0.0
 11
375.6749960959
 21
112.3419081351
 31
0.0
  0
LINE
  5
4B1
330
1F
100
AcDbEntity
  8
0
  6
Continuous
 62
     7
370
    25
100
AcDbLine
 10
375.5115002111
 20
112.9261491995
 30
0.0
 11
375.1785044533
 21
114.1160861584
 31
0.0
  0
LINE
  5
4B2
330
1F
100
AcDbEntity
  8
0
  6
Continuous
 62
     7
370
    25
100
AcDbLine
 10
381.2192676875
 20
91.0318482864
 30
0.0
 11
381.7192421793
 21
90.7432191559
 31
0.0
  0
LINE
  5
4B3
330
1F
100
AcDbEntity
  8
0
  6
Continuous
 62
     7
370
    25
100
AcDbLine
 10
317.9028551772
 20
147.1806146872
 30
0.0
 11
317.5698594194
 21
146.3751464466
 31
0.0
  0
LINE
  5
4B4
330
1F
100
AcDbEntity
  8
0
  6
Continuous
 62
     7
370
    25
100
AcDbLine
 10
318.4626480456
 20
146.8574531429
 30
0.0
 11
317.9028551772
 21
147.1806146872
 31
0.0
  0
LINE
  5
4B5
330
1F
100
AcDbEntity
  8
0
  6
Continuous
 62
     7
370
    25
100
AcDbLine
 10
322.1454958643
 20
149.0182296141
 30
0.0
 11
322.1454958643
 21
148.8470194439
 31
0.0
  0
ARC
  5
4B6
330
1F
100
AcDbEntity
  8
0
  6
Continuous
 62
     7
370
    25
100
AcDbCircle
 10
322.5765702317
 20
149.088156811
 30
0.0
 40
0.4367091974285363
100
AcDbArc
 50
50.7967147643
 51
189.2140369904
  0
LINE
  5
4B7
330
1F
100
AcDbEntity
  8
0
  6
Continuous
 62
     7
370
    25
100
AcDbLine
 10
370.228756985
 20
122.076894624
 30
0.0
 11
322.8526026455
 21
149.4265663701
 31
0.0
  0
LINE
  5
4B8
330
1F
100
AcDbEntity
  8
0
  6
Continuous
 62
     7
370
    25
100
AcDbLine
 10
381.7192421793
 20
90.7432191559
 30
0.0
 11
382.4263489605
 21
91.1514232118
 31
0.0
  0
LINE
  5
4B9
330
1F
100
AcDbEntity
  8
0
  6
Continuous
 62
     7
370
    25
100
AcDbLine
 10
375.1785044533
 20
114.1160861584
 30
0.0
 11
375.8856112345
 21
114.5242902143
 31
0.0
  0
LINE
  5
4BA
330
1F
100
AcDbEntity
  8
0
  6
Continuous
 62
     7
370
    25
100
AcDbLine
 10
382.4263489605
 20
91.1514232118
 30
0.0
 11
375.8856112345
 21
114.5242902143
 31
0.0
  0
ARC
  5
4BB
330
1F
100
AcDbEntity
  8
0
  6
Continuous
 62
     7
370
    25
100
AcDbCircle
 10
370.107754446
 20
121.1904929599
 30
0.0
 40
1.536804807572047
100
AcDbArc
 50
2.6054784857
 51
57.39452166
  0
LINE
  5
4BC
330
1F
100
AcDbEntity
  8
0
  6
Continuous
 62
     7
370
    25
100
AcDbLine
 10
375.8856112345
 20
114.5242902143
 30
0.0
 11
373.8881533235
 21
115.6773981217
 31
0.0
  0
LINE
  5
4BD
330
1F
100
AcDbEntity
  8
0
  6
Continuous
 62
     7
370
    25
100
AcDbLine
 10
371.6429705474
 20
119.4825347444
 30
0.0
 11
371.6429705474
 21
121.2603538121
 31
0.0
  0
LINE
  5
4BE
330
1F
100
AcDbEntity
  8
0
  6
Continuous
 62
     7
370
    25
100
AcDbLine
 10
370.9358637662
 20
122.4850986799
 30
0.0
 11
323.5597094267
 21
149.834770426
 31
0.0
  0
ARC
  5
4BF
330
1F
100
AcDbEntity
  8
0
  6
Continuous
 62
     7
370
    25
100
AcDbCircle
 10
323.2667893718
 20
149.4258890969
 30
0.0
 40
0.5029772359018129
100
AcDbArc
 50
54.3824225248
 51
114.3071190461
  0
LINE
  5
4C0
330
1F
100
AcDbEntity
  8
0
  6
Continuous
 62
     7
370
    25
100
AcDbLine
 10
317.9028551772
 20
147.1806146872
 30
0.0
 11
318.6099619584
 21
147.5888187431
 31
0.0
  0
LINE
  5
4C1
330
1F
100
AcDbEntity
  8
0
  6
Continuous
 62
     7
370
    25
100
AcDbLine
 10
319.1932063069
 20
147.2521189475
 30
0.0
 11
318.6099619584
 21
147.5888187431
 31
0.0
  0
LINE
  5
4C2
330
1F
100
AcDbEntity
  8
0
  6
Continuous
 62
     8
370
    18
100
AcDbLine
 10
379.6072563251
 20
89.4056135272
 30
0.0
 11
309.9385693994
 21
129.6244904065
 31
0.0
  0
LINE
  5
4C3
330
1F
100
AcDbEntity
  8
0
  6
Continuous
 62
     8
370
    18
100
AcDbLine
 10
368.9913201179
 20
116.4632594799
 30
0.0
 11
368.2842133367
 21
116.0550554239
 31
0.0
  0
LINE
  5
4C4
330
1F
100
AcDbEntity
  8
0
  6
Continuous
 62
     8
370
    18
100
AcDbLine
 10
309.3339230707
 20
129.3721302136
 30
0.0
 11
379.6910477988
 21
88.7558266505
 31
0.0
  0
LINE
  5
4C5
330
1F
100
AcDbEntity
  8
0
  6
Continuous
 62
     8
370
    18
100
AcDbLine
 10
370.4055336803
 20
83.3952807494
 30
0.0
 11
370.4055336803
 21
84.2118215613
 31
0.0
  0
LINE
  5
4C6
330
1F
100
AcDbEntity
  8
0
  6
Continuous
 62
     8
370
    18
100
AcDbLine
 10
371.8197472427
 20
84.2118215613
 30
0.0
 11
371.8197472427
 21
83.3952807494
 31
0.0
  0
LINE
  5
4C7
330
1F
100
AcDbEntity
  8
0
  6
Continuous
 62
     8
370
    18
100
AcDbLine
 10
372.5268540238
 20
88.8041171903
 30
0.0
 11
372.5268540238
 21
87.9875763784
 31
0.0
  0
LINE
  5
4C8
330
1F
100
AcDbEntity
  8
0
  6
Continuous
 62
     8
370
    18
100
AcDbLine
 10
366.1628929932
 20
112.9928283293
 30
0.0
 11
366.8699997744
 21
113.4010323852
 31
0.0
  0
LINE
  5
4C9
330
1F
100
AcDbEntity
  8
0
  6
Continuous
 62
     8
370
    18
100
AcDbLine
 10
369.8752035944
 20
90.3348823999
 30
0.0
 11
369.8752035944
 21
89.5183415881
 31
0.0
  0
LINE
  5
4CA
330
1F
100
AcDbEntity
  8
0
  6
Continuous
 62
     8
370
    18
100
AcDbLine
 10
364.6132865241
 20
114.7038052143
 30
0.0
 11
363.9061797429
 21
114.2956011584
 31
0.0
  0
LINE
  5
4CB
330
1F
100
AcDbEntity
  8
0
  6
Continuous
 62
     8
370
    18
100
AcDbLine
 10
327.0153353594
 20
135.3262599242
 30
0.0
 11
326.3082285782
 21
134.9180558683
 31
0.0
  0
LINE
  5
4CC
330
1F
100
AcDbEntity
  8
0
  6
Continuous
 62
     8
370
    18
100
AcDbLine
 10
325.6396459817
 20
136.3864008828
 30
0.0
 11
326.3467527629
 21
136.7946049387
 31
0.0
  0
LINE
  5
4CD
330
1F
100
AcDbEntity
  8
0
  6
Continuous
 62
     8
370
    18
100
AcDbLine
 10
322.6758259502
 20
142.3840843302
 30
0.0
 11
321.968719169
 21
141.9758802742
 31
0.0
  0
LINE
  5
4CE
330
1F
100
AcDbEntity
  8
0
  6
Continuous
 62
     8
370
    18
100
AcDbLine
 10
321.2616123878
 20
143.200625142
 30
0.0
 11
321.968719169
 21
143.608829198
 31
0.0
  0
LINE
  5
4CF
330
1F
100
AcDbEntity
  8
0
  6
Continuous
 62
     8
370
    18
100
AcDbLine
 10
324.0900395126
 20
138.0973777678
 30
0.0
 11
323.3829327314
 21
137.6891737119
 31
0.0
  0
LINE
  5
4D0
330
1F
100
AcDbEntity
  8
0
  6
Continuous
 62
     8
370
    18
100
AcDbLine
 10
321.968719169
 20
140.1386634475
 30
0.0
 11
322.6758259502
 21
140.5468675034
 31
0.0
  0
LINE
  5
4D1
330
1F
100
AcDbEntity
  8
0
  6
Continuous
 62
     8
370
    18
100
AcDbLine
 10
301.4626225146
 20
124.0117170126
 30
0.0
 11
301.4626225146
 21
123.1951762008
 31
0.0
  0
LINE
  5
4D2
330
1F
100
AcDbEntity
  8
0
  6
Continuous
 62
     8
370
    18
100
AcDbLine
 10
312.0692242324
 20
123.7055639707
 30
0.0
 11
312.0692242324
 21
122.8890231588
 31
0.0
  0
LINE
  5
4D3
330
1F
100
AcDbEntity
  8
0
  6
Continuous
 62
     8
370
    18
100
AcDbLine
 10
309.4175738029
 20
125.2363291804
 30
0.0
 11
309.4175738029
 21
124.4197883685
 31
0.0
  0
LINE
  5
4D4
330
1F
100
AcDbEntity
  8
0
  6
Continuous
 62
     8
370
    18
100
AcDbLine
 10
366.1628929932
 20
114.625777253
 30
0.0
 11
367.2235531649
 21
115.2380833368
 31
0.0
  0
LINE
  5
4D5
330
1F
100
AcDbEntity
  8
0
  6
Continuous
 62
     8
370
    18
100
AcDbLine
 10
365.6229176416
 20
116.162110556
 30
0.0
 11
364.5622574698
 21
115.5498044721
 31
0.0
  0
LINE
  5
4D6
330
1F
100
AcDbEntity
  8
0
  6
Continuous
 62
     8
370
    18
100
AcDbLine
 10
364.5640266677
 20
104.5254821755
 30
0.0
 11
365.4201363552
 21
105.0197037783
 31
0.0
  0
LINE
  5
4D7
330
1F
100
AcDbEntity
  8
0
  6
Continuous
 62
     8
370
    18
100
AcDbLine
 10
327.456672791
 20
127.1717137642
 30
0.0
 11
326.3960126192
 21
126.5594076804
 31
0.0
  0
LINE
  5
4D8
330
1F
100
AcDbEntity
  8
0
  6
Continuous
 62
     8
370
    18
100
AcDbLine
 10
323.3829327314
 20
140.9552042594
 30
0.0
 11
324.4435929032
 21
141.5675103433
 31
0.0
  0
LINE
  5
4D9
330
1F
100
AcDbEntity
  8
0
  6
Continuous
 62
     8
370
    18
100
AcDbLine
 10
326.3977818171
 20
137.5816873047
 30
0.0
 11
327.4584419889
 21
138.1939933885
 31
0.0
  0
LINE
  5
4DA
330
1F
100
AcDbEntity
  8
0
  6
Continuous
 62
     8
370
    18
100
AcDbLine
 10
328.2966495981
 20
136.3655651685
 30
0.0
 11
327.2359894263
 21
135.7532590846
 31
0.0
  0
LINE
  5
4DB
330
1F
100
AcDbEntity
  8
0
  6
Continuous
 62
     8
370
    18
100
AcDbLine
 10
325.8578064655
 20
139.1180206077
 30
0.0
 11
324.7971462938
 21
138.5057145238
 31
0.0
  0
LINE
  5
4DC
330
1F
100
AcDbEntity
  8
0
  6
Continuous
 62
     8
370
    18
100
AcDbLine
 10
325.0548804445
 20
129.4848928324
 30
0.0
 11
326.1155406163
 21
130.0971989163
 31
0.0
  0
LINE
  5
4DD
330
1F
100
AcDbEntity
  8
0
  6
Continuous
 62
     8
370
    18
100
AcDbLine
 10
370.228756985
 20
122.076894624
 30
0.0
 11
370.9358637662
 21
122.4850986799
 31
0.0
  0
LINE
  5
4DE
330
1F
100
AcDbEntity
  8
0
  6
Continuous
 62
     8
370
    18
100
AcDbLine
 10
371.6429705474
 20
121.2603538121
 30
0.0
 11
370.9358637662
 21
120.8521497562
 31
0.0
  0
LINE
  5
4DF
330
1F
100
AcDbEntity
  8
0
  6
Continuous
 62
     8
370
    18
100
AcDbLine
 10
323.5597094267
 20
149.834770426
 30
0.0
 11
322.8526026455
 21
149.4265663701
 31
0.0
  0
ENDSEC
  0
SECTION
  2
OBJECTS
  0
DICTIONARY
  5
C
330
0
100
AcDbDictionary
281
     1
  3
ACAD_GROUP
350
D
  3
ACAD_LAYOUT
350
1A
  3
ACAD_MLINESTYLE
350
17
  3
ACAD_PLOTSETTINGS
350
19
  3
ACAD_PLOTSTYLENAME
350
E
  3
ACAD_SCALELIST
350
47
  3
DWGPROPS
350
4E0
  0
DICTIONARY
  5
D
102
{ACAD_REACTORS
330
C
102
}
330
C
100
AcDbDictionary
281
     1
  0
DICTIONARY
  5
1A
102
{ACAD_REACTORS
330
C
102
}
330
C
100
AcDbDictionary
281
     1
  3
Layout1
350
1E
  3
Layout2
350
26
  3
Model
350
22
  0
DICTIONARY
  5
17
102
{ACAD_REACTORS
330
C
102
}
330
C
100
AcDbDictionary
281
     1
  3
Standard
350
18
  0
DICTIONARY
  5
19
102
{ACAD_REACTORS
330
C
102
}
330
C
100
AcDbDictionary
281
     1
  0
ACDBDICTIONARYWDFLT
  5
E
102
{ACAD_REACTORS
330
C
102
}
330
C
100
AcDbDictionary
281
     1
  3
Normal
350
F
100
AcDbDictionaryWithDefault
340
F
  0
DICTIONARY
  5
47
102
{ACAD_REACTORS
330
C
102
}
330
C
100
AcDbDictionary
281
     1
  3
A0
350
48
  3
A1
350
49
  3
A2
350
4A
  3
A3
350
4B
  3
A4
350
4C
  3
A5
350
4D
  3
A6
350
4E
  3
A7
350
4F
  3
A8
350
50
  3
A9
350
51
  3
B0
350
52
  3
B1
350
53
  3
B2
350
54
  3
B3
350
55
  3
B4
350
56
  3
B5
350
57
  3
B6
350
58
  3
B7
350
59
  3
B8
350
5A
  3
B9
350
5B
  3
C0
350
5C
  3
C1
350
5D
  3
C2
350
5E
  3
C3
350
5F
  3
C4
350
60
  3
C5
350
61
  3
C6
350
62
  3
C7
350
63
  3
C8
350
64
  3
C9
350
65
  3
D0
350
66
  3
D1
350
67
  3
D2
350
68
  0
XRECORD
  5
4E0
102
{ACAD_REACTORS
330
C
102
}
330
C
100
AcDbXrecord
280
     1
  1
DWGPROPS COOKIE
  2

  3

  4

  6

  7

  8
ch-ntl-rs-wscad
  9

300
=
301
=
302
=
303
=
304
=
305
=
306
=
307
=
308
=
309
=
 40
0.0
 41
2460565.073151933
 42
2460565.07315662
  1

 90
        0
  0
LAYOUT
  5
1E
102
{ACAD_REACTORS
330
1A
102
}
330
1A
100
AcDbPlotSettings
  1

  2
none_device
  4

  6

 40
0.0
 41
0.0
 42
0.0
 43
0.0
 44
0.0
 45
0.0
 46
0.0
 47
0.0
 48
0.0
 49
0.0
140
0.0
141
0.0
142
1.0
143
1.0
 70
   688
 72
     1
 73
     0
 74
     5
  7

 75
    16
147
1.0
148
0.0
149
0.0
100
AcDbLayout
  1
Layout1
 70
     1
 71
     1
 10
0.0
 20
0.0
 11
420.0
 21
297.0
 12
0.0
 22
0.0
 32
0.0
 14
1.0000000000E+20
 24
1.0000000000E+20
 34
1.0000000000E+20
 15
-1.0000000000E+20
 25
-1.0000000000E+20
 35
-1.0000000000E+20
146
0.0
 13
0.0
 23
0.0
 33
0.0
 16
1.0
 26
0.0
 36
0.0
 17
0.0
 27
1.0
 37
0.0
 76
     0
330
1B
  0
LAYOUT
  5
26
102
{ACAD_REACTORS
330
1A
102
}
330
1A
100
AcDbPlotSettings
  1

  2
none_device
  4

  6

 40
0.0
 41
0.0
 42
0.0
 43
0.0
 44
0.0
 45
0.0
 46
0.0
 47
0.0
 48
0.0
 49
0.0
140
0.0
141
0.0
142
1.0
143
1.0
 70
   688
 72
     1
 73
     0
 74
     5
  7

 75
    16
147
1.0
148
0.0
149
0.0
100
AcDbLayout
  1
Layout2
 70
     1
 71
     2
 10
0.0
 20
0.0
 11
0.0
 21
0.0
 12
0.0
 22
0.0
 32
0.0
 14
0.0
 24
0.0
 34
0.0
 15
0.0
 25
0.0
 35
0.0
146
0.0
 13
0.0
 23
0.0
 33
0.0
 16
1.0
 26
0.0
 36
0.0
 17
0.0
 27
1.0
 37
0.0
 76
     0
330
23
  0
LAYOUT
  5
22
102
{ACAD_REACTORS
330
1A
102
}
330
1A
100
AcDbPlotSettings
  1

  2
none_device
  4
Letter_(8.50_x_11.00_Inches)
  6

 40
6.35
 41
6.35
 42
6.35000508
 43
6.35000508
 44
215.9
 45
279.4
 46
0.0
 47
0.0
 48
0.0
 49
0.0
140
0.0
141
0.0
142
1.0
143
1.0
 70
  1712
 72
     1
 73
     0
 74
     0
  7

 75
     0
147
1.0
148
0.0
149
0.0
100
AcDbLayout
  1
Model
 70
     1
 71
     0
 10
0.0
 20
0.0
 11
420.0
 21
297.0
 12
0.0
 22
0.0
 32
0.0
 14
0.0
 24
0.0
 34
0.0
 15
420.0
 25
297.0
 35
0.0
146
0.0
 13
0.0
 23
0.0
 33
0.0
 16
1.0
 26
0.0
 36
0.0
 17
0.0
 27
1.0
 37
0.0
 76
     0
330
1F
331
29
  0
MLINESTYLE
  5
18
102
{ACAD_REACTORS
330
17
102
}
330
17
100
AcDbMlineStyle
  2
Standard
 70
     0
  3

 62
   256
 51
90.0
 52
90.0
 71
     2
 49
0.5
 62
   256
  6
BYLAYER
 49
-0.5
 62
   256
  6
BYLAYER
  0
ACDBPLACEHOLDER
  5
F
102
{ACAD_REACTORS
330
E
102
}
330
E
  0
SCALE
  5
48
102
{ACAD_REACTORS
330
47
102
}
330
47
100
AcDbScale
 70
     0
300
1:1
140
1.0
141
1.0
290
     1
  0
SCALE
  5
49
102
{ACAD_REACTORS
330
47
102
}
330
47
100
AcDbScale
 70
     0
300
1:2
140
1.0
141
2.0
290
     0
  0
SCALE
  5
4A
102
{ACAD_REACTORS
330
47
102
}
330
47
100
AcDbScale
 70
     0
300
1:4
140
1.0
141
4.0
290
     0
  0
SCALE
  5
4B
102
{ACAD_REACTORS
330
47
102
}
330
47
100
AcDbScale
 70
     0
300
1:5
140
1.0
141
5.0
290
     0
  0
SCALE
  5
4C
102
{ACAD_REACTORS
330
47
102
}
330
47
100
AcDbScale
 70
     0
300
1:8
140
1.0
141
8.0
290
     0
  0
SCALE
  5
4D
102
{ACAD_REACTORS
330
47
102
}
330
47
100
AcDbScale
 70
     0
300
1:10
140
1.0
141
10.0
290
     0
  0
SCALE
  5
4E
102
{ACAD_REACTORS
330
47
102
}
330
47
100
AcDbScale
 70
     0
300
1:16
140
1.0
141
16.0
290
     0
  0
SCALE
  5
4F
102
{ACAD_REACTORS
330
47
102
}
330
47
100
AcDbScale
 70
     0
300
1:20
140
1.0
141
20.0
290
     0
  0
SCALE
  5
50
102
{ACAD_REACTORS
330
47
102
}
330
47
100
AcDbScale
 70
     0
300
1:30
140
1.0
141
30.0
290
     0
  0
SCALE
  5
51
102
{ACAD_REACTORS
330
47
102
}
330
47
100
AcDbScale
 70
     0
300
1:40
140
1.0
141
40.0
290
     0
  0
SCALE
  5
52
102
{ACAD_REACTORS
330
47
102
}
330
47
100
AcDbScale
 70
     0
300
1:50
140
1.0
141
50.0
290
     0
  0
SCALE
  5
53
102
{ACAD_REACTORS
330
47
102
}
330
47
100
AcDbScale
 70
     0
300
1:100
140
1.0
141
100.0
290
     0
  0
SCALE
  5
54
102
{ACAD_REACTORS
330
47
102
}
330
47
100
AcDbScale
 70
     0
300
2:1
140
2.0
141
1.0
290
     0
  0
SCALE
  5
55
102
{ACAD_REACTORS
330
47
102
}
330
47
100
AcDbScale
 70
     0
300
4:1
140
4.0
141
1.0
290
     0
  0
SCALE
  5
56
102
{ACAD_REACTORS
330
47
102
}
330
47
100
AcDbScale
 70
     0
300
8:1
140
8.0
141
1.0
290
     0
  0
SCALE
  5
57
102
{ACAD_REACTORS
330
47
102
}
330
47
100
AcDbScale
 70
     0
300
10:1
140
10.0
141
1.0
290
     0
  0
SCALE
  5
58
102
{ACAD_REACTORS
330
47
102
}
330
47
100
AcDbScale
 70
     0
300
100:1
140
100.0
141
1.0
290
     0
  0
SCALE
  5
59
102
{ACAD_REACTORS
330
47
102
}
330
47
100
AcDbScale
 70
     0
300
1/128" = 1'-0"
140
0.0078125
141
12.0
290
     0
  0
SCALE
  5
5A
102
{ACAD_REACTORS
330
47
102
}
330
47
100
AcDbScale
 70
     0
300
1/64" = 1'-0"
140
0.015625
141
12.0
290
     0
  0
SCALE
  5
5B
102
{ACAD_REACTORS
330
47
102
}
330
47
100
AcDbScale
 70
     0
300
1/32" = 1'-0"
140
0.03125
141
12.0
290
     0
  0
SCALE
  5
5C
102
{ACAD_REACTORS
330
47
102
}
330
47
100
AcDbScale
 70
     0
300
1/16" = 1'-0"
140
0.0625
141
12.0
290
     0
  0
SCALE
  5
5D
102
{ACAD_REACTORS
330
47
102
}
330
47
100
AcDbScale
 70
     0
300
3/32" = 1'-0"
140
0.09375
141
12.0
290
     0
  0
SCALE
  5
5E
102
{ACAD_REACTORS
330
47
102
}
330
47
100
AcDbScale
 70
     0
300
1/8" = 1'-0"
140
0.125
141
12.0
290
     0
  0
SCALE
  5
5F
102
{ACAD_REACTORS
330
47
102
}
330
47
100
AcDbScale
 70
     0
300
3/16" = 1'-0"
140
0.1875
141
12.0
290
     0
  0
SCALE
  5
60
102
{ACAD_REACTORS
330
47
102
}
330
47
100
AcDbScale
 70
     0
300
1/4" = 1'-0"
140
0.25
141
12.0
290
     0
  0
SCALE
  5
61
102
{ACAD_REACTORS
330
47
102
}
330
47
100
AcDbScale
 70
     0
300
3/8" = 1'-0"
140
0.375
141
12.0
290
     0
  0
SCALE
  5
62
102
{ACAD_REACTORS
330
47
102
}
330
47
100
AcDbScale
 70
     0
300
1/2" = 1'-0"
140
0.5
141
12.0
290
     0
  0
SCALE
  5
63
102
{ACAD_REACTORS
330
47
102
}
330
47
100
AcDbScale
 70
     0
300
3/4" = 1'-0"
140
0.75
141
12.0
290
     0
  0
SCALE
  5
64
102
{ACAD_REACTORS
330
47
102
}
330
47
100
AcDbScale
 70
     0
300
1" = 1'-0"
140
1.0
141
12.0
290
     0
  0
SCALE
  5
65
102
{ACAD_REACTORS
330
47
102
}
330
47
100
AcDbScale
 70
     0
300
1-1/2" = 1'-0"
140
1.5
141
12.0
290
     0
  0
SCALE
  5
66
102
{ACAD_REACTORS
330
47
102
}
330
47
100
AcDbScale
 70
     0
300
3" = 1'-0"
140
3.0
141
12.0
290
     0
  0
SCALE
  5
67
102
{ACAD_REACTORS
330
47
102
}
330
47
100
AcDbScale
 70
     0
300
6" = 1'-0"
140
6.0
141
12.0
290
     0
  0
SCALE
  5
68
102
{ACAD_REACTORS
330
47
102
}
330
47
100
AcDbScale
 70
     0
300
1'-0" = 1'-0"
140
12.0
141
12.0
290
     0
  0
ENDSEC
  0
EOF
