  0
SECTION
  2
HEADER
  9
$ACADVER
  1
AC1015
  9
$ACADMAINTVER
 70
     6
  9
$DWGCODEPAGE
  3
ANSI_1252
  9
$INSBASE
 10
0.0
 20
0.0
 30
0.0
  9
$EXTMIN
 10
0.0
 20
0.0
 30
0.0
  9
$EXTMAX
 10
420.0
 20
297.0
 30
0.0
  9
$LIMMIN
 10
0.0
 20
0.0
  9
$LIMMAX
 10
420.0
 20
297.0
  9
$ORTHOMODE
 70
     0
  9
$REGENMODE
 70
     1
  9
$FILLMODE
 70
     1
  9
$QTEXTMODE
 70
     0
  9
$MIRRTEXT
 70
     1
  9
$LTSCALE
 40
1.0
  9
$ATTMODE
 70
     1
  9
$TEXTSIZE
 40
3.5
  9
$TRACEWID
 40
1.0
  9
$TEXTSTYLE
  7
Standard
  9
$CLAYER
  8
0
  9
$CELTYPE
  6
ByLayer
  9
$CECOLOR
 62
   256
  9
$CELTSCALE
 40
1.0
  9
$DISPSILH
 70
     0
  9
$DIMSCALE
 40
1.0
  9
$DIMASZ
 40
3.5
  9
$DIMEXO
 40
0.1
  9
$DIMDLI
 40
3.75
  9
$DIMRND
 40
0.0
  9
$DIMDLE
 40
0.0
  9
$DIMEXE
 40
1.0
  9
$DIMTP
 40
0.0
  9
$DIMTM
 40
0.0
  9
$DIMTXT
 40
3.5
  9
$DIMCEN
 40
2.5
  9
$DIMTSZ
 40
0.0
  9
$DIMTOL
 70
     0
  9
$DIMLIM
 70
     0
  9
$DIMTIH
 70
     1
  9
$DIMTOH
 70
     1
  9
$DIMSE1
 70
     0
  9
$DIMSE2
 70
     0
  9
$DIMTAD
 70
     1
  9
$DIMZIN
 70
     0
  9
$DIMBLK
  1

  9
$DIMASO
 70
     1
  9
$DIMSHO
 70
     1
  9
$DIMPOST
  1

  9
$DIMAPOST
  1

  9
$DIMALT
 70
     0
  9
$DIMALTD
 70
     3
  9
$DIMALTF
 40
0.0393700787
  9
$DIMLFAC
 40
1.0
  9
$DIMTOFL
 70
     1
  9
$DIMTVP
 40
0.0
  9
$DIMTIX
 70
     0
  9
$DIMSOXD
 70
     0
  9
$DIMSAH
 70
     0
  9
$DIMBLK1
  1

  9
$DIMBLK2
  1

  9
$DIMSTYLE
  2
ISO-25
  9
$DIMCLRD
 70
     0
  9
$DIMCLRE
 70
     0
  9
$DIMCLRT
 70
     0
  9
$DIMTFAC
 40
1.0
  9
$DIMGAP
 40
2.0
  9
$DIMJUST
 70
     0
  9
$DIMSD1
 70
     0
  9
$DIMSD2
 70
     0
  9
$DIMTOLJ
 70
     0
  9
$DIMTZIN
 70
     0
  9
$DIMALTZ
 70
     0
  9
$DIMALTTZ
 70
     0
  9
$DIMUPT
 70
     0
  9
$DIMDEC
 70
     2
  9
$DIMTDEC
 70
     3
  9
$DIMALTU
 70
     2
  9
$DIMALTTD
 70
     3
  9
$DIMTXSTY
  7
Standard
  9
$DIMAUNIT
 70
     0
  9
$DIMADEC
 70
     2
  9
$DIMALTRND
 40
0.0
  9
$DIMAZIN
 70
     0
  9
$DIMDSEP
 70
    44
  9
$DIMATFIT
 70
     3
  9
$DIMFRAC
 70
     0
  9
$DIMLDRBLK
  1

  9
$DIMLUNIT
 70
     2
  9
$DIMLWD
 70
    -2
  9
$DIMLWE
 70
    -2
  9
$DIMTMOVE
 70
     0
  9
$LUNITS
 70
     2
  9
$LUPREC
 70
     2
  9
$SKETCHINC
 40
1.0
  9
$FILLETRAD
 40
10.0
  9
$AUNITS
 70
     0
  9
$AUPREC
 70
     2
  9
$MENU
  1
.
  9
$ELEVATION
 40
0.0
  9
$PELEVATION
 40
0.0
  9
$THICKNESS
 40
0.0
  9
$LIMCHECK
 70
     0
  9
$CHAMFERA
 40
0.0
  9
$CHAMFERB
 40
0.0
  9
$CHAMFERC
 40
0.0
  9
$CHAMFERD
 40
0.0
  9
$SKPOLY
 70
     0
  9
$TDCREATE
 40
2460565.156131146
  9
$TDUCREATE
 40
2460565.072797813
  9
$TDUPDATE
 40
2460565.15613713
  9
$TDUUPDATE
 40
2460565.072803796
  9
$TDINDWG
 40
0.0000000116
  9
$TDUSRTIMER
 40
0.0000000116
  9
$USRTIMER
 70
     1
  9
$ANGBASE
 50
0.0
  9
$ANGDIR
 70
     0
  9
$PDMODE
 70
     0
  9
$PDSIZE
 40
-1.0
  9
$PLINEWID
 40
0.0
  9
$SPLFRAME
 70
     0
  9
$SPLINETYPE
 70
     6
  9
$SPLINESEGS
 70
     8
  9
$HANDSEED
  5
509
  9
$SURFTAB1
 70
     6
  9
$SURFTAB2
 70
     6
  9
$SURFTYPE
 70
     6
  9
$SURFU
 70
     6
  9
$SURFV
 70
     6
  9
$UCSBASE
  2

  9
$UCSNAME
  2

  9
$UCSORG
 10
0.0
 20
0.0
 30
0.0
  9
$UCSXDIR
 10
1.0
 20
0.0
 30
0.0
  9
$UCSYDIR
 10
0.0
 20
1.0
 30
0.0
  9
$UCSORTHOREF
  2

  9
$UCSORTHOVIEW
 70
     0
  9
$UCSORGTOP
 10
0.0
 20
0.0
 30
0.0
  9
$UCSORGBOTTOM
 10
0.0
 20
0.0
 30
0.0
  9
$UCSORGLEFT
 10
0.0
 20
0.0
 30
0.0
  9
$UCSORGRIGHT
 10
0.0
 20
0.0
 30
0.0
  9
$UCSORGFRONT
 10
0.0
 20
0.0
 30
0.0
  9
$UCSORGBACK
 10
0.0
 20
0.0
 30
0.0
  9
$PUCSBASE
  2

  9
$PUCSNAME
  2

  9
$PUCSORG
 10
0.0
 20
0.0
 30
0.0
  9
$PUCSXDIR
 10
1.0
 20
0.0
 30
0.0
  9
$PUCSYDIR
 10
0.0
 20
1.0
 30
0.0
  9
$PUCSORTHOREF
  2

  9
$PUCSORTHOVIEW
 70
     0
  9
$PUCSORGTOP
 10
0.0
 20
0.0
 30
0.0
  9
$PUCSORGBOTTOM
 10
0.0
 20
0.0
 30
0.0
  9
$PUCSORGLEFT
 10
0.0
 20
0.0
 30
0.0
  9
$PUCSORGRIGHT
 10
0.0
 20
0.0
 30
0.0
  9
$PUCSORGFRONT
 10
0.0
 20
0.0
 30
0.0
  9
$PUCSORGBACK
 10
0.0
 20
0.0
 30
0.0
  9
$USERI1
 70
     0
  9
$USERI2
 70
     0
  9
$USERI3
 70
     0
  9
$USERI4
 70
     0
  9
$USERI5
 70
     0
  9
$USERR1
 40
0.0
  9
$USERR2
 40
0.0
  9
$USERR3
 40
0.0
  9
$USERR4
 40
0.0
  9
$USERR5
 40
0.0
  9
$WORLDVIEW
 70
     1
  9
$SHADEDGE
 70
     3
  9
$SHADEDIF
 70
    70
  9
$TILEMODE
 70
     1
  9
$MAXACTVP
 70
    64
  9
$PINSBASE
 10
0.0
 20
0.0
 30
0.0
  9
$PLIMCHECK
 70
     0
  9
$PEXTMIN
 10
1.0000000000E+20
 20
1.0000000000E+20
 30
1.0000000000E+20
  9
$PEXTMAX
 10
-1.0000000000E+20
 20
-1.0000000000E+20
 30
-1.0000000000E+20
  9
$PLIMMIN
 10
0.0
 20
0.0
  9
$PLIMMAX
 10
420.0
 20
297.0
  9
$UNITMODE
 70
     0
  9
$VISRETAIN
 70
     1
  9
$PLINEGEN
 70
     0
  9
$PSLTSCALE
 70
     1
  9
$TREEDEPTH
 70
  3020
  9
$CMLSTYLE
  2
Standard
  9
$CMLJUST
 70
     0
  9
$CMLSCALE
 40
20.0
  9
$PROXYGRAPHICS
 70
     1
  9
$MEASUREMENT
 70
     1
  9
$CELWEIGHT
370
    -1
  9
$ENDCAPS
280
     0
  9
$JOINSTYLE
280
     0
  9
$LWDISPLAY
290
     1
  9
$INSUNITS
 70
     4
  9
$HYPERLINKBASE
  1

  9
$STYLESHEET
  1

  9
$XEDIT
290
     1
  9
$CEPSNTYPE
380
     0
  9
$PSTYLEMODE
290
     1
  9
$FINGERPRINTGUID
  2
{94f18feb-2271-4818-9563-ed4c77419e2d}
  9
$VERSIONGUID
  2
{FAEB1C32-E019-11D5-929B-00C0DF256EC4}
  9
$EXTNAMES
290
     1
  9
$PSVPSCALE
 40
0.0
  9
$OLESTARTUP
290
     0
  0
ENDSEC
  0
SECTION
  2
CLASSES
  0
CLASS
  1
ACDBDICTIONARYWDFLT
  2
AcDbDictionaryWithDefault
  3
ObjectDBX Classes
 90
        0
280
     0
281
     0
  0
CLASS
  1
VISUALSTYLE
  2
AcDbVisualStyle
  3
ObjectDBX Classes
 90
     4095
280
     0
281
     0
  0
CLASS
  1
MATERIAL
  2
AcDbMaterial
  3
ObjectDBX Classes
 90
     1153
280
     0
281
     0
  0
CLASS
  1
SCALE
  2
AcDbScale
  3
ObjectDBX Classes
 90
     1153
280
     0
281
     0
  0
CLASS
  1
TABLESTYLE
  2
AcDbTableStyle
  3
ObjectDBX Classes
 90
     4095
280
     0
281
     0
  0
CLASS
  1
MLEADERSTYLE
  2
AcDbMLeaderStyle
  3
ACDB_MLEADERSTYLE_CLASS
 90
     4095
280
     0
281
     0
  0
CLASS
  1
SUN
  2
AcDbSun
  3
SCENEOE
 90
     1153
280
     0
281
     0
  0
CLASS
  1
ACDBPLACEHOLDER
  2
AcDbPlaceHolder
  3
ObjectDBX Classes
 90
        0
280
     0
281
     0
  0
CLASS
  1
LAYOUT
  2
AcDbLayout
  3
ObjectDBX Classes
 90
        0
280
     0
281
     0
  0
ENDSEC
  0
SECTION
  2
TABLES
  0
TABLE
  2
VPORT
  5
8
330
0
100
AcDbSymbolTable
 70
     1
  0
VPORT
  5
29
330
8
100
AcDbSymbolTableRecord
100
AcDbViewportTableRecord
  2
*Active
 70
     0
 10
0.0
 20
0.0
 11
1.0
 21
1.0
 12
210.0
 22
148.5
 13
0.0
 23
0.0
 14
10.0
 24
10.0
 15
10.0
 25
10.0
 16
0.0
 26
0.0
 36
1.0
 17
0.0
 27
0.0
 37
0.0
 40
297.0
 41
1.4141414141
 42
50.0
 43
0.0
 44
0.0
 50
0.0
 51
0.0
 71
     0
 72
  2000
 73
     1
 74
     3
 75
     0
 76
     0
 77
     0
 78
     0
281
     0
 65
     1
110
0.0
120
0.0
130
0.0
111
1.0
121
0.0
131
0.0
112
0.0
122
1.0
132
0.0
 79
     0
146
0.0
  0
ENDTAB
  0
TABLE
  2
LTYPE
  5
5
330
0
100
AcDbSymbolTable
 70
     6
  0
LTYPE
  5
14
330
5
100
AcDbSymbolTableRecord
100
AcDbLinetypeTableRecord
  2
ByBlock
 70
     0
  3

 72
    65
 73
     0
 40
0.0
  0
LTYPE
  5
15
330
5
100
AcDbSymbolTableRecord
100
AcDbLinetypeTableRecord
  2
ByLayer
 70
     0
  3

 72
    65
 73
     0
 40
0.0
  0
LTYPE
  5
16
330
5
100
AcDbSymbolTableRecord
100
AcDbLinetypeTableRecord
  2
Continuous
 70
     0
  3
Solid line
 72
    65
 73
     0
 40
0.0
  0
LTYPE
  5
6E
330
5
100
AcDbSymbolTableRecord
100
AcDbLinetypeTableRecord
  2
HIDDEN
 70
     0
  3
Hidden __ __ __ __ __ __ __ __ __ __ __ __ __ __
 72
    65
 73
     2
 40
1.905
 49
1.27
 74
     0
 49
-0.635
 74
     0
  0
LTYPE
  5
6F
330
5
100
AcDbSymbolTableRecord
100
AcDbLinetypeTableRecord
  2
PHANTOM
 70
     0
  3
Phantom ______  __  __  ______  __  __  ______
 72
    65
 73
     6
 40
12.7
 49
6.35
 74
     0
 49
-1.27
 74
     0
 49
1.27
 74
     0
 49
-1.27
 74
     0
 49
1.27
 74
     0
 49
-1.27
 74
     0
  0
LTYPE
  5
70
330
5
100
AcDbSymbolTableRecord
100
AcDbLinetypeTableRecord
  2
CENTER
 70
     0
  3
Center ____ _ ____ _ ____ _ ____ _ ____ _ ____
 72
    65
 73
     4
 40
10.16
 49
6.35
 74
     0
 49
-1.27
 74
     0
 49
1.27
 74
     0
 49
-1.27
 74
     0
  0
LTYPE
  5
71
330
5
100
AcDbSymbolTableRecord
100
AcDbLinetypeTableRecord
  2
CENTERX2
 70
     0
  3
Center (2x) ________  __  ________  __  _____
 72
    65
 73
     4
 40
20.32
 49
12.7
 74
     0
 49
-2.54
 74
     0
 49
2.54
 74
     0
 49
-2.54
 74
     0
  0
LTYPE
  5
72
330
5
100
AcDbSymbolTableRecord
100
AcDbLinetypeTableRecord
  2
DOT2
 70
     0
  3
Dot (.5x) ........................................
 72
    65
 73
     2
 40
0.635
 49
0.0
 74
     0
 49
-0.635
 74
     0
  0
ENDTAB
  0
TABLE
  2
LAYER
  5
2
330
0
100
AcDbSymbolTable
 70
     1
  0
LAYER
  5
10
330
2
100
AcDbSymbolTableRecord
100
AcDbLayerTableRecord
  2
0
 70
     0
 62
     7
  6
Continuous
370
    -3
390
F
  0
ENDTAB
  0
TABLE
  2
STYLE
  5
3
330
0
100
AcDbSymbolTable
 70
     3
  0
STYLE
  5
11
330
3
100
AcDbSymbolTableRecord
100
AcDbTextStyleTableRecord
  2
Standard
 70
     0
 40
0.0
 41
1.0
 50
0.0
 71
     0
 42
3.5
  3
txt
  4

  0
STYLE
  5
E9
330
3
100
AcDbSymbolTableRecord
100
AcDbTextStyleTableRecord
  2
SLDTEXTSTYLE0
 70
     0
 40
0.0
 41
0.605
 50
0.0
 71
     0
 42
3.5
  3
TXT
  4

  0
STYLE
  5
195
330
3
100
AcDbSymbolTableRecord
100
AcDbTextStyleTableRecord
  2
SLDTEXTSTYLE1
 70
     0
 40
0.0
 41
0.563
 50
0.0
 71
     0
 42
3.5
  3
TXT
  4

  0
ENDTAB
  0
TABLE
  2
VIEW
  5
6
330
0
100
AcDbSymbolTable
 70
     0
  0
ENDTAB
  0
TABLE
  2
UCS
  5
7
330
0
100
AcDbSymbolTable
 70
     0
  0
ENDTAB
  0
TABLE
  2
APPID
  5
9
330
0
100
AcDbSymbolTable
 70
     1
  0
APPID
  5
12
330
9
100
AcDbSymbolTableRecord
100
AcDbRegAppTableRecord
  2
ACAD
 70
     0
  0
ENDTAB
  0
TABLE
  2
DIMSTYLE
  5
A
330
0
100
AcDbSymbolTable
 70
     2
100
AcDbDimStyleTable
  0
DIMSTYLE
105
27
330
A
100
AcDbSymbolTableRecord
100
AcDbDimStyleTableRecord
  2
ISO-25
 70
     0
 41
2.5
 42
0.625
 43
3.75
 44
1.25
 73
     0
 74
     0
 77
     1
 78
     8
140
2.5
141
2.5
143
0.0393700787
147
0.625
171
     3
172
     1
178
     0
271
     2
272
     2
274
     3
278
    44
283
     0
284
     8
340
11
  0
DIMSTYLE
105
1FF
102
{ACAD_REACTORS
330
1FE
330
209
330
27F
330
385
330
38F
330
399
330
3A3
102
}
330
A
100
AcDbSymbolTableRecord
100
AcDbDimStyleTableRecord
  2
SLDDIMSTYLE0
 70
     0
 41
3.5
 44
0.0
 45
0.000000001
 73
     0
 74
     0
 77
     1
 78
    12
 79
     3
140
3.5
147
0.875
173
     1
178
     0
271
     2
272
     3
276
     2
284
    12
340
E9
  0
ENDTAB
  0
TABLE
  2
BLOCK_RECORD
  5
1
330
0
100
AcDbSymbolTable
 70
    17
  0
BLOCK_RECORD
  5
1F
330
1
100
AcDbSymbolTableRecord
100
AcDbBlockTableRecord
  2
*Model_Space
340
22
  0
BLOCK_RECORD
  5
1B
330
1
100
AcDbSymbolTableRecord
100
AcDbBlockTableRecord
  2
*Paper_Space
340
1E
  0
BLOCK_RECORD
  5
23
330
1
100
AcDbSymbolTableRecord
100
AcDbBlockTableRecord
  2
*Paper_Space0
340
26
  0
BLOCK_RECORD
  5
73
330
1
100
AcDbSymbolTableRecord
100
AcDbBlockTableRecord
  2
ACO-Logo
340
0
102
{BLKREFS
331
149
102
}
  0
BLOCK_RECORD
  5
E6
330
1
100
AcDbSymbolTableRecord
100
AcDbBlockTableRecord
  2
SW_NOTE_0
340
0
102
{BLKREFS
331
EB
102
}
  0
BLOCK_RECORD
  5
EC
330
1
100
AcDbSymbolTableRecord
100
AcDbBlockTableRecord
  2
SW_NOTE_0_1
340
0
102
{BLKREFS
331
F0
102
}
  0
BLOCK_RECORD
  5
F1
330
1
100
AcDbSymbolTableRecord
100
AcDbBlockTableRecord
  2
SW_NOTE_0_2
340
0
102
{BLKREFS
331
F8
102
}
  0
BLOCK_RECORD
  5
170
330
1
100
AcDbSymbolTableRecord
100
AcDbBlockTableRecord
  2
SW_NOTE_0_3
340
0
102
{BLKREFS
331
178
102
}
  0
BLOCK_RECORD
  5
200
330
1
100
AcDbSymbolTableRecord
100
AcDbBlockTableRecord
  2
_D
340
0
  0
BLOCK_RECORD
  5
20A
330
1
100
AcDbSymbolTableRecord
100
AcDbBlockTableRecord
  2
_D_1
340
0
  0
BLOCK_RECORD
  5
280
330
1
100
AcDbSymbolTableRecord
100
AcDbBlockTableRecord
  2
_D_2
340
0
  0
BLOCK_RECORD
  5
386
330
1
100
AcDbSymbolTableRecord
100
AcDbBlockTableRecord
  2
_D_3
340
0
  0
BLOCK_RECORD
  5
390
330
1
100
AcDbSymbolTableRecord
100
AcDbBlockTableRecord
  2
_D_4
340
0
  0
BLOCK_RECORD
  5
39A
330
1
100
AcDbSymbolTableRecord
100
AcDbBlockTableRecord
  2
_D_5
340
0
  0
BLOCK_RECORD
  5
3A4
330
1
100
AcDbSymbolTableRecord
100
AcDbBlockTableRecord
  2
_D_6
340
0
  0
BLOCK_RECORD
  5
3AD
330
1
100
AcDbSymbolTableRecord
100
AcDbBlockTableRecord
  2
SW_CENTERMARKSYMBOL_0
340
0
102
{BLKREFS
331
3C0
102
}
  0
BLOCK_RECORD
  5
3C1
330
1
100
AcDbSymbolTableRecord
100
AcDbBlockTableRecord
  2
SW_CENTERMARKSYMBOL_1
340
0
102
{BLKREFS
331
3D4
102
}
  0
BLOCK_RECORD
  5
3D5
330
1
100
AcDbSymbolTableRecord
100
AcDbBlockTableRecord
  2
SW_CENTERMARKSYMBOL_2
340
0
102
{BLKREFS
331
3E8
102
}
  0
BLOCK_RECORD
  5
3E9
330
1
100
AcDbSymbolTableRecord
100
AcDbBlockTableRecord
  2
SW_CENTERMARKSYMBOL_3
340
0
102
{BLKREFS
331
3FC
102
}
  0
ENDTAB
  0
ENDSEC
  0
SECTION
  2
BLOCKS
  0
BLOCK
  5
20
330
1F
100
AcDbEntity
  8
0
100
AcDbBlockBegin
  2
*Model_Space
 70
     0
 10
0.0
 20
0.0
 30
0.0
  3
*Model_Space
  1

  0
ENDBLK
  5
21
330
1F
100
AcDbEntity
  8
0
100
AcDbBlockEnd
  0
BLOCK
  5
1C
330
1B
100
AcDbEntity
 67
     1
  8
0
100
AcDbBlockBegin
  2
*Paper_Space
 70
     0
 10
0.0
 20
0.0
 30
0.0
  3
*Paper_Space
  1

  0
ENDBLK
  5
1D
330
1B
100
AcDbEntity
 67
     1
  8
0
100
AcDbBlockEnd
  0
BLOCK
  5
24
330
23
100
AcDbEntity
  8
0
100
AcDbBlockBegin
  2
*Paper_Space0
 70
     0
 10
0.0
 20
0.0
 30
0.0
  3
*Paper_Space0
  1

  0
ENDBLK
  5
25
330
23
100
AcDbEntity
  8
0
100
AcDbBlockEnd
  0
BLOCK
  5
74
330
73
100
AcDbEntity
  8
0
100
AcDbBlockBegin
  2
ACO-Logo
 70
     0
 10
0.0
 20
0.0
 30
0.0
  3
ACO-Logo
  1

  0
ARC
  5
76
330
73
100
AcDbEntity
  8
0
  6
Continuous
 62
   179
370
    18
100
AcDbCircle
 10
80.3853261169
 20
4.9940995715
 30
0.0
 40
0.3000000000000441
100
AcDbArc
 50
181.9349323096
 51
274.6062978506
  0
ARC
  5
77
330
73
100
AcDbEntity
  8
0
  6
Continuous
 62
   179
370
    18
100
AcDbCircle
 10
81.2359083165
 20
2.1946665956
 30
0.0
 40
1.000000000000021
100
AcDbArc
 50
221.4087409628
 51
276.0561297228
  0
ARC
  5
78
330
73
100
AcDbEntity
  8
0
  6
Continuous
 62
   179
370
    18
100
AcDbCircle
 10
79.1360017163
 20
3.654242048
 30
0.0
 40
0.300000000000004
100
AcDbArc
 50
181.2730300201
 51
274.4996077095
  0
ARC
  5
79
330
73
100
AcDbEntity
  8
0
  6
Continuous
 62
   179
370
    18
100
AcDbCircle
 10
78.7699033484
 20
3.2873137407
 30
0.0
 40
0.4000000000000358
100
AcDbArc
 50
221.0090869016
 51
274.5606296317
  0
ARC
  5
7A
330
73
100
AcDbEntity
  8
0
  6
Continuous
 62
   179
370
    18
100
AcDbCircle
 10
91.2333953062
 20
4.6062442307
 30
0.0
 40
0.3000000000000493
100
AcDbArc
 50
274.4996077095
 51
3.7249371334
  0
ARC
  5
7B
330
73
100
AcDbEntity
  8
0
  6
Continuous
 62
   179
370
    18
100
AcDbCircle
 10
81.5287571045
 20
9.7648973508
 30
0.0
 40
1.00000000000002
100
AcDbArc
 50
93.1134387481
 51
181.9414863909
  0
ARC
  5
7C
330
73
100
AcDbEntity
  8
0
  6
Continuous
 62
   179
370
    18
100
AcDbCircle
 10
81.6051675115
 20
7.5107903456
 30
0.0
 40
1.0
100
AcDbArc
 50
181.9414863909
 51
274.398705355
  0
ARC
  5
7D
330
73
100
AcDbEntity
  8
0
  6
Continuous
 62
   179
370
    18
100
AcDbCircle
 10
80.1506905656
 20
11.9393118923
 30
0.0
 40
0.300000000000045
100
AcDbArc
 50
93.0418421566
 51
181.9349323096
  0
ARC
  5
7E
330
73
100
AcDbEntity
  8
0
  6
Continuous
 62
   179
370
    18
100
AcDbCircle
 10
78.1879722102
 20
12.3499352608
 30
0.0
 40
0.7999999999953393
100
AcDbArc
 50
92.6995697565
 51
148.2554209065
  0
ARC
  5
7F
330
73
100
AcDbEntity
  8
0
  6
Continuous
 62
   179
370
    18
100
AcDbCircle
 10
78.930862229
 20
12.8855189761
 30
0.0
 40
0.3000000000000031
100
AcDbArc
 50
92.6995697565
 51
181.2730300201
  0
ARC
  5
80
330
73
100
AcDbEntity
  8
0
  6
Continuous
 62
   179
370
    18
100
AcDbCircle
 10
82.327743407
 20
9.8083568568
 30
0.0
 40
1.000000000000034
100
AcDbArc
 50
1.9414863909
 51
93.1134387481
  0
ARC
  5
81
330
73
100
AcDbEntity
  8
0
  6
Continuous
 62
   179
370
    18
100
AcDbCircle
 10
81.5287571045
 20
9.7648973508
 30
0.0
 40
0.3625000000000009
100
AcDbArc
 50
93.1134387481
 51
181.9414863909
  0
ARC
  5
82
330
73
100
AcDbEntity
  8
0
  6
Continuous
 62
   179
370
    18
100
AcDbCircle
 10
82.327743407
 20
9.8083568568
 30
0.0
 40
0.3625000000000146
100
AcDbArc
 50
1.9414863909
 51
93.1134387481
  0
ARC
  5
83
330
73
100
AcDbEntity
  8
0
  6
Continuous
 62
   179
370
    18
100
AcDbCircle
 10
82.4035451983
 20
7.5722040138
 30
0.0
 40
1.000000000000008
100
AcDbArc
 50
274.398705355
 51
1.9414863909
  0
ARC
  5
84
330
73
100
AcDbEntity
  8
0
  6
Continuous
 62
   179
370
    18
100
AcDbCircle
 10
82.4035451983
 20
7.5722040138
 30
0.0
 40
0.3625000000000068
100
AcDbArc
 50
274.398705355
 51
1.9414863909
  0
ARC
  5
85
330
73
100
AcDbEntity
  8
0
  6
Continuous
 62
   179
370
    18
100
AcDbCircle
 10
81.6051675115
 20
7.5107903456
 30
0.0
 40
0.3625000000000111
100
AcDbArc
 50
181.9414863909
 51
274.398705355
  0
ARC
  5
86
330
73
100
AcDbEntity
  8
0
  6
Continuous
 62
   179
370
    18
100
AcDbCircle
 10
88.825822761
 20
8.0662148274
 30
0.0
 40
0.9999999999999997
100
AcDbArc
 50
274.398705355
 51
2.6541955134
  0
ARC
  5
87
330
73
100
AcDbEntity
  8
0
  6
Continuous
 62
   179
370
    18
100
AcDbCircle
 10
90.1578295581
 20
5.7814576687
 30
0.0
 40
0.3000000000000043
100
AcDbArc
 50
274.6062978507
 51
2.5147526475
  0
ARC
  5
88
330
73
100
AcDbEntity
  8
0
  6
Continuous
 62
   179
370
    18
100
AcDbCircle
 10
88.825822761
 20
8.0662148274
 30
0.0
 40
0.3625000000000083
100
AcDbArc
 50
274.398705355
 51
2.6541955134
  0
ARC
  5
89
330
73
100
AcDbEntity
  8
0
  6
Continuous
 62
   179
370
    18
100
AcDbCircle
 10
88.728529747
 20
10.16496413
 30
0.0
 40
1.000000000000001
100
AcDbArc
 50
2.6541955134
 51
93.1134387481
  0
ARC
  5
8A
330
73
100
AcDbEntity
  8
0
  6
Continuous
 62
   179
370
    18
100
AcDbCircle
 10
88.728529747
 20
10.16496413
 30
0.0
 40
0.3625000000000085
100
AcDbArc
 50
2.6541955134
 51
93.1134387481
  0
ARC
  5
8B
330
73
100
AcDbEntity
  8
0
  6
Continuous
 62
   179
370
    18
100
AcDbCircle
 10
89.8647121341
 20
12.455515937
 30
0.0
 40
0.2999999999999984
100
AcDbArc
 50
2.5147526475
 51
93.0418421566
  0
ARC
  5
8C
330
73
100
AcDbEntity
  8
0
  6
Continuous
 62
   179
370
    18
100
AcDbCircle
 10
90.6583795404
 20
13.4384863935
 30
0.0
 40
0.2999999999999911
100
AcDbArc
 50
3.7249371334
 51
92.6995697565
  0
CIRCLE
  5
8D
330
73
100
AcDbEntity
  8
0
  6
Continuous
 62
   179
370
    18
100
AcDbCircle
 10
15.7233972286
 20
6.4054930194
 30
0.0
 40
1.579500000000014
  0
CIRCLE
  5
8E
330
73
100
AcDbEntity
  8
0
  6
Continuous
 62
   179
370
    18
100
AcDbCircle
 10
15.7233972286
 20
6.4054930194
 30
0.0
 40
2.281499999999994
  0
ARC
  5
8F
330
73
100
AcDbEntity
  8
0
  6
Continuous
 62
   179
370
    18
100
AcDbCircle
 10
89.7681336026
 20
2.3106616691
 30
0.0
 40
0.098384530246548
100
AcDbArc
 50
332.3802627259
 51
4.9765441602
  0
ARC
  5
90
330
73
100
AcDbEntity
  8
0
  6
Continuous
 62
   179
370
    18
100
AcDbCircle
 10
89.6886560089
 20
2.3522464185
 30
0.0
 40
0.1880839130754018
100
AcDbArc
 50
303.690067526
 51
332.3802627258
  0
ARC
  5
91
330
73
100
AcDbEntity
  8
0
  6
Continuous
 62
   179
370
    18
100
AcDbCircle
 10
89.4849700869
 20
2.6577753016
 30
0.0
 40
0.5552839311631531
100
AcDbArc
 50
287.108652213
 51
303.690067526
  0
ARC
  5
92
330
73
100
AcDbEntity
  8
0
  6
Continuous
 62
   179
370
    18
100
AcDbCircle
 10
88.0513010646
 20
7.3154864882
 30
0.0
 40
5.428648309393203
100
AcDbArc
 50
285.2551187031
 51
287.108652213
  0
ARC
  5
93
330
73
100
AcDbEntity
  8
0
  6
Continuous
 62
   179
370
    18
100
AcDbCircle
 10
89.1317168954
 20
3.3539617753
 30
0.0
 40
1.322436378825653
100
AcDbArc
 50
281.4991866428
 51
285.255118703
  0
ARC
  5
94
330
73
100
AcDbEntity
  8
0
  6
Continuous
 62
   179
370
    18
100
AcDbCircle
 10
89.3198255509
 20
2.4293110075
 30
0.0
 40
0.3788454141584939
100
AcDbArc
 50
279.1917900003
 51
281.499186643
  0
ARC
  5
95
330
73
100
AcDbEntity
  8
0
  6
Continuous
 62
   179
370
    18
100
AcDbCircle
 10
89.0487250788
 20
4.1046569124
 30
0.0
 40
2.07598399629105
100
AcDbArc
 50
277.7634675038
 51
279.1917900002
  0
ARC
  5
96
330
73
100
AcDbEntity
  8
0
  6
Continuous
 62
   179
370
    18
100
AcDbCircle
 10
9.2588909915
 20
6.4054930194
 30
0.0
 40
1.579500000000074
100
AcDbArc
 50
31.0558004991
 51
330.0
  0
ARC
  5
97
330
73
100
AcDbEntity
  8
0
  6
Continuous
 62
   179
370
    18
100
AcDbCircle
 10
9.2588909915
 20
6.4054930194
 30
0.0
 40
2.281500000000107
100
AcDbArc
 50
30.7309172659
 51
330.0
  0
ARC
  5
98
330
73
100
AcDbEntity
  8
0
  6
Continuous
 62
   179
370
    18
100
AcDbCircle
 10
6.1288847544
 20
4.0685261312
 30
0.0
 40
4.914000000000307
100
AcDbArc
 50
172.3058370354
 51
179.7113029221
  0
ARC
  5
99
330
73
100
AcDbEntity
  8
0
  6
Continuous
 62
   179
370
    18
100
AcDbCircle
 10
-0.5401152456
 20
4.0685261312
 30
0.0
 40
4.91400000000019
100
AcDbArc
 50
0.2886970779
 51
7.6941629646
  0
ARC
  5
9A
330
73
100
AcDbEntity
  8
0
  6
Continuous
 62
   179
370
    18
100
AcDbCircle
 10
-0.5401152456
 20
4.0685261312
 30
0.0
 40
5.616000000000127
100
AcDbArc
 50
0.2526096926
 51
53.5764263577
  0
ARC
  5
9B
330
73
100
AcDbEntity
  8
0
  6
Continuous
 62
   179
370
    18
100
AcDbCircle
 10
6.1288847544
 20
4.0685261312
 30
0.0
 40
5.61600000000074
100
AcDbArc
 50
126.4235736423
 51
179.7473903073
  0
ARC
  5
9C
330
73
100
AcDbEntity
  8
0
  6
Continuous
 62
   179
370
    18
100
AcDbCircle
 10
-0.5401152456
 20
4.0685261312
 30
0.0
 40
4.914000000000161
100
AcDbArc
 50
16.0658750272
 51
47.2678899574
  0
ARC
  5
9D
330
73
100
AcDbEntity
  8
0
  6
Continuous
 62
   179
370
    18
100
AcDbCircle
 10
6.1288847544
 20
4.0685261312
 30
0.0
 40
4.914000000000584
100
AcDbArc
 50
132.7321100426
 51
163.9341249728
  0
LINE
  5
9E
330
73
100
AcDbEntity
  8
0
  6
Continuous
 62
   179
370
    18
100
AcDbLine
 10
78.8017089389
 20
2.8885802402
 30
0.0
 11
90.7982178739
 21
3.8455002136
 31
0.0
  0
LINE
  5
9F
330
73
100
AcDbEntity
  8
0
  6
Continuous
 62
   179
370
    18
100
AcDbLine
 10
76.6545490427
 20
5.8693097374
 30
0.0
 11
78.0344191726
 21
3.5235305166
 31
0.0
  0
LINE
  5
A0
330
73
100
AcDbEntity
  8
0
  6
Continuous
 62
   179
370
    18
100
AcDbLine
 10
91.5327615373
 20
4.6257342197
 30
0.0
 11
90.9577457715
 21
13.4579763825
 31
0.0
  0
LINE
  5
A1
330
73
100
AcDbEntity
  8
0
  6
Continuous
 62
   179
370
    18
100
AcDbLine
 10
78.6309362756
 20
12.8788539549
 30
0.0
 11
78.8360757629
 21
3.6475770268
 31
0.0
  0
LINE
  5
A2
330
73
100
AcDbEntity
  8
0
  6
Continuous
 62
   179
370
    18
100
AcDbLine
 10
80.4094186633
 20
4.6950685544
 30
0.0
 11
90.1819221045
 21
5.4824266516
 31
0.0
  0
LINE
  5
A3
330
73
100
AcDbEntity
  8
0
  6
Continuous
 62
   179
370
    18
100
AcDbLine
 10
79.1595373973
 20
3.3551666867
 30
0.0
 11
91.2569309872
 21
4.3071688694
 31
0.0
  0
LINE
  5
A4
330
73
100
AcDbEntity
  8
0
  6
Continuous
 62
   179
370
    18
100
AcDbLine
 10
79.2585043218
 20
2.925017226
 30
0.0
 11
80.4858981444
 21
1.533240302
 31
0.0
  0
LINE
  5
A5
330
73
100
AcDbEntity
  8
0
  6
Continuous
 62
   179
370
    18
100
AcDbLine
 10
78.0344191726
 20
3.5235305166
 30
0.0
 11
78.3638740472
 21
3.1446574108
 31
0.0
  0
LINE
  5
A6
330
73
100
AcDbEntity
  8
0
  6
Continuous
 62
   179
370
    18
100
AcDbLine
 10
78.3638740472
 20
3.1446574108
 30
0.0
 11
78.4680611395
 21
3.0248422547
 31
0.0
  0
LINE
  5
A7
330
73
100
AcDbEntity
  8
0
  6
Continuous
 62
   179
370
    18
100
AcDbLine
 10
81.3414110113
 20
1.2002475785
 30
0.0
 11
89.3291569519
 21
2.0477010263
 31
0.0
  0
LINE
  5
A8
330
73
100
AcDbEntity
  8
0
  6
Continuous
 62
   179
370
    18
100
AcDbLine
 10
89.8661472522
 20
2.5197759309
 30
0.0
 11
89.8661472522
 21
2.3090867337
 31
0.0
  0
LINE
  5
A9
330
73
100
AcDbEntity
  8
0
  6
Continuous
 62
   179
370
    18
100
AcDbLine
 10
88.676842368
 20
3.6762854359
 30
0.0
 11
89.6713239345
 21
2.7875997807
 31
0.0
  0
LINE
  5
AA
330
73
100
AcDbEntity
  8
0
  6
Continuous
 62
   179
370
    18
100
AcDbLine
 10
89.6713239345
 20
2.7875997807
 30
0.0
 11
89.7459749087
 21
2.7242700694
 31
0.0
  0
LINE
  5
AB
330
73
100
AcDbEntity
  8
0
  6
Continuous
 62
   179
370
    18
100
AcDbLine
 10
90.7982178739
 20
3.8455002136
 30
0.0
 11
91.3961615969
 21
4.3514525945
 31
0.0
  0
LINE
  5
AC
330
73
100
AcDbEntity
  8
0
  6
Continuous
 62
   179
370
    18
100
AcDbLine
 10
90.6442498554
 20
13.7381534621
 30
0.0
 11
78.1502930503
 21
13.1490474438
 31
0.0
  0
LINE
  5
AD
330
73
100
AcDbEntity
  8
0
  6
Continuous
 62
   179
370
    18
100
AcDbLine
 10
80.1347709981
 20
12.2388892068
 30
0.0
 11
89.8487925667
 21
12.7550932515
 31
0.0
  0
LINE
  5
AE
330
73
100
AcDbEntity
  8
0
  6
Continuous
 62
   179
370
    18
100
AcDbLine
 10
76.4935641943
 20
11.7567556248
 30
0.0
 11
76.6545490427
 21
5.8693097374
 31
0.0
  0
LINE
  5
AF
330
73
100
AcDbEntity
  8
0
  6
Continuous
 62
   179
370
    18
100
AcDbLine
 10
79.8508616208
 20
11.929182536
 30
0.0
 11
80.0854971721
 21
4.9839702153
 31
0.0
  0
LINE
  5
B0
330
73
100
AcDbEntity
  8
0
  6
Continuous
 62
   179
370
    18
100
AcDbLine
 10
80.5293311574
 20
9.7310185051
 30
0.0
 11
80.6057415643
 21
7.4769115
 31
0.0
  0
LINE
  5
B1
330
73
100
AcDbEntity
  8
0
  6
Continuous
 62
   179
370
    18
100
AcDbLine
 10
77.507650604
 20
12.7708420346
 30
0.0
 11
76.4935641943
 21
11.7567556248
 31
0.0
  0
LINE
  5
B2
330
73
100
AcDbEntity
  8
0
  6
Continuous
 62
   179
370
    18
100
AcDbLine
 10
86.8848195129
 20
11.0661568594
 30
0.0
 11
88.6742167283
 21
11.1634880887
 31
0.0
  0
LINE
  5
B3
330
73
100
AcDbEntity
  8
0
  6
Continuous
 62
   179
370
    18
100
AcDbLine
 10
87.0766213517
 20
6.9287171941
 30
0.0
 11
88.90708891
 21
7.0695223909
 31
0.0
  0
LINE
  5
B4
330
73
100
AcDbEntity
  8
0
  6
Continuous
 62
   179
370
    18
100
AcDbLine
 10
87.6830038473
 20
7.6147347768
 30
0.0
 11
88.8536252418
 21
7.7047825764
 31
0.0
  0
LINE
  5
B5
330
73
100
AcDbEntity
  8
0
  6
Continuous
 62
   179
370
    18
100
AcDbLine
 10
87.5509212094
 20
10.4639459651
 30
0.0
 11
88.7088412777
 21
10.5269290651
 31
0.0
  0
LINE
  5
B6
330
73
100
AcDbEntity
  8
0
  6
Continuous
 62
   179
370
    18
100
AcDbLine
 10
87.0766218384
 20
6.9287066941
 30
0.0
 11
86.8848195129
 21
11.0661568594
 31
0.0
  0
LINE
  5
B7
330
73
100
AcDbEntity
  8
0
  6
Continuous
 62
   179
370
    18
100
AcDbLine
 10
83.7004598825
 20
6.6667911093
 30
0.0
 11
84.5054929504
 21
10.9267193262
 31
0.0
  0
LINE
  5
B8
330
73
100
AcDbEntity
  8
0
  6
Continuous
 62
   179
370
    18
100
AcDbLine
 10
85.3543248406
 20
10.9728900984
 30
0.0
 11
86.4940946704
 21
6.8816860929
 31
0.0
  0
LINE
  5
B9
330
73
100
AcDbEntity
  8
0
  6
Continuous
 62
   179
370
    18
100
AcDbLine
 10
84.9728575427
 20
9.9667192298
 30
0.0
 11
85.4540299774
 21
8.2395506903
 31
0.0
  0
LINE
  5
BA
330
73
100
AcDbEntity
  8
0
  6
Continuous
 62
   179
370
    18
100
AcDbLine
 10
84.6363094629
 20
8.1858350416
 30
0.0
 11
84.9728575427
 21
9.9667192298
 31
0.0
  0
LINE
  5
BB
330
73
100
AcDbEntity
  8
0
  6
Continuous
 62
   179
370
    18
100
AcDbLine
 10
87.6830038473
 20
7.6147347768
 30
0.0
 11
87.5509212094
 21
10.4639459651
 31
0.0
  0
LINE
  5
BC
330
73
100
AcDbEntity
  8
0
  6
Continuous
 62
   179
370
    18
100
AcDbLine
 10
84.6363094629
 20
8.1858350416
 30
0.0
 11
85.4540299774
 21
8.2395506903
 31
0.0
  0
LINE
  5
BD
330
73
100
AcDbEntity
  8
0
  6
Continuous
 62
   179
370
    18
100
AcDbLine
 10
84.5140586807
 20
7.5389304886
 30
0.0
 11
85.6288154243
 21
7.6121582976
 31
0.0
  0
LINE
  5
BE
330
73
100
AcDbEntity
  8
0
  6
Continuous
 62
   179
370
    18
100
AcDbLine
 10
84.3588137958
 20
6.717433718
 30
0.0
 11
84.5140586807
 21
7.5389304886
 31
0.0
  0
LINE
  5
BF
330
73
100
AcDbEntity
  8
0
  6
Continuous
 62
   179
370
    18
100
AcDbLine
 10
81.6818640104
 20
6.5137358601
 30
0.0
 11
82.4802416972
 21
6.5751495283
 31
0.0
  0
LINE
  5
C0
330
73
100
AcDbEntity
  8
0
  6
Continuous
 62
   179
370
    18
100
AcDbLine
 10
81.6329699923
 20
7.1493580946
 30
0.0
 11
82.4313476791
 21
7.2107717628
 31
0.0
  0
LINE
  5
C1
330
73
100
AcDbEntity
  8
0
  6
Continuous
 62
   179
370
    18
100
AcDbLine
 10
83.7004598825
 20
6.6667911093
 30
0.0
 11
84.3588137958
 21
6.717433718
 31
0.0
  0
LINE
  5
C2
330
73
100
AcDbEntity
  8
0
  6
Continuous
 62
   179
370
    18
100
AcDbLine
 10
82.7059483815
 20
9.3512024135
 30
0.0
 11
83.3423973297
 21
9.3930104243
 31
0.0
  0
LINE
  5
C3
330
73
100
AcDbEntity
  8
0
  6
Continuous
 62
   179
370
    18
100
AcDbLine
 10
82.7491656358
 20
8.0762934118
 30
0.0
 11
83.385614584
 21
8.1181014226
 31
0.0
  0
LINE
  5
C4
330
73
100
AcDbEntity
  8
0
  6
Continuous
 62
   179
370
    18
100
AcDbLine
 10
81.1664651987
 20
9.7526162692
 30
0.0
 11
81.2428756056
 21
7.4985092641
 31
0.0
  0
LINE
  5
C5
330
73
100
AcDbEntity
  8
0
  6
Continuous
 62
   179
370
    18
100
AcDbLine
 10
82.6900353128
 20
9.8206379383
 30
0.0
 11
82.7052632884
 21
9.3714126602
 31
0.0
  0
LINE
  5
C6
330
73
100
AcDbEntity
  8
0
  6
Continuous
 62
   179
370
    18
100
AcDbLine
 10
82.7491656358
 20
8.0762934118
 30
0.0
 11
82.7658371041
 21
7.5844850954
 31
0.0
  0
LINE
  5
C7
330
73
100
AcDbEntity
  8
0
  6
Continuous
 62
   179
370
    18
100
AcDbLine
 10
83.3271693541
 20
9.8422357024
 30
0.0
 11
83.3423973297
 21
9.3930104243
 31
0.0
  0
LINE
  5
C8
330
73
100
AcDbEntity
  8
0
  6
Continuous
 62
   179
370
    18
100
AcDbLine
 10
83.385614584
 20
8.1181014226
 30
0.0
 11
83.4029711454
 21
7.6060828595
 31
0.0
  0
LINE
  5
C9
330
73
100
AcDbEntity
  8
0
  6
Continuous
 62
   179
370
    18
100
AcDbLine
 10
85.6288154243
 20
7.6121582976
 30
0.0
 11
85.8462022593
 21
6.8318482152
 31
0.0
  0
LINE
  5
CA
330
73
100
AcDbEntity
  8
0
  6
Continuous
 62
   179
370
    18
100
AcDbLine
 10
85.8462022593
 20
6.8318482152
 30
0.0
 11
86.4940946704
 21
6.8816860929
 31
0.0
  0
LINE
  5
CB
330
73
100
AcDbEntity
  8
0
  6
Continuous
 62
   179
370
    18
100
AcDbLine
 10
84.5054929504
 20
10.9267193262
 30
0.0
 11
85.3543248406
 21
10.9728900984
 31
0.0
  0
LINE
  5
CC
330
73
100
AcDbEntity
  8
0
  6
Continuous
 62
   179
370
    18
100
AcDbLine
 10
81.4744440858
 20
10.7634213094
 30
0.0
 11
82.2734303883
 21
10.8068808154
 31
0.0
  0
LINE
  5
CD
330
73
100
AcDbEntity
  8
0
  6
Continuous
 62
   179
370
    18
100
AcDbLine
 10
81.5090686352
 20
10.1268622858
 30
0.0
 11
82.3080549377
 21
10.1703217918
 31
0.0
  0
LINE
  5
CE
330
73
100
AcDbEntity
  8
0
  6
Continuous
 62
   179
370
    18
100
AcDbLine
 10
90.4575406452
 20
5.7946206556
 30
0.0
 11
90.1644232213
 21
12.4686789239
 31
0.0
  0
LINE
  5
CF
330
73
100
AcDbEntity
  8
0
  6
Continuous
 62
   179
370
    18
100
AcDbLine
 10
89.8247499755
 20
8.1125227115
 30
0.0
 11
89.7274569615
 21
10.2112720142
 31
0.0
  0
LINE
  5
D0
330
73
100
AcDbEntity
  8
0
  6
Continuous
 62
   179
370
    18
100
AcDbLine
 10
89.1879338763
 20
8.0830014354
 30
0.0
 11
89.0906408622
 21
10.181750738
 31
0.0
  0
LINE
  5
D1
330
73
100
AcDbEntity
  8
0
  6
Continuous
 62
   179
370
    18
100
AcDbLine
 10
89.7459749087
 20
2.7242700694
 30
0.0
 11
89.7974962577
 21
2.6659765769
 31
0.0
  0
LINE
  5
D2
330
73
100
AcDbEntity
  8
0
  6
Continuous
 62
   179
370
    18
100
AcDbLine
 10
89.7974962577
 20
2.6659765769
 30
0.0
 11
89.8351851379
 21
2.60192886
 31
0.0
  0
LINE
  5
D3
330
73
100
AcDbEntity
  8
0
  6
Continuous
 62
   179
370
    18
100
AcDbLine
 10
89.8351851379
 20
2.60192886
 30
0.0
 11
89.8661472522
 21
2.5197759309
 31
0.0
  0
LINE
  5
D4
330
73
100
AcDbEntity
  8
0
  6
Continuous
 62
   179
370
    18
100
AcDbLine
 10
10.6119938288
 20
7.2203138351
 30
0.0
 11
11.2200151261
 21
7.5713550947
 31
0.0
  0
LINE
  5
D5
330
73
100
AcDbEntity
  8
0
  6
Continuous
 62
   179
370
    18
100
AcDbLine
 10
11.2347279503
 20
5.2647430194
 30
0.0
 11
10.6267781168
 21
5.6157430194
 31
0.0
  0
LINE
  5
D6
330
73
100
AcDbEntity
  8
0
  6
Continuous
 62
   179
370
    18
100
AcDbLine
 10
6.4645062371
 20
16.1712617198
 30
0.0
 11
6.4645062371
 21
2.9364593988
 31
0.0
  0
LINE
  5
D7
330
73
100
AcDbEntity
  8
0
  6
Continuous
 62
   179
370
    18
100
AcDbLine
 10
6.4645062371
 20
2.9364593988
 30
0.0
 11
12.0532757459
 21
2.9364593988
 31
0.0
  0
LINE
  5
D8
330
73
100
AcDbEntity
  8
0
  6
Continuous
 62
   179
370
    18
100
AcDbLine
 10
12.0532757459
 20
2.9364593988
 30
0.0
 11
12.0532757459
 21
16.1712617198
 31
0.0
  0
LINE
  5
D9
330
73
100
AcDbEntity
  8
0
  6
Continuous
 62
   179
370
    18
100
AcDbLine
 10
12.0532757459
 20
16.1712617198
 30
0.0
 11
6.4645062371
 21
16.1712617198
 31
0.0
  0
LINE
  5
DA
330
73
100
AcDbEntity
  8
0
  6
Continuous
 62
   179
370
    18
100
AcDbLine
 10
0.0
 20
16.1712617198
 30
0.0
 11
0.0
 21
2.9364593988
 31
0.0
  0
LINE
  5
DB
330
73
100
AcDbEntity
  8
0
  6
Continuous
 62
   179
370
    18
100
AcDbLine
 10
0.0
 20
2.9364593988
 30
0.0
 11
5.5887695089
 21
2.9364593988
 31
0.0
  0
LINE
  5
DC
330
73
100
AcDbEntity
  8
0
  6
Continuous
 62
   179
370
    18
100
AcDbLine
 10
5.5887695089
 20
2.9364593988
 30
0.0
 11
5.5887695089
 21
16.1712617198
 31
0.0
  0
LINE
  5
DD
330
73
100
AcDbEntity
  8
0
  6
Continuous
 62
   179
370
    18
100
AcDbLine
 10
5.5887695089
 20
16.1712617198
 30
0.0
 11
0.0
 21
16.1712617198
 31
0.0
  0
LINE
  5
DE
330
73
100
AcDbEntity
  8
0
  6
Continuous
 62
   179
370
    18
100
AcDbLine
 10
1.2591262606
 20
4.7264381407
 30
0.0
 11
4.3296432482
 21
4.7264381407
 31
0.0
  0
LINE
  5
DF
330
73
100
AcDbEntity
  8
0
  6
Continuous
 62
   179
370
    18
100
AcDbLine
 10
4.3738223747
 20
4.0932862697
 30
0.0
 11
5.0758301722
 21
4.0932862697
 31
0.0
  0
LINE
  5
E0
330
73
100
AcDbEntity
  8
0
  6
Continuous
 62
   179
370
    18
100
AcDbLine
 10
0.5129393366
 20
4.0932862697
 30
0.0
 11
1.2149471342
 21
4.0932862697
 31
0.0
  0
LINE
  5
E1
330
73
100
AcDbEntity
  8
0
  6
Continuous
 62
   179
370
    18
100
AcDbLine
 10
4.1819643097
 20
5.4284381407
 30
0.0
 11
1.4068051992
 21
5.4284381407
 31
0.0
  0
LINE
  5
E2
330
73
100
AcDbEntity
  8
0
  6
Continuous
 62
   179
370
    18
100
AcDbLine
 10
18.517781983
 20
16.1712617198
 30
0.0
 11
18.517781983
 21
2.9364593988
 31
0.0
  0
LINE
  5
E3
330
73
100
AcDbEntity
  8
0
  6
Continuous
 62
   179
370
    18
100
AcDbLine
 10
18.517781983
 20
2.9364593988
 30
0.0
 11
12.9290124742
 21
2.9364593988
 31
0.0
  0
LINE
  5
E4
330
73
100
AcDbEntity
  8
0
  6
Continuous
 62
   179
370
    18
100
AcDbLine
 10
12.9290124742
 20
2.9364593988
 30
0.0
 11
12.9290124742
 21
16.1712617198
 31
0.0
  0
LINE
  5
E5
330
73
100
AcDbEntity
  8
0
  6
Continuous
 62
   179
370
    18
100
AcDbLine
 10
12.9290124742
 20
16.1712617198
 30
0.0
 11
18.517781983
 21
16.1712617198
 31
0.0
  0
INSERT
  5
EB
330
73
100
AcDbEntity
  8
0
  6
Continuous
 62
     7
370
     0
100
AcDbBlockReference
  2
SW_NOTE_0
 10
1.8998941161
 20
-0.3226565443
 30
0.0
  0
INSERT
  5
F0
330
73
100
AcDbEntity
  8
0
  6
Continuous
 62
     7
370
     0
100
AcDbBlockReference
  2
SW_NOTE_0_1
 10
29.1164837035
 20
12.7459167441
 30
0.0
  0
INSERT
  5
F8
330
73
100
AcDbEntity
  8
0
  6
Continuous
 62
     7
370
     0
100
AcDbBlockReference
  2
SW_NOTE_0_2
 10
28.8863479825
 20
8.6365742194
 30
0.0
  0
ENDBLK
  5
75
330
73
100
AcDbEntity
  8
0
100
AcDbBlockEnd
  0
BLOCK
  5
E7
330
E6
100
AcDbEntity
  8
0
100
AcDbBlockBegin
  2
SW_NOTE_0
 70
     0
 10
0.0
 20
0.0
 30
0.0
  3
SW_NOTE_0
  1

  0
MTEXT
  5
EA
330
E6
100
AcDbEntity
  8
0
  6
Continuous
 62
     0
370
     0
100
AcDbMText
 10
7.46875
 20
2.5781354795
 30
0.0
 40
2.0
 41
0.0
 71
     2
 72
     1
  1
www.aco.ch
  7
SLDTEXTSTYLE0
 73
     1
 44
1.0
  0
ENDBLK
  5
E8
330
E6
100
AcDbEntity
  8
0
100
AcDbBlockEnd
  0
BLOCK
  5
ED
330
EC
100
AcDbEntity
  8
0
100
AcDbBlockBegin
  2
SW_NOTE_0_1
 70
     0
 10
0.0
 20
0.0
 30
0.0
  3
SW_NOTE_0_1
  1

  0
MTEXT
  5
EF
330
EC
100
AcDbEntity
  8
0
  6
Continuous
 62
     0
370
     0
100
AcDbMText
 10
0.0
 20
3.8672032193
 30
0.0
 40
3.0
 41
0.0
 71
     1
 72
     1
  1
ACO AG
  7
SLDTEXTSTYLE0
 73
     1
 44
1.0
  0
ENDBLK
  5
EE
330
EC
100
AcDbEntity
  8
0
100
AcDbBlockEnd
  0
BLOCK
  5
F2
330
F1
100
AcDbEntity
  8
0
100
AcDbBlockBegin
  2
SW_NOTE_0_2
 70
     0
 10
0.0
 20
0.0
 30
0.0
  3
SW_NOTE_0_2
  1

  0
MTEXT
  5
F4
330
F1
100
AcDbEntity
  8
0
  6
Continuous
 62
     0
370
     0
100
AcDbMText
 10
0.0
 20
2.5781354795
 30
0.0
 40
2.0
 41
0.0
 71
     1
 72
     1
  1
Industrie Kleinzaun
  7
SLDTEXTSTYLE0
 73
     1
 44
1.0
  0
MTEXT
  5
F5
330
F1
100
AcDbEntity
  8
0
  6
Continuous
 62
     0
370
     0
100
AcDbMText
 10
0.0
 20
-0.4218645465
 30
0.0
 40
2.0
 41
0.0
 71
     1
 72
     1
  1
CH-8754 Netstal
  7
SLDTEXTSTYLE0
 73
     1
 44
1.0
  0
MTEXT
  5
F6
330
F1
100
AcDbEntity
  8
0
  6
Continuous
 62
     0
370
     0
100
AcDbMText
 10
0.0
 20
-3.4218645726
 30
0.0
 40
2.0
 41
0.0
 71
     1
 72
     1
  1
Tel. 055 / 645 53 00
  7
SLDTEXTSTYLE0
 73
     1
 44
1.0
  0
MTEXT
  5
F7
330
F1
100
AcDbEntity
  8
0
  6
Continuous
 62
     0
370
     0
100
AcDbMText
 10
0.0
 20
-6.4218645987
 30
0.0
 40
2.0
 41
0.0
 71
     1
 72
     1
  1
E-Mail: aco@aco.ch
  7
SLDTEXTSTYLE0
 73
     1
 44
1.0
  0
ENDBLK
  5
F3
330
F1
100
AcDbEntity
  8
0
100
AcDbBlockEnd
  0
BLOCK
  5
171
330
170
100
AcDbEntity
  8
0
100
AcDbBlockBegin
  2
SW_NOTE_0_3
 70
     0
 10
0.0
 20
0.0
 30
0.0
  3
SW_NOTE_0_3
  1

  0
MTEXT
  5
173
330
170
100
AcDbEntity
  8
0
  6
Continuous
 62
     0
370
     0
100
AcDbMText
 10
0.0
 20
1.9336016097
 30
0.0
 40
1.5
 41
0.0
 71
     1
 72
     1
  1
Diese Zeichnung darf weder kopiert
  7
SLDTEXTSTYLE0
 73
     1
 44
1.0
  0
MTEXT
  5
174
330
170
100
AcDbEntity
  8
0
  6
Continuous
 62
     0
370
     0
100
AcDbMText
 10
0.0
 20
-0.5663983345
 30
0.0
 40
1.5
 41
0.0
 71
     1
 72
     1
  1
noch dritten Personen, insbesondere
  7
SLDTEXTSTYLE0
 73
     1
 44
1.0
  0
MTEXT
  5
175
330
170
100
AcDbEntity
  8
0
  6
Continuous
 62
     0
370
     0
100
AcDbMText
 10
0.0
 20
-3.0663982786
 30
0.0
 40
1.5
 41
0.0
 71
     1
 72
     1
  1
zum Zweck anderweitiger Benutzung
  7
SLDTEXTSTYLE0
 73
     1
 44
1.0
  0
MTEXT
  5
176
330
170
100
AcDbEntity
  8
0
  6
Continuous
 62
     0
370
     0
100
AcDbMText
 10
0.0
 20
-5.5663982227
 30
0.0
 40
1.5
 41
0.0
 71
     1
 72
     1
  1
mitgeteilt werden und bleibt unser
  7
SLDTEXTSTYLE0
 73
     1
 44
1.0
  0
MTEXT
  5
177
330
170
100
AcDbEntity
  8
0
  6
Continuous
 62
     0
370
     0
100
AcDbMText
 10
0.0
 20
-8.0663981668
 30
0.0
 40
1.5
 41
0.0
 71
     1
 72
     1
  1
Eigentum.
  7
SLDTEXTSTYLE0
 73
     1
 44
1.0
  0
ENDBLK
  5
172
330
170
100
AcDbEntity
  8
0
100
AcDbBlockEnd
  0
BLOCK
  5
201
330
200
100
AcDbEntity
  8
0
100
AcDbBlockBegin
  2
_D
 70
     0
 10
0.0
 20
0.0
 30
0.0
  3
_D
  1

  0
SOLID
  5
203
330
200
100
AcDbEntity
  8
0
  6
Continuous
 62
     7
370
    18
100
AcDbTrace
 10
62.6392237903
 20
250.837230662
 30
0.0
 11
66.1392237903
 21
250.2987691235
 31
0.0
 12
66.1392237903
 22
251.3756922004
 32
0.0
 13
66.1392237903
 23
251.3756922004
 33
0.0
  0
SOLID
  5
204
330
200
100
AcDbEntity
  8
0
  6
Continuous
 62
     7
370
    18
100
AcDbTrace
 10
208.6392237903
 20
250.837230662
 30
0.0
 11
205.1392237903
 21
251.3756922004
 31
0.0
 12
205.1392237903
 22
250.2987691235
 32
0.0
 13
205.1392237903
 23
250.2987691235
 33
0.0
  0
LINE
  5
205
330
200
100
AcDbEntity
  8
0
  6
Continuous
 62
     7
370
     0
100
AcDbLine
 10
62.6392237903
 20
209.3979808468
 30
0.0
 11
62.6392237903
 21
251.837230662
 31
0.0
  0
LINE
  5
206
330
200
100
AcDbEntity
  8
0
  6
Continuous
 62
     7
370
     0
100
AcDbLine
 10
208.6392237903
 20
209.3979808468
 30
0.0
 11
208.6392237903
 21
251.837230662
 31
0.0
  0
LINE
  5
207
330
200
100
AcDbEntity
  8
0
  6
Continuous
 62
     7
370
     0
100
AcDbLine
 10
62.6392237903
 20
250.837230662
 30
0.0
 11
208.6392237903
 21
250.837230662
 31
0.0
  0
MTEXT
  5
208
330
200
100
AcDbEntity
  8
0
  6
Continuous
 62
     7
370
    18
100
AcDbMText
 10
131.628807223
 20
255.348967984
 30
0.0
 40
3.5
 41
0.0
 71
     1
 72
     1
  1
146
  7
SLDTEXTSTYLE0
 73
     1
 44
1.0
  0
ENDBLK
  5
202
330
200
100
AcDbEntity
  8
0
100
AcDbBlockEnd
  0
BLOCK
  5
20B
330
20A
100
AcDbEntity
  8
0
100
AcDbBlockBegin
  2
_D_1
 70
     0
 10
0.0
 20
0.0
 30
0.0
  3
_D_1
  1

  0
SOLID
  5
20D
330
20A
100
AcDbEntity
  8
0
  6
Continuous
 62
     7
370
    18
100
AcDbTrace
 10
245.3217529817
 20
181.2979808468
 30
0.0
 11
245.8602145202
 21
184.7979808468
 31
0.0
 12
244.7832914432
 22
184.7979808468
 32
0.0
 13
244.7832914432
 23
184.7979808468
 33
0.0
  0
SOLID
  5
20E
330
20A
100
AcDbEntity
  8
0
  6
Continuous
 62
     7
370
    18
100
AcDbTrace
 10
245.3217529817
 20
245.7979808468
 30
0.0
 11
244.7832914432
 21
242.2979808468
 31
0.0
 12
245.8602145202
 22
242.2979808468
 32
0.0
 13
245.8602145202
 23
242.2979808468
 33
0.0
  0
LINE
  5
20F
330
20A
100
AcDbEntity
  8
0
  6
Continuous
 62
     7
370
     0
100
AcDbLine
 10
209.7392237903
 20
181.2979808468
 30
0.0
 11
246.3217529817
 21
181.2979808468
 31
0.0
  0
LINE
  5
210
330
20A
100
AcDbEntity
  8
0
  6
Continuous
 62
     7
370
     0
100
AcDbLine
 10
202.2392237903
 20
245.7979808468
 30
0.0
 11
246.3217529817
 21
245.7979808468
 31
0.0
  0
LINE
  5
211
330
20A
100
AcDbEntity
  8
0
  6
Continuous
 62
     7
370
     0
100
AcDbLine
 10
245.3217529817
 20
181.2979808468
 30
0.0
 11
245.3217529817
 21
245.7979808468
 31
0.0
  0
MTEXT
  5
212
330
20A
100
AcDbEntity
  8
0
  6
Continuous
 62
     7
370
    18
100
AcDbMText
 10
240.8100156597
 20
208.8691615182
 30
0.0
 40
3.5
 41
0.0
 71
     1
 72
     1
  1
64.5
  7
SLDTEXTSTYLE0
 11
7.273661547324616E-16
 21
1.0
 31
0.0
 73
     1
 44
1.0
  0
ENDBLK
  5
20C
330
20A
100
AcDbEntity
  8
0
100
AcDbBlockEnd
  0
BLOCK
  5
281
330
280
100
AcDbEntity
  8
0
100
AcDbBlockBegin
  2
_D_2
 70
     0
 10
0.0
 20
0.0
 30
0.0
  3
_D_2
  1

  0
SOLID
  5
283
330
280
100
AcDbEntity
  8
0
  6
Continuous
 62
     7
370
    18
100
AcDbTrace
 10
311.109619383
 20
181.2979808468
 30
0.0
 11
311.6480809214
 21
184.7979808468
 31
0.0
 12
310.5711578445
 22
184.7979808468
 32
0.0
 13
310.5711578445
 23
184.7979808468
 33
0.0
  0
SOLID
  5
284
330
280
100
AcDbEntity
  8
0
  6
Continuous
 62
     7
370
    18
100
AcDbTrace
 10
311.109619383
 20
209.2979808468
 30
0.0
 11
310.5711578445
 21
205.7979808468
 31
0.0
 12
311.6480809214
 22
205.7979808468
 32
0.0
 13
311.6480809214
 23
205.7979808468
 33
0.0
  0
LINE
  5
285
330
280
100
AcDbEntity
  8
0
  6
Continuous
 62
     7
370
     0
100
AcDbLine
 10
323.583578629
 20
181.2979808468
 30
0.0
 11
310.109619383
 21
181.2979808468
 31
0.0
  0
LINE
  5
286
330
280
100
AcDbEntity
  8
0
  6
Continuous
 62
     7
370
     0
100
AcDbLine
 10
333.583578629
 20
209.2979808468
 30
0.0
 11
310.109619383
 21
209.2979808468
 31
0.0
  0
LINE
  5
287
330
280
100
AcDbEntity
  8
0
  6
Continuous
 62
     7
370
     0
100
AcDbLine
 10
311.109619383
 20
181.2979808468
 30
0.0
 11
311.109619383
 21
209.2979808468
 31
0.0
  0
MTEXT
  5
288
330
280
100
AcDbEntity
  8
0
  6
Continuous
 62
     7
370
    18
100
AcDbMText
 10
306.5978820609
 20
192.6243698019
 30
0.0
 40
3.5
 41
0.0
 71
     1
 72
     1
  1
28
  7
SLDTEXTSTYLE0
 11
-1.271035289592820E-15
 21
1.0
 31
0.0
 73
     1
 44
1.0
  0
ENDBLK
  5
282
330
280
100
AcDbEntity
  8
0
100
AcDbBlockEnd
  0
BLOCK
  5
387
330
386
100
AcDbEntity
  8
0
100
AcDbBlockBegin
  2
_D_3
 70
     0
 10
0.0
 20
0.0
 30
0.0
  3
_D_3
  1

  0
SOLID
  5
389
330
386
100
AcDbEntity
  8
0
  6
Continuous
 62
     7
370
    18
100
AcDbTrace
 10
249.9793485166
 20
142.2154808468
 30
0.0
 11
249.4408869781
 21
138.7154808468
 31
0.0
 12
250.517810055
 22
138.7154808468
 32
0.0
 13
250.517810055
 23
138.7154808468
 33
0.0
  0
SOLID
  5
38A
330
386
100
AcDbEntity
  8
0
  6
Continuous
 62
     7
370
    18
100
AcDbTrace
 10
249.9793485166
 20
85.2154808468
 30
0.0
 11
250.517810055
 21
88.7154808468
 31
0.0
 12
249.4408869781
 22
88.7154808468
 32
0.0
 13
249.4408869781
 23
88.7154808468
 33
0.0
  0
LINE
  5
38B
330
386
100
AcDbEntity
  8
0
  6
Continuous
 62
     7
370
     0
100
AcDbLine
 10
233.2392237903
 20
142.2154808468
 30
0.0
 11
250.9793485166
 21
142.2154808468
 31
0.0
  0
LINE
  5
38C
330
386
100
AcDbEntity
  8
0
  6
Continuous
 62
     7
370
     0
100
AcDbLine
 10
233.2392237903
 20
85.2154808468
 30
0.0
 11
250.9793485166
 21
85.2154808468
 31
0.0
  0
LINE
  5
38D
330
386
100
AcDbEntity
  8
0
  6
Continuous
 62
     7
370
     0
100
AcDbLine
 10
249.9793485166
 20
142.2154808468
 30
0.0
 11
249.9793485166
 21
85.2154808468
 31
0.0
  0
MTEXT
  5
38E
330
386
100
AcDbEntity
  8
0
  6
Continuous
 62
     7
370
    18
100
AcDbMText
 10
245.4676111945
 20
111.0418698019
 30
0.0
 40
3.5
 41
0.0
 71
     1
 72
     1
  1
57
  7
SLDTEXTSTYLE0
 11
-7.044195017643634E-15
 21
1.0
 31
0.0
 73
     1
 44
1.0
  0
ENDBLK
  5
388
330
386
100
AcDbEntity
  8
0
100
AcDbBlockEnd
  0
BLOCK
  5
391
330
390
100
AcDbEntity
  8
0
100
AcDbBlockBegin
  2
_D_4
 70
     0
 10
0.0
 20
0.0
 30
0.0
  3
_D_4
  1

  0
SOLID
  5
393
330
390
100
AcDbEntity
  8
0
  6
Continuous
 62
     7
370
    18
100
AcDbTrace
 10
73.1392237903
 20
77.6943650452
 30
0.0
 11
76.6392237903
 21
77.1559035068
 31
0.0
 12
76.6392237903
 22
78.2328265837
 32
0.0
 13
76.6392237903
 23
78.2328265837
 33
0.0
  0
SOLID
  5
394
330
390
100
AcDbEntity
  8
0
  6
Continuous
 62
     7
370
    18
100
AcDbTrace
 10
198.1392237903
 20
77.6943650452
 30
0.0
 11
194.6392237903
 21
78.2328265837
 31
0.0
 12
194.6392237903
 22
77.1559035068
 32
0.0
 13
194.6392237903
 23
77.1559035068
 33
0.0
  0
LINE
  5
395
330
390
100
AcDbEntity
  8
0
  6
Continuous
 62
     7
370
     0
100
AcDbLine
 10
73.1392237903
 20
97.1154808468
 30
0.0
 11
73.1392237903
 21
76.6943650452
 31
0.0
  0
LINE
  5
396
330
390
100
AcDbEntity
  8
0
  6
Continuous
 62
     7
370
     0
100
AcDbLine
 10
198.1392237903
 20
97.1154808468
 30
0.0
 11
198.1392237903
 21
76.6943650452
 31
0.0
  0
LINE
  5
397
330
390
100
AcDbEntity
  8
0
  6
Continuous
 62
     7
370
     0
100
AcDbLine
 10
73.1392237903
 20
77.6943650452
 30
0.0
 11
198.1392237903
 21
77.6943650452
 31
0.0
  0
MTEXT
  5
398
330
390
100
AcDbEntity
  8
0
  6
Continuous
 62
     7
370
    18
100
AcDbMText
 10
131.628807223
 20
82.2061023673
 30
0.0
 40
3.5
 41
0.0
 71
     1
 72
     1
  1
125
  7
SLDTEXTSTYLE0
 73
     1
 44
1.0
  0
ENDBLK
  5
392
330
390
100
AcDbEntity
  8
0
100
AcDbBlockEnd
  0
BLOCK
  5
39B
330
39A
100
AcDbEntity
  8
0
100
AcDbBlockBegin
  2
_D_5
 70
     0
 10
0.0
 20
0.0
 30
0.0
  3
_D_5
  1

  0
SOLID
  5
39D
330
39A
100
AcDbEntity
  8
0
  6
Continuous
 62
     7
370
    18
100
AcDbTrace
 10
61.6392237903
 20
65.2154808468
 30
0.0
 11
65.1392237903
 21
64.6770193083
 31
0.0
 12
65.1392237903
 22
65.7539423852
 32
0.0
 13
65.1392237903
 23
65.7539423852
 33
0.0
  0
SOLID
  5
39E
330
39A
100
AcDbEntity
  8
0
  6
Continuous
 62
     7
370
    18
100
AcDbTrace
 10
209.6392237903
 20
65.2154808468
 30
0.0
 11
206.1392237903
 21
65.7539423852
 31
0.0
 12
206.1392237903
 22
64.6770193083
 32
0.0
 13
206.1392237903
 23
64.6770193083
 33
0.0
  0
LINE
  5
39F
330
39A
100
AcDbEntity
  8
0
  6
Continuous
 62
     7
370
     0
100
AcDbLine
 10
61.6392237903
 20
85.1154808468
 30
0.0
 11
61.6392237903
 21
64.2154808468
 31
0.0
  0
LINE
  5
3A0
330
39A
100
AcDbEntity
  8
0
  6
Continuous
 62
     7
370
     0
100
AcDbLine
 10
209.6392237903
 20
85.1154808468
 30
0.0
 11
209.6392237903
 21
64.2154808468
 31
0.0
  0
LINE
  5
3A1
330
39A
100
AcDbEntity
  8
0
  6
Continuous
 62
     7
370
     0
100
AcDbLine
 10
61.6392237903
 20
65.2154808468
 30
0.0
 11
209.6392237903
 21
65.2154808468
 31
0.0
  0
MTEXT
  5
3A2
330
39A
100
AcDbEntity
  8
0
  6
Continuous
 62
     7
370
    18
100
AcDbMText
 10
131.628807223
 20
69.7272181688
 30
0.0
 40
3.5
 41
0.0
 71
     1
 72
     1
  1
148
  7
SLDTEXTSTYLE0
 73
     1
 44
1.0
  0
ENDBLK
  5
39C
330
39A
100
AcDbEntity
  8
0
100
AcDbBlockEnd
  0
BLOCK
  5
3A5
330
3A4
100
AcDbEntity
  8
0
100
AcDbBlockBegin
  2
_D_6
 70
     0
 10
0.0
 20
0.0
 30
0.0
  3
_D_6
  1

  0
SOLID
  5
3A7
330
3A4
100
AcDbEntity
  8
0
  6
Continuous
 62
     7
370
    18
100
AcDbTrace
 10
36.1392237903
 20
147.7145910028
 30
0.0
 11
39.6392237903
 21
147.1761294644
 31
0.0
 12
39.6392237903
 22
148.2530525413
 32
0.0
 13
39.6392237903
 23
148.2530525413
 33
0.0
  0
SOLID
  5
3A8
330
3A4
100
AcDbEntity
  8
0
  6
Continuous
 62
     7
370
    18
100
AcDbTrace
 10
235.1392237903
 20
147.7145910028
 30
0.0
 11
231.6392237903
 21
148.2530525413
 31
0.0
 12
231.6392237903
 22
147.1761294644
 32
0.0
 13
231.6392237903
 23
147.1761294644
 33
0.0
  0
LINE
  5
3A9
330
3A4
100
AcDbEntity
  8
0
  6
Continuous
 62
     7
370
     0
100
AcDbLine
 10
36.1392237903
 20
140.3154808468
 30
0.0
 11
36.1392237903
 21
148.7145910028
 31
0.0
  0
LINE
  5
3AA
330
3A4
100
AcDbEntity
  8
0
  6
Continuous
 62
     7
370
     0
100
AcDbLine
 10
235.1392237903
 20
140.3154808468
 30
0.0
 11
235.1392237903
 21
148.7145910028
 31
0.0
  0
LINE
  5
3AB
330
3A4
100
AcDbEntity
  8
0
  6
Continuous
 62
     7
370
     0
100
AcDbLine
 10
36.1392237903
 20
147.7145910028
 30
0.0
 11
235.1392237903
 21
147.7145910028
 31
0.0
  0
MTEXT
  5
3AC
330
3A4
100
AcDbEntity
  8
0
  6
Continuous
 62
     7
370
    18
100
AcDbMText
 10
131.628807223
 20
152.2263283249
 30
0.0
 40
3.5
 41
0.0
 71
     1
 72
     1
  1
199
  7
SLDTEXTSTYLE0
 73
     1
 44
1.0
  0
ENDBLK
  5
3A6
330
3A4
100
AcDbEntity
  8
0
100
AcDbBlockEnd
  0
BLOCK
  5
3AE
330
3AD
100
AcDbEntity
  8
0
100
AcDbBlockBegin
  2
SW_CENTERMARKSYMBOL_0
 70
     0
 10
0.0
 20
0.0
 30
0.0
  3
SW_CENTERMARKSYMBOL_0
  1

  0
LINE
  5
3B0
330
3AD
100
AcDbEntity
  8
0
  6
Continuous
 62
     0
370
    18
100
AcDbLine
 10
0.0
 20
0.0
 30
0.0
 11
0.0
 21
-2.5
 31
0.0
  0
LINE
  5
3B1
330
3AD
100
AcDbEntity
  8
0
  6
Continuous
 62
     0
370
    18
100
AcDbLine
 10
0.0
 20
0.0
 30
0.0
 11
2.5
 21
0.0
 31
0.0
  0
LINE
  5
3B2
330
3AD
100
AcDbEntity
  8
0
  6
Continuous
 62
     0
370
    18
100
AcDbLine
 10
0.0
 20
0.0
 30
0.0
 11
0.0
 21
2.5
 31
0.0
  0
LINE
  5
3B3
330
3AD
100
AcDbEntity
  8
0
  6
Continuous
 62
     0
370
    18
100
AcDbLine
 10
0.0
 20
0.0
 30
0.0
 11
-2.5
 21
0.0
 31
0.0
  0
LINE
  5
3B4
330
3AD
100
AcDbEntity
  8
0
  6
Continuous
 62
     0
370
    18
100
AcDbLine
 10
0.0
 20
-5.0
 30
0.0
 11
0.0
 21
-7.75
 31
0.0
  0
LINE
  5
3B5
330
3AD
100
AcDbEntity
  8
0
  6
Continuous
 62
     0
370
    18
100
AcDbLine
 10
5.0
 20
0.0
 30
0.0
 11
7.75
 21
0.0
 31
0.0
  0
LINE
  5
3B6
330
3AD
100
AcDbEntity
  8
0
  6
Continuous
 62
     0
370
    18
100
AcDbLine
 10
0.0
 20
5.0
 30
0.0
 11
0.0
 21
7.75
 31
0.0
  0
LINE
  5
3B7
330
3AD
100
AcDbEntity
  8
0
  6
Continuous
 62
     0
370
    18
100
AcDbLine
 10
-5.0
 20
0.0
 30
0.0
 11
-7.75
 21
0.0
 31
0.0
  0
LINE
  5
3B8
330
3AD
100
AcDbEntity
  8
0
  6
Continuous
 62
     0
370
    18
100
AcDbLine
 10
-7.5
 20
0.0
 30
0.0
 11
-7.5
 21
-2.5
 31
0.0
  0
LINE
  5
3B9
330
3AD
100
AcDbEntity
  8
0
  6
Continuous
 62
     0
370
    18
100
AcDbLine
 10
-7.5
 20
0.0
 30
0.0
 11
-5.0
 21
0.0
 31
0.0
  0
LINE
  5
3BA
330
3AD
100
AcDbEntity
  8
0
  6
Continuous
 62
     0
370
    18
100
AcDbLine
 10
-7.5
 20
0.0
 30
0.0
 11
-7.5
 21
2.5
 31
0.0
  0
LINE
  5
3BB
330
3AD
100
AcDbEntity
  8
0
  6
Continuous
 62
     0
370
    18
100
AcDbLine
 10
-7.5
 20
0.0
 30
0.0
 11
-10.0
 21
0.0
 31
0.0
  0
LINE
  5
3BC
330
3AD
100
AcDbEntity
  8
0
  6
Continuous
 62
     0
370
    18
100
AcDbLine
 10
-7.5
 20
-5.0
 30
0.0
 11
-7.5
 21
-7.75
 31
0.0
  0
LINE
  5
3BD
330
3AD
100
AcDbEntity
  8
0
  6
Continuous
 62
     0
370
    18
100
AcDbLine
 10
-2.5
 20
0.0
 30
0.0
 11
0.25
 21
0.0
 31
0.0
  0
LINE
  5
3BE
330
3AD
100
AcDbEntity
  8
0
  6
Continuous
 62
     0
370
    18
100
AcDbLine
 10
-7.5
 20
5.0
 30
0.0
 11
-7.5
 21
7.75
 31
0.0
  0
LINE
  5
3BF
330
3AD
100
AcDbEntity
  8
0
  6
Continuous
 62
     0
370
    18
100
AcDbLine
 10
-12.5
 20
0.0
 30
0.0
 11
-15.25
 21
0.0
 31
0.0
  0
ENDBLK
  5
3AF
330
3AD
100
AcDbEntity
  8
0
100
AcDbBlockEnd
  0
BLOCK
  5
3C2
330
3C1
100
AcDbEntity
  8
0
100
AcDbBlockBegin
  2
SW_CENTERMARKSYMBOL_1
 70
     0
 10
0.0
 20
0.0
 30
0.0
  3
SW_CENTERMARKSYMBOL_1
  1

  0
LINE
  5
3C4
330
3C1
100
AcDbEntity
  8
0
  6
Continuous
 62
     0
370
    18
100
AcDbLine
 10
0.0
 20
0.0
 30
0.0
 11
0.0
 21
-2.5
 31
0.0
  0
LINE
  5
3C5
330
3C1
100
AcDbEntity
  8
0
  6
Continuous
 62
     0
370
    18
100
AcDbLine
 10
0.0
 20
0.0
 30
0.0
 11
2.5
 21
0.0
 31
0.0
  0
LINE
  5
3C6
330
3C1
100
AcDbEntity
  8
0
  6
Continuous
 62
     0
370
    18
100
AcDbLine
 10
0.0
 20
0.0
 30
0.0
 11
0.0
 21
2.5
 31
0.0
  0
LINE
  5
3C7
330
3C1
100
AcDbEntity
  8
0
  6
Continuous
 62
     0
370
    18
100
AcDbLine
 10
0.0
 20
0.0
 30
0.0
 11
-2.5
 21
0.0
 31
0.0
  0
LINE
  5
3C8
330
3C1
100
AcDbEntity
  8
0
  6
Continuous
 62
     0
370
    18
100
AcDbLine
 10
0.0
 20
-5.0
 30
0.0
 11
0.0
 21
-7.75
 31
0.0
  0
LINE
  5
3C9
330
3C1
100
AcDbEntity
  8
0
  6
Continuous
 62
     0
370
    18
100
AcDbLine
 10
5.0
 20
0.0
 30
0.0
 11
7.75
 21
0.0
 31
0.0
  0
LINE
  5
3CA
330
3C1
100
AcDbEntity
  8
0
  6
Continuous
 62
     0
370
    18
100
AcDbLine
 10
0.0
 20
5.0
 30
0.0
 11
0.0
 21
7.75
 31
0.0
  0
LINE
  5
3CB
330
3C1
100
AcDbEntity
  8
0
  6
Continuous
 62
     0
370
    18
100
AcDbLine
 10
-5.0
 20
0.0
 30
0.0
 11
-7.75
 21
0.0
 31
0.0
  0
LINE
  5
3CC
330
3C1
100
AcDbEntity
  8
0
  6
Continuous
 62
     0
370
    18
100
AcDbLine
 10
-7.5
 20
0.0
 30
0.0
 11
-7.5
 21
-2.5
 31
0.0
  0
LINE
  5
3CD
330
3C1
100
AcDbEntity
  8
0
  6
Continuous
 62
     0
370
    18
100
AcDbLine
 10
-7.5
 20
0.0
 30
0.0
 11
-5.0
 21
0.0
 31
0.0
  0
LINE
  5
3CE
330
3C1
100
AcDbEntity
  8
0
  6
Continuous
 62
     0
370
    18
100
AcDbLine
 10
-7.5
 20
0.0
 30
0.0
 11
-7.5
 21
2.5
 31
0.0
  0
LINE
  5
3CF
330
3C1
100
AcDbEntity
  8
0
  6
Continuous
 62
     0
370
    18
100
AcDbLine
 10
-7.5
 20
0.0
 30
0.0
 11
-10.0
 21
0.0
 31
0.0
  0
LINE
  5
3D0
330
3C1
100
AcDbEntity
  8
0
  6
Continuous
 62
     0
370
    18
100
AcDbLine
 10
-7.5
 20
-5.0
 30
0.0
 11
-7.5
 21
-7.75
 31
0.0
  0
LINE
  5
3D1
330
3C1
100
AcDbEntity
  8
0
  6
Continuous
 62
     0
370
    18
100
AcDbLine
 10
-2.5
 20
0.0
 30
0.0
 11
0.25
 21
0.0
 31
0.0
  0
LINE
  5
3D2
330
3C1
100
AcDbEntity
  8
0
  6
Continuous
 62
     0
370
    18
100
AcDbLine
 10
-7.5
 20
5.0
 30
0.0
 11
-7.5
 21
7.75
 31
0.0
  0
LINE
  5
3D3
330
3C1
100
AcDbEntity
  8
0
  6
Continuous
 62
     0
370
    18
100
AcDbLine
 10
-12.5
 20
0.0
 30
0.0
 11
-15.25
 21
0.0
 31
0.0
  0
ENDBLK
  5
3C3
330
3C1
100
AcDbEntity
  8
0
100
AcDbBlockEnd
  0
BLOCK
  5
3D6
330
3D5
100
AcDbEntity
  8
0
100
AcDbBlockBegin
  2
SW_CENTERMARKSYMBOL_2
 70
     0
 10
0.0
 20
0.0
 30
0.0
  3
SW_CENTERMARKSYMBOL_2
  1

  0
LINE
  5
3D8
330
3D5
100
AcDbEntity
  8
0
  6
Continuous
 62
     0
370
    18
100
AcDbLine
 10
0.0
 20
0.0
 30
0.0
 11
0.0
 21
-2.5
 31
0.0
  0
LINE
  5
3D9
330
3D5
100
AcDbEntity
  8
0
  6
Continuous
 62
     0
370
    18
100
AcDbLine
 10
0.0
 20
0.0
 30
0.0
 11
2.5
 21
0.0
 31
0.0
  0
LINE
  5
3DA
330
3D5
100
AcDbEntity
  8
0
  6
Continuous
 62
     0
370
    18
100
AcDbLine
 10
0.0
 20
0.0
 30
0.0
 11
0.0
 21
2.5
 31
0.0
  0
LINE
  5
3DB
330
3D5
100
AcDbEntity
  8
0
  6
Continuous
 62
     0
370
    18
100
AcDbLine
 10
0.0
 20
0.0
 30
0.0
 11
-2.5
 21
0.0
 31
0.0
  0
LINE
  5
3DC
330
3D5
100
AcDbEntity
  8
0
  6
Continuous
 62
     0
370
    18
100
AcDbLine
 10
0.0
 20
-5.0
 30
0.0
 11
0.0
 21
-7.75
 31
0.0
  0
LINE
  5
3DD
330
3D5
100
AcDbEntity
  8
0
  6
Continuous
 62
     0
370
    18
100
AcDbLine
 10
5.0
 20
0.0
 30
0.0
 11
7.75
 21
0.0
 31
0.0
  0
LINE
  5
3DE
330
3D5
100
AcDbEntity
  8
0
  6
Continuous
 62
     0
370
    18
100
AcDbLine
 10
0.0
 20
5.0
 30
0.0
 11
0.0
 21
7.75
 31
0.0
  0
LINE
  5
3DF
330
3D5
100
AcDbEntity
  8
0
  6
Continuous
 62
     0
370
    18
100
AcDbLine
 10
-5.0
 20
0.0
 30
0.0
 11
-7.75
 21
0.0
 31
0.0
  0
LINE
  5
3E0
330
3D5
100
AcDbEntity
  8
0
  6
Continuous
 62
     0
370
    18
100
AcDbLine
 10
-7.5
 20
0.0
 30
0.0
 11
-7.5
 21
-2.5
 31
0.0
  0
LINE
  5
3E1
330
3D5
100
AcDbEntity
  8
0
  6
Continuous
 62
     0
370
    18
100
AcDbLine
 10
-7.5
 20
0.0
 30
0.0
 11
-5.0
 21
0.0
 31
0.0
  0
LINE
  5
3E2
330
3D5
100
AcDbEntity
  8
0
  6
Continuous
 62
     0
370
    18
100
AcDbLine
 10
-7.5
 20
0.0
 30
0.0
 11
-7.5
 21
2.5
 31
0.0
  0
LINE
  5
3E3
330
3D5
100
AcDbEntity
  8
0
  6
Continuous
 62
     0
370
    18
100
AcDbLine
 10
-7.5
 20
0.0
 30
0.0
 11
-10.0
 21
0.0
 31
0.0
  0
LINE
  5
3E4
330
3D5
100
AcDbEntity
  8
0
  6
Continuous
 62
     0
370
    18
100
AcDbLine
 10
-7.5
 20
-5.0
 30
0.0
 11
-7.5
 21
-7.75
 31
0.0
  0
LINE
  5
3E5
330
3D5
100
AcDbEntity
  8
0
  6
Continuous
 62
     0
370
    18
100
AcDbLine
 10
-2.5
 20
0.0
 30
0.0
 11
0.25
 21
0.0
 31
0.0
  0
LINE
  5
3E6
330
3D5
100
AcDbEntity
  8
0
  6
Continuous
 62
     0
370
    18
100
AcDbLine
 10
-7.5
 20
5.0
 30
0.0
 11
-7.5
 21
7.75
 31
0.0
  0
LINE
  5
3E7
330
3D5
100
AcDbEntity
  8
0
  6
Continuous
 62
     0
370
    18
100
AcDbLine
 10
-12.5
 20
0.0
 30
0.0
 11
-15.25
 21
0.0
 31
0.0
  0
ENDBLK
  5
3D7
330
3D5
100
AcDbEntity
  8
0
100
AcDbBlockEnd
  0
BLOCK
  5
3EA
330
3E9
100
AcDbEntity
  8
0
100
AcDbBlockBegin
  2
SW_CENTERMARKSYMBOL_3
 70
     0
 10
0.0
 20
0.0
 30
0.0
  3
SW_CENTERMARKSYMBOL_3
  1

  0
LINE
  5
3EC
330
3E9
100
AcDbEntity
  8
0
  6
Continuous
 62
     0
370
    18
100
AcDbLine
 10
0.0
 20
0.0
 30
0.0
 11
0.0
 21
-2.5
 31
0.0
  0
LINE
  5
3ED
330
3E9
100
AcDbEntity
  8
0
  6
Continuous
 62
     0
370
    18
100
AcDbLine
 10
0.0
 20
0.0
 30
0.0
 11
2.5
 21
0.0
 31
0.0
  0
LINE
  5
3EE
330
3E9
100
AcDbEntity
  8
0
  6
Continuous
 62
     0
370
    18
100
AcDbLine
 10
0.0
 20
0.0
 30
0.0
 11
0.0
 21
2.5
 31
0.0
  0
LINE
  5
3EF
330
3E9
100
AcDbEntity
  8
0
  6
Continuous
 62
     0
370
    18
100
AcDbLine
 10
0.0
 20
0.0
 30
0.0
 11
-2.5
 21
0.0
 31
0.0
  0
LINE
  5
3F0
330
3E9
100
AcDbEntity
  8
0
  6
Continuous
 62
     0
370
    18
100
AcDbLine
 10
0.0
 20
-5.0
 30
0.0
 11
0.0
 21
-7.75
 31
0.0
  0
LINE
  5
3F1
330
3E9
100
AcDbEntity
  8
0
  6
Continuous
 62
     0
370
    18
100
AcDbLine
 10
5.0
 20
0.0
 30
0.0
 11
7.75
 21
0.0
 31
0.0
  0
LINE
  5
3F2
330
3E9
100
AcDbEntity
  8
0
  6
Continuous
 62
     0
370
    18
100
AcDbLine
 10
0.0
 20
5.0
 30
0.0
 11
0.0
 21
7.75
 31
0.0
  0
LINE
  5
3F3
330
3E9
100
AcDbEntity
  8
0
  6
Continuous
 62
     0
370
    18
100
AcDbLine
 10
-5.0
 20
0.0
 30
0.0
 11
-7.75
 21
0.0
 31
0.0
  0
LINE
  5
3F4
330
3E9
100
AcDbEntity
  8
0
  6
Continuous
 62
     0
370
    18
100
AcDbLine
 10
-7.5
 20
0.0
 30
0.0
 11
-7.5
 21
-2.5
 31
0.0
  0
LINE
  5
3F5
330
3E9
100
AcDbEntity
  8
0
  6
Continuous
 62
     0
370
    18
100
AcDbLine
 10
-7.5
 20
0.0
 30
0.0
 11
-5.0
 21
0.0
 31
0.0
  0
LINE
  5
3F6
330
3E9
100
AcDbEntity
  8
0
  6
Continuous
 62
     0
370
    18
100
AcDbLine
 10
-7.5
 20
0.0
 30
0.0
 11
-7.5
 21
2.5
 31
0.0
  0
LINE
  5
3F7
330
3E9
100
AcDbEntity
  8
0
  6
Continuous
 62
     0
370
    18
100
AcDbLine
 10
-7.5
 20
0.0
 30
0.0
 11
-10.0
 21
0.0
 31
0.0
  0
LINE
  5
3F8
330
3E9
100
AcDbEntity
  8
0
  6
Continuous
 62
     0
370
    18
100
AcDbLine
 10
-7.5
 20
-5.0
 30
0.0
 11
-7.5
 21
-7.75
 31
0.0
  0
LINE
  5
3F9
330
3E9
100
AcDbEntity
  8
0
  6
Continuous
 62
     0
370
    18
100
AcDbLine
 10
-2.5
 20
0.0
 30
0.0
 11
0.25
 21
0.0
 31
0.0
  0
LINE
  5
3FA
330
3E9
100
AcDbEntity
  8
0
  6
Continuous
 62
     0
370
    18
100
AcDbLine
 10
-7.5
 20
5.0
 30
0.0
 11
-7.5
 21
7.75
 31
0.0
  0
LINE
  5
3FB
330
3E9
100
AcDbEntity
  8
0
  6
Continuous
 62
     0
370
    18
100
AcDbLine
 10
-12.5
 20
0.0
 30
0.0
 11
-15.25
 21
0.0
 31
0.0
  0
ENDBLK
  5
3EB
330
3E9
100
AcDbEntity
  8
0
100
AcDbBlockEnd
  0
ENDSEC
  0
SECTION
  2
ENTITIES
  0
LINE
  5
F9
330
1F
100
AcDbEntity
  8
0
  6
CENTERX2
 62
     7
370
    18
100
AcDbLine
 10
352.6174545849
 20
46.9080238789
 30
0.0
 11
352.6174545849
 21
39.4621586124
 31
0.0
  0
LINE
  5
FA
330
1F
100
AcDbEntity
  8
0
  6
Continuous
 62
     7
370
    18
100
AcDbLine
 10
357.7661698132
 20
46.3720107039
 30
0.0
 11
357.7661698132
 21
39.9353173413
 31
0.0
  0
LINE
  5
FB
330
1F
100
AcDbEntity
  8
0
  6
Continuous
 62
     7
370
    18
100
AcDbLine
 10
364.6059427486
 20
44.7376225767
 30
0.0
 11
364.6059427486
 21
41.5697054685
 31
0.0
  0
LINE
  5
FC
330
1F
100
AcDbEntity
  8
0
  6
Continuous
 62
     7
370
    18
100
AcDbLine
 10
364.6059427486
 20
44.7376225767
 30
0.0
 11
357.7661698132
 21
46.3720107039
 31
0.0
  0
LINE
  5
FD
330
1F
100
AcDbEntity
  8
0
  6
Continuous
 62
     7
370
    18
100
AcDbLine
 10
15.0
 20
198.5
 30
0.0
 11
20.0
 21
198.5
 31
0.0
  0
LINE
  5
FE
330
1F
100
AcDbEntity
  8
0
  6
Continuous
 62
     7
370
    18
100
AcDbLine
 10
12.0
 20
148.5
 30
0.0
 11
0.0
 21
148.5
 31
0.0
  0
LINE
  5
FF
330
1F
100
AcDbEntity
  8
0
  6
Continuous
 62
     7
370
    18
100
AcDbLine
 10
357.7661698132
 20
39.9353173413
 30
0.0
 11
364.6059427486
 21
41.5697054685
 31
0.0
  0
LINE
  5
100
330
1F
100
AcDbEntity
  8
0
  6
CENTERX2
 62
     7
370
    18
100
AcDbLine
 10
348.6240467841
 20
43.1536640226
 30
0.0
 11
356.6108623857
 21
43.1536640226
 31
0.0
  0
LINE
  5
101
330
1F
100
AcDbEntity
  8
0
  6
CENTERX2
 62
     7
370
    18
100
AcDbLine
 10
357.1289238876
 20
43.1536640226
 30
0.0
 11
365.6255362296
 21
43.1536640226
 31
0.0
  0
LINE
  5
102
330
1F
100
AcDbEntity
  8
0
  6
Continuous
 62
     7
370
    18
100
AcDbLine
 10
0.0
 20
0.0
 30
0.0
 11
420.0
 21
0.0
 31
0.0
  0
LINE
  5
103
330
1F
100
AcDbEntity
  8
0
  6
Continuous
 62
     7
370
    18
100
AcDbLine
 10
0.0
 20
0.0
 30
0.0
 11
0.0
 21
297.0
 31
0.0
  0
LINE
  5
104
330
1F
100
AcDbEntity
  8
0
  6
Continuous
 62
     7
370
    18
100
AcDbLine
 10
0.0
 20
297.0
 30
0.0
 11
420.0
 21
297.0
 31
0.0
  0
LINE
  5
105
330
1F
100
AcDbEntity
  8
0
  6
Continuous
 62
     7
370
    18
100
AcDbLine
 10
420.0
 20
0.0
 30
0.0
 11
420.0
 21
297.0
 31
0.0
  0
LINE
  5
106
330
1F
100
AcDbEntity
  8
0
  6
Continuous
 62
     7
370
    25
100
AcDbLine
 10
228.0
 20
35.0
 30
0.0
 11
410.0
 21
35.0
 31
0.0
  0
LINE
  5
107
330
1F
100
AcDbEntity
  8
0
  6
Continuous
 62
     7
370
    18
100
AcDbLine
 10
410.0
 20
198.5
 30
0.0
 11
415.0
 21
198.5
 31
0.0
  0
LINE
  5
108
330
1F
100
AcDbEntity
  8
0
  6
Continuous
 62
     7
370
    18
100
AcDbLine
 10
15.0
 20
148.5
 30
0.0
 11
20.0
 21
148.5
 31
0.0
  0
LINE
  5
109
330
1F
100
AcDbEntity
  8
0
  6
Continuous
 62
     7
370
    18
100
AcDbLine
 10
228.0
 20
40.0
 30
0.0
 11
296.6
 21
40.0
 31
0.0
  0
LINE
  5
10A
330
1F
100
AcDbEntity
  8
0
  6
Continuous
 62
     7
370
    18
100
AcDbLine
 10
15.0
 20
248.5
 30
0.0
 11
20.0
 21
248.5
 31
0.0
  0
LINE
  5
10B
330
1F
100
AcDbEntity
  8
0
  6
Continuous
 62
     7
370
    35
100
AcDbLine
 10
20.0
 20
287.0
 30
0.0
 11
20.0
 21
10.0
 31
0.0
  0
LINE
  5
10C
330
1F
100
AcDbEntity
  8
0
  6
Continuous
 62
     7
370
    35
100
AcDbLine
 10
410.0
 20
287.0
 30
0.0
 11
20.0
 21
287.0
 31
0.0
  0
LINE
  5
10D
330
1F
100
AcDbEntity
  8
0
  6
Continuous
 62
     7
370
    35
100
AcDbLine
 10
410.0
 20
5.0
 30
0.0
 11
410.0
 21
287.0
 31
0.0
  0
LINE
  5
10E
330
1F
100
AcDbEntity
  8
0
  6
Continuous
 62
     7
370
    35
100
AcDbLine
 10
20.0
 20
10.0
 30
0.0
 11
415.0
 21
10.0
 31
0.0
  0
LINE
  5
10F
330
1F
100
AcDbEntity
  8
0
  6
Continuous
 62
     7
370
    18
100
AcDbLine
 10
410.0
 20
148.5
 30
0.0
 11
415.0
 21
148.5
 31
0.0
  0
LINE
  5
110
330
1F
100
AcDbEntity
  8
0
  6
Continuous
 62
     7
370
    18
100
AcDbLine
 10
228.0
 20
50.0
 30
0.0
 11
296.6
 21
50.0
 31
0.0
  0
LINE
  5
111
330
1F
100
AcDbEntity
  8
0
  6
Continuous
 62
     7
370
    18
100
AcDbLine
 10
15.0
 20
98.5
 30
0.0
 11
20.0
 21
98.5
 31
0.0
  0
LINE
  5
112
330
1F
100
AcDbEntity
  8
0
  6
Continuous
 62
     7
370
    18
100
AcDbLine
 10
296.6
 20
45.0
 30
0.0
 11
228.0
 21
45.0
 31
0.0
  0
LINE
  5
113
330
1F
100
AcDbEntity
  8
0
  6
Continuous
 62
     7
370
    18
100
AcDbLine
 10
65.0
 20
292.0
 30
0.0
 11
65.0
 21
287.0
 31
0.0
  0
LINE
  5
114
330
1F
100
AcDbEntity
  8
0
  6
Continuous
 62
     7
370
    18
100
AcDbLine
 10
230.0
 20
292.0
 30
0.0
 11
230.0
 21
297.0
 31
0.0
  0
LINE
  5
115
330
1F
100
AcDbEntity
  8
0
  6
Continuous
 62
     7
370
    25
100
AcDbLine
 10
296.6
 20
55.0
 30
0.0
 11
296.6
 21
35.0
 31
0.0
  0
LINE
  5
116
330
1F
100
AcDbEntity
  8
0
  6
Continuous
 62
     7
370
    18
100
AcDbLine
 10
410.0
 20
98.5
 30
0.0
 11
415.0
 21
98.5
 31
0.0
  0
LINE
  5
117
330
1F
100
AcDbEntity
  8
0
100
AcDbLine
 10
230.0
 20
5.0
 30
0.0
 11
230.0
 21
0.0
 31
0.0
  0
LINE
  5
118
330
1F
100
AcDbEntity
  8
0
  6
Continuous
 62
     7
370
    18
100
AcDbLine
 10
125.0
 20
292.0
 30
0.0
 11
125.0
 21
297.0
 31
0.0
  0
LINE
  5
119
330
1F
100
AcDbEntity
  8
0
  6
Continuous
 62
     7
370
    18
100
AcDbLine
 10
125.0
 20
5.0
 30
0.0
 11
125.0
 21
0.0
 31
0.0
  0
LINE
  5
11A
330
1F
100
AcDbEntity
  8
0
  6
Continuous
 62
     7
370
    25
100
AcDbLine
 10
410.0
 20
55.0
 30
0.0
 11
228.0
 21
55.0
 31
0.0
  0
LINE
  5
11B
330
1F
100
AcDbEntity
  8
0
  6
Continuous
 62
     7
370
    18
100
AcDbLine
 10
228.0
 20
55.0
 30
0.0
 11
410.0
 21
55.0
 31
0.0
  0
LINE
  5
11C
330
1F
100
AcDbEntity
  8
0
  6
Continuous
 62
     7
370
    18
100
AcDbLine
 10
410.0
 20
55.0
 30
0.0
 11
228.0
 21
55.0
 31
0.0
  0
LINE
  5
11D
330
1F
100
AcDbEntity
  8
0
  6
Continuous
 62
     7
370
    18
100
AcDbLine
 10
268.0
 20
76.5
 30
0.0
 11
268.0
 21
55.0
 31
0.0
  0
LINE
  5
11E
330
1F
100
AcDbEntity
  8
0
  6
Continuous
 62
     7
370
    18
100
AcDbLine
 10
271.6
 20
55.0
 30
0.0
 11
271.6
 21
40.0
 31
0.0
  0
LINE
  5
11F
330
1F
100
AcDbEntity
  8
0
  6
Continuous
 62
     7
370
    18
100
AcDbLine
 10
247.0
 20
55.0
 30
0.0
 11
247.0
 21
35.0
 31
0.0
  0
LINE
  5
120
330
1F
100
AcDbEntity
  8
0
  6
Continuous
 62
     7
370
    35
100
AcDbLine
 10
228.0
 20
76.5
 30
0.0
 11
228.0
 21
10.0
 31
0.0
  0
LINE
  5
121
330
1F
100
AcDbEntity
  8
0
  6
Continuous
 62
     7
370
    18
100
AcDbLine
 10
15.0
 20
292.0
 30
0.0
 11
415.0
 21
292.0
 31
0.0
  0
LINE
  5
122
330
1F
100
AcDbEntity
  8
0
  6
Continuous
 62
     7
370
    18
100
AcDbLine
 10
228.0
 20
65.75
 30
0.0
 11
310.0
 21
65.75
 31
0.0
  0
LINE
  5
123
330
1F
100
AcDbEntity
  8
0
  6
Continuous
 62
     7
370
    35
100
AcDbLine
 10
228.0
 20
76.5
 30
0.0
 11
410.0
 21
76.5
 31
0.0
  0
LINE
  5
124
330
1F
100
AcDbEntity
  8
0
  6
Continuous
 62
     7
370
    18
100
AcDbLine
 10
15.0
 20
48.5
 30
0.0
 11
20.0
 21
48.5
 31
0.0
  0
LINE
  5
125
330
1F
100
AcDbEntity
  8
0
  6
Continuous
 62
     7
370
    18
100
AcDbLine
 10
410.0
 20
48.5
 30
0.0
 11
415.0
 21
48.5
 31
0.0
  0
LINE
  5
126
330
1F
100
AcDbEntity
  8
0
  6
Continuous
 62
     7
370
    18
100
AcDbLine
 10
332.6610845472
 20
20.0
 30
0.0
 11
332.6610845472
 21
10.0
 31
0.0
  0
LINE
  5
127
330
1F
100
AcDbEntity
  8
0
  6
Continuous
 62
     7
370
    18
100
AcDbLine
 10
410.0
 20
248.5
 30
0.0
 11
415.0
 21
248.5
 31
0.0
  0
LINE
  5
128
330
1F
100
AcDbEntity
  8
0
  6
Continuous
 62
     7
370
    18
100
AcDbLine
 10
65.0
 20
10.0
 30
0.0
 11
65.0
 21
5.0
 31
0.0
  0
LINE
  5
129
330
1F
100
AcDbEntity
  8
0
  6
Continuous
 62
     7
370
    18
100
AcDbLine
 10
115.0
 20
10.0
 30
0.0
 11
115.0
 21
5.0
 31
0.0
  0
LINE
  5
12A
330
1F
100
AcDbEntity
  8
0
  6
Continuous
 62
     7
370
    18
100
AcDbLine
 10
115.0
 20
292.0
 30
0.0
 11
115.0
 21
287.0
 31
0.0
  0
LINE
  5
12B
330
1F
100
AcDbEntity
  8
0
  6
Continuous
 62
     7
370
    18
100
AcDbLine
 10
165.0
 20
10.0
 30
0.0
 11
165.0
 21
5.0
 31
0.0
  0
LINE
  5
12C
330
1F
100
AcDbEntity
  8
0
  6
Continuous
 62
     7
370
    18
100
AcDbLine
 10
165.0
 20
292.0
 30
0.0
 11
165.0
 21
287.0
 31
0.0
  0
LINE
  5
12D
330
1F
100
AcDbEntity
  8
0
  6
Continuous
 62
     7
370
    18
100
AcDbLine
 10
215.0
 20
10.0
 30
0.0
 11
215.0
 21
5.0
 31
0.0
  0
LINE
  5
12E
330
1F
100
AcDbEntity
  8
0
  6
Continuous
 62
     7
370
    18
100
AcDbLine
 10
215.0
 20
292.0
 30
0.0
 11
215.0
 21
287.0
 31
0.0
  0
LINE
  5
12F
330
1F
100
AcDbEntity
  8
0
  6
Continuous
 62
     7
370
    18
100
AcDbLine
 10
265.0
 20
10.0
 30
0.0
 11
265.0
 21
5.0
 31
0.0
  0
LINE
  5
130
330
1F
100
AcDbEntity
  8
0
  6
Continuous
 62
     7
370
    18
100
AcDbLine
 10
265.0
 20
292.0
 30
0.0
 11
265.0
 21
287.0
 31
0.0
  0
LINE
  5
131
330
1F
100
AcDbEntity
  8
0
  6
Continuous
 62
     7
370
    18
100
AcDbLine
 10
347.6610845472
 20
20.0
 30
0.0
 11
347.6610845472
 21
10.0
 31
0.0
  0
LINE
  5
132
330
1F
100
AcDbEntity
  8
0
  6
Continuous
 62
     7
370
    18
100
AcDbLine
 10
362.6610845472
 20
20.0
 30
0.0
 11
362.6610845472
 21
10.0
 31
0.0
  0
LINE
  5
133
330
1F
100
AcDbEntity
  8
0
  6
Continuous
 62
     7
370
    25
100
AcDbLine
 10
327.6610845472
 20
10.0
 30
0.0
 11
327.6610845472
 21
55.0
 31
0.0
  0
LINE
  5
134
330
1F
100
AcDbEntity
  8
0
  6
Continuous
 62
     7
370
    18
100
AcDbLine
 10
20.0
 20
292.0
 30
0.0
 11
20.0
 21
297.0
 31
0.0
  0
LINE
  5
135
330
1F
100
AcDbEntity
  8
0
  6
Continuous
 62
     7
370
    18
100
AcDbLine
 10
20.0
 20
5.0
 30
0.0
 11
20.0
 21
0.0
 31
0.0
  0
LINE
  5
136
330
1F
100
AcDbEntity
  8
0
  6
Continuous
 62
     7
370
    18
100
AcDbLine
 10
315.0
 20
10.0
 30
0.0
 11
315.0
 21
5.0
 31
0.0
  0
LINE
  5
137
330
1F
100
AcDbEntity
  8
0
  6
Continuous
 62
     7
370
    18
100
AcDbLine
 10
315.0
 20
292.0
 30
0.0
 11
315.0
 21
287.0
 31
0.0
  0
LINE
  5
138
330
1F
100
AcDbEntity
  8
0
  6
Continuous
 62
     7
370
    18
100
AcDbLine
 10
365.0
 20
10.0
 30
0.0
 11
365.0
 21
5.0
 31
0.0
  0
LINE
  5
139
330
1F
100
AcDbEntity
  8
0
  6
Continuous
 62
     7
370
    18
100
AcDbLine
 10
365.0
 20
292.0
 30
0.0
 11
365.0
 21
287.0
 31
0.0
  0
LINE
  5
13A
330
1F
100
AcDbEntity
  8
0
  6
Continuous
 62
     7
370
    18
100
AcDbLine
 10
15.0
 20
292.0
 30
0.0
 11
15.0
 21
5.0
 31
0.0
  0
LINE
  5
13B
330
1F
100
AcDbEntity
  8
0
  6
Continuous
 62
     7
370
    18
100
AcDbLine
 10
15.0
 20
5.0
 30
0.0
 11
415.0
 21
5.0
 31
0.0
  0
LINE
  5
13C
330
1F
100
AcDbEntity
  8
0
  6
Continuous
 62
     7
370
    18
100
AcDbLine
 10
415.0
 20
292.0
 30
0.0
 11
415.0
 21
5.0
 31
0.0
  0
LINE
  5
13D
330
1F
100
AcDbEntity
  8
0
  6
Continuous
 62
     7
370
    18
100
AcDbLine
 10
347.6610845472
 20
44.213444
 30
0.0
 11
327.6610845472
 21
44.213444
 31
0.0
  0
LINE
  5
13E
330
1F
100
AcDbEntity
  8
0
  6
Continuous
 62
     7
370
    18
100
AcDbLine
 10
347.6610845472
 20
35.0
 30
0.0
 11
347.6610845472
 21
55.0
 31
0.0
  0
LINE
  5
13F
330
1F
100
AcDbEntity
  8
0
  6
Continuous
 62
     7
370
    18
100
AcDbLine
 10
370.057188
 20
55.012032
 30
0.0
 11
370.057188
 21
35.0
 31
0.0
  0
LINE
  5
140
330
1F
100
AcDbEntity
  8
0
  6
Continuous
 62
     7
370
    18
100
AcDbLine
 10
398.0
 20
35.0
 30
0.0
 11
398.0
 21
20.0
 31
0.0
  0
LINE
  5
141
330
1F
100
AcDbEntity
  8
0
  6
Continuous
 62
     7
370
    18
100
AcDbLine
 10
410.0
 20
15.0
 30
0.0
 11
327.6610845472
 21
15.0
 31
0.0
  0
LINE
  5
142
330
1F
100
AcDbEntity
  8
0
  6
Continuous
 62
     7
370
    18
100
AcDbLine
 10
327.6610845472
 20
20.0
 30
0.0
 11
410.0
 21
20.0
 31
0.0
  0
LINE
  5
143
330
1F
100
AcDbEntity
  8
0
  6
Continuous
 62
     7
370
    18
100
AcDbLine
 10
341.485486
 20
20.0
 30
0.0
 11
341.485486
 21
27.564675
 31
0.0
  0
LINE
  5
144
330
1F
100
AcDbEntity
  8
0
  6
Continuous
 62
     7
370
    25
100
AcDbLine
 10
310.0
 20
76.5
 30
0.0
 11
310.0
 21
55.0
 31
0.0
  0
CIRCLE
  5
145
330
1F
100
AcDbEntity
  8
0
  6
Continuous
 62
     7
370
    18
100
AcDbCircle
 10
11.0
 20
108.5
 30
0.0
 40
2.750000000000001
  0
CIRCLE
  5
146
330
1F
100
AcDbEntity
  8
0
  6
Continuous
 62
     7
370
    18
100
AcDbCircle
 10
11.0
 20
188.5
 30
0.0
 40
2.750000000000001
  0
CIRCLE
  5
147
330
1F
100
AcDbEntity
  8
0
  6
Continuous
 62
     7
370
    18
100
AcDbCircle
 10
352.6174545849
 20
43.1536640226
 30
0.0
 40
3.218346681300138
  0
CIRCLE
  5
148
330
1F
100
AcDbEntity
  8
0
  6
Continuous
 62
     7
370
    18
100
AcDbCircle
 10
352.6174545849
 20
43.1536640226
 30
0.0
 40
1.583958554121555
  0
INSERT
  5
149
330
1F
100
AcDbEntity
  8
0
  6
Continuous
 62
     7
100
AcDbBlockReference
  2
ACO-Logo
 10
314.3510726297
 20
57.6366106772
 30
0.0
  0
POINT
  5
14A
330
1F
100
AcDbEntity
  8
0
100
AcDbPoint
 10
0.0
 20
0.0
 30
0.0
  0
POINT
  5
14B
330
1F
100
AcDbEntity
  8
0
100
AcDbPoint
 10
410.0
 20
10.0
 30
0.0
  0
MTEXT
  5
14C
330
1F
100
AcDbEntity
  8
0
  6
Continuous
 62
     7
370
    18
100
AcDbMText
 10
17.7359443114
 20
124.8017866468
 30
0.0
 40
2.0
 41
0.0
 71
     2
 72
     1
  1
D
  7
SLDTEXTSTYLE0
 73
     1
 44
1.0
  0
MTEXT
  5
14D
330
1F
100
AcDbEntity
  8
0
  6
Continuous
 62
     7
370
    18
100
AcDbMText
 10
17.6274822413
 20
174.7261854936
 30
0.0
 40
2.0
 41
0.0
 71
     2
 72
     1
  1
C
  7
SLDTEXTSTYLE0
 73
     1
 44
1.0
  0
MTEXT
  5
14E
330
1F
100
AcDbEntity
  8
0
  6
Continuous
 62
     7
370
    18
100
AcDbMText
 10
17.5516905072
 20
224.4926420442
 30
0.0
 40
2.0
 41
0.0
 71
     2
 72
     1
  1
B
  7
SLDTEXTSTYLE0
 73
     1
 44
1.0
  0
MTEXT
  5
14F
330
1F
100
AcDbEntity
  8
0
  6
Continuous
 62
     7
370
    18
100
AcDbMText
 10
290.0344258799
 20
290.5428789914
 30
0.0
 40
2.0
 41
0.0
 71
     2
 72
     1
  1
6
  7
SLDTEXTSTYLE0
 73
     1
 44
1.0
  0
MTEXT
  5
150
330
1F
100
AcDbEntity
  8
0
  6
Continuous
 62
     7
370
    18
100
AcDbMText
 10
240.0417859812
 20
290.6369260235
 30
0.0
 40
2.0
 41
0.0
 71
     2
 72
     1
  1
5
  7
SLDTEXTSTYLE0
 73
     1
 44
1.0
  0
MTEXT
  5
151
330
1F
100
AcDbEntity
  8
0
  6
Continuous
 62
     7
370
    18
100
AcDbMText
 10
190.0300404524
 20
290.6343268032
 30
0.0
 40
2.0
 41
0.0
 71
     2
 72
     1
  1
4
  7
SLDTEXTSTYLE0
 73
     1
 44
1.0
  0
MTEXT
  5
152
330
1F
100
AcDbEntity
  8
0
  6
Continuous
 62
     7
370
    18
100
AcDbMText
 10
140.0165868337
 20
290.6378887952
 30
0.0
 40
2.0
 41
0.0
 71
     2
 72
     1
  1
3
  7
SLDTEXTSTYLE0
 73
     1
 44
1.0
  0
MTEXT
  5
153
330
1F
100
AcDbEntity
  8
0
  6
Continuous
 62
     7
370
    18
100
AcDbMText
 10
90.033223
 20
290.5566702875
 30
0.0
 40
2.0
 41
0.0
 71
     2
 72
     1
  1
2
  7
SLDTEXTSTYLE0
 73
     1
 44
1.0
  0
MTEXT
  5
154
330
1F
100
AcDbEntity
  8
0
  6
Continuous
 62
     7
370
    18
100
AcDbMText
 10
40.0509551097
 20
290.5530165805
 30
0.0
 40
2.0
 41
0.0
 71
     2
 72
     1
  1
1
  7
SLDTEXTSTYLE0
 73
     1
 44
1.0
  0
MTEXT
  5
155
330
1F
100
AcDbEntity
  8
0
  6
Continuous
 62
     7
370
    18
100
AcDbMText
 10
17.5609786315
 20
271.2966048816
 30
0.0
 40
2.0
 41
0.0
 71
     2
 72
     1
  1
A
  7
SLDTEXTSTYLE0
 73
     1
 44
1.0
  0
MTEXT
  5
156
330
1F
100
AcDbEntity
  8
0
  6
Continuous
 62
     7
370
    18
100
AcDbMText
 10
89.9333968896
 20
8.5904490253
 30
0.0
 40
2.0
 41
0.0
 71
     2
 72
     1
  1
2
  7
SLDTEXTSTYLE0
 73
     1
 44
1.0
  0
MTEXT
  5
157
330
1F
100
AcDbEntity
  8
0
  6
Continuous
 62
     7
370
    18
100
AcDbMText
 10
39.9009486579
 20
8.6623118453
 30
0.0
 40
2.0
 41
0.0
 71
     2
 72
     1
  1
1
  7
SLDTEXTSTYLE0
 73
     1
 44
1.0
  0
MTEXT
  5
158
330
1F
100
AcDbEntity
  8
0
  6
Continuous
 62
     7
370
    18
100
AcDbMText
 10
190.0227230239
 20
8.7073169286
 30
0.0
 40
2.0
 41
0.0
 71
     2
 72
     1
  1
4
  7
SLDTEXTSTYLE0
 73
     1
 44
1.0
  0
MTEXT
  5
159
330
1F
100
AcDbEntity
  8
0
  6
Continuous
 62
     7
370
    18
100
AcDbMText
 10
140.0453427777
 20
8.5647154541
 30
0.0
 40
2.0
 41
0.0
 71
     2
 72
     1
  1
3
  7
SLDTEXTSTYLE0
 73
     1
 44
1.0
  0
MTEXT
  5
15A
330
1F
100
AcDbEntity
  8
0
  6
Continuous
 62
     7
370
    18
100
AcDbMText
 10
239.8749782531
 20
8.5637526825
 30
0.0
 40
2.0
 41
0.0
 71
     2
 72
     1
  1
5
  7
SLDTEXTSTYLE0
 73
     1
 44
1.0
  0
MTEXT
  5
15B
330
1F
100
AcDbEntity
  8
0
  6
Continuous
 62
     7
370
    18
100
AcDbMText
 10
412.6717254925
 20
224.51208263
 30
0.0
 40
2.0
 41
0.0
 71
     2
 72
     1
  1
B
  7
SLDTEXTSTYLE0
 73
     1
 44
1.0
  0
MTEXT
  5
15C
330
1F
100
AcDbEntity
  8
0
  6
Continuous
 62
     7
370
    18
100
AcDbMText
 10
412.5951211154
 20
271.2798202564
 30
0.0
 40
2.0
 41
0.0
 71
     2
 72
     1
  1
A
  7
SLDTEXTSTYLE0
 73
     1
 44
1.0
  0
MTEXT
  5
15D
330
1F
100
AcDbEntity
  8
0
  6
Continuous
 62
     7
370
    18
100
AcDbMText
 10
412.6491448679
 20
174.7279841048
 30
0.0
 40
2.0
 41
0.0
 71
     2
 72
     1
  1
C
  7
SLDTEXTSTYLE0
 73
     1
 44
1.0
  0
MTEXT
  5
15E
330
1F
100
AcDbEntity
  8
0
  6
Continuous
 62
     7
370
    18
100
AcDbMText
 10
340.0216466634
 20
290.5954278102
 30
0.0
 40
2.0
 41
0.0
 71
     2
 72
     1
  1
7
  7
SLDTEXTSTYLE0
 73
     1
 44
1.0
  0
MTEXT
  5
15F
330
1F
100
AcDbEntity
  8
0
  6
Continuous
 62
     7
370
    18
100
AcDbMText
 10
390.037657264
 20
290.6215496941
 30
0.0
 40
2.0
 41
0.0
 71
     2
 72
     1
  1
8
  7
SLDTEXTSTYLE0
 73
     1
 44
1.0
  0
MTEXT
  5
160
330
1F
100
AcDbEntity
  8
0
  6
Continuous
 62
     7
370
    18
100
AcDbMText
 10
17.6897935208
 20
74.7267628143
 30
0.0
 40
2.0
 41
0.0
 71
     2
 72
     1
  1
E
  7
SLDTEXTSTYLE0
 73
     1
 44
1.0
  0
MTEXT
  5
161
330
1F
100
AcDbEntity
  8
0
  6
Continuous
 62
     7
370
    18
100
AcDbMText
 10
17.5936930126
 20
27.773321616
 30
0.0
 40
2.0
 41
0.0
 71
     2
 72
     1
  1
F
  7
SLDTEXTSTYLE0
 73
     1
 44
1.0
  0
MTEXT
  5
162
330
1F
100
AcDbEntity
  8
0
  6
Continuous
 62
     7
370
    18
100
AcDbMText
 10
339.8003474583
 20
8.7205095051
 30
0.0
 40
2.0
 41
0.0
 71
     2
 72
     1
  1
7
  7
SLDTEXTSTYLE0
 73
     1
 44
1.0
  0
MTEXT
  5
163
330
1F
100
AcDbEntity
  8
0
  6
Continuous
 62
     7
370
    18
100
AcDbMText
 10
289.7886477179
 20
8.6884673623
 30
0.0
 40
2.0
 41
0.0
 71
     2
 72
     1
  1
6
  7
SLDTEXTSTYLE0
 73
     1
 44
1.0
  0
MTEXT
  5
164
330
1F
100
AcDbEntity
  8
0
  6
Continuous
 62
     7
370
    18
100
AcDbMText
 10
412.5160699095
 20
74.5096307526
 30
0.0
 40
2.0
 41
0.0
 71
     2
 72
     1
  1
E
  7
SLDTEXTSTYLE0
 73
     1
 44
1.0
  0
MTEXT
  5
165
330
1F
100
AcDbEntity
  8
0
  6
Continuous
 62
     7
370
    18
100
AcDbMText
 10
412.6234021365
 20
124.4517683275
 30
0.0
 40
2.0
 41
0.0
 71
     2
 72
     1
  1
D
  7
SLDTEXTSTYLE0
 73
     1
 44
1.0
  0
MTEXT
  5
166
330
1F
100
AcDbEntity
  8
0
  6
Continuous
 62
     7
370
    18
100
AcDbMText
 10
411.7952690469
 20
41.9107873916
 30
0.0
 40
1.8
 41
0.0
 71
     3
 72
     1
  1
Plotdatum: 11.09.2024
  7
SLDTEXTSTYLE0
 11
-3.269436733918102E-15
 21
1.0
 31
0.0
 73
     1
 44
1.0
  0
MTEXT
  5
167
330
1F
100
AcDbEntity
  8
0
  6
Continuous
 62
     7
370
    18
100
AcDbMText
 10
412.557933251
 20
8.2549718046
 30
0.0
 40
1.8
 41
0.0
 71
     2
 72
     1
  1
A3
  7
SLDTEXTSTYLE0
 73
     1
 44
1.0
  0
MTEXT
  5
168
330
1F
100
AcDbEntity
  8
0
  6
Continuous
 62
     7
370
    18
100
AcDbMText
 10
390.594604279
 20
8.3847467643
 30
0.0
 40
1.8
 41
0.0
 71
     2
 72
     1
  1
CAD-System: SolidWorks
  7
SLDTEXTSTYLE0
 73
     1
 44
1.0
  0
MTEXT
  5
169
330
1F
100
AcDbEntity
  8
0
  6
Continuous
 62
     7
370
    18
100
AcDbMText
 10
403.9986368527
 20
28.4394692021
 30
0.0
 40
5.0
 41
0.0
 71
     2
 72
     1
  1
A
  7
SLDTEXTSTYLE0
 73
     1
 44
1.0
  0
MTEXT
  5
16A
330
1F
100
AcDbEntity
  8
0
  6
Continuous
 62
     7
370
    18
100
AcDbMText
 10
249.556836311
 20
38.5581729516
 30
0.0
 40
2.0
 41
0.0
 71
     1
 72
     1
  1
Freigegeben
  7
SLDTEXTSTYLE0
 73
     1
 44
1.0
  0
MTEXT
  5
16B
330
1F
100
AcDbEntity
  8
0
  6
Continuous
 62
     7
370
    18
100
AcDbMText
 10
284.096264263
 20
43.5473338598
 30
0.0
 40
2.0
 41
0.0
 71
     2
 72
     1
  1
dca
  7
SLDTEXTSTYLE0
 73
     1
 44
1.0
  0
MTEXT
  5
16C
330
1F
100
AcDbEntity
  8
0
  6
Continuous
 62
     7
370
    18
100
AcDbMText
 10
249.5284668163
 20
43.5603133928
 30
0.0
 40
2.0
 41
0.0
 71
     1
 72
     1
  1
10.09.2024
  7
SLDTEXTSTYLE0
 73
     1
 44
1.0
  0
MTEXT
  5
16D
330
1F
100
AcDbEntity
  8
0
  6
Continuous
 62
     7
370
    18
100
AcDbMText
 10
283.7836865885
 20
48.5138972561
 30
0.0
 40
2.0
 41
0.0
 71
     2
 72
     1
  1
haljilji
  7
SLDTEXTSTYLE0
 73
     1
 44
1.0
  0
MTEXT
  5
16E
330
1F
100
AcDbEntity
  8
0
  6
Continuous
 62
     7
370
    18
100
AcDbMText
 10
249.5284668163
 20
48.4989062069
 30
0.0
 40
2.0
 41
0.0
 71
     1
 72
     1
  1
19.07.17
  7
SLDTEXTSTYLE0
 73
     1
 44
1.0
  0
MTEXT
  5
16F
330
1F
100
AcDbEntity
  8
0
  6
Continuous
 62
     7
370
     0
100
AcDbMText
 10
372.2007348103
 20
38.8723054925
 30
0.0
 40
1.5
 41
0.0
 71
     1
 72
     1
  1
Copyright reserved! © ACO AG
  7
SLDTEXTSTYLE0
 73
     1
 44
1.0
  0
INSERT
  5
178
330
1F
100
AcDbEntity
  8
0
  6
Continuous
 62
     7
370
     0
100
AcDbBlockReference
  2
SW_NOTE_0_3
 10
372.2203831445
 20
51.2202922854
 30
0.0
  0
MTEXT
  5
179
330
1F
100
AcDbEntity
  8
0
  6
Continuous
 62
     7
370
    18
100
AcDbMText
 10
330.2607505021
 20
13.524501801
 30
0.0
 40
2.0
 41
0.0
 71
     2
 72
     1
  1
-
  7
SLDTEXTSTYLE0
 73
     1
 44
1.0
  0
MTEXT
  5
17A
330
1F
100
AcDbEntity
  8
0
  6
Continuous
 62
     7
370
    18
100
AcDbMText
 10
364.9468572407
 20
18.4594173137
 30
0.0
 40
2.0
 41
0.0
 71
     1
 72
     1
  1
SAP Nr.
  7
SLDTEXTSTYLE0
 73
     1
 44
1.0
  0
MTEXT
  5
17B
330
1F
100
AcDbEntity
  8
0
  6
Continuous
 62
     7
370
    18
100
AcDbMText
 10
354.24544421
 20
18.5245664709
 30
0.0
 40
2.0
 41
0.0
 71
     2
 72
     1
  1
dca
  7
SLDTEXTSTYLE0
 73
     1
 44
1.0
  0
MTEXT
  5
17C
330
1F
100
AcDbEntity
  8
0
  6
Continuous
 62
     7
370
    18
100
AcDbMText
 10
340.2667571276
 20
18.5245664709
 30
0.0
 40
2.0
 41
0.0
 71
     2
 72
     1
  1
26.08.2024
  7
SLDTEXTSTYLE0
 73
     1
 44
1.0
  0
MTEXT
  5
17D
330
1F
100
AcDbEntity
  8
0
  6
Continuous
 62
     7
370
    18
100
AcDbMText
 10
330.227417144
 20
18.524501801
 30
0.0
 40
2.0
 41
0.0
 71
     2
 72
     1
  1
A
  7
SLDTEXTSTYLE0
 73
     1
 44
1.0
  0
MTEXT
  5
17E
330
1F
100
AcDbEntity
  8
0
  6
Continuous
 62
     7
370
    18
100
AcDbMText
 10
311.764909851
 20
46.3490312465
 30
0.0
 40
5.0
 41
0.0
 71
     2
 72
     1
  1
1:1
  7
SLDTEXTSTYLE0
 73
     1
 44
1.0
  0
MTEXT
  5
17F
330
1F
100
AcDbEntity
  8
0
  6
Continuous
 62
     7
370
    18
100
AcDbMText
 10
230.1851195342
 20
38.7793829468
 30
0.0
 40
2.0
 41
0.0
 71
     1
 72
     1
  1
Status:
  7
SLDTEXTSTYLE0
 73
     1
 44
1.0
  0
MTEXT
  5
180
330
1F
100
AcDbEntity
  8
0
  6
Continuous
 62
     7
370
    18
100
AcDbMText
 10
344.926838705
 20
28.2772828851
 30
0.0
 40
5.0
 41
0.0
 71
     1
 72
     1
  1
420228
  7
SLDTEXTSTYLE0
 73
     1
 44
1.0
  0
MTEXT
  5
181
330
1F
100
AcDbEntity
  8
0
  6
Continuous
 62
     7
370
    18
100
AcDbMText
 10
231.1132118803
 20
14.9211049657
 30
0.0
 40
2.5
 41
0.0
 71
     1
 72
     1
  1
Art. Nr.: 2090854
  7
SLDTEXTSTYLE0
 73
     1
 44
1.0
  0
MTEXT
  5
182
330
1F
100
AcDbEntity
  8
0
  6
Continuous
 62
     7
370
    18
100
AcDbMText
 10
231.1475981734
 20
21.4529560996
 30
0.0
 40
2.5
 41
0.0
 71
     1
 72
     1
  1
Neopren (420223) + Schrauben
  7
SLDTEXTSTYLE0
 73
     1
 44
1.0
  0
MTEXT
  5
183
330
1F
100
AcDbEntity
  8
0
  6
Continuous
 62
     7
370
    18
100
AcDbMText
 10
231.1159560181
 20
33.0904969858
 30
0.0
 40
2.5
 41
0.0
 71
     1
 72
     1
  1
Bauelemente
  7
SLDTEXTSTYLE0
 73
     1
 44
1.0
  0
MTEXT
  5
184
330
1F
100
AcDbEntity
  8
0
  6
Continuous
 62
     7
370
    18
100
AcDbMText
 10
231.1475981734
 20
28.0307932366
 30
0.0
 40
3.5
 41
0.0
 71
     1
 72
     1
  1
Verbindungsset
  7
SLDTEXTSTYLE0
 73
     1
 44
1.0
  0
MTEXT
  5
185
330
1F
100
AcDbEntity
  8
0
  6
Continuous
 62
     7
370
    18
100
AcDbMText
 10
348.2746465368
 20
53.819119072
 30
0.0
 40
2.0
 41
0.0
 71
     1
 72
     1
  1
Projektion: ISO-E
  7
SLDTEXTSTYLE0
 73
     1
 44
1.0
  0
MTEXT
  5
186
330
1F
100
AcDbEntity
  8
0
  6
Continuous
 62
     7
370
    18
100
AcDbMText
 10
337.7677091855
 20
49.3670227094
 30
0.0
 40
2.5
 41
0.0
 71
     2
 72
     1
  1
Millimeter
  7
SLDTEXTSTYLE0
 73
     1
 44
1.0
  0
MTEXT
  5
187
330
1F
100
AcDbEntity
  8
0
  6
Continuous
 62
     7
370
    18
100
AcDbMText
 10
337.6323777421
 20
53.855374072
 30
0.0
 40
2.0
 41
0.0
 71
     2
 72
     1
  1
Masseinheit:
  7
SLDTEXTSTYLE0
 73
     1
 44
1.0
  0
MTEXT
  5
188
330
1F
100
AcDbEntity
  8
0
  6
Continuous
 62
     7
370
    18
100
AcDbMText
 10
337.6114490186
 20
43.5452078816
 30
0.0
 40
2.0
 41
0.0
 71
     2
 72
     1
  1
Blatt / Anz.:
  7
SLDTEXTSTYLE0
 73
     1
 44
1.0
  0
MTEXT
  5
189
330
1F
100
AcDbEntity
  8
0
  6
Continuous
 62
     7
370
    18
100
AcDbMText
 10
329.2895578243
 20
28.4139191092
 30
0.0
 40
5.0
 41
0.0
 71
     1
 72
     1
  1
CH
  7
SLDTEXTSTYLE0
 73
     1
 44
1.0
  0
MTEXT
  5
18A
330
1F
100
AcDbEntity
  8
0
  6
Continuous
 62
     7
370
    18
100
AcDbMText
 10
330.40704
 20
33.692638072
 30
0.0
 40
2.0
 41
0.0
 71
     1
 72
     1
  1
Zeichnung Nr.:
  7
SLDTEXTSTYLE0
 73
     1
 44
1.0
  0
MTEXT
  5
18B
330
1F
100
AcDbEntity
  8
0
  6
Continuous
 62
     7
370
    18
100
AcDbMText
 10
269.897953
 20
75.161075072
 30
0.0
 40
2.0
 41
0.0
 71
     1
 72
     1
  1
Gewicht:
  7
SLDTEXTSTYLE0
 73
     1
 44
1.0
  0
MTEXT
  5
18C
330
1F
100
AcDbEntity
  8
0
  6
Continuous
 62
     7
370
    18
100
AcDbMText
 10
230.0
 20
64.542328072
 30
0.0
 40
2.0
 41
0.0
 71
     1
 72
     1
  1
zul. Abweichung:
  7
SLDTEXTSTYLE0
 73
     1
 44
1.0
  0
MTEXT
  5
18D
330
1F
100
AcDbEntity
  8
0
  6
Continuous
 62
     7
370
    18
100
AcDbMText
 10
269.612607
 20
64.542328072
 30
0.0
 40
2.0
 41
0.0
 71
     1
 72
     1
  1
Oberfläche:
  7
SLDTEXTSTYLE0
 73
     1
 44
1.0
  0
MTEXT
  5
18E
330
1F
100
AcDbEntity
  8
0
  6
Continuous
 62
     7
370
    18
100
AcDbMText
 10
230.261411
 20
43.4433838912
 30
0.0
 40
2.0
 41
0.0
 71
     1
 72
     1
  1
Freigegeben:
  7
SLDTEXTSTYLE0
 73
     1
 44
1.0
  0
MTEXT
  5
18F
330
1F
100
AcDbEntity
  8
0
  6
Continuous
 62
     7
370
    18
100
AcDbMText
 10
230.0
 20
75.161075072
 30
0.0
 40
2.0
 41
0.0
 71
     1
 72
     1
  1
Werkstoff:
  7
SLDTEXTSTYLE0
 73
     1
 44
1.0
  0
MTEXT
  5
190
330
1F
100
AcDbEntity
  8
0
  6
Continuous
 62
     7
370
    18
100
AcDbMText
 10
254.035545
 20
53.129475072
 30
0.0
 40
2.0
 41
0.0
 71
     1
 72
     1
  1
Datum:
  7
SLDTEXTSTYLE0
 73
     1
 44
1.0
  0
MTEXT
  5
191
330
1F
100
AcDbEntity
  8
0
  6
Continuous
 62
     7
370
    18
100
AcDbMText
 10
279.934928
 20
53.136060072
 30
0.0
 40
2.0
 41
0.0
 71
     1
 72
     1
  1
Name:
  7
SLDTEXTSTYLE0
 73
     1
 44
1.0
  0
MTEXT
  5
192
330
1F
100
AcDbEntity
  8
0
  6
Continuous
 62
     7
370
    18
100
AcDbMText
 10
312.162455406
 20
53.881591072
 30
0.0
 40
2.0
 41
0.0
 71
     2
 72
     1
  1
Massstab:
  7
SLDTEXTSTYLE0
 73
     1
 44
1.0
  0
MTEXT
  5
193
330
1F
100
AcDbEntity
  8
0
  6
Continuous
 62
     7
370
    18
100
AcDbMText
 10
403.9552944035
 20
33.324874072
 30
0.0
 40
2.0
 41
0.0
 71
     2
 72
     1
  1
Index:
  7
SLDTEXTSTYLE0
 73
     1
 44
1.0
  0
MTEXT
  5
194
330
1F
100
AcDbEntity
  8
0
  6
Continuous
 62
     7
370
    18
100
AcDbMText
 10
230.261411
 20
48.4499477886
 30
0.0
 40
2.0
 41
0.0
 71
     1
 72
     1
  1
Erstellt:
  7
SLDTEXTSTYLE0
 73
     1
 44
1.0
  0
MTEXT
  5
196
330
1F
100
AcDbEntity
  8
0
  6
Continuous
 62
     7
370
    18
100
AcDbMText
 10
337.6348165843
 20
39.869706576
 30
0.0
 40
2.5
 41
0.0
 71
     2
 72
     1
  1
1 / 1
  7
SLDTEXTSTYLE1
 73
     1
 44
1.0
  0
MTEXT
  5
197
330
1F
100
AcDbEntity
  8
0
  6
Continuous
 62
     7
370
    18
100
AcDbMText
 10
269.612607
 20
60.8119428599
 30
0.0
 40
3.0
 41
0.0
 71
     1
 72
     1
  1
DIN ISO 1302
  7
SLDTEXTSTYLE0
 73
     1
 44
1.0
  0
MTEXT
  5
198
330
1F
100
AcDbEntity
  8
0
  6
Continuous
 62
     7
370
    18
100
AcDbMText
 10
230.0
 20
60.8119428599
 30
0.0
 40
3.0
 41
0.0
 71
     1
 72
     1
  1
Norm
  7
SLDTEXTSTYLE0
 73
     1
 44
1.0
  0
MTEXT
  5
199
330
1F
100
AcDbEntity
  8
0
  6
Continuous
 62
     7
370
    18
100
AcDbMText
 10
269.612607
 20
71.2121947186
 30
0.0
 40
3.0
 41
0.0
 71
     1
 72
     1
  1
0.27 kg
  7
SLDTEXTSTYLE0
 73
     1
 44
1.0
  0
MTEXT
  5
19A
330
1F
100
AcDbEntity
  8
0
  6
Continuous
 62
     7
370
    18
100
AcDbMText
 10
230.0
 20
71.2121947186
 30
0.0
 40
3.0
 41
0.0
 71
     1
 72
     1
  1
Edelstahl
  7
SLDTEXTSTYLE0
 73
     1
 44
1.0
  0
ARC
  5
19B
330
1F
100
AcDbEntity
  8
0
  6
Continuous
 62
     7
370
    25
100
AcDbCircle
 10
208.6392237903
 20
209.2979808468
 30
0.0
 40
8.000000000000016
100
AcDbArc
 50
180.0
 51
240.0
  0
SPLINE
  5
19C
330
1F
100
AcDbEntity
  8
0
  6
Continuous
 62
     7
370
    25
100
AcDbSpline
210
0.0
220
0.0
230
1.0
 70
    24
 71
     3
 72
     9
 73
     5
 74
     0
 42
0.00000001
 43
0.00000001
 40
0.0
 40
0.0
 40
0.0
 40
0.0
 40
0.495457963477007
 40
1.0
 40
1.0
 40
1.0
 40
1.0
 10
200.6392237903225
 20
204.6791786932569
 30
0.0
 10
201.2888413752918
 20
204.3041218057047
 30
0.0
 10
202.5999870886646
 20
203.5471314751423
 30
0.0
 10
203.9553740782967
 20
202.7645984318221
 30
0.0
 10
204.6392237903225
 20
202.3697776164987
 30
0.0
  0
SPLINE
  5
19D
330
1F
100
AcDbEntity
  8
0
  6
Continuous
 62
     7
370
    25
100
AcDbSpline
210
0.0
220
0.0
230
1.0
 70
    24
 71
     3
 72
    10
 73
     6
 74
     0
 42
0.00000001
 43
0.00000001
 40
0.0
 40
0.0
 40
0.0
 40
0.0
 40
0.4026080277071247
 40
0.8115881349292654
 40
1.0
 40
1.0
 40
1.0
 40
1.0
 10
200.6392237903225
 20
209.2979808467742
 30
0.0
 10
200.6392237903225
 20
208.6686535545023
 30
0.0
 10
200.6392237903225
 20
207.4000386033701
 30
0.0
 10
200.6392237903225
 20
205.8625237424782
 30
0.0
 10
200.6392237903225
 20
204.9629088522926
 30
0.0
 10
200.6392237903225
 20
204.6791786932569
 30
0.0
  0
ARC
  5
19E
330
1F
100
AcDbEntity
  8
0
  6
Continuous
 62
     7
370
    25
100
AcDbCircle
 10
208.6392237903
 20
209.2979808468
 30
0.0
 40
8.0
100
AcDbArc
 50
120.0
 51
180.0
  0
SPLINE
  5
19F
330
1F
100
AcDbEntity
  8
0
  6
Continuous
 62
     7
370
    25
100
AcDbSpline
210
0.0
220
0.0
230
1.0
 70
    24
 71
     3
 72
    10
 73
     6
 74
     0
 42
0.00000001
 43
0.00000001
 40
0.0
 40
0.0
 40
0.0
 40
0.0
 40
0.0700857677747261
 40
0.5307822340229847
 40
1.0
 40
1.0
 40
1.0
 40
1.0
 10
204.6392237903225
 20
216.2261840770497
 30
0.0
 10
204.5444166623868
 20
216.171447156215
 30
0.0
 10
203.8264115557187
 20
215.7569067146006
 30
0.0
 10
202.4726431913438
 20
214.9753081850084
 30
0.0
 10
201.2540856879501
 20
214.271773682401
 30
0.0
 10
200.6392237903225
 20
213.9167830002912
 30
0.0
  0
SPLINE
  5
1A0
330
1F
100
AcDbEntity
  8
0
  6
Continuous
 62
     7
370
    25
100
AcDbSpline
210
0.0
220
0.0
230
1.0
 70
    24
 71
     3
 72
    10
 73
     6
 74
     0
 42
0.00000001
 43
0.00000001
 40
0.0
 40
0.0
 40
0.0
 40
0.0
 40
0.3909524037316078
 40
0.7858548843188062
 40
1.0
 40
1.0
 40
1.0
 40
1.0
 10
200.6392237903225
 20
213.9167830002912
 30
0.0
 10
200.6392237903225
 20
213.325928769611
 30
0.0
 10
200.6392237903225
 20
212.1382504776538
 30
0.0
 10
200.6392237903225
 20
210.5842386258162
 30
0.0
 10
200.6392237903225
 20
209.6325875760253
 30
0.0
 10
200.6392237903225
 20
209.2979808467742
 30
0.0
  0
SPLINE
  5
1A1
330
1F
100
AcDbEntity
  8
0
  6
Continuous
 62
     7
370
    25
100
AcDbSpline
210
0.0
220
0.0
230
1.0
 70
    24
 71
     3
 72
    10
 73
     6
 74
     0
 42
0.00000001
 43
0.00000001
 40
0.0
 40
0.0
 40
0.0
 40
0.0
 40
0.070085767774724
 40
0.5307822340229834
 40
1.0
 40
1.0
 40
1.0
 40
1.0
 10
212.6392237903225
 20
202.3697776164987
 30
0.0
 10
212.7340309182582
 20
202.4245145373335
 30
0.0
 10
213.4520360249263
 20
202.8390549789478
 30
0.0
 10
214.8058043893012
 20
203.62065350854
 30
0.0
 10
216.0243618926949
 20
204.3241880111475
 30
0.0
 10
216.6392237903225
 20
204.6791786932572
 30
0.0
  0
ARC
  5
1A2
330
1F
100
AcDbEntity
  8
0
  6
Continuous
 62
     7
370
    25
100
AcDbCircle
 10
208.6392237903
 20
209.2979808468
 30
0.0
 40
8.000000000000016
100
AcDbArc
 50
300.0
 51
0.0
  0
SPLINE
  5
1A3
330
1F
100
AcDbEntity
  8
0
  6
Continuous
 62
     7
370
    25
100
AcDbSpline
210
0.0
220
0.0
230
1.0
 70
    24
 71
     3
 72
    10
 73
     6
 74
     0
 42
0.00000001
 43
0.00000001
 40
0.0
 40
0.0
 40
0.0
 40
0.0
 40
0.1884124237452142
 40
0.5914149639921916
 40
1.0
 40
1.0
 40
1.0
 40
1.0
 10
216.6392237903225
 20
204.6791786932572
 30
0.0
 10
216.6392237903225
 20
204.9629100019253
 30
0.0
 10
216.6392237903225
 20
205.8535250599127
 30
0.0
 10
216.6392237903225
 20
207.3906676400192
 30
0.0
 10
216.6392237903225
 20
208.6593010178481
 30
0.0
 10
216.6392237903225
 20
209.2979808467742
 30
0.0
  0
ARC
  5
1A4
330
1F
100
AcDbEntity
  8
0
  6
Continuous
 62
     7
370
    25
100
AcDbCircle
 10
208.6392237903
 20
209.2979808468
 30
0.0
 40
7.999999999999972
100
AcDbArc
 50
0.0
 51
60.0
  0
SPLINE
  5
1A5
330
1F
100
AcDbEntity
  8
0
  6
Continuous
 62
     7
370
    25
100
AcDbSpline
210
0.0
220
0.0
230
1.0
 70
    24
 71
     3
 72
     9
 73
     5
 74
     0
 42
0.00000001
 43
0.00000001
 40
0.0
 40
0.0
 40
0.0
 40
0.0
 40
0.4954579634770062
 40
1.0
 40
1.0
 40
1.0
 40
1.0
 10
216.6392237903225
 20
213.9167830002912
 30
0.0
 10
215.9896062053533
 20
214.2918398878435
 30
0.0
 10
214.6784604919806
 20
215.0488302184061
 30
0.0
 10
213.3230735023483
 20
215.8313632617264
 30
0.0
 10
212.6392237903225
 20
216.2261840770497
 30
0.0
  0
SPLINE
  5
1A6
330
1F
100
AcDbEntity
  8
0
  6
Continuous
 62
     7
370
    25
100
AcDbSpline
210
0.0
220
0.0
230
1.0
 70
    24
 71
     3
 72
    10
 73
     6
 74
     0
 42
0.00000001
 43
0.00000001
 40
0.0
 40
0.0
 40
0.0
 40
0.0
 40
0.2141446608865667
 40
0.6047163562828055
 40
1.0
 40
1.0
 40
1.0
 40
1.0
 10
216.6392237903225
 20
209.2979808467742
 30
0.0
 10
216.6392237903225
 20
209.6325875299987
 30
0.0
 10
216.6392237903225
 20
210.5774727932115
 30
0.0
 10
216.6392237903225
 20
212.1315500625025
 30
0.0
 10
216.6392237903225
 20
213.3193313957037
 30
0.0
 10
216.6392237903225
 20
213.9167830002912
 30
0.0
  0
SPLINE
  5
1A7
330
1F
100
AcDbEntity
  8
0
  6
Continuous
 62
     7
370
    25
100
AcDbSpline
210
0.0
220
0.0
230
1.0
 70
    24
 71
     3
 72
    10
 73
     6
 74
     0
 42
0.00000001
 43
0.00000001
 40
0.0
 40
0.0
 40
0.0
 40
0.0
 40
0.0700857677747298
 40
0.5307822340229839
 40
1.0
 40
1.0
 40
1.0
 40
1.0
 10
204.6392237903225
 20
202.3697776164987
 30
0.0
 10
204.7340309182582
 20
202.315040695664
 30
0.0
 10
205.4520360249263
 20
201.9005002540496
 30
0.0
 10
206.8058043893012
 20
201.1189017244573
 30
0.0
 10
208.0243618926949
 20
200.4153672218499
 30
0.0
 10
208.6392237903225
 20
200.0603765397402
 30
0.0
  0
ARC
  5
1A8
330
1F
100
AcDbEntity
  8
0
  6
Continuous
 62
     7
370
    25
100
AcDbCircle
 10
208.6392237903
 20
209.2979808468
 30
0.0
 40
8.000000000000016
100
AcDbArc
 50
240.0
 51
300.0
  0
SPLINE
  5
1A9
330
1F
100
AcDbEntity
  8
0
  6
Continuous
 62
     7
370
    25
100
AcDbSpline
210
0.0
220
0.0
230
1.0
 70
    24
 71
     3
 72
     9
 73
     5
 74
     0
 42
0.00000001
 43
0.00000001
 40
0.0
 40
0.0
 40
0.0
 40
0.0
 40
0.4954579634770066
 40
1.0
 40
1.0
 40
1.0
 40
1.0
 10
208.6392237903225
 20
200.0603765397402
 30
0.0
 10
209.2888413752918
 20
200.4354334272925
 30
0.0
 10
210.5999870886644
 20
201.1924237578551
 30
0.0
 10
211.9553740782967
 20
201.9749568011754
 30
0.0
 10
212.6392237903225
 20
202.3697776164987
 30
0.0
  0
ARC
  5
1AA
330
1F
100
AcDbEntity
  8
0
  6
Continuous
 62
     7
370
    25
100
AcDbCircle
 10
208.6392237903
 20
209.2979808468
 30
0.0
 40
7.999999999999967
100
AcDbArc
 50
60.0
 51
120.0
  0
SPLINE
  5
1AB
330
1F
100
AcDbEntity
  8
0
  6
Continuous
 62
     7
370
    25
100
AcDbSpline
210
0.0
220
0.0
230
1.0
 70
    24
 71
     3
 72
     9
 73
     5
 74
     0
 42
0.00000001
 43
0.00000001
 40
0.0
 40
0.0
 40
0.0
 40
0.0
 40
0.4954579634770076
 40
1.0
 40
1.0
 40
1.0
 40
1.0
 10
208.6392237903225
 20
218.5355851538082
 30
0.0
 10
207.9896062053532
 20
218.1605282662559
 30
0.0
 10
206.6784604919806
 20
217.4035379356934
 30
0.0
 10
205.3230735023483
 20
216.6210048923731
 30
0.0
 10
204.6392237903225
 20
216.2261840770497
 30
0.0
  0
SPLINE
  5
1AC
330
1F
100
AcDbEntity
  8
0
  6
Continuous
 62
     7
370
    25
100
AcDbSpline
210
0.0
220
0.0
230
1.0
 70
    24
 71
     3
 72
    10
 73
     6
 74
     0
 42
0.00000001
 43
0.00000001
 40
0.0
 40
0.0
 40
0.0
 40
0.0
 40
0.0700857677747266
 40
0.5307822340229833
 40
1.0
 40
1.0
 40
1.0
 40
1.0
 10
212.6392237903225
 20
216.2261840770497
 30
0.0
 10
212.5444166623868
 20
216.2809209978845
 30
0.0
 10
211.8264115557187
 20
216.6954614394988
 30
0.0
 10
210.4726431913438
 20
217.4770599690911
 30
0.0
 10
209.2540856879501
 20
218.1805944716985
 30
0.0
 10
208.6392237903225
 20
218.5355851538082
 30
0.0
  0
ARC
  5
1AD
330
1F
100
AcDbEntity
  8
0
  6
Continuous
 62
     7
370
    25
100
AcDbCircle
 10
62.6392237903
 20
209.2979808468
 30
0.0
 40
8.00000000000002
100
AcDbArc
 50
180.0
 51
240.0
  0
SPLINE
  5
1AE
330
1F
100
AcDbEntity
  8
0
  6
Continuous
 62
     7
370
    25
100
AcDbSpline
210
0.0
220
0.0
230
1.0
 70
    24
 71
     3
 72
     9
 73
     5
 74
     0
 42
0.00000001
 43
0.00000001
 40
0.0
 40
0.0
 40
0.0
 40
0.0
 40
0.495457963477007
 40
1.0
 40
1.0
 40
1.0
 40
1.0
 10
54.63922379032252
 20
204.6791786932569
 30
0.0
 10
55.28884137529177
 20
204.3041218057047
 30
0.0
 10
56.59998708866453
 20
203.5471314751423
 30
0.0
 10
57.95537407829672
 20
202.764598431822
 30
0.0
 10
58.6392237903225
 20
202.3697776164987
 30
0.0
  0
SPLINE
  5
1AF
330
1F
100
AcDbEntity
  8
0
  6
Continuous
 62
     7
370
    25
100
AcDbSpline
210
0.0
220
0.0
230
1.0
 70
    24
 71
     3
 72
    10
 73
     6
 74
     0
 42
0.00000001
 43
0.00000001
 40
0.0
 40
0.0
 40
0.0
 40
0.0
 40
0.4026080277071247
 40
0.8115881349292654
 40
1.0
 40
1.0
 40
1.0
 40
1.0
 10
54.63922379032252
 20
209.2979808467742
 30
0.0
 10
54.63922379032252
 20
208.6686535545022
 30
0.0
 10
54.63922379032255
 20
207.4000386033701
 30
0.0
 10
54.63922379032249
 20
205.8625237424782
 30
0.0
 10
54.63922379032252
 20
204.9629088522926
 30
0.0
 10
54.63922379032252
 20
204.6791786932569
 30
0.0
  0
ARC
  5
1B0
330
1F
100
AcDbEntity
  8
0
  6
Continuous
 62
     7
370
    25
100
AcDbCircle
 10
62.6392237903
 20
209.2979808468
 30
0.0
 40
7.999999999999993
100
AcDbArc
 50
120.0
 51
180.0
  0
SPLINE
  5
1B1
330
1F
100
AcDbEntity
  8
0
  6
Continuous
 62
     7
370
    25
100
AcDbSpline
210
0.0
220
0.0
230
1.0
 70
    24
 71
     3
 72
    10
 73
     6
 74
     0
 42
0.00000001
 43
0.00000001
 40
0.0
 40
0.0
 40
0.0
 40
0.0
 40
0.0700857677747261
 40
0.5307822340229847
 40
1.0
 40
1.0
 40
1.0
 40
1.0
 10
58.6392237903225
 20
216.2261840770497
 30
0.0
 10
58.54441666238683
 20
216.171447156215
 30
0.0
 10
57.82641155571871
 20
215.7569067146006
 30
0.0
 10
56.47264319134385
 20
214.9753081850083
 30
0.0
 10
55.2540856879501
 20
214.2717736824009
 30
0.0
 10
54.6392237903225
 20
213.9167830002912
 30
0.0
  0
SPLINE
  5
1B2
330
1F
100
AcDbEntity
  8
0
  6
Continuous
 62
     7
370
    25
100
AcDbSpline
210
0.0
220
0.0
230
1.0
 70
    24
 71
     3
 72
    10
 73
     6
 74
     0
 42
0.00000001
 43
0.00000001
 40
0.0
 40
0.0
 40
0.0
 40
0.0
 40
0.3909524037316078
 40
0.7858548843188062
 40
1.0
 40
1.0
 40
1.0
 40
1.0
 10
54.6392237903225
 20
213.9167830002912
 30
0.0
 10
54.63922379032252
 20
213.3259287696109
 30
0.0
 10
54.63922379032252
 20
212.1382504776538
 30
0.0
 10
54.6392237903225
 20
210.5842386258162
 30
0.0
 10
54.63922379032252
 20
209.6325875760253
 30
0.0
 10
54.63922379032252
 20
209.2979808467742
 30
0.0
  0
SPLINE
  5
1B3
330
1F
100
AcDbEntity
  8
0
  6
Continuous
 62
     7
370
    25
100
AcDbSpline
210
0.0
220
0.0
230
1.0
 70
    24
 71
     3
 72
    10
 73
     6
 74
     0
 42
0.00000001
 43
0.00000001
 40
0.0
 40
0.0
 40
0.0
 40
0.0
 40
0.070085767774724
 40
0.5307822340229834
 40
1.0
 40
1.0
 40
1.0
 40
1.0
 10
66.63922379032253
 20
202.3697776164987
 30
0.0
 10
66.73403091825821
 20
202.4245145373335
 30
0.0
 10
67.45203602492624
 20
202.8390549789478
 30
0.0
 10
68.80580438930119
 20
203.62065350854
 30
0.0
 10
70.02436189269493
 20
204.3241880111475
 30
0.0
 10
70.6392237903225
 20
204.6791786932572
 30
0.0
  0
ARC
  5
1B4
330
1F
100
AcDbEntity
  8
0
  6
Continuous
 62
     7
370
    25
100
AcDbCircle
 10
62.6392237903
 20
209.2979808468
 30
0.0
 40
8.000000000000027
100
AcDbArc
 50
300.0
 51
0.0
  0
SPLINE
  5
1B5
330
1F
100
AcDbEntity
  8
0
  6
Continuous
 62
     7
370
    25
100
AcDbSpline
210
0.0
220
0.0
230
1.0
 70
    24
 71
     3
 72
    10
 73
     6
 74
     0
 42
0.00000001
 43
0.00000001
 40
0.0
 40
0.0
 40
0.0
 40
0.0
 40
0.1884124237452142
 40
0.5914149639921916
 40
1.0
 40
1.0
 40
1.0
 40
1.0
 10
70.6392237903225
 20
204.6791786932572
 30
0.0
 10
70.63922379032252
 20
204.9629100019253
 30
0.0
 10
70.63922379032252
 20
205.8535250599127
 30
0.0
 10
70.6392237903225
 20
207.3906676400192
 30
0.0
 10
70.6392237903225
 20
208.6593010178481
 30
0.0
 10
70.6392237903225
 20
209.2979808467742
 30
0.0
  0
ARC
  5
1B6
330
1F
100
AcDbEntity
  8
0
  6
Continuous
 62
     7
370
    25
100
AcDbCircle
 10
62.6392237903
 20
209.2979808468
 30
0.0
 40
7.999999999999996
100
AcDbArc
 50
0.0
 51
60.0
  0
SPLINE
  5
1B7
330
1F
100
AcDbEntity
  8
0
  6
Continuous
 62
     7
370
    25
100
AcDbSpline
210
0.0
220
0.0
230
1.0
 70
    24
 71
     3
 72
     9
 73
     5
 74
     0
 42
0.00000001
 43
0.00000001
 40
0.0
 40
0.0
 40
0.0
 40
0.0
 40
0.4954579634770062
 40
1.0
 40
1.0
 40
1.0
 40
1.0
 10
70.6392237903225
 20
213.9167830002912
 30
0.0
 10
69.98960620535325
 20
214.2918398878435
 30
0.0
 10
68.67846049198054
 20
215.0488302184061
 30
0.0
 10
67.32307350234832
 20
215.8313632617264
 30
0.0
 10
66.63922379032252
 20
216.2261840770497
 30
0.0
  0
SPLINE
  5
1B8
330
1F
100
AcDbEntity
  8
0
  6
Continuous
 62
     7
370
    25
100
AcDbSpline
210
0.0
220
0.0
230
1.0
 70
    24
 71
     3
 72
    10
 73
     6
 74
     0
 42
0.00000001
 43
0.00000001
 40
0.0
 40
0.0
 40
0.0
 40
0.0
 40
0.2141446608865667
 40
0.6047163562828055
 40
1.0
 40
1.0
 40
1.0
 40
1.0
 10
70.6392237903225
 20
209.2979808467742
 30
0.0
 10
70.6392237903225
 20
209.6325875299987
 30
0.0
 10
70.63922379032252
 20
210.5774727932115
 30
0.0
 10
70.63922379032249
 20
212.1315500625025
 30
0.0
 10
70.63922379032249
 20
213.3193313957036
 30
0.0
 10
70.63922379032249
 20
213.9167830002912
 30
0.0
  0
SPLINE
  5
1B9
330
1F
100
AcDbEntity
  8
0
  6
Continuous
 62
     7
370
    25
100
AcDbSpline
210
0.0
220
0.0
230
1.0
 70
    24
 71
     3
 72
    10
 73
     6
 74
     0
 42
0.00000001
 43
0.00000001
 40
0.0
 40
0.0
 40
0.0
 40
0.0
 40
0.0700857677747298
 40
0.5307822340229839
 40
1.0
 40
1.0
 40
1.0
 40
1.0
 10
58.6392237903225
 20
202.3697776164987
 30
0.0
 10
58.7340309182582
 20
202.3150406956639
 30
0.0
 10
59.45203602492622
 20
201.9005002540496
 30
0.0
 10
60.80580438930117
 20
201.1189017244573
 30
0.0
 10
62.02436189269491
 20
200.4153672218499
 30
0.0
 10
62.6392237903225
 20
200.0603765397402
 30
0.0
  0
ARC
  5
1BA
330
1F
100
AcDbEntity
  8
0
  6
Continuous
 62
     7
370
    25
100
AcDbCircle
 10
62.6392237903
 20
209.2979808468
 30
0.0
 40
8.000000000000027
100
AcDbArc
 50
240.0
 51
300.0
  0
SPLINE
  5
1BB
330
1F
100
AcDbEntity
  8
0
  6
Continuous
 62
     7
370
    25
100
AcDbSpline
210
0.0
220
0.0
230
1.0
 70
    24
 71
     3
 72
     9
 73
     5
 74
     0
 42
0.00000001
 43
0.00000001
 40
0.0
 40
0.0
 40
0.0
 40
0.0
 40
0.4954579634770066
 40
1.0
 40
1.0
 40
1.0
 40
1.0
 10
62.63922379032251
 20
200.0603765397402
 30
0.0
 10
63.28884137529175
 20
200.4354334272925
 30
0.0
 10
64.59998708866445
 20
201.1924237578551
 30
0.0
 10
65.9553740782967
 20
201.9749568011753
 30
0.0
 10
66.63922379032253
 20
202.3697776164987
 30
0.0
  0
ARC
  5
1BC
330
1F
100
AcDbEntity
  8
0
  6
Continuous
 62
     7
370
    25
100
AcDbCircle
 10
62.6392237903
 20
209.2979808468
 30
0.0
 40
7.999999999999996
100
AcDbArc
 50
60.0
 51
120.0
  0
SPLINE
  5
1BD
330
1F
100
AcDbEntity
  8
0
  6
Continuous
 62
     7
370
    25
100
AcDbSpline
210
0.0
220
0.0
230
1.0
 70
    24
 71
     3
 72
     9
 73
     5
 74
     0
 42
0.00000001
 43
0.00000001
 40
0.0
 40
0.0
 40
0.0
 40
0.0
 40
0.4954579634770076
 40
1.0
 40
1.0
 40
1.0
 40
1.0
 10
62.63922379032251
 20
218.5355851538082
 30
0.0
 10
61.98960620535328
 20
218.1605282662559
 30
0.0
 10
60.67846049198059
 20
217.4035379356934
 30
0.0
 10
59.32307350234834
 20
216.6210048923731
 30
0.0
 10
58.6392237903225
 20
216.2261840770497
 30
0.0
  0
SPLINE
  5
1BE
330
1F
100
AcDbEntity
  8
0
  6
Continuous
 62
     7
370
    25
100
AcDbSpline
210
0.0
220
0.0
230
1.0
 70
    24
 71
     3
 72
    10
 73
     6
 74
     0
 42
0.00000001
 43
0.00000001
 40
0.0
 40
0.0
 40
0.0
 40
0.0
 40
0.0700857677747266
 40
0.5307822340229833
 40
1.0
 40
1.0
 40
1.0
 40
1.0
 10
66.63922379032252
 20
216.2261840770497
 30
0.0
 10
66.54441666238684
 20
216.2809209978845
 30
0.0
 10
65.82641155571876
 20
216.6954614394988
 30
0.0
 10
64.47264319134383
 20
217.477059969091
 30
0.0
 10
63.25408568795012
 20
218.1805944716985
 30
0.0
 10
62.63922379032251
 20
218.5355851538082
 30
0.0
  0
LINE
  5
1BF
330
1F
100
AcDbEntity
  8
0
  6
Continuous
 62
     7
370
    25
100
AcDbLine
 10
234.1760564778
 20
184.0223683879
 30
0.0
 11
217.6392237903
 21
230.7979808468
 31
0.0
  0
LINE
  5
1C0
330
1F
100
AcDbEntity
  8
0
  6
Continuous
 62
     7
370
    25
100
AcDbLine
 10
73.1392237903
 20
228.7979808468
 30
0.0
 11
73.1392237903
 21
245.7979808468
 31
0.0
  0
ARC
  5
1C1
330
1F
100
AcDbEntity
  8
0
  6
Continuous
 62
     7
370
    25
100
AcDbCircle
 10
77.1392237903
 20
228.7979808468
 30
0.0
 40
4.0
100
AcDbArc
 50
180.0
 51
270.0
  0
ARC
  5
1C2
330
1F
100
AcDbEntity
  8
0
  6
Continuous
 62
     7
370
    25
100
AcDbCircle
 10
81.6665047213
 20
222.2979808468
 30
0.0
 40
2.5
100
AcDbArc
 50
341.5
 51
90.0
  0
ARC
  5
1C3
330
1F
100
AcDbEntity
  8
0
  6
Continuous
 62
     7
370
    25
100
AcDbCircle
 10
189.6169469065
 20
201.7979808468
 30
0.0
 40
4.000000000000012
100
AcDbArc
 50
270.0
 51
18.5
  0
LINE
  5
1C4
330
1F
100
AcDbEntity
  8
0
  6
Continuous
 62
     7
370
    25
100
AcDbLine
 10
187.2411337213
 20
221.5047192058
 30
0.0
 11
193.4102415273
 21
203.0671994724
 31
0.0
  0
ARC
  5
1C5
330
1F
100
AcDbEntity
  8
0
  6
Continuous
 62
     7
370
    25
100
AcDbCircle
 10
189.6119428593
 20
222.2979808468
 30
0.0
 40
2.500000000000014
100
AcDbArc
 50
90.0
 51
198.5
  0
LINE
  5
1C6
330
1F
100
AcDbEntity
  8
0
  6
Continuous
 62
     7
370
    25
100
AcDbLine
 10
194.1392237903
 20
224.7979808468
 30
0.0
 11
189.6119428593
 21
224.7979808468
 31
0.0
  0
ARC
  5
1C7
330
1F
100
AcDbEntity
  8
0
  6
Continuous
 62
     7
370
    25
100
AcDbCircle
 10
194.1392237903
 20
228.7979808468
 30
0.0
 40
4.000000000000028
100
AcDbArc
 50
270.0
 51
0.0
  0
LINE
  5
1C8
330
1F
100
AcDbEntity
  8
0
  6
Continuous
 62
     7
370
    25
100
AcDbLine
 10
198.1392237903
 20
245.7979808468
 30
0.0
 11
198.1392237903
 21
228.7979808468
 31
0.0
  0
LINE
  5
1C9
330
1F
100
AcDbEntity
  8
0
  6
Continuous
 62
     7
370
    25
100
AcDbLine
 10
53.6392237903
 20
230.7979808468
 30
0.0
 11
37.1024661785
 21
184.0225807448
 31
0.0
  0
LINE
  5
1CA
330
1F
100
AcDbEntity
  8
0
  6
Continuous
 62
     7
370
    25
100
AcDbLine
 10
69.1392237903
 20
245.7979808468
 30
0.0
 11
56.2225571237
 21
233.2979808468
 31
0.0
  0
LINE
  5
1CB
330
1F
100
AcDbEntity
  8
0
  6
Continuous
 62
     7
370
    25
100
AcDbLine
 10
53.8078614441
 20
230.9611785762
 30
0.0
 11
53.6392237903
 21
230.7979808468
 31
0.0
  0
LINE
  5
1CC
330
1F
100
AcDbEntity
  8
0
  6
Continuous
 62
     7
370
    25
100
AcDbLine
 10
73.1392237903
 20
245.7979808468
 30
0.0
 11
69.1392237903
 21
245.7979808468
 31
0.0
  0
LINE
  5
1CD
330
1F
100
AcDbEntity
  8
0
  6
Continuous
 62
     7
370
    25
100
AcDbLine
 10
217.6392237903
 20
230.7979808468
 30
0.0
 11
217.4705861366
 21
230.9611785762
 31
0.0
  0
LINE
  5
1CE
330
1F
100
AcDbEntity
  8
0
  6
Continuous
 62
     7
370
    25
100
AcDbLine
 10
215.055890457
 20
233.2979808468
 30
0.0
 11
202.1392237903
 21
245.7979808468
 31
0.0
  0
LINE
  5
1CF
330
1F
100
AcDbEntity
  8
0
  6
Continuous
 62
     7
370
    25
100
AcDbLine
 10
81.6665047213
 20
224.7979808468
 30
0.0
 11
77.1392237903
 21
224.7979808468
 31
0.0
  0
ARC
  5
1D0
330
1F
100
AcDbEntity
  8
0
  6
Continuous
 62
     7
370
    25
100
AcDbCircle
 10
81.6615006742
 20
201.7979808468
 30
0.0
 40
4.000000000000012
100
AcDbArc
 50
161.5
 51
270.0
  0
LINE
  5
1D1
330
1F
100
AcDbEntity
  8
0
  6
Continuous
 62
     7
370
    25
100
AcDbLine
 10
189.6169469065
 20
197.7979808468
 30
0.0
 11
81.6615006742
 21
197.7979808468
 31
0.0
  0
LINE
  5
1D2
330
1F
100
AcDbEntity
  8
0
  6
Continuous
 62
     7
370
    25
100
AcDbLine
 10
202.1392237903
 20
245.7979808468
 30
0.0
 11
198.1392237903
 21
245.7979808468
 31
0.0
  0
LINE
  5
1D3
330
1F
100
AcDbEntity
  8
0
  6
Continuous
 62
     7
370
    25
100
AcDbLine
 10
77.8682060533
 20
203.0671994724
 30
0.0
 11
84.0373138593
 21
221.5047192058
 31
0.0
  0
LINE
  5
1D4
330
1F
100
AcDbEntity
  8
0
  6
Continuous
 62
     7
370
    25
100
AcDbLine
 10
233.1392237903
 20
183.2979808468
 30
0.0
 11
235.1392237903
 21
183.2979808468
 31
0.0
  0
LINE
  5
1D5
330
1F
100
AcDbEntity
  8
0
  6
Continuous
 62
     7
370
    25
100
AcDbLine
 10
235.1392237903
 20
183.2979808468
 30
0.0
 11
235.1392237903
 21
181.2979808468
 31
0.0
  0
LINE
  5
1D6
330
1F
100
AcDbEntity
  8
0
  6
Continuous
 62
     7
370
    25
100
AcDbLine
 10
235.1392237903
 20
181.2979808468
 30
0.0
 11
233.1392237903
 21
181.2979808468
 31
0.0
  0
LINE
  5
1D7
330
1F
100
AcDbEntity
  8
0
  6
Continuous
 62
     7
370
    25
100
AcDbLine
 10
36.1392237903
 20
181.2979808468
 30
0.0
 11
36.1392237903
 21
183.2979808468
 31
0.0
  0
LINE
  5
1D8
330
1F
100
AcDbEntity
  8
0
  6
Continuous
 62
     7
370
    25
100
AcDbLine
 10
36.1392237903
 20
183.2979808468
 30
0.0
 11
38.1392237903
 21
183.2979808468
 31
0.0
  0
LINE
  5
1D9
330
1F
100
AcDbEntity
  8
0
  6
Continuous
 62
     7
370
    25
100
AcDbLine
 10
38.1392237903
 20
181.2979808468
 30
0.0
 11
36.1392237903
 21
181.2979808468
 31
0.0
  0
LINE
  5
1DA
330
1F
100
AcDbEntity
  8
0
  6
Continuous
 62
     7
370
    25
100
AcDbLine
 10
61.6392237903
 20
183.2979808468
 30
0.0
 11
61.6392237903
 21
181.2979808468
 31
0.0
  0
LINE
  5
1DB
330
1F
100
AcDbEntity
  8
0
  6
Continuous
 62
     7
370
    25
100
AcDbLine
 10
73.1392237903
 20
183.2979808468
 30
0.0
 11
73.1392237903
 21
181.2979808468
 31
0.0
  0
LINE
  5
1DC
330
1F
100
AcDbEntity
  8
0
  6
Continuous
 62
     7
370
    25
100
AcDbLine
 10
61.6392237903
 20
183.2979808468
 30
0.0
 11
73.1392237903
 21
183.2979808468
 31
0.0
  0
LINE
  5
1DD
330
1F
100
AcDbEntity
  8
0
  6
Continuous
 62
     7
370
    25
100
AcDbLine
 10
61.6392237903
 20
181.2979808468
 30
0.0
 11
73.1392237903
 21
181.2979808468
 31
0.0
  0
LINE
  5
1DE
330
1F
100
AcDbEntity
  8
0
  6
Continuous
 62
     7
370
    25
100
AcDbLine
 10
209.6392237903
 20
183.2979808468
 30
0.0
 11
209.6392237903
 21
181.2979808468
 31
0.0
  0
LINE
  5
1DF
330
1F
100
AcDbEntity
  8
0
  6
Continuous
 62
     7
370
    25
100
AcDbLine
 10
233.1392237903
 20
183.2979808468
 30
0.0
 11
209.6392237903
 21
183.2979808468
 31
0.0
  0
LINE
  5
1E0
330
1F
100
AcDbEntity
  8
0
  6
Continuous
 62
     7
370
    25
100
AcDbLine
 10
233.1392237903
 20
181.2979808468
 30
0.0
 11
209.6392237903
 21
181.2979808468
 31
0.0
  0
LINE
  5
1E1
330
1F
100
AcDbEntity
  8
0
  6
Continuous
 62
     7
370
    25
100
AcDbLine
 10
61.6392237903
 20
183.2979808468
 30
0.0
 11
38.1392237903
 21
183.2979808468
 31
0.0
  0
LINE
  5
1E2
330
1F
100
AcDbEntity
  8
0
  6
Continuous
 62
     7
370
    25
100
AcDbLine
 10
61.6392237903
 20
181.2979808468
 30
0.0
 11
38.1392237903
 21
181.2979808468
 31
0.0
  0
LINE
  5
1E3
330
1F
100
AcDbEntity
  8
0
  6
Continuous
 62
     7
370
    25
100
AcDbLine
 10
198.1392237903
 20
183.2979808468
 30
0.0
 11
198.1392237903
 21
181.2979808468
 31
0.0
  0
LINE
  5
1E4
330
1F
100
AcDbEntity
  8
0
  6
Continuous
 62
     7
370
    25
100
AcDbLine
 10
209.6392237903
 20
183.2979808468
 30
0.0
 11
198.1392237903
 21
183.2979808468
 31
0.0
  0
LINE
  5
1E5
330
1F
100
AcDbEntity
  8
0
  6
Continuous
 62
     7
370
    25
100
AcDbLine
 10
209.6392237903
 20
181.2979808468
 30
0.0
 11
198.1392237903
 21
181.2979808468
 31
0.0
  0
LINE
  5
1E6
330
1F
100
AcDbEntity
  8
0
  6
Continuous
 62
     7
370
    25
100
AcDbLine
 10
73.1392237903
 20
183.2979808468
 30
0.0
 11
198.1392237903
 21
183.2979808468
 31
0.0
  0
LINE
  5
1E7
330
1F
100
AcDbEntity
  8
0
  6
Continuous
 62
     7
370
    25
100
AcDbLine
 10
73.1392237903
 20
181.2979808468
 30
0.0
 11
198.1392237903
 21
181.2979808468
 31
0.0
  0
SPLINE
  5
1E8
330
1F
100
AcDbEntity
  8
0
  6
Continuous
 62
     7
370
    25
100
AcDbSpline
210
0.0
220
0.0
230
1.0
 70
     8
 71
     3
 72
    10
 73
     6
 74
     0
 42
0.00000001
 43
0.00000001
 40
0.0
 40
0.0
 40
0.0
 40
0.0
 40
0.5
 40
0.5
 40
1.0
 40
1.0
 40
1.0
 40
1.0
 10
235.1392237903225
 20
183.2979808467741
 30
0.0
 10
234.9756516285831
 20
183.2979808467741
 30
0.0
 10
234.8155453946365
 20
183.3767383221268
 30
0.0
 10
234.4901145632573
 20
183.6500328245444
 30
0.0
 10
234.3291978689069
 20
183.840187560865
 30
0.0
 10
234.1656257133994
 20
184.0345808467741
 30
0.0
  0
SPLINE
  5
1E9
330
1F
100
AcDbEntity
  8
0
  6
Continuous
 62
     7
370
    25
100
AcDbSpline
210
0.0
220
0.0
230
1.0
 70
     8
 71
     3
 72
    10
 73
     6
 74
     0
 42
0.00000001
 43
0.00000001
 40
0.0
 40
0.0
 40
0.0
 40
0.0
 40
0.5
 40
0.5
 40
1.0
 40
1.0
 40
1.0
 40
1.0
 10
37.11282186724557
 20
184.0345808467741
 30
0.0
 10
36.94924970550599
 20
183.8401875534585
 30
0.0
 10
36.7891434715595
 20
183.6508926781774
 30
0.0
 10
36.46371264018035
 20
183.37724058743
 30
0.0
 10
36.30279594582993
 20
183.2979808467741
 30
0.0
 10
36.1392237903225
 20
183.2979808467741
 30
0.0
  0
LINE
  5
1EA
330
1F
100
AcDbEntity
  8
0
  6
Continuous
 62
     7
370
    25
100
AcDbLine
 10
81.5221727602
 20
222.7979808468
 30
0.0
 11
75.1392237903
 21
222.7979808468
 31
0.0
  0
LINE
  5
1EB
330
1F
100
AcDbEntity
  8
0
  6
Continuous
 62
     7
370
    25
100
AcDbLine
 10
75.0292237903
 20
195.7979808468
 30
0.0
 11
83.4132099114
 21
220.1468445379
 31
0.0
  0
LINE
  5
1EC
330
1F
100
AcDbEntity
  8
0
  6
Continuous
 62
     7
370
    25
100
AcDbLine
 10
187.8652376693
 20
220.1468445379
 30
0.0
 11
196.2492237903
 21
195.7979808468
 31
0.0
  0
ARC
  5
1ED
330
1F
100
AcDbEntity
  8
0
  6
Continuous
 62
     7
370
    25
100
AcDbCircle
 10
189.7562748205
 20
220.7979808468
 30
0.0
 40
2.0
100
AcDbArc
 50
90.0
 51
199.0
  0
LINE
  5
1EE
330
1F
100
AcDbEntity
  8
0
  6
Continuous
 62
     7
370
    25
100
AcDbLine
 10
196.2492237903
 20
195.7979808468
 30
0.0
 11
75.0292237903
 21
195.7979808468
 31
0.0
  0
LINE
  5
1EF
330
1F
100
AcDbEntity
  8
0
  6
Continuous
 62
     7
370
    25
100
AcDbLine
 10
234.1656257134
 20
184.0345808468
 30
0.0
 11
216.6392237903
 21
233.2979808468
 31
0.0
  0
ARC
  5
1F0
330
1F
100
AcDbEntity
  8
0
  6
Continuous
 62
     7
370
    25
100
AcDbCircle
 10
196.1392237903
 20
226.7979808468
 30
0.0
 40
4.0
100
AcDbArc
 50
270.0
 51
0.0
  0
ARC
  5
1F1
330
1F
100
AcDbEntity
  8
0
  6
Continuous
 62
     7
370
    25
100
AcDbCircle
 10
75.1392237903
 20
226.7979808468
 30
0.0
 40
4.000000000000057
100
AcDbArc
 50
180.0
 51
270.0
  0
ARC
  5
1F2
330
1F
100
AcDbEntity
  8
0
  6
Continuous
 62
     7
370
    25
100
AcDbCircle
 10
81.5221727602
 20
220.7979808468
 30
0.0
 40
2.000000000000012
100
AcDbArc
 50
341.0
 51
90.0
  0
ARC
  5
1F3
330
1F
100
AcDbEntity
  8
0
  6
Continuous
 62
     7
370
    25
100
AcDbCircle
 10
69.1392237903
 20
231.2979808468
 30
0.0
 40
2.000000000000014
100
AcDbArc
 50
0.0
 51
90.0
  0
LINE
  5
1F4
330
1F
100
AcDbEntity
  8
0
  6
Continuous
 62
     7
370
    25
100
AcDbLine
 10
216.6392237903
 20
233.2979808468
 30
0.0
 11
202.1392237903
 21
233.2979808468
 31
0.0
  0
LINE
  5
1F5
330
1F
100
AcDbEntity
  8
0
  6
Continuous
 62
     7
370
    25
100
AcDbLine
 10
200.1392237903
 20
231.2979808468
 30
0.0
 11
200.1392237903
 21
226.7979808468
 31
0.0
  0
LINE
  5
1F6
330
1F
100
AcDbEntity
  8
0
  6
Continuous
 62
     7
370
    25
100
AcDbLine
 10
196.1392237903
 20
222.7979808468
 30
0.0
 11
189.7562748205
 21
222.7979808468
 31
0.0
  0
LINE
  5
1F7
330
1F
100
AcDbEntity
  8
0
  6
Continuous
 62
     7
370
    25
100
AcDbLine
 10
71.1392237903
 20
226.7979808468
 30
0.0
 11
71.1392237903
 21
231.2979808468
 31
0.0
  0
LINE
  5
1F8
330
1F
100
AcDbEntity
  8
0
  6
Continuous
 62
     7
370
    25
100
AcDbLine
 10
69.1392237903
 20
233.2979808468
 30
0.0
 11
54.6392237903
 21
233.2979808468
 31
0.0
  0
ARC
  5
1F9
330
1F
100
AcDbEntity
  8
0
  6
Continuous
 62
     7
370
    25
100
AcDbCircle
 10
202.1392237903
 20
231.2979808468
 30
0.0
 40
2.000000000000227
100
AcDbArc
 50
90.0
 51
180.0
  0
LINE
  5
1FA
330
1F
100
AcDbEntity
  8
0
  6
Continuous
 62
     7
370
    25
100
AcDbLine
 10
54.6392237903
 20
233.2979808468
 30
0.0
 11
37.1128218672
 21
184.0345808468
 31
0.0
  0
LINE
  5
1FB
330
1F
100
AcDbEntity
  8
0
  6
Continuous
 62
     8
370
    18
100
AcDbLine
 10
233.1392237903
 20
181.2979808468
 30
0.0
 11
233.1392237903
 21
183.2979808468
 31
0.0
  0
LINE
  5
1FC
330
1F
100
AcDbEntity
  8
0
  6
Continuous
 62
     8
370
    18
100
AcDbLine
 10
38.1392237903
 20
183.2979808468
 30
0.0
 11
38.1392237903
 21
181.2979808468
 31
0.0
  0
LINE
  5
1FD
330
1F
100
AcDbEntity
  8
0
  6
Continuous
 62
     8
370
    18
100
AcDbLine
 10
234.1656257134
 20
184.0345808468
 30
0.0
 11
37.1128218672
 21
184.0345808468
 31
0.0
  0
DIMENSION
  5
1FE
330
1F
100
AcDbEntity
  8
0
  6
Continuous
 62
     7
370
    18
100
AcDbDimension
  2
_D
 10
208.6392237903
 20
250.837230662
 30
0.0
 11
135.6392237903
 21
250.837230662
 31
0.0
 70
   160
  1
<>
 71
     2
 42
-1.0
  3
SLDDIMSTYLE0
100
AcDbAlignedDimension
 13
62.6392237903
 23
209.2979808468
 33
0.0
 14
208.6392237903
 24
209.2979808468
 34
0.0
 50
0.0
100
AcDbRotatedDimension
  0
DIMENSION
  5
209
330
1F
100
AcDbEntity
  8
0
  6
Continuous
 62
     7
370
    18
100
AcDbDimension
  2
_D_1
 10
245.3217529817
 20
245.7979808468
 30
0.0
 11
245.3217529817
 21
213.5479808468
 31
0.0
 70
   160
  1
<>
 71
     2
 42
-1.0
  3
SLDDIMSTYLE0
100
AcDbAlignedDimension
 13
209.6392237903
 23
181.2979808468
 33
0.0
 14
202.1392237903
 24
245.7979808468
 34
0.0
 50
90.0
100
AcDbRotatedDimension
  0
MTEXT
  5
213
330
1F
100
AcDbEntity
  8
0
  6
Continuous
 62
     7
370
     0
100
AcDbMText
 10
235.4237598507
 20
274.2253363602
 30
0.0
 40
5.2916666667
 41
0.0
 71
     1
 72
     1
  1
2x M8 Schrauben & Muttern
  7
SLDTEXTSTYLE0
 73
     1
 44
1.0
  0
LINE
  5
214
330
1F
100
AcDbEntity
  8
0
  6
Continuous
 62
     7
370
    25
100
AcDbLine
 10
339.8915201066
 20
218.5355851538
 30
0.0
 11
339.1769889268
 21
217.2979808468
 31
0.0
  0
LINE
  5
215
330
1F
100
AcDbEntity
  8
0
  6
Continuous
 62
     7
370
    25
100
AcDbLine
 10
348.5710443054
 20
217.4814823139
 30
0.0
 11
347.962457747
 21
218.5355851538
 31
0.0
  0
LINE
  5
216
330
1F
100
AcDbEntity
  8
0
  6
Continuous
 62
     7
370
    25
100
AcDbLine
 10
339.2645520932
 20
201.1463169937
 30
0.0
 11
339.8915201066
 21
200.0603765397
 31
0.0
  0
LINE
  5
217
330
1F
100
AcDbEntity
  8
0
  6
Continuous
 62
     7
370
    25
100
AcDbLine
 10
347.962457747
 20
200.0603765397
 30
0.0
 11
348.5710443054
 21
201.1144793797
 31
0.0
  0
LINE
  5
218
330
1F
100
AcDbEntity
  8
0
  6
Continuous
 62
     7
370
    25
100
AcDbLine
 10
339.232045136
 20
217.3819272993
 30
0.0
 11
339.183578629
 21
217.2979808468
 31
0.0
  0
LINE
  5
219
330
1F
100
AcDbEntity
  8
0
  6
Continuous
 62
     7
370
    25
100
AcDbLine
 10
348.683578629
 20
217.2979808468
 30
0.0
 11
348.635112122
 21
217.3819272993
 31
0.0
  0
LINE
  5
21A
330
1F
100
AcDbEntity
  8
0
  6
Continuous
 62
     7
370
    25
100
AcDbLine
 10
339.183578629
 20
201.2979808468
 30
0.0
 11
339.232045136
 21
201.2140343942
 31
0.0
  0
LINE
  5
21B
330
1F
100
AcDbEntity
  8
0
  6
Continuous
 62
     7
370
    25
100
AcDbLine
 10
348.635112122
 20
201.2140343942
 30
0.0
 11
348.683578629
 21
201.2979808468
 31
0.0
  0
LINE
  5
21C
330
1F
100
AcDbEntity
  8
0
  6
Continuous
 62
     7
370
    25
100
AcDbLine
 10
356.283578629
 20
217.2979808468
 30
0.0
 11
355.683578629
 21
217.2979808468
 31
0.0
  0
LINE
  5
21D
330
1F
100
AcDbEntity
  8
0
  6
Continuous
 62
     7
370
    25
100
AcDbLine
 10
355.683578629
 20
201.2979808468
 30
0.0
 11
356.283578629
 21
201.2979808468
 31
0.0
  0
LINE
  5
21E
330
1F
100
AcDbEntity
  8
0
  6
Continuous
 62
     7
370
    25
100
AcDbLine
 10
336.511578629
 20
214.2979808468
 30
0.0
 11
335.683578629
 21
213.4699808468
 31
0.0
  0
LINE
  5
21F
330
1F
100
AcDbEntity
  8
0
  6
Continuous
 62
     7
370
    25
100
AcDbLine
 10
335.683578629
 20
205.1259808468
 30
0.0
 11
336.511578629
 21
204.2979808468
 31
0.0
  0
LINE
  5
220
330
1F
100
AcDbEntity
  8
0
  6
Continuous
 62
     7
370
    25
100
AcDbLine
 10
339.183578629
 20
214.2979808468
 30
0.0
 11
336.511578629
 21
214.2979808468
 31
0.0
  0
LINE
  5
221
330
1F
100
AcDbEntity
  8
0
  6
Continuous
 62
     7
370
    25
100
AcDbLine
 10
336.511578629
 20
204.2979808468
 30
0.0
 11
339.183578629
 21
204.2979808468
 31
0.0
  0
LINE
  5
222
330
1F
100
AcDbEntity
  8
0
  6
Continuous
 62
     7
370
    25
100
AcDbLine
 10
361.3690474492
 20
200.0603765397
 30
0.0
 11
362.083578629
 21
201.2979808468
 31
0.0
  0
LINE
  5
223
330
1F
100
AcDbEntity
  8
0
  6
Continuous
 62
     7
370
    25
100
AcDbLine
 10
362.083578629
 20
217.2979808468
 30
0.0
 11
361.3690474492
 21
218.5355851538
 31
0.0
  0
LINE
  5
224
330
1F
100
AcDbEntity
  8
0
  6
Continuous
 62
     7
370
    25
100
AcDbLine
 10
339.8915201066
 20
200.0603765397
 30
0.0
 11
339.4551464146
 21
201.012765112
 31
0.0
  0
SPLINE
  5
225
330
1F
100
AcDbEntity
  8
0
  6
Continuous
 62
     7
370
    25
100
AcDbSpline
210
0.0
220
0.0
230
1.0
 70
     8
 71
     3
 72
     9
 73
     5
 74
     0
 42
0.00000001
 43
0.00000001
 40
0.0
 40
0.0
 40
0.0
 40
0.0
 40
0.922924578752011
 40
1.0
 40
1.0
 40
1.0
 40
1.0
 10
339.1769889268285
 20
202.3697776164987
 30
0.0
 10
339.1739130419215
 20
202.4246371988604
 30
0.0
 10
339.1705802832348
 20
202.4840782232135
 30
0.0
 10
339.1826484685653
 20
202.5430937468183
 30
0.0
 10
339.1835786290333
 20
202.5476423931603
 30
0.0
  0
LINE
  5
226
330
1F
100
AcDbEntity
  8
0
  6
Continuous
 62
     7
370
    25
100
AcDbLine
 10
347.962457747
 20
200.0603765397
 30
0.0
 11
348.3942885843
 21
201.0028503003
 31
0.0
  0
LINE
  5
227
330
1F
100
AcDbEntity
  8
0
  6
Continuous
 62
     7
370
    25
100
AcDbLine
 10
339.8915201066
 20
200.0603765397
 30
0.0
 11
347.962457747
 21
200.0603765397
 31
0.0
  0
LINE
  5
228
330
1F
100
AcDbEntity
  8
0
  6
Continuous
 62
     7
370
    25
100
AcDbLine
 10
339.1769889268
 20
204.2979808468
 30
0.0
 11
339.1769889268
 21
202.3697776165
 31
0.0
  0
SPLINE
  5
229
330
1F
100
AcDbEntity
  8
0
  6
Continuous
 62
     7
370
    25
100
AcDbSpline
210
0.0
220
0.0
230
1.0
 70
     8
 71
     3
 72
     9
 73
     5
 74
     0
 42
0.00000001
 43
0.00000001
 40
0.0
 40
0.0
 40
0.0
 40
0.0
 40
0.9229245787518501
 40
0.9999999999999999
 40
0.9999999999999999
 40
0.9999999999999999
 40
0.9999999999999999
 10
339.1769889268285
 20
216.2261840770497
 30
0.0
 10
339.1739130419215
 20
216.2810436594114
 30
0.0
 10
339.1705802832348
 20
216.3404846837646
 30
0.0
 10
339.1826484685653
 20
216.3995002073693
 30
0.0
 10
339.1835786290333
 20
216.4040488537113
 30
0.0
  0
LINE
  5
22A
330
1F
100
AcDbEntity
  8
0
  6
Continuous
 62
     7
370
    25
100
AcDbLine
 10
339.4460986495
 20
217.5781347615
 30
0.0
 11
339.8915201066
 21
218.5355851538
 31
0.0
  0
LINE
  5
22B
330
1F
100
AcDbEntity
  8
0
  6
Continuous
 62
     7
370
    25
100
AcDbLine
 10
339.8915201066
 20
218.5355851538
 30
0.0
 11
347.962457747
 21
218.5355851538
 31
0.0
  0
LINE
  5
22C
330
1F
100
AcDbEntity
  8
0
  6
Continuous
 62
     7
370
    25
100
AcDbLine
 10
348.4032421579
 20
217.5881022691
 30
0.0
 11
347.962457747
 21
218.5355851538
 31
0.0
  0
LINE
  5
22D
330
1F
100
AcDbEntity
  8
0
  6
Continuous
 62
     7
370
    25
100
AcDbLine
 10
339.1769889268
 20
216.226184077
 30
0.0
 11
339.1769889268
 21
214.2979808468
 31
0.0
  0
LINE
  5
22E
330
1F
100
AcDbEntity
  8
0
  6
Continuous
 62
     7
370
    25
100
AcDbLine
 10
339.1769889268
 20
217.2979808468
 30
0.0
 11
339.1769889268
 21
216.226184077
 31
0.0
  0
LINE
  5
22F
330
1F
100
AcDbEntity
  8
0
  6
Continuous
 62
     7
370
    25
100
AcDbLine
 10
339.1769889268
 20
202.3697776165
 30
0.0
 11
339.1769889268
 21
201.2979808468
 31
0.0
  0
SPLINE
  5
230
330
1F
100
AcDbEntity
  8
0
  6
Continuous
 62
     7
370
    25
100
AcDbSpline
210
0.0
220
0.0
230
1.0
 70
     8
 71
     3
 72
     9
 73
     5
 74
     0
 42
0.00000001
 43
0.00000001
 40
0.0
 40
0.0
 40
0.0
 40
0.0
 40
0.4954579634770085
 40
0.9999999999999999
 40
0.9999999999999999
 40
0.9999999999999999
 40
0.9999999999999999
 10
347.9690474492165
 20
217.8310147952979
 30
0.0
 10
348.1687574956987
 20
217.2357288671237
 30
0.0
 10
348.5718392124214
 20
216.0342426219605
 30
0.0
 10
348.6461072713383
 20
214.7922152802951
 30
0.0
 10
348.6835786290328
 20
214.165560275914
 30
0.0
  0
SPLINE
  5
231
330
1F
100
AcDbEntity
  8
0
  6
Continuous
 62
     7
370
    25
100
AcDbSpline
210
0.0
220
0.0
230
1.0
 70
     8
 71
     3
 72
    10
 73
     6
 74
     0
 42
0.00000001
 43
0.00000001
 40
0.0
 40
0.0
 40
0.0
 40
0.0
 40
0.070085767774725
 40
0.5307822340229772
 40
1.0
 40
1.0
 40
1.0
 40
1.0
 10
348.6835786290328
 20
214.165560275914
 30
0.0
 10
348.6827255699865
 20
214.0786824720236
 30
0.0
 10
348.6762650773536
 20
213.4207287062293
 30
0.0
 10
348.5202105147625
 20
212.18018461388
 30
0.0
 10
348.1538874090179
 20
211.0635428368942
 30
0.0
 10
347.9690474492165
 20
210.5001057565302
 30
0.0
  0
LINE
  5
232
330
1F
100
AcDbEntity
  8
0
  6
Continuous
 62
     7
370
    25
100
AcDbLine
 10
347.9690474492
 20
210.5001057565
 30
0.0
 11
339.8981098088
 21
210.5001057565
 31
0.0
  0
SPLINE
  5
233
330
1F
100
AcDbEntity
  8
0
  6
Continuous
 62
     7
370
    25
100
AcDbSpline
210
0.0
220
0.0
230
1.0
 70
     8
 71
     3
 72
    10
 73
     6
 74
     0
 42
0.00000001
 43
0.00000001
 40
0.0
 40
0.0
 40
0.0
 40
0.0
 40
0.070085767774725
 40
0.5307822340229772
 40
1.0
 40
1.0
 40
1.0
 40
1.0
 10
339.1835786290328
 20
214.165560275914
 30
0.0
 10
339.1844316880791
 20
214.0786824720236
 30
0.0
 10
339.190892180712
 20
213.4207287062293
 30
0.0
 10
339.3469467433031
 20
212.18018461388
 30
0.0
 10
339.7132698490478
 20
211.0635428368942
 30
0.0
 10
339.8981098088491
 20
210.5001057565302
 30
0.0
  0
SPLINE
  5
234
330
1F
100
AcDbEntity
  8
0
  6
Continuous
 62
     7
370
    25
100
AcDbSpline
210
0.0
220
0.0
230
1.0
 70
     8
 71
     3
 72
     9
 73
     5
 74
     0
 42
0.00000001
 43
0.00000001
 40
0.0
 40
0.0
 40
0.0
 40
0.0
 40
0.4954579634770085
 40
0.9999999999999999
 40
0.9999999999999999
 40
0.9999999999999999
 40
0.9999999999999999
 10
339.8981098088491
 20
217.8310147952979
 30
0.0
 10
339.6983997623669
 20
217.2357288671237
 30
0.0
 10
339.2953180456443
 20
216.0342426219605
 30
0.0
 10
339.2210499867273
 20
214.7922152802951
 30
0.0
 10
339.1835786290328
 20
214.165560275914
 30
0.0
  0
LINE
  5
235
330
1F
100
AcDbEntity
  8
0
  6
Continuous
 62
     7
370
    25
100
AcDbLine
 10
347.9690474492
 20
217.8310147953
 30
0.0
 11
339.8981098088
 21
217.8310147953
 31
0.0
  0
SPLINE
  5
236
330
1F
100
AcDbEntity
  8
0
  6
Continuous
 62
     7
370
    25
100
AcDbSpline
210
0.0
220
0.0
230
1.0
 70
     8
 71
     3
 72
    10
 73
     6
 74
     0
 42
0.00000001
 43
0.00000001
 40
0.0
 40
0.0
 40
0.0
 40
0.0
 40
0.2572432618847718
 40
0.6263798857723086
 40
1.0
 40
1.0
 40
1.0
 40
1.0
 10
339.8981098088491
 20
210.5001057565302
 30
0.0
 10
339.7928138229491
 20
210.1418225511742
 30
0.0
 10
339.5364211495817
 20
209.2694133319756
 30
0.0
 10
339.2494298288267
 20
207.845519125065
 30
0.0
 10
339.2056171841475
 20
206.7730567921423
 30
0.0
 10
339.1835786290328
 20
206.2335887822683
 30
0.0
  0
LINE
  5
237
330
1F
100
AcDbEntity
  8
0
  6
Continuous
 62
     7
370
    25
100
AcDbLine
 10
339.183578629
 20
214.1655602759
 30
0.0
 11
339.183578629
 21
206.2335887823
 31
0.0
  0
SPLINE
  5
238
330
1F
100
AcDbEntity
  8
0
  6
Continuous
 62
     7
370
    25
100
AcDbSpline
210
0.0
220
0.0
230
1.0
 70
     8
 71
     3
 72
    10
 73
     6
 74
     0
 42
0.00000001
 43
0.00000001
 40
0.0
 40
0.0
 40
0.0
 40
0.0
 40
0.2572432618847717
 40
0.6263798857723085
 40
1.0
 40
1.0
 40
1.0
 40
1.0
 10
347.9690474492165
 20
210.5001057565302
 30
0.0
 10
348.0743434351166
 20
210.1418225511742
 30
0.0
 10
348.3307361084839
 20
209.2694133319756
 30
0.0
 10
348.617727429239
 20
207.845519125065
 30
0.0
 10
348.6615400739182
 20
206.7730567921423
 30
0.0
 10
348.6835786290328
 20
206.2335887822683
 30
0.0
  0
SPLINE
  5
239
330
1F
100
AcDbEntity
  8
0
  6
Continuous
 62
     7
370
    25
100
AcDbSpline
210
0.0
220
0.0
230
1.0
 70
     8
 71
     3
 72
    10
 73
     6
 74
     0
 42
0.00000001
 43
0.00000001
 40
0.0
 40
0.0
 40
0.0
 40
0.0
 40
0.2684065359321901
 40
0.6323728964502887
 40
1.0
 40
1.0
 40
1.0
 40
1.0
 10
348.6835786290328
 20
206.2335887822683
 30
0.0
 10
348.6719694222651
 20
205.8461263555918
 30
0.0
 10
348.6446178241242
 20
204.9332546322112
 30
0.0
 10
348.4096897806399
 20
203.5010773414315
 30
0.0
 10
348.1164173845823
 20
202.4801098894395
 30
0.0
 10
347.9690474492165
 20
201.9670718080064
 30
0.0
  0
LINE
  5
23A
330
1F
100
AcDbEntity
  8
0
  6
Continuous
 62
     7
370
    25
100
AcDbLine
 10
347.9690474492
 20
201.967071808
 30
0.0
 11
339.8981098088
 21
201.967071808
 31
0.0
  0
SPLINE
  5
23B
330
1F
100
AcDbEntity
  8
0
  6
Continuous
 62
     7
370
    25
100
AcDbSpline
210
0.0
220
0.0
230
1.0
 70
     8
 71
     3
 72
    10
 73
     6
 74
     0
 42
0.00000001
 43
0.00000001
 40
0.0
 40
0.0
 40
0.0
 40
0.0
 40
0.2684065359321909
 40
0.6323728964502842
 40
1.0
 40
1.0
 40
1.0
 40
1.0
 10
339.1835786290328
 20
206.2335887822683
 30
0.0
 10
339.1951878358005
 20
205.8461263555918
 30
0.0
 10
339.2225394339415
 20
204.9332546322112
 30
0.0
 10
339.4574674774257
 20
203.5010773414315
 30
0.0
 10
339.7507398734833
 20
202.4801098894395
 30
0.0
 10
339.8981098088491
 20
201.9670718080065
 30
0.0
  0
SPLINE
  5
23C
330
1F
100
AcDbEntity
  8
0
  6
Continuous
 62
     7
370
    25
100
AcDbSpline
210
0.0
220
0.0
230
1.0
 70
     8
 71
     3
 72
     9
 73
     5
 74
     0
 42
0.00000001
 43
0.00000001
 40
0.0
 40
0.0
 40
0.0
 40
0.0
 40
0.4954579634769942
 40
1.0
 40
1.0
 40
1.0
 40
1.0
 10
339.8981098088491
 20
201.9670718080065
 30
0.0
 10
339.6983997623669
 20
201.8694566229181
 30
0.0
 10
339.2953180456443
 20
201.6724365076224
 30
0.0
 10
339.2210499867273
 20
201.4687684497979
 30
0.0
 10
339.1835786290328
 20
201.3660093531285
 30
0.0
  0
LINE
  5
23D
330
1F
100
AcDbEntity
  8
0
  6
Continuous
 62
     7
370
    25
100
AcDbLine
 10
339.183578629
 20
206.2335887823
 30
0.0
 11
339.183578629
 21
201.3660093531
 31
0.0
  0
SPLINE
  5
23E
330
1F
100
AcDbEntity
  8
0
  6
Continuous
 62
     7
370
    25
100
AcDbSpline
210
0.0
220
0.0
230
1.0
 70
     8
 71
     3
 72
     9
 73
     5
 74
     0
 42
0.00000001
 43
0.00000001
 40
0.0
 40
0.0
 40
0.0
 40
0.0
 40
0.4954579634769941
 40
1.0
 40
1.0
 40
1.0
 40
1.0
 10
347.9690474492165
 20
201.9670718080064
 30
0.0
 10
348.1687574956987
 20
201.8694566229181
 30
0.0
 10
348.5718392124214
 20
201.6724365076224
 30
0.0
 10
348.6461072713383
 20
201.4687684497979
 30
0.0
 10
348.6835786290328
 20
201.3660093531285
 30
0.0
  0
SPLINE
  5
23F
330
1F
100
AcDbEntity
  8
0
  6
Continuous
 62
     7
370
    25
100
AcDbSpline
210
0.0
220
0.0
230
1.0
 70
     8
 71
     3
 72
     9
 73
     5
 74
     0
 42
0.00000001
 43
0.00000001
 40
0.0
 40
0.0
 40
0.0
 40
0.0
 40
0.3948185621871788
 40
0.9999999999999999
 40
0.9999999999999999
 40
0.9999999999999999
 40
0.9999999999999999
 10
339.2587506458681
 20
217.3665088660416
 30
0.0
 10
339.2937046860936
 20
217.4286970734397
 30
0.0
 10
339.3822365930837
 20
217.5862079236227
 30
0.0
 10
339.7036165963738
 20
217.7387183289316
 30
0.0
 10
339.8981098088491
 20
217.8310147952979
 30
0.0
  0
LINE
  5
240
330
1F
100
AcDbEntity
  8
0
  6
Continuous
 62
     7
370
    25
100
AcDbLine
 10
339.183578629
 20
217.2979808468
 30
0.0
 11
339.183578629
 21
214.1655602759
 31
0.0
  0
SPLINE
  5
241
330
1F
100
AcDbEntity
  8
0
  6
Continuous
 62
     7
370
    25
100
AcDbSpline
210
0.0
220
0.0
230
1.0
 70
     8
 71
     3
 72
     9
 73
     5
 74
     0
 42
0.00000001
 43
0.00000001
 40
0.0
 40
0.0
 40
0.0
 40
0.0
 40
0.3948185621871623
 40
1.0
 40
1.0
 40
1.0
 40
1.0
 10
348.6084066121974
 20
217.3665088660416
 30
0.0
 10
348.573452571972
 20
217.4286970734397
 30
0.0
 10
348.4849206649819
 20
217.5862079236227
 30
0.0
 10
348.1635406616919
 20
217.7387183289316
 30
0.0
 10
347.9690474492165
 20
217.8310147952979
 30
0.0
  0
SPLINE
  5
242
330
1F
100
AcDbEntity
  8
0
  6
Continuous
 62
     7
370
    25
100
AcDbSpline
210
0.0
220
0.0
230
1.0
 70
     8
 71
     3
 72
    10
 73
     6
 74
     0
 42
0.00000001
 43
0.00000001
 40
0.0
 40
0.0
 40
0.0
 40
0.0
 40
0.0700857677747316
 40
0.5307822340229753
 40
1.0
 40
1.0
 40
1.0
 40
1.0
 10
348.6835786290328
 20
201.3660093531285
 30
0.0
 10
348.6827255699865
 20
201.3517631018643
 30
0.0
 10
348.6762650773537
 20
201.243871623857
 30
0.0
 10
348.5202105147625
 20
201.0404467897502
 30
0.0
 10
348.1538874090179
 20
200.8573394986502
 30
0.0
 10
347.9690474492165
 20
200.7649468982505
 30
0.0
  0
LINE
  5
243
330
1F
100
AcDbEntity
  8
0
  6
Continuous
 62
     7
370
    25
100
AcDbLine
 10
347.9690474492
 20
200.7649468983
 30
0.0
 11
339.8981098088
 21
200.7649468983
 31
0.0
  0
SPLINE
  5
244
330
1F
100
AcDbEntity
  8
0
  6
Continuous
 62
     7
370
    25
100
AcDbSpline
210
0.0
220
0.0
230
1.0
 70
     8
 71
     3
 72
    10
 73
     6
 74
     0
 42
0.00000001
 43
0.00000001
 40
0.0
 40
0.0
 40
0.0
 40
0.0
 40
0.0700857677747316
 40
0.5307822340229753
 40
1.0
 40
1.0
 40
1.0
 40
1.0
 10
339.1835786290328
 20
201.3660093531285
 30
0.0
 10
339.1844316880791
 20
201.3517631018643
 30
0.0
 10
339.190892180712
 20
201.243871623857
 30
0.0
 10
339.3469467433031
 20
201.0404467897502
 30
0.0
 10
339.7132698490478
 20
200.8573394986502
 30
0.0
 10
339.8981098088491
 20
200.7649468982505
 30
0.0
  0
LINE
  5
245
330
1F
100
AcDbEntity
  8
0
  6
Continuous
 62
     7
370
    25
100
AcDbLine
 10
339.183578629
 20
201.3660093531
 30
0.0
 11
339.183578629
 21
201.2979808468
 31
0.0
  0
LINE
  5
246
330
1F
100
AcDbEntity
  8
0
  6
Continuous
 62
     7
370
    25
100
AcDbLine
 10
356.283578629
 20
216.226184077
 30
0.0
 11
356.283578629
 21
218.5355851538
 31
0.0
  0
LINE
  5
247
330
1F
100
AcDbEntity
  8
0
  6
Continuous
 62
     7
370
    25
100
AcDbLine
 10
356.283578629
 20
218.5355851538
 30
0.0
 11
361.3690474492
 21
218.5355851538
 31
0.0
  0
SPLINE
  5
248
330
1F
100
AcDbEntity
  8
0
  6
Continuous
 62
     7
370
    25
100
AcDbSpline
210
0.0
220
0.0
230
1.0
 70
     8
 71
     3
 72
     9
 73
     5
 74
     0
 42
0.00000001
 43
0.00000001
 40
0.0
 40
0.0
 40
0.0
 40
0.0
 40
0.4954579634770076
 40
1.0
 40
1.0
 40
1.0
 40
1.0
 10
361.3690474492165
 20
218.5355851538082
 30
0.0
 10
361.5687574956987
 20
218.1605282662559
 30
0.0
 10
361.9718392124214
 20
217.4035379356934
 30
0.0
 10
362.0461072713383
 20
216.6210048923731
 30
0.0
 10
362.0835786290328
 20
216.2261840770497
 30
0.0
  0
SPLINE
  5
249
330
1F
100
AcDbEntity
  8
0
  6
Continuous
 62
     7
370
    25
100
AcDbSpline
210
0.0
220
0.0
230
1.0
 70
     8
 71
     3
 72
    10
 73
     6
 74
     0
 42
0.00000001
 43
0.00000001
 40
0.0
 40
0.0
 40
0.0
 40
0.0
 40
0.0700857677747261
 40
0.5307822340229847
 40
1.0
 40
1.0
 40
1.0
 40
1.0
 10
362.0835786290328
 20
216.2261840770497
 30
0.0
 10
362.0827255699865
 20
216.171447156215
 30
0.0
 10
362.0762650773536
 20
215.7569067146006
 30
0.0
 10
361.9202105147625
 20
214.9753081850083
 30
0.0
 10
361.5538874090179
 20
214.2717736824009
 30
0.0
 10
361.3690474492165
 20
213.9167830002912
 30
0.0
  0
LINE
  5
24A
330
1F
100
AcDbEntity
  8
0
  6
Continuous
 62
     7
370
    25
100
AcDbLine
 10
356.283578629
 20
213.9167830003
 30
0.0
 11
361.3690474492
 21
213.9167830003
 31
0.0
  0
LINE
  5
24B
330
1F
100
AcDbEntity
  8
0
  6
Continuous
 62
     7
370
    25
100
AcDbLine
 10
356.283578629
 20
213.9167830003
 30
0.0
 11
356.283578629
 21
216.226184077
 31
0.0
  0
LINE
  5
24C
330
1F
100
AcDbEntity
  8
0
  6
Continuous
 62
     7
370
    25
100
AcDbLine
 10
356.283578629
 20
202.3697776165
 30
0.0
 11
356.283578629
 21
204.6791786933
 31
0.0
  0
LINE
  5
24D
330
1F
100
AcDbEntity
  8
0
  6
Continuous
 62
     7
370
    25
100
AcDbLine
 10
356.283578629
 20
204.6791786933
 30
0.0
 11
361.3690474492
 21
204.6791786933
 31
0.0
  0
SPLINE
  5
24E
330
1F
100
AcDbEntity
  8
0
  6
Continuous
 62
     7
370
    25
100
AcDbSpline
210
0.0
220
0.0
230
1.0
 70
     8
 71
     3
 72
     9
 73
     5
 74
     0
 42
0.00000001
 43
0.00000001
 40
0.0
 40
0.0
 40
0.0
 40
0.0
 40
0.495457963477007
 40
1.0
 40
1.0
 40
1.0
 40
1.0
 10
361.3690474492167
 20
204.6791786932569
 30
0.0
 10
361.5687574956988
 20
204.3041218057047
 30
0.0
 10
361.9718392124214
 20
203.5471314751423
 30
0.0
 10
362.0461072713383
 20
202.764598431822
 30
0.0
 10
362.0835786290328
 20
202.3697776164987
 30
0.0
  0
SPLINE
  5
24F
330
1F
100
AcDbEntity
  8
0
  6
Continuous
 62
     7
370
    25
100
AcDbSpline
210
0.0
220
0.0
230
1.0
 70
     8
 71
     3
 72
    10
 73
     6
 74
     0
 42
0.00000001
 43
0.00000001
 40
0.0
 40
0.0
 40
0.0
 40
0.0
 40
0.0700857677747298
 40
0.5307822340229839
 40
1.0
 40
1.0
 40
1.0
 40
1.0
 10
362.0835786290328
 20
202.3697776164987
 30
0.0
 10
362.0827255699865
 20
202.3150406956639
 30
0.0
 10
362.0762650773536
 20
201.9005002540496
 30
0.0
 10
361.9202105147625
 20
201.1189017244573
 30
0.0
 10
361.5538874090179
 20
200.4153672218499
 30
0.0
 10
361.3690474492165
 20
200.0603765397402
 30
0.0
  0
LINE
  5
250
330
1F
100
AcDbEntity
  8
0
  6
Continuous
 62
     7
370
    25
100
AcDbLine
 10
356.283578629
 20
200.0603765397
 30
0.0
 11
361.3690474492
 21
200.0603765397
 31
0.0
  0
LINE
  5
251
330
1F
100
AcDbEntity
  8
0
  6
Continuous
 62
     7
370
    25
100
AcDbLine
 10
356.283578629
 20
200.0603765397
 30
0.0
 11
356.283578629
 21
202.3697776165
 31
0.0
  0
SPLINE
  5
252
330
1F
100
AcDbEntity
  8
0
  6
Continuous
 62
     7
370
    25
100
AcDbSpline
210
0.0
220
0.0
230
1.0
 70
     8
 71
     3
 72
    10
 73
     6
 74
     0
 42
0.00000001
 43
0.00000001
 40
0.0
 40
0.0
 40
0.0
 40
0.0
 40
0.3909524037316078
 40
0.7858548843188062
 40
1.0
 40
1.0
 40
1.0
 40
1.0
 10
361.3690474492165
 20
213.9167830002912
 30
0.0
 10
361.5251047905004
 20
213.3259287696109
 30
0.0
 10
361.8387962340396
 20
212.1382504776538
 30
0.0
 10
362.0546672032767
 20
210.5842386258162
 30
0.0
 10
362.0760576190394
 20
209.6325875760253
 30
0.0
 10
362.0835786290328
 20
209.2979808467742
 30
0.0
  0
SPLINE
  5
253
330
1F
100
AcDbEntity
  8
0
  6
Continuous
 62
     7
370
    25
100
AcDbSpline
210
0.0
220
0.0
230
1.0
 70
     8
 71
     3
 72
    10
 73
     6
 74
     0
 42
0.00000001
 43
0.00000001
 40
0.0
 40
0.0
 40
0.0
 40
0.0
 40
0.4026080277071247
 40
0.8115881349292654
 40
1.0
 40
1.0
 40
1.0
 40
1.0
 10
362.0835786290328
 20
209.2979808467742
 30
0.0
 10
362.0580084614348
 20
208.6686535545022
 30
0.0
 10
362.0064634270525
 20
207.4000386033701
 30
0.0
 10
361.6951531867887
 20
205.8625237424782
 30
0.0
 10
361.4472376886947
 20
204.9629088522926
 30
0.0
 10
361.3690474492167
 20
204.6791786932569
 30
0.0
  0
LINE
  5
254
330
1F
100
AcDbEntity
  8
0
  6
Continuous
 62
     7
370
    25
100
AcDbLine
 10
356.283578629
 20
209.2979808468
 30
0.0
 11
356.283578629
 21
213.9167830003
 31
0.0
  0
LINE
  5
255
330
1F
100
AcDbEntity
  8
0
  6
Continuous
 62
     7
370
    25
100
AcDbLine
 10
356.283578629
 20
204.6791786933
 30
0.0
 11
356.283578629
 21
209.2979808468
 31
0.0
  0
LINE
  5
256
330
1F
100
AcDbEntity
  8
0
  6
Continuous
 62
     7
370
    25
100
AcDbLine
 10
362.083578629
 20
209.2979808468
 30
0.0
 11
362.083578629
 21
216.226184077
 31
0.0
  0
LINE
  5
257
330
1F
100
AcDbEntity
  8
0
  6
Continuous
 62
     7
370
    25
100
AcDbLine
 10
362.083578629
 20
202.3697776165
 30
0.0
 11
362.083578629
 21
209.2979808468
 31
0.0
  0
LINE
  5
258
330
1F
100
AcDbEntity
  8
0
  6
Continuous
 62
     7
370
    25
100
AcDbLine
 10
335.683578629
 20
213.4699808468
 30
0.0
 11
335.683578629
 21
205.1259808468
 31
0.0
  0
LINE
  5
259
330
1F
100
AcDbEntity
  8
0
  6
Continuous
 62
     7
370
    25
100
AcDbLine
 10
336.511578629
 20
214.2979808468
 30
0.0
 11
336.511578629
 21
204.2979808468
 31
0.0
  0
LINE
  5
25A
330
1F
100
AcDbEntity
  8
0
  6
Continuous
 62
     7
370
    25
100
AcDbLine
 10
362.083578629
 20
201.2979808468
 30
0.0
 11
362.083578629
 21
202.3697776165
 31
0.0
  0
LINE
  5
25B
330
1F
100
AcDbEntity
  8
0
  6
Continuous
 62
     7
370
    25
100
AcDbLine
 10
362.083578629
 20
216.226184077
 30
0.0
 11
362.083578629
 21
217.2979808468
 31
0.0
  0
LINE
  5
25C
330
1F
100
AcDbEntity
  8
0
  6
Continuous
 62
     7
370
    25
100
AcDbLine
 10
353.683578629
 20
230.7979808468
 30
0.0
 11
350.683578629
 21
230.7979808468
 31
0.0
  0
LINE
  5
25D
330
1F
100
AcDbEntity
  8
0
  6
Continuous
 62
     7
370
    25
100
AcDbLine
 10
353.683578629
 20
181.2979808468
 30
0.0
 11
350.683578629
 21
181.2979808468
 31
0.0
  0
LINE
  5
25E
330
1F
100
AcDbEntity
  8
0
  6
Continuous
 62
     7
370
    25
100
AcDbLine
 10
353.683578629
 20
230.7979808468
 30
0.0
 11
353.683578629
 21
181.2979808468
 31
0.0
  0
LINE
  5
25F
330
1F
100
AcDbEntity
  8
0
  6
Continuous
 62
     7
370
    25
100
AcDbLine
 10
350.683578629
 20
230.7979808468
 30
0.0
 11
350.683578629
 21
181.2979808468
 31
0.0
  0
LINE
  5
260
330
1F
100
AcDbEntity
  8
0
  6
Continuous
 62
     7
370
    25
100
AcDbLine
 10
353.683578629
 20
245.7979808468
 30
0.0
 11
350.683578629
 21
245.7979808468
 31
0.0
  0
LINE
  5
261
330
1F
100
AcDbEntity
  8
0
  6
Continuous
 62
     7
370
    25
100
AcDbLine
 10
353.683578629
 20
245.7979808468
 30
0.0
 11
353.683578629
 21
233.2979808468
 31
0.0
  0
LINE
  5
262
330
1F
100
AcDbEntity
  8
0
  6
Continuous
 62
     7
370
    25
100
AcDbLine
 10
353.683578629
 20
230.9611785762
 30
0.0
 11
353.683578629
 21
230.7979808468
 31
0.0
  0
LINE
  5
263
330
1F
100
AcDbEntity
  8
0
  6
Continuous
 62
     7
370
    25
100
AcDbLine
 10
350.683578629
 20
245.7979808468
 30
0.0
 11
350.683578629
 21
233.2979808468
 31
0.0
  0
LINE
  5
264
330
1F
100
AcDbEntity
  8
0
  6
Continuous
 62
     7
370
    25
100
AcDbLine
 10
350.683578629
 20
230.9611785762
 30
0.0
 11
350.683578629
 21
230.7979808468
 31
0.0
  0
LINE
  5
265
330
1F
100
AcDbEntity
  8
0
  6
Continuous
 62
     7
370
    25
100
AcDbLine
 10
348.683578629
 20
184.0345808468
 30
0.0
 11
350.683578629
 21
184.0345808468
 31
0.0
  0
SPLINE
  5
266
330
1F
100
AcDbEntity
  8
0
  6
Continuous
 62
     7
370
    25
100
AcDbSpline
210
0.0
220
0.0
230
1.0
 70
     8
 71
     3
 72
    12
 73
     8
 74
     0
 42
0.00000001
 43
0.00000001
 40
0.0
 40
0.0
 40
0.0
 40
0.0
 40
0.2335879420900665
 40
0.4537901450808102
 40
0.6739877272614909
 40
0.8941852184808508
 40
1.0
 40
1.0
 40
1.0
 40
1.0
 10
347.9469786290329
 20
181.2979808467741
 30
0.0
 10
348.2819110185403
 20
181.3337736908278
 30
0.0
 10
348.9325825226725
 20
181.403308272753
 30
0.0
 10
349.7741501255937
 20
181.9274558290738
 30
0.0
 10
350.3786847061172
 20
182.6663167371999
 30
0.0
 10
350.6527240732666
 20
183.4184166548574
 30
0.0
 10
350.6760180372517
 20
183.8835961442069
 30
0.0
 10
350.6835786290328
 20
184.0345808467742
 30
0.0
  0
LINE
  5
267
330
1F
100
AcDbEntity
  8
0
  6
Continuous
 62
     7
370
    25
100
AcDbLine
 10
347.946978629
 20
183.2979808468
 30
0.0
 11
347.946978629
 21
181.2979808468
 31
0.0
  0
SPLINE
  5
268
330
1F
100
AcDbEntity
  8
0
  6
Continuous
 62
     7
370
    25
100
AcDbSpline
210
0.0
220
0.0
230
1.0
 70
     8
 71
     3
 72
    11
 73
     7
 74
     0
 42
0.00000001
 43
0.00000001
 40
0.0
 40
0.0
 40
0.0
 40
0.0
 40
0.2472454926704328
 40
0.5282132489579175
 40
0.8093312418986061
 40
1.0
 40
1.0
 40
1.0
 40
1.0
 10
347.9469786290326
 20
183.2979808467741
 30
0.0
 10
348.0423744563057
 20
183.3088779360069
 30
0.0
 10
348.2461773216955
 20
183.3321583883445
 30
0.0
 10
348.5071457927946
 20
183.5225948682726
 30
0.0
 10
348.660916399212
 20
183.7793958358721
 30
0.0
 10
348.6770559582178
 20
183.9611331835828
 30
0.0
 10
348.6835786290328
 20
184.0345808467741
 30
0.0
  0
LINE
  5
269
330
1F
100
AcDbEntity
  8
0
  6
Continuous
 62
     7
370
    25
100
AcDbLine
 10
347.946978629
 20
181.2979808468
 30
0.0
 11
325.683578629
 21
181.2979808468
 31
0.0
  0
LINE
  5
26A
330
1F
100
AcDbEntity
  8
0
  6
Continuous
 62
     7
370
    25
100
AcDbLine
 10
347.946978629
 20
183.2979808468
 30
0.0
 11
325.683578629
 21
183.2979808468
 31
0.0
  0
LINE
  5
26B
330
1F
100
AcDbEntity
  8
0
  6
Continuous
 62
     7
370
    25
100
AcDbLine
 10
323.683578629
 20
181.2979808468
 30
0.0
 11
323.683578629
 21
183.2979808468
 31
0.0
  0
LINE
  5
26C
330
1F
100
AcDbEntity
  8
0
  6
Continuous
 62
     7
370
    25
100
AcDbLine
 10
325.683578629
 20
181.2979808468
 30
0.0
 11
323.683578629
 21
181.2979808468
 31
0.0
  0
LINE
  5
26D
330
1F
100
AcDbEntity
  8
0
  6
Continuous
 62
     7
370
    25
100
AcDbLine
 10
323.683578629
 20
183.2979808468
 30
0.0
 11
325.683578629
 21
183.2979808468
 31
0.0
  0
LINE
  5
26E
330
1F
100
AcDbEntity
  8
0
  6
Continuous
 62
     7
370
    25
100
AcDbLine
 10
350.683578629
 20
233.2979808468
 30
0.0
 11
348.683578629
 21
233.2979808468
 31
0.0
  0
LINE
  5
26F
330
1F
100
AcDbEntity
  8
0
  6
Continuous
 62
     7
370
    25
100
AcDbLine
 10
350.683578629
 20
230.9611785762
 30
0.0
 11
350.683578629
 21
233.2979808468
 31
0.0
  0
LINE
  5
270
330
1F
100
AcDbEntity
  8
0
  6
Continuous
 62
     7
370
    25
100
AcDbLine
 10
348.683578629
 20
184.0345808468
 30
0.0
 11
348.683578629
 21
233.2979808468
 31
0.0
  0
SPLINE
  5
271
330
1F
100
AcDbEntity
  8
0
  6
Continuous
 62
     7
370
    25
100
AcDbSpline
210
0.0
220
0.0
230
1.0
 70
     8
 71
     3
 72
    20
 73
    16
 74
     0
 42
0.00000001
 43
0.00000001
 40
0.0
 40
0.0
 40
0.0
 40
0.0
 40
0.1249999999999999
 40
0.1249999999999999
 40
0.2499999999999997
 40
0.2499999999999997
 40
0.3749999999999996
 40
0.3749999999999996
 40
0.4999999999999994
 40
0.4999999999999994
 40
0.6249999999999992
 40
0.6249999999999992
 40
0.749999999999999
 40
0.749999999999999
 40
1.0
 40
1.0
 40
1.0
 40
1.0
 10
353.6835786290328
 20
184.034580846774
 30
0.0
 10
353.6835786290328
 20
183.8538409914577
 30
0.0
 10
353.7013182403486
 20
183.6762327832078
 30
0.0
 10
353.7705774637512
 20
183.3273122890421
 30
0.0
 10
353.8225924288162
 20
183.1548411758085
 30
0.0
 10
353.9602432657775
 20
182.8220982840818
 30
0.0
 10
354.0443849350016
 20
182.6647635189339
 30
0.0
 10
354.2422975862419
 20
182.3679587085251
 30
0.0
 10
354.3575725001767
 20
182.2271811710381
 30
0.0
 10
354.6106536036049
 20
181.9738390354364
 30
0.0
 10
354.7483251419719
 20
181.8606668965531
 30
0.0
 10
355.0456294843833
 20
181.6614793752591
 30
0.0
 10
355.2061379218956
 20
181.5755318573422
 30
0.0
 10
355.7005191193655
 20
181.3702950899161
 30
0.0
 10
356.0586989090332
 20
181.2979808467741
 30
0.0
 10
356.4201786290328
 20
181.2979808467741
 30
0.0
  0
LINE
  5
272
330
1F
100
AcDbEntity
  8
0
  6
Continuous
 62
     7
370
    25
100
AcDbLine
 10
355.683578629
 20
184.0345808468
 30
0.0
 11
353.683578629
 21
184.0345808468
 31
0.0
  0
SPLINE
  5
273
330
1F
100
AcDbEntity
  8
0
  6
Continuous
 62
     7
370
    25
100
AcDbSpline
210
0.0
220
0.0
230
1.0
 70
     8
 71
     3
 72
    10
 73
     6
 74
     0
 42
0.00000001
 43
0.00000001
 40
0.0
 40
0.0
 40
0.0
 40
0.0
 40
0.5
 40
0.5
 40
1.0
 40
1.0
 40
1.0
 40
1.0
 10
355.6835786290328
 20
184.0345808467741
 30
0.0
 10
355.6835786290328
 20
183.8401875534585
 30
0.0
 10
355.7623361043857
 20
183.6508926781774
 30
0.0
 10
356.0356306068031
 20
183.37724058743
 30
0.0
 10
356.2257853431237
 20
183.2979808467741
 30
0.0
 10
356.4201786290328
 20
183.2979808467741
 30
0.0
  0
LINE
  5
274
330
1F
100
AcDbEntity
  8
0
  6
Continuous
 62
     7
370
    25
100
AcDbLine
 10
356.420178629
 20
183.2979808468
 30
0.0
 11
356.420178629
 21
181.2979808468
 31
0.0
  0
LINE
  5
275
330
1F
100
AcDbEntity
  8
0
  6
Continuous
 62
     7
370
    25
100
AcDbLine
 10
378.683578629
 20
183.2979808468
 30
0.0
 11
356.420178629
 21
183.2979808468
 31
0.0
  0
LINE
  5
276
330
1F
100
AcDbEntity
  8
0
  6
Continuous
 62
     7
370
    25
100
AcDbLine
 10
378.683578629
 20
181.2979808468
 30
0.0
 11
356.420178629
 21
181.2979808468
 31
0.0
  0
LINE
  5
277
330
1F
100
AcDbEntity
  8
0
  6
Continuous
 62
     7
370
    25
100
AcDbLine
 10
380.683578629
 20
183.2979808468
 30
0.0
 11
380.683578629
 21
181.2979808468
 31
0.0
  0
LINE
  5
278
330
1F
100
AcDbEntity
  8
0
  6
Continuous
 62
     7
370
    25
100
AcDbLine
 10
378.683578629
 20
183.2979808468
 30
0.0
 11
380.683578629
 21
183.2979808468
 31
0.0
  0
LINE
  5
279
330
1F
100
AcDbEntity
  8
0
  6
Continuous
 62
     7
370
    25
100
AcDbLine
 10
380.683578629
 20
181.2979808468
 30
0.0
 11
378.683578629
 21
181.2979808468
 31
0.0
  0
LINE
  5
27A
330
1F
100
AcDbEntity
  8
0
  6
Continuous
 62
     7
370
    25
100
AcDbLine
 10
353.683578629
 20
233.2979808468
 30
0.0
 11
353.683578629
 21
230.9611785762
 31
0.0
  0
LINE
  5
27B
330
1F
100
AcDbEntity
  8
0
  6
Continuous
 62
     7
370
    25
100
AcDbLine
 10
353.683578629
 20
233.2979808468
 30
0.0
 11
355.683578629
 21
233.2979808468
 31
0.0
  0
LINE
  5
27C
330
1F
100
AcDbEntity
  8
0
  6
Continuous
 62
     7
370
    25
100
AcDbLine
 10
355.683578629
 20
233.2979808468
 30
0.0
 11
355.683578629
 21
184.0345808468
 31
0.0
  0
LINE
  5
27D
330
1F
100
AcDbEntity
  8
0
  6
Continuous
 62
     8
370
    18
100
AcDbLine
 10
325.683578629
 20
183.2979808468
 30
0.0
 11
325.683578629
 21
181.2979808468
 31
0.0
  0
LINE
  5
27E
330
1F
100
AcDbEntity
  8
0
  6
Continuous
 62
     8
370
    18
100
AcDbLine
 10
378.683578629
 20
181.2979808468
 30
0.0
 11
378.683578629
 21
183.2979808468
 31
0.0
  0
DIMENSION
  5
27F
330
1F
100
AcDbEntity
  8
0
  6
Continuous
 62
     7
370
    18
100
AcDbDimension
  2
_D_2
 10
311.109619383
 20
209.2979808468
 30
0.0
 11
311.109619383
 21
195.2979808468
 31
0.0
 70
   160
  1
<>
 71
     2
 42
-1.0
  3
SLDDIMSTYLE0
100
AcDbAlignedDimension
 13
323.683578629
 23
181.2979808468
 33
0.0
 14
333.683578629
 24
209.2979808468
 34
0.0
 50
90.0
100
AcDbRotatedDimension
  0
LINE
  5
289
330
1F
100
AcDbEntity
  8
0
  6
CENTERX2
 62
     7
370
    18
100
AcDbLine
 10
357.283578629
 20
209.2979808468
 30
0.0
 11
333.683578629
 21
209.2979808468
 31
0.0
  0
LINE
  5
28A
330
1F
100
AcDbEntity
  8
0
  6
Continuous
 62
     7
370
    25
100
AcDbLine
 10
54.6392237903
 20
126.7154808468
 30
0.0
 11
53.9786659041
 21
126.3341075733
 31
0.0
  0
LINE
  5
28B
330
1F
100
AcDbEntity
  8
0
  6
Continuous
 62
     7
370
    25
100
AcDbLine
 10
53.9786659041
 20
117.5968541202
 30
0.0
 11
54.6392237903
 21
117.2154808468
 31
0.0
  0
LINE
  5
28C
330
1F
100
AcDbEntity
  8
0
  6
Continuous
 62
     7
370
    25
100
AcDbLine
 10
71.2997816765
 20
126.3341075733
 30
0.0
 11
70.6392237903
 21
126.7154808468
 31
0.0
  0
LINE
  5
28D
330
1F
100
AcDbEntity
  8
0
  6
Continuous
 62
     7
370
    25
100
AcDbLine
 10
70.6392237903
 20
117.2154808468
 30
0.0
 11
71.2997816765
 21
117.5968541202
 31
0.0
  0
LINE
  5
28E
330
1F
100
AcDbEntity
  8
0
  6
Continuous
 62
     7
370
    25
100
AcDbLine
 10
216.6392237903
 20
109.6154808468
 30
0.0
 11
216.6392237903
 21
110.2154808468
 31
0.0
  0
LINE
  5
28F
330
1F
100
AcDbEntity
  8
0
  6
Continuous
 62
     7
370
    25
100
AcDbLine
 10
200.6392237903
 20
110.2154808468
 30
0.0
 11
200.6392237903
 21
109.6154808468
 31
0.0
  0
LINE
  5
290
330
1F
100
AcDbEntity
  8
0
  6
Continuous
 62
     7
370
    25
100
AcDbLine
 10
213.6392237903
 20
129.3874808468
 30
0.0
 11
212.8112237903
 21
130.2154808468
 31
0.0
  0
LINE
  5
291
330
1F
100
AcDbEntity
  8
0
  6
Continuous
 62
     7
370
    25
100
AcDbLine
 10
204.4672237903
 20
130.2154808468
 30
0.0
 11
203.6392237903
 21
129.3874808468
 31
0.0
  0
LINE
  5
292
330
1F
100
AcDbEntity
  8
0
  6
Continuous
 62
     7
370
    25
100
AcDbLine
 10
213.6392237903
 20
117.2154808468
 30
0.0
 11
213.6392237903
 21
117.222070549
 31
0.0
  0
LINE
  5
293
330
1F
100
AcDbEntity
  8
0
  6
Continuous
 62
     7
370
    25
100
AcDbLine
 10
213.6392237903
 20
126.722070549
 30
0.0
 11
213.6392237903
 21
129.3874808468
 31
0.0
  0
LINE
  5
294
330
1F
100
AcDbEntity
  8
0
  6
Continuous
 62
     7
370
    25
100
AcDbLine
 10
203.6392237903
 20
129.3874808468
 30
0.0
 11
203.6392237903
 21
126.722070549
 31
0.0
  0
LINE
  5
295
330
1F
100
AcDbEntity
  8
0
  6
Continuous
 62
     7
370
    25
100
AcDbLine
 10
203.6392237903
 20
117.222070549
 30
0.0
 11
203.6392237903
 21
117.2154808468
 31
0.0
  0
LINE
  5
296
330
1F
100
AcDbEntity
  8
0
  6
Continuous
 62
     7
370
    25
100
AcDbLine
 10
70.6392237903
 20
109.6154808468
 30
0.0
 11
70.6392237903
 21
110.2154808468
 31
0.0
  0
LINE
  5
297
330
1F
100
AcDbEntity
  8
0
  6
Continuous
 62
     7
370
    25
100
AcDbLine
 10
54.6392237903
 20
110.2154808468
 30
0.0
 11
54.6392237903
 21
109.6154808468
 31
0.0
  0
LINE
  5
298
330
1F
100
AcDbEntity
  8
0
  6
Continuous
 62
     7
370
    25
100
AcDbLine
 10
67.6392237903
 20
129.3874808468
 30
0.0
 11
66.8112237903
 21
130.2154808468
 31
0.0
  0
LINE
  5
299
330
1F
100
AcDbEntity
  8
0
  6
Continuous
 62
     7
370
    25
100
AcDbLine
 10
58.4672237903
 20
130.2154808468
 30
0.0
 11
57.6392237903
 21
129.3874808468
 31
0.0
  0
LINE
  5
29A
330
1F
100
AcDbEntity
  8
0
  6
Continuous
 62
     7
370
    25
100
AcDbLine
 10
67.6392237903
 20
126.7154808468
 30
0.0
 11
67.6392237903
 21
129.3874808468
 31
0.0
  0
LINE
  5
29B
330
1F
100
AcDbEntity
  8
0
  6
Continuous
 62
     7
370
    25
100
AcDbLine
 10
57.6392237903
 20
129.3874808468
 30
0.0
 11
57.6392237903
 21
126.7154808468
 31
0.0
  0
LINE
  5
29C
330
1F
100
AcDbEntity
  8
0
  6
Continuous
 62
     7
370
    25
100
AcDbLine
 10
84.1665047213
 20
112.2154808468
 30
0.0
 11
84.1665047213
 21
115.2154808468
 31
0.0
  0
LINE
  5
29D
330
1F
100
AcDbEntity
  8
0
  6
Continuous
 62
     7
370
    25
100
AcDbLine
 10
187.1119428593
 20
115.2154808468
 30
0.0
 11
187.1119428593
 21
112.2154808468
 31
0.0
  0
LINE
  5
29E
330
1F
100
AcDbEntity
  8
0
  6
Continuous
 62
     7
370
    25
100
AcDbLine
 10
83.5221727602
 20
115.2154808468
 30
0.0
 11
83.5221727602
 21
117.2154808468
 31
0.0
  0
LINE
  5
29F
330
1F
100
AcDbEntity
  8
0
  6
Continuous
 62
     7
370
    25
100
AcDbLine
 10
187.7562748205
 20
117.2154808468
 30
0.0
 11
187.7562748205
 21
115.2154808468
 31
0.0
  0
LINE
  5
2A0
330
1F
100
AcDbEntity
  8
0
  6
Continuous
 62
     7
370
    25
100
AcDbLine
 10
187.7562748205
 20
112.2154808468
 30
0.0
 11
187.7562748205
 21
110.2154808468
 31
0.0
  0
LINE
  5
2A1
330
1F
100
AcDbEntity
  8
0
  6
Continuous
 62
     7
370
    25
100
AcDbLine
 10
83.5221727602
 20
110.2154808468
 30
0.0
 11
83.5221727602
 21
112.2154808468
 31
0.0
  0
SPLINE
  5
2A2
330
1F
100
AcDbEntity
  8
0
  6
Continuous
 62
     7
370
    25
100
AcDbSpline
210
0.0
220
0.0
230
1.0
 70
     8
 71
     3
 72
     9
 73
     5
 74
     0
 42
0.00000001
 43
0.00000001
 40
0.0
 40
0.0
 40
0.0
 40
0.0
 40
0.4954579634769947
 40
1.0
 40
1.0
 40
1.0
 40
1.0
 10
200.6392237903225
 20
126.0075393691623
 30
0.0
 10
201.2888413752917
 20
126.2072494156445
 30
0.0
 10
202.5999870886644
 20
126.6103311323672
 30
0.0
 10
203.9553740782966
 20
126.6845991912841
 30
0.0
 10
204.6392237903225
 20
126.7220705489786
 30
0.0
  0
SPLINE
  5
2A3
330
1F
100
AcDbEntity
  8
0
  6
Continuous
 62
     7
370
    25
100
AcDbSpline
210
0.0
220
0.0
230
1.0
 70
     8
 71
     3
 72
    10
 73
     6
 74
     0
 42
0.00000001
 43
0.00000001
 40
0.0
 40
0.0
 40
0.0
 40
0.0
 40
0.0700857677747326
 40
0.5307822340229755
 40
1.0
 40
1.0
 40
1.0
 40
1.0
 10
204.6392237903225
 20
126.7220705489786
 30
0.0
 10
204.7340309182582
 20
126.7212174899323
 30
0.0
 10
205.4520360249263
 20
126.7147569972994
 30
0.0
 10
206.8058043893011
 20
126.5587024347083
 30
0.0
 10
208.0243618926949
 20
126.1923793289637
 30
0.0
 10
208.6392237903225
 20
126.0075393691623
 30
0.0
  0
LINE
  5
2A4
330
1F
100
AcDbEntity
  8
0
  6
Continuous
 62
     7
370
    25
100
AcDbLine
 10
208.6392237903
 20
126.0075393692
 30
0.0
 11
208.6392237903
 21
117.9366017288
 31
0.0
  0
SPLINE
  5
2A5
330
1F
100
AcDbEntity
  8
0
  6
Continuous
 62
     7
370
    25
100
AcDbSpline
210
0.0
220
0.0
230
1.0
 70
     8
 71
     3
 72
    10
 73
     6
 74
     0
 42
0.00000001
 43
0.00000001
 40
0.0
 40
0.0
 40
0.0
 40
0.0
 40
0.0700857677747326
 40
0.5307822340229755
 40
1.0
 40
1.0
 40
1.0
 40
1.0
 10
204.6392237903225
 20
117.2220705489786
 30
0.0
 10
204.7340309182582
 20
117.2229236080249
 30
0.0
 10
205.4520360249263
 20
117.2293841006578
 30
0.0
 10
206.8058043893011
 20
117.3854386632489
 30
0.0
 10
208.0243618926949
 20
117.7517617689935
 30
0.0
 10
208.6392237903225
 20
117.9366017287949
 30
0.0
  0
SPLINE
  5
2A6
330
1F
100
AcDbEntity
  8
0
  6
Continuous
 62
     7
370
    25
100
AcDbSpline
210
0.0
220
0.0
230
1.0
 70
     8
 71
     3
 72
     9
 73
     5
 74
     0
 42
0.00000001
 43
0.00000001
 40
0.0
 40
0.0
 40
0.0
 40
0.0
 40
0.4954579634769953
 40
1.0
 40
1.0
 40
1.0
 40
1.0
 10
200.6392237903225
 20
117.9366017287949
 30
0.0
 10
201.2888413752917
 20
117.7368916823127
 30
0.0
 10
202.5999870886644
 20
117.33380996559
 30
0.0
 10
203.9553740782966
 20
117.2595419066731
 30
0.0
 10
204.6392237903225
 20
117.2220705489786
 30
0.0
  0
LINE
  5
2A7
330
1F
100
AcDbEntity
  8
0
  6
Continuous
 62
     7
370
    25
100
AcDbLine
 10
200.6392237903
 20
126.0075393692
 30
0.0
 11
200.6392237903
 21
117.9366017288
 31
0.0
  0
LINE
  5
2A8
330
1F
100
AcDbEntity
  8
0
  6
Continuous
 62
     7
370
    25
100
AcDbLine
 10
212.6392237903
 20
126.722070549
 30
0.0
 11
204.6392237903
 21
126.722070549
 31
0.0
  0
SPLINE
  5
2A9
330
1F
100
AcDbEntity
  8
0
  6
Continuous
 62
     7
370
    25
100
AcDbSpline
210
0.0
220
0.0
230
1.0
 70
     8
 71
     3
 72
     9
 73
     5
 74
     0
 42
0.00000001
 43
0.00000001
 40
0.0
 40
0.0
 40
0.0
 40
0.0
 40
0.4954579634770082
 40
1.0
 40
1.0
 40
1.0
 40
1.0
 10
208.6392237903225
 20
126.0075393691623
 30
0.0
 10
209.2888413752918
 20
126.2072494156445
 30
0.0
 10
210.5999870886644
 20
126.6103311323672
 30
0.0
 10
211.9553740782967
 20
126.6845991912841
 30
0.0
 10
212.6392237903225
 20
126.7220705489786
 30
0.0
  0
SPLINE
  5
2AA
330
1F
100
AcDbEntity
  8
0
  6
Continuous
 62
     7
370
    25
100
AcDbSpline
210
0.0
220
0.0
230
1.0
 70
     8
 71
     3
 72
    10
 73
     6
 74
     0
 42
0.00000001
 43
0.00000001
 40
0.0
 40
0.0
 40
0.0
 40
0.0
 40
0.070085767774731
 40
0.5307822340229859
 40
1.0
 40
1.0
 40
1.0
 40
1.0
 10
212.6392237903225
 20
126.7220705489786
 30
0.0
 10
212.7340309182582
 20
126.7212174899323
 30
0.0
 10
213.4520360249263
 20
126.7147569972994
 30
0.0
 10
214.8058043893012
 20
126.5587024347083
 30
0.0
 10
216.0243618926949
 20
126.1923793289637
 30
0.0
 10
216.6392237903225
 20
126.0075393691623
 30
0.0
  0
LINE
  5
2AB
330
1F
100
AcDbEntity
  8
0
  6
Continuous
 62
     7
370
    25
100
AcDbLine
 10
216.6392237903
 20
126.0075393692
 30
0.0
 11
216.6392237903
 21
117.9366017288
 31
0.0
  0
SPLINE
  5
2AC
330
1F
100
AcDbEntity
  8
0
  6
Continuous
 62
     7
370
    25
100
AcDbSpline
210
0.0
220
0.0
230
1.0
 70
     8
 71
     3
 72
    10
 73
     6
 74
     0
 42
0.00000001
 43
0.00000001
 40
0.0
 40
0.0
 40
0.0
 40
0.0
 40
0.070085767774731
 40
0.5307822340229859
 40
1.0
 40
1.0
 40
1.0
 40
1.0
 10
212.6392237903225
 20
117.2220705489786
 30
0.0
 10
212.7340309182582
 20
117.2229236080249
 30
0.0
 10
213.4520360249263
 20
117.2293841006578
 30
0.0
 10
214.8058043893011
 20
117.3854386632489
 30
0.0
 10
216.0243618926949
 20
117.7517617689935
 30
0.0
 10
216.6392237903225
 20
117.9366017287949
 30
0.0
  0
SPLINE
  5
2AD
330
1F
100
AcDbEntity
  8
0
  6
Continuous
 62
     7
370
    25
100
AcDbSpline
210
0.0
220
0.0
230
1.0
 70
     8
 71
     3
 72
     9
 73
     5
 74
     0
 42
0.00000001
 43
0.00000001
 40
0.0
 40
0.0
 40
0.0
 40
0.0
 40
0.4954579634770083
 40
1.0
 40
1.0
 40
1.0
 40
1.0
 10
208.6392237903225
 20
117.9366017287949
 30
0.0
 10
209.2888413752918
 20
117.7368916823127
 30
0.0
 10
210.5999870886644
 20
117.33380996559
 30
0.0
 10
211.9553740782967
 20
117.2595419066731
 30
0.0
 10
212.6392237903225
 20
117.2220705489786
 30
0.0
  0
LINE
  5
2AE
330
1F
100
AcDbEntity
  8
0
  6
Continuous
 62
     7
370
    25
100
AcDbLine
 10
204.6392237903
 20
117.222070549
 30
0.0
 11
212.6392237903
 21
117.222070549
 31
0.0
  0
SPLINE
  5
2AF
330
1F
100
AcDbEntity
  8
0
  6
Continuous
 62
     7
370
    25
100
AcDbSpline
210
0.0
220
0.0
230
1.0
 70
    24
 71
     3
 72
    10
 73
     6
 74
     0
 42
0.00000001
 43
0.00000001
 40
0.0
 40
0.0
 40
0.0
 40
0.0
 40
0.2684065359321934
 40
0.6323728964502875
 40
1.0
 40
1.0
 40
1.0
 40
1.0
 10
216.6392237903225
 20
126.7220705489786
 30
0.0
 10
216.6392237903225
 20
126.7104613422108
 30
0.0
 10
216.6392237903225
 20
126.6831097440699
 30
0.0
 10
216.6392237903225
 20
126.4481817005857
 30
0.0
 10
216.6392237903225
 20
126.1549093045281
 30
0.0
 10
216.6392237903225
 20
126.0075393691623
 30
0.0
  0
LINE
  5
2B0
330
1F
100
AcDbEntity
  8
0
  6
Continuous
 62
     7
370
    25
100
AcDbLine
 10
216.6392237903
 20
126.722070549
 30
0.0
 11
212.6392237903
 21
126.722070549
 31
0.0
  0
SPLINE
  5
2B1
330
1F
100
AcDbEntity
  8
0
  6
Continuous
 62
     7
370
    25
100
AcDbSpline
210
0.0
220
0.0
230
1.0
 70
    24
 71
     3
 72
    10
 73
     6
 74
     0
 42
0.00000001
 43
0.00000001
 40
0.0
 40
0.0
 40
0.0
 40
0.0
 40
0.2684065359321893
 40
0.6323728964502884
 40
1.0
 40
1.0
 40
1.0
 40
1.0
 10
200.6392237903225
 20
126.7220705489786
 30
0.0
 10
200.6392237903225
 20
126.7104613422108
 30
0.0
 10
200.6392237903223
 20
126.6831097440699
 30
0.0
 10
200.6392237903226
 20
126.4481817005857
 30
0.0
 10
200.6392237903225
 20
126.1549093045281
 30
0.0
 10
200.6392237903225
 20
126.0075393691623
 30
0.0
  0
LINE
  5
2B2
330
1F
100
AcDbEntity
  8
0
  6
Continuous
 62
     7
370
    25
100
AcDbLine
 10
204.6392237903
 20
126.722070549
 30
0.0
 11
200.6392237903
 21
126.722070549
 31
0.0
  0
SPLINE
  5
2B3
330
1F
100
AcDbEntity
  8
0
  6
Continuous
 62
     7
370
    25
100
AcDbSpline
210
0.0
220
0.0
230
1.0
 70
    24
 71
     3
 72
    10
 73
     6
 74
     0
 42
0.00000001
 43
0.00000001
 40
0.0
 40
0.0
 40
0.0
 40
0.0
 40
0.2684065359321934
 40
0.6323728964502875
 40
1.0
 40
1.0
 40
1.0
 40
1.0
 10
216.6392237903225
 20
117.2220705489786
 30
0.0
 10
216.6392237903225
 20
117.2336797557464
 30
0.0
 10
216.6392237903225
 20
117.2610313538873
 30
0.0
 10
216.6392237903225
 20
117.4959593973715
 30
0.0
 10
216.6392237903225
 20
117.7892317934291
 30
0.0
 10
216.6392237903225
 20
117.9366017287949
 30
0.0
  0
LINE
  5
2B4
330
1F
100
AcDbEntity
  8
0
  6
Continuous
 62
     7
370
    25
100
AcDbLine
 10
216.6392237903
 20
117.222070549
 30
0.0
 11
212.6392237903
 21
117.222070549
 31
0.0
  0
SPLINE
  5
2B5
330
1F
100
AcDbEntity
  8
0
  6
Continuous
 62
     7
370
    25
100
AcDbSpline
210
0.0
220
0.0
230
1.0
 70
    24
 71
     3
 72
    10
 73
     6
 74
     0
 42
0.00000001
 43
0.00000001
 40
0.0
 40
0.0
 40
0.0
 40
0.0
 40
0.2684065359321902
 40
0.6323728964502845
 40
1.0
 40
1.0
 40
1.0
 40
1.0
 10
200.6392237903225
 20
117.2220705489786
 30
0.0
 10
200.6392237903225
 20
117.2336797557464
 30
0.0
 10
200.6392237903223
 20
117.2610313538873
 30
0.0
 10
200.6392237903225
 20
117.4959593973715
 30
0.0
 10
200.6392237903225
 20
117.7892317934291
 30
0.0
 10
200.6392237903225
 20
117.9366017287949
 30
0.0
  0
LINE
  5
2B6
330
1F
100
AcDbEntity
  8
0
  6
Continuous
 62
     7
370
    25
100
AcDbLine
 10
200.6392237903
 20
117.222070549
 30
0.0
 11
204.6392237903
 21
117.222070549
 31
0.0
  0
SPLINE
  5
2B7
330
1F
100
AcDbEntity
  8
0
  6
Continuous
 62
     7
370
    25
100
AcDbSpline
210
0.0
220
0.0
230
1.0
 70
     8
 71
     3
 72
     9
 73
     5
 74
     0
 42
0.00000001
 43
0.00000001
 40
0.0
 40
0.0
 40
0.0
 40
0.0
 40
0.4954579634770057
 40
1.0
 40
1.0
 40
1.0
 40
1.0
 10
68.259820377754
 20
117.9300120265906
 30
0.0
 10
67.51608524261391
 20
117.7303019801084
 30
0.0
 10
66.01497881186702
 20
117.3272202633857
 30
0.0
 10
64.46322136375393
 20
117.2529522044688
 30
0.0
 10
63.68029450069325
 20
117.2154808467743
 30
0.0
  0
SPLINE
  5
2B8
330
1F
100
AcDbEntity
  8
0
  6
Continuous
 62
     7
370
    25
100
AcDbSpline
210
0.0
220
0.0
230
1.0
 70
     8
 71
     3
 72
    10
 73
     6
 74
     0
 42
0.00000001
 43
0.00000001
 40
0.0
 40
0.0
 40
0.0
 40
0.0
 40
0.0700857677747433
 40
0.5307822340229902
 40
1.0
 40
1.0
 40
1.0
 40
1.0
 10
63.68029450069325
 20
117.2154808467743
 30
0.0
 10
63.57175157676541
 20
117.2163339058206
 30
0.0
 10
62.74972083530334
 20
117.2227943984535
 30
0.0
 10
61.19981652125305
 20
117.3788489610446
 30
0.0
 10
59.80471261638348
 20
117.7451720667892
 30
0.0
 10
59.10076862363243
 20
117.9300120265906
 30
0.0
  0
LINE
  5
2B9
330
1F
100
AcDbEntity
  8
0
  6
Continuous
 62
     7
370
    25
100
AcDbLine
 10
59.1007686236
 20
117.9300120266
 30
0.0
 11
59.1007686236
 21
126.000949667
 31
0.0
  0
SPLINE
  5
2BA
330
1F
100
AcDbEntity
  8
0
  6
Continuous
 62
     7
370
    25
100
AcDbSpline
210
0.0
220
0.0
230
1.0
 70
     8
 71
     3
 72
    10
 73
     6
 74
     0
 42
0.00000001
 43
0.00000001
 40
0.0
 40
0.0
 40
0.0
 40
0.0
 40
0.0700857677747433
 40
0.5307822340229902
 40
1.0
 40
1.0
 40
1.0
 40
1.0
 10
63.68029450069325
 20
126.7154808467743
 30
0.0
 10
63.57175157676541
 20
126.7146277877279
 30
0.0
 10
62.74972083530334
 20
126.7081672950951
 30
0.0
 10
61.19981652125305
 20
126.552112732504
 30
0.0
 10
59.80471261638348
 20
126.1857896267593
 30
0.0
 10
59.10076862363243
 20
126.000949666958
 30
0.0
  0
SPLINE
  5
2BB
330
1F
100
AcDbEntity
  8
0
  6
Continuous
 62
     7
370
    25
100
AcDbSpline
210
0.0
220
0.0
230
1.0
 70
     8
 71
     3
 72
     9
 73
     5
 74
     0
 42
0.00000001
 43
0.00000001
 40
0.0
 40
0.0
 40
0.0
 40
0.0
 40
0.4954579634770057
 40
1.0
 40
1.0
 40
1.0
 40
1.0
 10
68.259820377754
 20
126.000949666958
 30
0.0
 10
67.51608524261391
 20
126.2006597134402
 30
0.0
 10
66.01497881186702
 20
126.6037414301629
 30
0.0
 10
64.46322136375393
 20
126.6780094890798
 30
0.0
 10
63.68029450069325
 20
126.7154808467743
 30
0.0
  0
LINE
  5
2BC
330
1F
100
AcDbEntity
  8
0
  6
Continuous
 62
     7
370
    25
100
AcDbLine
 10
68.2598203778
 20
117.9300120266
 30
0.0
 11
68.2598203778
 21
126.000949667
 31
0.0
  0
SPLINE
  5
2BD
330
1F
100
AcDbEntity
  8
0
  6
Continuous
 62
     7
370
    25
100
AcDbSpline
210
0.0
220
0.0
230
1.0
 70
     8
 71
     3
 72
     9
 73
     5
 74
     0
 42
0.00000001
 43
0.00000001
 40
0.0
 40
0.0
 40
0.0
 40
0.0
 40
0.4954579634770085
 40
0.9999999999999999
 40
0.9999999999999999
 40
0.9999999999999999
 40
0.9999999999999999
 10
59.10076862363243
 20
126.000949666958
 30
0.0
 10
58.64436382598072
 20
126.2006597134402
 30
0.0
 10
57.7231861857047
 20
126.6037414301628
 30
0.0
 10
56.77092574963272
 20
126.6780094890798
 30
0.0
 10
56.29047032991667
 20
126.7154808467743
 30
0.0
  0
LINE
  5
2BE
330
1F
100
AcDbEntity
  8
0
  6
Continuous
 62
     7
370
    25
100
AcDbLine
 10
63.6802945007
 20
126.7154808468
 30
0.0
 11
56.2904703299
 21
126.7154808468
 31
0.0
  0
SPLINE
  5
2BF
330
1F
100
AcDbEntity
  8
0
  6
Continuous
 62
     7
370
    25
100
AcDbSpline
210
0.0
220
0.0
230
1.0
 70
     8
 71
     3
 72
     9
 73
     5
 74
     0
 42
0.00000001
 43
0.00000001
 40
0.0
 40
0.0
 40
0.0
 40
0.0
 40
0.4954579634770085
 40
0.9999999999999999
 40
0.9999999999999999
 40
0.9999999999999999
 40
0.9999999999999999
 10
59.10076862363243
 20
117.9300120265906
 30
0.0
 10
58.64436382598072
 20
117.7303019801084
 30
0.0
 10
57.7231861857047
 20
117.3272202633857
 30
0.0
 10
56.77092574963272
 20
117.2529522044688
 30
0.0
 10
56.29047032991667
 20
117.2154808467743
 30
0.0
  0
SPLINE
  5
2C0
330
1F
100
AcDbEntity
  8
0
  6
Continuous
 62
     7
370
    25
100
AcDbSpline
210
0.0
220
0.0
230
1.0
 70
     8
 71
     3
 72
    10
 73
     6
 74
     0
 42
0.00000001
 43
0.00000001
 40
0.0
 40
0.0
 40
0.0
 40
0.0
 40
0.2572432618847679
 40
0.6263798857723056
 40
1.0
 40
1.0
 40
1.0
 40
1.0
 10
68.259820377754
 20
126.000949666958
 30
0.0
 10
68.40839227689071
 20
126.106245652858
 30
0.0
 10
68.77016054451559
 20
126.3626383262254
 30
0.0
 10
69.36061709767789
 20
126.6496296469804
 30
0.0
 10
69.8053428430463
 20
126.6934422916597
 30
0.0
 10
70.02904796109905
 20
126.7154808467743
 30
0.0
  0
LINE
  5
2C1
330
1F
100
AcDbEntity
  8
0
  6
Continuous
 62
     7
370
    25
100
AcDbLine
 10
70.0290479611
 20
126.7154808468
 30
0.0
 11
63.6802945007
 21
126.7154808468
 31
0.0
  0
SPLINE
  5
2C2
330
1F
100
AcDbEntity
  8
0
  6
Continuous
 62
     7
370
    25
100
AcDbSpline
210
0.0
220
0.0
230
1.0
 70
     8
 71
     3
 72
    10
 73
     6
 74
     0
 42
0.00000001
 43
0.00000001
 40
0.0
 40
0.0
 40
0.0
 40
0.0
 40
0.2572432618847677
 40
0.6263798857723055
 40
0.9999999999999999
 40
0.9999999999999999
 40
0.9999999999999999
 40
0.9999999999999999
 10
68.259820377754
 20
117.9300120265906
 30
0.0
 10
68.40839227689072
 20
117.8247160406905
 30
0.0
 10
68.7701605445156
 20
117.5683233673232
 30
0.0
 10
69.36061709767789
 20
117.2813320465682
 30
0.0
 10
69.8053428430463
 20
117.2375194018889
 30
0.0
 10
70.02904796109905
 20
117.2154808467743
 30
0.0
  0
SPLINE
  5
2C3
330
1F
100
AcDbEntity
  8
0
  6
Continuous
 62
     7
370
    25
100
AcDbSpline
210
0.0
220
0.0
230
1.0
 70
     8
 71
     3
 72
    10
 73
     6
 74
     0
 42
0.00000001
 43
0.00000001
 40
0.0
 40
0.0
 40
0.0
 40
0.0
 40
0.070085767774725
 40
0.5307822340229772
 40
1.0
 40
1.0
 40
1.0
 40
1.0
 10
56.29047032991667
 20
117.2154808467743
 30
0.0
 10
56.22386125244924
 20
117.2163339058206
 30
0.0
 10
55.71940912091215
 20
117.2227943984535
 30
0.0
 10
54.76828588978978
 20
117.3788489610446
 30
0.0
 10
53.91215837164427
 20
117.7451720667892
 30
0.0
 10
53.48017203620086
 20
117.9300120265906
 30
0.0
  0
LINE
  5
2C4
330
1F
100
AcDbEntity
  8
0
  6
Continuous
 62
     7
370
    25
100
AcDbLine
 10
53.4801720362
 20
117.9300120266
 30
0.0
 11
53.4801720362
 21
126.000949667
 31
0.0
  0
SPLINE
  5
2C5
330
1F
100
AcDbEntity
  8
0
  6
Continuous
 62
     7
370
    25
100
AcDbSpline
210
0.0
220
0.0
230
1.0
 70
     8
 71
     3
 72
    10
 73
     6
 74
     0
 42
0.00000001
 43
0.00000001
 40
0.0
 40
0.0
 40
0.0
 40
0.0
 40
0.070085767774725
 40
0.5307822340229772
 40
1.0
 40
1.0
 40
1.0
 40
1.0
 10
56.29047032991667
 20
126.7154808467743
 30
0.0
 10
56.22386125244924
 20
126.7146277877279
 30
0.0
 10
55.71940912091215
 20
126.7081672950951
 30
0.0
 10
54.76828588978978
 20
126.552112732504
 30
0.0
 10
53.91215837164427
 20
126.1857896267594
 30
0.0
 10
53.48017203620086
 20
126.000949666958
 30
0.0
  0
SPLINE
  5
2C6
330
1F
100
AcDbEntity
  8
0
  6
Continuous
 62
     7
370
    25
100
AcDbSpline
210
0.0
220
0.0
230
1.0
 70
     8
 71
     3
 72
    10
 73
     6
 74
     0
 42
0.00000001
 43
0.00000001
 40
0.0
 40
0.0
 40
0.0
 40
0.0
 40
0.268406535932194
 40
0.6323728964502876
 40
1.0
 40
1.0
 40
1.0
 40
1.0
 10
70.02904796109905
 20
126.7154808467743
 30
0.0
 10
70.18971981988251
 20
126.7038716400065
 30
0.0
 10
70.56826696801382
 20
126.6765200418656
 30
0.0
 10
71.16215832772805
 20
126.4415919983814
 30
0.0
 10
71.5855303167904
 20
126.1483196023238
 30
0.0
 10
71.7982755444441
 20
126.000949666958
 30
0.0
  0
LINE
  5
2C7
330
1F
100
AcDbEntity
  8
0
  6
Continuous
 62
     7
370
    25
100
AcDbLine
 10
71.7982755444
 20
117.9300120266
 30
0.0
 11
71.7982755444
 21
126.000949667
 31
0.0
  0
SPLINE
  5
2C8
330
1F
100
AcDbEntity
  8
0
  6
Continuous
 62
     7
370
    25
100
AcDbSpline
210
0.0
220
0.0
230
1.0
 70
     8
 71
     3
 72
    10
 73
     6
 74
     0
 42
0.00000001
 43
0.00000001
 40
0.0
 40
0.0
 40
0.0
 40
0.0
 40
0.268406535932194
 40
0.6323728964502876
 40
1.0
 40
1.0
 40
1.0
 40
1.0
 10
70.02904796109905
 20
117.2154808467743
 30
0.0
 10
70.18971981988251
 20
117.227090053542
 30
0.0
 10
70.56826696801382
 20
117.254441651683
 30
0.0
 10
71.16215832772805
 20
117.4893696951672
 30
0.0
 10
71.5855303167904
 20
117.7826420912248
 30
0.0
 10
71.7982755444441
 20
117.9300120265906
 30
0.0
  0
SPLINE
  5
2C9
330
1F
100
AcDbEntity
  8
0
  6
Continuous
 62
     7
370
    25
100
AcDbSpline
210
0.0
220
0.0
230
1.0
 70
     8
 71
     3
 72
     9
 73
     5
 74
     0
 42
0.00000001
 43
0.00000001
 40
0.0
 40
0.0
 40
0.0
 40
0.0
 40
0.889917444061679
 40
1.0
 40
1.0
 40
1.0
 40
1.0
 10
53.48017203620086
 20
126.000949666958
 30
0.0
 10
53.62805646675525
 20
126.1155961474325
 30
0.0
 10
53.79423416283395
 20
126.2444243676676
 30
0.0
 10
53.9647372288962
 20
126.3215128838509
 30
0.0
 10
53.98350664220366
 20
126.3299989847458
 30
0.0
  0
LINE
  5
2CA
330
1F
100
AcDbEntity
  8
0
  6
Continuous
 62
     7
370
    25
100
AcDbLine
 10
56.2904703299
 20
126.7154808468
 30
0.0
 11
54.6392237903
 21
126.7154808468
 31
0.0
  0
SPLINE
  5
2CB
330
1F
100
AcDbEntity
  8
0
  6
Continuous
 62
     7
370
    25
100
AcDbSpline
210
0.0
220
0.0
230
1.0
 70
     8
 71
     3
 72
     9
 73
     5
 74
     0
 42
0.00000001
 43
0.00000001
 40
0.0
 40
0.0
 40
0.0
 40
0.0
 40
0.8899174440617592
 40
1.0
 40
1.0
 40
1.0
 40
1.0
 10
53.48017203620086
 20
117.9300120265906
 30
0.0
 10
53.62805646675527
 20
117.815365546116
 30
0.0
 10
53.79423416283398
 20
117.686537325881
 30
0.0
 10
53.96473722889616
 20
117.6094488096977
 30
0.0
 10
53.98350664220359
 20
117.6009627088028
 30
0.0
  0
LINE
  5
2CC
330
1F
100
AcDbEntity
  8
0
  6
Continuous
 62
     7
370
    25
100
AcDbLine
 10
70.0290479611
 20
126.7154808468
 30
0.0
 11
70.6392237903
 21
126.7154808468
 31
0.0
  0
LINE
  5
2CD
330
1F
100
AcDbEntity
  8
0
  6
Continuous
 62
     7
370
    25
100
AcDbLine
 10
208.6392237903
 20
109.6154808468
 30
0.0
 11
208.6392237903
 21
104.5300120266
 31
0.0
  0
SPLINE
  5
2CE
330
1F
100
AcDbEntity
  8
0
  6
Continuous
 62
     7
370
    25
100
AcDbSpline
210
0.0
220
0.0
230
1.0
 70
     8
 71
     3
 72
     9
 73
     5
 74
     0
 42
0.00000001
 43
0.00000001
 40
0.0
 40
0.0
 40
0.0
 40
0.0
 40
0.4954579634770076
 40
1.0
 40
1.0
 40
1.0
 40
1.0
 10
208.6392237903225
 20
104.5300120265906
 30
0.0
 10
207.9896062053532
 20
104.3303019801084
 30
0.0
 10
206.6784604919806
 20
103.9272202633857
 30
0.0
 10
205.3230735023483
 20
103.8529522044688
 30
0.0
 10
204.6392237903225
 20
103.8154808467743
 30
0.0
  0
SPLINE
  5
2CF
330
1F
100
AcDbEntity
  8
0
  6
Continuous
 62
     7
370
    25
100
AcDbSpline
210
0.0
220
0.0
230
1.0
 70
     8
 71
     3
 72
    10
 73
     6
 74
     0
 42
0.00000001
 43
0.00000001
 40
0.0
 40
0.0
 40
0.0
 40
0.0
 40
0.0700857677747261
 40
0.5307822340229847
 40
1.0
 40
1.0
 40
1.0
 40
1.0
 10
204.6392237903225
 20
103.8154808467743
 30
0.0
 10
204.5444166623868
 20
103.8163339058206
 30
0.0
 10
203.8264115557187
 20
103.8227943984535
 30
0.0
 10
202.4726431913438
 20
103.9788489610446
 30
0.0
 10
201.2540856879501
 20
104.3451720667892
 30
0.0
 10
200.6392237903225
 20
104.5300120265906
 30
0.0
  0
LINE
  5
2D0
330
1F
100
AcDbEntity
  8
0
  6
Continuous
 62
     7
370
    25
100
AcDbLine
 10
200.6392237903
 20
109.6154808468
 30
0.0
 11
200.6392237903
 21
104.5300120266
 31
0.0
  0
LINE
  5
2D1
330
1F
100
AcDbEntity
  8
0
  6
Continuous
 62
     7
370
    25
100
AcDbLine
 10
200.6392237903
 20
109.6154808468
 30
0.0
 11
204.6392237903
 21
109.6154808468
 31
0.0
  0
LINE
  5
2D2
330
1F
100
AcDbEntity
  8
0
  6
Continuous
 62
     7
370
    25
100
AcDbLine
 10
204.6392237903
 20
109.6154808468
 30
0.0
 11
208.6392237903
 21
109.6154808468
 31
0.0
  0
LINE
  5
2D3
330
1F
100
AcDbEntity
  8
0
  6
Continuous
 62
     7
370
    25
100
AcDbLine
 10
212.6392237903
 20
109.6154808468
 30
0.0
 11
216.6392237903
 21
109.6154808468
 31
0.0
  0
LINE
  5
2D4
330
1F
100
AcDbEntity
  8
0
  6
Continuous
 62
     7
370
    25
100
AcDbLine
 10
216.6392237903
 20
109.6154808468
 30
0.0
 11
216.6392237903
 21
104.5300120266
 31
0.0
  0
SPLINE
  5
2D5
330
1F
100
AcDbEntity
  8
0
  6
Continuous
 62
     7
370
    25
100
AcDbSpline
210
0.0
220
0.0
230
1.0
 70
     8
 71
     3
 72
     9
 73
     5
 74
     0
 42
0.00000001
 43
0.00000001
 40
0.0
 40
0.0
 40
0.0
 40
0.0
 40
0.4954579634770062
 40
1.0
 40
1.0
 40
1.0
 40
1.0
 10
216.6392237903225
 20
104.5300120265906
 30
0.0
 10
215.9896062053533
 20
104.3303019801084
 30
0.0
 10
214.6784604919806
 20
103.9272202633857
 30
0.0
 10
213.3230735023483
 20
103.8529522044688
 30
0.0
 10
212.6392237903225
 20
103.8154808467743
 30
0.0
  0
SPLINE
  5
2D6
330
1F
100
AcDbEntity
  8
0
  6
Continuous
 62
     7
370
    25
100
AcDbSpline
210
0.0
220
0.0
230
1.0
 70
     8
 71
     3
 72
    10
 73
     6
 74
     0
 42
0.00000001
 43
0.00000001
 40
0.0
 40
0.0
 40
0.0
 40
0.0
 40
0.0700857677747266
 40
0.5307822340229833
 40
1.0
 40
1.0
 40
1.0
 40
1.0
 10
212.6392237903225
 20
103.8154808467743
 30
0.0
 10
212.5444166623868
 20
103.8163339058206
 30
0.0
 10
211.8264115557187
 20
103.8227943984535
 30
0.0
 10
210.4726431913438
 20
103.9788489610446
 30
0.0
 10
209.2540856879501
 20
104.3451720667892
 30
0.0
 10
208.6392237903225
 20
104.5300120265906
 30
0.0
  0
LINE
  5
2D7
330
1F
100
AcDbEntity
  8
0
  6
Continuous
 62
     7
370
    25
100
AcDbLine
 10
208.6392237903
 20
109.6154808468
 30
0.0
 11
212.6392237903
 21
109.6154808468
 31
0.0
  0
LINE
  5
2D8
330
1F
100
AcDbEntity
  8
0
  6
Continuous
 62
     7
370
    25
100
AcDbLine
 10
204.6392237903
 20
103.8154808468
 30
0.0
 11
212.6392237903
 21
103.8154808468
 31
0.0
  0
SPLINE
  5
2D9
330
1F
100
AcDbEntity
  8
0
  6
Continuous
 62
     7
370
    25
100
AcDbSpline
210
0.0
220
0.0
230
1.0
 70
    24
 71
     3
 72
    10
 73
     6
 74
     0
 42
0.00000001
 43
0.00000001
 40
0.0
 40
0.0
 40
0.0
 40
0.0
 40
0.2141446608865667
 40
0.6047163562828055
 40
1.0
 40
1.0
 40
1.0
 40
1.0
 10
216.6392237903225
 20
103.8154808467743
 30
0.0
 10
216.6392237903225
 20
103.8229991703238
 30
0.0
 10
216.6392237903225
 20
103.844229927156
 30
0.0
 10
216.6392237903225
 20
104.0589100623555
 30
0.0
 10
216.6392237903225
 20
104.3723515787584
 30
0.0
 10
216.6392237903225
 20
104.5300120265906
 30
0.0
  0
LINE
  5
2DA
330
1F
100
AcDbEntity
  8
0
  6
Continuous
 62
     7
370
    25
100
AcDbLine
 10
216.6392237903
 20
103.8154808468
 30
0.0
 11
212.6392237903
 21
103.8154808468
 31
0.0
  0
SPLINE
  5
2DB
330
1F
100
AcDbEntity
  8
0
  6
Continuous
 62
     7
370
    25
100
AcDbSpline
210
0.0
220
0.0
230
1.0
 70
    24
 71
     3
 72
    10
 73
     6
 74
     0
 42
0.00000001
 43
0.00000001
 40
0.0
 40
0.0
 40
0.0
 40
0.0
 40
0.3909524037316078
 40
0.7858548843188062
 40
1.0
 40
1.0
 40
1.0
 40
1.0
 10
200.6392237903225
 20
104.5300120265906
 30
0.0
 10
200.6392237903225
 20
104.3739546853067
 30
0.0
 10
200.6392237903225
 20
104.0602632417675
 30
0.0
 10
200.6392237903225
 20
103.8443922725304
 30
0.0
 10
200.6392237903225
 20
103.8230018567677
 30
0.0
 10
200.6392237903225
 20
103.8154808467743
 30
0.0
  0
LINE
  5
2DC
330
1F
100
AcDbEntity
  8
0
  6
Continuous
 62
     7
370
    25
100
AcDbLine
 10
200.6392237903
 20
103.8154808468
 30
0.0
 11
204.6392237903
 21
103.8154808468
 31
0.0
  0
LINE
  5
2DD
330
1F
100
AcDbEntity
  8
0
  6
Continuous
 62
     7
370
    25
100
AcDbLine
 10
212.8112237903
 20
130.2154808468
 30
0.0
 11
204.4672237903
 21
130.2154808468
 31
0.0
  0
LINE
  5
2DE
330
1F
100
AcDbEntity
  8
0
  6
Continuous
 62
     7
370
    25
100
AcDbLine
 10
213.6392237903
 20
129.3874808468
 30
0.0
 11
203.6392237903
 21
129.3874808468
 31
0.0
  0
LINE
  5
2DF
330
1F
100
AcDbEntity
  8
0
  6
Continuous
 62
     7
370
    25
100
AcDbLine
 10
66.6392237903
 20
109.6154808468
 30
0.0
 11
70.6392237903
 21
109.6154808468
 31
0.0
  0
LINE
  5
2E0
330
1F
100
AcDbEntity
  8
0
  6
Continuous
 62
     7
370
    25
100
AcDbLine
 10
70.6392237903
 20
109.6154808468
 30
0.0
 11
70.6392237903
 21
104.5300120266
 31
0.0
  0
SPLINE
  5
2E1
330
1F
100
AcDbEntity
  8
0
  6
Continuous
 62
     7
370
    25
100
AcDbSpline
210
0.0
220
0.0
230
1.0
 70
     8
 71
     3
 72
     9
 73
     5
 74
     0
 42
0.00000001
 43
0.00000001
 40
0.0
 40
0.0
 40
0.0
 40
0.0
 40
0.4954579634770062
 40
1.0
 40
1.0
 40
1.0
 40
1.0
 10
70.6392237903225
 20
104.5300120265906
 30
0.0
 10
69.98960620535325
 20
104.3303019801084
 30
0.0
 10
68.67846049198054
 20
103.9272202633857
 30
0.0
 10
67.32307350234832
 20
103.8529522044688
 30
0.0
 10
66.63922379032252
 20
103.8154808467743
 30
0.0
  0
SPLINE
  5
2E2
330
1F
100
AcDbEntity
  8
0
  6
Continuous
 62
     7
370
    25
100
AcDbSpline
210
0.0
220
0.0
230
1.0
 70
     8
 71
     3
 72
    10
 73
     6
 74
     0
 42
0.00000001
 43
0.00000001
 40
0.0
 40
0.0
 40
0.0
 40
0.0
 40
0.0700857677747266
 40
0.5307822340229833
 40
1.0
 40
1.0
 40
1.0
 40
1.0
 10
66.63922379032252
 20
103.8154808467743
 30
0.0
 10
66.54441666238684
 20
103.8163339058206
 30
0.0
 10
65.82641155571876
 20
103.8227943984535
 30
0.0
 10
64.47264319134383
 20
103.9788489610446
 30
0.0
 10
63.25408568795012
 20
104.3451720667892
 30
0.0
 10
62.63922379032251
 20
104.5300120265906
 30
0.0
  0
LINE
  5
2E3
330
1F
100
AcDbEntity
  8
0
  6
Continuous
 62
     7
370
    25
100
AcDbLine
 10
62.6392237903
 20
109.6154808468
 30
0.0
 11
62.6392237903
 21
104.5300120266
 31
0.0
  0
LINE
  5
2E4
330
1F
100
AcDbEntity
  8
0
  6
Continuous
 62
     7
370
    25
100
AcDbLine
 10
62.6392237903
 20
109.6154808468
 30
0.0
 11
66.6392237903
 21
109.6154808468
 31
0.0
  0
SPLINE
  5
2E5
330
1F
100
AcDbEntity
  8
0
  6
Continuous
 62
     7
370
    25
100
AcDbSpline
210
0.0
220
0.0
230
1.0
 70
     8
 71
     3
 72
     9
 73
     5
 74
     0
 42
0.00000001
 43
0.00000001
 40
0.0
 40
0.0
 40
0.0
 40
0.0
 40
0.4954579634770076
 40
1.0
 40
1.0
 40
1.0
 40
1.0
 10
62.63922379032251
 20
104.5300120265906
 30
0.0
 10
61.98960620535328
 20
104.3303019801084
 30
0.0
 10
60.67846049198059
 20
103.9272202633857
 30
0.0
 10
59.32307350234834
 20
103.8529522044688
 30
0.0
 10
58.6392237903225
 20
103.8154808467743
 30
0.0
  0
SPLINE
  5
2E6
330
1F
100
AcDbEntity
  8
0
  6
Continuous
 62
     7
370
    25
100
AcDbSpline
210
0.0
220
0.0
230
1.0
 70
     8
 71
     3
 72
    10
 73
     6
 74
     0
 42
0.00000001
 43
0.00000001
 40
0.0
 40
0.0
 40
0.0
 40
0.0
 40
0.0700857677747261
 40
0.5307822340229847
 40
1.0
 40
1.0
 40
1.0
 40
1.0
 10
58.6392237903225
 20
103.8154808467743
 30
0.0
 10
58.54441666238683
 20
103.8163339058206
 30
0.0
 10
57.82641155571871
 20
103.8227943984535
 30
0.0
 10
56.47264319134385
 20
103.9788489610446
 30
0.0
 10
55.2540856879501
 20
104.3451720667892
 30
0.0
 10
54.6392237903225
 20
104.5300120265906
 30
0.0
  0
LINE
  5
2E7
330
1F
100
AcDbEntity
  8
0
  6
Continuous
 62
     7
370
    25
100
AcDbLine
 10
54.6392237903
 20
109.6154808468
 30
0.0
 11
54.6392237903
 21
104.5300120266
 31
0.0
  0
LINE
  5
2E8
330
1F
100
AcDbEntity
  8
0
  6
Continuous
 62
     7
370
    25
100
AcDbLine
 10
54.6392237903
 20
109.6154808468
 30
0.0
 11
58.6392237903
 21
109.6154808468
 31
0.0
  0
LINE
  5
2E9
330
1F
100
AcDbEntity
  8
0
  6
Continuous
 62
     7
370
    25
100
AcDbLine
 10
58.6392237903
 20
109.6154808468
 30
0.0
 11
62.6392237903
 21
109.6154808468
 31
0.0
  0
LINE
  5
2EA
330
1F
100
AcDbEntity
  8
0
  6
Continuous
 62
     7
370
    25
100
AcDbLine
 10
58.6392237903
 20
103.8154808468
 30
0.0
 11
66.6392237903
 21
103.8154808468
 31
0.0
  0
SPLINE
  5
2EB
330
1F
100
AcDbEntity
  8
0
  6
Continuous
 62
     7
370
    25
100
AcDbSpline
210
0.0
220
0.0
230
1.0
 70
    24
 71
     3
 72
    10
 73
     6
 74
     0
 42
0.00000001
 43
0.00000001
 40
0.0
 40
0.0
 40
0.0
 40
0.0
 40
0.2141446608865667
 40
0.6047163562828055
 40
1.0
 40
1.0
 40
1.0
 40
1.0
 10
70.6392237903225
 20
103.8154808467743
 30
0.0
 10
70.6392237903225
 20
103.8229991703238
 30
0.0
 10
70.63922379032252
 20
103.844229927156
 30
0.0
 10
70.63922379032249
 20
104.0589100623555
 30
0.0
 10
70.63922379032249
 20
104.3723515787584
 30
0.0
 10
70.63922379032249
 20
104.5300120265906
 30
0.0
  0
LINE
  5
2EC
330
1F
100
AcDbEntity
  8
0
  6
Continuous
 62
     7
370
    25
100
AcDbLine
 10
70.6392237903
 20
103.8154808468
 30
0.0
 11
66.6392237903
 21
103.8154808468
 31
0.0
  0
SPLINE
  5
2ED
330
1F
100
AcDbEntity
  8
0
  6
Continuous
 62
     7
370
    25
100
AcDbSpline
210
0.0
220
0.0
230
1.0
 70
    24
 71
     3
 72
    10
 73
     6
 74
     0
 42
0.00000001
 43
0.00000001
 40
0.0
 40
0.0
 40
0.0
 40
0.0
 40
0.3909524037316078
 40
0.7858548843188062
 40
1.0
 40
1.0
 40
1.0
 40
1.0
 10
54.6392237903225
 20
104.5300120265906
 30
0.0
 10
54.63922379032252
 20
104.3739546853067
 30
0.0
 10
54.63922379032252
 20
104.0602632417675
 30
0.0
 10
54.6392237903225
 20
103.8443922725304
 30
0.0
 10
54.63922379032252
 20
103.8230018567677
 30
0.0
 10
54.63922379032252
 20
103.8154808467743
 30
0.0
  0
LINE
  5
2EE
330
1F
100
AcDbEntity
  8
0
  6
Continuous
 62
     7
370
    25
100
AcDbLine
 10
54.6392237903
 20
103.8154808468
 30
0.0
 11
58.6392237903
 21
103.8154808468
 31
0.0
  0
LINE
  5
2EF
330
1F
100
AcDbEntity
  8
0
  6
Continuous
 62
     7
370
    25
100
AcDbLine
 10
66.8112237903
 20
130.2154808468
 30
0.0
 11
58.4672237903
 21
130.2154808468
 31
0.0
  0
LINE
  5
2F0
330
1F
100
AcDbEntity
  8
0
  6
Continuous
 62
     7
370
    25
100
AcDbLine
 10
67.6392237903
 20
129.3874808468
 30
0.0
 11
57.6392237903
 21
129.3874808468
 31
0.0
  0
LINE
  5
2F1
330
1F
100
AcDbEntity
  8
0
  6
Continuous
 62
     7
370
    25
100
AcDbLine
 10
69.1392237903
 20
112.2154808468
 30
0.0
 11
69.1392237903
 21
115.2154808468
 31
0.0
  0
LINE
  5
2F2
330
1F
100
AcDbEntity
  8
0
  6
Continuous
 62
     7
370
    25
100
AcDbLine
 10
69.1392237903
 20
112.2154808468
 30
0.0
 11
56.2225571237
 21
112.2154808468
 31
0.0
  0
LINE
  5
2F3
330
1F
100
AcDbEntity
  8
0
  6
Continuous
 62
     7
370
    25
100
AcDbLine
 10
53.8078614441
 20
112.2154808468
 30
0.0
 11
53.6392237903
 21
112.2154808468
 31
0.0
  0
LINE
  5
2F4
330
1F
100
AcDbEntity
  8
0
  6
Continuous
 62
     7
370
    25
100
AcDbLine
 10
53.6392237903
 20
112.2154808468
 30
0.0
 11
53.6392237903
 21
115.2154808468
 31
0.0
  0
LINE
  5
2F5
330
1F
100
AcDbEntity
  8
0
  6
Continuous
 62
     7
370
    25
100
AcDbLine
 10
69.1392237903
 20
115.2154808468
 30
0.0
 11
56.2225571237
 21
115.2154808468
 31
0.0
  0
LINE
  5
2F6
330
1F
100
AcDbEntity
  8
0
  6
Continuous
 62
     7
370
    25
100
AcDbLine
 10
53.8078614441
 20
115.2154808468
 30
0.0
 11
53.6392237903
 21
115.2154808468
 31
0.0
  0
LINE
  5
2F7
330
1F
100
AcDbEntity
  8
0
  6
Continuous
 62
     7
370
    25
100
AcDbLine
 10
217.6392237903
 20
112.2154808468
 30
0.0
 11
217.6392237903
 21
115.2154808468
 31
0.0
  0
LINE
  5
2F8
330
1F
100
AcDbEntity
  8
0
  6
Continuous
 62
     7
370
    25
100
AcDbLine
 10
217.6392237903
 20
112.2154808468
 30
0.0
 11
217.4705861366
 21
112.2154808468
 31
0.0
  0
LINE
  5
2F9
330
1F
100
AcDbEntity
  8
0
  6
Continuous
 62
     7
370
    25
100
AcDbLine
 10
215.055890457
 20
112.2154808468
 30
0.0
 11
202.1392237903
 21
112.2154808468
 31
0.0
  0
LINE
  5
2FA
330
1F
100
AcDbEntity
  8
0
  6
Continuous
 62
     7
370
    25
100
AcDbLine
 10
202.1392237903
 20
112.2154808468
 30
0.0
 11
202.1392237903
 21
115.2154808468
 31
0.0
  0
LINE
  5
2FB
330
1F
100
AcDbEntity
  8
0
  6
Continuous
 62
     7
370
    25
100
AcDbLine
 10
217.6392237903
 20
115.2154808468
 30
0.0
 11
217.4705861366
 21
115.2154808468
 31
0.0
  0
LINE
  5
2FC
330
1F
100
AcDbEntity
  8
0
  6
Continuous
 62
     7
370
    25
100
AcDbLine
 10
215.055890457
 20
115.2154808468
 30
0.0
 11
202.1392237903
 21
115.2154808468
 31
0.0
  0
LINE
  5
2FD
330
1F
100
AcDbEntity
  8
0
  6
Continuous
 62
     7
370
    25
100
AcDbLine
 10
73.1392237903
 20
112.2154808468
 30
0.0
 11
69.1392237903
 21
112.2154808468
 31
0.0
  0
LINE
  5
2FE
330
1F
100
AcDbEntity
  8
0
  6
Continuous
 62
     7
370
    25
100
AcDbLine
 10
73.1392237903
 20
115.2154808468
 30
0.0
 11
69.1392237903
 21
115.2154808468
 31
0.0
  0
LINE
  5
2FF
330
1F
100
AcDbEntity
  8
0
  6
Continuous
 62
     7
370
    25
100
AcDbLine
 10
73.1392237903
 20
112.2154808468
 30
0.0
 11
73.1392237903
 21
115.2154808468
 31
0.0
  0
LINE
  5
300
330
1F
100
AcDbEntity
  8
0
  6
Continuous
 62
     7
370
    25
100
AcDbLine
 10
202.1392237903
 20
112.2154808468
 30
0.0
 11
198.1392237903
 21
112.2154808468
 31
0.0
  0
LINE
  5
301
330
1F
100
AcDbEntity
  8
0
  6
Continuous
 62
     7
370
    25
100
AcDbLine
 10
198.1392237903
 20
112.2154808468
 30
0.0
 11
198.1392237903
 21
115.2154808468
 31
0.0
  0
LINE
  5
302
330
1F
100
AcDbEntity
  8
0
  6
Continuous
 62
     7
370
    25
100
AcDbLine
 10
202.1392237903
 20
115.2154808468
 30
0.0
 11
198.1392237903
 21
115.2154808468
 31
0.0
  0
LINE
  5
303
330
1F
100
AcDbEntity
  8
0
  6
Continuous
 62
     7
370
    25
100
AcDbLine
 10
36.1392237903
 20
112.2154808468
 30
0.0
 11
36.1392237903
 21
115.2154808468
 31
0.0
  0
LINE
  5
304
330
1F
100
AcDbEntity
  8
0
  6
Continuous
 62
     7
370
    25
100
AcDbLine
 10
53.6392237903
 20
112.2154808468
 30
0.0
 11
36.1392237903
 21
112.2154808468
 31
0.0
  0
LINE
  5
305
330
1F
100
AcDbEntity
  8
0
  6
Continuous
 62
     7
370
    25
100
AcDbLine
 10
53.6392237903
 20
115.2154808468
 30
0.0
 11
36.1392237903
 21
115.2154808468
 31
0.0
  0
LINE
  5
306
330
1F
100
AcDbEntity
  8
0
  6
Continuous
 62
     7
370
    25
100
AcDbLine
 10
235.1392237903
 20
112.2154808468
 30
0.0
 11
235.1392237903
 21
115.2154808468
 31
0.0
  0
LINE
  5
307
330
1F
100
AcDbEntity
  8
0
  6
Continuous
 62
     7
370
    25
100
AcDbLine
 10
235.1392237903
 20
112.2154808468
 30
0.0
 11
217.6392237903
 21
112.2154808468
 31
0.0
  0
LINE
  5
308
330
1F
100
AcDbEntity
  8
0
  6
Continuous
 62
     7
370
    25
100
AcDbLine
 10
235.1392237903
 20
115.2154808468
 30
0.0
 11
217.6392237903
 21
115.2154808468
 31
0.0
  0
LINE
  5
309
330
1F
100
AcDbEntity
  8
0
  6
Continuous
 62
     7
370
    25
100
AcDbLine
 10
198.1392237903
 20
112.2154808468
 30
0.0
 11
194.1392237903
 21
112.2154808468
 31
0.0
  0
LINE
  5
30A
330
1F
100
AcDbEntity
  8
0
  6
Continuous
 62
     7
370
    25
100
AcDbLine
 10
194.1392237903
 20
115.2154808468
 30
0.0
 11
198.1392237903
 21
115.2154808468
 31
0.0
  0
LINE
  5
30B
330
1F
100
AcDbEntity
  8
0
  6
Continuous
 62
     7
370
    25
100
AcDbLine
 10
77.1392237903
 20
112.2154808468
 30
0.0
 11
73.1392237903
 21
112.2154808468
 31
0.0
  0
LINE
  5
30C
330
1F
100
AcDbEntity
  8
0
  6
Continuous
 62
     7
370
    25
100
AcDbLine
 10
73.1392237903
 20
115.2154808468
 30
0.0
 11
77.1392237903
 21
115.2154808468
 31
0.0
  0
LINE
  5
30D
330
1F
100
AcDbEntity
  8
0
  6
Continuous
 62
     7
370
    25
100
AcDbLine
 10
194.1392237903
 20
112.2154808468
 30
0.0
 11
189.6119428593
 21
112.2154808468
 31
0.0
  0
LINE
  5
30E
330
1F
100
AcDbEntity
  8
0
  6
Continuous
 62
     7
370
    25
100
AcDbLine
 10
194.1392237903
 20
115.2154808468
 30
0.0
 11
189.6119428593
 21
115.2154808468
 31
0.0
  0
LINE
  5
30F
330
1F
100
AcDbEntity
  8
0
  6
Continuous
 62
     7
370
    25
100
AcDbLine
 10
84.1665047213
 20
112.2154808468
 30
0.0
 11
81.6665047213
 21
112.2154808468
 31
0.0
  0
LINE
  5
310
330
1F
100
AcDbEntity
  8
0
  6
Continuous
 62
     7
370
    25
100
AcDbLine
 10
81.6665047213
 20
115.2154808468
 30
0.0
 11
84.1665047213
 21
115.2154808468
 31
0.0
  0
LINE
  5
311
330
1F
100
AcDbEntity
  8
0
  6
Continuous
 62
     7
370
    25
100
AcDbLine
 10
189.6119428593
 20
112.2154808468
 30
0.0
 11
187.1119428593
 21
112.2154808468
 31
0.0
  0
LINE
  5
312
330
1F
100
AcDbEntity
  8
0
  6
Continuous
 62
     7
370
    25
100
AcDbLine
 10
187.1119428593
 20
115.2154808468
 30
0.0
 11
189.6119428593
 21
115.2154808468
 31
0.0
  0
LINE
  5
313
330
1F
100
AcDbEntity
  8
0
  6
Continuous
 62
     7
370
    25
100
AcDbLine
 10
81.6665047213
 20
112.2154808468
 30
0.0
 11
77.1392237903
 21
112.2154808468
 31
0.0
  0
LINE
  5
314
330
1F
100
AcDbEntity
  8
0
  6
Continuous
 62
     7
370
    25
100
AcDbLine
 10
81.6665047213
 20
115.2154808468
 30
0.0
 11
77.1392237903
 21
115.2154808468
 31
0.0
  0
LINE
  5
315
330
1F
100
AcDbEntity
  8
0
  6
Continuous
 62
     7
370
    25
100
AcDbLine
 10
187.1119428593
 20
112.2154808468
 30
0.0
 11
84.1665047213
 21
112.2154808468
 31
0.0
  0
LINE
  5
316
330
1F
100
AcDbEntity
  8
0
  6
Continuous
 62
     7
370
    25
100
AcDbLine
 10
187.1119428593
 20
115.2154808468
 30
0.0
 11
84.1665047213
 21
115.2154808468
 31
0.0
  0
LINE
  5
317
330
1F
100
AcDbEntity
  8
0
  6
Continuous
 62
     7
370
    25
100
AcDbLine
 10
71.1392237903
 20
117.2154808468
 30
0.0
 11
71.1392237903
 21
115.2154808468
 31
0.0
  0
LINE
  5
318
330
1F
100
AcDbEntity
  8
0
  6
Continuous
 62
     7
370
    25
100
AcDbLine
 10
69.1392237903
 20
117.2154808468
 30
0.0
 11
71.1392237903
 21
117.2154808468
 31
0.0
  0
LINE
  5
319
330
1F
100
AcDbEntity
  8
0
  6
Continuous
 62
     7
370
    25
100
AcDbLine
 10
54.6392237903
 20
115.2154808468
 30
0.0
 11
54.6392237903
 21
117.2154808468
 31
0.0
  0
LINE
  5
31A
330
1F
100
AcDbEntity
  8
0
  6
Continuous
 62
     7
370
    25
100
AcDbLine
 10
54.6392237903
 20
115.2154808468
 30
0.0
 11
56.2225571237
 21
115.2154808468
 31
0.0
  0
LINE
  5
31B
330
1F
100
AcDbEntity
  8
0
  6
Continuous
 62
     7
370
    25
100
AcDbLine
 10
54.6392237903
 20
117.2154808468
 30
0.0
 11
69.1392237903
 21
117.2154808468
 31
0.0
  0
LINE
  5
31C
330
1F
100
AcDbEntity
  8
0
  6
Continuous
 62
     7
370
    25
100
AcDbLine
 10
216.6392237903
 20
115.2154808468
 30
0.0
 11
216.6392237903
 21
117.2154808468
 31
0.0
  0
LINE
  5
31D
330
1F
100
AcDbEntity
  8
0
  6
Continuous
 62
     7
370
    25
100
AcDbLine
 10
215.055890457
 20
115.2154808468
 30
0.0
 11
216.6392237903
 21
115.2154808468
 31
0.0
  0
LINE
  5
31E
330
1F
100
AcDbEntity
  8
0
  6
Continuous
 62
     7
370
    25
100
AcDbLine
 10
202.1392237903
 20
117.2154808468
 30
0.0
 11
216.6392237903
 21
117.2154808468
 31
0.0
  0
LINE
  5
31F
330
1F
100
AcDbEntity
  8
0
  6
Continuous
 62
     7
370
    25
100
AcDbLine
 10
234.1656257134
 20
117.2154808468
 30
0.0
 11
234.1656257134
 21
115.2154808468
 31
0.0
  0
LINE
  5
320
330
1F
100
AcDbEntity
  8
0
  6
Continuous
 62
     7
370
    25
100
AcDbLine
 10
216.6392237903
 20
115.2154808468
 30
0.0
 11
217.4705861366
 21
115.2154808468
 31
0.0
  0
LINE
  5
321
330
1F
100
AcDbEntity
  8
0
  6
Continuous
 62
     7
370
    25
100
AcDbLine
 10
216.6392237903
 20
117.2154808468
 30
0.0
 11
234.1656257134
 21
117.2154808468
 31
0.0
  0
LINE
  5
322
330
1F
100
AcDbEntity
  8
0
  6
Continuous
 62
     7
370
    25
100
AcDbLine
 10
37.1128218672
 20
117.2154808468
 30
0.0
 11
37.1128218672
 21
115.2154808468
 31
0.0
  0
LINE
  5
323
330
1F
100
AcDbEntity
  8
0
  6
Continuous
 62
     7
370
    25
100
AcDbLine
 10
53.8078614441
 20
115.2154808468
 30
0.0
 11
54.6392237903
 21
115.2154808468
 31
0.0
  0
LINE
  5
324
330
1F
100
AcDbEntity
  8
0
  6
Continuous
 62
     7
370
    25
100
AcDbLine
 10
37.1128218672
 20
117.2154808468
 30
0.0
 11
54.6392237903
 21
117.2154808468
 31
0.0
  0
LINE
  5
325
330
1F
100
AcDbEntity
  8
0
  6
Continuous
 62
     7
370
    25
100
AcDbLine
 10
200.1392237903
 20
115.2154808468
 30
0.0
 11
200.1392237903
 21
117.2154808468
 31
0.0
  0
LINE
  5
326
330
1F
100
AcDbEntity
  8
0
  6
Continuous
 62
     7
370
    25
100
AcDbLine
 10
200.1392237903
 20
117.2154808468
 30
0.0
 11
202.1392237903
 21
117.2154808468
 31
0.0
  0
LINE
  5
327
330
1F
100
AcDbEntity
  8
0
  6
Continuous
 62
     7
370
    25
100
AcDbLine
 10
71.1392237903
 20
117.2154808468
 30
0.0
 11
75.1392237903
 21
117.2154808468
 31
0.0
  0
LINE
  5
328
330
1F
100
AcDbEntity
  8
0
  6
Continuous
 62
     7
370
    25
100
AcDbLine
 10
196.1392237903
 20
117.2154808468
 30
0.0
 11
200.1392237903
 21
117.2154808468
 31
0.0
  0
LINE
  5
329
330
1F
100
AcDbEntity
  8
0
  6
Continuous
 62
     7
370
    25
100
AcDbLine
 10
81.5221727602
 20
117.2154808468
 30
0.0
 11
83.5221727602
 21
117.2154808468
 31
0.0
  0
LINE
  5
32A
330
1F
100
AcDbEntity
  8
0
  6
Continuous
 62
     7
370
    25
100
AcDbLine
 10
75.1392237903
 20
117.2154808468
 30
0.0
 11
81.5221727602
 21
117.2154808468
 31
0.0
  0
LINE
  5
32B
330
1F
100
AcDbEntity
  8
0
  6
Continuous
 62
     7
370
    25
100
AcDbLine
 10
189.7562748205
 20
117.2154808468
 30
0.0
 11
196.1392237903
 21
117.2154808468
 31
0.0
  0
LINE
  5
32C
330
1F
100
AcDbEntity
  8
0
  6
Continuous
 62
     7
370
    25
100
AcDbLine
 10
187.7562748205
 20
117.2154808468
 30
0.0
 11
189.7562748205
 21
117.2154808468
 31
0.0
  0
LINE
  5
32D
330
1F
100
AcDbEntity
  8
0
  6
Continuous
 62
     7
370
    25
100
AcDbLine
 10
83.5221727602
 20
117.2154808468
 30
0.0
 11
187.7562748205
 21
117.2154808468
 31
0.0
  0
SPLINE
  5
32E
330
1F
100
AcDbEntity
  8
0
  6
Continuous
 62
     7
370
    25
100
AcDbSpline
210
0.0
220
0.0
230
1.0
 70
     8
 71
     3
 72
    12
 73
     8
 74
     0
 42
0.00000001
 43
0.00000001
 40
0.0
 40
0.0
 40
0.0
 40
0.0
 40
0.2335879420900808
 40
0.4537901450808398
 40
0.6739877272615075
 40
0.8941852184809034
 40
1.0
 40
1.0
 40
1.0
 40
1.0
 10
234.1656257133994
 20
115.2154808467743
 30
0.0
 10
234.2415076044935
 20
115.251273690828
 30
0.0
 10
234.3889229807346
 20
115.3208082727532
 30
0.0
 10
234.6076893326668
 20
115.8449558290738
 30
0.0
 10
234.8220400742906
 20
116.5838167372003
 30
0.0
 10
234.9996491404726
 20
117.3359166548576
 30
0.0
 10
235.1050224568631
 20
117.8010961442071
 30
0.0
 10
235.1392237903225
 20
117.9520808467743
 30
0.0
  0
SPLINE
  5
32F
330
1F
100
AcDbEntity
  8
0
  6
Continuous
 62
     7
370
    25
100
AcDbSpline
210
0.0
220
0.0
230
1.0
 70
     8
 71
     3
 72
    11
 73
     7
 74
     0
 42
0.00000001
 43
0.00000001
 40
0.0
 40
0.0
 40
0.0
 40
0.0
 40
0.2472454926703049
 40
0.5282132489579777
 40
0.8093312418985437
 40
1.0
 40
1.0
 40
1.0
 40
1.0
 10
234.1656257133994
 20
117.2154808467743
 30
0.0
 10
234.2458214004808
 20
117.226377936007
 30
0.0
 10
234.4171508106478
 20
117.2496583883447
 30
0.0
 10
234.6800323817518
 20
117.4400948682729
 30
0.0
 10
234.9247450144091
 20
117.6968958358723
 30
0.0
 10
235.0774922456707
 20
117.878633183583
 30
0.0
 10
235.1392237903225
 20
117.9520808467743
 30
0.0
  0
SPLINE
  5
330
330
1F
100
AcDbEntity
  8
0
  6
Continuous
 62
     7
370
    25
100
AcDbSpline
210
0.0
220
0.0
230
1.0
 70
     8
 71
     3
 72
    12
 73
     8
 74
     0
 42
0.00000001
 43
0.00000001
 40
0.0
 40
0.0
 40
0.0
 40
0.0
 40
0.2335879420900666
 40
0.4537901450808104
 40
0.6739877272614909
 40
0.8941852184808508
 40
1.0
 40
1.0
 40
1.0
 40
1.0
 10
36.1392237903225
 20
117.9520808467743
 30
0.0
 10
36.21510568141657
 20
117.6171484572668
 30
0.0
 10
36.36252105765767
 20
116.9664769531346
 30
0.0
 10
36.58128740958996
 20
116.1249093502134
 30
0.0
 10
36.79563815121364
 20
115.52037476969
 30
0.0
 10
36.97324721739572
 20
115.2463354025405
 30
0.0
 10
37.07862053378614
 20
115.2230414385554
 30
0.0
 10
37.11282186724557
 20
115.2154808467743
 30
0.0
  0
SPLINE
  5
331
330
1F
100
AcDbEntity
  8
0
  6
Continuous
 62
     7
370
    25
100
AcDbSpline
210
0.0
220
0.0
230
1.0
 70
     8
 71
     3
 72
    11
 73
     7
 74
     0
 42
0.00000001
 43
0.00000001
 40
0.0
 40
0.0
 40
0.0
 40
0.0
 40
0.247245492670433
 40
0.5282132489579179
 40
0.809331241898606
 40
1.0
 40
1.0
 40
1.0
 40
1.0
 10
36.13922379032249
 20
117.9520808467745
 30
0.0
 10
36.21941947740383
 20
117.8566850195014
 30
0.0
 10
36.39074888757066
 20
117.6528821541116
 30
0.0
 10
36.65363045867503
 20
117.3919136830125
 30
0.0
 10
36.89834309133201
 20
117.2381430765951
 30
0.0
 10
37.05109032259374
 20
117.2220035175893
 30
0.0
 10
37.11282186724557
 20
117.2154808467743
 30
0.0
  0
LINE
  5
332
330
1F
100
AcDbEntity
  8
0
  6
Continuous
 62
     7
370
    25
100
AcDbLine
 10
61.6392237903
 20
142.2154808468
 30
0.0
 11
73.1392237903
 21
130.2154808468
 31
0.0
  0
LINE
  5
333
330
1F
100
AcDbEntity
  8
0
  6
Continuous
 62
     7
370
    25
100
AcDbLine
 10
198.1392237903
 20
130.2154808468
 30
0.0
 11
73.1392237903
 21
130.2154808468
 31
0.0
  0
LINE
  5
334
330
1F
100
AcDbEntity
  8
0
  6
Continuous
 62
     7
370
    25
100
AcDbLine
 10
209.6392237903
 20
142.2154808468
 30
0.0
 11
198.1392237903
 21
130.2154808468
 31
0.0
  0
LINE
  5
335
330
1F
100
AcDbEntity
  8
0
  6
Continuous
 62
     7
370
    25
100
AcDbLine
 10
209.6392237903
 20
142.2154808468
 30
0.0
 11
233.1392237903
 21
142.2154808468
 31
0.0
  0
ARC
  5
336
330
1F
100
AcDbEntity
  8
0
  6
Continuous
 62
     7
370
    25
100
AcDbCircle
 10
233.1392237903
 20
140.2154808468
 30
0.0
 40
2.0
100
AcDbArc
 50
0.0
 51
90.0
  0
LINE
  5
337
330
1F
100
AcDbEntity
  8
0
  6
Continuous
 62
     7
370
    25
100
AcDbLine
 10
235.1392237903
 20
140.2154808468
 30
0.0
 11
235.1392237903
 21
117.9520808468
 31
0.0
  0
LINE
  5
338
330
1F
100
AcDbEntity
  8
0
  6
Continuous
 62
     7
370
    25
100
AcDbLine
 10
36.1392237903
 20
117.9520808468
 30
0.0
 11
36.1392237903
 21
140.2154808468
 31
0.0
  0
ARC
  5
339
330
1F
100
AcDbEntity
  8
0
  6
Continuous
 62
     7
370
    25
100
AcDbCircle
 10
38.1392237903
 20
140.2154808468
 30
0.0
 40
2.000000000000007
100
AcDbArc
 50
90.0
 51
180.0
  0
LINE
  5
33A
330
1F
100
AcDbEntity
  8
0
  6
Continuous
 62
     7
370
    25
100
AcDbLine
 10
38.1392237903
 20
142.2154808468
 30
0.0
 11
61.6392237903
 21
142.2154808468
 31
0.0
  0
ARC
  5
33B
330
1F
100
AcDbEntity
  8
0
  6
Continuous
 62
     7
370
    25
100
AcDbCircle
 10
53.8892237903
 20
133.2154808468
 30
0.0
 40
5.249999999999972
100
AcDbArc
 50
270.0
 51
90.0
  0
LINE
  5
33C
330
1F
100
AcDbEntity
  8
0
  6
Continuous
 62
     7
370
    25
100
AcDbLine
 10
53.8892237903
 20
138.4654808468
 30
0.0
 11
46.3892237903
 21
138.4654808468
 31
0.0
  0
ARC
  5
33D
330
1F
100
AcDbEntity
  8
0
  6
Continuous
 62
     7
370
    25
100
AcDbCircle
 10
46.3892237903
 20
133.2154808468
 30
0.0
 40
5.250000000000199
100
AcDbArc
 50
90.0
 51
270.0
  0
LINE
  5
33E
330
1F
100
AcDbEntity
  8
0
  6
Continuous
 62
     7
370
    25
100
AcDbLine
 10
53.8892237903
 20
127.9654808468
 30
0.0
 11
46.3892237903
 21
127.9654808468
 31
0.0
  0
ARC
  5
33F
330
1F
100
AcDbEntity
  8
0
  6
Continuous
 62
     7
370
    25
100
AcDbCircle
 10
217.3892237903
 20
133.2154808468
 30
0.0
 40
5.250000000000199
100
AcDbArc
 50
90.0
 51
270.0
  0
LINE
  5
340
330
1F
100
AcDbEntity
  8
0
  6
Continuous
 62
     7
370
    25
100
AcDbLine
 10
217.3892237903
 20
127.9654808468
 30
0.0
 11
224.8892237903
 21
127.9654808468
 31
0.0
  0
ARC
  5
341
330
1F
100
AcDbEntity
  8
0
  6
Continuous
 62
     7
370
    25
100
AcDbCircle
 10
224.8892237903
 20
133.2154808468
 30
0.0
 40
5.250000000000199
100
AcDbArc
 50
270.0
 51
90.0
  0
LINE
  5
342
330
1F
100
AcDbEntity
  8
0
  6
Continuous
 62
     7
370
    25
100
AcDbLine
 10
217.3892237903
 20
138.4654808468
 30
0.0
 11
224.8892237903
 21
138.4654808468
 31
0.0
  0
LINE
  5
343
330
1F
100
AcDbEntity
  8
0
  6
Continuous
 62
     7
370
    25
100
AcDbLine
 10
216.6392237903
 20
112.2154808468
 30
0.0
 11
216.6392237903
 21
110.2154808468
 31
0.0
  0
LINE
  5
344
330
1F
100
AcDbEntity
  8
0
  6
Continuous
 62
     7
370
    25
100
AcDbLine
 10
216.6392237903
 20
110.2154808468
 30
0.0
 11
202.1392237903
 21
110.2154808468
 31
0.0
  0
LINE
  5
345
330
1F
100
AcDbEntity
  8
0
  6
Continuous
 62
     7
370
    25
100
AcDbLine
 10
216.6392237903
 20
112.2154808468
 30
0.0
 11
215.055890457
 21
112.2154808468
 31
0.0
  0
LINE
  5
346
330
1F
100
AcDbEntity
  8
0
  6
Continuous
 62
     7
370
    25
100
AcDbLine
 10
202.1392237903
 20
110.2154808468
 30
0.0
 11
200.1392237903
 21
110.2154808468
 31
0.0
  0
LINE
  5
347
330
1F
100
AcDbEntity
  8
0
  6
Continuous
 62
     7
370
    25
100
AcDbLine
 10
200.1392237903
 20
110.2154808468
 30
0.0
 11
200.1392237903
 21
112.2154808468
 31
0.0
  0
LINE
  5
348
330
1F
100
AcDbEntity
  8
0
  6
Continuous
 62
     7
370
    25
100
AcDbLine
 10
54.6392237903
 20
112.2154808468
 30
0.0
 11
54.6392237903
 21
110.2154808468
 31
0.0
  0
LINE
  5
349
330
1F
100
AcDbEntity
  8
0
  6
Continuous
 62
     7
370
    25
100
AcDbLine
 10
69.1392237903
 20
110.2154808468
 30
0.0
 11
54.6392237903
 21
110.2154808468
 31
0.0
  0
LINE
  5
34A
330
1F
100
AcDbEntity
  8
0
  6
Continuous
 62
     7
370
    25
100
AcDbLine
 10
56.2225571237
 20
112.2154808468
 30
0.0
 11
54.6392237903
 21
112.2154808468
 31
0.0
  0
LINE
  5
34B
330
1F
100
AcDbEntity
  8
0
  6
Continuous
 62
     7
370
    25
100
AcDbLine
 10
37.1128218672
 20
110.2154808468
 30
0.0
 11
37.1128218672
 21
112.2154808468
 31
0.0
  0
LINE
  5
34C
330
1F
100
AcDbEntity
  8
0
  6
Continuous
 62
     7
370
    25
100
AcDbLine
 10
54.6392237903
 20
110.2154808468
 30
0.0
 11
37.1128218672
 21
110.2154808468
 31
0.0
  0
LINE
  5
34D
330
1F
100
AcDbEntity
  8
0
  6
Continuous
 62
     7
370
    25
100
AcDbLine
 10
54.6392237903
 20
112.2154808468
 30
0.0
 11
53.8078614441
 21
112.2154808468
 31
0.0
  0
LINE
  5
34E
330
1F
100
AcDbEntity
  8
0
  6
Continuous
 62
     7
370
    25
100
AcDbLine
 10
234.1656257134
 20
110.2154808468
 30
0.0
 11
234.1656257134
 21
112.2154808468
 31
0.0
  0
LINE
  5
34F
330
1F
100
AcDbEntity
  8
0
  6
Continuous
 62
     7
370
    25
100
AcDbLine
 10
234.1656257134
 20
110.2154808468
 30
0.0
 11
216.6392237903
 21
110.2154808468
 31
0.0
  0
LINE
  5
350
330
1F
100
AcDbEntity
  8
0
  6
Continuous
 62
     7
370
    25
100
AcDbLine
 10
217.4705861366
 20
112.2154808468
 30
0.0
 11
216.6392237903
 21
112.2154808468
 31
0.0
  0
LINE
  5
351
330
1F
100
AcDbEntity
  8
0
  6
Continuous
 62
     7
370
    25
100
AcDbLine
 10
71.1392237903
 20
112.2154808468
 30
0.0
 11
71.1392237903
 21
110.2154808468
 31
0.0
  0
LINE
  5
352
330
1F
100
AcDbEntity
  8
0
  6
Continuous
 62
     7
370
    25
100
AcDbLine
 10
71.1392237903
 20
110.2154808468
 30
0.0
 11
69.1392237903
 21
110.2154808468
 31
0.0
  0
LINE
  5
353
330
1F
100
AcDbEntity
  8
0
  6
Continuous
 62
     7
370
    25
100
AcDbLine
 10
200.1392237903
 20
110.2154808468
 30
0.0
 11
196.1392237903
 21
110.2154808468
 31
0.0
  0
LINE
  5
354
330
1F
100
AcDbEntity
  8
0
  6
Continuous
 62
     7
370
    25
100
AcDbLine
 10
75.1392237903
 20
110.2154808468
 30
0.0
 11
71.1392237903
 21
110.2154808468
 31
0.0
  0
LINE
  5
355
330
1F
100
AcDbEntity
  8
0
  6
Continuous
 62
     7
370
    25
100
AcDbLine
 10
189.7562748205
 20
110.2154808468
 30
0.0
 11
187.7562748205
 21
110.2154808468
 31
0.0
  0
LINE
  5
356
330
1F
100
AcDbEntity
  8
0
  6
Continuous
 62
     7
370
    25
100
AcDbLine
 10
196.1392237903
 20
110.2154808468
 30
0.0
 11
189.7562748205
 21
110.2154808468
 31
0.0
  0
LINE
  5
357
330
1F
100
AcDbEntity
  8
0
  6
Continuous
 62
     7
370
    25
100
AcDbLine
 10
81.5221727602
 20
110.2154808468
 30
0.0
 11
75.1392237903
 21
110.2154808468
 31
0.0
  0
LINE
  5
358
330
1F
100
AcDbEntity
  8
0
  6
Continuous
 62
     7
370
    25
100
AcDbLine
 10
83.5221727602
 20
110.2154808468
 30
0.0
 11
81.5221727602
 21
110.2154808468
 31
0.0
  0
LINE
  5
359
330
1F
100
AcDbEntity
  8
0
  6
Continuous
 62
     7
370
    25
100
AcDbLine
 10
187.7562748205
 20
110.2154808468
 30
0.0
 11
83.5221727602
 21
110.2154808468
 31
0.0
  0
SPLINE
  5
35A
330
1F
100
AcDbEntity
  8
0
  6
Continuous
 62
     7
370
    25
100
AcDbSpline
210
0.0
220
0.0
230
1.0
 70
     8
 71
     3
 72
    20
 73
    16
 74
     0
 42
0.00000001
 43
0.00000001
 40
0.0
 40
0.0
 40
0.0
 40
0.0
 40
0.1249999999999999
 40
0.1249999999999999
 40
0.2499999999999997
 40
0.2499999999999997
 40
0.3749999999999996
 40
0.3749999999999996
 40
0.4999999999999994
 40
0.4999999999999994
 40
0.6249999999999992
 40
0.6249999999999992
 40
0.749999999999999
 40
0.749999999999999
 40
1.0
 40
1.0
 40
1.0
 40
1.0
 10
37.11282186724557
 20
112.2154808467743
 30
0.0
 10
37.07188614680975
 20
112.2154808467743
 30
0.0
 10
37.03165283371206
 20
112.1977412354585
 30
0.0
 10
36.95108802916139
 20
112.1284820120559
 30
0.0
 10
36.91048038350786
 20
112.076467046991
 30
0.0
 10
36.82892338274961
 20
111.9388162100296
 30
0.0
 10
36.78870588500295
 20
111.8546745408055
 30
0.0
 10
36.70791222181652
 20
111.6567618895652
 30
0.0
 10
36.6668948073887
 20
111.5414869756304
 30
0.0
 10
36.58578980540114
 20
111.2884058722021
 30
0.0
 10
36.54561772324728
 20
111.1507343338352
 30
0.0
 10
36.46456955611618
 20
110.8534299914238
 30
0.0
 10
36.4235251775656
 20
110.6929215539115
 30
0.0
 10
36.30228740487458
 20
110.1985403564417
 30
0.0
 10
36.22109523331554
 20
109.8403605667739
 30
0.0
 10
36.1392237903225
 20
109.4788808467743
 30
0.0
  0
SPLINE
  5
35B
330
1F
100
AcDbEntity
  8
0
  6
Continuous
 62
     7
370
    25
100
AcDbSpline
210
0.0
220
0.0
230
1.0
 70
     8
 71
     3
 72
    10
 73
     6
 74
     0
 42
0.00000001
 43
0.00000001
 40
0.0
 40
0.0
 40
0.0
 40
0.0
 40
0.5
 40
0.5
 40
1.0
 40
1.0
 40
1.0
 40
1.0
 10
37.11282186724557
 20
110.2154808467743
 30
0.0
 10
36.94924970550599
 20
110.2154808467743
 30
0.0
 10
36.7891434715595
 20
110.1367233714214
 30
0.0
 10
36.46371264018035
 20
109.863428869004
 30
0.0
 10
36.30279594582993
 20
109.6732741326834
 30
0.0
 10
36.1392237903225
 20
109.4788808467743
 30
0.0
  0
SPLINE
  5
35C
330
1F
100
AcDbEntity
  8
0
  6
Continuous
 62
     7
370
    25
100
AcDbSpline
210
0.0
220
0.0
230
1.0
 70
     8
 71
     3
 72
    20
 73
    16
 74
     0
 42
0.00000001
 43
0.00000001
 40
0.0
 40
0.0
 40
0.0
 40
0.0
 40
0.1250000000000003
 40
0.1250000000000003
 40
0.2500000000000006
 40
0.2500000000000006
 40
0.3750000000000008
 40
0.3750000000000008
 40
0.5000000000000011
 40
0.5000000000000011
 40
0.6250000000000013
 40
0.6250000000000013
 40
0.7500000000000017
 40
0.7500000000000017
 40
1.0
 40
1.0
 40
1.0
 40
1.0
 10
235.1392237903225
 20
109.4788808467743
 30
0.0
 10
235.0982880698868
 20
109.6596207020906
 30
0.0
 10
235.058054756789
 20
109.8372289103406
 30
0.0
 10
234.9774899522383
 20
110.1861494045062
 30
0.0
 10
234.9368823065848
 20
110.3586205177398
 30
0.0
 10
234.8553253058266
 20
110.6913634094665
 30
0.0
 10
234.8151078080799
 20
110.8486981746144
 30
0.0
 10
234.7343141448935
 20
111.1455029850232
 30
0.0
 10
234.6932967304656
 20
111.2862805225102
 30
0.0
 10
234.6121917284781
 20
111.5396226581119
 30
0.0
 10
234.5720196463243
 20
111.6527947969953
 30
0.0
 10
234.4909714791932
 20
111.8519823182892
 30
0.0
 10
234.4499271006425
 20
111.9379298362061
 30
0.0
 10
234.3286893279516
 20
112.1431666036321
 30
0.0
 10
234.2474971563925
 20
112.2154808467743
 30
0.0
 10
234.1656257133994
 20
112.2154808467743
 30
0.0
  0
SPLINE
  5
35D
330
1F
100
AcDbEntity
  8
0
  6
Continuous
 62
     7
370
    25
100
AcDbSpline
210
0.0
220
0.0
230
1.0
 70
     8
 71
     3
 72
    10
 73
     6
 74
     0
 42
0.00000001
 43
0.00000001
 40
0.0
 40
0.0
 40
0.0
 40
0.0
 40
0.5
 40
0.5
 40
1.0
 40
1.0
 40
1.0
 40
1.0
 10
235.1392237903225
 20
109.4788808467741
 30
0.0
 10
234.9756516285831
 20
109.6732741400898
 30
0.0
 10
234.8155453946365
 20
109.8625690153709
 30
0.0
 10
234.4901145632573
 20
110.1362211061183
 30
0.0
 10
234.3291978689069
 20
110.2154808467743
 30
0.0
 10
234.1656257133994
 20
110.2154808467743
 30
0.0
  0
LINE
  5
35E
330
1F
100
AcDbEntity
  8
0
  6
Continuous
 62
     7
370
    25
100
AcDbLine
 10
209.6392237903
 20
85.2154808468
 30
0.0
 11
198.1392237903
 21
97.2154808468
 31
0.0
  0
LINE
  5
35F
330
1F
100
AcDbEntity
  8
0
  6
Continuous
 62
     7
370
    25
100
AcDbLine
 10
73.1392237903
 20
97.2154808468
 30
0.0
 11
198.1392237903
 21
97.2154808468
 31
0.0
  0
LINE
  5
360
330
1F
100
AcDbEntity
  8
0
  6
Continuous
 62
     7
370
    25
100
AcDbLine
 10
61.6392237903
 20
85.2154808468
 30
0.0
 11
73.1392237903
 21
97.2154808468
 31
0.0
  0
LINE
  5
361
330
1F
100
AcDbEntity
  8
0
  6
Continuous
 62
     7
370
    25
100
AcDbLine
 10
61.6392237903
 20
85.2154808468
 30
0.0
 11
38.1392237903
 21
85.2154808468
 31
0.0
  0
ARC
  5
362
330
1F
100
AcDbEntity
  8
0
  6
Continuous
 62
     7
370
    25
100
AcDbCircle
 10
38.1392237903
 20
87.2154808468
 30
0.0
 40
2.000000000000007
100
AcDbArc
 50
180.0
 51
270.0
  0
LINE
  5
363
330
1F
100
AcDbEntity
  8
0
  6
Continuous
 62
     7
370
    25
100
AcDbLine
 10
36.1392237903
 20
87.2154808468
 30
0.0
 11
36.1392237903
 21
109.4788808468
 31
0.0
  0
LINE
  5
364
330
1F
100
AcDbEntity
  8
0
  6
Continuous
 62
     7
370
    25
100
AcDbLine
 10
235.1392237903
 20
109.4788808468
 30
0.0
 11
235.1392237903
 21
87.2154808468
 31
0.0
  0
ARC
  5
365
330
1F
100
AcDbEntity
  8
0
  6
Continuous
 62
     7
370
    25
100
AcDbCircle
 10
233.1392237903
 20
87.2154808468
 30
0.0
 40
2.0
100
AcDbArc
 50
270.0
 51
0.0
  0
LINE
  5
366
330
1F
100
AcDbEntity
  8
0
  6
Continuous
 62
     7
370
    25
100
AcDbLine
 10
233.1392237903
 20
85.2154808468
 30
0.0
 11
209.6392237903
 21
85.2154808468
 31
0.0
  0
ARC
  5
367
330
1F
100
AcDbEntity
  8
0
  6
Continuous
 62
     7
370
    25
100
AcDbCircle
 10
217.3892237903
 20
94.2154808468
 30
0.0
 40
5.249999999999986
100
AcDbArc
 50
90.0
 51
270.0
  0
LINE
  5
368
330
1F
100
AcDbEntity
  8
0
  6
Continuous
 62
     7
370
    25
100
AcDbLine
 10
217.3892237903
 20
88.9654808468
 30
0.0
 11
224.8892237903
 21
88.9654808468
 31
0.0
  0
ARC
  5
369
330
1F
100
AcDbEntity
  8
0
  6
Continuous
 62
     7
370
    25
100
AcDbCircle
 10
224.8892237903
 20
94.2154808468
 30
0.0
 40
5.250000000000199
100
AcDbArc
 50
270.0
 51
90.0
  0
LINE
  5
36A
330
1F
100
AcDbEntity
  8
0
  6
Continuous
 62
     7
370
    25
100
AcDbLine
 10
217.3892237903
 20
99.4654808468
 30
0.0
 11
224.8892237903
 21
99.4654808468
 31
0.0
  0
ARC
  5
36B
330
1F
100
AcDbEntity
  8
0
  6
Continuous
 62
     7
370
    25
100
AcDbCircle
 10
53.8892237903
 20
94.2154808468
 30
0.0
 40
5.250000000000199
100
AcDbArc
 50
270.0
 51
90.0
  0
LINE
  5
36C
330
1F
100
AcDbEntity
  8
0
  6
Continuous
 62
     7
370
    25
100
AcDbLine
 10
53.8892237903
 20
99.4654808468
 30
0.0
 11
46.3892237903
 21
99.4654808468
 31
0.0
  0
ARC
  5
36D
330
1F
100
AcDbEntity
  8
0
  6
Continuous
 62
     7
370
    25
100
AcDbCircle
 10
46.3892237903
 20
94.2154808468
 30
0.0
 40
5.250000000000199
100
AcDbArc
 50
90.0
 51
270.0
  0
LINE
  5
36E
330
1F
100
AcDbEntity
  8
0
  6
Continuous
 62
     7
370
    25
100
AcDbLine
 10
53.8892237903
 20
88.9654808468
 30
0.0
 11
46.3892237903
 21
88.9654808468
 31
0.0
  0
LINE
  5
36F
330
1F
100
AcDbEntity
  8
0
  6
Continuous
 62
     8
370
    18
100
AcDbLine
 10
194.1392237903
 20
112.2154808468
 30
0.0
 11
194.1392237903
 21
115.2154808468
 31
0.0
  0
LINE
  5
370
330
1F
100
AcDbEntity
  8
0
  6
Continuous
 62
     8
370
    18
100
AcDbLine
 10
77.1392237903
 20
115.2154808468
 30
0.0
 11
77.1392237903
 21
112.2154808468
 31
0.0
  0
LINE
  5
371
330
1F
100
AcDbEntity
  8
0
  6
Continuous
 62
     8
370
    18
100
AcDbLine
 10
189.6119428593
 20
115.2154808468
 30
0.0
 11
189.6119428593
 21
112.2154808468
 31
0.0
  0
LINE
  5
372
330
1F
100
AcDbEntity
  8
0
  6
Continuous
 62
     8
370
    18
100
AcDbLine
 10
81.6665047213
 20
112.2154808468
 30
0.0
 11
81.6665047213
 21
115.2154808468
 31
0.0
  0
LINE
  5
373
330
1F
100
AcDbEntity
  8
0
  6
Continuous
 62
     8
370
    18
100
AcDbLine
 10
69.1392237903
 20
115.2154808468
 30
0.0
 11
69.1392237903
 21
117.2154808468
 31
0.0
  0
LINE
  5
374
330
1F
100
AcDbEntity
  8
0
  6
Continuous
 62
     8
370
    18
100
AcDbLine
 10
202.1392237903
 20
117.2154808468
 30
0.0
 11
202.1392237903
 21
115.2154808468
 31
0.0
  0
LINE
  5
375
330
1F
100
AcDbEntity
  8
0
  6
Continuous
 62
     8
370
    18
100
AcDbLine
 10
75.1392237903
 20
117.2154808468
 30
0.0
 11
75.1392237903
 21
115.2154808468
 31
0.0
  0
LINE
  5
376
330
1F
100
AcDbEntity
  8
0
  6
Continuous
 62
     8
370
    18
100
AcDbLine
 10
196.1392237903
 20
115.2154808468
 30
0.0
 11
196.1392237903
 21
117.2154808468
 31
0.0
  0
LINE
  5
377
330
1F
100
AcDbEntity
  8
0
  6
Continuous
 62
     8
370
    18
100
AcDbLine
 10
81.5221727602
 20
115.2154808468
 30
0.0
 11
81.5221727602
 21
117.2154808468
 31
0.0
  0
LINE
  5
378
330
1F
100
AcDbEntity
  8
0
  6
Continuous
 62
     8
370
    18
100
AcDbLine
 10
189.7562748205
 20
117.2154808468
 30
0.0
 11
189.7562748205
 21
115.2154808468
 31
0.0
  0
LINE
  5
379
330
1F
100
AcDbEntity
  8
0
  6
Continuous
 62
     8
370
    18
100
AcDbLine
 10
235.1392237903
 20
117.9520808468
 30
0.0
 11
216.6392237903
 21
117.9520808468
 31
0.0
  0
LINE
  5
37A
330
1F
100
AcDbEntity
  8
0
  6
Continuous
 62
     8
370
    18
100
AcDbLine
 10
200.6392237903
 20
117.9520808468
 30
0.0
 11
71.7982755444
 21
117.9520808468
 31
0.0
  0
LINE
  5
37B
330
1F
100
AcDbEntity
  8
0
  6
Continuous
 62
     8
370
    18
100
AcDbLine
 10
53.4801720362
 20
117.9520808468
 30
0.0
 11
36.1392237903
 21
117.9520808468
 31
0.0
  0
LINE
  5
37C
330
1F
100
AcDbEntity
  8
0
  6
Continuous
 62
     8
370
    18
100
AcDbLine
 10
202.1392237903
 20
112.2154808468
 30
0.0
 11
202.1392237903
 21
110.2154808468
 31
0.0
  0
LINE
  5
37D
330
1F
100
AcDbEntity
  8
0
  6
Continuous
 62
     8
370
    18
100
AcDbLine
 10
69.1392237903
 20
110.2154808468
 30
0.0
 11
69.1392237903
 21
112.2154808468
 31
0.0
  0
LINE
  5
37E
330
1F
100
AcDbEntity
  8
0
  6
Continuous
 62
     8
370
    18
100
AcDbLine
 10
196.1392237903
 20
110.2154808468
 30
0.0
 11
196.1392237903
 21
112.2154808468
 31
0.0
  0
LINE
  5
37F
330
1F
100
AcDbEntity
  8
0
  6
Continuous
 62
     8
370
    18
100
AcDbLine
 10
75.1392237903
 20
112.2154808468
 30
0.0
 11
75.1392237903
 21
110.2154808468
 31
0.0
  0
LINE
  5
380
330
1F
100
AcDbEntity
  8
0
  6
Continuous
 62
     8
370
    18
100
AcDbLine
 10
189.7562748205
 20
112.2154808468
 30
0.0
 11
189.7562748205
 21
110.2154808468
 31
0.0
  0
LINE
  5
381
330
1F
100
AcDbEntity
  8
0
  6
Continuous
 62
     8
370
    18
100
AcDbLine
 10
81.5221727602
 20
110.2154808468
 30
0.0
 11
81.5221727602
 21
112.2154808468
 31
0.0
  0
LINE
  5
382
330
1F
100
AcDbEntity
  8
0
  6
Continuous
 62
     8
370
    18
100
AcDbLine
 10
36.1392237903
 20
109.4788808468
 30
0.0
 11
54.6392237903
 21
109.4788808468
 31
0.0
  0
LINE
  5
383
330
1F
100
AcDbEntity
  8
0
  6
Continuous
 62
     8
370
    18
100
AcDbLine
 10
70.6392237903
 20
109.4788808468
 30
0.0
 11
200.6392237903
 21
109.4788808468
 31
0.0
  0
LINE
  5
384
330
1F
100
AcDbEntity
  8
0
  6
Continuous
 62
     8
370
    18
100
AcDbLine
 10
216.6392237903
 20
109.4788808468
 30
0.0
 11
235.1392237903
 21
109.4788808468
 31
0.0
  0
DIMENSION
  5
385
330
1F
100
AcDbEntity
  8
0
  6
Continuous
 62
     7
370
    18
100
AcDbDimension
  2
_D_3
 10
249.9793485166
 20
85.2154808468
 30
0.0
 11
249.9793485166
 21
113.7154808468
 31
0.0
 70
   160
  1
<>
 71
     2
 42
-1.0
  3
SLDDIMSTYLE0
100
AcDbAlignedDimension
 13
233.1392237903
 23
142.2154808468
 33
0.0
 14
233.1392237903
 24
85.2154808468
 34
0.0
 50
90.0
100
AcDbRotatedDimension
  0
DIMENSION
  5
38F
330
1F
100
AcDbEntity
  8
0
  6
Continuous
 62
     7
370
    18
100
AcDbDimension
  2
_D_4
 10
198.1392237903
 20
77.6943650452
 30
0.0
 11
135.6392237903
 21
77.6943650452
 31
0.0
 70
   160
  1
<>
 71
     2
 42
-1.0
  3
SLDDIMSTYLE0
100
AcDbAlignedDimension
 13
73.1392237903
 23
97.2154808468
 33
0.0
 14
198.1392237903
 24
97.2154808468
 34
0.0
 50
0.0
100
AcDbRotatedDimension
  0
DIMENSION
  5
399
330
1F
100
AcDbEntity
  8
0
  6
Continuous
 62
     7
370
    18
100
AcDbDimension
  2
_D_5
 10
209.6392237903
 20
65.2154808468
 30
0.0
 11
135.6392237903
 21
65.2154808468
 31
0.0
 70
   160
  1
<>
 71
     2
 42
-1.0
  3
SLDDIMSTYLE0
100
AcDbAlignedDimension
 13
61.6392237903
 23
85.2154808468
 33
0.0
 14
209.6392237903
 24
85.2154808468
 34
0.0
100
AcDbRotatedDimension
  0
DIMENSION
  5
3A3
330
1F
100
AcDbEntity
  8
0
  6
Continuous
 62
     7
370
    18
100
AcDbDimension
  2
_D_6
 10
235.1392237903
 20
147.7145910028
 30
0.0
 11
135.6392237903
 21
147.7145910028
 31
0.0
 70
   160
  1
<>
 71
     2
 42
-1.0
  3
SLDDIMSTYLE0
100
AcDbAlignedDimension
 13
36.1392237903
 23
140.2154808468
 33
0.0
 14
235.1392237903
 24
140.2154808468
 34
0.0
100
AcDbRotatedDimension
  0
INSERT
  5
3C0
330
1F
100
AcDbEntity
  8
0
  6
Continuous
 62
     7
370
     0
100
AcDbBlockReference
  2
SW_CENTERMARKSYMBOL_0
 10
224.8892237903
 20
133.2154808468
 30
0.0
  0
INSERT
  5
3D4
330
1F
100
AcDbEntity
  8
0
  6
Continuous
 62
     7
370
     0
100
AcDbBlockReference
  2
SW_CENTERMARKSYMBOL_1
 10
53.8892237903
 20
133.2154808468
 30
0.0
  0
INSERT
  5
3E8
330
1F
100
AcDbEntity
  8
0
  6
Continuous
 62
     7
370
     0
100
AcDbBlockReference
  2
SW_CENTERMARKSYMBOL_2
 10
53.8892237903
 20
94.2154808468
 30
0.0
  0
INSERT
  5
3FC
330
1F
100
AcDbEntity
  8
0
  6
Continuous
 62
     7
370
     0
100
AcDbBlockReference
  2
SW_CENTERMARKSYMBOL_3
 10
224.8892237903
 20
94.2154808468
 30
0.0
  0
LINE
  5
3FD
330
1F
100
AcDbEntity
  8
0
  6
Continuous
 62
     7
370
    25
100
AcDbLine
 10
381.1095552198
 20
107.7820241328
 30
0.0
 11
381.1095552198
 21
108.1200170911
 31
0.0
  0
LINE
  5
3FE
330
1F
100
AcDbEntity
  8
0
  6
Continuous
 62
     7
370
    25
100
AcDbLine
 10
379.6347702072
 20
110.6746964679
 30
0.0
 11
379.3420755787
 21
110.8437204137
 31
0.0
  0
LINE
  5
3FF
330
1F
100
AcDbEntity
  8
0
  6
Continuous
 62
     7
370
    25
100
AcDbLine
 10
328.0159751806
 20
140.4735925494
 30
0.0
 11
327.723280552
 21
140.6426164952
 31
0.0
  0
LINE
  5
400
330
1F
100
AcDbEntity
  8
0
  6
Continuous
 62
     7
370
    25
100
AcDbLine
 10
366.9791207205
 20
116.1835833121
 30
0.0
 11
365.9184605487
 21
115.5712772282
 31
0.0
  0
LINE
  5
401
330
1F
100
AcDbEntity
  8
0
  6
Continuous
 62
     7
370
    25
100
AcDbLine
 10
383.5000380766
 20
89.8398185692
 30
0.0
 11
383.8116691463
 21
89.6599177819
 31
0.0
  0
LINE
  5
402
330
1F
100
AcDbEntity
  8
0
  6
Continuous
 62
     7
370
    25
100
AcDbLine
 10
392.8321224497
 20
94.5804799799
 30
0.0
 11
392.8321224497
 21
95.3970207918
 31
0.0
  0
LINE
  5
403
330
1F
100
AcDbEntity
  8
0
  6
Continuous
 62
     7
370
    25
100
AcDbLine
 10
370.4725130384
 20
116.4723552233
 30
0.0
 11
369.7654062572
 21
116.0641511674
 31
0.0
  0
LINE
  5
404
330
1F
100
AcDbEntity
  8
0
  6
Continuous
 62
     7
370
    25
100
AcDbLine
 10
366.0944794445
 20
114.7129009578
 30
0.0
 11
365.3873726633
 21
114.3046969018
 31
0.0
  0
LINE
  5
405
330
1F
100
AcDbEntity
  8
0
  6
Continuous
 62
     7
370
    25
100
AcDbLine
 10
303.1508815826
 20
124.3795087615
 30
0.0
 11
303.1508815826
 21
123.5629679496
 31
0.0
  0
SPLINE
  5
406
330
1F
100
AcDbEntity
  8
0
  6
Continuous
 62
     7
370
    25
100
AcDbSpline
210
0.0
220
0.0
230
1.0
 70
     8
 71
     3
 72
     9
 73
     5
 74
     0
 42
0.00000001
 43
0.00000001
 40
0.0
 40
0.0
 40
0.0
 40
0.0
 40
0.2872436471597281
 40
1.0
 40
1.0
 40
1.0
 40
1.0
 10
378.6633827339453
 20
111.4383163908685
 30
0.0
 10
378.7851967640761
 20
111.3365682648431
 30
0.0
 10
379.2092758736935
 20
110.98234589289
 30
0.0
 10
379.5621346480229
 20
110.5668431082609
 30
0.0
 10
379.8136369810816
 20
110.2706908588937
 30
0.0
  0
SPLINE
  5
407
330
1F
100
AcDbEntity
  8
0
  6
Continuous
 62
     7
370
    25
100
AcDbSpline
210
0.0
220
0.0
230
1.0
 70
     8
 71
     3
 72
    10
 73
     6
 74
     0
 42
0.00000001
 43
0.00000001
 40
0.0
 40
0.0
 40
0.0
 40
0.0
 40
0.070085767774731
 40
0.5307822340229859
 40
1.0
 40
1.0
 40
1.0
 40
1.0
 10
379.8136369810816
 20
110.2706908588937
 30
0.0
 10
379.8468547606975
 20
110.2288189558468
 30
0.0
 10
380.098423771548
 20
109.9117094634677
 30
0.0
 10
380.521879547129
 20
109.284447993259
 30
0.0
 10
380.8231899079981
 20
108.6737383298919
 30
0.0
 10
380.975225622146
 20
108.3655853691399
 30
0.0
  0
LINE
  5
408
330
1F
100
AcDbEntity
  8
0
  6
Continuous
 62
     7
370
    25
100
AcDbLine
 10
380.9752256221
 20
108.3655853691
 30
0.0
 11
379.66495839
 21
107.6091841965
 31
0.0
  0
SPLINE
  5
409
330
1F
100
AcDbEntity
  8
0
  6
Continuous
 62
     7
370
    25
100
AcDbSpline
210
0.0
220
0.0
230
1.0
 70
     8
 71
     3
 72
    10
 73
     6
 74
     0
 42
0.00000001
 43
0.00000001
 40
0.0
 40
0.0
 40
0.0
 40
0.0
 40
0.2684065359321934
 40
0.6323728964502875
 40
1.0
 40
1.0
 40
1.0
 40
1.0
 10
381.2278505434547
 20
106.6257024017917
 30
0.0
 10
381.2237460690399
 20
106.7945840418217
 30
0.0
 10
381.214075818779
 20
107.192473651671
 30
0.0
 10
381.1310162124597
 20
107.7775197783791
 30
0.0
 10
381.0273287624661
 20
108.1689106923757
 30
0.0
 10
380.975225622146
 20
108.3655853691399
 30
0.0
  0
SPLINE
  5
40A
330
1F
100
AcDbEntity
  8
0
  6
Continuous
 62
     7
370
    25
100
AcDbSpline
210
0.0
220
0.0
230
1.0
 70
     8
 71
     3
 72
    10
 73
     6
 74
     0
 42
0.00000001
 43
0.00000001
 40
0.0
 40
0.0
 40
0.0
 40
0.0
 40
0.2572432618847668
 40
0.6263798857723052
 40
1.0
 40
1.0
 40
1.0
 40
1.0
 10
380.975225622146
 20
104.5941449087674
 30
0.0
 10
381.0124533749769
 20
104.7739904688686
 30
0.0
 10
381.1031018739691
 20
105.2119091943874
 30
0.0
 10
381.204568628493
 20
105.8998191545381
 30
0.0
 10
381.2200587375701
 20
106.382769577463
 30
0.0
 10
381.2278505434547
 20
106.6257024017917
 30
0.0
  0
LINE
  5
40B
330
1F
100
AcDbEntity
  8
0
  6
Continuous
 62
     7
370
    25
100
AcDbLine
 10
380.9752256221
 20
104.5941449088
 30
0.0
 11
380.5220268125
 21
104.3325188049
 31
0.0
  0
SPLINE
  5
40C
330
1F
100
AcDbEntity
  8
0
  6
Continuous
 62
     7
370
    25
100
AcDbSpline
210
0.0
220
0.0
230
1.0
 70
     8
 71
     3
 72
     9
 73
     5
 74
     0
 42
0.00000001
 43
0.00000001
 40
0.0
 40
0.0
 40
0.0
 40
0.0
 40
0.1753285034816474
 40
1.0
 40
1.0
 40
1.0
 40
1.0
 10
327.1463726600322
 20
141.0819743137886
 30
0.0
 10
327.1078147265891
 20
141.1098619871071
 30
0.0
 10
326.8878965006451
 20
141.2689215396881
 30
0.0
 10
326.640885972155
 20
141.4102899747894
 30
0.0
 10
326.4371834299693
 20
141.5268724937249
 30
0.0
  0
SPLINE
  5
40D
330
1F
100
AcDbEntity
  8
0
  6
Continuous
 62
     7
370
    25
100
AcDbSpline
210
0.0
220
0.0
230
1.0
 70
     8
 71
     3
 72
     9
 73
     5
 74
     0
 42
0.00000001
 43
0.00000001
 40
0.0
 40
0.0
 40
0.0
 40
0.0
 40
0.4954579634770057
 40
1.0
 40
1.0
 40
1.0
 40
1.0
 10
328.512854639868
 20
139.7560505199169
 30
0.0
 10
328.3205127252052
 20
139.9884629859933
 30
0.0
 10
327.9323023646068
 20
140.4575491309516
 30
0.0
 10
327.4099309814908
 20
140.8725758750897
 30
0.0
 10
327.1463726600322
 20
141.0819743137886
 30
0.0
  0
LINE
  5
40E
330
1F
100
AcDbEntity
  8
0
  6
Continuous
 62
     7
370
    25
100
AcDbLine
 10
327.6073863342
 20
139.2333347933
 30
0.0
 11
328.5128546399
 21
139.7560505199
 31
0.0
  0
SPLINE
  5
40F
330
1F
100
AcDbEntity
  8
0
  6
Continuous
 62
     7
370
    25
100
AcDbSpline
210
0.0
220
0.0
230
1.0
 70
     8
 71
     3
 72
    10
 73
     6
 74
     0
 42
0.00000001
 43
0.00000001
 40
0.0
 40
0.0
 40
0.0
 40
0.0
 40
0.3351890293316168
 40
0.8161755700287991
 40
1.0
 40
1.0
 40
1.0
 40
1.0
 10
328.512854639868
 20
139.7560505199169
 30
0.0
 10
328.6022637169793
 20
139.6006896343948
 30
0.0
 10
328.8199722279725
 20
139.2223903817193
 30
0.0
 10
329.0645792453783
 20
138.7334423048993
 30
0.0
 10
329.1860830066964
 20
138.3785362162076
 30
0.0
 10
329.2196795636865
 20
138.2804024423599
 30
0.0
  0
LINE
  5
410
330
1F
100
AcDbEntity
  8
0
  6
Continuous
 62
     7
370
    25
100
AcDbLine
 10
373.7655441904
 20
106.7792012093
 30
0.0
 11
375.1797577528
 21
105.0199329824
 31
0.0
  0
LINE
  5
411
330
1F
100
AcDbEntity
  8
0
  6
Continuous
 62
     7
370
    25
100
AcDbLine
 10
375.1797577528
 20
105.0199329824
 30
0.0
 11
373.3817730086
 21
103.981978483
 31
0.0
  0
SPLINE
  5
412
330
1F
100
AcDbEntity
  8
0
  6
Continuous
 62
     7
370
    25
100
AcDbSpline
210
0.0
220
0.0
230
1.0
 70
     8
 71
     3
 72
     9
 73
     5
 74
     0
 42
0.00000001
 43
0.00000001
 40
0.0
 40
0.0
 40
0.0
 40
0.0
 40
0.4954579634770062
 40
1.0
 40
1.0
 40
1.0
 40
1.0
 10
373.38177300862
 20
103.9819784830475
 30
0.0
 10
373.0814903447958
 20
104.2269301517779
 30
0.0
 10
372.4754194246376
 20
104.7213246045613
 30
0.0
 10
371.9699600348443
 20
105.3022886596328
 30
0.0
 10
371.7149345249383
 20
105.5954094471252
 30
0.0
  0
SPLINE
  5
413
330
1F
100
AcDbEntity
  8
0
  6
Continuous
 62
     7
370
    25
100
AcDbSpline
210
0.0
220
0.0
230
1.0
 70
     8
 71
     3
 72
    10
 73
     6
 74
     0
 42
0.00000001
 43
0.00000001
 40
0.0
 40
0.0
 40
0.0
 40
0.0
 40
0.0700857677747266
 40
0.5307822340229833
 40
1.0
 40
1.0
 40
1.0
 40
1.0
 10
371.7149345249383
 20
105.5954094471252
 30
0.0
 10
371.6817167453224
 20
105.6372813501721
 30
0.0
 10
371.4301477344719
 20
105.9543908425512
 30
0.0
 10
371.0066919588909
 20
106.5816523127599
 30
0.0
 10
370.7053815980218
 20
107.192361976127
 30
0.0
 10
370.5533458838738
 20
107.5005149368791
 30
0.0
  0
LINE
  5
414
330
1F
100
AcDbEntity
  8
0
  6
Continuous
 62
     7
370
    25
100
AcDbLine
 10
372.351330628
 20
108.5384694362
 30
0.0
 11
370.5533458839
 21
107.5005149369
 31
0.0
  0
LINE
  5
415
330
1F
100
AcDbEntity
  8
0
  6
Continuous
 62
     7
370
    25
100
AcDbLine
 10
372.351330628
 20
108.5384694362
 30
0.0
 11
373.7655441904
 21
106.7792012093
 31
0.0
  0
ARC
  5
416
330
1F
100
AcDbEntity
  8
0
  6
Continuous
 62
     7
370
    25
100
AcDbCircle
 10
368.6680986812
 20
103.5837263884
 30
0.0
 40
3.651037850735065
100
AcDbArc
 50
33.4349146449
 51
86.5704618878
  0
ARC
  5
417
330
1F
100
AcDbEntity
  8
0
  6
Continuous
 62
     7
370
    25
100
AcDbCircle
 10
366.9960832031
 20
101.6677059351
 30
0.0
 40
6.139577564932478
100
AcDbArc
 50
2.6392873612
 51
39.7720723791
  0
ARC
  5
418
330
1F
100
AcDbEntity
  8
0
  6
Continuous
 62
     7
370
    25
100
AcDbCircle
 10
371.3929565302
 20
101.6676057856
 30
0.0
 40
1.759075201063268
100
AcDbArc
 50
280.5467778285
 51
9.2518791787
  0
ARC
  5
419
330
1F
100
AcDbEntity
  8
0
  6
Continuous
 62
     7
370
    25
100
AcDbCircle
 10
371.933343244
 20
103.5827480389
 30
0.0
 40
3.651037850734635
100
AcDbArc
 50
213.4349146449
 51
266.5704618878
  0
ARC
  5
41A
330
1F
100
AcDbEntity
  8
0
  6
Continuous
 62
     7
370
    25
100
AcDbCircle
 10
373.605358722
 20
105.4987684923
 30
0.0
 40
6.139577564932243
100
AcDbArc
 50
182.6392873612
 51
219.7720723791
  0
ARC
  5
41B
330
1F
100
AcDbEntity
  8
0
  6
Continuous
 62
     7
370
    25
100
AcDbCircle
 10
369.208485395
 20
105.4988686417
 30
0.0
 40
1.759075201063235
100
AcDbArc
 50
100.5467778285
 51
189.2518791787
  0
SPLINE
  5
41C
330
1F
100
AcDbEntity
  8
0
  6
Continuous
 62
     7
370
    25
100
AcDbSpline
210
0.0
220
0.0
230
1.0
 70
     8
 71
     3
 72
    10
 73
     6
 74
     0
 42
0.00000001
 43
0.00000001
 40
0.0
 40
0.0
 40
0.0
 40
0.0
 40
0.2141446608865667
 40
0.6047163562828055
 40
1.0
 40
1.0
 40
1.0
 40
1.0
 10
373.1291480873114
 20
101.9504209900232
 30
0.0
 10
373.1318062160939
 20
102.0885655014977
 30
0.0
 10
373.1393124221568
 20
102.4786674320035
 30
0.0
 10
373.2152133118495
 20
103.1569678405596
 30
0.0
 10
373.3260316227265
 20
103.7058778567803
 30
0.0
 10
373.38177300862
 20
103.9819784830475
 30
0.0
  0
SPLINE
  5
41D
330
1F
100
AcDbEntity
  8
0
  6
Continuous
 62
     7
370
    25
100
AcDbSpline
210
0.0
220
0.0
230
1.0
 70
     8
 71
     3
 72
     9
 73
     5
 74
     0
 42
0.00000001
 43
0.00000001
 40
0.0
 40
0.0
 40
0.0
 40
0.0
 40
0.4954579634770076
 40
1.0
 40
1.0
 40
1.0
 40
1.0
 10
370.5533458838738
 20
107.5005149368791
 30
0.0
 10
370.2530632200496
 20
107.4392173501442
 30
0.0
 10
369.6469922998914
 20
107.3154983038204
 30
0.0
 10
369.1415329100981
 20
107.2574921923717
 30
0.0
 10
368.8865074001921
 20
107.2282256707706
 30
0.0
  0
LINE
  5
41E
330
1F
100
AcDbEntity
  8
0
  6
Continuous
 62
     7
370
    25
100
AcDbLine
 10
375.1797577528
 20
103.1342127522
 30
0.0
 11
375.1797577528
 21
101.248492522
 31
0.0
  0
LINE
  5
41F
330
1F
100
AcDbEntity
  8
0
  6
Continuous
 62
     7
370
    25
100
AcDbLine
 10
375.1797577528
 20
101.248492522
 30
0.0
 11
373.3817730086
 21
100.2105380227
 31
0.0
  0
SPLINE
  5
420
330
1F
100
AcDbEntity
  8
0
  6
Continuous
 62
     7
370
    25
100
AcDbSpline
210
0.0
220
0.0
230
1.0
 70
     8
 71
     3
 72
    10
 73
     6
 74
     0
 42
0.00000001
 43
0.00000001
 40
0.0
 40
0.0
 40
0.0
 40
0.0
 40
0.1884124237452142
 40
0.5914149639921916
 40
1.0
 40
1.0
 40
1.0
 40
1.0
 10
373.38177300862
 20
100.210538022675
 30
0.0
 10
373.3541288243333
 20
100.3104184713443
 30
0.0
 10
373.267355436838
 20
100.6239370322706
 30
0.0
 10
373.1569133693664
 20
101.187750008994
 30
0.0
 10
373.1384455249478
 20
101.6950342135014
 30
0.0
 10
373.1291480873114
 20
101.9504209900232
 30
0.0
  0
LINE
  5
421
330
1F
100
AcDbEntity
  8
0
  6
Continuous
 62
     7
370
    25
100
AcDbLine
 10
375.1797577528
 20
105.0199329824
 30
0.0
 11
375.1797577528
 21
103.1342127522
 31
0.0
  0
ARC
  5
422
330
1F
100
AcDbEntity
  8
0
  6
Continuous
 62
     7
370
    25
100
AcDbCircle
 10
371.3276591346
 20
106.8731736048
 30
0.0
 40
1.668671256371848
100
AcDbArc
 50
75.0566198571
 51
115.1624162051
  0
ARC
  5
423
330
1F
100
AcDbEntity
  8
0
  6
Continuous
 62
     7
370
    25
100
AcDbCircle
 10
369.1908711179
 20
102.9640483532
 30
0.0
 40
6.200221216338536
100
AcDbArc
 50
22.6530462043
 51
54.9360969922
  0
ARC
  5
424
330
1F
100
AcDbEntity
  8
0
  6
Continuous
 62
     7
370
    25
100
AcDbCircle
 10
371.8191021896
 20
103.3791351857
 30
0.0
 40
3.582481356150892
100
AcDbArc
 50
339.731644681
 51
20.268355319
  0
LINE
  5
425
330
1F
100
AcDbEntity
  8
0
  6
Continuous
 62
     7
370
    25
100
AcDbLine
 10
370.9371170656
 20
108.4120174329
 30
0.0
 11
372.351330628
 21
108.5384694362
 31
0.0
  0
SPLINE
  5
426
330
1F
100
AcDbEntity
  8
0
  6
Continuous
 62
     7
370
    25
100
AcDbSpline
210
0.0
220
0.0
230
1.0
 70
     8
 71
     3
 72
    10
 73
     6
 74
     0
 42
0.00000001
 43
0.00000001
 40
0.0
 40
0.0
 40
0.0
 40
0.0
 40
0.0700857677747261
 40
0.5307822340229847
 40
1.0
 40
1.0
 40
1.0
 40
1.0
 10
368.8865074001921
 20
107.2282256707706
 30
0.0
 10
368.8532896205762
 20
107.225402644039
 30
0.0
 10
368.6017206097257
 20
107.2040229476628
 30
0.0
 10
368.1782648341447
 20
107.1930773199496
 30
0.0
 10
367.8769544732756
 20
107.229322349368
 30
0.0
 10
367.7249187591277
 20
107.2476109303383
 30
0.0
  0
LINE
  5
427
330
1F
100
AcDbEntity
  8
0
  6
Continuous
 62
     7
370
    25
100
AcDbLine
 10
369.5229035033
 20
108.2855654296
 30
0.0
 11
367.7249187591
 21
107.2476109303
 31
0.0
  0
LINE
  5
428
330
1F
100
AcDbEntity
  8
0
  6
Continuous
 62
     7
370
    25
100
AcDbLine
 10
369.5229035033
 20
108.2855654296
 30
0.0
 11
370.9371170656
 21
108.4120174329
 31
0.0
  0
SPLINE
  5
429
330
1F
100
AcDbEntity
  8
0
  6
Continuous
 62
     7
370
    25
100
AcDbSpline
210
0.0
220
0.0
230
1.0
 70
     8
 71
     3
 72
    10
 73
     6
 74
     0
 42
0.00000001
 43
0.00000001
 40
0.0
 40
0.0
 40
0.0
 40
0.0
 40
0.070085767774724
 40
0.5307822340229834
 40
1.0
 40
1.0
 40
1.0
 40
1.0
 10
371.7149345249383
 20
99.93824875656657
 30
0.0
 10
371.7487555083906
 20
99.94142000546083
 30
0.0
 10
372.0048927773915
 20
99.96543690113292
 30
0.0
 10
372.5386957924159
 20
100.0400846342393
 30
0.0
 10
373.0990357054623
 20
100.1533741823599
 30
0.0
 10
373.38177300862
 20
100.210538022675
 30
0.0
  0
ARC
  5
42A
330
1F
100
AcDbEntity
  8
0
  6
Continuous
 62
     7
370
    25
100
AcDbCircle
 10
377.2818169588
 20
107.6099700191
 30
0.0
 40
3.834293571853814
100
AcDbArc
 50
3.588793584
 51
57.4983312327
  0
SPLINE
  5
42B
330
1F
100
AcDbEntity
  8
0
  6
Continuous
 62
     7
370
    25
100
AcDbSpline
210
0.0
220
0.0
230
1.0
 70
     8
 71
     3
 72
    10
 73
     6
 74
     0
 42
0.00000001
 43
0.00000001
 40
0.0
 40
0.0
 40
0.0
 40
0.0
 40
0.3909524037316078
 40
0.7858548843188062
 40
1.0
 40
1.0
 40
1.0
 40
1.0
 10
367.7249187591277
 20
107.2476109303383
 30
0.0
 10
367.6697441569898
 20
106.974531013892
 30
0.0
 10
367.5588374835264
 20
106.4256120557264
 30
0.0
 10
367.4825155704219
 20
105.7470953035386
 30
0.0
 10
367.4749529164029
 20
105.3541985158885
 30
0.0
 10
367.472293837819
 20
105.216053437314
 30
0.0
  0
SPLINE
  5
42C
330
1F
100
AcDbEntity
  8
0
  6
Continuous
 62
     7
370
    25
100
AcDbSpline
210
0.0
220
0.0
230
1.0
 70
     8
 71
     3
 72
    10
 73
     6
 74
     0
 42
0.00000001
 43
0.00000001
 40
0.0
 40
0.0
 40
0.0
 40
0.0
 40
0.0700857677747298
 40
0.5307822340229839
 40
1.0
 40
1.0
 40
1.0
 40
1.0
 10
368.8865074001921
 20
101.571064980212
 30
0.0
 10
368.9203283836443
 20
101.5295412993277
 30
0.0
 10
369.1764656526454
 20
101.2150690062445
 30
0.0
 10
369.7102686676697
 20
100.651509641429
 30
0.0
 10
370.2706085807161
 20
100.1903345556009
 30
0.0
 10
370.5533458838738
 20
99.95763401613422
 30
0.0
  0
SPLINE
  5
42D
330
1F
100
AcDbEntity
  8
0
  6
Continuous
 62
     7
370
    25
100
AcDbSpline
210
0.0
220
0.0
230
1.0
 70
     8
 71
     3
 72
     9
 73
     5
 74
     0
 42
0.00000001
 43
0.00000001
 40
0.0
 40
0.0
 40
0.0
 40
0.0
 40
0.4954579634770066
 40
1.0
 40
1.0
 40
1.0
 40
1.0
 10
370.5533458838738
 20
99.95763401613424
 30
0.0
 10
370.7124122195594
 20
99.93740915188884
 30
0.0
 10
371.0334613244507
 20
99.89658860658274
 30
0.0
 10
371.4864052661583
 20
99.92427819515687
 30
0.0
 10
371.7149345249383
 20
99.93824875656657
 30
0.0
  0
SPLINE
  5
42E
330
1F
100
AcDbEntity
  8
0
  6
Continuous
 62
     7
370
    25
100
AcDbSpline
210
0.0
220
0.0
230
1.0
 70
     8
 71
     3
 72
     9
 73
     5
 74
     0
 42
0.00000001
 43
0.00000001
 40
0.0
 40
0.0
 40
0.0
 40
0.0
 40
0.495457963477007
 40
1.0
 40
1.0
 40
1.0
 40
1.0
 10
367.7249187591276
 20
103.4761704699657
 30
0.0
 10
367.8839850948132
 20
103.1496963502551
 30
0.0
 10
368.2050341997046
 20
102.4907623058418
 30
0.0
 10
368.6579781414122
 20
101.8794817278958
 30
0.0
 10
368.8865074001921
 20
101.571064980212
 30
0.0
  0
SPLINE
  5
42F
330
1F
100
AcDbEntity
  8
0
  6
Continuous
 62
     7
370
    25
100
AcDbSpline
210
0.0
220
0.0
230
1.0
 70
     8
 71
     3
 72
    10
 73
     6
 74
     0
 42
0.00000001
 43
0.00000001
 40
0.0
 40
0.0
 40
0.0
 40
0.0
 40
0.4026080277071247
 40
0.8115881349292654
 40
1.0
 40
1.0
 40
1.0
 40
1.0
 10
367.472293837819
 20
105.216053437314
 30
0.0
 10
367.4813342572714
 20
104.9643366512891
 30
0.0
 10
367.4995581789454
 20
104.4569191562537
 30
0.0
 10
367.6096229699171
 20
103.8927363912154
 30
0.0
 10
367.6972743348489
 20
103.5760503107296
 30
0.0
 10
367.7249187591276
 20
103.4761704699657
 30
0.0
  0
ARC
  5
430
330
1F
100
AcDbEntity
  8
0
  6
Continuous
 62
     7
370
    25
100
AcDbCircle
 10
377.9070276505
 20
107.974264599
 30
0.0
 40
3.205842575835195
100
AcDbArc
 50
2.60583048
 51
57.3887929873
  0
LINE
  5
431
330
1F
100
AcDbEntity
  8
0
  6
Continuous
 62
     7
370
    25
100
AcDbLine
 10
322.1467491638
 20
136.5780972908
 30
0.0
 11
323.5609627261
 21
134.8188290639
 31
0.0
  0
LINE
  5
432
330
1F
100
AcDbEntity
  8
0
  6
Continuous
 62
     7
370
    25
100
AcDbLine
 10
323.5609627261
 20
134.8188290639
 30
0.0
 11
321.762977982
 21
133.7808745646
 31
0.0
  0
SPLINE
  5
433
330
1F
100
AcDbEntity
  8
0
  6
Continuous
 62
     7
370
    25
100
AcDbSpline
210
0.0
220
0.0
230
1.0
 70
     8
 71
     3
 72
     9
 73
     5
 74
     0
 42
0.00000001
 43
0.00000001
 40
0.0
 40
0.0
 40
0.0
 40
0.0
 40
0.4954579634770062
 40
1.0
 40
1.0
 40
1.0
 40
1.0
 10
321.7629779820022
 20
133.7808745645764
 30
0.0
 10
321.462695318178
 20
134.0258262333068
 30
0.0
 10
320.8566243980197
 20
134.5202206860902
 30
0.0
 10
320.3511650082264
 20
135.1011847411617
 30
0.0
 10
320.0961394983204
 20
135.3943055286541
 30
0.0
  0
SPLINE
  5
434
330
1F
100
AcDbEntity
  8
0
  6
Continuous
 62
     7
370
    25
100
AcDbSpline
210
0.0
220
0.0
230
1.0
 70
     8
 71
     3
 72
    10
 73
     6
 74
     0
 42
0.00000001
 43
0.00000001
 40
0.0
 40
0.0
 40
0.0
 40
0.0
 40
0.0700857677747266
 40
0.5307822340229833
 40
1.0
 40
1.0
 40
1.0
 40
1.0
 10
320.0961394983204
 20
135.3943055286541
 30
0.0
 10
320.0629217187046
 20
135.436177431701
 30
0.0
 10
319.811352707854
 20
135.7532869240801
 30
0.0
 10
319.387896932273
 20
136.3805483942888
 30
0.0
 10
319.0865865714039
 20
136.9912580576559
 30
0.0
 10
318.934550857256
 20
137.299411018408
 30
0.0
  0
LINE
  5
435
330
1F
100
AcDbEntity
  8
0
  6
Continuous
 62
     7
370
    25
100
AcDbLine
 10
320.7325356014
 20
138.3373655177
 30
0.0
 11
318.9345508573
 21
137.2994110184
 31
0.0
  0
LINE
  5
436
330
1F
100
AcDbEntity
  8
0
  6
Continuous
 62
     7
370
    25
100
AcDbLine
 10
320.7325356014
 20
138.3373655177
 30
0.0
 11
322.1467491638
 21
136.5780972908
 31
0.0
  0
ARC
  5
437
330
1F
100
AcDbEntity
  8
0
  6
Continuous
 62
     7
370
    25
100
AcDbCircle
 10
317.0493036546
 20
133.38262247
 30
0.0
 40
3.651037850734955
100
AcDbArc
 50
33.4349146449
 51
86.5704618878
  0
ARC
  5
438
330
1F
100
AcDbEntity
  8
0
  6
Continuous
 62
     7
370
    25
100
AcDbCircle
 10
315.3772881765
 20
131.4666020166
 30
0.0
 40
6.139577564932363
100
AcDbArc
 50
2.6392873612
 51
39.7720723791
  0
ARC
  5
439
330
1F
100
AcDbEntity
  8
0
  6
Continuous
 62
     7
370
    25
100
AcDbCircle
 10
319.7741615035
 20
131.4665018671
 30
0.0
 40
1.759075201063217
100
AcDbArc
 50
280.5467778285
 51
9.2518791787
  0
ARC
  5
43A
330
1F
100
AcDbEntity
  8
0
  6
Continuous
 62
     7
370
    25
100
AcDbCircle
 10
320.3145482173
 20
133.3816441204
 30
0.0
 40
3.651037850734943
100
AcDbArc
 50
213.4349146449
 51
266.5704618878
  0
ARC
  5
43B
330
1F
100
AcDbEntity
  8
0
  6
Continuous
 62
     7
370
    25
100
AcDbCircle
 10
321.9865636954
 20
135.2976645738
 30
0.0
 40
6.139577564932381
100
AcDbArc
 50
182.6392873612
 51
219.7720723791
  0
ARC
  5
43C
330
1F
100
AcDbEntity
  8
0
  6
Continuous
 62
     7
370
    25
100
AcDbCircle
 10
317.5896903684
 20
135.2977647233
 30
0.0
 40
1.759075201063369
100
AcDbArc
 50
100.5467778285
 51
189.2518791787
  0
SPLINE
  5
43D
330
1F
100
AcDbEntity
  8
0
  6
Continuous
 62
     7
370
    25
100
AcDbSpline
210
0.0
220
0.0
230
1.0
 70
     8
 71
     3
 72
    10
 73
     6
 74
     0
 42
0.00000001
 43
0.00000001
 40
0.0
 40
0.0
 40
0.0
 40
0.0
 40
0.2141446608865667
 40
0.6047163562828055
 40
1.0
 40
1.0
 40
1.0
 40
1.0
 10
321.5103530606935
 20
131.7493170715521
 30
0.0
 10
321.513011189476
 20
131.8874615830266
 30
0.0
 10
321.5205173955389
 20
132.2775635135324
 30
0.0
 10
321.5964182852317
 20
132.9558639220885
 30
0.0
 10
321.7072365961086
 20
133.5047739383092
 30
0.0
 10
321.7629779820022
 20
133.7808745645764
 30
0.0
  0
SPLINE
  5
43E
330
1F
100
AcDbEntity
  8
0
  6
Continuous
 62
     7
370
    25
100
AcDbSpline
210
0.0
220
0.0
230
1.0
 70
     8
 71
     3
 72
     9
 73
     5
 74
     0
 42
0.00000001
 43
0.00000001
 40
0.0
 40
0.0
 40
0.0
 40
0.0
 40
0.4954579634770076
 40
1.0
 40
1.0
 40
1.0
 40
1.0
 10
318.934550857256
 20
137.299411018408
 30
0.0
 10
318.6342681934318
 20
137.2381134316731
 30
0.0
 10
318.0281972732735
 20
137.1143943853493
 30
0.0
 10
317.5227378834803
 20
137.0563882739006
 30
0.0
 10
317.2677123735742
 20
137.0271217522995
 30
0.0
  0
LINE
  5
43F
330
1F
100
AcDbEntity
  8
0
  6
Continuous
 62
     7
370
    25
100
AcDbLine
 10
323.5609627261
 20
132.9331088337
 30
0.0
 11
323.5609627261
 21
131.0473886035
 31
0.0
  0
LINE
  5
440
330
1F
100
AcDbEntity
  8
0
  6
Continuous
 62
     7
370
    25
100
AcDbLine
 10
323.5609627261
 20
131.0473886035
 30
0.0
 11
321.762977982
 21
130.0094341042
 31
0.0
  0
SPLINE
  5
441
330
1F
100
AcDbEntity
  8
0
  6
Continuous
 62
     7
370
    25
100
AcDbSpline
210
0.0
220
0.0
230
1.0
 70
     8
 71
     3
 72
    10
 73
     6
 74
     0
 42
0.00000001
 43
0.00000001
 40
0.0
 40
0.0
 40
0.0
 40
0.0
 40
0.1884124237452142
 40
0.5914149639921916
 40
1.0
 40
1.0
 40
1.0
 40
1.0
 10
321.7629779820022
 20
130.009434104204
 30
0.0
 10
321.7353337977154
 20
130.1093145528732
 30
0.0
 10
321.6485604102202
 20
130.4228331137995
 30
0.0
 10
321.5381183427485
 20
130.9866460905229
 30
0.0
 10
321.5196504983299
 20
131.4939302950303
 30
0.0
 10
321.5103530606935
 20
131.7493170715521
 30
0.0
  0
LINE
  5
442
330
1F
100
AcDbEntity
  8
0
  6
Continuous
 62
     7
370
    25
100
AcDbLine
 10
323.5609627261
 20
134.8188290639
 30
0.0
 11
323.5609627261
 21
132.9331088337
 31
0.0
  0
ARC
  5
443
330
1F
100
AcDbEntity
  8
0
  6
Continuous
 62
     7
370
    25
100
AcDbCircle
 10
319.708864108
 20
136.6720696864
 30
0.0
 40
1.668671256372912
100
AcDbArc
 50
75.0566198571
 51
115.162416205
  0
ARC
  5
444
330
1F
100
AcDbEntity
  8
0
  6
Continuous
 62
     7
370
    25
100
AcDbCircle
 10
317.5720760913
 20
132.7629444347
 30
0.0
 40
6.200221216339009
100
AcDbArc
 50
22.6530462043
 51
54.9360969922
  0
ARC
  5
445
330
1F
100
AcDbEntity
  8
0
  6
Continuous
 62
     7
370
    25
100
AcDbCircle
 10
320.200307163
 20
133.1780312672
 30
0.0
 40
3.58248135615084
100
AcDbArc
 50
339.731644681
 51
20.268355319
  0
LINE
  5
446
330
1F
100
AcDbEntity
  8
0
  6
Continuous
 62
     7
370
    25
100
AcDbLine
 10
319.318322039
 20
138.2109135144
 30
0.0
 11
320.7325356014
 21
138.3373655177
 31
0.0
  0
SPLINE
  5
447
330
1F
100
AcDbEntity
  8
0
  6
Continuous
 62
     7
370
    25
100
AcDbSpline
210
0.0
220
0.0
230
1.0
 70
     8
 71
     3
 72
    10
 73
     6
 74
     0
 42
0.00000001
 43
0.00000001
 40
0.0
 40
0.0
 40
0.0
 40
0.0
 40
0.0700857677747261
 40
0.5307822340229847
 40
1.0
 40
1.0
 40
1.0
 40
1.0
 10
317.2677123735742
 20
137.0271217522995
 30
0.0
 10
317.2344945939583
 20
137.0242987255679
 30
0.0
 10
316.9829255831078
 20
137.0029190291917
 30
0.0
 10
316.5594698075268
 20
136.9919734014785
 30
0.0
 10
316.2581594466578
 20
137.0282184308969
 30
0.0
 10
316.1061237325098
 20
137.0465070118672
 30
0.0
  0
LINE
  5
448
330
1F
100
AcDbEntity
  8
0
  6
Continuous
 62
     7
370
    25
100
AcDbLine
 10
317.9041084766
 20
138.0844615112
 30
0.0
 11
316.1061237325
 21
137.0465070119
 31
0.0
  0
LINE
  5
449
330
1F
100
AcDbEntity
  8
0
  6
Continuous
 62
     7
370
    25
100
AcDbLine
 10
317.9041084766
 20
138.0844615112
 30
0.0
 11
319.318322039
 21
138.2109135144
 31
0.0
  0
SPLINE
  5
44A
330
1F
100
AcDbEntity
  8
0
  6
Continuous
 62
     7
370
    25
100
AcDbSpline
210
0.0
220
0.0
230
1.0
 70
     8
 71
     3
 72
    10
 73
     6
 74
     0
 42
0.00000001
 43
0.00000001
 40
0.0
 40
0.0
 40
0.0
 40
0.0
 40
0.070085767774724
 40
0.5307822340229834
 40
1.0
 40
1.0
 40
1.0
 40
1.0
 10
320.0961394983204
 20
129.7371448380955
 30
0.0
 10
320.1299604817727
 20
129.7403160869897
 30
0.0
 10
320.3860977507737
 20
129.7643329826618
 30
0.0
 10
320.919900765798
 20
129.8389807157682
 30
0.0
 10
321.4802406788444
 20
129.9522702638888
 30
0.0
 10
321.7629779820022
 20
130.009434104204
 30
0.0
  0
ARC
  5
44B
330
1F
100
AcDbEntity
  8
0
  6
Continuous
 62
     7
370
    25
100
AcDbCircle
 10
325.6230936477
 20
137.3685105511
 30
0.0
 40
3.885588739381462
100
AcDbArc
 50
11.7635093937
 51
58.4795827722
  0
SPLINE
  5
44C
330
1F
100
AcDbEntity
  8
0
  6
Continuous
 62
     7
370
    25
100
AcDbSpline
210
0.0
220
0.0
230
1.0
 70
     8
 71
     3
 72
    10
 73
     6
 74
     0
 42
0.00000001
 43
0.00000001
 40
0.0
 40
0.0
 40
0.0
 40
0.0
 40
0.3909524037316078
 40
0.7858548843188062
 40
1.0
 40
1.0
 40
1.0
 40
1.0
 10
316.1061237325098
 20
137.0465070118672
 30
0.0
 10
316.0509491303719
 20
136.7734270954209
 30
0.0
 10
315.9400424569085
 20
136.2245081372553
 30
0.0
 10
315.863720543804
 20
135.5459913850675
 30
0.0
 10
315.8561578897849
 20
135.1530945974174
 30
0.0
 10
315.8534988112011
 20
135.0149495188429
 30
0.0
  0
SPLINE
  5
44D
330
1F
100
AcDbEntity
  8
0
  6
Continuous
 62
     7
370
    25
100
AcDbSpline
210
0.0
220
0.0
230
1.0
 70
     8
 71
     3
 72
    10
 73
     6
 74
     0
 42
0.00000001
 43
0.00000001
 40
0.0
 40
0.0
 40
0.0
 40
0.0
 40
0.0700857677747298
 40
0.5307822340229839
 40
1.0
 40
1.0
 40
1.0
 40
1.0
 10
317.2677123735742
 20
131.3699610617409
 30
0.0
 10
317.3015333570265
 20
131.3284373808566
 30
0.0
 10
317.5576706260275
 20
131.0139650877735
 30
0.0
 10
318.0914736410518
 20
130.4504057229579
 30
0.0
 10
318.6518135540982
 20
129.9892306371298
 30
0.0
 10
318.934550857256
 20
129.7565300976632
 30
0.0
  0
SPLINE
  5
44E
330
1F
100
AcDbEntity
  8
0
  6
Continuous
 62
     7
370
    25
100
AcDbSpline
210
0.0
220
0.0
230
1.0
 70
     8
 71
     3
 72
     9
 73
     5
 74
     0
 42
0.00000001
 43
0.00000001
 40
0.0
 40
0.0
 40
0.0
 40
0.0
 40
0.4954579634770066
 40
1.0
 40
1.0
 40
1.0
 40
1.0
 10
318.934550857256
 20
129.7565300976631
 30
0.0
 10
319.0936171929416
 20
129.7363052334178
 30
0.0
 10
319.4146662978328
 20
129.6954846881117
 30
0.0
 10
319.8676102395405
 20
129.7231742766858
 30
0.0
 10
320.0961394983204
 20
129.7371448380955
 30
0.0
  0
SPLINE
  5
44F
330
1F
100
AcDbEntity
  8
0
  6
Continuous
 62
     7
370
    25
100
AcDbSpline
210
0.0
220
0.0
230
1.0
 70
     8
 71
     3
 72
     9
 73
     5
 74
     0
 42
0.00000001
 43
0.00000001
 40
0.0
 40
0.0
 40
0.0
 40
0.0
 40
0.495457963477007
 40
1.0
 40
1.0
 40
1.0
 40
1.0
 10
316.1061237325097
 20
133.2750665514947
 30
0.0
 10
316.2651900681953
 20
132.948592431784
 30
0.0
 10
316.5862391730867
 20
132.2896583873708
 30
0.0
 10
317.0391831147943
 20
131.6783778094247
 30
0.0
 10
317.2677123735742
 20
131.3699610617409
 30
0.0
  0
SPLINE
  5
450
330
1F
100
AcDbEntity
  8
0
  6
Continuous
 62
     7
370
    25
100
AcDbSpline
210
0.0
220
0.0
230
1.0
 70
     8
 71
     3
 72
    10
 73
     6
 74
     0
 42
0.00000001
 43
0.00000001
 40
0.0
 40
0.0
 40
0.0
 40
0.0
 40
0.4026080277071247
 40
0.8115881349292654
 40
1.0
 40
1.0
 40
1.0
 40
1.0
 10
315.8534988112011
 20
135.0149495188429
 30
0.0
 10
315.8625392306535
 20
134.763232732818
 30
0.0
 10
315.8807631523276
 20
134.2558152377826
 30
0.0
 10
315.9908279432992
 20
133.6916324727443
 30
0.0
 10
316.078479308231
 20
133.3749463922586
 30
0.0
 10
316.1061237325097
 20
133.2750665514947
 30
0.0
  0
ARC
  5
451
330
1F
100
AcDbEntity
  8
0
  6
Continuous
 62
     7
370
    25
100
AcDbCircle
 10
326.2543129975
 20
137.7439468159
 30
0.0
 40
3.248756604862125
100
AcDbArc
 50
6.8264284839
 51
57.162560198
  0
LINE
  5
452
330
1F
100
AcDbEntity
  8
0
  6
Continuous
 62
     7
370
    25
100
AcDbLine
 10
370.9724724047
 20
121.5262272471
 30
0.0
 11
369.5582588423
 21
122.3426353589
 31
0.0
  0
LINE
  5
453
330
1F
100
AcDbEntity
  8
0
  6
Continuous
 62
     7
370
    25
100
AcDbLine
 10
376.4525499589
 20
112.2385897247
 30
0.0
 11
376.3929275446
 21
112.339637815
 31
0.0
  0
LINE
  5
454
330
1F
100
AcDbEntity
  8
0
  6
Continuous
 62
     7
370
    25
100
AcDbLine
 10
375.5392036999
 20
113.7865293117
 30
0.0
 11
370.9724724047
 21
121.5262272471
 31
0.0
  0
LINE
  5
455
330
1F
100
AcDbEntity
  8
0
  6
Continuous
 62
     7
370
    25
100
AcDbLine
 10
382.6397342943
 20
88.4574191413
 30
0.0
 11
376.4525499589
 21
112.2385897247
 31
0.0
  0
LINE
  5
456
330
1F
100
AcDbEntity
  8
0
  6
Continuous
 62
     7
370
    25
100
AcDbLine
 10
382.1773085232
 20
88.7243718567
 30
0.0
 11
382.6397342943
 21
88.4574191413
 31
0.0
  0
LINE
  5
457
330
1F
100
AcDbEntity
  8
0
  6
Continuous
 62
     7
370
    25
100
AcDbLine
 10
323.9498714558
 20
148.6717969652
 30
0.0
 11
319.3831401606
 21
146.204734752
 31
0.0
  0
LINE
  5
458
330
1F
100
AcDbEntity
  8
0
  6
Continuous
 62
     7
370
    25
100
AcDbLine
 10
325.3640850182
 20
147.8553888534
 30
0.0
 11
323.9498714558
 21
148.6717969652
 31
0.0
  0
LINE
  5
459
330
1F
100
AcDbEntity
  8
0
  6
Continuous
 62
     7
370
    25
100
AcDbLine
 10
325.3640850182
 20
140.9147919524
 30
0.0
 11
325.3640850182
 21
147.8553888534
 31
0.0
  0
ARC
  5
45A
330
1F
100
AcDbEntity
  8
0
  6
Continuous
 62
     7
370
    25
100
AcDbCircle
 10
328.4345172209
 20
141.0545136569
 30
0.0
 40
3.073609615144227
100
AcDbArc
 50
182.6054784857
 51
237.39452166
  0
LINE
  5
45B
330
1F
100
AcDbEntity
  8
0
  6
Continuous
 62
     7
370
    25
100
AcDbLine
 10
328.3789341039
 20
137.5412749976
 30
0.0
 11
326.7782985805
 21
138.4653022168
 31
0.0
  0
ARC
  5
45C
330
1F
100
AcDbEntity
  8
0
  6
Continuous
 62
     7
370
    25
100
AcDbCircle
 10
327.466598654
 20
136.0166882725
 30
0.0
 40
1.776716256381382
100
AcDbArc
 50
350.1532804642
 51
59.1030682137
  0
LINE
  5
45D
330
1F
100
AcDbEntity
  8
0
  6
Continuous
 62
     7
370
    25
100
AcDbLine
 10
327.0360327313
 20
129.4444805254
 30
0.0
 11
329.2171417131
 21
135.7128467776
 31
0.0
  0
ARC
  5
45E
330
1F
100
AcDbEntity
  8
0
  6
Continuous
 62
     7
370
    25
100
AcDbCircle
 10
329.806952674
 20
128.944604615
 30
0.0
 40
2.815647928040148
100
AcDbArc
 50
169.7737896606
 51
239.4825590173
  0
LINE
  5
45F
330
1F
100
AcDbEntity
  8
0
  6
Continuous
 62
     7
370
    25
100
AcDbLine
 10
366.5451789545
 20
104.4850698685
 30
0.0
 11
328.377164906
 21
126.5189953734
 31
0.0
  0
ARC
  5
460
330
1F
100
AcDbEntity
  8
0
  6
Continuous
 62
     7
370
    25
100
AcDbCircle
 10
367.129676733
 20
105.2892769327
 30
0.0
 40
0.9941763703148067
100
AcDbArc
 50
233.9903419061
 51
294.6991996648
  0
LINE
  5
461
330
1F
100
AcDbEntity
  8
0
  6
Continuous
 62
     7
370
    25
100
AcDbLine
 10
365.7052021474
 20
114.648737851
 30
0.0
 11
365.7400629632
 21
114.5083006781
 31
0.0
  0
LWPOLYLINE
  5
462
330
1F
100
AcDbEntity
  8
0
  6
Continuous
 62
     7
370
    25
100
AcDbPolyline
 90
        9
 70
   128
 43
0.0
 10
366.5434097566
 20
115.5093921651
 10
366.3361338525
 20
115.6005881331
 10
366.140417853
 20
115.6297743169
 10
365.9671769598
 20
115.595322985
 10
365.826072924
 20
115.4991555095
 10
365.7249752045
 20
115.3466352097
 10
365.6695220832
 20
115.1462682363
 10
365.6628062148
 20
114.9092291788
 10
365.7052021474
 20
114.648737851
  0
LINE
  5
463
330
1F
100
AcDbEntity
  8
0
  6
Continuous
 62
     7
370
    25
100
AcDbLine
 10
368.1440452799
 20
114.585364946
 30
0.0
 11
366.5434097566
 21
115.5093921651
 31
0.0
  0
ARC
  5
464
330
1F
100
AcDbEntity
  8
0
  6
Continuous
 62
     7
370
    25
100
AcDbCircle
 10
368.6961101075
 20
115.2621840641
 30
0.0
 40
0.8734183948569102
100
AcDbArc
 50
230.7967147643
 51
9.2140369905
  0
LINE
  5
465
330
1F
100
AcDbEntity
  8
0
  6
Continuous
 62
     7
370
    25
100
AcDbLine
 10
369.5582588423
 20
122.3426353589
 30
0.0
 11
369.5582588423
 21
115.606306361
 31
0.0
  0
LINE
  5
466
330
1F
100
AcDbEntity
  8
0
  6
Continuous
 62
     7
370
    25
100
AcDbLine
 10
382.6397342943
 20
88.4574191413
 30
0.0
 11
383.7003944661
 21
89.0697252251
 31
0.0
  0
LINE
  5
467
330
1F
100
AcDbEntity
  8
0
  6
Continuous
 62
     7
370
    25
100
AcDbLine
 10
376.4525499589
 20
112.2385897247
 30
0.0
 11
377.5132101307
 21
112.8508958085
 31
0.0
  0
LINE
  5
468
330
1F
100
AcDbEntity
  8
0
  6
Continuous
 62
     7
370
    25
100
AcDbLine
 10
383.7003944661
 20
89.0697252251
 30
0.0
 11
377.5132101307
 21
112.8508958085
 31
0.0
  0
LINE
  5
469
330
1F
100
AcDbEntity
  8
0
  6
Continuous
 62
     7
370
    25
100
AcDbLine
 10
370.9724724047
 20
121.5262272471
 30
0.0
 11
372.0331325765
 21
122.138533331
 31
0.0
  0
LINE
  5
46A
330
1F
100
AcDbEntity
  8
0
  6
Continuous
 62
     7
370
    25
100
AcDbLine
 10
377.5132101307
 20
112.8508958085
 30
0.0
 11
372.0331325765
 21
122.138533331
 31
0.0
  0
LINE
  5
46B
330
1F
100
AcDbEntity
  8
0
  6
Continuous
 62
     7
370
    25
100
AcDbLine
 10
369.5582588423
 20
122.3426353589
 30
0.0
 11
370.6189190141
 21
122.9549414428
 31
0.0
  0
LINE
  5
46C
330
1F
100
AcDbEntity
  8
0
  6
Continuous
 62
     7
370
    25
100
AcDbLine
 10
372.0331325765
 20
122.138533331
 30
0.0
 11
370.6189190141
 21
122.9549414428
 31
0.0
  0
LWPOLYLINE
  5
46D
330
1F
100
AcDbEntity
  8
0
  6
Continuous
 62
     7
370
    25
100
AcDbPolyline
 90
        3
 70
   128
 43
0.0
 10
369.2047054517
 20
115.1976710298
 10
369.480604831
 20
115.0697769139
 10
369.5221246679
 20
115.056095633
  0
LINE
  5
46E
330
1F
100
AcDbEntity
  8
0
  6
Continuous
 62
     7
370
    25
100
AcDbLine
 10
369.2047054517
 20
115.1976710298
 30
0.0
 11
367.6040699284
 21
116.121698249
 31
0.0
  0
ARC
  5
46F
330
1F
100
AcDbEntity
  8
0
  6
Continuous
 62
     7
370
    25
100
AcDbCircle
 10
367.2402353963
 20
115.6339801406
 30
0.0
 40
0.6084772140773076
100
AcDbArc
 50
53.2773011525
 51
115.4122404184
  0
LINE
  5
470
330
1F
100
AcDbEntity
  8
0
  6
Continuous
 62
     7
370
    25
100
AcDbLine
 10
367.3308677082
 20
105.2561135732
 30
0.0
 11
329.4378250778
 21
127.1313014572
 31
0.0
  0
LINE
  5
471
330
1F
100
AcDbEntity
  8
0
  6
Continuous
 62
     7
370
    25
100
AcDbLine
 10
325.3640850182
 20
147.8553888534
 30
0.0
 11
326.4247451899
 21
148.4676949373
 31
0.0
  0
LINE
  5
472
330
1F
100
AcDbEntity
  8
0
  6
Continuous
 62
     7
370
    25
100
AcDbLine
 10
323.9498714558
 20
148.6717969652
 30
0.0
 11
325.0105316276
 21
149.2841030491
 31
0.0
  0
LINE
  5
473
330
1F
100
AcDbEntity
  8
0
  6
Continuous
 62
     7
370
    25
100
AcDbLine
 10
326.4247451899
 20
148.4676949373
 30
0.0
 11
325.0105316276
 21
149.2841030491
 31
0.0
  0
LINE
  5
474
330
1F
100
AcDbEntity
  8
0
  6
Continuous
 62
     7
370
    25
100
AcDbLine
 10
326.4247451899
 20
141.5270980362
 30
0.0
 11
326.4247451899
 21
148.4676949373
 31
0.0
  0
LINE
  5
475
330
1F
100
AcDbEntity
  8
0
  6
Continuous
 62
     7
370
    25
100
AcDbLine
 10
319.3538210457
 20
146.2216603168
 30
0.0
 11
319.5304540734
 21
146.3236283933
 31
0.0
  0
LINE
  5
476
330
1F
100
AcDbEntity
  8
0
  6
Continuous
 62
     7
370
    25
100
AcDbLine
 10
325.0105316276
 20
149.2841030491
 30
0.0
 11
319.5304540734
 21
146.3236283933
 31
0.0
  0
ARC
  5
477
330
1F
100
AcDbEntity
  8
0
  6
Continuous
 62
     7
370
    25
100
AcDbCircle
 10
328.5272588258
 20
136.6289943563
 30
0.0
 40
1.776716256381591
100
AcDbArc
 50
350.1532804642
 51
59.1030682136
  0
LINE
  5
478
330
1F
100
AcDbEntity
  8
0
  6
Continuous
 62
     7
370
    25
100
AcDbLine
 10
329.4395942756
 20
138.1535810815
 30
0.0
 11
327.8389587523
 21
139.0776083006
 31
0.0
  0
ARC
  5
479
330
1F
100
AcDbEntity
  8
0
  6
Continuous
 62
     7
370
    25
100
AcDbCircle
 10
329.4951773927
 20
141.6668197408
 30
0.0
 40
3.073609615143906
100
AcDbArc
 50
182.6054784857
 51
237.39452166
  0
LINE
  5
47A
330
1F
100
AcDbEntity
  8
0
  6
Continuous
 62
     7
370
    25
100
AcDbLine
 10
328.0966929031
 20
130.0567866093
 30
0.0
 11
330.2778018848
 21
136.3251528615
 31
0.0
  0
ARC
  5
47B
330
1F
100
AcDbEntity
  8
0
  6
Continuous
 62
     7
370
    25
100
AcDbCircle
 10
330.8907143072
 20
129.5675011178
 30
0.0
 40
2.836539423141947
100
AcDbArc
 50
170.0671538107
 51
239.1891948672
  0
LINE
  5
47C
330
1F
100
AcDbEntity
  8
0
  6
Continuous
 62
     7
370
    25
100
AcDbLine
 10
376.5998638716
 20
114.3988353956
 30
0.0
 11
377.1596567401
 21
114.0756738513
 31
0.0
  0
LINE
  5
47D
330
1F
100
AcDbEntity
  8
0
  6
Continuous
 62
     7
370
    25
100
AcDbLine
 10
377.1596567401
 20
114.0756738513
 30
0.0
 11
377.4535877164
 21
112.9519438989
 31
0.0
  0
LINE
  5
47E
330
1F
100
AcDbEntity
  8
0
  6
Continuous
 62
     7
370
    25
100
AcDbLine
 10
319.5900764876
 20
146.3558379094
 30
0.0
 11
319.884007464
 21
147.1402023802
 31
0.0
  0
LINE
  5
47F
330
1F
100
AcDbEntity
  8
0
  6
Continuous
 62
     7
370
    25
100
AcDbLine
 10
319.884007464
 20
147.1402023802
 30
0.0
 11
320.4438003324
 21
146.8170408359
 31
0.0
  0
LINE
  5
480
330
1F
100
AcDbEntity
  8
0
  6
Continuous
 62
     7
370
    25
100
AcDbLine
 10
377.1596567401
 20
114.0756738513
 30
0.0
 11
377.8667635213
 21
114.4838779073
 31
0.0
  0
LINE
  5
481
330
1F
100
AcDbEntity
  8
0
  6
Continuous
 62
     7
370
    25
100
AcDbLine
 10
377.8667635213
 20
114.4838779073
 30
0.0
 11
384.0632823461
 21
90.7939154159
 31
0.0
  0
LINE
  5
482
330
1F
100
AcDbEntity
  8
0
  6
Continuous
 62
     7
370
    25
100
AcDbLine
 10
384.0632823461
 20
90.7939154159
 30
0.0
 11
383.3577724529
 21
90.3866332238
 31
0.0
  0
LINE
  5
483
330
1F
100
AcDbEntity
  8
0
  6
Continuous
 62
     7
370
    25
100
AcDbLine
 10
375.8693056103
 20
115.6369858147
 30
0.0
 11
377.8667635213
 21
114.4838779073
 31
0.0
  0
SPLINE
  5
484
330
1F
100
AcDbEntity
  8
0
  6
Continuous
 62
     7
370
    25
100
AcDbSpline
210
0.0
220
0.0
230
1.0
 70
     8
 71
     3
 72
    12
 73
     8
 74
     0
 42
0.00000001
 43
0.00000001
 40
0.0
 40
0.0
 40
0.0
 40
0.0
 40
0.2335879420900805
 40
0.4537901450808405
 40
0.673987727261508
 40
0.8941852184809035
 40
1.0
 40
1.0
 40
1.0
 40
1.0
 10
383.356175564879
 20
90.3857113599543
 30
0.0
 10
383.3956585461341
 20
90.24078612152691
 30
0.0
 10
383.4723619394329
 20
89.95924057434075
 30
0.0
 10
383.7350216706146
 20
89.6779823505828
 30
0.0
 10
384.0720328813368
 20
89.53822236065274
 30
0.0
 10
384.4007346448382
 20
89.54359494481027
 30
0.0
 10
384.60245552382
 20
89.60752187824998
 30
0.0
 10
384.6679286747478
 20
89.62827083484076
 30
0.0
  0
SPLINE
  5
485
330
1F
100
AcDbEntity
  8
0
  6
Continuous
 62
     7
370
    25
100
AcDbSpline
210
0.0
220
0.0
230
1.0
 70
     8
 71
     3
 72
    11
 73
     7
 74
     0
 42
0.00000001
 43
0.00000001
 40
0.0
 40
0.0
 40
0.0
 40
0.0
 40
0.2472454926703041
 40
0.528213248957979
 40
0.8093312418985442
 40
0.9999999999999999
 40
0.9999999999999999
 40
0.9999999999999999
 40
0.9999999999999999
 10
384.0632823460656
 20
90.79391541586565
 30
0.0
 10
384.09548850599
 20
90.74082413838427
 30
0.0
 10
384.1642934827214
 20
90.62740036726966
 30
0.0
 10
384.324565616681
 20
90.5060684736112
 30
0.0
 10
384.5018774504804
 20
90.44575573938351
 30
0.0
 10
384.6201356074772
 20
90.44508337663434
 30
0.0
 10
384.6679286747478
 20
90.44481164672652
 30
0.0
  0
LINE
  5
486
330
1F
100
AcDbEntity
  8
0
  6
Continuous
 62
     7
370
    25
100
AcDbLine
 10
384.6679286747
 20
90.4448116467
 30
0.0
 11
384.6679286747
 21
89.6282708348
 31
0.0
  0
LINE
  5
487
330
1F
100
AcDbEntity
  8
0
  6
Continuous
 62
     7
370
    25
100
AcDbLine
 10
331.9048227441
 20
130.8087226421
 30
0.0
 11
331.7280460488
 21
126.0123249852
 31
0.0
  0
LINE
  5
488
330
1F
100
AcDbEntity
  8
0
  6
Continuous
 62
     7
370
    25
100
AcDbLine
 10
367.2702953747
 20
105.4942211895
 30
0.0
 11
331.7280460488
 21
126.0123249852
 31
0.0
  0
LINE
  5
489
330
1F
100
AcDbEntity
  8
0
  6
Continuous
 62
     7
370
    25
100
AcDbLine
 10
384.2307245519
 20
100.6016225047
 30
0.0
 11
381.5066589344
 21
100.5681635769
 31
0.0
  0
LINE
  5
48A
330
1F
100
AcDbEntity
  8
0
  6
Continuous
 62
     7
370
    25
100
AcDbLine
 10
384.2307245519
 20
100.6016225047
 30
0.0
 11
392.5392292309
 21
95.8052248477
 31
0.0
  0
ARC
  5
48B
330
1F
100
AcDbEntity
  8
0
  6
Continuous
 62
     7
370
    25
100
AcDbCircle
 10
392.3843022041
 20
95.3970207918
 30
0.0
 40
0.4366153168341985
100
AcDbArc
 50
290.7834207995
 51
69.2165792006
  0
LINE
  5
48C
330
1F
100
AcDbEntity
  8
0
  6
Continuous
 62
     7
370
    25
100
AcDbLine
 10
392.5392292309
 20
94.9888167359
 30
0.0
 11
384.6679286747
 21
90.4448116467
 31
0.0
  0
LINE
  5
48D
330
1F
100
AcDbEntity
  8
0
  6
Continuous
 62
     7
370
    25
100
AcDbLine
 10
329.3213007119
 20
132.3001581652
 30
0.0
 11
331.9048227441
 21
130.8087226421
 31
0.0
  0
ARC
  5
48E
330
1F
100
AcDbEntity
  8
0
  6
Continuous
 62
     7
370
    25
100
AcDbCircle
 10
383.7816024251
 20
94.6504606659
 30
0.0
 40
4.057185369574976
100
AcDbArc
 50
62.6601126049
 51
114.642219198
  0
LINE
  5
48F
330
1F
100
AcDbEntity
  8
0
  6
Continuous
 62
     7
370
    25
100
AcDbLine
 10
382.8039824183
 20
95.60835541
 30
0.0
 11
384.5842779425
 21
94.58061268
 31
0.0
  0
LWPOLYLINE
  5
490
330
1F
100
AcDbEntity
  8
0
  6
Continuous
 62
     7
370
    25
100
AcDbPolyline
 90
       19
 70
   128
 43
0.0
 10
384.5842779425
 20
94.58061268
 10
384.9347950977
 20
94.4108215018
 10
385.3310603061
 20
94.2787474111
 10
385.7610332498
 20
94.1884034122
 10
386.2116494184
 20
94.1425345619
 10
386.6692170679
 20
94.1425345619
 10
387.1198332365
 20
94.1884034122
 10
387.5498061802
 20
94.2787474111
 10
387.9460713886
 20
94.4108215018
 10
388.2965885438
 20
94.58061268
 10
388.5907073594
 20
94.7829619266
 10
388.8194911841
 20
95.0117209621
 10
388.9759885372
 20
95.259939059
 10
389.0554443256
 20
95.520074236
 10
389.0554443256
 20
95.7842224175
 10
388.9759885372
 20
96.0443575945
 10
388.8194911841
 20
96.2925756915
 10
388.5907073594
 20
96.521334727
 10
388.2965885438
 20
96.7236839735
  0
LINE
  5
491
330
1F
100
AcDbEntity
  8
0
  6
Continuous
 62
     7
370
    25
100
AcDbLine
 10
385.6449381143
 20
98.2544491832
 30
0.0
 11
388.2965885438
 21
96.7236839735
 31
0.0
  0
LINE
  5
492
330
1F
100
AcDbEntity
  8
0
  6
Continuous
 62
     7
370
    25
100
AcDbLine
 10
392.5392292309
 20
94.172275924
 30
0.0
 11
384.6679286747
 21
89.6282708348
 31
0.0
  0
ARC
  5
493
330
1F
100
AcDbEntity
  8
0
  6
Continuous
 62
     7
370
    25
100
AcDbCircle
 10
387.5438897625
 20
94.4729444887
 30
0.0
 40
1.619716422372273
100
AcDbArc
 50
28.4224050343
 51
62.3085301495
  0
ARC
  5
494
330
1F
100
AcDbEntity
  8
0
  6
Continuous
 62
     7
370
    25
100
AcDbCircle
 10
392.3316653872
 20
94.6303863568
 30
0.0
 40
0.5029392784941913
100
AcDbArc
 50
294.3746582936
 51
354.3052007488
  0
ARC
  5
495
330
1F
100
AcDbEntity
  8
0
  6
Continuous
 62
     7
370
    25
100
AcDbCircle
 10
383.7759207452
 20
93.7975547532
 30
0.0
 40
4.092114415713864
100
AcDbArc
 50
62.8232907077
 51
111.423768103
  0
LINE
  5
496
330
1F
100
AcDbEntity
  8
0
  6
Continuous
 62
     7
370
    25
100
AcDbLine
 10
385.6449381143
 20
97.4379083713
 30
0.0
 11
388.2965885438
 21
95.9071431617
 31
0.0
  0
ARC
  5
497
330
1F
100
AcDbEntity
  8
0
  6
Continuous
 62
     7
370
    25
100
AcDbCircle
 10
329.3694431014
 20
136.5576428354
 30
0.0
 40
1.417266137647634
100
AcDbArc
 50
349.7873124506
 51
59.1751517324
  0
LINE
  5
498
330
1F
100
AcDbEntity
  8
0
  6
Continuous
 62
     7
370
    25
100
AcDbLine
 10
327.8389587523
 20
139.0774756006
 30
0.0
 11
330.0956720026
 21
137.7747027715
 31
0.0
  0
LINE
  5
499
330
1F
100
AcDbEntity
  8
0
  6
Continuous
 62
     7
370
    25
100
AcDbLine
 10
330.7642545991
 20
136.3063577569
 30
0.0
 11
328.1149216891
 21
128.9507821444
 31
0.0
  0
LINE
  5
49A
330
1F
100
AcDbEntity
  8
0
  6
Continuous
 62
     7
370
    25
100
AcDbLine
 10
319.884007464
 20
147.1402023802
 30
0.0
 11
320.5911142452
 21
147.5484064361
 31
0.0
  0
LINE
  5
49B
330
1F
100
AcDbEntity
  8
0
  6
Continuous
 62
     7
370
    25
100
AcDbLine
 10
320.5911142452
 20
147.5484064361
 30
0.0
 11
321.1743585937
 21
147.2117066405
 31
0.0
  0
LINE
  5
49C
330
1F
100
AcDbEntity
  8
0
  6
Continuous
 62
     7
370
    25
100
AcDbLine
 10
331.9048227441
 20
130.8087226421
 30
0.0
 11
331.9048227441
 21
129.9921818303
 31
0.0
  0
LINE
  5
49D
330
1F
100
AcDbEntity
  8
0
  6
Continuous
 62
     7
370
    25
100
AcDbLine
 10
331.9048227441
 20
129.9921818303
 30
0.0
 11
331.7575136203
 21
125.9953137183
 31
0.0
  0
LINE
  5
49E
330
1F
100
AcDbEntity
  8
0
  6
Continuous
 62
     7
370
    25
100
AcDbLine
 10
381.5884086119
 20
89.3652012202
 30
0.0
 11
375.3918897871
 21
113.0551637116
 31
0.0
  0
LINE
  5
49F
330
1F
100
AcDbEntity
  8
0
  6
Continuous
 62
     7
370
    25
100
AcDbLine
 10
318.116240511
 20
146.1196922404
 30
0.0
 11
311.9197216862
 21
129.5840780995
 31
0.0
  0
LINE
  5
4A0
330
1F
100
AcDbEntity
  8
0
  6
Continuous
 62
     7
370
    25
100
AcDbLine
 10
323.2427646746
 20
143.160212835
 30
0.0
 11
318.116240511
 21
146.1196922404
 31
0.0
  0
ARC
  5
4A1
330
1F
100
AcDbEntity
  8
0
  6
Continuous
 62
     7
370
    25
100
AcDbCircle
 10
322.4146553544
 20
141.865607115
 30
0.0
 40
1.536804807571774
100
AcDbArc
 50
2.6054784856
 51
57.39452166
  0
LINE
  5
4A2
330
1F
100
AcDbEntity
  8
0
  6
Continuous
 62
     7
370
    25
100
AcDbLine
 10
323.9498714558
 20
140.0982511405
 30
0.0
 11
323.9498714558
 21
141.9354679672
 31
0.0
  0
ARC
  5
4A3
330
1F
100
AcDbEntity
  8
0
  6
Continuous
 62
     7
370
    25
100
AcDbCircle
 10
327.0203036585
 20
140.237972845
 30
0.0
 40
3.073609615144756
100
AcDbArc
 50
182.6054784857
 51
237.39452166
  0
LINE
  5
4A4
330
1F
100
AcDbEntity
  8
0
  6
Continuous
 62
     7
370
    25
100
AcDbLine
 10
327.6207982684
 20
136.3459885758
 30
0.0
 11
325.3640850182
 21
137.6487614049
 31
0.0
  0
ARC
  5
4A5
330
1F
100
AcDbEntity
  8
0
  6
Continuous
 62
     7
370
    25
100
AcDbCircle
 10
326.8945693672
 20
135.1289286397
 30
0.0
 40
1.417266137647722
100
AcDbArc
 50
349.7873124506
 51
59.1751517324
  0
LINE
  5
4A6
330
1F
100
AcDbEntity
  8
0
  6
Continuous
 62
     7
370
    25
100
AcDbLine
 10
325.3251941452
 20
126.6479116675
 30
0.0
 11
328.289380865
 21
134.8776435613
 31
0.0
  0
LINE
  5
4A7
330
1F
100
AcDbEntity
  8
0
  6
Continuous
 62
     7
370
    25
100
AcDbLine
 10
368.1829361529
 20
101.9066638387
 30
0.0
 11
325.3251941452
 21
126.6479116675
 31
0.0
  0
LINE
  5
4A8
330
1F
100
AcDbEntity
  8
0
  6
Continuous
 62
     7
370
    25
100
AcDbLine
 10
365.2187494331
 20
113.5587728718
 30
0.0
 11
367.5128497677
 21
104.540748787
 31
0.0
  0
LINE
  5
4A9
330
1F
100
AcDbEntity
  8
0
  6
Continuous
 62
     7
370
    25
100
AcDbLine
 10
367.8385780944
 20
103.2603227081
 30
0.0
 11
368.1829361529
 21
101.9066638387
 31
0.0
  0
LWPOLYLINE
  5
4AA
330
1F
100
AcDbEntity
  8
0
  6
Continuous
 62
     7
370
    25
100
AcDbPolyline
 90
        9
 70
   128
 43
0.0
 10
365.8873320297
 20
114.2551888513
 10
365.7207615802
 20
114.3283690849
 10
365.5635662794
 20
114.3514728072
 10
365.4245936106
 20
114.3231996624
 10
365.311665426
 20
114.245140959
 10
365.2311377059
 20
114.1216901047
 10
365.187542823
 20
113.9597953316
 10
365.1833344448
 20
113.7685686252
 10
365.2187494331
 20
113.5587728718
  0
LINE
  5
4AB
330
1F
100
AcDbEntity
  8
0
  6
Continuous
 62
     7
370
    25
100
AcDbLine
 10
368.1440452799
 20
112.9524160223
 30
0.0
 11
365.8873320297
 21
114.2551888513
 31
0.0
  0
ARC
  5
4AC
330
1F
100
AcDbEntity
  8
0
  6
Continuous
 62
     7
370
    25
100
AcDbCircle
 10
368.6961101075
 20
113.6292351404
 30
0.0
 40
0.8734183948569456
100
AcDbArc
 50
230.7967147643
 51
9.2140369905
  0
LINE
  5
4AD
330
1F
100
AcDbEntity
  8
0
  6
Continuous
 62
     7
370
    25
100
AcDbLine
 10
369.5582588423
 20
115.606306361
 30
0.0
 11
369.5582588423
 21
113.7690895342
 31
0.0
  0
ARC
  5
4AE
330
1F
100
AcDbEntity
  8
0
  6
Continuous
 62
     7
370
    25
100
AcDbCircle
 10
369.9893332097
 20
115.6762335579
 30
0.0
 40
0.4367091974286162
100
AcDbArc
 50
50.7967147643
 51
189.2140369904
  0
LINE
  5
4AF
330
1F
100
AcDbEntity
  8
0
  6
Continuous
 62
     7
370
    25
100
AcDbLine
 10
375.3918897871
 20
113.0551637116
 30
0.0
 11
370.2653656235
 21
116.0146431169
 31
0.0
  0
LINE
  5
4B0
330
1F
100
AcDbEntity
  8
0
  6
Continuous
 62
     7
370
    25
100
AcDbLine
 10
376.0989965683
 20
113.4633677675
 30
0.0
 11
375.3918897871
 21
113.0551637116
 31
0.0
  0
LINE
  5
4B1
330
1F
100
AcDbEntity
  8
0
  6
Continuous
 62
     7
370
    25
100
AcDbLine
 10
382.2955153931
 20
89.7734052761
 30
0.0
 11
376.0989965683
 21
113.4633677675
 31
0.0
  0
LINE
  5
4B2
330
1F
100
AcDbEntity
  8
0
  6
Continuous
 62
     7
370
    25
100
AcDbLine
 10
381.5884086119
 20
89.3652012202
 30
0.0
 11
382.2955153931
 21
89.7734052761
 31
0.0
  0
LINE
  5
4B3
330
1F
100
AcDbEntity
  8
0
  6
Continuous
 62
     7
370
    25
100
AcDbLine
 10
376.0989965683
 20
113.4633677675
 30
0.0
 11
370.9724724047
 21
116.4228471728
 31
0.0
  0
LINE
  5
4B4
330
1F
100
AcDbEntity
  8
0
  6
Continuous
 62
     7
370
    25
100
AcDbLine
 10
364.0781812881
 20
88.9678069112
 30
0.0
 11
364.2549579834
 21
93.7642045682
 31
0.0
  0
LINE
  5
4B5
330
1F
100
AcDbEntity
  8
0
  6
Continuous
 62
     7
370
    25
100
AcDbLine
 10
320.0607841593
 20
119.2769580626
 30
0.0
 11
364.2549579834
 21
93.7642045682
 31
0.0
  0
LINE
  5
4B6
330
1F
100
AcDbEntity
  8
0
  6
Continuous
 62
     7
370
    25
100
AcDbLine
 10
311.7522794803
 20
119.1749070487
 30
0.0
 11
320.0607841593
 21
119.2769580626
 31
0.0
  0
LINE
  5
4B7
330
1F
100
AcDbEntity
  8
0
  6
Continuous
 62
     7
370
    25
100
AcDbLine
 10
311.7522794803
 20
119.1749070487
 30
0.0
 11
303.4437748014
 21
123.9713047056
 31
0.0
  0
ARC
  5
4B8
330
1F
100
AcDbEntity
  8
0
  6
Continuous
 62
     7
370
    25
100
AcDbCircle
 10
303.5987018282
 20
124.3795087615
 30
0.0
 40
0.4366153168342187
100
AcDbArc
 50
110.7834207995
 51
249.2165792005
  0
LINE
  5
4B9
330
1F
100
AcDbEntity
  8
0
  6
Continuous
 62
     7
370
    25
100
AcDbLine
 10
303.4437748014
 20
124.7877128174
 30
0.0
 11
311.3150753575
 21
129.3317179066
 31
0.0
  0
LINE
  5
4BA
330
1F
100
AcDbEntity
  8
0
  6
Continuous
 62
     7
370
    25
100
AcDbLine
 10
381.6722000856
 20
88.7154143435
 30
0.0
 11
373.8008995294
 21
84.1714092543
 31
0.0
  0
ARC
  5
4BB
330
1F
100
AcDbEntity
  8
0
  6
Continuous
 62
     7
370
    25
100
AcDbCircle
 10
373.0937927483
 20
85.5361203392
 30
0.0
 40
1.537021907912136
100
AcDbArc
 50
242.6096722366
 51
297.3903277634
  0
LINE
  5
4BC
330
1F
100
AcDbEntity
  8
0
  6
Continuous
 62
     7
370
    25
100
AcDbLine
 10
372.3866859671
 20
84.1714092543
 30
0.0
 11
364.0781812881
 21
88.9678069112
 31
0.0
  0
LWPOLYLINE
  5
4BD
330
1F
100
AcDbEntity
  8
0
  6
Continuous
 62
     7
370
    25
100
AcDbPolyline
 90
       19
 70
   128
 43
0.0
 10
368.1440452799
 20
88.1513987994
 10
367.8499264643
 20
88.353748046
 10
367.6211426396
 20
88.5825070815
 10
367.4646452866
 20
88.8307251784
 10
367.3851894981
 20
89.0908603554
 10
367.3851894981
 20
89.3550085369
 10
367.4646452866
 20
89.6151437139
 10
367.6211426396
 20
89.8633618109
 10
367.8499264643
 20
90.0921208464
 10
368.1440452799
 20
90.2944700929
 10
368.4945624351
 20
90.4642612711
 10
368.8908276435
 20
90.5963353618
 10
369.3208005872
 20
90.6866793607
 10
369.7714167558
 20
90.7325482111
 10
370.2289844053
 20
90.7325482111
 10
370.679600574
 20
90.6866793607
 10
371.1095735176
 20
90.5963353618
 10
371.505838726
 20
90.4642612711
 10
371.8563558812
 20
90.2944700929
  0
LINE
  5
4BE
330
1F
100
AcDbEntity
  8
0
  6
Continuous
 62
     7
370
    25
100
AcDbLine
 10
368.1440452799
 20
88.1513987994
 30
0.0
 11
370.7956957094
 21
86.6206335897
 31
0.0
  0
LWPOLYLINE
  5
4BF
330
1F
100
AcDbEntity
  8
0
  6
Continuous
 62
     7
370
    25
100
AcDbPolyline
 90
       19
 70
   128
 43
0.0
 10
374.5080063106
 20
88.7637048833
 10
374.8021251263
 20
88.5613556367
 10
375.030908951
 20
88.3325966012
 10
375.187406304
 20
88.0843785043
 10
375.2668620925
 20
87.8242433272
 10
375.2668620925
 20
87.5600951458
 10
375.187406304
 20
87.2999599687
 10
375.030908951
 20
87.0517418718
 10
374.8021251263
 20
86.8229828363
 10
374.5080063106
 20
86.6206335897
 10
374.1574891554
 20
86.4508424116
 10
373.7612239471
 20
86.3187683208
 10
373.3312510034
 20
86.228424322
 10
372.8806348347
 20
86.1825554716
 10
372.4230671853
 20
86.1825554716
 10
371.9724510166
 20
86.228424322
 10
371.5424780729
 20
86.3187683208
 10
371.1462128646
 20
86.4508424116
 10
370.7956957094
 20
86.6206335897
  0
LINE
  5
4C0
330
1F
100
AcDbEntity
  8
0
  6
Continuous
 62
     7
370
    25
100
AcDbLine
 10
371.8563558812
 20
90.2944700929
 30
0.0
 11
374.5080063106
 21
88.7637048833
 31
0.0
  0
LWPOLYLINE
  5
4C1
330
1F
100
AcDbEntity
  8
0
  6
Continuous
 62
     7
370
    25
100
AcDbPolyline
 90
       19
 70
   128
 43
0.0
 10
310.3380659179
 20
121.5220803702
 10
310.6885830731
 20
121.352289192
 10
311.0848482815
 20
121.2202151013
 10
311.5148212252
 20
121.1298711024
 10
311.9654373938
 20
121.084002252
 10
312.4230050433
 20
121.084002252
 10
312.873621212
 20
121.1298711024
 10
313.3035941556
 20
121.2202151013
 10
313.699859364
 20
121.352289192
 10
314.0503765192
 20
121.5220803702
 10
314.3444953348
 20
121.7244296167
 10
314.5732791595
 20
121.9531886522
 10
314.7297765126
 20
122.2014067491
 10
314.8092323011
 20
122.4615419262
 10
314.8092323011
 20
122.7256901077
 10
314.7297765126
 20
122.9858252847
 10
314.5732791595
 20
123.2340433816
 10
314.3444953348
 20
123.4628024171
 10
314.0503765192
 20
123.6651516637
  0
LINE
  5
4C2
330
1F
100
AcDbEntity
  8
0
  6
Continuous
 62
     7
370
    25
100
AcDbLine
 10
314.0503765192
 20
123.6651516637
 30
0.0
 11
311.3987260897
 21
125.1959168734
 31
0.0
  0
LWPOLYLINE
  5
4C3
330
1F
100
AcDbEntity
  8
0
  6
Continuous
 62
     7
370
    25
100
AcDbPolyline
 90
       19
 70
   128
 43
0.0
 10
311.3987260897
 20
125.1959168734
 10
311.0482089345
 20
125.3657080515
 10
310.6519437262
 20
125.4977821423
 10
310.2219707825
 20
125.5881261411
 10
309.7713546138
 20
125.6339949915
 10
309.3137869644
 20
125.6339949915
 10
308.8631707957
 20
125.5881261411
 10
308.433197852
 20
125.4977821423
 10
308.0369326437
 20
125.3657080515
 10
307.6864154885
 20
125.1959168734
 10
307.3922966729
 20
124.9935676268
 10
307.1635128481
 20
124.7648085913
 10
307.0070154951
 20
124.5165904944
 10
306.9275597066
 20
124.2564553173
 10
306.9275597066
 20
123.9923071359
 10
307.0070154951
 20
123.7321719588
 10
307.1635128481
 20
123.4839538619
 10
307.3922966729
 20
123.2551948264
 10
307.6864154885
 20
123.0528455798
  0
LINE
  5
4C4
330
1F
100
AcDbEntity
  8
0
  6
Continuous
 62
     7
370
    25
100
AcDbLine
 10
310.3380659179
 20
121.5220803702
 30
0.0
 11
307.6864154885
 21
123.0528455798
 31
0.0
  0
ARC
  5
4C5
330
1F
100
AcDbEntity
  8
0
  6
Continuous
 62
     7
370
    25
100
AcDbCircle
 10
373.0937927483
 20
84.7195795273
 30
0.0
 40
1.537021907911215
100
AcDbArc
 50
242.6096722366
 51
297.3903277634
  0
LINE
  5
4C6
330
1F
100
AcDbEntity
  8
0
  6
Continuous
 62
     7
370
    25
100
AcDbLine
 10
381.6722000856
 20
88.7154143435
 30
0.0
 11
381.6722000856
 21
87.8988735316
 31
0.0
  0
LINE
  5
4C7
330
1F
100
AcDbEntity
  8
0
  6
Continuous
 62
     7
370
    25
100
AcDbLine
 10
381.6722000856
 20
87.8988735316
 30
0.0
 11
373.8008995294
 21
83.3548684424
 31
0.0
  0
LINE
  5
4C8
330
1F
100
AcDbEntity
  8
0
  6
Continuous
 62
     7
370
    25
100
AcDbLine
 10
364.0781812881
 20
88.9678069112
 30
0.0
 11
364.0781812881
 21
88.1512660993
 31
0.0
  0
LINE
  5
4C9
330
1F
100
AcDbEntity
  8
0
  6
Continuous
 62
     7
370
    25
100
AcDbLine
 10
372.3866859671
 20
83.3548684424
 30
0.0
 11
364.0781812881
 21
88.1512660993
 31
0.0
  0
ARC
  5
4CA
330
1F
100
AcDbEntity
  8
0
  6
Continuous
 62
     7
370
    25
100
AcDbCircle
 10
370.6795523498
 20
116.0139658437
 30
0.0
 40
0.5029772359009143
100
AcDbArc
 50
54.3824225248
 51
114.3071190462
  0
ARC
  5
4CB
330
1F
100
AcDbEntity
  8
0
  6
Continuous
 62
     7
370
    25
100
AcDbCircle
 10
373.7553075294
 20
86.5129653984
 30
0.0
 40
1.619716422372676
100
AcDbArc
 50
28.4224050343
 51
62.3085301495
  0
ARC
  5
4CC
330
1F
100
AcDbEntity
  8
0
  6
Continuous
 62
     7
370
    25
100
AcDbCircle
 10
369.5284057957
 20
114.4401949761
 30
0.0
 40
1.274423234719404
100
AcDbArc
 50
237.8985650384
 51
265.7043593161
  0
LWPOLYLINE
  5
4CD
330
1F
100
AcDbEntity
  8
0
  6
Continuous
 62
     7
370
    25
100
AcDbPolyline
 90
       13
 70
   128
 43
0.0
 10
367.47226418
 20
88.8146640402
 10
367.6211426396
 20
89.046820999
 10
367.8499264643
 20
89.2755800345
 10
368.1440452799
 20
89.477929281
 10
368.4945624351
 20
89.6477204592
 10
368.8908276435
 20
89.7797945499
 10
369.3208005872
 20
89.8701385488
 10
369.7714167558
 20
89.9160073992
 10
370.2289844053
 20
89.9160073992
 10
370.679600574
 20
89.8701385488
 10
371.1095735176
 20
89.7797945499
 10
371.505838726
 20
89.6477204592
 10
371.8563558812
 20
89.477929281
  0
SPLINE
  5
4CE
330
1F
100
AcDbEntity
  8
0
  6
Continuous
 62
     7
370
    25
100
AcDbSpline
210
0.0
220
0.0
230
1.0
 70
     8
 71
     3
 72
    10
 73
     6
 74
     0
 42
0.00000001
 43
0.00000001
 40
0.0
 40
0.0
 40
0.0
 40
0.0
 40
0.5
 40
0.5
 40
1.0
 40
1.0
 40
1.0
 40
1.0
 10
381.6722000855728
 20
88.7154143434525
 30
0.0
 10
381.6830970011436
 20
88.78847581876731
 30
0.0
 10
381.6934167442542
 20
88.89194364016394
 30
0.0
 10
381.6751101949431
 20
89.12579573692756
 30
0.0
 10
381.6462401020989
 20
89.25245078576907
 30
0.0
 10
381.5884086119126
 20
89.36520122017595
 30
0.0
  0
SPLINE
  5
4CF
330
1F
100
AcDbEntity
  8
0
  6
Continuous
 62
     7
370
    25
100
AcDbSpline
210
0.0
220
0.0
230
1.0
 70
     8
 71
     3
 72
    20
 73
    16
 74
     0
 42
0.00000001
 43
0.00000001
 40
0.0
 40
0.0
 40
0.0
 40
0.0
 40
0.125
 40
0.125
 40
0.25
 40
0.25
 40
0.375
 40
0.375
 40
0.5
 40
0.5
 40
0.625
 40
0.625
 40
0.75
 40
0.75
 40
1.0
 40
1.0
 40
1.0
 40
1.0
 10
381.6722000855729
 20
87.89887353156678
 30
0.0
 10
381.7216283114788
 20
87.94411796612603
 30
0.0
 10
381.7701976714423
 20
87.99582242071914
 30
0.0
 10
381.8650757353906
 20
88.1117577324182
 30
0.0
 10
381.911696511449
 20
88.17648371012349
 30
0.0
 10
382.0005041348701
 20
88.3172419214461
 30
0.0
 10
382.0419113418569
 20
88.39191529238092
 30
0.0
 10
382.1182828153633
 20
88.54978578505776
 30
0.0
 10
382.1535533451168
 20
88.63395383932293
 30
0.0
 10
382.2144483676921
 20
88.805540703182
 30
0.0
 10
382.2402577852624
 20
88.89304578452682
 30
0.0
 10
382.2820263544892
 20
89.0716230214048
 30
0.0
 10
382.2979020116604
 20
89.16307316994815
 30
0.0
 10
382.3276001410554
 20
89.4315484978435
 30
0.0
 10
382.3244613193622
 20
89.60911367651642
 30
0.0
 10
382.2955153930992
 20
89.77340527608732
 30
0.0
  0
SPLINE
  5
4D0
330
1F
100
AcDbEntity
  8
0
  6
Continuous
 62
     7
370
    25
100
AcDbSpline
210
0.0
220
0.0
230
1.0
 70
     8
 71
     3
 72
    10
 73
     6
 74
     0
 42
0.00000001
 43
0.00000001
 40
0.0
 40
0.0
 40
0.0
 40
0.0
 40
0.5
 40
0.5
 40
1.0
 40
1.0
 40
1.0
 40
1.0
 10
311.9197216861937
 20
129.5840780995282
 30
0.0
 10
311.8618901938041
 20
129.5380984806819
 30
0.0
 10
311.7774391194916
 20
129.4774184317086
 30
0.0
 10
311.5657577476937
 20
129.3763355120033
 30
0.0
 10
311.4416352530396
 20
129.3380085618512
 30
0.0
 10
311.3150753575115
 20
129.3317179066323
 30
0.0
  0
LINE
  5
4D1
330
1F
100
AcDbEntity
  8
0
  6
Continuous
 62
     7
370
    25
100
AcDbLine
 10
371.8563558812
 20
89.477929281
 30
0.0
 11
374.5080063106
 21
87.9471640714
 31
0.0
  0
LINE
  5
4D2
330
1F
100
AcDbEntity
  8
0
  6
Continuous
 62
     7
370
    25
100
AcDbLine
 10
368.8511520611
 20
113.3606200782
 30
0.0
 11
366.5944388109
 21
114.6633929073
 31
0.0
  0
ARC
  5
4D3
330
1F
100
AcDbEntity
  8
0
  6
Continuous
 62
     7
370
    25
100
AcDbCircle
 10
366.3034180366
 20
114.2736915525
 30
0.0
 40
0.4863745850036837
100
AcDbArc
 50
53.2483981923
 51
115.4411433786
  0
LINE
  5
4D4
330
1F
100
AcDbEntity
  8
0
  6
Continuous
 62
     7
370
    25
100
AcDbLine
 10
320.0607841593
 20
119.2769580626
 30
0.0
 11
320.0607841593
 21
118.4604172508
 31
0.0
  0
LINE
  5
4D5
330
1F
100
AcDbEntity
  8
0
  6
Continuous
 62
     7
370
    25
100
AcDbLine
 10
320.0607841593
 20
118.4604172508
 30
0.0
 11
364.225490412
 21
92.9646750232
 31
0.0
  0
LINE
  5
4D6
330
1F
100
AcDbEntity
  8
0
  6
Continuous
 62
     7
370
    25
100
AcDbLine
 10
326.0323009264
 20
127.0561157234
 30
0.0
 11
325.3251941452
 21
126.6479116675
 31
0.0
  0
LINE
  5
4D7
330
1F
100
AcDbEntity
  8
0
  6
Continuous
 62
     7
370
    25
100
AcDbLine
 10
367.9394993312
 20
102.8636050364
 30
0.0
 11
326.0323009264
 21
127.0561157234
 31
0.0
  0
ARC
  5
4D8
330
1F
100
AcDbEntity
  8
0
  6
Continuous
 62
     7
370
    25
100
AcDbCircle
 10
327.6016761484
 20
135.5371326957
 30
0.0
 40
1.417266137647585
100
AcDbArc
 50
349.7873124506
 51
59.1751517324
  0
ARC
  5
4D9
330
1F
100
AcDbEntity
  8
0
  6
Continuous
 62
     7
370
    25
100
AcDbCircle
 10
323.1217621356
 20
142.2738111709
 30
0.0
 40
1.53680480757218
100
AcDbArc
 50
2.6054784857
 51
57.39452166
  0
LINE
  5
4DA
330
1F
100
AcDbEntity
  8
0
  6
Continuous
 62
     7
370
    25
100
AcDbLine
 10
328.3279050496
 20
136.7541926317
 30
0.0
 11
326.0711917993
 21
138.0569654608
 31
0.0
  0
LINE
  5
4DB
330
1F
100
AcDbEntity
  8
0
  6
Continuous
 62
     7
370
    25
100
AcDbLine
 10
326.0323009264
 20
127.0561157234
 30
0.0
 11
328.9964876462
 21
135.2858476172
 31
0.0
  0
LINE
  5
4DC
330
1F
100
AcDbEntity
  8
0
  6
Continuous
 62
     7
370
    25
100
AcDbLine
 10
324.656978237
 20
140.5064551964
 30
0.0
 11
324.656978237
 21
142.3436720231
 31
0.0
  0
LINE
  5
4DD
330
1F
100
AcDbEntity
  8
0
  6
Continuous
 62
     7
370
    25
100
AcDbLine
 10
318.8233472922
 20
146.5278962963
 30
0.0
 11
318.116240511
 21
146.1196922404
 31
0.0
  0
LINE
  5
4DE
330
1F
100
AcDbEntity
  8
0
  6
Continuous
 62
     7
370
    25
100
AcDbLine
 10
323.9498714558
 20
143.5684168909
 30
0.0
 11
318.8233472922
 21
146.5278962963
 31
0.0
  0
ARC
  5
4DF
330
1F
100
AcDbEntity
  8
0
  6
Continuous
 62
     7
370
    25
100
AcDbCircle
 10
327.7274104397
 20
140.6461769009
 30
0.0
 40
3.073609615143766
100
AcDbArc
 50
182.6054784857
 51
237.39452166
  0
LINE
  5
4E0
330
1F
100
AcDbEntity
  8
0
  6
Continuous
 62
     7
370
    25
100
AcDbLine
 10
311.7522794803
 20
119.1749070487
 30
0.0
 11
311.7522794803
 21
118.3583662368
 31
0.0
  0
LINE
  5
4E1
330
1F
100
AcDbEntity
  8
0
  6
Continuous
 62
     7
370
    25
100
AcDbLine
 10
311.7522794803
 20
118.3583662368
 30
0.0
 11
320.0607841593
 21
118.4604172508
 31
0.0
  0
LINE
  5
4E2
330
1F
100
AcDbEntity
  8
0
  6
Continuous
 62
     7
370
    25
100
AcDbLine
 10
311.7522794803
 20
118.3583662368
 30
0.0
 11
303.4437748014
 21
123.1547638937
 31
0.0
  0
ARC
  5
4E3
330
1F
100
AcDbEntity
  8
0
  6
Continuous
 62
     7
370
    25
100
AcDbCircle
 10
313.2976777379
 20
121.4144121788
 30
0.0
 40
1.61971642237554
100
AcDbArc
 50
28.4224050344
 51
62.3085301494
  0
LWPOLYLINE
  5
4E4
330
1F
100
AcDbEntity
  8
0
  6
Continuous
 62
     7
370
    25
100
AcDbPolyline
 90
       13
 70
   128
 43
0.0
 10
311.3987260897
 20
124.3793760615
 10
311.0482089345
 20
124.5491672396
 10
310.6519437262
 20
124.6812413304
 10
310.2219707825
 20
124.7715853292
 10
309.7713546138
 20
124.8174541796
 10
309.3137869644
 20
124.8174541796
 10
308.8631707957
 20
124.7715853292
 10
308.433197852
 20
124.6812413304
 10
308.0369326437
 20
124.5491672396
 10
307.6864154885
 20
124.3793760615
 10
307.3922966729
 20
124.1770268149
 10
307.1635128481
 20
123.9482677794
 10
307.0146343885
 20
123.7161108206
  0
LINE
  5
4E5
330
1F
100
AcDbEntity
  8
0
  6
Continuous
 62
     7
370
    25
100
AcDbLine
 10
314.0503765192
 20
122.8486108518
 30
0.0
 11
311.3987260897
 21
124.3793760615
 31
0.0
  0
ARC
  5
4E6
330
1F
100
AcDbEntity
  8
0
  6
Continuous
 62
     7
370
    25
100
AcDbCircle
 10
303.6513386451
 20
123.6128743265
 30
0.0
 40
0.5029392784935309
100
AcDbArc
 50
185.6947992512
 51
245.6253417064
  0
LINE
  5
4E7
330
1F
100
AcDbEntity
  8
0
  6
Continuous
 62
     8
370
    18
100
AcDbLine
 10
368.1440452799
 20
114.585364946
 30
0.0
 11
369.2047054517
 21
115.1976710298
 31
0.0
  0
LINE
  5
4E8
330
1F
100
AcDbEntity
  8
0
  6
Continuous
 62
     8
370
    18
100
AcDbLine
 10
367.6040699284
 20
116.121698249
 30
0.0
 11
366.5434097566
 21
115.5093921651
 31
0.0
  0
LINE
  5
4E9
330
1F
100
AcDbEntity
  8
0
  6
Continuous
 62
     8
370
    18
100
AcDbLine
 10
366.5451789545
 20
104.4850698685
 30
0.0
 11
367.4012886419
 21
104.9792914713
 31
0.0
  0
LINE
  5
4EA
330
1F
100
AcDbEntity
  8
0
  6
Continuous
 62
     8
370
    18
100
AcDbLine
 10
329.4378250778
 20
127.1313014572
 30
0.0
 11
328.377164906
 21
126.5189953734
 31
0.0
  0
LINE
  5
4EB
330
1F
100
AcDbEntity
  8
0
  6
Continuous
 62
     8
370
    18
100
AcDbLine
 10
325.3640850182
 20
140.9147919524
 30
0.0
 11
326.4247451899
 21
141.5270980362
 31
0.0
  0
LINE
  5
4EC
330
1F
100
AcDbEntity
  8
0
  6
Continuous
 62
     8
370
    18
100
AcDbLine
 10
328.3789341039
 20
137.5412749976
 30
0.0
 11
329.4395942756
 21
138.1535810815
 31
0.0
  0
LINE
  5
4ED
330
1F
100
AcDbEntity
  8
0
  6
Continuous
 62
     8
370
    18
100
AcDbLine
 10
330.2778018848
 20
136.3251528615
 30
0.0
 11
329.2171417131
 21
135.7128467776
 31
0.0
  0
LINE
  5
4EE
330
1F
100
AcDbEntity
  8
0
  6
Continuous
 62
     8
370
    18
100
AcDbLine
 10
327.8389587523
 20
139.0776083006
 30
0.0
 11
326.7782985805
 21
138.4653022168
 31
0.0
  0
LINE
  5
4EF
330
1F
100
AcDbEntity
  8
0
  6
Continuous
 62
     8
370
    18
100
AcDbLine
 10
327.0360327313
 20
129.4444805254
 30
0.0
 11
328.0966929031
 21
130.0567866093
 31
0.0
  0
LINE
  5
4F0
330
1F
100
AcDbEntity
  8
0
  6
Continuous
 62
     8
370
    18
100
AcDbLine
 10
384.6679286747
 20
90.4448116467
 30
0.0
 11
384.063338162
 21
90.7938343206
 31
0.0
  0
LINE
  5
4F1
330
1F
100
AcDbEntity
  8
0
  6
Continuous
 62
     8
370
    18
100
AcDbLine
 10
392.5392292309
 20
94.172275924
 30
0.0
 11
392.5392292309
 21
94.9888167359
 31
0.0
  0
LINE
  5
4F2
330
1F
100
AcDbEntity
  8
0
  6
Continuous
 62
     8
370
    18
100
AcDbLine
 10
388.2965885438
 20
96.7236839735
 30
0.0
 11
388.2965885438
 21
95.9071431617
 31
0.0
  0
LINE
  5
4F3
330
1F
100
AcDbEntity
  8
0
  6
Continuous
 62
     8
370
    18
100
AcDbLine
 10
385.6449381143
 20
98.2544491832
 30
0.0
 11
385.6449381143
 21
97.4379083713
 31
0.0
  0
LINE
  5
4F4
330
1F
100
AcDbEntity
  8
0
  6
Continuous
 62
     8
370
    18
100
AcDbLine
 10
329.9402778053
 20
137.6849956109
 30
0.0
 11
330.0956720026
 21
137.7747027715
 31
0.0
  0
LINE
  5
4F5
330
1F
100
AcDbEntity
  8
0
  6
Continuous
 62
     8
370
    18
100
AcDbLine
 10
330.7642545991
 20
136.3063577569
 30
0.0
 11
330.1473429188
 21
135.9502222244
 31
0.0
  0
LINE
  5
4F6
330
1F
100
AcDbEntity
  8
0
  6
Continuous
 62
     8
370
    18
100
AcDbLine
 10
381.5884086119
 20
89.3652012202
 30
0.0
 11
311.9197216862
 21
129.5840780995
 31
0.0
  0
LINE
  5
4F7
330
1F
100
AcDbEntity
  8
0
  6
Continuous
 62
     8
370
    18
100
AcDbLine
 10
370.9724724047
 20
116.4228471728
 30
0.0
 11
370.2653656235
 21
116.0146431169
 31
0.0
  0
LINE
  5
4F8
330
1F
100
AcDbEntity
  8
0
  6
Continuous
 62
     8
370
    18
100
AcDbLine
 10
311.3150753575
 20
129.3317179066
 30
0.0
 11
381.6722000856
 21
88.7154143435
 31
0.0
  0
LINE
  5
4F9
330
1F
100
AcDbEntity
  8
0
  6
Continuous
 62
     8
370
    18
100
AcDbLine
 10
372.3866859671
 20
83.3548684424
 30
0.0
 11
372.3866859671
 21
84.1714092543
 31
0.0
  0
LINE
  5
4FA
330
1F
100
AcDbEntity
  8
0
  6
Continuous
 62
     8
370
    18
100
AcDbLine
 10
373.8008995294
 20
84.1714092543
 30
0.0
 11
373.8008995294
 21
83.3548684424
 31
0.0
  0
LINE
  5
4FB
330
1F
100
AcDbEntity
  8
0
  6
Continuous
 62
     8
370
    18
100
AcDbLine
 10
374.5080063106
 20
88.7637048833
 30
0.0
 11
374.5080063106
 21
87.9471640714
 31
0.0
  0
LINE
  5
4FC
330
1F
100
AcDbEntity
  8
0
  6
Continuous
 62
     8
370
    18
100
AcDbLine
 10
368.1440452799
 20
112.9524160223
 30
0.0
 11
368.8511520611
 21
113.3606200782
 31
0.0
  0
LINE
  5
4FD
330
1F
100
AcDbEntity
  8
0
  6
Continuous
 62
     8
370
    18
100
AcDbLine
 10
371.8563558812
 20
90.2944700929
 30
0.0
 11
371.8563558812
 21
89.477929281
 31
0.0
  0
LINE
  5
4FE
330
1F
100
AcDbEntity
  8
0
  6
Continuous
 62
     8
370
    18
100
AcDbLine
 10
366.5944388109
 20
114.6633929073
 30
0.0
 11
365.8873320297
 21
114.2551888513
 31
0.0
  0
LINE
  5
4FF
330
1F
100
AcDbEntity
  8
0
  6
Continuous
 62
     8
370
    18
100
AcDbLine
 10
328.9964876462
 20
135.2858476172
 30
0.0
 11
328.289380865
 21
134.8776435613
 31
0.0
  0
LINE
  5
500
330
1F
100
AcDbEntity
  8
0
  6
Continuous
 62
     8
370
    18
100
AcDbLine
 10
327.6207982684
 20
136.3459885758
 30
0.0
 11
328.3279050496
 21
136.7541926317
 31
0.0
  0
LINE
  5
501
330
1F
100
AcDbEntity
  8
0
  6
Continuous
 62
     8
370
    18
100
AcDbLine
 10
324.656978237
 20
142.3436720231
 30
0.0
 11
323.9498714558
 21
141.9354679672
 31
0.0
  0
LINE
  5
502
330
1F
100
AcDbEntity
  8
0
  6
Continuous
 62
     8
370
    18
100
AcDbLine
 10
323.2427646746
 20
143.160212835
 30
0.0
 11
323.9498714558
 21
143.5684168909
 31
0.0
  0
LINE
  5
503
330
1F
100
AcDbEntity
  8
0
  6
Continuous
 62
     8
370
    18
100
AcDbLine
 10
326.0711917993
 20
138.0569654608
 30
0.0
 11
325.3640850182
 21
137.6487614049
 31
0.0
  0
LINE
  5
504
330
1F
100
AcDbEntity
  8
0
  6
Continuous
 62
     8
370
    18
100
AcDbLine
 10
323.9498714558
 20
140.0982511405
 30
0.0
 11
324.656978237
 21
140.5064551964
 31
0.0
  0
LINE
  5
505
330
1F
100
AcDbEntity
  8
0
  6
Continuous
 62
     8
370
    18
100
AcDbLine
 10
303.4437748014
 20
123.9713047056
 30
0.0
 11
303.4437748014
 21
123.1547638937
 31
0.0
  0
LINE
  5
506
330
1F
100
AcDbEntity
  8
0
  6
Continuous
 62
     8
370
    18
100
AcDbLine
 10
314.0503765192
 20
123.6651516637
 30
0.0
 11
314.0503765192
 21
122.8486108518
 31
0.0
  0
LINE
  5
507
330
1F
100
AcDbEntity
  8
0
  6
Continuous
 62
     8
370
    18
100
AcDbLine
 10
311.3987260897
 20
125.1959168734
 30
0.0
 11
311.3987260897
 21
124.3793760615
 31
0.0
  0
ENDSEC
  0
SECTION
  2
OBJECTS
  0
DICTIONARY
  5
C
330
0
100
AcDbDictionary
281
     1
  3
ACAD_GROUP
350
D
  3
ACAD_LAYOUT
350
1A
  3
ACAD_MLINESTYLE
350
17
  3
ACAD_PLOTSETTINGS
350
19
  3
ACAD_PLOTSTYLENAME
350
E
  3
ACAD_SCALELIST
350
47
  3
DWGPROPS
350
508
  0
DICTIONARY
  5
D
102
{ACAD_REACTORS
330
C
102
}
330
C
100
AcDbDictionary
281
     1
  0
DICTIONARY
  5
1A
102
{ACAD_REACTORS
330
C
102
}
330
C
100
AcDbDictionary
281
     1
  3
Layout1
350
1E
  3
Layout2
350
26
  3
Model
350
22
  0
DICTIONARY
  5
17
102
{ACAD_REACTORS
330
C
102
}
330
C
100
AcDbDictionary
281
     1
  3
Standard
350
18
  0
DICTIONARY
  5
19
102
{ACAD_REACTORS
330
C
102
}
330
C
100
AcDbDictionary
281
     1
  0
ACDBDICTIONARYWDFLT
  5
E
102
{ACAD_REACTORS
330
C
102
}
330
C
100
AcDbDictionary
281
     1
  3
Normal
350
F
100
AcDbDictionaryWithDefault
340
F
  0
DICTIONARY
  5
47
102
{ACAD_REACTORS
330
C
102
}
330
C
100
AcDbDictionary
281
     1
  3
A0
350
48
  3
A1
350
49
  3
A2
350
4A
  3
A3
350
4B
  3
A4
350
4C
  3
A5
350
4D
  3
A6
350
4E
  3
A7
350
4F
  3
A8
350
50
  3
A9
350
51
  3
B0
350
52
  3
B1
350
53
  3
B2
350
54
  3
B3
350
55
  3
B4
350
56
  3
B5
350
57
  3
B6
350
58
  3
B7
350
59
  3
B8
350
5A
  3
B9
350
5B
  3
C0
350
5C
  3
C1
350
5D
  3
C2
350
5E
  3
C3
350
5F
  3
C4
350
60
  3
C5
350
61
  3
C6
350
62
  3
C7
350
63
  3
C8
350
64
  3
C9
350
65
  3
D0
350
66
  3
D1
350
67
  3
D2
350
68
  0
XRECORD
  5
508
102
{ACAD_REACTORS
330
C
102
}
330
C
100
AcDbXrecord
280
     1
  1
DWGPROPS COOKIE
  2

  3

  4

  6

  7

  8
ch-ntl-rs-wscad
  9

300
=
301
=
302
=
303
=
304
=
305
=
306
=
307
=
308
=
309
=
 40
0.0
 41
2460565.072797813
 42
2460565.072803796
  1

 90
        0
  0
LAYOUT
  5
1E
102
{ACAD_REACTORS
330
1A
102
}
330
1A
100
AcDbPlotSettings
  1

  2
none_device
  4

  6

 40
0.0
 41
0.0
 42
0.0
 43
0.0
 44
0.0
 45
0.0
 46
0.0
 47
0.0
 48
0.0
 49
0.0
140
0.0
141
0.0
142
1.0
143
1.0
 70
   688
 72
     1
 73
     0
 74
     5
  7

 75
    16
147
1.0
148
0.0
149
0.0
100
AcDbLayout
  1
Layout1
 70
     1
 71
     1
 10
0.0
 20
0.0
 11
420.0
 21
297.0
 12
0.0
 22
0.0
 32
0.0
 14
1.0000000000E+20
 24
1.0000000000E+20
 34
1.0000000000E+20
 15
-1.0000000000E+20
 25
-1.0000000000E+20
 35
-1.0000000000E+20
146
0.0
 13
0.0
 23
0.0
 33
0.0
 16
1.0
 26
0.0
 36
0.0
 17
0.0
 27
1.0
 37
0.0
 76
     0
330
1B
  0
LAYOUT
  5
26
102
{ACAD_REACTORS
330
1A
102
}
330
1A
100
AcDbPlotSettings
  1

  2
none_device
  4

  6

 40
0.0
 41
0.0
 42
0.0
 43
0.0
 44
0.0
 45
0.0
 46
0.0
 47
0.0
 48
0.0
 49
0.0
140
0.0
141
0.0
142
1.0
143
1.0
 70
   688
 72
     1
 73
     0
 74
     5
  7

 75
    16
147
1.0
148
0.0
149
0.0
100
AcDbLayout
  1
Layout2
 70
     1
 71
     2
 10
0.0
 20
0.0
 11
0.0
 21
0.0
 12
0.0
 22
0.0
 32
0.0
 14
0.0
 24
0.0
 34
0.0
 15
0.0
 25
0.0
 35
0.0
146
0.0
 13
0.0
 23
0.0
 33
0.0
 16
1.0
 26
0.0
 36
0.0
 17
0.0
 27
1.0
 37
0.0
 76
     0
330
23
  0
LAYOUT
  5
22
102
{ACAD_REACTORS
330
1A
102
}
330
1A
100
AcDbPlotSettings
  1

  2
none_device
  4
Letter_(8.50_x_11.00_Inches)
  6

 40
6.35
 41
6.35
 42
6.35000508
 43
6.35000508
 44
215.9
 45
279.4
 46
0.0
 47
0.0
 48
0.0
 49
0.0
140
0.0
141
0.0
142
1.0
143
1.0
 70
  1712
 72
     1
 73
     0
 74
     0
  7

 75
     0
147
1.0
148
0.0
149
0.0
100
AcDbLayout
  1
Model
 70
     1
 71
     0
 10
0.0
 20
0.0
 11
420.0
 21
297.0
 12
0.0
 22
0.0
 32
0.0
 14
0.0
 24
0.0
 34
0.0
 15
420.0
 25
297.0
 35
0.0
146
0.0
 13
0.0
 23
0.0
 33
0.0
 16
1.0
 26
0.0
 36
0.0
 17
0.0
 27
1.0
 37
0.0
 76
     0
330
1F
331
29
  0
MLINESTYLE
  5
18
102
{ACAD_REACTORS
330
17
102
}
330
17
100
AcDbMlineStyle
  2
Standard
 70
     0
  3

 62
   256
 51
90.0
 52
90.0
 71
     2
 49
0.5
 62
   256
  6
BYLAYER
 49
-0.5
 62
   256
  6
BYLAYER
  0
ACDBPLACEHOLDER
  5
F
102
{ACAD_REACTORS
330
E
102
}
330
E
  0
SCALE
  5
48
102
{ACAD_REACTORS
330
47
102
}
330
47
100
AcDbScale
 70
     0
300
1:1
140
1.0
141
1.0
290
     1
  0
SCALE
  5
49
102
{ACAD_REACTORS
330
47
102
}
330
47
100
AcDbScale
 70
     0
300
1:2
140
1.0
141
2.0
290
     0
  0
SCALE
  5
4A
102
{ACAD_REACTORS
330
47
102
}
330
47
100
AcDbScale
 70
     0
300
1:4
140
1.0
141
4.0
290
     0
  0
SCALE
  5
4B
102
{ACAD_REACTORS
330
47
102
}
330
47
100
AcDbScale
 70
     0
300
1:5
140
1.0
141
5.0
290
     0
  0
SCALE
  5
4C
102
{ACAD_REACTORS
330
47
102
}
330
47
100
AcDbScale
 70
     0
300
1:8
140
1.0
141
8.0
290
     0
  0
SCALE
  5
4D
102
{ACAD_REACTORS
330
47
102
}
330
47
100
AcDbScale
 70
     0
300
1:10
140
1.0
141
10.0
290
     0
  0
SCALE
  5
4E
102
{ACAD_REACTORS
330
47
102
}
330
47
100
AcDbScale
 70
     0
300
1:16
140
1.0
141
16.0
290
     0
  0
SCALE
  5
4F
102
{ACAD_REACTORS
330
47
102
}
330
47
100
AcDbScale
 70
     0
300
1:20
140
1.0
141
20.0
290
     0
  0
SCALE
  5
50
102
{ACAD_REACTORS
330
47
102
}
330
47
100
AcDbScale
 70
     0
300
1:30
140
1.0
141
30.0
290
     0
  0
SCALE
  5
51
102
{ACAD_REACTORS
330
47
102
}
330
47
100
AcDbScale
 70
     0
300
1:40
140
1.0
141
40.0
290
     0
  0
SCALE
  5
52
102
{ACAD_REACTORS
330
47
102
}
330
47
100
AcDbScale
 70
     0
300
1:50
140
1.0
141
50.0
290
     0
  0
SCALE
  5
53
102
{ACAD_REACTORS
330
47
102
}
330
47
100
AcDbScale
 70
     0
300
1:100
140
1.0
141
100.0
290
     0
  0
SCALE
  5
54
102
{ACAD_REACTORS
330
47
102
}
330
47
100
AcDbScale
 70
     0
300
2:1
140
2.0
141
1.0
290
     0
  0
SCALE
  5
55
102
{ACAD_REACTORS
330
47
102
}
330
47
100
AcDbScale
 70
     0
300
4:1
140
4.0
141
1.0
290
     0
  0
SCALE
  5
56
102
{ACAD_REACTORS
330
47
102
}
330
47
100
AcDbScale
 70
     0
300
8:1
140
8.0
141
1.0
290
     0
  0
SCALE
  5
57
102
{ACAD_REACTORS
330
47
102
}
330
47
100
AcDbScale
 70
     0
300
10:1
140
10.0
141
1.0
290
     0
  0
SCALE
  5
58
102
{ACAD_REACTORS
330
47
102
}
330
47
100
AcDbScale
 70
     0
300
100:1
140
100.0
141
1.0
290
     0
  0
SCALE
  5
59
102
{ACAD_REACTORS
330
47
102
}
330
47
100
AcDbScale
 70
     0
300
1/128" = 1'-0"
140
0.0078125
141
12.0
290
     0
  0
SCALE
  5
5A
102
{ACAD_REACTORS
330
47
102
}
330
47
100
AcDbScale
 70
     0
300
1/64" = 1'-0"
140
0.015625
141
12.0
290
     0
  0
SCALE
  5
5B
102
{ACAD_REACTORS
330
47
102
}
330
47
100
AcDbScale
 70
     0
300
1/32" = 1'-0"
140
0.03125
141
12.0
290
     0
  0
SCALE
  5
5C
102
{ACAD_REACTORS
330
47
102
}
330
47
100
AcDbScale
 70
     0
300
1/16" = 1'-0"
140
0.0625
141
12.0
290
     0
  0
SCALE
  5
5D
102
{ACAD_REACTORS
330
47
102
}
330
47
100
AcDbScale
 70
     0
300
3/32" = 1'-0"
140
0.09375
141
12.0
290
     0
  0
SCALE
  5
5E
102
{ACAD_REACTORS
330
47
102
}
330
47
100
AcDbScale
 70
     0
300
1/8" = 1'-0"
140
0.125
141
12.0
290
     0
  0
SCALE
  5
5F
102
{ACAD_REACTORS
330
47
102
}
330
47
100
AcDbScale
 70
     0
300
3/16" = 1'-0"
140
0.1875
141
12.0
290
     0
  0
SCALE
  5
60
102
{ACAD_REACTORS
330
47
102
}
330
47
100
AcDbScale
 70
     0
300
1/4" = 1'-0"
140
0.25
141
12.0
290
     0
  0
SCALE
  5
61
102
{ACAD_REACTORS
330
47
102
}
330
47
100
AcDbScale
 70
     0
300
3/8" = 1'-0"
140
0.375
141
12.0
290
     0
  0
SCALE
  5
62
102
{ACAD_REACTORS
330
47
102
}
330
47
100
AcDbScale
 70
     0
300
1/2" = 1'-0"
140
0.5
141
12.0
290
     0
  0
SCALE
  5
63
102
{ACAD_REACTORS
330
47
102
}
330
47
100
AcDbScale
 70
     0
300
3/4" = 1'-0"
140
0.75
141
12.0
290
     0
  0
SCALE
  5
64
102
{ACAD_REACTORS
330
47
102
}
330
47
100
AcDbScale
 70
     0
300
1" = 1'-0"
140
1.0
141
12.0
290
     0
  0
SCALE
  5
65
102
{ACAD_REACTORS
330
47
102
}
330
47
100
AcDbScale
 70
     0
300
1-1/2" = 1'-0"
140
1.5
141
12.0
290
     0
  0
SCALE
  5
66
102
{ACAD_REACTORS
330
47
102
}
330
47
100
AcDbScale
 70
     0
300
3" = 1'-0"
140
3.0
141
12.0
290
     0
  0
SCALE
  5
67
102
{ACAD_REACTORS
330
47
102
}
330
47
100
AcDbScale
 70
     0
300
6" = 1'-0"
140
6.0
141
12.0
290
     0
  0
SCALE
  5
68
102
{ACAD_REACTORS
330
47
102
}
330
47
100
AcDbScale
 70
     0
300
1'-0" = 1'-0"
140
12.0
141
12.0
290
     0
  0
ENDSEC
  0
EOF
