  0
SECTION
  2
HEADER
  9
$ACADVER
  1
AC1015
  9
$ACADMAINTVER
 70
    20
  9
$DWGCODEPAGE
  3
ANSI_1252
  9
$INSBASE
 10
0.0
 20
0.0
 30
0.0
  9
$EXTMIN
 10
0.0000006421831813
 20
0.0000004865213441
 30
0.0
  9
$EXTMAX
 10
626.0250006421825
 20
423.3250004865213
 30
0.0
  9
$LIMMIN
 10
0.0
 20
0.0
  9
$LIMMAX
 10
420.0
 20
297.0
  9
$ORTHOMODE
 70
     0
  9
$REGENMODE
 70
     1
  9
$FILLMODE
 70
     1
  9
$QTEXTMODE
 70
     0
  9
$MIRRTEXT
 70
     1
  9
$LTSCALE
 40
1.0
  9
$ATTMODE
 70
     1
  9
$TEXTSIZE
 40
2.5
  9
$TRACEWID
 40
1.0
  9
$TEXTSTYLE
  7
Standard
  9
$CLAYER
  8
0
  9
$CELTYPE
  6
ByLayer
  9
$CECOLOR
 62
   256
  9
$CELTSCALE
 40
1.0
  9
$DISPSILH
 70
     0
  9
$DIMSCALE
 40
1.0
  9
$DIMASZ
 40
2.5
  9
$DIMEXO
 40
0.625
  9
$DIMDLI
 40
3.75
  9
$DIMRND
 40
0.0
  9
$DIMDLE
 40
0.0
  9
$DIMEXE
 40
1.25
  9
$DIMTP
 40
0.0
  9
$DIMTM
 40
0.0
  9
$DIMTXT
 40
2.5
  9
$DIMCEN
 40
2.5
  9
$DIMTSZ
 40
0.0
  9
$DIMTOL
 70
     0
  9
$DIMLIM
 70
     0
  9
$DIMTIH
 70
     0
  9
$DIMTOH
 70
     0
  9
$DIMSE1
 70
     0
  9
$DIMSE2
 70
     0
  9
$DIMTAD
 70
     1
  9
$DIMZIN
 70
     8
  9
$DIMBLK
  1

  9
$DIMASO
 70
     1
  9
$DIMSHO
 70
     1
  9
$DIMPOST
  1

  9
$DIMAPOST
  1

  9
$DIMALT
 70
     0
  9
$DIMALTD
 70
     3
  9
$DIMALTF
 40
0.03937007874016
  9
$DIMLFAC
 40
1.0
  9
$DIMTOFL
 70
     1
  9
$DIMTVP
 40
0.0
  9
$DIMTIX
 70
     0
  9
$DIMSOXD
 70
     0
  9
$DIMSAH
 70
     0
  9
$DIMBLK1
  1

  9
$DIMBLK2
  1

  9
$DIMSTYLE
  2
ISO-25
  9
$DIMCLRD
 70
     0
  9
$DIMCLRE
 70
     0
  9
$DIMCLRT
 70
     0
  9
$DIMTFAC
 40
1.0
  9
$DIMGAP
 40
0.625
  9
$DIMJUST
 70
     0
  9
$DIMSD1
 70
     0
  9
$DIMSD2
 70
     0
  9
$DIMTOLJ
 70
     0
  9
$DIMTZIN
 70
     8
  9
$DIMALTZ
 70
     0
  9
$DIMALTTZ
 70
     0
  9
$DIMUPT
 70
     0
  9
$DIMDEC
 70
     2
  9
$DIMTDEC
 70
     2
  9
$DIMALTU
 70
     2
  9
$DIMALTTD
 70
     3
  9
$DIMTXSTY
  7
Standard
  9
$DIMAUNIT
 70
     0
  9
$DIMADEC
 70
     0
  9
$DIMALTRND
 40
0.0
  9
$DIMAZIN
 70
     0
  9
$DIMDSEP
 70
    44
  9
$DIMATFIT
 70
     3
  9
$DIMFRAC
 70
     0
  9
$DIMLDRBLK
  1

  9
$DIMLUNIT
 70
     2
  9
$DIMLWD
 70
    -2
  9
$DIMLWE
 70
    -2
  9
$DIMTMOVE
 70
     0
  9
$LUNITS
 70
     2
  9
$LUPREC
 70
     4
  9
$SKETCHINC
 40
1.0
  9
$FILLETRAD
 40
0.0
  9
$AUNITS
 70
     0
  9
$AUPREC
 70
     0
  9
$MENU
  1
.
  9
$ELEVATION
 40
0.0
  9
$PELEVATION
 40
0.0
  9
$THICKNESS
 40
0.0
  9
$LIMCHECK
 70
     0
  9
$CHAMFERA
 40
10.0
  9
$CHAMFERB
 40
10.0
  9
$CHAMFERC
 40
20.0
  9
$CHAMFERD
 40
0.0
  9
$SKPOLY
 70
     0
  9
$TDCREATE
 40
2452544.484270219
  9
$TDUCREATE
 40
2452544.442603553
  9
$TDUPDATE
 40
2455147.353700220
  9
$TDUUPDATE
 40
2455147.312033553
  9
$TDINDWG
 40
0.0081387616
  9
$TDUSRTIMER
 40
0.0081384144
  9
$USRTIMER
 70
     1
  9
$ANGBASE
 50
0.0
  9
$ANGDIR
 70
     0
  9
$PDMODE
 70
     0
  9
$PDSIZE
 40
0.0
  9
$PLINEWID
 40
0.0
  9
$SPLFRAME
 70
     0
  9
$SPLINETYPE
 70
     6
  9
$SPLINESEGS
 70
     8
  9
$HANDSEED
  5
7F2
  9
$SURFTAB1
 70
     6
  9
$SURFTAB2
 70
     6
  9
$SURFTYPE
 70
     6
  9
$SURFU
 70
     6
  9
$SURFV
 70
     6
  9
$UCSBASE
  2

  9
$UCSNAME
  2

  9
$UCSORG
 10
0.0
 20
0.0
 30
0.0
  9
$UCSXDIR
 10
1.0
 20
0.0
 30
0.0
  9
$UCSYDIR
 10
0.0
 20
1.0
 30
0.0
  9
$UCSORTHOREF
  2

  9
$UCSORTHOVIEW
 70
     0
  9
$UCSORGTOP
 10
0.0
 20
0.0
 30
0.0
  9
$UCSORGBOTTOM
 10
0.0
 20
0.0
 30
0.0
  9
$UCSORGLEFT
 10
0.0
 20
0.0
 30
0.0
  9
$UCSORGRIGHT
 10
0.0
 20
0.0
 30
0.0
  9
$UCSORGFRONT
 10
0.0
 20
0.0
 30
0.0
  9
$UCSORGBACK
 10
0.0
 20
0.0
 30
0.0
  9
$PUCSBASE
  2

  9
$PUCSNAME
  2

  9
$PUCSORG
 10
0.0
 20
0.0
 30
0.0
  9
$PUCSXDIR
 10
1.0
 20
0.0
 30
0.0
  9
$PUCSYDIR
 10
0.0
 20
1.0
 30
0.0
  9
$PUCSORTHOREF
  2

  9
$PUCSORTHOVIEW
 70
     0
  9
$PUCSORGTOP
 10
0.0
 20
0.0
 30
0.0
  9
$PUCSORGBOTTOM
 10
0.0
 20
0.0
 30
0.0
  9
$PUCSORGLEFT
 10
0.0
 20
0.0
 30
0.0
  9
$PUCSORGRIGHT
 10
0.0
 20
0.0
 30
0.0
  9
$PUCSORGFRONT
 10
0.0
 20
0.0
 30
0.0
  9
$PUCSORGBACK
 10
0.0
 20
0.0
 30
0.0
  9
$USERI1
 70
     0
  9
$USERI2
 70
     0
  9
$USERI3
 70
     0
  9
$USERI4
 70
     0
  9
$USERI5
 70
     0
  9
$USERR1
 40
0.0
  9
$USERR2
 40
0.0
  9
$USERR3
 40
0.0
  9
$USERR4
 40
0.0
  9
$USERR5
 40
0.0
  9
$WORLDVIEW
 70
     1
  9
$SHADEDGE
 70
     3
  9
$SHADEDIF
 70
    70
  9
$TILEMODE
 70
     1
  9
$MAXACTVP
 70
    64
  9
$PINSBASE
 10
0.0
 20
0.0
 30
0.0
  9
$PLIMCHECK
 70
     0
  9
$PEXTMIN
 10
0.0
 20
0.0
 30
0.0
  9
$PEXTMAX
 10
0.0
 20
0.0
 30
0.0
  9
$PLIMMIN
 10
0.0
 20
0.0
  9
$PLIMMAX
 10
12.0
 20
9.0
  9
$UNITMODE
 70
     0
  9
$VISRETAIN
 70
     1
  9
$PLINEGEN
 70
     0
  9
$PSLTSCALE
 70
     1
  9
$TREEDEPTH
 70
  3020
  9
$CMLSTYLE
  2
Standard
  9
$CMLJUST
 70
     0
  9
$CMLSCALE
 40
20.0
  9
$PROXYGRAPHICS
 70
     1
  9
$MEASUREMENT
 70
     1
  9
$CELWEIGHT
370
    -1
  9
$ENDCAPS
280
     0
  9
$JOINSTYLE
280
     0
  9
$LWDISPLAY
290
     0
  9
$INSUNITS
 70
     4
  9
$HYPERLINKBASE
  1

  9
$STYLESHEET
  1

  9
$XEDIT
290
     1
  9
$CEPSNTYPE
380
     0
  9
$PSTYLEMODE
290
     1
  9
$FINGERPRINTGUID
  2
{FDEAD578-A652-11D2-9A35-0060089B3A3F}
  9
$VERSIONGUID
  2
{0EBBA86B-1CEB-447C-970D-713FCFB79608}
  9
$EXTNAMES
290
     1
  9
$PSVPSCALE
 40
0.0
  9
$OLESTARTUP
290
     0
  0
ENDSEC
  0
SECTION
  2
CLASSES
  0
CLASS
  1
ACDBDICTIONARYWDFLT
  2
AcDbDictionaryWithDefault
  3
ObjectDBX Classes
 90
        0
280
     0
281
     0
  0
CLASS
  1
ACDBPLACEHOLDER
  2
AcDbPlaceHolder
  3
ObjectDBX Classes
 90
        0
280
     0
281
     0
  0
CLASS
  1
LAYOUT
  2
AcDbLayout
  3
ObjectDBX Classes
 90
        0
280
     0
281
     0
  0
CLASS
  1
DICTIONARYVAR
  2
AcDbDictionaryVar
  3
ObjectDBX Classes
 90
        0
280
     0
281
     0
  0
CLASS
  1
TABLESTYLE
  2
AcDbTableStyle
  3
ObjectDBX Classes
 90
     4095
280
     0
281
     0
  0
CLASS
  1
ACME_DOCUMENT
  2
AcMeDbDoc
  3
AcMeServices
 90
     1024
280
     0
281
     0
  0
CLASS
  1
AMGSETTINGSOBJ
  2
AmgSettingsObj
  3
"AcadM|Product Description: AutoCAD Mechanical|Company: Autodesk, Inc."
 90
     1024
280
     0
281
     0
  0
CLASS
  1
ACMESCOPE
  2
AcMeScope
  3
AcMeServices
 90
     1024
280
     0
281
     0
  0
CLASS
  1
ACMECOMMANDHISTORY
  2
AcMeCommandHistory
  3
AcMeServices
 90
     1024
280
     0
281
     0
  0
CLASS
  1
ACIMSYSVARMAN
  2
AcImSysVarManager
  3
AcMeServices
 90
     1024
280
     0
281
     0
  0
CLASS
  1
ACIMINTSYSVAR
  2
AcImIntSysVar
  3
AcMeServices
 90
     1024
280
     0
281
     0
  0
CLASS
  1
ACMEDRAWINGMAN
  2
AcMeDrawingMan
  3
AcMeServices
 90
     1024
280
     0
281
     0
  0
CLASS
  1
ACMEVIEW
  2
AcMeView
  3
AcMeServices
 90
     1024
280
     0
281
     0
  0
CLASS
  1
ACDBENTITYCACHE
  2
AcMeEntityCache
  3
AcMeServices
 90
     1024
280
     0
281
     0
  0
CLASS
  1
GSMANAGER
  2
AcMeGSManager
  3
AcMeServices
 90
     1024
280
     0
281
     0
  0
CLASS
  1
AMDTINTERNALREACTOR
  2
AmdtInternalReactor
  3
AcMeServices
 90
     1024
280
     0
281
     0
  0
CLASS
  1
ACMESTATEMGR
  2
AcMeStateMgr
  3
AcMeServices
 90
     1024
280
     0
281
     0
  0
CLASS
  1
ACGREFMASTER
  2
AcGrefMaster
  3
AcAttribServices
 90
     1024
280
     0
281
     0
  0
CLASS
  1
AM_DRAWING_MGR
  2
AcDmDwgMgr
  3
AcMechDwgViewMgmt
 90
     1024
280
     0
281
     0
  0
CLASS
  1
AM_DWG_DOCUMENT
  2
AcDmDwgDocument
  3
AcMechDwgViewMgmt
 90
     1024
280
     0
281
     0
  0
CLASS
  1
AM_DWG_SHEET
  2
AcDmSheet
  3
AcMechDwgViewMgmt
 90
     1024
280
     0
281
     0
  0
CLASS
  1
AM_VIEWDIMPARMAP
  2
AcDmViewDimParMap
  3
AcMechDwgViewMgmt
 90
     1024
280
     0
281
     0
  0
CLASS
  1
ACIMREALSYSVAR
  2
AcImRealSysVar
  3
AcMeServices
 90
     1024
280
     0
281
     0
  0
CLASS
  1
AM_DWGMGR_NAME
  2
AcDmDwgMgrName
  3
AcMechDwgViewMgmt
 90
     1024
280
     0
281
     0
  0
CLASS
  1
ACME_DATABASE
  2
AcMeDbDatabase
  3
AcMeServices
 90
     1024
280
     0
281
     0
  0
CLASS
  1
ACRFINSADJUSTERMGR
  2
AcRfInsAdjusterMgr
  3
AcMeServices
 90
     1024
280
     0
281
     0
  0
CLASS
  1
ACGREFACADMASTER
  2
AcGrefacadMaster
  3
AcGrefServices
 90
     1024
280
     0
281
     0
  0
CLASS
  1
AMDTMENUSTATEMGR
  2
AmdtMenuStateMgr
  3
McadcomServices
 90
     1024
280
     0
281
     0
  0
CLASS
  1
AMDTMCOMMENUSTATE
  2
AmdtMcomMenuState
  3
McadcomServices
 90
     1024
280
     0
281
     0
  0
CLASS
  1
AMIMASTER
  2
AmiMaster
  3
AmiServices
 90
     1024
280
     0
281
     0
  0
CLASS
  1
MAPIAMMOUDLE
  2
MApiAmModule
  3
MApiAmServices
 90
     1024
280
     0
281
     0
  0
CLASS
  1
ACIMSTRSYSVAR
  2
AcImStrSysVar
  3
AcMeServices
 90
     1024
280
     0
281
     0
  0
CLASS
  1
AMDTADMENUSTATE
  2
AmdtAdMenuState
  3
DesignerServices
 90
     1024
280
     0
281
     0
  0
CLASS
  1
ADAPPL
  2
AcAdAppl
  3
DesignerServices
 90
     1024
280
     0
281
     0
  0
CLASS
  1
DEPMGR
  2
AcAdDepMgr
  3
DesignerServices
 90
     1024
280
     0
281
     0
  0
CLASS
  1
PARAMMGR
  2
AcAdParamMgr
  3
DesignerServices
 90
     1024
280
     0
281
     0
  0
CLASS
  1
PARAMSCOPE
  2
AcAdParamScope
  3
DesignerServices
 90
     1024
280
     0
281
     0
  0
CLASS
  1
NAMEDAPPL
  2
AcAdNamedAppl
  3
DesignerServices
 90
     1024
280
     0
281
     0
  0
CLASS
  1
AMDTDMMENUSTATE
  2
AmdtDmMenuState
  3
AcMechDwgViewMgmt
 90
     1024
280
     0
281
     0
  0
CLASS
  1
AMDTAMMENUSTATE
  2
AmdtAmMenuState
  3
DesignerAssemblies
 90
     1024
280
     0
281
     0
  0
CLASS
  1
ACAMPROJECT
  2
AcAmProject
  3
DesignerAssemblies
 90
     1024
280
     0
281
     0
  0
CLASS
  1
ACAMGRCOMPDEF
  2
AcAmGrCompDef
  3
DesignerAssemblies
 90
     1024
280
     0
281
     0
  0
CLASS
  1
ACCMCONTEXT
  2
AcCmContext
  3
DesignerAssemblies
 90
     1024
280
     0
281
     0
  0
CLASS
  1
ACAMCOMPDEF
  2
AcAmCompDef
  3
DesignerAssemblies
 90
     1024
280
     0
281
     0
  0
CLASS
  1
ACAMCOMPDEFMGR
  2
AcAmCompDefMgr
  3
DesignerAssemblies
 90
     1024
280
     0
281
     0
  0
CLASS
  1
AMCONTEXTMGR
  2
AcAmContextMgr
  3
DesignerAssemblies
 90
     1024
280
     0
281
     0
  0
CLASS
  1
ACAMCONTEXTMODELER
  2
AcAmContextModeler
  3
DesignerAssemblies
 90
     1024
280
     0
281
     0
  0
CLASS
  1
ACMDATADICTIONARY
  2
AcmDataDictionary
  3
"AcmSymBB|Product Description: AutoCAD Mechanical|Company: Autodesk, Inc."
 90
     1024
280
     0
281
     0
  0
CLASS
  1
CATALOGSTATE
  2
AcAmCatalogState
  3
DesignerAssemblies
 90
     1024
280
     0
281
     0
  0
CLASS
  1
ACAMGRCOMPDEFSET
  2
AcAmGrCompDefSet
  3
DesignerAssemblies
 90
     1024
280
     0
281
     0
  0
CLASS
  1
AMDTBROWSERDBTAB
  2
AmdtBrowserDbTab
  3
McadcomServices
 90
     1024
280
     0
281
     0
  0
CLASS
  1
CBROWSERAPPOBJECT
  2
CBrowserAppObject
  3
McadcomServices
 90
     1024
280
     0
281
     0
  0
CLASS
  1
DM_PLACEHOLDER
  2
AcDmSelsetPlaceholder
  3
AcMechDwgViewMgmt
 90
     1024
280
     0
281
     0
  0
CLASS
  1
ACMSTANDARDDIN
  2
AcmStandardDIN
  3
"Amdt_StdImp|Product Description: AutoCAD Mechanical|Company: Autodesk, Inc."
 90
     1024
280
     0
281
     0
  0
CLASS
  1
AMGOBJPROPCFG
  2
AmgObjPropCfg
  3
"AmgLay|Product Description: AutoCAD Mechanical|Company: Autodesk, Inc."
 90
     1025
280
     0
281
     0
  0
CLASS
  1
AMDTEDGESTANDARDDIN13715
  2
AmdtEdgeStdDIN13715
  3
"Amdt_StdImp|Product Description: AutoCAD Mechanical|Company: Autodesk, Inc."
 90
     1024
280
     0
281
     0
  0
CLASS
  1
ACMSURFSTANDARDDIN
  2
AcmSurfTextStdDIN
  3
"Amdt_StdImp|Product Description: AutoCAD Mechanical|Company: Autodesk, Inc."
 90
     1024
280
     0
281
     0
  0
CLASS
  1
ACMFCFSTANDARDDIN
  2
AcmFCFStdDIN
  3
"Amdt_StdImp|Product Description: AutoCAD Mechanical|Company: Autodesk, Inc."
 90
     1024
280
     0
281
     0
  0
CLASS
  1
ACMWELDSTANDARDDIN
  2
AcmWeldingStdDIN
  3
"Amdt_StdImp|Product Description: AutoCAD Mechanical|Company: Autodesk, Inc."
 90
     1024
280
     0
281
     0
  0
CLASS
  1
ACMIDSTANDARDDIN
  2
AcmIdStdDIN
  3
"Amdt_StdImp|Product Description: AutoCAD Mechanical|Company: Autodesk, Inc."
 90
     1024
280
     0
281
     0
  0
CLASS
  1
ACMDATUMSTANDARDDIN
  2
AcmDatumStdDIN
  3
"Amdt_StdImp|Product Description: AutoCAD Mechanical|Company: Autodesk, Inc."
 90
     1024
280
     0
281
     0
  0
CLASS
  1
ACMBOMSTANDARDDIN
  2
AcmBOMStdDIN
  3
"Amdt_StdImp|Product Description: AutoCAD Mechanical|Company: Autodesk, Inc."
 90
     1024
280
     0
281
     0
  0
CLASS
  1
ACMDETAILSTANDARDDIN
  2
AmdtDetailSymStdDIN
  3
"Amdt_StdImp|Product Description: AutoCAD Mechanical|Company: Autodesk, Inc."
 90
     1024
280
     0
281
     0
  0
CLASS
  1
ACMSECTIONSTANDARDDIN
  2
AmdtSectionSymStdDIN
  3
"Amdt_StdImp|Product Description: AutoCAD Mechanical|Company: Autodesk, Inc."
 90
     1024
280
     0
281
     0
  0
CLASS
  1
ACMCENTERLINESTANDARDDIN
  2
AmdtCenterLineStdDIN
  3
"Amdt_StdImp|Product Description: AutoCAD Mechanical|Company: Autodesk, Inc."
 90
     1024
280
     0
281
     0
  0
CLASS
  1
ACMTHREADLINESTANDARDDIN
  2
AmdtThreadLineStdDIN
  3
"Amdt_StdImp|Product Description: AutoCAD Mechanical|Company: Autodesk, Inc."
 90
     1024
280
     0
281
     0
  0
CLASS
  1
ACMNOTESTANDARDDIN
  2
AmdtNoteStdDIN
  3
"Amdt_StdImp|Product Description: AutoCAD Mechanical|Company: Autodesk, Inc."
 90
     1024
280
     0
281
     0
  0
CLASS
  1
AMDTNOTETEMPLATEDB
  2
AmdtNoteTemplateDB
  3
AcmSymBB|Product Description: AutoCAD Mechanical|Company: Autodesk, Inc.
 90
     1024
280
     0
281
     0
  0
CLASS
  1
ACAMGLAYSTD
  2
AcAmgLayStd
  3
"AmgLay|Product Description: AutoCAD Mechanical|Company: Autodesk, Inc."
 90
     1024
280
     0
281
     0
  0
CLASS
  1
ACAMGDIMSTD
  2
AcAmgDimStd
  3
"AmgDim|Product Description: AutoCAD Mechanical|Company: Autodesk, Inc."
 90
     1024
280
     0
281
     0
  0
CLASS
  1
ACAMGHOLECHARTSTDDIN
  2
AcAmgHoleChartStdDIN
  3
AmgDim|Product Description: AutoCAD Mechanical|Company: Autodesk, Inc.
 90
     1024
280
     0
281
     0
  0
CLASS
  1
ACAMGTITLESTD
  2
AcAmgTitleStd
  3
"AmgTitle|Product Description: AutoCAD Mechanical|Company: Autodesk, Inc."
 90
     4095
280
     0
281
     0
  0
CLASS
  1
ACAMGFILTERDAT
  2
AcAmgFilterDat
  3
"AcadM|Product Description: AutoCAD Mechanical|Company: Autodesk, Inc."
 90
    33792
280
     0
281
     0
  0
CLASS
  1
IMAGE
  2
AcDbRasterImage
  3
ISM
 90
     2175
280
     0
281
     1
  0
CLASS
  1
IMAGEDEF_REACTOR
  2
AcDbRasterImageDefReactor
  3
ISM
 90
        1
280
     0
281
     0
  0
CLASS
  1
DIMASSOC
  2
AcDbDimAssoc
  3
"AcDbDimAssoc|Product Desc:     AcDim ARX App For Dimension|Company:          Autodesk, Inc.|WEB Address:      www.autodesk.com"
 90
        0
280
     0
281
     0
  0
CLASS
  1
AMDTSECTIONSYM
  2
AmdtSectionSym
  3
"AcmSymBB|Product Description: AutoCAD Mechanical|Company: Autodesk, Inc."
 90
     4095
280
     0
281
     1
  0
CLASS
  1
AMDTSECTIONSYMLABEL
  2
AmdtSectionSymLabel
  3
"AcmSymBB|Product Description: AutoCAD Mechanical|Company: Autodesk, Inc."
 90
     4095
280
     0
281
     1
  0
CLASS
  1
SORTENTSTABLE
  2
AcDbSortentsTable
  3
ObjectDBX Classes
 90
    32768
280
     0
281
     0
  0
CLASS
  1
IMAGEDEF
  2
AcDbRasterImageDef
  3
ISM
 90
        0
280
     0
281
     0
  0
CLASS
  1
ACMDATAENTRYBLOCK
  2
AcmDataEntryBlock
  3
AcmSymBB|Product Description: AutoCAD Mechanical|Company: Autodesk, Inc.
 90
    33792
280
     0
281
     0
  0
CLASS
  1
RASTERVARIABLES
  2
AcDbRasterVariables
  3
ISM
 90
        0
280
     0
281
     0
  0
CLASS
  1
MATERIAL
  2
AcDbMaterial
  3
ObjectDBX Classes
 90
     1153
280
     0
281
     0
  0
CLASS
  1
VISUALSTYLE
  2
AcDbVisualStyle
  3
ObjectDBX Classes
 90
     4095
280
     0
281
     0
  0
CLASS
  1
SCALE
  2
AcDbScale
  3
ObjectDBX Classes
 90
     1153
280
     0
281
     0
  0
CLASS
  1
MLEADERSTYLE
  2
AcDbMLeaderStyle
  3
ACDB_MLEADERSTYLE_CLASS
 90
     4095
280
     0
281
     0
  0
CLASS
  1
ACMTAPERSTANDARDDIN
  2
AcmTaperStdDIN
  3
"Amdt_StdImp|Product Description: AutoCAD Mechanical|Company: Autodesk, Inc."
 90
     1024
280
     0
281
     0
  0
CLASS
  1
ACMANOOTATIONVIEWSTANDARDDIN
  2
AmdtAnViewStdDIN
  3
"Amdt_StdImp|Product Description: AutoCAD Mechanical|Company: Autodesk, Inc."
 90
     1024
280
     0
281
     0
  0
CLASS
  1
EXACXREFPANELOBJECT
  2
ExAcXREFPanelObject
  3
EXAC_ESW
 90
     1025
280
     0
281
     0
  0
CLASS
  1
NPOCOLLECTION
  2
AcDbImpNonPersistentObjectsCollection
  3
ObjectDBX Classes
 90
     1153
280
     0
281
     0
  0
CLASS
  1
AEC_REFEDIT_STATUS_TRACKER
  2
AecDbRefEditStatusTracker
  3
AecArchBase50|Product Desc: Autodesk Architectural Desktop 2007 |Company: Autodesk,Inc. |WEB Address: www.autodesk.com
 90
      129
280
     0
281
     0
  0
CLASS
  1
CELLSTYLEMAP
  2
AcDbCellStyleMap
  3
ObjectDBX Classes
 90
     1152
280
     0
281
     0
  0
ENDSEC
  0
SECTION
  2
TABLES
  0
TABLE
  2
VPORT
  5
8
330
0
100
AcDbSymbolTable
 70
     1
  0
VPORT
  5
746
330
8
100
AcDbSymbolTableRecord
100
AcDbViewportTableRecord
  2
*Active
 70
     0
 10
0.0
 20
0.0
 11
1.0
 21
1.0
 12
350.7545541079248
 22
235.977707319226
 13
0.0
 23
0.0
 14
10.0
 24
10.0
 15
10.0
 25
10.0
 16
0.0
 26
0.0
 36
1.0
 17
0.0
 27
0.0
 37
0.0
 40
702.4831099844782
 41
1.833531510107015
 42
50.0
 43
0.0
 44
0.0
 50
0.0
 51
0.0
 71
     0
 72
   100
 73
     1
 74
     3
 75
     0
 76
     0
 77
     0
 78
     0
281
     0
 65
     1
110
0.0
120
0.0
130
0.0
111
1.0
121
0.0
131
0.0
112
0.0
122
1.0
132
0.0
 79
     0
146
0.0
  0
ENDTAB
  0
TABLE
  2
LTYPE
  5
5
330
0
100
AcDbSymbolTable
 70
    21
  0
LTYPE
  5
14
330
5
100
AcDbSymbolTableRecord
100
AcDbLinetypeTableRecord
  2
ByBlock
 70
     0
  3

 72
    65
 73
     0
 40
0.0
  0
LTYPE
  5
15
330
5
100
AcDbSymbolTableRecord
100
AcDbLinetypeTableRecord
  2
ByLayer
 70
     0
  3

 72
    65
 73
     0
 40
0.0
  0
LTYPE
  5
16
330
5
100
AcDbSymbolTableRecord
100
AcDbLinetypeTableRecord
  2
Continuous
 70
     0
  3
Solid line
 72
    65
 73
     0
 40
0.0
  0
LTYPE
  5
B0
330
5
100
AcDbSymbolTableRecord
100
AcDbLinetypeTableRecord
  2
HIDDEN
 70
     0
  3
Verdeckt
 72
    65
 73
     2
 40
9.525
 49
6.349999999999999
 74
     0
 49
-3.174999999999999
 74
     0
  0
LTYPE
  5
B1
330
5
100
AcDbSymbolTableRecord
100
AcDbLinetypeTableRecord
  2
PHANTOM2
 70
     0
  3
Phantom (.5x) ___ _ _ ___ _ _ ___ _ _ ___ _ _
 72
    65
 73
     6
 40
31.75
 49
15.875
 74
     0
 49
-3.174999999999999
 74
     0
 49
3.174999999999999
 74
     0
 49
-3.174999999999999
 74
     0
 49
3.174999999999999
 74
     0
 49
-3.174999999999999
 74
     0
  0
LTYPE
  5
B2
330
5
100
AcDbSymbolTableRecord
100
AcDbLinetypeTableRecord
  2
CENTER
 70
     0
  3
Mitte ____ _ ____ _ ____ _ ____ _ ____ _ ____
 72
    65
 73
     4
 40
50.8
 49
31.75
 74
     0
 49
-6.349999999999999
 74
     0
 49
6.349999999999999
 74
     0
 49
-6.349999999999999
 74
     0
  0
LTYPE
  5
E9
330
5
100
AcDbSymbolTableRecord
100
AcDbLinetypeTableRecord
  2
Amconstr
 70
     0
  3
_______________________
 72
    65
 73
     2
 40
9999.0
 49
9999.0
 74
     0
 49
0.0
 74
     0
  0
LTYPE
  5
EE
330
5
100
AcDbSymbolTableRecord
100
AcDbLinetypeTableRecord
  2
Amzigzag
 70
     0
  3
/\/-/\/-/\/-/\/-/\/-/\/
 72
    65
 73
     2
 40
11.0001
 49
0.0001
 74
     4
 75
   136
340
ED
 46
0.04
 50
0.0
 44
0.0
 45
0.0
 49
-11.0
 74
     0
  0
LTYPE
  5
EF
330
5
100
AcDbSymbolTableRecord
100
AcDbLinetypeTableRecord
  2
AM_DIN_F_W050
 70
     0
  3
__ __ __ __ __ __ __ __ __ __ __ __ __ __ __
 72
    65
 73
     2
 40
6.25
 49
4.75
 74
     0
 49
-1.5
 74
     0
  0
LTYPE
  5
F0
330
5
100
AcDbSymbolTableRecord
100
AcDbLinetypeTableRecord
  2
AM_DIN_G_W050
 70
     0
  3
____ . ____ . ____ . ____ . ____ . ____ . ____
 72
    65
 73
     4
 40
13.75
 49
9.75
 74
     0
 49
-1.5
 74
     0
 49
1.0
 74
     0
 49
-1.5
 74
     0
  0
LTYPE
  5
F1
330
5
100
AcDbSymbolTableRecord
100
AcDbLinetypeTableRecord
  2
AM_DIN_K_W050
 70
     0
  3
_____ . . _____ . . _____ . . ____ .. ____
 72
    65
 73
     6
 40
16.25
 49
9.75
 74
     0
 49
-1.5
 74
     0
 49
1.0
 74
     0
 49
-1.5
 74
     0
 49
1.0
 74
     0
 49
-1.5
 74
     0
  0
LTYPE
  5
F2
330
5
100
AcDbSymbolTableRecord
100
AcDbLinetypeTableRecord
  2
AM_DIN_G_W050x2
 70
     0
  3
__ . __ . __ . __ . __ . __
 72
    65
 73
     4
 40
6.875
 49
4.75
 74
     0
 49
-0.875
 74
     0
 49
0.375
 74
     0
 49
-0.875
 74
     0
  0
LTYPE
  5
F3
330
5
100
AcDbSymbolTableRecord
100
AcDbLinetypeTableRecord
  2
AM_DIN_F_W050x2
 70
     0
  3
 _ _ _ _ _ _ _ _ _ _ _ _
 72
    65
 73
     2
 40
3.125
 49
2.25
 74
     0
 49
-0.875
 74
     0
  0
LTYPE
  5
102
330
5
100
AcDbSymbolTableRecord
100
AcDbLinetypeTableRecord
  2
ACDINWELD
 70
     0
  3
_ _ _ _ _
 72
    65
 73
     2
 40
2.0
 49
2.0
 74
     0
 49
-1.0
 74
     0
  0
LTYPE
  5
103
330
5
100
AcDbSymbolTableRecord
100
AcDbLinetypeTableRecord
  2
ACDINTGB
 70
     0
  3
__ . . __ . .
 72
    65
 73
     6
 40
9.0
 49
4.0
 74
     0
 49
-1.0
 74
     0
 49
1.0
 74
     0
 49
-1.0
 74
     0
 49
1.0
 74
     0
 49
-1.0
 74
     0
  0
LTYPE
  5
104
330
5
100
AcDbSymbolTableRecord
100
AcDbLinetypeTableRecord
  2
ACDINTGL
 70
     0
  3
_ _ _ _ _
 72
    65
 73
     2
 40
3.0
 49
2.0
 74
     0
 49
-1.0
 74
     0
  0
LTYPE
  5
17A
330
5
100
AcDbSymbolTableRecord
100
AcDbLinetypeTableRecord
  2
AM_ISO02W050
 70
     0
  3
__ __ __ __ __ __ __ __ __ __ __ __ __ __ __
 72
    65
 73
     2
 40
7.5
 49
6.0
 74
     0
 49
-1.5
 74
     0
  0
LTYPE
  5
17B
330
5
100
AcDbSymbolTableRecord
100
AcDbLinetypeTableRecord
  2
AM_ISO08W050
 70
     0
  3
____ . ____ . ____ . ____ . ____ . ____ . ____
 72
    65
 73
     4
 40
18.0
 49
12.0
 74
     0
 49
-1.5
 74
     0
 49
3.0
 74
     0
 49
-1.5
 74
     0
  0
LTYPE
  5
17C
330
5
100
AcDbSymbolTableRecord
100
AcDbLinetypeTableRecord
  2
AM_ISO09W050
 70
     0
  3
_____ . . _____ . . _____ . . ____ .. ____
 72
    65
 73
     6
 40
22.5
 49
12.0
 74
     0
 49
-1.5
 74
     0
 49
3.0
 74
     0
 49
-1.5
 74
     0
 49
3.0
 74
     0
 49
-1.5
 74
     0
  0
LTYPE
  5
17D
330
5
100
AcDbSymbolTableRecord
100
AcDbLinetypeTableRecord
  2
AM_ISO08W050x2
 70
     0
  3
__ . __ . __ . __ . __ . __
 72
    65
 73
     4
 40
9.0
 49
6.0
 74
     0
 49
-0.75
 74
     0
 49
1.5
 74
     0
 49
-0.75
 74
     0
  0
LTYPE
  5
17E
330
5
100
AcDbSymbolTableRecord
100
AcDbLinetypeTableRecord
  2
AM_ISO02W050x2
 70
     0
  3
 _ _ _ _ _ _ _ _ _ _ _ _
 72
    65
 73
     2
 40
3.75
 49
3.0
 74
     0
 49
-0.75
 74
     0
  0
LTYPE
  5
3E6
330
5
100
AcDbSymbolTableRecord
100
AcDbLinetypeTableRecord
  2
AUSGEZOGEN
 70
     0
  3
Ausgezogene Linie
 72
    65
 73
     0
 40
0.0
  0
LTYPE
  5
3E7
330
5
100
AcDbSymbolTableRecord
100
AcDbLinetypeTableRecord
  2
STRICHPUNKT
 70
     0
  3
__ . __ . __ . __ . __ . __ . __ . __ . __ . __
 72
    65
 73
     4
 40
1.0
 49
0.5
 74
     0
 49
-0.25
 74
     0
 49
0.0
 74
     0
 49
-0.25
 74
     0
  0
ENDTAB
  0
TABLE
  2
LAYER
  5
2
102
{ACAD_XDICTIONARY
360
40A
102
}
330
0
100
AcDbSymbolTable
 70
    15
  0
LAYER
  5
10
330
2
100
AcDbSymbolTableRecord
100
AcDbLayerTableRecord
  2
0
 70
     0
 62
     7
  6
Continuous
370
    -3
390
F
  0
LAYER
  5
3E8
330
2
100
AcDbSymbolTableRecord
100
AcDbLayerTableRecord
  2
AM_5
 70
     0
 62
     3
  6
Continuous
370
    25
390
F
1001
AcAecLayerStandard
1000

1000

  0
LAYER
  5
3E9
330
2
100
AcDbSymbolTableRecord
100
AcDbLayerTableRecord
  2
Defpoints
 70
     0
 62
     7
  6
Continuous
290
     0
370
    -3
390
F
  0
LAYER
  5
3EA
330
2
100
AcDbSymbolTableRecord
100
AcDbLayerTableRecord
  2
AM_7
 70
     0
 62
     4
  6
AM_ISO08W050
370
    25
390
F
1001
AcAecLayerStandard
1000

1000

  0
LAYER
  5
3EB
330
2
100
AcDbSymbolTableRecord
100
AcDbLayerTableRecord
  2
AM_10
 70
     0
 62
     7
  6
AM_ISO08W050
370
    50
390
F
1001
AcAecLayerStandard
1000

1000

  0
LAYER
  5
3EC
330
2
100
AcDbSymbolTableRecord
100
AcDbLayerTableRecord
  2
RAHM2
 70
     0
 62
     1
  6
Continuous
370
    -3
390
F
  0
LAYER
  5
3ED
330
2
100
AcDbSymbolTableRecord
100
AcDbLayerTableRecord
  2
MITTE
 70
     0
 62
     1
  6
STRICHPUNKT
370
    -3
390
F
  0
LAYER
  5
3EE
330
2
100
AcDbSymbolTableRecord
100
AcDbLayerTableRecord
  2
TEXT50
 70
     0
 62
     7
  6
Continuous
370
    -3
390
F
  0
LAYER
  5
3EF
330
2
100
AcDbSymbolTableRecord
100
AcDbLayerTableRecord
  2
TEXT35
 70
     0
 62
   132
  6
Continuous
370
    -3
390
F
  0
LAYER
  5
3F0
330
2
100
AcDbSymbolTableRecord
100
AcDbLayerTableRecord
  2
TEXT25
 70
     0
 62
     3
  6
Continuous
370
    -3
390
F
  0
LAYER
  5
3F1
330
2
100
AcDbSymbolTableRecord
100
AcDbLayerTableRecord
  2
KOPF
 70
     0
 62
     1
  6
AUSGEZOGEN
370
    -3
390
F
  0
LAYER
  5
3F2
330
2
100
AcDbSymbolTableRecord
100
AcDbLayerTableRecord
  2
Sperrlayer
 70
     0
 62
     7
  6
Continuous
370
    50
390
F
  0
LAYER
  5
3F3
330
2
100
AcDbSymbolTableRecord
100
AcDbLayerTableRecord
  2
RAHM3
 70
     0
 62
     2
  6
Continuous
370
    -3
390
F
  0
LAYER
  5
3F4
330
2
100
AcDbSymbolTableRecord
100
AcDbLayerTableRecord
  2
0N
 70
     0
 62
     7
  6
Continuous
370
    -3
390
F
  0
LAYER
  5
3F5
330
2
100
AcDbSymbolTableRecord
100
AcDbLayerTableRecord
  2
AM_8
 70
     0
 62
     1
  6
Continuous
370
    25
390
F
1001
AcAecLayerStandard
1000

1000

  0
ENDTAB
  0
TABLE
  2
STYLE
  5
3
330
0
100
AcDbSymbolTable
 70
     8
  0
STYLE
  5
11
330
3
100
AcDbSymbolTableRecord
100
AcDbTextStyleTableRecord
  2
Standard
 70
     0
 40
0.0
 41
1.0
 50
0.0
 71
     0
 42
2.5
  3
isocp.shx
  4

  0
STYLE
  5
ED
330
3
100
AcDbSymbolTableRecord
100
AcDbTextStyleTableRecord
  2

 70
     1
 40
0.0
 41
1.0
 50
0.0
 71
     0
 42
2.5
  3
genltshp.shx
  4

  0
STYLE
  5
F4
330
3
100
AcDbSymbolTableRecord
100
AcDbTextStyleTableRecord
  2
ACDINTS
 70
     0
 40
1.0
 41
1.0
 50
0.0
 71
     0
 42
2.5
  3
isocp.shx
  4

  0
STYLE
  5
101
330
3
100
AcDbSymbolTableRecord
100
AcDbTextStyleTableRecord
  2
ACDINGDT
 70
     0
 40
0.0
 41
1.0
 50
0.0
 71
     0
 42
2.5
  3
AMGDT
  4

  0
STYLE
  5
3F6
330
3
100
AcDbSymbolTableRecord
100
AcDbTextStyleTableRecord
  2
TEXT20
 70
     0
 40
2.0
 41
0.8
 50
0.0
 71
     0
 42
2.0
  3
isocp3.shx
  4

  0
STYLE
  5
3F7
330
3
100
AcDbSymbolTableRecord
100
AcDbTextStyleTableRecord
  2
TEXT35
 70
     0
 40
3.5
 41
0.8
 50
0.0
 71
     0
 42
3.5
  3
isocp3.shx
  4

  0
STYLE
  5
3F8
330
3
100
AcDbSymbolTableRecord
100
AcDbTextStyleTableRecord
  2
TEXT50
 70
     0
 40
5.0
 41
0.8
 50
0.0
 71
     0
 42
5.0
  3
isocp3.shx
  4

  0
STYLE
  5
3F9
330
3
100
AcDbSymbolTableRecord
100
AcDbTextStyleTableRecord
  2
Anschrift
 70
     0
 40
0.0
 41
1.0
 50
0.0
 71
     0
 42
2.0
  3
News Gothic Bold (True Type).ttf
  4

1001
ACAD
1000
News Gothic
1071
 33554434
  0
ENDTAB
  0
TABLE
  2
VIEW
  5
6
330
0
100
AcDbSymbolTable
 70
     0
  0
ENDTAB
  0
TABLE
  2
UCS
  5
7
330
0
100
AcDbSymbolTable
 70
     0
  0
ENDTAB
  0
TABLE
  2
APPID
  5
9
330
0
100
AcDbSymbolTable
 70
    25
  0
APPID
  5
12
330
9
100
AcDbSymbolTableRecord
100
AcDbRegAppTableRecord
  2
ACAD
 70
     0
  0
APPID
  5
81
330
9
100
AcDbSymbolTableRecord
100
AcDbRegAppTableRecord
  2
MCAD_NO_VIS
 70
     0
  0
APPID
  5
82
330
9
100
AcDbSymbolTableRecord
100
AcDbRegAppTableRecord
  2
ACAD_TEMP_GRAPHIC
 70
     0
  0
APPID
  5
B4
330
9
100
AcDbSymbolTableRecord
100
AcDbRegAppTableRecord
  2
AD_DRAW
 70
     0
  0
APPID
  5
B7
330
9
100
AcDbSymbolTableRecord
100
AcDbRegAppTableRecord
  2
ACATTRIBSERVICES
 70
     0
  0
APPID
  5
D7
330
9
100
AcDbSymbolTableRecord
100
AcDbRegAppTableRecord
  2
DESIGNERASSEMBLIES
 70
     0
  0
APPID
  5
DD
330
9
100
AcDbSymbolTableRecord
100
AcDbRegAppTableRecord
  2
ACADM_DIM_EDIT
 70
     0
  0
APPID
  5
DE
330
9
100
AcDbSymbolTableRecord
100
AcDbRegAppTableRecord
  2
AMDT_DM_ADJ
 70
     0
  0
APPID
  5
10F
330
9
100
AcDbSymbolTableRecord
100
AcDbRegAppTableRecord
  2
ACAD_DSTYLE_DIMARC_LENGTH_SYMBOL
 70
     0
  0
APPID
  5
110
330
9
100
AcDbSymbolTableRecord
100
AcDbRegAppTableRecord
  2
ACAD_DSTYLE_DIMJOGGED_JOGANGLE_SYMBOL
 70
     0
  0
APPID
  5
3FC
330
9
100
AcDbSymbolTableRecord
100
AcDbRegAppTableRecord
  2
AcAecLayerStandard
 70
     0
  0
APPID
  5
3FD
330
9
100
AcDbSymbolTableRecord
100
AcDbRegAppTableRecord
  2
GENIUS_GENOENT_13
 70
     0
  0
APPID
  5
3FE
330
9
100
AcDbSymbolTableRecord
100
AcDbRegAppTableRecord
  2
GENIUS_GENOLIS_13
 70
     0
  0
APPID
  5
3FF
330
9
100
AcDbSymbolTableRecord
100
AcDbRegAppTableRecord
  2
GENIUS_GENOBJ-N-CRS_13
 70
     0
  0
APPID
  5
400
330
9
100
AcDbSymbolTableRecord
100
AcDbRegAppTableRecord
  2
GENIUS_GENODEF_13
 70
     0
  0
APPID
  5
401
330
9
100
AcDbSymbolTableRecord
100
AcDbRegAppTableRecord
  2
GENIUS_GENOREF_13
 70
     0
  0
APPID
  5
402
330
9
100
AcDbSymbolTableRecord
100
AcDbRegAppTableRecord
  2
GENIUS_GENOBJ-N-CEN_13
 70
     0
  0
APPID
  5
403
330
9
100
AcDbSymbolTableRecord
100
AcDbRegAppTableRecord
  2
GENIUS_GENCEN_19
 70
     0
  0
APPID
  5
404
330
9
100
AcDbSymbolTableRecord
100
AcDbRegAppTableRecord
  2
GENIUS_GENBLLY_14
 70
     0
  0
APPID
  5
405
330
9
100
AcDbSymbolTableRecord
100
AcDbRegAppTableRecord
  2
GENIUS_VERSION2
 70
     0
  0
APPID
  5
406
330
9
100
AcDbSymbolTableRecord
100
AcDbRegAppTableRecord
  2
GENIUS_GENREC_14
 70
     0
  0
APPID
  5
407
330
9
100
AcDbSymbolTableRecord
100
AcDbRegAppTableRecord
  2
GENIUS_GENOBJ-N-REC_13
 70
     0
  0
APPID
  5
408
330
9
100
AcDbSymbolTableRecord
100
AcDbRegAppTableRecord
  2
GENIUS_GENOBJ-N-HTC_13
 70
     0
  0
APPID
  5
409
330
9
100
AcDbSymbolTableRecord
100
AcDbRegAppTableRecord
  2
GENIUS_GENHATCH_13
 70
     0
  0
APPID
  5
785
330
9
100
AcDbSymbolTableRecord
100
AcDbRegAppTableRecord
  2
ACAD_MLEADERVER
 70
     0
  0
ENDTAB
  0
TABLE
  2
DIMSTYLE
  5
A
330
0
100
AcDbSymbolTable
 70
    10
100
AcDbDimStyleTable
 71
     0
  0
DIMSTYLE
105
27
330
A
100
AcDbSymbolTableRecord
100
AcDbDimStyleTableRecord
  2
ISO-25
 70
     0
 41
2.5
 42
0.625
 43
3.75
 44
1.25
 73
     0
 74
     0
 77
     1
 78
     8
140
2.5
141
2.5
143
0.03937007874016
147
0.625
171
     3
172
     1
271
     2
272
     2
274
     3
278
    44
283
     0
284
     8
340
11
  0
DIMSTYLE
105
10E
330
A
100
AcDbSymbolTableRecord
100
AcDbDimStyleTableRecord
  2
AM_DIN
 70
     0
  4
"
 41
2.5
 42
1.0
 43
10.0
 44
1.0
 47
0.1
 48
0.1
 73
     0
 74
     0
 77
     1
 78
     8
 79
     2
140
3.5
141
0.0
143
0.0393701
146
0.71
147
1.5
172
     1
176
   256
177
   256
178
     2
271
     2
272
     3
274
     4
283
     0
284
     8
340
11
371
    -1
372
    -1
1001
ACAD_DSTYLE_DIMJOGGED_JOGANGLE_SYMBOL
1070
   384
1040
1.570796326794896
  0
DIMSTYLE
105
11F
102
{ACAD_REACTORS
330
556
330
5D4
330
5D7
330
5D8
102
}
330
A
100
AcDbSymbolTableRecord
100
AcDbDimStyleTableRecord
  2
AM_DIN$3
 70
     0
  4
"
 41
2.5
 42
1.0
 43
10.0
 44
1.0
 47
0.1
 48
0.1
 73
     0
 77
     1
 78
     8
 79
     2
140
3.5
141
0.0
143
0.0393701
146
0.71
147
1.5
176
   256
177
   256
178
     2
271
     2
272
     3
274
     4
283
     0
284
     8
288
     1
289
     0
340
11
371
    -1
372
    -1
1001
ACAD_DSTYLE_DIMJOGGED_JOGANGLE_SYMBOL
1070
   384
1040
1.570796326794896
  0
DIMSTYLE
105
124
330
A
100
AcDbSymbolTableRecord
100
AcDbDimStyleTableRecord
  2
AM_DIN$4
 70
     0
  4
"
 41
2.5
 42
1.0
 43
10.0
 44
1.0
 47
0.1
 48
0.1
 73
     0
 77
     1
 78
     8
 79
     2
140
3.5
141
0.0
143
0.0393701
146
0.71
147
1.5
176
   256
177
   256
178
     2
271
     2
272
     3
274
     4
283
     0
284
     8
288
     1
289
     0
340
11
371
    -1
372
    -1
1001
ACAD_DSTYLE_DIMJOGGED_JOGANGLE_SYMBOL
1070
   384
1040
1.570796326794896
  0
DIMSTYLE
105
129
330
A
100
AcDbSymbolTableRecord
100
AcDbDimStyleTableRecord
  2
AM_DIN$6
 70
     0
  4
"
 41
2.5
 42
1.0
 43
10.0
 44
1.0
 47
0.1
 48
0.1
 73
     0
 74
     0
 78
     8
 79
     2
140
3.5
141
0.0
143
0.0393701
146
0.71
147
1.5
172
     1
176
   256
177
   256
178
     2
271
     2
272
     3
274
     4
283
     0
284
     8
340
11
371
    -1
372
    -1
1001
ACAD_DSTYLE_DIMJOGGED_JOGANGLE_SYMBOL
1070
   384
1040
1.570796326794896
  0
DIMSTYLE
105
12E
330
A
100
AcDbSymbolTableRecord
100
AcDbDimStyleTableRecord
  2
AM_DIN$7
 70
     0
  4
"
 41
2.5
 42
1.0
 43
10.0
 44
1.0
 47
0.1
 48
0.1
 73
     0
 74
     0
 77
     1
 78
     8
 79
     2
140
5.0
141
0.0
143
0.0393701
146
0.71
147
1.5
172
     1
176
   256
177
   256
178
     2
271
     2
272
     3
274
     4
283
     0
284
     8
340
11
371
    -1
372
    -1
1001
ACAD_DSTYLE_DIMJOGGED_JOGANGLE_SYMBOL
1070
   384
1040
1.570796326794896
  0
DIMSTYLE
105
133
330
A
100
AcDbSymbolTableRecord
100
AcDbDimStyleTableRecord
  2
AM_DIN$SF
 70
     0
  4
"
 41
2.5
 42
1.0
 43
10.0
 44
1.0
 47
0.1
 48
0.1
 73
     0
 74
     0
 75
     1
 76
     1
 77
     1
 78
     8
 79
     2
140
3.5
141
0.0
143
0.0393701
146
0.71
147
1.5
172
     1
176
   256
177
   256
178
     2
271
     2
272
     3
274
     4
283
     0
284
     8
340
11
371
    -1
372
    -1
1001
ACAD_DSTYLE_DIMJOGGED_JOGANGLE_SYMBOL
1070
   384
1040
1.570796326794896
  0
DIMSTYLE
105
13C
330
A
100
AcDbSymbolTableRecord
100
AcDbDimStyleTableRecord
  2
AM_DIN$SH
 70
     0
  4
"
 41
2.5
 42
1.0
 43
10.0
 44
1.0
 47
0.1
 48
0.1
 73
     0
 74
     0
 75
     1
 76
     1
 77
     1
 78
     8
 79
     2
140
3.5
141
0.0
143
0.0393701
144
2.0
146
0.71
147
1.5
172
     1
173
     1
176
   256
177
   256
178
     2
271
     2
272
     3
274
     4
283
     0
284
     8
340
11
343
134
371
    -1
372
    -1
1001
ACAD_DSTYLE_DIMJOGGED_JOGANGLE_SYMBOL
1070
   384
1040
1.570796326794896
  0
DIMSTYLE
105
3FA
330
A
100
AcDbSymbolTableRecord
100
AcDbDimStyleTableRecord
  2
AM_ANSI
 70
     0
  4
"
 41
2.5
 42
1.0
 43
10.0
 44
1.0
 47
0.1
 48
0.1
 78
     8
 79
     2
140
3.5
141
0.0
143
0.0393701
146
0.71
147
1.5
176
   256
177
   256
178
     2
271
     2
272
     3
274
     4
284
     8
340
11
371
    -1
372
    -1
1001
ACAD_DSTYLE_DIMJOGGED_JOGANGLE_SYMBOL
1070
   384
1040
0.7853981633974483
1001
ACAD_DSTYLE_DIMARC_LENGTH_SYMBOL
1070
   379
1070
     1
  0
DIMSTYLE
105
3FB
102
{ACAD_REACTORS
330
5A6
330
5A9
330
5AC
330
5D9
330
5DC
330
5DF
330
5E2
330
5E6
330
5EB
330
5EE
330
5F1
330
5F4
330
5F8
330
5FB
330
600
330
603
330
606
330
609
102
}
330
A
100
AcDbSymbolTableRecord
100
AcDbDimStyleTableRecord
  2
AM_DIN$0
 70
     0
  4
"
 41
2.5
 42
1.0
 43
10.0
 44
1.0
 47
0.1
 48
0.1
 73
     0
 74
     0
 77
     1
 78
     8
 79
     2
140
3.5
141
0.0
143
0.0393701
146
0.71
147
1.5
172
     1
176
   256
177
   256
178
     2
271
     2
272
     3
274
     4
283
     0
284
     8
340
11
371
    -1
372
    -1
1001
ACAD_DSTYLE_DIMJOGGED_JOGANGLE_SYMBOL
1070
   384
1040
1.570796326794896
  0
ENDTAB
  0
TABLE
  2
BLOCK_RECORD
  5
1
330
0
100
AcDbSymbolTable
 70
    51
  0
BLOCK_RECORD
  5
1F
330
1
100
AcDbSymbolTableRecord
100
AcDbBlockTableRecord
  2
*Model_Space
340
22
  0
BLOCK_RECORD
  5
50
330
1
100
AcDbSymbolTableRecord
100
AcDbBlockTableRecord
  2
*Paper_Space
340
51
  0
BLOCK_RECORD
  5
55
330
1
100
AcDbSymbolTableRecord
100
AcDbBlockTableRecord
  2
*Paper_Space0
340
56
  0
BLOCK_RECORD
  5
134
330
1
100
AcDbSymbolTableRecord
100
AcDbBlockTableRecord
  2
GENAXEH
340
0
  0
BLOCK_RECORD
  5
1FD
330
1
100
AcDbSymbolTableRecord
100
AcDbBlockTableRecord
  2
ACO_A2
340
0
  0
BLOCK_RECORD
  5
24F
102
{ACAD_XDICTIONARY
360
250
102
}
330
1
100
AcDbSymbolTableRecord
100
AcDbBlockTableRecord
  2
ACO-SF02-GR
340
0
  0
BLOCK_RECORD
  5
618
330
1
100
AcDbSymbolTableRecord
100
AcDbBlockTableRecord
  2
*D27
340
0
  0
BLOCK_RECORD
  5
621
330
1
100
AcDbSymbolTableRecord
100
AcDbBlockTableRecord
  2
*D28
340
0
  0
BLOCK_RECORD
  5
62A
330
1
100
AcDbSymbolTableRecord
100
AcDbBlockTableRecord
  2
*D29
340
0
  0
BLOCK_RECORD
  5
633
330
1
100
AcDbSymbolTableRecord
100
AcDbBlockTableRecord
  2
*D30
340
0
  0
BLOCK_RECORD
  5
63F
330
1
100
AcDbSymbolTableRecord
100
AcDbBlockTableRecord
  2
*D31
340
0
  0
BLOCK_RECORD
  5
64D
330
1
100
AcDbSymbolTableRecord
100
AcDbBlockTableRecord
  2
*D32
340
0
  0
BLOCK_RECORD
  5
65B
330
1
100
AcDbSymbolTableRecord
100
AcDbBlockTableRecord
  2
*D33
340
0
  0
BLOCK_RECORD
  5
670
330
1
100
AcDbSymbolTableRecord
100
AcDbBlockTableRecord
  2
*D34
340
0
  0
BLOCK_RECORD
  5
67D
330
1
100
AcDbSymbolTableRecord
100
AcDbBlockTableRecord
  2
*D35
340
0
  0
BLOCK_RECORD
  5
68B
330
1
100
AcDbSymbolTableRecord
100
AcDbBlockTableRecord
  2
*D36
340
0
  0
BLOCK_RECORD
  5
699
330
1
100
AcDbSymbolTableRecord
100
AcDbBlockTableRecord
  2
*D37
340
0
  0
BLOCK_RECORD
  5
6A7
330
1
100
AcDbSymbolTableRecord
100
AcDbBlockTableRecord
  2
*D38
340
0
  0
BLOCK_RECORD
  5
6B3
330
1
100
AcDbSymbolTableRecord
100
AcDbBlockTableRecord
  2
*D39
340
0
  0
BLOCK_RECORD
  5
6C1
330
1
100
AcDbSymbolTableRecord
100
AcDbBlockTableRecord
  2
*D40
340
0
  0
BLOCK_RECORD
  5
6CF
330
1
100
AcDbSymbolTableRecord
100
AcDbBlockTableRecord
  2
*D41
340
0
  0
BLOCK_RECORD
  5
6DD
330
1
100
AcDbSymbolTableRecord
100
AcDbBlockTableRecord
  2
*D42
340
0
  0
BLOCK_RECORD
  5
6EB
330
1
100
AcDbSymbolTableRecord
100
AcDbBlockTableRecord
  2
*D43
340
0
  0
BLOCK_RECORD
  5
6F9
330
1
100
AcDbSymbolTableRecord
100
AcDbBlockTableRecord
  2
*D44
340
0
  0
BLOCK_RECORD
  5
707
330
1
100
AcDbSymbolTableRecord
100
AcDbBlockTableRecord
  2
*D45
340
0
  0
BLOCK_RECORD
  5
715
330
1
100
AcDbSymbolTableRecord
100
AcDbBlockTableRecord
  2
*D46
340
0
  0
BLOCK_RECORD
  5
721
330
1
100
AcDbSymbolTableRecord
100
AcDbBlockTableRecord
  2
*D47
340
0
  0
BLOCK_RECORD
  5
72D
330
1
100
AcDbSymbolTableRecord
100
AcDbBlockTableRecord
  2
*D48
340
0
  0
BLOCK_RECORD
  5
7A9
330
1
100
AcDbSymbolTableRecord
100
AcDbBlockTableRecord
  2
*S49
340
0
  0
BLOCK_RECORD
  5
7BD
330
1
100
AcDbSymbolTableRecord
100
AcDbBlockTableRecord
  2
*S50
340
0
  0
ENDTAB
  0
ENDSEC
  0
SECTION
  2
BLOCKS
  0
BLOCK
  5
20
330
1F
100
AcDbEntity
  8
0
100
AcDbBlockBegin
  2
*Model_Space
 70
     0
 10
0.0
 20
0.0
 30
0.0
  3
*Model_Space
  1

  0
ENDBLK
  5
21
330
1F
100
AcDbEntity
  8
0
100
AcDbBlockEnd
  0
BLOCK
  5
52
330
50
100
AcDbEntity
 67
     1
  8
0
100
AcDbBlockBegin
  2
*Paper_Space
 70
     0
 10
0.0
 20
0.0
 30
0.0
  3
*Paper_Space
  1

  0
ENDBLK
  5
53
330
50
100
AcDbEntity
 67
     1
  8
0
100
AcDbBlockEnd
  0
BLOCK
  5
57
330
55
100
AcDbEntity
 67
     1
  8
0
100
AcDbBlockBegin
  2
*Paper_Space0
 70
     0
 10
0.0
 20
0.0
 30
0.0
  3
*Paper_Space0
  1

  0
ENDBLK
  5
58
330
55
100
AcDbEntity
 67
     1
  8
0
100
AcDbBlockEnd
  0
BLOCK
  5
136
330
134
100
AcDbEntity
  8
0
100
AcDbBlockBegin
  2
GENAXEH
 70
     0
 10
0.0
 20
0.0
 30
0.0
  3
GENAXEH
  1

  0
LINE
  5
135
330
134
100
AcDbEntity
  8
0
100
AcDbLine
 10
-1.0
 20
0.0
 30
0.0
 11
1.0
 21
0.0
 31
0.0
  0
ENDBLK
  5
137
330
134
100
AcDbEntity
  8
0
100
AcDbBlockEnd
  0
BLOCK
  5
1FE
330
1FD
100
AcDbEntity
  8
0
 62
     3
100
AcDbBlockBegin
  2
ACO_A2
 70
     0
 10
0.0
 20
0.0
 30
0.0
  3
ACO_A2
  1

  0
LINE
  5
1FF
330
1FD
100
AcDbEntity
  8
RAHM2
100
AcDbLine
 10
10.00000000000002
 20
410.0
 30
0.0
 11
584.0
 21
410.0
 31
0.0
1001
GENIUS_GENBLLY_14
1000
BOR2
  0
LINE
  5
200
330
1FD
100
AcDbEntity
  8
0
100
AcDbLine
 10
5.0
 20
5.0
 30
0.0
 11
5.000000000000024
 21
415.0
 31
0.0
  0
TEXT
  5
201
330
1FD
100
AcDbEntity
  8
0
100
AcDbText
 10
583.9999999999998
 20
5.0
 30
0.0
 40
3.5
  1
!GENTITLE-INSERT
100
AcDbText
  0
TEXT
  5
202
330
1FD
100
AcDbEntity
  8
0
100
AcDbText
 10
10.0
 20
10.00000000000005
 30
0.0
 40
3.5
  1
!GENTITLE-LL
100
AcDbText
  0
TEXT
  5
203
330
1FD
100
AcDbEntity
  8
0
100
AcDbText
 10
584.0
 20
410.0
 30
0.0
 40
3.5
  1
!GENTITLE-RU
100
AcDbText
  0
TEXT
  5
204
330
1FD
100
AcDbEntity
  8
0
100
AcDbText
 10
594.0
 20
420.0
 30
0.0
 40
3.5
  1
!GENTITLE-MAX
100
AcDbText
  0
LINE
  5
205
330
1FD
100
AcDbEntity
  8
RAHM2
100
AcDbLine
 10
401.9999999999998
 20
0.0
 30
0.0
 11
401.9999999999998
 21
5.000000000000023
 31
0.0
1001
GENIUS_GENBLLY_14
1000
BOR2
  0
LINE
  5
206
330
1FD
100
AcDbEntity
  8
RAHM2
100
AcDbLine
 10
593.9999999999998
 20
0.0
 30
0.0
 11
401.9999999999998
 21
0.0
 31
0.0
1001
GENIUS_GENBLLY_14
1000
BOR2
  0
LINE
  5
207
330
1FD
100
AcDbEntity
  8
RAHM2
100
AcDbLine
 10
331.1199999999999
 20
10.00000000000003
 30
0.0
 11
9.999999999999886
 21
10.00000000000007
 31
0.0
1001
GENIUS_GENBLLY_14
1000
BOR2
  0
LINE
  5
208
330
1FD
100
AcDbEntity
  8
RAHM2
100
AcDbLine
 10
444.2499999999999
 20
415.0
 30
0.0
 11
444.2499999999999
 21
410.0
 31
0.0
1001
GENIUS_GENBLLY_14
1000
BOR2
  0
LINE
  5
209
330
1FD
100
AcDbEntity
  8
RAHM2
100
AcDbLine
 10
516.6249999999998
 20
415.0
 30
0.0
 11
516.6249999999998
 21
410.0
 31
0.0
1001
GENIUS_GENBLLY_14
1000
BOR2
  0
TEXT
  5
20A
330
1FD
100
AcDbEntity
  8
RAHM2
100
AcDbText
 10
480.0
 20
410.5
 30
0.0
 40
4.0
  1
7
100
AcDbText
1001
GENIUS_GENBLLY_14
1000
BOR2
  0
TEXT
  5
20B
330
1FD
100
AcDbEntity
  8
RAHM2
100
AcDbText
 10
552.5
 20
410.5
 30
0.0
 40
4.0
  1
8
100
AcDbText
1001
GENIUS_GENBLLY_14
1000
BOR2
  0
TEXT
  5
20C
330
1FD
100
AcDbEntity
  8
RAHM2
100
AcDbText
 10
407.5
 20
410.5
 30
0.0
 40
4.0
  1
6
100
AcDbText
1001
GENIUS_GENBLLY_14
1000
BOR2
  0
LINE
  5
20D
330
1FD
100
AcDbEntity
  8
RAHM2
100
AcDbLine
 10
371.8749999999999
 20
415.0
 30
0.0
 11
371.8749999999999
 21
410.0
 31
0.0
1001
GENIUS_GENBLLY_14
1000
BOR2
  0
TEXT
  5
20E
330
1FD
100
AcDbEntity
  8
RAHM2
100
AcDbText
 10
335.0
 20
410.5
 30
0.0
 40
4.0
  1
5
100
AcDbText
1001
GENIUS_GENBLLY_14
1000
BOR2
  0
LINE
  5
20F
330
1FD
100
AcDbEntity
  8
RAHM2
100
AcDbLine
 10
82.37499999999991
 20
415.0
 30
0.0
 11
82.37499999999991
 21
410.0
 31
0.0
1001
GENIUS_GENBLLY_14
1000
BOR2
  0
LINE
  5
210
330
1FD
100
AcDbEntity
  8
RAHM2
100
AcDbLine
 10
154.7499999999999
 20
415.0
 30
0.0
 11
154.7499999999999
 21
410.0
 31
0.0
1001
GENIUS_GENBLLY_14
1000
BOR2
  0
LINE
  5
211
330
1FD
100
AcDbEntity
  8
RAHM2
100
AcDbLine
 10
227.1249999999999
 20
415.0
 30
0.0
 11
227.1249999999999
 21
410.0
 31
0.0
1001
GENIUS_GENBLLY_14
1000
BOR2
  0
LINE
  5
212
330
1FD
100
AcDbEntity
  8
RAHM2
100
AcDbLine
 10
299.4999999999999
 20
415.0
 30
0.0
 11
299.4999999999999
 21
410.0
 31
0.0
1001
GENIUS_GENBLLY_14
1000
BOR2
  0
TEXT
  5
213
330
1FD
100
AcDbEntity
  8
RAHM2
100
AcDbText
 10
45.50000000000002
 20
410.5
 30
0.0
 40
4.0
  1
1
100
AcDbText
1001
GENIUS_GENBLLY_14
1000
BOR2
  0
TEXT
  5
214
330
1FD
100
AcDbEntity
  8
RAHM2
100
AcDbText
 10
117.5
 20
410.5
 30
0.0
 40
4.0
  1
2
100
AcDbText
1001
GENIUS_GENBLLY_14
1000
BOR2
  0
TEXT
  5
215
330
1FD
100
AcDbEntity
  8
RAHM2
100
AcDbText
 10
190.5
 20
410.5
 30
0.0
 40
4.0
  1
3
100
AcDbText
1001
GENIUS_GENBLLY_14
1000
BOR2
  0
TEXT
  5
216
330
1FD
100
AcDbEntity
  8
RAHM2
100
AcDbText
 10
263.0
 20
410.5
 30
0.0
 40
4.0
  1
4
100
AcDbText
1001
GENIUS_GENBLLY_14
1000
BOR2
  0
LINE
  5
217
330
1FD
100
AcDbEntity
  8
RAHM2
100
AcDbLine
 10
588.9831138758759
 20
76.71791910685186
 30
0.0
 11
584.0
 21
76.71791910685186
 31
0.0
1001
GENIUS_GENBLLY_14
1000
BOR2
  0
LINE
  5
218
330
1FD
100
AcDbEntity
  8
RAHM2
100
AcDbLine
 10
588.9831138758759
 20
143.3779191068518
 30
0.0
 11
584.0
 21
143.3779191068518
 31
0.0
1001
GENIUS_GENBLLY_14
1000
BOR2
  0
LINE
  5
219
330
1FD
100
AcDbEntity
  8
RAHM2
100
AcDbLine
 10
588.9831138758759
 20
210.0379191068519
 30
0.0
 11
584.0
 21
210.0379191068519
 31
0.0
1001
GENIUS_GENBLLY_14
1000
BOR2
  0
LINE
  5
21A
330
1FD
100
AcDbEntity
  8
RAHM2
100
AcDbLine
 10
588.9831138758759
 20
276.6979191068519
 30
0.0
 11
584.0
 21
276.6979191068519
 31
0.0
1001
GENIUS_GENBLLY_14
1000
BOR2
  0
LINE
  5
21B
330
1FD
100
AcDbEntity
  8
RAHM2
100
AcDbLine
 10
588.9831138758759
 20
343.3579191068519
 30
0.0
 11
584.0
 21
343.3579191068519
 31
0.0
1001
GENIUS_GENBLLY_14
1000
BOR2
  0
TEXT
  5
21C
330
1FD
100
AcDbEntity
  8
RAHM2
100
AcDbText
 10
585.0
 20
43.0
 30
0.0
 40
4.0
  1
F
100
AcDbText
1001
GENIUS_GENBLLY_14
1000
BOR2
  0
TEXT
  5
21D
330
1FD
100
AcDbEntity
  8
RAHM2
100
AcDbText
 10
585.0
 20
109.0
 30
0.0
 40
4.0
  1
E
100
AcDbText
1001
GENIUS_GENBLLY_14
1000
BOR2
  0
TEXT
  5
21E
330
1FD
100
AcDbEntity
  8
RAHM2
100
AcDbText
 10
585.0
 20
176.0
 30
0.0
 40
4.0
  1
D
100
AcDbText
1001
GENIUS_GENBLLY_14
1000
BOR2
  0
TEXT
  5
21F
330
1FD
100
AcDbEntity
  8
RAHM2
100
AcDbText
 10
585.0
 20
243.0
 30
0.0
 40
4.0
  1
C
100
AcDbText
1001
GENIUS_GENBLLY_14
1000
BOR2
  0
TEXT
  5
220
330
1FD
100
AcDbEntity
  8
RAHM2
100
AcDbText
 10
585.0
 20
310.0
 30
0.0
 40
4.0
  1
B
100
AcDbText
1001
GENIUS_GENBLLY_14
1000
BOR2
  0
TEXT
  5
221
330
1FD
100
AcDbEntity
  8
RAHM2
100
AcDbText
 10
585.0
 20
376.0
 30
0.0
 40
4.0
  1
A
100
AcDbText
1001
GENIUS_GENBLLY_14
1000
BOR2
  0
TEXT
  5
222
330
1FD
100
AcDbEntity
  8
RAHM2
100
AcDbText
 10
263.0
 20
5.5
 30
0.0
 40
4.0
  1
4
100
AcDbText
1001
GENIUS_GENBLLY_14
1000
BOR2
  0
TEXT
  5
223
330
1FD
100
AcDbEntity
  8
RAHM2
100
AcDbText
 10
190.5
 20
5.5
 30
0.0
 40
4.0
  1
3
100
AcDbText
1001
GENIUS_GENBLLY_14
1000
BOR2
  0
TEXT
  5
224
330
1FD
100
AcDbEntity
  8
RAHM2
100
AcDbText
 10
117.5
 20
5.5
 30
0.0
 40
4.0
  1
2
100
AcDbText
1001
GENIUS_GENBLLY_14
1000
BOR2
  0
TEXT
  5
225
330
1FD
100
AcDbEntity
  8
RAHM2
100
AcDbText
 10
45.49999999999999
 20
5.5
 30
0.0
 40
4.0
  1
1
100
AcDbText
1001
GENIUS_GENBLLY_14
1000
BOR2
  0
TEXT
  5
226
330
1FD
100
AcDbEntity
  8
RAHM2
100
AcDbText
 10
6.0
 20
376.0
 30
0.0
 40
4.0
  1
A
100
AcDbText
1001
GENIUS_GENBLLY_14
1000
BOR2
  0
TEXT
  5
227
330
1FD
100
AcDbEntity
  8
RAHM2
100
AcDbText
 10
6.0
 20
310.0
 30
0.0
 40
4.0
  1
B
100
AcDbText
1001
GENIUS_GENBLLY_14
1000
BOR2
  0
TEXT
  5
228
330
1FD
100
AcDbEntity
  8
RAHM2
100
AcDbText
 10
6.0
 20
243.0
 30
0.0
 40
4.0
  1
C
100
AcDbText
1001
GENIUS_GENBLLY_14
1000
BOR2
  0
TEXT
  5
229
330
1FD
100
AcDbEntity
  8
RAHM2
100
AcDbText
 10
6.0
 20
176.0
 30
0.0
 40
4.0
  1
D
100
AcDbText
1001
GENIUS_GENBLLY_14
1000
BOR2
  0
TEXT
  5
22A
330
1FD
100
AcDbEntity
  8
RAHM2
100
AcDbText
 10
6.0
 20
109.0
 30
0.0
 40
4.0
  1
E
100
AcDbText
1001
GENIUS_GENBLLY_14
1000
BOR2
  0
TEXT
  5
22B
330
1FD
100
AcDbEntity
  8
RAHM2
100
AcDbText
 10
6.0
 20
43.0
 30
0.0
 40
4.0
  1
F
100
AcDbText
1001
GENIUS_GENBLLY_14
1000
BOR2
  0
LINE
  5
22C
330
1FD
100
AcDbEntity
  8
RAHM2
100
AcDbLine
 10
9.983113875875869
 20
343.3579191068519
 30
0.0
 11
5.0
 21
343.3579191068519
 31
0.0
1001
GENIUS_GENBLLY_14
1000
BOR2
  0
LINE
  5
22D
330
1FD
100
AcDbEntity
  8
RAHM2
100
AcDbLine
 10
9.983113875875869
 20
276.6979191068519
 30
0.0
 11
5.0
 21
276.6979191068519
 31
0.0
1001
GENIUS_GENBLLY_14
1000
BOR2
  0
LINE
  5
22E
330
1FD
100
AcDbEntity
  8
RAHM2
100
AcDbLine
 10
9.983113875875869
 20
210.0379191068519
 30
0.0
 11
5.0
 21
210.0379191068519
 31
0.0
1001
GENIUS_GENBLLY_14
1000
BOR2
  0
LINE
  5
22F
330
1FD
100
AcDbEntity
  8
RAHM2
100
AcDbLine
 10
9.983113875875869
 20
143.3779191068518
 30
0.0
 11
5.0
 21
143.3779191068518
 31
0.0
1001
GENIUS_GENBLLY_14
1000
BOR2
  0
LINE
  5
230
330
1FD
100
AcDbEntity
  8
RAHM2
100
AcDbLine
 10
9.983113875875869
 20
76.71791910685186
 30
0.0
 11
5.0
 21
76.71791910685186
 31
0.0
1001
GENIUS_GENBLLY_14
1000
BOR2
  0
LINE
  5
231
330
1FD
100
AcDbEntity
  8
RAHM2
100
AcDbLine
 10
299.4999999999999
 20
10.00000000000007
 30
0.0
 11
299.4999999999999
 21
5.00000000000007
 31
0.0
1001
GENIUS_GENBLLY_14
1000
BOR2
  0
LINE
  5
232
330
1FD
100
AcDbEntity
  8
RAHM2
100
AcDbLine
 10
227.1249999999999
 20
10.00000000000007
 30
0.0
 11
227.1249999999999
 21
5.00000000000007
 31
0.0
1001
GENIUS_GENBLLY_14
1000
BOR2
  0
LINE
  5
233
330
1FD
100
AcDbEntity
  8
RAHM2
100
AcDbLine
 10
154.7499999999999
 20
10.00000000000007
 30
0.0
 11
154.7499999999999
 21
5.00000000000007
 31
0.0
1001
GENIUS_GENBLLY_14
1000
BOR2
  0
LINE
  5
234
330
1FD
100
AcDbEntity
  8
RAHM2
100
AcDbLine
 10
82.37499999999988
 20
10.00000000000007
 30
0.0
 11
82.37499999999988
 21
5.00000000000007
 31
0.0
1001
GENIUS_GENBLLY_14
1000
BOR2
  0
LINE
  5
235
330
1FD
100
AcDbEntity
  8
RAHM2
100
AcDbLine
 10
584.0
 20
410.0
 30
0.0
 11
583.9999999999998
 21
5.0
 31
0.0
1001
GENIUS_GENBLLY_14
1000
BOR2
  0
LINE
  5
236
330
1FD
100
AcDbEntity
  8
RAHM2
100
AcDbLine
 10
10.0
 20
10.0
 30
0.0
 11
10.00000000000002
 21
410.0
 31
0.0
1001
GENIUS_GENBLLY_14
1000
BOR2
  0
LINE
  5
237
330
1FD
100
AcDbEntity
  8
0
100
AcDbLine
 10
588.9999999999998
 20
5.0
 30
0.0
 11
4.999999999999886
 21
5.000000000000071
 31
0.0
  0
LINE
  5
238
330
1FD
100
AcDbEntity
  8
0
100
AcDbLine
 10
589.0
 20
415.0
 30
0.0
 11
588.9999999999998
 21
5.0
 31
0.0
  0
LINE
  5
239
330
1FD
100
AcDbEntity
  8
0
100
AcDbLine
 10
5.000000000000024
 20
415.0
 30
0.0
 11
589.0
 21
415.0
 31
0.0
  0
LINE
  5
23A
330
1FD
100
AcDbEntity
  8
RAHM2
100
AcDbLine
 10
593.9999999999998
 20
0.0
 30
0.0
 11
-0.0000000000001137
 21
0.0000000000000727
 31
0.0
1001
GENIUS_GENBLLY_14
1000
BOR2
  0
LINE
  5
23B
330
1FD
100
AcDbEntity
  8
RAHM2
100
AcDbLine
 10
0.0000000000000257
 20
420.0
 30
0.0
 11
594.0
 21
420.0
 31
0.0
1001
GENIUS_GENBLLY_14
1000
BOR2
  0
LINE
  5
23C
330
1FD
100
AcDbEntity
  8
RAHM2
100
AcDbLine
 10
0.0
 20
0.0
 30
0.0
 11
0.0000000000000257
 21
420.0
 31
0.0
1001
GENIUS_GENBLLY_14
1000
BOR2
  0
LINE
  5
23D
330
1FD
100
AcDbEntity
  8
RAHM2
100
AcDbLine
 10
210.0
 20
5.0
 30
0.0
 11
210.0
 21
0.0
 31
0.0
1001
GENIUS_GENBLLY_14
1000
BOR2
  0
LINE
  5
23E
330
1FD
100
AcDbEntity
  8
RAHM2
100
AcDbLine
 10
0.0
 20
297.0
 30
0.0
 11
5.0
 21
297.0
 31
0.0
1001
GENIUS_GENBLLY_14
1000
BOR2
  0
LINE
  5
23F
330
1FD
100
AcDbEntity
  8
RAHM2
100
AcDbLine
 10
105.0
 20
420.0
 30
0.0
 11
105.0
 21
415.0
 31
0.0
1001
GENIUS_GENBLLY_14
1000
BOR2
  0
LINE
  5
240
330
1FD
100
AcDbEntity
  8
RAHM2
100
AcDbLine
 10
594.0
 20
420.0
 30
0.0
 11
593.9999999999998
 21
0.0
 31
0.0
1001
GENIUS_VERSION2
1070
     2
1001
GENIUS_GENBLLY_14
1000
BOR2
  0
LWPOLYLINE
  5
241
330
1FD
100
AcDbEntity
  8
RAHM2
100
AcDbPolyline
 90
        4
 70
     1
 43
0.0
 10
401.1199999999998
 20
5.000000000000031
 10
331.1199999999999
 20
5.000000000000031
 10
331.1199999999999
 20
13.50000000000003
 10
401.1199999999998
 20
13.50000000000002
1001
GENIUS_GENREC_14
1002
{
1000
PXDIR
1011
331.1199999999999
1021
5.000000000000031
1031
0.0
1002
}
1002
{
1000
PORI
1011
401.1199999999998
1021
5.000000000000031
1031
0.0
1002
}
1002
{
1000
PINS
1011
401.1199999999998
1021
5.000000000000031
1031
0.0
1002
}
1002
{
1000
HVAL
1000
8.5
1002
}
1002
{
1000
H
1070
     2
1002
}
1002
{
1000
WVAL
1000
-70
1002
}
1002
{
1000
W
1070
     2
1002
}
1002
{
1000
C
1070
     1
1002
}
1001
GENIUS_GENODEF_13
1002
{
1000
HIER
1070
     0
1002
}
1002
{
1000
MANEDIT
1070
     0
1002
}
1002
{
1000
NOSEL
1070
     0
1002
}
1002
{
1000
BEHIND
1070
     0
1002
}
1002
{
1000
REACTOR
1002
}
1001
GENIUS_GENOBJ-N-REC_13
1002
{
1000
OWNER
1000
GEN
1002
}
  0
MTEXT
  5
242
102
{ACAD_XDICTIONARY
360
7E1
102
}
330
1FD
100
AcDbEntity
  8
RAHM2
100
AcDbMText
 10
332.8183525451005
 20
12.32474728438519
 30
0.0
 40
3.5
 41
4.301759591192151
 71
     1
 72
     5
  1
\fArial|b0|i0|c0|p32;\U+00A9
 73
     1
 44
1.0
1001
ACAD
1000
MTEXTBEGIN
1070
    73
1070
     1
1070
    44
1040
1.0
1070
    74
1070
     0
1000
MTEXTEND
  0
MTEXT
  5
243
330
1FD
100
AcDbEntity
  8
RAHM2
100
AcDbMText
 10
374.9022594589519
 20
9.282856166729633
 30
0.0
 40
2.5
 41
51.25
 71
     5
 72
     5
  1
\fArial Black|b0|i0|c0|p34;ACO\Fgeniso.shx; \fDutch801 Rm BT|b0|i1|c0|p18;passavant \P\Fgeniso.shx;\H1.8;Schutzvermerk nach DIN 34
 73
     1
 44
1.0
1001
ACAD
1000
MTEXTBEGIN
1070
    73
1070
     1
1070
    44
1040
1.0
1070
    74
1070
     0
1000
MTEXTEND
  0
MTEXT
  5
244
330
1FD
100
AcDbEntity
  8
RAHM2
100
AcDbMText
 10
339.5515418910246
 20
11.24554815700972
 30
0.0
 40
2.0
 41
5.5175
 71
     1
 72
     5
  1
2001
 73
     1
 44
1.0
1001
ACAD
1000
MTEXTBEGIN
1070
    73
1070
     1
1070
    44
1040
1.0
1070
    74
1070
     0
1000
MTEXTEND
  0
ENDBLK
  5
245
330
1FD
100
AcDbEntity
  8
0
 62
     3
100
AcDbBlockEnd
  0
BLOCK
  5
251
330
24F
100
AcDbEntity
  8
0
 62
     0
100
AcDbBlockBegin
  2
ACO-SF02-GR
 70
     2
 10
0.0
 20
0.0
 30
0.0
  3
ACO-SF02-GR
  1

  0
LINE
  5
252
330
24F
100
AcDbEntity
  8
KOPF
 62
    12
100
AcDbLine
 10
0.0
 20
5.0
 30
0.0
 11
-83.0
 21
5.0
 31
0.0
  0
LWPOLYLINE
  5
253
330
24F
100
AcDbEntity
  8
KOPF
 62
    12
100
AcDbPolyline
 90
        2
 70
     0
 43
0.5
 10
-83.0
 20
10.0
 10
0.0
 20
10.0
  0
LINE
  5
254
330
24F
100
AcDbEntity
  8
KOPF
100
AcDbLine
 10
-83.0
 20
10.0
 30
0.0
 11
0.0
 21
10.0
 31
0.0
  0
LINE
  5
255
330
24F
100
AcDbEntity
  8
KOPF
100
AcDbLine
 10
0.0
 20
5.0
 30
0.0
 11
-83.0
 21
5.0
 31
0.0
  0
LWPOLYLINE
  5
256
330
24F
100
AcDbEntity
  8
KOPF
 62
    12
100
AcDbPolyline
 90
        2
 70
     0
 43
0.5
 10
0.0
 20
68.49999999999997
 10
-182.0
 20
68.49999999999997
  0
LWPOLYLINE
  5
257
330
24F
100
AcDbEntity
  8
KOPF
 62
    12
100
AcDbPolyline
 90
        2
 70
     0
 43
0.5
 10
0.0
 20
46.99999999999997
 10
-182.0
 20
46.99999999999997
  0
LWPOLYLINE
  5
258
330
24F
100
AcDbEntity
  8
KOPF
 62
    12
100
AcDbPolyline
 90
        2
 70
     0
 43
0.5
 10
-0.2154115848244373
 20
27.23910754630094
 10
-182.1882840408789
 20
27.23910754630094
  0
LINE
  5
259
330
24F
100
AcDbEntity
  8
KOPF
 62
    12
100
AcDbLine
 10
0.0
 20
88.49999999999996
 30
0.0
 11
-182.0
 21
88.49999999999996
 31
0.0
  0
LINE
  5
25A
330
24F
100
AcDbEntity
  8
KOPF
 62
    12
100
AcDbLine
 10
-182.0
 20
83.49999999999997
 30
0.0
 11
0.0
 21
83.49999999999997
 31
0.0
  0
LINE
  5
25B
330
24F
100
AcDbEntity
  8
KOPF
 62
    12
100
AcDbLine
 10
0.0
 20
73.49999999999997
 30
0.0
 11
-182.0
 21
73.49999999999997
 31
0.0
  0
LINE
  5
25C
330
24F
100
AcDbEntity
  8
KOPF
 62
    12
100
AcDbLine
 10
-162.682677
 20
78.49999999999997
 30
0.0
 11
0.0
 21
78.49999999999997
 31
0.0
  0
LINE
  5
25D
330
24F
100
AcDbEntity
  8
KOPF
100
AcDbLine
 10
0.0
 20
68.49999999999997
 30
0.0
 11
-182.0
 21
68.49999999999997
 31
0.0
  0
LINE
  5
25E
330
24F
100
AcDbEntity
  8
KOPF
100
AcDbLine
 10
0.0
 20
88.49999999999996
 30
0.0
 11
-182.0
 21
88.49999999999996
 31
0.0
  0
LINE
  5
25F
330
24F
100
AcDbEntity
  8
KOPF
100
AcDbLine
 10
-182.0
 20
83.49999999999997
 30
0.0
 11
0.0
 21
83.49999999999997
 31
0.0
  0
LINE
  5
260
330
24F
100
AcDbEntity
  8
KOPF
100
AcDbLine
 10
0.0
 20
73.49999999999997
 30
0.0
 11
-182.0
 21
73.49999999999997
 31
0.0
  0
LINE
  5
261
330
24F
100
AcDbEntity
  8
KOPF
100
AcDbLine
 10
-162.682677
 20
78.49999999999997
 30
0.0
 11
0.0
 21
78.49999999999997
 31
0.0
  0
LINE
  5
262
330
24F
100
AcDbEntity
  8
KOPF
 62
    12
100
AcDbLine
 10
-182.0
 20
57.74999999999997
 30
0.0
 11
-100.0
 21
57.74999999999997
 31
0.0
  0
LINE
  5
263
330
24F
100
AcDbEntity
  8
KOPF
 62
    12
100
AcDbLine
 10
-182.0
 20
41.99999999999996
 30
0.0
 11
-113.4
 21
41.99999999999996
 31
0.0
  0
LINE
  5
264
330
24F
100
AcDbEntity
  8
KOPF
100
AcDbLine
 10
-182.0
 20
57.74999999999997
 30
0.0
 11
-100.0
 21
57.74999999999997
 31
0.0
  0
LINE
  5
265
330
24F
100
AcDbEntity
  8
KOPF
100
AcDbLine
 10
-182.0
 20
41.99999999999996
 30
0.0
 11
-113.4
 21
41.99999999999996
 31
0.0
  0
LINE
  5
266
330
24F
100
AcDbEntity
  8
KOPF
 62
    12
100
AcDbLine
 10
-142.0
 20
68.49999999999997
 30
0.0
 11
-142.0
 21
46.99999999999997
 31
0.0
  0
LINE
  5
267
330
24F
100
AcDbEntity
  8
KOPF
 62
    12
100
AcDbLine
 10
-142.0
 20
68.49999999999997
 30
0.0
 11
-142.0
 21
46.99999999999997
 31
0.0
  0
ATTDEF
  5
268
330
24F
100
AcDbEntity
  8
TEXT35
100
AcDbText
 10
-140.2
 20
49.4
 30
0.0
 40
3.5
  1

 41
0.8
  7
TEXT35
100
AcDbAttributeDefinition
  3
Oberfläche:
  2
F63
 70
     0
  0
LWPOLYLINE
  5
269
330
24F
100
AcDbEntity
  8
KOPF
 62
    12
100
AcDbPolyline
 90
        2
 70
     0
 43
0.7
 10
-182.0
 20
103.4999999999999
 10
-182.0
 20
0.0
  0
LINE
  5
26A
330
24F
100
AcDbEntity
  8
KOPF
100
AcDbLine
 10
-182.0
 20
103.4999999999999
 30
0.0
 11
-182.0
 21
0.0
 31
0.0
  0
TEXT
  5
26B
330
24F
100
AcDbEntity
  8
KOPF
100
AcDbText
 10
-179.738589
 20
38.32439403633659
 30
0.0
 40
2.0
  1
Gezeichnet:
 41
0.8
  7
TEXT20
100
AcDbText
  0
ATTDEF
  5
26C
330
24F
100
AcDbEntity
  8
TEXT35
100
AcDbText
 10
-176.6
 20
3.399999999999999
 30
0.0
 40
3.5
  1

 41
0.8
  7
TEXT35
100
AcDbAttributeDefinition
  3
Z-Titel 3
  2
F13
 70
     0
  0
ATTDEF
  5
26D
330
24F
100
AcDbEntity
  8
TEXT50
100
AcDbText
 10
-176.6
 20
10.63250279796295
 30
0.0
 40
5.0
  1

 41
0.8
  7
TEXT50
100
AcDbAttributeDefinition
  3
Z-Titel 2
  2
F3
 70
     0
  0
ATTDEF
  5
26E
330
24F
100
AcDbEntity
  8
TEXT50
100
AcDbText
 10
-176.6
 20
18.56318324460701
 30
0.0
 40
5.0
  1

 41
0.8
  7
TEXT50
100
AcDbAttributeDefinition
  3
Z-Titel 1
  2
F2
 70
     0
  0
TEXT
  5
26F
330
24F
100
AcDbEntity
  8
KOPF
100
AcDbText
 10
-179.738589
 20
28.52395361420514
 30
0.0
 40
2.0
  1
Update:
 41
0.8
  7
TEXT20
100
AcDbText
  0
TEXT
  5
270
330
24F
100
AcDbEntity
  8
KOPF
100
AcDbText
 10
-179.738589
 20
33.43577642824449
 30
0.0
 40
2.0
  1
Geprüft
 41
0.8
  7
TEXT20
100
AcDbText
  0
LINE
  5
271
330
24F
100
AcDbEntity
  8
KOPF
 62
    12
100
AcDbLine
 10
-163.0
 20
46.99999999999997
 30
0.0
 11
-163.0
 21
27.0
 31
0.0
  0
LINE
  5
272
330
24F
100
AcDbEntity
  8
KOPF
100
AcDbLine
 10
-163.0
 20
46.99999999999997
 30
0.0
 11
-163.0
 21
27.0
 31
0.0
  0
ATTDEF
  5
273
330
24F
100
AcDbEntity
  8
TEXT25
100
AcDbText
 10
-161.5009557098303
 20
28.32091209119023
 30
0.0
 40
2.0
  1

 41
0.8
  7
TEXT20
100
AcDbAttributeDefinition
  3
Update am:
  2
F53
 70
     0
  0
ATTDEF
  5
274
330
24F
100
AcDbEntity
  8
TEXT25
100
AcDbText
 10
-161.5539333606331
 20
33.12227989587696
 30
0.0
 40
2.0
  1

 41
0.8
  7
TEXT20
100
AcDbAttributeDefinition
  3
Geprüft am:
  2
F22
 70
     0
  0
ATTDEF
  5
275
330
24F
100
AcDbEntity
  8
TEXT25
100
AcDbText
 10
-161.5207141482394
 20
38.33983936444393
 30
0.0
 40
2.0
  1

 41
0.8
  7
TEXT20
100
AcDbAttributeDefinition
  3
Gezeichnet am:
  2
F9
 70
     0
  0
TEXT
  5
276
330
24F
100
AcDbEntity
  8
KOPF
100
AcDbText
 10
-155.964455
 20
43.13467299999999
 30
0.0
 40
2.0
  1
Datum
 41
0.8
  7
TEXT20
100
AcDbText
  0
LINE
  5
277
330
24F
100
AcDbEntity
  8
KOPF
 62
    12
100
AcDbLine
 10
-138.4
 20
46.99999999999997
 30
0.0
 11
-138.4
 21
27.0
 31
0.0
  0
LINE
  5
278
330
24F
100
AcDbEntity
  8
KOPF
100
AcDbLine
 10
-138.4
 20
46.99999999999997
 30
0.0
 11
-138.4
 21
27.0
 31
0.0
  0
TEXT
  5
279
330
24F
100
AcDbEntity
  8
KOPF
100
AcDbText
 10
-130.065072
 20
43.14125800000002
 30
0.0
 40
2.0
  1
Name
 41
0.8
  7
TEXT20
100
AcDbText
  0
ATTDEF
  5
27A
330
24F
100
AcDbEntity
  8
TEXT25
100
AcDbText
 10
-136.2746977811447
 20
33.28471223400234
 30
0.0
 40
2.0
  1

 41
0.8
  7
TEXT20
100
AcDbAttributeDefinition
  3
Geprüft von:
  2
F21
 70
     0
  0
ATTDEF
  5
27B
330
24F
100
AcDbEntity
  8
TEXT25
100
AcDbText
 10
-136.3996291720711
 20
28.23101841142455
 30
0.0
 40
2.0
  1

 41
0.8
  7
TEXT20
100
AcDbAttributeDefinition
  3
Update von:
  2
F52
 70
     0
  0
ATTDEF
  5
27C
330
24F
100
AcDbEntity
  8
TEXT25
100
AcDbText
 10
-136.1922113552417
 20
38.48172579575253
 30
0.0
 40
2.0
  1

 41
0.8
  7
TEXT20
100
AcDbAttributeDefinition
  3
Gezeichnet von
  2
F8
 70
     0
  0
TEXT
  5
27D
330
24F
100
AcDbEntity
  8
KOPF
100
AcDbText
 10
-174.6925639999999
 20
69.53813999999997
 30
0.0
 40
2.0
  1
Index
 41
0.8
  7
TEXT20
100
AcDbText
  0
LINE
  5
27E
330
24F
100
AcDbEntity
  8
KOPF
100
AcDbLine
 10
-182.0
 20
78.49999999999997
 30
0.0
 11
-162.682677
 21
78.49999999999997
 31
0.0
  0
LINE
  5
27F
330
24F
100
AcDbEntity
  8
KOPF
100
AcDbLine
 10
-182.0
 20
78.49999999999997
 30
0.0
 11
-162.682677
 21
78.49999999999997
 31
0.0
  0
TEXT
  5
280
330
24F
100
AcDbEntity
  8
KOPF
100
AcDbText
 10
-180.0
 20
65.166273
 30
0.0
 40
2.0
  1
Werkstoff:
 41
0.8
  7
TEXT20
100
AcDbText
  0
TEXT
  5
281
330
24F
100
AcDbEntity
  8
KOPF
100
AcDbText
 10
-181.0
 20
54.49999999999997
 30
0.0
 40
2.0
  1
zul. Abweich.:
 41
0.8
  7
TEXT20
100
AcDbText
  0
ATTDEF
  5
282
330
24F
100
AcDbEntity
  8
TEXT35
100
AcDbText
 10
-179.7
 20
59.6
 30
0.0
 40
3.5
  1

 41
0.8
  7
TEXT35
100
AcDbAttributeDefinition
  3
Werkstoff:
  2
F61
 70
     0
  0
ATTDEF
  5
283
330
24F
100
AcDbEntity
  8
TEXT35
100
AcDbText
 10
-179.7
 20
49.7
 30
0.0
 40
3.5
  1

 41
0.8
  7
TEXT35
100
AcDbAttributeDefinition
  3
zul. Abweichung
  2
F62
 70
     0
  0
ATTDEF
  5
284
330
24F
100
AcDbEntity
  8
TEXT25
100
AcDbText
 10
-174.360415155955
 20
74.59999999999999
 30
0.0
 40
2.0
  1

 41
0.8
  7
TEXT20
100
AcDbAttributeDefinition
  3
Index vv.:
  2
F72
 70
     0
  0
ATTDEF
  5
285
330
24F
100
AcDbEntity
  8
TEXT25
100
AcDbText
 10
-174.4435409453564
 20
79.47378932523601
 30
0.0
 40
2.0
  1

 41
0.8
  7
TEXT20
100
AcDbAttributeDefinition
  3
Index v.:
  2
F68
 70
     0
  0
ATTDEF
  5
286
330
24F
100
AcDbEntity
  8
TEXT25
100
AcDbText
 10
-174.3700408782365
 20
84.63034186138365
 30
0.0
 40
2.0
  1

 41
0.8
  7
TEXT20
100
AcDbAttributeDefinition
  3
Index l.:
  2
F64
 70
     0
  0
LINE
  5
287
330
24F
100
AcDbEntity
  8
KOPF
100
AcDbLine
 10
-162.682677
 20
88.49999999999996
 30
0.0
 11
-162.682677
 21
68.49999999999997
 31
0.0
  0
LINE
  5
288
330
24F
100
AcDbEntity
  8
KOPF
100
AcDbLine
 10
-162.682677
 20
88.49999999999996
 30
0.0
 11
-162.682677
 21
68.49999999999997
 31
0.0
  0
TEXT
  5
289
330
24F
100
AcDbEntity
  8
KOPF
100
AcDbText
 10
-156.706568
 20
69.53813999999997
 30
0.0
 40
2.0
  1
Datum
 41
0.8
  7
TEXT20
100
AcDbText
  0
ATTDEF
  5
28A
330
24F
100
AcDbEntity
  8
TEXT25
100
AcDbText
 10
-160.9
 20
75.09999999999999
 30
0.0
 40
2.0
  1

 41
0.8
  7
TEXT20
100
AcDbAttributeDefinition
  3
Datum vv.:
  2
F73
 70
     0
  0
ATTDEF
  5
28B
330
24F
100
AcDbEntity
  8
TEXT25
100
AcDbText
 10
-160.9
 20
79.40000000000001
 30
0.0
 40
2.0
  1

 41
0.8
  7
TEXT20
100
AcDbAttributeDefinition
  3
Datum v.:
  2
F69
 70
     0
  0
ATTDEF
  5
28C
330
24F
100
AcDbEntity
  8
TEXT25
100
AcDbText
 10
-160.6
 20
84.50000000000001
 30
0.0
 40
2.0
  1

 41
0.8
  7
TEXT20
100
AcDbAttributeDefinition
  3
Datum l.:
  2
F65
 70
     0
  0
LINE
  5
28D
330
24F
100
AcDbEntity
  8
KOPF
 62
    12
100
AcDbLine
 10
-142.0
 20
68.49999999999997
 30
0.0
 11
-142.0
 21
88.49999999999996
 31
0.0
  0
LINE
  5
28E
330
24F
100
AcDbEntity
  8
KOPF
100
AcDbLine
 10
-142.0
 20
68.49999999999997
 30
0.0
 11
-142.0
 21
88.49999999999996
 31
0.0
  0
ATTDEF
  5
28F
330
24F
100
AcDbEntity
  8
TEXT35
100
AcDbText
 10
-139.9
 20
59.29999999999999
 30
0.0
 40
3.5
  1

 41
0.8
  7
TEXT35
100
AcDbAttributeDefinition
  3
Gewicht:
  2
F60
 70
     0
  0
TEXT
  5
290
330
24F
100
AcDbEntity
  8
KOPF
100
AcDbText
 10
-140.387393
 20
54.54752599999996
 30
0.0
 40
2.0
  1
Oberfläche
 41
0.8
  7
TEXT20
100
AcDbText
  0
TEXT
  5
291
330
24F
100
AcDbEntity
  8
KOPF
100
AcDbText
 10
-140.1020469999999
 20
65.166273
 30
0.0
 40
2.0
  1
Gewicht:
 41
0.8
  7
TEXT20
100
AcDbText
  0
TEXT
  5
292
330
24F
100
AcDbEntity
  8
KOPF
100
AcDbText
 10
-140.1020469999999
 20
65.166273
 30
0.0
 40
2.0
  1
Gewicht:
 41
0.8
  7
TEXT20
100
AcDbText
  0
ATTDEF
  5
293
330
24F
100
AcDbEntity
  8
TEXT25
100
AcDbText
 10
-140.4
 20
74.59999999999999
 30
0.0
 40
2.0
  1

 41
0.8
  7
TEXT20
100
AcDbAttributeDefinition
  3
Bennenung vv.:
  2
F74
 70
     0
  0
ATTDEF
  5
294
330
24F
100
AcDbEntity
  8
TEXT25
100
AcDbText
 10
-140.5063960262479
 20
79.64480359078786
 30
0.0
 40
2.0
  1

 41
0.8
  7
TEXT20
100
AcDbAttributeDefinition
  3
Benennung v.:
  2
F70
 70
     0
  0
ATTDEF
  5
295
330
24F
100
AcDbEntity
  8
TEXT25
100
AcDbText
 10
-140.390233442385
 20
84.56120109651198
 30
0.0
 40
2.0
  1

 41
0.8
  7
TEXT20
100
AcDbAttributeDefinition
  3
Bennenung l.:
  2
F66
 70
     0
  0
LINE
  5
296
330
24F
100
AcDbEntity
  8
KOPF
 62
    12
100
AcDbLine
 10
-100.0
 20
68.49999999999997
 30
0.0
 11
-100.0
 21
46.99999999999997
 31
0.0
  0
LWPOLYLINE
  5
297
330
24F
100
AcDbEntity
  8
KOPF
 62
    12
100
AcDbPolyline
 90
        2
 70
     0
 43
0.5
 10
-83.0
 20
46.99999999999997
 10
-83.0
 20
0.0
  0
LINE
  5
298
330
24F
100
AcDbEntity
  8
KOPF
100
AcDbLine
 10
-83.0
 20
46.99999999999997
 30
0.0
 11
-83.0
 21
0.0
 31
0.0
  0
TEXT
  5
299
330
24F
100
AcDbEntity
  8
KOPF
100
AcDbText
 10
-81.0
 20
1.714285999999985
 30
0.0
 40
2.0
  1
Ersetzt durch:
 41
0.8
  7
TEXT20
100
AcDbText
  0
LINE
  5
29A
330
24F
100
AcDbEntity
  8
KOPF
 62
    12
100
AcDbLine
 10
-113.4
 20
27.0
 30
0.0
 11
-113.4
 21
46.99999999999997
 31
0.0
  0
LWPOLYLINE
  5
29B
330
24F
100
AcDbEntity
  8
KOPF
100
AcDbPolyline
 90
        2
 70
     0
 43
0.5
 10
-113.4
 20
27.0
 10
-113.4
 20
46.99999999999997
  0
LINE
  5
29C
330
24F
100
AcDbEntity
  8
KOPF
100
AcDbLine
 10
-113.4
 20
27.0
 30
0.0
 11
-113.4
 21
46.99999999999997
 31
0.0
  0
LINE
  5
29D
330
24F
100
AcDbEntity
  8
KOPF
100
AcDbLine
 10
-113.4
 20
27.0
 30
0.0
 11
-113.4
 21
46.99999999999997
 31
0.0
  0
ATTDEF
  5
29E
330
24F
100
AcDbEntity
  8
TEXT35
100
AcDbText
 10
-104.4935632823758
 20
33.13408015176805
 30
0.0
 40
3.5
  1

 41
0.8
  7
TEXT35
100
AcDbAttributeDefinition
  3
Maßstab 2:
  2
F54
 70
     0
  0
ATTDEF
  5
29F
330
24F
100
AcDbEntity
  8
TEXT35
100
AcDbText
 10
-104.487948258847
 20
28.6
 30
0.0
 40
3.5
  1

 41
0.8
  7
TEXT35
100
AcDbAttributeDefinition
  3
Maßstab 3:
  2
F55
 70
     0
  0
ATTDEF
  5
2A0
330
24F
100
AcDbEntity
  8
TEXT50
100
AcDbText
 10
-106.6
 20
37.8
 30
0.0
 40
5.0
  1

 41
0.8
  7
TEXT50
100
AcDbAttributeDefinition
  3
Maßstab 1:
  2
F25
 70
     0
  0
TEXT
  5
2A1
330
24F
100
AcDbEntity
  8
KOPF
100
AcDbText
 10
-112.263457
 20
43.88678899999999
 30
0.0
 40
2.0
  1
Massstab:
 41
0.8
  7
TEXT20
100
AcDbText
  0
LINE
  5
2A2
330
24F
100
AcDbEntity
  8
KOPF
 62
    12
100
AcDbLine
 10
-57.80813400000011
 20
27.0
 30
0.0
 11
-57.80813400000011
 21
46.99999999999997
 31
0.0
  0
LINE
  5
2A3
330
24F
100
AcDbEntity
  8
KOPF
100
AcDbLine
 10
-57.80813400000011
 20
27.0
 30
0.0
 11
-57.80813400000011
 21
46.99999999999997
 31
0.0
  0
TEXT
  5
2A4
330
24F
100
AcDbEntity
  8
KOPF
100
AcDbText
 10
-81.59296000000006
 20
23.69783599999999
 30
0.0
 40
2.0
  1
Zeichnung Nr.:
 41
0.8
  7
TEXT20
100
AcDbText
  0
TEXT
  5
2A5
330
24F
100
AcDbEntity
  8
KOPF
100
AcDbText
 10
-81.00375700000006
 20
5.924711999999997
 30
0.0
 40
2.0
  1
Ersatz für:
 41
0.8
  7
TEXT20
100
AcDbText
  0
TEXT
  5
2A6
330
24F
100
AcDbEntity
  8
KOPF
100
AcDbText
 10
-81.59296000000006
 20
23.69783599999999
 30
0.0
 40
2.0
  1
Zeichnung Nr.:
 41
0.8
  7
TEXT20
100
AcDbText
  0
ATTDEF
  5
2A7
330
24F
100
AcDbEntity
  8
TEXT50
100
AcDbText
 10
-78.29193986361122
 20
14.50587824180555
 30
0.0
 40
5.0
  1

 41
0.8
  7
TEXT50
100
AcDbAttributeDefinition
  3
Standart:
  2
F1
 70
     0
  0
TEXT
  5
2A8
330
24F
100
AcDbEntity
  8
KOPF
100
AcDbText
 10
-81.48889200000008
 20
43.86057200000001
 30
0.0
 40
2.0
  1
Masseinheit:
 41
0.8
  7
TEXT20
100
AcDbText
  0
LINE
  5
2A9
330
24F
100
AcDbEntity
  8
KOPF
 62
    12
100
AcDbLine
 10
-57.80813400000011
 20
36.213444
 30
0.0
 11
-83.0
 21
36.213444
 31
0.0
  0
LINE
  5
2AA
330
24F
100
AcDbEntity
  8
KOPF
100
AcDbLine
 10
-57.80813400000011
 20
36.213444
 30
0.0
 11
-83.0
 21
36.213444
 31
0.0
  0
ATTDEF
  5
2AB
330
24F
100
AcDbEntity
  8
TEXT35
100
AcDbText
 10
-79.40896486611496
 20
38.08722024605356
 30
0.0
 40
3.5
  1

 41
0.8
  7
TEXT35
100
AcDbAttributeDefinition
  3
Maßeinheit:
  2
F56
 70
     0
  0
TEXT
  5
2AC
330
24F
100
AcDbEntity
  8
KOPF
100
AcDbText
 10
-33.57569784693112
 20
42.62823225872138
 30
0.0
 40
1.54
  1
Diese Zeichnung darf weder kopiert
 41
0.8
  7
TEXT20
100
AcDbText
  0
TEXT
  5
2AD
330
24F
100
AcDbEntity
  8
KOPF
100
AcDbText
 10
-33.57569784693112
 20
40.26106040199917
 30
0.0
 40
1.54
  1
noch dritten Personen, insbesondere
 41
0.8
  7
TEXT20
100
AcDbText
  0
TEXT
  5
2AE
330
24F
100
AcDbEntity
  8
KOPF
100
AcDbText
 10
-33.57569784693112
 20
35.63814072439632
 30
0.0
 40
1.54
  1
mitgeteilt werden und bleibt unser
 41
0.8
  7
TEXT20
100
AcDbText
  0
TEXT
  5
2AF
330
24F
100
AcDbEntity
  8
KOPF
100
AcDbText
 10
-33.57569784693112
 20
33.37532604459598
 30
0.0
 40
1.54
  1
Eigentum.
 41
0.8
  7
TEXT20
100
AcDbText
  0
TEXT
  5
2B0
330
24F
100
AcDbEntity
  8
KOPF
100
AcDbText
 10
-33.57569784693112
 20
37.97994933403727
 30
0.0
 40
1.54
  1
zum Zweck anderweitiger Benutzung
 41
0.8
  7
TEXT20
100
AcDbText
  0
TEXT
  5
2B1
330
24F
100
AcDbEntity
  8
KOPF
100
AcDbText
 10
-33.7904806989385
 20
30.30982488917614
 30
0.0
 40
1.54
  1
Schutzvermerk nach DIN 34 beachten
 41
0.75
  7
TEXT20
100
AcDbText
  0
LINE
  5
2B2
330
24F
100
AcDbEntity
  8
KOPF
100
AcDbLine
 10
-34.94281200000012
 20
47.01203199999999
 30
0.0
 11
-34.94281200000012
 21
27.0
 31
0.0
  0
LINE
  5
2B3
330
24F
100
AcDbEntity
  8
KOPF
100
AcDbLine
 10
-34.94281200000012
 20
47.01203199999999
 30
0.0
 11
-34.94281200000012
 21
27.0
 31
0.0
  0
LINE
  5
2B4
330
24F
100
AcDbEntity
  8
MITTE
100
AcDbLine
 10
-45.85521401410289
 20
36.04852954632858
 30
0.0
 11
-35.23444858652556
 21
36.04852954632858
 31
0.0
  0
LINE
  5
2B5
330
24F
100
AcDbEntity
  8
TEXT50
100
AcDbLine
 10
-45.05865660703466
 20
32.02559619470341
 30
0.0
 11
-36.50894043783512
 21
34.06858135367652
 31
0.0
  0
LINE
  5
2B6
330
24F
100
AcDbEntity
  8
TEXT50
100
AcDbLine
 10
-36.50894043783512
 20
38.02847773898061
 30
0.0
 11
-45.05865660703466
 21
40.07146289795374
 31
0.0
  0
TEXT
  5
2B7
330
24F
100
AcDbEntity
  8
KOPF
100
AcDbText
 10
-57.12244047883302
 20
43.82431699999997
 30
0.0
 40
2.0
  1
Projektion: ISO-E
 41
0.8
  7
TEXT20
100
AcDbText
  0
LINE
  5
2B8
330
24F
100
AcDbEntity
  8
TEXT50
100
AcDbLine
 10
-45.05865660703466
 20
40.07146289795374
 30
0.0
 11
-45.05865660703466
 21
32.02559619470346
 31
0.0
  0
LINE
  5
2B9
330
24F
100
AcDbEntity
  8
MITTE
100
AcDbLine
 10
-51.4945506424383
 20
40.07146289795374
 30
0.0
 11
-51.4945506424383
 21
30.76413131482123
 31
0.0
  0
CIRCLE
  5
2BA
330
24F
100
AcDbEntity
  8
TEXT50
100
AcDbCircle
 10
-51.4945506424383
 20
36.04852954632858
 30
0.0
 40
4.022933351625178
  0
CIRCLE
  5
2BB
330
24F
100
AcDbEntity
  8
TEXT50
100
AcDbCircle
 10
-51.4945506424383
 20
36.04852954632858
 30
0.0
 40
1.979948192651899
  0
LINE
  5
2BC
330
24F
100
AcDbEntity
  8
MITTE
100
AcDbLine
 10
-56.48631039339966
 20
36.04852954632858
 30
0.0
 11
-46.50279089147699
 21
36.04852954632858
 31
0.0
  0
LINE
  5
2BD
330
24F
100
AcDbEntity
  8
TEXT50
100
AcDbLine
 10
-36.50894043783512
 20
38.02847773898061
 30
0.0
 11
-36.50894043783512
 21
34.06858135367652
 31
0.0
  0
LWPOLYLINE
  5
2BE
330
24F
100
AcDbEntity
  8
KOPF
 62
    12
100
AcDbPolyline
 90
        2
 70
     0
 43
0.5
 10
-12.0
 20
27.0
 10
-12.0
 20
10.0
  0
LINE
  5
2BF
330
24F
100
AcDbEntity
  8
KOPF
100
AcDbLine
 10
-12.0
 20
27.0
 30
0.0
 11
-12.0
 21
10.0
 31
0.0
  0
ATTDEF
  5
2C0
330
24F
100
AcDbEntity
  8
TEXT50
100
AcDbText
 10
-5.58570360403041
 20
17.00587824180555
 30
0.0
 40
5.0
  1

 41
0.8
  7
TEXT50
 72
     4
 11
-5.58570360403041
 21
17.00587824180555
 31
0.0
100
AcDbAttributeDefinition
  3
Index:
  2
F1B
 70
     0
  0
TEXT
  5
2C1
330
24F
100
AcDbEntity
  8
KOPF
100
AcDbText
 10
-8.353129999999964
 20
23.330072
 30
0.0
 40
2.0
  1
Index
 41
0.8
  7
TEXT20
100
AcDbText
  0
TEXT
  5
2C2
330
24F
100
AcDbEntity
  8
KOPF
100
AcDbText
 10
-94.40535829344497
 20
70.39773773357916
 30
0.0
 40
2.0
  1
Benennung
 41
0.8
  7
TEXT20
100
AcDbText
  0
LINE
  5
2C3
330
24F
100
AcDbEntity
  8
KOPF
100
AcDbLine
 10
-15.0
 20
88.49999999999996
 30
0.0
 11
-15.0
 21
68.49999999999997
 31
0.0
  0
LINE
  5
2C4
330
24F
100
AcDbEntity
  8
KOPF
100
AcDbLine
 10
-15.0
 20
88.49999999999996
 30
0.0
 11
-15.0
 21
68.49999999999997
 31
0.0
  0
TEXT
  5
2C5
330
24F
100
AcDbEntity
  8
KOPF
100
AcDbText
 10
-11.65833600000008
 20
69.53813999999997
 30
0.0
 40
2.0
  1
Name
 41
0.8
  7
TEXT20
100
AcDbText
  0
TEXT
  5
2C6
330
24F
100
AcDbEntity
  8
KOPF
100
AcDbText
 10
-11.65833600000008
 20
69.53813999999997
 30
0.0
 40
2.0
  1
Name
 41
0.8
  7
TEXT20
100
AcDbText
  0
ATTDEF
  5
2C7
330
24F
100
AcDbEntity
  8
TEXT25
100
AcDbText
 10
-13.39999999999998
 20
74.90000000000001
 30
0.0
 40
2.0
  1

 41
0.8
  7
TEXT20
100
AcDbAttributeDefinition
  3
Name vv.:
  2
F75
 70
     0
  0
ATTDEF
  5
2C8
330
24F
100
AcDbEntity
  8
TEXT25
100
AcDbText
 10
-13.39999999999998
 20
79.7
 30
0.0
 40
2.0
  1

 41
0.8
  7
TEXT20
100
AcDbAttributeDefinition
  3
Name v.:
  2
F71
 70
     0
  0
ATTDEF
  5
2C9
330
24F
100
AcDbEntity
  8
TEXT25
100
AcDbText
 10
-13.31006638105163
 20
84.29999999999999
 30
0.0
 40
2.0
  1

 41
0.8
  7
TEXT20
100
AcDbAttributeDefinition
  3
Name l.:
  2
F67
 70
     0
  0
LINE
  5
2CA
330
24F
100
AcDbEntity
  8
KOPF
100
AcDbLine
 10
-182.0
 20
36.99999999999997
 30
0.0
 11
-113.4
 21
36.99999999999997
 31
0.0
  0
LINE
  5
2CB
330
24F
100
AcDbEntity
  8
KOPF
100
AcDbLine
 10
-182.0
 20
31.99999999999997
 30
0.0
 11
-113.4
 21
31.99999999999997
 31
0.0
  0
MTEXT
  5
2CC
330
24F
100
AcDbEntity
  8
Sperrlayer
 62
     1
100
AcDbMText
 10
-166.0749851709908
 20
9.027899370527848
 30
0.0
 40
10.0
 41
771.0
 71
     1
 72
     5
  1
VORABZUG - nicht FREIGEGEBEN !
  7
TEXT20
 11
0.8660254037844387
 21
0.5
 31
0.0
 73
     1
 44
1.0
1001
ACAD
1000
MTEXTBEGIN
1070
    73
1070
     1
1070
    44
1040
1.0
1070
    74
1070
     0
1000
MTEXTEND
  0
ATTDEF
  5
2CD
330
24F
100
AcDbEntity
  8
RAHM3
100
AcDbText
 10
-100.7395275842899
 20
38.58583043117892
 30
0.0
 40
3.0
  1
-
 72
     1
 11
-99.68952758428997
 21
38.58583043117892
 31
0.0
100
AcDbAttributeDefinition
  3
(genmsg"gendwg"83)
  2
GEN-TITLE-SCA{5.42}
 70
     0
1001
GENIUS_GENBLLY_14
1000
BOR3
  0
TEXT
  5
2CE
330
24F
100
AcDbEntity
  8
0N
100
AcDbText
 10
-180.0433753026868
 20
97.16012098886922
 30
0.0
 40
3.5
  1
Zeichnungen größer darstellenden Maßstabes bzw. Einzelteilzeichnungen
 41
0.9
100
AcDbText
  0
TEXT
  5
2CF
330
24F
100
AcDbEntity
  8
0N
100
AcDbText
 10
-180.0433753026868
 20
91.14471067045299
 30
0.0
 40
3.5
  1
haben vorrangige Gültigkeit
 41
0.9
100
AcDbText
  0
LINE
  5
2D0
330
24F
100
AcDbEntity
  8
KOPF
 62
    12
100
AcDbLine
 10
0.0
 20
103.4999999999999
 30
0.0
 11
-182.0
 21
103.4999999999999
 31
0.0
  0
LINE
  5
2D1
330
24F
100
AcDbEntity
  8
KOPF
100
AcDbLine
 10
0.0
 20
103.4999999999999
 30
0.0
 11
-182.0
 21
103.4999999999999
 31
0.0
  0
TEXT
  5
2D2
330
24F
100
AcDbEntity
  8
0N
100
AcDbText
 10
-50.10402338551751
 20
63.31558948216224
 30
0.0
 40
3.5
  1
ACO Haustechnik
  7
Anschrift
100
AcDbText
  0
TEXT
  5
2D3
330
24F
100
AcDbEntity
  8
KOPF
100
AcDbText
 10
-49.87580542490343
 20
59.20935299973598
 30
0.0
 40
2.0
  1
ACO Passavant GmbH
  7
Anschrift
100
AcDbText
  0
TEXT
  5
2D4
330
24F
100
AcDbEntity
  8
KOPF
100
AcDbText
 10
-49.87580542490343
 20
55.94457150873341
 30
0.0
 40
2.0
  1
Ulsterstrasse 3
  7
Anschrift
100
AcDbText
  0
TEXT
  5
2D5
330
24F
100
AcDbEntity
  8
KOPF
100
AcDbText
 10
-49.87580542490343
 20
52.67979001773084
 30
0.0
 40
2.0
  1
36269 Phillipsthal
  7
Anschrift
100
AcDbText
  0
TEXT
  5
2D6
330
24F
100
AcDbEntity
  8
KOPF
100
AcDbText
 10
-49.87580542490343
 20
49.41500852672827
 30
0.0
 40
2.0
  1
www.aco-haustechnik.de
  7
Anschrift
100
AcDbText
  0
IMAGE
  5
2D7
330
24F
100
AcDbEntity
  8
0N
 92
      140
310
8C00000001000000840000000600000005000000D8E09288BC7856C020EE296E8D3848400000000000000000D8E09288BC7856C05505A7591AA950400000000000000000701116DB117C50C05505A7591AA950400000000000000000701116DB117C50C020EE296E8D3848400000000000000000D8E09288BC7856C020EE29
310
6E8D3848400000000000000000
100
AcDbRasterImage
 90
        0
 10
-89.88650717109283
 20
48.44181611106273
 30
0.0
 11
0.3193055645228697
 21
0.0
 31
0.0
 12
0.0
 22
0.3193055645228696
 32
0.0
 13
75.0
 23
57.0
340
510
 70
     7
280
     0
281
    50
282
    50
283
     0
360
2D8
 71
     1
 91
        2
 14
-0.5
 24
-0.5
 14
74.5
 24
56.5
  0
ENDBLK
  5
2D9
330
24F
100
AcDbEntity
  8
0
 62
     0
100
AcDbBlockEnd
  0
BLOCK
  5
61F
330
618
100
AcDbEntity
  8
0
100
AcDbBlockBegin
  2
*D27
 70
     1
 10
0.0
 20
0.0
 30
0.0
  3
*D27
  1

  0
LINE
  5
664
330
618
100
AcDbEntity
  8
0
100
AcDbLine
 10
136.5325556552108
 20
268.0571187373913
 30
0.0
 11
208.0544131181394
 21
329.0540359140198
 31
0.0
  0
SOLID
  5
665
330
618
100
AcDbEntity
  8
0
100
AcDbTrace
 10
136.262179249286
 20
268.374148247422
 30
0.0
 11
136.8029320611356
 21
267.7400892273606
 31
0.0
 12
134.6303785950266
 22
266.4348603018427
 32
0.0
 13
134.6303785950266
 23
266.4348603018427
 33
0.0
  0
SOLID
  5
666
330
618
100
AcDbEntity
  8
0
100
AcDbTrace
 10
207.7840367122147
 20
329.3710654240505
 30
0.0
 11
208.3247895240642
 21
328.7370064039891
 31
0.0
 12
209.9565901783238
 22
330.6762943495684
 32
0.0
 13
209.9565901783238
 23
330.6762943495684
 33
0.0
  0
MTEXT
  5
667
102
{ACAD_XDICTIONARY
360
7E9
102
}
330
618
100
AcDbEntity
  8
0
 62
     2
100
AcDbMText
 10
182.8151583543945
 20
311.8003350706993
 30
0.0
 40
3.5
 41
0.0
 71
     5
 72
     1
  1
\U+220599
 11
0.7608708240737104
 21
0.6489033742194542
 31
0.0
 73
     1
 44
1.0
1001
ACAD
1000
MTEXTBEGIN
1070
    73
1070
     1
1070
    44
1040
1.0
1070
    74
1070
     0
1000
MTEXTEND
  0
POINT
  5
668
330
618
100
AcDbEntity
  8
Defpoints
 62
     0
100
AcDbPoint
 10
209.9565901783238
 20
330.6762943495684
 30
0.0
  0
POINT
  5
669
330
618
100
AcDbEntity
  8
Defpoints
 62
     0
100
AcDbPoint
 10
134.6303785950266
 20
266.4348603018427
 30
0.0
  0
ENDBLK
  5
620
330
618
100
AcDbEntity
  8
0
100
AcDbBlockEnd
  0
BLOCK
  5
628
330
621
100
AcDbEntity
  8
0
100
AcDbBlockBegin
  2
*D28
 70
     1
 10
0.0
 20
0.0
 30
0.0
  3
*D28
  1

  0
LINE
  5
66A
330
621
100
AcDbEntity
  8
0
100
AcDbLine
 10
214.1842456368812
 20
279.5512588196861
 30
0.0
 11
130.4027231364692
 21
317.5598958317253
 31
0.0
  0
SOLID
  5
66B
330
621
100
AcDbEntity
  8
0
100
AcDbTrace
 10
214.3563862030589
 20
279.9307041208655
 30
0.0
 11
214.0121050707035
 21
279.1718135185067
 31
0.0
 12
216.4609174439576
 22
278.5184154226198
 32
0.0
 13
216.4609174439576
 23
278.5184154226198
 33
0.0
  0
SOLID
  5
66C
330
621
100
AcDbEntity
  8
0
100
AcDbTrace
 10
130.5748637026469
 20
317.9393411329048
 30
0.0
 11
130.2305825702914
 21
317.1804505305459
 31
0.0
 12
128.1260513293927
 22
318.5927392287916
 32
0.0
 13
128.1260513293927
 23
318.5927392287916
 33
0.0
  0
MTEXT
  5
66D
102
{ACAD_XDICTIONARY
360
7EB
102
}
330
621
100
AcDbEntity
  8
0
 62
     2
100
AcDbMText
 10
153.364243294093
 20
310.711893219778
 30
0.0
 40
3.5
 41
0.0
 71
     5
 72
     1
  1
\U+220597
 11
0.9106687228305649
 21
-0.4131373588265138
 31
0.0
 73
     1
 44
1.0
1001
ACAD
1000
MTEXTBEGIN
1070
    73
1070
     1
1070
    44
1040
1.0
1070
    74
1070
     0
1000
MTEXTEND
  0
POINT
  5
66E
330
621
100
AcDbEntity
  8
Defpoints
 62
     0
100
AcDbPoint
 10
128.1260513293927
 20
318.5927392287916
 30
0.0
  0
POINT
  5
66F
330
621
100
AcDbEntity
  8
Defpoints
 62
     0
100
AcDbPoint
 10
216.4609174439576
 20
278.5184154226198
 30
0.0
  0
ENDBLK
  5
629
330
621
100
AcDbEntity
  8
0
100
AcDbBlockEnd
  0
BLOCK
  5
631
330
62A
100
AcDbEntity
  8
0
100
AcDbBlockBegin
  2
*D29
 70
     1
 10
0.0
 20
0.0
 30
0.0
  3
*D29
  1

  0
LINE
  5
739
330
62A
100
AcDbEntity
  8
AM_5
100
AcDbLine
 10
127.4769306138391
 20
292.680502183507
 30
0.0
 11
217.1100381595113
 21
304.4306524679043
 31
0.0
  0
SOLID
  5
73A
330
62A
100
AcDbEntity
  8
AM_5
100
AcDbTrace
 10
127.422772472779
 20
293.093634132003
 30
0.0
 11
127.5310887548992
 21
292.2673702350111
 31
0.0
 12
124.9981389228636
 22
292.3555533371465
 32
0.0
 13
124.9981389228636
 23
292.3555533371465
 33
0.0
  0
SOLID
  5
73B
330
62A
100
AcDbEntity
  8
AM_5
100
AcDbTrace
 10
217.0558800184512
 20
304.8437844164003
 30
0.0
 11
217.1641963005714
 21
304.0175205194085
 31
0.0
 12
219.5888298504868
 22
304.7556013142649
 32
0.0
 13
219.5888298504868
 23
304.7556013142649
 33
0.0
  0
MTEXT
  5
73C
330
62A
100
AcDbEntity
  8
AM_5
 62
     2
100
AcDbMText
 10
193.9586809049811
 20
304.6735099741044
 30
0.0
 40
3.5
 41
0.0
 71
     5
 72
     1
  1
%%c 95.4
 11
0.9915166763901815
 21
0.1299795385442183
 31
0.0
 73
     1
 44
1.0
1001
ACAD
1000
MTEXTBEGIN
1070
    73
1070
     1
1070
    44
1040
1.0
1070
    74
1070
     0
1000
MTEXTEND
  0
POINT
  5
73D
330
62A
100
AcDbEntity
  8
Defpoints
 62
     0
100
AcDbPoint
 10
219.5888298504868
 20
304.7556013142649
 30
0.0
  0
POINT
  5
73E
330
62A
100
AcDbEntity
  8
Defpoints
 62
     0
100
AcDbPoint
 10
124.9981389228636
 20
292.3555533371465
 30
0.0
  0
ENDBLK
  5
632
330
62A
100
AcDbEntity
  8
0
100
AcDbBlockEnd
  0
BLOCK
  5
63D
330
633
100
AcDbEntity
  8
0
100
AcDbBlockBegin
  2
*D30
 70
     1
 10
0.0
 20
0.0
 30
0.0
  3
*D30
  1

  0
LINE
  5
634
330
633
100
AcDbEntity
  8
AM_5
100
AcDbLine
 10
124.5184843866752
 20
200.894956062725
 30
0.0
 11
124.5184843866752
 21
183.4700602502589
 31
0.0
  0
LINE
  5
635
330
633
100
AcDbEntity
  8
AM_5
100
AcDbLine
 10
220.0684843866752
 20
200.894956062725
 30
0.0
 11
220.0684843866752
 21
183.4700602502589
 31
0.0
  0
LINE
  5
636
330
633
100
AcDbEntity
  8
AM_5
100
AcDbLine
 10
127.0184843866752
 20
184.4700602502589
 30
0.0
 11
217.5684843866752
 21
184.4700602502589
 31
0.0
  0
SOLID
  5
637
330
633
100
AcDbEntity
  8
AM_5
100
AcDbTrace
 10
127.0184843866752
 20
184.8867269169256
 30
0.0
 11
127.0184843866752
 21
184.0533935835923
 31
0.0
 12
124.5184843866752
 22
184.4700602502589
 32
0.0
 13
124.5184843866752
 23
184.4700602502589
 33
0.0
  0
SOLID
  5
638
330
633
100
AcDbEntity
  8
AM_5
100
AcDbTrace
 10
217.5684843866752
 20
184.8867269169256
 30
0.0
 11
217.5684843866752
 21
184.0533935835923
 31
0.0
 12
220.0684843866752
 22
184.4700602502589
 32
0.0
 13
220.0684843866752
 23
184.4700602502589
 33
0.0
  0
MTEXT
  5
639
330
633
100
AcDbEntity
  8
AM_5
 62
     2
100
AcDbMText
 10
181.8784386310603
 20
187.8959061285434
 30
0.0
 40
3.5
 41
0.0
 71
     5
 72
     1
  1
(95.6)
 73
     1
 44
1.0
1001
ACAD
1000
MTEXTBEGIN
1070
    73
1070
     1
1070
    44
1040
1.0
1070
    74
1070
     0
1000
MTEXTEND
  0
POINT
  5
63A
330
633
100
AcDbEntity
  8
Defpoints
 62
     0
100
AcDbPoint
 10
124.5184843866752
 20
201.894956062725
 30
0.0
  0
POINT
  5
63B
330
633
100
AcDbEntity
  8
Defpoints
 62
     0
100
AcDbPoint
 10
220.0684843866752
 20
201.894956062725
 30
0.0
  0
POINT
  5
63C
330
633
100
AcDbEntity
  8
Defpoints
 62
     0
100
AcDbPoint
 10
220.0684843866752
 20
184.4700602502589
 30
0.0
  0
ENDBLK
  5
63E
330
633
100
AcDbEntity
  8
0
100
AcDbBlockEnd
  0
BLOCK
  5
64B
330
63F
100
AcDbEntity
  8
0
100
AcDbBlockBegin
  2
*D31
 70
     1
 10
0.0
 20
0.0
 30
0.0
  3
*D31
  1

  0
LINE
  5
640
330
63F
100
AcDbEntity
  8
AM_5
100
AcDbLine
 10
350.7281512982803
 20
302.7631270160684
 30
0.0
 11
325.3449869145884
 21
302.7631270160684
 31
0.0
  0
LINE
  5
641
330
63F
100
AcDbEntity
  8
AM_5
100
AcDbLine
 10
350.7281512982803
 20
298.0631270160684
 30
0.0
 11
325.3449869145884
 21
298.0631270160684
 31
0.0
  0
LINE
  5
642
330
63F
100
AcDbEntity
  8
AM_5
100
AcDbLine
 10
326.3449869145884
 20
305.2631270160684
 30
0.0
 11
326.3449869145884
 21
307.7631270160684
 31
0.0
  0
LINE
  5
643
330
63F
100
AcDbEntity
  8
AM_5
100
AcDbLine
 10
326.3449869145884
 20
295.5631270160684
 30
0.0
 11
326.3449869145884
 21
284.8131270160684
 31
0.0
  0
LINE
  5
644
330
63F
100
AcDbEntity
  8
AM_5
100
AcDbLine
 10
326.3449869145884
 20
302.7631270160684
 30
0.0
 11
326.3449869145884
 21
298.0631270160684
 31
0.0
  0
SOLID
  5
645
330
63F
100
AcDbEntity
  8
AM_5
100
AcDbTrace
 10
325.9283202479217
 20
305.2631270160684
 30
0.0
 11
326.7616535812551
 21
305.2631270160684
 31
0.0
 12
326.3449869145884
 22
302.7631270160684
 32
0.0
 13
326.3449869145884
 23
302.7631270160684
 33
0.0
  0
SOLID
  5
646
330
63F
100
AcDbEntity
  8
AM_5
100
AcDbTrace
 10
325.9283202479217
 20
295.5631270160684
 30
0.0
 11
326.7616535812551
 21
295.5631270160684
 31
0.0
 12
326.3449869145884
 22
298.0631270160684
 32
0.0
 13
326.3449869145884
 23
298.0631270160684
 33
0.0
  0
MTEXT
  5
647
330
63F
100
AcDbEntity
  8
AM_5
 62
     2
100
AcDbMText
 10
323.0949869145884
 20
288.9381270160685
 30
0.0
 40
3.5
 41
0.0
 71
     5
 72
     1
  1
4.7
 11
0.0000000000000001
 21
1.0
 31
0.0
 73
     1
 44
1.0
1001
ACAD
1000
MTEXTBEGIN
1070
    73
1070
     1
1070
    44
1040
1.0
1070
    74
1070
     0
1000
MTEXTEND
  0
POINT
  5
648
330
63F
100
AcDbEntity
  8
Defpoints
 62
     0
100
AcDbPoint
 10
351.7281512982803
 20
302.7631270160684
 30
0.0
  0
POINT
  5
649
330
63F
100
AcDbEntity
  8
Defpoints
 62
     0
100
AcDbPoint
 10
351.7281512982803
 20
298.0631270160684
 30
0.0
  0
POINT
  5
64A
330
63F
100
AcDbEntity
  8
Defpoints
 62
     0
100
AcDbPoint
 10
326.3449869145884
 20
298.0631270160684
 30
0.0
  0
ENDBLK
  5
64C
330
63F
100
AcDbEntity
  8
0
100
AcDbBlockEnd
  0
BLOCK
  5
659
330
64D
100
AcDbEntity
  8
0
100
AcDbBlockBegin
  2
*D32
 70
     1
 10
0.0
 20
0.0
 30
0.0
  3
*D32
  1

  0
LINE
  5
64E
330
64D
100
AcDbEntity
  8
AM_5
100
AcDbLine
 10
347.642928258202
 20
309.7631270160684
 30
0.0
 11
314.3261019261418
 21
309.7631270160684
 31
0.0
  0
LINE
  5
64F
330
64D
100
AcDbEntity
  8
AM_5
100
AcDbLine
 10
347.642928258202
 20
302.7631270160684
 30
0.0
 11
314.3261019261418
 21
302.7631270160684
 31
0.0
  0
LINE
  5
650
330
64D
100
AcDbEntity
  8
AM_5
100
AcDbLine
 10
315.3261019261417
 20
312.2631270160685
 30
0.0
 11
315.3261019261417
 21
314.7631270160685
 31
0.0
  0
LINE
  5
651
330
64D
100
AcDbEntity
  8
AM_5
100
AcDbLine
 10
315.3261019261417
 20
300.2631270160684
 30
0.0
 11
315.3261019261417
 21
297.7631270160685
 31
0.0
  0
LINE
  5
652
330
64D
100
AcDbEntity
  8
AM_5
100
AcDbLine
 10
315.3261019261417
 20
309.7631270160684
 30
0.0
 11
315.3261019261417
 21
302.7631270160684
 31
0.0
  0
SOLID
  5
653
330
64D
100
AcDbEntity
  8
AM_5
100
AcDbTrace
 10
314.9094352594751
 20
312.2631270160685
 30
0.0
 11
315.7427685928084
 21
312.2631270160685
 31
0.0
 12
315.3261019261417
 22
309.7631270160684
 32
0.0
 13
315.3261019261417
 23
309.7631270160684
 33
0.0
  0
SOLID
  5
654
330
64D
100
AcDbEntity
  8
AM_5
100
AcDbTrace
 10
314.9094352594751
 20
300.2631270160684
 30
0.0
 11
315.7427685928084
 21
300.2631270160684
 31
0.0
 12
315.3261019261417
 22
302.7631270160684
 32
0.0
 13
315.3261019261417
 23
302.7631270160684
 33
0.0
  0
MTEXT
  5
655
330
64D
100
AcDbEntity
  8
AM_5
 62
     2
100
AcDbMText
 10
312.0761019261417
 20
306.2631270160685
 30
0.0
 40
3.5
 41
0.0
 71
     5
 72
     1
  1
7
 11
0.0000000000000001
 21
1.0
 31
0.0
 73
     1
 44
1.0
1001
ACAD
1000
MTEXTBEGIN
1070
    73
1070
     1
1070
    44
1040
1.0
1070
    74
1070
     0
1000
MTEXTEND
  0
POINT
  5
656
330
64D
100
AcDbEntity
  8
Defpoints
 62
     0
100
AcDbPoint
 10
348.642928258202
 20
309.7631270160684
 30
0.0
  0
POINT
  5
657
330
64D
100
AcDbEntity
  8
Defpoints
 62
     0
100
AcDbPoint
 10
348.642928258202
 20
302.7631270160684
 30
0.0
  0
POINT
  5
658
330
64D
100
AcDbEntity
  8
Defpoints
 62
     0
100
AcDbPoint
 10
315.3261019261417
 20
302.7631270160684
 30
0.0
  0
ENDBLK
  5
65A
330
64D
100
AcDbEntity
  8
0
100
AcDbBlockEnd
  0
BLOCK
  5
662
330
65B
100
AcDbEntity
  8
0
100
AcDbBlockBegin
  2
*D33
 70
     1
 10
0.0
 20
0.0
 30
0.0
  3
*D33
  1

  0
LINE
  5
73F
330
65B
100
AcDbEntity
  8
AM_5
100
AcDbLine
 10
223.1028955192087
 20
83.21728425710421
 30
0.0
 11
121.4840732541417
 21
121.2418153056359
 31
0.0
  0
SOLID
  5
740
330
65B
100
AcDbEntity
  8
AM_5
100
AcDbTrace
 10
223.2489190639419
 20
83.60752551004225
 30
0.0
 11
222.9568719744755
 21
82.82704300416616
 31
0.0
 12
225.444343036837
 22
82.34114298870485
 32
0.0
 13
225.444343036837
 23
82.34114298870485
 33
0.0
  0
SOLID
  5
741
330
65B
100
AcDbEntity
  8
AM_5
100
AcDbTrace
 10
121.6300967988749
 20
121.632056558574
 30
0.0
 11
121.3380497094085
 21
120.8515740526979
 31
0.0
 12
119.1426257365134
 22
122.1179565740353
 32
0.0
 13
119.1426257365134
 23
122.1179565740353
 33
0.0
  0
MTEXT
  5
742
102
{ACAD_XDICTIONARY
360
7ED
102
}
330
65B
100
AcDbEntity
  8
AM_5
 62
     2
100
AcDbMText
 10
153.6426724081817
 20
112.6785331044288
 30
0.0
 40
3.5
 41
0.0
 71
     5
 72
     1
  1
\U+2205113.5
 11
0.9365790070513074
 21
-0.3504565073597389
 31
0.0
 73
     1
 44
1.0
1001
ACAD
1000
MTEXTBEGIN
1070
    73
1070
     1
1070
    44
1040
1.0
1070
    74
1070
     0
1000
MTEXTEND
  0
POINT
  5
743
330
65B
100
AcDbEntity
  8
Defpoints
 62
     0
100
AcDbPoint
 10
119.1426257365134
 20
122.1179565740353
 30
0.0
  0
POINT
  5
744
330
65B
100
AcDbEntity
  8
Defpoints
 62
     0
100
AcDbPoint
 10
225.444343036837
 20
82.34114298870485
 30
0.0
  0
ENDBLK
  5
663
330
65B
100
AcDbEntity
  8
0
100
AcDbBlockEnd
  0
BLOCK
  5
67B
330
670
100
AcDbEntity
  8
0
100
AcDbBlockBegin
  2
*D34
 70
     1
 10
0.0
 20
0.0
 30
0.0
  3
*D34
  1

  0
LINE
  5
671
330
670
100
AcDbEntity
  8
AM_5
100
AcDbLine
 10
357.4081512982802
 20
306.6631270160685
 30
0.0
 11
357.4081512982802
 21
328.145799272328
 31
0.0
  0
LINE
  5
672
330
670
100
AcDbEntity
  8
AM_5
100
AcDbLine
 10
367.6081512982802
 20
306.6631270160685
 30
0.0
 11
367.6081512982802
 21
328.145799272328
 31
0.0
  0
LINE
  5
673
330
670
100
AcDbEntity
  8
AM_5
100
AcDbLine
 10
359.9081512982802
 20
327.145799272328
 30
0.0
 11
365.1081512982802
 21
327.145799272328
 31
0.0
  0
LINE
  5
674
330
670
100
AcDbEntity
  8
AM_5
100
AcDbLine
 10
367.6081512982802
 20
327.145799272328
 30
0.0
 11
383.1183579911936
 21
327.145799272328
 31
0.0
  0
SOLID
  5
675
330
670
100
AcDbEntity
  8
AM_5
100
AcDbTrace
 10
359.9081512982802
 20
327.5624659389947
 30
0.0
 11
359.9081512982802
 21
326.7291326056613
 31
0.0
 12
357.4081512982802
 22
327.145799272328
 32
0.0
 13
357.4081512982802
 23
327.145799272328
 33
0.0
  0
SOLID
  5
676
330
670
100
AcDbEntity
  8
AM_5
100
AcDbTrace
 10
365.1081512982802
 20
327.5624659389947
 30
0.0
 11
365.1081512982802
 21
326.7291326056613
 31
0.0
 12
367.6081512982802
 22
327.145799272328
 32
0.0
 13
367.6081512982802
 23
327.145799272328
 33
0.0
  0
MTEXT
  5
677
330
670
100
AcDbEntity
  8
AM_5
 62
     2
100
AcDbMText
 10
376.6132546447369
 20
330.396143760517
 30
0.0
 40
3.5
 41
0.0
 71
     5
 72
     1
  1
%%c10.2
 73
     1
 44
1.0
1001
ACAD
1000
MTEXTBEGIN
1070
    73
1070
     1
1070
    44
1040
1.0
1070
    74
1070
     0
1000
MTEXTEND
  0
POINT
  5
678
330
670
100
AcDbEntity
  8
Defpoints
 62
     0
100
AcDbPoint
 10
357.4081512982802
 20
305.6631270160685
 30
0.0
  0
POINT
  5
679
330
670
100
AcDbEntity
  8
Defpoints
 62
     0
100
AcDbPoint
 10
367.6081512982802
 20
305.6631270160685
 30
0.0
  0
POINT
  5
67A
330
670
100
AcDbEntity
  8
Defpoints
 62
     0
100
AcDbPoint
 10
367.6081512982802
 20
327.145799272328
 30
0.0
  0
ENDBLK
  5
67C
330
670
100
AcDbEntity
  8
0
100
AcDbBlockEnd
  0
BLOCK
  5
689
330
67D
100
AcDbEntity
  8
0
100
AcDbBlockBegin
  2
*D35
 70
     1
 10
0.0
 20
0.0
 30
0.0
  3
*D35
  1

  0
LINE
  5
67E
330
67D
100
AcDbEntity
  8
AM_5
100
AcDbLine
 10
358.901906714229
 20
306.6131270160684
 30
0.0
 11
358.901906714229
 21
319.6915686825901
 31
0.0
  0
LINE
  5
67F
330
67D
100
AcDbEntity
  8
AM_5
100
AcDbLine
 10
366.2081512982803
 20
306.6631270160685
 30
0.0
 11
366.2081512982803
 21
319.6915686825901
 31
0.0
  0
LINE
  5
680
330
67D
100
AcDbEntity
  8
AM_5
100
AcDbLine
 10
356.401906714229
 20
318.69156868259
 30
0.0
 11
353.901906714229
 21
318.69156868259
 31
0.0
  0
LINE
  5
681
330
67D
100
AcDbEntity
  8
AM_5
100
AcDbLine
 10
368.7081512982802
 20
318.69156868259
 30
0.0
 11
382.4031260451109
 21
318.69156868259
 31
0.0
  0
LINE
  5
682
330
67D
100
AcDbEntity
  8
AM_5
100
AcDbLine
 10
358.901906714229
 20
318.69156868259
 30
0.0
 11
366.2081512982803
 21
318.69156868259
 31
0.0
  0
SOLID
  5
683
330
67D
100
AcDbEntity
  8
AM_5
100
AcDbTrace
 10
356.401906714229
 20
319.1082353492567
 30
0.0
 11
356.401906714229
 21
318.2749020159234
 31
0.0
 12
358.901906714229
 22
318.69156868259
 32
0.0
 13
358.901906714229
 23
318.69156868259
 33
0.0
  0
SOLID
  5
684
330
67D
100
AcDbEntity
  8
AM_5
100
AcDbTrace
 10
368.7081512982802
 20
319.1082353492567
 30
0.0
 11
368.7081512982802
 21
318.2749020159234
 31
0.0
 12
366.2081512982803
 22
318.69156868259
 32
0.0
 13
366.2081512982803
 23
318.69156868259
 33
0.0
  0
MTEXT
  5
685
330
67D
100
AcDbEntity
  8
AM_5
 62
     2
100
AcDbMText
 10
376.8056386716955
 20
321.9415686825901
 30
0.0
 40
3.5
 41
0.0
 71
     5
 72
     1
  1
%%c7.3
 73
     1
 44
1.0
1001
ACAD
1000
MTEXTBEGIN
1070
    73
1070
     1
1070
    44
1040
1.0
1070
    74
1070
     0
1000
MTEXTEND
  0
POINT
  5
686
330
67D
100
AcDbEntity
  8
Defpoints
 62
     0
100
AcDbPoint
 10
358.901906714229
 20
305.6131270160684
 30
0.0
  0
POINT
  5
687
330
67D
100
AcDbEntity
  8
Defpoints
 62
     0
100
AcDbPoint
 10
366.2081512982803
 20
305.6631270160685
 30
0.0
  0
POINT
  5
688
330
67D
100
AcDbEntity
  8
Defpoints
 62
     0
100
AcDbPoint
 10
366.2081512982803
 20
318.69156868259
 30
0.0
  0
ENDBLK
  5
68A
330
67D
100
AcDbEntity
  8
0
100
AcDbBlockEnd
  0
BLOCK
  5
697
330
68B
100
AcDbEntity
  8
0
100
AcDbBlockBegin
  2
*D36
 70
     1
 10
0.0
 20
0.0
 30
0.0
  3
*D36
  1

  0
LINE
  5
68C
330
68B
100
AcDbEntity
  8
AM_5
100
AcDbLine
 10
479.2081512982803
 20
306.6631270160685
 30
0.0
 11
479.2081512982803
 21
328.7488119583092
 31
0.0
  0
LINE
  5
68D
330
68B
100
AcDbEntity
  8
AM_5
100
AcDbLine
 10
472.8081512982804
 20
306.6631270160685
 30
0.0
 11
472.8081512982804
 21
328.7488119583092
 31
0.0
  0
LINE
  5
68E
330
68B
100
AcDbEntity
  8
AM_5
100
AcDbLine
 10
481.7081512982802
 20
327.7488119583092
 30
0.0
 11
484.2081512982803
 21
327.7488119583092
 31
0.0
  0
LINE
  5
68F
330
68B
100
AcDbEntity
  8
AM_5
100
AcDbLine
 10
470.3081512982804
 20
327.7488119583092
 30
0.0
 11
456.4081512982804
 21
327.7488119583092
 31
0.0
  0
LINE
  5
690
330
68B
100
AcDbEntity
  8
AM_5
100
AcDbLine
 10
479.2081512982803
 20
327.7488119583092
 30
0.0
 11
472.8081512982804
 21
327.7488119583092
 31
0.0
  0
SOLID
  5
691
330
68B
100
AcDbEntity
  8
AM_5
100
AcDbTrace
 10
481.7081512982802
 20
328.1654786249759
 30
0.0
 11
481.7081512982802
 21
327.3321452916425
 31
0.0
 12
479.2081512982803
 22
327.7488119583092
 32
0.0
 13
479.2081512982803
 23
327.7488119583092
 33
0.0
  0
SOLID
  5
692
330
68B
100
AcDbEntity
  8
AM_5
100
AcDbTrace
 10
470.3081512982804
 20
328.1654786249759
 30
0.0
 11
470.3081512982804
 21
327.3321452916425
 31
0.0
 12
472.8081512982804
 22
327.7488119583092
 32
0.0
 13
472.8081512982804
 23
327.7488119583092
 33
0.0
  0
MTEXT
  5
693
330
68B
100
AcDbEntity
  8
AM_5
 62
     2
100
AcDbMText
 10
462.1081512982804
 20
330.9988119583092
 30
0.0
 40
3.5
 41
0.0
 71
     5
 72
     1
  1
%%c6.4
 73
     1
 44
1.0
1001
ACAD
1000
MTEXTBEGIN
1070
    73
1070
     1
1070
    44
1040
1.0
1070
    74
1070
     0
1000
MTEXTEND
  0
POINT
  5
694
330
68B
100
AcDbEntity
  8
Defpoints
 62
     0
100
AcDbPoint
 10
479.2081512982803
 20
305.6631270160685
 30
0.0
  0
POINT
  5
695
330
68B
100
AcDbEntity
  8
Defpoints
 62
     0
100
AcDbPoint
 10
472.8081512982804
 20
305.6631270160685
 30
0.0
  0
POINT
  5
696
330
68B
100
AcDbEntity
  8
Defpoints
 62
     0
100
AcDbPoint
 10
472.8081512982804
 20
327.7488119583092
 30
0.0
  0
ENDBLK
  5
698
330
68B
100
AcDbEntity
  8
0
100
AcDbBlockEnd
  0
BLOCK
  5
6A5
330
699
100
AcDbEntity
  8
0
100
AcDbBlockBegin
  2
*D37
 70
     1
 10
0.0
 20
0.0
 30
0.0
  3
*D37
  1

  0
LINE
  5
69A
330
699
100
AcDbEntity
  8
AM_5
100
AcDbLine
 10
477.3581512982802
 20
306.6631270160685
 30
0.0
 11
477.3581512982802
 21
318.6631270160685
 31
0.0
  0
LINE
  5
69B
330
699
100
AcDbEntity
  8
AM_5
100
AcDbLine
 10
474.6581512982802
 20
306.6631270160685
 30
0.0
 11
474.6581512982802
 21
318.6631270160685
 31
0.0
  0
LINE
  5
69C
330
699
100
AcDbEntity
  8
AM_5
100
AcDbLine
 10
479.8581512982803
 20
317.6631270160685
 30
0.0
 11
482.3581512982802
 21
317.6631270160685
 31
0.0
  0
LINE
  5
69D
330
699
100
AcDbEntity
  8
AM_5
100
AcDbLine
 10
472.1581512982802
 20
317.6631270160685
 30
0.0
 11
458.6081512982802
 21
317.6631270160685
 31
0.0
  0
LINE
  5
69E
330
699
100
AcDbEntity
  8
AM_5
100
AcDbLine
 10
477.3581512982802
 20
317.6631270160685
 30
0.0
 11
474.6581512982802
 21
317.6631270160685
 31
0.0
  0
SOLID
  5
69F
330
699
100
AcDbEntity
  8
AM_5
100
AcDbTrace
 10
479.8581512982803
 20
318.0797936827352
 30
0.0
 11
479.8581512982803
 21
317.2464603494018
 31
0.0
 12
477.3581512982802
 22
317.6631270160685
 32
0.0
 13
477.3581512982802
 23
317.6631270160685
 33
0.0
  0
SOLID
  5
6A0
330
699
100
AcDbEntity
  8
AM_5
100
AcDbTrace
 10
472.1581512982802
 20
318.0797936827352
 30
0.0
 11
472.1581512982802
 21
317.2464603494018
 31
0.0
 12
474.6581512982802
 22
317.6631270160685
 32
0.0
 13
474.6581512982802
 23
317.6631270160685
 33
0.0
  0
MTEXT
  5
6A1
330
699
100
AcDbEntity
  8
AM_5
 62
     2
100
AcDbMText
 10
464.1331512982802
 20
320.9134715042575
 30
0.0
 40
3.5
 41
0.0
 71
     5
 72
     1
  1
%%c2.7
 73
     1
 44
1.0
1001
ACAD
1000
MTEXTBEGIN
1070
    73
1070
     1
1070
    44
1040
1.0
1070
    74
1070
     0
1000
MTEXTEND
  0
POINT
  5
6A2
330
699
100
AcDbEntity
  8
Defpoints
 62
     0
100
AcDbPoint
 10
477.3581512982802
 20
305.6631270160685
 30
0.0
  0
POINT
  5
6A3
330
699
100
AcDbEntity
  8
Defpoints
 62
     0
100
AcDbPoint
 10
474.6581512982802
 20
305.6631270160685
 30
0.0
  0
POINT
  5
6A4
330
699
100
AcDbEntity
  8
Defpoints
 62
     0
100
AcDbPoint
 10
474.6581512982802
 20
317.6631270160685
 30
0.0
  0
ENDBLK
  5
6A6
330
699
100
AcDbEntity
  8
0
100
AcDbBlockEnd
  0
BLOCK
  5
6B1
330
6A7
100
AcDbEntity
  8
0
100
AcDbBlockBegin
  2
*D38
 70
     1
 10
0.0
 20
0.0
 30
0.0
  3
*D38
  1

  0
LINE
  5
6A8
330
6A7
100
AcDbEntity
  8
AM_5
100
AcDbLine
 10
368.0081512982803
 20
297.8631270160684
 30
0.0
 11
368.0081512982803
 21
285.8631270160683
 31
0.0
  0
LINE
  5
6A9
330
6A7
100
AcDbEntity
  8
AM_5
100
AcDbLine
 10
357.0081512982803
 20
297.8631270160684
 30
0.0
 11
357.0081512982803
 21
285.8631270160683
 31
0.0
  0
LINE
  5
6AA
330
6A7
100
AcDbEntity
  8
AM_5
100
AcDbLine
 10
365.5081512982803
 20
286.8631270160683
 30
0.0
 11
359.5081512982803
 21
286.8631270160683
 31
0.0
  0
SOLID
  5
6AB
330
6A7
100
AcDbEntity
  8
AM_5
100
AcDbTrace
 10
365.5081512982803
 20
287.279793682735
 30
0.0
 11
365.5081512982803
 21
286.4464603494016
 31
0.0
 12
368.0081512982803
 22
286.8631270160683
 32
0.0
 13
368.0081512982803
 23
286.8631270160683
 33
0.0
  0
SOLID
  5
6AC
330
6A7
100
AcDbEntity
  8
AM_5
100
AcDbTrace
 10
359.5081512982803
 20
287.279793682735
 30
0.0
 11
359.5081512982803
 21
286.4464603494016
 31
0.0
 12
357.0081512982803
 22
286.8631270160683
 32
0.0
 13
357.0081512982803
 23
286.8631270160683
 33
0.0
  0
MTEXT
  5
6AD
330
6A7
100
AcDbEntity
  8
AM_5
 62
     2
100
AcDbMText
 10
362.5081512982803
 20
290.1131270160683
 30
0.0
 40
3.5
 41
0.0
 71
     5
 72
     1
  1
%%c11
 73
     1
 44
1.0
1001
ACAD
1000
MTEXTBEGIN
1070
    73
1070
     1
1070
    44
1040
1.0
1070
    74
1070
     0
1000
MTEXTEND
  0
POINT
  5
6AE
330
6A7
100
AcDbEntity
  8
Defpoints
 62
     0
100
AcDbPoint
 10
368.0081512982803
 20
298.8631270160683
 30
0.0
  0
POINT
  5
6AF
330
6A7
100
AcDbEntity
  8
Defpoints
 62
     0
100
AcDbPoint
 10
357.0081512982803
 20
298.8631270160684
 30
0.0
  0
POINT
  5
6B0
330
6A7
100
AcDbEntity
  8
Defpoints
 62
     0
100
AcDbPoint
 10
357.0081512982803
 20
286.8631270160683
 30
0.0
  0
ENDBLK
  5
6B2
330
6A7
100
AcDbEntity
  8
0
100
AcDbBlockEnd
  0
BLOCK
  5
6BF
330
6B3
100
AcDbEntity
  8
0
100
AcDbBlockBegin
  2
*D39
 70
     1
 10
0.0
 20
0.0
 30
0.0
  3
*D39
  1

  0
LINE
  5
6B4
330
6B3
100
AcDbEntity
  8
AM_5
100
AcDbLine
 10
479.5081512982803
 20
297.8631270160684
 30
0.0
 11
479.5081512982803
 21
285.4420395691734
 31
0.0
  0
LINE
  5
6B5
330
6B3
100
AcDbEntity
  8
AM_5
100
AcDbLine
 10
472.5081512982801
 20
297.8631270160684
 30
0.0
 11
472.5081512982801
 21
285.4420395691734
 31
0.0
  0
LINE
  5
6B6
330
6B3
100
AcDbEntity
  8
AM_5
100
AcDbLine
 10
482.0081512982803
 20
286.4420395691734
 30
0.0
 11
484.5081512982804
 21
286.4420395691734
 31
0.0
  0
LINE
  5
6B7
330
6B3
100
AcDbEntity
  8
AM_5
100
AcDbLine
 10
470.0081512982801
 20
286.4420395691734
 30
0.0
 11
467.5081512982801
 21
286.4420395691734
 31
0.0
  0
LINE
  5
6B8
330
6B3
100
AcDbEntity
  8
AM_5
100
AcDbLine
 10
479.5081512982803
 20
286.4420395691734
 30
0.0
 11
472.5081512982801
 21
286.4420395691734
 31
0.0
  0
SOLID
  5
6B9
330
6B3
100
AcDbEntity
  8
AM_5
100
AcDbTrace
 10
482.0081512982803
 20
286.8587062358401
 30
0.0
 11
482.0081512982803
 21
286.0253729025067
 31
0.0
 12
479.5081512982803
 22
286.4420395691734
 32
0.0
 13
479.5081512982803
 23
286.4420395691734
 33
0.0
  0
SOLID
  5
6BA
330
6B3
100
AcDbEntity
  8
AM_5
100
AcDbTrace
 10
470.0081512982801
 20
286.8587062358401
 30
0.0
 11
470.0081512982801
 21
286.0253729025067
 31
0.0
 12
472.5081512982801
 22
286.4420395691734
 32
0.0
 13
472.5081512982801
 23
286.4420395691734
 33
0.0
  0
MTEXT
  5
6BB
330
6B3
100
AcDbEntity
  8
AM_5
 62
     2
100
AcDbMText
 10
476.0081512982802
 20
289.6920395691734
 30
0.0
 40
3.5
 41
0.0
 71
     5
 72
     1
  1
%%c7
 73
     1
 44
1.0
1001
ACAD
1000
MTEXTBEGIN
1070
    73
1070
     1
1070
    44
1040
1.0
1070
    74
1070
     0
1000
MTEXTEND
  0
POINT
  5
6BC
330
6B3
100
AcDbEntity
  8
Defpoints
 62
     0
100
AcDbPoint
 10
479.5081512982803
 20
298.8631270160683
 30
0.0
  0
POINT
  5
6BD
330
6B3
100
AcDbEntity
  8
Defpoints
 62
     0
100
AcDbPoint
 10
472.5081512982801
 20
298.8631270160683
 30
0.0
  0
POINT
  5
6BE
330
6B3
100
AcDbEntity
  8
Defpoints
 62
     0
100
AcDbPoint
 10
472.5081512982801
 20
286.4420395691734
 30
0.0
  0
ENDBLK
  5
6C0
330
6B3
100
AcDbEntity
  8
0
100
AcDbBlockEnd
  0
BLOCK
  5
6CD
330
6C1
100
AcDbEntity
  8
0
100
AcDbBlockBegin
  2
*D40
 70
     1
 10
0.0
 20
0.0
 30
0.0
  3
*D40
  1

  0
LINE
  5
6C2
330
6C1
100
AcDbEntity
  8
AM_5
100
AcDbLine
 10
350.7581512982803
 20
304.8631270160683
 30
0.0
 11
335.7900723261353
 21
304.8631270160683
 31
0.0
  0
LINE
  5
6C3
330
6C1
100
AcDbEntity
  8
AM_5
100
AcDbLine
 10
350.7581512982803
 20
309.7631270160684
 30
0.0
 11
335.7900723261353
 21
309.7631270160684
 31
0.0
  0
LINE
  5
6C4
330
6C1
100
AcDbEntity
  8
AM_5
100
AcDbLine
 10
336.7900723261353
 20
302.3631270160684
 30
0.0
 11
336.7900723261353
 21
299.8631270160684
 31
0.0
  0
LINE
  5
6C5
330
6C1
100
AcDbEntity
  8
AM_5
100
AcDbLine
 10
336.7900723261353
 20
312.2631270160685
 30
0.0
 11
336.7900723261353
 21
321.2859029777368
 31
0.0
  0
LINE
  5
6C6
330
6C1
100
AcDbEntity
  8
AM_5
100
AcDbLine
 10
336.7900723261353
 20
304.8631270160683
 30
0.0
 11
336.7900723261353
 21
309.7631270160684
 31
0.0
  0
SOLID
  5
6C7
330
6C1
100
AcDbEntity
  8
AM_5
100
AcDbTrace
 10
336.3734056594686
 20
302.3631270160684
 30
0.0
 11
337.206738992802
 21
302.3631270160684
 31
0.0
 12
336.7900723261353
 22
304.8631270160683
 32
0.0
 13
336.7900723261353
 23
304.8631270160683
 33
0.0
  0
SOLID
  5
6C8
330
6C1
100
AcDbEntity
  8
AM_5
100
AcDbTrace
 10
336.3734056594686
 20
312.2631270160685
 30
0.0
 11
337.206738992802
 21
312.2631270160685
 31
0.0
 12
336.7900723261353
 22
309.7631270160684
 32
0.0
 13
336.7900723261353
 23
309.7631270160684
 33
0.0
  0
MTEXT
  5
6C9
330
6C1
100
AcDbEntity
  8
AM_5
 62
     2
100
AcDbMText
 10
333.5400723261352
 20
319.0134156043216
 30
0.0
 40
3.5
 41
0.0
 71
     5
 72
     1
  1
5
 11
0.0000000000000001
 21
1.0
 31
0.0
 73
     1
 44
1.0
1001
ACAD
1000
MTEXTBEGIN
1070
    73
1070
     1
1070
    44
1040
1.0
1070
    74
1070
     0
1000
MTEXTEND
  0
POINT
  5
6CA
330
6C1
100
AcDbEntity
  8
Defpoints
 62
     0
100
AcDbPoint
 10
351.7581512982803
 20
304.8631270160683
 30
0.0
  0
POINT
  5
6CB
330
6C1
100
AcDbEntity
  8
Defpoints
 62
     0
100
AcDbPoint
 10
351.7581512982803
 20
309.7631270160684
 30
0.0
  0
POINT
  5
6CC
330
6C1
100
AcDbEntity
  8
Defpoints
 62
     0
100
AcDbPoint
 10
336.7900723261353
 20
309.7631270160684
 30
0.0
  0
ENDBLK
  5
6CE
330
6C1
100
AcDbEntity
  8
0
100
AcDbBlockEnd
  0
BLOCK
  5
6DB
330
6CF
100
AcDbEntity
  8
0
100
AcDbBlockBegin
  2
*D41
 70
     1
 10
0.0
 20
0.0
 30
0.0
  3
*D41
  1

  0
LINE
  5
6D0
330
6CF
100
AcDbEntity
  8
AM_5
100
AcDbLine
 10
370.7581512982803
 20
302.7631270160684
 30
0.0
 11
389.2738319692191
 21
302.7631270160684
 31
0.0
  0
LINE
  5
6D1
330
6CF
100
AcDbEntity
  8
AM_5
100
AcDbLine
 10
355.4581512982803
 20
298.0631270160684
 30
0.0
 11
389.2738319692191
 21
298.0631270160683
 31
0.0
  0
LINE
  5
6D2
330
6CF
100
AcDbEntity
  8
AM_5
100
AcDbLine
 10
388.2738319692192
 20
305.2631270160684
 30
0.0
 11
388.2738319692192
 21
307.7631270160684
 31
0.0
  0
LINE
  5
6D3
330
6CF
100
AcDbEntity
  8
AM_5
100
AcDbLine
 10
388.2738319692192
 20
295.5631270160683
 30
0.0
 11
388.2738319692192
 21
284.8131270160683
 31
0.0
  0
LINE
  5
6D4
330
6CF
100
AcDbEntity
  8
AM_5
100
AcDbLine
 10
388.2738319692192
 20
302.7631270160684
 30
0.0
 11
388.2738319692192
 21
298.0631270160683
 31
0.0
  0
SOLID
  5
6D5
330
6CF
100
AcDbEntity
  8
AM_5
100
AcDbTrace
 10
387.8571653025525
 20
305.2631270160684
 30
0.0
 11
388.6904986358858
 21
305.2631270160684
 31
0.0
 12
388.2738319692192
 22
302.7631270160684
 32
0.0
 13
388.2738319692192
 23
302.7631270160684
 33
0.0
  0
SOLID
  5
6D6
330
6CF
100
AcDbEntity
  8
AM_5
100
AcDbTrace
 10
387.8571653025525
 20
295.5631270160683
 30
0.0
 11
388.6904986358858
 21
295.5631270160683
 31
0.0
 12
388.2738319692192
 22
298.0631270160683
 32
0.0
 13
388.2738319692192
 23
298.0631270160683
 33
0.0
  0
MTEXT
  5
6D7
330
6CF
100
AcDbEntity
  8
AM_5
 62
     2
100
AcDbMText
 10
385.0238319692191
 20
288.9381270160685
 30
0.0
 40
3.5
 41
0.0
 71
     5
 72
     1
  1
4.7
 11
0.0000000000000001
 21
1.0
 31
0.0
 73
     1
 44
1.0
1001
ACAD
1000
MTEXTBEGIN
1070
    73
1070
     1
1070
    44
1040
1.0
1070
    74
1070
     0
1000
MTEXTEND
  0
POINT
  5
6D8
330
6CF
100
AcDbEntity
  8
Defpoints
 62
     0
100
AcDbPoint
 10
369.7581512982803
 20
302.7631270160684
 30
0.0
  0
POINT
  5
6D9
330
6CF
100
AcDbEntity
  8
Defpoints
 62
     0
100
AcDbPoint
 10
354.4581512982802
 20
298.0631270160684
 30
0.0
  0
POINT
  5
6DA
330
6CF
100
AcDbEntity
  8
Defpoints
 62
     0
100
AcDbPoint
 10
388.2738319692192
 20
298.0631270160683
 30
0.0
  0
ENDBLK
  5
6DC
330
6CF
100
AcDbEntity
  8
0
100
AcDbBlockEnd
  0
BLOCK
  5
6E9
330
6DD
100
AcDbEntity
  8
0
100
AcDbBlockBegin
  2
*D42
 70
     1
 10
0.0
 20
0.0
 30
0.0
  3
*D42
  1

  0
LINE
  5
6DE
330
6DD
100
AcDbEntity
  8
AM_5
100
AcDbLine
 10
368.6081512982803
 20
305.6631270160685
 30
0.0
 11
400.4801735353512
 21
305.6631270160685
 31
0.0
  0
LINE
  5
6DF
330
6DD
100
AcDbEntity
  8
AM_5
100
AcDbLine
 10
368.6081512982803
 20
304.8631270160687
 30
0.0
 11
400.4801735353512
 21
304.8631270160686
 31
0.0
  0
LINE
  5
6E0
330
6DD
100
AcDbEntity
  8
AM_5
100
AcDbLine
 10
399.4801735353513
 20
308.1631270160685
 30
0.0
 11
399.4801735353513
 21
310.6631270160685
 31
0.0
  0
LINE
  5
6E1
330
6DD
100
AcDbEntity
  8
AM_5
100
AcDbLine
 10
399.4801735353513
 20
302.3631270160686
 30
0.0
 11
399.4801735353513
 21
287.6003837371415
 31
0.0
  0
LINE
  5
6E2
330
6DD
100
AcDbEntity
  8
AM_5
100
AcDbLine
 10
399.4801735353513
 20
305.6631270160685
 30
0.0
 11
399.4801735353513
 21
304.8631270160686
 31
0.0
  0
SOLID
  5
6E3
330
6DD
100
AcDbEntity
  8
AM_5
100
AcDbTrace
 10
399.0635068686846
 20
308.1631270160685
 30
0.0
 11
399.896840202018
 21
308.1631270160685
 31
0.0
 12
399.4801735353513
 22
305.6631270160685
 32
0.0
 13
399.4801735353513
 23
305.6631270160685
 33
0.0
  0
SOLID
  5
6E4
330
6DD
100
AcDbEntity
  8
AM_5
100
AcDbTrace
 10
399.0635068686846
 20
302.3631270160686
 30
0.0
 11
399.896840202018
 21
302.3631270160686
 31
0.0
 12
399.4801735353513
 22
304.8631270160686
 32
0.0
 13
399.4801735353513
 23
304.8631270160686
 33
0.0
  0
MTEXT
  5
6E5
330
6DD
100
AcDbEntity
  8
AM_5
 62
     2
100
AcDbMText
 10
396.2301735353512
 20
291.5517616898975
 30
0.0
 40
3.5
 41
0.0
 71
     5
 72
     1
  1
0.8
 11
0.0000000000000001
 21
1.0
 31
0.0
 73
     1
 44
1.0
1001
ACAD
1000
MTEXTBEGIN
1070
    73
1070
     1
1070
    44
1040
1.0
1070
    74
1070
     0
1000
MTEXTEND
  0
POINT
  5
6E6
330
6DD
100
AcDbEntity
  8
Defpoints
 62
     0
100
AcDbPoint
 10
367.6081512982802
 20
305.6631270160685
 30
0.0
  0
POINT
  5
6E7
330
6DD
100
AcDbEntity
  8
Defpoints
 62
     0
100
AcDbPoint
 10
367.6081512982802
 20
304.8631270160687
 30
0.0
  0
POINT
  5
6E8
330
6DD
100
AcDbEntity
  8
Defpoints
 62
     0
100
AcDbPoint
 10
399.4801735353513
 20
304.8631270160686
 30
0.0
  0
ENDBLK
  5
6EA
330
6DD
100
AcDbEntity
  8
0
100
AcDbBlockEnd
  0
BLOCK
  5
6F7
330
6EB
100
AcDbEntity
  8
0
100
AcDbBlockBegin
  2
*D43
 70
     1
 10
0.0
 20
0.0
 30
0.0
  3
*D43
  1

  0
LINE
  5
6EC
330
6EB
100
AcDbEntity
  8
AM_5
100
AcDbLine
 10
355.4581512982803
 20
298.0631270160684
 30
0.0
 11
377.8771916048268
 21
298.0631270160684
 31
0.0
  0
LINE
  5
6ED
330
6EB
100
AcDbEntity
  8
AM_5
100
AcDbLine
 10
369.0081512982803
 20
298.8631270160683
 30
0.0
 11
377.8771916048268
 21
298.8631270160683
 31
0.0
  0
LINE
  5
6EE
330
6EB
100
AcDbEntity
  8
AM_5
100
AcDbLine
 10
376.8771916048268
 20
301.3631270160683
 30
0.0
 11
376.8771916048268
 21
303.8631270160684
 31
0.0
  0
LINE
  5
6EF
330
6EB
100
AcDbEntity
  8
AM_5
100
AcDbLine
 10
376.8771916048268
 20
295.5631270160684
 30
0.0
 11
376.8771916048268
 21
284.9582008041077
 31
0.0
  0
LINE
  5
6F0
330
6EB
100
AcDbEntity
  8
AM_5
100
AcDbLine
 10
376.8771916048268
 20
298.8631270160683
 30
0.0
 11
376.8771916048268
 21
298.0631270160684
 31
0.0
  0
SOLID
  5
6F1
330
6EB
100
AcDbEntity
  8
AM_5
100
AcDbTrace
 10
376.4605249381601
 20
301.3631270160683
 30
0.0
 11
377.2938582714935
 21
301.3631270160683
 31
0.0
 12
376.8771916048268
 22
298.8631270160683
 32
0.0
 13
376.8771916048268
 23
298.8631270160683
 33
0.0
  0
SOLID
  5
6F2
330
6EB
100
AcDbEntity
  8
AM_5
100
AcDbTrace
 10
376.4605249381601
 20
295.5631270160684
 30
0.0
 11
377.2938582714935
 21
295.5631270160684
 31
0.0
 12
376.8771916048268
 22
298.0631270160684
 32
0.0
 13
376.8771916048268
 23
298.0631270160684
 33
0.0
  0
MTEXT
  5
6F3
330
6EB
100
AcDbEntity
  8
AM_5
 62
     2
100
AcDbMText
 10
373.6271916048267
 20
288.9095787568637
 30
0.0
 40
3.5
 41
0.0
 71
     5
 72
     1
  1
0.8
 11
0.0000000000000001
 21
1.0
 31
0.0
 73
     1
 44
1.0
1001
ACAD
1000
MTEXTBEGIN
1070
    73
1070
     1
1070
    44
1040
1.0
1070
    74
1070
     0
1000
MTEXTEND
  0
POINT
  5
6F4
330
6EB
100
AcDbEntity
  8
Defpoints
 62
     0
100
AcDbPoint
 10
354.4581512982802
 20
298.0631270160684
 30
0.0
  0
POINT
  5
6F5
330
6EB
100
AcDbEntity
  8
Defpoints
 62
     0
100
AcDbPoint
 10
368.0081512982803
 20
298.8631270160683
 30
0.0
  0
POINT
  5
6F6
330
6EB
100
AcDbEntity
  8
Defpoints
 62
     0
100
AcDbPoint
 10
376.8771916048268
 20
298.8631270160683
 30
0.0
  0
ENDBLK
  5
6F8
330
6EB
100
AcDbEntity
  8
0
100
AcDbBlockEnd
  0
BLOCK
  5
705
330
6F9
100
AcDbEntity
  8
0
100
AcDbBlockBegin
  2
*D44
 70
     1
 10
0.0
 20
0.0
 30
0.0
  3
*D44
  1

  0
LINE
  5
6FA
330
6F9
100
AcDbEntity
  8
AM_5
100
AcDbLine
 10
480.2081512982802
 20
304.8631270160685
 30
0.0
 11
505.3853888993806
 21
304.8631270160685
 31
0.0
  0
LINE
  5
6FB
330
6F9
100
AcDbEntity
  8
AM_5
100
AcDbLine
 10
480.2081512982802
 20
305.6631270160685
 30
0.0
 11
505.3853888993806
 21
305.6631270160685
 31
0.0
  0
LINE
  5
6FC
330
6F9
100
AcDbEntity
  8
AM_5
100
AcDbLine
 10
504.3853888993806
 20
302.3631270160685
 30
0.0
 11
504.3853888993806
 21
299.8631270160684
 31
0.0
  0
LINE
  5
6FD
330
6F9
100
AcDbEntity
  8
AM_5
100
AcDbLine
 10
504.3853888993806
 20
308.1631270160685
 30
0.0
 11
504.3853888993806
 21
318.5658829215804
 31
0.0
  0
LINE
  5
6FE
330
6F9
100
AcDbEntity
  8
AM_5
100
AcDbLine
 10
504.3853888993806
 20
304.8631270160685
 30
0.0
 11
504.3853888993806
 21
305.6631270160685
 31
0.0
  0
SOLID
  5
6FF
330
6F9
100
AcDbEntity
  8
AM_5
100
AcDbTrace
 10
503.968722232714
 20
302.3631270160685
 30
0.0
 11
504.8020555660474
 21
302.3631270160685
 31
0.0
 12
504.3853888993806
 22
304.8631270160685
 32
0.0
 13
504.3853888993806
 23
304.8631270160685
 33
0.0
  0
SOLID
  5
700
330
6F9
100
AcDbEntity
  8
AM_5
100
AcDbTrace
 10
503.968722232714
 20
308.1631270160685
 30
0.0
 11
504.8020555660474
 21
308.1631270160685
 31
0.0
 12
504.3853888993806
 22
305.6631270160685
 32
0.0
 13
504.3853888993806
 23
305.6631270160685
 33
0.0
  0
MTEXT
  5
701
330
6F9
100
AcDbEntity
  8
AM_5
 62
     2
100
AcDbMText
 10
501.1353888993806
 20
314.6145049688245
 30
0.0
 40
3.5
 41
0.0
 71
     5
 72
     1
  1
0.8
 11
0.0000000000000001
 21
1.0
 31
0.0
 73
     1
 44
1.0
1001
ACAD
1000
MTEXTBEGIN
1070
    73
1070
     1
1070
    44
1040
1.0
1070
    74
1070
     0
1000
MTEXTEND
  0
POINT
  5
702
330
6F9
100
AcDbEntity
  8
Defpoints
 62
     0
100
AcDbPoint
 10
479.2081512982802
 20
304.8631270160685
 30
0.0
  0
POINT
  5
703
330
6F9
100
AcDbEntity
  8
Defpoints
 62
     0
100
AcDbPoint
 10
479.2081512982802
 20
305.6631270160685
 30
0.0
  0
POINT
  5
704
330
6F9
100
AcDbEntity
  8
Defpoints
 62
     0
100
AcDbPoint
 10
504.3853888993806
 20
305.6631270160685
 30
0.0
  0
ENDBLK
  5
706
330
6F9
100
AcDbEntity
  8
0
100
AcDbBlockEnd
  0
BLOCK
  5
713
330
707
100
AcDbEntity
  8
0
100
AcDbBlockBegin
  2
*D45
 70
     1
 10
0.0
 20
0.0
 30
0.0
  3
*D45
  1

  0
LINE
  5
708
330
707
100
AcDbEntity
  8
AM_5
100
AcDbLine
 10
480.5081512982804
 20
298.8631270160683
 30
0.0
 11
495.3853888993807
 21
298.8631270160683
 31
0.0
  0
LINE
  5
709
330
707
100
AcDbEntity
  8
AM_5
100
AcDbLine
 10
485.0581512982803
 20
298.0631270160684
 30
0.0
 11
495.3853888993807
 21
298.0631270160684
 31
0.0
  0
LINE
  5
70A
330
707
100
AcDbEntity
  8
AM_5
100
AcDbLine
 10
494.3853888993808
 20
301.3631270160683
 30
0.0
 11
494.3853888993808
 21
303.8631270160684
 31
0.0
  0
LINE
  5
70B
330
707
100
AcDbEntity
  8
AM_5
100
AcDbLine
 10
494.3853888993808
 20
295.5631270160684
 30
0.0
 11
494.3853888993808
 21
285.1603711105566
 31
0.0
  0
LINE
  5
70C
330
707
100
AcDbEntity
  8
AM_5
100
AcDbLine
 10
494.3853888993808
 20
298.8631270160683
 30
0.0
 11
494.3853888993808
 21
298.0631270160684
 31
0.0
  0
SOLID
  5
70D
330
707
100
AcDbEntity
  8
AM_5
100
AcDbTrace
 10
493.9687222327141
 20
301.3631270160683
 30
0.0
 11
494.8020555660475
 21
301.3631270160683
 31
0.0
 12
494.3853888993808
 22
298.8631270160683
 32
0.0
 13
494.3853888993808
 23
298.8631270160683
 33
0.0
  0
SOLID
  5
70E
330
707
100
AcDbEntity
  8
AM_5
100
AcDbTrace
 10
493.9687222327141
 20
295.5631270160684
 30
0.0
 11
494.8020555660475
 21
295.5631270160684
 31
0.0
 12
494.3853888993808
 22
298.0631270160684
 32
0.0
 13
494.3853888993808
 23
298.0631270160684
 33
0.0
  0
MTEXT
  5
70F
330
707
100
AcDbEntity
  8
AM_5
 62
     2
100
AcDbMText
 10
491.1353888993807
 20
289.1117490633125
 30
0.0
 40
3.5
 41
0.0
 71
     5
 72
     1
  1
0.8
 11
0.0000000000000001
 21
1.0
 31
0.0
 73
     1
 44
1.0
1001
ACAD
1000
MTEXTBEGIN
1070
    73
1070
     1
1070
    44
1040
1.0
1070
    74
1070
     0
1000
MTEXTEND
  0
POINT
  5
710
330
707
100
AcDbEntity
  8
Defpoints
 62
     0
100
AcDbPoint
 10
479.5081512982803
 20
298.8631270160683
 30
0.0
  0
POINT
  5
711
330
707
100
AcDbEntity
  8
Defpoints
 62
     0
100
AcDbPoint
 10
484.0581512982803
 20
298.0631270160684
 30
0.0
  0
POINT
  5
712
330
707
100
AcDbEntity
  8
Defpoints
 62
     0
100
AcDbPoint
 10
494.3853888993808
 20
298.0631270160684
 30
0.0
  0
ENDBLK
  5
714
330
707
100
AcDbEntity
  8
0
100
AcDbBlockEnd
  0
BLOCK
  5
71F
330
715
100
AcDbEntity
  8
0
100
AcDbBlockBegin
  2
*D46
 70
     1
 10
0.0
 20
0.0
 30
0.0
  3
*D46
  1

  0
LINE
  5
716
330
715
100
AcDbEntity
  8
AM_5
100
AcDbLine
 10
220.0234843866752
 20
347.2855773257057
 30
0.0
 11
220.0234843866752
 21
359.1613346140821
 31
0.0
  0
LINE
  5
717
330
715
100
AcDbEntity
  8
AM_5
100
AcDbLine
 10
124.5634843866752
 20
347.2855773257057
 30
0.0
 11
124.5634843866752
 21
359.1613346140821
 31
0.0
  0
LINE
  5
718
330
715
100
AcDbEntity
  8
AM_5
100
AcDbLine
 10
217.5234843866752
 20
358.1613346140821
 30
0.0
 11
127.0634843866752
 21
358.1613346140821
 31
0.0
  0
SOLID
  5
719
330
715
100
AcDbEntity
  8
AM_5
100
AcDbTrace
 10
217.5234843866752
 20
358.5780012807488
 30
0.0
 11
217.5234843866752
 21
357.7446679474154
 31
0.0
 12
220.0234843866752
 22
358.1613346140821
 32
0.0
 13
220.0234843866752
 23
358.1613346140821
 33
0.0
  0
SOLID
  5
71A
330
715
100
AcDbEntity
  8
AM_5
100
AcDbTrace
 10
127.0634843866752
 20
358.5780012807488
 30
0.0
 11
127.0634843866752
 21
357.7446679474154
 31
0.0
 12
124.5634843866752
 22
358.1613346140821
 32
0.0
 13
124.5634843866752
 23
358.1613346140821
 33
0.0
  0
MTEXT
  5
71B
330
715
100
AcDbEntity
  8
AM_5
 62
     2
100
AcDbMText
 10
190.8347311702878
 20
361.4113346140821
 30
0.0
 40
3.5
 41
0.0
 71
     5
 72
     1
  1
{\Famgdt;o} 95.5
 73
     1
 44
1.0
1001
ACAD
1000
MTEXTBEGIN
1070
    73
1070
     1
1070
    44
1040
1.0
1070
    74
1070
     0
1000
MTEXTEND
  0
POINT
  5
71C
330
715
100
AcDbEntity
  8
Defpoints
 62
     0
100
AcDbPoint
 10
220.0234843866752
 20
346.2855773257057
 30
0.0
  0
POINT
  5
71D
330
715
100
AcDbEntity
  8
Defpoints
 62
     0
100
AcDbPoint
 10
124.5634843866752
 20
346.2855773257057
 30
0.0
  0
POINT
  5
71E
330
715
100
AcDbEntity
  8
Defpoints
 62
     0
100
AcDbPoint
 10
124.5634843866752
 20
358.1613346140821
 30
0.0
  0
ENDBLK
  5
720
330
715
100
AcDbEntity
  8
0
100
AcDbBlockEnd
  0
BLOCK
  5
72B
330
721
100
AcDbEntity
  8
0
100
AcDbBlockBegin
  2
*D47
 70
     1
 10
0.0
 20
0.0
 30
0.0
  3
*D47
  1

  0
LINE
  5
722
330
721
100
AcDbEntity
  8
AM_5
100
AcDbLine
 10
122.4134843866752
 20
349.4705773257057
 30
0.0
 11
122.4134843866752
 21
369.2037752634988
 31
0.0
  0
LINE
  5
723
330
721
100
AcDbEntity
  8
AM_5
100
AcDbLine
 10
222.2434843866752
 20
349.4705773257057
 30
0.0
 11
222.2434843866752
 21
369.2037752634988
 31
0.0
  0
LINE
  5
724
330
721
100
AcDbEntity
  8
AM_5
100
AcDbLine
 10
124.9134843866751
 20
368.2037752634987
 30
0.0
 11
219.7434843866751
 21
368.2037752634987
 31
0.0
  0
SOLID
  5
725
330
721
100
AcDbEntity
  8
AM_5
100
AcDbTrace
 10
124.9134843866751
 20
368.6204419301654
 30
0.0
 11
124.9134843866751
 21
367.7871085968321
 31
0.0
 12
122.4134843866752
 22
368.2037752634987
 32
0.0
 13
122.4134843866752
 23
368.2037752634987
 33
0.0
  0
SOLID
  5
726
330
721
100
AcDbEntity
  8
AM_5
100
AcDbTrace
 10
219.7434843866751
 20
368.6204419301654
 30
0.0
 11
219.7434843866751
 21
367.7871085968321
 31
0.0
 12
222.2434843866752
 22
368.2037752634987
 32
0.0
 13
222.2434843866752
 23
368.2037752634987
 33
0.0
  0
MTEXT
  5
727
330
721
100
AcDbEntity
  8
AM_5
 62
     2
100
AcDbMText
 10
189.6526034253005
 20
371.4537752634988
 30
0.0
 40
3.5
 41
0.0
 71
     5
 72
     1
  1
{\Famgdt;o} 100
 73
     1
 44
1.0
1001
ACAD
1000
MTEXTBEGIN
1070
    73
1070
     1
1070
    44
1040
1.0
1070
    74
1070
     0
1000
MTEXTEND
  0
POINT
  5
728
330
721
100
AcDbEntity
  8
Defpoints
 62
     0
100
AcDbPoint
 10
122.4134843866752
 20
348.4705773257057
 30
0.0
  0
POINT
  5
729
330
721
100
AcDbEntity
  8
Defpoints
 62
     0
100
AcDbPoint
 10
222.2434843866752
 20
348.4705773257057
 30
0.0
  0
POINT
  5
72A
330
721
100
AcDbEntity
  8
Defpoints
 62
     0
100
AcDbPoint
 10
222.2434843866752
 20
368.2037752634987
 30
0.0
  0
ENDBLK
  5
72C
330
721
100
AcDbEntity
  8
0
100
AcDbBlockEnd
  0
BLOCK
  5
737
330
72D
100
AcDbEntity
  8
0
100
AcDbBlockBegin
  2
*D48
 70
     1
 10
0.0
 20
0.0
 30
0.0
  3
*D48
  1

  0
LINE
  5
72E
330
72D
100
AcDbEntity
  8
AM_5
100
AcDbLine
 10
126.4634843866752
 20
251.7255773257057
 30
0.0
 11
126.4634843866752
 21
236.9169371264052
 31
0.0
  0
LINE
  5
72F
330
72D
100
AcDbEntity
  8
AM_5
100
AcDbLine
 10
218.1234843866752
 20
251.7255773257057
 30
0.0
 11
218.1234843866752
 21
236.9169371264052
 31
0.0
  0
LINE
  5
730
330
72D
100
AcDbEntity
  8
AM_5
100
AcDbLine
 10
128.9634843866752
 20
237.9169371264052
 30
0.0
 11
215.6234843866752
 21
237.9169371264052
 31
0.0
  0
SOLID
  5
731
330
72D
100
AcDbEntity
  8
AM_5
100
AcDbTrace
 10
128.9634843866752
 20
238.3336037930718
 30
0.0
 11
128.9634843866752
 21
237.5002704597385
 31
0.0
 12
126.4634843866752
 22
237.9169371264052
 32
0.0
 13
126.4634843866752
 23
237.9169371264052
 33
0.0
  0
SOLID
  5
732
330
72D
100
AcDbEntity
  8
AM_5
100
AcDbTrace
 10
215.6234843866752
 20
238.3336037930718
 30
0.0
 11
215.6234843866752
 21
237.5002704597385
 31
0.0
 12
218.1234843866752
 22
237.9169371264052
 32
0.0
 13
218.1234843866752
 23
237.9169371264052
 33
0.0
  0
MTEXT
  5
733
330
72D
100
AcDbEntity
  8
AM_5
 62
     2
100
AcDbMText
 10
183.9299853865887
 20
241.1669371264052
 30
0.0
 40
3.5
 41
0.0
 71
     5
 72
     1
  1
{\Famgdt;o} 91.7
 73
     1
 44
1.0
1001
ACAD
1000
MTEXTBEGIN
1070
    73
1070
     1
1070
    44
1040
1.0
1070
    74
1070
     0
1000
MTEXTEND
  0
POINT
  5
734
330
72D
100
AcDbEntity
  8
Defpoints
 62
     0
100
AcDbPoint
 10
126.4634843866752
 20
252.7255773257057
 30
0.0
  0
POINT
  5
735
330
72D
100
AcDbEntity
  8
Defpoints
 62
     0
100
AcDbPoint
 10
218.1234843866752
 20
252.7255773257057
 30
0.0
  0
POINT
  5
736
330
72D
100
AcDbEntity
  8
Defpoints
 62
     0
100
AcDbPoint
 10
218.1234843866752
 20
237.9169371264052
 30
0.0
  0
ENDBLK
  5
738
330
72D
100
AcDbEntity
  8
0
100
AcDbBlockEnd
  0
BLOCK
  5
7B9
330
7A9
100
AcDbEntity
  8
0
100
AcDbBlockBegin
  2
*S49
 70
     1
 10
0.0
 20
0.0
 30
0.0
  3
*S49
  1

  0
LINE
  5
7AA
330
7A9
100
AcDbEntity
  8
AM_10
  6
AM_ISO08W050
 62
     7
100
AcDbLine
 10
123.8013905346061
 20
46.66638811743555
 30
0.0
 11
127.3369244405388
 21
43.13085421150282
 31
0.0
  0
TRACE
  5
7AB
330
7A9
100
AcDbEntity
  8
AM_10
  6
Continuous
 62
     7
100
AcDbTrace
 10
-122.8540470882939
 20
45.71904467112335
 30
0.000000000000003
 11
-124.7487339809183
 21
47.61373156374776
 31
0.000000000000003
 12
-120.2658566286733
 22
50.20192202336829
 32
0.000000000000003
 13
-120.2658566286733
 23
50.20192202336829
 33
0.000000000000003
210
0.0
220
0.0
230
-1.0
  0
LINE
  5
7AC
330
7A9
100
AcDbEntity
  8
AM_10
  6
AM_ISO08W050
 62
     7
100
AcDbLine
 10
220.3105340858169
 20
47.14143227036294
 30
0.0
 11
216.7750001798841
 21
43.6058983644302
 31
0.0
  0
TRACE
  5
7AD
330
7A9
100
AcDbEntity
  8
AM_10
  6
Continuous
 62
     7
100
AcDbTrace
 10
221.2578775321291
 20
46.19408882405073
 30
0.0
 11
219.3631906395047
 21
48.08877571667515
 31
0.0
 12
223.8460679917496
 22
50.67696617629568
 32
0.0
 13
223.8460679917496
 23
50.67696617629568
 33
0.0
  0
LINE
  5
7AE
330
7A9
100
AcDbEntity
  8
AM_10
  6
AM_ISO08W050
 62
     7
100
AcDbLine
 10
116.7303227227406
 20
46.66638811743555
 30
0.0
 11
123.8013905346061
 21
53.73745592930103
 31
0.0
  0
LINE
  5
7AF
330
7A9
100
AcDbEntity
  8
AM_10
  6
AM_ISO08W050
 62
     7
100
AcDbLine
 10
125.2156040969792
 20
55.15166949167412
 30
0.0
 11
125.9227108781657
 21
55.85877627286068
 31
0.0
  0
LINE
  5
7B0
330
7A9
100
AcDbEntity
  8
AM_10
  6
AM_ISO08W050
 62
     7
100
AcDbLine
 10
127.3369244405388
 20
57.27298983523377
 30
0.0
 11
134.4079922524043
 21
64.34405764709925
 31
0.0
  0
LINE
  5
7B1
330
7A9
100
AcDbEntity
  8
AM_10
  6
AM_ISO08W050
 62
     7
100
AcDbLine
 10
227.3816018976823
 20
47.14143227036294
 30
0.0
 11
220.3105340858169
 21
54.21250008222841
 31
0.0
  0
LINE
  5
7B2
330
7A9
100
AcDbEntity
  8
AM_10
  6
AM_ISO08W050
 62
     7
100
AcDbLine
 10
218.8963205234438
 20
55.6267136446015
 30
0.0
 11
218.1892137422572
 21
56.33382042578806
 31
0.0
  0
LINE
  5
7B3
330
7A9
100
AcDbEntity
  8
AM_10
  6
AM_ISO08W050
 62
     7
100
AcDbLine
 10
216.7750001798841
 20
57.74803398816115
 30
0.0
 11
209.7039323680187
 21
64.81910180002663
 31
0.0
  0
LINE
  5
7B4
330
7A9
100
AcDbEntity
  8
AM_10
  6
AM_ISO08W050
 62
     7
100
AcDbLine
 10
172.2934843866751
 20
102.2295497813701
 30
0.0
 11
165.2224165748097
 21
95.15848196950463
 31
0.0
  0
LINE
  5
7B5
330
7A9
100
AcDbEntity
  8
AM_10
  6
AM_ISO08W050
 62
     7
100
AcDbLine
 10
172.2934843866751
 20
102.2295497813701
 30
0.0
 11
179.3645521985406
 21
95.15848196950463
 31
0.0
  0
MTEXT
  5
7B6
330
7A9
100
AcDbEntity
  8
AM_10
 62
    30
100
AcDbMText
 10
111.7805752544348
 20
41.71664064912973
 30
0.0
 40
7.0
 41
0.0
 71
     5
 72
     5
  1
A
  7
ACDINTS
 73
     1
 44
1.0
1001
ACAD
1000
MTEXTBEGIN
1070
    73
1070
     1
1070
    44
1040
1.0
1070
    74
1070
     0
1000
MTEXTEND
  0
MTEXT
  5
7B7
330
7A9
100
AcDbEntity
  8
AM_10
 62
    30
100
AcDbMText
 10
232.3313493659882
 20
42.19168480205711
 30
0.0
 40
7.0
 41
0.0
 71
     5
 72
     5
  1
A
  7
ACDINTS
 73
     1
 44
1.0
1001
ACAD
1000
MTEXTBEGIN
1070
    73
1070
     1
1070
    44
1040
1.0
1070
    74
1070
     0
1000
MTEXTEND
  0
MTEXT
  5
7B8
330
7A9
100
AcDbEntity
  8
AM_10
 62
    30
100
AcDbMText
 10
417.1402788703943
 20
351.5155355663797
 30
0.0
 40
7.0
 41
0.0
 71
     5
 72
     5
  1
A-A
  7
ACDINTS
 73
     1
 44
1.0
1001
ACAD
1000
MTEXTBEGIN
1070
    73
1070
     1
1070
    44
1040
1.0
1070
    74
1070
     0
1000
MTEXTEND
  0
ENDBLK
  5
7BA
330
7A9
100
AcDbEntity
  8
0
100
AcDbBlockEnd
  0
BLOCK
  5
7CD
330
7BD
100
AcDbEntity
  8
0
100
AcDbBlockBegin
  2
*S50
 70
     1
 10
0.0
 20
0.0
 30
0.0
  3
*S50
  1

  0
LINE
  5
7BE
330
7BD
100
AcDbEntity
  8
AM_10
  6
AM_ISO08W050
 62
     7
100
AcDbLine
 10
123.8013905346061
 20
46.66638811743555
 30
0.0
 11
127.3369244405388
 21
43.13085421150282
 31
0.0
  0
TRACE
  5
7BF
330
7BD
100
AcDbEntity
  8
AM_10
  6
Continuous
 62
     7
100
AcDbTrace
 10
-122.8540470882939
 20
45.71904467112335
 30
0.000000000000003
 11
-124.7487339809183
 21
47.61373156374776
 31
0.000000000000003
 12
-120.2658566286733
 22
50.20192202336829
 32
0.000000000000003
 13
-120.2658566286733
 23
50.20192202336829
 33
0.000000000000003
210
0.0
220
0.0
230
-1.0
  0
LINE
  5
7C0
330
7BD
100
AcDbEntity
  8
AM_10
  6
AM_ISO08W050
 62
     7
100
AcDbLine
 10
220.3105340858169
 20
47.14143227036294
 30
0.0
 11
216.7750001798841
 21
43.6058983644302
 31
0.0
  0
TRACE
  5
7C1
330
7BD
100
AcDbEntity
  8
AM_10
  6
Continuous
 62
     7
100
AcDbTrace
 10
221.2578775321291
 20
46.19408882405073
 30
0.0
 11
219.3631906395047
 21
48.08877571667515
 31
0.0
 12
223.8460679917496
 22
50.67696617629568
 32
0.0
 13
223.8460679917496
 23
50.67696617629568
 33
0.0
  0
LINE
  5
7C2
330
7BD
100
AcDbEntity
  8
AM_10
  6
AM_ISO08W050
 62
     7
100
AcDbLine
 10
116.7303227227406
 20
46.66638811743555
 30
0.0
 11
123.8013905346061
 21
53.73745592930103
 31
0.0
  0
LINE
  5
7C3
330
7BD
100
AcDbEntity
  8
AM_10
  6
AM_ISO08W050
 62
     7
100
AcDbLine
 10
125.2156040969792
 20
55.15166949167412
 30
0.0
 11
125.9227108781657
 21
55.85877627286068
 31
0.0
  0
LINE
  5
7C4
330
7BD
100
AcDbEntity
  8
AM_10
  6
AM_ISO08W050
 62
     7
100
AcDbLine
 10
127.3369244405388
 20
57.27298983523377
 30
0.0
 11
134.4079922524043
 21
64.34405764709925
 31
0.0
  0
LINE
  5
7C5
330
7BD
100
AcDbEntity
  8
AM_10
  6
AM_ISO08W050
 62
     7
100
AcDbLine
 10
227.3816018976823
 20
47.14143227036294
 30
0.0
 11
220.3105340858169
 21
54.21250008222841
 31
0.0
  0
LINE
  5
7C6
330
7BD
100
AcDbEntity
  8
AM_10
  6
AM_ISO08W050
 62
     7
100
AcDbLine
 10
218.8963205234438
 20
55.6267136446015
 30
0.0
 11
218.1892137422572
 21
56.33382042578806
 31
0.0
  0
LINE
  5
7C7
330
7BD
100
AcDbEntity
  8
AM_10
  6
AM_ISO08W050
 62
     7
100
AcDbLine
 10
216.7750001798841
 20
57.74803398816115
 30
0.0
 11
209.7039323680187
 21
64.81910180002663
 31
0.0
  0
LINE
  5
7C8
330
7BD
100
AcDbEntity
  8
AM_10
  6
AM_ISO08W050
 62
     7
100
AcDbLine
 10
172.2934843866751
 20
102.2295497813701
 30
0.0
 11
165.2224165748097
 21
95.15848196950463
 31
0.0
  0
LINE
  5
7C9
330
7BD
100
AcDbEntity
  8
AM_10
  6
AM_ISO08W050
 62
     7
100
AcDbLine
 10
172.2934843866751
 20
102.2295497813701
 30
0.0
 11
179.3645521985406
 21
95.15848196950463
 31
0.0
  0
MTEXT
  5
7CA
330
7BD
100
AcDbEntity
  8
AM_10
 62
    30
100
AcDbMText
 10
111.7805752544348
 20
41.71664064912973
 30
0.0
 40
7.0
 41
0.0
 71
     5
 72
     5
  1
A
  7
ACDINTS
 73
     1
 44
1.0
1001
ACAD
1000
MTEXTBEGIN
1070
    73
1070
     1
1070
    44
1040
1.0
1070
    74
1070
     0
1000
MTEXTEND
  0
MTEXT
  5
7CB
330
7BD
100
AcDbEntity
  8
AM_10
 62
    30
100
AcDbMText
 10
232.3313493659882
 20
42.19168480205711
 30
0.0
 40
7.0
 41
0.0
 71
     5
 72
     5
  1
A
  7
ACDINTS
 73
     1
 44
1.0
1001
ACAD
1000
MTEXTBEGIN
1070
    73
1070
     1
1070
    44
1040
1.0
1070
    74
1070
     0
1000
MTEXTEND
  0
MTEXT
  5
7CC
330
7BD
100
AcDbEntity
  8
AM_10
 62
    30
100
AcDbMText
 10
417.1402788703943
 20
351.5155355663797
 30
0.0
 40
7.0
 41
0.0
 71
     5
 72
     5
  1
A-A
  7
ACDINTS
 73
     1
 44
1.0
1001
ACAD
1000
MTEXTBEGIN
1070
    73
1070
     1
1070
    44
1040
1.0
1070
    74
1070
     0
1000
MTEXTEND
  0
ENDBLK
  5
7CE
330
7BD
100
AcDbEntity
  8
0
100
AcDbBlockEnd
  0
ENDSEC
  0
SECTION
  2
ENTITIES
  0
CIRCLE
  5
51A
102
{ACAD_REACTORS
330
558
102
}
330
1F
100
AcDbEntity
  8
0
 62
     0
100
AcDbCircle
 10
172.2934843866751
 20
298.5555773257057
 30
0.0
 40
47.7
  0
LINE
  5
51B
330
1F
100
AcDbEntity
  8
0
100
AcDbLine
 10
122.4134843866752
 20
348.4705773257057
 30
0.0
 11
122.4134843866752
 21
248.6405773257057
 31
0.0
  0
LINE
  5
51C
330
1F
100
AcDbEntity
  8
0
100
AcDbLine
 10
122.4134843866752
 20
248.6405773257057
 30
0.0
 11
222.2434843866752
 21
248.6405773257057
 31
0.0
  0
LINE
  5
51D
330
1F
100
AcDbEntity
  8
0
100
AcDbLine
 10
222.2434843866752
 20
248.6405773257057
 30
0.0
 11
222.2434843866752
 21
348.4705773257057
 31
0.0
  0
LINE
  5
51E
102
{ACAD_REACTORS
330
608
102
}
330
1F
100
AcDbEntity
  8
0
100
AcDbLine
 10
222.2434843866752
 20
348.4705773257057
 30
0.0
 11
122.4134843866752
 21
348.4705773257057
 31
0.0
  0
LINE
  5
51F
330
1F
100
AcDbEntity
  8
0
 62
     0
100
AcDbLine
 10
124.5634843866752
 20
250.8255773257058
 30
0.0
 11
220.0234843866752
 21
250.8255773257057
 31
0.0
  0
LINE
  5
520
330
1F
100
AcDbEntity
  8
0
 62
     0
100
AcDbLine
 10
126.4634843866752
 20
252.7255773257057
 30
0.0
 11
156.4233520620851
 21
252.7255773257057
 31
0.0
  0
LINE
  5
521
330
1F
100
AcDbEntity
  8
0
 62
     0
100
AcDbLine
 10
190.9980586935125
 20
252.7255773257057
 30
0.0
 11
218.1234843866752
 21
252.7255773257057
 31
0.0
  0
LINE
  5
522
330
1F
100
AcDbEntity
  8
0
 62
     0
100
AcDbLine
 10
220.0234843866752
 20
250.8255773257057
 30
0.0
 11
220.0234843866752
 21
346.2855773257057
 31
0.0
  0
LINE
  5
523
102
{ACAD_REACTORS
330
60B
102
}
330
1F
100
AcDbEntity
  8
0
 62
     0
100
AcDbLine
 10
218.1234843866752
 20
252.7255773257057
 30
0.0
 11
218.1234843866751
 21
279.8510030188684
 31
0.0
  0
LINE
  5
524
330
1F
100
AcDbEntity
  8
0
 62
     0
100
AcDbLine
 10
218.1234843866751
 20
314.425709650296
 30
0.0
 11
218.1234843866752
 21
344.3855773257058
 31
0.0
  0
LINE
  5
525
102
{ACAD_REACTORS
330
605
102
}
330
1F
100
AcDbEntity
  8
0
 62
     0
100
AcDbLine
 10
220.0234843866752
 20
346.2855773257057
 30
0.0
 11
124.5634843866752
 21
346.2855773257057
 31
0.0
  0
LINE
  5
526
330
1F
100
AcDbEntity
  8
0
 62
     0
100
AcDbLine
 10
218.1234843866752
 20
344.3855773257058
 30
0.0
 11
188.1636167112653
 21
344.3855773257058
 31
0.0
  0
LINE
  5
527
330
1F
100
AcDbEntity
  8
0
 62
     0
100
AcDbLine
 10
153.5889100798377
 20
344.3855773257057
 30
0.0
 11
126.4634843866752
 21
344.3855773257058
 31
0.0
  0
LINE
  5
528
102
{ACAD_REACTORS
330
605
102
}
330
1F
100
AcDbEntity
  8
0
 62
     0
100
AcDbLine
 10
124.5634843866752
 20
346.2855773257057
 30
0.0
 11
124.5634843866752
 21
250.8255773257057
 31
0.0
  0
LINE
  5
529
330
1F
100
AcDbEntity
  8
0
 62
     0
100
AcDbLine
 10
126.4634843866752
 20
344.3855773257058
 30
0.0
 11
126.4634843866752
 21
317.2601516325431
 31
0.0
  0
LINE
  5
52A
102
{ACAD_REACTORS
330
60B
102
}
330
1F
100
AcDbEntity
  8
0
 62
     0
100
AcDbLine
 10
126.4634843866752
 20
282.6854450011155
 30
0.0
 11
126.4634843866752
 21
252.7255773257057
 31
0.0
  0
LINE
  5
52B
330
1F
100
AcDbEntity
  8
0
100
AcDbLine
 10
222.2084843866752
 20
152.1095497813701
 30
0.0
 11
122.3784843866752
 21
152.1095497813701
 31
0.0
  0
LINE
  5
52C
330
1F
100
AcDbEntity
  8
0
100
AcDbLine
 10
122.3784843866752
 20
152.1095497813701
 30
0.0
 11
122.3784843866752
 21
52.27954978137012
 31
0.0
  0
LINE
  5
52D
330
1F
100
AcDbEntity
  8
0
100
AcDbLine
 10
122.3784843866752
 20
52.27954978137012
 30
0.0
 11
222.2084843866752
 21
52.27954978137012
 31
0.0
  0
LINE
  5
52E
330
1F
100
AcDbEntity
  8
0
100
AcDbLine
 10
222.2084843866752
 20
52.27954978137012
 30
0.0
 11
222.2084843866752
 21
152.1095497813701
 31
0.0
  0
LINE
  5
52F
330
1F
100
AcDbEntity
  8
0
 62
     0
100
AcDbLine
 10
124.5634843866752
 20
149.95954978137
 30
0.0
 11
124.5634843866752
 21
54.49954978137009
 31
0.0
  0
LINE
  5
530
330
1F
100
AcDbEntity
  8
0
 62
     0
100
AcDbLine
 10
124.5634843866752
 20
54.49954978137009
 30
0.0
 11
220.0234843866752
 21
54.49954978137009
 31
0.0
  0
LINE
  5
531
330
1F
100
AcDbEntity
  8
0
 62
     0
100
AcDbLine
 10
220.0234843866752
 20
54.49954978137009
 30
0.0
 11
220.0234843866752
 21
149.95954978137
 31
0.0
  0
LINE
  5
532
330
1F
100
AcDbEntity
  8
0
 62
     0
100
AcDbLine
 10
220.0234843866752
 20
149.95954978137
 30
0.0
 11
124.5634843866752
 21
149.95954978137
 31
0.0
  0
CIRCLE
  5
533
330
1F
100
AcDbEntity
  8
0
 62
     0
100
AcDbCircle
 10
172.2934843866751
 20
102.2295497813701
 30
0.0
 40
47.7
  0
LINE
  5
534
330
1F
100
AcDbEntity
  8
0
 62
     0
100
AcDbLine
 10
122.3784843866752
 20
206.594956062725
 30
0.0
 11
222.2084843866752
 21
206.594956062725
 31
0.0
  0
LINE
  5
535
330
1F
100
AcDbEntity
  8
0
 62
     0
100
AcDbLine
 10
220.0684843866752
 20
206.594956062725
 30
0.0
 11
220.0684843866752
 21
201.894956062725
 31
0.0
  0
LINE
  5
536
330
1F
100
AcDbEntity
  8
0
 62
     0
100
AcDbLine
 10
124.5184843866752
 20
206.594956062725
 30
0.0
 11
124.5184843866752
 21
201.894956062725
 31
0.0
  0
LINE
  5
537
102
{ACAD_REACTORS
330
5A8
102
}
330
1F
100
AcDbEntity
  8
0
 62
     0
100
AcDbLine
 10
124.5184843866752
 20
201.894956062725
 30
0.0
 11
220.0684843866752
 21
201.894956062725
 31
0.0
  0
LINE
  5
538
330
1F
100
AcDbEntity
  8
0
 62
     0
100
AcDbLine
 10
367.6081512982802
 20
305.6631270160685
 30
0.0
 11
357.4081512982802
 21
305.6631270160685
 31
0.0
  0
LINE
  5
539
330
1F
100
AcDbEntity
  8
0
 62
     0
100
AcDbLine
 10
368.0081512982803
 20
302.7631270160684
 30
0.0
 11
369.7581512982803
 21
302.7631270160684
 31
0.0
  0
LINE
  5
53A
330
1F
100
AcDbEntity
  8
0
100
AcDbLine
 10
351.7581512982803
 20
304.8631270160683
 30
0.0
 11
357.4081512982802
 21
304.8631270160685
 31
0.0
  0
LINE
  5
53B
102
{ACAD_REACTORS
330
5FD
102
}
330
1F
100
AcDbEntity
  8
0
100
AcDbLine
 10
479.2081512982802
 20
304.8631270160685
 30
0.0
 11
486.7633743383585
 21
304.8631270160685
 31
0.0
  0
LINE
  5
53C
102
{ACAD_REACTORS
330
5F3
102
}
330
1F
100
AcDbEntity
  8
0
 62
     0
100
AcDbLine
 10
369.7581512982803
 20
302.7631270160684
 30
0.0
 11
369.7581512982803
 21
298.0631270160684
 31
0.0
  0
LINE
  5
53D
330
1F
100
AcDbEntity
  8
0
 62
     0
100
AcDbLine
 10
371.6581512982803
 20
298.0631270160684
 30
0.0
 11
371.6581512982803
 21
304.8631270160687
 31
0.0
  0
LINE
  5
53E
102
{ACAD_REACTORS
330
5FD
102
}
330
1F
100
AcDbEntity
  8
0
 62
     0
100
AcDbLine
 10
479.2081512982802
 20
305.6631270160685
 30
0.0
 11
472.8081512982803
 21
305.6631270160685
 31
0.0
  0
LINE
  5
53F
330
1F
100
AcDbEntity
  8
0
 62
     0
100
AcDbLine
 10
479.5081512982803
 20
298.8631270160683
 30
0.0
 11
472.5081512982801
 21
298.8631270160683
 31
0.0
  0
LINE
  5
540
330
1F
100
AcDbEntity
  8
0
 62
     0
100
AcDbLine
 10
466.6581512982802
 20
298.0631270160684
 30
0.0
 11
466.6581512982802
 21
304.8631270160687
 31
0.0
  0
LINE
  5
541
330
1F
100
AcDbEntity
  8
0
 62
     0
100
AcDbLine
 10
467.7581512982802
 20
302.7631270160685
 30
0.0
 11
467.7581512982802
 21
298.0631270160684
 31
0.0
  0
LINE
  5
542
330
1F
100
AcDbEntity
  8
0
 62
     0
100
AcDbLine
 10
472.5081512982803
 20
302.7631270160685
 30
0.0
 11
467.7581512982802
 21
302.7631270160685
 31
0.0
  0
LINE
  5
543
330
1F
100
AcDbEntity
  8
0
 62
     0
100
AcDbLine
 10
479.5081512982803
 20
302.7631270160685
 30
0.0
 11
484.0581512982803
 21
302.7631270160685
 31
0.0
  0
LINE
  5
544
330
1F
100
AcDbEntity
  8
0
 62
     0
100
AcDbLine
 10
484.0581512982803
 20
298.0631270160684
 30
0.0
 11
484.0581512982803
 21
302.7631270160684
 31
0.0
  0
LINE
  5
545
330
1F
100
AcDbEntity
  8
AM_7
100
AcDbLine
 10
172.2934843866751
 20
298.5555773257057
 30
0.0
 11
172.2934843866751
 21
353.8837973757318
 31
0.0
1001
GENIUS_GENOREF_13
1005
617
  0
LINE
  5
546
330
1F
100
AcDbEntity
  8
AM_7
100
AcDbLine
 10
172.2934843866751
 20
298.5555773257057
 30
0.0
 11
116.7516839163004
 21
298.5555773257057
 31
0.0
1001
GENIUS_GENOREF_13
1005
617
  0
LINE
  5
547
330
1F
100
AcDbEntity
  8
AM_7
100
AcDbLine
 10
172.2934843866751
 20
298.5555773257057
 30
0.0
 11
172.2934843866751
 21
242.4524132057072
 31
0.0
1001
GENIUS_GENOREF_13
1005
617
  0
LINE
  5
548
330
1F
100
AcDbEntity
  8
AM_7
100
AcDbLine
 10
172.2934843866751
 20
298.5555773257057
 30
0.0
 11
224.4508257762861
 21
298.5555773257057
 31
0.0
1001
GENIUS_GENOREF_13
1005
617
  0
LINE
  5
549
330
1F
100
AcDbEntity
  8
AM_7
100
AcDbLine
 10
419.2581512982802
 20
287.1584707282159
 30
0.0
 11
419.2581512982802
 21
322.8677833039209
 31
0.0
1001
GENIUS_GENOBJ-N-CEN_13
1002
{
1000
OWNER
1000
GEN
1002
}
1001
GENIUS_GENODEF_13
1002
{
1000
HIER
1070
     0
1002
}
1002
{
1000
MANEDIT
1070
     0
1002
}
1002
{
1000
NOSEL
1070
     0
1002
}
1002
{
1000
BEHIND
1070
     0
1002
}
1002
{
1000
OTHER
1070
     0
1002
}
1002
{
1000
REACTOR
1002
}
1001
GENIUS_GENCEN_19
1002
{
1040
0.11
1002
}
  0
LINE
  5
54A
330
1F
100
AcDbEntity
  8
0
 62
     0
100
AcDbLine
 10
357.0081512982802
 20
298.8631270160684
 30
0.0
 11
368.0081512982803
 21
298.8631270160683
 31
0.0
  0
CIRCLE
  5
54C
330
1F
100
AcDbEntity
  8
0
 62
     0
100
AcDbCircle
 10
132.1651745543386
 20
62.10123994903307
 30
0.0
 40
3.7
  0
CIRCLE
  5
54D
330
1F
100
AcDbEntity
  8
0
 62
     0
100
AcDbCircle
 10
132.1651745543386
 20
62.10123994903307
 30
0.0
 40
5.099999999999999
  0
CIRCLE
  5
54E
330
1F
100
AcDbEntity
  8
0
 62
     0
100
AcDbCircle
 10
212.4217942190118
 20
62.10123994903307
 30
0.0
 40
1.35
  0
CIRCLE
  5
54F
330
1F
100
AcDbEntity
  8
0
 62
     0
100
AcDbCircle
 10
212.4217942190118
 20
62.10123994903307
 30
0.0
 40
3.2
  0
CIRCLE
  5
550
330
1F
100
AcDbEntity
  8
0
 62
     0
100
AcDbCircle
 10
212.4217942190122
 20
258.4272674933692
 30
0.0
 40
3.7
  0
CIRCLE
  5
551
330
1F
100
AcDbEntity
  8
0
 62
     0
100
AcDbCircle
 10
212.4217942190122
 20
258.4272674933692
 30
0.0
 40
5.099999999999999
  0
CIRCLE
  5
552
330
1F
100
AcDbEntity
  8
0
 62
     0
100
AcDbCircle
 10
212.4217942190122
 20
338.6838871580424
 30
0.0
 40
1.35
  0
CIRCLE
  5
553
330
1F
100
AcDbEntity
  8
0
 62
     0
100
AcDbCircle
 10
212.4217942190122
 20
338.6838871580424
 30
0.0
 40
3.2
  0
CIRCLE
  5
554
102
{ACAD_REACTORS
330
5D6
102
}
330
1F
100
AcDbEntity
  8
AM_7
100
AcDbCircle
 10
172.2934843866751
 20
102.2295497813701
 30
0.0
 40
56.75
  0
LINE
  5
555
330
1F
100
AcDbEntity
  8
0
 62
     0
100
AcDbLine
 10
358.901906714229
 20
305.6131270160684
 30
0.0
 11
358.901906714229
 21
305.6131270160684
 31
0.0
  0
DIMENSION
  5
556
102
{ACAD_XDICTIONARY
360
557
102
}
102
{ACAD_REACTORS
330
558
102
}
330
1F
100
AcDbEntity
  8
AM_5
 62
     3
100
AcDbDimension
  2
*D29
 10
124.9981389228636
 20
292.3555533371465
 30
0.0
 11
194.3811144052498
 21
301.4510807758363
 31
0.0
 70
   163
 71
     5
 42
95.39999999999983
  3
AM_DIN$3
100
AcDbDiametricDimension
 15
219.5888298504868
 25
304.7556013142649
 35
0.0
 40
0.0
1001
ACAD
1000
DSTYLE
1002
{
1070
     3
1000
%%c <>
1002
}
  0
LINE
  5
559
330
1F
100
AcDbEntity
  8
AM_7
  6
AM_DIN_G_W050x2
100
AcDbLine
 10
362.5081512982803
 20
295.9431270160684
 30
0.0
 11
362.5081512982803
 21
308.7631270160684
 31
0.0
1001
GENIUS_GENODEF_13
1002
{
1000
HIER
1070
     0
1002
}
1002
{
1000
MANEDIT
1070
     0
1002
}
1002
{
1000
NOSEL
1070
     0
1002
}
1002
{
1000
BEHIND
1070
     0
1002
}
1002
{
1000
OTHER
1070
     0
1002
}
1002
{
1000
REACTOR
1002
}
1001
GENIUS_GENOBJ-N-CEN_13
1002
{
1000
OWNER
1000
GEN
1002
}
1001
GENIUS_GENCEN_19
1002
{
1040
3.0
1002
}
  0
LINE
  5
55A
330
1F
100
AcDbEntity
  8
AM_7
  6
AM_DIN_G_W050x2
100
AcDbLine
 10
476.0081512982802
 20
295.6533596378572
 30
0.0
 11
476.0081512982802
 21
308.4733596378572
 31
0.0
1001
GENIUS_GENOBJ-N-CEN_13
1002
{
1000
OWNER
1000
GEN
1002
}
1001
GENIUS_GENODEF_13
1002
{
1000
HIER
1070
     0
1002
}
1002
{
1000
MANEDIT
1070
     0
1002
}
1002
{
1000
NOSEL
1070
     0
1002
}
1002
{
1000
BEHIND
1070
     0
1002
}
1002
{
1000
OTHER
1070
     0
1002
}
1002
{
1000
REACTOR
1002
}
1001
GENIUS_GENCEN_19
1002
{
1040
3.0
1002
}
  0
LINE
  5
55B
330
1F
100
AcDbEntity
  8
0
 62
     0
100
AcDbLine
 10
351.7281512982803
 20
298.0631270160684
 30
0.0
 11
354.4581512982802
 21
298.0631270160684
 31
0.0
  0
LINE
  5
55C
102
{ACAD_REACTORS
330
5F3
330
5FA
102
}
330
1F
100
AcDbEntity
  8
0
 62
     0
100
AcDbLine
 10
354.4581512982802
 20
298.0631270160684
 30
0.0
 11
419.2581512982802
 21
298.0631270160684
 31
0.0
  0
LINE
  5
55D
330
1F
100
AcDbEntity
  8
0
 62
     0
100
AcDbLine
 10
486.7633743383585
 20
302.7631270160684
 30
0.0
 11
489.8733743383585
 21
302.7631270160684
 31
0.0
  0
LINE
  5
55E
330
1F
100
AcDbEntity
  8
0
 62
     0
100
AcDbLine
 10
486.7633743383585
 20
302.7631270160684
 30
0.0
 11
486.7633743383585
 21
298.0631270160684
 31
0.0
  0
LINE
  5
55F
330
1F
100
AcDbEntity
  8
0
 62
     0
100
AcDbLine
 10
489.8733743383585
 20
302.7631270160684
 30
0.0
 11
489.8733743383586
 21
309.7631270160684
 31
0.0
  0
LINE
  5
560
330
1F
100
AcDbEntity
  8
0
 62
     0
100
AcDbLine
 10
486.7633743383584
 20
304.8631270160685
 30
0.0
 11
486.7633743383585
 21
309.7631270160684
 31
0.0
  0
LINE
  5
561
330
1F
100
AcDbEntity
  8
0
 62
     0
100
AcDbLine
 10
348.642928258202
 20
309.7631270160684
 30
0.0
 11
348.642928258202
 21
302.7631270160684
 31
0.0
  0
LINE
  5
562
102
{ACAD_REACTORS
330
5AE
102
}
330
1F
100
AcDbEntity
  8
0
 62
     0
100
AcDbLine
 10
348.642928258202
 20
302.7631270160684
 30
0.0
 11
351.7281512982803
 21
302.7631270160684
 31
0.0
  0
LINE
  5
563
102
{ACAD_REACTORS
330
5AB
102
}
330
1F
100
AcDbEntity
  8
0
 62
     0
100
AcDbLine
 10
351.7281512982803
 20
302.7631270160684
 30
0.0
 11
351.7281512982803
 21
298.0631270160684
 31
0.0
  0
LINE
  5
564
102
{ACAD_REACTORS
330
5F0
102
}
330
1F
100
AcDbEntity
  8
0
 62
     0
100
AcDbLine
 10
351.7581512982803
 20
304.8631270160683
 30
0.0
 11
351.7581512982803
 21
309.7631270160684
 31
0.0
  0
LINE
  5
565
102
{ACAD_REACTORS
330
5DB
102
}
330
1F
100
AcDbEntity
  8
0
 62
     0
100
AcDbLine
 10
357.4081512982802
 20
305.6631270160685
 30
0.0
 11
357.4081512982802
 21
304.8631270160687
 31
0.0
  0
LINE
  5
566
330
1F
100
AcDbEntity
  8
0
 62
     0
100
AcDbLine
 10
358.8081512982803
 20
305.6631270160685
 30
0.0
 11
358.8081512982803
 21
298.8631270160684
 31
0.0
  0
LINE
  5
567
102
{ACAD_REACTORS
330
5DE
102
}
330
1F
100
AcDbEntity
  8
0
 62
     0
100
AcDbLine
 10
366.2081512982803
 20
305.6631270160685
 30
0.0
 11
366.2081512982803
 21
298.8631270160683
 31
0.0
  0
LINE
  5
568
102
{ACAD_REACTORS
330
5DB
330
5F6
102
}
330
1F
100
AcDbEntity
  8
0
 62
     0
100
AcDbLine
 10
367.6081512982802
 20
305.6631270160685
 30
0.0
 11
367.6081512982802
 21
304.8631270160687
 31
0.0
  0
LINE
  5
569
102
{ACAD_REACTORS
330
5E8
330
5FA
102
}
330
1F
100
AcDbEntity
  8
0
 62
     0
100
AcDbLine
 10
368.0081512982803
 20
302.7631270160684
 30
0.0
 11
368.0081512982803
 21
298.8631270160683
 31
0.0
  0
LINE
  5
56A
330
1F
100
AcDbEntity
  8
0
 62
     0
100
AcDbLine
 10
354.4581512982802
 20
302.7631270160684
 30
0.0
 11
354.4581512982802
 21
298.0631270160684
 31
0.0
  0
LINE
  5
56B
330
1F
100
AcDbEntity
  8
0
 62
     0
100
AcDbLine
 10
354.4581512982802
 20
302.7631270160684
 30
0.0
 11
357.0081512982802
 21
302.7631270160684
 31
0.0
  0
CIRCLE
  5
56C
330
1F
100
AcDbEntity
  8
0
 62
     0
100
AcDbCircle
 10
132.1933121983152
 20
258.3991495654589
 30
0.0
 40
1.35
  0
CIRCLE
  5
56D
330
1F
100
AcDbEntity
  8
0
 62
     0
100
AcDbCircle
 10
132.1933121983152
 20
258.3991495654589
 30
0.0
 40
3.2
  0
CIRCLE
  5
56E
330
1F
100
AcDbEntity
  8
0
 62
     0
100
AcDbCircle
 10
132.1933121983154
 20
338.7120050859527
 30
0.0
 40
3.7
  0
CIRCLE
  5
56F
330
1F
100
AcDbEntity
  8
0
 62
     0
100
AcDbCircle
 10
132.1933121983154
 20
338.7120050859527
 30
0.0
 40
5.099999999999999
  0
CIRCLE
  5
570
330
1F
100
AcDbEntity
  8
0
 62
     0
100
AcDbCircle
 10
212.4499121469221
 20
142.3297219697298
 30
0.0
 40
3.7
  0
CIRCLE
  5
571
330
1F
100
AcDbEntity
  8
0
 62
     0
100
AcDbCircle
 10
212.4499121469221
 20
142.3297219697298
 30
0.0
 40
5.099999999999999
  0
CIRCLE
  5
572
330
1F
100
AcDbEntity
  8
0
 62
     0
100
AcDbCircle
 10
132.1370566264281
 20
142.3297219697299
 30
0.0
 40
1.35
  0
CIRCLE
  5
573
330
1F
100
AcDbEntity
  8
0
 62
     0
100
AcDbCircle
 10
132.1370566264281
 20
142.3297219697299
 30
0.0
 40
3.2
  0
ARC
  5
574
330
1F
100
AcDbEntity
  8
0
 62
     0
100
AcDbCircle
 10
172.2934843866751
 20
298.5555773257057
 30
0.0
 40
49.5
100
AcDbArc
 50
292.2018194502848
 51
337.7981805497146
  0
ARC
  5
575
330
1F
100
AcDbEntity
  8
0
 62
     0
100
AcDbCircle
 10
172.2934843866751
 20
298.5555773257057
 30
0.0
 40
49.5
100
AcDbArc
 50
112.2018194502848
 51
157.7981805497146
  0
ARC
  5
576
330
1F
100
AcDbEntity
  8
0
 62
     0
100
AcDbCircle
 10
172.2934843866751
 20
298.5555773257057
 30
0.0
 40
48.5
100
AcDbArc
 50
190.2232359737313
 51
250.8999197082891
  0
ARC
  5
577
330
1F
100
AcDbEntity
  8
0
 62
     0
100
AcDbCircle
 10
172.2934843866751
 20
298.5555773257057
 30
0.0
 40
48.5
100
AcDbArc
 50
19.10008029171301
 51
70.89991970828908
  0
LINE
  5
59A
330
1F
100
AcDbEntity
  8
0
 62
     0
100
AcDbLine
 10
419.2581512982802
 20
298.0631270160684
 30
0.0
 11
484.0581512982803
 21
298.0631270160684
 31
0.0
  0
LINE
  5
59B
102
{ACAD_REACTORS
330
602
102
}
330
1F
100
AcDbEntity
  8
0
 62
     0
100
AcDbLine
 10
484.0581512982803
 20
298.0631270160684
 30
0.0
 11
486.7633743383585
 21
298.0631270160684
 31
0.0
  0
LINE
  5
59C
102
{ACAD_REACTORS
330
5E1
102
}
330
1F
100
AcDbEntity
  8
0
 62
     0
100
AcDbLine
 10
472.8081512982802
 20
305.6631270160685
 30
0.0
 11
472.8081512982802
 21
304.8631270160687
 31
0.0
  0
LINE
  5
59D
102
{ACAD_REACTORS
330
5E4
102
}
330
1F
100
AcDbEntity
  8
0
 62
     0
100
AcDbLine
 10
474.6581512982802
 20
305.6631270160685
 30
0.0
 11
474.6581512982802
 21
298.8631270160683
 31
0.0
  0
LINE
  5
59E
102
{ACAD_REACTORS
330
5E4
102
}
330
1F
100
AcDbEntity
  8
0
 62
     0
100
AcDbLine
 10
477.3581512982802
 20
305.6631270160685
 30
0.0
 11
477.3581512982802
 21
298.8631270160683
 31
0.0
  0
LINE
  5
59F
102
{ACAD_REACTORS
330
5E1
102
}
330
1F
100
AcDbEntity
  8
0
 62
     0
100
AcDbLine
 10
479.2081512982803
 20
305.6631270160685
 30
0.0
 11
479.2081512982802
 21
304.8631270160685
 31
0.0
  0
LINE
  5
5A0
102
{ACAD_REACTORS
330
5ED
330
602
102
}
330
1F
100
AcDbEntity
  8
0
 62
     0
100
AcDbLine
 10
479.5081512982802
 20
302.7631270160685
 30
0.0
 11
479.5081512982803
 21
298.8631270160683
 31
0.0
  0
LINE
  5
5A1
102
{ACAD_REACTORS
330
5F6
102
}
330
1F
100
AcDbEntity
  8
0
 62
     0
100
AcDbLine
 10
367.6081512982802
 20
304.8631270160687
 30
0.0
 11
472.8081512982802
 21
304.8631270160687
 31
0.0
  0
LINE
  5
5A2
102
{ACAD_REACTORS
330
5AE
102
}
330
1F
100
AcDbEntity
  8
0
 62
     0
100
AcDbLine
 10
348.642928258202
 20
309.7631270160684
 30
0.0
 11
489.8733743383586
 21
309.7631270160684
 31
0.0
  0
LINE
  5
5A3
330
1F
100
AcDbEntity
  8
0
 62
     0
100
AcDbLine
 10
122.3784843866752
 20
206.594956062725
 30
0.0
 11
122.3784843866752
 21
213.594956062725
 31
0.0
  0
LINE
  5
5A4
330
1F
100
AcDbEntity
  8
0
 62
     0
100
AcDbLine
 10
222.2084843866752
 20
206.594956062725
 30
0.0
 11
222.2084843866752
 21
213.594956062725
 31
0.0
  0
LINE
  5
5A5
330
1F
100
AcDbEntity
  8
0
 62
     0
100
AcDbLine
 10
222.2084843866752
 20
213.594956062725
 30
0.0
 11
122.3784843866752
 21
213.594956062725
 31
0.0
  0
DIMENSION
  5
5A6
102
{ACAD_XDICTIONARY
360
5A7
102
}
102
{ACAD_REACTORS
330
5A8
102
}
330
1F
100
AcDbEntity
  8
AM_5
100
AcDbDimension
  2
*D30
 10
220.0684843866752
 20
184.4700602502589
 30
0.0
 11
181.8784386310603
 21
184.4700602502589
 31
0.0
 70
   160
  1
(<>)
 71
     5
 42
95.55000000000001
  3
AM_DIN$0
100
AcDbAlignedDimension
 13
124.5184843866752
 23
201.894956062725
 33
0.0
 14
220.0684843866752
 24
201.894956062725
 34
0.0
100
AcDbRotatedDimension
1001
ACAD
1000
DSTYLE
1002
{
1070
   271
1070
     1
1002
}
  0
DIMENSION
  5
5A9
102
{ACAD_XDICTIONARY
360
5AA
102
}
102
{ACAD_REACTORS
330
5AB
102
}
330
1F
100
AcDbEntity
  8
AM_5
100
AcDbDimension
  2
*D31
 10
326.3449869145884
 20
298.0631270160684
 30
0.0
 11
323.0949869145884
 21
288.9381270160685
 31
0.0
 70
    32
 71
     5
 42
4.700000000000045
  3
AM_DIN$0
100
AcDbAlignedDimension
 13
351.7281512982803
 23
302.7631270160684
 33
0.0
 14
351.7281512982803
 24
298.0631270160684
 34
0.0
 50
90.0
100
AcDbRotatedDimension
1001
ACAD
1000
DSTYLE
1002
{
1070
   271
1070
     1
1002
}
  0
DIMENSION
  5
5AC
102
{ACAD_XDICTIONARY
360
5AD
102
}
102
{ACAD_REACTORS
330
5AE
102
}
330
1F
100
AcDbEntity
  8
AM_5
100
AcDbDimension
  2
*D32
 10
315.3261019261417
 20
302.7631270160684
 30
0.0
 11
312.0761019261417
 21
306.2631270160685
 31
0.0
 70
    32
 71
     5
 42
7.0
  3
AM_DIN$0
100
AcDbAlignedDimension
 13
348.642928258202
 23
309.7631270160684
 33
0.0
 14
348.642928258202
 24
302.7631270160684
 34
0.0
 50
90.0
100
AcDbRotatedDimension
1001
ACAD
1000
DSTYLE
1002
{
1070
   271
1070
     1
1002
}
  0
LINE
  5
5AF
330
1F
100
AcDbEntity
  8
AM_7
100
AcDbLine
 10
172.2934843866751
 20
220.4127790596122
 30
0.0
 11
172.2934843866751
 21
192.7771330658378
 31
0.0
1001
GENIUS_GENODEF_13
1002
{
1000
HIER
1070
     0
1002
}
1002
{
1000
MANEDIT
1070
     0
1002
}
1002
{
1000
NOSEL
1070
     0
1002
}
1002
{
1000
BEHIND
1070
     0
1002
}
1002
{
1000
OTHER
1070
     0
1002
}
1002
{
1000
REACTOR
1002
}
1001
GENIUS_GENOBJ-N-CEN_13
1002
{
1000
OWNER
1000
GEN
1002
}
1001
GENIUS_GENCEN_19
1002
{
1040
3.0
1002
}
  0
LINE
  5
5B0
330
1F
100
AcDbEntity
  8
AM_7
100
AcDbLine
 10
172.2934843866751
 20
102.2295497813701
 30
0.0
 11
238.3931116418523
 21
102.2295497813701
 31
0.0
1001
GENIUS_GENOREF_13
1005
616
  0
LINE
  5
5B1
330
1F
100
AcDbEntity
  8
AM_7
100
AcDbLine
 10
172.2934843866751
 20
102.2295497813701
 30
0.0
 11
172.2934843866751
 21
168.3291770365472
 31
0.0
1001
GENIUS_GENOREF_13
1005
616
  0
LINE
  5
5B2
330
1F
100
AcDbEntity
  8
AM_7
100
AcDbLine
 10
172.2934843866751
 20
102.2295497813701
 30
0.0
 11
106.193857131498
 21
102.2295497813701
 31
0.0
1001
GENIUS_GENOREF_13
1005
616
  0
LINE
  5
5B3
330
1F
100
AcDbEntity
  8
AM_7
100
AcDbLine
 10
172.2934843866751
 20
102.2295497813701
 30
0.0
 11
172.2934843866751
 21
36.12992252619296
 31
0.0
1001
GENIUS_GENOREF_13
1005
616
  0
LINE
  5
5B4
330
1F
100
AcDbEntity
  8
AM_7
  6
AM_DIN_G_W050x2
100
AcDbLine
 10
132.1933121983152
 20
258.3991495654589
 30
0.0
 11
132.1933121983152
 21
264.5991495654588
 31
0.0
1001
GENIUS_GENOREF_13
1005
615
  0
LINE
  5
5B5
330
1F
100
AcDbEntity
  8
AM_7
  6
AM_DIN_G_W050x2
100
AcDbLine
 10
132.1933121983152
 20
258.3991495654589
 30
0.0
 11
125.9933121983152
 21
258.3991495654589
 31
0.0
1001
GENIUS_GENOREF_13
1005
615
  0
LINE
  5
5B6
330
1F
100
AcDbEntity
  8
AM_7
  6
AM_DIN_G_W050x2
100
AcDbLine
 10
132.1933121983152
 20
258.3991495654589
 30
0.0
 11
132.1933121983152
 21
252.1991495654589
 31
0.0
1001
GENIUS_GENOREF_13
1005
615
  0
LINE
  5
5B7
330
1F
100
AcDbEntity
  8
AM_7
  6
AM_DIN_G_W050x2
100
AcDbLine
 10
132.1933121983152
 20
258.3991495654589
 30
0.0
 11
138.3933121983152
 21
258.3991495654589
 31
0.0
1001
GENIUS_GENOREF_13
1005
615
  0
LINE
  5
5B8
330
1F
100
AcDbEntity
  8
AM_7
  6
AM_DIN_G_W050x2
100
AcDbLine
 10
132.1933121983154
 20
338.7120050859527
 30
0.0
 11
132.1933121983154
 21
344.9120050859527
 31
0.0
1001
GENIUS_GENOREF_13
1005
614
  0
LINE
  5
5B9
330
1F
100
AcDbEntity
  8
AM_7
  6
AM_DIN_G_W050x2
100
AcDbLine
 10
132.1933121983154
 20
338.7120050859527
 30
0.0
 11
125.9933121983154
 21
338.7120050859527
 31
0.0
1001
GENIUS_GENOREF_13
1005
614
  0
LINE
  5
5BA
330
1F
100
AcDbEntity
  8
AM_7
  6
AM_DIN_G_W050x2
100
AcDbLine
 10
132.1933121983154
 20
338.7120050859527
 30
0.0
 11
132.1933121983154
 21
332.5120050859528
 31
0.0
1001
GENIUS_GENOREF_13
1005
614
  0
LINE
  5
5BB
330
1F
100
AcDbEntity
  8
AM_7
  6
AM_DIN_G_W050x2
100
AcDbLine
 10
132.1933121983154
 20
338.7120050859527
 30
0.0
 11
138.3933121983154
 21
338.7120050859527
 31
0.0
1001
GENIUS_GENOREF_13
1005
614
  0
LINE
  5
5BC
330
1F
100
AcDbEntity
  8
AM_7
  6
AM_DIN_G_W050x2
100
AcDbLine
 10
212.4217942190122
 20
338.6838871580424
 30
0.0
 11
212.4217942190122
 21
344.8838871580424
 31
0.0
1001
GENIUS_GENOREF_13
1005
613
  0
LINE
  5
5BD
330
1F
100
AcDbEntity
  8
AM_7
  6
AM_DIN_G_W050x2
100
AcDbLine
 10
212.4217942190122
 20
338.6838871580424
 30
0.0
 11
206.2217942190122
 21
338.6838871580424
 31
0.0
1001
GENIUS_GENOREF_13
1005
613
  0
LINE
  5
5BE
330
1F
100
AcDbEntity
  8
AM_7
  6
AM_DIN_G_W050x2
100
AcDbLine
 10
212.4217942190122
 20
338.6838871580424
 30
0.0
 11
212.4217942190122
 21
332.4838871580424
 31
0.0
1001
GENIUS_GENOREF_13
1005
613
  0
LINE
  5
5BF
330
1F
100
AcDbEntity
  8
AM_7
  6
AM_DIN_G_W050x2
100
AcDbLine
 10
212.4217942190122
 20
338.6838871580424
 30
0.0
 11
218.6217942190121
 21
338.6838871580424
 31
0.0
1001
GENIUS_GENOREF_13
1005
613
  0
LINE
  5
5C0
330
1F
100
AcDbEntity
  8
AM_7
  6
AM_DIN_G_W050x2
100
AcDbLine
 10
212.4217942190122
 20
258.4272674933692
 30
0.0
 11
212.4217942190122
 21
264.6272674933692
 31
0.0
1001
GENIUS_GENOREF_13
1005
612
  0
LINE
  5
5C1
330
1F
100
AcDbEntity
  8
AM_7
  6
AM_DIN_G_W050x2
100
AcDbLine
 10
212.4217942190122
 20
258.4272674933692
 30
0.0
 11
206.2217942190122
 21
258.4272674933692
 31
0.0
1001
GENIUS_GENOREF_13
1005
612
  0
LINE
  5
5C2
330
1F
100
AcDbEntity
  8
AM_7
  6
AM_DIN_G_W050x2
100
AcDbLine
 10
212.4217942190122
 20
258.4272674933692
 30
0.0
 11
212.4217942190122
 21
252.2272674933692
 31
0.0
1001
GENIUS_GENOREF_13
1005
612
  0
LINE
  5
5C3
330
1F
100
AcDbEntity
  8
AM_7
  6
AM_DIN_G_W050x2
100
AcDbLine
 10
212.4217942190122
 20
258.4272674933692
 30
0.0
 11
218.6217942190122
 21
258.4272674933692
 31
0.0
1001
GENIUS_GENOREF_13
1005
612
  0
LINE
  5
5C4
330
1F
100
AcDbEntity
  8
AM_7
  6
AM_DIN_G_W050x2
100
AcDbLine
 10
132.1651745543386
 20
62.10123994903307
 30
0.0
 11
138.3651745543386
 21
62.10123994903307
 31
0.0
1001
GENIUS_GENOREF_13
1005
611
  0
LINE
  5
5C5
330
1F
100
AcDbEntity
  8
AM_7
  6
AM_DIN_G_W050x2
100
AcDbLine
 10
132.1651745543386
 20
62.10123994903307
 30
0.0
 11
132.1651745543386
 21
68.30123994903306
 31
0.0
1001
GENIUS_GENOREF_13
1005
611
  0
LINE
  5
5C6
330
1F
100
AcDbEntity
  8
AM_7
  6
AM_DIN_G_W050x2
100
AcDbLine
 10
132.1651745543386
 20
62.10123994903307
 30
0.0
 11
125.9651745543386
 21
62.10123994903307
 31
0.0
1001
GENIUS_GENOREF_13
1005
611
  0
LINE
  5
5C7
330
1F
100
AcDbEntity
  8
AM_7
  6
AM_DIN_G_W050x2
100
AcDbLine
 10
132.1651745543386
 20
62.10123994903307
 30
0.0
 11
132.1651745543386
 21
55.90123994903308
 31
0.0
1001
GENIUS_GENOREF_13
1005
611
  0
LINE
  5
5C8
330
1F
100
AcDbEntity
  8
AM_7
  6
AM_DIN_G_W050x2
100
AcDbLine
 10
212.4217942190118
 20
62.10123994903307
 30
0.0
 11
218.6217942190118
 21
62.10123994903307
 31
0.0
1001
GENIUS_GENOREF_13
1005
610
  0
LINE
  5
5C9
330
1F
100
AcDbEntity
  8
AM_7
  6
AM_DIN_G_W050x2
100
AcDbLine
 10
212.4217942190118
 20
62.10123994903307
 30
0.0
 11
212.4217942190118
 21
68.30123994903306
 31
0.0
1001
GENIUS_GENOREF_13
1005
610
  0
LINE
  5
5CA
330
1F
100
AcDbEntity
  8
AM_7
  6
AM_DIN_G_W050x2
100
AcDbLine
 10
212.4217942190118
 20
62.10123994903307
 30
0.0
 11
206.2217942190118
 21
62.10123994903307
 31
0.0
1001
GENIUS_GENOREF_13
1005
610
  0
LINE
  5
5CB
330
1F
100
AcDbEntity
  8
AM_7
  6
AM_DIN_G_W050x2
100
AcDbLine
 10
212.4217942190118
 20
62.10123994903307
 30
0.0
 11
212.4217942190118
 21
55.90123994903308
 31
0.0
1001
GENIUS_GENOREF_13
1005
610
  0
LINE
  5
5CC
330
1F
100
AcDbEntity
  8
AM_7
  6
AM_DIN_G_W050x2
100
AcDbLine
 10
132.1370566264281
 20
142.3297219697299
 30
0.0
 11
138.3370566264281
 21
142.3297219697299
 31
0.0
1001
GENIUS_GENOREF_13
1005
60F
  0
LINE
  5
5CD
330
1F
100
AcDbEntity
  8
AM_7
  6
AM_DIN_G_W050x2
100
AcDbLine
 10
132.1370566264281
 20
142.3297219697299
 30
0.0
 11
132.1370566264281
 21
148.5297219697299
 31
0.0
1001
GENIUS_GENOREF_13
1005
60F
  0
LINE
  5
5CE
330
1F
100
AcDbEntity
  8
AM_7
  6
AM_DIN_G_W050x2
100
AcDbLine
 10
132.1370566264281
 20
142.3297219697299
 30
0.0
 11
125.9370566264281
 21
142.3297219697299
 31
0.0
1001
GENIUS_GENOREF_13
1005
60F
  0
LINE
  5
5CF
330
1F
100
AcDbEntity
  8
AM_7
  6
AM_DIN_G_W050x2
100
AcDbLine
 10
132.1370566264281
 20
142.3297219697299
 30
0.0
 11
132.1370566264281
 21
136.12972196973
 31
0.0
1001
GENIUS_GENOREF_13
1005
60F
  0
LINE
  5
5D0
330
1F
100
AcDbEntity
  8
AM_7
  6
AM_DIN_G_W050x2
100
AcDbLine
 10
212.4499121469221
 20
142.3297219697298
 30
0.0
 11
218.6499121469221
 21
142.3297219697298
 31
0.0
1001
GENIUS_GENOREF_13
1005
60E
  0
LINE
  5
5D1
330
1F
100
AcDbEntity
  8
AM_7
  6
AM_DIN_G_W050x2
100
AcDbLine
 10
212.4499121469221
 20
142.3297219697298
 30
0.0
 11
212.4499121469221
 21
148.5297219697298
 31
0.0
1001
GENIUS_GENOREF_13
1005
60E
  0
LINE
  5
5D2
330
1F
100
AcDbEntity
  8
AM_7
  6
AM_DIN_G_W050x2
100
AcDbLine
 10
212.4499121469221
 20
142.3297219697298
 30
0.0
 11
206.2499121469221
 21
142.3297219697298
 31
0.0
1001
GENIUS_GENOREF_13
1005
60E
  0
LINE
  5
5D3
330
1F
100
AcDbEntity
  8
AM_7
  6
AM_DIN_G_W050x2
100
AcDbLine
 10
212.4499121469221
 20
142.3297219697298
 30
0.0
 11
212.4499121469221
 21
136.1297219697298
 31
0.0
1001
GENIUS_GENOREF_13
1005
60E
  0
DIMENSION
  5
5D4
102
{ACAD_XDICTIONARY
360
5D5
102
}
102
{ACAD_REACTORS
330
5D6
102
}
330
1F
100
AcDbEntity
  8
AM_5
100
AcDbDimension
  2
*D33
 10
225.444343036837
 20
82.34114298870485
 30
0.0
 11
152.5036887592625
 21
109.634651331512
 31
0.0
 70
   163
 71
     5
 42
113.5000000000001
  3
AM_DIN$3
100
AcDbDiametricDimension
 15
119.1426257365134
 25
122.1179565740353
 35
0.0
 40
0.0
1001
ACAD
1000
DSTYLE
1002
{
1070
   271
1070
     1
1002
}
  0
DIMENSION
  5
5D7
330
1F
100
AcDbEntity
  8
0
 62
     0
100
AcDbDimension
  2
*D27
 10
134.6303785950266
 20
266.4348603018427
 30
0.0
 11
184.9240943206077
 21
309.3275048924597
 31
0.0
 70
   163
 71
     5
 42
98.99999999999977
  3
AM_DIN$3
100
AcDbDiametricDimension
 15
209.9565901783238
 25
330.6762943495684
 35
0.0
 40
0.0
1001
ACAD
1000
DSTYLE
1002
{
1070
   271
1070
     1
1002
}
  0
DIMENSION
  5
5D8
330
1F
100
AcDbEntity
  8
0
 62
     0
100
AcDbDimension
  2
*D28
 10
216.4609174439576
 20
278.5184154226198
 30
0.0
 11
152.0215468779069
 21
307.7522198705787
 31
0.0
 70
   163
 71
     5
 42
97.00000000000002
  3
AM_DIN$3
100
AcDbDiametricDimension
 15
128.1260513293927
 25
318.5927392287916
 35
0.0
 40
0.0
1001
ACAD
1000
DSTYLE
1002
{
1070
   271
1070
     1
1002
}
  0
DIMENSION
  5
5D9
102
{ACAD_XDICTIONARY
360
5DA
102
}
102
{ACAD_REACTORS
330
5DB
102
}
330
1F
100
AcDbEntity
  8
AM_5
100
AcDbDimension
  2
*D34
 10
367.6081512982802
 20
327.145799272328
 30
0.0
 11
376.6132546447369
 21
330.396143760517
 31
0.0
 70
    32
  1
%%c<>
 71
     5
 42
10.19999999999999
  3
AM_DIN$0
100
AcDbAlignedDimension
 13
357.4081512982802
 23
305.6631270160685
 33
0.0
 14
367.6081512982802
 24
305.6631270160685
 34
0.0
100
AcDbRotatedDimension
1001
ACAD
1000
DSTYLE
1002
{
1070
   271
1070
     1
1002
}
  0
DIMENSION
  5
5DC
102
{ACAD_XDICTIONARY
360
5DD
102
}
102
{ACAD_REACTORS
330
5DE
102
}
330
1F
100
AcDbEntity
  8
AM_5
100
AcDbDimension
  2
*D35
 10
366.2081512982803
 20
318.69156868259
 30
0.0
 11
376.8056386716955
 21
321.9415686825901
 31
0.0
 70
    32
  1
%%c<>
 71
     5
 42
7.306244584051285
  3
AM_DIN$0
100
AcDbAlignedDimension
 13
358.901906714229
 23
305.6131270160684
 33
0.0
 14
366.2081512982803
 24
305.6631270160685
 34
0.0
100
AcDbRotatedDimension
1001
ACAD
1000
DSTYLE
1002
{
1070
   271
1070
     1
1002
}
  0
DIMENSION
  5
5DF
102
{ACAD_XDICTIONARY
360
5E0
102
}
102
{ACAD_REACTORS
330
5E1
102
}
330
1F
100
AcDbEntity
  8
AM_5
100
AcDbDimension
  2
*D36
 10
472.8081512982804
 20
327.7488119583092
 30
0.0
 11
462.1081512982804
 21
330.9988119583092
 31
0.0
 70
    32
  1
%%c<>
 71
     5
 42
6.399999999999863
  3
AM_DIN$0
100
AcDbAlignedDimension
 13
479.2081512982803
 23
305.6631270160685
 33
0.0
 14
472.8081512982804
 24
305.6631270160685
 34
0.0
100
AcDbRotatedDimension
1001
ACAD
1000
DSTYLE
1002
{
1070
   271
1070
     1
1002
}
  0
DIMENSION
  5
5E2
102
{ACAD_XDICTIONARY
360
5E3
102
}
102
{ACAD_REACTORS
330
5E4
102
}
330
1F
100
AcDbEntity
  8
AM_5
100
AcDbDimension
  2
*D37
 10
474.6581512982802
 20
317.6631270160685
 30
0.0
 11
464.1331512982802
 21
320.9134715042575
 31
0.0
 70
    32
  1
%%c<>
 71
     5
 42
2.700000000000045
  3
AM_DIN$0
100
AcDbAlignedDimension
 13
477.3581512982802
 23
305.6631270160685
 33
0.0
 14
474.6581512982802
 24
305.6631270160685
 34
0.0
100
AcDbRotatedDimension
1001
ACAD
1000
DSTYLE
1002
{
1070
   271
1070
     1
1002
}
  0
LINE
  5
5E5
102
{ACAD_REACTORS
330
5E8
102
}
330
1F
100
AcDbEntity
  8
0
 62
     0
100
AcDbLine
 10
357.0081512982803
 20
302.7631270160685
 30
0.0
 11
357.0081512982803
 21
298.8631270160684
 31
0.0
  0
DIMENSION
  5
5E6
102
{ACAD_XDICTIONARY
360
5E7
102
}
102
{ACAD_REACTORS
330
5E8
102
}
330
1F
100
AcDbEntity
  8
AM_5
100
AcDbDimension
  2
*D38
 10
357.0081512982803
 20
286.8631270160683
 30
0.0
 11
362.5081512982803
 21
290.1131270160683
 31
0.0
 70
    32
  1
%%c<>
 71
     5
 42
11.0
  3
AM_DIN$0
100
AcDbAlignedDimension
 13
368.0081512982803
 23
298.8631270160683
 33
0.0
 14
357.0081512982803
 24
298.8631270160684
 34
0.0
100
AcDbRotatedDimension
1001
ACAD
1000
DSTYLE
1002
{
1070
   271
1070
     1
1002
}
  0
HATCH
  5
5E9
330
1F
100
AcDbEntity
  8
AM_8
 62
     1
100
AcDbHatch
 10
0.0
 20
0.0
 30
0.0
210
0.0
220
0.0
230
1.0
  2
_U
 70
     0
 71
     0
 91
        1
 92
        1
 93
       10
 72
     1
 10
369.7581512982803
 20
298.0631270160684
 11
371.6581512982803
 21
298.0631270160684
 72
     1
 10
371.6581512982803
 20
298.0631270160684
 11
371.6581512982803
 21
304.8631270160686
 72
     1
 10
371.6581512982803
 20
304.8631270160687
 11
367.6081512982802
 21
304.8631270160687
 72
     1
 10
367.6081512982802
 20
304.8631270160687
 11
367.6081512982802
 21
305.6131270160684
 72
     1
 10
367.6081512982802
 20
305.6131270160684
 11
366.2081512982803
 21
305.6131270160684
 72
     1
 10
366.2081512982803
 20
305.6131270160684
 11
366.2081512982803
 21
298.7931270160684
 72
     1
 10
366.2081512982803
 20
298.7931270160684
 11
368.0081512982803
 21
298.7931270160684
 72
     1
 10
368.0081512982803
 20
298.7931270160684
 11
368.0081512982803
 21
302.7631270160684
 72
     1
 10
368.0081512982803
 20
302.7631270160684
 11
369.7581512982803
 21
302.7631270160684
 72
     1
 10
369.7581512982803
 20
302.7631270160684
 11
369.7581512982803
 21
298.0631270160684
 97
        0
 75
     0
 76
     0
 52
45.0
 41
2.0
 77
     0
 78
     1
 53
45.0
 43
153.0096219960862
 44
230.1144397623931
 45
-1.414213562373094
 46
1.414213562373095
 79
     0
 98
        1
 10
153.0096219960862
 20
230.1144397623931
1001
GENIUS_GENODEF_13
1002
{
1000
HIER
1070
     0
1002
}
1002
{
1000
MANEDIT
1070
     0
1002
}
1002
{
1000
NOSEL
1070
     0
1002
}
1002
{
1000
BEHIND
1070
     0
1002
}
1002
{
1000
OTHER
1070
     0
1002
}
1002
{
1000
REACTOR
1002
}
1001
GENIUS_GENOBJ-N-HTC_13
1002
{
1000
OWNER
1000
GEN
1002
}
1001
GENIUS_GENHATCH_13
1002
{
1000
DATA
1040
45.0
1042
5.0
1000
_U
1070
     0
1011
370.161876375774
1021
303.5491780666871
1031
0.0
1002
}
1002
{
1000
UCS
1010
0.0
1020
0.0
1030
0.0
1010
1.0
1020
0.0
1030
0.0
1010
0.0
1020
1.0
1030
0.0
1002
}
  0
LINE
  5
5EA
102
{ACAD_REACTORS
330
5ED
102
}
330
1F
100
AcDbEntity
  8
0
 62
     0
100
AcDbLine
 10
472.5081512982803
 20
302.7631270160685
 30
0.0
 11
472.5081512982801
 21
298.8631270160683
 31
0.0
  0
DIMENSION
  5
5EB
102
{ACAD_XDICTIONARY
360
5EC
102
}
102
{ACAD_REACTORS
330
5ED
102
}
330
1F
100
AcDbEntity
  8
AM_5
100
AcDbDimension
  2
*D39
 10
472.5081512982801
 20
286.4420395691734
 30
0.0
 11
476.0081512982802
 21
286.4420395691734
 31
0.0
 70
   160
  1
%%c<>
 71
     5
 42
7.000000000000227
  3
AM_DIN$0
100
AcDbAlignedDimension
 13
479.5081512982803
 23
298.8631270160683
 33
0.0
 14
472.5081512982801
 24
298.8631270160683
 34
0.0
100
AcDbRotatedDimension
1001
ACAD
1000
DSTYLE
1002
{
1070
   271
1070
     1
1002
}
  0
DIMENSION
  5
5EE
102
{ACAD_XDICTIONARY
360
5EF
102
}
102
{ACAD_REACTORS
330
5F0
102
}
330
1F
100
AcDbEntity
  8
AM_5
100
AcDbDimension
  2
*D40
 10
336.7900723261353
 20
309.7631270160684
 30
0.0
 11
336.7900723261353
 21
319.0134156043216
 31
0.0
 70
   160
 71
     5
 42
4.90000000000009
  3
AM_DIN$0
100
AcDbAlignedDimension
 13
351.7581512982803
 23
304.8631270160683
 33
0.0
 14
351.7581512982803
 24
309.7631270160684
 34
0.0
 50
90.0
100
AcDbRotatedDimension
1001
ACAD
1000
DSTYLE
1002
{
1070
   271
1070
     0
1002
}
  0
DIMENSION
  5
5F1
102
{ACAD_XDICTIONARY
360
5F2
102
}
102
{ACAD_REACTORS
330
5F3
102
}
330
1F
100
AcDbEntity
  8
AM_5
100
AcDbDimension
  2
*D41
 10
388.2738319692192
 20
298.0631270160683
 30
0.0
 11
385.0238319692191
 21
288.9381270160685
 31
0.0
 70
    32
 71
     5
 42
4.700000000000045
  3
AM_DIN$0
100
AcDbAlignedDimension
 13
369.7581512982803
 23
302.7631270160684
 33
0.0
 14
354.4581512982802
 24
298.0631270160684
 34
0.0
 50
90.0
100
AcDbRotatedDimension
1001
ACAD
1000
DSTYLE
1002
{
1070
   271
1070
     1
1002
}
  0
DIMENSION
  5
5F4
102
{ACAD_XDICTIONARY
360
5F5
102
}
102
{ACAD_REACTORS
330
5F6
102
}
330
1F
100
AcDbEntity
  8
AM_5
100
AcDbDimension
  2
*D42
 10
399.4801735353513
 20
304.8631270160686
 30
0.0
 11
399.4801735353513
 21
291.5517616898975
 31
0.0
 70
   160
  1
<>
 71
     5
 42
0.7999999999998977
  3
AM_DIN$0
100
AcDbAlignedDimension
 13
367.6081512982802
 23
305.6631270160685
 33
0.0
 14
367.6081512982802
 24
304.8631270160687
 34
0.0
 50
90.0
100
AcDbRotatedDimension
  0
HATCH
  5
5F7
330
1F
100
AcDbEntity
  8
AM_8
 62
     1
100
AcDbHatch
 10
0.0
 20
0.0
 30
0.0
210
0.0
220
0.0
230
1.0
  2
_U
 70
     0
 71
     0
 91
        1
 92
        1
 93
       14
 72
     1
 10
348.642928258202
 20
309.7631270160684
 11
348.642928258202
 21
302.7631270160684
 72
     1
 10
348.642928258202
 20
302.7631270160684
 11
351.7281512982803
 21
302.7631270160684
 72
     1
 10
351.7281512982803
 20
302.7631270160684
 11
351.7281512982803
 21
298.0631270160684
 72
     1
 10
351.7281512982803
 20
298.0631270160684
 11
354.4581512982803
 21
298.0631270160684
 72
     1
 10
354.4581512982802
 20
298.0631270160684
 11
354.4581512982802
 21
302.7631270160684
 72
     1
 10
354.4581512982802
 20
302.7631270160684
 11
357.0081512982802
 21
302.7631270160684
 72
     1
 10
357.0081512982802
 20
302.7631270160684
 11
357.0081512982803
 21
298.8631270160684
 72
     1
 10
357.0081512982803
 20
298.8631270160684
 11
358.8081512982804
 21
298.8631270160684
 72
     1
 10
358.8081512982803
 20
298.8631270160684
 11
358.8081512982803
 21
305.6131270160684
 72
     1
 10
358.8081512982803
 20
305.6131270160684
 11
357.4081512982802
 21
305.6131270160684
 72
     1
 10
357.4081512982802
 20
305.6131270160684
 11
357.4081512982802
 21
304.8631270160685
 72
     1
 10
357.4081512982802
 20
304.8631270160685
 11
351.7581512982803
 21
304.8631270160683
 72
     1
 10
351.7581512982803
 20
304.8631270160683
 11
351.7581512982803
 21
309.7631270160684
 72
     1
 10
351.7581512982803
 20
309.7631270160684
 11
348.642928258202
 21
309.7631270160684
 97
        0
 75
     0
 76
     0
 52
45.0
 41
2.0
 77
     0
 78
     1
 53
45.0
 43
153.0096219960862
 44
230.1144397623931
 45
-1.414213562373094
 46
1.414213562373095
 79
     0
 98
        1
 10
153.0096219960862
 20
230.1144397623931
1001
GENIUS_GENODEF_13
1002
{
1000
HIER
1070
     0
1002
}
1002
{
1000
MANEDIT
1070
     0
1002
}
1002
{
1000
NOSEL
1070
     0
1002
}
1002
{
1000
BEHIND
1070
     0
1002
}
1002
{
1000
OTHER
1070
     0
1002
}
1002
{
1000
REACTOR
1002
}
1001
GENIUS_GENOBJ-N-HTC_13
1002
{
1000
OWNER
1000
GEN
1002
}
1001
GENIUS_GENHATCH_13
1002
{
1000
DATA
1040
45.0
1042
13.0
1000
_U
1070
     0
1011
350.392980046325
1021
307.8072637138577
1031
0.0
1002
}
1002
{
1000
UCS
1010
0.0
1020
0.0
1030
0.0
1010
1.0
1020
0.0
1030
0.0
1010
0.0
1020
1.0
1030
0.0
1002
}
1001
ACAD
1010
0.0
1020
0.0
1030
0.0
  0
DIMENSION
  5
5F8
102
{ACAD_XDICTIONARY
360
5F9
102
}
102
{ACAD_REACTORS
330
5FA
102
}
330
1F
100
AcDbEntity
  8
AM_5
100
AcDbDimension
  2
*D43
 10
376.8771916048268
 20
298.8631270160683
 30
0.0
 11
376.8771916048268
 21
288.9095787568637
 31
0.0
 70
   160
 71
     5
 42
0.7999999999999546
  3
AM_DIN$0
100
AcDbAlignedDimension
 13
354.4581512982802
 23
298.0631270160684
 33
0.0
 14
368.0081512982803
 24
298.8631270160683
 34
0.0
 50
90.0
100
AcDbRotatedDimension
  0
DIMENSION
  5
5FB
102
{ACAD_XDICTIONARY
360
5FC
102
}
102
{ACAD_REACTORS
330
5FD
102
}
330
1F
100
AcDbEntity
  8
AM_5
100
AcDbDimension
  2
*D44
 10
504.3853888993806
 20
305.6631270160685
 30
0.0
 11
501.1353888993806
 21
314.6145049688245
 31
0.0
 70
    32
 71
     5
 42
0.8000000000000682
  3
AM_DIN$0
100
AcDbAlignedDimension
 13
479.2081512982802
 23
304.8631270160685
 33
0.0
 14
479.2081512982802
 24
305.6631270160685
 34
0.0
 50
90.0
100
AcDbRotatedDimension
  0
HATCH
  5
5FE
330
1F
100
AcDbEntity
  8
AM_8
 62
     1
100
AcDbHatch
 10
0.0
 20
0.0
 30
0.0
210
0.0
220
0.0
230
1.0
  2
_U
 70
     0
 71
     0
 91
        1
 92
        1
 93
       10
 72
     1
 10
474.6581512982802
 20
298.8631270160683
 11
474.6581512982802
 21
305.6631270160685
 72
     1
 10
474.6581512982802
 20
305.6631270160685
 11
472.8081512982803
 21
305.6631270160685
 72
     1
 10
472.8081512982803
 20
305.6631270160685
 11
472.8081512982803
 21
304.8631270160687
 72
     1
 10
472.8081512982802
 20
304.8631270160687
 11
466.6581512982802
 21
304.8631270160687
 72
     1
 10
466.6581512982802
 20
304.8631270160687
 11
466.6581512982801
 21
298.0631270160684
 72
     1
 10
466.6581512982802
 20
298.0631270160684
 11
467.7581512982802
 21
298.0631270160684
 72
     1
 10
467.7581512982802
 20
298.0631270160684
 11
467.7581512982802
 21
302.7631270160685
 72
     1
 10
467.7581512982802
 20
302.7631270160685
 11
472.5081512982803
 21
302.7631270160685
 72
     1
 10
472.5081512982803
 20
302.7631270160685
 11
472.5081512982802
 21
298.8631270160683
 72
     1
 10
472.5081512982801
 20
298.8631270160683
 11
474.6581512982801
 21
298.8631270160683
 97
        0
 75
     0
 76
     0
 52
45.0
 41
2.0
 77
     0
 78
     1
 53
45.0
 43
153.0096219960862
 44
230.1144397623931
 45
-1.414213562373094
 46
1.414213562373095
 79
     0
 98
        1
 10
153.0096219960862
 20
230.1144397623931
1001
GENIUS_GENODEF_13
1002
{
1000
HIER
1070
     0
1002
}
1002
{
1000
MANEDIT
1070
     0
1002
}
1002
{
1000
NOSEL
1070
     0
1002
}
1002
{
1000
BEHIND
1070
     0
1002
}
1002
{
1000
OTHER
1070
     0
1002
}
1002
{
1000
REACTOR
1002
}
1001
GENIUS_GENOBJ-N-HTC_13
1002
{
1000
OWNER
1000
GEN
1002
}
1001
GENIUS_GENHATCH_13
1002
{
1000
DATA
1040
45.0
1042
5.0
1000
_U
1070
     0
1011
473.4714423902521
1021
301.8449762418125
1031
0.0
1002
}
1002
{
1000
UCS
1010
0.0
1020
0.0
1030
0.0
1010
1.0
1020
0.0
1030
0.0
1010
0.0
1020
1.0
1030
0.0
1002
}
1001
ACAD
1010
0.0
1020
0.0
1030
0.0
  0
HATCH
  5
5FF
330
1F
100
AcDbEntity
  8
AM_8
 62
     1
100
AcDbHatch
 10
0.0
 20
0.0
 30
0.0
210
0.0
220
0.0
230
1.0
  2
_U
 70
     0
 71
     0
 91
        1
 92
        1
 93
       14
 72
     1
 10
489.8733743383585
 20
302.7631270160684
 11
489.8733743383586
 21
309.7631270160684
 72
     1
 10
489.8733743383586
 20
309.7631270160684
 11
486.7633743383585
 21
309.7631270160684
 72
     1
 10
486.7633743383585
 20
309.7631270160684
 11
486.7633743383583
 21
304.8631270160684
 72
     1
 10
486.7633743383584
 20
304.8631270160685
 11
479.2081512982802
 21
304.8631270160685
 72
     1
 10
479.2081512982802
 20
304.8631270160685
 11
479.2081512982802
 21
305.6631270160685
 72
     1
 10
479.2081512982803
 20
305.6631270160685
 11
477.3581512982802
 21
305.6631270160685
 72
     1
 10
477.3581512982802
 20
305.6631270160685
 11
477.3581512982802
 21
298.8631270160683
 72
     1
 10
477.3581512982802
 20
298.8631270160683
 11
479.5081512982803
 21
298.8631270160683
 72
     1
 10
479.5081512982803
 20
298.8631270160683
 11
479.5081512982803
 21
302.7631270160684
 72
     1
 10
479.5081512982802
 20
302.7631270160685
 11
484.0581512982803
 21
302.7631270160685
 72
     1
 10
484.0581512982803
 20
302.7631270160685
 11
484.0581512982803
 21
298.0631270160684
 72
     1
 10
484.0581512982803
 20
298.0631270160684
 11
486.7633743383586
 21
298.0631270160684
 72
     1
 10
486.7633743383585
 20
298.0631270160684
 11
486.7633743383585
 21
302.7631270160684
 72
     1
 10
486.7633743383585
 20
302.7631270160684
 11
489.8733743383584
 21
302.7631270160684
 97
        0
 75
     0
 76
     0
 52
45.0
 41
2.0
 77
     0
 78
     1
 53
45.0
 43
153.0096219960862
 44
230.1144397623931
 45
-1.414213562373094
 46
1.414213562373095
 79
     0
 98
        1
 10
153.0096219960862
 20
230.1144397623931
1001
GENIUS_GENOBJ-N-HTC_13
1002
{
1000
OWNER
1000
GEN
1002
}
1001
GENIUS_GENODEF_13
1002
{
1000
HIER
1070
     0
1002
}
1002
{
1000
MANEDIT
1070
     0
1002
}
1002
{
1000
NOSEL
1070
     0
1002
}
1002
{
1000
BEHIND
1070
     0
1002
}
1002
{
1000
OTHER
1070
     0
1002
}
1002
{
1000
REACTOR
1002
}
1001
GENIUS_GENHATCH_13
1002
{
1000
DATA
1040
45.0
1042
5.0
1000
_U
1070
     0
1011
485.789724612845
1021
302.2124795728464
1031
0.0
1002
}
1002
{
1000
UCS
1010
0.0
1020
0.0
1030
0.0
1010
1.0
1020
0.0
1030
0.0
1010
0.0
1020
1.0
1030
0.0
1002
}
1001
ACAD
1010
0.0
1020
0.0
1030
0.0
  0
DIMENSION
  5
600
102
{ACAD_XDICTIONARY
360
601
102
}
102
{ACAD_REACTORS
330
602
102
}
330
1F
100
AcDbEntity
  8
AM_5
100
AcDbDimension
  2
*D45
 10
494.3853888993808
 20
298.0631270160684
 30
0.0
 11
491.1353888993807
 21
289.1117490633125
 31
0.0
 70
    32
 71
     5
 42
0.7999999999999546
  3
AM_DIN$0
100
AcDbAlignedDimension
 13
479.5081512982803
 23
298.8631270160683
 33
0.0
 14
484.0581512982803
 24
298.0631270160684
 34
0.0
 50
90.0
100
AcDbRotatedDimension
  0
DIMENSION
  5
603
102
{ACAD_XDICTIONARY
360
604
102
}
102
{ACAD_REACTORS
330
605
102
}
330
1F
100
AcDbEntity
  8
AM_5
100
AcDbDimension
  2
*D46
 10
124.5634843866752
 20
358.1613346140821
 30
0.0
 11
190.8347311702878
 21
358.1613346140821
 31
0.0
 70
   160
  1
{\Famgdt;o} <>
 71
     5
 42
95.45999999999997
  3
AM_DIN$0
100
AcDbAlignedDimension
 13
220.0234843866752
 23
346.2855773257057
 33
0.0
 14
124.5634843866752
 24
346.2855773257057
 34
0.0
 50
0.0000000000000127
100
AcDbRotatedDimension
1001
ACAD
1000
DSTYLE
1002
{
1070
   271
1070
     1
1002
}
  0
DIMENSION
  5
606
102
{ACAD_XDICTIONARY
360
607
102
}
102
{ACAD_REACTORS
330
608
102
}
330
1F
100
AcDbEntity
  8
AM_5
100
AcDbDimension
  2
*D47
 10
222.2434843866752
 20
368.2037752634987
 30
0.0
 11
189.6526034253005
 21
368.2037752634987
 31
0.0
 70
   160
  1
{\Famgdt;o} <>
 71
     5
 42
99.82999999999998
  3
AM_DIN$0
100
AcDbAlignedDimension
 13
122.4134843866752
 23
348.4705773257057
 33
0.0
 14
222.2434843866752
 24
348.4705773257057
 34
0.0
 50
0.0000000000000127
100
AcDbRotatedDimension
1001
ACAD
1000
DSTYLE
1002
{
1070
   271
1070
     0
1002
}
  0
DIMENSION
  5
609
102
{ACAD_XDICTIONARY
360
60A
102
}
102
{ACAD_REACTORS
330
60B
102
}
330
1F
100
AcDbEntity
  8
AM_5
100
AcDbDimension
  2
*D48
 10
218.1234843866752
 20
237.9169371264052
 30
0.0
 11
183.9299853865887
 21
237.9169371264052
 31
0.0
 70
   160
  1
{\Famgdt;o} <>
 71
     5
 42
91.66000000000002
  3
AM_DIN$0
100
AcDbAlignedDimension
 13
126.4634843866752
 23
252.7255773257057
 33
0.0
 14
218.1234843866752
 24
252.7255773257057
 34
0.0
 50
0.0000000000001145
100
AcDbRotatedDimension
1001
ACAD
1000
DSTYLE
1002
{
1070
   271
1070
     1
1002
}
  0
INSERT
  5
60C
330
1F
100
AcDbEntity
  8
AM_10
 62
     0
100
AcDbBlockReference
  2
*S49
 10
0.0
 20
0.0
 30
0.0
  0
INSERT
  5
60D
330
1F
100
AcDbEntity
  8
AM_10
 62
     0
100
AcDbBlockReference
  2
*S50
 10
0.0
 20
0.0
 30
0.0
  0
POINT
  5
60E
330
1F
100
AcDbEntity
  8
0
 62
     0
 60
     1
100
AcDbPoint
 10
245.5362700753295
 20
6.50416374646528
 30
0.0
1001
GENIUS_GENOBJ-N-CRS_13
1002
{
1000
OWNER
1000
GEN
1002
}
1001
GENIUS_GENODEF_13
1002
{
1000
HIER
1070
    10
1002
}
1002
{
1000
MANEDIT
1070
     0
1002
}
1002
{
1000
NOSEL
1070
     0
1002
}
1002
{
1000
BEHIND
1070
     0
1002
}
1002
{
1000
OTHER
1070
     0
1002
}
1002
{
1000
REACTOR
1002
}
1001
GENIUS_GENOENT_13
1002
{
1000
MYREF
1005
60E
1002
}
1002
{
1000
GRP
1005
0
1002
}
1001
GENIUS_GENOLIS_13
1002
{
1000
ENT
1005
5D3
1005
5D2
1005
5D1
1005
5D0
1002
}
  0
POINT
  5
60F
330
1F
100
AcDbEntity
  8
0
 62
     0
 60
     1
100
AcDbPoint
 10
165.2234145548356
 20
6.504163746465394
 30
0.0
1001
GENIUS_GENOBJ-N-CRS_13
1002
{
1000
OWNER
1000
GEN
1002
}
1001
GENIUS_GENODEF_13
1002
{
1000
HIER
1070
    10
1002
}
1002
{
1000
MANEDIT
1070
     0
1002
}
1002
{
1000
NOSEL
1070
     0
1002
}
1002
{
1000
BEHIND
1070
     0
1002
}
1002
{
1000
OTHER
1070
     0
1002
}
1002
{
1000
REACTOR
1002
}
1001
GENIUS_GENOENT_13
1002
{
1000
MYREF
1005
60F
1002
}
1002
{
1000
GRP
1005
0
1002
}
1001
GENIUS_GENOLIS_13
1002
{
1000
ENT
1005
5CF
1005
5CE
1005
5CD
1005
5CC
1002
}
  0
POINT
  5
610
330
1F
100
AcDbEntity
  8
0
 62
     0
 60
     1
100
AcDbPoint
 10
245.5081521474193
 20
-73.72431827423151
 30
0.0
1001
GENIUS_GENOBJ-N-CRS_13
1002
{
1000
OWNER
1000
GEN
1002
}
1001
GENIUS_GENODEF_13
1002
{
1000
HIER
1070
    10
1002
}
1002
{
1000
MANEDIT
1070
     0
1002
}
1002
{
1000
NOSEL
1070
     0
1002
}
1002
{
1000
BEHIND
1070
     0
1002
}
1002
{
1000
OTHER
1070
     0
1002
}
1002
{
1000
REACTOR
1002
}
1001
GENIUS_GENOENT_13
1002
{
1000
MYREF
1005
610
1002
}
1002
{
1000
GRP
1005
0
1002
}
1001
GENIUS_GENOLIS_13
1002
{
1000
ENT
1005
5CB
1005
5CA
1005
5C9
1005
5C8
1002
}
  0
POINT
  5
611
330
1F
100
AcDbEntity
  8
0
 62
     0
 60
     1
100
AcDbPoint
 10
165.2515324827461
 20
-73.72431827423151
 30
0.0
1001
GENIUS_GENOBJ-N-CRS_13
1002
{
1000
OWNER
1000
GEN
1002
}
1001
GENIUS_GENODEF_13
1002
{
1000
HIER
1070
    10
1002
}
1002
{
1000
MANEDIT
1070
     0
1002
}
1002
{
1000
NOSEL
1070
     0
1002
}
1002
{
1000
BEHIND
1070
     0
1002
}
1002
{
1000
OTHER
1070
     0
1002
}
1002
{
1000
REACTOR
1002
}
1001
GENIUS_GENOENT_13
1002
{
1000
MYREF
1005
611
1002
}
1002
{
1000
GRP
1005
0
1002
}
1001
GENIUS_GENOLIS_13
1002
{
1000
ENT
1005
5C7
1005
5C6
1005
5C5
1005
5C4
1002
}
  0
POINT
  5
612
330
1F
100
AcDbEntity
  8
0
 62
     0
 60
     1
100
AcDbPoint
 10
0.0281185700936817
 20
-80.22848153417561
 30
0.0
1001
GENIUS_GENOBJ-N-CRS_13
1002
{
1000
OWNER
1000
GEN
1002
}
1001
GENIUS_GENODEF_13
1002
{
1000
HIER
1070
    10
1002
}
1002
{
1000
MANEDIT
1070
     0
1002
}
1002
{
1000
NOSEL
1070
     0
1002
}
1002
{
1000
BEHIND
1070
     0
1002
}
1002
{
1000
OTHER
1070
     0
1002
}
1002
{
1000
REACTOR
1002
}
1001
GENIUS_GENOENT_13
1002
{
1000
MYREF
1005
612
1002
}
1002
{
1000
GRP
1005
0
1002
}
1001
GENIUS_GENOLIS_13
1002
{
1000
ENT
1005
5C3
1005
5C2
1005
5C1
1005
5C0
1002
}
  0
POINT
  5
613
330
1F
100
AcDbEntity
  8
0
 62
     0
 60
     1
100
AcDbPoint
 10
80.28473823476685
 20
-80.22848153417555
 30
0.0
1001
GENIUS_GENOBJ-N-CRS_13
1002
{
1000
OWNER
1000
GEN
1002
}
1001
GENIUS_GENODEF_13
1002
{
1000
HIER
1070
    10
1002
}
1002
{
1000
MANEDIT
1070
     0
1002
}
1002
{
1000
NOSEL
1070
     0
1002
}
1002
{
1000
BEHIND
1070
     0
1002
}
1002
{
1000
OTHER
1070
     0
1002
}
1002
{
1000
REACTOR
1002
}
1001
GENIUS_GENOENT_13
1002
{
1000
MYREF
1005
613
1002
}
1002
{
1000
GRP
1005
0
1002
}
1001
GENIUS_GENOLIS_13
1002
{
1000
ENT
1005
5BF
1005
5BE
1005
5BD
1005
5BC
1002
}
  0
POINT
  5
614
330
1F
100
AcDbEntity
  8
0
 62
     0
 60
     1
100
AcDbPoint
 10
80.31285616267714
 20
0.0000004865211736
 30
0.0
1001
GENIUS_GENOBJ-N-CRS_13
1002
{
1000
OWNER
1000
GEN
1002
}
1001
GENIUS_GENODEF_13
1002
{
1000
HIER
1070
    10
1002
}
1002
{
1000
MANEDIT
1070
     0
1002
}
1002
{
1000
NOSEL
1070
     0
1002
}
1002
{
1000
BEHIND
1070
     0
1002
}
1002
{
1000
OTHER
1070
     0
1002
}
1002
{
1000
REACTOR
1002
}
1001
GENIUS_GENOENT_13
1002
{
1000
MYREF
1005
614
1002
}
1002
{
1000
GRP
1005
0
1002
}
1001
GENIUS_GENOLIS_13
1002
{
1000
ENT
1005
5BB
1005
5BA
1005
5B9
1005
5B8
1002
}
  0
POINT
  5
615
330
1F
100
AcDbEntity
  8
0
 62
     0
 60
     1
100
AcDbPoint
 10
0.000000642183295
 20
0.0000004865213441
 30
0.0
1001
GENIUS_GENOBJ-N-CRS_13
1002
{
1000
OWNER
1000
GEN
1002
}
1001
GENIUS_GENODEF_13
1002
{
1000
HIER
1070
    10
1002
}
1002
{
1000
MANEDIT
1070
     0
1002
}
1002
{
1000
NOSEL
1070
     0
1002
}
1002
{
1000
BEHIND
1070
     0
1002
}
1002
{
1000
OTHER
1070
     0
1002
}
1002
{
1000
REACTOR
1002
}
1001
GENIUS_GENOENT_13
1002
{
1000
MYREF
1005
615
1002
}
1002
{
1000
GRP
1005
0
1002
}
1001
GENIUS_GENOLIS_13
1002
{
1000
ENT
1005
5B7
1005
5B6
1005
5B5
1005
5B4
1002
}
  0
POINT
  5
616
330
1F
100
AcDbEntity
  8
0
 62
     0
 60
     1
100
AcDbPoint
 10
0.000000642183295
 20
0.0000004865213441
 30
0.0
1001
GENIUS_GENODEF_13
1002
{
1000
HIER
1070
    10
1002
}
1002
{
1000
MANEDIT
1070
     0
1002
}
1002
{
1000
NOSEL
1070
     0
1002
}
1002
{
1000
BEHIND
1070
     0
1002
}
1002
{
1000
OTHER
1070
     0
1002
}
1002
{
1000
REACTOR
1002
}
1001
GENIUS_GENOLIS_13
1002
{
1000
ENT
1005
5B3
1005
5B2
1005
5B1
1005
5B0
1002
}
1001
GENIUS_GENOENT_13
1002
{
1000
MYREF
1005
616
1002
}
1002
{
1000
GRP
1005
0
1002
}
1001
GENIUS_GENOBJ-N-CRS_13
1002
{
1000
OWNER
1000
GEN
1002
}
  0
POINT
  5
617
330
1F
100
AcDbEntity
  8
0
 62
     0
 60
     1
100
AcDbPoint
 10
0.000000642183295
 20
0.0000004865213441
 30
0.0
1001
GENIUS_GENOENT_13
1002
{
1000
MYREF
1005
617
1002
}
1002
{
1000
GRP
1005
0
1002
}
1001
GENIUS_GENOLIS_13
1002
{
1000
ENT
1005
548
1005
547
1005
546
1005
545
1002
}
1001
GENIUS_GENOBJ-N-CRS_13
1002
{
1000
OWNER
1000
GEN
1002
}
1001
GENIUS_GENODEF_13
1002
{
1000
HIER
1070
    10
1002
}
1002
{
1000
MANEDIT
1070
     0
1002
}
1002
{
1000
NOSEL
1070
     0
1002
}
1002
{
1000
BEHIND
1070
     0
1002
}
1002
{
1000
OTHER
1070
     0
1002
}
1002
{
1000
REACTOR
1002
}
  0
ENDSEC
  0
SECTION
  2
OBJECTS
  0
DICTIONARY
  5
C
330
0
100
AcDbDictionary
281
     1
  3
ACAD_2007HEADERVARS_RT
350
7D8
  3
ACAD_COLOR
350
76
  3
ACAD_GROUP
350
D
  3
ACAD_IMAGE_DICT
350
50F
  3
ACAD_IMAGE_VARS
350
519
  3
ACAD_LAYOUT
350
1A
  3
ACAD_MATERIAL
350
75
  3
ACAD_MLEADERSTYLE
350
783
  3
ACAD_MLINESTYLE
350
17
  3
ACAD_PLOTSETTINGS
350
19
  3
ACAD_PLOTSTYLENAME
350
E
  3
ACAD_SCALELIST
350
771
  3
ACAD_TABLESTYLE
350
77
  3
ACAD_VISUALSTYLE
350
760
  3
ACDB_RECOMPOSE_DATA
350
7D6
  3
AcDbVariableDictionary
350
5E
  3
AcmDictionary
350
D8
  3
AMG
350
7C
  3
AMGSNAPSETTINGS
350
161
  3
DWGPROPS
350
7D7
  0
DICTIONARY
  5
40A
330
2
100
AcDbDictionary
280
     1
281
     1
  3
ACAD_LAYERSTATES
360
40B
  0
DICTIONARY
  5
250
330
24F
100
AcDbDictionary
280
     1
281
     1
  0
DICTIONARY
  5
7E1
330
242
100
AcDbDictionary
280
     1
281
     1
  3
ACAD_MTEXT_RT
360
7E2
  0
IMAGEDEF_REACTOR
  5
2D8
330
2D7
100
AcDbRasterImageDefReactor
 90
        2
330
2D7
  0
DICTIONARY
  5
7E9
330
667
100
AcDbDictionary
280
     1
281
     1
  3
ACAD_MTEXT_RT
360
7EA
  0
DICTIONARY
  5
7EB
330
66D
100
AcDbDictionary
280
     1
281
     1
  3
ACAD_MTEXT_RT
360
7EC
  0
DICTIONARY
  5
7ED
330
742
100
AcDbDictionary
280
     1
281
     1
  3
ACAD_MTEXT_RT
360
7EE
  0
DICTIONARY
  5
557
330
556
100
AcDbDictionary
280
     1
281
     1
  3
ACAD_DIMASSOC
360
558
  0
DICTIONARY
  5
5A7
330
5A6
100
AcDbDictionary
280
     1
281
     1
  3
ACAD_DIMASSOC
360
5A8
  0
DICTIONARY
  5
5AA
330
5A9
100
AcDbDictionary
280
     1
281
     1
  3
ACAD_DIMASSOC
360
5AB
  0
DICTIONARY
  5
5AD
330
5AC
100
AcDbDictionary
280
     1
281
     1
  3
ACAD_DIMASSOC
360
5AE
  0
DICTIONARY
  5
5D5
330
5D4
100
AcDbDictionary
280
     1
281
     1
  3
ACAD_DIMASSOC
360
5D6
  0
DICTIONARY
  5
5DA
330
5D9
100
AcDbDictionary
280
     1
281
     1
  3
ACAD_DIMASSOC
360
5DB
  0
DICTIONARY
  5
5DD
330
5DC
100
AcDbDictionary
280
     1
281
     1
  3
ACAD_DIMASSOC
360
5DE
  0
DICTIONARY
  5
5E0
330
5DF
100
AcDbDictionary
280
     1
281
     1
  3
ACAD_DIMASSOC
360
5E1
  0
DICTIONARY
  5
5E3
330
5E2
100
AcDbDictionary
280
     1
281
     1
  3
ACAD_DIMASSOC
360
5E4
  0
DICTIONARY
  5
5E7
330
5E6
100
AcDbDictionary
280
     1
281
     1
  3
ACAD_DIMASSOC
360
5E8
  0
DICTIONARY
  5
5EC
330
5EB
100
AcDbDictionary
280
     1
281
     1
  3
ACAD_DIMASSOC
360
5ED
  0
DICTIONARY
  5
5EF
330
5EE
100
AcDbDictionary
280
     1
281
     1
  3
ACAD_DIMASSOC
360
5F0
  0
DICTIONARY
  5
5F2
330
5F1
100
AcDbDictionary
280
     1
281
     1
  3
ACAD_DIMASSOC
360
5F3
  0
DICTIONARY
  5
5F5
330
5F4
100
AcDbDictionary
280
     1
281
     1
  3
ACAD_DIMASSOC
360
5F6
  0
DICTIONARY
  5
5F9
330
5F8
100
AcDbDictionary
280
     1
281
     1
  3
ACAD_DIMASSOC
360
5FA
  0
DICTIONARY
  5
5FC
330
5FB
100
AcDbDictionary
280
     1
281
     1
  3
ACAD_DIMASSOC
360
5FD
  0
DICTIONARY
  5
601
330
600
100
AcDbDictionary
280
     1
281
     1
  3
ACAD_DIMASSOC
360
602
  0
DICTIONARY
  5
604
330
603
100
AcDbDictionary
280
     1
281
     1
  3
ACAD_DIMASSOC
360
605
  0
DICTIONARY
  5
607
330
606
100
AcDbDictionary
280
     1
281
     1
  3
ACAD_DIMASSOC
360
608
  0
DICTIONARY
  5
60A
330
609
100
AcDbDictionary
280
     1
281
     1
  3
ACAD_DIMASSOC
360
60B
  0
DICTIONARY
  5
7D8
102
{ACAD_REACTORS
330
C
102
}
330
C
100
AcDbDictionary
281
     1
  3
DIMJOGANG
350
7D9
  0
DICTIONARY
  5
76
102
{ACAD_REACTORS
330
C
102
}
330
C
100
AcDbDictionary
281
     1
  0
DICTIONARY
  5
D
102
{ACAD_REACTORS
330
C
102
}
330
C
100
AcDbDictionary
281
     1
  0
DICTIONARY
  5
50F
102
{ACAD_REACTORS
330
C
102
}
330
C
100
AcDbDictionary
281
     1
  3
ACO-Logo
350
510
  0
RASTERVARIABLES
  5
519
102
{ACAD_REACTORS
330
C
102
}
330
C
100
AcDbRasterVariables
 90
        0
 70
     1
 71
     1
 72
     1
  0
DICTIONARY
  5
1A
102
{ACAD_REACTORS
330
C
102
}
330
C
100
AcDbDictionary
281
     1
  3
Layout1
350
51
  3
Layout2
350
56
  3
Model
350
22
  0
DICTIONARY
  5
75
102
{ACAD_REACTORS
330
C
102
}
330
C
100
AcDbDictionary
281
     1
  3
ByBlock
350
750
  3
ByLayer
350
748
  3
Global
350
758
  0
DICTIONARY
  5
783
102
{ACAD_REACTORS
330
C
102
}
330
C
100
AcDbDictionary
281
     1
  3
Standard
350
784
  0
DICTIONARY
  5
17
102
{ACAD_REACTORS
330
C
102
}
330
C
100
AcDbDictionary
281
     1
  3
Standard
350
18
  0
DICTIONARY
  5
19
102
{ACAD_REACTORS
330
C
102
}
330
C
100
AcDbDictionary
281
     1
  0
ACDBDICTIONARYWDFLT
  5
E
102
{ACAD_REACTORS
330
C
102
}
330
C
100
AcDbDictionary
281
     1
  3
Normal
350
F
100
AcDbDictionaryWithDefault
340
F
  0
DICTIONARY
  5
771
102
{ACAD_REACTORS
330
C
102
}
330
C
100
AcDbDictionary
281
     1
  3
A0
350
772
  3
A1
350
773
  3
A2
350
774
  3
A3
350
775
  3
A4
350
776
  3
A5
350
777
  3
A6
350
778
  3
A7
350
779
  3
A8
350
77A
  3
A9
350
77B
  3
B0
350
77C
  3
B1
350
77D
  3
B2
350
77E
  3
B3
350
77F
  3
B4
350
780
  3
B5
350
781
  3
B6
350
782
  0
DICTIONARY
  5
77
102
{ACAD_REACTORS
330
C
102
}
330
C
100
AcDbDictionary
281
     1
  3
Standard
350
78
  0
DICTIONARY
  5
760
102
{ACAD_REACTORS
330
C
102
}
330
C
100
AcDbDictionary
281
     1
  3
2dWireframe
350
766
  3
3D Hidden
350
768
  3
3dWireframe
350
767
  3
Basic
350
765
  3
Brighten
350
76C
  3
ColorChange
350
770
  3
Conceptual
350
769
  3
Dim
350
76B
  3
Facepattern
350
76F
  3
Flat
350
761
  3
FlatWithEdges
350
762
  3
Gouraud
350
763
  3
GouraudWithEdges
350
764
  3
Linepattern
350
76E
  3
Realistic
350
76A
  3
Thicken
350
76D
  0
XRECORD
  5
7D6
102
{ACAD_REACTORS
330
C
102
}
330
C
100
AcDbXrecord
280
     1
 90
        1
330
78
  0
DICTIONARY
  5
5E
102
{ACAD_REACTORS
330
C
102
}
330
C
100
AcDbDictionary
281
     1
  3
CANNOSCALE
350
7D1
  3
CMLEADERSTYLE
350
7D0
  3
CTABLESTYLE
350
145
  3
DIMASSOC
350
5F
  3
HIDETEXT
350
63
  3
INDEXCTL
350
7D3
  3
PROJECTNAME
350
170
  3
SORTENTS
350
7D2
  0
DICTIONARY
  5
D8
102
{ACAD_REACTORS
330
C
102
}
330
C
100
AcDbDictionary
281
     1
  3
AcmStdDictionary
350
E3
  3
AMDTSECTSYM_ARROWCOLOR
350
105
  0
DICTIONARY
  5
7C
102
{ACAD_REACTORS
330
C
102
}
330
C
100
AcDbDictionary
281
     1
  0
DICTIONARY
  5
161
102
{ACAD_REACTORS
330
C
102
}
330
C
100
AcDbDictionary
281
     1
  0
XRECORD
  5
7D7
102
{ACAD_REACTORS
330
C
102
}
330
C
100
AcDbXrecord
280
     1
  1
DWGPROPS COOKIE
  2

  3

  4

  6

  7

  8
jamoeller
  9

300
=
301
=
302
=
303
=
304
=
305
=
306
=
307
=
308
=
309
=
 40
0.0081384027777778
 41
2452544.484270219
 42
2455147.35370022
  1

 90
        0
  0
DICTIONARY
  5
40B
102
{ACAD_REACTORS
330
40A
102
}
330
40A
100
AcDbDictionary
281
     1
  0
XRECORD
  5
7E2
102
{ACAD_REACTORS
330
7E1
102
}
330
7E1
100
AcDbXrecord
280
     1
 40
30543.0
  1
\fArial|b0|i0|c0|p32;©
  0
XRECORD
  5
7EA
102
{ACAD_REACTORS
330
7E9
102
}
330
7E9
100
AcDbXrecord
280
     1
 40
2469.0
  1
\U+220599
  0
XRECORD
  5
7EC
102
{ACAD_REACTORS
330
7EB
102
}
330
7EB
100
AcDbXrecord
280
     1
 40
2451.0
  1
\U+220597
  0
XRECORD
  5
7EE
102
{ACAD_REACTORS
330
7ED
102
}
330
7ED
100
AcDbXrecord
280
     1
 40
3985.0
  1
\U+2205113.5
  0
DIMASSOC
  5
558
102
{ACAD_REACTORS
330
557
102
}
330
557
100
AcDbDimAssoc
330
556
 90
        2
 70
     0
 71
     0
  1
AcDbOsnapPointRef
 72
     3
331
51A
 73
     2
 91
        0
 40
0.0
 10
0.0
 20
0.0
 30
0.0
 75
     0
  0
DIMASSOC
  5
5A8
102
{ACAD_REACTORS
330
5A7
102
}
330
5A7
100
AcDbDimAssoc
330
5A6
 90
        3
 70
     0
 71
     0
  1
AcDbOsnapPointRef
 72
    13
331
537
 73
     0
 91
        0
 40
0.0
 10
0.0
 20
0.0
 30
2.000000000000000E+50
 75
     0
  1
AcDbOsnapPointRef
 72
     1
331
537
 73
     0
 91
        0
 40
0.0
 10
0.0
 20
0.0
 30
2.000000000000000E+50
 75
     0
  0
DIMASSOC
  5
5AB
102
{ACAD_REACTORS
330
5AA
102
}
330
5AA
100
AcDbDimAssoc
330
5A9
 90
        3
 70
     0
 71
     0
  1
AcDbOsnapPointRef
 72
    13
331
563
 73
     0
 91
        0
 40
0.0
 10
0.0
 20
0.0
 30
2.000000000000000E+50
 75
     0
  1
AcDbOsnapPointRef
 72
     1
331
563
 73
     0
 91
        0
 40
0.0
 10
0.0
 20
0.0
 30
2.000000000000000E+50
 75
     0
  0
DIMASSOC
  5
5AE
102
{ACAD_REACTORS
330
5AD
102
}
330
5AD
100
AcDbDimAssoc
330
5AC
 90
        3
 70
     0
 71
     0
  1
AcDbOsnapPointRef
 72
    13
331
5A2
 73
     0
 91
        0
 40
0.0
 10
0.0
 20
0.0
 30
2.000000000000000E+50
 75
     0
  1
AcDbOsnapPointRef
 72
    13
331
562
 73
     0
 91
        0
 40
0.0
 10
0.0
 20
0.0
 30
2.000000000000000E+50
 75
     0
  0
DIMASSOC
  5
5D6
102
{ACAD_REACTORS
330
5D5
102
}
330
5D5
100
AcDbDimAssoc
330
5D4
 90
        2
 70
     0
 71
     0
  1
AcDbOsnapPointRef
 72
     3
331
554
 73
     2
 91
        0
 40
0.0
 10
0.0
 20
0.0
 30
0.0
 75
     0
  0
DIMASSOC
  5
5DB
102
{ACAD_REACTORS
330
5DA
102
}
330
5DA
100
AcDbDimAssoc
330
5D9
 90
        3
 70
     0
 71
     0
  1
AcDbOsnapPointRef
 72
    13
331
565
 73
     0
 91
        0
 40
0.0
 10
0.0
 20
0.0
 30
2.000000000000000E+50
 75
     0
  1
AcDbOsnapPointRef
 72
    13
331
568
 73
     0
 91
        0
 40
0.0
 10
0.0
 20
0.0
 30
2.000000000000000E+50
 75
     0
  0
DIMASSOC
  5
5DE
102
{ACAD_REACTORS
330
5DD
102
}
330
5DD
100
AcDbDimAssoc
330
5DC
 90
        2
 70
     0
 71
     0
  1
AcDbOsnapPointRef
 72
    13
331
567
 73
     0
 91
        0
 40
0.0
 10
0.0
 20
0.0
 30
2.000000000000000E+50
 75
     0
  0
DIMASSOC
  5
5E1
102
{ACAD_REACTORS
330
5E0
102
}
330
5E0
100
AcDbDimAssoc
330
5DF
 90
        3
 70
     0
 71
     0
  1
AcDbOsnapPointRef
 72
    13
331
59F
 73
     0
 91
        0
 40
0.0
 10
0.0
 20
0.0
 30
2.000000000000000E+50
 75
     0
  1
AcDbOsnapPointRef
 72
    13
331
59C
 73
     0
 91
        0
 40
0.0
 10
0.0
 20
0.0
 30
2.000000000000000E+50
 75
     0
  0
DIMASSOC
  5
5E4
102
{ACAD_REACTORS
330
5E3
102
}
330
5E3
100
AcDbDimAssoc
330
5E2
 90
        3
 70
     0
 71
     0
  1
AcDbOsnapPointRef
 72
    13
331
59E
 73
     0
 91
        0
 40
0.0
 10
0.0
 20
0.0
 30
2.000000000000000E+50
 75
     0
  1
AcDbOsnapPointRef
 72
    13
331
59D
 73
     0
 91
        0
 40
0.0
 10
0.0
 20
0.0
 30
2.000000000000000E+50
 75
     0
  0
DIMASSOC
  5
5E8
102
{ACAD_REACTORS
330
5E7
102
}
330
5E7
100
AcDbDimAssoc
330
5E6
 90
        3
 70
     0
 71
     0
  1
AcDbOsnapPointRef
 72
     1
331
569
 73
     0
 91
        0
 40
0.0
 10
0.0
 20
0.0
 30
2.000000000000000E+50
 75
     0
  1
AcDbOsnapPointRef
 72
     1
331
5E5
 73
     0
 91
        0
 40
0.0
 10
0.0
 20
0.0
 30
2.000000000000000E+50
 75
     0
  0
DIMASSOC
  5
5ED
102
{ACAD_REACTORS
330
5EC
102
}
330
5EC
100
AcDbDimAssoc
330
5EB
 90
        3
 70
     0
 71
     0
  1
AcDbOsnapPointRef
 72
     1
331
5A0
 73
     0
 91
        0
 40
0.0
 10
0.0
 20
0.0
 30
2.000000000000000E+50
 75
     0
  1
AcDbOsnapPointRef
 72
     1
331
5EA
 73
     0
 91
        0
 40
0.0
 10
0.0
 20
0.0
 30
2.000000000000000E+50
 75
     0
  0
DIMASSOC
  5
5F0
102
{ACAD_REACTORS
330
5EF
102
}
330
5EF
100
AcDbDimAssoc
330
5EE
 90
        3
 70
     0
 71
     0
  1
AcDbOsnapPointRef
 72
    13
331
564
 73
     0
 91
        0
 40
0.0
 10
0.0
 20
0.0
 30
2.000000000000000E+50
 75
     0
  1
AcDbOsnapPointRef
 72
     1
331
564
 73
     0
 91
        0
 40
0.0
 10
0.0
 20
0.0
 30
2.000000000000000E+50
 75
     0
  0
DIMASSOC
  5
5F3
102
{ACAD_REACTORS
330
5F2
102
}
330
5F2
100
AcDbDimAssoc
330
5F1
 90
        3
 70
     0
 71
     0
  1
AcDbOsnapPointRef
 72
    13
331
53C
 73
     0
 91
        0
 40
0.0
 10
0.0
 20
0.0
 30
2.000000000000000E+50
 75
     0
  1
AcDbOsnapPointRef
 72
    13
331
55C
 73
     0
 91
        0
 40
0.0
 10
0.0
 20
0.0
 30
2.000000000000000E+50
 75
     0
  0
DIMASSOC
  5
5F6
102
{ACAD_REACTORS
330
5F5
102
}
330
5F5
100
AcDbDimAssoc
330
5F4
 90
        3
 70
     0
 71
     0
  1
AcDbOsnapPointRef
 72
    13
331
568
 73
     0
 91
        0
 40
0.0
 10
0.0
 20
0.0
 30
2.000000000000000E+50
 75
     0
  1
AcDbOsnapPointRef
 72
    13
331
5A1
 73
     0
 91
        0
 40
0.0
 10
0.0
 20
0.0
 30
2.000000000000000E+50
 75
     0
  0
DIMASSOC
  5
5FA
102
{ACAD_REACTORS
330
5F9
102
}
330
5F9
100
AcDbDimAssoc
330
5F8
 90
        3
 70
     0
 71
     0
  1
AcDbOsnapPointRef
 72
    13
331
55C
 73
     0
 91
        0
 40
0.0
 10
0.0
 20
0.0
 30
2.000000000000000E+50
 75
     0
  1
AcDbOsnapPointRef
 72
     1
331
569
 73
     0
 91
        0
 40
0.0
 10
0.0
 20
0.0
 30
2.000000000000000E+50
 75
     0
  0
DIMASSOC
  5
5FD
102
{ACAD_REACTORS
330
5FC
102
}
330
5FC
100
AcDbDimAssoc
330
5FB
 90
        3
 70
     0
 71
     0
  1
AcDbOsnapPointRef
 72
    13
331
53B
 73
     0
 91
        0
 40
0.0
 10
0.0
 20
0.0
 30
2.000000000000000E+50
 75
     0
  1
AcDbOsnapPointRef
 72
    13
331
53E
 73
     0
 91
        0
 40
0.0
 10
0.0
 20
0.0
 30
2.000000000000000E+50
 75
     0
  0
DIMASSOC
  5
602
102
{ACAD_REACTORS
330
601
102
}
330
601
100
AcDbDimAssoc
330
600
 90
        3
 70
     0
 71
     0
  1
AcDbOsnapPointRef
 72
     1
331
5A0
 73
     0
 91
        0
 40
0.0
 10
0.0
 20
0.0
 30
2.000000000000000E+50
 75
     0
  1
AcDbOsnapPointRef
 72
    13
331
59B
 73
     0
 91
        0
 40
0.0
 10
0.0
 20
0.0
 30
2.000000000000000E+50
 75
     0
  0
DIMASSOC
  5
605
102
{ACAD_REACTORS
330
604
102
}
330
604
100
AcDbDimAssoc
330
603
 90
        3
 70
     0
 71
     0
  1
AcDbOsnapPointRef
 72
    13
331
525
 73
     0
 91
        0
 40
0.0
 10
0.0
 20
0.0
 30
2.000000000000000E+50
 75
     0
  1
AcDbOsnapPointRef
 72
    13
331
528
 73
     0
 91
        0
 40
0.0
 10
0.0
 20
0.0
 30
2.000000000000000E+50
 75
     0
  0
DIMASSOC
  5
608
102
{ACAD_REACTORS
330
607
102
}
330
607
100
AcDbDimAssoc
330
606
 90
        3
 70
     0
 71
     0
  1
AcDbOsnapPointRef
 72
     1
331
51E
 73
     0
 91
        0
 40
0.0
 10
0.0
 20
0.0
 30
2.000000000000000E+50
 75
     0
  1
AcDbOsnapPointRef
 72
    13
331
51E
 73
     0
 91
        0
 40
0.0
 10
0.0
 20
0.0
 30
2.000000000000000E+50
 75
     0
  0
DIMASSOC
  5
60B
102
{ACAD_REACTORS
330
60A
102
}
330
60A
100
AcDbDimAssoc
330
609
 90
        3
 70
     0
 71
     0
  1
AcDbOsnapPointRef
 72
     1
331
52A
 73
     0
 91
        0
 40
0.0
 10
0.0
 20
0.0
 30
2.000000000000000E+50
 75
     0
  1
AcDbOsnapPointRef
 72
    13
331
523
 73
     0
 91
        0
 40
0.0
 10
0.0
 20
0.0
 30
2.000000000000000E+50
 75
     0
  0
XRECORD
  5
7D9
102
{ACAD_REACTORS
330
7D8
102
}
330
7D8
100
AcDbXrecord
280
     1
 40
1.570796326794896
  0
IMAGEDEF
  5
510
102
{ACAD_REACTORS
330
50F
330
2D8
102
}
330
50F
100
AcDbRasterImageDef
 90
        0
  1
L:\calink52\templates\ACO-Logo.jpg
 10
75.0
 20
57.0
 11
0.3527777777777778
 21
0.3527777777777778
280
     1
281
     5
  0
LAYOUT
  5
51
102
{ACAD_XDICTIONARY
360
7DC
102
}
102
{ACAD_REACTORS
330
1A
102
}
330
1A
100
AcDbPlotSettings
  1

  2
None
  4

  6

 40
0.0
 41
0.0
 42
0.0
 43
0.0
 44
0.0
 45
0.0
 46
0.0
 47
0.0
 48
0.0
 49
0.0
140
0.0
141
0.0
142
1.0
143
1.0
 70
   688
 72
     0
 73
     0
 74
     5
  7

 75
    16
147
1.0
148
0.0
149
0.0
100
AcDbLayout
  1
Layout1
 70
     1
 71
     1
 10
0.0
 20
0.0
 11
12.0
 21
9.0
 12
0.0
 22
0.0
 32
0.0
 14
0.0
 24
0.0
 34
0.0
 15
0.0
 25
0.0
 35
0.0
146
0.0
 13
0.0
 23
0.0
 33
0.0
 16
1.0
 26
0.0
 36
0.0
 17
0.0
 27
1.0
 37
0.0
 76
     0
330
50
  0
LAYOUT
  5
56
102
{ACAD_XDICTIONARY
360
7DE
102
}
102
{ACAD_REACTORS
330
1A
102
}
330
1A
100
AcDbPlotSettings
  1

  2
None
  4

  6

 40
0.0
 41
0.0
 42
0.0
 43
0.0
 44
0.0
 45
0.0
 46
0.0
 47
0.0
 48
0.0
 49
0.0
140
0.0
141
0.0
142
1.0
143
1.0
 70
   688
 72
     0
 73
     0
 74
     5
  7

 75
    16
147
1.0
148
0.0
149
0.0
100
AcDbLayout
  1
Layout2
 70
     1
 71
     2
 10
0.0
 20
0.0
 11
12.0
 21
9.0
 12
0.0
 22
0.0
 32
0.0
 14
0.0
 24
0.0
 34
0.0
 15
0.0
 25
0.0
 35
0.0
146
0.0
 13
0.0
 23
0.0
 33
0.0
 16
1.0
 26
0.0
 36
0.0
 17
0.0
 27
1.0
 37
0.0
 76
     0
330
55
  0
LAYOUT
  5
22
102
{ACAD_XDICTIONARY
360
7DA
102
}
102
{ACAD_REACTORS
330
1A
102
}
330
1A
100
AcDbPlotSettings
  1

  2
none_device
  4
ANSI_A_(8.50_x_11.00_Inches)
  6

 40
6.349999904632568
 41
19.04999923706055
 42
6.350006103515625
 43
19.04998779296875
 44
215.8999938964844
 45
279.3999938964844
 46
0.0
 47
0.0
 48
0.0
 49
0.0
140
0.0
141
0.0
142
1.0
143
78.436453180766
 70
 11952
 72
     0
 73
     1
 74
     0
  7

 75
     0
147
0.0127491741332998
148
0.0
149
0.0
100
AcDbLayout
  1
Model
 70
     1
 71
     0
 10
0.0
 20
0.0
 11
12.0
 21
9.0
 12
0.0
 22
0.0
 32
0.0
 14
0.0
 24
0.0
 34
0.0
 15
0.0
 25
0.0
 35
0.0
146
0.0
 13
0.0
 23
0.0
 33
0.0
 16
1.0
 26
0.0
 36
0.0
 17
0.0
 27
1.0
 37
0.0
 76
     0
330
1F
331
746
  0
MATERIAL
  5
750
102
{ACAD_XDICTIONARY
360
751
102
}
102
{ACAD_REACTORS
330
75
102
}
330
75
100
AcDbMaterial
  1
ByBlock
 72
     0
 43
0.0008202099737533
 43
0.0
 43
0.0
 43
0.0
 43
0.0
 43
0.0008202099737533
 43
0.0
 43
0.0
 43
0.0
 43
0.0
 43
1.0
 43
0.0
 43
0.0
 43
0.0
 43
0.0
 43
1.0
 77
     0
 47
0.0008202099737533
 47
0.0
 47
0.0
 47
0.0
 47
0.0
 47
0.0008202099737533
 47
0.0
 47
0.0
 47
0.0
 47
0.0
 47
1.0
 47
0.0
 47
0.0
 47
0.0
 47
0.0
 47
1.0
171
     0
 49
0.0008202099737533
 49
0.0
 49
0.0
 49
0.0
 49
0.0
 49
0.0008202099737533
 49
0.0
 49
0.0
 49
0.0
 49
0.0
 49
1.0
 49
0.0
 49
0.0
 49
0.0
 49
0.0
 49
1.0
175
     0
142
0.0008202099737533
142
0.0
142
0.0
142
0.0
142
0.0
142
0.0008202099737533
142
0.0
142
0.0
142
0.0
142
0.0
142
1.0
142
0.0
142
0.0
142
0.0
142
0.0
142
1.0
179
     0
144
0.0008202099737533
144
0.0
144
0.0
144
0.0
144
0.0
144
0.0008202099737533
144
0.0
144
0.0
144
0.0
144
0.0
144
1.0
144
0.0
144
0.0
144
0.0
144
0.0
144
1.0
147
0.0008202099737533
147
0.0
147
0.0
147
0.0
147
0.0
147
0.0008202099737533
147
0.0
147
0.0
147
0.0
147
0.0
147
1.0
147
0.0
147
0.0
147
0.0
147
0.0
147
1.0
  0
MATERIAL
  5
748
102
{ACAD_XDICTIONARY
360
749
102
}
102
{ACAD_REACTORS
330
75
102
}
330
75
100
AcDbMaterial
  1
ByLayer
 72
     0
 43
0.0008202099737533
 43
0.0
 43
0.0
 43
0.0
 43
0.0
 43
0.0008202099737533
 43
0.0
 43
0.0
 43
0.0
 43
0.0
 43
1.0
 43
0.0
 43
0.0
 43
0.0
 43
0.0
 43
1.0
 77
     0
 47
0.0008202099737533
 47
0.0
 47
0.0
 47
0.0
 47
0.0
 47
0.0008202099737533
 47
0.0
 47
0.0
 47
0.0
 47
0.0
 47
1.0
 47
0.0
 47
0.0
 47
0.0
 47
0.0
 47
1.0
171
     0
 49
0.0008202099737533
 49
0.0
 49
0.0
 49
0.0
 49
0.0
 49
0.0008202099737533
 49
0.0
 49
0.0
 49
0.0
 49
0.0
 49
1.0
 49
0.0
 49
0.0
 49
0.0
 49
0.0
 49
1.0
175
     0
142
0.0008202099737533
142
0.0
142
0.0
142
0.0
142
0.0
142
0.0008202099737533
142
0.0
142
0.0
142
0.0
142
0.0
142
1.0
142
0.0
142
0.0
142
0.0
142
0.0
142
1.0
179
     0
144
0.0008202099737533
144
0.0
144
0.0
144
0.0
144
0.0
144
0.0008202099737533
144
0.0
144
0.0
144
0.0
144
0.0
144
1.0
144
0.0
144
0.0
144
0.0
144
0.0
144
1.0
147
0.0008202099737533
147
0.0
147
0.0
147
0.0
147
0.0
147
0.0008202099737533
147
0.0
147
0.0
147
0.0
147
0.0
147
1.0
147
0.0
147
0.0
147
0.0
147
0.0
147
1.0
  0
MATERIAL
  5
758
102
{ACAD_XDICTIONARY
360
759
102
}
102
{ACAD_REACTORS
330
75
102
}
330
75
100
AcDbMaterial
  1
Global
 72
     0
 43
0.0008202099737533
 43
0.0
 43
0.0
 43
0.0
 43
0.0
 43
0.0008202099737533
 43
0.0
 43
0.0
 43
0.0
 43
0.0
 43
1.0
 43
0.0
 43
0.0
 43
0.0
 43
0.0
 43
1.0
 77
     0
 47
0.0008202099737533
 47
0.0
 47
0.0
 47
0.0
 47
0.0
 47
0.0008202099737533
 47
0.0
 47
0.0
 47
0.0
 47
0.0
 47
1.0
 47
0.0
 47
0.0
 47
0.0
 47
0.0
 47
1.0
171
     0
 49
0.0008202099737533
 49
0.0
 49
0.0
 49
0.0
 49
0.0
 49
0.0008202099737533
 49
0.0
 49
0.0
 49
0.0
 49
0.0
 49
1.0
 49
0.0
 49
0.0
 49
0.0
 49
0.0
 49
1.0
175
     0
142
0.0008202099737533
142
0.0
142
0.0
142
0.0
142
0.0
142
0.0008202099737533
142
0.0
142
0.0
142
0.0
142
0.0
142
1.0
142
0.0
142
0.0
142
0.0
142
0.0
142
1.0
179
     0
144
0.0008202099737533
144
0.0
144
0.0
144
0.0
144
0.0
144
0.0008202099737533
144
0.0
144
0.0
144
0.0
144
0.0
144
1.0
144
0.0
144
0.0
144
0.0
144
0.0
144
1.0
147
0.0008202099737533
147
0.0
147
0.0
147
0.0
147
0.0
147
0.0008202099737533
147
0.0
147
0.0
147
0.0
147
0.0
147
1.0
147
0.0
147
0.0
147
0.0
147
0.0
147
1.0
  0
MLEADERSTYLE
  5
784
102
{ACAD_REACTORS
330
783
102
}
330
783
100
AcDbMLeaderStyle
170
     2
171
     1
172
     0
 90
        2
 40
0.0
 41
0.0
173
     1
 91
-1056964608
340
14
 92
       -2
290
     1
 42
2.0
291
     1
 43
0.36
  3
Standard
 44
4.0
300

342
11
174
     1
178
     6
175
     1
176
     0
 93
-1056964608
 45
4.0
292
     0
297
     0
 46
4.0
 94
-1056964608
 47
1.0
 49
1.0
140
1.0
293
     1
141
0.0
294
     1
177
     0
142
1.0
295
     0
296
     0
143
0.125
1001
ACAD_MLEADERVER
1070
     2
  0
MLINESTYLE
  5
18
102
{ACAD_REACTORS
330
17
102
}
330
17
100
AcDbMlineStyle
  2
STANDARD
 70
     0
  3

 62
   256
 51
90.0
 52
90.0
 71
     2
 49
0.5
 62
   256
  6
BYLAYER
 49
-0.5
 62
   256
  6
BYLAYER
  0
ACDBPLACEHOLDER
  5
F
102
{ACAD_REACTORS
330
E
102
}
330
E
  0
SCALE
  5
772
102
{ACAD_REACTORS
330
771
102
}
330
771
100
AcDbScale
 70
     0
300
1:1
140
1.0
141
1.0
290
     1
  0
SCALE
  5
773
102
{ACAD_REACTORS
330
771
102
}
330
771
100
AcDbScale
 70
     0
300
1:2
140
1.0
141
2.0
290
     0
  0
SCALE
  5
774
102
{ACAD_REACTORS
330
771
102
}
330
771
100
AcDbScale
 70
     0
300
1:4
140
1.0
141
4.0
290
     0
  0
SCALE
  5
775
102
{ACAD_REACTORS
330
771
102
}
330
771
100
AcDbScale
 70
     0
300
1:5
140
1.0
141
5.0
290
     0
  0
SCALE
  5
776
102
{ACAD_REACTORS
330
771
102
}
330
771
100
AcDbScale
 70
     0
300
1:8
140
1.0
141
8.0
290
     0
  0
SCALE
  5
777
102
{ACAD_REACTORS
330
771
102
}
330
771
100
AcDbScale
 70
     0
300
1:10
140
1.0
141
10.0
290
     0
  0
SCALE
  5
778
102
{ACAD_REACTORS
330
771
102
}
330
771
100
AcDbScale
 70
     0
300
1:16
140
1.0
141
16.0
290
     0
  0
SCALE
  5
779
102
{ACAD_REACTORS
330
771
102
}
330
771
100
AcDbScale
 70
     0
300
1:20
140
1.0
141
20.0
290
     0
  0
SCALE
  5
77A
102
{ACAD_REACTORS
330
771
102
}
330
771
100
AcDbScale
 70
     0
300
1:30
140
1.0
141
30.0
290
     0
  0
SCALE
  5
77B
102
{ACAD_REACTORS
330
771
102
}
330
771
100
AcDbScale
 70
     0
300
1:40
140
1.0
141
40.0
290
     0
  0
SCALE
  5
77C
102
{ACAD_REACTORS
330
771
102
}
330
771
100
AcDbScale
 70
     0
300
1:50
140
1.0
141
50.0
290
     0
  0
SCALE
  5
77D
102
{ACAD_REACTORS
330
771
102
}
330
771
100
AcDbScale
 70
     0
300
1:100
140
1.0
141
100.0
290
     0
  0
SCALE
  5
77E
102
{ACAD_REACTORS
330
771
102
}
330
771
100
AcDbScale
 70
     0
300
2:1
140
2.0
141
1.0
290
     0
  0
SCALE
  5
77F
102
{ACAD_REACTORS
330
771
102
}
330
771
100
AcDbScale
 70
     0
300
4:1
140
4.0
141
1.0
290
     0
  0
SCALE
  5
780
102
{ACAD_REACTORS
330
771
102
}
330
771
100
AcDbScale
 70
     0
300
8:1
140
8.0
141
1.0
290
     0
  0
SCALE
  5
781
102
{ACAD_REACTORS
330
771
102
}
330
771
100
AcDbScale
 70
     0
300
10:1
140
10.0
141
1.0
290
     0
  0
SCALE
  5
782
102
{ACAD_REACTORS
330
771
102
}
330
771
100
AcDbScale
 70
     0
300
100:1
140
100.0
141
1.0
290
     0
  0
TABLESTYLE
  5
78
102
{ACAD_XDICTIONARY
360
7D4
102
}
102
{ACAD_REACTORS
330
77
102
}
330
77
100
AcDbTableStyle
  3
Standard
 70
     0
 71
     0
 40
1.5
 41
1.5
280
     0
281
     0
  7
Standard
140
4.5
170
     2
 62
     0
 63
     7
283
     0
274
    -2
284
     1
 64
     0
275
    -2
285
     1
 65
     0
276
    -2
286
     1
 66
     0
277
    -2
287
     1
 67
     0
278
    -2
288
     1
 68
     0
279
    -2
289
     1
 69
     0
  7
Standard
140
6.0
170
     5
 62
     0
 63
     7
283
     0
274
    -2
284
     1
 64
     0
275
    -2
285
     1
 65
     0
276
    -2
286
     1
 66
     0
277
    -2
287
     1
 67
     0
278
    -2
288
     1
 68
     0
279
    -2
289
     1
 69
     0
  7
Standard
140
4.5
170
     5
 62
     0
 63
     7
283
     0
274
    -2
284
     1
 64
     0
275
    -2
285
     1
 65
     0
276
    -2
286
     1
 66
     0
277
    -2
287
     1
 67
     0
278
    -2
288
     1
 68
     0
279
    -2
289
     1
 69
     0
  0
VISUALSTYLE
  5
766
102
{ACAD_REACTORS
330
760
102
}
330
760
100
AcDbVisualStyle
  2
2dWireframe
 70
     4
 71
     0
 72
     2
 73
     0
 90
        0
 40
-0.6
 41
-30.0
 62
     5
 63
     7
 74
     1
 91
        4
 64
     7
 65
   257
 75
     1
175
     1
 42
1.0
 92
        0
 66
   257
 43
1.0
 76
     1
 77
     6
 78
     2
 67
     7
 79
     5
170
     0
171
     0
290
     0
174
     0
 93
        1
 44
0.0
173
     0
291
     0
 45
0.0
1001
ACAD
1000
AcDbSavedByObjectVersion
1070
     0
  0
VISUALSTYLE
  5
768
102
{ACAD_REACTORS
330
760
102
}
330
760
100
AcDbVisualStyle
  2
3D Hidden
 70
     6
 71
     1
 72
     2
 73
     2
 90
        0
 40
-0.6
 41
-30.0
 62
     5
 63
     7
 74
     2
 91
        2
 64
     7
 65
   257
 75
     2
175
     1
 42
40.0
 92
        0
 66
   257
 43
1.0
 76
     1
 77
     6
 78
     2
 67
     7
 79
     3
170
     0
171
     0
290
     0
174
     0
 93
        1
 44
0.0
173
     0
291
     0
 45
0.0
1001
ACAD
1000
AcDbSavedByObjectVersion
1070
     0
  0
VISUALSTYLE
  5
767
102
{ACAD_REACTORS
330
760
102
}
330
760
100
AcDbVisualStyle
  2
3dWireframe
 70
     5
 71
     0
 72
     2
 73
     0
 90
        0
 40
-0.6
 41
-30.0
 62
     5
 63
     7
 74
     1
 91
        4
 64
     7
 65
   257
 75
     1
175
     1
 42
1.0
 92
        0
 66
   257
 43
1.0
 76
     1
 77
     6
 78
     2
 67
     7
 79
     5
170
     0
171
     0
290
     0
174
     0
 93
        1
 44
0.0
173
     0
291
     0
 45
0.0
1001
ACAD
1000
AcDbSavedByObjectVersion
1070
     0
  0
VISUALSTYLE
  5
765
102
{ACAD_REACTORS
330
760
102
}
330
760
100
AcDbVisualStyle
  2
Basic
 70
     7
 71
     1
 72
     0
 73
     1
 90
        0
 40
-0.6
 41
-30.0
 62
     5
 63
     7
 74
     0
 91
        4
 64
     7
 65
   257
 75
     1
175
     1
 42
1.0
 92
        8
 66
     7
 43
1.0
 76
     1
 77
     6
 78
     2
 67
     7
 79
     5
170
     0
171
     0
290
     0
174
     0
 93
        1
 44
0.0
173
     0
291
     1
 45
0.0
1001
ACAD
1000
AcDbSavedByObjectVersion
1070
     0
  0
VISUALSTYLE
  5
76C
102
{ACAD_REACTORS
330
760
102
}
330
760
100
AcDbVisualStyle
  2
Brighten
 70
    12
 71
     2
 72
     2
 73
     0
 90
        0
 40
-0.6
 41
-30.0
 62
     5
 63
     7
 74
     1
 91
        4
 64
     7
 65
   257
 75
     1
175
     1
 42
1.0
 92
        8
 66
     7
 43
1.0
 76
     1
 77
     6
 78
     2
 67
     7
 79
     5
170
     0
171
     0
290
     0
174
     0
 93
        1
 44
50.0
173
     0
291
     1
 45
0.0
1001
ACAD
1000
AcDbSavedByObjectVersion
1070
     0
  0
VISUALSTYLE
  5
770
102
{ACAD_REACTORS
330
760
102
}
330
760
100
AcDbVisualStyle
  2
ColorChange
 70
    16
 71
     2
 72
     2
 73
     3
 90
        0
 40
-0.6
 41
-30.0
 62
     5
 63
     8
 74
     1
 91
        4
 64
     7
 65
   257
 75
     1
175
     1
 42
1.0
 92
        8
 66
     8
 43
1.0
 76
     1
 77
     6
 78
     2
 67
     7
 79
     5
170
     0
171
     0
290
     0
174
     0
 93
        1
 44
0.0
173
     0
291
     1
 45
0.0
1001
ACAD
1000
AcDbSavedByObjectVersion
1070
     0
  0
VISUALSTYLE
  5
769
102
{ACAD_REACTORS
330
760
102
}
330
760
100
AcDbVisualStyle
  2
Conceptual
 70
     9
 71
     3
 72
     2
 73
     0
 90
        0
 40
-0.6
 41
-30.0
 62
     5
 63
     7
 74
     2
 91
        2
 64
     7
 65
   257
 75
     1
175
     1
 42
40.0
 92
        8
 66
     7
 43
1.0
 76
     1
 77
     6
 78
     2
 67
     7
 79
     3
170
     0
171
     0
290
     0
174
     0
 93
        1
 44
0.0
173
     0
291
     0
 45
0.0
1001
ACAD
1000
AcDbSavedByObjectVersion
1070
     0
  0
VISUALSTYLE
  5
76B
102
{ACAD_REACTORS
330
760
102
}
330
760
100
AcDbVisualStyle
  2
Dim
 70
    11
 71
     2
 72
     2
 73
     0
 90
        0
 40
-0.6
 41
-30.0
 62
     5
 63
     7
 74
     1
 91
        4
 64
     7
 65
   257
 75
     1
175
     1
 42
1.0
 92
        8
 66
     7
 43
1.0
 76
     1
 77
     6
 78
     2
 67
     7
 79
     5
170
     0
171
     0
290
     0
174
     0
 93
        1
 44
-50.0
173
     0
291
     1
 45
0.0
1001
ACAD
1000
AcDbSavedByObjectVersion
1070
     0
  0
VISUALSTYLE
  5
76F
102
{ACAD_REACTORS
330
760
102
}
330
760
100
AcDbVisualStyle
  2
Facepattern
 70
    15
 71
     2
 72
     2
 73
     0
 90
        0
 40
-0.6
 41
-30.0
 62
     5
 63
     7
 74
     1
 91
        4
 64
     7
 65
   257
 75
     1
175
     1
 42
1.0
 92
        8
 66
     7
 43
1.0
 76
     1
 77
     6
 78
     2
 67
     7
 79
     5
170
     0
171
     0
290
     0
174
     0
 93
        1
 44
0.0
173
     0
291
     1
 45
0.0
1001
ACAD
1000
AcDbSavedByObjectVersion
1070
     0
  0
VISUALSTYLE
  5
761
102
{ACAD_REACTORS
330
760
102
}
330
760
100
AcDbVisualStyle
  2
Flat
 70
     0
 71
     2
 72
     1
 73
     1
 90
        2
 40
-0.6
 41
30.0
 62
     5
 63
     7
 74
     0
 91
        4
 64
     7
 65
   257
 75
     1
175
     1
 42
1.0
 92
        8
 66
     7
 43
1.0
 76
     1
 77
     6
 78
     2
 67
     7
 79
     5
170
     0
171
     0
290
     0
174
     0
 93
       13
 44
0.0
173
     0
291
     1
 45
0.0
1001
ACAD
1000
AcDbSavedByObjectVersion
1070
     0
  0
VISUALSTYLE
  5
762
102
{ACAD_REACTORS
330
760
102
}
330
760
100
AcDbVisualStyle
  2
FlatWithEdges
 70
     1
 71
     2
 72
     1
 73
     1
 90
        2
 40
-0.6
 41
30.0
 62
     5
 63
     7
 74
     1
 91
        4
 64
     7
 65
   257
 75
     1
175
     1
 42
1.0
 92
        0
 66
   257
 43
1.0
 76
     1
 77
     6
 78
     2
 67
     7
 79
     5
170
     0
171
     0
290
     0
174
     0
 93
       13
 44
0.0
173
     0
291
     1
 45
0.0
1001
ACAD
1000
AcDbSavedByObjectVersion
1070
     0
  0
VISUALSTYLE
  5
763
102
{ACAD_REACTORS
330
760
102
}
330
760
100
AcDbVisualStyle
  2
Gouraud
 70
     2
 71
     2
 72
     2
 73
     1
 90
        2
 40
-0.6
 41
30.0
 62
     5
 63
     7
 74
     0
 91
        4
 64
     7
 65
   257
 75
     1
175
     1
 42
1.0
 92
        0
 66
     7
 43
1.0
 76
     1
 77
     6
 78
     2
 67
     7
 79
     5
170
     0
171
     0
290
     0
174
     0
 93
       13
 44
0.0
173
     0
291
     1
 45
0.0
1001
ACAD
1000
AcDbSavedByObjectVersion
1070
     0
  0
VISUALSTYLE
  5
764
102
{ACAD_REACTORS
330
760
102
}
330
760
100
AcDbVisualStyle
  2
GouraudWithEdges
 70
     3
 71
     2
 72
     2
 73
     1
 90
        2
 40
-0.6
 41
30.0
 62
     5
 63
     7
 74
     1
 91
        4
 64
     7
 65
   257
 75
     1
175
     1
 42
1.0
 92
        0
 66
   257
 43
1.0
 76
     1
 77
     6
 78
     2
 67
     7
 79
     5
170
     0
171
     0
290
     0
174
     0
 93
       13
 44
0.0
173
     0
291
     1
 45
0.0
1001
ACAD
1000
AcDbSavedByObjectVersion
1070
     0
  0
VISUALSTYLE
  5
76E
102
{ACAD_REACTORS
330
760
102
}
330
760
100
AcDbVisualStyle
  2
Linepattern
 70
    14
 71
     2
 72
     2
 73
     0
 90
        0
 40
-0.6
 41
-30.0
 62
     5
 63
     7
 74
     1
 91
        4
 64
     7
 65
   257
 75
     7
175
     7
 42
1.0
 92
        8
 66
     7
 43
1.0
 76
     1
 77
     6
 78
     2
 67
     7
 79
     5
170
     0
171
     0
290
     0
174
     0
 93
        1
 44
0.0
173
     0
291
     1
 45
0.0
1001
ACAD
1000
AcDbSavedByObjectVersion
1070
     0
  0
VISUALSTYLE
  5
76A
102
{ACAD_REACTORS
330
760
102
}
330
760
100
AcDbVisualStyle
  2
Realistic
 70
     8
 71
     2
 72
     2
 73
     0
 90
        0
 40
-0.6
 41
-30.0
 62
     5
 63
     7
 74
     1
 91
        0
 64
     7
 65
   257
 75
     1
175
     1
 42
1.0
 92
        8
 66
     8
 43
1.0
 76
     1
 77
     6
 78
     2
 67
     7
 79
     5
170
     0
171
     0
290
     0
174
     0
 93
       13
 44
0.0
173
     0
291
     0
 45
0.0
1001
ACAD
1000
AcDbSavedByObjectVersion
1070
     0
  0
VISUALSTYLE
  5
76D
102
{ACAD_REACTORS
330
760
102
}
330
760
100
AcDbVisualStyle
  2
Thicken
 70
    13
 71
     2
 72
     2
 73
     0
 90
        0
 40
-0.6
 41
-30.0
 62
     5
 63
     7
 74
     1
 91
        4
 64
     7
 65
   257
 75
     1
175
     1
 42
1.0
 92
       12
 66
     7
 43
1.0
 76
     1
 77
     6
 78
     2
 67
     7
 79
     5
170
     0
171
     0
290
     0
174
     0
 93
        1
 44
0.0
173
     0
291
     1
 45
0.0
1001
ACAD
1000
AcDbSavedByObjectVersion
1070
     0
  0
DICTIONARYVAR
  5
7D1
102
{ACAD_REACTORS
330
5E
102
}
330
5E
100
DictionaryVariables
280
     0
  1
1:1
  0
DICTIONARYVAR
  5
7D0
102
{ACAD_REACTORS
330
5E
102
}
330
5E
100
DictionaryVariables
280
     0
  1
STANDARD
  0
DICTIONARYVAR
  5
145
102
{ACAD_REACTORS
330
5E
102
}
330
5E
100
DictionaryVariables
280
     0
  1
STANDARD
  0
DICTIONARYVAR
  5
5F
102
{ACAD_REACTORS
330
5E
102
}
330
5E
100
DictionaryVariables
280
     0
  1
2
  0
DICTIONARYVAR
  5
63
102
{ACAD_REACTORS
330
5E
102
}
330
5E
100
DictionaryVariables
280
     0
  1
1
  0
DICTIONARYVAR
  5
7D3
102
{ACAD_REACTORS
330
5E
102
}
330
5E
100
DictionaryVariables
280
     0
  1
0
  0
DICTIONARYVAR
  5
170
102
{ACAD_REACTORS
330
5E
102
}
330
5E
100
DictionaryVariables
280
     0
  1

  0
DICTIONARYVAR
  5
7D2
102
{ACAD_REACTORS
330
5E
102
}
330
5E
100
DictionaryVariables
280
     0
  1
127
  0
DICTIONARY
  5
E3
102
{ACAD_REACTORS
330
D8
102
}
330
D8
100
AcDbDictionary
281
     1
  0
XRECORD
  5
105
102
{ACAD_REACTORS
330
D8
102
}
330
D8
100
AcDbXrecord
280
     1
 90
-1023410169
  0
DICTIONARY
  5
7DC
330
51
100
AcDbDictionary
280
     1
281
     1
  3
ACAD_XREC_ROUNDTRIP
360
7DD
  0
DICTIONARY
  5
7DE
330
56
100
AcDbDictionary
280
     1
281
     1
  3
ACAD_XREC_ROUNDTRIP
360
7DF
  0
DICTIONARY
  5
7DA
330
22
100
AcDbDictionary
280
     1
281
     1
  3
ACAD_XREC_ROUNDTRIP
360
7DB
  0
DICTIONARY
  5
751
330
750
100
AcDbDictionary
280
     1
281
     1
  3
ACAD_XREC_ROUNDTRIP
360
7F0
  3
BUMPTILE
360
753
  3
DIFFUSETILE
360
752
  3
OPACITYTILE
360
756
  3
REFLECTIONTILE
360
755
  3
REFRACTIONTILE
360
757
  3
SPECULARTILE
360
754
  0
DICTIONARY
  5
749
330
748
100
AcDbDictionary
280
     1
281
     1
  3
ACAD_XREC_ROUNDTRIP
360
7EF
  3
BUMPTILE
360
74B
  3
DIFFUSETILE
360
74A
  3
OPACITYTILE
360
74E
  3
REFLECTIONTILE
360
74D
  3
REFRACTIONTILE
360
74F
  3
SPECULARTILE
360
74C
  0
DICTIONARY
  5
759
330
758
100
AcDbDictionary
280
     1
281
     1
  3
ACAD_XREC_ROUNDTRIP
360
7F1
  3
BUMPTILE
360
75B
  3
DIFFUSETILE
360
75A
  3
OPACITYTILE
360
75E
  3
REFLECTIONTILE
360
75D
  3
REFRACTIONTILE
360
75F
  3
SPECULARTILE
360
75C
  0
DICTIONARY
  5
7D4
330
78
100
AcDbDictionary
280
     1
281
     1
  3
ACAD_ROUNDTRIP_2008_TABLESTYLE_CELLSTYLEMAP
360
7D5
  3
ACAD_XREC_ROUNDTRIP
360
7E0
  0
XRECORD
  5
7DD
102
{ACAD_REACTORS
330
7DC
102
}
330
7DC
100
AcDbXrecord
280
     1
102
SHADEPLOT
 70
     0
102
SHADEPLOTRESLEVEL
 70
     2
102
SHADEPLOTCUSTOMDPI
 70
   300
  0
XRECORD
  5
7DF
102
{ACAD_REACTORS
330
7DE
102
}
330
7DE
100
AcDbXrecord
280
     1
102
SHADEPLOT
 70
     0
102
SHADEPLOTRESLEVEL
 70
     2
102
SHADEPLOTCUSTOMDPI
 70
   300
  0
XRECORD
  5
7DB
102
{ACAD_REACTORS
330
7DA
102
}
330
7DA
100
AcDbXrecord
280
     1
102
SHADEPLOT
 70
     0
102
SHADEPLOTRESLEVEL
 70
     2
102
SHADEPLOTCUSTOMDPI
 70
   300
  0
XRECORD
  5
7F0
102
{ACAD_REACTORS
330
751
102
}
330
751
100
AcDbXrecord
280
     1
102
MATERIAL
148
0.0
149
0.0
149
0.0
 93
        0
 94
      127
282
     0
 72
     0
 77
     0
171
     0
175
     0
179
     0
273
     0
  0
XRECORD
  5
753
102
{ACAD_REACTORS
330
751
102
}
330
751
100
AcDbXrecord
280
     1
270
     1
271
     1
  0
XRECORD
  5
752
102
{ACAD_REACTORS
330
751
102
}
330
751
100
AcDbXrecord
280
     1
270
     1
271
     1
  0
XRECORD
  5
756
102
{ACAD_REACTORS
330
751
102
}
330
751
100
AcDbXrecord
280
     1
270
     1
271
     1
  0
XRECORD
  5
755
102
{ACAD_REACTORS
330
751
102
}
330
751
100
AcDbXrecord
280
     1
270
     1
271
     1
  0
XRECORD
  5
757
102
{ACAD_REACTORS
330
751
102
}
330
751
100
AcDbXrecord
280
     1
270
     1
271
     1
  0
XRECORD
  5
754
102
{ACAD_REACTORS
330
751
102
}
330
751
100
AcDbXrecord
280
     1
270
     1
271
     1
  0
XRECORD
  5
7EF
102
{ACAD_REACTORS
330
749
102
}
330
749
100
AcDbXrecord
280
     1
102
MATERIAL
148
0.0
149
0.0
149
0.0
 93
        0
 94
      127
282
     0
 72
     0
 77
     0
171
     0
175
     0
179
     0
273
     0
  0
XRECORD
  5
74B
102
{ACAD_REACTORS
330
749
102
}
330
749
100
AcDbXrecord
280
     1
270
     1
271
     1
  0
XRECORD
  5
74A
102
{ACAD_REACTORS
330
749
102
}
330
749
100
AcDbXrecord
280
     1
270
     1
271
     1
  0
XRECORD
  5
74E
102
{ACAD_REACTORS
330
749
102
}
330
749
100
AcDbXrecord
280
     1
270
     1
271
     1
  0
XRECORD
  5
74D
102
{ACAD_REACTORS
330
749
102
}
330
749
100
AcDbXrecord
280
     1
270
     1
271
     1
  0
XRECORD
  5
74F
102
{ACAD_REACTORS
330
749
102
}
330
749
100
AcDbXrecord
280
     1
270
     1
271
     1
  0
XRECORD
  5
74C
102
{ACAD_REACTORS
330
749
102
}
330
749
100
AcDbXrecord
280
     1
270
     1
271
     1
  0
XRECORD
  5
7F1
102
{ACAD_REACTORS
330
759
102
}
330
759
100
AcDbXrecord
280
     1
102
MATERIAL
148
0.0
149
0.0
149
0.0
 93
        0
 94
      127
282
     0
 72
     0
 77
     0
171
     0
175
     0
179
     0
273
     0
  0
XRECORD
  5
75B
102
{ACAD_REACTORS
330
759
102
}
330
759
100
AcDbXrecord
280
     1
270
     1
271
     1
  0
XRECORD
  5
75A
102
{ACAD_REACTORS
330
759
102
}
330
759
100
AcDbXrecord
280
     1
270
     1
271
     1
  0
XRECORD
  5
75E
102
{ACAD_REACTORS
330
759
102
}
330
759
100
AcDbXrecord
280
     1
270
     1
271
     1
  0
XRECORD
  5
75D
102
{ACAD_REACTORS
330
759
102
}
330
759
100
AcDbXrecord
280
     1
270
     1
271
     1
  0
XRECORD
  5
75F
102
{ACAD_REACTORS
330
759
102
}
330
759
100
AcDbXrecord
280
     1
270
     1
271
     1
  0
XRECORD
  5
75C
102
{ACAD_REACTORS
330
759
102
}
330
759
100
AcDbXrecord
280
     1
270
     1
271
     1
  0
CELLSTYLEMAP
  5
7D5
102
{ACAD_REACTORS
330
7D4
102
}
330
7D4
100
AcDbCellStyleMap
 90
        3
300
CELLSTYLE
  1
TABLEFORMAT_BEGIN
 90
        5
170
     1
 91
        0
 92
    32768
 62
   257
 93
        1
300
CONTENTFORMAT
  1
CONTENTFORMAT_BEGIN
 90
        0
 91
        0
 92
        4
 93
        0
300

 40
0.0
140
1.0
 94
        5
 62
     0
340
11
144
6.0
309
CONTENTFORMAT_END
171
     1
301
MARGIN
  1
CELLMARGIN_BEGIN
 40
1.5
 40
1.5
 40
1.5
 40
1.5
 40
0.18
 40
0.18
309
CELLMARGIN_END
 94
        6
 95
        1
302
GRIDFORMAT
  1
GRIDFORMAT_BEGIN
 90
        0
 91
        1
 62
     0
 92
       -2
340
0
 93
        0
 40
0.045
309
GRIDFORMAT_END
 95
        2
302
GRIDFORMAT
  1
GRIDFORMAT_BEGIN
 90
        0
 91
        1
 62
     0
 92
       -2
340
0
 93
        0
 40
0.045
309
GRIDFORMAT_END
 95
        4
302
GRIDFORMAT
  1
GRIDFORMAT_BEGIN
 90
        0
 91
        1
 62
     0
 92
       -2
340
0
 93
        0
 40
0.045
309
GRIDFORMAT_END
 95
        8
302
GRIDFORMAT
  1
GRIDFORMAT_BEGIN
 90
        0
 91
        1
 62
     0
 92
       -2
340
0
 93
        0
 40
0.045
309
GRIDFORMAT_END
 95
       16
302
GRIDFORMAT
  1
GRIDFORMAT_BEGIN
 90
        0
 91
        1
 62
     0
 92
       -2
340
0
 93
        0
 40
0.045
309
GRIDFORMAT_END
 95
       32
302
GRIDFORMAT
  1
GRIDFORMAT_BEGIN
 90
        0
 91
        1
 62
     0
 92
       -2
340
0
 93
        0
 40
0.045
309
GRIDFORMAT_END
309
TABLEFORMAT_END
  1
CELLSTYLE_BEGIN
 90
        1
 91
        1
300
_TITLE
309
CELLSTYLE_END
300
CELLSTYLE
  1
TABLEFORMAT_BEGIN
 90
        5
170
     1
 91
        0
 92
        0
 62
   257
 93
        1
300
CONTENTFORMAT
  1
CONTENTFORMAT_BEGIN
 90
        0
 91
        0
 92
        4
 93
        0
300

 40
0.0
140
1.0
 94
        5
 62
     0
340
11
144
4.5
309
CONTENTFORMAT_END
171
     1
301
MARGIN
  1
CELLMARGIN_BEGIN
 40
1.5
 40
1.5
 40
1.5
 40
1.5
 40
0.18
 40
0.18
309
CELLMARGIN_END
 94
        6
 95
        1
302
GRIDFORMAT
  1
GRIDFORMAT_BEGIN
 90
        0
 91
        1
 62
     0
 92
       -2
340
0
 93
        0
 40
0.045
309
GRIDFORMAT_END
 95
        2
302
GRIDFORMAT
  1
GRIDFORMAT_BEGIN
 90
        0
 91
        1
 62
     0
 92
       -2
340
0
 93
        0
 40
0.045
309
GRIDFORMAT_END
 95
        4
302
GRIDFORMAT
  1
GRIDFORMAT_BEGIN
 90
        0
 91
        1
 62
     0
 92
       -2
340
0
 93
        0
 40
0.045
309
GRIDFORMAT_END
 95
        8
302
GRIDFORMAT
  1
GRIDFORMAT_BEGIN
 90
        0
 91
        1
 62
     0
 92
       -2
340
0
 93
        0
 40
0.045
309
GRIDFORMAT_END
 95
       16
302
GRIDFORMAT
  1
GRIDFORMAT_BEGIN
 90
        0
 91
        1
 62
     0
 92
       -2
340
0
 93
        0
 40
0.045
309
GRIDFORMAT_END
 95
       32
302
GRIDFORMAT
  1
GRIDFORMAT_BEGIN
 90
        0
 91
        1
 62
     0
 92
       -2
340
0
 93
        0
 40
0.045
309
GRIDFORMAT_END
309
TABLEFORMAT_END
  1
CELLSTYLE_BEGIN
 90
        2
 91
        1
300
_HEADER
309
CELLSTYLE_END
300
CELLSTYLE
  1
TABLEFORMAT_BEGIN
 90
        5
170
     1
 91
        0
 92
        0
 62
   257
 93
        1
300
CONTENTFORMAT
  1
CONTENTFORMAT_BEGIN
 90
        0
 91
        0
 92
        4
 93
        0
300

 40
0.0
140
1.0
 94
        2
 62
     0
340
11
144
4.5
309
CONTENTFORMAT_END
171
     1
301
MARGIN
  1
CELLMARGIN_BEGIN
 40
1.5
 40
1.5
 40
1.5
 40
1.5
 40
0.18
 40
0.18
309
CELLMARGIN_END
 94
        6
 95
        1
302
GRIDFORMAT
  1
GRIDFORMAT_BEGIN
 90
        0
 91
        1
 62
     0
 92
       -2
340
0
 93
        0
 40
0.045
309
GRIDFORMAT_END
 95
        2
302
GRIDFORMAT
  1
GRIDFORMAT_BEGIN
 90
        0
 91
        1
 62
     0
 92
       -2
340
0
 93
        0
 40
0.045
309
GRIDFORMAT_END
 95
        4
302
GRIDFORMAT
  1
GRIDFORMAT_BEGIN
 90
        0
 91
        1
 62
     0
 92
       -2
340
0
 93
        0
 40
0.045
309
GRIDFORMAT_END
 95
        8
302
GRIDFORMAT
  1
GRIDFORMAT_BEGIN
 90
        0
 91
        1
 62
     0
 92
       -2
340
0
 93
        0
 40
0.045
309
GRIDFORMAT_END
 95
       16
302
GRIDFORMAT
  1
GRIDFORMAT_BEGIN
 90
        0
 91
        1
 62
     0
 92
       -2
340
0
 93
        0
 40
0.045
309
GRIDFORMAT_END
 95
       32
302
GRIDFORMAT
  1
GRIDFORMAT_BEGIN
 90
        0
 91
        1
 62
     0
 92
       -2
340
0
 93
        0
 40
0.045
309
GRIDFORMAT_END
309
TABLEFORMAT_END
  1
CELLSTYLE_BEGIN
 90
        3
 91
        2
300
_DATA
309
CELLSTYLE_END
  0
XRECORD
  5
7E0
102
{ACAD_REACTORS
330
7D4
102
}
330
7D4
100
AcDbXrecord
280
     1
102
ACAD_ROUNDTRIP_PRE2007_TABLESTYLE
 90
        4
 91
        0
  1

 92
        4
 93
        0
  2

 94
        4
 95
        0
  3

  0
ENDSEC
  0
EOF
