  0
SECTION
  2
HEADER
  9
$ACADVER
  1
AC1015
  9
$ACADMAINTVER
 70
     6
  9
$DWGCODEPAGE
  3
ANSI_1252
  9
$INSBASE
 10
0.0
 20
0.0
 30
0.0
  9
$EXTMIN
 10
0.0
 20
0.0
 30
0.0
  9
$EXTMAX
 10
420.0
 20
297.0
 30
0.0
  9
$LIMMIN
 10
0.0
 20
0.0
  9
$LIMMAX
 10
420.0
 20
297.0
  9
$ORTHOMODE
 70
     0
  9
$REGENMODE
 70
     1
  9
$FILLMODE
 70
     1
  9
$QTEXTMODE
 70
     0
  9
$MIRRTEXT
 70
     1
  9
$LTSCALE
 40
1.0
  9
$ATTMODE
 70
     1
  9
$TEXTSIZE
 40
3.5
  9
$TRACEWID
 40
1.0
  9
$TEXTSTYLE
  7
Standard
  9
$CLAYER
  8
0
  9
$CELTYPE
  6
ByLayer
  9
$CECOLOR
 62
   256
  9
$CELTSCALE
 40
1.0
  9
$DISPSILH
 70
     0
  9
$DIMSCALE
 40
1.0
  9
$DIMASZ
 40
2.5
  9
$DIMEXO
 40
0.3
  9
$DIMDLI
 40
3.75
  9
$DIMRND
 40
0.0
  9
$DIMDLE
 40
0.0
  9
$DIMEXE
 40
1.0
  9
$DIMTP
 40
0.0
  9
$DIMTM
 40
0.0
  9
$DIMTXT
 40
3.5277777778
  9
$DIMCEN
 40
2.5
  9
$DIMTSZ
 40
0.0
  9
$DIMTOL
 70
     0
  9
$DIMLIM
 70
     0
  9
$DIMTIH
 70
     1
  9
$DIMTOH
 70
     1
  9
$DIMSE1
 70
     0
  9
$DIMSE2
 70
     0
  9
$DIMTAD
 70
     1
  9
$DIMZIN
 70
     0
  9
$DIMBLK
  1

  9
$DIMASO
 70
     1
  9
$DIMSHO
 70
     1
  9
$DIMPOST
  1

  9
$DIMAPOST
  1

  9
$DIMALT
 70
     0
  9
$DIMALTD
 70
     3
  9
$DIMALTF
 40
0.0393700787
  9
$DIMLFAC
 40
1.0
  9
$DIMTOFL
 70
     1
  9
$DIMTVP
 40
0.0
  9
$DIMTIX
 70
     0
  9
$DIMSOXD
 70
     0
  9
$DIMSAH
 70
     0
  9
$DIMBLK1
  1

  9
$DIMBLK2
  1

  9
$DIMSTYLE
  2
ISO-25
  9
$DIMCLRD
 70
     0
  9
$DIMCLRE
 70
     0
  9
$DIMCLRT
 70
     0
  9
$DIMTFAC
 40
1.0
  9
$DIMGAP
 40
1.52
  9
$DIMJUST
 70
     0
  9
$DIMSD1
 70
     0
  9
$DIMSD2
 70
     0
  9
$DIMTOLJ
 70
     0
  9
$DIMTZIN
 70
     0
  9
$DIMALTZ
 70
     0
  9
$DIMALTTZ
 70
     0
  9
$DIMUPT
 70
     0
  9
$DIMDEC
 70
     1
  9
$DIMTDEC
 70
     1
  9
$DIMALTU
 70
     2
  9
$DIMALTTD
 70
     3
  9
$DIMTXSTY
  7
Standard
  9
$DIMAUNIT
 70
     0
  9
$DIMADEC
 70
     1
  9
$DIMALTRND
 40
0.0
  9
$DIMAZIN
 70
     0
  9
$DIMDSEP
 70
    44
  9
$DIMATFIT
 70
     3
  9
$DIMFRAC
 70
     0
  9
$DIMLDRBLK
  1

  9
$DIMLUNIT
 70
     2
  9
$DIMLWD
 70
    -2
  9
$DIMLWE
 70
    -2
  9
$DIMTMOVE
 70
     0
  9
$LUNITS
 70
     2
  9
$LUPREC
 70
     2
  9
$SKETCHINC
 40
1.0
  9
$FILLETRAD
 40
0.0
  9
$AUNITS
 70
     0
  9
$AUPREC
 70
     2
  9
$MENU
  1
.
  9
$ELEVATION
 40
0.0
  9
$PELEVATION
 40
0.0
  9
$THICKNESS
 40
0.0
  9
$LIMCHECK
 70
     0
  9
$CHAMFERA
 40
0.0
  9
$CHAMFERB
 40
0.0
  9
$CHAMFERC
 40
0.0
  9
$CHAMFERD
 40
0.0
  9
$SKPOLY
 70
     0
  9
$TDCREATE
 40
2461131.646452373
  9
$TDUCREATE
 40
2461131.56311904
  9
$TDUPDATE
 40
2461131.646457338
  9
$TDUUPDATE
 40
2461131.563124005
  9
$TDINDWG
 40
0.0000000116
  9
$TDUSRTIMER
 40
0.0000000116
  9
$USRTIMER
 70
     1
  9
$ANGBASE
 50
0.0
  9
$ANGDIR
 70
     0
  9
$PDMODE
 70
     0
  9
$PDSIZE
 40
-1.0
  9
$PLINEWID
 40
0.0
  9
$SPLFRAME
 70
     0
  9
$SPLINETYPE
 70
     6
  9
$SPLINESEGS
 70
     8
  9
$HANDSEED
  5
4AF
  9
$SURFTAB1
 70
     6
  9
$SURFTAB2
 70
     6
  9
$SURFTYPE
 70
     6
  9
$SURFU
 70
     6
  9
$SURFV
 70
     6
  9
$UCSBASE
  2

  9
$UCSNAME
  2

  9
$UCSORG
 10
0.0
 20
0.0
 30
0.0
  9
$UCSXDIR
 10
1.0
 20
0.0
 30
0.0
  9
$UCSYDIR
 10
0.0
 20
1.0
 30
0.0
  9
$UCSORTHOREF
  2

  9
$UCSORTHOVIEW
 70
     0
  9
$UCSORGTOP
 10
0.0
 20
0.0
 30
0.0
  9
$UCSORGBOTTOM
 10
0.0
 20
0.0
 30
0.0
  9
$UCSORGLEFT
 10
0.0
 20
0.0
 30
0.0
  9
$UCSORGRIGHT
 10
0.0
 20
0.0
 30
0.0
  9
$UCSORGFRONT
 10
0.0
 20
0.0
 30
0.0
  9
$UCSORGBACK
 10
0.0
 20
0.0
 30
0.0
  9
$PUCSBASE
  2

  9
$PUCSNAME
  2

  9
$PUCSORG
 10
0.0
 20
0.0
 30
0.0
  9
$PUCSXDIR
 10
1.0
 20
0.0
 30
0.0
  9
$PUCSYDIR
 10
0.0
 20
1.0
 30
0.0
  9
$PUCSORTHOREF
  2

  9
$PUCSORTHOVIEW
 70
     0
  9
$PUCSORGTOP
 10
0.0
 20
0.0
 30
0.0
  9
$PUCSORGBOTTOM
 10
0.0
 20
0.0
 30
0.0
  9
$PUCSORGLEFT
 10
0.0
 20
0.0
 30
0.0
  9
$PUCSORGRIGHT
 10
0.0
 20
0.0
 30
0.0
  9
$PUCSORGFRONT
 10
0.0
 20
0.0
 30
0.0
  9
$PUCSORGBACK
 10
0.0
 20
0.0
 30
0.0
  9
$USERI1
 70
     0
  9
$USERI2
 70
     0
  9
$USERI3
 70
     0
  9
$USERI4
 70
     0
  9
$USERI5
 70
     0
  9
$USERR1
 40
0.0
  9
$USERR2
 40
0.0
  9
$USERR3
 40
0.0
  9
$USERR4
 40
0.0
  9
$USERR5
 40
0.0
  9
$WORLDVIEW
 70
     1
  9
$SHADEDGE
 70
     3
  9
$SHADEDIF
 70
    70
  9
$TILEMODE
 70
     1
  9
$MAXACTVP
 70
    64
  9
$PINSBASE
 10
0.0
 20
0.0
 30
0.0
  9
$PLIMCHECK
 70
     0
  9
$PEXTMIN
 10
1.0000000000E+20
 20
1.0000000000E+20
 30
1.0000000000E+20
  9
$PEXTMAX
 10
-1.0000000000E+20
 20
-1.0000000000E+20
 30
-1.0000000000E+20
  9
$PLIMMIN
 10
0.0
 20
0.0
  9
$PLIMMAX
 10
420.0
 20
297.0
  9
$UNITMODE
 70
     0
  9
$VISRETAIN
 70
     1
  9
$PLINEGEN
 70
     0
  9
$PSLTSCALE
 70
     1
  9
$TREEDEPTH
 70
  3020
  9
$CMLSTYLE
  2
Standard
  9
$CMLJUST
 70
     0
  9
$CMLSCALE
 40
20.0
  9
$PROXYGRAPHICS
 70
     1
  9
$MEASUREMENT
 70
     1
  9
$CELWEIGHT
370
    -1
  9
$ENDCAPS
280
     0
  9
$JOINSTYLE
280
     0
  9
$LWDISPLAY
290
     1
  9
$INSUNITS
 70
     4
  9
$HYPERLINKBASE
  1

  9
$STYLESHEET
  1

  9
$XEDIT
290
     1
  9
$CEPSNTYPE
380
     0
  9
$PSTYLEMODE
290
     1
  9
$FINGERPRINTGUID
  2
{2eae9e74-d41d-4416-80b8-288dc749fd6c}
  9
$VERSIONGUID
  2
{FAEB1C32-E019-11D5-929B-00C0DF256EC4}
  9
$EXTNAMES
290
     1
  9
$PSVPSCALE
 40
0.0
  9
$OLESTARTUP
290
     0
  0
ENDSEC
  0
SECTION
  2
CLASSES
  0
CLASS
  1
ACDBDICTIONARYWDFLT
  2
AcDbDictionaryWithDefault
  3
ObjectDBX Classes
 90
        0
280
     0
281
     0
  0
CLASS
  1
VISUALSTYLE
  2
AcDbVisualStyle
  3
ObjectDBX Classes
 90
     4095
280
     0
281
     0
  0
CLASS
  1
MATERIAL
  2
AcDbMaterial
  3
ObjectDBX Classes
 90
     1153
280
     0
281
     0
  0
CLASS
  1
SCALE
  2
AcDbScale
  3
ObjectDBX Classes
 90
     1153
280
     0
281
     0
  0
CLASS
  1
TABLESTYLE
  2
AcDbTableStyle
  3
ObjectDBX Classes
 90
     4095
280
     0
281
     0
  0
CLASS
  1
MLEADERSTYLE
  2
AcDbMLeaderStyle
  3
ACDB_MLEADERSTYLE_CLASS
 90
     4095
280
     0
281
     0
  0
CLASS
  1
SUN
  2
AcDbSun
  3
SCENEOE
 90
     1153
280
     0
281
     0
  0
CLASS
  1
ACDBPLACEHOLDER
  2
AcDbPlaceHolder
  3
ObjectDBX Classes
 90
        0
280
     0
281
     0
  0
CLASS
  1
LAYOUT
  2
AcDbLayout
  3
ObjectDBX Classes
 90
        0
280
     0
281
     0
  0
ENDSEC
  0
SECTION
  2
TABLES
  0
TABLE
  2
VPORT
  5
8
330
0
100
AcDbSymbolTable
 70
     1
  0
VPORT
  5
29
330
8
100
AcDbSymbolTableRecord
100
AcDbViewportTableRecord
  2
*Active
 70
     0
 10
0.0
 20
0.0
 11
1.0
 21
1.0
 12
210.0
 22
148.5
 13
0.0
 23
0.0
 14
10.0
 24
10.0
 15
10.0
 25
10.0
 16
0.0
 26
0.0
 36
1.0
 17
0.0
 27
0.0
 37
0.0
 40
297.0
 41
1.4141414141
 42
50.0
 43
0.0
 44
0.0
 50
0.0
 51
0.0
 71
     0
 72
  2000
 73
     1
 74
     3
 75
     0
 76
     0
 77
     0
 78
     0
281
     0
 65
     1
110
0.0
120
0.0
130
0.0
111
1.0
121
0.0
131
0.0
112
0.0
122
1.0
132
0.0
 79
     0
146
0.0
  0
ENDTAB
  0
TABLE
  2
LTYPE
  5
5
330
0
100
AcDbSymbolTable
 70
     6
  0
LTYPE
  5
14
330
5
100
AcDbSymbolTableRecord
100
AcDbLinetypeTableRecord
  2
ByBlock
 70
     0
  3

 72
    65
 73
     0
 40
0.0
  0
LTYPE
  5
15
330
5
100
AcDbSymbolTableRecord
100
AcDbLinetypeTableRecord
  2
ByLayer
 70
     0
  3

 72
    65
 73
     0
 40
0.0
  0
LTYPE
  5
16
330
5
100
AcDbSymbolTableRecord
100
AcDbLinetypeTableRecord
  2
Continuous
 70
     0
  3
Solid line
 72
    65
 73
     0
 40
0.0
  0
LTYPE
  5
5E
330
5
100
AcDbSymbolTableRecord
100
AcDbLinetypeTableRecord
  2
HIDDEN
 70
     0
  3
Hidden __ __ __ __ __ __ __ __ __ __ __ __ __ __
 72
    65
 73
     2
 40
1.905
 49
1.27
 74
     0
 49
-0.635
 74
     0
  0
LTYPE
  5
5F
330
5
100
AcDbSymbolTableRecord
100
AcDbLinetypeTableRecord
  2
PHANTOM
 70
     0
  3
Phantom ______  __  __  ______  __  __  ______
 72
    65
 73
     6
 40
12.7
 49
6.35
 74
     0
 49
-1.27
 74
     0
 49
1.27
 74
     0
 49
-1.27
 74
     0
 49
1.27
 74
     0
 49
-1.27
 74
     0
  0
LTYPE
  5
60
330
5
100
AcDbSymbolTableRecord
100
AcDbLinetypeTableRecord
  2
CENTER
 70
     0
  3
Center ____ _ ____ _ ____ _ ____ _ ____ _ ____
 72
    65
 73
     4
 40
10.16
 49
6.35
 74
     0
 49
-1.27
 74
     0
 49
1.27
 74
     0
 49
-1.27
 74
     0
  0
LTYPE
  5
61
330
5
100
AcDbSymbolTableRecord
100
AcDbLinetypeTableRecord
  2
CENTERX2
 70
     0
  3
Center (2x) ________  __  ________  __  _____
 72
    65
 73
     4
 40
20.32
 49
12.7
 74
     0
 49
-2.54
 74
     0
 49
2.54
 74
     0
 49
-2.54
 74
     0
  0
LTYPE
  5
62
330
5
100
AcDbSymbolTableRecord
100
AcDbLinetypeTableRecord
  2
DOT2
 70
     0
  3
Dot (.5x) ........................................
 72
    65
 73
     2
 40
0.635
 49
0.0
 74
     0
 49
-0.635
 74
     0
  0
ENDTAB
  0
TABLE
  2
LAYER
  5
2
330
0
100
AcDbSymbolTable
 70
     1
  0
LAYER
  5
10
330
2
100
AcDbSymbolTableRecord
100
AcDbLayerTableRecord
  2
0
 70
     0
 62
     7
  6
Continuous
370
    -3
390
F
  0
ENDTAB
  0
TABLE
  2
STYLE
  5
3
330
0
100
AcDbSymbolTable
 70
     3
  0
STYLE
  5
11
330
3
100
AcDbSymbolTableRecord
100
AcDbTextStyleTableRecord
  2
Standard
 70
     0
 40
0.0
 41
1.0
 50
0.0
 71
     0
 42
3.5
  3
txt
  4

  0
STYLE
  5
D9
330
3
100
AcDbSymbolTableRecord
100
AcDbTextStyleTableRecord
  2
SLDTEXTSTYLE0
 70
     0
 40
0.0
 41
0.605
 50
0.0
 71
     0
 42
3.5
  3
TXT
  4

  0
STYLE
  5
179
330
3
100
AcDbSymbolTableRecord
100
AcDbTextStyleTableRecord
  2
SLDTEXTSTYLE1
 70
     0
 40
0.0
 41
0.563
 50
0.0
 71
     0
 42
3.5
  3
TXT
  4

  0
ENDTAB
  0
TABLE
  2
VIEW
  5
6
330
0
100
AcDbSymbolTable
 70
     0
  0
ENDTAB
  0
TABLE
  2
UCS
  5
7
330
0
100
AcDbSymbolTable
 70
     0
  0
ENDTAB
  0
TABLE
  2
APPID
  5
9
330
0
100
AcDbSymbolTable
 70
     1
  0
APPID
  5
12
330
9
100
AcDbSymbolTableRecord
100
AcDbRegAppTableRecord
  2
ACAD
 70
     0
  0
ENDTAB
  0
TABLE
  2
DIMSTYLE
  5
A
330
0
100
AcDbSymbolTable
 70
     3
100
AcDbDimStyleTable
  0
DIMSTYLE
105
27
330
A
100
AcDbSymbolTableRecord
100
AcDbDimStyleTableRecord
  2
ISO-25
 70
     0
 41
2.5
 42
0.625
 43
3.75
 44
1.25
 73
     0
 74
     0
 77
     1
 78
     8
140
2.5
141
2.5
143
0.0393700787
147
0.625
171
     3
172
     1
178
     0
271
     2
272
     2
274
     3
278
    44
283
     0
284
     8
340
11
  0
DIMSTYLE
105
419
102
{ACAD_REACTORS
330
418
102
}
330
A
100
AcDbSymbolTableRecord
100
AcDbDimStyleTableRecord
  2
SLDDIMSTYLE0
 70
     0
 41
2.5
 44
0.0
 45
0.000000001
 73
     0
 74
     0
 77
     1
 78
    12
 79
     3
140
2.5683186849
147
0.6420796712
173
     1
178
     0
271
     1
272
     1
276
     2
284
    12
340
D9
  0
DIMSTYLE
105
495
102
{ACAD_REACTORS
330
494
330
4A1
102
}
330
A
100
AcDbSymbolTableRecord
100
AcDbDimStyleTableRecord
  2
SLDDIMSTYLE1
 70
     0
 41
2.5
 44
0.0
 45
0.000000001
 73
     0
 74
     0
 77
     1
 78
    12
 79
     3
140
2.5683186849
147
0.6420796712
172
     1
173
     1
178
     0
271
     1
272
     1
276
     2
284
    12
289
     0
340
D9
  0
ENDTAB
  0
TABLE
  2
BLOCK_RECORD
  5
1
330
0
100
AcDbSymbolTable
 70
     9
  0
BLOCK_RECORD
  5
1F
330
1
100
AcDbSymbolTableRecord
100
AcDbBlockTableRecord
  2
*Model_Space
340
22
  0
BLOCK_RECORD
  5
1B
330
1
100
AcDbSymbolTableRecord
100
AcDbBlockTableRecord
  2
*Paper_Space
340
1E
  0
BLOCK_RECORD
  5
23
330
1
100
AcDbSymbolTableRecord
100
AcDbBlockTableRecord
  2
*Paper_Space0
340
26
  0
BLOCK_RECORD
  5
63
330
1
100
AcDbSymbolTableRecord
100
AcDbBlockTableRecord
  2
ACO-Logo
340
0
102
{BLKREFS
331
139
102
}
  0
BLOCK_RECORD
  5
D6
330
1
100
AcDbSymbolTableRecord
100
AcDbBlockTableRecord
  2
SW_NOTE_0
340
0
102
{BLKREFS
331
DB
102
}
  0
BLOCK_RECORD
  5
DC
330
1
100
AcDbSymbolTableRecord
100
AcDbBlockTableRecord
  2
SW_NOTE_0_1
340
0
102
{BLKREFS
331
E0
102
}
  0
BLOCK_RECORD
  5
E1
330
1
100
AcDbSymbolTableRecord
100
AcDbBlockTableRecord
  2
SW_NOTE_0_2
340
0
102
{BLKREFS
331
E8
102
}
  0
BLOCK_RECORD
  5
41A
330
1
100
AcDbSymbolTableRecord
100
AcDbBlockTableRecord
  2
_D
340
0
  0
BLOCK_RECORD
  5
422
330
1
100
AcDbSymbolTableRecord
100
AcDbBlockTableRecord
  2
SW_SYMBOL_MOD_BOX
340
0
102
{BLKREFS
331
429
102
}
  0
BLOCK_RECORD
  5
496
330
1
100
AcDbSymbolTableRecord
100
AcDbBlockTableRecord
  2
_D_1
340
0
  0
BLOCK_RECORD
  5
4A2
330
1
100
AcDbSymbolTableRecord
100
AcDbBlockTableRecord
  2
_D_2
340
0
  0
ENDTAB
  0
ENDSEC
  0
SECTION
  2
BLOCKS
  0
BLOCK
  5
20
330
1F
100
AcDbEntity
  8
0
100
AcDbBlockBegin
  2
*Model_Space
 70
     0
 10
0.0
 20
0.0
 30
0.0
  3
*Model_Space
  1

  0
ENDBLK
  5
21
330
1F
100
AcDbEntity
  8
0
100
AcDbBlockEnd
  0
BLOCK
  5
1C
330
1B
100
AcDbEntity
 67
     1
  8
0
100
AcDbBlockBegin
  2
*Paper_Space
 70
     0
 10
0.0
 20
0.0
 30
0.0
  3
*Paper_Space
  1

  0
ENDBLK
  5
1D
330
1B
100
AcDbEntity
 67
     1
  8
0
100
AcDbBlockEnd
  0
BLOCK
  5
24
330
23
100
AcDbEntity
  8
0
100
AcDbBlockBegin
  2
*Paper_Space0
 70
     0
 10
0.0
 20
0.0
 30
0.0
  3
*Paper_Space0
  1

  0
ENDBLK
  5
25
330
23
100
AcDbEntity
  8
0
100
AcDbBlockEnd
  0
BLOCK
  5
64
330
63
100
AcDbEntity
  8
0
100
AcDbBlockBegin
  2
ACO-Logo
 70
     0
 10
0.0
 20
0.0
 30
0.0
  3
ACO-Logo
  1

  0
ARC
  5
66
330
63
100
AcDbEntity
  8
0
  6
Continuous
 62
     7
370
    18
100
AcDbCircle
 10
80.3853261169
 20
4.9940995715
 30
0.0
 40
0.3000000000000441
100
AcDbArc
 50
181.9349323096
 51
274.6062978506
  0
ARC
  5
67
330
63
100
AcDbEntity
  8
0
  6
Continuous
 62
     7
370
    18
100
AcDbCircle
 10
81.2359083165
 20
2.1946665956
 30
0.0
 40
1.000000000000021
100
AcDbArc
 50
221.4087409628
 51
276.0561297228
  0
ARC
  5
68
330
63
100
AcDbEntity
  8
0
  6
Continuous
 62
     7
370
    18
100
AcDbCircle
 10
79.1360017163
 20
3.654242048
 30
0.0
 40
0.300000000000004
100
AcDbArc
 50
181.2730300201
 51
274.4996077095
  0
ARC
  5
69
330
63
100
AcDbEntity
  8
0
  6
Continuous
 62
     7
370
    18
100
AcDbCircle
 10
78.7699033484
 20
3.2873137407
 30
0.0
 40
0.4000000000000358
100
AcDbArc
 50
221.0090869016
 51
274.5606296317
  0
ARC
  5
6A
330
63
100
AcDbEntity
  8
0
  6
Continuous
 62
     7
370
    18
100
AcDbCircle
 10
91.2333953062
 20
4.6062442307
 30
0.0
 40
0.3000000000000493
100
AcDbArc
 50
274.4996077095
 51
3.7249371334
  0
ARC
  5
6B
330
63
100
AcDbEntity
  8
0
  6
Continuous
 62
     7
370
    18
100
AcDbCircle
 10
81.5287571045
 20
9.7648973508
 30
0.0
 40
1.00000000000002
100
AcDbArc
 50
93.1134387481
 51
181.9414863909
  0
ARC
  5
6C
330
63
100
AcDbEntity
  8
0
  6
Continuous
 62
     7
370
    18
100
AcDbCircle
 10
81.6051675115
 20
7.5107903456
 30
0.0
 40
1.0
100
AcDbArc
 50
181.9414863909
 51
274.398705355
  0
ARC
  5
6D
330
63
100
AcDbEntity
  8
0
  6
Continuous
 62
     7
370
    18
100
AcDbCircle
 10
80.1506905656
 20
11.9393118923
 30
0.0
 40
0.300000000000045
100
AcDbArc
 50
93.0418421566
 51
181.9349323096
  0
ARC
  5
6E
330
63
100
AcDbEntity
  8
0
  6
Continuous
 62
     7
370
    18
100
AcDbCircle
 10
78.1879722102
 20
12.3499352608
 30
0.0
 40
0.7999999999953393
100
AcDbArc
 50
92.6995697565
 51
148.2554209065
  0
ARC
  5
6F
330
63
100
AcDbEntity
  8
0
  6
Continuous
 62
     7
370
    18
100
AcDbCircle
 10
78.930862229
 20
12.8855189761
 30
0.0
 40
0.3000000000000031
100
AcDbArc
 50
92.6995697565
 51
181.2730300201
  0
ARC
  5
70
330
63
100
AcDbEntity
  8
0
  6
Continuous
 62
     7
370
    18
100
AcDbCircle
 10
82.327743407
 20
9.8083568568
 30
0.0
 40
1.000000000000034
100
AcDbArc
 50
1.9414863909
 51
93.1134387481
  0
ARC
  5
71
330
63
100
AcDbEntity
  8
0
  6
Continuous
 62
     7
370
    18
100
AcDbCircle
 10
81.5287571045
 20
9.7648973508
 30
0.0
 40
0.3625000000000009
100
AcDbArc
 50
93.1134387481
 51
181.9414863909
  0
ARC
  5
72
330
63
100
AcDbEntity
  8
0
  6
Continuous
 62
     7
370
    18
100
AcDbCircle
 10
82.327743407
 20
9.8083568568
 30
0.0
 40
0.3625000000000146
100
AcDbArc
 50
1.9414863909
 51
93.1134387481
  0
ARC
  5
73
330
63
100
AcDbEntity
  8
0
  6
Continuous
 62
     7
370
    18
100
AcDbCircle
 10
82.4035451983
 20
7.5722040138
 30
0.0
 40
1.000000000000008
100
AcDbArc
 50
274.398705355
 51
1.9414863909
  0
ARC
  5
74
330
63
100
AcDbEntity
  8
0
  6
Continuous
 62
     7
370
    18
100
AcDbCircle
 10
82.4035451983
 20
7.5722040138
 30
0.0
 40
0.3625000000000068
100
AcDbArc
 50
274.398705355
 51
1.9414863909
  0
ARC
  5
75
330
63
100
AcDbEntity
  8
0
  6
Continuous
 62
     7
370
    18
100
AcDbCircle
 10
81.6051675115
 20
7.5107903456
 30
0.0
 40
0.3625000000000111
100
AcDbArc
 50
181.9414863909
 51
274.398705355
  0
ARC
  5
76
330
63
100
AcDbEntity
  8
0
  6
Continuous
 62
     7
370
    18
100
AcDbCircle
 10
88.825822761
 20
8.0662148274
 30
0.0
 40
0.9999999999999997
100
AcDbArc
 50
274.398705355
 51
2.6541955134
  0
ARC
  5
77
330
63
100
AcDbEntity
  8
0
  6
Continuous
 62
     7
370
    18
100
AcDbCircle
 10
90.1578295581
 20
5.7814576687
 30
0.0
 40
0.3000000000000043
100
AcDbArc
 50
274.6062978507
 51
2.5147526475
  0
ARC
  5
78
330
63
100
AcDbEntity
  8
0
  6
Continuous
 62
     7
370
    18
100
AcDbCircle
 10
88.825822761
 20
8.0662148274
 30
0.0
 40
0.3625000000000083
100
AcDbArc
 50
274.398705355
 51
2.6541955134
  0
ARC
  5
79
330
63
100
AcDbEntity
  8
0
  6
Continuous
 62
     7
370
    18
100
AcDbCircle
 10
88.728529747
 20
10.16496413
 30
0.0
 40
1.000000000000001
100
AcDbArc
 50
2.6541955134
 51
93.1134387481
  0
ARC
  5
7A
330
63
100
AcDbEntity
  8
0
  6
Continuous
 62
     7
370
    18
100
AcDbCircle
 10
88.728529747
 20
10.16496413
 30
0.0
 40
0.3625000000000085
100
AcDbArc
 50
2.6541955134
 51
93.1134387481
  0
ARC
  5
7B
330
63
100
AcDbEntity
  8
0
  6
Continuous
 62
     7
370
    18
100
AcDbCircle
 10
89.8647121341
 20
12.455515937
 30
0.0
 40
0.2999999999999984
100
AcDbArc
 50
2.5147526475
 51
93.0418421566
  0
ARC
  5
7C
330
63
100
AcDbEntity
  8
0
  6
Continuous
 62
     7
370
    18
100
AcDbCircle
 10
90.6583795404
 20
13.4384863935
 30
0.0
 40
0.2999999999999911
100
AcDbArc
 50
3.7249371334
 51
92.6995697565
  0
CIRCLE
  5
7D
330
63
100
AcDbEntity
  8
0
  6
Continuous
 62
     7
370
    18
100
AcDbCircle
 10
15.7233972286
 20
6.4054930194
 30
0.0
 40
1.579500000000014
  0
CIRCLE
  5
7E
330
63
100
AcDbEntity
  8
0
  6
Continuous
 62
     7
370
    18
100
AcDbCircle
 10
15.7233972286
 20
6.4054930194
 30
0.0
 40
2.281499999999994
  0
ARC
  5
7F
330
63
100
AcDbEntity
  8
0
  6
Continuous
 62
     7
370
    18
100
AcDbCircle
 10
89.7681336026
 20
2.3106616691
 30
0.0
 40
0.098384530246548
100
AcDbArc
 50
332.3802627259
 51
4.9765441602
  0
ARC
  5
80
330
63
100
AcDbEntity
  8
0
  6
Continuous
 62
     7
370
    18
100
AcDbCircle
 10
89.6886560089
 20
2.3522464185
 30
0.0
 40
0.1880839130754018
100
AcDbArc
 50
303.690067526
 51
332.3802627258
  0
ARC
  5
81
330
63
100
AcDbEntity
  8
0
  6
Continuous
 62
     7
370
    18
100
AcDbCircle
 10
89.4849700869
 20
2.6577753016
 30
0.0
 40
0.5552839311631531
100
AcDbArc
 50
287.108652213
 51
303.690067526
  0
ARC
  5
82
330
63
100
AcDbEntity
  8
0
  6
Continuous
 62
     7
370
    18
100
AcDbCircle
 10
88.0513010646
 20
7.3154864882
 30
0.0
 40
5.428648309393203
100
AcDbArc
 50
285.2551187031
 51
287.108652213
  0
ARC
  5
83
330
63
100
AcDbEntity
  8
0
  6
Continuous
 62
     7
370
    18
100
AcDbCircle
 10
89.1317168954
 20
3.3539617753
 30
0.0
 40
1.322436378825653
100
AcDbArc
 50
281.4991866428
 51
285.255118703
  0
ARC
  5
84
330
63
100
AcDbEntity
  8
0
  6
Continuous
 62
     7
370
    18
100
AcDbCircle
 10
89.3198255509
 20
2.4293110075
 30
0.0
 40
0.3788454141584939
100
AcDbArc
 50
279.1917900003
 51
281.499186643
  0
ARC
  5
85
330
63
100
AcDbEntity
  8
0
  6
Continuous
 62
     7
370
    18
100
AcDbCircle
 10
89.0487250788
 20
4.1046569124
 30
0.0
 40
2.07598399629105
100
AcDbArc
 50
277.7634675038
 51
279.1917900002
  0
ARC
  5
86
330
63
100
AcDbEntity
  8
0
  6
Continuous
 62
     7
370
    18
100
AcDbCircle
 10
9.2588909915
 20
6.4054930194
 30
0.0
 40
1.579500000000074
100
AcDbArc
 50
31.0558004991
 51
330.0
  0
ARC
  5
87
330
63
100
AcDbEntity
  8
0
  6
Continuous
 62
     7
370
    18
100
AcDbCircle
 10
9.2588909915
 20
6.4054930194
 30
0.0
 40
2.281500000000107
100
AcDbArc
 50
30.7309172659
 51
330.0
  0
ARC
  5
88
330
63
100
AcDbEntity
  8
0
  6
Continuous
 62
     7
370
    18
100
AcDbCircle
 10
6.1288847544
 20
4.0685261312
 30
0.0
 40
4.914000000000307
100
AcDbArc
 50
172.3058370354
 51
179.7113029221
  0
ARC
  5
89
330
63
100
AcDbEntity
  8
0
  6
Continuous
 62
     7
370
    18
100
AcDbCircle
 10
-0.5401152456
 20
4.0685261312
 30
0.0
 40
4.91400000000019
100
AcDbArc
 50
0.2886970779
 51
7.6941629646
  0
ARC
  5
8A
330
63
100
AcDbEntity
  8
0
  6
Continuous
 62
     7
370
    18
100
AcDbCircle
 10
-0.5401152456
 20
4.0685261312
 30
0.0
 40
5.616000000000127
100
AcDbArc
 50
0.2526096926
 51
53.5764263577
  0
ARC
  5
8B
330
63
100
AcDbEntity
  8
0
  6
Continuous
 62
     7
370
    18
100
AcDbCircle
 10
6.1288847544
 20
4.0685261312
 30
0.0
 40
5.61600000000074
100
AcDbArc
 50
126.4235736423
 51
179.7473903073
  0
ARC
  5
8C
330
63
100
AcDbEntity
  8
0
  6
Continuous
 62
     7
370
    18
100
AcDbCircle
 10
-0.5401152456
 20
4.0685261312
 30
0.0
 40
4.914000000000161
100
AcDbArc
 50
16.0658750272
 51
47.2678899574
  0
ARC
  5
8D
330
63
100
AcDbEntity
  8
0
  6
Continuous
 62
     7
370
    18
100
AcDbCircle
 10
6.1288847544
 20
4.0685261312
 30
0.0
 40
4.914000000000584
100
AcDbArc
 50
132.7321100426
 51
163.9341249728
  0
LINE
  5
8E
330
63
100
AcDbEntity
  8
0
  6
Continuous
 62
     7
370
    18
100
AcDbLine
 10
78.8017089389
 20
2.8885802402
 30
0.0
 11
90.7982178739
 21
3.8455002136
 31
0.0
  0
LINE
  5
8F
330
63
100
AcDbEntity
  8
0
  6
Continuous
 62
     7
370
    18
100
AcDbLine
 10
76.6545490427
 20
5.8693097374
 30
0.0
 11
78.0344191726
 21
3.5235305166
 31
0.0
  0
LINE
  5
90
330
63
100
AcDbEntity
  8
0
  6
Continuous
 62
     7
370
    18
100
AcDbLine
 10
91.5327615373
 20
4.6257342197
 30
0.0
 11
90.9577457715
 21
13.4579763825
 31
0.0
  0
LINE
  5
91
330
63
100
AcDbEntity
  8
0
  6
Continuous
 62
     7
370
    18
100
AcDbLine
 10
78.6309362756
 20
12.8788539549
 30
0.0
 11
78.8360757629
 21
3.6475770268
 31
0.0
  0
LINE
  5
92
330
63
100
AcDbEntity
  8
0
  6
Continuous
 62
     7
370
    18
100
AcDbLine
 10
80.4094186633
 20
4.6950685544
 30
0.0
 11
90.1819221045
 21
5.4824266516
 31
0.0
  0
LINE
  5
93
330
63
100
AcDbEntity
  8
0
  6
Continuous
 62
     7
370
    18
100
AcDbLine
 10
79.1595373973
 20
3.3551666867
 30
0.0
 11
91.2569309872
 21
4.3071688694
 31
0.0
  0
LINE
  5
94
330
63
100
AcDbEntity
  8
0
  6
Continuous
 62
     7
370
    18
100
AcDbLine
 10
79.2585043218
 20
2.925017226
 30
0.0
 11
80.4858981444
 21
1.533240302
 31
0.0
  0
LINE
  5
95
330
63
100
AcDbEntity
  8
0
  6
Continuous
 62
     7
370
    18
100
AcDbLine
 10
78.0344191726
 20
3.5235305166
 30
0.0
 11
78.3638740472
 21
3.1446574108
 31
0.0
  0
LINE
  5
96
330
63
100
AcDbEntity
  8
0
  6
Continuous
 62
     7
370
    18
100
AcDbLine
 10
78.3638740472
 20
3.1446574108
 30
0.0
 11
78.4680611395
 21
3.0248422547
 31
0.0
  0
LINE
  5
97
330
63
100
AcDbEntity
  8
0
  6
Continuous
 62
     7
370
    18
100
AcDbLine
 10
81.3414110113
 20
1.2002475785
 30
0.0
 11
89.3291569519
 21
2.0477010263
 31
0.0
  0
LINE
  5
98
330
63
100
AcDbEntity
  8
0
  6
Continuous
 62
     7
370
    18
100
AcDbLine
 10
89.8661472522
 20
2.5197759309
 30
0.0
 11
89.8661472522
 21
2.3090867337
 31
0.0
  0
LINE
  5
99
330
63
100
AcDbEntity
  8
0
  6
Continuous
 62
     7
370
    18
100
AcDbLine
 10
88.676842368
 20
3.6762854359
 30
0.0
 11
89.6713239345
 21
2.7875997807
 31
0.0
  0
LINE
  5
9A
330
63
100
AcDbEntity
  8
0
  6
Continuous
 62
     7
370
    18
100
AcDbLine
 10
89.6713239345
 20
2.7875997807
 30
0.0
 11
89.7459749087
 21
2.7242700694
 31
0.0
  0
LINE
  5
9B
330
63
100
AcDbEntity
  8
0
  6
Continuous
 62
     7
370
    18
100
AcDbLine
 10
90.7982178739
 20
3.8455002136
 30
0.0
 11
91.3961615969
 21
4.3514525945
 31
0.0
  0
LINE
  5
9C
330
63
100
AcDbEntity
  8
0
  6
Continuous
 62
     7
370
    18
100
AcDbLine
 10
90.6442498554
 20
13.7381534621
 30
0.0
 11
78.1502930503
 21
13.1490474438
 31
0.0
  0
LINE
  5
9D
330
63
100
AcDbEntity
  8
0
  6
Continuous
 62
     7
370
    18
100
AcDbLine
 10
80.1347709981
 20
12.2388892068
 30
0.0
 11
89.8487925667
 21
12.7550932515
 31
0.0
  0
LINE
  5
9E
330
63
100
AcDbEntity
  8
0
  6
Continuous
 62
     7
370
    18
100
AcDbLine
 10
76.4935641943
 20
11.7567556248
 30
0.0
 11
76.6545490427
 21
5.8693097374
 31
0.0
  0
LINE
  5
9F
330
63
100
AcDbEntity
  8
0
  6
Continuous
 62
     7
370
    18
100
AcDbLine
 10
79.8508616208
 20
11.929182536
 30
0.0
 11
80.0854971721
 21
4.9839702153
 31
0.0
  0
LINE
  5
A0
330
63
100
AcDbEntity
  8
0
  6
Continuous
 62
     7
370
    18
100
AcDbLine
 10
80.5293311574
 20
9.7310185051
 30
0.0
 11
80.6057415643
 21
7.4769115
 31
0.0
  0
LINE
  5
A1
330
63
100
AcDbEntity
  8
0
  6
Continuous
 62
     7
370
    18
100
AcDbLine
 10
77.507650604
 20
12.7708420346
 30
0.0
 11
76.4935641943
 21
11.7567556248
 31
0.0
  0
LINE
  5
A2
330
63
100
AcDbEntity
  8
0
  6
Continuous
 62
     7
370
    18
100
AcDbLine
 10
86.8848195129
 20
11.0661568594
 30
0.0
 11
88.6742167283
 21
11.1634880887
 31
0.0
  0
LINE
  5
A3
330
63
100
AcDbEntity
  8
0
  6
Continuous
 62
     7
370
    18
100
AcDbLine
 10
87.0766213517
 20
6.9287171941
 30
0.0
 11
88.90708891
 21
7.0695223909
 31
0.0
  0
LINE
  5
A4
330
63
100
AcDbEntity
  8
0
  6
Continuous
 62
     7
370
    18
100
AcDbLine
 10
87.6830038473
 20
7.6147347768
 30
0.0
 11
88.8536252418
 21
7.7047825764
 31
0.0
  0
LINE
  5
A5
330
63
100
AcDbEntity
  8
0
  6
Continuous
 62
     7
370
    18
100
AcDbLine
 10
87.5509212094
 20
10.4639459651
 30
0.0
 11
88.7088412777
 21
10.5269290651
 31
0.0
  0
LINE
  5
A6
330
63
100
AcDbEntity
  8
0
  6
Continuous
 62
     7
370
    18
100
AcDbLine
 10
87.0766218384
 20
6.9287066941
 30
0.0
 11
86.8848195129
 21
11.0661568594
 31
0.0
  0
LINE
  5
A7
330
63
100
AcDbEntity
  8
0
  6
Continuous
 62
     7
370
    18
100
AcDbLine
 10
83.7004598825
 20
6.6667911093
 30
0.0
 11
84.5054929504
 21
10.9267193262
 31
0.0
  0
LINE
  5
A8
330
63
100
AcDbEntity
  8
0
  6
Continuous
 62
     7
370
    18
100
AcDbLine
 10
85.3543248406
 20
10.9728900984
 30
0.0
 11
86.4940946704
 21
6.8816860929
 31
0.0
  0
LINE
  5
A9
330
63
100
AcDbEntity
  8
0
  6
Continuous
 62
     7
370
    18
100
AcDbLine
 10
84.9728575427
 20
9.9667192298
 30
0.0
 11
85.4540299774
 21
8.2395506903
 31
0.0
  0
LINE
  5
AA
330
63
100
AcDbEntity
  8
0
  6
Continuous
 62
     7
370
    18
100
AcDbLine
 10
84.6363094629
 20
8.1858350416
 30
0.0
 11
84.9728575427
 21
9.9667192298
 31
0.0
  0
LINE
  5
AB
330
63
100
AcDbEntity
  8
0
  6
Continuous
 62
     7
370
    18
100
AcDbLine
 10
87.6830038473
 20
7.6147347768
 30
0.0
 11
87.5509212094
 21
10.4639459651
 31
0.0
  0
LINE
  5
AC
330
63
100
AcDbEntity
  8
0
  6
Continuous
 62
     7
370
    18
100
AcDbLine
 10
84.6363094629
 20
8.1858350416
 30
0.0
 11
85.4540299774
 21
8.2395506903
 31
0.0
  0
LINE
  5
AD
330
63
100
AcDbEntity
  8
0
  6
Continuous
 62
     7
370
    18
100
AcDbLine
 10
84.5140586807
 20
7.5389304886
 30
0.0
 11
85.6288154243
 21
7.6121582976
 31
0.0
  0
LINE
  5
AE
330
63
100
AcDbEntity
  8
0
  6
Continuous
 62
     7
370
    18
100
AcDbLine
 10
84.3588137958
 20
6.717433718
 30
0.0
 11
84.5140586807
 21
7.5389304886
 31
0.0
  0
LINE
  5
AF
330
63
100
AcDbEntity
  8
0
  6
Continuous
 62
     7
370
    18
100
AcDbLine
 10
81.6818640104
 20
6.5137358601
 30
0.0
 11
82.4802416972
 21
6.5751495283
 31
0.0
  0
LINE
  5
B0
330
63
100
AcDbEntity
  8
0
  6
Continuous
 62
     7
370
    18
100
AcDbLine
 10
81.6329699923
 20
7.1493580946
 30
0.0
 11
82.4313476791
 21
7.2107717628
 31
0.0
  0
LINE
  5
B1
330
63
100
AcDbEntity
  8
0
  6
Continuous
 62
     7
370
    18
100
AcDbLine
 10
83.7004598825
 20
6.6667911093
 30
0.0
 11
84.3588137958
 21
6.717433718
 31
0.0
  0
LINE
  5
B2
330
63
100
AcDbEntity
  8
0
  6
Continuous
 62
     7
370
    18
100
AcDbLine
 10
82.7059483815
 20
9.3512024135
 30
0.0
 11
83.3423973297
 21
9.3930104243
 31
0.0
  0
LINE
  5
B3
330
63
100
AcDbEntity
  8
0
  6
Continuous
 62
     7
370
    18
100
AcDbLine
 10
82.7491656358
 20
8.0762934118
 30
0.0
 11
83.385614584
 21
8.1181014226
 31
0.0
  0
LINE
  5
B4
330
63
100
AcDbEntity
  8
0
  6
Continuous
 62
     7
370
    18
100
AcDbLine
 10
81.1664651987
 20
9.7526162692
 30
0.0
 11
81.2428756056
 21
7.4985092641
 31
0.0
  0
LINE
  5
B5
330
63
100
AcDbEntity
  8
0
  6
Continuous
 62
     7
370
    18
100
AcDbLine
 10
82.6900353128
 20
9.8206379383
 30
0.0
 11
82.7052632884
 21
9.3714126602
 31
0.0
  0
LINE
  5
B6
330
63
100
AcDbEntity
  8
0
  6
Continuous
 62
     7
370
    18
100
AcDbLine
 10
82.7491656358
 20
8.0762934118
 30
0.0
 11
82.7658371041
 21
7.5844850954
 31
0.0
  0
LINE
  5
B7
330
63
100
AcDbEntity
  8
0
  6
Continuous
 62
     7
370
    18
100
AcDbLine
 10
83.3271693541
 20
9.8422357024
 30
0.0
 11
83.3423973297
 21
9.3930104243
 31
0.0
  0
LINE
  5
B8
330
63
100
AcDbEntity
  8
0
  6
Continuous
 62
     7
370
    18
100
AcDbLine
 10
83.385614584
 20
8.1181014226
 30
0.0
 11
83.4029711454
 21
7.6060828595
 31
0.0
  0
LINE
  5
B9
330
63
100
AcDbEntity
  8
0
  6
Continuous
 62
     7
370
    18
100
AcDbLine
 10
85.6288154243
 20
7.6121582976
 30
0.0
 11
85.8462022593
 21
6.8318482152
 31
0.0
  0
LINE
  5
BA
330
63
100
AcDbEntity
  8
0
  6
Continuous
 62
     7
370
    18
100
AcDbLine
 10
85.8462022593
 20
6.8318482152
 30
0.0
 11
86.4940946704
 21
6.8816860929
 31
0.0
  0
LINE
  5
BB
330
63
100
AcDbEntity
  8
0
  6
Continuous
 62
     7
370
    18
100
AcDbLine
 10
84.5054929504
 20
10.9267193262
 30
0.0
 11
85.3543248406
 21
10.9728900984
 31
0.0
  0
LINE
  5
BC
330
63
100
AcDbEntity
  8
0
  6
Continuous
 62
     7
370
    18
100
AcDbLine
 10
81.4744440858
 20
10.7634213094
 30
0.0
 11
82.2734303883
 21
10.8068808154
 31
0.0
  0
LINE
  5
BD
330
63
100
AcDbEntity
  8
0
  6
Continuous
 62
     7
370
    18
100
AcDbLine
 10
81.5090686352
 20
10.1268622858
 30
0.0
 11
82.3080549377
 21
10.1703217918
 31
0.0
  0
LINE
  5
BE
330
63
100
AcDbEntity
  8
0
  6
Continuous
 62
     7
370
    18
100
AcDbLine
 10
90.4575406452
 20
5.7946206556
 30
0.0
 11
90.1644232213
 21
12.4686789239
 31
0.0
  0
LINE
  5
BF
330
63
100
AcDbEntity
  8
0
  6
Continuous
 62
     7
370
    18
100
AcDbLine
 10
89.8247499755
 20
8.1125227115
 30
0.0
 11
89.7274569615
 21
10.2112720142
 31
0.0
  0
LINE
  5
C0
330
63
100
AcDbEntity
  8
0
  6
Continuous
 62
     7
370
    18
100
AcDbLine
 10
89.1879338763
 20
8.0830014354
 30
0.0
 11
89.0906408622
 21
10.181750738
 31
0.0
  0
LINE
  5
C1
330
63
100
AcDbEntity
  8
0
  6
Continuous
 62
     7
370
    18
100
AcDbLine
 10
89.7459749087
 20
2.7242700694
 30
0.0
 11
89.7974962577
 21
2.6659765769
 31
0.0
  0
LINE
  5
C2
330
63
100
AcDbEntity
  8
0
  6
Continuous
 62
     7
370
    18
100
AcDbLine
 10
89.7974962577
 20
2.6659765769
 30
0.0
 11
89.8351851379
 21
2.60192886
 31
0.0
  0
LINE
  5
C3
330
63
100
AcDbEntity
  8
0
  6
Continuous
 62
     7
370
    18
100
AcDbLine
 10
89.8351851379
 20
2.60192886
 30
0.0
 11
89.8661472522
 21
2.5197759309
 31
0.0
  0
LINE
  5
C4
330
63
100
AcDbEntity
  8
0
  6
Continuous
 62
     7
370
    18
100
AcDbLine
 10
10.6119938288
 20
7.2203138351
 30
0.0
 11
11.2200151261
 21
7.5713550947
 31
0.0
  0
LINE
  5
C5
330
63
100
AcDbEntity
  8
0
  6
Continuous
 62
     7
370
    18
100
AcDbLine
 10
11.2347279503
 20
5.2647430194
 30
0.0
 11
10.6267781168
 21
5.6157430194
 31
0.0
  0
LINE
  5
C6
330
63
100
AcDbEntity
  8
0
  6
Continuous
 62
     7
370
    18
100
AcDbLine
 10
6.4645062371
 20
16.1712617198
 30
0.0
 11
6.4645062371
 21
2.9364593988
 31
0.0
  0
LINE
  5
C7
330
63
100
AcDbEntity
  8
0
  6
Continuous
 62
     7
370
    18
100
AcDbLine
 10
6.4645062371
 20
2.9364593988
 30
0.0
 11
12.0532757459
 21
2.9364593988
 31
0.0
  0
LINE
  5
C8
330
63
100
AcDbEntity
  8
0
  6
Continuous
 62
     7
370
    18
100
AcDbLine
 10
12.0532757459
 20
2.9364593988
 30
0.0
 11
12.0532757459
 21
16.1712617198
 31
0.0
  0
LINE
  5
C9
330
63
100
AcDbEntity
  8
0
  6
Continuous
 62
     7
370
    18
100
AcDbLine
 10
12.0532757459
 20
16.1712617198
 30
0.0
 11
6.4645062371
 21
16.1712617198
 31
0.0
  0
LINE
  5
CA
330
63
100
AcDbEntity
  8
0
  6
Continuous
 62
     7
370
    18
100
AcDbLine
 10
0.0
 20
16.1712617198
 30
0.0
 11
0.0
 21
2.9364593988
 31
0.0
  0
LINE
  5
CB
330
63
100
AcDbEntity
  8
0
  6
Continuous
 62
     7
370
    18
100
AcDbLine
 10
0.0
 20
2.9364593988
 30
0.0
 11
5.5887695089
 21
2.9364593988
 31
0.0
  0
LINE
  5
CC
330
63
100
AcDbEntity
  8
0
  6
Continuous
 62
     7
370
    18
100
AcDbLine
 10
5.5887695089
 20
2.9364593988
 30
0.0
 11
5.5887695089
 21
16.1712617198
 31
0.0
  0
LINE
  5
CD
330
63
100
AcDbEntity
  8
0
  6
Continuous
 62
     7
370
    18
100
AcDbLine
 10
5.5887695089
 20
16.1712617198
 30
0.0
 11
0.0
 21
16.1712617198
 31
0.0
  0
LINE
  5
CE
330
63
100
AcDbEntity
  8
0
  6
Continuous
 62
     7
370
    18
100
AcDbLine
 10
1.2591262606
 20
4.7264381407
 30
0.0
 11
4.3296432482
 21
4.7264381407
 31
0.0
  0
LINE
  5
CF
330
63
100
AcDbEntity
  8
0
  6
Continuous
 62
     7
370
    18
100
AcDbLine
 10
4.3738223747
 20
4.0932862697
 30
0.0
 11
5.0758301722
 21
4.0932862697
 31
0.0
  0
LINE
  5
D0
330
63
100
AcDbEntity
  8
0
  6
Continuous
 62
     7
370
    18
100
AcDbLine
 10
0.5129393366
 20
4.0932862697
 30
0.0
 11
1.2149471342
 21
4.0932862697
 31
0.0
  0
LINE
  5
D1
330
63
100
AcDbEntity
  8
0
  6
Continuous
 62
     7
370
    18
100
AcDbLine
 10
4.1819643097
 20
5.4284381407
 30
0.0
 11
1.4068051992
 21
5.4284381407
 31
0.0
  0
LINE
  5
D2
330
63
100
AcDbEntity
  8
0
  6
Continuous
 62
     7
370
    18
100
AcDbLine
 10
18.517781983
 20
16.1712617198
 30
0.0
 11
18.517781983
 21
2.9364593988
 31
0.0
  0
LINE
  5
D3
330
63
100
AcDbEntity
  8
0
  6
Continuous
 62
     7
370
    18
100
AcDbLine
 10
18.517781983
 20
2.9364593988
 30
0.0
 11
12.9290124742
 21
2.9364593988
 31
0.0
  0
LINE
  5
D4
330
63
100
AcDbEntity
  8
0
  6
Continuous
 62
     7
370
    18
100
AcDbLine
 10
12.9290124742
 20
2.9364593988
 30
0.0
 11
12.9290124742
 21
16.1712617198
 31
0.0
  0
LINE
  5
D5
330
63
100
AcDbEntity
  8
0
  6
Continuous
 62
     7
370
    18
100
AcDbLine
 10
12.9290124742
 20
16.1712617198
 30
0.0
 11
18.517781983
 21
16.1712617198
 31
0.0
  0
INSERT
  5
DB
330
63
100
AcDbEntity
  8
0
  6
Continuous
 62
     7
370
     0
100
AcDbBlockReference
  2
SW_NOTE_0
 10
1.8998941161
 20
-0.3226565443
 30
0.0
  0
INSERT
  5
E0
330
63
100
AcDbEntity
  8
0
  6
Continuous
 62
     7
370
     0
100
AcDbBlockReference
  2
SW_NOTE_0_1
 10
29.1164837035
 20
12.7459167441
 30
0.0
  0
INSERT
  5
E8
330
63
100
AcDbEntity
  8
0
  6
Continuous
 62
     7
370
     0
100
AcDbBlockReference
  2
SW_NOTE_0_2
 10
28.8863479825
 20
8.6365742194
 30
0.0
  0
ENDBLK
  5
65
330
63
100
AcDbEntity
  8
0
100
AcDbBlockEnd
  0
BLOCK
  5
D7
330
D6
100
AcDbEntity
  8
0
100
AcDbBlockBegin
  2
SW_NOTE_0
 70
     0
 10
0.0
 20
0.0
 30
0.0
  3
SW_NOTE_0
  1

  0
MTEXT
  5
DA
330
D6
100
AcDbEntity
  8
0
  6
Continuous
 62
     0
370
     0
100
AcDbMText
 10
7.46875
 20
2.5781354795
 30
0.0
 40
2.0
 41
0.0
 71
     2
 72
     1
  1
www.aco.ch
  7
SLDTEXTSTYLE0
 73
     1
 44
1.0
  0
ENDBLK
  5
D8
330
D6
100
AcDbEntity
  8
0
100
AcDbBlockEnd
  0
BLOCK
  5
DD
330
DC
100
AcDbEntity
  8
0
100
AcDbBlockBegin
  2
SW_NOTE_0_1
 70
     0
 10
0.0
 20
0.0
 30
0.0
  3
SW_NOTE_0_1
  1

  0
MTEXT
  5
DF
330
DC
100
AcDbEntity
  8
0
  6
Continuous
 62
     0
370
     0
100
AcDbMText
 10
0.0
 20
3.8672032193
 30
0.0
 40
3.0
 41
0.0
 71
     1
 72
     1
  1
ACO AG
  7
SLDTEXTSTYLE0
 73
     1
 44
1.0
  0
ENDBLK
  5
DE
330
DC
100
AcDbEntity
  8
0
100
AcDbBlockEnd
  0
BLOCK
  5
E2
330
E1
100
AcDbEntity
  8
0
100
AcDbBlockBegin
  2
SW_NOTE_0_2
 70
     0
 10
0.0
 20
0.0
 30
0.0
  3
SW_NOTE_0_2
  1

  0
MTEXT
  5
E4
330
E1
100
AcDbEntity
  8
0
  6
Continuous
 62
     0
370
     0
100
AcDbMText
 10
0.0
 20
2.5781354795
 30
0.0
 40
2.0
 41
0.0
 71
     1
 72
     1
  1
Industrie Kleinzaun
  7
SLDTEXTSTYLE0
 73
     1
 44
1.0
  0
MTEXT
  5
E5
330
E1
100
AcDbEntity
  8
0
  6
Continuous
 62
     0
370
     0
100
AcDbMText
 10
0.0
 20
-0.4218645465
 30
0.0
 40
2.0
 41
0.0
 71
     1
 72
     1
  1
CH-8754 Netstal
  7
SLDTEXTSTYLE0
 73
     1
 44
1.0
  0
MTEXT
  5
E6
330
E1
100
AcDbEntity
  8
0
  6
Continuous
 62
     0
370
     0
100
AcDbMText
 10
0.0
 20
-3.4218645726
 30
0.0
 40
2.0
 41
0.0
 71
     1
 72
     1
  1
Tel. 055 / 645 53 00
  7
SLDTEXTSTYLE0
 73
     1
 44
1.0
  0
MTEXT
  5
E7
330
E1
100
AcDbEntity
  8
0
  6
Continuous
 62
     0
370
     0
100
AcDbMText
 10
0.0
 20
-6.4218645987
 30
0.0
 40
2.0
 41
0.0
 71
     1
 72
     1
  1
E-Mail: aco@aco.ch
  7
SLDTEXTSTYLE0
 73
     1
 44
1.0
  0
ENDBLK
  5
E3
330
E1
100
AcDbEntity
  8
0
100
AcDbBlockEnd
  0
BLOCK
  5
41B
330
41A
100
AcDbEntity
  8
0
100
AcDbBlockBegin
  2
_D
 70
     0
 10
0.0
 20
0.0
 30
0.0
  3
_D
  1

  0
SOLID
  5
41D
330
41A
100
AcDbEntity
  8
0
  6
Continuous
 62
     7
370
    18
100
AcDbTrace
 10
60.5037622708
 20
181.926240686
 30
0.0
 11
63.0037622708
 21
181.551240686
 31
0.0
 12
63.0037622708
 22
182.301240686
 32
0.0
 13
63.0037622708
 23
182.301240686
 33
0.0
  0
SOLID
  5
41E
330
41A
100
AcDbEntity
  8
0
  6
Continuous
 62
     7
370
    18
100
AcDbTrace
 10
195.5037622708
 20
181.926240686
 30
0.0
 11
193.0037622708
 21
182.301240686
 31
0.0
 12
193.0037622708
 22
181.551240686
 32
0.0
 13
193.0037622708
 23
181.551240686
 33
0.0
  0
LINE
  5
41F
330
41A
100
AcDbEntity
  8
0
  6
Continuous
 62
     7
370
     0
100
AcDbLine
 10
60.5037622708
 20
174.426240686
 30
0.0
 11
60.5037622708
 21
182.926240686
 31
0.0
  0
LINE
  5
420
330
41A
100
AcDbEntity
  8
0
  6
Continuous
 62
     7
370
     0
100
AcDbLine
 10
195.5037622708
 20
174.426240686
 30
0.0
 11
195.5037622708
 21
182.926240686
 31
0.0
  0
LINE
  5
421
330
41A
100
AcDbEntity
  8
0
  6
Continuous
 62
     7
370
     0
100
AcDbLine
 10
60.5037622708
 20
181.926240686
 30
0.0
 11
195.5037622708
 21
181.926240686
 31
0.0
  0
INSERT
  5
429
330
41A
100
AcDbEntity
  8
0
  6
Continuous
 62
     7
370
    18
100
AcDbBlockReference
  2
SW_SYMBOL_MOD_BOX
 10
123.2890339378
 20
182.3086533913
 30
0.0
 41
0.0034106584
 42
0.0034106584
 43
0.0034106584
  0
MTEXT
  5
42A
330
41A
100
AcDbEntity
  8
0
  6
Continuous
 62
     7
370
    18
100
AcDbMText
 10
126.8388602692
 20
185.3368992554
 30
0.0
 40
2.6458333333
 41
0.0
 71
     1
 72
     1
  1
135
  7
SLDTEXTSTYLE0
 73
     1
 44
1.0
  0
ENDBLK
  5
41C
330
41A
100
AcDbEntity
  8
0
100
AcDbBlockEnd
  0
BLOCK
  5
423
330
422
100
AcDbEntity
  8
0
100
AcDbBlockBegin
  2
SW_SYMBOL_MOD_BOX
 70
     0
 10
0.0
 20
0.0
 30
0.0
  3
SW_SYMBOL_MOD_BOX
  1

  0
LINE
  5
425
330
422
100
AcDbEntity
  8
0
  6
Continuous
 62
     0
370
    18
100
AcDbLine
 10
200.0
 20
200.0
 30
0.0
 11
800.0
 21
200.0
 31
0.0
  0
LINE
  5
426
330
422
100
AcDbEntity
  8
0
  6
Continuous
 62
     0
370
    18
100
AcDbLine
 10
200.0
 20
200.0
 30
0.0
 11
200.0
 21
800.0
 31
0.0
  0
LINE
  5
427
330
422
100
AcDbEntity
  8
0
  6
Continuous
 62
     0
370
    18
100
AcDbLine
 10
200.0
 20
800.0
 30
0.0
 11
800.0
 21
800.0
 31
0.0
  0
LINE
  5
428
330
422
100
AcDbEntity
  8
0
  6
Continuous
 62
     0
370
    18
100
AcDbLine
 10
800.0
 20
800.0
 30
0.0
 11
800.0
 21
200.0
 31
0.0
  0
ENDBLK
  5
424
330
422
100
AcDbEntity
  8
0
100
AcDbBlockEnd
  0
BLOCK
  5
497
330
496
100
AcDbEntity
  8
0
100
AcDbBlockBegin
  2
_D_1
 70
     0
 10
0.0
 20
0.0
 30
0.0
  3
_D_1
  1

  0
SOLID
  5
499
330
496
100
AcDbEntity
  8
0
  6
Continuous
 62
     7
370
    18
100
AcDbTrace
 10
53.5037622708
 20
236.1483537524
 30
0.0
 11
53.1287622708
 21
233.6483537524
 31
0.0
 12
53.8787622708
 22
233.6483537524
 32
0.0
 13
53.8787622708
 23
233.6483537524
 33
0.0
  0
SOLID
  5
49A
330
496
100
AcDbEntity
  8
0
  6
Continuous
 62
     7
370
    18
100
AcDbTrace
 10
53.5037622708
 20
240.4483537524
 30
0.0
 11
53.8787622708
 21
242.9483537524
 31
0.0
 12
53.1287622708
 22
242.9483537524
 32
0.0
 13
53.1287622708
 23
242.9483537524
 33
0.0
  0
LINE
  5
49B
330
496
100
AcDbEntity
  8
0
  6
Continuous
 62
     7
370
     0
100
AcDbLine
 10
74.8785887913
 20
236.1483537524
 30
0.0
 11
52.5037622708
 21
236.1483537524
 31
0.0
  0
LINE
  5
49C
330
496
100
AcDbEntity
  8
0
  6
Continuous
 62
     7
370
     0
100
AcDbLine
 10
60.2037622708
 20
240.4483537524
 30
0.0
 11
52.5037622708
 21
240.4483537524
 31
0.0
  0
LINE
  5
49D
330
496
100
AcDbEntity
  8
0
  6
Continuous
 62
     7
370
     0
100
AcDbLine
 10
53.5037622708
 20
236.1483537524
 30
0.0
 11
53.5037622708
 21
231.1483537524
 31
0.0
  0
LINE
  5
49E
330
496
100
AcDbEntity
  8
0
  6
Continuous
 62
     7
370
     0
100
AcDbLine
 10
53.5037622708
 20
236.1483537524
 30
0.0
 11
53.5037622708
 21
240.4483537524
 31
0.0
  0
LINE
  5
49F
330
496
100
AcDbEntity
  8
0
  6
Continuous
 62
     7
370
     0
100
AcDbLine
 10
53.5037622708
 20
240.4483537524
 30
0.0
 11
53.5037622708
 21
245.4483537524
 31
0.0
  0
MTEXT
  5
4A0
330
496
100
AcDbEntity
  8
0
  6
Continuous
 62
     7
370
    18
100
AcDbMText
 10
50.0931037014
 20
235.8485078572
 30
0.0
 40
2.6458333333
 41
0.0
 71
     1
 72
     1
  1
4.3
  7
SLDTEXTSTYLE0
 11
6.123233995736766E-17
 21
1.0
 31
0.0
 73
     1
 44
1.0
  0
ENDBLK
  5
498
330
496
100
AcDbEntity
  8
0
100
AcDbBlockEnd
  0
BLOCK
  5
4A3
330
4A2
100
AcDbEntity
  8
0
100
AcDbBlockBegin
  2
_D_2
 70
     0
 10
0.0
 20
0.0
 30
0.0
  3
_D_2
  1

  0
SOLID
  5
4A5
330
4A2
100
AcDbEntity
  8
0
  6
Continuous
 62
     7
370
    18
100
AcDbTrace
 10
202.5037622708
 20
240.4483537524
 30
0.0
 11
202.8787622708
 21
242.9483537524
 31
0.0
 12
202.1287622708
 22
242.9483537524
 32
0.0
 13
202.1287622708
 23
242.9483537524
 33
0.0
  0
SOLID
  5
4A6
330
4A2
100
AcDbEntity
  8
0
  6
Continuous
 62
     7
370
    18
100
AcDbTrace
 10
202.5037622708
 20
238.4483537524
 30
0.0
 11
202.1287622708
 21
235.9483537524
 31
0.0
 12
202.8787622708
 22
235.9483537524
 32
0.0
 13
202.8787622708
 23
235.9483537524
 33
0.0
  0
LINE
  5
4A7
330
4A2
100
AcDbEntity
  8
0
  6
Continuous
 62
     7
370
     0
100
AcDbLine
 10
195.8037622708
 20
240.4483537524
 30
0.0
 11
203.5037622708
 21
240.4483537524
 31
0.0
  0
LINE
  5
4A8
330
4A2
100
AcDbEntity
  8
0
  6
Continuous
 62
     7
370
     0
100
AcDbLine
 10
195.8037622708
 20
238.4483537524
 30
0.0
 11
203.5037622708
 21
238.4483537524
 31
0.0
  0
LINE
  5
4A9
330
4A2
100
AcDbEntity
  8
0
  6
Continuous
 62
     7
370
     0
100
AcDbLine
 10
202.5037622708
 20
240.4483537524
 30
0.0
 11
202.5037622708
 21
245.4695379332
 31
0.0
  0
LINE
  5
4AA
330
4A2
100
AcDbEntity
  8
0
  6
Continuous
 62
     7
370
     0
100
AcDbLine
 10
202.5037622708
 20
240.4483537524
 30
0.0
 11
202.5037622708
 21
238.4483537524
 31
0.0
  0
LINE
  5
4AB
330
4A2
100
AcDbEntity
  8
0
  6
Continuous
 62
     7
370
     0
100
AcDbLine
 10
202.5037622708
 20
238.4483537524
 30
0.0
 11
202.5037622708
 21
233.4483537524
 31
0.0
  0
MTEXT
  5
4AC
330
4A2
100
AcDbEntity
  8
0
  6
Continuous
 62
     7
370
    18
100
AcDbMText
 10
199.0931037014
 20
243.5096613102
 30
0.0
 40
2.6458333333
 41
0.0
 71
     1
 72
     1
  1
2
  7
SLDTEXTSTYLE0
 11
-7.044195017643634E-15
 21
1.0
 31
0.0
 73
     1
 44
1.0
  0
ENDBLK
  5
4A4
330
4A2
100
AcDbEntity
  8
0
100
AcDbBlockEnd
  0
ENDSEC
  0
SECTION
  2
ENTITIES
  0
LINE
  5
E9
330
1F
100
AcDbEntity
  8
0
  6
CENTERX2
 62
     7
370
    18
100
AcDbLine
 10
352.6174545849
 20
46.9080238789
 30
0.0
 11
352.6174545849
 21
39.4621586124
 31
0.0
  0
LINE
  5
EA
330
1F
100
AcDbEntity
  8
0
  6
Continuous
 62
     7
370
    18
100
AcDbLine
 10
357.7661698132
 20
46.3720107039
 30
0.0
 11
357.7661698132
 21
39.9353173413
 31
0.0
  0
LINE
  5
EB
330
1F
100
AcDbEntity
  8
0
  6
Continuous
 62
     7
370
    18
100
AcDbLine
 10
364.6059427486
 20
44.7376225767
 30
0.0
 11
364.6059427486
 21
41.5697054685
 31
0.0
  0
LINE
  5
EC
330
1F
100
AcDbEntity
  8
0
  6
Continuous
 62
     7
370
    18
100
AcDbLine
 10
364.6059427486
 20
44.7376225767
 30
0.0
 11
357.7661698132
 21
46.3720107039
 31
0.0
  0
LINE
  5
ED
330
1F
100
AcDbEntity
  8
0
  6
Continuous
 62
     7
370
    18
100
AcDbLine
 10
15.0
 20
198.5
 30
0.0
 11
20.0
 21
198.5
 31
0.0
  0
LINE
  5
EE
330
1F
100
AcDbEntity
  8
0
  6
Continuous
 62
     7
370
    18
100
AcDbLine
 10
12.0
 20
148.5
 30
0.0
 11
0.0
 21
148.5
 31
0.0
  0
LINE
  5
EF
330
1F
100
AcDbEntity
  8
0
  6
Continuous
 62
     7
370
    18
100
AcDbLine
 10
357.7661698132
 20
39.9353173413
 30
0.0
 11
364.6059427486
 21
41.5697054685
 31
0.0
  0
LINE
  5
F0
330
1F
100
AcDbEntity
  8
0
  6
CENTERX2
 62
     7
370
    18
100
AcDbLine
 10
348.6240467841
 20
43.1536640226
 30
0.0
 11
356.6108623857
 21
43.1536640226
 31
0.0
  0
LINE
  5
F1
330
1F
100
AcDbEntity
  8
0
  6
CENTERX2
 62
     7
370
    18
100
AcDbLine
 10
357.1289238876
 20
43.1536640226
 30
0.0
 11
365.6255362296
 21
43.1536640226
 31
0.0
  0
LINE
  5
F2
330
1F
100
AcDbEntity
  8
0
  6
Continuous
 62
     7
370
    18
100
AcDbLine
 10
0.0
 20
0.0
 30
0.0
 11
420.0
 21
0.0
 31
0.0
  0
LINE
  5
F3
330
1F
100
AcDbEntity
  8
0
  6
Continuous
 62
     7
370
    18
100
AcDbLine
 10
0.0
 20
0.0
 30
0.0
 11
0.0
 21
297.0
 31
0.0
  0
LINE
  5
F4
330
1F
100
AcDbEntity
  8
0
  6
Continuous
 62
     7
370
    18
100
AcDbLine
 10
0.0
 20
297.0
 30
0.0
 11
420.0
 21
297.0
 31
0.0
  0
LINE
  5
F5
330
1F
100
AcDbEntity
  8
0
  6
Continuous
 62
     7
370
    18
100
AcDbLine
 10
420.0
 20
0.0
 30
0.0
 11
420.0
 21
297.0
 31
0.0
  0
LINE
  5
F6
330
1F
100
AcDbEntity
  8
0
  6
Continuous
 62
     7
370
    25
100
AcDbLine
 10
228.0
 20
35.0
 30
0.0
 11
410.0
 21
35.0
 31
0.0
  0
LINE
  5
F7
330
1F
100
AcDbEntity
  8
0
  6
Continuous
 62
     7
370
    18
100
AcDbLine
 10
410.0
 20
198.5
 30
0.0
 11
415.0
 21
198.5
 31
0.0
  0
LINE
  5
F8
330
1F
100
AcDbEntity
  8
0
  6
Continuous
 62
     7
370
    18
100
AcDbLine
 10
15.0
 20
148.5
 30
0.0
 11
20.0
 21
148.5
 31
0.0
  0
LINE
  5
F9
330
1F
100
AcDbEntity
  8
0
  6
Continuous
 62
     7
370
    18
100
AcDbLine
 10
228.0
 20
40.0
 30
0.0
 11
296.6
 21
40.0
 31
0.0
  0
LINE
  5
FA
330
1F
100
AcDbEntity
  8
0
  6
Continuous
 62
     7
370
    18
100
AcDbLine
 10
15.0
 20
248.5
 30
0.0
 11
20.0
 21
248.5
 31
0.0
  0
LINE
  5
FB
330
1F
100
AcDbEntity
  8
0
  6
Continuous
 62
     7
370
    35
100
AcDbLine
 10
20.0
 20
287.0
 30
0.0
 11
20.0
 21
10.0
 31
0.0
  0
LINE
  5
FC
330
1F
100
AcDbEntity
  8
0
  6
Continuous
 62
     7
370
    35
100
AcDbLine
 10
410.0
 20
287.0
 30
0.0
 11
20.0
 21
287.0
 31
0.0
  0
LINE
  5
FD
330
1F
100
AcDbEntity
  8
0
  6
Continuous
 62
     7
370
    35
100
AcDbLine
 10
410.0
 20
5.0
 30
0.0
 11
410.0
 21
287.0
 31
0.0
  0
LINE
  5
FE
330
1F
100
AcDbEntity
  8
0
  6
Continuous
 62
     7
370
    35
100
AcDbLine
 10
20.0
 20
10.0
 30
0.0
 11
415.0
 21
10.0
 31
0.0
  0
LINE
  5
FF
330
1F
100
AcDbEntity
  8
0
  6
Continuous
 62
     7
370
    18
100
AcDbLine
 10
410.0
 20
148.5
 30
0.0
 11
415.0
 21
148.5
 31
0.0
  0
LINE
  5
100
330
1F
100
AcDbEntity
  8
0
  6
Continuous
 62
     7
370
    18
100
AcDbLine
 10
228.0
 20
50.0
 30
0.0
 11
296.6
 21
50.0
 31
0.0
  0
LINE
  5
101
330
1F
100
AcDbEntity
  8
0
  6
Continuous
 62
     7
370
    18
100
AcDbLine
 10
15.0
 20
98.5
 30
0.0
 11
20.0
 21
98.5
 31
0.0
  0
LINE
  5
102
330
1F
100
AcDbEntity
  8
0
  6
Continuous
 62
     7
370
    18
100
AcDbLine
 10
296.6
 20
45.0
 30
0.0
 11
228.0
 21
45.0
 31
0.0
  0
LINE
  5
103
330
1F
100
AcDbEntity
  8
0
  6
Continuous
 62
     7
370
    18
100
AcDbLine
 10
65.0
 20
292.0
 30
0.0
 11
65.0
 21
287.0
 31
0.0
  0
LINE
  5
104
330
1F
100
AcDbEntity
  8
0
  6
Continuous
 62
     7
370
    18
100
AcDbLine
 10
230.0
 20
292.0
 30
0.0
 11
230.0
 21
297.0
 31
0.0
  0
LINE
  5
105
330
1F
100
AcDbEntity
  8
0
  6
Continuous
 62
     7
370
    25
100
AcDbLine
 10
296.6
 20
55.0
 30
0.0
 11
296.6
 21
35.0
 31
0.0
  0
LINE
  5
106
330
1F
100
AcDbEntity
  8
0
  6
Continuous
 62
     7
370
    18
100
AcDbLine
 10
410.0
 20
98.5
 30
0.0
 11
415.0
 21
98.5
 31
0.0
  0
LINE
  5
107
330
1F
100
AcDbEntity
  8
0
100
AcDbLine
 10
230.0
 20
5.0
 30
0.0
 11
230.0
 21
0.0
 31
0.0
  0
LINE
  5
108
330
1F
100
AcDbEntity
  8
0
  6
Continuous
 62
     7
370
    18
100
AcDbLine
 10
125.0
 20
292.0
 30
0.0
 11
125.0
 21
297.0
 31
0.0
  0
LINE
  5
109
330
1F
100
AcDbEntity
  8
0
  6
Continuous
 62
     7
370
    18
100
AcDbLine
 10
125.0
 20
5.0
 30
0.0
 11
125.0
 21
0.0
 31
0.0
  0
LINE
  5
10A
330
1F
100
AcDbEntity
  8
0
  6
Continuous
 62
     7
370
    25
100
AcDbLine
 10
410.0
 20
55.0
 30
0.0
 11
228.0
 21
55.0
 31
0.0
  0
LINE
  5
10B
330
1F
100
AcDbEntity
  8
0
  6
Continuous
 62
     7
370
    18
100
AcDbLine
 10
228.0
 20
55.0
 30
0.0
 11
410.0
 21
55.0
 31
0.0
  0
LINE
  5
10C
330
1F
100
AcDbEntity
  8
0
  6
Continuous
 62
     7
370
    18
100
AcDbLine
 10
410.0
 20
55.0
 30
0.0
 11
228.0
 21
55.0
 31
0.0
  0
LINE
  5
10D
330
1F
100
AcDbEntity
  8
0
  6
Continuous
 62
     7
370
    18
100
AcDbLine
 10
268.0
 20
76.5
 30
0.0
 11
268.0
 21
55.0
 31
0.0
  0
LINE
  5
10E
330
1F
100
AcDbEntity
  8
0
  6
Continuous
 62
     7
370
    18
100
AcDbLine
 10
271.6
 20
55.0
 30
0.0
 11
271.6
 21
40.0
 31
0.0
  0
LINE
  5
10F
330
1F
100
AcDbEntity
  8
0
  6
Continuous
 62
     7
370
    18
100
AcDbLine
 10
247.0
 20
55.0
 30
0.0
 11
247.0
 21
35.0
 31
0.0
  0
LINE
  5
110
330
1F
100
AcDbEntity
  8
0
  6
Continuous
 62
     7
370
    35
100
AcDbLine
 10
228.0
 20
76.5
 30
0.0
 11
228.0
 21
10.0
 31
0.0
  0
LINE
  5
111
330
1F
100
AcDbEntity
  8
0
  6
Continuous
 62
     7
370
    18
100
AcDbLine
 10
15.0
 20
292.0
 30
0.0
 11
415.0
 21
292.0
 31
0.0
  0
LINE
  5
112
330
1F
100
AcDbEntity
  8
0
  6
Continuous
 62
     7
370
    18
100
AcDbLine
 10
228.0
 20
65.75
 30
0.0
 11
310.0
 21
65.75
 31
0.0
  0
LINE
  5
113
330
1F
100
AcDbEntity
  8
0
  6
Continuous
 62
     7
370
    35
100
AcDbLine
 10
228.0
 20
76.5
 30
0.0
 11
410.0
 21
76.5
 31
0.0
  0
LINE
  5
114
330
1F
100
AcDbEntity
  8
0
  6
Continuous
 62
     7
370
    18
100
AcDbLine
 10
15.0
 20
48.5
 30
0.0
 11
20.0
 21
48.5
 31
0.0
  0
LINE
  5
115
330
1F
100
AcDbEntity
  8
0
  6
Continuous
 62
     7
370
    18
100
AcDbLine
 10
410.0
 20
48.5
 30
0.0
 11
415.0
 21
48.5
 31
0.0
  0
LINE
  5
116
330
1F
100
AcDbEntity
  8
0
  6
Continuous
 62
     7
370
    18
100
AcDbLine
 10
332.6610845472
 20
20.0
 30
0.0
 11
332.6610845472
 21
10.0
 31
0.0
  0
LINE
  5
117
330
1F
100
AcDbEntity
  8
0
  6
Continuous
 62
     7
370
    18
100
AcDbLine
 10
410.0
 20
248.5
 30
0.0
 11
415.0
 21
248.5
 31
0.0
  0
LINE
  5
118
330
1F
100
AcDbEntity
  8
0
  6
Continuous
 62
     7
370
    18
100
AcDbLine
 10
65.0
 20
10.0
 30
0.0
 11
65.0
 21
5.0
 31
0.0
  0
LINE
  5
119
330
1F
100
AcDbEntity
  8
0
  6
Continuous
 62
     7
370
    18
100
AcDbLine
 10
115.0
 20
10.0
 30
0.0
 11
115.0
 21
5.0
 31
0.0
  0
LINE
  5
11A
330
1F
100
AcDbEntity
  8
0
  6
Continuous
 62
     7
370
    18
100
AcDbLine
 10
115.0
 20
292.0
 30
0.0
 11
115.0
 21
287.0
 31
0.0
  0
LINE
  5
11B
330
1F
100
AcDbEntity
  8
0
  6
Continuous
 62
     7
370
    18
100
AcDbLine
 10
165.0
 20
10.0
 30
0.0
 11
165.0
 21
5.0
 31
0.0
  0
LINE
  5
11C
330
1F
100
AcDbEntity
  8
0
  6
Continuous
 62
     7
370
    18
100
AcDbLine
 10
165.0
 20
292.0
 30
0.0
 11
165.0
 21
287.0
 31
0.0
  0
LINE
  5
11D
330
1F
100
AcDbEntity
  8
0
  6
Continuous
 62
     7
370
    18
100
AcDbLine
 10
215.0
 20
10.0
 30
0.0
 11
215.0
 21
5.0
 31
0.0
  0
LINE
  5
11E
330
1F
100
AcDbEntity
  8
0
  6
Continuous
 62
     7
370
    18
100
AcDbLine
 10
215.0
 20
292.0
 30
0.0
 11
215.0
 21
287.0
 31
0.0
  0
LINE
  5
11F
330
1F
100
AcDbEntity
  8
0
  6
Continuous
 62
     7
370
    18
100
AcDbLine
 10
265.0
 20
10.0
 30
0.0
 11
265.0
 21
5.0
 31
0.0
  0
LINE
  5
120
330
1F
100
AcDbEntity
  8
0
  6
Continuous
 62
     7
370
    18
100
AcDbLine
 10
265.0
 20
292.0
 30
0.0
 11
265.0
 21
287.0
 31
0.0
  0
LINE
  5
121
330
1F
100
AcDbEntity
  8
0
  6
Continuous
 62
     7
370
    18
100
AcDbLine
 10
347.6610845472
 20
20.0
 30
0.0
 11
347.6610845472
 21
10.0
 31
0.0
  0
LINE
  5
122
330
1F
100
AcDbEntity
  8
0
  6
Continuous
 62
     7
370
    18
100
AcDbLine
 10
362.6610845472
 20
20.0
 30
0.0
 11
362.6610845472
 21
10.0
 31
0.0
  0
LINE
  5
123
330
1F
100
AcDbEntity
  8
0
  6
Continuous
 62
     7
370
    25
100
AcDbLine
 10
327.6610845472
 20
10.0
 30
0.0
 11
327.6610845472
 21
55.0
 31
0.0
  0
LINE
  5
124
330
1F
100
AcDbEntity
  8
0
  6
Continuous
 62
     7
370
    18
100
AcDbLine
 10
20.0
 20
292.0
 30
0.0
 11
20.0
 21
297.0
 31
0.0
  0
LINE
  5
125
330
1F
100
AcDbEntity
  8
0
  6
Continuous
 62
     7
370
    18
100
AcDbLine
 10
20.0
 20
5.0
 30
0.0
 11
20.0
 21
0.0
 31
0.0
  0
LINE
  5
126
330
1F
100
AcDbEntity
  8
0
  6
Continuous
 62
     7
370
    18
100
AcDbLine
 10
315.0
 20
10.0
 30
0.0
 11
315.0
 21
5.0
 31
0.0
  0
LINE
  5
127
330
1F
100
AcDbEntity
  8
0
  6
Continuous
 62
     7
370
    18
100
AcDbLine
 10
315.0
 20
292.0
 30
0.0
 11
315.0
 21
287.0
 31
0.0
  0
LINE
  5
128
330
1F
100
AcDbEntity
  8
0
  6
Continuous
 62
     7
370
    18
100
AcDbLine
 10
365.0
 20
10.0
 30
0.0
 11
365.0
 21
5.0
 31
0.0
  0
LINE
  5
129
330
1F
100
AcDbEntity
  8
0
  6
Continuous
 62
     7
370
    18
100
AcDbLine
 10
365.0
 20
292.0
 30
0.0
 11
365.0
 21
287.0
 31
0.0
  0
LINE
  5
12A
330
1F
100
AcDbEntity
  8
0
  6
Continuous
 62
     7
370
    18
100
AcDbLine
 10
15.0
 20
292.0
 30
0.0
 11
15.0
 21
5.0
 31
0.0
  0
LINE
  5
12B
330
1F
100
AcDbEntity
  8
0
  6
Continuous
 62
     7
370
    18
100
AcDbLine
 10
15.0
 20
5.0
 30
0.0
 11
415.0
 21
5.0
 31
0.0
  0
LINE
  5
12C
330
1F
100
AcDbEntity
  8
0
  6
Continuous
 62
     7
370
    18
100
AcDbLine
 10
415.0
 20
292.0
 30
0.0
 11
415.0
 21
5.0
 31
0.0
  0
LINE
  5
12D
330
1F
100
AcDbEntity
  8
0
  6
Continuous
 62
     7
370
    18
100
AcDbLine
 10
347.6610845472
 20
44.213444
 30
0.0
 11
327.6610845472
 21
44.213444
 31
0.0
  0
LINE
  5
12E
330
1F
100
AcDbEntity
  8
0
  6
Continuous
 62
     7
370
    18
100
AcDbLine
 10
347.6610845472
 20
35.0
 30
0.0
 11
347.6610845472
 21
55.0
 31
0.0
  0
LINE
  5
12F
330
1F
100
AcDbEntity
  8
0
  6
Continuous
 62
     7
370
    18
100
AcDbLine
 10
370.057188
 20
55.012032
 30
0.0
 11
370.057188
 21
35.0
 31
0.0
  0
LINE
  5
130
330
1F
100
AcDbEntity
  8
0
  6
Continuous
 62
     7
370
    18
100
AcDbLine
 10
398.0
 20
35.0
 30
0.0
 11
398.0
 21
20.0
 31
0.0
  0
LINE
  5
131
330
1F
100
AcDbEntity
  8
0
  6
Continuous
 62
     7
370
    18
100
AcDbLine
 10
410.0
 20
15.0
 30
0.0
 11
327.6610845472
 21
15.0
 31
0.0
  0
LINE
  5
132
330
1F
100
AcDbEntity
  8
0
  6
Continuous
 62
     7
370
    18
100
AcDbLine
 10
327.6610845472
 20
20.0
 30
0.0
 11
410.0
 21
20.0
 31
0.0
  0
LINE
  5
133
330
1F
100
AcDbEntity
  8
0
  6
Continuous
 62
     7
370
    18
100
AcDbLine
 10
341.485486
 20
20.0
 30
0.0
 11
341.485486
 21
27.564675
 31
0.0
  0
LINE
  5
134
330
1F
100
AcDbEntity
  8
0
  6
Continuous
 62
     7
370
    25
100
AcDbLine
 10
310.0
 20
76.5
 30
0.0
 11
310.0
 21
55.0
 31
0.0
  0
CIRCLE
  5
135
330
1F
100
AcDbEntity
  8
0
  6
Continuous
 62
     7
370
    18
100
AcDbCircle
 10
11.0
 20
108.5
 30
0.0
 40
2.750000000000001
  0
CIRCLE
  5
136
330
1F
100
AcDbEntity
  8
0
  6
Continuous
 62
     7
370
    18
100
AcDbCircle
 10
11.0
 20
188.5
 30
0.0
 40
2.750000000000001
  0
CIRCLE
  5
137
330
1F
100
AcDbEntity
  8
0
  6
Continuous
 62
     7
370
    18
100
AcDbCircle
 10
352.6174545849
 20
43.1536640226
 30
0.0
 40
3.218346681300138
  0
CIRCLE
  5
138
330
1F
100
AcDbEntity
  8
0
  6
Continuous
 62
     7
370
    18
100
AcDbCircle
 10
352.6174545849
 20
43.1536640226
 30
0.0
 40
1.583958554121555
  0
INSERT
  5
139
330
1F
100
AcDbEntity
  8
0
  6
Continuous
 62
     7
100
AcDbBlockReference
  2
ACO-Logo
 10
314.3510726297
 20
57.6366106772
 30
0.0
  0
POINT
  5
13A
330
1F
100
AcDbEntity
  8
0
100
AcDbPoint
 10
0.0
 20
0.0
 30
0.0
  0
POINT
  5
13B
330
1F
100
AcDbEntity
  8
0
100
AcDbPoint
 10
410.0
 20
10.0
 30
0.0
  0
MTEXT
  5
13C
330
1F
100
AcDbEntity
  8
0
  6
Continuous
 62
     7
370
    18
100
AcDbMText
 10
17.7359443114
 20
124.8017866468
 30
0.0
 40
2.0
 41
0.0
 71
     2
 72
     1
  1
D
  7
SLDTEXTSTYLE0
 73
     1
 44
1.0
  0
MTEXT
  5
13D
330
1F
100
AcDbEntity
  8
0
  6
Continuous
 62
     7
370
    18
100
AcDbMText
 10
17.6274822413
 20
174.7261854936
 30
0.0
 40
2.0
 41
0.0
 71
     2
 72
     1
  1
C
  7
SLDTEXTSTYLE0
 73
     1
 44
1.0
  0
MTEXT
  5
13E
330
1F
100
AcDbEntity
  8
0
  6
Continuous
 62
     7
370
    18
100
AcDbMText
 10
17.5516905072
 20
224.4926420442
 30
0.0
 40
2.0
 41
0.0
 71
     2
 72
     1
  1
B
  7
SLDTEXTSTYLE0
 73
     1
 44
1.0
  0
MTEXT
  5
13F
330
1F
100
AcDbEntity
  8
0
  6
Continuous
 62
     7
370
    18
100
AcDbMText
 10
290.0344258799
 20
290.5428789914
 30
0.0
 40
2.0
 41
0.0
 71
     2
 72
     1
  1
6
  7
SLDTEXTSTYLE0
 73
     1
 44
1.0
  0
MTEXT
  5
140
330
1F
100
AcDbEntity
  8
0
  6
Continuous
 62
     7
370
    18
100
AcDbMText
 10
240.0417859812
 20
290.6369260235
 30
0.0
 40
2.0
 41
0.0
 71
     2
 72
     1
  1
5
  7
SLDTEXTSTYLE0
 73
     1
 44
1.0
  0
MTEXT
  5
141
330
1F
100
AcDbEntity
  8
0
  6
Continuous
 62
     7
370
    18
100
AcDbMText
 10
190.0300404524
 20
290.6343268032
 30
0.0
 40
2.0
 41
0.0
 71
     2
 72
     1
  1
4
  7
SLDTEXTSTYLE0
 73
     1
 44
1.0
  0
MTEXT
  5
142
330
1F
100
AcDbEntity
  8
0
  6
Continuous
 62
     7
370
    18
100
AcDbMText
 10
140.0165868337
 20
290.6378887952
 30
0.0
 40
2.0
 41
0.0
 71
     2
 72
     1
  1
3
  7
SLDTEXTSTYLE0
 73
     1
 44
1.0
  0
MTEXT
  5
143
330
1F
100
AcDbEntity
  8
0
  6
Continuous
 62
     7
370
    18
100
AcDbMText
 10
90.033223
 20
290.5566702875
 30
0.0
 40
2.0
 41
0.0
 71
     2
 72
     1
  1
2
  7
SLDTEXTSTYLE0
 73
     1
 44
1.0
  0
MTEXT
  5
144
330
1F
100
AcDbEntity
  8
0
  6
Continuous
 62
     7
370
    18
100
AcDbMText
 10
40.0509551097
 20
290.5530165805
 30
0.0
 40
2.0
 41
0.0
 71
     2
 72
     1
  1
1
  7
SLDTEXTSTYLE0
 73
     1
 44
1.0
  0
MTEXT
  5
145
330
1F
100
AcDbEntity
  8
0
  6
Continuous
 62
     7
370
    18
100
AcDbMText
 10
17.5609786315
 20
271.2966048816
 30
0.0
 40
2.0
 41
0.0
 71
     2
 72
     1
  1
A
  7
SLDTEXTSTYLE0
 73
     1
 44
1.0
  0
MTEXT
  5
146
330
1F
100
AcDbEntity
  8
0
  6
Continuous
 62
     7
370
    18
100
AcDbMText
 10
89.9333968896
 20
8.5904490253
 30
0.0
 40
2.0
 41
0.0
 71
     2
 72
     1
  1
2
  7
SLDTEXTSTYLE0
 73
     1
 44
1.0
  0
MTEXT
  5
147
330
1F
100
AcDbEntity
  8
0
  6
Continuous
 62
     7
370
    18
100
AcDbMText
 10
39.9009486579
 20
8.6623118453
 30
0.0
 40
2.0
 41
0.0
 71
     2
 72
     1
  1
1
  7
SLDTEXTSTYLE0
 73
     1
 44
1.0
  0
MTEXT
  5
148
330
1F
100
AcDbEntity
  8
0
  6
Continuous
 62
     7
370
    18
100
AcDbMText
 10
190.0227230239
 20
8.7073169286
 30
0.0
 40
2.0
 41
0.0
 71
     2
 72
     1
  1
4
  7
SLDTEXTSTYLE0
 73
     1
 44
1.0
  0
MTEXT
  5
149
330
1F
100
AcDbEntity
  8
0
  6
Continuous
 62
     7
370
    18
100
AcDbMText
 10
140.0453427777
 20
8.5647154541
 30
0.0
 40
2.0
 41
0.0
 71
     2
 72
     1
  1
3
  7
SLDTEXTSTYLE0
 73
     1
 44
1.0
  0
MTEXT
  5
14A
330
1F
100
AcDbEntity
  8
0
  6
Continuous
 62
     7
370
    18
100
AcDbMText
 10
239.8749782531
 20
8.5637526825
 30
0.0
 40
2.0
 41
0.0
 71
     2
 72
     1
  1
5
  7
SLDTEXTSTYLE0
 73
     1
 44
1.0
  0
MTEXT
  5
14B
330
1F
100
AcDbEntity
  8
0
  6
Continuous
 62
     7
370
    18
100
AcDbMText
 10
412.6717254925
 20
224.51208263
 30
0.0
 40
2.0
 41
0.0
 71
     2
 72
     1
  1
B
  7
SLDTEXTSTYLE0
 73
     1
 44
1.0
  0
MTEXT
  5
14C
330
1F
100
AcDbEntity
  8
0
  6
Continuous
 62
     7
370
    18
100
AcDbMText
 10
412.5951211154
 20
271.2798202564
 30
0.0
 40
2.0
 41
0.0
 71
     2
 72
     1
  1
A
  7
SLDTEXTSTYLE0
 73
     1
 44
1.0
  0
MTEXT
  5
14D
330
1F
100
AcDbEntity
  8
0
  6
Continuous
 62
     7
370
    18
100
AcDbMText
 10
412.6491448679
 20
174.7279841048
 30
0.0
 40
2.0
 41
0.0
 71
     2
 72
     1
  1
C
  7
SLDTEXTSTYLE0
 73
     1
 44
1.0
  0
MTEXT
  5
14E
330
1F
100
AcDbEntity
  8
0
  6
Continuous
 62
     7
370
    18
100
AcDbMText
 10
340.0216466634
 20
290.5954278102
 30
0.0
 40
2.0
 41
0.0
 71
     2
 72
     1
  1
7
  7
SLDTEXTSTYLE0
 73
     1
 44
1.0
  0
MTEXT
  5
14F
330
1F
100
AcDbEntity
  8
0
  6
Continuous
 62
     7
370
    18
100
AcDbMText
 10
390.037657264
 20
290.6215496941
 30
0.0
 40
2.0
 41
0.0
 71
     2
 72
     1
  1
8
  7
SLDTEXTSTYLE0
 73
     1
 44
1.0
  0
MTEXT
  5
150
330
1F
100
AcDbEntity
  8
0
  6
Continuous
 62
     7
370
    18
100
AcDbMText
 10
17.6897935208
 20
74.7267628143
 30
0.0
 40
2.0
 41
0.0
 71
     2
 72
     1
  1
E
  7
SLDTEXTSTYLE0
 73
     1
 44
1.0
  0
MTEXT
  5
151
330
1F
100
AcDbEntity
  8
0
  6
Continuous
 62
     7
370
    18
100
AcDbMText
 10
17.5936930126
 20
27.773321616
 30
0.0
 40
2.0
 41
0.0
 71
     2
 72
     1
  1
F
  7
SLDTEXTSTYLE0
 73
     1
 44
1.0
  0
MTEXT
  5
152
330
1F
100
AcDbEntity
  8
0
  6
Continuous
 62
     7
370
    18
100
AcDbMText
 10
339.8003474583
 20
8.7205095051
 30
0.0
 40
2.0
 41
0.0
 71
     2
 72
     1
  1
7
  7
SLDTEXTSTYLE0
 73
     1
 44
1.0
  0
MTEXT
  5
153
330
1F
100
AcDbEntity
  8
0
  6
Continuous
 62
     7
370
    18
100
AcDbMText
 10
289.7886477179
 20
8.6884673623
 30
0.0
 40
2.0
 41
0.0
 71
     2
 72
     1
  1
6
  7
SLDTEXTSTYLE0
 73
     1
 44
1.0
  0
MTEXT
  5
154
330
1F
100
AcDbEntity
  8
0
  6
Continuous
 62
     7
370
    18
100
AcDbMText
 10
412.5160699095
 20
74.5096307526
 30
0.0
 40
2.0
 41
0.0
 71
     2
 72
     1
  1
E
  7
SLDTEXTSTYLE0
 73
     1
 44
1.0
  0
MTEXT
  5
155
330
1F
100
AcDbEntity
  8
0
  6
Continuous
 62
     7
370
    18
100
AcDbMText
 10
412.6234021365
 20
124.4517683275
 30
0.0
 40
2.0
 41
0.0
 71
     2
 72
     1
  1
D
  7
SLDTEXTSTYLE0
 73
     1
 44
1.0
  0
MTEXT
  5
156
330
1F
100
AcDbEntity
  8
0
  6
Continuous
 62
     7
370
    18
100
AcDbMText
 10
411.7952690469
 20
41.8554761438
 30
0.0
 40
1.8
 41
0.0
 71
     3
 72
     1
  1
Plotdatum: 31.03.2026
  7
SLDTEXTSTYLE0
 11
-3.269436733918102E-15
 21
1.0
 31
0.0
 73
     1
 44
1.0
  0
MTEXT
  5
157
330
1F
100
AcDbEntity
  8
0
  6
Continuous
 62
     7
370
    18
100
AcDbMText
 10
412.557933251
 20
8.2549718046
 30
0.0
 40
1.8
 41
0.0
 71
     2
 72
     1
  1
A3
  7
SLDTEXTSTYLE0
 73
     1
 44
1.0
  0
MTEXT
  5
158
330
1F
100
AcDbEntity
  8
0
  6
Continuous
 62
     7
370
    18
100
AcDbMText
 10
390.594604279
 20
8.3847467643
 30
0.0
 40
1.8
 41
0.0
 71
     2
 72
     1
  1
CAD-System: SolidWorks
  7
SLDTEXTSTYLE0
 73
     1
 44
1.0
  0
MTEXT
  5
159
330
1F
100
AcDbEntity
  8
0
  6
Continuous
 62
     7
370
    18
100
AcDbMText
 10
404.0541923444
 20
28.4394692021
 30
0.0
 40
5.0
 41
0.0
 71
     2
 72
     1
  1
-
  7
SLDTEXTSTYLE0
 73
     1
 44
1.0
  0
MTEXT
  5
15A
330
1F
100
AcDbEntity
  8
0
  6
Continuous
 62
     7
370
    18
100
AcDbMText
 10
249.556836311
 20
38.5581729516
 30
0.0
 40
2.0
 41
0.0
 71
     1
 72
     1
  1
Freigegeben
  7
SLDTEXTSTYLE0
 73
     1
 44
1.0
  0
MTEXT
  5
15B
330
1F
100
AcDbEntity
  8
0
  6
Continuous
 62
     7
370
    18
100
AcDbMText
 10
284.1136255556
 20
43.5473338598
 30
0.0
 40
2.0
 41
0.0
 71
     2
 72
     1
  1
bae
  7
SLDTEXTSTYLE0
 73
     1
 44
1.0
  0
MTEXT
  5
15C
330
1F
100
AcDbEntity
  8
0
  6
Continuous
 62
     7
370
    18
100
AcDbMText
 10
249.5284668163
 20
43.5603133928
 30
0.0
 40
2.0
 41
0.0
 71
     1
 72
     1
  1
31.03.2026
  7
SLDTEXTSTYLE0
 73
     1
 44
1.0
  0
MTEXT
  5
15D
330
1F
100
AcDbEntity
  8
0
  6
Continuous
 62
     7
370
    18
100
AcDbMText
 10
284.1413255212
 20
48.5138972561
 30
0.0
 40
2.0
 41
0.0
 71
     2
 72
     1
  1
bae
  7
SLDTEXTSTYLE0
 73
     1
 44
1.0
  0
MTEXT
  5
15E
330
1F
100
AcDbEntity
  8
0
  6
Continuous
 62
     7
370
    18
100
AcDbMText
 10
249.5284668163
 20
48.4989062069
 30
0.0
 40
2.0
 41
0.0
 71
     1
 72
     1
  1
31.03.2026
  7
SLDTEXTSTYLE0
 73
     1
 44
1.0
  0
MTEXT
  5
15F
330
1F
100
AcDbEntity
  8
0
  6
Continuous
 62
     7
370
     0
100
AcDbMText
 10
372.2007348103
 20
38.8723054925
 30
0.0
 40
1.5
 41
0.0
 71
     1
 72
     1
  1
Copyright reserved! © ACO AG
  7
SLDTEXTSTYLE0
 73
     1
 44
1.0
  0
MTEXT
  5
160
330
1F
100
AcDbEntity
  8
0
  6
Continuous
 62
     7
370
     0
100
AcDbMText
 10
372.2203831445
 20
53.1538938951
 30
0.0
 40
1.5
 41
0.0
 71
     1
 72
     1
  1
Diese Zeichnung darf weder kopiert^Jnoch dritten Personen, insbesondere^Jzum Zweck anderweitiger Benutzung^Jmitgeteilt werden und bleibt unser^JEigentum.
  7
SLDTEXTSTYLE0
 73
     1
 44
1.0
  0
MTEXT
  5
161
330
1F
100
AcDbEntity
  8
0
  6
Continuous
 62
     7
370
    18
100
AcDbMText
 10
364.9468572407
 20
18.4594173137
 30
0.0
 40
2.0
 41
0.0
 71
     1
 72
     1
  1
Erstausgabe
  7
SLDTEXTSTYLE0
 73
     1
 44
1.0
  0
MTEXT
  5
162
330
1F
100
AcDbEntity
  8
0
  6
Continuous
 62
     7
370
    18
100
AcDbMText
 10
330.2607505021
 20
18.524501801
 30
0.0
 40
2.0
 41
0.0
 71
     2
 72
     1
  1
-
  7
SLDTEXTSTYLE0
 73
     1
 44
1.0
  0
MTEXT
  5
163
330
1F
100
AcDbEntity
  8
0
  6
Continuous
 62
     7
370
    18
100
AcDbMText
 10
311.764909851
 20
46.3490312465
 30
0.0
 40
5.0
 41
0.0
 71
     2
 72
     1
  1
1:1
  7
SLDTEXTSTYLE0
 73
     1
 44
1.0
  0
MTEXT
  5
164
330
1F
100
AcDbEntity
  8
0
  6
Continuous
 62
     7
370
    18
100
AcDbMText
 10
230.1851195342
 20
38.7793829468
 30
0.0
 40
2.0
 41
0.0
 71
     1
 72
     1
  1
Status:
  7
SLDTEXTSTYLE0
 73
     1
 44
1.0
  0
MTEXT
  5
165
330
1F
100
AcDbEntity
  8
0
  6
Continuous
 62
     7
370
    18
100
AcDbMText
 10
344.926838705
 20
28.2772828851
 30
0.0
 40
5.0
 41
0.0
 71
     1
 72
     1
  1
2208719
  7
SLDTEXTSTYLE0
 73
     1
 44
1.0
  0
MTEXT
  5
166
330
1F
100
AcDbEntity
  8
0
  6
Continuous
 62
     7
370
    18
100
AcDbMText
 10
231.1132118803
 20
14.9211049657
 30
0.0
 40
2.5
 41
0.0
 71
     1
 72
     1
  1
Art. Nr.: 2208719
  7
SLDTEXTSTYLE0
 73
     1
 44
1.0
  0
MTEXT
  5
167
330
1F
100
AcDbEntity
  8
0
  6
Continuous
 62
     7
370
    18
100
AcDbMText
 10
231.1159560181
 20
33.0904969858
 30
0.0
 40
2.5
 41
0.0
 71
     1
 72
     1
  1
Haustechnik
  7
SLDTEXTSTYLE0
 73
     1
 44
1.0
  0
MTEXT
  5
168
330
1F
100
AcDbEntity
  8
0
  6
Continuous
 62
     7
370
    18
100
AcDbMText
 10
231.1475981734
 20
28.0307932366
 30
0.0
 40
3.5
 41
0.0
 71
     1
 72
     1
  1
BEG150 GrSlot W135 H4 wL V4
  7
SLDTEXTSTYLE0
 73
     1
 44
1.0
  0
MTEXT
  5
169
330
1F
100
AcDbEntity
  8
0
  6
Continuous
 62
     7
370
    18
100
AcDbMText
 10
348.2746465368
 20
53.819119072
 30
0.0
 40
2.0
 41
0.0
 71
     1
 72
     1
  1
Projektion: ISO-E
  7
SLDTEXTSTYLE0
 73
     1
 44
1.0
  0
MTEXT
  5
16A
330
1F
100
AcDbEntity
  8
0
  6
Continuous
 62
     7
370
    18
100
AcDbMText
 10
337.7677091855
 20
49.3670227094
 30
0.0
 40
2.5
 41
0.0
 71
     2
 72
     1
  1
Millimeter
  7
SLDTEXTSTYLE0
 73
     1
 44
1.0
  0
MTEXT
  5
16B
330
1F
100
AcDbEntity
  8
0
  6
Continuous
 62
     7
370
    18
100
AcDbMText
 10
337.6323777421
 20
53.855374072
 30
0.0
 40
2.0
 41
0.0
 71
     2
 72
     1
  1
Masseinheit:
  7
SLDTEXTSTYLE0
 73
     1
 44
1.0
  0
MTEXT
  5
16C
330
1F
100
AcDbEntity
  8
0
  6
Continuous
 62
     7
370
    18
100
AcDbMText
 10
337.6114490186
 20
43.5452078816
 30
0.0
 40
2.0
 41
0.0
 71
     2
 72
     1
  1
Blatt / Anz.:
  7
SLDTEXTSTYLE0
 73
     1
 44
1.0
  0
MTEXT
  5
16D
330
1F
100
AcDbEntity
  8
0
  6
Continuous
 62
     7
370
    18
100
AcDbMText
 10
329.2895578243
 20
28.4139191092
 30
0.0
 40
5.0
 41
0.0
 71
     1
 72
     1
  1
CH
  7
SLDTEXTSTYLE0
 73
     1
 44
1.0
  0
MTEXT
  5
16E
330
1F
100
AcDbEntity
  8
0
  6
Continuous
 62
     7
370
    18
100
AcDbMText
 10
330.40704
 20
33.692638072
 30
0.0
 40
2.0
 41
0.0
 71
     1
 72
     1
  1
Zeichnung Nr.:
  7
SLDTEXTSTYLE0
 73
     1
 44
1.0
  0
MTEXT
  5
16F
330
1F
100
AcDbEntity
  8
0
  6
Continuous
 62
     7
370
    18
100
AcDbMText
 10
269.897953
 20
75.161075072
 30
0.0
 40
2.0
 41
0.0
 71
     1
 72
     1
  1
Gewicht:
  7
SLDTEXTSTYLE0
 73
     1
 44
1.0
  0
MTEXT
  5
170
330
1F
100
AcDbEntity
  8
0
  6
Continuous
 62
     7
370
    18
100
AcDbMText
 10
230.0
 20
64.542328072
 30
0.0
 40
2.0
 41
0.0
 71
     1
 72
     1
  1
zul. Abweichung:
  7
SLDTEXTSTYLE0
 73
     1
 44
1.0
  0
MTEXT
  5
171
330
1F
100
AcDbEntity
  8
0
  6
Continuous
 62
     7
370
    18
100
AcDbMText
 10
269.612607
 20
64.542328072
 30
0.0
 40
2.0
 41
0.0
 71
     1
 72
     1
  1
Oberfläche:
  7
SLDTEXTSTYLE0
 73
     1
 44
1.0
  0
MTEXT
  5
172
330
1F
100
AcDbEntity
  8
0
  6
Continuous
 62
     7
370
    18
100
AcDbMText
 10
230.261411
 20
43.4433838912
 30
0.0
 40
2.0
 41
0.0
 71
     1
 72
     1
  1
Freigegeben:
  7
SLDTEXTSTYLE0
 73
     1
 44
1.0
  0
MTEXT
  5
173
330
1F
100
AcDbEntity
  8
0
  6
Continuous
 62
     7
370
    18
100
AcDbMText
 10
230.0
 20
75.161075072
 30
0.0
 40
2.0
 41
0.0
 71
     1
 72
     1
  1
Werkstoff:
  7
SLDTEXTSTYLE0
 73
     1
 44
1.0
  0
MTEXT
  5
174
330
1F
100
AcDbEntity
  8
0
  6
Continuous
 62
     7
370
    18
100
AcDbMText
 10
254.035545
 20
53.129475072
 30
0.0
 40
2.0
 41
0.0
 71
     1
 72
     1
  1
Datum:
  7
SLDTEXTSTYLE0
 73
     1
 44
1.0
  0
MTEXT
  5
175
330
1F
100
AcDbEntity
  8
0
  6
Continuous
 62
     7
370
    18
100
AcDbMText
 10
279.934928
 20
53.136060072
 30
0.0
 40
2.0
 41
0.0
 71
     1
 72
     1
  1
Name:
  7
SLDTEXTSTYLE0
 73
     1
 44
1.0
  0
MTEXT
  5
176
330
1F
100
AcDbEntity
  8
0
  6
Continuous
 62
     7
370
    18
100
AcDbMText
 10
312.162455406
 20
53.881591072
 30
0.0
 40
2.0
 41
0.0
 71
     2
 72
     1
  1
Massstab:
  7
SLDTEXTSTYLE0
 73
     1
 44
1.0
  0
MTEXT
  5
177
330
1F
100
AcDbEntity
  8
0
  6
Continuous
 62
     7
370
    18
100
AcDbMText
 10
403.9552944035
 20
33.324874072
 30
0.0
 40
2.0
 41
0.0
 71
     2
 72
     1
  1
Index:
  7
SLDTEXTSTYLE0
 73
     1
 44
1.0
  0
MTEXT
  5
178
330
1F
100
AcDbEntity
  8
0
  6
Continuous
 62
     7
370
    18
100
AcDbMText
 10
230.261411
 20
48.4499477886
 30
0.0
 40
2.0
 41
0.0
 71
     1
 72
     1
  1
Erstellt:
  7
SLDTEXTSTYLE0
 73
     1
 44
1.0
  0
MTEXT
  5
17A
330
1F
100
AcDbEntity
  8
0
  6
Continuous
 62
     7
370
    18
100
AcDbMText
 10
337.6348165843
 20
39.869706576
 30
0.0
 40
2.5
 41
0.0
 71
     2
 72
     1
  1
1 / 1
  7
SLDTEXTSTYLE1
 73
     1
 44
1.0
  0
MTEXT
  5
17B
330
1F
100
AcDbEntity
  8
0
  6
Continuous
 62
     7
370
    18
100
AcDbMText
 10
269.612607
 20
60.8119428599
 30
0.0
 40
3.0
 41
0.0
 71
     1
 72
     1
  1
DIN ISO 1302
  7
SLDTEXTSTYLE0
 73
     1
 44
1.0
  0
MTEXT
  5
17C
330
1F
100
AcDbEntity
  8
0
  6
Continuous
 62
     7
370
    18
100
AcDbMText
 10
230.0
 20
60.8119428599
 30
0.0
 40
3.0
 41
0.0
 71
     1
 72
     1
  1
Norm
  7
SLDTEXTSTYLE0
 73
     1
 44
1.0
  0
MTEXT
  5
17D
330
1F
100
AcDbEntity
  8
0
  6
Continuous
 62
     7
370
    18
100
AcDbMText
 10
269.612607
 20
71.2121947186
 30
0.0
 40
3.0
 41
0.0
 71
     1
 72
     1
  1
0.24 kg
  7
SLDTEXTSTYLE0
 73
     1
 44
1.0
  0
MTEXT
  5
17E
330
1F
100
AcDbEntity
  8
0
  6
Continuous
 62
     7
370
    18
100
AcDbMText
 10
230.0
 20
71.2121947186
 30
0.0
 40
3.0
 41
0.0
 71
     1
 72
     1
  1
1.4404
  7
SLDTEXTSTYLE0
 73
     1
 44
1.0
  0
LINE
  5
17F
330
1F
100
AcDbEntity
  8
0
  6
Continuous
 62
     7
370
    25
100
AcDbLine
 10
226.0482105263
 20
199.9134293688
 30
0.0
 11
226.0482105263
 21
200.3216997748
 31
0.0
  0
LINE
  5
180
330
1F
100
AcDbEntity
  8
0
  6
Continuous
 62
     7
370
    25
100
AcDbLine
 10
218.9082105263
 20
200.3216997748
 30
0.0
 11
218.9082105263
 21
199.9134293688
 31
0.0
  0
LINE
  5
181
330
1F
100
AcDbEntity
  8
0
  6
Continuous
 62
     7
370
    25
100
AcDbLine
 10
219.9534291362
 20
198.4563777203
 30
0.0
 11
221.1557059886
 21
197.7620924584
 31
0.0
  0
LINE
  5
182
330
1F
100
AcDbEntity
  8
0
  6
Continuous
 62
     7
370
    25
100
AcDbLine
 10
223.800715064
 20
197.7620924584
 30
0.0
 11
225.0029919165
 21
198.4563777203
 31
0.0
  0
LINE
  5
183
330
1F
100
AcDbEntity
  8
0
  6
Continuous
 62
     7
370
    25
100
AcDbLine
 10
224.3368641269
 20
197.97063954
 30
0.0
 11
224.3120350403
 21
198.0573671474
 31
0.0
  0
LINE
  5
184
330
1F
100
AcDbEntity
  8
0
  6
Continuous
 62
     7
370
    25
100
AcDbLine
 10
394.5482105263
 20
199.9134293688
 30
0.0
 11
394.5482105263
 21
200.3216997748
 31
0.0
  0
LINE
  5
185
330
1F
100
AcDbEntity
  8
0
  6
Continuous
 62
     7
370
    25
100
AcDbLine
 10
387.4082105263
 20
200.3216997748
 30
0.0
 11
387.4082105263
 21
199.9134293688
 31
0.0
  0
LINE
  5
186
330
1F
100
AcDbEntity
  8
0
  6
Continuous
 62
     7
370
    25
100
AcDbLine
 10
388.4534291362
 20
198.4563777203
 30
0.0
 11
389.6557059886
 21
197.7620924584
 31
0.0
  0
LINE
  5
187
330
1F
100
AcDbEntity
  8
0
  6
Continuous
 62
     7
370
    25
100
AcDbLine
 10
392.8368641269
 20
197.97063954
 30
0.0
 11
392.8120350335
 21
198.0573671714
 31
0.0
  0
LINE
  5
188
330
1F
100
AcDbEntity
  8
0
  6
Continuous
 62
     7
370
    25
100
AcDbLine
 10
302.2197195281
 20
164.6284561662
 30
0.0
 11
302.2197195281
 21
164.7101102474
 31
0.0
  0
LINE
  5
189
330
1F
100
AcDbEntity
  8
0
  6
Continuous
 62
     7
370
    25
100
AcDbLine
 10
297.9981468009
 20
164.7101102474
 30
0.0
 11
297.9981468009
 21
164.6284561662
 31
0.0
  0
LINE
  5
18A
330
1F
100
AcDbEntity
  8
0
  6
Continuous
 62
     7
370
    25
100
AcDbLine
 10
296.1110721013
 20
168.1549016888
 30
0.0
 11
296.1110721013
 21
168.23655577
 31
0.0
  0
LINE
  5
18B
330
1F
100
AcDbEntity
  8
0
  6
Continuous
 62
     7
370
    25
100
AcDbLine
 10
291.8895048286
 20
168.23655577
 30
0.0
 11
291.8895048286
 21
168.1549016888
 31
0.0
  0
LINE
  5
18C
330
1F
100
AcDbEntity
  8
0
  6
Continuous
 62
     7
370
    25
100
AcDbLine
 10
289.0992678256
 20
172.2255159256
 30
0.0
 11
289.0992678256
 21
172.3071700068
 31
0.0
  0
LINE
  5
18D
330
1F
100
AcDbEntity
  8
0
  6
Continuous
 62
     7
370
    25
100
AcDbLine
 10
401.8562551366
 20
199.4149663553
 30
0.0
 11
401.8562551366
 21
200.3216997748
 31
0.0
  0
LINE
  5
18E
330
1F
100
AcDbEntity
  8
0
  6
Continuous
 62
     7
370
    25
100
AcDbLine
 10
211.600165916
 20
200.3216997748
 30
0.0
 11
211.600165916
 21
199.4149663553
 31
0.0
  0
LINE
  5
18F
330
1F
100
AcDbEntity
  8
0
  6
Continuous
 62
     7
370
    25
100
AcDbLine
 10
389.5566669949
 20
197.7410471283
 30
0.0
 11
389.5699665142
 21
197.7446532259
 31
0.0
  0
SPLINE
  5
190
330
1F
100
AcDbEntity
  8
0
  6
Continuous
 62
     7
370
    25
100
AcDbSpline
210
0.0
220
0.0
230
1.0
 70
     8
 71
     3
 72
    10
 73
     6
 74
     0
 42
0.00000001
 43
0.00000001
 40
0.0
 40
0.0
 40
0.0
 40
0.0
 40
0.1456084579560894
 40
0.723421602747823
 40
1.0
 40
1.0
 40
1.0
 40
1.0
 10
393.3664268054325
 20
198.0079571797107
 30
0.0
 10
393.3310756863171
 20
198.0054518866772
 30
0.0
 10
393.1554419105851
 20
197.9930049235883
 30
0.0
 10
392.9126410464565
 20
197.9758614445637
 30
0.0
 10
392.7051136140806
 20
197.9614827534982
 30
0.0
 10
392.6379341046778
 20
197.9568281716892
 30
0.0
  0
SPLINE
  5
191
330
1F
100
AcDbEntity
  8
0
  6
Continuous
 62
     7
370
    25
100
AcDbSpline
210
0.0
220
0.0
230
1.0
 70
     8
 71
     3
 72
     9
 73
     5
 74
     0
 42
0.00000001
 43
0.00000001
 40
0.0
 40
0.0
 40
0.0
 40
0.0
 40
0.82947813069936
 40
1.0
 40
1.0
 40
1.0
 40
1.0
 10
393.1693622237026
 20
198.26371482577
 30
0.0
 10
393.2769052830452
 20
198.2712867747302
 30
0.0
 10
393.4065567534847
 20
198.2804153444659
 30
0.0
 10
393.5361886667555
 20
198.2896089421768
 30
0.0
 10
393.5582937429274
 20
198.2911766516441
 30
0.0
  0
SPLINE
  5
192
330
1F
100
AcDbEntity
  8
0
  6
Continuous
 62
     7
370
    25
100
AcDbSpline
210
0.0
220
0.0
230
1.0
 70
     8
 71
     3
 72
    10
 73
     6
 74
     0
 42
0.00000001
 43
0.00000001
 40
0.0
 40
0.0
 40
0.0
 40
0.0
 40
0.0887452128160492
 40
0.7265286025782633
 40
1.0
 40
1.0
 40
1.0
 40
1.0
 10
393.4730477581177
 20
198.1160772996596
 30
0.0
 10
393.4542141085819
 20
198.1147425234072
 30
0.0
 10
393.3000290585442
 20
198.1038151382041
 30
0.0
 10
393.0877925182741
 20
198.0888240367297
 30
0.0
 10
392.8943231864635
 20
198.0753895302873
 30
0.0
 10
392.8362622256075
 20
198.0713577783534
 30
0.0
  0
SPLINE
  5
193
330
1F
100
AcDbEntity
  8
0
  6
Continuous
 62
     7
370
    25
100
AcDbSpline
210
0.0
220
0.0
230
1.0
 70
     8
 71
     3
 72
    10
 73
     6
 74
     0
 42
0.00000001
 43
0.00000001
 40
0.0
 40
0.0
 40
0.0
 40
0.0
 40
0.144057859594814
 40
0.7229196988516366
 40
1.0
 40
1.0
 40
1.0
 40
1.0
 10
224.8651073408248
 20
198.007863693944
 30
0.0
 10
224.8301960392218
 20
198.0053895761393
 30
0.0
 10
224.6550020740165
 20
197.9929738113669
 30
0.0
 10
224.4126410603975
 20
197.9758614545299
 30
0.0
 10
224.2051136466363
 20
197.9614827579604
 30
0.0
 10
224.1379341544872
 20
197.9568281751475
 30
0.0
  0
SPLINE
  5
194
330
1F
100
AcDbEntity
  8
0
  6
Continuous
 62
     7
370
    25
100
AcDbSpline
210
0.0
220
0.0
230
1.0
 70
     8
 71
     3
 72
     9
 73
     5
 74
     0
 42
0.00000001
 43
0.00000001
 40
0.0
 40
0.0
 40
0.0
 40
0.0
 40
0.8221360928863449
 40
1.0
 40
1.0
 40
1.0
 40
1.0
 10
224.6693622896061
 20
198.2637148304196
 30
0.0
 10
224.7769052872768
 20
198.2712869098411
 30
0.0
 10
224.9077145275004
 20
198.2804971604151
 30
0.0
 10
225.0385040359052
 20
198.2897730196795
 30
0.0
 10
225.0617667688796
 20
198.2914228602502
 30
0.0
  0
LINE
  5
195
330
1F
100
AcDbEntity
  8
0
  6
Continuous
 62
     7
370
    25
100
AcDbLine
 10
221.0616979714
 20
197.7424121173
 30
0.0
 11
221.0699666927
 21
197.7446541052
 31
0.0
  0
SPLINE
  5
196
330
1F
100
AcDbEntity
  8
0
  6
Continuous
 62
     7
370
    25
100
AcDbSpline
210
0.0
220
0.0
230
1.0
 70
     8
 71
     3
 72
    10
 73
     6
 74
     0
 42
0.00000001
 43
0.00000001
 40
0.0
 40
0.0
 40
0.0
 40
0.0
 40
0.0840674118046163
 40
0.7251248364143832
 40
0.9999999999999999
 40
0.9999999999999999
 40
0.9999999999999999
 40
0.9999999999999999
 10
224.9697962041479
 20
198.1158468874045
 30
0.0
 10
224.9520464002942
 20
198.1145889338791
 30
0.0
 10
224.7989451766515
 20
198.1037384351577
 30
0.0
 10
224.5877925303439
 20
198.0888240595726
 30
0.0
 10
224.3943232221408
 20
198.0753895378493
 30
0.0
 10
224.3362622813832
 20
198.0713577822333
 30
0.0
  0
LWPOLYLINE
  5
197
330
1F
100
AcDbEntity
  8
0
  6
Continuous
 62
     7
370
    25
100
AcDbPolyline
 90
       42
 70
   128
 43
0.0
 10
219.9538393175
 20
201.7789882544
 10
220.3687673364
 20
201.9843634943
 10
220.8331389158
 20
202.1507673058
 10
221.3360695795
 20
202.2742993246
 10
221.8657710589
 20
202.352064065
 10
222.4098276004
 20
202.3822387872
 10
222.9554869796
 20
202.3641162214
 10
223.4899594034
 20
202.2981211452
 10
224.000717291
 20
202.1858004272
 10
224.4757889104
 20
202.0297867698
 10
224.9040389856
 20
201.833737001
 10
225.2754296977
 20
201.6022463611
 10
225.5812559633
 20
201.3407407946
 10
225.8143494738
 20
201.0553497703
 10
225.969246715
 20
200.7527626119
 10
226.0423170268
 20
200.440071706
 10
226.031847703
 20
200.1246062623
 10
225.9380841358
 20
199.8137605235
 10
225.7632240635
 20
199.5148204502
 10
225.5113660582
 20
199.2347929445
 10
225.1884134581
 20
198.9802416136
 10
224.8019359982
 20
198.757132925
 10
224.3609923828
 20
198.5706963573
 10
223.8759179565
 20
198.4253018257
 10
223.3580824526
 20
198.3243572547
 10
222.8196234965
 20
198.2702286994
 10
222.2731621098
 20
198.2641848875
 10
221.7315068842
 20
198.3063674806
 10
221.207353759
 20
198.3957877545
 10
220.7129884394
 20
198.530349774
 10
220.2599984293
 20
198.7068995191
 10
219.8590014308
 20
198.9212988136
 10
219.5193964734
 20
199.1685223197
 10
219.2491436098
 20
199.442775328
 10
219.0545773378
 20
199.7376295803
 10
218.940258126
 20
200.046173943
 10
218.9088655198
 20
200.3611763976
 10
218.9611353354
 20
200.6752535537
 10
219.0958424125
 20
200.9810437088
 10
219.3098293314
 20
201.271379401
 10
219.5980804201
 20
201.5394554076
 10
219.9538393175
 20
201.7789882544
  0
LINE
  5
198
330
1F
100
AcDbEntity
  8
0
  6
Continuous
 62
     7
370
    25
100
AcDbLine
 10
221.2054183202
 20
199.2603692294
 30
0.0
 11
220.6397328952
 21
199.5869324741
 31
0.0
  0
LINE
  5
199
330
1F
100
AcDbEntity
  8
0
  6
Continuous
 62
     7
370
    25
100
AcDbLine
 10
222.4782105263
 20
199.99513653
 30
0.0
 11
221.2054183202
 21
199.2603692294
 31
0.0
  0
LINE
  5
19A
330
1F
100
AcDbEntity
  8
0
  6
Continuous
 62
     7
370
    25
100
AcDbLine
 10
223.7510027325
 20
199.2603692294
 30
0.0
 11
222.4782105263
 21
199.99513653
 31
0.0
  0
LINE
  5
19B
330
1F
100
AcDbEntity
  8
0
  6
Continuous
 62
     7
370
    25
100
AcDbLine
 10
224.3166881574
 20
199.5869324741
 30
0.0
 11
223.7510027325
 21
199.2603692294
 31
0.0
  0
LINE
  5
19C
330
1F
100
AcDbEntity
  8
0
  6
Continuous
 62
     7
370
    25
100
AcDbLine
 10
223.0438959513
 20
200.3216997748
 30
0.0
 11
224.3166881574
 21
199.5869324741
 31
0.0
  0
LINE
  5
19D
330
1F
100
AcDbEntity
  8
0
  6
Continuous
 62
     7
370
    25
100
AcDbLine
 10
224.3166881574
 20
201.0564670754
 30
0.0
 11
223.0438959513
 21
200.3216997748
 31
0.0
  0
LINE
  5
19E
330
1F
100
AcDbEntity
  8
0
  6
Continuous
 62
     7
370
    25
100
AcDbLine
 10
223.7510027325
 20
201.3830303201
 30
0.0
 11
224.3166881574
 21
201.0564670754
 31
0.0
  0
LINE
  5
19F
330
1F
100
AcDbEntity
  8
0
  6
Continuous
 62
     7
370
    25
100
AcDbLine
 10
222.4782105263
 20
200.6482630195
 30
0.0
 11
223.7510027325
 21
201.3830303201
 31
0.0
  0
LINE
  5
1A0
330
1F
100
AcDbEntity
  8
0
  6
Continuous
 62
     7
370
    25
100
AcDbLine
 10
221.2054183202
 20
201.3830303201
 30
0.0
 11
222.4782105263
 21
200.6482630195
 31
0.0
  0
LINE
  5
1A1
330
1F
100
AcDbEntity
  8
0
  6
Continuous
 62
     7
370
    25
100
AcDbLine
 10
220.6397328952
 20
201.0564670754
 30
0.0
 11
221.2054183202
 21
201.3830303201
 31
0.0
  0
LINE
  5
1A2
330
1F
100
AcDbEntity
  8
0
  6
Continuous
 62
     7
370
    25
100
AcDbLine
 10
221.9125251014
 20
200.3216997748
 30
0.0
 11
220.6397328952
 21
201.0564670754
 31
0.0
  0
LINE
  5
1A3
330
1F
100
AcDbEntity
  8
0
  6
Continuous
 62
     7
370
    25
100
AcDbLine
 10
220.6397328952
 20
199.5869324741
 30
0.0
 11
221.9125251014
 21
200.3216997748
 31
0.0
  0
LWPOLYLINE
  5
1A4
330
1F
100
AcDbEntity
  8
0
  6
Continuous
 62
     7
370
    25
100
AcDbPolyline
 90
       22
 70
   128
 43
0.0
 10
226.0482105263
 20
199.9134293688
 10
226.031847703
 20
199.7163358564
 10
225.9380841358
 20
199.4054901175
 10
225.7632240635
 20
199.1065500443
 10
225.5113660582
 20
198.8265225385
 10
225.1884134581
 20
198.5719712076
 10
224.8019359982
 20
198.3488625191
 10
224.3609923828
 20
198.1624259514
 10
223.8759179565
 20
198.0170314197
 10
223.3580824526
 20
197.9160868487
 10
222.8196234965
 20
197.8619582935
 10
222.2731621098
 20
197.8559144815
 10
221.7315068842
 20
197.8980970746
 10
221.207353759
 20
197.9875173486
 10
220.7129884394
 20
198.122079368
 10
220.2599984293
 20
198.2986291132
 10
219.8590014308
 20
198.5130284077
 10
219.5193964734
 20
198.7602519138
 10
219.2491436098
 20
199.034504922
 10
219.0545773378
 20
199.3293591744
 10
218.940258126
 20
199.637903537
 10
218.9082105263
 20
199.9134293688
  0
LWPOLYLINE
  5
1A5
330
1F
100
AcDbEntity
  8
0
  6
Continuous
 62
     7
370
    25
100
AcDbPolyline
 90
        3
 70
   128
 43
0.0
 10
223.800715064
 20
197.7620924584
 10
223.7028000988
 20
197.7094571458
 10
223.6812381683
 20
197.6988354771
  0
LINE
  5
1A6
330
1F
100
AcDbEntity
  8
0
  6
Continuous
 62
     7
370
    25
100
AcDbLine
 10
221.2751828844
 20
197.6988354771
 30
0.0
 11
221.1559208455
 21
197.761968404
 31
0.0
  0
LINE
  5
1A7
330
1F
100
AcDbEntity
  8
0
  6
Continuous
 62
     7
370
    25
100
AcDbLine
 10
221.9125251014
 20
199.9949772899
 30
0.0
 11
222.1952298929
 21
199.8317752876
 31
0.0
  0
LINE
  5
1A8
330
1F
100
AcDbEntity
  8
0
  6
Continuous
 62
     7
370
    25
100
AcDbLine
 10
222.7611911597
 20
199.8317752876
 30
0.0
 11
223.0438959513
 21
199.9949772899
 31
0.0
  0
LINE
  5
1A9
330
1F
100
AcDbEntity
  8
0
  6
Continuous
 62
     7
370
    25
100
AcDbLine
 10
221.9125251014
 20
200.3216997748
 30
0.0
 11
221.9125251014
 21
199.6685732853
 31
0.0
  0
LINE
  5
1AA
330
1F
100
AcDbEntity
  8
0
  6
Continuous
 62
     7
370
    25
100
AcDbLine
 10
223.0438959513
 20
200.3216997748
 30
0.0
 11
223.0438959513
 21
199.6685732853
 31
0.0
  0
LINE
  5
1AB
330
1F
100
AcDbEntity
  8
0
  6
Continuous
 62
     7
370
    25
100
AcDbLine
 10
222.4782105263
 20
200.6482630195
 30
0.0
 11
222.4782105263
 21
199.99513653
 31
0.0
  0
LINE
  5
1AC
330
1F
100
AcDbEntity
  8
0
  6
Continuous
 62
     7
370
    25
100
AcDbLine
 10
221.2054183202
 20
201.3830303201
 30
0.0
 11
221.2054183202
 21
200.7299038307
 31
0.0
  0
LINE
  5
1AD
330
1F
100
AcDbEntity
  8
0
  6
Continuous
 62
     7
370
    25
100
AcDbLine
 10
223.7510027325
 20
201.3830303201
 30
0.0
 11
223.7510027325
 21
200.7299038307
 31
0.0
  0
LWPOLYLINE
  5
1AE
330
1F
100
AcDbEntity
  8
0
  6
Continuous
 62
     7
370
    25
100
AcDbPolyline
 90
       42
 70
   128
 43
0.0
 10
393.5025817352
 20
198.8644112951
 10
393.0876537162
 20
198.6590360552
 10
392.6232821368
 20
198.4926322437
 10
392.1203514732
 20
198.3691002249
 10
391.5906499937
 20
198.2913354845
 10
391.0465934523
 20
198.2611607623
 10
390.500934073
 20
198.2792833281
 10
389.9664616492
 20
198.3452784043
 10
389.4557037617
 20
198.4575991223
 10
388.9806321422
 20
198.6136127797
 10
388.5523820671
 20
198.8096625485
 10
388.1809913549
 20
199.0411531884
 10
387.8751650894
 20
199.3026587549
 10
387.6420715788
 20
199.5880497792
 10
387.4871743376
 20
199.8906369376
 10
387.4141040258
 20
200.2033278435
 10
387.4245733496
 20
200.5187932872
 10
387.5183369169
 20
200.829639026
 10
387.6931969891
 20
201.1285790993
 10
387.9450549944
 20
201.408606605
 10
388.2680075946
 20
201.6631579359
 10
388.6544850544
 20
201.8862666245
 10
389.0954286698
 20
202.0727031922
 10
389.5805030962
 20
202.2180977238
 10
390.0983386
 20
202.3190422949
 10
390.6367975561
 20
202.3731708501
 10
391.1832589428
 20
202.3792146621
 10
391.7249141685
 20
202.3370320689
 10
392.2490672936
 20
202.247611795
 10
392.7434326132
 20
202.1130497756
 10
393.1964226233
 20
201.9365000304
 10
393.5974196219
 20
201.7221007359
 10
393.9370245792
 20
201.4748772298
 10
394.2072774429
 20
201.2006242215
 10
394.4018437149
 20
200.9057699692
 10
394.5161629267
 20
200.5972256065
 10
394.5475555328
 20
200.2822231519
 10
394.4952857173
 20
199.9681459958
 10
394.3605786402
 20
199.6623558407
 10
394.1465917212
 20
199.3720201485
 10
393.8583406325
 20
199.1039441419
 10
393.5025817352
 20
198.8644112951
  0
LINE
  5
1AF
330
1F
100
AcDbEntity
  8
0
  6
Continuous
 62
     7
370
    25
100
AcDbLine
 10
393.5025817352
 20
198.4561408892
 30
0.0
 11
393.5025817352
 21
198.8644112951
 31
0.0
  0
LWPOLYLINE
  5
1B0
330
1F
100
AcDbEntity
  8
0
  6
Continuous
 62
     7
370
    25
100
AcDbPolyline
 90
       17
 70
   128
 43
0.0
 10
393.5025817352
 20
198.4561408892
 10
393.0876537162
 20
198.2507656493
 10
392.6232821368
 20
198.0843618378
 10
392.1203514732
 20
197.9608298189
 10
391.5906499937
 20
197.8830650786
 10
391.0465934523
 20
197.8528903564
 10
390.500934073
 20
197.8710129221
 10
389.9664616492
 20
197.9370079984
 10
389.4557037617
 20
198.0493287164
 10
388.9806321422
 20
198.2053423737
 10
388.5523820671
 20
198.4013921426
 10
388.1809913549
 20
198.6328827824
 10
387.8751650894
 20
198.8943883489
 10
387.6420715788
 20
199.1797793732
 10
387.4871743376
 20
199.4823665316
 10
387.4141040258
 20
199.7950574376
 10
387.4082105263
 20
199.9134293688
  0
ARC
  5
1B1
330
1F
100
AcDbEntity
  8
0
  6
Continuous
 62
     7
370
    25
100
AcDbCircle
 10
392.7961601755
 20
200.0667824301
 30
0.0
 40
1.758748871523994
100
AcDbArc
 50
293.6820826876
 51
354.9977763548
  0
LINE
  5
1B2
330
1F
100
AcDbEntity
  8
0
  6
Continuous
 62
     7
370
    25
100
AcDbLine
 10
392.2510027325
 20
201.3830303201
 30
0.0
 11
392.8166881574
 21
201.0564670754
 31
0.0
  0
LINE
  5
1B3
330
1F
100
AcDbEntity
  8
0
  6
Continuous
 62
     7
370
    25
100
AcDbLine
 10
390.9782105263
 20
200.6482630195
 30
0.0
 11
392.2510027325
 21
201.3830303201
 31
0.0
  0
LINE
  5
1B4
330
1F
100
AcDbEntity
  8
0
  6
Continuous
 62
     7
370
    25
100
AcDbLine
 10
389.7054183202
 20
201.3830303201
 30
0.0
 11
390.9782105263
 21
200.6482630195
 31
0.0
  0
LINE
  5
1B5
330
1F
100
AcDbEntity
  8
0
  6
Continuous
 62
     7
370
    25
100
AcDbLine
 10
389.1397328952
 20
201.0564670754
 30
0.0
 11
389.7054183202
 21
201.3830303201
 31
0.0
  0
LINE
  5
1B6
330
1F
100
AcDbEntity
  8
0
  6
Continuous
 62
     7
370
    25
100
AcDbLine
 10
390.4125251014
 20
200.3216997748
 30
0.0
 11
389.1397328952
 21
201.0564670754
 31
0.0
  0
LINE
  5
1B7
330
1F
100
AcDbEntity
  8
0
  6
Continuous
 62
     7
370
    25
100
AcDbLine
 10
389.1397328952
 20
199.5869324741
 30
0.0
 11
390.4125251014
 21
200.3216997748
 31
0.0
  0
LINE
  5
1B8
330
1F
100
AcDbEntity
  8
0
  6
Continuous
 62
     7
370
    25
100
AcDbLine
 10
389.7054183202
 20
199.2603692294
 30
0.0
 11
389.1397328952
 21
199.5869324741
 31
0.0
  0
LINE
  5
1B9
330
1F
100
AcDbEntity
  8
0
  6
Continuous
 62
     7
370
    25
100
AcDbLine
 10
390.9782105263
 20
199.99513653
 30
0.0
 11
389.7054183202
 21
199.2603692294
 31
0.0
  0
LINE
  5
1BA
330
1F
100
AcDbEntity
  8
0
  6
Continuous
 62
     7
370
    25
100
AcDbLine
 10
392.2510027325
 20
199.2603692294
 30
0.0
 11
390.9782105263
 21
199.99513653
 31
0.0
  0
LINE
  5
1BB
330
1F
100
AcDbEntity
  8
0
  6
Continuous
 62
     7
370
    25
100
AcDbLine
 10
392.8166881574
 20
199.5869324741
 30
0.0
 11
392.2510027325
 21
199.2603692294
 31
0.0
  0
LINE
  5
1BC
330
1F
100
AcDbEntity
  8
0
  6
Continuous
 62
     7
370
    25
100
AcDbLine
 10
391.5438959513
 20
200.3216997748
 30
0.0
 11
392.8166881574
 21
199.5869324741
 31
0.0
  0
LINE
  5
1BD
330
1F
100
AcDbEntity
  8
0
  6
Continuous
 62
     7
370
    25
100
AcDbLine
 10
392.8166881574
 20
201.0564670754
 30
0.0
 11
391.5438959513
 21
200.3216997748
 31
0.0
  0
LINE
  5
1BE
330
1F
100
AcDbEntity
  8
0
  6
Continuous
 62
     7
370
    25
100
AcDbLine
 10
392.3005002071
 20
197.761968404
 30
0.0
 11
393.5025817352
 21
198.4561408892
 31
0.0
  0
LINE
  5
1BF
330
1F
100
AcDbEntity
  8
0
  6
Continuous
 62
     7
370
    25
100
AcDbLine
 10
392.3005002071
 20
197.761968404
 30
0.0
 11
392.1812381684
 21
197.6988354771
 31
0.0
  0
LWPOLYLINE
  5
1C0
330
1F
100
AcDbEntity
  8
0
  6
Continuous
 62
     7
370
    25
100
AcDbPolyline
 90
        3
 70
   128
 43
0.0
 10
389.7751828842
 20
197.6988354771
 10
389.7536209538
 20
197.7094571458
 10
389.6557059886
 20
197.7620924584
  0
LINE
  5
1C1
330
1F
100
AcDbEntity
  8
0
  6
Continuous
 62
     7
370
    25
100
AcDbLine
 10
390.4125251014
 20
199.9949772899
 30
0.0
 11
390.6952298929
 21
199.8317752876
 31
0.0
  0
LINE
  5
1C2
330
1F
100
AcDbEntity
  8
0
  6
Continuous
 62
     7
370
    25
100
AcDbLine
 10
391.2611911597
 20
199.8317752876
 30
0.0
 11
391.5438959513
 21
199.9949772899
 31
0.0
  0
LINE
  5
1C3
330
1F
100
AcDbEntity
  8
0
  6
Continuous
 62
     7
370
    25
100
AcDbLine
 10
391.5438959513
 20
200.3216997748
 30
0.0
 11
391.5438959513
 21
199.6685732853
 31
0.0
  0
LINE
  5
1C4
330
1F
100
AcDbEntity
  8
0
  6
Continuous
 62
     7
370
    25
100
AcDbLine
 10
390.4125251014
 20
200.3216997748
 30
0.0
 11
390.4125251014
 21
199.6685732853
 31
0.0
  0
LINE
  5
1C5
330
1F
100
AcDbEntity
  8
0
  6
Continuous
 62
     7
370
    25
100
AcDbLine
 10
392.2510027325
 20
201.3830303201
 30
0.0
 11
392.2510027325
 21
200.7299038307
 31
0.0
  0
LINE
  5
1C6
330
1F
100
AcDbEntity
  8
0
  6
Continuous
 62
     7
370
    25
100
AcDbLine
 10
390.9782105263
 20
200.6482630195
 30
0.0
 11
390.9782105263
 21
199.99513653
 31
0.0
  0
LINE
  5
1C7
330
1F
100
AcDbEntity
  8
0
  6
Continuous
 62
     7
370
    25
100
AcDbLine
 10
389.7054183202
 20
201.3830303201
 30
0.0
 11
389.7054183202
 21
200.7299038307
 31
0.0
  0
LINE
  5
1C8
330
1F
100
AcDbEntity
  8
0
  6
Continuous
 62
     7
370
    25
100
AcDbLine
 10
307.2938959513
 20
145.5407154714
 30
0.0
 11
401.6219405615
 21
199.99513653
 31
0.0
  0
ARC
  5
1C9
330
1F
100
AcDbEntity
  8
0
  6
Continuous
 62
     7
370
    25
100
AcDbCircle
 10
306.7282105263
 20
146.6324843394
 30
0.0
 40
1.229617526329337
100
AcDbArc
 50
242.6096722366
 51
297.3903277634
  0
LINE
  5
1CA
330
1F
100
AcDbEntity
  8
0
  6
Continuous
 62
     7
370
    25
100
AcDbLine
 10
211.8344804911
 20
199.99513653
 30
0.0
 11
306.1625251014
 21
145.5407154714
 31
0.0
  0
ARC
  5
1CB
330
1F
100
AcDbEntity
  8
0
  6
Continuous
 62
     7
370
    25
100
AcDbCircle
 10
211.9584221125
 20
200.3216997748
 30
0.0
 40
0.3492922534674223
100
AcDbArc
 50
110.7834207995
 51
249.2165792005
  0
LINE
  5
1CC
330
1F
100
AcDbEntity
  8
0
  6
Continuous
 62
     7
370
    25
100
AcDbLine
 10
306.1625251014
 20
255.1026840781
 30
0.0
 11
211.8344804911
 21
200.6482630195
 31
0.0
  0
ARC
  5
1CD
330
1F
100
AcDbEntity
  8
0
  6
Continuous
 62
     7
370
    25
100
AcDbCircle
 10
306.7282105263
 20
254.0109152101
 30
0.0
 40
1.229617526329464
100
AcDbArc
 50
62.6096722366
 51
117.3903277634
  0
LINE
  5
1CE
330
1F
100
AcDbEntity
  8
0
  6
Continuous
 62
     7
370
    25
100
AcDbLine
 10
401.6219405615
 20
200.6482630195
 30
0.0
 11
307.2938959513
 21
255.1026840781
 31
0.0
  0
ARC
  5
1CF
330
1F
100
AcDbEntity
  8
0
  6
Continuous
 62
     7
370
    25
100
AcDbCircle
 10
401.4979989401
 20
200.3216997748
 30
0.0
 40
0.3492922534674323
100
AcDbArc
 50
290.7834207995
 51
69.2165792005
  0
LINE
  5
1D0
330
1F
100
AcDbEntity
  8
0
  6
Continuous
 62
     7
370
    25
100
AcDbLine
 10
316.5435926028
 20
244.0296757566
 30
0.0
 11
296.9128284498
 21
244.0296757566
 31
0.0
  0
ELLIPSE
  5
1D1
330
1F
100
AcDbEntity
  8
0
  6
Continuous
 62
     7
370
    25
100
AcDbEllipse
 10
307.128505542
 20
234.0002797399
 30
0.0
 11
12.10128774772556
 21
-9.32965324771777
 31
0.0
210
0.0
220
0.0
230
1.0
 40
0.3041442668
 41
2.765837641976439
 42
3.017056545724594
  0
LINE
  5
1D2
330
1F
100
AcDbEntity
  8
0
  6
Continuous
 62
     7
370
    25
100
AcDbLine
 10
295.4734034895
 20
243.7148544238
 30
0.0
 11
231.5609174408
 21
206.818961579
 31
0.0
  0
ELLIPSE
  5
1D3
330
1F
100
AcDbEntity
  8
0
  6
Continuous
 62
     7
370
    25
100
AcDbEllipse
 10
248.3888777117
 20
200.090614381
 30
0.0
 11
17.32474061170558
 21
-6.186311667782292
 31
0.0
210
0.0
220
0.0
230
1.0
 40
0.2098377978
 41
2.965162795017425
 42
3.216381698765647
  0
LINE
  5
1D4
330
1F
100
AcDbEntity
  8
0
  6
Continuous
 62
     7
370
    25
100
AcDbLine
 10
231.0155718077
 20
205.9879992369
 30
0.0
 11
231.0155718077
 21
194.6554003126
 31
0.0
  0
ELLIPSE
  5
1D5
330
1F
100
AcDbEntity
  8
0
  6
Continuous
 62
     7
370
    25
100
AcDbEllipse
 10
248.3888777117
 20
200.5527851685
 30
0.0
 11
17.32474061170564
 21
6.186311667782236
 31
0.0
210
0.0
220
0.0
230
1.0
 40
0.2098377978
 41
3.066803608414015
 42
3.318022512162236
  0
LINE
  5
1D6
330
1F
100
AcDbEntity
  8
0
  6
Continuous
 62
     7
370
    25
100
AcDbLine
 10
231.5609174408
 20
193.8244379705
 30
0.0
 11
295.4734034895
 21
156.9285451257
 31
0.0
  0
ELLIPSE
  5
1D7
330
1F
100
AcDbEntity
  8
0
  6
Continuous
 62
     7
370
    25
100
AcDbEllipse
 10
307.128505542
 20
166.6431198096
 30
0.0
 11
12.10128774772557
 21
9.329653247717745
 31
0.0
210
0.0
220
0.0
230
1.0
 40
0.3041442668
 41
3.266128761455025
 42
3.517347665203189
  0
LINE
  5
1D8
330
1F
100
AcDbEntity
  8
0
  6
Continuous
 62
     7
370
    25
100
AcDbLine
 10
296.9128284498
 20
156.6137237929
 30
0.0
 11
316.5435926028
 21
156.6137237929
 31
0.0
  0
ELLIPSE
  5
1D9
330
1F
100
AcDbEntity
  8
0
  6
Continuous
 62
     7
370
    25
100
AcDbEllipse
 10
306.3279155106
 20
166.6431198096
 30
0.0
 11
12.10128774772556
 21
-9.32965324771777
 31
0.0
210
0.0
220
0.0
230
1.0
 40
0.3041442668
 41
5.907430295566261
 42
6.158649199314443
  0
LINE
  5
1DA
330
1F
100
AcDbEntity
  8
0
  6
Continuous
 62
     7
370
    25
100
AcDbLine
 10
317.9830175631
 20
156.9285451257
 30
0.0
 11
381.8955036119
 21
193.8244379705
 31
0.0
  0
ELLIPSE
  5
1DB
330
1F
100
AcDbEntity
  8
0
  6
Continuous
 62
     7
370
    25
100
AcDbEllipse
 10
365.0675433409
 20
200.5527851685
 30
0.0
 11
17.32474061170558
 21
-6.186311667782292
 31
0.0
210
0.0
220
0.0
230
1.0
 40
0.2098377978
 41
6.106755448607256
 42
6.357974352355353
  0
LINE
  5
1DC
330
1F
100
AcDbEntity
  8
0
  6
Continuous
 62
     7
370
    25
100
AcDbLine
 10
382.4408492449
 20
194.6554003126
 30
0.0
 11
382.4408492449
 21
205.9879992369
 31
0.0
  0
ELLIPSE
  5
1DD
330
1F
100
AcDbEntity
  8
0
  6
Continuous
 62
     7
370
    25
100
AcDbEllipse
 10
365.0675433409
 20
200.090614381
 30
0.0
 11
17.32474061170564
 21
6.186311667782319
 31
0.0
210
0.0
220
0.0
230
1.0
 40
0.2098377978
 41
6.208396262003846
 42
6.459615165751968
  0
LINE
  5
1DE
330
1F
100
AcDbEntity
  8
0
  6
Continuous
 62
     7
370
    25
100
AcDbLine
 10
381.8955036119
 20
206.818961579
 30
0.0
 11
317.9830175631
 21
243.7148544238
 31
0.0
  0
ELLIPSE
  5
1DF
330
1F
100
AcDbEntity
  8
0
  6
Continuous
 62
     7
370
    25
100
AcDbEllipse
 10
306.3279155106
 20
234.0002797399
 30
0.0
 11
12.10128774772557
 21
9.329653247717745
 31
0.0
210
0.0
220
0.0
230
1.0
 40
0.3041442668
 41
0.1245361078651776
 42
0.3757550116133412
  0
LWPOLYLINE
  5
1E0
330
1F
100
AcDbEntity
  8
0
  6
Continuous
 62
     7
370
    25
100
AcDbPolyline
 90
       48
 70
   128
 43
0.0
 10
227.1782105263
 20
200.3216997748
 10
227.1362747206
 20
199.9600586436
 10
227.0112156491
 20
199.604871007
 10
226.8052649937
 20
199.2624751968
 10
226.5220979488
 20
198.9389812742
 10
226.1667676371
 20
198.6401619961
 10
225.7456149364
 20
198.3713497994
 10
225.2661553265
 20
198.1373416443
 10
224.7369447757
 20
197.9423134117
 10
224.1674270587
 20
197.7897453852
 10
223.5677652326
 20
197.6823601447
 10
222.9486602769
 20
197.6220739824
 10
222.3211601344
 20
197.6099627064
 10
221.6964625598
 20
197.6462424426
 10
221.0857152962
 20
197.7302657783
 10
220.4998171429
 20
197.860533315
 10
219.9492234664
 20
198.0347204255
 10
219.443759624
 20
198.2497187367
 10
218.9924456298
 20
198.5016915986
 10
218.6033351927
 20
198.7861425495
 10
218.2833719978
 20
199.0979955555
 10
218.0382657958
 20
199.4316855922
 10
217.8723905126
 20
199.7812579531
 10
217.7887061968
 20
200.1404745112
 10
217.7887061968
 20
200.5029250383
 10
217.8723905126
 20
200.8621415964
 10
218.0382657958
 20
201.2117139573
 10
218.2833719978
 20
201.545403994
 10
218.6033351927
 20
201.857257
 10
218.9924456298
 20
202.1417079509
 10
219.443759624
 20
202.3936808128
 10
219.9492234664
 20
202.608679124
 10
220.4998171429
 20
202.7828662345
 10
221.0857152962
 20
202.9131337712
 10
221.6964625598
 20
202.9971571069
 10
222.3211601344
 20
203.0334368431
 10
222.9486602769
 20
203.0213255671
 10
223.5677652326
 20
202.9610394048
 10
224.1674270587
 20
202.8536541643
 10
224.7369447757
 20
202.7010861378
 10
225.2661553265
 20
202.5060579052
 10
225.7456149364
 20
202.2720497501
 10
226.1667676371
 20
202.0032375534
 10
226.5220979488
 20
201.7044182753
 10
226.8052649937
 20
201.3809243527
 10
227.0112156491
 20
201.0385285425
 10
227.1362747206
 20
200.6833409059
 10
227.1782105263
 20
200.3216997748
  0
LWPOLYLINE
  5
1E1
330
1F
100
AcDbEntity
  8
0
  6
Continuous
 62
     7
370
    25
100
AcDbPolyline
 90
       48
 70
   128
 43
0.0
 10
386.2782105263
 20
200.3216997748
 10
386.320146332
 20
200.6833409059
 10
386.4452054036
 20
201.0385285425
 10
386.6511560589
 20
201.3809243527
 10
386.9343231038
 20
201.7044182753
 10
387.2896534155
 20
202.0032375534
 10
387.7108061162
 20
202.2720497501
 10
388.1902657261
 20
202.5060579052
 10
388.7194762769
 20
202.7010861378
 10
389.288993994
 20
202.8536541643
 10
389.8886558201
 20
202.9610394048
 10
390.5077607757
 20
203.0213255671
 10
391.1352609183
 20
203.0334368431
 10
391.7599584929
 20
202.9971571069
 10
392.3707057565
 20
202.9131337712
 10
392.9566039097
 20
202.7828662345
 10
393.5071975862
 20
202.608679124
 10
394.0126614286
 20
202.3936808128
 10
394.4639754229
 20
202.1417079509
 10
394.8530858599
 20
201.857257
 10
395.1730490549
 20
201.545403994
 10
395.4181552569
 20
201.2117139573
 10
395.58403054
 20
200.8621415964
 10
395.6677148558
 20
200.5029250383
 10
395.6677148558
 20
200.1404745112
 10
395.58403054
 20
199.7812579531
 10
395.4181552569
 20
199.4316855922
 10
395.1730490549
 20
199.0979955555
 10
394.8530858599
 20
198.7861425495
 10
394.4639754229
 20
198.5016915986
 10
394.0126614286
 20
198.2497187367
 10
393.5071975862
 20
198.0347204255
 10
392.9566039097
 20
197.860533315
 10
392.3707057565
 20
197.7302657783
 10
391.7599584929
 20
197.6462424426
 10
391.1352609183
 20
197.6099627064
 10
390.5077607757
 20
197.6220739824
 10
389.8886558201
 20
197.6823601447
 10
389.288993994
 20
197.7897453852
 10
388.7194762769
 20
197.9423134117
 10
388.1902657261
 20
198.1373416443
 10
387.7108061162
 20
198.3713497994
 10
387.2896534155
 20
198.6401619961
 10
386.9343231038
 20
198.9389812742
 10
386.6511560589
 20
199.2624751968
 10
386.4452054036
 20
199.604871007
 10
386.320146332
 20
199.9600586436
 10
386.2782105263
 20
200.3216997748
  0
LINE
  5
1E2
330
1F
100
AcDbEntity
  8
0
  6
Continuous
 62
     7
370
    25
100
AcDbLine
 10
307.2938959513
 20
144.5702062475
 30
0.0
 11
307.2938959513
 21
145.5407154714
 31
0.0
  0
ELLIPSE
  5
1E3
330
1F
100
AcDbEntity
  8
0
  6
Continuous
 62
     7
370
    25
100
AcDbEllipse
 10
306.7282105263
 20
144.7428010802
 30
0.0
 11
0.8000000000000682
 21
0.0
 31
0.0
210
0.0
220
0.0
230
1.0
 40
0.3051074415
 41
3.926990816987411
 42
5.497787143782068
  0
LINE
  5
1E4
330
1F
100
AcDbEntity
  8
0
  6
Continuous
 62
     7
370
    25
100
AcDbLine
 10
306.1625251014
 20
145.5407154714
 30
0.0
 11
306.1625251014
 21
144.5702062475
 31
0.0
  0
LINE
  5
1E5
330
1F
100
AcDbEntity
  8
0
  6
Continuous
 62
     7
370
    25
100
AcDbLine
 10
399.1876259865
 20
196.9567550147
 30
0.0
 11
401.6219405615
 21
199.0246273061
 31
0.0
  0
LINE
  5
1E6
330
1F
100
AcDbEntity
  8
0
  6
Continuous
 62
     7
370
    25
100
AcDbLine
 10
309.7282105263
 20
145.3129337392
 30
0.0
 11
399.1876259865
 21
196.9567550147
 31
0.0
  0
LINE
  5
1E7
330
1F
100
AcDbEntity
  8
0
  6
Continuous
 62
     7
370
    25
100
AcDbLine
 10
307.2938959513
 20
144.5702062475
 30
0.0
 11
309.7282105263
 21
145.3129337392
 31
0.0
  0
LINE
  5
1E8
330
1F
100
AcDbEntity
  8
0
  6
Continuous
 62
     7
370
    25
100
AcDbLine
 10
401.6219405615
 20
199.99513653
 30
0.0
 11
401.6219405615
 21
199.0246273061
 31
0.0
  0
LINE
  5
1E9
330
1F
100
AcDbEntity
  8
0
  6
Continuous
 62
     7
370
    25
100
AcDbLine
 10
303.7282105263
 20
145.3129337392
 30
0.0
 11
306.1625251014
 21
144.5702062475
 31
0.0
  0
LINE
  5
1EA
330
1F
100
AcDbEntity
  8
0
  6
Continuous
 62
     7
370
    25
100
AcDbLine
 10
214.2687950661
 20
196.9567550147
 30
0.0
 11
303.7282105263
 21
145.3129337392
 31
0.0
  0
LINE
  5
1EB
330
1F
100
AcDbEntity
  8
0
  6
Continuous
 62
     7
370
    25
100
AcDbLine
 10
211.8344804911
 20
199.0246273061
 30
0.0
 11
214.2687950661
 21
196.9567550147
 31
0.0
  0
LINE
  5
1EC
330
1F
100
AcDbEntity
  8
0
  6
Continuous
 62
     7
370
    25
100
AcDbLine
 10
211.8344804911
 20
199.0246273061
 30
0.0
 11
211.8344804911
 21
199.99513653
 31
0.0
  0
SPLINE
  5
1ED
330
1F
100
AcDbEntity
  8
0
  6
Continuous
 62
     7
370
    25
100
AcDbSpline
210
0.0
220
0.0
230
1.0
 70
    24
 71
     3
 72
     9
 73
     5
 74
     0
 42
0.00000001
 43
0.00000001
 40
0.0
 40
0.0
 40
0.0
 40
0.0
 40
0.5000000000000152
 40
1.0
 40
1.0
 40
1.0
 40
1.0
 10
296.9128284498254
 20
156.6137237929264
 30
0.0
 10
296.9128284498254
 20
156.741207209987
 30
0.0
 10
296.9128284498254
 20
156.9961740441082
 30
0.0
 10
296.9128284498254
 20
157.1388867903757
 30
0.0
 10
296.9128284498254
 20
157.2102431635094
 30
0.0
  0
LINE
  5
1EE
330
1F
100
AcDbEntity
  8
0
  6
Continuous
 62
     7
370
    25
100
AcDbLine
 10
316.5435926028
 20
157.2102431635
 30
0.0
 11
296.9128284498
 21
157.2102431635
 31
0.0
  0
SPLINE
  5
1EF
330
1F
100
AcDbEntity
  8
0
  6
Continuous
 62
     7
370
    25
100
AcDbSpline
210
0.0
220
0.0
230
1.0
 70
    24
 71
     3
 72
     9
 73
     5
 74
     0
 42
0.00000001
 43
0.00000001
 40
0.0
 40
0.0
 40
0.0
 40
0.0
 40
0.5000000000000305
 40
1.0
 40
1.0
 40
1.0
 40
1.0
 10
316.5435926028046
 20
156.6137237929263
 30
0.0
 10
316.5435926028046
 20
156.7412072099869
 30
0.0
 10
316.5435926028046
 20
156.9961740441082
 30
0.0
 10
316.5435926028046
 20
157.1388867903757
 30
0.0
 10
316.5435926028046
 20
157.2102431635094
 30
0.0
  0
LINE
  5
1F0
330
1F
100
AcDbEntity
  8
0
  6
Continuous
 62
     7
370
    25
100
AcDbLine
 10
296.9128284498
 20
157.2102431635
 30
0.0
 11
300.4158143975
 21
158.6625648039
 31
0.0
  0
LINE
  5
1F1
330
1F
100
AcDbEntity
  8
0
  6
Continuous
 62
     7
370
    25
100
AcDbLine
 10
300.4158143975
 20
158.6625648039
 30
0.0
 11
313.0406066551
 21
158.6625648039
 31
0.0
  0
LINE
  5
1F2
330
1F
100
AcDbEntity
  8
0
  6
Continuous
 62
     7
370
    25
100
AcDbLine
 10
313.0406066551
 20
158.6625648039
 30
0.0
 11
316.5435926028
 21
157.2102431635
 31
0.0
  0
SPLINE
  5
1F3
330
1F
100
AcDbEntity
  8
0
  6
Continuous
 62
     7
370
    25
100
AcDbSpline
210
0.0
220
0.0
230
1.0
 70
     8
 71
     3
 72
    13
 73
     9
 74
     0
 42
0.00000001
 43
0.00000001
 40
0.0
 40
0.0
 40
0.0
 40
0.0
 40
0.1008318217421758
 40
0.1944569794367617
 40
0.2893450897097679
 40
0.3936585894564366
 40
0.6520969811804992
 40
1.0
 40
1.0
 40
1.0
 40
1.0
 10
317.1404115354379
 20
157.2666715534107
 30
0.0
 10
317.1288913456759
 20
157.2569533074141
 30
0.0
 10
317.1066743385352
 20
157.2382113990632
 30
0.0
 10
317.0554451305835
 20
157.2148524063677
 30
0.0
 10
316.9937146911337
 20
157.1981077861204
 30
0.0
 10
316.8907208502907
 20
157.183969858913
 30
0.0
 10
316.7328646820641
 20
157.1852302080561
 30
0.0
 10
316.6125983268376
 20
157.201123820033
 30
0.0
 10
316.5435926028046
 20
157.2102431635094
 30
0.0
  0
SPLINE
  5
1F4
330
1F
100
AcDbEntity
  8
0
  6
Continuous
 62
     7
370
    25
100
AcDbSpline
210
0.0
220
0.0
230
1.0
 70
     8
 71
     3
 72
     9
 73
     5
 74
     0
 42
0.00000001
 43
0.00000001
 40
0.0
 40
0.0
 40
0.0
 40
0.0
 40
0.5000000000000031
 40
1.0
 40
1.0
 40
1.0
 40
1.0
 10
317.9830175631006
 20
156.9285451257347
 30
0.0
 10
317.840150575159
 20
157.0047349062398
 30
0.0
 10
317.5544165992757
 20
157.15711446725
 30
0.0
 10
317.2784132233839
 20
157.2301525246905
 30
0.0
 10
317.140411535438
 20
157.2666715534107
 30
0.0
  0
SPLINE
  5
1F5
330
1F
100
AcDbEntity
  8
0
  6
Continuous
 62
     7
370
    25
100
AcDbSpline
210
0.0
220
0.0
230
1.0
 70
     8
 71
     3
 72
     9
 73
     5
 74
     0
 42
0.00000001
 43
0.00000001
 40
0.0
 40
0.0
 40
0.0
 40
0.0
 40
0.5000000000000026
 40
1.0
 40
1.0
 40
1.0
 40
1.0
 10
295.4734034895295
 20
156.9285451257348
 30
0.0
 10
295.6162704774711
 20
157.0047349062398
 30
0.0
 10
295.9020044533544
 20
157.15711446725
 30
0.0
 10
296.1780078292463
 20
157.2301525246905
 30
0.0
 10
296.3160095171921
 20
157.2666715534107
 30
0.0
  0
SPLINE
  5
1F6
330
1F
100
AcDbEntity
  8
0
  6
Continuous
 62
     7
370
    25
100
AcDbSpline
210
0.0
220
0.0
230
1.0
 70
     8
 71
     3
 72
    13
 73
     9
 74
     0
 42
0.00000001
 43
0.00000001
 40
0.0
 40
0.0
 40
0.0
 40
0.0
 40
0.3479030188194759
 40
0.6063414105435555
 40
0.7106549102902291
 40
0.8055430205632303
 40
0.8991681782577946
 40
1.0
 40
1.0
 40
1.0
 40
1.0
 10
296.9128284498256
 20
157.2102431635095
 30
0.0
 10
296.8438227257926
 20
157.201123820033
 30
0.0
 10
296.723556370566
 20
157.1852302080561
 30
0.0
 10
296.5657002023394
 20
157.1839698589131
 30
0.0
 10
296.4627063614964
 20
157.1981077861204
 30
0.0
 10
296.4009759220467
 20
157.2148524063677
 30
0.0
 10
296.349746714095
 20
157.2382113990633
 30
0.0
 10
296.3275297069542
 20
157.2569533074141
 30
0.0
 10
296.3160095171922
 20
157.2666715534107
 30
0.0
  0
LINE
  5
1F7
330
1F
100
AcDbEntity
  8
0
  6
Continuous
 62
     7
370
    25
100
AcDbLine
 10
381.0528975842
 20
194.1625643982
 30
0.0
 11
317.1404115354
 21
157.2666715534
 31
0.0
  0
SPLINE
  5
1F8
330
1F
100
AcDbEntity
  8
0
  6
Continuous
 62
     7
370
    25
100
AcDbSpline
210
0.0
220
0.0
230
1.0
 70
     8
 71
     3
 72
     9
 73
     5
 74
     0
 42
0.00000001
 43
0.00000001
 40
0.0
 40
0.0
 40
0.0
 40
0.0
 40
0.5000000000000026
 40
0.9999999999999999
 40
0.9999999999999999
 40
0.9999999999999999
 40
0.9999999999999999
 10
381.8955036118593
 20
193.8244379705216
 30
0.0
 10
381.7526366239177
 20
193.9006277510267
 30
0.0
 10
381.4669026480344
 20
194.0530073120369
 30
0.0
 10
381.1908992721426
 20
194.1260453694774
 30
0.0
 10
381.0528975841967
 20
194.1625643981976
 30
0.0
  0
SPLINE
  5
1F9
330
1F
100
AcDbEntity
  8
0
  6
Continuous
 62
     7
370
    25
100
AcDbSpline
210
0.0
220
0.0
230
1.0
 70
     8
 71
     3
 72
     9
 73
     5
 74
     0
 42
0.00000001
 43
0.00000001
 40
0.0
 40
0.0
 40
0.0
 40
0.0
 40
0.500000000000003
 40
1.0
 40
1.0
 40
1.0
 40
1.0
 10
231.560917440771
 20
193.8244379705218
 30
0.0
 10
231.7037844287127
 20
193.9006277510269
 30
0.0
 10
231.989518404596
 20
194.0530073120371
 30
0.0
 10
232.2655217804878
 20
194.1260453694775
 30
0.0
 10
232.4035234684337
 20
194.1625643981978
 30
0.0
  0
LINE
  5
1FA
330
1F
100
AcDbEntity
  8
0
  6
Continuous
 62
     7
370
    25
100
AcDbLine
 10
296.3160095172
 20
157.2666715534
 30
0.0
 11
232.4035234684
 21
194.1625643982
 31
0.0
  0
ARC
  5
1FB
330
1F
100
AcDbEntity
  8
0
  6
Continuous
 62
     7
370
    25
100
AcDbCircle
 10
312.7680869798
 20
160.3027592847
 30
0.0
 40
1.662680037803273
100
AcDbArc
 50
279.4335633667
 51
294.6637230402
  0
LINE
  5
1FC
330
1F
100
AcDbEntity
  8
0
  6
Continuous
 62
     7
370
    25
100
AcDbLine
 10
317.1404115354
 20
157.2666715534
 30
0.0
 11
313.461909669
 21
158.7917612754
 31
0.0
  0
LINE
  5
1FD
330
1F
100
AcDbEntity
  8
0
  6
Continuous
 62
     7
370
    25
100
AcDbLine
 10
299.9945113837
 20
158.7917612754
 30
0.0
 11
296.3160095172
 21
157.2666715534
 31
0.0
  0
ARC
  5
1FE
330
1F
100
AcDbEntity
  8
0
  6
Continuous
 62
     7
370
    25
100
AcDbCircle
 10
300.6883340729
 20
160.3027592847
 30
0.0
 40
1.662680037804098
100
AcDbArc
 50
245.3362769598
 51
260.5664366333
  0
LINE
  5
1FF
330
1F
100
AcDbEntity
  8
0
  6
Continuous
 62
     7
370
    25
100
AcDbLine
 10
313.461909669
 20
158.7917612754
 30
0.0
 11
375.5431941808
 21
194.6305239746
 31
0.0
  0
LINE
  5
200
330
1F
100
AcDbEntity
  8
0
  6
Continuous
 62
     7
370
    25
100
AcDbLine
 10
375.5431941808
 20
194.6305239746
 30
0.0
 11
381.0528975842
 21
194.1625643982
 31
0.0
  0
LINE
  5
201
330
1F
100
AcDbEntity
  8
0
  6
Continuous
 62
     7
370
    25
100
AcDbLine
 10
232.4035234684
 20
194.1625643982
 30
0.0
 11
237.9132268718
 21
194.6305239746
 31
0.0
  0
LINE
  5
202
330
1F
100
AcDbEntity
  8
0
  6
Continuous
 62
     7
370
    25
100
AcDbLine
 10
237.9132268718
 20
194.6305239746
 30
0.0
 11
299.9945113837
 21
158.7917612754
 31
0.0
  0
LINE
  5
203
330
1F
100
AcDbEntity
  8
0
  6
Continuous
 62
     7
370
    25
100
AcDbLine
 10
313.0406066551
 20
158.9608244892
 30
0.0
 11
300.4158143975
 21
158.9608244892
 31
0.0
  0
LINE
  5
204
330
1F
100
AcDbEntity
  8
0
  6
Continuous
 62
     7
370
    25
100
AcDbLine
 10
313.0406066551
 20
158.6625648039
 30
0.0
 11
313.0406066551
 21
158.9608244892
 31
0.0
  0
LINE
  5
205
330
1F
100
AcDbEntity
  8
0
  6
Continuous
 62
     7
370
    25
100
AcDbLine
 10
300.4158143975
 20
158.9608244892
 30
0.0
 11
300.4158143975
 21
158.6625648039
 31
0.0
  0
LINE
  5
206
330
1F
100
AcDbEntity
  8
0
  6
Continuous
 62
     7
370
    25
100
AcDbLine
 10
300.4158143975
 20
237.9264873256
 30
0.0
 11
313.0406066551
 21
237.9264873256
 31
0.0
  0
LINE
  5
207
330
1F
100
AcDbEntity
  8
0
  6
Continuous
 62
     7
370
    25
100
AcDbLine
 10
313.0406066551
 20
237.9264873256
 30
0.0
 11
375.121891167
 21
202.0877246264
 31
0.0
  0
LINE
  5
208
330
1F
100
AcDbEntity
  8
0
  6
Continuous
 62
     7
370
    25
100
AcDbLine
 10
375.121891167
 20
202.0877246264
 30
0.0
 11
375.121891167
 21
194.7995871884
 31
0.0
  0
LINE
  5
209
330
1F
100
AcDbEntity
  8
0
  6
Continuous
 62
     7
370
    25
100
AcDbLine
 10
375.121891167
 20
194.7995871884
 30
0.0
 11
313.0406066551
 21
158.9608244892
 31
0.0
  0
LINE
  5
20A
330
1F
100
AcDbEntity
  8
0
  6
Continuous
 62
     7
370
    25
100
AcDbLine
 10
300.4158143975
 20
158.9608244892
 30
0.0
 11
238.3345298856
 21
194.7995871884
 31
0.0
  0
LINE
  5
20B
330
1F
100
AcDbEntity
  8
0
  6
Continuous
 62
     7
370
    25
100
AcDbLine
 10
238.3345298856
 20
194.7995871884
 30
0.0
 11
238.3345298856
 21
202.0877246264
 31
0.0
  0
LINE
  5
20C
330
1F
100
AcDbEntity
  8
0
  6
Continuous
 62
     7
370
    25
100
AcDbLine
 10
238.3345298856
 20
202.0877246264
 30
0.0
 11
300.4158143975
 21
237.9264873256
 31
0.0
  0
LINE
  5
20D
330
1F
100
AcDbEntity
  8
0
  6
Continuous
 62
     7
370
    25
100
AcDbLine
 10
277.0297257165
 20
175.9924328323
 30
0.0
 11
245.9170273443
 21
193.9534112924
 31
0.0
  0
LINE
  5
20E
330
1F
100
AcDbEntity
  8
0
  6
Continuous
 62
     7
370
    25
100
AcDbLine
 10
281.2723664036
 20
178.4416571678
 30
0.0
 11
277.0297257165
 21
175.9924328323
 31
0.0
  0
LINE
  5
20F
330
1F
100
AcDbEntity
  8
0
  6
Continuous
 62
     7
370
    25
100
AcDbLine
 10
250.1596680314
 20
196.4026356279
 30
0.0
 11
281.2723664036
 21
178.4416571678
 31
0.0
  0
LINE
  5
210
330
1F
100
AcDbEntity
  8
0
  6
Continuous
 62
     7
370
    25
100
AcDbLine
 10
245.9170273443
 20
193.9534112924
 30
0.0
 11
250.1596680314
 21
196.4026356279
 31
0.0
  0
LINE
  5
211
330
1F
100
AcDbEntity
  8
0
  6
Continuous
 62
     7
370
    25
100
AcDbLine
 10
340.3157826327
 20
203.1380025504
 30
0.0
 11
314.85993851
 21
217.8333485632
 31
0.0
  0
LINE
  5
212
330
1F
100
AcDbEntity
  8
0
  6
Continuous
 62
     7
370
    25
100
AcDbLine
 10
344.5584233198
 20
205.5872268859
 30
0.0
 11
340.3157826327
 21
203.1380025504
 31
0.0
  0
LINE
  5
213
330
1F
100
AcDbEntity
  8
0
  6
Continuous
 62
     7
370
    25
100
AcDbLine
 10
319.1025791971
 20
220.2825728987
 30
0.0
 11
344.5584233198
 21
205.5872268859
 31
0.0
  0
LINE
  5
214
330
1F
100
AcDbEntity
  8
0
  6
Continuous
 62
     7
370
    25
100
AcDbLine
 10
314.85993851
 20
217.8333485632
 30
0.0
 11
319.1025791971
 21
220.2825728987
 31
0.0
  0
LINE
  5
215
330
1F
100
AcDbEntity
  8
0
  6
Continuous
 62
     7
370
    25
100
AcDbLine
 10
315.5670452911
 20
164.3586172388
 30
0.0
 11
300.010696105
 21
173.3391064689
 31
0.0
  0
LINE
  5
216
330
1F
100
AcDbEntity
  8
0
  6
Continuous
 62
     7
370
    25
100
AcDbLine
 10
319.8096859783
 20
166.8078415743
 30
0.0
 11
315.5670452911
 21
164.3586172388
 31
0.0
  0
LINE
  5
217
330
1F
100
AcDbEntity
  8
0
  6
Continuous
 62
     7
370
    25
100
AcDbLine
 10
304.2533367922
 20
175.7883308043
 30
0.0
 11
319.8096859783
 21
166.8078415743
 31
0.0
  0
LINE
  5
218
330
1F
100
AcDbEntity
  8
0
  6
Continuous
 62
     7
370
    25
100
AcDbLine
 10
300.010696105
 20
173.3391064689
 30
0.0
 11
304.2533367922
 21
175.7883308043
 31
0.0
  0
LINE
  5
219
330
1F
100
AcDbEntity
  8
0
  6
Continuous
 62
     7
370
    25
100
AcDbLine
 10
318.3954724159
 20
183.9524119226
 30
0.0
 11
302.8391232298
 21
192.9329011526
 31
0.0
  0
LINE
  5
21A
330
1F
100
AcDbEntity
  8
0
  6
Continuous
 62
     7
370
    25
100
AcDbLine
 10
322.638113103
 20
186.401636258
 30
0.0
 11
318.3954724159
 21
183.9524119226
 31
0.0
  0
LINE
  5
21B
330
1F
100
AcDbEntity
  8
0
  6
Continuous
 62
     7
370
    25
100
AcDbLine
 10
307.0817639169
 20
195.3821254881
 30
0.0
 11
322.638113103
 21
186.401636258
 31
0.0
  0
LINE
  5
21C
330
1F
100
AcDbEntity
  8
0
  6
Continuous
 62
     7
370
    25
100
AcDbLine
 10
302.8391232298
 20
192.9329011526
 30
0.0
 11
307.0817639169
 21
195.3821254881
 31
0.0
  0
LINE
  5
21D
330
1F
100
AcDbEntity
  8
0
  6
Continuous
 62
     7
370
    25
100
AcDbLine
 10
336.7802487267
 20
194.5657173763
 30
0.0
 11
321.2238995406
 21
203.5462066063
 31
0.0
  0
LINE
  5
21E
330
1F
100
AcDbEntity
  8
0
  6
Continuous
 62
     7
370
    25
100
AcDbLine
 10
341.0228894139
 20
197.0149417117
 30
0.0
 11
336.7802487267
 21
194.5657173763
 31
0.0
  0
LINE
  5
21F
330
1F
100
AcDbEntity
  8
0
  6
Continuous
 62
     7
370
    25
100
AcDbLine
 10
325.4665402278
 20
205.9954309418
 30
0.0
 11
341.0228894139
 21
197.0149417117
 31
0.0
  0
LINE
  5
220
330
1F
100
AcDbEntity
  8
0
  6
Continuous
 62
     7
370
    25
100
AcDbLine
 10
321.2238995406
 20
203.5462066063
 30
0.0
 11
325.4665402278
 21
205.9954309418
 31
0.0
  0
LINE
  5
221
330
1F
100
AcDbEntity
  8
0
  6
Continuous
 62
     7
370
    25
100
AcDbLine
 10
297.1822689803
 20
196.1985335999
 30
0.0
 11
281.6259197942
 21
205.17902283
 31
0.0
  0
LINE
  5
222
330
1F
100
AcDbEntity
  8
0
  6
Continuous
 62
     7
370
    25
100
AcDbLine
 10
301.4249096674
 20
198.6477579354
 30
0.0
 11
297.1822689803
 21
196.1985335999
 31
0.0
  0
LINE
  5
223
330
1F
100
AcDbEntity
  8
0
  6
Continuous
 62
     7
370
    25
100
AcDbLine
 10
285.8685604813
 20
207.6282471654
 30
0.0
 11
301.4249096674
 21
198.6477579354
 31
0.0
  0
LINE
  5
224
330
1F
100
AcDbEntity
  8
0
  6
Continuous
 62
     7
370
    25
100
AcDbLine
 10
281.6259197942
 20
205.17902283
 30
0.0
 11
285.8685604813
 21
207.6282471654
 31
0.0
  0
LINE
  5
225
330
1F
100
AcDbEntity
  8
0
  6
Continuous
 62
     7
370
    25
100
AcDbLine
 10
315.5670452911
 20
206.8118390536
 30
0.0
 11
300.010696105
 21
215.7923282836
 31
0.0
  0
LINE
  5
226
330
1F
100
AcDbEntity
  8
0
  6
Continuous
 62
     7
370
    25
100
AcDbLine
 10
319.8096859783
 20
209.2610633891
 30
0.0
 11
315.5670452911
 21
206.8118390536
 31
0.0
  0
LINE
  5
227
330
1F
100
AcDbEntity
  8
0
  6
Continuous
 62
     7
370
    25
100
AcDbLine
 10
304.2533367922
 20
218.2415526191
 30
0.0
 11
319.8096859783
 21
209.2610633891
 31
0.0
  0
LINE
  5
228
330
1F
100
AcDbEntity
  8
0
  6
Continuous
 62
     7
370
    25
100
AcDbLine
 10
300.010696105
 20
215.7923282836
 30
0.0
 11
304.2533367922
 21
218.2415526191
 31
0.0
  0
LINE
  5
229
330
1F
100
AcDbEntity
  8
0
  6
Continuous
 62
     7
370
    25
100
AcDbLine
 10
309.2030842605
 20
221.0989810105
 30
0.0
 11
293.6467350744
 21
230.0794702405
 31
0.0
  0
LINE
  5
22A
330
1F
100
AcDbEntity
  8
0
  6
Continuous
 62
     7
370
    25
100
AcDbLine
 10
313.4457249476
 20
223.548205346
 30
0.0
 11
309.2030842605
 21
221.0989810105
 31
0.0
  0
LINE
  5
22B
330
1F
100
AcDbEntity
  8
0
  6
Continuous
 62
     7
370
    25
100
AcDbLine
 10
297.8893757615
 20
232.528694576
 30
0.0
 11
313.4457249476
 21
223.548205346
 31
0.0
  0
LINE
  5
22C
330
1F
100
AcDbEntity
  8
0
  6
Continuous
 62
     7
370
    25
100
AcDbLine
 10
293.6467350744
 20
230.0794702405
 30
0.0
 11
297.8893757615
 21
232.528694576
 31
0.0
  0
LINE
  5
22D
330
1F
100
AcDbEntity
  8
0
  6
Continuous
 62
     7
370
    25
100
AcDbLine
 10
333.951821602
 20
174.9719226925
 30
0.0
 11
324.0523266654
 21
180.6867794753
 31
0.0
  0
LINE
  5
22E
330
1F
100
AcDbEntity
  8
0
  6
Continuous
 62
     7
370
    25
100
AcDbLine
 10
338.1944622891
 20
177.421147028
 30
0.0
 11
333.951821602
 21
174.9719226925
 31
0.0
  0
LINE
  5
22F
330
1F
100
AcDbEntity
  8
0
  6
Continuous
 62
     7
370
    25
100
AcDbLine
 10
328.2949673525
 20
183.1360038107
 30
0.0
 11
338.1944622891
 21
177.421147028
 31
0.0
  0
LINE
  5
230
330
1F
100
AcDbEntity
  8
0
  6
Continuous
 62
     7
370
    25
100
AcDbLine
 10
324.0523266654
 20
180.6867794753
 30
0.0
 11
328.2949673525
 21
183.1360038107
 31
0.0
  0
LINE
  5
231
330
1F
100
AcDbEntity
  8
0
  6
Continuous
 62
     7
370
    25
100
AcDbLine
 10
352.3365979128
 20
185.5852281462
 30
0.0
 11
342.4371029762
 21
191.300084929
 31
0.0
  0
LINE
  5
232
330
1F
100
AcDbEntity
  8
0
  6
Continuous
 62
     7
370
    25
100
AcDbLine
 10
356.5792386
 20
188.0344524817
 30
0.0
 11
352.3365979128
 21
185.5852281462
 31
0.0
  0
LINE
  5
233
330
1F
100
AcDbEntity
  8
0
  6
Continuous
 62
     7
370
    25
100
AcDbLine
 10
346.6797436634
 20
193.7493092644
 30
0.0
 11
356.5792386
 21
188.0344524817
 31
0.0
  0
LINE
  5
234
330
1F
100
AcDbEntity
  8
0
  6
Continuous
 62
     7
370
    25
100
AcDbLine
 10
342.4371029762
 20
191.300084929
 30
0.0
 11
346.6797436634
 21
193.7493092644
 31
0.0
  0
LINE
  5
235
330
1F
100
AcDbEntity
  8
0
  6
Continuous
 62
     7
370
    25
100
AcDbLine
 10
275.9690655447
 20
208.4446552772
 30
0.0
 11
266.0695706081
 21
214.15951206
 31
0.0
  0
LINE
  5
236
330
1F
100
AcDbEntity
  8
0
  6
Continuous
 62
     7
370
    25
100
AcDbLine
 10
280.2117062318
 20
210.8938796127
 30
0.0
 11
275.9690655447
 21
208.4446552772
 31
0.0
  0
LINE
  5
237
330
1F
100
AcDbEntity
  8
0
  6
Continuous
 62
     7
370
    25
100
AcDbLine
 10
270.3122112952
 20
216.6087363955
 30
0.0
 11
280.2117062318
 21
210.8938796127
 31
0.0
  0
LINE
  5
238
330
1F
100
AcDbEntity
  8
0
  6
Continuous
 62
     7
370
    25
100
AcDbLine
 10
266.0695706081
 20
214.15951206
 30
0.0
 11
270.3122112952
 21
216.6087363955
 31
0.0
  0
LINE
  5
239
330
1F
100
AcDbEntity
  8
0
  6
Continuous
 62
     7
370
    25
100
AcDbLine
 10
294.3538418556
 20
219.0579607309
 30
0.0
 11
284.4543469189
 21
224.7728175137
 31
0.0
  0
LINE
  5
23A
330
1F
100
AcDbEntity
  8
0
  6
Continuous
 62
     7
370
    25
100
AcDbLine
 10
298.5964825427
 20
221.5071850664
 30
0.0
 11
294.3538418556
 21
219.0579607309
 31
0.0
  0
LINE
  5
23B
330
1F
100
AcDbEntity
  8
0
  6
Continuous
 62
     7
370
    25
100
AcDbLine
 10
288.6969876061
 20
227.2220418492
 30
0.0
 11
298.5964825427
 21
221.5071850664
 31
0.0
  0
LINE
  5
23C
330
1F
100
AcDbEntity
  8
0
  6
Continuous
 62
     7
370
    25
100
AcDbLine
 10
284.4543469189
 20
224.7728175137
 30
0.0
 11
288.6969876061
 21
227.2220418492
 31
0.0
  0
LINE
  5
23D
330
1F
100
AcDbEntity
  8
0
  6
Continuous
 62
     7
370
    25
100
AcDbLine
 10
285.1614537001
 20
213.7513080041
 30
0.0
 11
275.2619587635
 21
219.4661647868
 31
0.0
  0
LINE
  5
23E
330
1F
100
AcDbEntity
  8
0
  6
Continuous
 62
     7
370
    25
100
AcDbLine
 10
289.4040943872
 20
216.2005323396
 30
0.0
 11
285.1614537001
 21
213.7513080041
 31
0.0
  0
LINE
  5
23F
330
1F
100
AcDbEntity
  8
0
  6
Continuous
 62
     7
370
    25
100
AcDbLine
 10
279.5045994506
 20
221.9153891223
 30
0.0
 11
289.4040943872
 21
216.2005323396
 31
0.0
  0
LINE
  5
240
330
1F
100
AcDbEntity
  8
0
  6
Continuous
 62
     7
370
    25
100
AcDbLine
 10
275.2619587635
 20
219.4661647868
 30
0.0
 11
279.5045994506
 21
221.9153891223
 31
0.0
  0
LINE
  5
241
330
1F
100
AcDbEntity
  8
0
  6
Continuous
 62
     7
370
    25
100
AcDbLine
 10
266.7766773893
 20
203.1380025504
 30
0.0
 11
256.8771824527
 21
208.8528593332
 31
0.0
  0
LINE
  5
242
330
1F
100
AcDbEntity
  8
0
  6
Continuous
 62
     7
370
    25
100
AcDbLine
 10
271.0193180764
 20
205.5872268859
 30
0.0
 11
266.7766773893
 21
203.1380025504
 31
0.0
  0
LINE
  5
243
330
1F
100
AcDbEntity
  8
0
  6
Continuous
 62
     7
370
    25
100
AcDbLine
 10
261.1198231398
 20
211.3020836686
 30
0.0
 11
271.0193180764
 21
205.5872268859
 31
0.0
  0
LINE
  5
244
330
1F
100
AcDbEntity
  8
0
  6
Continuous
 62
     7
370
    25
100
AcDbLine
 10
256.8771824527
 20
208.8528593332
 30
0.0
 11
261.1198231398
 21
211.3020836686
 31
0.0
  0
LINE
  5
245
330
1F
100
AcDbEntity
  8
0
  6
Continuous
 62
     7
370
    25
100
AcDbLine
 10
343.1442097574
 20
180.2785754194
 30
0.0
 11
333.2447148208
 21
185.9934322021
 31
0.0
  0
LINE
  5
246
330
1F
100
AcDbEntity
  8
0
  6
Continuous
 62
     7
370
    25
100
AcDbLine
 10
347.3868504445
 20
182.7277997548
 30
0.0
 11
343.1442097574
 21
180.2785754194
 31
0.0
  0
LINE
  5
247
330
1F
100
AcDbEntity
  8
0
  6
Continuous
 62
     7
370
    25
100
AcDbLine
 10
337.4873555079
 20
188.4426565376
 30
0.0
 11
347.3868504445
 21
182.7277997548
 31
0.0
  0
LINE
  5
248
330
1F
100
AcDbEntity
  8
0
  6
Continuous
 62
     7
370
    25
100
AcDbLine
 10
333.2447148208
 20
185.9934322021
 30
0.0
 11
337.4873555079
 21
188.4426565376
 31
0.0
  0
LINE
  5
249
330
1F
100
AcDbEntity
  8
0
  6
Continuous
 62
     7
370
    25
100
AcDbLine
 10
324.7594334466
 20
169.6652699657
 30
0.0
 11
314.85993851
 21
175.3801267484
 31
0.0
  0
LINE
  5
24A
330
1F
100
AcDbEntity
  8
0
  6
Continuous
 62
     7
370
    25
100
AcDbLine
 10
329.0020741337
 20
172.1144943011
 30
0.0
 11
324.7594334466
 21
169.6652699657
 31
0.0
  0
LINE
  5
24B
330
1F
100
AcDbEntity
  8
0
  6
Continuous
 62
     7
370
    25
100
AcDbLine
 10
319.1025791971
 20
177.8293510839
 30
0.0
 11
329.0020741337
 21
172.1144943011
 31
0.0
  0
LINE
  5
24C
330
1F
100
AcDbEntity
  8
0
  6
Continuous
 62
     7
370
    25
100
AcDbLine
 10
314.85993851
 20
175.3801267484
 30
0.0
 11
319.1025791971
 21
177.8293510839
 31
0.0
  0
LINE
  5
24D
330
1F
100
AcDbEntity
  8
0
  6
Continuous
 62
     7
370
    25
100
AcDbLine
 10
361.5289860683
 20
190.8918808731
 30
0.0
 11
345.9726368822
 21
199.8723701031
 31
0.0
  0
LINE
  5
24E
330
1F
100
AcDbEntity
  8
0
  6
Continuous
 62
     7
370
    25
100
AcDbLine
 10
365.7716267554
 20
193.3411052085
 30
0.0
 11
361.5289860683
 21
190.8918808731
 31
0.0
  0
LINE
  5
24F
330
1F
100
AcDbEntity
  8
0
  6
Continuous
 62
     7
370
    25
100
AcDbLine
 10
350.2152775693
 20
202.3215944386
 30
0.0
 11
365.7716267554
 21
193.3411052085
 31
0.0
  0
LINE
  5
250
330
1F
100
AcDbEntity
  8
0
  6
Continuous
 62
     7
370
    25
100
AcDbLine
 10
345.9726368822
 20
199.8723701031
 30
0.0
 11
350.2152775693
 21
202.3215944386
 31
0.0
  0
LINE
  5
251
330
1F
100
AcDbEntity
  8
0
  6
Continuous
 62
     7
370
    25
100
AcDbLine
 10
306.3746571357
 20
201.5051863267
 30
0.0
 11
290.8183079496
 21
210.4856755568
 31
0.0
  0
LINE
  5
252
330
1F
100
AcDbEntity
  8
0
  6
Continuous
 62
     7
370
    25
100
AcDbLine
 10
310.6172978228
 20
203.9544106622
 30
0.0
 11
306.3746571357
 21
201.5051863267
 31
0.0
  0
LINE
  5
253
330
1F
100
AcDbEntity
  8
0
  6
Continuous
 62
     7
370
    25
100
AcDbLine
 10
295.0609486367
 20
212.9348998923
 30
0.0
 11
310.6172978228
 21
203.9544106622
 31
0.0
  0
LINE
  5
254
330
1F
100
AcDbEntity
  8
0
  6
Continuous
 62
     7
370
    25
100
AcDbLine
 10
290.8183079496
 20
210.4856755568
 30
0.0
 11
295.0609486367
 21
212.9348998923
 31
0.0
  0
LINE
  5
255
330
1F
100
AcDbEntity
  8
0
  6
Continuous
 62
     7
370
    25
100
AcDbLine
 10
287.9898808249
 20
190.8918808731
 30
0.0
 11
272.4335316388
 21
199.8723701031
 31
0.0
  0
LINE
  5
256
330
1F
100
AcDbEntity
  8
0
  6
Continuous
 62
     7
370
    25
100
AcDbLine
 10
292.232521512
 20
193.3411052085
 30
0.0
 11
287.9898808249
 21
190.8918808731
 31
0.0
  0
LINE
  5
257
330
1F
100
AcDbEntity
  8
0
  6
Continuous
 62
     7
370
    25
100
AcDbLine
 10
276.6761723259
 20
202.3215944386
 30
0.0
 11
292.232521512
 21
193.3411052085
 31
0.0
  0
LINE
  5
258
330
1F
100
AcDbEntity
  8
0
  6
Continuous
 62
     7
370
    25
100
AcDbLine
 10
272.4335316388
 20
199.8723701031
 30
0.0
 11
276.6761723259
 21
202.3215944386
 31
0.0
  0
LINE
  5
259
330
1F
100
AcDbEntity
  8
0
  6
Continuous
 62
     7
370
    25
100
AcDbLine
 10
327.5878605713
 20
189.2590646494
 30
0.0
 11
312.0315113852
 21
198.2395538795
 31
0.0
  0
LINE
  5
25A
330
1F
100
AcDbEntity
  8
0
  6
Continuous
 62
     7
370
    25
100
AcDbLine
 10
331.8305012584
 20
191.7082889849
 30
0.0
 11
327.5878605713
 21
189.2590646494
 31
0.0
  0
LINE
  5
25B
330
1F
100
AcDbEntity
  8
0
  6
Continuous
 62
     7
370
    25
100
AcDbLine
 10
316.2741520723
 20
200.6887782149
 30
0.0
 11
331.8305012584
 21
191.7082889849
 31
0.0
  0
LINE
  5
25C
330
1F
100
AcDbEntity
  8
0
  6
Continuous
 62
     7
370
    25
100
AcDbLine
 10
312.0315113852
 20
198.2395538795
 30
0.0
 11
316.2741520723
 21
200.6887782149
 31
0.0
  0
LINE
  5
25D
330
1F
100
AcDbEntity
  8
0
  6
Continuous
 62
     7
370
    25
100
AcDbLine
 10
309.2030842605
 20
178.6457591957
 30
0.0
 11
293.6467350744
 21
187.6262484258
 31
0.0
  0
LINE
  5
25E
330
1F
100
AcDbEntity
  8
0
  6
Continuous
 62
     7
370
    25
100
AcDbLine
 10
313.4457249476
 20
181.0949835312
 30
0.0
 11
309.2030842605
 21
178.6457591957
 31
0.0
  0
LINE
  5
25F
330
1F
100
AcDbEntity
  8
0
  6
Continuous
 62
     7
370
    25
100
AcDbLine
 10
297.8893757615
 20
190.0754727612
 30
0.0
 11
313.4457249476
 21
181.0949835312
 31
0.0
  0
LINE
  5
260
330
1F
100
AcDbEntity
  8
0
  6
Continuous
 62
     7
370
    25
100
AcDbLine
 10
293.6467350744
 20
187.6262484258
 30
0.0
 11
297.8893757615
 21
190.0754727612
 31
0.0
  0
LINE
  5
261
330
1F
100
AcDbEntity
  8
0
  6
Continuous
 62
     7
370
    25
100
AcDbLine
 10
263.2411434833
 20
194.5657173763
 30
0.0
 11
247.6847942972
 21
203.5462066063
 31
0.0
  0
LINE
  5
262
330
1F
100
AcDbEntity
  8
0
  6
Continuous
 62
     7
370
    25
100
AcDbLine
 10
267.4837841705
 20
197.0149417117
 30
0.0
 11
263.2411434833
 21
194.5657173763
 31
0.0
  0
LINE
  5
263
330
1F
100
AcDbEntity
  8
0
  6
Continuous
 62
     7
370
    25
100
AcDbLine
 10
251.9274349844
 20
205.9954309418
 30
0.0
 11
267.4837841705
 21
197.0149417117
 31
0.0
  0
LINE
  5
264
330
1F
100
AcDbEntity
  8
0
  6
Continuous
 62
     7
370
    25
100
AcDbLine
 10
247.6847942972
 20
203.5462066063
 30
0.0
 11
251.9274349844
 21
205.9954309418
 31
0.0
  0
LINE
  5
265
330
1F
100
AcDbEntity
  8
0
  6
Continuous
 62
     7
370
    25
100
AcDbLine
 10
294.3538418556
 20
176.6047389162
 30
0.0
 11
268.8979977328
 21
191.300084929
 31
0.0
  0
LINE
  5
266
330
1F
100
AcDbEntity
  8
0
  6
Continuous
 62
     7
370
    25
100
AcDbLine
 10
298.5964825427
 20
179.0539632516
 30
0.0
 11
294.3538418556
 21
176.6047389162
 31
0.0
  0
LINE
  5
267
330
1F
100
AcDbEntity
  8
0
  6
Continuous
 62
     7
370
    25
100
AcDbLine
 10
273.14063842
 20
193.7493092644
 30
0.0
 11
298.5964825427
 21
179.0539632516
 31
0.0
  0
LINE
  5
268
330
1F
100
AcDbEntity
  8
0
  6
Continuous
 62
     7
370
    25
100
AcDbLine
 10
268.8979977328
 20
191.300084929
 30
0.0
 11
273.14063842
 21
193.7493092644
 31
0.0
  0
LINE
  5
269
330
1F
100
AcDbEntity
  8
0
  6
Continuous
 62
     7
370
    25
100
AcDbLine
 10
363.2967530212
 20
200.484676187
 30
0.0
 11
310.2637444322
 21
231.0999803803
 31
0.0
  0
LINE
  5
26A
330
1F
100
AcDbEntity
  8
0
  6
Continuous
 62
     7
370
    25
100
AcDbLine
 10
367.5393937084
 20
202.9339005224
 30
0.0
 11
363.2967530212
 21
200.484676187
 31
0.0
  0
LINE
  5
26B
330
1F
100
AcDbEntity
  8
0
  6
Continuous
 62
     7
370
    25
100
AcDbLine
 10
314.5063851194
 20
233.5492047158
 30
0.0
 11
367.5393937084
 21
202.9339005224
 31
0.0
  0
LINE
  5
26C
330
1F
100
AcDbEntity
  8
0
  6
Continuous
 62
     7
370
    25
100
AcDbLine
 10
310.2637444322
 20
231.0999803803
 30
0.0
 11
314.5063851194
 21
233.5492047158
 31
0.0
  0
LINE
  5
26D
330
1F
100
AcDbEntity
  8
0
  6
Continuous
 62
     7
370
    25
100
AcDbLine
 10
287.8625727507
 20
169.2571248726
 30
0.0
 11
287.199208977
 21
169.6400766265
 31
0.0
  0
ARC
  5
26E
330
1F
100
AcDbEntity
  8
0
  6
Continuous
 62
     7
370
    25
100
AcDbCircle
 10
286.5432608436
 20
172.4429389206
 30
0.0
 40
3.448187213083553
100
AcDbArc
 50
292.4954639951
 51
8.5111209449
  0
ARC
  5
26F
330
1F
100
AcDbEntity
  8
0
  6
Continuous
 62
     7
370
    25
100
AcDbCircle
 10
288.75583871
 20
161.7213963105
 30
0.0
 40
11.29554941825215
100
AcDbArc
 50
83.9136512876
 51
117.4388044373
  0
LINE
  5
270
330
1F
100
AcDbEntity
  8
0
  6
Continuous
 62
     7
370
    25
100
AcDbLine
 10
284.2142242001
 20
171.3632716638
 30
0.0
 11
283.5508386304
 21
171.7462360016
 31
0.0
  0
ARC
  5
271
330
1F
100
AcDbEntity
  8
0
  6
Continuous
 62
     7
370
    25
100
AcDbCircle
 10
287.600159868
 20
165.4162670559
 30
0.0
 40
6.843348898980076
100
AcDbArc
 50
113.6563185485
 51
119.6550853648
  0
LINE
  5
272
330
1F
100
AcDbEntity
  8
0
  6
Continuous
 62
     7
370
    25
100
AcDbLine
 10
287.7557586243
 20
170.0095666251
 30
0.0
 11
284.8542690488
 21
171.6845609038
 31
0.0
  0
ARC
  5
273
330
1F
100
AcDbEntity
  8
0
  6
Continuous
 62
     7
370
    25
100
AcDbCircle
 10
284.4102628323
 20
174.4448675122
 30
0.0
 40
5.555559022547695
100
AcDbArc
 50
300.1330693869
 51
307.0268250541
  0
LINE
  5
274
330
1F
100
AcDbEntity
  8
0
  6
Continuous
 62
     7
370
    25
100
AcDbLine
 10
294.5465997002
 20
167.0595467338
 30
0.0
 11
294.789404769
 21
166.5364299354
 31
0.0
  0
LWPOLYLINE
  5
275
330
1F
100
AcDbEntity
  8
0
  6
Continuous
 62
     7
370
    25
100
AcDbPolyline
 90
       27
 70
   128
 43
0.0
 10
296.0488691799
 20
167.9429184937
 10
296.1091484028
 20
168.1845443508
 10
296.0847871459
 20
168.4282577204
 10
295.9767631643
 20
168.6642770063
 10
295.7894120715
 20
168.8831294191
 10
295.5302533268
 20
169.0760311736
 10
295.2096884367
 20
169.235240031
 10
294.8405834839
 20
169.3543660391
 10
294.4377527381
 20
169.4286279973
 10
294.0173640761
 20
169.4550453532
 10
293.5962900733
 20
169.4325578287
 10
293.1914308115
 20
169.3620679755
 10
292.8190355833
 20
169.2464049501
 10
292.4940507159
 20
169.0902109641
 10
292.2295196906
 20
168.8997549657
 10
292.036059634
 20
168.6826810318
 10
291.9214351926
 20
168.4477015672
 10
291.8902468937
 20
168.2042476272
 10
291.9437465002
 20
167.9620903958
 10
292.0797867701
 20
167.7309490126
 10
292.292907638
 20
167.520100489
 10
292.5745553576
 20
167.3380073689
 10
292.9134258126
 20
167.1919780796
 10
293.2959182145
 20
167.0878736024
 10
293.7066809794
 20
167.0298722391
 10
294.1292278738
 20
167.0203019124
 10
294.5465997002
 20
167.0595467338
  0
LINE
  5
276
330
1F
100
AcDbEntity
  8
0
  6
Continuous
 62
     7
370
    25
100
AcDbLine
 10
296.9551392111
 20
167.802734683
 30
0.0
 11
296.0488691799
 21
167.9429184937
 31
0.0
  0
LWPOLYLINE
  5
277
330
1F
100
AcDbEntity
  8
0
  6
Continuous
 62
     7
370
    25
100
AcDbPolyline
 90
       32
 70
   128
 43
0.0
 10
294.789404769
 20
166.5364299354
 10
294.2843637372
 20
166.4841125334
 10
293.7712770645
 20
166.4814282049
 10
293.2646765018
 20
166.5284529761
 10
292.7789100991
 20
166.6238550013
 10
292.3277358366
 20
166.7649322839
 10
291.9239319688
 20
166.9476892029
 10
291.5789351154
 20
167.1669496774
 10
291.3025163514
 20
167.4165037653
 10
291.1025044683
 20
167.6892835421
 10
290.9845642457
 20
167.9775632804
 10
290.9520360119
 20
168.2731782597
 10
291.0058410384
 20
168.5677560089
 10
291.1444554478
 20
168.8529534339
 10
291.3639533729
 20
169.1206931119
 10
291.6581181466
 20
169.3633920622
 10
292.0186183708
 20
169.5741765132
 10
292.4352438808
 20
169.7470765824
 10
292.8961949195
 20
169.8771953568
 10
293.3884163327
 20
169.9608475847
 10
293.8979673197
 20
169.9956640496
 10
294.4104162682
 20
169.9806586721
 10
294.911249489
 20
169.9162564379
 10
295.3862822761
 20
169.8042813607
 10
295.8220606489
 20
169.6479048228
 10
296.2062423988
 20
169.451555754
 10
296.5279466479
 20
169.2207951948
 10
296.7780620193
 20
168.9621587954
 10
296.9495046917
 20
168.6829717113
 10
297.037419029
 20
168.391141139
 10
297.0393151025
 20
168.0949323668
 10
296.9551392111
 20
167.802734683
  0
LWPOLYLINE
  5
278
330
1F
100
AcDbEntity
  8
0
  6
Continuous
 62
     7
370
    25
100
AcDbPolyline
 90
       39
 70
   128
 43
0.0
 10
302.264840672
 20
163.4655313349
 10
301.8805861908
 20
163.2776548129
 10
301.4480056333
 20
163.1288519411
 10
300.9788986696
 20
163.0231816738
 10
300.4860613147
 20
162.9635264205
 10
299.982936887
 20
162.9515134209
 10
299.4832493093
 20
162.9874703585
 10
299.0006287561
 20
163.0704164217
 10
298.5482398581
 20
163.1980890581
 10
298.138422605
 20
163.3670056909
 10
297.7823557433
 20
163.5725587149
 10
297.4897518487
 20
163.8091411793
 10
297.2685923926
 20
164.0702997312
 10
297.1249100286
 20
164.3489106462
 10
297.062624037
 20
164.6373741447
 10
297.0834334173
 20
164.9278216944
 10
297.1867705438
 20
165.2123306434
 10
297.369816649
 20
165.4831403292
 10
297.6275787125
 20
165.7328637696
 10
297.953025657
 20
165.9546891599
 10
298.3372801383
 20
166.1425656819
 10
298.7698606957
 20
166.2913685538
 10
299.2389676594
 20
166.3970388211
 10
299.7318050143
 20
166.4566940744
 10
300.234929442
 20
166.4687070739
 10
300.7346170197
 20
166.4327501363
 10
301.2172375729
 20
166.3498040732
 10
301.6696264709
 20
166.2221314368
 10
302.079443724
 20
166.0532148039
 10
302.4355105857
 20
165.84766178
 10
302.7281144804
 20
165.6110793156
 10
302.9492739364
 20
165.3499207636
 10
303.0929563004
 20
165.0713098487
 10
303.155242292
 20
164.7828463502
 10
303.1344329117
 20
164.4923988004
 10
303.0310957852
 20
164.2078898514
 10
302.84804968
 20
163.9370801656
 10
302.5902876165
 20
163.6873567253
 10
302.264840672
 20
163.4655313349
  0
ARC
  5
279
330
1F
100
AcDbEntity
  8
0
  6
Continuous
 62
     7
370
    25
100
AcDbCircle
 10
313.7953118705
 20
160.2320666302
 30
0.0
 40
1.478389848075956
100
AcDbArc
 50
239.3034367704
 51
256.9667122333
  0
ARC
  5
27A
330
1F
100
AcDbEntity
  8
0
  6
Continuous
 62
     7
370
    25
100
AcDbCircle
 10
299.6611091822
 20
160.2320666301
 30
0.0
 40
1.478389848073298
100
AcDbArc
 50
283.0332877667
 51
300.6965632297
  0
ARC
  5
27B
330
1F
100
AcDbEntity
  8
0
  6
Continuous
 62
     7
370
    25
100
AcDbCircle
 10
237.5798246703
 20
196.0708293294
 30
0.0
 40
1.478389848076938
100
AcDbArc
 50
283.0332877667
 51
300.6965632296
  0
ARC
  5
27C
330
1F
100
AcDbEntity
  8
0
  6
Continuous
 62
     7
370
    25
100
AcDbCircle
 10
375.8765963824
 20
196.0708293293
 30
0.0
 40
1.478389848075321
100
AcDbArc
 50
239.3034367704
 51
256.9667122333
  0
LWPOLYLINE
  5
27D
330
1F
100
AcDbEntity
  8
0
  6
Continuous
 62
     7
370
    25
100
AcDbPolyline
 90
       21
 70
   128
 43
0.0
 10
297.0608398693
 20
164.6692832068
 10
297.0834334173
 20
164.8461676132
 10
297.1867705438
 20
165.1306765623
 10
297.369816649
 20
165.4014862481
 10
297.6275787125
 20
165.6512096884
 10
297.953025657
 20
165.8730350787
 10
298.3372801383
 20
166.0609116007
 10
298.7698606957
 20
166.2097144726
 10
299.2389676594
 20
166.3153847399
 10
299.7318050143
 20
166.3750399932
 10
300.234929442
 20
166.3870529927
 10
300.7346170197
 20
166.3510960552
 10
301.2172375729
 20
166.268149992
 10
301.6696264709
 20
166.1404773556
 10
302.079443724
 20
165.9715607227
 10
302.4355105857
 20
165.7660076988
 10
302.7281144804
 20
165.5294252344
 10
302.9492739364
 20
165.2682666824
 10
303.0929563004
 20
164.9896557675
 10
303.155242292
 20
164.701192269
 10
303.1570264597
 20
164.6692832068
  0
ARC
  5
27E
330
1F
100
AcDbEntity
  8
0
  6
Continuous
 62
     7
370
    25
100
AcDbCircle
 10
301.1686841593
 20
164.7299788303
 30
0.0
 40
1.055927174541241
100
AcDbArc
 50
294.1971139655
 51
354.4827450769
  0
LWPOLYLINE
  5
27F
330
1F
100
AcDbEntity
  8
0
  6
Continuous
 62
     7
370
    25
100
AcDbPolyline
 90
       13
 70
   128
 43
0.0
 10
297.9981468009
 20
164.6284561662
 10
298.0150601583
 20
164.474508668
 10
298.1116028997
 20
164.2343369424
 10
298.2899165768
 20
164.0103005042
 10
298.5427010067
 20
163.8115714315
 10
298.8596071652
 20
163.6462857157
 10
299.2276608769
 20
163.5212101736
 10
299.6317939796
 20
163.4414654125
 10
300.0554612166
 20
163.4103161924
 10
300.4813176014
 20
163.4290377659
 10
300.8919285236
 20
163.4968636696
 10
301.2704835238
 20
163.6110171031
 10
301.6014845159
 20
163.7668246114
  0
LWPOLYLINE
  5
280
330
1F
100
AcDbEntity
  8
0
  6
Continuous
 62
     7
370
    25
100
AcDbPolyline
 90
       32
 70
   128
 43
0.0
 10
301.6014845159
 20
163.8484786926
 10
301.8713802802
 20
164.039561498
 10
302.0691212526
 20
164.258096648
 10
302.1866118943
 20
164.4951372878
 10
302.2190421247
 20
164.7409789459
 10
302.1650842463
 20
164.9855568358
 10
302.0269473011
 20
165.2188579101
 10
301.8102866317
 20
165.4313307952
 10
301.5239723515
 20
165.6142768264
 10
301.1797262007
 20
165.7602061716
 10
300.7916416573
 20
165.8631444663
 10
300.3756069479
 20
165.9188774046
 10
299.9486545824
 20
165.9251232734
 10
299.528264041
 20
165.8816263663
 10
299.1316461617
 20
165.7901674515
 10
298.7750385271
 20
165.6544908679
 10
298.4730406957
 20
165.4801512308
 10
298.2380164942
 20
165.2742860253
 10
298.079587841
 20
165.0453233972
 10
298.0042408238
 20
164.8026371034
 10
298.0150601583
 20
164.5561627492
 10
298.1116028997
 20
164.3159910236
 10
298.2899165768
 20
164.0919545854
 10
298.5427010067
 20
163.8932255126
 10
298.8596071652
 20
163.7279397969
 10
299.2276608769
 20
163.6028642548
 10
299.6317939796
 20
163.5231194937
 10
300.0554612166
 20
163.4919702736
 10
300.4813176014
 20
163.5106918471
 10
300.8919285236
 20
163.5785177508
 10
301.2704835238
 20
163.6926711843
 10
301.6014845159
 20
163.8484786926
  0
LINE
  5
281
330
1F
100
AcDbEntity
  8
0
  6
Continuous
 62
     7
370
    25
100
AcDbLine
 10
301.6014845159
 20
163.7668246114
 30
0.0
 11
301.6014845159
 21
163.8484786926
 31
0.0
  0
LWPOLYLINE
  5
282
330
1F
100
AcDbEntity
  8
0
  6
Continuous
 62
     7
370
    25
100
AcDbPolyline
 90
       20
 70
   128
 43
0.0
 10
290.9521962937
 20
168.1957287294
 10
291.0058410384
 20
168.4861019277
 10
291.1444554478
 20
168.7712993527
 10
291.3639533729
 20
169.0390390307
 10
291.6581181466
 20
169.2817379811
 10
292.0186183708
 20
169.4925224321
 10
292.4352438808
 20
169.6654225012
 10
292.8961949195
 20
169.7955412756
 10
293.3884163327
 20
169.8791935035
 10
293.8979673197
 20
169.9140099684
 10
294.4104162682
 20
169.8990045909
 10
294.911249489
 20
169.8346023567
 10
295.3862822761
 20
169.7226272795
 10
295.8220606489
 20
169.5662507416
 10
296.2062423988
 20
169.3699016728
 10
296.5279466479
 20
169.1391411136
 10
296.7780620193
 20
168.8805047142
 10
296.9495046917
 20
168.6013176301
 10
297.037419029
 20
168.3094870578
 10
297.0483806362
 20
168.1957287294
  0
LWPOLYLINE
  5
283
330
1F
100
AcDbEntity
  8
0
  6
Continuous
 62
     7
370
    25
100
AcDbPolyline
 90
        3
 70
   128
 43
0.0
 10
296.077515395
 20
167.9384874351
 10
296.1091484028
 20
168.1028902696
 10
296.1110721013
 20
168.1549016888
  0
LWPOLYLINE
  5
284
330
1F
100
AcDbEntity
  8
0
  6
Continuous
 62
     7
370
    25
100
AcDbPolyline
 90
       11
 70
   128
 43
0.0
 10
291.8895048286
 20
168.1549016888
 10
291.8902468937
 20
168.1225935461
 10
291.9437465002
 20
167.8804363147
 10
292.0797867701
 20
167.6492949315
 10
292.292907638
 20
167.4384464078
 10
292.5745553576
 20
167.2563532878
 10
292.9134258126
 20
167.1103239984
 10
293.2959182145
 20
167.0062195213
 10
293.7066809794
 20
166.9482181579
 10
294.1292278738
 20
166.9386478312
 10
294.5465997002
 20
166.9778926526
  0
LINE
  5
285
330
1F
100
AcDbEntity
  8
0
  6
Continuous
 62
     7
370
    25
100
AcDbLine
 10
294.5465997002
 20
166.9778926526
 30
0.0
 11
294.7539868775
 21
166.5310827209
 31
0.0
  0
LINE
  5
286
330
1F
100
AcDbEntity
  8
0
  6
Continuous
 62
     7
370
    25
100
AcDbLine
 10
294.5465997002
 20
167.0595467338
 30
0.0
 11
294.5465997002
 21
166.9778926526
 31
0.0
  0
LINE
  5
287
330
1F
100
AcDbEntity
  8
0
  6
Continuous
 62
     7
370
    25
100
AcDbLine
 10
304.2533367922
 20
175.7883308043
 30
0.0
 11
304.2533367922
 21
174.1552491806
 31
0.0
  0
LINE
  5
288
330
1F
100
AcDbEntity
  8
0
  6
Continuous
 62
     7
370
    25
100
AcDbLine
 10
318.3952425477
 20
165.9913007624
 30
0.0
 11
304.2533367922
 21
174.1552491806
 31
0.0
  0
LWPOLYLINE
  5
289
330
1F
100
AcDbEntity
  8
0
  6
Continuous
 62
     7
370
    25
100
AcDbPolyline
 90
        3
 70
   128
 43
0.0
 10
289.9534737066
 20
172.8716212829
 10
290.0332217511
 20
172.369987863
 10
290.0370622194
 20
172.2663429662
  0
LINE
  5
28A
330
1F
100
AcDbEntity
  8
0
  6
Continuous
 62
     7
370
    25
100
AcDbLine
 10
289.9534737066
 20
172.9532753641
 30
0.0
 11
289.9534737066
 21
172.8716212829
 31
0.0
  0
ARC
  5
28B
330
1F
100
AcDbEntity
  8
0
  6
Continuous
 62
     7
370
    25
100
AcDbCircle
 10
288.7581048013
 20
161.5966400417
 30
0.0
 40
11.33817043480335
100
AcDbArc
 50
83.9481319372
 51
116.9338851125
  0
ARC
  5
28C
330
1F
100
AcDbEntity
  8
0
  6
Continuous
 62
     7
370
    25
100
AcDbCircle
 10
284.435944546
 20
174.3269847065
 30
0.0
 40
5.511170602169582
100
AcDbArc
 50
300.9348770302
 51
307.0404800154
  0
LINE
  5
28D
330
1F
100
AcDbEntity
  8
0
  6
Continuous
 62
     7
370
    25
100
AcDbLine
 10
285.6571602049
 20
171.9053022999
 30
0.0
 11
288.2795649679
 21
170.3914202541
 31
0.0
  0
ARC
  5
28E
330
1F
100
AcDbEntity
  8
0
  6
Continuous
 62
     7
370
    25
100
AcDbCircle
 10
286.4484908005
 20
172.3099933341
 30
0.0
 40
2.652122785557252
100
AcDbArc
 50
313.6632319267
 51
358.1746630115
  0
LINE
  5
28F
330
1F
100
AcDbEntity
  8
0
  6
Continuous
 62
     7
370
    25
100
AcDbLine
 10
287.7557586243
 20
170.0095666251
 30
0.0
 11
287.7557586243
 21
169.9279125439
 31
0.0
  0
ARC
  5
290
330
1F
100
AcDbEntity
  8
0
  6
Continuous
 62
     7
370
    25
100
AcDbCircle
 10
286.4759559111
 20
172.372790838
 30
0.0
 40
2.619528282042408
100
AcDbArc
 50
313.5134130803
 51
1.846174315
  0
LINE
  5
291
330
1F
100
AcDbEntity
  8
0
  6
Continuous
 62
     7
370
    25
100
AcDbLine
 10
285.6571602049
 20
171.9869563811
 30
0.0
 11
288.2795649679
 21
170.4730743353
 31
0.0
  0
ARC
  5
292
330
1F
100
AcDbEntity
  8
0
  6
Continuous
 62
     7
370
    25
100
AcDbCircle
 10
288.7963320849
 20
161.8379949331
 30
0.0
 40
10.62336192380591
100
AcDbArc
 50
88.3936835283
 51
107.1873437551
  0
LINE
  5
293
330
1F
100
AcDbEntity
  8
0
  6
Continuous
 62
     7
370
    25
100
AcDbLine
 10
288.2795649679
 20
170.4730743353
 30
0.0
 11
288.2795649679
 21
170.3914202541
 31
0.0
  0
LINE
  5
294
330
1F
100
AcDbEntity
  8
0
  6
Continuous
 62
     7
370
    25
100
AcDbLine
 10
285.6571602049
 20
171.9869563811
 30
0.0
 11
285.6571602049
 21
171.9053022999
 31
0.0
  0
LINE
  5
295
330
1F
100
AcDbEntity
  8
0
  6
Continuous
 62
     7
370
    25
100
AcDbLine
 10
319.1025791971
 20
177.8293510839
 30
0.0
 11
319.1025791971
 21
176.1962694601
 31
0.0
  0
LINE
  5
296
330
1F
100
AcDbEntity
  8
0
  6
Continuous
 62
     7
370
    25
100
AcDbLine
 10
327.5876307032
 20
171.2979534892
 30
0.0
 11
319.1025791971
 21
176.1962694601
 31
0.0
  0
LINE
  5
297
330
1F
100
AcDbEntity
  8
0
  6
Continuous
 62
     7
370
    25
100
AcDbLine
 10
304.2533367922
 20
174.1552491806
 30
0.0
 11
301.4251395356
 21
172.522565657
 31
0.0
  0
LINE
  5
298
330
1F
100
AcDbEntity
  8
0
  6
Continuous
 62
     7
370
    25
100
AcDbLine
 10
319.1025791971
 20
176.1962694601
 30
0.0
 11
316.2743819405
 21
174.5635859365
 31
0.0
  0
LINE
  5
299
330
1F
100
AcDbEntity
  8
0
  6
Continuous
 62
     7
370
    25
100
AcDbLine
 10
328.2949673525
 20
183.1360038107
 30
0.0
 11
328.2949673525
 21
181.502922187
 31
0.0
  0
LINE
  5
29A
330
1F
100
AcDbEntity
  8
0
  6
Continuous
 62
     7
370
    25
100
AcDbLine
 10
336.7800188586
 20
176.6046062161
 30
0.0
 11
328.2949673525
 21
181.502922187
 31
0.0
  0
LINE
  5
29B
330
1F
100
AcDbEntity
  8
0
  6
Continuous
 62
     7
370
    25
100
AcDbLine
 10
250.1596680314
 20
196.4026356279
 30
0.0
 11
250.1596680314
 21
194.7695540041
 31
0.0
  0
LINE
  5
29C
330
1F
100
AcDbEntity
  8
0
  6
Continuous
 62
     7
370
    25
100
AcDbLine
 10
279.8579229731
 20
177.6251163559
 30
0.0
 11
250.1596680314
 21
194.7695540041
 31
0.0
  0
LINE
  5
29D
330
1F
100
AcDbEntity
  8
0
  6
Continuous
 62
     7
370
    25
100
AcDbLine
 10
273.14063842
 20
193.7493092644
 30
0.0
 11
273.14063842
 21
192.1162276407
 31
0.0
  0
LINE
  5
29E
330
1F
100
AcDbEntity
  8
0
  6
Continuous
 62
     7
370
    25
100
AcDbLine
 10
297.1820391121
 20
178.2374224397
 30
0.0
 11
273.14063842
 21
192.1162276407
 31
0.0
  0
LINE
  5
29F
330
1F
100
AcDbEntity
  8
0
  6
Continuous
 62
     7
370
    25
100
AcDbLine
 10
328.2949673525
 20
181.502922187
 30
0.0
 11
325.4667700959
 21
179.8702386634
 31
0.0
  0
LINE
  5
2A0
330
1F
100
AcDbEntity
  8
0
  6
Continuous
 62
     7
370
    25
100
AcDbLine
 10
297.8893757615
 20
190.0754727612
 30
0.0
 11
297.8893757615
 21
188.4423911375
 31
0.0
  0
LINE
  5
2A1
330
1F
100
AcDbEntity
  8
0
  6
Continuous
 62
     7
370
    25
100
AcDbLine
 10
312.0312815171
 20
180.2784427193
 30
0.0
 11
297.8893757615
 21
188.4423911375
 31
0.0
  0
LINE
  5
2A2
330
1F
100
AcDbEntity
  8
0
  6
Continuous
 62
     7
370
    25
100
AcDbLine
 10
337.4873555079
 20
188.4426565376
 30
0.0
 11
337.4873555079
 21
186.8095749138
 31
0.0
  0
LINE
  5
2A3
330
1F
100
AcDbEntity
  8
0
  6
Continuous
 62
     7
370
    25
100
AcDbLine
 10
345.972407014
 20
181.9112589429
 30
0.0
 11
337.4873555079
 21
186.8095749138
 31
0.0
  0
LINE
  5
2A4
330
1F
100
AcDbEntity
  8
0
  6
Continuous
 62
     7
370
    25
100
AcDbLine
 10
337.4873555079
 20
186.8095749138
 30
0.0
 11
334.6591582513
 21
185.1768913902
 31
0.0
  0
LINE
  5
2A5
330
1F
100
AcDbEntity
  8
0
  6
Continuous
 62
     7
370
    25
100
AcDbLine
 10
307.0817639169
 20
195.3821254881
 30
0.0
 11
307.0817639169
 21
193.7490438643
 31
0.0
  0
LINE
  5
2A6
330
1F
100
AcDbEntity
  8
0
  6
Continuous
 62
     7
370
    25
100
AcDbLine
 10
321.2236696725
 20
185.5850954461
 30
0.0
 11
307.0817639169
 21
193.7490438643
 31
0.0
  0
LINE
  5
2A7
330
1F
100
AcDbEntity
  8
0
  6
Continuous
 62
     7
370
    25
100
AcDbLine
 10
297.8893757615
 20
188.4423911375
 30
0.0
 11
295.0611785049
 21
186.8097076139
 31
0.0
  0
LINE
  5
2A8
330
1F
100
AcDbEntity
  8
0
  6
Continuous
 62
     7
370
    25
100
AcDbLine
 10
346.6797436634
 20
193.7493092644
 30
0.0
 11
346.6797436634
 21
192.1162276407
 31
0.0
  0
LINE
  5
2A9
330
1F
100
AcDbEntity
  8
0
  6
Continuous
 62
     7
370
    25
100
AcDbLine
 10
355.1647951694
 20
187.2179116698
 30
0.0
 11
346.6797436634
 21
192.1162276407
 31
0.0
  0
SPLINE
  5
2AA
330
1F
100
AcDbEntity
  8
0
  6
Continuous
 62
     7
370
    25
100
AcDbSpline
210
0.0
220
0.0
230
1.0
 70
     8
 71
     3
 72
     9
 73
     5
 74
     0
 42
0.00000001
 43
0.00000001
 40
0.0
 40
0.0
 40
0.0
 40
0.0
 40
0.5000000000000152
 40
1.0
 40
1.0
 40
1.0
 40
1.0
 10
231.0155718077053
 20
194.6554003125698
 30
0.0
 10
231.2512482405015
 20
194.6468306209491
 30
0.0
 10
231.7226011060939
 20
194.6296912377074
 30
0.0
 10
232.1722013445571
 20
194.5128552909594
 30
0.0
 10
232.3970014637887
 20
194.4544373175854
 30
0.0
  0
SPLINE
  5
2AB
330
1F
100
AcDbEntity
  8
0
  6
Continuous
 62
     7
370
    25
100
AcDbSpline
210
0.0
220
0.0
230
1.0
 70
     8
 71
     3
 72
    13
 73
     9
 74
     0
 42
0.00000001
 43
0.00000001
 40
0.0
 40
0.0
 40
0.0
 40
0.0
 40
0.1008318217421868
 40
0.19445697943673
 40
0.2893450897097131
 40
0.3936585894563737
 40
0.6520969811805591
 40
0.9999999999999999
 40
0.9999999999999999
 40
0.9999999999999999
 40
0.9999999999999999
 10
232.4035234684337
 20
194.1625643981978
 30
0.0
 10
232.383915926158
 20
194.1708158094116
 30
0.0
 10
232.3461022342178
 20
194.1867288859881
 30
0.0
 10
232.3037413708112
 20
194.217398291461
 30
0.0
 10
232.2784375185961
 20
194.2508974983218
 30
0.0
 10
232.2673753365544
 20
194.3026027116152
 30
0.0
 10
232.3021987358883
 20
194.374888366424
 30
0.0
 10
232.3624378297618
 20
194.4254349787702
 30
0.0
 10
232.3970014637889
 20
194.4544373175855
 30
0.0
  0
SPLINE
  5
2AC
330
1F
100
AcDbEntity
  8
0
  6
Continuous
 62
     7
370
    25
100
AcDbSpline
210
0.0
220
0.0
230
1.0
 70
     8
 71
     3
 72
    13
 73
     9
 74
     0
 42
0.00000001
 43
0.00000001
 40
0.0
 40
0.0
 40
0.0
 40
0.0
 40
0.3479030188194319
 40
0.6063414105435537
 40
0.7106549102902286
 40
0.8055430205632157
 40
0.8991681782577919
 40
0.9999999999999999
 40
0.9999999999999999
 40
0.9999999999999999
 40
0.9999999999999999
 10
381.0594195888415
 20
194.4544373175853
 30
0.0
 10
381.0939832228687
 20
194.42543497877
 30
0.0
 10
381.1542223167422
 20
194.3748883664238
 30
0.0
 10
381.189045716076
 20
194.302602711615
 30
0.0
 10
381.1779835340343
 20
194.2508974983217
 30
0.0
 10
381.1526796818193
 20
194.2173982914609
 30
0.0
 10
381.1103188184126
 20
194.186728885988
 30
0.0
 10
381.0725051264724
 20
194.1708158094115
 30
0.0
 10
381.0528975841966
 20
194.1625643981976
 30
0.0
  0
SPLINE
  5
2AD
330
1F
100
AcDbEntity
  8
0
  6
Continuous
 62
     7
370
    25
100
AcDbSpline
210
0.0
220
0.0
230
1.0
 70
     8
 71
     3
 72
     9
 73
     5
 74
     0
 42
0.00000001
 43
0.00000001
 40
0.0
 40
0.0
 40
0.0
 40
0.0
 40
0.4999999999999943
 40
1.0
 40
1.0
 40
1.0
 40
1.0
 10
382.4408492449252
 20
194.6554003125697
 30
0.0
 10
382.2051728121289
 20
194.6468306209489
 30
0.0
 10
381.7338199465364
 20
194.6296912377073
 30
0.0
 10
381.2842197080732
 20
194.5128552909593
 30
0.0
 10
381.0594195888416
 20
194.4544373175853
 30
0.0
  0
ARC
  5
2AE
330
1F
100
AcDbEntity
  8
0
  6
Continuous
 62
     7
370
    25
100
AcDbCircle
 10
374.6545557615
 20
195.788136104
 30
0.0
 40
1.459364273436192
100
AcDbArc
 50
307.5115679598
 51
322.5166882856
  0
LINE
  5
2AF
330
1F
100
AcDbEntity
  8
0
  6
Continuous
 62
     7
370
    25
100
AcDbLine
 10
381.0594195888
 20
194.4544373176
 30
0.0
 11
375.8126059951
 21
194.9000686859
 31
0.0
  0
LINE
  5
2B0
330
1F
100
AcDbEntity
  8
0
  6
Continuous
 62
     7
370
    25
100
AcDbLine
 10
237.6438150576
 20
194.9000686859
 30
0.0
 11
232.3970014638
 21
194.4544373176
 31
0.0
  0
ARC
  5
2B1
330
1F
100
AcDbEntity
  8
0
  6
Continuous
 62
     7
370
    25
100
AcDbCircle
 10
238.8018652912
 20
195.788136104
 30
0.0
 40
1.459364273436931
100
AcDbArc
 50
217.4833117144
 51
232.4884320402
  0
LINE
  5
2B2
330
1F
100
AcDbEntity
  8
0
  6
Continuous
 62
     7
370
    25
100
AcDbLine
 10
346.6797436634
 20
192.1162276407
 30
0.0
 11
343.8515464068
 21
190.4835441171
 31
0.0
  0
LINE
  5
2B3
330
1F
100
AcDbEntity
  8
0
  6
Continuous
 62
     7
370
    25
100
AcDbLine
 10
273.14063842
 20
192.1162276407
 30
0.0
 11
270.3124411634
 21
190.4835441171
 31
0.0
  0
LINE
  5
2B4
330
1F
100
AcDbEntity
  8
0
  6
Continuous
 62
     7
370
    25
100
AcDbLine
 10
375.8126059951
 20
194.9000686859
 30
0.0
 11
375.8126059951
 21
202.1882061239
 31
0.0
  0
LINE
  5
2B5
330
1F
100
AcDbEntity
  8
0
  6
Continuous
 62
     7
370
    25
100
AcDbLine
 10
375.8126059951
 20
202.1882061239
 30
0.0
 11
381.0594195888
 21
205.7870362419
 31
0.0
  0
LINE
  5
2B6
330
1F
100
AcDbEntity
  8
0
  6
Continuous
 62
     7
370
    25
100
AcDbLine
 10
381.0594195888
 20
205.7870362419
 30
0.0
 11
381.0594195888
 21
194.4544373176
 31
0.0
  0
LINE
  5
2B7
330
1F
100
AcDbEntity
  8
0
  6
Continuous
 62
     7
370
    25
100
AcDbLine
 10
232.3970014638
 20
205.7870362419
 30
0.0
 11
237.6438150576
 21
202.1882061239
 31
0.0
  0
LINE
  5
2B8
330
1F
100
AcDbEntity
  8
0
  6
Continuous
 62
     7
370
    25
100
AcDbLine
 10
237.6438150576
 20
202.1882061239
 30
0.0
 11
237.6438150576
 21
194.9000686859
 31
0.0
  0
LINE
  5
2B9
330
1F
100
AcDbEntity
  8
0
  6
Continuous
 62
     7
370
    25
100
AcDbLine
 10
232.3970014638
 20
194.4544373176
 30
0.0
 11
232.3970014638
 21
205.7870362419
 31
0.0
  0
SPLINE
  5
2BA
330
1F
100
AcDbEntity
  8
0
  6
Continuous
 62
     7
370
    25
100
AcDbSpline
210
0.0
220
0.0
230
1.0
 70
     8
 71
     3
 72
     9
 73
     5
 74
     0
 42
0.00000001
 43
0.00000001
 40
0.0
 40
0.0
 40
0.0
 40
0.0
 40
0.5000000000000048
 40
0.9999999999999999
 40
0.9999999999999999
 40
0.9999999999999999
 40
0.9999999999999999
 10
382.4408492449252
 20
205.9879992369339
 30
0.0
 10
382.205172812129
 20
205.9794295453131
 30
0.0
 10
381.7338199465364
 20
205.9622901620716
 30
0.0
 10
381.2842197080732
 20
205.8454542153235
 30
0.0
 10
381.0594195888416
 20
205.7870362419495
 30
0.0
  0
SPLINE
  5
2BB
330
1F
100
AcDbEntity
  8
0
  6
Continuous
 62
     7
370
    25
100
AcDbSpline
210
0.0
220
0.0
230
1.0
 70
     8
 71
     3
 72
     9
 73
     5
 74
     0
 42
0.00000001
 43
0.00000001
 40
0.0
 40
0.0
 40
0.0
 40
0.0
 40
0.500000000000015
 40
1.0
 40
1.0
 40
1.0
 40
1.0
 10
231.0155718077053
 20
205.9879992369342
 30
0.0
 10
231.2512482405015
 20
205.9794295453134
 30
0.0
 10
231.7226011060939
 20
205.9622901620718
 30
0.0
 10
232.1722013445572
 20
205.8454542153237
 30
0.0
 10
232.3970014637887
 20
205.7870362419497
 30
0.0
  0
LINE
  5
2BC
330
1F
100
AcDbEntity
  8
0
  6
Continuous
 62
     7
370
    25
100
AcDbLine
 10
316.2741520723
 20
200.6887782149
 30
0.0
 11
316.2741520723
 21
199.0556965912
 31
0.0
  0
LINE
  5
2BD
330
1F
100
AcDbEntity
  8
0
  6
Continuous
 62
     7
370
    25
100
AcDbLine
 10
330.4160578279
 20
190.891748173
 30
0.0
 11
316.2741520723
 21
199.0556965912
 31
0.0
  0
LINE
  5
2BE
330
1F
100
AcDbEntity
  8
0
  6
Continuous
 62
     7
370
    25
100
AcDbLine
 10
307.0817639169
 20
193.7490438643
 30
0.0
 11
304.2535666603
 21
192.1163603407
 31
0.0
  0
LINE
  5
2BF
330
1F
100
AcDbEntity
  8
0
  6
Continuous
 62
     7
370
    25
100
AcDbLine
 10
350.2152775693
 20
202.3215944386
 30
0.0
 11
350.2152775693
 21
200.6885128148
 31
0.0
  0
LINE
  5
2C0
330
1F
100
AcDbEntity
  8
0
  6
Continuous
 62
     7
370
    25
100
AcDbLine
 10
364.3571833249
 20
192.5245643966
 30
0.0
 11
350.2152775693
 21
200.6885128148
 31
0.0
  0
LINE
  5
2C1
330
1F
100
AcDbEntity
  8
0
  6
Continuous
 62
     7
370
    25
100
AcDbLine
 10
276.6761723259
 20
202.3215944386
 30
0.0
 11
276.6761723259
 21
200.6885128148
 31
0.0
  0
LINE
  5
2C2
330
1F
100
AcDbEntity
  8
0
  6
Continuous
 62
     7
370
    25
100
AcDbLine
 10
290.8180780815
 20
192.5245643966
 30
0.0
 11
276.6761723259
 21
200.6885128148
 31
0.0
  0
ARC
  5
2C3
330
1F
100
AcDbEntity
  8
0
  6
Continuous
 62
     7
370
    25
100
AcDbCircle
 10
389.3867576564
 20
198.7425844847
 30
0.0
 40
1.114422593685825
100
AcDbArc
 50
189.4866948254
 51
222.1274803584
  0
ARC
  5
2C4
330
1F
100
AcDbEntity
  8
0
  6
Continuous
 62
     7
370
    25
100
AcDbCircle
 10
392.5646948374
 20
198.7449871382
 30
0.0
 40
1.119720277993192
100
AcDbArc
 50
317.9518779664
 51
350.4339468486
  0
ARC
  5
2C5
330
1F
100
AcDbEntity
  8
0
  6
Continuous
 62
     7
370
    25
100
AcDbCircle
 10
220.8917262151
 20
198.7449871381
 30
0.0
 40
1.119720277871678
100
AcDbArc
 50
189.5660531496
 51
222.0481220154
  0
ARC
  5
2C6
330
1F
100
AcDbEntity
  8
0
  6
Continuous
 62
     7
370
    25
100
AcDbCircle
 10
224.0706055126
 20
198.742289158
 30
0.0
 40
1.113444694772906
100
AcDbArc
 50
318.0210564184
 51
350.520303971
  0
LINE
  5
2C7
330
1F
100
AcDbEntity
  8
0
  6
Continuous
 62
     7
370
    25
100
AcDbLine
 10
250.1596680314
 20
194.7695540041
 30
0.0
 11
247.3314707748
 21
193.1368704805
 31
0.0
  0
ARC
  5
2C8
330
1F
100
AcDbEntity
  8
0
  6
Continuous
 62
     7
370
    25
100
AcDbCircle
 10
375.1247235713
 20
197.2043619472
 30
0.0
 40
2.404776426802626
100
AcDbArc
 50
269.9325156197
 51
286.6215260477
  0
ARC
  5
2C9
330
1F
100
AcDbEntity
  8
0
  6
Continuous
 62
     7
370
    25
100
AcDbCircle
 10
238.3316974814
 20
197.2043619472
 30
0.0
 40
2.404776426800042
100
AcDbArc
 50
253.3784739523
 51
270.0674843803
  0
ARC
  5
2CA
330
1F
100
AcDbEntity
  8
0
  6
Continuous
 62
     7
370
    25
100
AcDbCircle
 10
375.1247235713
 20
204.4924993852
 30
0.0
 40
2.404776426803369
100
AcDbArc
 50
269.9325156197
 51
286.6215260477
  0
ARC
  5
2CB
330
1F
100
AcDbEntity
  8
0
  6
Continuous
 62
     7
370
    25
100
AcDbCircle
 10
238.3316974814
 20
204.4924993852
 30
0.0
 40
2.404776426800894
100
AcDbArc
 50
253.3784739523
 51
270.0674843803
  0
LINE
  5
2CC
330
1F
100
AcDbEntity
  8
0
  6
Continuous
 62
     7
370
    25
100
AcDbLine
 10
325.4665402278
 20
205.9954309418
 30
0.0
 11
325.4665402278
 21
204.362349318
 31
0.0
  0
LINE
  5
2CD
330
1F
100
AcDbEntity
  8
0
  6
Continuous
 62
     7
370
    25
100
AcDbLine
 10
339.6084459833
 20
196.1984008998
 30
0.0
 11
325.4665402278
 21
204.362349318
 31
0.0
  0
LINE
  5
2CE
330
1F
100
AcDbEntity
  8
0
  6
Continuous
 62
     7
370
    25
100
AcDbLine
 10
251.9274349844
 20
205.9954309418
 30
0.0
 11
251.9274349844
 21
204.362349318
 31
0.0
  0
LINE
  5
2CF
330
1F
100
AcDbEntity
  8
0
  6
Continuous
 62
     7
370
    25
100
AcDbLine
 10
266.0693407399
 20
196.1984008998
 30
0.0
 11
251.9274349844
 21
204.362349318
 31
0.0
  0
ELLIPSE
  5
2D0
330
1F
100
AcDbEntity
  8
0
  6
Continuous
 62
     7
370
    25
100
AcDbEllipse
 10
401.0562551366
 20
199.1972221388
 30
0.0
 11
0.7839586597908123
 21
0.3053985739882137
 31
0.0
210
0.0
220
0.0
230
1.0
 40
0.5219456005
 41
5.29719278932701
 42
6.082590952724424
  0
ELLIPSE
  5
2D1
330
1F
100
AcDbEntity
  8
0
  6
Continuous
 62
     7
370
    25
100
AcDbEllipse
 10
212.400165916
 20
199.1972221388
 30
0.0
 11
0.7839586597908408
 21
-0.3053985739882136
 31
0.0
210
0.0
220
0.0
230
1.0
 40
0.5219456005
 41
3.342187008044991
 42
4.127585171442428
  0
LINE
  5
2D2
330
1F
100
AcDbEntity
  8
0
  6
Continuous
 62
     7
370
    25
100
AcDbLine
 10
316.2741520723
 20
199.0556965912
 30
0.0
 11
313.4459548157
 21
197.4230130676
 31
0.0
  0
LINE
  5
2D3
330
1F
100
AcDbEntity
  8
0
  6
Continuous
 62
     7
370
    25
100
AcDbLine
 10
285.8685604813
 20
207.6282471654
 30
0.0
 11
285.8685604813
 21
205.9951655416
 31
0.0
  0
LINE
  5
2D4
330
1F
100
AcDbEntity
  8
0
  6
Continuous
 62
     7
370
    25
100
AcDbLine
 10
300.0104662369
 20
197.8312171235
 30
0.0
 11
285.8685604813
 21
205.9951655416
 31
0.0
  0
LINE
  5
2D5
330
1F
100
AcDbEntity
  8
0
  6
Continuous
 62
     7
370
    25
100
AcDbLine
 10
350.2152775693
 20
200.6885128148
 30
0.0
 11
347.3870803127
 21
199.0558292912
 31
0.0
  0
LINE
  5
2D6
330
1F
100
AcDbEntity
  8
0
  6
Continuous
 62
     7
370
    25
100
AcDbLine
 10
276.6761723259
 20
200.6885128148
 30
0.0
 11
273.8479750693
 21
199.0558292912
 31
0.0
  0
ARC
  5
2D7
330
1F
100
AcDbEntity
  8
0
  6
Continuous
 62
     7
370
    25
100
AcDbCircle
 10
377.2226810647
 20
204.2155861858
 30
0.0
 40
2.469530647241925
100
AcDbArc
 50
227.1498367566
 51
235.1807727992
  0
LINE
  5
2D8
330
1F
100
AcDbEntity
  8
0
  6
Continuous
 62
     7
370
    25
100
AcDbLine
 10
381.0528975842
 20
206.1842357949
 30
0.0
 11
375.5431941808
 21
202.4050875185
 31
0.0
  0
SPLINE
  5
2D9
330
1F
100
AcDbEntity
  8
0
  6
Continuous
 62
     7
370
    25
100
AcDbSpline
210
0.0
220
0.0
230
1.0
 70
     8
 71
     3
 72
    13
 73
     9
 74
     0
 42
0.00000001
 43
0.00000001
 40
0.0
 40
0.0
 40
0.0
 40
0.0
 40
0.1008318217422016
 40
0.194456979436775
 40
0.2893450897097677
 40
0.3936585894564343
 40
0.6520969811804914
 40
1.0
 40
1.0
 40
1.0
 40
1.0
 10
381.0528975841967
 20
206.1842357948603
 30
0.0
 10
381.0725051264725
 20
206.1791862780931
 30
0.0
 10
381.1103188184126
 20
206.1694481442263
 30
0.0
 10
381.1526796818193
 20
206.1409695651984
 30
0.0
 10
381.1779835340343
 20
206.1031963237473
 30
0.0
 10
381.189045716076
 20
206.0359873795622
 30
0.0
 10
381.1542223167422
 20
205.9260161819827
 30
0.0
 10
381.0939832228687
 20
205.8377062162297
 30
0.0
 10
381.0594195888415
 20
205.7870362419494
 30
0.0
  0
LINE
  5
2DA
330
1F
100
AcDbEntity
  8
0
  6
Continuous
 62
     7
370
    25
100
AcDbLine
 10
237.9132268718
 20
202.4050875185
 30
0.0
 11
232.4035234684
 21
206.1842357949
 31
0.0
  0
ARC
  5
2DB
330
1F
100
AcDbEntity
  8
0
  6
Continuous
 62
     7
370
    25
100
AcDbCircle
 10
236.2337399879
 20
204.2155861859
 30
0.0
 40
2.469530647259318
100
AcDbArc
 50
304.8192272009
 51
312.8501632434
  0
SPLINE
  5
2DC
330
1F
100
AcDbEntity
  8
0
  6
Continuous
 62
     7
370
    25
100
AcDbSpline
210
0.0
220
0.0
230
1.0
 70
     8
 71
     3
 72
    13
 73
     9
 74
     0
 42
0.00000001
 43
0.00000001
 40
0.0
 40
0.0
 40
0.0
 40
0.0
 40
0.3479030188194942
 40
0.6063414105435557
 40
0.7106549102902329
 40
0.8055430205632371
 40
0.8991681782578046
 40
1.0
 40
1.0
 40
1.0
 40
1.0
 10
232.3970014637889
 20
205.7870362419496
 30
0.0
 10
232.3624378297618
 20
205.8377062162299
 30
0.0
 10
232.3021987358883
 20
205.9260161819829
 30
0.0
 10
232.2673753365545
 20
206.0359873795624
 30
0.0
 10
232.2784375185961
 20
206.1031963237474
 30
0.0
 10
232.3037413708111
 20
206.1409695651985
 30
0.0
 10
232.3461022342179
 20
206.1694481442264
 30
0.0
 10
232.383915926158
 20
206.1791862780933
 30
0.0
 10
232.4035234684338
 20
206.1842357948605
 30
0.0
  0
LINE
  5
2DD
330
1F
100
AcDbEntity
  8
0
  6
Continuous
 62
     7
370
    25
100
AcDbLine
 10
375.5431941808
 20
202.4050875185
 30
0.0
 11
313.461909669
 21
238.2438502177
 31
0.0
  0
LINE
  5
2DE
330
1F
100
AcDbEntity
  8
0
  6
Continuous
 62
     7
370
    25
100
AcDbLine
 10
313.461909669
 20
238.2438502177
 30
0.0
 11
317.1404115354
 21
243.0801286396
 31
0.0
  0
LINE
  5
2DF
330
1F
100
AcDbEntity
  8
0
  6
Continuous
 62
     7
370
    25
100
AcDbLine
 10
317.1404115354
 20
243.0801286396
 30
0.0
 11
381.0528975842
 21
206.1842357949
 31
0.0
  0
LINE
  5
2E0
330
1F
100
AcDbEntity
  8
0
  6
Continuous
 62
     7
370
    25
100
AcDbLine
 10
296.3160095172
 20
243.0801286396
 30
0.0
 11
299.9945113837
 21
238.2438502177
 31
0.0
  0
LINE
  5
2E1
330
1F
100
AcDbEntity
  8
0
  6
Continuous
 62
     7
370
    25
100
AcDbLine
 10
299.9945113837
 20
238.2438502177
 30
0.0
 11
237.9132268718
 21
202.4050875185
 31
0.0
  0
LINE
  5
2E2
330
1F
100
AcDbEntity
  8
0
  6
Continuous
 62
     7
370
    25
100
AcDbLine
 10
232.4035234684
 20
206.1842357949
 30
0.0
 11
296.3160095172
 21
243.0801286396
 31
0.0
  0
ARC
  5
2E3
330
1F
100
AcDbEntity
  8
0
  6
Continuous
 62
     7
370
    25
100
AcDbCircle
 10
373.9497073444
 20
204.0821364194
 30
0.0
 40
2.313372714056538
100
AcDbArc
 50
300.4442060747
 51
313.5364134197
  0
ARC
  5
2E4
330
1F
100
AcDbEntity
  8
0
  6
Continuous
 62
     7
370
    25
100
AcDbCircle
 10
239.5067137082
 20
204.0821364194
 30
0.0
 40
2.313372714058644
100
AcDbArc
 50
226.4635865803
 51
239.5557939252
  0
ARC
  5
2E5
330
1F
100
AcDbEntity
  8
0
  6
Continuous
 62
     7
370
    25
100
AcDbCircle
 10
311.8684228325
 20
239.9208991186
 30
0.0
 40
2.313372714064363
100
AcDbArc
 50
300.4442060748
 51
313.5364134197
  0
ARC
  5
2E6
330
1F
100
AcDbEntity
  8
0
  6
Continuous
 62
     7
370
    25
100
AcDbCircle
 10
301.5879982201
 20
239.9208991186
 30
0.0
 40
2.313372714056344
100
AcDbArc
 50
226.4635865803
 51
239.5557939253
  0
SPLINE
  5
2E7
330
1F
100
AcDbEntity
  8
0
  6
Continuous
 62
     7
370
    25
100
AcDbSpline
210
0.0
220
0.0
230
1.0
 70
     8
 71
     3
 72
     9
 73
     5
 74
     0
 42
0.00000001
 43
0.00000001
 40
0.0
 40
0.0
 40
0.0
 40
0.0
 40
0.4999999999999967
 40
0.9999999999999999
 40
0.9999999999999999
 40
0.9999999999999999
 40
0.9999999999999999
 10
381.8955036118593
 20
206.8189615789821
 30
0.0
 10
381.7526366239177
 20
206.7302006462844
 30
0.0
 10
381.4669026480345
 20
206.552678780889
 30
0.0
 10
381.1908992721426
 20
206.3070501235366
 30
0.0
 10
381.0528975841967
 20
206.1842357948604
 30
0.0
  0
SPLINE
  5
2E8
330
1F
100
AcDbEntity
  8
0
  6
Continuous
 62
     7
370
    25
100
AcDbSpline
210
0.0
220
0.0
230
1.0
 70
     8
 71
     3
 72
     9
 73
     5
 74
     0
 42
0.00000001
 43
0.00000001
 40
0.0
 40
0.0
 40
0.0
 40
0.0
 40
0.4999999999999966
 40
1.0
 40
1.0
 40
1.0
 40
1.0
 10
231.5609174407711
 20
206.8189615789822
 30
0.0
 10
231.7037844287127
 20
206.7302006462845
 30
0.0
 10
231.989518404596
 20
206.5526787808892
 30
0.0
 10
232.2655217804878
 20
206.3070501235368
 30
0.0
 10
232.4035234684337
 20
206.1842357948605
 30
0.0
  0
LINE
  5
2E9
330
1F
100
AcDbEntity
  8
0
  6
Continuous
 62
     7
370
    25
100
AcDbLine
 10
314.5063851194
 20
233.5492047158
 30
0.0
 11
314.5063851194
 21
231.916123092
 31
0.0
  0
LINE
  5
2EA
330
1F
100
AcDbEntity
  8
0
  6
Continuous
 62
     7
370
    25
100
AcDbLine
 10
366.1249502778
 20
202.1173597106
 30
0.0
 11
314.5063851194
 21
231.916123092
 31
0.0
  0
SPLINE
  5
2EB
330
1F
100
AcDbEntity
  8
0
  6
Continuous
 62
     7
370
    25
100
AcDbSpline
210
0.0
220
0.0
230
1.0
 70
     8
 71
     3
 72
     9
 73
     5
 74
     0
 42
0.00000001
 43
0.00000001
 40
0.0
 40
0.0
 40
0.0
 40
0.0
 40
0.5000000000000033
 40
0.9999999999999999
 40
0.9999999999999999
 40
0.9999999999999999
 40
0.9999999999999999
 10
317.1404115354383
 20
243.0801286396474
 30
0.0
 10
317.2784132233842
 20
243.2029429683236
 30
0.0
 10
317.554416599276
 20
243.4485716256761
 30
0.0
 10
317.8401505751593
 20
243.6260934910715
 30
0.0
 10
317.9830175631009
 20
243.7148544237691
 30
0.0
  0
SPLINE
  5
2EC
330
1F
100
AcDbEntity
  8
0
  6
Continuous
 62
     7
370
    25
100
AcDbSpline
210
0.0
220
0.0
230
1.0
 70
     8
 71
     3
 72
     9
 73
     5
 74
     0
 42
0.00000001
 43
0.00000001
 40
0.0
 40
0.0
 40
0.0
 40
0.0
 40
0.4999999999999966
 40
1.0
 40
1.0
 40
1.0
 40
1.0
 10
295.4734034895298
 20
243.7148544237692
 30
0.0
 10
295.6162704774714
 20
243.6260934910715
 30
0.0
 10
295.9020044533547
 20
243.4485716256761
 30
0.0
 10
296.1780078292465
 20
243.2029429683237
 30
0.0
 10
296.3160095171924
 20
243.0801286396475
 30
0.0
  0
LINE
  5
2ED
330
1F
100
AcDbEntity
  8
0
  6
Continuous
 62
     7
370
    25
100
AcDbLine
 10
325.4665402278
 20
204.362349318
 30
0.0
 11
322.6383429712
 21
202.7296657944
 31
0.0
  0
LINE
  5
2EE
330
1F
100
AcDbEntity
  8
0
  6
Continuous
 62
     7
370
    25
100
AcDbLine
 10
251.9274349844
 20
204.362349318
 30
0.0
 11
249.0992377278
 21
202.7296657944
 31
0.0
  0
LINE
  5
2EF
330
1F
100
AcDbEntity
  8
0
  6
Continuous
 62
     7
370
    25
100
AcDbLine
 10
295.0609486367
 20
212.9348998923
 30
0.0
 11
295.0609486367
 21
211.3018182685
 31
0.0
  0
LINE
  5
2F0
330
1F
100
AcDbEntity
  8
0
  6
Continuous
 62
     7
370
    25
100
AcDbLine
 10
309.2028543923
 20
203.1378698503
 30
0.0
 11
295.0609486367
 21
211.3018182685
 31
0.0
  0
LINE
  5
2F1
330
1F
100
AcDbEntity
  8
0
  6
Continuous
 62
     7
370
    25
100
AcDbLine
 10
285.8685604813
 20
205.9951655416
 30
0.0
 11
283.0403632247
 21
204.3624820181
 31
0.0
  0
LINE
  5
2F2
330
1F
100
AcDbEntity
  8
0
  6
Continuous
 62
     7
370
    25
100
AcDbLine
 10
319.1025791971
 20
220.2825728987
 30
0.0
 11
319.1025791971
 21
218.6494912749
 31
0.0
  0
LINE
  5
2F3
330
1F
100
AcDbEntity
  8
0
  6
Continuous
 62
     7
370
    25
100
AcDbLine
 10
343.1439798893
 20
204.770686074
 30
0.0
 11
319.1025791971
 21
218.6494912749
 31
0.0
  0
LINE
  5
2F4
330
1F
100
AcDbEntity
  8
0
  6
Continuous
 62
     7
370
    25
100
AcDbLine
 10
261.1198231398
 20
211.3020836686
 30
0.0
 11
261.1198231398
 21
209.6690020449
 31
0.0
  0
LINE
  5
2F5
330
1F
100
AcDbEntity
  8
0
  6
Continuous
 62
     7
370
    25
100
AcDbLine
 10
269.6048746459
 20
204.770686074
 30
0.0
 11
261.1198231398
 21
209.6690020449
 31
0.0
  0
LINE
  5
2F6
330
1F
100
AcDbEntity
  8
0
  6
Continuous
 62
     7
370
    25
100
AcDbLine
 10
261.1198231398
 20
209.6690020449
 30
0.0
 11
258.2916258832
 21
208.0363185213
 31
0.0
  0
LINE
  5
2F7
330
1F
100
AcDbEntity
  8
0
  6
Continuous
 62
     7
370
    25
100
AcDbLine
 10
304.2533367922
 20
218.2415526191
 30
0.0
 11
304.2533367922
 21
216.6084709953
 31
0.0
  0
LINE
  5
2F8
330
1F
100
AcDbEntity
  8
0
  6
Continuous
 62
     7
370
    25
100
AcDbLine
 10
318.3952425477
 20
208.4445225772
 30
0.0
 11
304.2533367922
 21
216.6084709953
 31
0.0
  0
LINE
  5
2F9
330
1F
100
AcDbEntity
  8
0
  6
Continuous
 62
     7
370
    25
100
AcDbLine
 10
295.0609486367
 20
211.3018182685
 30
0.0
 11
292.2327513801
 21
209.6691347449
 31
0.0
  0
LINE
  5
2FA
330
1F
100
AcDbEntity
  8
0
  6
Continuous
 62
     7
370
    25
100
AcDbLine
 10
270.3122112952
 20
216.6087363955
 30
0.0
 11
270.3122112952
 21
214.9756547717
 31
0.0
  0
LINE
  5
2FB
330
1F
100
AcDbEntity
  8
0
  6
Continuous
 62
     7
370
    25
100
AcDbLine
 10
278.7972628013
 20
210.0773388008
 30
0.0
 11
270.3122112952
 21
214.9756547717
 31
0.0
  0
LINE
  5
2FC
330
1F
100
AcDbEntity
  8
0
  6
Continuous
 62
     7
370
    25
100
AcDbLine
 10
270.3122112952
 20
214.9756547717
 30
0.0
 11
267.4840140386
 21
213.3429712481
 31
0.0
  0
LINE
  5
2FD
330
1F
100
AcDbEntity
  8
0
  6
Continuous
 62
     7
370
    25
100
AcDbLine
 10
304.2533367922
 20
216.6084709953
 30
0.0
 11
301.4251395356
 21
214.9757874718
 31
0.0
  0
LINE
  5
2FE
330
1F
100
AcDbEntity
  8
0
  6
Continuous
 62
     7
370
    25
100
AcDbLine
 10
279.5045994506
 20
221.9153891223
 30
0.0
 11
279.5045994506
 21
220.2823074985
 31
0.0
  0
LINE
  5
2FF
330
1F
100
AcDbEntity
  8
0
  6
Continuous
 62
     7
370
    25
100
AcDbLine
 10
287.9896509567
 20
215.3839915277
 30
0.0
 11
279.5045994506
 21
220.2823074985
 31
0.0
  0
LINE
  5
300
330
1F
100
AcDbEntity
  8
0
  6
Continuous
 62
     7
370
    25
100
AcDbLine
 10
319.1025791971
 20
218.6494912749
 30
0.0
 11
316.2743819405
 21
217.0168077513
 31
0.0
  0
LINE
  5
301
330
1F
100
AcDbEntity
  8
0
  6
Continuous
 62
     7
370
    25
100
AcDbLine
 10
279.5045994506
 20
220.2823074985
 30
0.0
 11
276.676402194
 21
218.649623975
 31
0.0
  0
LINE
  5
302
330
1F
100
AcDbEntity
  8
0
  6
Continuous
 62
     7
370
    25
100
AcDbLine
 10
288.6969876061
 20
227.2220418492
 30
0.0
 11
288.6969876061
 21
225.5889602254
 31
0.0
  0
LINE
  5
303
330
1F
100
AcDbEntity
  8
0
  6
Continuous
 62
     7
370
    25
100
AcDbLine
 10
297.1820391121
 20
220.6906442545
 30
0.0
 11
288.6969876061
 21
225.5889602254
 31
0.0
  0
LINE
  5
304
330
1F
100
AcDbEntity
  8
0
  6
Continuous
 62
     7
370
    25
100
AcDbLine
 10
297.8893757615
 20
232.528694576
 30
0.0
 11
297.8893757615
 21
230.8956129522
 31
0.0
  0
LINE
  5
305
330
1F
100
AcDbEntity
  8
0
  6
Continuous
 62
     7
370
    25
100
AcDbLine
 10
312.0312815171
 20
222.7316645341
 30
0.0
 11
297.8893757615
 21
230.8956129522
 31
0.0
  0
LINE
  5
306
330
1F
100
AcDbEntity
  8
0
  6
Continuous
 62
     7
370
    25
100
AcDbLine
 10
288.6969876061
 20
225.5889602254
 30
0.0
 11
285.8687903495
 21
223.9562767018
 31
0.0
  0
LINE
  5
307
330
1F
100
AcDbEntity
  8
0
  6
Continuous
 62
     7
370
    25
100
AcDbLine
 10
297.8893757615
 20
230.8956129522
 30
0.0
 11
295.0611785049
 21
229.2629294287
 31
0.0
  0
LINE
  5
308
330
1F
100
AcDbEntity
  8
0
  6
Continuous
 62
     7
370
    25
100
AcDbLine
 10
314.5063851194
 20
231.916123092
 30
0.0
 11
311.6781878628
 21
230.2834395684
 31
0.0
  0
LINE
  5
309
330
1F
100
AcDbEntity
  8
0
  6
Continuous
 62
     7
370
    25
100
AcDbLine
 10
316.5435926028
 20
243.031230396
 30
0.0
 11
313.0406066551
 21
238.4257100059
 31
0.0
  0
LINE
  5
30A
330
1F
100
AcDbEntity
  8
0
  6
Continuous
 62
     7
370
    25
100
AcDbLine
 10
313.0406066551
 20
238.4257100059
 30
0.0
 11
300.4158143975
 21
238.4257100059
 31
0.0
  0
LINE
  5
30B
330
1F
100
AcDbEntity
  8
0
  6
Continuous
 62
     7
370
    25
100
AcDbLine
 10
300.4158143975
 20
238.4257100059
 30
0.0
 11
296.9128284498
 21
243.031230396
 31
0.0
  0
LINE
  5
30C
330
1F
100
AcDbEntity
  8
0
  6
Continuous
 62
     7
370
    25
100
AcDbLine
 10
296.9128284498
 20
243.031230396
 30
0.0
 11
316.5435926028
 21
243.031230396
 31
0.0
  0
LINE
  5
30D
330
1F
100
AcDbEntity
  8
0
  6
Continuous
 62
     7
370
    25
100
AcDbLine
 10
300.4158143975
 20
238.4257100059
 30
0.0
 11
300.4158143975
 21
237.9264873256
 31
0.0
  0
LINE
  5
30E
330
1F
100
AcDbEntity
  8
0
  6
Continuous
 62
     7
370
    25
100
AcDbLine
 10
313.0406066551
 20
237.9264873256
 30
0.0
 11
313.0406066551
 21
238.4257100059
 31
0.0
  0
SPLINE
  5
30F
330
1F
100
AcDbEntity
  8
0
  6
Continuous
 62
     7
370
    25
100
AcDbSpline
210
0.0
220
0.0
230
1.0
 70
    24
 71
     3
 72
     9
 73
     5
 74
     0
 42
0.00000001
 43
0.00000001
 40
0.0
 40
0.0
 40
0.0
 40
0.0
 40
0.5000000000000046
 40
1.0
 40
1.0
 40
1.0
 40
1.0
 10
316.543592602805
 20
244.0296757565775
 30
0.0
 10
316.543592602805
 20
243.8850529562753
 30
0.0
 10
316.543592602805
 20
243.5958073556709
 30
0.0
 10
316.5435926028049
 20
243.2194227159073
 30
0.0
 10
316.5435926028049
 20
243.0312303960255
 30
0.0
  0
SPLINE
  5
310
330
1F
100
AcDbEntity
  8
0
  6
Continuous
 62
     7
370
    25
100
AcDbSpline
210
0.0
220
0.0
230
1.0
 70
    24
 71
     3
 72
     9
 73
     5
 74
     0
 42
0.00000001
 43
0.00000001
 40
0.0
 40
0.0
 40
0.0
 40
0.0
 40
0.5000000000000295
 40
1.0
 40
1.0
 40
1.0
 40
1.0
 10
296.9128284498257
 20
244.0296757565775
 30
0.0
 10
296.9128284498256
 20
243.8850529562753
 30
0.0
 10
296.9128284498257
 20
243.5958073556709
 30
0.0
 10
296.9128284498257
 20
243.2194227159073
 30
0.0
 10
296.9128284498257
 20
243.0312303960256
 30
0.0
  0
ARC
  5
311
330
1F
100
AcDbEntity
  8
0
  6
Continuous
 62
     7
370
    25
100
AcDbCircle
 10
298.9460860865
 20
241.2516033271
 30
0.0
 40
3.185243220126711
100
AcDbArc
 50
289.2172395375
 51
297.4786413942
  0
SPLINE
  5
312
330
1F
100
AcDbEntity
  8
0
  6
Continuous
 62
     7
370
    25
100
AcDbSpline
210
0.0
220
0.0
230
1.0
 70
     8
 71
     3
 72
    13
 73
     9
 74
     0
 42
0.00000001
 43
0.00000001
 40
0.0
 40
0.0
 40
0.0
 40
0.0
 40
0.1008318217421886
 40
0.1944569794367257
 40
0.2893450897097073
 40
0.3936585894563621
 40
0.6520969811805587
 40
1.0
 40
1.0
 40
1.0
 40
1.0
 10
296.3160095171925
 20
243.0801286396474
 30
0.0
 10
296.3275297069545
 20
243.0930487800907
 30
0.0
 10
296.3497467140953
 20
243.1179656311512
 30
0.0
 10
296.4009759220469
 20
243.1435154502917
 30
0.0
 10
296.4627063614967
 20
243.1559860359487
 30
0.0
 10
296.5657002023397
 20
243.1546202322643
 30
0.0
 10
296.7235563705663
 20
243.1156743403506
 30
0.0
 10
296.8438227257928
 20
243.0620173749668
 30
0.0
 10
296.9128284498258
 20
243.0312303960254
 30
0.0
  0
ARC
  5
313
330
1F
100
AcDbEntity
  8
0
  6
Continuous
 62
     7
370
    25
100
AcDbCircle
 10
314.5103349661
 20
241.2516033271
 30
0.0
 40
3.185243220120383
100
AcDbArc
 50
242.5213586058
 51
250.7827604625
  0
SPLINE
  5
314
330
1F
100
AcDbEntity
  8
0
  6
Continuous
 62
     7
370
    25
100
AcDbSpline
210
0.0
220
0.0
230
1.0
 70
     8
 71
     3
 72
    13
 73
     9
 74
     0
 42
0.00000001
 43
0.00000001
 40
0.0
 40
0.0
 40
0.0
 40
0.0
 40
0.3479030188194929
 40
0.6063414105435591
 40
0.7106549102902248
 40
0.8055430205632242
 40
0.8991681782577964
 40
1.0
 40
1.0
 40
1.0
 40
1.0
 10
316.5435926028049
 20
243.0312303960254
 30
0.0
 10
316.6125983268379
 20
243.0620173749668
 30
0.0
 10
316.7328646820644
 20
243.1156743403506
 30
0.0
 10
316.890720850291
 20
243.1546202322643
 30
0.0
 10
316.993714691134
 20
243.1559860359487
 30
0.0
 10
317.0554451305837
 20
243.1435154502917
 30
0.0
 10
317.1066743385355
 20
243.1179656311512
 30
0.0
 10
317.1288913456762
 20
243.0930487800907
 30
0.0
 10
317.1404115354382
 20
243.0801286396474
 30
0.0
  0
LINE
  5
315
330
1F
100
AcDbEntity
  8
0
  6
Continuous
 62
     7
370
    25
100
AcDbLine
 10
224.1952699717
 20
197.989938197
 30
0.0
 11
224.1787262748
 21
197.9522336497
 31
0.0
  0
ARC
  5
316
330
1F
100
AcDbEntity
  8
0
  6
Continuous
 62
     7
370
    25
100
AcDbCircle
 10
221.0812127
 20
197.6361393075
 30
0.0
 40
0.1463361491451801
100
AcDbArc
 50
30.057219236
 51
59.3012472475
  0
LINE
  5
317
330
1F
100
AcDbEntity
  8
0
  6
Continuous
 62
     7
370
    25
100
AcDbLine
 10
392.6952699855
 20
197.9899382312
 30
0.0
 11
392.679111855
 21
197.9530481415
 31
0.0
  0
LINE
  5
318
330
1F
100
AcDbEntity
  8
0
  6
Continuous
 62
     7
370
    25
100
AcDbLine
 10
386.2782105263
 20
200.3216997748
 30
0.0
 11
387.6053652504
 21
199.2380237789
 31
0.0
  0
LINE
  5
319
330
1F
100
AcDbEntity
  8
0
  6
Continuous
 62
     7
370
    25
100
AcDbLine
 10
227.1782105263
 20
200.3216997748
 30
0.0
 11
225.8510558023
 21
199.2380237789
 31
0.0
  0
CIRCLE
  5
31A
330
1F
100
AcDbEntity
  8
0
  6
Continuous
 62
     7
370
    25
100
AcDbCircle
 10
68.4300159559
 20
47.852494371
 30
0.0
 40
3.569999999999993
  0
LINE
  5
31B
330
1F
100
AcDbEntity
  8
0
  6
Continuous
 62
     7
370
    25
100
AcDbLine
 10
68.8300159559
 20
45.652494371
 30
0.0
 11
68.0300159559
 21
45.652494371
 31
0.0
  0
LINE
  5
31C
330
1F
100
AcDbEntity
  8
0
  6
Continuous
 62
     7
370
    25
100
AcDbLine
 10
68.8300159559
 20
47.452494371
 30
0.0
 11
68.8300159559
 21
45.652494371
 31
0.0
  0
LINE
  5
31D
330
1F
100
AcDbEntity
  8
0
  6
Continuous
 62
     7
370
    25
100
AcDbLine
 10
70.6300159559
 20
47.452494371
 30
0.0
 11
68.8300159559
 21
47.452494371
 31
0.0
  0
LINE
  5
31E
330
1F
100
AcDbEntity
  8
0
  6
Continuous
 62
     7
370
    25
100
AcDbLine
 10
70.6300159559
 20
48.252494371
 30
0.0
 11
70.6300159559
 21
47.452494371
 31
0.0
  0
LINE
  5
31F
330
1F
100
AcDbEntity
  8
0
  6
Continuous
 62
     7
370
    25
100
AcDbLine
 10
68.8300159559
 20
48.252494371
 30
0.0
 11
70.6300159559
 21
48.252494371
 31
0.0
  0
LINE
  5
320
330
1F
100
AcDbEntity
  8
0
  6
Continuous
 62
     7
370
    25
100
AcDbLine
 10
68.8300159559
 20
50.052494371
 30
0.0
 11
68.8300159559
 21
48.252494371
 31
0.0
  0
LINE
  5
321
330
1F
100
AcDbEntity
  8
0
  6
Continuous
 62
     7
370
    25
100
AcDbLine
 10
68.0300159559
 20
50.052494371
 30
0.0
 11
68.8300159559
 21
50.052494371
 31
0.0
  0
LINE
  5
322
330
1F
100
AcDbEntity
  8
0
  6
Continuous
 62
     7
370
    25
100
AcDbLine
 10
68.0300159559
 20
48.252494371
 30
0.0
 11
68.0300159559
 21
50.052494371
 31
0.0
  0
LINE
  5
323
330
1F
100
AcDbEntity
  8
0
  6
Continuous
 62
     7
370
    25
100
AcDbLine
 10
66.2300159559
 20
48.252494371
 30
0.0
 11
68.0300159559
 21
48.252494371
 31
0.0
  0
LINE
  5
324
330
1F
100
AcDbEntity
  8
0
  6
Continuous
 62
     7
370
    25
100
AcDbLine
 10
66.2300159559
 20
47.452494371
 30
0.0
 11
66.2300159559
 21
48.252494371
 31
0.0
  0
LINE
  5
325
330
1F
100
AcDbEntity
  8
0
  6
Continuous
 62
     7
370
    25
100
AcDbLine
 10
68.0300159559
 20
47.452494371
 30
0.0
 11
66.2300159559
 21
47.452494371
 31
0.0
  0
LINE
  5
326
330
1F
100
AcDbEntity
  8
0
  6
Continuous
 62
     7
370
    25
100
AcDbLine
 10
68.0300159559
 20
45.652494371
 30
0.0
 11
68.0300159559
 21
47.452494371
 31
0.0
  0
CIRCLE
  5
327
330
1F
100
AcDbEntity
  8
0
  6
Continuous
 62
     7
370
    25
100
AcDbCircle
 10
187.5775085858
 20
166.999987001
 30
0.0
 40
3.569999999999993
  0
LINE
  5
328
330
1F
100
AcDbEntity
  8
0
  6
Continuous
 62
     7
370
    25
100
AcDbLine
 10
187.1775085858
 20
169.199987001
 30
0.0
 11
187.9775085858
 21
169.199987001
 31
0.0
  0
LINE
  5
329
330
1F
100
AcDbEntity
  8
0
  6
Continuous
 62
     7
370
    25
100
AcDbLine
 10
187.1775085858
 20
167.399987001
 30
0.0
 11
187.1775085858
 21
169.199987001
 31
0.0
  0
LINE
  5
32A
330
1F
100
AcDbEntity
  8
0
  6
Continuous
 62
     7
370
    25
100
AcDbLine
 10
185.3775085858
 20
167.399987001
 30
0.0
 11
187.1775085858
 21
167.399987001
 31
0.0
  0
LINE
  5
32B
330
1F
100
AcDbEntity
  8
0
  6
Continuous
 62
     7
370
    25
100
AcDbLine
 10
185.3775085858
 20
166.599987001
 30
0.0
 11
185.3775085858
 21
167.399987001
 31
0.0
  0
LINE
  5
32C
330
1F
100
AcDbEntity
  8
0
  6
Continuous
 62
     7
370
    25
100
AcDbLine
 10
187.1775085858
 20
166.599987001
 30
0.0
 11
185.3775085858
 21
166.599987001
 31
0.0
  0
LINE
  5
32D
330
1F
100
AcDbEntity
  8
0
  6
Continuous
 62
     7
370
    25
100
AcDbLine
 10
187.1775085858
 20
164.799987001
 30
0.0
 11
187.1775085858
 21
166.599987001
 31
0.0
  0
LINE
  5
32E
330
1F
100
AcDbEntity
  8
0
  6
Continuous
 62
     7
370
    25
100
AcDbLine
 10
187.9775085858
 20
164.799987001
 30
0.0
 11
187.1775085858
 21
164.799987001
 31
0.0
  0
LINE
  5
32F
330
1F
100
AcDbEntity
  8
0
  6
Continuous
 62
     7
370
    25
100
AcDbLine
 10
187.9775085858
 20
166.599987001
 30
0.0
 11
187.9775085858
 21
164.799987001
 31
0.0
  0
LINE
  5
330
330
1F
100
AcDbEntity
  8
0
  6
Continuous
 62
     7
370
    25
100
AcDbLine
 10
189.7775085858
 20
166.599987001
 30
0.0
 11
187.9775085858
 21
166.599987001
 31
0.0
  0
LINE
  5
331
330
1F
100
AcDbEntity
  8
0
  6
Continuous
 62
     7
370
    25
100
AcDbLine
 10
189.7775085858
 20
167.399987001
 30
0.0
 11
189.7775085858
 21
166.599987001
 31
0.0
  0
LINE
  5
332
330
1F
100
AcDbEntity
  8
0
  6
Continuous
 62
     7
370
    25
100
AcDbLine
 10
187.9775085858
 20
167.399987001
 30
0.0
 11
189.7775085858
 21
167.399987001
 31
0.0
  0
LINE
  5
333
330
1F
100
AcDbEntity
  8
0
  6
Continuous
 62
     7
370
    25
100
AcDbLine
 10
187.9775085858
 20
169.199987001
 30
0.0
 11
187.9775085858
 21
167.399987001
 31
0.0
  0
LINE
  5
334
330
1F
100
AcDbEntity
  8
0
  6
Continuous
 62
     7
370
    25
100
AcDbLine
 10
195.5037622708
 20
40.726240686
 30
0.0
 11
195.5037622708
 21
174.126240686
 31
0.0
  0
ARC
  5
335
330
1F
100
AcDbEntity
  8
0
  6
Continuous
 62
     7
370
    25
100
AcDbCircle
 10
194.7037622708
 20
40.726240686
 30
0.0
 40
0.8000000000000043
100
AcDbArc
 50
270.0
 51
0.0
  0
LINE
  5
336
330
1F
100
AcDbEntity
  8
0
  6
Continuous
 62
     7
370
    25
100
AcDbLine
 10
61.3037622708
 20
39.926240686
 30
0.0
 11
194.7037622708
 21
39.926240686
 31
0.0
  0
ARC
  5
337
330
1F
100
AcDbEntity
  8
0
  6
Continuous
 62
     7
370
    25
100
AcDbCircle
 10
61.3037622708
 20
40.726240686
 30
0.0
 40
0.8000000000000114
100
AcDbArc
 50
180.0
 51
270.0
  0
LINE
  5
338
330
1F
100
AcDbEntity
  8
0
  6
Continuous
 62
     7
370
    25
100
AcDbLine
 10
60.5037622708
 20
174.126240686
 30
0.0
 11
60.5037622708
 21
40.726240686
 31
0.0
  0
ARC
  5
339
330
1F
100
AcDbEntity
  8
0
  6
Continuous
 62
     7
370
    25
100
AcDbCircle
 10
61.3037622708
 20
174.126240686
 30
0.0
 40
0.8000000000000114
100
AcDbArc
 50
90.0
 51
180.0
  0
LINE
  5
33A
330
1F
100
AcDbEntity
  8
0
  6
Continuous
 62
     7
370
    25
100
AcDbLine
 10
194.7037622708
 20
174.926240686
 30
0.0
 11
61.3037622708
 21
174.926240686
 31
0.0
  0
ARC
  5
33B
330
1F
100
AcDbEntity
  8
0
  6
Continuous
 62
     7
370
    25
100
AcDbCircle
 10
194.7037622708
 20
174.126240686
 30
0.0
 40
0.8000000000000114
100
AcDbArc
 50
0.0
 51
90.0
  0
LINE
  5
33C
330
1F
100
AcDbEntity
  8
0
  6
Continuous
 62
     7
370
    25
100
AcDbLine
 10
81.4073652376
 20
167.9036841717
 30
0.0
 11
67.5263187852
 21
154.0226377192
 31
0.0
  0
ELLIPSE
  5
33D
330
1F
100
AcDbEntity
  8
0
  6
Continuous
 62
     7
370
    25
100
AcDbEllipse
 10
87.0346757478
 20
148.9614298492
 30
0.0
 11
-20.10639503301751
 21
4.00718751966599
 31
-4.440892098500626E-16
210
7.690000504916895E-18
220
1.494083805331700E-16
230
1.0
 40
0.2926569273
 41
6.090226675006439
 42
6.341445578754552
  0
LINE
  5
33E
330
1F
100
AcDbEntity
  8
0
  6
Continuous
 62
     7
370
    25
100
AcDbLine
 10
66.89410923
 20
152.6191929736
 30
0.0
 11
66.89410923
 21
62.2332883984
 31
0.0
  0
ELLIPSE
  5
33F
330
1F
100
AcDbEntity
  8
0
  6
Continuous
 62
     7
370
    25
100
AcDbEllipse
 10
87.0346757478
 20
65.8910515228
 30
0.0
 11
-20.10639503301749
 21
-4.007187519666012
 31
4.440892098500626E-16
210
-7.690000504917083E-18
220
1.494083805331701E-16
230
1.0
 40
0.2926569273
 41
6.224925035604676
 42
6.476143939352788
  0
LINE
  5
340
330
1F
100
AcDbEntity
  8
0
  6
Continuous
 62
     7
370
    25
100
AcDbLine
 10
67.5263187852
 20
60.8298436528
 30
0.0
 11
81.4073652376
 21
46.9487972003
 31
0.0
  0
ELLIPSE
  5
341
330
1F
100
AcDbEntity
  8
0
  6
Continuous
 62
     7
370
    25
100
AcDbEllipse
 10
86.4685731077
 20
66.4571541629
 30
0.0
 11
-4.007187519666005
 21
-20.10639503301751
 31
2.664535259100376E-15
210
2.540248793561214E-17
220
1.274590856425502E-16
230
1.0
 40
0.2926569273
 41
6.090226675006426
 42
6.34144557875454
  0
LINE
  5
342
330
1F
100
AcDbEntity
  8
0
  6
Continuous
 62
     7
370
    25
100
AcDbLine
 10
82.8108099833
 20
46.3165876451
 30
0.0
 11
173.1967145584
 21
46.3165876451
 31
0.0
  0
ELLIPSE
  5
343
330
1F
100
AcDbEntity
  8
0
  6
Continuous
 62
     7
370
    25
100
AcDbEllipse
 10
169.538951434
 20
66.4571541629
 30
0.0
 11
4.007187519665962
 21
-20.10639503301753
 31
2.664535259100376E-15
210
-2.540248793561119E-17
220
1.274590856425504E-16
230
1.0
 40
0.2926569273
 41
6.224925035604667
 42
6.476143939352783
  0
LINE
  5
344
330
1F
100
AcDbEntity
  8
0
  6
Continuous
 62
     7
370
    25
100
AcDbLine
 10
174.6001593041
 20
46.9487972003
 30
0.0
 11
188.4812057565
 21
60.8298436528
 31
0.0
  0
ELLIPSE
  5
345
330
1F
100
AcDbEntity
  8
0
  6
Continuous
 62
     7
370
    25
100
AcDbEllipse
 10
168.9728487939
 20
65.8910515228
 30
0.0
 11
20.10639503301752
 21
-4.007187519665955
 31
4.440892098500626E-16
210
7.690000504916639E-18
220
1.494083805331701E-16
230
1.0
 40
0.2926569273
 41
6.090226675006409
 42
6.341445578754543
  0
LINE
  5
346
330
1F
100
AcDbEntity
  8
0
  6
Continuous
 62
     7
370
    25
100
AcDbLine
 10
189.1134153117
 20
62.2332883984
 30
0.0
 11
189.1134153117
 21
152.6191929736
 31
0.0
  0
ELLIPSE
  5
347
330
1F
100
AcDbEntity
  8
0
  6
Continuous
 62
     7
370
    25
100
AcDbEllipse
 10
168.9728487939
 20
148.9614298492
 30
0.0
 11
20.10639503301753
 21
4.007187519665963
 31
-4.440892098500627E-16
210
-7.690000504916692E-18
220
1.494083805331701E-16
230
1.0
 40
0.2926569273
 41
6.224925035604661
 42
6.476143939352774
  0
LINE
  5
348
330
1F
100
AcDbEntity
  8
0
  6
Continuous
 62
     7
370
    25
100
AcDbLine
 10
188.4812057565
 20
154.0226377192
 30
0.0
 11
174.6001593041
 21
167.9036841717
 31
0.0
  0
ELLIPSE
  5
349
330
1F
100
AcDbEntity
  8
0
  6
Continuous
 62
     7
370
    25
100
AcDbEllipse
 10
169.538951434
 20
148.395327209
 30
0.0
 11
4.007187519665963
 21
20.10639503301753
 31
-2.664535259100376E-15
210
2.540248793561131E-17
220
1.274590856425504E-16
230
1.0
 40
0.2926569273
 41
6.090226675006417
 42
6.341445578754552
  0
LINE
  5
34A
330
1F
100
AcDbEntity
  8
0
  6
Continuous
 62
     7
370
    25
100
AcDbLine
 10
173.1967145584
 20
168.5358937269
 30
0.0
 11
82.8108099833
 21
168.5358937269
 31
0.0
  0
ELLIPSE
  5
34B
330
1F
100
AcDbEntity
  8
0
  6
Continuous
 62
     7
370
    25
100
AcDbEllipse
 10
86.4685731077
 20
148.395327209
 30
0.0
 11
-4.007187519665976
 21
20.10639503301752
 31
-2.664535259100376E-15
210
-2.540248793561178E-17
220
1.274590856425502E-16
230
1.0
 40
0.2926569273
 41
6.224925035604667
 42
6.476143939352779
  0
CIRCLE
  5
34C
330
1F
100
AcDbEntity
  8
0
  6
Continuous
 62
     7
370
    25
100
AcDbCircle
 10
68.4300159559
 20
47.852494371
 30
0.0
 40
4.700000000000172
  0
CIRCLE
  5
34D
330
1F
100
AcDbEntity
  8
0
  6
Continuous
 62
     7
370
    25
100
AcDbCircle
 10
187.5775085858
 20
166.999987001
 30
0.0
 40
4.700000000000166
  0
SPLINE
  5
34E
330
1F
100
AcDbEntity
  8
0
  6
Continuous
 62
     7
370
    25
100
AcDbSpline
210
0.0
220
0.0
230
1.0
 70
    24
 71
     3
 72
     9
 73
     5
 74
     0
 42
0.00000001
 43
0.00000001
 40
0.0
 40
0.0
 40
0.0
 40
0.0
 40
0.5000000000000046
 40
1.0
 40
1.0
 40
1.0
 40
1.0
 10
81.40736523761213
 20
167.9036841716635
 30
0.0
 10
81.57401364140819
 20
167.7370357678674
 30
0.0
 10
81.9073104490003
 20
167.4037389602753
 30
0.0
 10
82.2252258264407
 20
167.0858235828348
 30
0.0
 10
82.38418351516091
 20
166.9268658941146
 30
0.0
  0
LINE
  5
34F
330
1F
100
AcDbEntity
  8
0
  6
Continuous
 62
     7
370
    25
100
AcDbLine
 10
68.5031370627
 20
153.0458194417
 30
0.0
 11
82.3841835152
 21
166.9268658941
 31
0.0
  0
SPLINE
  5
350
330
1F
100
AcDbEntity
  8
0
  6
Continuous
 62
     7
370
    25
100
AcDbSpline
210
0.0
220
0.0
230
1.0
 70
    24
 71
     3
 72
     9
 73
     5
 74
     0
 42
0.00000001
 43
0.00000001
 40
0.0
 40
0.0
 40
0.0
 40
0.0
 40
0.5000000000000295
 40
1.0
 40
1.0
 40
1.0
 40
1.0
 10
67.52631878516662
 20
154.022637719218
 30
0.0
 10
67.69296718896268
 20
153.855989315422
 30
0.0
 10
68.02626399655483
 20
153.5226925078298
 30
0.0
 10
68.34417937399523
 20
153.2047771303894
 30
0.0
 10
68.50313706271542
 20
153.0458194416692
 30
0.0
  0
SPLINE
  5
351
330
1F
100
AcDbEntity
  8
0
  6
Continuous
 62
     7
370
    25
100
AcDbSpline
210
0.0
220
0.0
230
1.0
 70
    24
 71
     3
 72
     9
 73
     5
 74
     0
 42
0.00000001
 43
0.00000001
 40
0.0
 40
0.0
 40
0.0
 40
0.0
 40
0.4999999999999874
 40
0.9999999999999999
 40
0.9999999999999999
 40
0.9999999999999999
 40
0.9999999999999999
 10
188.4812057565246
 20
154.022637719218
 30
0.0
 10
188.3145573527286
 20
153.8559893154219
 30
0.0
 10
187.9812605451364
 20
153.5226925078298
 30
0.0
 10
187.663345167696
 20
153.2047771303894
 30
0.0
 10
187.5043874789757
 20
153.0458194416692
 30
0.0
  0
LINE
  5
352
330
1F
100
AcDbEntity
  8
0
  6
Continuous
 62
     7
370
    25
100
AcDbLine
 10
173.6233410265
 20
166.9268658941
 30
0.0
 11
187.504387479
 21
153.0458194417
 31
0.0
  0
SPLINE
  5
353
330
1F
100
AcDbEntity
  8
0
  6
Continuous
 62
     7
370
    25
100
AcDbSpline
210
0.0
220
0.0
230
1.0
 70
    24
 71
     3
 72
     9
 73
     5
 74
     0
 42
0.00000001
 43
0.00000001
 40
0.0
 40
0.0
 40
0.0
 40
0.0
 40
0.5000000000000048
 40
0.9999999999999999
 40
0.9999999999999999
 40
0.9999999999999999
 40
0.9999999999999999
 10
174.6001593040792
 20
167.9036841716634
 30
0.0
 10
174.4335109002832
 20
167.7370357678673
 30
0.0
 10
174.100214092691
 20
167.4037389602751
 30
0.0
 10
173.7822987152506
 20
167.0858235828347
 30
0.0
 10
173.6233410265303
 20
166.9268658941145
 30
0.0
  0
LINE
  5
354
330
1F
100
AcDbEntity
  8
0
  6
Continuous
 62
     7
370
    25
100
AcDbLine
 10
82.8108099833
 20
167.3442688548
 30
0.0
 11
173.1967145584
 21
167.3442688548
 31
0.0
  0
SPLINE
  5
355
330
1F
100
AcDbEntity
  8
0
  6
Continuous
 62
     7
370
    25
100
AcDbSpline
210
0.0
220
0.0
230
1.0
 70
    24
 71
     3
 72
     9
 73
     5
 74
     0
 42
0.00000001
 43
0.00000001
 40
0.0
 40
0.0
 40
0.0
 40
0.0
 40
0.5000000000000033
 40
0.9999999999999999
 40
0.9999999999999999
 40
0.9999999999999999
 40
0.9999999999999999
 10
82.81080998327782
 20
167.3442688548088
 30
0.0
 10
82.81080998327784
 20
167.5394327135323
 30
0.0
 10
82.81080998327784
 20
167.9297604309793
 30
0.0
 10
82.81080998327782
 20
168.3338492949042
 30
0.0
 10
82.81080998327782
 20
168.5358937268666
 30
0.0
  0
SPLINE
  5
356
330
1F
100
AcDbEntity
  8
0
  6
Continuous
 62
     7
370
    25
100
AcDbSpline
210
0.0
220
0.0
230
1.0
 70
    24
 71
     3
 72
     9
 73
     5
 74
     0
 42
0.00000001
 43
0.00000001
 40
0.0
 40
0.0
 40
0.0
 40
0.0
 40
0.4999999999999967
 40
0.9999999999999999
 40
0.9999999999999999
 40
0.9999999999999999
 40
0.9999999999999999
 10
173.1967145584134
 20
168.5358937268666
 30
0.0
 10
173.1967145584134
 20
168.3338492949042
 30
0.0
 10
173.1967145584134
 20
167.9297604309793
 30
0.0
 10
173.1967145584134
 20
167.5394327135323
 30
0.0
 10
173.1967145584134
 20
167.3442688548088
 30
0.0
  0
SPLINE
  5
357
330
1F
100
AcDbEntity
  8
0
  6
Continuous
 62
     7
370
    25
100
AcDbSpline
210
0.0
220
0.0
230
1.0
 70
    24
 71
     3
 72
     9
 73
     5
 74
     0
 42
0.00000001
 43
0.00000001
 40
0.0
 40
0.0
 40
0.0
 40
0.0
 40
0.4999999999999966
 40
1.0
 40
1.0
 40
1.0
 40
1.0
 10
66.89410922996352
 20
152.6191929735523
 30
0.0
 10
67.09615366192598
 20
152.6191929735523
 30
0.0
 10
67.50024252585088
 20
152.6191929735523
 30
0.0
 10
67.89057024329784
 20
152.6191929735523
 30
0.0
 10
68.08573410202132
 20
152.6191929735523
 30
0.0
  0
LINE
  5
358
330
1F
100
AcDbEntity
  8
0
  6
Continuous
 62
     7
370
    25
100
AcDbLine
 10
68.085734102
 20
62.2332883984
 30
0.0
 11
68.085734102
 21
152.6191929736
 31
0.0
  0
SPLINE
  5
359
330
1F
100
AcDbEntity
  8
0
  6
Continuous
 62
     7
370
    25
100
AcDbSpline
210
0.0
220
0.0
230
1.0
 70
    24
 71
     3
 72
     9
 73
     5
 74
     0
 42
0.00000001
 43
0.00000001
 40
0.0
 40
0.0
 40
0.0
 40
0.0
 40
0.4999999999999966
 40
1.0
 40
1.0
 40
1.0
 40
1.0
 10
66.89410922996352
 20
62.23328839841673
 30
0.0
 10
67.09615366192598
 20
62.23328839841673
 30
0.0
 10
67.50024252585088
 20
62.23328839841673
 30
0.0
 10
67.89057024329784
 20
62.23328839841673
 30
0.0
 10
68.08573410202132
 20
62.23328839841673
 30
0.0
  0
SPLINE
  5
35A
330
1F
100
AcDbEntity
  8
0
  6
Continuous
 62
     7
370
    25
100
AcDbSpline
210
0.0
220
0.0
230
1.0
 70
    24
 71
     3
 72
     9
 73
     5
 74
     0
 42
0.00000001
 43
0.00000001
 40
0.0
 40
0.0
 40
0.0
 40
0.0
 40
0.5000000000000031
 40
1.0
 40
1.0
 40
1.0
 40
1.0
 10
189.1134153117277
 20
62.23328839841669
 30
0.0
 10
188.9113708797653
 20
62.23328839841671
 30
0.0
 10
188.5072820158404
 20
62.23328839841675
 30
0.0
 10
188.1169542983934
 20
62.2332883984167
 30
0.0
 10
187.9217904396699
 20
62.23328839841669
 30
0.0
  0
LINE
  5
35B
330
1F
100
AcDbEntity
  8
0
  6
Continuous
 62
     7
370
    25
100
AcDbLine
 10
187.9217904397
 20
152.6191929736
 30
0.0
 11
187.9217904397
 21
62.2332883984
 31
0.0
  0
SPLINE
  5
35C
330
1F
100
AcDbEntity
  8
0
  6
Continuous
 62
     7
370
    25
100
AcDbSpline
210
0.0
220
0.0
230
1.0
 70
    24
 71
     3
 72
     9
 73
     5
 74
     0
 42
0.00000001
 43
0.00000001
 40
0.0
 40
0.0
 40
0.0
 40
0.0
 40
0.5000000000000026
 40
0.9999999999999999
 40
0.9999999999999999
 40
0.9999999999999999
 40
0.9999999999999999
 10
189.1134153117277
 20
152.6191929735523
 30
0.0
 10
188.9113708797653
 20
152.6191929735523
 30
0.0
 10
188.5072820158403
 20
152.6191929735523
 30
0.0
 10
188.1169542983934
 20
152.6191929735523
 30
0.0
 10
187.9217904396699
 20
152.6191929735523
 30
0.0
  0
SPLINE
  5
35D
330
1F
100
AcDbEntity
  8
0
  6
Continuous
 62
     7
370
    25
100
AcDbSpline
210
0.0
220
0.0
230
1.0
 70
    24
 71
     3
 72
     9
 73
     5
 74
     0
 42
0.00000001
 43
0.00000001
 40
0.0
 40
0.0
 40
0.0
 40
0.0
 40
0.500000000000015
 40
1.0
 40
1.0
 40
1.0
 40
1.0
 10
67.52631878516662
 20
60.82984365275104
 30
0.0
 10
67.69296718896267
 20
60.9964920565471
 30
0.0
 10
68.02626399655479
 20
61.32978886413926
 30
0.0
 10
68.34417937399523
 20
61.64770424157965
 30
0.0
 10
68.50313706271542
 20
61.80666193029983
 30
0.0
  0
LINE
  5
35E
330
1F
100
AcDbEntity
  8
0
  6
Continuous
 62
     7
370
    25
100
AcDbLine
 10
82.3841835152
 20
47.9256154779
 30
0.0
 11
68.5031370627
 21
61.8066619303
 31
0.0
  0
SPLINE
  5
35F
330
1F
100
AcDbEntity
  8
0
  6
Continuous
 62
     7
370
    25
100
AcDbSpline
210
0.0
220
0.0
230
1.0
 70
    24
 71
     3
 72
     9
 73
     5
 74
     0
 42
0.00000001
 43
0.00000001
 40
0.0
 40
0.0
 40
0.0
 40
0.0
 40
0.5000000000000152
 40
1.0
 40
1.0
 40
1.0
 40
1.0
 10
81.40736523761213
 20
46.94879720030553
 30
0.0
 10
81.57401364140819
 20
47.11544560410161
 30
0.0
 10
81.90731044900032
 20
47.44874241169372
 30
0.0
 10
82.2252258264407
 20
47.76665778913411
 30
0.0
 10
82.38418351516091
 20
47.92561547785434
 30
0.0
  0
SPLINE
  5
360
330
1F
100
AcDbEntity
  8
0
  6
Continuous
 62
     7
370
    25
100
AcDbSpline
210
0.0
220
0.0
230
1.0
 70
    24
 71
     3
 72
     9
 73
     5
 74
     0
 42
0.00000001
 43
0.00000001
 40
0.0
 40
0.0
 40
0.0
 40
0.0
 40
0.5000000000000152
 40
1.0
 40
1.0
 40
1.0
 40
1.0
 10
174.6001593040791
 20
46.94879720030553
 30
0.0
 10
174.433510900283
 20
47.11544560410161
 30
0.0
 10
174.1002140926909
 20
47.44874241169369
 30
0.0
 10
173.7822987152505
 20
47.76665778913411
 30
0.0
 10
173.6233410265303
 20
47.92561547785434
 30
0.0
  0
LINE
  5
361
330
1F
100
AcDbEntity
  8
0
  6
Continuous
 62
     7
370
    25
100
AcDbLine
 10
187.504387479
 20
61.8066619303
 30
0.0
 11
173.6233410265
 21
47.9256154779
 31
0.0
  0
SPLINE
  5
362
330
1F
100
AcDbEntity
  8
0
  6
Continuous
 62
     7
370
    25
100
AcDbSpline
210
0.0
220
0.0
230
1.0
 70
    24
 71
     3
 72
     9
 73
     5
 74
     0
 42
0.00000001
 43
0.00000001
 40
0.0
 40
0.0
 40
0.0
 40
0.0
 40
0.5000000000000373
 40
1.0
 40
1.0
 40
1.0
 40
1.0
 10
188.4812057565245
 20
60.82984365275089
 30
0.0
 10
188.3145573527285
 20
60.99649205654698
 30
0.0
 10
187.9812605451363
 20
61.32978886413912
 30
0.0
 10
187.6633451676959
 20
61.6477042415795
 30
0.0
 10
187.5043874789757
 20
61.80666193029969
 30
0.0
  0
SPLINE
  5
363
330
1F
100
AcDbEntity
  8
0
  6
Continuous
 62
     7
370
    25
100
AcDbSpline
210
0.0
220
0.0
230
1.0
 70
    24
 71
     3
 72
     9
 73
     5
 74
     0
 42
0.00000001
 43
0.00000001
 40
0.0
 40
0.0
 40
0.0
 40
0.0
 40
0.500000000000003
 40
1.0
 40
1.0
 40
1.0
 40
1.0
 10
82.81080998327782
 20
46.31658764510243
 30
0.0
 10
82.8108099832778
 20
46.51863207706489
 30
0.0
 10
82.81080998327782
 20
46.92272094098981
 30
0.0
 10
82.81080998327782
 20
47.31304865843676
 30
0.0
 10
82.81080998327782
 20
47.50821251716023
 30
0.0
  0
LINE
  5
364
330
1F
100
AcDbEntity
  8
0
  6
Continuous
 62
     7
370
    25
100
AcDbLine
 10
173.1967145584
 20
47.5082125172
 30
0.0
 11
82.8108099833
 21
47.5082125172
 31
0.0
  0
SPLINE
  5
365
330
1F
100
AcDbEntity
  8
0
  6
Continuous
 62
     7
370
    25
100
AcDbSpline
210
0.0
220
0.0
230
1.0
 70
    24
 71
     3
 72
     9
 73
     5
 74
     0
 42
0.00000001
 43
0.00000001
 40
0.0
 40
0.0
 40
0.0
 40
0.0
 40
0.5000000000000026
 40
1.0
 40
1.0
 40
1.0
 40
1.0
 10
173.1967145584134
 20
46.31658764510243
 30
0.0
 10
173.1967145584134
 20
46.51863207706487
 30
0.0
 10
173.1967145584134
 20
46.9227209409898
 30
0.0
 10
173.1967145584134
 20
47.31304865843677
 30
0.0
 10
173.1967145584134
 20
47.50821251716023
 30
0.0
  0
SPLINE
  5
366
330
1F
100
AcDbEntity
  8
0
  6
Continuous
 62
     7
370
    25
100
AcDbSpline
210
0.0
220
0.0
230
1.0
 70
     8
 71
     3
 72
    13
 73
     9
 74
     0
 42
0.00000001
 43
0.00000001
 40
0.0
 40
0.0
 40
0.0
 40
0.0
 40
0.1008318217422016
 40
0.194456979436775
 40
0.2893450897097677
 40
0.3936585894564343
 40
0.6520969811804914
 40
1.0
 40
1.0
 40
1.0
 40
1.0
 10
173.1967145584134
 20
167.3442688548087
 30
0.0
 10
173.2187251888203
 20
167.3499874766131
 30
0.0
 10
173.2611733032198
 20
167.3610159981987
 30
0.0
 10
173.3273514773291
 20
167.3547451316331
 30
0.0
 10
173.388894015161
 20
167.3289876447839
 30
0.0
 10
173.4695438023779
 20
167.2639821454398
 30
0.0
 10
173.5565411075702
 20
167.1277371166217
 30
0.0
 10
173.598986791129
 20
167.0001004895219
 30
0.0
 10
173.6233410265303
 20
166.9268658941144
 30
0.0
  0
SPLINE
  5
367
330
1F
100
AcDbEntity
  8
0
  6
Continuous
 62
     7
370
    25
100
AcDbSpline
210
0.0
220
0.0
230
1.0
 70
     8
 71
     3
 72
    13
 73
     9
 74
     0
 42
0.00000001
 43
0.00000001
 40
0.0
 40
0.0
 40
0.0
 40
0.0
 40
0.1008318217421886
 40
0.1944569794367257
 40
0.2893450897097073
 40
0.3936585894563621
 40
0.6520969811805587
 40
1.0
 40
1.0
 40
1.0
 40
1.0
 10
68.08573410202142
 20
152.6191929735523
 30
0.0
 10
68.08001548021711
 20
152.6412036039592
 30
0.0
 10
68.06898695863143
 20
152.6836517183587
 30
0.0
 10
68.07525782519707
 20
152.7498298924679
 30
0.0
 10
68.10101531204621
 20
152.8113724302998
 30
0.0
 10
68.16602081139037
 20
152.8920222175167
 30
0.0
 10
68.3022658402084
 20
152.9790195227091
 30
0.0
 10
68.42990246730818
 20
153.0214652062679
 30
0.0
 10
68.50313706271562
 20
153.0458194416692
 30
0.0
  0
SPLINE
  5
368
330
1F
100
AcDbEntity
  8
0
  6
Continuous
 62
     7
370
    25
100
AcDbSpline
210
0.0
220
0.0
230
1.0
 70
     8
 71
     3
 72
    13
 73
     9
 74
     0
 42
0.00000001
 43
0.00000001
 40
0.0
 40
0.0
 40
0.0
 40
0.0
 40
0.1008318217421569
 40
0.1944569794367441
 40
0.2893450897097515
 40
0.3936585894564215
 40
0.6520969811804874
 40
1.0
 40
1.0
 40
1.0
 40
1.0
 10
187.9217904396698
 20
62.23328839841669
 30
0.0
 10
187.9275090614742
 20
62.2112777680098
 30
0.0
 10
187.9385375830598
 20
62.16882965361034
 30
0.0
 10
187.9322667164941
 20
62.10265147950108
 30
0.0
 10
187.906509229645
 20
62.04110894166916
 30
0.0
 10
187.8415037303009
 20
61.96045915445225
 30
0.0
 10
187.7052587014828
 20
61.87346184925998
 30
0.0
 10
187.577622074383
 20
61.83101616570116
 30
0.0
 10
187.5043874789756
 20
61.80666193029979
 30
0.0
  0
SPLINE
  5
369
330
1F
100
AcDbEntity
  8
0
  6
Continuous
 62
     7
370
    25
100
AcDbSpline
210
0.0
220
0.0
230
1.0
 70
     8
 71
     3
 72
    13
 73
     9
 74
     0
 42
0.00000001
 43
0.00000001
 40
0.0
 40
0.0
 40
0.0
 40
0.0
 40
0.1008318217421868
 40
0.19445697943673
 40
0.2893450897097131
 40
0.3936585894563737
 40
0.6520969811805591
 40
0.9999999999999999
 40
0.9999999999999999
 40
0.9999999999999999
 40
0.9999999999999999
 10
82.81080998327782
 20
47.50821251716033
 30
0.0
 10
82.78879935287092
 20
47.50249389535602
 30
0.0
 10
82.74635123847143
 20
47.49146537377032
 30
0.0
 10
82.68017306436224
 20
47.49773624033607
 30
0.0
 10
82.61863052653031
 20
47.52349372718518
 30
0.0
 10
82.53798073931337
 20
47.58849922652933
 30
0.0
 10
82.45098343412108
 20
47.72474425534745
 30
0.0
 10
82.40853775056227
 20
47.85238088244721
 30
0.0
 10
82.38418351516091
 20
47.92561547785463
 30
0.0
  0
SPLINE
  5
36A
330
1F
100
AcDbEntity
  8
0
  6
Continuous
 62
     7
370
    25
100
AcDbSpline
210
0.0
220
0.0
230
1.0
 70
     8
 71
     3
 72
    13
 73
     9
 74
     0
 42
0.00000001
 43
0.00000001
 40
0.0
 40
0.0
 40
0.0
 40
0.0
 40
0.3479030188194929
 40
0.6063414105435591
 40
0.7106549102902248
 40
0.8055430205632242
 40
0.8991681782577964
 40
1.0
 40
1.0
 40
1.0
 40
1.0
 10
82.38418351516091
 20
166.9268658941145
 30
0.0
 10
82.40853775056226
 20
167.000100489522
 30
0.0
 10
82.45098343412104
 20
167.1277371166218
 30
0.0
 10
82.53798073931337
 20
167.2639821454398
 30
0.0
 10
82.61863052653025
 20
167.328987644784
 30
0.0
 10
82.68017306436218
 20
167.3547451316331
 30
0.0
 10
82.74635123847146
 20
167.3610159981987
 30
0.0
 10
82.78879935287092
 20
167.3499874766131
 30
0.0
 10
82.8108099832778
 20
167.3442688548087
 30
0.0
  0
SPLINE
  5
36B
330
1F
100
AcDbEntity
  8
0
  6
Continuous
 62
     7
370
    25
100
AcDbSpline
210
0.0
220
0.0
230
1.0
 70
     8
 71
     3
 72
    13
 73
     9
 74
     0
 42
0.00000001
 43
0.00000001
 40
0.0
 40
0.0
 40
0.0
 40
0.0
 40
0.3479030188194319
 40
0.6063414105435537
 40
0.7106549102902286
 40
0.8055430205632157
 40
0.8991681782577919
 40
0.9999999999999999
 40
0.9999999999999999
 40
0.9999999999999999
 40
0.9999999999999999
 10
187.5043874789756
 20
153.0458194416692
 30
0.0
 10
187.577622074383
 20
153.0214652062679
 30
0.0
 10
187.7052587014828
 20
152.979019522709
 30
0.0
 10
187.8415037303009
 20
152.8920222175167
 30
0.0
 10
187.906509229645
 20
152.8113724302999
 30
0.0
 10
187.9322667164942
 20
152.7498298924679
 30
0.0
 10
187.9385375830598
 20
152.6836517183586
 30
0.0
 10
187.9275090614742
 20
152.6412036039592
 30
0.0
 10
187.9217904396698
 20
152.6191929735523
 30
0.0
  0
SPLINE
  5
36C
330
1F
100
AcDbEntity
  8
0
  6
Continuous
 62
     7
370
    25
100
AcDbSpline
210
0.0
220
0.0
230
1.0
 70
     8
 71
     3
 72
    13
 73
     9
 74
     0
 42
0.00000001
 43
0.00000001
 40
0.0
 40
0.0
 40
0.0
 40
0.0
 40
0.3479030188194942
 40
0.6063414105435557
 40
0.7106549102902329
 40
0.8055430205632371
 40
0.8991681782578046
 40
1.0
 40
1.0
 40
1.0
 40
1.0
 10
68.50313706271571
 20
61.80666193029983
 30
0.0
 10
68.42990246730827
 20
61.83101616570119
 30
0.0
 10
68.30226584020849
 20
61.87346184925998
 30
0.0
 10
68.16602081139042
 20
61.96045915445227
 30
0.0
 10
68.10101531204627
 20
62.04110894166918
 30
0.0
 10
68.07525782519708
 20
62.10265147950108
 30
0.0
 10
68.06898695863143
 20
62.16882965361037
 30
0.0
 10
68.08001548021711
 20
62.21127776800985
 30
0.0
 10
68.08573410202142
 20
62.23328839841673
 30
0.0
  0
SPLINE
  5
36D
330
1F
100
AcDbEntity
  8
0
  6
Continuous
 62
     7
370
    25
100
AcDbSpline
210
0.0
220
0.0
230
1.0
 70
     8
 71
     3
 72
    13
 73
     9
 74
     0
 42
0.00000001
 43
0.00000001
 40
0.0
 40
0.0
 40
0.0
 40
0.0
 40
0.3479030188194759
 40
0.6063414105435555
 40
0.7106549102902291
 40
0.8055430205632303
 40
0.8991681782577946
 40
1.0
 40
1.0
 40
1.0
 40
1.0
 10
173.6233410265303
 20
47.92561547785453
 30
0.0
 10
173.598986791129
 20
47.85238088244708
 30
0.0
 10
173.5565411075702
 20
47.72474425534732
 30
0.0
 10
173.4695438023778
 20
47.58849922652929
 30
0.0
 10
173.388894015161
 20
47.52349372718512
 30
0.0
 10
173.327351477329
 20
47.49773624033602
 30
0.0
 10
173.2611733032198
 20
47.49146537377035
 30
0.0
 10
173.2187251888203
 20
47.50249389535602
 30
0.0
 10
173.1967145584134
 20
47.50821251716033
 30
0.0
  0
LINE
  5
36E
330
1F
100
AcDbEntity
  8
0
  6
Continuous
 62
     7
370
    25
100
AcDbLine
 10
172.3902686727
 20
160.7398233043
 30
0.0
 11
173.6233410265
 21
166.9268658941
 31
0.0
  0
ARC
  5
36F
330
1F
100
AcDbEntity
  8
0
  6
Continuous
 62
     7
370
    25
100
AcDbCircle
 10
170.6945643431
 20
154.192929199
 30
0.0
 40
6.762930991820126
100
AcDbArc
 50
75.4789828083
 51
79.7166343386
  0
LINE
  5
370
330
1F
100
AcDbEntity
  8
0
  6
Continuous
 62
     7
370
    25
100
AcDbLine
 10
173.1967145584
 20
167.3442688548
 30
0.0
 11
171.901859534
 21
160.8472266016
 31
0.0
  0
LINE
  5
371
330
1F
100
AcDbEntity
  8
0
  6
Continuous
 62
     7
370
    25
100
AcDbLine
 10
84.1056650077
 20
160.8472266016
 30
0.0
 11
82.8108099833
 21
167.3442688548
 31
0.0
  0
ARC
  5
372
330
1F
100
AcDbEntity
  8
0
  6
Continuous
 62
     7
370
    25
100
AcDbCircle
 10
85.3129601986
 20
154.192929199
 30
0.0
 40
6.762930991835352
100
AcDbArc
 50
100.2833656614
 51
104.5210171917
  0
LINE
  5
373
330
1F
100
AcDbEntity
  8
0
  6
Continuous
 62
     7
370
    25
100
AcDbLine
 10
82.3841835152
 20
166.9268658941
 30
0.0
 11
83.6172558689
 21
160.7398233043
 31
0.0
  0
LINE
  5
374
330
1F
100
AcDbEntity
  8
0
  6
Continuous
 62
     7
370
    25
100
AcDbLine
 10
181.4247481864
 20
151.3243379491
 30
0.0
 11
187.9217904397
 21
152.6191929736
 31
0.0
  0
ARC
  5
375
330
1F
100
AcDbEntity
  8
0
  6
Continuous
 62
     7
370
    25
100
AcDbCircle
 10
174.7704507838
 20
150.1170427583
 30
0.0
 40
6.762930991835082
100
AcDbArc
 50
10.2833656614
 51
14.5210171917
  0
LINE
  5
376
330
1F
100
AcDbEntity
  8
0
  6
Continuous
 62
     7
370
    25
100
AcDbLine
 10
187.504387479
 20
153.0458194417
 30
0.0
 11
181.3173448892
 21
151.8127470879
 31
0.0
  0
LINE
  5
377
330
1F
100
AcDbEntity
  8
0
  6
Continuous
 62
     7
370
    25
100
AcDbLine
 10
74.6901796525
 20
151.8127470879
 30
0.0
 11
68.5031370627
 21
153.0458194417
 31
0.0
  0
ARC
  5
378
330
1F
100
AcDbEntity
  8
0
  6
Continuous
 62
     7
370
    25
100
AcDbCircle
 10
81.2370737579
 20
150.1170427583
 30
0.0
 40
6.762930991832913
100
AcDbArc
 50
165.4789828083
 51
169.7166343386
  0
LINE
  5
379
330
1F
100
AcDbEntity
  8
0
  6
Continuous
 62
     7
370
    25
100
AcDbLine
 10
68.085734102
 20
152.6191929736
 30
0.0
 11
74.5827763553
 21
151.3243379491
 31
0.0
  0
LINE
  5
37A
330
1F
100
AcDbEntity
  8
0
  6
Continuous
 62
     7
370
    25
100
AcDbLine
 10
74.5827763553
 20
63.5281434229
 30
0.0
 11
68.085734102
 21
62.2332883984
 31
0.0
  0
ARC
  5
37B
330
1F
100
AcDbEntity
  8
0
  6
Continuous
 62
     7
370
    25
100
AcDbCircle
 10
81.2370737579
 20
64.7354386137
 30
0.0
 40
6.762930991814202
100
AcDbArc
 50
190.2833656614
 51
194.5210171917
  0
LINE
  5
37C
330
1F
100
AcDbEntity
  8
0
  6
Continuous
 62
     7
370
    25
100
AcDbLine
 10
68.5031370627
 20
61.8066619303
 30
0.0
 11
74.6901796525
 21
63.0397342841
 31
0.0
  0
LINE
  5
37D
330
1F
100
AcDbEntity
  8
0
  6
Continuous
 62
     7
370
    25
100
AcDbLine
 10
181.3173448892
 20
63.0397342841
 30
0.0
 11
187.504387479
 21
61.8066619303
 31
0.0
  0
ARC
  5
37E
330
1F
100
AcDbEntity
  8
0
  6
Continuous
 62
     7
370
    25
100
AcDbCircle
 10
174.7704507839
 20
64.7354386137
 30
0.0
 40
6.762930991795243
100
AcDbArc
 50
345.4789828083
 51
349.7166343386
  0
LINE
  5
37F
330
1F
100
AcDbEntity
  8
0
  6
Continuous
 62
     7
370
    25
100
AcDbLine
 10
187.9217904397
 20
62.2332883984
 30
0.0
 11
181.4247481864
 21
63.5281434229
 31
0.0
  0
LINE
  5
380
330
1F
100
AcDbEntity
  8
0
  6
Continuous
 62
     7
370
    25
100
AcDbLine
 10
83.6172558689
 20
54.1126580677
 30
0.0
 11
82.3841835152
 21
47.9256154779
 31
0.0
  0
ARC
  5
381
330
1F
100
AcDbEntity
  8
0
  6
Continuous
 62
     7
370
    25
100
AcDbCircle
 10
85.3129601986
 20
60.659552173
 30
0.0
 40
6.762930991828476
100
AcDbArc
 50
255.4789828083
 51
259.7166343386
  0
LINE
  5
382
330
1F
100
AcDbEntity
  8
0
  6
Continuous
 62
     7
370
    25
100
AcDbLine
 10
82.8108099833
 20
47.5082125172
 30
0.0
 11
84.1056650077
 21
54.0052547704
 31
0.0
  0
LINE
  5
383
330
1F
100
AcDbEntity
  8
0
  6
Continuous
 62
     7
370
    25
100
AcDbLine
 10
171.901859534
 20
54.0052547704
 30
0.0
 11
173.1967145584
 21
47.5082125172
 31
0.0
  0
ARC
  5
384
330
1F
100
AcDbEntity
  8
0
  6
Continuous
 62
     7
370
    25
100
AcDbCircle
 10
170.6945643431
 20
60.659552173
 30
0.0
 40
6.76293099186004
100
AcDbArc
 50
280.2833656614
 51
284.5210171917
  0
LINE
  5
385
330
1F
100
AcDbEntity
  8
0
  6
Continuous
 62
     7
370
    25
100
AcDbLine
 10
173.6233410265
 20
47.9256154779
 30
0.0
 11
172.3902686727
 21
54.1126580677
 31
0.0
  0
LINE
  5
386
330
1F
100
AcDbEntity
  8
0
  6
Continuous
 62
     7
370
    25
100
AcDbLine
 10
171.901859534
 20
160.8472266016
 30
0.0
 11
84.1056650077
 21
160.8472266016
 31
0.0
  0
LINE
  5
387
330
1F
100
AcDbEntity
  8
0
  6
Continuous
 62
     7
370
    25
100
AcDbLine
 10
181.4247481864
 20
63.5281434229
 30
0.0
 11
181.4247481864
 21
151.3243379491
 31
0.0
  0
LINE
  5
388
330
1F
100
AcDbEntity
  8
0
  6
Continuous
 62
     7
370
    25
100
AcDbLine
 10
74.5827763553
 20
151.3243379491
 30
0.0
 11
74.5827763553
 21
63.5281434229
 31
0.0
  0
LINE
  5
389
330
1F
100
AcDbEntity
  8
0
  6
Continuous
 62
     7
370
    25
100
AcDbLine
 10
84.1056650077
 20
54.0052547704
 30
0.0
 11
171.901859534
 21
54.0052547704
 31
0.0
  0
LINE
  5
38A
330
1F
100
AcDbEntity
  8
0
  6
Continuous
 62
     7
370
    25
100
AcDbLine
 10
83.6172558689
 20
160.7398233043
 30
0.0
 11
74.6901796525
 21
151.8127470879
 31
0.0
  0
LINE
  5
38B
330
1F
100
AcDbEntity
  8
0
  6
Continuous
 62
     7
370
    25
100
AcDbLine
 10
181.3173448892
 20
151.8127470879
 30
0.0
 11
172.3902686727
 21
160.7398233043
 31
0.0
  0
LINE
  5
38C
330
1F
100
AcDbEntity
  8
0
  6
Continuous
 62
     7
370
    25
100
AcDbLine
 10
74.6901796525
 20
63.0397342841
 30
0.0
 11
83.6172558689
 21
54.1126580677
 31
0.0
  0
LINE
  5
38D
330
1F
100
AcDbEntity
  8
0
  6
Continuous
 62
     7
370
    25
100
AcDbLine
 10
172.3902686727
 20
54.1126580677
 30
0.0
 11
181.3173448892
 21
63.0397342841
 31
0.0
  0
LINE
  5
38E
330
1F
100
AcDbEntity
  8
0
  6
Continuous
 62
     7
370
    25
100
AcDbLine
 10
75.1785887913
 20
151.3243379491
 30
0.0
 11
84.1056650077
 21
160.2514141655
 31
0.0
  0
LINE
  5
38F
330
1F
100
AcDbEntity
  8
0
  6
Continuous
 62
     7
370
    25
100
AcDbLine
 10
74.6901796525
 20
151.8127470879
 30
0.0
 11
75.1785887913
 21
151.3243379491
 31
0.0
  0
LINE
  5
390
330
1F
100
AcDbEntity
  8
0
  6
Continuous
 62
     7
370
    25
100
AcDbLine
 10
84.1056650077
 20
160.2514141655
 30
0.0
 11
83.6172558689
 21
160.7398233043
 31
0.0
  0
LINE
  5
391
330
1F
100
AcDbEntity
  8
0
  6
Continuous
 62
     7
370
    25
100
AcDbLine
 10
172.3902686727
 20
160.7398233043
 30
0.0
 11
171.901859534
 21
160.2514141655
 31
0.0
  0
LINE
  5
392
330
1F
100
AcDbEntity
  8
0
  6
Continuous
 62
     7
370
    25
100
AcDbLine
 10
171.901859534
 20
160.2514141655
 30
0.0
 11
171.901859534
 21
160.8472266016
 31
0.0
  0
LINE
  5
393
330
1F
100
AcDbEntity
  8
0
  6
Continuous
 62
     7
370
    25
100
AcDbLine
 10
84.1056650077
 20
160.8472266016
 30
0.0
 11
84.1056650077
 21
160.2514141655
 31
0.0
  0
LINE
  5
394
330
1F
100
AcDbEntity
  8
0
  6
Continuous
 62
     7
370
    25
100
AcDbLine
 10
171.901859534
 20
160.2514141655
 30
0.0
 11
180.8289357504
 21
151.3243379491
 31
0.0
  0
LINE
  5
395
330
1F
100
AcDbEntity
  8
0
  6
Continuous
 62
     7
370
    25
100
AcDbLine
 10
180.8289357504
 20
151.3243379491
 30
0.0
 11
181.3173448892
 21
151.8127470879
 31
0.0
  0
LINE
  5
396
330
1F
100
AcDbEntity
  8
0
  6
Continuous
 62
     7
370
    25
100
AcDbLine
 10
75.1785887913
 20
151.3243379491
 30
0.0
 11
74.5827763553
 21
151.3243379491
 31
0.0
  0
LINE
  5
397
330
1F
100
AcDbEntity
  8
0
  6
Continuous
 62
     7
370
    25
100
AcDbLine
 10
181.4247481864
 20
151.3243379491
 30
0.0
 11
180.8289357504
 21
151.3243379491
 31
0.0
  0
LINE
  5
398
330
1F
100
AcDbEntity
  8
0
  6
Continuous
 62
     7
370
    25
100
AcDbLine
 10
181.3173448892
 20
63.0397342841
 30
0.0
 11
180.8289357504
 21
63.5281434229
 31
0.0
  0
LINE
  5
399
330
1F
100
AcDbEntity
  8
0
  6
Continuous
 62
     7
370
    25
100
AcDbLine
 10
180.8289357504
 20
63.5281434229
 30
0.0
 11
181.4247481864
 21
63.5281434229
 31
0.0
  0
LINE
  5
39A
330
1F
100
AcDbEntity
  8
0
  6
Continuous
 62
     7
370
    25
100
AcDbLine
 10
180.8289357504
 20
63.5281434229
 30
0.0
 11
171.901859534
 21
54.6010672064
 31
0.0
  0
LINE
  5
39B
330
1F
100
AcDbEntity
  8
0
  6
Continuous
 62
     7
370
    25
100
AcDbLine
 10
171.901859534
 20
54.6010672064
 30
0.0
 11
172.3902686727
 21
54.1126580677
 31
0.0
  0
LINE
  5
39C
330
1F
100
AcDbEntity
  8
0
  6
Continuous
 62
     7
370
    25
100
AcDbLine
 10
84.1056650077
 20
54.6010672064
 30
0.0
 11
75.1785887913
 21
63.5281434229
 31
0.0
  0
LINE
  5
39D
330
1F
100
AcDbEntity
  8
0
  6
Continuous
 62
     7
370
    25
100
AcDbLine
 10
83.6172558689
 20
54.1126580677
 30
0.0
 11
84.1056650077
 21
54.6010672064
 31
0.0
  0
LINE
  5
39E
330
1F
100
AcDbEntity
  8
0
  6
Continuous
 62
     7
370
    25
100
AcDbLine
 10
75.1785887913
 20
63.5281434229
 30
0.0
 11
74.6901796525
 21
63.0397342841
 31
0.0
  0
LINE
  5
39F
330
1F
100
AcDbEntity
  8
0
  6
Continuous
 62
     7
370
    25
100
AcDbLine
 10
74.5827763553
 20
63.5281434229
 30
0.0
 11
75.1785887913
 21
63.5281434229
 31
0.0
  0
LINE
  5
3A0
330
1F
100
AcDbEntity
  8
0
  6
Continuous
 62
     7
370
    25
100
AcDbLine
 10
171.901859534
 20
54.0052547704
 30
0.0
 11
171.901859534
 21
54.6010672064
 31
0.0
  0
LINE
  5
3A1
330
1F
100
AcDbEntity
  8
0
  6
Continuous
 62
     7
370
    25
100
AcDbLine
 10
84.1056650077
 20
54.6010672064
 30
0.0
 11
84.1056650077
 21
54.0052547704
 31
0.0
  0
LINE
  5
3A2
330
1F
100
AcDbEntity
  8
0
  6
Continuous
 62
     7
370
    25
100
AcDbLine
 10
84.1056650077
 20
160.2514141655
 30
0.0
 11
171.901859534
 21
160.2514141655
 31
0.0
  0
LINE
  5
3A3
330
1F
100
AcDbEntity
  8
0
  6
Continuous
 62
     7
370
    25
100
AcDbLine
 10
75.1785887913
 20
63.5281434229
 30
0.0
 11
75.1785887913
 21
151.3243379491
 31
0.0
  0
LINE
  5
3A4
330
1F
100
AcDbEntity
  8
0
  6
Continuous
 62
     7
370
    25
100
AcDbLine
 10
180.8289357504
 20
151.3243379491
 30
0.0
 11
180.8289357504
 21
63.5281434229
 31
0.0
  0
LINE
  5
3A5
330
1F
100
AcDbEntity
  8
0
  6
Continuous
 62
     7
370
    25
100
AcDbLine
 10
171.901859534
 20
54.6010672064
 30
0.0
 11
84.1056650077
 21
54.6010672064
 31
0.0
  0
LINE
  5
3A6
330
1F
100
AcDbEntity
  8
0
  6
Continuous
 62
     7
370
    25
100
AcDbLine
 10
134.5037622708
 20
58.926240686
 30
0.0
 11
90.5037622708
 21
58.926240686
 31
0.0
  0
LINE
  5
3A7
330
1F
100
AcDbEntity
  8
0
  6
Continuous
 62
     7
370
    25
100
AcDbLine
 10
134.5037622708
 20
64.926240686
 30
0.0
 11
134.5037622708
 21
58.926240686
 31
0.0
  0
LINE
  5
3A8
330
1F
100
AcDbEntity
  8
0
  6
Continuous
 62
     7
370
    25
100
AcDbLine
 10
90.5037622708
 20
64.926240686
 30
0.0
 11
134.5037622708
 21
64.926240686
 31
0.0
  0
LINE
  5
3A9
330
1F
100
AcDbEntity
  8
0
  6
Continuous
 62
     7
370
    25
100
AcDbLine
 10
90.5037622708
 20
58.926240686
 30
0.0
 11
90.5037622708
 21
64.926240686
 31
0.0
  0
LINE
  5
3AA
330
1F
100
AcDbEntity
  8
0
  6
Continuous
 62
     7
370
    25
100
AcDbLine
 10
146.0037622708
 20
136.926240686
 30
0.0
 11
110.0037622708
 21
136.926240686
 31
0.0
  0
LINE
  5
3AB
330
1F
100
AcDbEntity
  8
0
  6
Continuous
 62
     7
370
    25
100
AcDbLine
 10
146.0037622708
 20
142.926240686
 30
0.0
 11
146.0037622708
 21
136.926240686
 31
0.0
  0
LINE
  5
3AC
330
1F
100
AcDbEntity
  8
0
  6
Continuous
 62
     7
370
    25
100
AcDbLine
 10
110.0037622708
 20
142.926240686
 30
0.0
 11
146.0037622708
 21
142.926240686
 31
0.0
  0
LINE
  5
3AD
330
1F
100
AcDbEntity
  8
0
  6
Continuous
 62
     7
370
    25
100
AcDbLine
 10
110.0037622708
 20
136.926240686
 30
0.0
 11
110.0037622708
 21
142.926240686
 31
0.0
  0
LINE
  5
3AE
330
1F
100
AcDbEntity
  8
0
  6
Continuous
 62
     7
370
    25
100
AcDbLine
 10
176.0037622708
 20
71.926240686
 30
0.0
 11
154.0037622708
 21
71.926240686
 31
0.0
  0
LINE
  5
3AF
330
1F
100
AcDbEntity
  8
0
  6
Continuous
 62
     7
370
    25
100
AcDbLine
 10
176.0037622708
 20
77.926240686
 30
0.0
 11
176.0037622708
 21
71.926240686
 31
0.0
  0
LINE
  5
3B0
330
1F
100
AcDbEntity
  8
0
  6
Continuous
 62
     7
370
    25
100
AcDbLine
 10
154.0037622708
 20
77.926240686
 30
0.0
 11
176.0037622708
 21
77.926240686
 31
0.0
  0
LINE
  5
3B1
330
1F
100
AcDbEntity
  8
0
  6
Continuous
 62
     7
370
    25
100
AcDbLine
 10
154.0037622708
 20
71.926240686
 30
0.0
 11
154.0037622708
 21
77.926240686
 31
0.0
  0
LINE
  5
3B2
330
1F
100
AcDbEntity
  8
0
  6
Continuous
 62
     7
370
    25
100
AcDbLine
 10
154.0037622708
 20
97.926240686
 30
0.0
 11
132.0037622708
 21
97.926240686
 31
0.0
  0
LINE
  5
3B3
330
1F
100
AcDbEntity
  8
0
  6
Continuous
 62
     7
370
    25
100
AcDbLine
 10
154.0037622708
 20
103.926240686
 30
0.0
 11
154.0037622708
 21
97.926240686
 31
0.0
  0
LINE
  5
3B4
330
1F
100
AcDbEntity
  8
0
  6
Continuous
 62
     7
370
    25
100
AcDbLine
 10
132.0037622708
 20
103.926240686
 30
0.0
 11
154.0037622708
 21
103.926240686
 31
0.0
  0
LINE
  5
3B5
330
1F
100
AcDbEntity
  8
0
  6
Continuous
 62
     7
370
    25
100
AcDbLine
 10
132.0037622708
 20
97.926240686
 30
0.0
 11
132.0037622708
 21
103.926240686
 31
0.0
  0
LINE
  5
3B6
330
1F
100
AcDbEntity
  8
0
  6
Continuous
 62
     7
370
    25
100
AcDbLine
 10
154.0037622708
 20
123.926240686
 30
0.0
 11
132.0037622708
 21
123.926240686
 31
0.0
  0
LINE
  5
3B7
330
1F
100
AcDbEntity
  8
0
  6
Continuous
 62
     7
370
    25
100
AcDbLine
 10
154.0037622708
 20
129.926240686
 30
0.0
 11
154.0037622708
 21
123.926240686
 31
0.0
  0
LINE
  5
3B8
330
1F
100
AcDbEntity
  8
0
  6
Continuous
 62
     7
370
    25
100
AcDbLine
 10
132.0037622708
 20
129.926240686
 30
0.0
 11
154.0037622708
 21
129.926240686
 31
0.0
  0
LINE
  5
3B9
330
1F
100
AcDbEntity
  8
0
  6
Continuous
 62
     7
370
    25
100
AcDbLine
 10
132.0037622708
 20
123.926240686
 30
0.0
 11
132.0037622708
 21
129.926240686
 31
0.0
  0
LINE
  5
3BA
330
1F
100
AcDbEntity
  8
0
  6
Continuous
 62
     7
370
    25
100
AcDbLine
 10
124.0037622708
 20
97.926240686
 30
0.0
 11
102.0037622708
 21
97.926240686
 31
0.0
  0
LINE
  5
3BB
330
1F
100
AcDbEntity
  8
0
  6
Continuous
 62
     7
370
    25
100
AcDbLine
 10
124.0037622708
 20
103.926240686
 30
0.0
 11
124.0037622708
 21
97.926240686
 31
0.0
  0
LINE
  5
3BC
330
1F
100
AcDbEntity
  8
0
  6
Continuous
 62
     7
370
    25
100
AcDbLine
 10
102.0037622708
 20
103.926240686
 30
0.0
 11
124.0037622708
 21
103.926240686
 31
0.0
  0
LINE
  5
3BD
330
1F
100
AcDbEntity
  8
0
  6
Continuous
 62
     7
370
    25
100
AcDbLine
 10
102.0037622708
 20
97.926240686
 30
0.0
 11
102.0037622708
 21
103.926240686
 31
0.0
  0
LINE
  5
3BE
330
1F
100
AcDbEntity
  8
0
  6
Continuous
 62
     7
370
    25
100
AcDbLine
 10
124.0037622708
 20
123.926240686
 30
0.0
 11
102.0037622708
 21
123.926240686
 31
0.0
  0
LINE
  5
3BF
330
1F
100
AcDbEntity
  8
0
  6
Continuous
 62
     7
370
    25
100
AcDbLine
 10
124.0037622708
 20
129.926240686
 30
0.0
 11
124.0037622708
 21
123.926240686
 31
0.0
  0
LINE
  5
3C0
330
1F
100
AcDbEntity
  8
0
  6
Continuous
 62
     7
370
    25
100
AcDbLine
 10
102.0037622708
 20
129.926240686
 30
0.0
 11
124.0037622708
 21
129.926240686
 31
0.0
  0
LINE
  5
3C1
330
1F
100
AcDbEntity
  8
0
  6
Continuous
 62
     7
370
    25
100
AcDbLine
 10
102.0037622708
 20
123.926240686
 30
0.0
 11
102.0037622708
 21
129.926240686
 31
0.0
  0
LINE
  5
3C2
330
1F
100
AcDbEntity
  8
0
  6
Continuous
 62
     7
370
    25
100
AcDbLine
 10
102.0037622708
 20
136.926240686
 30
0.0
 11
80.0037622708
 21
136.926240686
 31
0.0
  0
LINE
  5
3C3
330
1F
100
AcDbEntity
  8
0
  6
Continuous
 62
     7
370
    25
100
AcDbLine
 10
102.0037622708
 20
142.926240686
 30
0.0
 11
102.0037622708
 21
136.926240686
 31
0.0
  0
LINE
  5
3C4
330
1F
100
AcDbEntity
  8
0
  6
Continuous
 62
     7
370
    25
100
AcDbLine
 10
80.0037622708
 20
142.926240686
 30
0.0
 11
102.0037622708
 21
142.926240686
 31
0.0
  0
LINE
  5
3C5
330
1F
100
AcDbEntity
  8
0
  6
Continuous
 62
     7
370
    25
100
AcDbLine
 10
80.0037622708
 20
136.926240686
 30
0.0
 11
80.0037622708
 21
142.926240686
 31
0.0
  0
LINE
  5
3C6
330
1F
100
AcDbEntity
  8
0
  6
Continuous
 62
     7
370
    25
100
AcDbLine
 10
176.0037622708
 20
97.926240686
 30
0.0
 11
162.0037622708
 21
97.926240686
 31
0.0
  0
LINE
  5
3C7
330
1F
100
AcDbEntity
  8
0
  6
Continuous
 62
     7
370
    25
100
AcDbLine
 10
176.0037622708
 20
103.926240686
 30
0.0
 11
176.0037622708
 21
97.926240686
 31
0.0
  0
LINE
  5
3C8
330
1F
100
AcDbEntity
  8
0
  6
Continuous
 62
     7
370
    25
100
AcDbLine
 10
162.0037622708
 20
103.926240686
 30
0.0
 11
176.0037622708
 21
103.926240686
 31
0.0
  0
LINE
  5
3C9
330
1F
100
AcDbEntity
  8
0
  6
Continuous
 62
     7
370
    25
100
AcDbLine
 10
162.0037622708
 20
97.926240686
 30
0.0
 11
162.0037622708
 21
103.926240686
 31
0.0
  0
LINE
  5
3CA
330
1F
100
AcDbEntity
  8
0
  6
Continuous
 62
     7
370
    25
100
AcDbLine
 10
176.0037622708
 20
123.926240686
 30
0.0
 11
162.0037622708
 21
123.926240686
 31
0.0
  0
LINE
  5
3CB
330
1F
100
AcDbEntity
  8
0
  6
Continuous
 62
     7
370
    25
100
AcDbLine
 10
176.0037622708
 20
129.926240686
 30
0.0
 11
176.0037622708
 21
123.926240686
 31
0.0
  0
LINE
  5
3CC
330
1F
100
AcDbEntity
  8
0
  6
Continuous
 62
     7
370
    25
100
AcDbLine
 10
162.0037622708
 20
129.926240686
 30
0.0
 11
176.0037622708
 21
129.926240686
 31
0.0
  0
LINE
  5
3CD
330
1F
100
AcDbEntity
  8
0
  6
Continuous
 62
     7
370
    25
100
AcDbLine
 10
162.0037622708
 20
123.926240686
 30
0.0
 11
162.0037622708
 21
129.926240686
 31
0.0
  0
LINE
  5
3CE
330
1F
100
AcDbEntity
  8
0
  6
Continuous
 62
     7
370
    25
100
AcDbLine
 10
94.0037622708
 20
97.926240686
 30
0.0
 11
80.0037622708
 21
97.926240686
 31
0.0
  0
LINE
  5
3CF
330
1F
100
AcDbEntity
  8
0
  6
Continuous
 62
     7
370
    25
100
AcDbLine
 10
94.0037622708
 20
103.926240686
 30
0.0
 11
94.0037622708
 21
97.926240686
 31
0.0
  0
LINE
  5
3D0
330
1F
100
AcDbEntity
  8
0
  6
Continuous
 62
     7
370
    25
100
AcDbLine
 10
80.0037622708
 20
103.926240686
 30
0.0
 11
94.0037622708
 21
103.926240686
 31
0.0
  0
LINE
  5
3D1
330
1F
100
AcDbEntity
  8
0
  6
Continuous
 62
     7
370
    25
100
AcDbLine
 10
80.0037622708
 20
97.926240686
 30
0.0
 11
80.0037622708
 21
103.926240686
 31
0.0
  0
LINE
  5
3D2
330
1F
100
AcDbEntity
  8
0
  6
Continuous
 62
     7
370
    25
100
AcDbLine
 10
94.0037622708
 20
123.926240686
 30
0.0
 11
80.0037622708
 21
123.926240686
 31
0.0
  0
LINE
  5
3D3
330
1F
100
AcDbEntity
  8
0
  6
Continuous
 62
     7
370
    25
100
AcDbLine
 10
94.0037622708
 20
129.926240686
 30
0.0
 11
94.0037622708
 21
123.926240686
 31
0.0
  0
LINE
  5
3D4
330
1F
100
AcDbEntity
  8
0
  6
Continuous
 62
     7
370
    25
100
AcDbLine
 10
80.0037622708
 20
129.926240686
 30
0.0
 11
94.0037622708
 21
129.926240686
 31
0.0
  0
LINE
  5
3D5
330
1F
100
AcDbEntity
  8
0
  6
Continuous
 62
     7
370
    25
100
AcDbLine
 10
80.0037622708
 20
123.926240686
 30
0.0
 11
80.0037622708
 21
129.926240686
 31
0.0
  0
LINE
  5
3D6
330
1F
100
AcDbEntity
  8
0
  6
Continuous
 62
     7
370
    25
100
AcDbLine
 10
94.0037622708
 20
110.926240686
 30
0.0
 11
80.0037622708
 21
110.926240686
 31
0.0
  0
LINE
  5
3D7
330
1F
100
AcDbEntity
  8
0
  6
Continuous
 62
     7
370
    25
100
AcDbLine
 10
94.0037622708
 20
116.926240686
 30
0.0
 11
94.0037622708
 21
110.926240686
 31
0.0
  0
LINE
  5
3D8
330
1F
100
AcDbEntity
  8
0
  6
Continuous
 62
     7
370
    25
100
AcDbLine
 10
80.0037622708
 20
116.926240686
 30
0.0
 11
94.0037622708
 21
116.926240686
 31
0.0
  0
LINE
  5
3D9
330
1F
100
AcDbEntity
  8
0
  6
Continuous
 62
     7
370
    25
100
AcDbLine
 10
80.0037622708
 20
110.926240686
 30
0.0
 11
80.0037622708
 21
116.926240686
 31
0.0
  0
LINE
  5
3DA
330
1F
100
AcDbEntity
  8
0
  6
Continuous
 62
     7
370
    25
100
AcDbLine
 10
94.0037622708
 20
84.926240686
 30
0.0
 11
80.0037622708
 21
84.926240686
 31
0.0
  0
LINE
  5
3DB
330
1F
100
AcDbEntity
  8
0
  6
Continuous
 62
     7
370
    25
100
AcDbLine
 10
94.0037622708
 20
90.926240686
 30
0.0
 11
94.0037622708
 21
84.926240686
 31
0.0
  0
LINE
  5
3DC
330
1F
100
AcDbEntity
  8
0
  6
Continuous
 62
     7
370
    25
100
AcDbLine
 10
80.0037622708
 20
90.926240686
 30
0.0
 11
94.0037622708
 21
90.926240686
 31
0.0
  0
LINE
  5
3DD
330
1F
100
AcDbEntity
  8
0
  6
Continuous
 62
     7
370
    25
100
AcDbLine
 10
80.0037622708
 20
84.926240686
 30
0.0
 11
80.0037622708
 21
90.926240686
 31
0.0
  0
LINE
  5
3DE
330
1F
100
AcDbEntity
  8
0
  6
Continuous
 62
     7
370
    25
100
AcDbLine
 10
176.0037622708
 20
110.926240686
 30
0.0
 11
162.0037622708
 21
110.926240686
 31
0.0
  0
LINE
  5
3DF
330
1F
100
AcDbEntity
  8
0
  6
Continuous
 62
     7
370
    25
100
AcDbLine
 10
176.0037622708
 20
116.926240686
 30
0.0
 11
176.0037622708
 21
110.926240686
 31
0.0
  0
LINE
  5
3E0
330
1F
100
AcDbEntity
  8
0
  6
Continuous
 62
     7
370
    25
100
AcDbLine
 10
162.0037622708
 20
116.926240686
 30
0.0
 11
176.0037622708
 21
116.926240686
 31
0.0
  0
LINE
  5
3E1
330
1F
100
AcDbEntity
  8
0
  6
Continuous
 62
     7
370
    25
100
AcDbLine
 10
162.0037622708
 20
110.926240686
 30
0.0
 11
162.0037622708
 21
116.926240686
 31
0.0
  0
LINE
  5
3E2
330
1F
100
AcDbEntity
  8
0
  6
Continuous
 62
     7
370
    25
100
AcDbLine
 10
176.0037622708
 20
84.926240686
 30
0.0
 11
162.0037622708
 21
84.926240686
 31
0.0
  0
LINE
  5
3E3
330
1F
100
AcDbEntity
  8
0
  6
Continuous
 62
     7
370
    25
100
AcDbLine
 10
176.0037622708
 20
90.926240686
 30
0.0
 11
176.0037622708
 21
84.926240686
 31
0.0
  0
LINE
  5
3E4
330
1F
100
AcDbEntity
  8
0
  6
Continuous
 62
     7
370
    25
100
AcDbLine
 10
162.0037622708
 20
90.926240686
 30
0.0
 11
176.0037622708
 21
90.926240686
 31
0.0
  0
LINE
  5
3E5
330
1F
100
AcDbEntity
  8
0
  6
Continuous
 62
     7
370
    25
100
AcDbLine
 10
162.0037622708
 20
84.926240686
 30
0.0
 11
162.0037622708
 21
90.926240686
 31
0.0
  0
LINE
  5
3E6
330
1F
100
AcDbEntity
  8
0
  6
Continuous
 62
     7
370
    25
100
AcDbLine
 10
176.0037622708
 20
136.926240686
 30
0.0
 11
154.0037622708
 21
136.926240686
 31
0.0
  0
LINE
  5
3E7
330
1F
100
AcDbEntity
  8
0
  6
Continuous
 62
     7
370
    25
100
AcDbLine
 10
176.0037622708
 20
142.926240686
 30
0.0
 11
176.0037622708
 21
136.926240686
 31
0.0
  0
LINE
  5
3E8
330
1F
100
AcDbEntity
  8
0
  6
Continuous
 62
     7
370
    25
100
AcDbLine
 10
154.0037622708
 20
142.926240686
 30
0.0
 11
176.0037622708
 21
142.926240686
 31
0.0
  0
LINE
  5
3E9
330
1F
100
AcDbEntity
  8
0
  6
Continuous
 62
     7
370
    25
100
AcDbLine
 10
154.0037622708
 20
136.926240686
 30
0.0
 11
154.0037622708
 21
142.926240686
 31
0.0
  0
LINE
  5
3EA
330
1F
100
AcDbEntity
  8
0
  6
Continuous
 62
     7
370
    25
100
AcDbLine
 10
124.0037622708
 20
110.926240686
 30
0.0
 11
102.0037622708
 21
110.926240686
 31
0.0
  0
LINE
  5
3EB
330
1F
100
AcDbEntity
  8
0
  6
Continuous
 62
     7
370
    25
100
AcDbLine
 10
124.0037622708
 20
116.926240686
 30
0.0
 11
124.0037622708
 21
110.926240686
 31
0.0
  0
LINE
  5
3EC
330
1F
100
AcDbEntity
  8
0
  6
Continuous
 62
     7
370
    25
100
AcDbLine
 10
102.0037622708
 20
116.926240686
 30
0.0
 11
124.0037622708
 21
116.926240686
 31
0.0
  0
LINE
  5
3ED
330
1F
100
AcDbEntity
  8
0
  6
Continuous
 62
     7
370
    25
100
AcDbLine
 10
102.0037622708
 20
110.926240686
 30
0.0
 11
102.0037622708
 21
116.926240686
 31
0.0
  0
LINE
  5
3EE
330
1F
100
AcDbEntity
  8
0
  6
Continuous
 62
     7
370
    25
100
AcDbLine
 10
124.0037622708
 20
84.926240686
 30
0.0
 11
102.0037622708
 21
84.926240686
 31
0.0
  0
LINE
  5
3EF
330
1F
100
AcDbEntity
  8
0
  6
Continuous
 62
     7
370
    25
100
AcDbLine
 10
124.0037622708
 20
90.926240686
 30
0.0
 11
124.0037622708
 21
84.926240686
 31
0.0
  0
LINE
  5
3F0
330
1F
100
AcDbEntity
  8
0
  6
Continuous
 62
     7
370
    25
100
AcDbLine
 10
102.0037622708
 20
90.926240686
 30
0.0
 11
124.0037622708
 21
90.926240686
 31
0.0
  0
LINE
  5
3F1
330
1F
100
AcDbEntity
  8
0
  6
Continuous
 62
     7
370
    25
100
AcDbLine
 10
102.0037622708
 20
84.926240686
 30
0.0
 11
102.0037622708
 21
90.926240686
 31
0.0
  0
LINE
  5
3F2
330
1F
100
AcDbEntity
  8
0
  6
Continuous
 62
     7
370
    25
100
AcDbLine
 10
154.0037622708
 20
110.926240686
 30
0.0
 11
132.0037622708
 21
110.926240686
 31
0.0
  0
LINE
  5
3F3
330
1F
100
AcDbEntity
  8
0
  6
Continuous
 62
     7
370
    25
100
AcDbLine
 10
154.0037622708
 20
116.926240686
 30
0.0
 11
154.0037622708
 21
110.926240686
 31
0.0
  0
LINE
  5
3F4
330
1F
100
AcDbEntity
  8
0
  6
Continuous
 62
     7
370
    25
100
AcDbLine
 10
132.0037622708
 20
116.926240686
 30
0.0
 11
154.0037622708
 21
116.926240686
 31
0.0
  0
LINE
  5
3F5
330
1F
100
AcDbEntity
  8
0
  6
Continuous
 62
     7
370
    25
100
AcDbLine
 10
132.0037622708
 20
110.926240686
 30
0.0
 11
132.0037622708
 21
116.926240686
 31
0.0
  0
LINE
  5
3F6
330
1F
100
AcDbEntity
  8
0
  6
Continuous
 62
     7
370
    25
100
AcDbLine
 10
154.0037622708
 20
84.926240686
 30
0.0
 11
132.0037622708
 21
84.926240686
 31
0.0
  0
LINE
  5
3F7
330
1F
100
AcDbEntity
  8
0
  6
Continuous
 62
     7
370
    25
100
AcDbLine
 10
154.0037622708
 20
90.926240686
 30
0.0
 11
154.0037622708
 21
84.926240686
 31
0.0
  0
LINE
  5
3F8
330
1F
100
AcDbEntity
  8
0
  6
Continuous
 62
     7
370
    25
100
AcDbLine
 10
132.0037622708
 20
90.926240686
 30
0.0
 11
154.0037622708
 21
90.926240686
 31
0.0
  0
LINE
  5
3F9
330
1F
100
AcDbEntity
  8
0
  6
Continuous
 62
     7
370
    25
100
AcDbLine
 10
132.0037622708
 20
84.926240686
 30
0.0
 11
132.0037622708
 21
90.926240686
 31
0.0
  0
LINE
  5
3FA
330
1F
100
AcDbEntity
  8
0
  6
Continuous
 62
     7
370
    25
100
AcDbLine
 10
102.0037622708
 20
71.926240686
 30
0.0
 11
80.0037622708
 21
71.926240686
 31
0.0
  0
LINE
  5
3FB
330
1F
100
AcDbEntity
  8
0
  6
Continuous
 62
     7
370
    25
100
AcDbLine
 10
102.0037622708
 20
77.926240686
 30
0.0
 11
102.0037622708
 21
71.926240686
 31
0.0
  0
LINE
  5
3FC
330
1F
100
AcDbEntity
  8
0
  6
Continuous
 62
     7
370
    25
100
AcDbLine
 10
80.0037622708
 20
77.926240686
 30
0.0
 11
102.0037622708
 21
77.926240686
 31
0.0
  0
LINE
  5
3FD
330
1F
100
AcDbEntity
  8
0
  6
Continuous
 62
     7
370
    25
100
AcDbLine
 10
80.0037622708
 20
71.926240686
 30
0.0
 11
80.0037622708
 21
77.926240686
 31
0.0
  0
LINE
  5
3FE
330
1F
100
AcDbEntity
  8
0
  6
Continuous
 62
     7
370
    25
100
AcDbLine
 10
146.0037622708
 20
71.926240686
 30
0.0
 11
110.0037622708
 21
71.926240686
 31
0.0
  0
LINE
  5
3FF
330
1F
100
AcDbEntity
  8
0
  6
Continuous
 62
     7
370
    25
100
AcDbLine
 10
146.0037622708
 20
77.926240686
 30
0.0
 11
146.0037622708
 21
71.926240686
 31
0.0
  0
LINE
  5
400
330
1F
100
AcDbEntity
  8
0
  6
Continuous
 62
     7
370
    25
100
AcDbLine
 10
110.0037622708
 20
77.926240686
 30
0.0
 11
146.0037622708
 21
77.926240686
 31
0.0
  0
LINE
  5
401
330
1F
100
AcDbEntity
  8
0
  6
Continuous
 62
     7
370
    25
100
AcDbLine
 10
110.0037622708
 20
71.926240686
 30
0.0
 11
110.0037622708
 21
77.926240686
 31
0.0
  0
LINE
  5
402
330
1F
100
AcDbEntity
  8
0
  6
Continuous
 62
     7
370
    25
100
AcDbLine
 10
165.5037622708
 20
149.926240686
 30
0.0
 11
90.5037622708
 21
149.926240686
 31
0.0
  0
LINE
  5
403
330
1F
100
AcDbEntity
  8
0
  6
Continuous
 62
     7
370
    25
100
AcDbLine
 10
165.5037622708
 20
155.926240686
 30
0.0
 11
165.5037622708
 21
149.926240686
 31
0.0
  0
LINE
  5
404
330
1F
100
AcDbEntity
  8
0
  6
Continuous
 62
     7
370
    25
100
AcDbLine
 10
90.5037622708
 20
155.926240686
 30
0.0
 11
165.5037622708
 21
155.926240686
 31
0.0
  0
LINE
  5
405
330
1F
100
AcDbEntity
  8
0
  6
Continuous
 62
     7
370
    25
100
AcDbLine
 10
90.5037622708
 20
149.926240686
 30
0.0
 11
90.5037622708
 21
155.926240686
 31
0.0
  0
LINE
  5
406
330
1F
100
AcDbEntity
  8
0
  6
Continuous
 62
     7
370
    25
100
AcDbLine
 10
150.413669646
 20
58.3362925057
 30
0.0
 11
149.4755316021
 21
58.3362925042
 31
0.0
  0
ARC
  5
407
330
1F
100
AcDbEntity
  8
0
  6
Continuous
 62
     7
370
    25
100
AcDbCircle
 10
142.9087104527
 20
58.3031971756
 30
0.0
 40
7.505032164774007
100
AcDbArc
 50
0.2526609935
 51
53.5763818975
  0
ARC
  5
408
330
1F
100
AcDbEntity
  8
0
  6
Continuous
 62
     7
370
    25
100
AcDbCircle
 10
151.8208622708
 20
58.3032025042
 30
0.0
 40
7.504978447901711
100
AcDbArc
 50
126.4231308551
 51
179.7473778453
  0
LINE
  5
409
330
1F
100
AcDbEntity
  8
0
  6
Continuous
 62
     7
370
    25
100
AcDbLine
 10
145.2541256411
 20
58.3362925101
 30
0.0
 11
144.3159567714
 21
58.3362925101
 31
0.0
  0
ARC
  5
40A
330
1F
100
AcDbEntity
  8
0
  6
Continuous
 62
     7
370
    25
100
AcDbCircle
 10
151.8208622708
 20
58.3032025042
 30
0.0
 40
6.566819999999979
100
AcDbArc
 50
172.3057502547
 51
179.7112870907
  0
LINE
  5
40B
330
1F
100
AcDbEntity
  8
0
  6
Continuous
 62
     7
370
    25
100
AcDbLine
 10
149.4164916129
 20
59.1824125526
 30
0.0
 11
145.3131657042
 21
59.1824125526
 31
0.0
  0
ARC
  5
40C
330
1F
100
AcDbEntity
  8
0
  6
Continuous
 62
     7
370
    25
100
AcDbCircle
 10
142.9087104527
 20
58.3031971756
 30
0.0
 40
6.56690454545439
100
AcDbArc
 50
0.2887556327
 51
7.694197
  0
LINE
  5
40D
330
1F
100
AcDbEntity
  8
0
  6
Continuous
 62
     7
370
    25
100
AcDbLine
 10
157.8317546409
 20
60.370849074
 30
0.0
 11
158.6441977946
 21
59.9017841418
 31
0.0
  0
ARC
  5
40E
330
1F
100
AcDbEntity
  8
0
  6
Continuous
 62
     7
370
    25
100
AcDbCircle
 10
156.0037622708
 20
61.426240686
 30
0.0
 40
2.110783636363853
100
AcDbArc
 50
31.0558035077
 51
330.0000064643
  0
LINE
  5
40F
330
1F
100
AcDbEntity
  8
0
  6
Continuous
 62
     7
370
    25
100
AcDbLine
 10
158.6245349981
 20
62.9842579587
 30
0.0
 11
157.8119973053
 21
62.5151362822
 31
0.0
  0
ARC
  5
410
330
1F
100
AcDbEntity
  8
0
  6
Continuous
 62
     7
370
    25
100
AcDbCircle
 10
156.0037622708
 20
61.426240686
 30
0.0
 40
3.048912512705042
100
AcDbArc
 50
30.7309645849
 51
329.9999937536
  0
CIRCLE
  5
411
330
1F
100
AcDbEntity
  8
0
  6
Continuous
 62
     7
370
    25
100
AcDbCircle
 10
164.6426904527
 20
61.426240686
 30
0.0
 40
3.048913636363579
  0
CIRCLE
  5
412
330
1F
100
AcDbEntity
  8
0
  6
Continuous
 62
     7
370
    25
100
AcDbCircle
 10
164.6426904527
 20
61.426240686
 30
0.0
 40
2.110786363636407
  0
LINE
  5
413
330
1F
100
AcDbEntity
  8
0
  6
Continuous
 62
     7
370
    25
100
AcDbLine
 10
145.5104980419
 20
60.1205397769
 30
0.0
 11
149.2191384238
 21
60.1205397769
 31
0.0
  0
ARC
  5
414
330
1F
100
AcDbEntity
  8
0
  6
Continuous
 62
     7
370
    25
100
AcDbCircle
 10
151.8208622708
 20
58.3032025042
 30
0.0
 40
6.566841818181522
100
AcDbArc
 50
132.7316508189
 51
163.9339987655
  0
ARC
  5
415
330
1F
100
AcDbEntity
  8
0
  6
Continuous
 62
     7
370
    25
100
AcDbCircle
 10
142.9087104527
 20
58.3031971756
 30
0.0
 40
6.56690454545517
100
AcDbArc
 50
16.065892
 51
47.2678252615
  0
LINE
  5
416
330
1F
100
AcDbEntity
  8
0
  6
Continuous
 62
     7
370
    25
100
AcDbLine
 10
184.2541067142
 20
163.6765851294
 30
0.0
 11
185.053137377
 21
164.4756157921
 31
0.0
  0
LINE
  5
417
330
1F
100
AcDbEntity
  8
0
  6
Continuous
 62
     7
370
    25
100
AcDbLine
 10
71.7534178275
 20
51.1758962426
 30
0.0
 11
70.9543871647
 21
50.3768655799
 31
0.0
  0
DIMENSION
  5
418
330
1F
100
AcDbEntity
  8
0
  6
Continuous
 62
     7
370
    18
100
AcDbDimension
  2
_D
 10
195.5037622708
 20
181.926240686
 30
0.0
 11
128.0037622708
 21
181.926240686
 31
0.0
 70
   160
  1
{\fGDT;o}<>
 71
     2
 42
-1.0
  3
SLDDIMSTYLE0
100
AcDbAlignedDimension
 13
60.5037622708
 23
174.126240686
 33
0.0
 14
195.5037622708
 24
174.126240686
 34
0.0
100
AcDbRotatedDimension
  0
LINE
  5
42B
330
1F
100
AcDbEntity
  8
0
  6
CENTER
 62
     7
370
    25
100
AcDbLine
 10
201.1492119194
 20
113.8001766885
 30
0.0
 11
55.2430772957
 21
113.8001766885
 31
0.0
  0
LINE
  5
42C
330
1F
100
AcDbEntity
  8
0
  6
Continuous
 62
     7
370
    25
100
AcDbLine
 10
199.1492119194
 20
103.8001766885
 30
0.0
 11
199.1492119194
 21
113.8001766885
 31
0.0
  0
SOLID
  5
42D
330
1F
100
AcDbEntity
  8
0
  6
Continuous
 62
     7
370
    25
100
AcDbTrace
 10
199.1492119194
 20
113.8001766885
 30
0.0
 11
198.1492119194
 21
109.8001766885
 31
0.0
 12
200.1492119194
 22
109.8001766885
 32
0.0
 13
200.1492119194
 23
109.8001766885
 33
0.0
  0
LINE
  5
42E
330
1F
100
AcDbEntity
  8
0
  6
Continuous
 62
     7
370
    25
100
AcDbLine
 10
57.2430772957
 20
103.8001766885
 30
0.0
 11
57.2430772957
 21
113.8001766885
 31
0.0
  0
SOLID
  5
42F
330
1F
100
AcDbEntity
  8
0
  6
Continuous
 62
     7
370
    25
100
AcDbTrace
 10
57.2430772957
 20
113.8001766885
 30
0.0
 11
56.2430772957
 21
109.8001766885
 31
0.0
 12
58.2430772957
 22
109.8001766885
 32
0.0
 13
58.2430772957
 23
109.8001766885
 33
0.0
  0
MTEXT
  5
430
330
1F
100
AcDbEntity
  8
0
  6
Continuous
 62
     7
100
AcDbMText
 10
197.4041080682
 20
118.6133731634
 30
0.0
 40
3.5956461589
 41
0.0
 71
     1
 72
     1
  1
A
  7
SLDTEXTSTYLE0
 73
     1
 44
1.0
  0
MTEXT
  5
431
330
1F
100
AcDbEntity
  8
0
  6
Continuous
 62
     7
100
AcDbMText
 10
55.9001267965
 20
118.5131663344
 30
0.0
 40
3.5956461589
 41
0.0
 71
     1
 72
     1
  1
A
  7
SLDTEXTSTYLE0
 73
     1
 44
1.0
  0
ARC
  5
432
330
1F
100
AcDbEntity
  8
0
  6
Continuous
 62
     7
370
    25
100
AcDbCircle
 10
192.0275085858
 20
238.0483537524
 30
0.0
 40
0.4000000000000057
100
AcDbArc
 50
0.0
 51
90.0
  0
LINE
  5
433
330
1F
100
AcDbEntity
  8
0
  6
Continuous
 62
     7
370
    25
100
AcDbLine
 10
185.5775085858
 20
236.8483537524
 30
0.0
 11
185.5775085858
 21
235.4483537524
 31
0.0
  0
LINE
  5
434
330
1F
100
AcDbEntity
  8
0
  6
Continuous
 62
     7
370
    25
100
AcDbLine
 10
185.6466997829
 20
237.1483537524
 30
0.0
 11
185.5775085858
 21
236.8483537524
 31
0.0
  0
LINE
  5
435
330
1F
100
AcDbEntity
  8
0
  6
Continuous
 62
     7
370
    25
100
AcDbLine
 10
192.4275085858
 20
238.0483537524
 30
0.0
 11
187.5775085858
 21
238.0483537524
 31
0.0
  0
LINE
  5
436
330
1F
100
AcDbEntity
  8
0
  6
Continuous
 62
     7
370
    25
100
AcDbLine
 10
192.4275085858
 20
237.1483537524
 30
0.0
 11
192.4275085858
 21
238.0483537524
 31
0.0
  0
LINE
  5
437
330
1F
100
AcDbEntity
  8
0
  6
Continuous
 62
     7
370
    25
100
AcDbLine
 10
192.4275085858
 20
237.1483537524
 30
0.0
 11
184.6429366174
 21
237.1483537524
 31
0.0
  0
LINE
  5
438
330
1F
100
AcDbEntity
  8
0
  6
Continuous
 62
     7
370
    25
100
AcDbLine
 10
189.5775085858
 20
236.8483537524
 30
0.0
 11
185.5775085858
 21
236.8483537524
 31
0.0
  0
LINE
  5
439
330
1F
100
AcDbEntity
  8
0
  6
Continuous
 62
     7
370
    25
100
AcDbLine
 10
189.5775085858
 20
235.4483537524
 30
0.0
 11
189.5775085858
 21
236.8483537524
 31
0.0
  0
LINE
  5
43A
330
1F
100
AcDbEntity
  8
0
  6
Continuous
 62
     7
370
    25
100
AcDbLine
 10
189.5775085858
 20
235.4483537524
 30
0.0
 11
185.5775085858
 21
235.4483537524
 31
0.0
  0
LINE
  5
43B
330
1F
100
AcDbEntity
  8
0
  6
Continuous
 62
     7
370
    25
100
AcDbLine
 10
189.5775085858
 20
236.8483537524
 30
0.0
 11
189.5083173887
 21
237.1483537524
 31
0.0
  0
ARC
  5
43C
330
1F
100
AcDbEntity
  8
0
  6
Continuous
 62
     7
370
    25
100
AcDbCircle
 10
75.1785887913
 20
240.1483537524
 30
0.0
 40
2.0
100
AcDbArc
 50
252.6681109597
 51
270.0
  0
LINE
  5
43D
330
1F
100
AcDbEntity
  8
0
  6
Continuous
 62
     7
370
    25
100
AcDbLine
 10
75.1785887913
 20
238.1483537524
 30
0.0
 11
80.0037622708
 21
238.1483537524
 31
0.0
  0
LINE
  5
43E
330
1F
100
AcDbEntity
  8
0
  6
Continuous
 62
     7
370
    25
100
AcDbLine
 10
80.0037622708
 20
236.1483537524
 30
0.0
 11
80.0037622708
 21
238.1483537524
 31
0.0
  0
LINE
  5
43F
330
1F
100
AcDbEntity
  8
0
  6
Continuous
 62
     7
370
    25
100
AcDbLine
 10
75.1785887913
 20
236.1483537524
 30
0.0
 11
80.0037622708
 21
236.1483537524
 31
0.0
  0
ARC
  5
440
330
1F
100
AcDbEntity
  8
0
  6
Continuous
 62
     7
370
    25
100
AcDbCircle
 10
75.1785887913
 20
240.1483537524
 30
0.0
 40
4.0
100
AcDbArc
 50
252.6681109597
 51
270.0
  0
LINE
  5
441
330
1F
100
AcDbEntity
  8
0
  6
Continuous
 62
     7
370
    25
100
AcDbLine
 10
60.5037622708
 20
238.4483537524
 30
0.0
 11
60.5037622708
 21
240.4483537524
 31
0.0
  0
LINE
  5
442
330
1F
100
AcDbEntity
  8
0
  6
Continuous
 62
     7
370
    25
100
AcDbLine
 10
74.5827763553
 20
238.2391634682
 30
0.0
 11
68.085734102
 21
240.2667343207
 31
0.0
  0
ARC
  5
443
330
1F
100
AcDbEntity
  8
0
  6
Continuous
 62
     7
370
    25
100
AcDbCircle
 10
66.89410923
 20
236.4483537524
 30
0.0
 40
4.0
100
AcDbArc
 50
72.6681109597
 51
90.0
  0
LINE
  5
444
330
1F
100
AcDbEntity
  8
0
  6
Continuous
 62
     7
370
    25
100
AcDbLine
 10
60.5037622708
 20
240.4483537524
 30
0.0
 11
66.89410923
 21
240.4483537524
 31
0.0
  0
LINE
  5
445
330
1F
100
AcDbEntity
  8
0
  6
Continuous
 62
     7
370
    25
100
AcDbLine
 10
73.9869639192
 20
236.3299731841
 30
0.0
 11
67.489921666
 21
238.3575440365
 31
0.0
  0
ARC
  5
446
330
1F
100
AcDbEntity
  8
0
  6
Continuous
 62
     7
370
    25
100
AcDbCircle
 10
66.89410923
 20
236.4483537524
 30
0.0
 40
2.0
100
AcDbArc
 50
72.6681109597
 51
90.0
  0
LINE
  5
447
330
1F
100
AcDbEntity
  8
0
  6
Continuous
 62
     7
370
    25
100
AcDbLine
 10
60.5037622708
 20
238.4483537524
 30
0.0
 11
66.89410923
 21
238.4483537524
 31
0.0
  0
LINE
  5
448
330
1F
100
AcDbEntity
  8
0
  6
Continuous
 62
     7
370
    25
100
AcDbLine
 10
102.0037622708
 20
236.1483537524
 30
0.0
 11
102.0037622708
 21
238.1483537524
 31
0.0
  0
LINE
  5
449
330
1F
100
AcDbEntity
  8
0
  6
Continuous
 62
     7
370
    25
100
AcDbLine
 10
94.0037622708
 20
238.1483537524
 30
0.0
 11
94.0037622708
 21
236.1483537524
 31
0.0
  0
LINE
  5
44A
330
1F
100
AcDbEntity
  8
0
  6
Continuous
 62
     7
370
    25
100
AcDbLine
 10
94.0037622708
 20
238.1483537524
 30
0.0
 11
102.0037622708
 21
238.1483537524
 31
0.0
  0
LINE
  5
44B
330
1F
100
AcDbEntity
  8
0
  6
Continuous
 62
     7
370
    25
100
AcDbLine
 10
94.0037622708
 20
236.1483537524
 30
0.0
 11
102.0037622708
 21
236.1483537524
 31
0.0
  0
LINE
  5
44C
330
1F
100
AcDbEntity
  8
0
  6
Continuous
 62
     7
370
    25
100
AcDbLine
 10
132.0037622708
 20
236.1483537524
 30
0.0
 11
132.0037622708
 21
238.1483537524
 31
0.0
  0
LINE
  5
44D
330
1F
100
AcDbEntity
  8
0
  6
Continuous
 62
     7
370
    25
100
AcDbLine
 10
124.0037622708
 20
238.1483537524
 30
0.0
 11
124.0037622708
 21
236.1483537524
 31
0.0
  0
LINE
  5
44E
330
1F
100
AcDbEntity
  8
0
  6
Continuous
 62
     7
370
    25
100
AcDbLine
 10
124.0037622708
 20
238.1483537524
 30
0.0
 11
132.0037622708
 21
238.1483537524
 31
0.0
  0
LINE
  5
44F
330
1F
100
AcDbEntity
  8
0
  6
Continuous
 62
     7
370
    25
100
AcDbLine
 10
124.0037622708
 20
236.1483537524
 30
0.0
 11
132.0037622708
 21
236.1483537524
 31
0.0
  0
ARC
  5
450
330
1F
100
AcDbEntity
  8
0
  6
Continuous
 62
     7
370
    25
100
AcDbCircle
 10
180.8289357504
 20
240.1483537524
 30
0.0
 40
4.0
100
AcDbArc
 50
270.0
 51
287.3318890403
  0
LINE
  5
451
330
1F
100
AcDbEntity
  8
0
  6
Continuous
 62
     7
370
    25
100
AcDbLine
 10
176.0037622708
 20
238.1483537524
 30
0.0
 11
176.0037622708
 21
236.1483537524
 31
0.0
  0
LINE
  5
452
330
1F
100
AcDbEntity
  8
0
  6
Continuous
 62
     7
370
    25
100
AcDbLine
 10
195.5037622708
 20
240.4483537524
 30
0.0
 11
195.5037622708
 21
238.4483537524
 31
0.0
  0
ARC
  5
453
330
1F
100
AcDbEntity
  8
0
  6
Continuous
 62
     7
370
    25
100
AcDbCircle
 10
180.8289357504
 20
240.1483537524
 30
0.0
 40
2.000000000000016
100
AcDbArc
 50
270.0
 51
287.3318890403
  0
LINE
  5
454
330
1F
100
AcDbEntity
  8
0
  6
Continuous
 62
     7
370
    25
100
AcDbLine
 10
176.0037622708
 20
238.1483537524
 30
0.0
 11
180.8289357504
 21
238.1483537524
 31
0.0
  0
LINE
  5
455
330
1F
100
AcDbEntity
  8
0
  6
Continuous
 62
     7
370
    25
100
AcDbLine
 10
176.0037622708
 20
236.1483537524
 30
0.0
 11
180.8289357504
 21
236.1483537524
 31
0.0
  0
LINE
  5
456
330
1F
100
AcDbEntity
  8
0
  6
Continuous
 62
     7
370
    25
100
AcDbLine
 10
187.9217904397
 20
240.2667343207
 30
0.0
 11
181.4247481864
 21
238.2391634682
 31
0.0
  0
ARC
  5
457
330
1F
100
AcDbEntity
  8
0
  6
Continuous
 62
     7
370
    25
100
AcDbCircle
 10
189.1134153117
 20
236.4483537524
 30
0.0
 40
4.0
100
AcDbArc
 50
90.0
 51
107.3318890403
  0
ARC
  5
458
330
1F
100
AcDbEntity
  8
0
  6
Continuous
 62
     7
370
    25
100
AcDbCircle
 10
189.1134153117
 20
236.4483537524
 30
0.0
 40
2.0
100
AcDbArc
 50
90.0
 51
107.3318890403
  0
LINE
  5
459
330
1F
100
AcDbEntity
  8
0
  6
Continuous
 62
     7
370
    25
100
AcDbLine
 10
188.5176028757
 20
238.3575440365
 30
0.0
 11
182.0205606225
 21
236.3299731841
 31
0.0
  0
LINE
  5
45A
330
1F
100
AcDbEntity
  8
0
  6
Continuous
 62
     7
370
    25
100
AcDbLine
 10
189.1134153117
 20
240.4483537524
 30
0.0
 11
195.5037622708
 21
240.4483537524
 31
0.0
  0
LINE
  5
45B
330
1F
100
AcDbEntity
  8
0
  6
Continuous
 62
     7
370
    25
100
AcDbLine
 10
189.1134153117
 20
238.4483537524
 30
0.0
 11
195.5037622708
 21
238.4483537524
 31
0.0
  0
LINE
  5
45C
330
1F
100
AcDbEntity
  8
0
  6
Continuous
 62
     7
370
    25
100
AcDbLine
 10
162.0037622708
 20
236.1483537524
 30
0.0
 11
162.0037622708
 21
238.1483537524
 31
0.0
  0
LINE
  5
45D
330
1F
100
AcDbEntity
  8
0
  6
Continuous
 62
     7
370
    25
100
AcDbLine
 10
154.0037622708
 20
238.1483537524
 30
0.0
 11
154.0037622708
 21
236.1483537524
 31
0.0
  0
LINE
  5
45E
330
1F
100
AcDbEntity
  8
0
  6
Continuous
 62
     7
370
    25
100
AcDbLine
 10
154.0037622708
 20
238.1483537524
 30
0.0
 11
162.0037622708
 21
238.1483537524
 31
0.0
  0
LINE
  5
45F
330
1F
100
AcDbEntity
  8
0
  6
Continuous
 62
     7
370
    25
100
AcDbLine
 10
154.0037622708
 20
236.1483537524
 30
0.0
 11
162.0037622708
 21
236.1483537524
 31
0.0
  0
LINE
  5
460
330
1F
100
AcDbEntity
  8
0
  6
Continuous
 62
     7
370
    25
100
AcDbLine
 10
80.0037622708
 20
238.1483537524
 30
0.0
 11
94.0037622708
 21
238.1483537524
 31
0.0
  0
LINE
  5
461
330
1F
100
AcDbEntity
  8
0
  6
Continuous
 62
     7
370
    25
100
AcDbLine
 10
94.0037622708
 20
236.1483537524
 30
0.0
 11
80.0037622708
 21
236.1483537524
 31
0.0
  0
LINE
  5
462
330
1F
100
AcDbEntity
  8
0
  6
Continuous
 62
     7
370
    25
100
AcDbLine
 10
102.0037622708
 20
238.1483537524
 30
0.0
 11
124.0037622708
 21
238.1483537524
 31
0.0
  0
LINE
  5
463
330
1F
100
AcDbEntity
  8
0
  6
Continuous
 62
     7
370
    25
100
AcDbLine
 10
124.0037622708
 20
236.1483537524
 30
0.0
 11
102.0037622708
 21
236.1483537524
 31
0.0
  0
LINE
  5
464
330
1F
100
AcDbEntity
  8
0
  6
Continuous
 62
     7
370
    25
100
AcDbLine
 10
132.0037622708
 20
238.1483537524
 30
0.0
 11
154.0037622708
 21
238.1483537524
 31
0.0
  0
LINE
  5
465
330
1F
100
AcDbEntity
  8
0
  6
Continuous
 62
     7
370
    25
100
AcDbLine
 10
154.0037622708
 20
236.1483537524
 30
0.0
 11
132.0037622708
 21
236.1483537524
 31
0.0
  0
LINE
  5
466
330
1F
100
AcDbEntity
  8
0
  6
Continuous
 62
     7
370
    25
100
AcDbLine
 10
162.0037622708
 20
238.1483537524
 30
0.0
 11
176.0037622708
 21
238.1483537524
 31
0.0
  0
LINE
  5
467
330
1F
100
AcDbEntity
  8
0
  6
Continuous
 62
     7
370
    25
100
AcDbLine
 10
176.0037622708
 20
236.1483537524
 30
0.0
 11
162.0037622708
 21
236.1483537524
 31
0.0
  0
LINE
  5
468
330
1F
100
AcDbEntity
  8
0
  6
Continuous
 62
     7
370
    25
100
AcDbLine
 10
74.6901796525
 20
238.2714112849
 30
0.0
 11
68.5031370627
 21
240.2022386874
 31
0.0
  0
ARC
  5
469
330
1F
100
AcDbEntity
  8
0
  6
Continuous
 62
     7
370
    25
100
AcDbCircle
 10
74.6043775198
 20
238.3621999738
 30
0.0
 40
0.1249183413744834
100
AcDbArc
 50
260.0422296668
 51
313.3825165971
  0
SPLINE
  5
46A
330
1F
100
AcDbEntity
  8
0
  6
Continuous
 62
     7
370
    25
100
AcDbSpline
210
0.0
220
0.0
230
1.0
 70
     8
 71
     3
 72
    13
 73
     9
 74
     0
 42
0.00000001
 43
0.00000001
 40
0.0
 40
0.0
 40
0.0
 40
0.0
 40
0.1008318217421886
 40
0.1944569794367257
 40
0.2893450897097073
 40
0.3936585894563621
 40
0.6520969811805587
 40
1.0
 40
1.0
 40
1.0
 40
1.0
 10
68.08573410202142
 20
240.2667343206507
 30
0.0
 10
68.08001548021711
 20
240.2686949663405
 30
0.0
 10
68.06898695863143
 20
240.2724761262162
 30
0.0
 10
68.07525782519707
 20
240.2738176552697
 30
0.0
 10
68.10101531204621
 20
240.2712004960732
 30
0.0
 10
68.16602081139037
 20
240.2617069529055
 30
0.0
 10
68.3022658402084
 20
240.2386306153715
 30
0.0
 10
68.42990246730818
 20
240.2155066313298
 30
0.0
 10
68.50313706271562
 20
240.2022386873707
 30
0.0
  0
ARC
  5
46B
330
1F
100
AcDbEntity
  8
0
  6
Continuous
 62
     7
370
    25
100
AcDbCircle
 10
181.4031470219
 20
238.3621999738
 30
0.0
 40
0.1249183413745139
100
AcDbArc
 50
226.6174834029
 51
279.9577703332
  0
LINE
  5
46C
330
1F
100
AcDbEntity
  8
0
  6
Continuous
 62
     7
370
    25
100
AcDbLine
 10
187.504387479
 20
240.2022386874
 30
0.0
 11
181.3173448892
 21
238.2714112849
 31
0.0
  0
SPLINE
  5
46D
330
1F
100
AcDbEntity
  8
0
  6
Continuous
 62
     7
370
    25
100
AcDbSpline
210
0.0
220
0.0
230
1.0
 70
     8
 71
     3
 72
    13
 73
     9
 74
     0
 42
0.00000001
 43
0.00000001
 40
0.0
 40
0.0
 40
0.0
 40
0.0
 40
0.3479030188194319
 40
0.6063414105435537
 40
0.7106549102902286
 40
0.8055430205632157
 40
0.8991681782577919
 40
0.9999999999999999
 40
0.9999999999999999
 40
0.9999999999999999
 40
0.9999999999999999
 10
187.5043874789756
 20
240.2022386873707
 30
0.0
 10
187.577622074383
 20
240.2155066313298
 30
0.0
 10
187.7052587014828
 20
240.2386306153715
 30
0.0
 10
187.8415037303009
 20
240.2617069529055
 30
0.0
 10
187.906509229645
 20
240.2712004960732
 30
0.0
 10
187.9322667164942
 20
240.2738176552697
 30
0.0
 10
187.9385375830598
 20
240.2724761262162
 30
0.0
 10
187.9275090614742
 20
240.2686949663405
 30
0.0
 10
187.9217904396698
 20
240.2667343206507
 30
0.0
  0
ARC
  5
46E
330
1F
100
AcDbEntity
  8
0
  6
Continuous
 62
     7
370
    25
100
AcDbCircle
 10
75.1845985303
 20
239.2029704865
 30
0.0
 40
1.054633857274985
100
AcDbArc
 50
242.0431685493
 51
269.6735032322
  0
LINE
  5
46F
330
1F
100
AcDbEntity
  8
0
  6
Continuous
 62
     7
370
    25
100
AcDbLine
 10
83.6172558689
 20
238.2714112849
 30
0.0
 11
74.6901796525
 21
238.2714112849
 31
0.0
  0
ARC
  5
470
330
1F
100
AcDbEntity
  8
0
  6
Continuous
 62
     7
370
    25
100
AcDbCircle
 10
84.1116747467
 20
239.2029704865
 30
0.0
 40
1.05463385727527
100
AcDbArc
 50
242.0431685493
 51
269.6735032322
  0
ARC
  5
471
330
1F
100
AcDbEntity
  8
0
  6
Continuous
 62
     7
370
    25
100
AcDbCircle
 10
171.8958497949
 20
239.2029704865
 30
0.0
 40
1.054633857274652
100
AcDbArc
 50
270.3264967678
 51
297.9568314507
  0
LINE
  5
472
330
1F
100
AcDbEntity
  8
0
  6
Continuous
 62
     7
370
    25
100
AcDbLine
 10
181.3173448892
 20
238.2714112849
 30
0.0
 11
172.3902686727
 21
238.2714112849
 31
0.0
  0
ARC
  5
473
330
1F
100
AcDbEntity
  8
0
  6
Continuous
 62
     7
370
    25
100
AcDbCircle
 10
180.8229260114
 20
239.2029704865
 30
0.0
 40
1.054633857274904
100
AcDbArc
 50
270.3264967678
 51
297.9568314507
  0
LINE
  5
474
330
1F
100
AcDbEntity
  8
0
  6
Continuous
 62
     7
370
    25
100
AcDbLine
 10
172.3902686727
 20
238.2714112849
 30
0.0
 11
173.6233410265
 21
240.2022386874
 31
0.0
  0
LINE
  5
475
330
1F
100
AcDbEntity
  8
0
  6
Continuous
 62
     7
370
    25
100
AcDbLine
 10
173.6233410265
 20
240.2022386874
 30
0.0
 11
187.504387479
 21
240.2022386874
 31
0.0
  0
LINE
  5
476
330
1F
100
AcDbEntity
  8
0
  6
Continuous
 62
     7
370
    25
100
AcDbLine
 10
82.3841835152
 20
240.2022386874
 30
0.0
 11
83.6172558689
 21
238.2714112849
 31
0.0
  0
LINE
  5
477
330
1F
100
AcDbEntity
  8
0
  6
Continuous
 62
     7
370
    25
100
AcDbLine
 10
68.5031370627
 20
240.2022386874
 30
0.0
 11
82.3841835152
 21
240.2022386874
 31
0.0
  0
SPLINE
  5
478
330
1F
100
AcDbEntity
  8
0
  6
Continuous
 62
     7
370
    25
100
AcDbSpline
210
0.0
220
0.0
230
1.0
 70
     8
 71
     3
 72
     9
 73
     5
 74
     0
 42
0.00000001
 43
0.00000001
 40
0.0
 40
0.0
 40
0.0
 40
0.0
 40
0.4999999999999943
 40
1.0
 40
1.0
 40
1.0
 40
1.0
 10
188.4812057565246
 20
240.448353752361
 30
0.0
 10
188.3145573527286
 20
240.4378586350367
 30
0.0
 10
187.9812605451364
 20
240.4168684003882
 30
0.0
 10
187.663345167696
 20
240.2737819250432
 30
0.0
 10
187.5043874789757
 20
240.2022386873707
 30
0.0
  0
SPLINE
  5
479
330
1F
100
AcDbEntity
  8
0
  6
Continuous
 62
     7
370
    25
100
AcDbSpline
210
0.0
220
0.0
230
1.0
 70
     8
 71
     3
 72
     9
 73
     5
 74
     0
 42
0.00000001
 43
0.00000001
 40
0.0
 40
0.0
 40
0.0
 40
0.0
 40
0.5000000000000295
 40
1.0
 40
1.0
 40
1.0
 40
1.0
 10
67.52631878516662
 20
240.448353752361
 30
0.0
 10
67.69296718896268
 20
240.4378586350367
 30
0.0
 10
68.02626399655483
 20
240.4168684003882
 30
0.0
 10
68.34417937399523
 20
240.2737819250432
 30
0.0
 10
68.50313706271542
 20
240.2022386873707
 30
0.0
  0
SPLINE
  5
47A
330
1F
100
AcDbEntity
  8
0
  6
Continuous
 62
     7
370
    25
100
AcDbSpline
210
0.0
220
0.0
230
1.0
 70
     8
 71
     3
 72
     9
 73
     5
 74
     0
 42
0.00000001
 43
0.00000001
 40
0.0
 40
0.0
 40
0.0
 40
0.0
 40
0.5000000000000048
 40
0.9999999999999999
 40
0.9999999999999999
 40
0.9999999999999999
 40
0.9999999999999999
 10
174.6001593040792
 20
240.448353752361
 30
0.0
 10
174.4335109002832
 20
240.4378586350367
 30
0.0
 10
174.100214092691
 20
240.4168684003881
 30
0.0
 10
173.7822987152506
 20
240.2737819250432
 30
0.0
 10
173.6233410265303
 20
240.2022386873707
 30
0.0
  0
LINE
  5
47B
330
1F
100
AcDbEntity
  8
0
  6
Continuous
 62
     7
370
    25
100
AcDbLine
 10
188.4812057565
 20
240.4483537524
 30
0.0
 11
174.6001593041
 21
240.4483537524
 31
0.0
  0
SPLINE
  5
47C
330
1F
100
AcDbEntity
  8
0
  6
Continuous
 62
     7
370
    25
100
AcDbSpline
210
0.0
220
0.0
230
1.0
 70
     8
 71
     3
 72
     9
 73
     5
 74
     0
 42
0.00000001
 43
0.00000001
 40
0.0
 40
0.0
 40
0.0
 40
0.0
 40
0.5000000000000046
 40
1.0
 40
1.0
 40
1.0
 40
1.0
 10
81.40736523761213
 20
240.448353752361
 30
0.0
 10
81.57401364140819
 20
240.4378586350367
 30
0.0
 10
81.9073104490003
 20
240.4168684003882
 30
0.0
 10
82.2252258264407
 20
240.2737819250432
 30
0.0
 10
82.38418351516091
 20
240.2022386873707
 30
0.0
  0
LINE
  5
47D
330
1F
100
AcDbEntity
  8
0
  6
Continuous
 62
     7
370
    25
100
AcDbLine
 10
81.4073652376
 20
240.4483537524
 30
0.0
 11
67.5263187852
 21
240.4483537524
 31
0.0
  0
ARC
  5
47E
330
1F
100
AcDbEntity
  8
0
  6
Continuous
 62
     7
370
    25
100
AcDbCircle
 10
172.0161436172
 20
240.2229974226
 30
0.0
 40
1.987123048548586
100
AcDbArc
 50
266.7029667398
 51
280.8521165114
  0
LINE
  5
47F
330
1F
100
AcDbEntity
  8
0
  6
Continuous
 62
     7
370
    25
100
AcDbLine
 10
171.901859534
 20
238.1483537524
 30
0.0
 11
171.901859534
 21
238.2391634682
 31
0.0
  0
LINE
  5
480
330
1F
100
AcDbEntity
  8
0
  6
Continuous
 62
     7
370
    25
100
AcDbLine
 10
84.1056650077
 20
238.2391634682
 30
0.0
 11
84.1056650077
 21
238.1483537524
 31
0.0
  0
LINE
  5
481
330
1F
100
AcDbEntity
  8
0
  6
Continuous
 62
     7
370
    25
100
AcDbLine
 10
171.901859534
 20
238.2391634682
 30
0.0
 11
84.1056650077
 21
238.2391634682
 31
0.0
  0
ARC
  5
482
330
1F
100
AcDbEntity
  8
0
  6
Continuous
 62
     7
370
    25
100
AcDbCircle
 10
83.9913809245
 20
240.2229974226
 30
0.0
 40
1.987123048551239
100
AcDbArc
 50
259.1478834886
 51
273.2970332602
  0
LINE
  5
483
330
1F
100
AcDbEntity
  8
0
  6
Continuous
 62
     7
370
    25
100
AcDbLine
 10
84.1056650077
 20
238.2391634682
 30
0.0
 11
82.8108099833
 21
240.2667343207
 31
0.0
  0
SPLINE
  5
484
330
1F
100
AcDbEntity
  8
0
  6
Continuous
 62
     7
370
    25
100
AcDbSpline
210
0.0
220
0.0
230
1.0
 70
     8
 71
     3
 72
    13
 73
     9
 74
     0
 42
0.00000001
 43
0.00000001
 40
0.0
 40
0.0
 40
0.0
 40
0.0
 40
0.3479030188194929
 40
0.6063414105435591
 40
0.7106549102902248
 40
0.8055430205632242
 40
0.8991681782577964
 40
1.0
 40
1.0
 40
1.0
 40
1.0
 10
82.38418351516091
 20
240.2022386873707
 30
0.0
 10
82.40853775056226
 20
240.2155066313298
 30
0.0
 10
82.45098343412104
 20
240.2386306153715
 30
0.0
 10
82.53798073931337
 20
240.2617069529055
 30
0.0
 10
82.61863052653025
 20
240.2712004960732
 30
0.0
 10
82.68017306436218
 20
240.2738176552697
 30
0.0
 10
82.74635123847146
 20
240.2724761262162
 30
0.0
 10
82.78879935287092
 20
240.2686949663405
 30
0.0
 10
82.8108099832778
 20
240.2667343206507
 30
0.0
  0
LINE
  5
485
330
1F
100
AcDbEntity
  8
0
  6
Continuous
 62
     7
370
    25
100
AcDbLine
 10
173.1967145584
 20
240.2667343207
 30
0.0
 11
171.901859534
 21
238.2391634682
 31
0.0
  0
SPLINE
  5
486
330
1F
100
AcDbEntity
  8
0
  6
Continuous
 62
     7
370
    25
100
AcDbSpline
210
0.0
220
0.0
230
1.0
 70
     8
 71
     3
 72
    13
 73
     9
 74
     0
 42
0.00000001
 43
0.00000001
 40
0.0
 40
0.0
 40
0.0
 40
0.0
 40
0.1008318217422016
 40
0.194456979436775
 40
0.2893450897097677
 40
0.3936585894564343
 40
0.6520969811804914
 40
1.0
 40
1.0
 40
1.0
 40
1.0
 10
173.1967145584134
 20
240.2667343206508
 30
0.0
 10
173.2187251888203
 20
240.2686949663405
 30
0.0
 10
173.2611733032198
 20
240.2724761262162
 30
0.0
 10
173.3273514773291
 20
240.2738176552697
 30
0.0
 10
173.388894015161
 20
240.2712004960732
 30
0.0
 10
173.4695438023779
 20
240.2617069529055
 30
0.0
 10
173.5565411075702
 20
240.2386306153715
 30
0.0
 10
173.598986791129
 20
240.2155066313298
 30
0.0
 10
173.6233410265303
 20
240.2022386873707
 30
0.0
  0
LINE
  5
487
330
1F
100
AcDbEntity
  8
0
  6
Continuous
 62
     7
370
    25
100
AcDbLine
 10
82.8108099833
 20
240.2667343207
 30
0.0
 11
173.1967145584
 21
240.2667343207
 31
0.0
  0
SPLINE
  5
488
330
1F
100
AcDbEntity
  8
0
  6
Continuous
 62
     7
370
    25
100
AcDbSpline
210
0.0
220
0.0
230
1.0
 70
    24
 71
     3
 72
     9
 73
     5
 74
     0
 42
0.00000001
 43
0.00000001
 40
0.0
 40
0.0
 40
0.0
 40
0.0
 40
0.4999999999999967
 40
0.9999999999999999
 40
0.9999999999999999
 40
0.9999999999999999
 40
0.9999999999999999
 10
173.1967145584134
 20
240.448353752361
 30
0.0
 10
173.1967145584134
 20
240.4406559422763
 30
0.0
 10
173.1967145584134
 20
240.4252603221069
 30
0.0
 10
173.1967145584134
 20
240.3195763211361
 30
0.0
 10
173.1967145584134
 20
240.2667343206508
 30
0.0
  0
LINE
  5
489
330
1F
100
AcDbEntity
  8
0
  6
Continuous
 62
     7
370
    25
100
AcDbLine
 10
174.6001593041
 20
240.4483537524
 30
0.0
 11
173.1967145584
 21
240.4483537524
 31
0.0
  0
SPLINE
  5
48A
330
1F
100
AcDbEntity
  8
0
  6
Continuous
 62
     7
370
    25
100
AcDbSpline
210
0.0
220
0.0
230
1.0
 70
    24
 71
     3
 72
     9
 73
     5
 74
     0
 42
0.00000001
 43
0.00000001
 40
0.0
 40
0.0
 40
0.0
 40
0.0
 40
0.5000000000000033
 40
0.9999999999999999
 40
0.9999999999999999
 40
0.9999999999999999
 40
0.9999999999999999
 10
82.81080998327782
 20
240.2667343206508
 30
0.0
 10
82.81080998327784
 20
240.3195763211361
 30
0.0
 10
82.81080998327784
 20
240.4252603221069
 30
0.0
 10
82.81080998327782
 20
240.4406559422763
 30
0.0
 10
82.81080998327782
 20
240.448353752361
 30
0.0
  0
LINE
  5
48B
330
1F
100
AcDbEntity
  8
0
  6
Continuous
 62
     7
370
    25
100
AcDbLine
 10
82.8108099833
 20
240.4483537524
 30
0.0
 11
81.4073652376
 21
240.4483537524
 31
0.0
  0
LINE
  5
48C
330
1F
100
AcDbEntity
  8
0
  6
Continuous
 62
     7
370
    25
100
AcDbLine
 10
173.1967145584
 20
240.4483537524
 30
0.0
 11
82.8108099833
 21
240.4483537524
 31
0.0
  0
LINE
  5
48D
330
1F
100
AcDbEntity
  8
0
  6
Continuous
 62
     7
370
    25
100
AcDbLine
 10
187.5775085858
 20
238.0483537524
 30
0.0
 11
187.5268496609
 21
238.0483537524
 31
0.0
  0
LINE
  5
48E
330
1F
100
AcDbEntity
  8
0
  6
Continuous
 62
     7
370
    25
100
AcDbLine
 10
187.5775085858
 20
238.0483537524
 30
0.0
 11
187.5775085858
 21
238.0641631862
 31
0.0
  0
HATCH
  5
48F
330
1F
100
AcDbEntity
  8
0
  6
Continuous
 62
     7
370
    18
100
AcDbHatch
 10
0.0
 20
0.0
 30
0.0
210
0.0
220
0.0
230
1.0
  2
ANSI31
 70
     0
 71
     0
 91
        1
 92
        0
 93
        4
 72
     1
 10
124.0037622708456
 20
236.1483537523609
 11
132.0037622708456
 21
236.1483537523609
 72
     1
 10
132.0037622708456
 20
236.1483537523609
 11
132.0037622708456
 21
238.1483537523609
 72
     1
 10
132.0037622708456
 20
238.1483537523609
 11
124.0037622708456
 21
238.1483537523609
 72
     1
 10
124.0037622708456
 20
238.1483537523609
 11
124.0037622708456
 21
236.1483537523609
 97
        0
 75
     0
 76
     1
 52
0.0
 41
0.5
 77
     0
 78
     1
 53
45.0
 43
0.0
 44
0.0
 45
-1.122532015133644
 46
1.122532015133644
 79
     0
 98
        1
 10
0.0
 20
0.0
  0
HATCH
  5
490
330
1F
100
AcDbEntity
  8
0
  6
Continuous
 62
     7
370
    18
100
AcDbHatch
 10
0.0
 20
0.0
 30
0.0
210
0.0
220
0.0
230
1.0
  2
ANSI31
 70
     0
 71
     0
 91
        1
 92
        0
 93
        4
 72
     1
 10
94.00376227084561
 20
236.1483537523609
 11
102.0037622708456
 21
236.1483537523609
 72
     1
 10
102.0037622708456
 20
236.1483537523609
 11
102.0037622708456
 21
238.1483537523609
 72
     1
 10
102.0037622708456
 20
238.1483537523609
 11
94.00376227084561
 21
238.1483537523609
 72
     1
 10
94.00376227084561
 20
238.1483537523609
 11
94.00376227084561
 21
236.1483537523609
 97
        0
 75
     0
 76
     1
 52
0.0
 41
0.5
 77
     0
 78
     1
 53
45.0
 43
0.0
 44
0.0
 45
-1.122532015133644
 46
1.122532015133644
 79
     0
 98
        1
 10
0.0
 20
0.0
  0
HATCH
  5
491
330
1F
100
AcDbEntity
  8
0
  6
Continuous
 62
     7
370
    18
100
AcDbHatch
 10
0.0
 20
0.0
 30
0.0
210
0.0
220
0.0
230
1.0
  2
ANSI31
 70
     0
 71
     0
 91
        1
 92
        0
 93
        4
 72
     1
 10
162.0037622708456
 20
238.1483537523609
 11
154.0037622708456
 21
238.1483537523609
 72
     1
 10
154.0037622708456
 20
238.1483537523609
 11
154.0037622708456
 21
236.1483537523609
 72
     1
 10
154.0037622708456
 20
236.1483537523609
 11
162.0037622708456
 21
236.1483537523609
 72
     1
 10
162.0037622708456
 20
236.1483537523609
 11
162.0037622708456
 21
238.1483537523609
 97
        0
 75
     0
 76
     1
 52
0.0
 41
0.5
 77
     0
 78
     1
 53
45.0
 43
0.0
 44
0.0
 45
-1.122532015133644
 46
1.122532015133644
 79
     0
 98
        1
 10
0.0
 20
0.0
  0
HATCH
  5
492
330
1F
100
AcDbEntity
  8
0
  6
Continuous
 62
     7
370
    18
100
AcDbHatch
 10
0.0
 20
0.0
 30
0.0
210
0.0
220
0.0
230
1.0
  2
ANSI31
 70
     0
 71
     0
 91
        1
 92
        0
 93
       12
 72
     2
 10
189.1134153117277
 20
236.448353752361
 40
2.0
 50
252.6681109597322
 51
270.0000000000008
 73
     0
 72
     1
 10
189.1134153117277
 20
238.448353752361
 11
195.5037622708456
 21
238.448353752361
 72
     1
 10
195.5037622708456
 20
238.448353752361
 11
195.5037622708456
 21
240.448353752361
 72
     1
 10
195.5037622708456
 20
240.448353752361
 11
189.1134153117277
 21
240.448353752361
 72
     2
 10
189.1134153117277
 20
236.448353752361
 40
4.0
 50
90.0
 51
107.3318890402695
 73
     1
 72
     1
 10
187.9217904396699
 20
240.2667343206507
 11
181.4247481864335
 21
238.239163468216
 72
     2
 10
180.8289357504045
 20
240.1483537523609
 40
2.0
 50
72.66811095972827
 51
89.99999999999997
 73
     0
 72
     1
 10
180.8289357504045
 20
238.1483537523609
 11
176.0037622708456
 21
238.1483537523609
 72
     1
 10
176.0037622708456
 20
238.1483537523609
 11
176.0037622708456
 21
236.1483537523609
 72
     1
 10
176.0037622708456
 20
236.1483537523609
 11
180.8289357504045
 21
236.1483537523609
 72
     2
 10
180.8289357504045
 20
240.1483537523609
 40
4.0
 50
270.0000000000008
 51
287.3318890402718
 73
     1
 72
     1
 10
182.0205606224624
 20
236.3299731840712
 11
188.5176028756988
 21
238.3575440365059
 97
        0
 75
     0
 76
     1
 52
0.0
 41
0.5
 77
     0
 78
     1
 53
45.0
 43
0.0
 44
0.0
 45
-1.122532015133644
 46
1.122532015133644
 79
     0
 98
        1
 10
0.0
 20
0.0
  0
HATCH
  5
493
330
1F
100
AcDbEntity
  8
0
  6
Continuous
 62
     7
370
    18
100
AcDbHatch
 10
0.0
 20
0.0
 30
0.0
210
0.0
220
0.0
230
1.0
  2
ANSI31
 70
     0
 71
     0
 91
        1
 92
        0
 93
       12
 72
     1
 10
60.50376227084561
 20
240.448353752361
 11
60.50376227084561
 21
238.448353752361
 72
     1
 10
60.50376227084561
 20
238.448353752361
 11
66.89410922996352
 21
238.448353752361
 72
     2
 10
66.89410922996352
 20
236.448353752361
 40
2.0
 50
270.0000000000008
 51
287.3318890402702
 73
     0
 72
     1
 10
67.48992166599241
 20
238.3575440365059
 11
73.98696391922883
 21
236.3299731840712
 72
     2
 10
75.17858879128661
 20
240.1483537523609
 40
4.0
 50
252.6681109597313
 51
270.0000000000008
 73
     1
 72
     1
 10
75.17858879128661
 20
236.1483537523609
 11
80.00376227084561
 21
236.1483537523609
 72
     1
 10
80.00376227084561
 20
236.1483537523609
 11
80.00376227084561
 21
238.1483537523609
 72
     1
 10
80.00376227084561
 20
238.1483537523609
 11
75.17858879128661
 21
238.1483537523609
 72
     2
 10
75.17858879128661
 20
240.1483537523609
 40
2.0
 50
90.0
 51
107.3318890402694
 73
     0
 72
     1
 10
74.58277635525772
 20
238.239163468216
 11
68.08573410202132
 21
240.2667343206507
 72
     2
 10
66.89410922996352
 20
236.448353752361
 40
4.0
 50
72.66811095973031
 51
90.0
 73
     1
 72
     1
 10
66.89410922996352
 20
240.448353752361
 11
60.50376227084561
 21
240.448353752361
 97
        0
 75
     0
 76
     1
 52
0.0
 41
0.5
 77
     0
 78
     1
 53
45.0
 43
0.0
 44
0.0
 45
-1.122532015133644
 46
1.122532015133644
 79
     0
 98
        1
 10
0.0
 20
0.0
  0
DIMENSION
  5
494
330
1F
100
AcDbEntity
  8
0
  6
Continuous
 62
     7
370
    18
100
AcDbDimension
  2
_D_1
 10
53.5037622708
 20
240.4483537524
 30
0.0
 11
53.5037622708
 21
238.2983537524
 31
0.0
 70
   160
  1
<>
 71
     2
 42
-1.0
  3
SLDDIMSTYLE1
100
AcDbAlignedDimension
 13
75.1785887913
 23
236.1483537524
 33
0.0
 14
60.5037622708
 24
240.4483537524
 34
0.0
 50
90.0
100
AcDbRotatedDimension
  0
DIMENSION
  5
4A1
330
1F
100
AcDbEntity
  8
0
  6
Continuous
 62
     7
370
    18
100
AcDbDimension
  2
_D_2
 10
202.5037622708
 20
238.4483537524
 30
0.0
 11
202.5037622708
 21
244.4895996217
 31
0.0
 70
   160
  1
<>
 71
     2
 42
-1.0
  3
SLDDIMSTYLE1
100
AcDbAlignedDimension
 13
195.5037622708
 23
240.4483537524
 33
0.0
 14
195.5037622708
 24
238.4483537524
 34
0.0
 50
90.0
100
AcDbRotatedDimension
  0
MTEXT
  5
4AD
330
1F
100
AcDbEntity
  8
0
  6
Continuous
 62
     7
370
     0
100
AcDbMText
 10
128.1130866064
 20
256.8385255648
 30
0.0
 40
3.7041666667
 41
0.0
 71
     2
 72
     1
  1
A-A
  7
SLDTEXTSTYLE0
 73
     1
 44
1.0
  0
ENDSEC
  0
SECTION
  2
OBJECTS
  0
DICTIONARY
  5
C
330
0
100
AcDbDictionary
281
     1
  3
ACAD_GROUP
350
D
  3
ACAD_LAYOUT
350
1A
  3
ACAD_MLINESTYLE
350
17
  3
ACAD_PLOTSETTINGS
350
19
  3
ACAD_PLOTSTYLENAME
350
E
  3
ACAD_SCALELIST
350
47
  3
DWGPROPS
350
4AE
  0
DICTIONARY
  5
D
102
{ACAD_REACTORS
330
C
102
}
330
C
100
AcDbDictionary
281
     1
  0
DICTIONARY
  5
1A
102
{ACAD_REACTORS
330
C
102
}
330
C
100
AcDbDictionary
281
     1
  3
Layout1
350
1E
  3
Layout2
350
26
  3
Model
350
22
  0
DICTIONARY
  5
17
102
{ACAD_REACTORS
330
C
102
}
330
C
100
AcDbDictionary
281
     1
  3
Standard
350
18
  0
DICTIONARY
  5
19
102
{ACAD_REACTORS
330
C
102
}
330
C
100
AcDbDictionary
281
     1
  0
ACDBDICTIONARYWDFLT
  5
E
102
{ACAD_REACTORS
330
C
102
}
330
C
100
AcDbDictionary
281
     1
  3
Normal
350
F
100
AcDbDictionaryWithDefault
340
F
  0
DICTIONARY
  5
47
102
{ACAD_REACTORS
330
C
102
}
330
C
100
AcDbDictionary
281
     1
  3
A0
350
48
  3
A1
350
49
  3
A2
350
4A
  3
A3
350
4B
  3
A4
350
4C
  3
A5
350
4D
  3
A6
350
4E
  3
A7
350
4F
  3
A8
350
50
  3
A9
350
51
  3
B0
350
52
  3
B1
350
53
  3
B2
350
54
  3
B3
350
55
  3
B4
350
56
  3
B5
350
57
  3
B6
350
58
  0
XRECORD
  5
4AE
102
{ACAD_REACTORS
330
C
102
}
330
C
100
AcDbXrecord
280
     1
  1
DWGPROPS COOKIE
  2

  3

  4

  6

  7

  8
CH-NTL-RS-WSCAD
  9

300
=
301
=
302
=
303
=
304
=
305
=
306
=
307
=
308
=
309
=
 40
0.0
 41
2461131.56311904
 42
2461131.563124005
  1

 90
        0
  0
LAYOUT
  5
1E
102
{ACAD_REACTORS
330
1A
102
}
330
1A
100
AcDbPlotSettings
  1

  2
none_device
  4

  6

 40
0.0
 41
0.0
 42
0.0
 43
0.0
 44
0.0
 45
0.0
 46
0.0
 47
0.0
 48
0.0
 49
0.0
140
0.0
141
0.0
142
1.0
143
1.0
 70
   688
 72
     1
 73
     0
 74
     5
  7

 75
    16
147
1.0
148
0.0
149
0.0
100
AcDbLayout
  1
Layout1
 70
     1
 71
     1
 10
0.0
 20
0.0
 11
420.0
 21
297.0
 12
0.0
 22
0.0
 32
0.0
 14
1.0000000000E+20
 24
1.0000000000E+20
 34
1.0000000000E+20
 15
-1.0000000000E+20
 25
-1.0000000000E+20
 35
-1.0000000000E+20
146
0.0
 13
0.0
 23
0.0
 33
0.0
 16
1.0
 26
0.0
 36
0.0
 17
0.0
 27
1.0
 37
0.0
 76
     0
330
1B
  0
LAYOUT
  5
26
102
{ACAD_REACTORS
330
1A
102
}
330
1A
100
AcDbPlotSettings
  1

  2
none_device
  4

  6

 40
0.0
 41
0.0
 42
0.0
 43
0.0
 44
0.0
 45
0.0
 46
0.0
 47
0.0
 48
0.0
 49
0.0
140
0.0
141
0.0
142
1.0
143
1.0
 70
   688
 72
     1
 73
     0
 74
     5
  7

 75
    16
147
1.0
148
0.0
149
0.0
100
AcDbLayout
  1
Layout2
 70
     1
 71
     2
 10
0.0
 20
0.0
 11
0.0
 21
0.0
 12
0.0
 22
0.0
 32
0.0
 14
0.0
 24
0.0
 34
0.0
 15
0.0
 25
0.0
 35
0.0
146
0.0
 13
0.0
 23
0.0
 33
0.0
 16
1.0
 26
0.0
 36
0.0
 17
0.0
 27
1.0
 37
0.0
 76
     0
330
23
  0
LAYOUT
  5
22
102
{ACAD_REACTORS
330
1A
102
}
330
1A
100
AcDbPlotSettings
  1

  2
none_device
  4
Letter_(8.50_x_11.00_Inches)
  6

 40
6.35
 41
6.35
 42
6.35000508
 43
6.35000508
 44
215.9
 45
279.4
 46
0.0
 47
0.0
 48
0.0
 49
0.0
140
0.0
141
0.0
142
1.0
143
1.0
 70
  1712
 72
     1
 73
     0
 74
     0
  7

 75
     0
147
1.0
148
0.0
149
0.0
100
AcDbLayout
  1
Model
 70
     1
 71
     0
 10
0.0
 20
0.0
 11
420.0
 21
297.0
 12
0.0
 22
0.0
 32
0.0
 14
0.0
 24
0.0
 34
0.0
 15
420.0
 25
297.0
 35
0.0
146
0.0
 13
0.0
 23
0.0
 33
0.0
 16
1.0
 26
0.0
 36
0.0
 17
0.0
 27
1.0
 37
0.0
 76
     0
330
1F
331
29
  0
MLINESTYLE
  5
18
102
{ACAD_REACTORS
330
17
102
}
330
17
100
AcDbMlineStyle
  2
Standard
 70
     0
  3

 62
   256
 51
90.0
 52
90.0
 71
     2
 49
0.5
 62
   256
  6
BYLAYER
 49
-0.5
 62
   256
  6
BYLAYER
  0
ACDBPLACEHOLDER
  5
F
102
{ACAD_REACTORS
330
E
102
}
330
E
  0
SCALE
  5
48
102
{ACAD_REACTORS
330
47
102
}
330
47
100
AcDbScale
 70
     0
300
1:1
140
1.0
141
1.0
290
     1
  0
SCALE
  5
49
102
{ACAD_REACTORS
330
47
102
}
330
47
100
AcDbScale
 70
     0
300
1:2
140
1.0
141
2.0
290
     0
  0
SCALE
  5
4A
102
{ACAD_REACTORS
330
47
102
}
330
47
100
AcDbScale
 70
     0
300
1:4
140
1.0
141
4.0
290
     0
  0
SCALE
  5
4B
102
{ACAD_REACTORS
330
47
102
}
330
47
100
AcDbScale
 70
     0
300
1:5
140
1.0
141
5.0
290
     0
  0
SCALE
  5
4C
102
{ACAD_REACTORS
330
47
102
}
330
47
100
AcDbScale
 70
     0
300
1:8
140
1.0
141
8.0
290
     0
  0
SCALE
  5
4D
102
{ACAD_REACTORS
330
47
102
}
330
47
100
AcDbScale
 70
     0
300
1:10
140
1.0
141
10.0
290
     0
  0
SCALE
  5
4E
102
{ACAD_REACTORS
330
47
102
}
330
47
100
AcDbScale
 70
     0
300
1:16
140
1.0
141
16.0
290
     0
  0
SCALE
  5
4F
102
{ACAD_REACTORS
330
47
102
}
330
47
100
AcDbScale
 70
     0
300
1:20
140
1.0
141
20.0
290
     0
  0
SCALE
  5
50
102
{ACAD_REACTORS
330
47
102
}
330
47
100
AcDbScale
 70
     0
300
1:30
140
1.0
141
30.0
290
     0
  0
SCALE
  5
51
102
{ACAD_REACTORS
330
47
102
}
330
47
100
AcDbScale
 70
     0
300
1:40
140
1.0
141
40.0
290
     0
  0
SCALE
  5
52
102
{ACAD_REACTORS
330
47
102
}
330
47
100
AcDbScale
 70
     0
300
1:50
140
1.0
141
50.0
290
     0
  0
SCALE
  5
53
102
{ACAD_REACTORS
330
47
102
}
330
47
100
AcDbScale
 70
     0
300
1:100
140
1.0
141
100.0
290
     0
  0
SCALE
  5
54
102
{ACAD_REACTORS
330
47
102
}
330
47
100
AcDbScale
 70
     0
300
2:1
140
2.0
141
1.0
290
     0
  0
SCALE
  5
55
102
{ACAD_REACTORS
330
47
102
}
330
47
100
AcDbScale
 70
     0
300
4:1
140
4.0
141
1.0
290
     0
  0
SCALE
  5
56
102
{ACAD_REACTORS
330
47
102
}
330
47
100
AcDbScale
 70
     0
300
8:1
140
8.0
141
1.0
290
     0
  0
SCALE
  5
57
102
{ACAD_REACTORS
330
47
102
}
330
47
100
AcDbScale
 70
     0
300
10:1
140
10.0
141
1.0
290
     0
  0
SCALE
  5
58
102
{ACAD_REACTORS
330
47
102
}
330
47
100
AcDbScale
 70
     0
300
100:1
140
100.0
141
1.0
290
     0
  0
ENDSEC
  0
EOF
