  0
SECTION
  2
HEADER
  9
$ACADVER
  1
AC1015
  9
$ACADMAINTVER
 70
     6
  9
$DWGCODEPAGE
  3
ANSI_1252
  9
$INSBASE
 10
0.0
 20
0.0
 30
0.0
  9
$EXTMIN
 10
0.0
 20
0.0
 30
0.0
  9
$EXTMAX
 10
420.0
 20
297.0
 30
0.0
  9
$LIMMIN
 10
0.0
 20
0.0
  9
$LIMMAX
 10
420.0
 20
297.0
  9
$ORTHOMODE
 70
     0
  9
$REGENMODE
 70
     1
  9
$FILLMODE
 70
     1
  9
$QTEXTMODE
 70
     0
  9
$MIRRTEXT
 70
     1
  9
$LTSCALE
 40
1.0
  9
$ATTMODE
 70
     1
  9
$TEXTSIZE
 40
3.5
  9
$TRACEWID
 40
1.0
  9
$TEXTSTYLE
  7
Standard
  9
$CLAYER
  8
0
  9
$CELTYPE
  6
ByLayer
  9
$CECOLOR
 62
   256
  9
$CELTSCALE
 40
1.0
  9
$DISPSILH
 70
     0
  9
$DIMSCALE
 40
1.0
  9
$DIMASZ
 40
2.5
  9
$DIMEXO
 40
0.3
  9
$DIMDLI
 40
3.75
  9
$DIMRND
 40
0.0
  9
$DIMDLE
 40
0.0
  9
$DIMEXE
 40
1.0
  9
$DIMTP
 40
0.0
  9
$DIMTM
 40
0.0
  9
$DIMTXT
 40
3.5277777778
  9
$DIMCEN
 40
2.5
  9
$DIMTSZ
 40
0.0
  9
$DIMTOL
 70
     0
  9
$DIMLIM
 70
     0
  9
$DIMTIH
 70
     1
  9
$DIMTOH
 70
     1
  9
$DIMSE1
 70
     0
  9
$DIMSE2
 70
     0
  9
$DIMTAD
 70
     1
  9
$DIMZIN
 70
     0
  9
$DIMBLK
  1

  9
$DIMASO
 70
     1
  9
$DIMSHO
 70
     1
  9
$DIMPOST
  1

  9
$DIMAPOST
  1

  9
$DIMALT
 70
     0
  9
$DIMALTD
 70
     3
  9
$DIMALTF
 40
0.0393700787
  9
$DIMLFAC
 40
1.0
  9
$DIMTOFL
 70
     1
  9
$DIMTVP
 40
0.0
  9
$DIMTIX
 70
     0
  9
$DIMSOXD
 70
     0
  9
$DIMSAH
 70
     0
  9
$DIMBLK1
  1

  9
$DIMBLK2
  1

  9
$DIMSTYLE
  2
ISO-25
  9
$DIMCLRD
 70
     0
  9
$DIMCLRE
 70
     0
  9
$DIMCLRT
 70
     0
  9
$DIMTFAC
 40
1.0
  9
$DIMGAP
 40
1.52
  9
$DIMJUST
 70
     0
  9
$DIMSD1
 70
     0
  9
$DIMSD2
 70
     0
  9
$DIMTOLJ
 70
     0
  9
$DIMTZIN
 70
     0
  9
$DIMALTZ
 70
     0
  9
$DIMALTTZ
 70
     0
  9
$DIMUPT
 70
     0
  9
$DIMDEC
 70
     1
  9
$DIMTDEC
 70
     1
  9
$DIMALTU
 70
     2
  9
$DIMALTTD
 70
     3
  9
$DIMTXSTY
  7
Standard
  9
$DIMAUNIT
 70
     0
  9
$DIMADEC
 70
     1
  9
$DIMALTRND
 40
0.0
  9
$DIMAZIN
 70
     0
  9
$DIMDSEP
 70
    44
  9
$DIMATFIT
 70
     3
  9
$DIMFRAC
 70
     0
  9
$DIMLDRBLK
  1

  9
$DIMLUNIT
 70
     2
  9
$DIMLWD
 70
    -2
  9
$DIMLWE
 70
    -2
  9
$DIMTMOVE
 70
     0
  9
$LUNITS
 70
     2
  9
$LUPREC
 70
     2
  9
$SKETCHINC
 40
1.0
  9
$FILLETRAD
 40
0.0
  9
$AUNITS
 70
     0
  9
$AUPREC
 70
     2
  9
$MENU
  1
.
  9
$ELEVATION
 40
0.0
  9
$PELEVATION
 40
0.0
  9
$THICKNESS
 40
0.0
  9
$LIMCHECK
 70
     0
  9
$CHAMFERA
 40
0.0
  9
$CHAMFERB
 40
0.0
  9
$CHAMFERC
 40
0.0
  9
$CHAMFERD
 40
0.0
  9
$SKPOLY
 70
     0
  9
$TDCREATE
 40
2461132.279362419
  9
$TDUCREATE
 40
2461132.196029086
  9
$TDUPDATE
 40
2461132.279367373
  9
$TDUUPDATE
 40
2461132.19603404
  9
$TDINDWG
 40
0.0000000116
  9
$TDUSRTIMER
 40
0.0000000116
  9
$USRTIMER
 70
     1
  9
$ANGBASE
 50
0.0
  9
$ANGDIR
 70
     0
  9
$PDMODE
 70
     0
  9
$PDSIZE
 40
-1.0
  9
$PLINEWID
 40
0.0
  9
$SPLFRAME
 70
     0
  9
$SPLINETYPE
 70
     6
  9
$SPLINESEGS
 70
     8
  9
$HANDSEED
  5
3FD
  9
$SURFTAB1
 70
     6
  9
$SURFTAB2
 70
     6
  9
$SURFTYPE
 70
     6
  9
$SURFU
 70
     6
  9
$SURFV
 70
     6
  9
$UCSBASE
  2

  9
$UCSNAME
  2

  9
$UCSORG
 10
0.0
 20
0.0
 30
0.0
  9
$UCSXDIR
 10
1.0
 20
0.0
 30
0.0
  9
$UCSYDIR
 10
0.0
 20
1.0
 30
0.0
  9
$UCSORTHOREF
  2

  9
$UCSORTHOVIEW
 70
     0
  9
$UCSORGTOP
 10
0.0
 20
0.0
 30
0.0
  9
$UCSORGBOTTOM
 10
0.0
 20
0.0
 30
0.0
  9
$UCSORGLEFT
 10
0.0
 20
0.0
 30
0.0
  9
$UCSORGRIGHT
 10
0.0
 20
0.0
 30
0.0
  9
$UCSORGFRONT
 10
0.0
 20
0.0
 30
0.0
  9
$UCSORGBACK
 10
0.0
 20
0.0
 30
0.0
  9
$PUCSBASE
  2

  9
$PUCSNAME
  2

  9
$PUCSORG
 10
0.0
 20
0.0
 30
0.0
  9
$PUCSXDIR
 10
1.0
 20
0.0
 30
0.0
  9
$PUCSYDIR
 10
0.0
 20
1.0
 30
0.0
  9
$PUCSORTHOREF
  2

  9
$PUCSORTHOVIEW
 70
     0
  9
$PUCSORGTOP
 10
0.0
 20
0.0
 30
0.0
  9
$PUCSORGBOTTOM
 10
0.0
 20
0.0
 30
0.0
  9
$PUCSORGLEFT
 10
0.0
 20
0.0
 30
0.0
  9
$PUCSORGRIGHT
 10
0.0
 20
0.0
 30
0.0
  9
$PUCSORGFRONT
 10
0.0
 20
0.0
 30
0.0
  9
$PUCSORGBACK
 10
0.0
 20
0.0
 30
0.0
  9
$USERI1
 70
     0
  9
$USERI2
 70
     0
  9
$USERI3
 70
     0
  9
$USERI4
 70
     0
  9
$USERI5
 70
     0
  9
$USERR1
 40
0.0
  9
$USERR2
 40
0.0
  9
$USERR3
 40
0.0
  9
$USERR4
 40
0.0
  9
$USERR5
 40
0.0
  9
$WORLDVIEW
 70
     1
  9
$SHADEDGE
 70
     3
  9
$SHADEDIF
 70
    70
  9
$TILEMODE
 70
     1
  9
$MAXACTVP
 70
    64
  9
$PINSBASE
 10
0.0
 20
0.0
 30
0.0
  9
$PLIMCHECK
 70
     0
  9
$PEXTMIN
 10
1.0000000000E+20
 20
1.0000000000E+20
 30
1.0000000000E+20
  9
$PEXTMAX
 10
-1.0000000000E+20
 20
-1.0000000000E+20
 30
-1.0000000000E+20
  9
$PLIMMIN
 10
0.0
 20
0.0
  9
$PLIMMAX
 10
420.0
 20
297.0
  9
$UNITMODE
 70
     0
  9
$VISRETAIN
 70
     1
  9
$PLINEGEN
 70
     0
  9
$PSLTSCALE
 70
     1
  9
$TREEDEPTH
 70
  3020
  9
$CMLSTYLE
  2
Standard
  9
$CMLJUST
 70
     0
  9
$CMLSCALE
 40
20.0
  9
$PROXYGRAPHICS
 70
     1
  9
$MEASUREMENT
 70
     1
  9
$CELWEIGHT
370
    -1
  9
$ENDCAPS
280
     0
  9
$JOINSTYLE
280
     0
  9
$LWDISPLAY
290
     1
  9
$INSUNITS
 70
     4
  9
$HYPERLINKBASE
  1

  9
$STYLESHEET
  1

  9
$XEDIT
290
     1
  9
$CEPSNTYPE
380
     0
  9
$PSTYLEMODE
290
     1
  9
$FINGERPRINTGUID
  2
{5605f85a-6786-40fc-86ca-2b395d502f31}
  9
$VERSIONGUID
  2
{FAEB1C32-E019-11D5-929B-00C0DF256EC4}
  9
$EXTNAMES
290
     1
  9
$PSVPSCALE
 40
0.0
  9
$OLESTARTUP
290
     0
  0
ENDSEC
  0
SECTION
  2
CLASSES
  0
CLASS
  1
ACDBDICTIONARYWDFLT
  2
AcDbDictionaryWithDefault
  3
ObjectDBX Classes
 90
        0
280
     0
281
     0
  0
CLASS
  1
VISUALSTYLE
  2
AcDbVisualStyle
  3
ObjectDBX Classes
 90
     4095
280
     0
281
     0
  0
CLASS
  1
MATERIAL
  2
AcDbMaterial
  3
ObjectDBX Classes
 90
     1153
280
     0
281
     0
  0
CLASS
  1
SCALE
  2
AcDbScale
  3
ObjectDBX Classes
 90
     1153
280
     0
281
     0
  0
CLASS
  1
TABLESTYLE
  2
AcDbTableStyle
  3
ObjectDBX Classes
 90
     4095
280
     0
281
     0
  0
CLASS
  1
MLEADERSTYLE
  2
AcDbMLeaderStyle
  3
ACDB_MLEADERSTYLE_CLASS
 90
     4095
280
     0
281
     0
  0
CLASS
  1
SUN
  2
AcDbSun
  3
SCENEOE
 90
     1153
280
     0
281
     0
  0
CLASS
  1
ACDBPLACEHOLDER
  2
AcDbPlaceHolder
  3
ObjectDBX Classes
 90
        0
280
     0
281
     0
  0
CLASS
  1
LAYOUT
  2
AcDbLayout
  3
ObjectDBX Classes
 90
        0
280
     0
281
     0
  0
ENDSEC
  0
SECTION
  2
TABLES
  0
TABLE
  2
VPORT
  5
8
330
0
100
AcDbSymbolTable
 70
     1
  0
VPORT
  5
29
330
8
100
AcDbSymbolTableRecord
100
AcDbViewportTableRecord
  2
*Active
 70
     0
 10
0.0
 20
0.0
 11
1.0
 21
1.0
 12
210.0
 22
148.5
 13
0.0
 23
0.0
 14
10.0
 24
10.0
 15
10.0
 25
10.0
 16
0.0
 26
0.0
 36
1.0
 17
0.0
 27
0.0
 37
0.0
 40
297.0
 41
1.4141414141
 42
50.0
 43
0.0
 44
0.0
 50
0.0
 51
0.0
 71
     0
 72
  2000
 73
     1
 74
     3
 75
     0
 76
     0
 77
     0
 78
     0
281
     0
 65
     1
110
0.0
120
0.0
130
0.0
111
1.0
121
0.0
131
0.0
112
0.0
122
1.0
132
0.0
 79
     0
146
0.0
  0
ENDTAB
  0
TABLE
  2
LTYPE
  5
5
330
0
100
AcDbSymbolTable
 70
     6
  0
LTYPE
  5
14
330
5
100
AcDbSymbolTableRecord
100
AcDbLinetypeTableRecord
  2
ByBlock
 70
     0
  3

 72
    65
 73
     0
 40
0.0
  0
LTYPE
  5
15
330
5
100
AcDbSymbolTableRecord
100
AcDbLinetypeTableRecord
  2
ByLayer
 70
     0
  3

 72
    65
 73
     0
 40
0.0
  0
LTYPE
  5
16
330
5
100
AcDbSymbolTableRecord
100
AcDbLinetypeTableRecord
  2
Continuous
 70
     0
  3
Solid line
 72
    65
 73
     0
 40
0.0
  0
LTYPE
  5
5E
330
5
100
AcDbSymbolTableRecord
100
AcDbLinetypeTableRecord
  2
HIDDEN
 70
     0
  3
Hidden __ __ __ __ __ __ __ __ __ __ __ __ __ __
 72
    65
 73
     2
 40
1.905
 49
1.27
 74
     0
 49
-0.635
 74
     0
  0
LTYPE
  5
5F
330
5
100
AcDbSymbolTableRecord
100
AcDbLinetypeTableRecord
  2
PHANTOM
 70
     0
  3
Phantom ______  __  __  ______  __  __  ______
 72
    65
 73
     6
 40
12.7
 49
6.35
 74
     0
 49
-1.27
 74
     0
 49
1.27
 74
     0
 49
-1.27
 74
     0
 49
1.27
 74
     0
 49
-1.27
 74
     0
  0
LTYPE
  5
60
330
5
100
AcDbSymbolTableRecord
100
AcDbLinetypeTableRecord
  2
CENTER
 70
     0
  3
Center ____ _ ____ _ ____ _ ____ _ ____ _ ____
 72
    65
 73
     4
 40
10.16
 49
6.35
 74
     0
 49
-1.27
 74
     0
 49
1.27
 74
     0
 49
-1.27
 74
     0
  0
LTYPE
  5
61
330
5
100
AcDbSymbolTableRecord
100
AcDbLinetypeTableRecord
  2
CENTERX2
 70
     0
  3
Center (2x) ________  __  ________  __  _____
 72
    65
 73
     4
 40
20.32
 49
12.7
 74
     0
 49
-2.54
 74
     0
 49
2.54
 74
     0
 49
-2.54
 74
     0
  0
LTYPE
  5
62
330
5
100
AcDbSymbolTableRecord
100
AcDbLinetypeTableRecord
  2
DOT2
 70
     0
  3
Dot (.5x) ........................................
 72
    65
 73
     2
 40
0.635
 49
0.0
 74
     0
 49
-0.635
 74
     0
  0
ENDTAB
  0
TABLE
  2
LAYER
  5
2
330
0
100
AcDbSymbolTable
 70
     1
  0
LAYER
  5
10
330
2
100
AcDbSymbolTableRecord
100
AcDbLayerTableRecord
  2
0
 70
     0
 62
     7
  6
Continuous
370
    -3
390
F
  0
ENDTAB
  0
TABLE
  2
STYLE
  5
3
330
0
100
AcDbSymbolTable
 70
     3
  0
STYLE
  5
11
330
3
100
AcDbSymbolTableRecord
100
AcDbTextStyleTableRecord
  2
Standard
 70
     0
 40
0.0
 41
1.0
 50
0.0
 71
     0
 42
3.5
  3
txt
  4

  0
STYLE
  5
D9
330
3
100
AcDbSymbolTableRecord
100
AcDbTextStyleTableRecord
  2
SLDTEXTSTYLE0
 70
     0
 40
0.0
 41
0.605
 50
0.0
 71
     0
 42
3.5
  3
TXT
  4

  0
STYLE
  5
179
330
3
100
AcDbSymbolTableRecord
100
AcDbTextStyleTableRecord
  2
SLDTEXTSTYLE1
 70
     0
 40
0.0
 41
0.563
 50
0.0
 71
     0
 42
3.5
  3
TXT
  4

  0
ENDTAB
  0
TABLE
  2
VIEW
  5
6
330
0
100
AcDbSymbolTable
 70
     0
  0
ENDTAB
  0
TABLE
  2
UCS
  5
7
330
0
100
AcDbSymbolTable
 70
     0
  0
ENDTAB
  0
TABLE
  2
APPID
  5
9
330
0
100
AcDbSymbolTable
 70
     1
  0
APPID
  5
12
330
9
100
AcDbSymbolTableRecord
100
AcDbRegAppTableRecord
  2
ACAD
 70
     0
  0
ENDTAB
  0
TABLE
  2
DIMSTYLE
  5
A
330
0
100
AcDbSymbolTable
 70
     3
100
AcDbDimStyleTable
  0
DIMSTYLE
105
27
330
A
100
AcDbSymbolTableRecord
100
AcDbDimStyleTableRecord
  2
ISO-25
 70
     0
 41
2.5
 42
0.625
 43
3.75
 44
1.25
 73
     0
 74
     0
 77
     1
 78
     8
140
2.5
141
2.5
143
0.0393700787
147
0.625
171
     3
172
     1
178
     0
271
     2
272
     2
274
     3
278
    44
283
     0
284
     8
340
11
  0
DIMSTYLE
105
3E3
102
{ACAD_REACTORS
330
3E2
102
}
330
A
100
AcDbSymbolTableRecord
100
AcDbDimStyleTableRecord
  2
SLDDIMSTYLE0
 70
     0
 41
2.5
 44
0.0
 45
0.000000001
 73
     0
 74
     0
 77
     1
 78
    12
 79
     3
140
2.5683186849
147
0.6420796712
172
     1
173
     1
178
     0
271
     1
272
     1
276
     2
284
    12
289
     0
340
D9
  0
DIMSTYLE
105
3F0
102
{ACAD_REACTORS
330
3EF
102
}
330
A
100
AcDbSymbolTableRecord
100
AcDbDimStyleTableRecord
  2
SLDDIMSTYLE1
 70
     0
 41
2.5
 44
0.0
 45
0.000000001
 73
     0
 74
     0
 77
     1
 78
    12
 79
     3
140
2.5683186849
147
0.6420796712
173
     1
178
     0
271
     1
272
     1
276
     2
284
    12
340
D9
  0
ENDTAB
  0
TABLE
  2
BLOCK_RECORD
  5
1
330
0
100
AcDbSymbolTable
 70
     7
  0
BLOCK_RECORD
  5
1F
330
1
100
AcDbSymbolTableRecord
100
AcDbBlockTableRecord
  2
*Model_Space
340
22
  0
BLOCK_RECORD
  5
1B
330
1
100
AcDbSymbolTableRecord
100
AcDbBlockTableRecord
  2
*Paper_Space
340
1E
  0
BLOCK_RECORD
  5
23
330
1
100
AcDbSymbolTableRecord
100
AcDbBlockTableRecord
  2
*Paper_Space0
340
26
  0
BLOCK_RECORD
  5
63
330
1
100
AcDbSymbolTableRecord
100
AcDbBlockTableRecord
  2
ACO-Logo
340
0
102
{BLKREFS
331
139
102
}
  0
BLOCK_RECORD
  5
D6
330
1
100
AcDbSymbolTableRecord
100
AcDbBlockTableRecord
  2
SW_NOTE_0
340
0
102
{BLKREFS
331
DB
102
}
  0
BLOCK_RECORD
  5
DC
330
1
100
AcDbSymbolTableRecord
100
AcDbBlockTableRecord
  2
SW_NOTE_0_1
340
0
102
{BLKREFS
331
E0
102
}
  0
BLOCK_RECORD
  5
E1
330
1
100
AcDbSymbolTableRecord
100
AcDbBlockTableRecord
  2
SW_NOTE_0_2
340
0
102
{BLKREFS
331
E8
102
}
  0
BLOCK_RECORD
  5
3E4
330
1
100
AcDbSymbolTableRecord
100
AcDbBlockTableRecord
  2
_D
340
0
  0
BLOCK_RECORD
  5
3F1
330
1
100
AcDbSymbolTableRecord
100
AcDbBlockTableRecord
  2
_D_1
340
0
  0
ENDTAB
  0
ENDSEC
  0
SECTION
  2
BLOCKS
  0
BLOCK
  5
20
330
1F
100
AcDbEntity
  8
0
100
AcDbBlockBegin
  2
*Model_Space
 70
     0
 10
0.0
 20
0.0
 30
0.0
  3
*Model_Space
  1

  0
ENDBLK
  5
21
330
1F
100
AcDbEntity
  8
0
100
AcDbBlockEnd
  0
BLOCK
  5
1C
330
1B
100
AcDbEntity
 67
     1
  8
0
100
AcDbBlockBegin
  2
*Paper_Space
 70
     0
 10
0.0
 20
0.0
 30
0.0
  3
*Paper_Space
  1

  0
ENDBLK
  5
1D
330
1B
100
AcDbEntity
 67
     1
  8
0
100
AcDbBlockEnd
  0
BLOCK
  5
24
330
23
100
AcDbEntity
  8
0
100
AcDbBlockBegin
  2
*Paper_Space0
 70
     0
 10
0.0
 20
0.0
 30
0.0
  3
*Paper_Space0
  1

  0
ENDBLK
  5
25
330
23
100
AcDbEntity
  8
0
100
AcDbBlockEnd
  0
BLOCK
  5
64
330
63
100
AcDbEntity
  8
0
100
AcDbBlockBegin
  2
ACO-Logo
 70
     0
 10
0.0
 20
0.0
 30
0.0
  3
ACO-Logo
  1

  0
ARC
  5
66
330
63
100
AcDbEntity
  8
0
  6
Continuous
 62
     7
370
    18
100
AcDbCircle
 10
80.3853261169
 20
4.9940995715
 30
0.0
 40
0.3000000000000441
100
AcDbArc
 50
181.9349323096
 51
274.6062978506
  0
ARC
  5
67
330
63
100
AcDbEntity
  8
0
  6
Continuous
 62
     7
370
    18
100
AcDbCircle
 10
81.2359083165
 20
2.1946665956
 30
0.0
 40
1.000000000000021
100
AcDbArc
 50
221.4087409628
 51
276.0561297228
  0
ARC
  5
68
330
63
100
AcDbEntity
  8
0
  6
Continuous
 62
     7
370
    18
100
AcDbCircle
 10
79.1360017163
 20
3.654242048
 30
0.0
 40
0.300000000000004
100
AcDbArc
 50
181.2730300201
 51
274.4996077095
  0
ARC
  5
69
330
63
100
AcDbEntity
  8
0
  6
Continuous
 62
     7
370
    18
100
AcDbCircle
 10
78.7699033484
 20
3.2873137407
 30
0.0
 40
0.4000000000000358
100
AcDbArc
 50
221.0090869016
 51
274.5606296317
  0
ARC
  5
6A
330
63
100
AcDbEntity
  8
0
  6
Continuous
 62
     7
370
    18
100
AcDbCircle
 10
91.2333953062
 20
4.6062442307
 30
0.0
 40
0.3000000000000493
100
AcDbArc
 50
274.4996077095
 51
3.7249371334
  0
ARC
  5
6B
330
63
100
AcDbEntity
  8
0
  6
Continuous
 62
     7
370
    18
100
AcDbCircle
 10
81.5287571045
 20
9.7648973508
 30
0.0
 40
1.00000000000002
100
AcDbArc
 50
93.1134387481
 51
181.9414863909
  0
ARC
  5
6C
330
63
100
AcDbEntity
  8
0
  6
Continuous
 62
     7
370
    18
100
AcDbCircle
 10
81.6051675115
 20
7.5107903456
 30
0.0
 40
1.0
100
AcDbArc
 50
181.9414863909
 51
274.398705355
  0
ARC
  5
6D
330
63
100
AcDbEntity
  8
0
  6
Continuous
 62
     7
370
    18
100
AcDbCircle
 10
80.1506905656
 20
11.9393118923
 30
0.0
 40
0.300000000000045
100
AcDbArc
 50
93.0418421566
 51
181.9349323096
  0
ARC
  5
6E
330
63
100
AcDbEntity
  8
0
  6
Continuous
 62
     7
370
    18
100
AcDbCircle
 10
78.1879722102
 20
12.3499352608
 30
0.0
 40
0.7999999999953393
100
AcDbArc
 50
92.6995697565
 51
148.2554209065
  0
ARC
  5
6F
330
63
100
AcDbEntity
  8
0
  6
Continuous
 62
     7
370
    18
100
AcDbCircle
 10
78.930862229
 20
12.8855189761
 30
0.0
 40
0.3000000000000031
100
AcDbArc
 50
92.6995697565
 51
181.2730300201
  0
ARC
  5
70
330
63
100
AcDbEntity
  8
0
  6
Continuous
 62
     7
370
    18
100
AcDbCircle
 10
82.327743407
 20
9.8083568568
 30
0.0
 40
1.000000000000034
100
AcDbArc
 50
1.9414863909
 51
93.1134387481
  0
ARC
  5
71
330
63
100
AcDbEntity
  8
0
  6
Continuous
 62
     7
370
    18
100
AcDbCircle
 10
81.5287571045
 20
9.7648973508
 30
0.0
 40
0.3625000000000009
100
AcDbArc
 50
93.1134387481
 51
181.9414863909
  0
ARC
  5
72
330
63
100
AcDbEntity
  8
0
  6
Continuous
 62
     7
370
    18
100
AcDbCircle
 10
82.327743407
 20
9.8083568568
 30
0.0
 40
0.3625000000000146
100
AcDbArc
 50
1.9414863909
 51
93.1134387481
  0
ARC
  5
73
330
63
100
AcDbEntity
  8
0
  6
Continuous
 62
     7
370
    18
100
AcDbCircle
 10
82.4035451983
 20
7.5722040138
 30
0.0
 40
1.000000000000008
100
AcDbArc
 50
274.398705355
 51
1.9414863909
  0
ARC
  5
74
330
63
100
AcDbEntity
  8
0
  6
Continuous
 62
     7
370
    18
100
AcDbCircle
 10
82.4035451983
 20
7.5722040138
 30
0.0
 40
0.3625000000000068
100
AcDbArc
 50
274.398705355
 51
1.9414863909
  0
ARC
  5
75
330
63
100
AcDbEntity
  8
0
  6
Continuous
 62
     7
370
    18
100
AcDbCircle
 10
81.6051675115
 20
7.5107903456
 30
0.0
 40
0.3625000000000111
100
AcDbArc
 50
181.9414863909
 51
274.398705355
  0
ARC
  5
76
330
63
100
AcDbEntity
  8
0
  6
Continuous
 62
     7
370
    18
100
AcDbCircle
 10
88.825822761
 20
8.0662148274
 30
0.0
 40
0.9999999999999997
100
AcDbArc
 50
274.398705355
 51
2.6541955134
  0
ARC
  5
77
330
63
100
AcDbEntity
  8
0
  6
Continuous
 62
     7
370
    18
100
AcDbCircle
 10
90.1578295581
 20
5.7814576687
 30
0.0
 40
0.3000000000000043
100
AcDbArc
 50
274.6062978507
 51
2.5147526475
  0
ARC
  5
78
330
63
100
AcDbEntity
  8
0
  6
Continuous
 62
     7
370
    18
100
AcDbCircle
 10
88.825822761
 20
8.0662148274
 30
0.0
 40
0.3625000000000083
100
AcDbArc
 50
274.398705355
 51
2.6541955134
  0
ARC
  5
79
330
63
100
AcDbEntity
  8
0
  6
Continuous
 62
     7
370
    18
100
AcDbCircle
 10
88.728529747
 20
10.16496413
 30
0.0
 40
1.000000000000001
100
AcDbArc
 50
2.6541955134
 51
93.1134387481
  0
ARC
  5
7A
330
63
100
AcDbEntity
  8
0
  6
Continuous
 62
     7
370
    18
100
AcDbCircle
 10
88.728529747
 20
10.16496413
 30
0.0
 40
0.3625000000000085
100
AcDbArc
 50
2.6541955134
 51
93.1134387481
  0
ARC
  5
7B
330
63
100
AcDbEntity
  8
0
  6
Continuous
 62
     7
370
    18
100
AcDbCircle
 10
89.8647121341
 20
12.455515937
 30
0.0
 40
0.2999999999999984
100
AcDbArc
 50
2.5147526475
 51
93.0418421566
  0
ARC
  5
7C
330
63
100
AcDbEntity
  8
0
  6
Continuous
 62
     7
370
    18
100
AcDbCircle
 10
90.6583795404
 20
13.4384863935
 30
0.0
 40
0.2999999999999911
100
AcDbArc
 50
3.7249371334
 51
92.6995697565
  0
CIRCLE
  5
7D
330
63
100
AcDbEntity
  8
0
  6
Continuous
 62
     7
370
    18
100
AcDbCircle
 10
15.7233972286
 20
6.4054930194
 30
0.0
 40
1.579500000000014
  0
CIRCLE
  5
7E
330
63
100
AcDbEntity
  8
0
  6
Continuous
 62
     7
370
    18
100
AcDbCircle
 10
15.7233972286
 20
6.4054930194
 30
0.0
 40
2.281499999999994
  0
ARC
  5
7F
330
63
100
AcDbEntity
  8
0
  6
Continuous
 62
     7
370
    18
100
AcDbCircle
 10
89.7681336026
 20
2.3106616691
 30
0.0
 40
0.098384530246548
100
AcDbArc
 50
332.3802627259
 51
4.9765441602
  0
ARC
  5
80
330
63
100
AcDbEntity
  8
0
  6
Continuous
 62
     7
370
    18
100
AcDbCircle
 10
89.6886560089
 20
2.3522464185
 30
0.0
 40
0.1880839130754018
100
AcDbArc
 50
303.690067526
 51
332.3802627258
  0
ARC
  5
81
330
63
100
AcDbEntity
  8
0
  6
Continuous
 62
     7
370
    18
100
AcDbCircle
 10
89.4849700869
 20
2.6577753016
 30
0.0
 40
0.5552839311631531
100
AcDbArc
 50
287.108652213
 51
303.690067526
  0
ARC
  5
82
330
63
100
AcDbEntity
  8
0
  6
Continuous
 62
     7
370
    18
100
AcDbCircle
 10
88.0513010646
 20
7.3154864882
 30
0.0
 40
5.428648309393203
100
AcDbArc
 50
285.2551187031
 51
287.108652213
  0
ARC
  5
83
330
63
100
AcDbEntity
  8
0
  6
Continuous
 62
     7
370
    18
100
AcDbCircle
 10
89.1317168954
 20
3.3539617753
 30
0.0
 40
1.322436378825653
100
AcDbArc
 50
281.4991866428
 51
285.255118703
  0
ARC
  5
84
330
63
100
AcDbEntity
  8
0
  6
Continuous
 62
     7
370
    18
100
AcDbCircle
 10
89.3198255509
 20
2.4293110075
 30
0.0
 40
0.3788454141584939
100
AcDbArc
 50
279.1917900003
 51
281.499186643
  0
ARC
  5
85
330
63
100
AcDbEntity
  8
0
  6
Continuous
 62
     7
370
    18
100
AcDbCircle
 10
89.0487250788
 20
4.1046569124
 30
0.0
 40
2.07598399629105
100
AcDbArc
 50
277.7634675038
 51
279.1917900002
  0
ARC
  5
86
330
63
100
AcDbEntity
  8
0
  6
Continuous
 62
     7
370
    18
100
AcDbCircle
 10
9.2588909915
 20
6.4054930194
 30
0.0
 40
1.579500000000074
100
AcDbArc
 50
31.0558004991
 51
330.0
  0
ARC
  5
87
330
63
100
AcDbEntity
  8
0
  6
Continuous
 62
     7
370
    18
100
AcDbCircle
 10
9.2588909915
 20
6.4054930194
 30
0.0
 40
2.281500000000107
100
AcDbArc
 50
30.7309172659
 51
330.0
  0
ARC
  5
88
330
63
100
AcDbEntity
  8
0
  6
Continuous
 62
     7
370
    18
100
AcDbCircle
 10
6.1288847544
 20
4.0685261312
 30
0.0
 40
4.914000000000307
100
AcDbArc
 50
172.3058370354
 51
179.7113029221
  0
ARC
  5
89
330
63
100
AcDbEntity
  8
0
  6
Continuous
 62
     7
370
    18
100
AcDbCircle
 10
-0.5401152456
 20
4.0685261312
 30
0.0
 40
4.91400000000019
100
AcDbArc
 50
0.2886970779
 51
7.6941629646
  0
ARC
  5
8A
330
63
100
AcDbEntity
  8
0
  6
Continuous
 62
     7
370
    18
100
AcDbCircle
 10
-0.5401152456
 20
4.0685261312
 30
0.0
 40
5.616000000000127
100
AcDbArc
 50
0.2526096926
 51
53.5764263577
  0
ARC
  5
8B
330
63
100
AcDbEntity
  8
0
  6
Continuous
 62
     7
370
    18
100
AcDbCircle
 10
6.1288847544
 20
4.0685261312
 30
0.0
 40
5.61600000000074
100
AcDbArc
 50
126.4235736423
 51
179.7473903073
  0
ARC
  5
8C
330
63
100
AcDbEntity
  8
0
  6
Continuous
 62
     7
370
    18
100
AcDbCircle
 10
-0.5401152456
 20
4.0685261312
 30
0.0
 40
4.914000000000161
100
AcDbArc
 50
16.0658750272
 51
47.2678899574
  0
ARC
  5
8D
330
63
100
AcDbEntity
  8
0
  6
Continuous
 62
     7
370
    18
100
AcDbCircle
 10
6.1288847544
 20
4.0685261312
 30
0.0
 40
4.914000000000584
100
AcDbArc
 50
132.7321100426
 51
163.9341249728
  0
LINE
  5
8E
330
63
100
AcDbEntity
  8
0
  6
Continuous
 62
     7
370
    18
100
AcDbLine
 10
78.8017089389
 20
2.8885802402
 30
0.0
 11
90.7982178739
 21
3.8455002136
 31
0.0
  0
LINE
  5
8F
330
63
100
AcDbEntity
  8
0
  6
Continuous
 62
     7
370
    18
100
AcDbLine
 10
76.6545490427
 20
5.8693097374
 30
0.0
 11
78.0344191726
 21
3.5235305166
 31
0.0
  0
LINE
  5
90
330
63
100
AcDbEntity
  8
0
  6
Continuous
 62
     7
370
    18
100
AcDbLine
 10
91.5327615373
 20
4.6257342197
 30
0.0
 11
90.9577457715
 21
13.4579763825
 31
0.0
  0
LINE
  5
91
330
63
100
AcDbEntity
  8
0
  6
Continuous
 62
     7
370
    18
100
AcDbLine
 10
78.6309362756
 20
12.8788539549
 30
0.0
 11
78.8360757629
 21
3.6475770268
 31
0.0
  0
LINE
  5
92
330
63
100
AcDbEntity
  8
0
  6
Continuous
 62
     7
370
    18
100
AcDbLine
 10
80.4094186633
 20
4.6950685544
 30
0.0
 11
90.1819221045
 21
5.4824266516
 31
0.0
  0
LINE
  5
93
330
63
100
AcDbEntity
  8
0
  6
Continuous
 62
     7
370
    18
100
AcDbLine
 10
79.1595373973
 20
3.3551666867
 30
0.0
 11
91.2569309872
 21
4.3071688694
 31
0.0
  0
LINE
  5
94
330
63
100
AcDbEntity
  8
0
  6
Continuous
 62
     7
370
    18
100
AcDbLine
 10
79.2585043218
 20
2.925017226
 30
0.0
 11
80.4858981444
 21
1.533240302
 31
0.0
  0
LINE
  5
95
330
63
100
AcDbEntity
  8
0
  6
Continuous
 62
     7
370
    18
100
AcDbLine
 10
78.0344191726
 20
3.5235305166
 30
0.0
 11
78.3638740472
 21
3.1446574108
 31
0.0
  0
LINE
  5
96
330
63
100
AcDbEntity
  8
0
  6
Continuous
 62
     7
370
    18
100
AcDbLine
 10
78.3638740472
 20
3.1446574108
 30
0.0
 11
78.4680611395
 21
3.0248422547
 31
0.0
  0
LINE
  5
97
330
63
100
AcDbEntity
  8
0
  6
Continuous
 62
     7
370
    18
100
AcDbLine
 10
81.3414110113
 20
1.2002475785
 30
0.0
 11
89.3291569519
 21
2.0477010263
 31
0.0
  0
LINE
  5
98
330
63
100
AcDbEntity
  8
0
  6
Continuous
 62
     7
370
    18
100
AcDbLine
 10
89.8661472522
 20
2.5197759309
 30
0.0
 11
89.8661472522
 21
2.3090867337
 31
0.0
  0
LINE
  5
99
330
63
100
AcDbEntity
  8
0
  6
Continuous
 62
     7
370
    18
100
AcDbLine
 10
88.676842368
 20
3.6762854359
 30
0.0
 11
89.6713239345
 21
2.7875997807
 31
0.0
  0
LINE
  5
9A
330
63
100
AcDbEntity
  8
0
  6
Continuous
 62
     7
370
    18
100
AcDbLine
 10
89.6713239345
 20
2.7875997807
 30
0.0
 11
89.7459749087
 21
2.7242700694
 31
0.0
  0
LINE
  5
9B
330
63
100
AcDbEntity
  8
0
  6
Continuous
 62
     7
370
    18
100
AcDbLine
 10
90.7982178739
 20
3.8455002136
 30
0.0
 11
91.3961615969
 21
4.3514525945
 31
0.0
  0
LINE
  5
9C
330
63
100
AcDbEntity
  8
0
  6
Continuous
 62
     7
370
    18
100
AcDbLine
 10
90.6442498554
 20
13.7381534621
 30
0.0
 11
78.1502930503
 21
13.1490474438
 31
0.0
  0
LINE
  5
9D
330
63
100
AcDbEntity
  8
0
  6
Continuous
 62
     7
370
    18
100
AcDbLine
 10
80.1347709981
 20
12.2388892068
 30
0.0
 11
89.8487925667
 21
12.7550932515
 31
0.0
  0
LINE
  5
9E
330
63
100
AcDbEntity
  8
0
  6
Continuous
 62
     7
370
    18
100
AcDbLine
 10
76.4935641943
 20
11.7567556248
 30
0.0
 11
76.6545490427
 21
5.8693097374
 31
0.0
  0
LINE
  5
9F
330
63
100
AcDbEntity
  8
0
  6
Continuous
 62
     7
370
    18
100
AcDbLine
 10
79.8508616208
 20
11.929182536
 30
0.0
 11
80.0854971721
 21
4.9839702153
 31
0.0
  0
LINE
  5
A0
330
63
100
AcDbEntity
  8
0
  6
Continuous
 62
     7
370
    18
100
AcDbLine
 10
80.5293311574
 20
9.7310185051
 30
0.0
 11
80.6057415643
 21
7.4769115
 31
0.0
  0
LINE
  5
A1
330
63
100
AcDbEntity
  8
0
  6
Continuous
 62
     7
370
    18
100
AcDbLine
 10
77.507650604
 20
12.7708420346
 30
0.0
 11
76.4935641943
 21
11.7567556248
 31
0.0
  0
LINE
  5
A2
330
63
100
AcDbEntity
  8
0
  6
Continuous
 62
     7
370
    18
100
AcDbLine
 10
86.8848195129
 20
11.0661568594
 30
0.0
 11
88.6742167283
 21
11.1634880887
 31
0.0
  0
LINE
  5
A3
330
63
100
AcDbEntity
  8
0
  6
Continuous
 62
     7
370
    18
100
AcDbLine
 10
87.0766213517
 20
6.9287171941
 30
0.0
 11
88.90708891
 21
7.0695223909
 31
0.0
  0
LINE
  5
A4
330
63
100
AcDbEntity
  8
0
  6
Continuous
 62
     7
370
    18
100
AcDbLine
 10
87.6830038473
 20
7.6147347768
 30
0.0
 11
88.8536252418
 21
7.7047825764
 31
0.0
  0
LINE
  5
A5
330
63
100
AcDbEntity
  8
0
  6
Continuous
 62
     7
370
    18
100
AcDbLine
 10
87.5509212094
 20
10.4639459651
 30
0.0
 11
88.7088412777
 21
10.5269290651
 31
0.0
  0
LINE
  5
A6
330
63
100
AcDbEntity
  8
0
  6
Continuous
 62
     7
370
    18
100
AcDbLine
 10
87.0766218384
 20
6.9287066941
 30
0.0
 11
86.8848195129
 21
11.0661568594
 31
0.0
  0
LINE
  5
A7
330
63
100
AcDbEntity
  8
0
  6
Continuous
 62
     7
370
    18
100
AcDbLine
 10
83.7004598825
 20
6.6667911093
 30
0.0
 11
84.5054929504
 21
10.9267193262
 31
0.0
  0
LINE
  5
A8
330
63
100
AcDbEntity
  8
0
  6
Continuous
 62
     7
370
    18
100
AcDbLine
 10
85.3543248406
 20
10.9728900984
 30
0.0
 11
86.4940946704
 21
6.8816860929
 31
0.0
  0
LINE
  5
A9
330
63
100
AcDbEntity
  8
0
  6
Continuous
 62
     7
370
    18
100
AcDbLine
 10
84.9728575427
 20
9.9667192298
 30
0.0
 11
85.4540299774
 21
8.2395506903
 31
0.0
  0
LINE
  5
AA
330
63
100
AcDbEntity
  8
0
  6
Continuous
 62
     7
370
    18
100
AcDbLine
 10
84.6363094629
 20
8.1858350416
 30
0.0
 11
84.9728575427
 21
9.9667192298
 31
0.0
  0
LINE
  5
AB
330
63
100
AcDbEntity
  8
0
  6
Continuous
 62
     7
370
    18
100
AcDbLine
 10
87.6830038473
 20
7.6147347768
 30
0.0
 11
87.5509212094
 21
10.4639459651
 31
0.0
  0
LINE
  5
AC
330
63
100
AcDbEntity
  8
0
  6
Continuous
 62
     7
370
    18
100
AcDbLine
 10
84.6363094629
 20
8.1858350416
 30
0.0
 11
85.4540299774
 21
8.2395506903
 31
0.0
  0
LINE
  5
AD
330
63
100
AcDbEntity
  8
0
  6
Continuous
 62
     7
370
    18
100
AcDbLine
 10
84.5140586807
 20
7.5389304886
 30
0.0
 11
85.6288154243
 21
7.6121582976
 31
0.0
  0
LINE
  5
AE
330
63
100
AcDbEntity
  8
0
  6
Continuous
 62
     7
370
    18
100
AcDbLine
 10
84.3588137958
 20
6.717433718
 30
0.0
 11
84.5140586807
 21
7.5389304886
 31
0.0
  0
LINE
  5
AF
330
63
100
AcDbEntity
  8
0
  6
Continuous
 62
     7
370
    18
100
AcDbLine
 10
81.6818640104
 20
6.5137358601
 30
0.0
 11
82.4802416972
 21
6.5751495283
 31
0.0
  0
LINE
  5
B0
330
63
100
AcDbEntity
  8
0
  6
Continuous
 62
     7
370
    18
100
AcDbLine
 10
81.6329699923
 20
7.1493580946
 30
0.0
 11
82.4313476791
 21
7.2107717628
 31
0.0
  0
LINE
  5
B1
330
63
100
AcDbEntity
  8
0
  6
Continuous
 62
     7
370
    18
100
AcDbLine
 10
83.7004598825
 20
6.6667911093
 30
0.0
 11
84.3588137958
 21
6.717433718
 31
0.0
  0
LINE
  5
B2
330
63
100
AcDbEntity
  8
0
  6
Continuous
 62
     7
370
    18
100
AcDbLine
 10
82.7059483815
 20
9.3512024135
 30
0.0
 11
83.3423973297
 21
9.3930104243
 31
0.0
  0
LINE
  5
B3
330
63
100
AcDbEntity
  8
0
  6
Continuous
 62
     7
370
    18
100
AcDbLine
 10
82.7491656358
 20
8.0762934118
 30
0.0
 11
83.385614584
 21
8.1181014226
 31
0.0
  0
LINE
  5
B4
330
63
100
AcDbEntity
  8
0
  6
Continuous
 62
     7
370
    18
100
AcDbLine
 10
81.1664651987
 20
9.7526162692
 30
0.0
 11
81.2428756056
 21
7.4985092641
 31
0.0
  0
LINE
  5
B5
330
63
100
AcDbEntity
  8
0
  6
Continuous
 62
     7
370
    18
100
AcDbLine
 10
82.6900353128
 20
9.8206379383
 30
0.0
 11
82.7052632884
 21
9.3714126602
 31
0.0
  0
LINE
  5
B6
330
63
100
AcDbEntity
  8
0
  6
Continuous
 62
     7
370
    18
100
AcDbLine
 10
82.7491656358
 20
8.0762934118
 30
0.0
 11
82.7658371041
 21
7.5844850954
 31
0.0
  0
LINE
  5
B7
330
63
100
AcDbEntity
  8
0
  6
Continuous
 62
     7
370
    18
100
AcDbLine
 10
83.3271693541
 20
9.8422357024
 30
0.0
 11
83.3423973297
 21
9.3930104243
 31
0.0
  0
LINE
  5
B8
330
63
100
AcDbEntity
  8
0
  6
Continuous
 62
     7
370
    18
100
AcDbLine
 10
83.385614584
 20
8.1181014226
 30
0.0
 11
83.4029711454
 21
7.6060828595
 31
0.0
  0
LINE
  5
B9
330
63
100
AcDbEntity
  8
0
  6
Continuous
 62
     7
370
    18
100
AcDbLine
 10
85.6288154243
 20
7.6121582976
 30
0.0
 11
85.8462022593
 21
6.8318482152
 31
0.0
  0
LINE
  5
BA
330
63
100
AcDbEntity
  8
0
  6
Continuous
 62
     7
370
    18
100
AcDbLine
 10
85.8462022593
 20
6.8318482152
 30
0.0
 11
86.4940946704
 21
6.8816860929
 31
0.0
  0
LINE
  5
BB
330
63
100
AcDbEntity
  8
0
  6
Continuous
 62
     7
370
    18
100
AcDbLine
 10
84.5054929504
 20
10.9267193262
 30
0.0
 11
85.3543248406
 21
10.9728900984
 31
0.0
  0
LINE
  5
BC
330
63
100
AcDbEntity
  8
0
  6
Continuous
 62
     7
370
    18
100
AcDbLine
 10
81.4744440858
 20
10.7634213094
 30
0.0
 11
82.2734303883
 21
10.8068808154
 31
0.0
  0
LINE
  5
BD
330
63
100
AcDbEntity
  8
0
  6
Continuous
 62
     7
370
    18
100
AcDbLine
 10
81.5090686352
 20
10.1268622858
 30
0.0
 11
82.3080549377
 21
10.1703217918
 31
0.0
  0
LINE
  5
BE
330
63
100
AcDbEntity
  8
0
  6
Continuous
 62
     7
370
    18
100
AcDbLine
 10
90.4575406452
 20
5.7946206556
 30
0.0
 11
90.1644232213
 21
12.4686789239
 31
0.0
  0
LINE
  5
BF
330
63
100
AcDbEntity
  8
0
  6
Continuous
 62
     7
370
    18
100
AcDbLine
 10
89.8247499755
 20
8.1125227115
 30
0.0
 11
89.7274569615
 21
10.2112720142
 31
0.0
  0
LINE
  5
C0
330
63
100
AcDbEntity
  8
0
  6
Continuous
 62
     7
370
    18
100
AcDbLine
 10
89.1879338763
 20
8.0830014354
 30
0.0
 11
89.0906408622
 21
10.181750738
 31
0.0
  0
LINE
  5
C1
330
63
100
AcDbEntity
  8
0
  6
Continuous
 62
     7
370
    18
100
AcDbLine
 10
89.7459749087
 20
2.7242700694
 30
0.0
 11
89.7974962577
 21
2.6659765769
 31
0.0
  0
LINE
  5
C2
330
63
100
AcDbEntity
  8
0
  6
Continuous
 62
     7
370
    18
100
AcDbLine
 10
89.7974962577
 20
2.6659765769
 30
0.0
 11
89.8351851379
 21
2.60192886
 31
0.0
  0
LINE
  5
C3
330
63
100
AcDbEntity
  8
0
  6
Continuous
 62
     7
370
    18
100
AcDbLine
 10
89.8351851379
 20
2.60192886
 30
0.0
 11
89.8661472522
 21
2.5197759309
 31
0.0
  0
LINE
  5
C4
330
63
100
AcDbEntity
  8
0
  6
Continuous
 62
     7
370
    18
100
AcDbLine
 10
10.6119938288
 20
7.2203138351
 30
0.0
 11
11.2200151261
 21
7.5713550947
 31
0.0
  0
LINE
  5
C5
330
63
100
AcDbEntity
  8
0
  6
Continuous
 62
     7
370
    18
100
AcDbLine
 10
11.2347279503
 20
5.2647430194
 30
0.0
 11
10.6267781168
 21
5.6157430194
 31
0.0
  0
LINE
  5
C6
330
63
100
AcDbEntity
  8
0
  6
Continuous
 62
     7
370
    18
100
AcDbLine
 10
6.4645062371
 20
16.1712617198
 30
0.0
 11
6.4645062371
 21
2.9364593988
 31
0.0
  0
LINE
  5
C7
330
63
100
AcDbEntity
  8
0
  6
Continuous
 62
     7
370
    18
100
AcDbLine
 10
6.4645062371
 20
2.9364593988
 30
0.0
 11
12.0532757459
 21
2.9364593988
 31
0.0
  0
LINE
  5
C8
330
63
100
AcDbEntity
  8
0
  6
Continuous
 62
     7
370
    18
100
AcDbLine
 10
12.0532757459
 20
2.9364593988
 30
0.0
 11
12.0532757459
 21
16.1712617198
 31
0.0
  0
LINE
  5
C9
330
63
100
AcDbEntity
  8
0
  6
Continuous
 62
     7
370
    18
100
AcDbLine
 10
12.0532757459
 20
16.1712617198
 30
0.0
 11
6.4645062371
 21
16.1712617198
 31
0.0
  0
LINE
  5
CA
330
63
100
AcDbEntity
  8
0
  6
Continuous
 62
     7
370
    18
100
AcDbLine
 10
0.0
 20
16.1712617198
 30
0.0
 11
0.0
 21
2.9364593988
 31
0.0
  0
LINE
  5
CB
330
63
100
AcDbEntity
  8
0
  6
Continuous
 62
     7
370
    18
100
AcDbLine
 10
0.0
 20
2.9364593988
 30
0.0
 11
5.5887695089
 21
2.9364593988
 31
0.0
  0
LINE
  5
CC
330
63
100
AcDbEntity
  8
0
  6
Continuous
 62
     7
370
    18
100
AcDbLine
 10
5.5887695089
 20
2.9364593988
 30
0.0
 11
5.5887695089
 21
16.1712617198
 31
0.0
  0
LINE
  5
CD
330
63
100
AcDbEntity
  8
0
  6
Continuous
 62
     7
370
    18
100
AcDbLine
 10
5.5887695089
 20
16.1712617198
 30
0.0
 11
0.0
 21
16.1712617198
 31
0.0
  0
LINE
  5
CE
330
63
100
AcDbEntity
  8
0
  6
Continuous
 62
     7
370
    18
100
AcDbLine
 10
1.2591262606
 20
4.7264381407
 30
0.0
 11
4.3296432482
 21
4.7264381407
 31
0.0
  0
LINE
  5
CF
330
63
100
AcDbEntity
  8
0
  6
Continuous
 62
     7
370
    18
100
AcDbLine
 10
4.3738223747
 20
4.0932862697
 30
0.0
 11
5.0758301722
 21
4.0932862697
 31
0.0
  0
LINE
  5
D0
330
63
100
AcDbEntity
  8
0
  6
Continuous
 62
     7
370
    18
100
AcDbLine
 10
0.5129393366
 20
4.0932862697
 30
0.0
 11
1.2149471342
 21
4.0932862697
 31
0.0
  0
LINE
  5
D1
330
63
100
AcDbEntity
  8
0
  6
Continuous
 62
     7
370
    18
100
AcDbLine
 10
4.1819643097
 20
5.4284381407
 30
0.0
 11
1.4068051992
 21
5.4284381407
 31
0.0
  0
LINE
  5
D2
330
63
100
AcDbEntity
  8
0
  6
Continuous
 62
     7
370
    18
100
AcDbLine
 10
18.517781983
 20
16.1712617198
 30
0.0
 11
18.517781983
 21
2.9364593988
 31
0.0
  0
LINE
  5
D3
330
63
100
AcDbEntity
  8
0
  6
Continuous
 62
     7
370
    18
100
AcDbLine
 10
18.517781983
 20
2.9364593988
 30
0.0
 11
12.9290124742
 21
2.9364593988
 31
0.0
  0
LINE
  5
D4
330
63
100
AcDbEntity
  8
0
  6
Continuous
 62
     7
370
    18
100
AcDbLine
 10
12.9290124742
 20
2.9364593988
 30
0.0
 11
12.9290124742
 21
16.1712617198
 31
0.0
  0
LINE
  5
D5
330
63
100
AcDbEntity
  8
0
  6
Continuous
 62
     7
370
    18
100
AcDbLine
 10
12.9290124742
 20
16.1712617198
 30
0.0
 11
18.517781983
 21
16.1712617198
 31
0.0
  0
INSERT
  5
DB
330
63
100
AcDbEntity
  8
0
  6
Continuous
 62
     7
370
     0
100
AcDbBlockReference
  2
SW_NOTE_0
 10
1.8998941161
 20
-0.3226565443
 30
0.0
  0
INSERT
  5
E0
330
63
100
AcDbEntity
  8
0
  6
Continuous
 62
     7
370
     0
100
AcDbBlockReference
  2
SW_NOTE_0_1
 10
29.1164837035
 20
12.7459167441
 30
0.0
  0
INSERT
  5
E8
330
63
100
AcDbEntity
  8
0
  6
Continuous
 62
     7
370
     0
100
AcDbBlockReference
  2
SW_NOTE_0_2
 10
28.8863479825
 20
8.6365742194
 30
0.0
  0
ENDBLK
  5
65
330
63
100
AcDbEntity
  8
0
100
AcDbBlockEnd
  0
BLOCK
  5
D7
330
D6
100
AcDbEntity
  8
0
100
AcDbBlockBegin
  2
SW_NOTE_0
 70
     0
 10
0.0
 20
0.0
 30
0.0
  3
SW_NOTE_0
  1

  0
MTEXT
  5
DA
330
D6
100
AcDbEntity
  8
0
  6
Continuous
 62
     0
370
     0
100
AcDbMText
 10
7.46875
 20
2.5781354795
 30
0.0
 40
2.0
 41
0.0
 71
     2
 72
     1
  1
www.aco.ch
  7
SLDTEXTSTYLE0
 73
     1
 44
1.0
  0
ENDBLK
  5
D8
330
D6
100
AcDbEntity
  8
0
100
AcDbBlockEnd
  0
BLOCK
  5
DD
330
DC
100
AcDbEntity
  8
0
100
AcDbBlockBegin
  2
SW_NOTE_0_1
 70
     0
 10
0.0
 20
0.0
 30
0.0
  3
SW_NOTE_0_1
  1

  0
MTEXT
  5
DF
330
DC
100
AcDbEntity
  8
0
  6
Continuous
 62
     0
370
     0
100
AcDbMText
 10
0.0
 20
3.8672032193
 30
0.0
 40
3.0
 41
0.0
 71
     1
 72
     1
  1
ACO AG
  7
SLDTEXTSTYLE0
 73
     1
 44
1.0
  0
ENDBLK
  5
DE
330
DC
100
AcDbEntity
  8
0
100
AcDbBlockEnd
  0
BLOCK
  5
E2
330
E1
100
AcDbEntity
  8
0
100
AcDbBlockBegin
  2
SW_NOTE_0_2
 70
     0
 10
0.0
 20
0.0
 30
0.0
  3
SW_NOTE_0_2
  1

  0
MTEXT
  5
E4
330
E1
100
AcDbEntity
  8
0
  6
Continuous
 62
     0
370
     0
100
AcDbMText
 10
0.0
 20
2.5781354795
 30
0.0
 40
2.0
 41
0.0
 71
     1
 72
     1
  1
Industrie Kleinzaun
  7
SLDTEXTSTYLE0
 73
     1
 44
1.0
  0
MTEXT
  5
E5
330
E1
100
AcDbEntity
  8
0
  6
Continuous
 62
     0
370
     0
100
AcDbMText
 10
0.0
 20
-0.4218645465
 30
0.0
 40
2.0
 41
0.0
 71
     1
 72
     1
  1
CH-8754 Netstal
  7
SLDTEXTSTYLE0
 73
     1
 44
1.0
  0
MTEXT
  5
E6
330
E1
100
AcDbEntity
  8
0
  6
Continuous
 62
     0
370
     0
100
AcDbMText
 10
0.0
 20
-3.4218645726
 30
0.0
 40
2.0
 41
0.0
 71
     1
 72
     1
  1
Tel. 055 / 645 53 00
  7
SLDTEXTSTYLE0
 73
     1
 44
1.0
  0
MTEXT
  5
E7
330
E1
100
AcDbEntity
  8
0
  6
Continuous
 62
     0
370
     0
100
AcDbMText
 10
0.0
 20
-6.4218645987
 30
0.0
 40
2.0
 41
0.0
 71
     1
 72
     1
  1
E-Mail: aco@aco.ch
  7
SLDTEXTSTYLE0
 73
     1
 44
1.0
  0
ENDBLK
  5
E3
330
E1
100
AcDbEntity
  8
0
100
AcDbBlockEnd
  0
BLOCK
  5
3E5
330
3E4
100
AcDbEntity
  8
0
100
AcDbBlockBegin
  2
_D
 70
     0
 10
0.0
 20
0.0
 30
0.0
  3
_D
  1

  0
SOLID
  5
3E7
330
3E4
100
AcDbEntity
  8
0
  6
Continuous
 62
     7
370
    18
100
AcDbTrace
 10
233.4231089271
 20
237.7945164996
 30
0.0
 11
233.0481089271
 21
235.2945164996
 31
0.0
 12
233.7981089271
 22
235.2945164996
 32
0.0
 13
233.7981089271
 23
235.2945164996
 33
0.0
  0
SOLID
  5
3E8
330
3E4
100
AcDbEntity
  8
0
  6
Continuous
 62
     7
370
    18
100
AcDbTrace
 10
233.4231089271
 20
239.7945164996
 30
0.0
 11
233.7981089271
 21
242.2945164996
 31
0.0
 12
233.0481089271
 22
242.2945164996
 32
0.0
 13
233.0481089271
 23
242.2945164996
 33
0.0
  0
LINE
  5
3E9
330
3E4
100
AcDbEntity
  8
0
  6
Continuous
 62
     7
370
     0
100
AcDbLine
 10
217.61511473
 20
237.7945164996
 30
0.0
 11
234.4231089271
 21
237.7945164996
 31
0.0
  0
LINE
  5
3EA
330
3E4
100
AcDbEntity
  8
0
  6
Continuous
 62
     7
370
     0
100
AcDbLine
 10
217.61511473
 20
239.7945164996
 30
0.0
 11
234.4231089271
 21
239.7945164996
 31
0.0
  0
LINE
  5
3EB
330
3E4
100
AcDbEntity
  8
0
  6
Continuous
 62
     7
370
     0
100
AcDbLine
 10
233.4231089271
 20
237.7945164996
 30
0.0
 11
233.4231089271
 21
232.6419170751
 31
0.0
  0
LINE
  5
3EC
330
3E4
100
AcDbEntity
  8
0
  6
Continuous
 62
     7
370
     0
100
AcDbLine
 10
233.4231089271
 20
237.7945164996
 30
0.0
 11
233.4231089271
 21
239.7945164996
 31
0.0
  0
LINE
  5
3ED
330
3E4
100
AcDbEntity
  8
0
  6
Continuous
 62
     7
370
     0
100
AcDbLine
 10
233.4231089271
 20
239.7945164996
 30
0.0
 11
233.4231089271
 21
244.7945164996
 31
0.0
  0
MTEXT
  5
3EE
330
3E4
100
AcDbEntity
  8
0
  6
Continuous
 62
     7
370
    18
100
AcDbMText
 10
230.0124503576
 20
232.6419170751
 30
0.0
 40
2.6458333333
 41
0.0
 71
     1
 72
     1
  1
2
  7
SLDTEXTSTYLE0
 11
6.123233995736766E-17
 21
1.0
 31
0.0
 73
     1
 44
1.0
  0
ENDBLK
  5
3E6
330
3E4
100
AcDbEntity
  8
0
100
AcDbBlockEnd
  0
BLOCK
  5
3F2
330
3F1
100
AcDbEntity
  8
0
100
AcDbBlockBegin
  2
_D_1
 70
     0
 10
0.0
 20
0.0
 30
0.0
  3
_D_1
  1

  0
SOLID
  5
3F4
330
3F1
100
AcDbEntity
  8
0
  6
Continuous
 62
     7
370
    18
100
AcDbTrace
 10
217.31511473
 20
248.5372541974
 30
0.0
 11
214.81511473
 21
248.9122541974
 31
0.0
 12
214.81511473
 22
248.1622541974
 32
0.0
 13
214.81511473
 23
248.1622541974
 33
0.0
  0
SOLID
  5
3F5
330
3F1
100
AcDbEntity
  8
0
  6
Continuous
 62
     7
370
    18
100
AcDbTrace
 10
60.31511473
 20
248.5372541974
 30
0.0
 11
62.81511473
 21
248.1622541974
 31
0.0
 12
62.81511473
 22
248.9122541974
 32
0.0
 13
62.81511473
 23
248.9122541974
 33
0.0
  0
LINE
  5
3F6
330
3F1
100
AcDbEntity
  8
0
  6
Continuous
 62
     7
370
     0
100
AcDbLine
 10
217.31511473
 20
240.0945164996
 30
0.0
 11
217.31511473
 21
249.5372541974
 31
0.0
  0
LINE
  5
3F7
330
3F1
100
AcDbEntity
  8
0
  6
Continuous
 62
     7
370
     0
100
AcDbLine
 10
60.31511473
 20
240.0945164996
 30
0.0
 11
60.31511473
 21
249.5372541974
 31
0.0
  0
LINE
  5
3F8
330
3F1
100
AcDbEntity
  8
0
  6
Continuous
 62
     7
370
     0
100
AcDbLine
 10
217.31511473
 20
248.5372541974
 30
0.0
 11
60.31511473
 21
248.5372541974
 31
0.0
  0
MTEXT
  5
3F9
330
3F1
100
AcDbEntity
  8
0
  6
Continuous
 62
     7
370
    18
100
AcDbMText
 10
134.0017802911
 20
251.9479127668
 30
0.0
 40
2.6458333333
 41
0.0
 71
     1
 72
     1
  1
%%c
  7
SLDTEXTSTYLE0
 73
     1
 44
1.0
  0
MTEXT
  5
3FA
330
3F1
100
AcDbEntity
  8
0
  6
Continuous
 62
     7
370
    18
100
AcDbMText
 10
137.7488192999
 20
251.9479127668
 30
0.0
 40
2.6458333333
 41
0.0
 71
     1
 72
     1
  1
157
  7
SLDTEXTSTYLE0
 73
     1
 44
1.0
  0
ENDBLK
  5
3F3
330
3F1
100
AcDbEntity
  8
0
100
AcDbBlockEnd
  0
ENDSEC
  0
SECTION
  2
ENTITIES
  0
LINE
  5
E9
330
1F
100
AcDbEntity
  8
0
  6
CENTERX2
 62
     7
370
    18
100
AcDbLine
 10
352.6174545849
 20
46.9080238789
 30
0.0
 11
352.6174545849
 21
39.4621586124
 31
0.0
  0
LINE
  5
EA
330
1F
100
AcDbEntity
  8
0
  6
Continuous
 62
     7
370
    18
100
AcDbLine
 10
357.7661698132
 20
46.3720107039
 30
0.0
 11
357.7661698132
 21
39.9353173413
 31
0.0
  0
LINE
  5
EB
330
1F
100
AcDbEntity
  8
0
  6
Continuous
 62
     7
370
    18
100
AcDbLine
 10
364.6059427486
 20
44.7376225767
 30
0.0
 11
364.6059427486
 21
41.5697054685
 31
0.0
  0
LINE
  5
EC
330
1F
100
AcDbEntity
  8
0
  6
Continuous
 62
     7
370
    18
100
AcDbLine
 10
364.6059427486
 20
44.7376225767
 30
0.0
 11
357.7661698132
 21
46.3720107039
 31
0.0
  0
LINE
  5
ED
330
1F
100
AcDbEntity
  8
0
  6
Continuous
 62
     7
370
    18
100
AcDbLine
 10
15.0
 20
198.5
 30
0.0
 11
20.0
 21
198.5
 31
0.0
  0
LINE
  5
EE
330
1F
100
AcDbEntity
  8
0
  6
Continuous
 62
     7
370
    18
100
AcDbLine
 10
12.0
 20
148.5
 30
0.0
 11
0.0
 21
148.5
 31
0.0
  0
LINE
  5
EF
330
1F
100
AcDbEntity
  8
0
  6
Continuous
 62
     7
370
    18
100
AcDbLine
 10
357.7661698132
 20
39.9353173413
 30
0.0
 11
364.6059427486
 21
41.5697054685
 31
0.0
  0
LINE
  5
F0
330
1F
100
AcDbEntity
  8
0
  6
CENTERX2
 62
     7
370
    18
100
AcDbLine
 10
348.6240467841
 20
43.1536640226
 30
0.0
 11
356.6108623857
 21
43.1536640226
 31
0.0
  0
LINE
  5
F1
330
1F
100
AcDbEntity
  8
0
  6
CENTERX2
 62
     7
370
    18
100
AcDbLine
 10
357.1289238876
 20
43.1536640226
 30
0.0
 11
365.6255362296
 21
43.1536640226
 31
0.0
  0
LINE
  5
F2
330
1F
100
AcDbEntity
  8
0
  6
Continuous
 62
     7
370
    18
100
AcDbLine
 10
0.0
 20
0.0
 30
0.0
 11
420.0
 21
0.0
 31
0.0
  0
LINE
  5
F3
330
1F
100
AcDbEntity
  8
0
  6
Continuous
 62
     7
370
    18
100
AcDbLine
 10
0.0
 20
0.0
 30
0.0
 11
0.0
 21
297.0
 31
0.0
  0
LINE
  5
F4
330
1F
100
AcDbEntity
  8
0
  6
Continuous
 62
     7
370
    18
100
AcDbLine
 10
0.0
 20
297.0
 30
0.0
 11
420.0
 21
297.0
 31
0.0
  0
LINE
  5
F5
330
1F
100
AcDbEntity
  8
0
  6
Continuous
 62
     7
370
    18
100
AcDbLine
 10
420.0
 20
0.0
 30
0.0
 11
420.0
 21
297.0
 31
0.0
  0
LINE
  5
F6
330
1F
100
AcDbEntity
  8
0
  6
Continuous
 62
     7
370
    25
100
AcDbLine
 10
228.0
 20
35.0
 30
0.0
 11
410.0
 21
35.0
 31
0.0
  0
LINE
  5
F7
330
1F
100
AcDbEntity
  8
0
  6
Continuous
 62
     7
370
    18
100
AcDbLine
 10
410.0
 20
198.5
 30
0.0
 11
415.0
 21
198.5
 31
0.0
  0
LINE
  5
F8
330
1F
100
AcDbEntity
  8
0
  6
Continuous
 62
     7
370
    18
100
AcDbLine
 10
15.0
 20
148.5
 30
0.0
 11
20.0
 21
148.5
 31
0.0
  0
LINE
  5
F9
330
1F
100
AcDbEntity
  8
0
  6
Continuous
 62
     7
370
    18
100
AcDbLine
 10
228.0
 20
40.0
 30
0.0
 11
296.6
 21
40.0
 31
0.0
  0
LINE
  5
FA
330
1F
100
AcDbEntity
  8
0
  6
Continuous
 62
     7
370
    18
100
AcDbLine
 10
15.0
 20
248.5
 30
0.0
 11
20.0
 21
248.5
 31
0.0
  0
LINE
  5
FB
330
1F
100
AcDbEntity
  8
0
  6
Continuous
 62
     7
370
    35
100
AcDbLine
 10
20.0
 20
287.0
 30
0.0
 11
20.0
 21
10.0
 31
0.0
  0
LINE
  5
FC
330
1F
100
AcDbEntity
  8
0
  6
Continuous
 62
     7
370
    35
100
AcDbLine
 10
410.0
 20
287.0
 30
0.0
 11
20.0
 21
287.0
 31
0.0
  0
LINE
  5
FD
330
1F
100
AcDbEntity
  8
0
  6
Continuous
 62
     7
370
    35
100
AcDbLine
 10
410.0
 20
5.0
 30
0.0
 11
410.0
 21
287.0
 31
0.0
  0
LINE
  5
FE
330
1F
100
AcDbEntity
  8
0
  6
Continuous
 62
     7
370
    35
100
AcDbLine
 10
20.0
 20
10.0
 30
0.0
 11
415.0
 21
10.0
 31
0.0
  0
LINE
  5
FF
330
1F
100
AcDbEntity
  8
0
  6
Continuous
 62
     7
370
    18
100
AcDbLine
 10
410.0
 20
148.5
 30
0.0
 11
415.0
 21
148.5
 31
0.0
  0
LINE
  5
100
330
1F
100
AcDbEntity
  8
0
  6
Continuous
 62
     7
370
    18
100
AcDbLine
 10
228.0
 20
50.0
 30
0.0
 11
296.6
 21
50.0
 31
0.0
  0
LINE
  5
101
330
1F
100
AcDbEntity
  8
0
  6
Continuous
 62
     7
370
    18
100
AcDbLine
 10
15.0
 20
98.5
 30
0.0
 11
20.0
 21
98.5
 31
0.0
  0
LINE
  5
102
330
1F
100
AcDbEntity
  8
0
  6
Continuous
 62
     7
370
    18
100
AcDbLine
 10
296.6
 20
45.0
 30
0.0
 11
228.0
 21
45.0
 31
0.0
  0
LINE
  5
103
330
1F
100
AcDbEntity
  8
0
  6
Continuous
 62
     7
370
    18
100
AcDbLine
 10
65.0
 20
292.0
 30
0.0
 11
65.0
 21
287.0
 31
0.0
  0
LINE
  5
104
330
1F
100
AcDbEntity
  8
0
  6
Continuous
 62
     7
370
    18
100
AcDbLine
 10
230.0
 20
292.0
 30
0.0
 11
230.0
 21
297.0
 31
0.0
  0
LINE
  5
105
330
1F
100
AcDbEntity
  8
0
  6
Continuous
 62
     7
370
    25
100
AcDbLine
 10
296.6
 20
55.0
 30
0.0
 11
296.6
 21
35.0
 31
0.0
  0
LINE
  5
106
330
1F
100
AcDbEntity
  8
0
  6
Continuous
 62
     7
370
    18
100
AcDbLine
 10
410.0
 20
98.5
 30
0.0
 11
415.0
 21
98.5
 31
0.0
  0
LINE
  5
107
330
1F
100
AcDbEntity
  8
0
100
AcDbLine
 10
230.0
 20
5.0
 30
0.0
 11
230.0
 21
0.0
 31
0.0
  0
LINE
  5
108
330
1F
100
AcDbEntity
  8
0
  6
Continuous
 62
     7
370
    18
100
AcDbLine
 10
125.0
 20
292.0
 30
0.0
 11
125.0
 21
297.0
 31
0.0
  0
LINE
  5
109
330
1F
100
AcDbEntity
  8
0
  6
Continuous
 62
     7
370
    18
100
AcDbLine
 10
125.0
 20
5.0
 30
0.0
 11
125.0
 21
0.0
 31
0.0
  0
LINE
  5
10A
330
1F
100
AcDbEntity
  8
0
  6
Continuous
 62
     7
370
    25
100
AcDbLine
 10
410.0
 20
55.0
 30
0.0
 11
228.0
 21
55.0
 31
0.0
  0
LINE
  5
10B
330
1F
100
AcDbEntity
  8
0
  6
Continuous
 62
     7
370
    18
100
AcDbLine
 10
228.0
 20
55.0
 30
0.0
 11
410.0
 21
55.0
 31
0.0
  0
LINE
  5
10C
330
1F
100
AcDbEntity
  8
0
  6
Continuous
 62
     7
370
    18
100
AcDbLine
 10
410.0
 20
55.0
 30
0.0
 11
228.0
 21
55.0
 31
0.0
  0
LINE
  5
10D
330
1F
100
AcDbEntity
  8
0
  6
Continuous
 62
     7
370
    18
100
AcDbLine
 10
268.0
 20
76.5
 30
0.0
 11
268.0
 21
55.0
 31
0.0
  0
LINE
  5
10E
330
1F
100
AcDbEntity
  8
0
  6
Continuous
 62
     7
370
    18
100
AcDbLine
 10
271.6
 20
55.0
 30
0.0
 11
271.6
 21
40.0
 31
0.0
  0
LINE
  5
10F
330
1F
100
AcDbEntity
  8
0
  6
Continuous
 62
     7
370
    18
100
AcDbLine
 10
247.0
 20
55.0
 30
0.0
 11
247.0
 21
35.0
 31
0.0
  0
LINE
  5
110
330
1F
100
AcDbEntity
  8
0
  6
Continuous
 62
     7
370
    35
100
AcDbLine
 10
228.0
 20
76.5
 30
0.0
 11
228.0
 21
10.0
 31
0.0
  0
LINE
  5
111
330
1F
100
AcDbEntity
  8
0
  6
Continuous
 62
     7
370
    18
100
AcDbLine
 10
15.0
 20
292.0
 30
0.0
 11
415.0
 21
292.0
 31
0.0
  0
LINE
  5
112
330
1F
100
AcDbEntity
  8
0
  6
Continuous
 62
     7
370
    18
100
AcDbLine
 10
228.0
 20
65.75
 30
0.0
 11
310.0
 21
65.75
 31
0.0
  0
LINE
  5
113
330
1F
100
AcDbEntity
  8
0
  6
Continuous
 62
     7
370
    35
100
AcDbLine
 10
228.0
 20
76.5
 30
0.0
 11
410.0
 21
76.5
 31
0.0
  0
LINE
  5
114
330
1F
100
AcDbEntity
  8
0
  6
Continuous
 62
     7
370
    18
100
AcDbLine
 10
15.0
 20
48.5
 30
0.0
 11
20.0
 21
48.5
 31
0.0
  0
LINE
  5
115
330
1F
100
AcDbEntity
  8
0
  6
Continuous
 62
     7
370
    18
100
AcDbLine
 10
410.0
 20
48.5
 30
0.0
 11
415.0
 21
48.5
 31
0.0
  0
LINE
  5
116
330
1F
100
AcDbEntity
  8
0
  6
Continuous
 62
     7
370
    18
100
AcDbLine
 10
332.6610845472
 20
20.0
 30
0.0
 11
332.6610845472
 21
10.0
 31
0.0
  0
LINE
  5
117
330
1F
100
AcDbEntity
  8
0
  6
Continuous
 62
     7
370
    18
100
AcDbLine
 10
410.0
 20
248.5
 30
0.0
 11
415.0
 21
248.5
 31
0.0
  0
LINE
  5
118
330
1F
100
AcDbEntity
  8
0
  6
Continuous
 62
     7
370
    18
100
AcDbLine
 10
65.0
 20
10.0
 30
0.0
 11
65.0
 21
5.0
 31
0.0
  0
LINE
  5
119
330
1F
100
AcDbEntity
  8
0
  6
Continuous
 62
     7
370
    18
100
AcDbLine
 10
115.0
 20
10.0
 30
0.0
 11
115.0
 21
5.0
 31
0.0
  0
LINE
  5
11A
330
1F
100
AcDbEntity
  8
0
  6
Continuous
 62
     7
370
    18
100
AcDbLine
 10
115.0
 20
292.0
 30
0.0
 11
115.0
 21
287.0
 31
0.0
  0
LINE
  5
11B
330
1F
100
AcDbEntity
  8
0
  6
Continuous
 62
     7
370
    18
100
AcDbLine
 10
165.0
 20
10.0
 30
0.0
 11
165.0
 21
5.0
 31
0.0
  0
LINE
  5
11C
330
1F
100
AcDbEntity
  8
0
  6
Continuous
 62
     7
370
    18
100
AcDbLine
 10
165.0
 20
292.0
 30
0.0
 11
165.0
 21
287.0
 31
0.0
  0
LINE
  5
11D
330
1F
100
AcDbEntity
  8
0
  6
Continuous
 62
     7
370
    18
100
AcDbLine
 10
215.0
 20
10.0
 30
0.0
 11
215.0
 21
5.0
 31
0.0
  0
LINE
  5
11E
330
1F
100
AcDbEntity
  8
0
  6
Continuous
 62
     7
370
    18
100
AcDbLine
 10
215.0
 20
292.0
 30
0.0
 11
215.0
 21
287.0
 31
0.0
  0
LINE
  5
11F
330
1F
100
AcDbEntity
  8
0
  6
Continuous
 62
     7
370
    18
100
AcDbLine
 10
265.0
 20
10.0
 30
0.0
 11
265.0
 21
5.0
 31
0.0
  0
LINE
  5
120
330
1F
100
AcDbEntity
  8
0
  6
Continuous
 62
     7
370
    18
100
AcDbLine
 10
265.0
 20
292.0
 30
0.0
 11
265.0
 21
287.0
 31
0.0
  0
LINE
  5
121
330
1F
100
AcDbEntity
  8
0
  6
Continuous
 62
     7
370
    18
100
AcDbLine
 10
347.6610845472
 20
20.0
 30
0.0
 11
347.6610845472
 21
10.0
 31
0.0
  0
LINE
  5
122
330
1F
100
AcDbEntity
  8
0
  6
Continuous
 62
     7
370
    18
100
AcDbLine
 10
362.6610845472
 20
20.0
 30
0.0
 11
362.6610845472
 21
10.0
 31
0.0
  0
LINE
  5
123
330
1F
100
AcDbEntity
  8
0
  6
Continuous
 62
     7
370
    25
100
AcDbLine
 10
327.6610845472
 20
10.0
 30
0.0
 11
327.6610845472
 21
55.0
 31
0.0
  0
LINE
  5
124
330
1F
100
AcDbEntity
  8
0
  6
Continuous
 62
     7
370
    18
100
AcDbLine
 10
20.0
 20
292.0
 30
0.0
 11
20.0
 21
297.0
 31
0.0
  0
LINE
  5
125
330
1F
100
AcDbEntity
  8
0
  6
Continuous
 62
     7
370
    18
100
AcDbLine
 10
20.0
 20
5.0
 30
0.0
 11
20.0
 21
0.0
 31
0.0
  0
LINE
  5
126
330
1F
100
AcDbEntity
  8
0
  6
Continuous
 62
     7
370
    18
100
AcDbLine
 10
315.0
 20
10.0
 30
0.0
 11
315.0
 21
5.0
 31
0.0
  0
LINE
  5
127
330
1F
100
AcDbEntity
  8
0
  6
Continuous
 62
     7
370
    18
100
AcDbLine
 10
315.0
 20
292.0
 30
0.0
 11
315.0
 21
287.0
 31
0.0
  0
LINE
  5
128
330
1F
100
AcDbEntity
  8
0
  6
Continuous
 62
     7
370
    18
100
AcDbLine
 10
365.0
 20
10.0
 30
0.0
 11
365.0
 21
5.0
 31
0.0
  0
LINE
  5
129
330
1F
100
AcDbEntity
  8
0
  6
Continuous
 62
     7
370
    18
100
AcDbLine
 10
365.0
 20
292.0
 30
0.0
 11
365.0
 21
287.0
 31
0.0
  0
LINE
  5
12A
330
1F
100
AcDbEntity
  8
0
  6
Continuous
 62
     7
370
    18
100
AcDbLine
 10
15.0
 20
292.0
 30
0.0
 11
15.0
 21
5.0
 31
0.0
  0
LINE
  5
12B
330
1F
100
AcDbEntity
  8
0
  6
Continuous
 62
     7
370
    18
100
AcDbLine
 10
15.0
 20
5.0
 30
0.0
 11
415.0
 21
5.0
 31
0.0
  0
LINE
  5
12C
330
1F
100
AcDbEntity
  8
0
  6
Continuous
 62
     7
370
    18
100
AcDbLine
 10
415.0
 20
292.0
 30
0.0
 11
415.0
 21
5.0
 31
0.0
  0
LINE
  5
12D
330
1F
100
AcDbEntity
  8
0
  6
Continuous
 62
     7
370
    18
100
AcDbLine
 10
347.6610845472
 20
44.213444
 30
0.0
 11
327.6610845472
 21
44.213444
 31
0.0
  0
LINE
  5
12E
330
1F
100
AcDbEntity
  8
0
  6
Continuous
 62
     7
370
    18
100
AcDbLine
 10
347.6610845472
 20
35.0
 30
0.0
 11
347.6610845472
 21
55.0
 31
0.0
  0
LINE
  5
12F
330
1F
100
AcDbEntity
  8
0
  6
Continuous
 62
     7
370
    18
100
AcDbLine
 10
370.057188
 20
55.012032
 30
0.0
 11
370.057188
 21
35.0
 31
0.0
  0
LINE
  5
130
330
1F
100
AcDbEntity
  8
0
  6
Continuous
 62
     7
370
    18
100
AcDbLine
 10
398.0
 20
35.0
 30
0.0
 11
398.0
 21
20.0
 31
0.0
  0
LINE
  5
131
330
1F
100
AcDbEntity
  8
0
  6
Continuous
 62
     7
370
    18
100
AcDbLine
 10
410.0
 20
15.0
 30
0.0
 11
327.6610845472
 21
15.0
 31
0.0
  0
LINE
  5
132
330
1F
100
AcDbEntity
  8
0
  6
Continuous
 62
     7
370
    18
100
AcDbLine
 10
327.6610845472
 20
20.0
 30
0.0
 11
410.0
 21
20.0
 31
0.0
  0
LINE
  5
133
330
1F
100
AcDbEntity
  8
0
  6
Continuous
 62
     7
370
    18
100
AcDbLine
 10
341.485486
 20
20.0
 30
0.0
 11
341.485486
 21
27.564675
 31
0.0
  0
LINE
  5
134
330
1F
100
AcDbEntity
  8
0
  6
Continuous
 62
     7
370
    25
100
AcDbLine
 10
310.0
 20
76.5
 30
0.0
 11
310.0
 21
55.0
 31
0.0
  0
CIRCLE
  5
135
330
1F
100
AcDbEntity
  8
0
  6
Continuous
 62
     7
370
    18
100
AcDbCircle
 10
11.0
 20
108.5
 30
0.0
 40
2.750000000000001
  0
CIRCLE
  5
136
330
1F
100
AcDbEntity
  8
0
  6
Continuous
 62
     7
370
    18
100
AcDbCircle
 10
11.0
 20
188.5
 30
0.0
 40
2.750000000000001
  0
CIRCLE
  5
137
330
1F
100
AcDbEntity
  8
0
  6
Continuous
 62
     7
370
    18
100
AcDbCircle
 10
352.6174545849
 20
43.1536640226
 30
0.0
 40
3.218346681300138
  0
CIRCLE
  5
138
330
1F
100
AcDbEntity
  8
0
  6
Continuous
 62
     7
370
    18
100
AcDbCircle
 10
352.6174545849
 20
43.1536640226
 30
0.0
 40
1.583958554121555
  0
INSERT
  5
139
330
1F
100
AcDbEntity
  8
0
  6
Continuous
 62
     7
100
AcDbBlockReference
  2
ACO-Logo
 10
314.3510726297
 20
57.6366106772
 30
0.0
  0
POINT
  5
13A
330
1F
100
AcDbEntity
  8
0
100
AcDbPoint
 10
0.0
 20
0.0
 30
0.0
  0
POINT
  5
13B
330
1F
100
AcDbEntity
  8
0
100
AcDbPoint
 10
410.0
 20
10.0
 30
0.0
  0
MTEXT
  5
13C
330
1F
100
AcDbEntity
  8
0
  6
Continuous
 62
     7
370
    18
100
AcDbMText
 10
17.7359443114
 20
124.8017866468
 30
0.0
 40
2.0
 41
0.0
 71
     2
 72
     1
  1
D
  7
SLDTEXTSTYLE0
 73
     1
 44
1.0
  0
MTEXT
  5
13D
330
1F
100
AcDbEntity
  8
0
  6
Continuous
 62
     7
370
    18
100
AcDbMText
 10
17.6274822413
 20
174.7261854936
 30
0.0
 40
2.0
 41
0.0
 71
     2
 72
     1
  1
C
  7
SLDTEXTSTYLE0
 73
     1
 44
1.0
  0
MTEXT
  5
13E
330
1F
100
AcDbEntity
  8
0
  6
Continuous
 62
     7
370
    18
100
AcDbMText
 10
17.5516905072
 20
224.4926420442
 30
0.0
 40
2.0
 41
0.0
 71
     2
 72
     1
  1
B
  7
SLDTEXTSTYLE0
 73
     1
 44
1.0
  0
MTEXT
  5
13F
330
1F
100
AcDbEntity
  8
0
  6
Continuous
 62
     7
370
    18
100
AcDbMText
 10
290.0344258799
 20
290.5428789914
 30
0.0
 40
2.0
 41
0.0
 71
     2
 72
     1
  1
6
  7
SLDTEXTSTYLE0
 73
     1
 44
1.0
  0
MTEXT
  5
140
330
1F
100
AcDbEntity
  8
0
  6
Continuous
 62
     7
370
    18
100
AcDbMText
 10
240.0417859812
 20
290.6369260235
 30
0.0
 40
2.0
 41
0.0
 71
     2
 72
     1
  1
5
  7
SLDTEXTSTYLE0
 73
     1
 44
1.0
  0
MTEXT
  5
141
330
1F
100
AcDbEntity
  8
0
  6
Continuous
 62
     7
370
    18
100
AcDbMText
 10
190.0300404524
 20
290.6343268032
 30
0.0
 40
2.0
 41
0.0
 71
     2
 72
     1
  1
4
  7
SLDTEXTSTYLE0
 73
     1
 44
1.0
  0
MTEXT
  5
142
330
1F
100
AcDbEntity
  8
0
  6
Continuous
 62
     7
370
    18
100
AcDbMText
 10
140.0165868337
 20
290.6378887952
 30
0.0
 40
2.0
 41
0.0
 71
     2
 72
     1
  1
3
  7
SLDTEXTSTYLE0
 73
     1
 44
1.0
  0
MTEXT
  5
143
330
1F
100
AcDbEntity
  8
0
  6
Continuous
 62
     7
370
    18
100
AcDbMText
 10
90.033223
 20
290.5566702875
 30
0.0
 40
2.0
 41
0.0
 71
     2
 72
     1
  1
2
  7
SLDTEXTSTYLE0
 73
     1
 44
1.0
  0
MTEXT
  5
144
330
1F
100
AcDbEntity
  8
0
  6
Continuous
 62
     7
370
    18
100
AcDbMText
 10
40.0509551097
 20
290.5530165805
 30
0.0
 40
2.0
 41
0.0
 71
     2
 72
     1
  1
1
  7
SLDTEXTSTYLE0
 73
     1
 44
1.0
  0
MTEXT
  5
145
330
1F
100
AcDbEntity
  8
0
  6
Continuous
 62
     7
370
    18
100
AcDbMText
 10
17.5609786315
 20
271.2966048816
 30
0.0
 40
2.0
 41
0.0
 71
     2
 72
     1
  1
A
  7
SLDTEXTSTYLE0
 73
     1
 44
1.0
  0
MTEXT
  5
146
330
1F
100
AcDbEntity
  8
0
  6
Continuous
 62
     7
370
    18
100
AcDbMText
 10
89.9333968896
 20
8.5904490253
 30
0.0
 40
2.0
 41
0.0
 71
     2
 72
     1
  1
2
  7
SLDTEXTSTYLE0
 73
     1
 44
1.0
  0
MTEXT
  5
147
330
1F
100
AcDbEntity
  8
0
  6
Continuous
 62
     7
370
    18
100
AcDbMText
 10
39.9009486579
 20
8.6623118453
 30
0.0
 40
2.0
 41
0.0
 71
     2
 72
     1
  1
1
  7
SLDTEXTSTYLE0
 73
     1
 44
1.0
  0
MTEXT
  5
148
330
1F
100
AcDbEntity
  8
0
  6
Continuous
 62
     7
370
    18
100
AcDbMText
 10
190.0227230239
 20
8.7073169286
 30
0.0
 40
2.0
 41
0.0
 71
     2
 72
     1
  1
4
  7
SLDTEXTSTYLE0
 73
     1
 44
1.0
  0
MTEXT
  5
149
330
1F
100
AcDbEntity
  8
0
  6
Continuous
 62
     7
370
    18
100
AcDbMText
 10
140.0453427777
 20
8.5647154541
 30
0.0
 40
2.0
 41
0.0
 71
     2
 72
     1
  1
3
  7
SLDTEXTSTYLE0
 73
     1
 44
1.0
  0
MTEXT
  5
14A
330
1F
100
AcDbEntity
  8
0
  6
Continuous
 62
     7
370
    18
100
AcDbMText
 10
239.8749782531
 20
8.5637526825
 30
0.0
 40
2.0
 41
0.0
 71
     2
 72
     1
  1
5
  7
SLDTEXTSTYLE0
 73
     1
 44
1.0
  0
MTEXT
  5
14B
330
1F
100
AcDbEntity
  8
0
  6
Continuous
 62
     7
370
    18
100
AcDbMText
 10
412.6717254925
 20
224.51208263
 30
0.0
 40
2.0
 41
0.0
 71
     2
 72
     1
  1
B
  7
SLDTEXTSTYLE0
 73
     1
 44
1.0
  0
MTEXT
  5
14C
330
1F
100
AcDbEntity
  8
0
  6
Continuous
 62
     7
370
    18
100
AcDbMText
 10
412.5951211154
 20
271.2798202564
 30
0.0
 40
2.0
 41
0.0
 71
     2
 72
     1
  1
A
  7
SLDTEXTSTYLE0
 73
     1
 44
1.0
  0
MTEXT
  5
14D
330
1F
100
AcDbEntity
  8
0
  6
Continuous
 62
     7
370
    18
100
AcDbMText
 10
412.6491448679
 20
174.7279841048
 30
0.0
 40
2.0
 41
0.0
 71
     2
 72
     1
  1
C
  7
SLDTEXTSTYLE0
 73
     1
 44
1.0
  0
MTEXT
  5
14E
330
1F
100
AcDbEntity
  8
0
  6
Continuous
 62
     7
370
    18
100
AcDbMText
 10
340.0216466634
 20
290.5954278102
 30
0.0
 40
2.0
 41
0.0
 71
     2
 72
     1
  1
7
  7
SLDTEXTSTYLE0
 73
     1
 44
1.0
  0
MTEXT
  5
14F
330
1F
100
AcDbEntity
  8
0
  6
Continuous
 62
     7
370
    18
100
AcDbMText
 10
390.037657264
 20
290.6215496941
 30
0.0
 40
2.0
 41
0.0
 71
     2
 72
     1
  1
8
  7
SLDTEXTSTYLE0
 73
     1
 44
1.0
  0
MTEXT
  5
150
330
1F
100
AcDbEntity
  8
0
  6
Continuous
 62
     7
370
    18
100
AcDbMText
 10
17.6897935208
 20
74.7267628143
 30
0.0
 40
2.0
 41
0.0
 71
     2
 72
     1
  1
E
  7
SLDTEXTSTYLE0
 73
     1
 44
1.0
  0
MTEXT
  5
151
330
1F
100
AcDbEntity
  8
0
  6
Continuous
 62
     7
370
    18
100
AcDbMText
 10
17.5936930126
 20
27.773321616
 30
0.0
 40
2.0
 41
0.0
 71
     2
 72
     1
  1
F
  7
SLDTEXTSTYLE0
 73
     1
 44
1.0
  0
MTEXT
  5
152
330
1F
100
AcDbEntity
  8
0
  6
Continuous
 62
     7
370
    18
100
AcDbMText
 10
339.8003474583
 20
8.7205095051
 30
0.0
 40
2.0
 41
0.0
 71
     2
 72
     1
  1
7
  7
SLDTEXTSTYLE0
 73
     1
 44
1.0
  0
MTEXT
  5
153
330
1F
100
AcDbEntity
  8
0
  6
Continuous
 62
     7
370
    18
100
AcDbMText
 10
289.7886477179
 20
8.6884673623
 30
0.0
 40
2.0
 41
0.0
 71
     2
 72
     1
  1
6
  7
SLDTEXTSTYLE0
 73
     1
 44
1.0
  0
MTEXT
  5
154
330
1F
100
AcDbEntity
  8
0
  6
Continuous
 62
     7
370
    18
100
AcDbMText
 10
412.5160699095
 20
74.5096307526
 30
0.0
 40
2.0
 41
0.0
 71
     2
 72
     1
  1
E
  7
SLDTEXTSTYLE0
 73
     1
 44
1.0
  0
MTEXT
  5
155
330
1F
100
AcDbEntity
  8
0
  6
Continuous
 62
     7
370
    18
100
AcDbMText
 10
412.6234021365
 20
124.4517683275
 30
0.0
 40
2.0
 41
0.0
 71
     2
 72
     1
  1
D
  7
SLDTEXTSTYLE0
 73
     1
 44
1.0
  0
MTEXT
  5
156
330
1F
100
AcDbEntity
  8
0
  6
Continuous
 62
     7
370
    18
100
AcDbMText
 10
411.7952690469
 20
41.8473512857
 30
0.0
 40
1.8
 41
0.0
 71
     3
 72
     1
  1
Plotdatum: 01.04.2026
  7
SLDTEXTSTYLE0
 11
-3.269436733918102E-15
 21
1.0
 31
0.0
 73
     1
 44
1.0
  0
MTEXT
  5
157
330
1F
100
AcDbEntity
  8
0
  6
Continuous
 62
     7
370
    18
100
AcDbMText
 10
412.557933251
 20
8.2549718046
 30
0.0
 40
1.8
 41
0.0
 71
     2
 72
     1
  1
A3
  7
SLDTEXTSTYLE0
 73
     1
 44
1.0
  0
MTEXT
  5
158
330
1F
100
AcDbEntity
  8
0
  6
Continuous
 62
     7
370
    18
100
AcDbMText
 10
390.594604279
 20
8.3847467643
 30
0.0
 40
1.8
 41
0.0
 71
     2
 72
     1
  1
CAD-System: SolidWorks
  7
SLDTEXTSTYLE0
 73
     1
 44
1.0
  0
MTEXT
  5
159
330
1F
100
AcDbEntity
  8
0
  6
Continuous
 62
     7
370
    18
100
AcDbMText
 10
404.0541923444
 20
28.4394692021
 30
0.0
 40
5.0
 41
0.0
 71
     2
 72
     1
  1
-
  7
SLDTEXTSTYLE0
 73
     1
 44
1.0
  0
MTEXT
  5
15A
330
1F
100
AcDbEntity
  8
0
  6
Continuous
 62
     7
370
    18
100
AcDbMText
 10
249.556836311
 20
38.5581729516
 30
0.0
 40
2.0
 41
0.0
 71
     1
 72
     1
  1
Freigegeben
  7
SLDTEXTSTYLE0
 73
     1
 44
1.0
  0
MTEXT
  5
15B
330
1F
100
AcDbEntity
  8
0
  6
Continuous
 62
     7
370
    18
100
AcDbMText
 10
284.1136255556
 20
43.5473338598
 30
0.0
 40
2.0
 41
0.0
 71
     2
 72
     1
  1
bae
  7
SLDTEXTSTYLE0
 73
     1
 44
1.0
  0
MTEXT
  5
15C
330
1F
100
AcDbEntity
  8
0
  6
Continuous
 62
     7
370
    18
100
AcDbMText
 10
249.5284668163
 20
43.5603133928
 30
0.0
 40
2.0
 41
0.0
 71
     1
 72
     1
  1
01.04.2026
  7
SLDTEXTSTYLE0
 73
     1
 44
1.0
  0
MTEXT
  5
15D
330
1F
100
AcDbEntity
  8
0
  6
Continuous
 62
     7
370
    18
100
AcDbMText
 10
284.1413255212
 20
48.5138972561
 30
0.0
 40
2.0
 41
0.0
 71
     2
 72
     1
  1
bae
  7
SLDTEXTSTYLE0
 73
     1
 44
1.0
  0
MTEXT
  5
15E
330
1F
100
AcDbEntity
  8
0
  6
Continuous
 62
     7
370
    18
100
AcDbMText
 10
249.5284668163
 20
48.4989062069
 30
0.0
 40
2.0
 41
0.0
 71
     1
 72
     1
  1
31.03.2026
  7
SLDTEXTSTYLE0
 73
     1
 44
1.0
  0
MTEXT
  5
15F
330
1F
100
AcDbEntity
  8
0
  6
Continuous
 62
     7
370
     0
100
AcDbMText
 10
372.2007348103
 20
38.8723054925
 30
0.0
 40
1.5
 41
0.0
 71
     1
 72
     1
  1
Copyright reserved! © ACO AG
  7
SLDTEXTSTYLE0
 73
     1
 44
1.0
  0
MTEXT
  5
160
330
1F
100
AcDbEntity
  8
0
  6
Continuous
 62
     7
370
     0
100
AcDbMText
 10
372.2203831445
 20
53.1538938951
 30
0.0
 40
1.5
 41
0.0
 71
     1
 72
     1
  1
Diese Zeichnung darf weder kopiert^Jnoch dritten Personen, insbesondere^Jzum Zweck anderweitiger Benutzung^Jmitgeteilt werden und bleibt unser^JEigentum.
  7
SLDTEXTSTYLE0
 73
     1
 44
1.0
  0
MTEXT
  5
161
330
1F
100
AcDbEntity
  8
0
  6
Continuous
 62
     7
370
    18
100
AcDbMText
 10
364.9468572407
 20
18.4594173137
 30
0.0
 40
2.0
 41
0.0
 71
     1
 72
     1
  1
Erstausgabe
  7
SLDTEXTSTYLE0
 73
     1
 44
1.0
  0
MTEXT
  5
162
330
1F
100
AcDbEntity
  8
0
  6
Continuous
 62
     7
370
    18
100
AcDbMText
 10
330.2607505021
 20
18.524501801
 30
0.0
 40
2.0
 41
0.0
 71
     2
 72
     1
  1
-
  7
SLDTEXTSTYLE0
 73
     1
 44
1.0
  0
MTEXT
  5
163
330
1F
100
AcDbEntity
  8
0
  6
Continuous
 62
     7
370
    18
100
AcDbMText
 10
311.764909851
 20
46.3490312465
 30
0.0
 40
5.0
 41
0.0
 71
     2
 72
     1
  1
1:1
  7
SLDTEXTSTYLE0
 73
     1
 44
1.0
  0
MTEXT
  5
164
330
1F
100
AcDbEntity
  8
0
  6
Continuous
 62
     7
370
    18
100
AcDbMText
 10
230.1851195342
 20
38.7793829468
 30
0.0
 40
2.0
 41
0.0
 71
     1
 72
     1
  1
Status:
  7
SLDTEXTSTYLE0
 73
     1
 44
1.0
  0
MTEXT
  5
165
330
1F
100
AcDbEntity
  8
0
  6
Continuous
 62
     7
370
    18
100
AcDbMText
 10
344.926838705
 20
28.2772828851
 30
0.0
 40
5.0
 41
0.0
 71
     1
 72
     1
  1
2208721
  7
SLDTEXTSTYLE0
 73
     1
 44
1.0
  0
MTEXT
  5
166
330
1F
100
AcDbEntity
  8
0
  6
Continuous
 62
     7
370
    18
100
AcDbMText
 10
231.1132118803
 20
14.9211049657
 30
0.0
 40
2.5
 41
0.0
 71
     1
 72
     1
  1
Art. Nr.: 2208721
  7
SLDTEXTSTYLE0
 73
     1
 44
1.0
  0
MTEXT
  5
167
330
1F
100
AcDbEntity
  8
0
  6
Continuous
 62
     7
370
    18
100
AcDbMText
 10
231.1159560181
 20
33.0904969858
 30
0.0
 40
2.5
 41
0.0
 71
     1
 72
     1
  1
Haustechnik
  7
SLDTEXTSTYLE0
 73
     1
 44
1.0
  0
MTEXT
  5
168
330
1F
100
AcDbEntity
  8
0
  6
Continuous
 62
     7
370
    18
100
AcDbMText
 10
231.1475981734
 20
28.0307932366
 30
0.0
 40
3.5
 41
0.0
 71
     1
 72
     1
  1
BEG150 GrSlot W157 H2 D157 wL V4
  7
SLDTEXTSTYLE0
 73
     1
 44
1.0
  0
MTEXT
  5
169
330
1F
100
AcDbEntity
  8
0
  6
Continuous
 62
     7
370
    18
100
AcDbMText
 10
348.2746465368
 20
53.819119072
 30
0.0
 40
2.0
 41
0.0
 71
     1
 72
     1
  1
Projektion: ISO-E
  7
SLDTEXTSTYLE0
 73
     1
 44
1.0
  0
MTEXT
  5
16A
330
1F
100
AcDbEntity
  8
0
  6
Continuous
 62
     7
370
    18
100
AcDbMText
 10
337.7677091855
 20
49.3670227094
 30
0.0
 40
2.5
 41
0.0
 71
     2
 72
     1
  1
Millimeter
  7
SLDTEXTSTYLE0
 73
     1
 44
1.0
  0
MTEXT
  5
16B
330
1F
100
AcDbEntity
  8
0
  6
Continuous
 62
     7
370
    18
100
AcDbMText
 10
337.6323777421
 20
53.855374072
 30
0.0
 40
2.0
 41
0.0
 71
     2
 72
     1
  1
Masseinheit:
  7
SLDTEXTSTYLE0
 73
     1
 44
1.0
  0
MTEXT
  5
16C
330
1F
100
AcDbEntity
  8
0
  6
Continuous
 62
     7
370
    18
100
AcDbMText
 10
337.6114490186
 20
43.5452078816
 30
0.0
 40
2.0
 41
0.0
 71
     2
 72
     1
  1
Blatt / Anz.:
  7
SLDTEXTSTYLE0
 73
     1
 44
1.0
  0
MTEXT
  5
16D
330
1F
100
AcDbEntity
  8
0
  6
Continuous
 62
     7
370
    18
100
AcDbMText
 10
329.2895578243
 20
28.4139191092
 30
0.0
 40
5.0
 41
0.0
 71
     1
 72
     1
  1
CH
  7
SLDTEXTSTYLE0
 73
     1
 44
1.0
  0
MTEXT
  5
16E
330
1F
100
AcDbEntity
  8
0
  6
Continuous
 62
     7
370
    18
100
AcDbMText
 10
330.40704
 20
33.692638072
 30
0.0
 40
2.0
 41
0.0
 71
     1
 72
     1
  1
Zeichnung Nr.:
  7
SLDTEXTSTYLE0
 73
     1
 44
1.0
  0
MTEXT
  5
16F
330
1F
100
AcDbEntity
  8
0
  6
Continuous
 62
     7
370
    18
100
AcDbMText
 10
269.897953
 20
75.161075072
 30
0.0
 40
2.0
 41
0.0
 71
     1
 72
     1
  1
Gewicht:
  7
SLDTEXTSTYLE0
 73
     1
 44
1.0
  0
MTEXT
  5
170
330
1F
100
AcDbEntity
  8
0
  6
Continuous
 62
     7
370
    18
100
AcDbMText
 10
230.0
 20
64.542328072
 30
0.0
 40
2.0
 41
0.0
 71
     1
 72
     1
  1
zul. Abweichung:
  7
SLDTEXTSTYLE0
 73
     1
 44
1.0
  0
MTEXT
  5
171
330
1F
100
AcDbEntity
  8
0
  6
Continuous
 62
     7
370
    18
100
AcDbMText
 10
269.612607
 20
64.542328072
 30
0.0
 40
2.0
 41
0.0
 71
     1
 72
     1
  1
Oberfläche:
  7
SLDTEXTSTYLE0
 73
     1
 44
1.0
  0
MTEXT
  5
172
330
1F
100
AcDbEntity
  8
0
  6
Continuous
 62
     7
370
    18
100
AcDbMText
 10
230.261411
 20
43.4433838912
 30
0.0
 40
2.0
 41
0.0
 71
     1
 72
     1
  1
Freigegeben:
  7
SLDTEXTSTYLE0
 73
     1
 44
1.0
  0
MTEXT
  5
173
330
1F
100
AcDbEntity
  8
0
  6
Continuous
 62
     7
370
    18
100
AcDbMText
 10
230.0
 20
75.161075072
 30
0.0
 40
2.0
 41
0.0
 71
     1
 72
     1
  1
Werkstoff:
  7
SLDTEXTSTYLE0
 73
     1
 44
1.0
  0
MTEXT
  5
174
330
1F
100
AcDbEntity
  8
0
  6
Continuous
 62
     7
370
    18
100
AcDbMText
 10
254.035545
 20
53.129475072
 30
0.0
 40
2.0
 41
0.0
 71
     1
 72
     1
  1
Datum:
  7
SLDTEXTSTYLE0
 73
     1
 44
1.0
  0
MTEXT
  5
175
330
1F
100
AcDbEntity
  8
0
  6
Continuous
 62
     7
370
    18
100
AcDbMText
 10
279.934928
 20
53.136060072
 30
0.0
 40
2.0
 41
0.0
 71
     1
 72
     1
  1
Name:
  7
SLDTEXTSTYLE0
 73
     1
 44
1.0
  0
MTEXT
  5
176
330
1F
100
AcDbEntity
  8
0
  6
Continuous
 62
     7
370
    18
100
AcDbMText
 10
312.162455406
 20
53.881591072
 30
0.0
 40
2.0
 41
0.0
 71
     2
 72
     1
  1
Massstab:
  7
SLDTEXTSTYLE0
 73
     1
 44
1.0
  0
MTEXT
  5
177
330
1F
100
AcDbEntity
  8
0
  6
Continuous
 62
     7
370
    18
100
AcDbMText
 10
403.9552944035
 20
33.324874072
 30
0.0
 40
2.0
 41
0.0
 71
     2
 72
     1
  1
Index:
  7
SLDTEXTSTYLE0
 73
     1
 44
1.0
  0
MTEXT
  5
178
330
1F
100
AcDbEntity
  8
0
  6
Continuous
 62
     7
370
    18
100
AcDbMText
 10
230.261411
 20
48.4499477886
 30
0.0
 40
2.0
 41
0.0
 71
     1
 72
     1
  1
Erstellt:
  7
SLDTEXTSTYLE0
 73
     1
 44
1.0
  0
MTEXT
  5
17A
330
1F
100
AcDbEntity
  8
0
  6
Continuous
 62
     7
370
    18
100
AcDbMText
 10
337.6348165843
 20
39.869706576
 30
0.0
 40
2.5
 41
0.0
 71
     2
 72
     1
  1
1 / 1
  7
SLDTEXTSTYLE1
 73
     1
 44
1.0
  0
MTEXT
  5
17B
330
1F
100
AcDbEntity
  8
0
  6
Continuous
 62
     7
370
    18
100
AcDbMText
 10
269.612607
 20
60.8119428599
 30
0.0
 40
3.0
 41
0.0
 71
     1
 72
     1
  1
DIN ISO 1302
  7
SLDTEXTSTYLE0
 73
     1
 44
1.0
  0
MTEXT
  5
17C
330
1F
100
AcDbEntity
  8
0
  6
Continuous
 62
     7
370
    18
100
AcDbMText
 10
230.0
 20
60.8119428599
 30
0.0
 40
3.0
 41
0.0
 71
     1
 72
     1
  1
Norm
  7
SLDTEXTSTYLE0
 73
     1
 44
1.0
  0
MTEXT
  5
17D
330
1F
100
AcDbEntity
  8
0
  6
Continuous
 62
     7
370
    18
100
AcDbMText
 10
269.612607
 20
71.2121947186
 30
0.0
 40
3.0
 41
0.0
 71
     1
 72
     1
  1
0.25 kg
  7
SLDTEXTSTYLE0
 73
     1
 44
1.0
  0
MTEXT
  5
17E
330
1F
100
AcDbEntity
  8
0
  6
Continuous
 62
     7
370
    18
100
AcDbMText
 10
230.0
 20
71.2121947186
 30
0.0
 40
3.0
 41
0.0
 71
     1
 72
     1
  1
1.4404
  7
SLDTEXTSTYLE0
 73
     1
 44
1.0
  0
LINE
  5
17F
330
1F
100
AcDbEntity
  8
0
  6
Continuous
 62
     7
370
    25
100
AcDbLine
 10
256.9327731376
 20
173.5695768771
 30
0.0
 11
256.9327731376
 21
173.839035345
 31
0.0
  0
LINE
  5
180
330
1F
100
AcDbEntity
  8
0
  6
Continuous
 62
     7
370
    25
100
AcDbLine
 10
249.7927731376
 20
173.839035345
 30
0.0
 11
249.7927731376
 21
173.5695768771
 31
0.0
  0
LINE
  5
181
330
1F
100
AcDbEntity
  8
0
  6
Continuous
 62
     7
370
    25
100
AcDbLine
 10
364.006860016
 20
157.0069527798
 30
0.0
 11
364.006860016
 21
157.2764112478
 31
0.0
  0
LINE
  5
182
330
1F
100
AcDbEntity
  8
0
  6
Continuous
 62
     7
370
    25
100
AcDbLine
 10
356.866860016
 20
157.2764112478
 30
0.0
 11
356.866860016
 21
157.0069527798
 31
0.0
  0
LINE
  5
183
330
1F
100
AcDbEntity
  8
0
  6
Continuous
 62
     7
370
    25
100
AcDbLine
 10
335.3164449067
 20
218.8195074175
 30
0.0
 11
335.3164449067
 21
219.0889658855
 31
0.0
  0
LINE
  5
184
330
1F
100
AcDbEntity
  8
0
  6
Continuous
 62
     7
370
    25
100
AcDbLine
 10
328.1764449067
 20
219.0889658855
 30
0.0
 11
328.1764449067
 21
218.8195074175
 31
0.0
  0
LINE
  5
185
330
1F
100
AcDbEntity
  8
0
  6
Continuous
 62
     7
370
    25
100
AcDbLine
 10
393.6820260201
 20
181.7683892023
 30
0.0
 11
393.6820260201
 21
183.4014708261
 31
0.0
  0
LINE
  5
186
330
1F
100
AcDbEntity
  8
0
  6
Continuous
 62
     7
370
    25
100
AcDbLine
 10
236.6820260201
 20
183.4014708261
 30
0.0
 11
236.6820260201
 21
181.7683892023
 31
0.0
  0
SPLINE
  5
187
330
1F
100
AcDbEntity
  8
0
  6
Continuous
 62
     7
370
    25
100
AcDbSpline
210
0.0
220
0.0
230
1.0
 70
     8
 71
     3
 72
    10
 73
     6
 74
     0
 42
0.00000001
 43
0.00000001
 40
0.0
 40
0.0
 40
0.0
 40
0.0
 40
0.0124908165466832
 40
0.9045754339110457
 40
0.9999999999999999
 40
0.9999999999999999
 40
0.9999999999999999
 40
0.9999999999999999
 10
300.2266636512221
 20
149.507754854116
 30
0.0
 10
300.2235908896658
 20
149.5088666437102
 30
0.0
 10
300.0010638348737
 20
149.5893816005064
 30
0.0
 10
299.7407419934215
 20
149.6369935556829
 30
0.0
 10
299.4850184734545
 20
149.6781278347037
 30
0.0
 10
299.4603075073791
 20
149.6821027048039
 30
0.0
  0
SPLINE
  5
188
330
1F
100
AcDbEntity
  8
0
  6
Continuous
 62
     7
370
    25
100
AcDbSpline
210
0.0
220
0.0
230
1.0
 70
     8
 71
     3
 72
     9
 73
     5
 74
     0
 42
0.00000001
 43
0.00000001
 40
0.0
 40
0.0
 40
0.0
 40
0.0
 40
0.3660045011425738
 40
1.0
 40
1.0
 40
1.0
 40
1.0
 10
297.7757328940734
 20
149.6702701224868
 30
0.0
 10
297.6799199410721
 20
149.6591745077686
 30
0.0
 10
297.418139135912
 20
149.6288589933869
 30
0.0
 10
297.1673391291023
 20
149.5495639647173
 30
0.0
 10
297.0083330536717
 20
149.499291273459
 30
0.0
  0
SPLINE
  5
189
330
1F
100
AcDbEntity
  8
0
  6
Continuous
 62
     7
370
    25
100
AcDbSpline
210
0.0
220
0.0
230
1.0
 70
     8
 71
     3
 72
    10
 73
     6
 74
     0
 42
0.00000001
 43
0.00000001
 40
0.0
 40
0.0
 40
0.0
 40
0.0
 40
0.3214271729607874
 40
0.7303115827286063
 40
1.0
 40
1.0
 40
1.0
 40
1.0
 10
299.4603075073791
 20
149.6821027048039
 30
0.0
 10
299.2804767966834
 20
149.7041853319848
 30
0.0
 10
298.8718851715836
 20
149.7543590564362
 30
0.0
 10
298.3035142016171
 20
149.7554386934213
 30
0.0
 10
297.9258355228067
 20
149.6944923262671
 30
0.0
 10
297.7757328940734
 20
149.6702701224868
 30
0.0
  0
LINE
  5
18A
330
1F
100
AcDbEntity
  8
0
  6
Continuous
 62
     7
370
    25
100
AcDbLine
 10
323.4014572974
 20
179.7933712672
 30
0.0
 11
323.4014572974
 21
179.8750253483
 31
0.0
  0
LINE
  5
18B
330
1F
100
AcDbEntity
  8
0
  6
Continuous
 62
     7
370
    25
100
AcDbLine
 10
319.1798845701
 20
179.8750253483
 30
0.0
 11
319.1798845701
 21
179.7933712672
 31
0.0
  0
LINE
  5
18C
330
1F
100
AcDbEntity
  8
0
  6
Continuous
 62
     7
370
    25
100
AcDbLine
 10
317.2928099773
 20
183.3198165597
 30
0.0
 11
317.2928099773
 21
183.4014706409
 31
0.0
  0
LINE
  5
18D
330
1F
100
AcDbEntity
  8
0
  6
Continuous
 62
     7
370
    25
100
AcDbLine
 10
313.0712427046
 20
183.4014706409
 30
0.0
 11
313.0712427046
 21
183.3198165597
 31
0.0
  0
LINE
  5
18E
330
1F
100
AcDbEntity
  8
0
  6
Continuous
 62
     7
370
    25
100
AcDbLine
 10
310.2810055949
 20
187.3904310265
 30
0.0
 11
310.2810055949
 21
187.4720851077
 31
0.0
  0
SPLINE
  5
18F
330
1F
100
AcDbEntity
  8
0
  6
Continuous
 62
     7
370
    25
100
AcDbSpline
210
0.0
220
0.0
230
1.0
 70
     8
 71
     3
 72
    13
 73
     9
 74
     0
 42
0.00000001
 43
0.00000001
 40
0.0
 40
0.0
 40
0.0
 40
0.0
 40
0.0064532095185882
 40
0.2108245394171206
 40
0.4163314827655608
 40
0.6286795145388255
 40
0.8584971963041812
 40
1.0
 40
1.0
 40
1.0
 40
1.0
 10
378.6332682596371
 20
194.7501318633894
 30
0.0
 10
378.6267532418325
 20
194.7525115252521
 30
0.0
 10
378.4139094431001
 20
194.8302544088063
 30
0.0
 10
377.9714435189118
 20
194.91846865542
 30
0.0
 10
377.3052156307093
 20
195.0045616193457
 30
0.0
 10
376.6036338127003
 20
194.995809835429
 30
0.0
 10
375.9755979489266
 20
194.918921287242
 30
0.0
 10
375.5918991943954
 20
194.8068161777595
 30
0.0
 10
375.4456792801524
 20
194.7640951647222
 30
0.0
  0
SPLINE
  5
190
330
1F
100
AcDbEntity
  8
0
  6
Continuous
 62
     7
370
    25
100
AcDbSpline
210
0.0
220
0.0
230
1.0
 70
     8
 71
     3
 72
    13
 73
     9
 74
     0
 42
0.00000001
 43
0.00000001
 40
0.0
 40
0.0
 40
0.0
 40
0.0
 40
0.0031348294425194
 40
0.2070457614048777
 40
0.4120897485615863
 40
0.6239594128670256
 40
0.8532593723744082
 40
0.9999999999999999
 40
0.9999999999999999
 40
0.9999999999999999
 40
0.9999999999999999
 10
271.5491469369765
 20
211.3164032515128
 30
0.0
 10
271.5459740769664
 20
211.3175593140284
 30
0.0
 10
271.3364165145393
 20
211.3939136574276
 30
0.0
 10
270.8973028150119
 20
211.4809457337151
 30
0.0
 10
270.2311492900365
 20
211.5672043697376
 30
0.0
 10
269.5295185078475
 20
211.5585171747224
 30
0.0
 10
268.8956022381884
 20
211.4804828391962
 30
0.0
 10
268.5061943408516
 20
211.3665110121829
 30
0.0
 10
268.354237447865
 20
211.3220362985487
 30
0.0
  0
LWPOLYLINE
  5
191
330
1F
100
AcDbEntity
  8
0
  6
Continuous
 62
     7
370
    25
100
AcDbPolyline
 90
       36
 70
   128
 43
0.0
 10
256.8111283375
 20
173.3056307409
 10
256.5907281385
 20
172.9587507968
 10
256.2665788098
 20
172.6401639223
 10
255.8490987775
 20
172.3601097619
 10
255.3517061934
 20
172.1275894865
 10
254.7903876644
 20
171.9500764892
 10
254.1831844299
 20
171.8332761838
 10
253.5496125014
 20
171.7809426282
 10
252.910035402
 20
171.7947578659
 10
252.285009666
 20
171.8742778638
 10
251.6946241347
 20
172.0169467838
 10
251.1578542849
 20
172.2181791293
 10
250.6919523413
 20
172.4715071273
 10
250.3118927756
 20
172.7687886074
 10
250.029891015
 20
173.1004686982
 10
249.8550108282
 20
173.4558869288
 10
249.7928730081
 20
173.8236198647
 10
249.8454747156
 20
174.1918482668
 10
250.0111252884
 20
174.5487369714
 10
250.2845005808
 20
174.8828152817
 10
250.656814086
 20
175.183345646
 10
251.1160993416
 20
175.4406687712
 10
251.6475945415
 20
175.6465140802
 10
252.2342169928
 20
175.7942655355
 10
252.8571121672
 20
175.8791742836
 10
253.4962597012
 20
175.8985112877
 10
254.1311168672
 20
175.8516550404
 10
254.7412788336
 20
175.7401115401
 10
255.3071344926
 20
175.5674658867
 10
255.8104967779
 20
175.3392670536
 10
256.2351872114
 20
175.0628495389
 10
256.5675558931
 20
174.7470976291
 10
256.7969202202
 20
174.4021598503
 10
256.9159082344
 20
174.0391227866
 10
256.920695563
 20
173.6696547478
 10
256.8111283375
 20
173.3056307409
  0
LINE
  5
192
330
1F
100
AcDbEntity
  8
0
  6
Continuous
 62
     7
370
    25
100
AcDbLine
 10
253.5458047063
 20
175.1255582095
 30
0.0
 11
254.3185453673
 21
175.006027766
 31
0.0
  0
LINE
  5
193
330
1F
100
AcDbEntity
  8
0
  6
Continuous
 62
     7
370
    25
100
AcDbLine
 10
253.0799304251
 20
174.1218474109
 30
0.0
 11
253.5458047063
 21
175.1255582095
 31
0.0
  0
LINE
  5
194
330
1F
100
AcDbEntity
  8
0
  6
Continuous
 62
     7
370
    25
100
AcDbLine
 10
251.3412639378
 20
174.3907909088
 30
0.0
 11
253.0799304251
 21
174.1218474109
 31
0.0
  0
LINE
  5
195
330
1F
100
AcDbEntity
  8
0
  6
Continuous
 62
     7
370
    25
100
AcDbLine
 10
251.1342087017
 20
173.9446972206
 30
0.0
 11
251.3412639378
 21
174.3907909088
 31
0.0
  0
LINE
  5
196
330
1F
100
AcDbEntity
  8
0
  6
Continuous
 62
     7
370
    25
100
AcDbLine
 10
252.872875189
 20
173.6757537227
 30
0.0
 11
251.1342087017
 21
173.9446972206
 31
0.0
  0
LINE
  5
197
330
1F
100
AcDbEntity
  8
0
  6
Continuous
 62
     7
370
    25
100
AcDbLine
 10
252.4070009079
 20
172.6720429241
 30
0.0
 11
252.872875189
 21
173.6757537227
 31
0.0
  0
LINE
  5
198
330
1F
100
AcDbEntity
  8
0
  6
Continuous
 62
     7
370
    25
100
AcDbLine
 10
253.1797415689
 20
172.5525124806
 30
0.0
 11
252.4070009079
 21
172.6720429241
 31
0.0
  0
LINE
  5
199
330
1F
100
AcDbEntity
  8
0
  6
Continuous
 62
     7
370
    25
100
AcDbLine
 10
253.6456158501
 20
173.5562232792
 30
0.0
 11
253.1797415689
 21
172.5525124806
 31
0.0
  0
LINE
  5
19A
330
1F
100
AcDbEntity
  8
0
  6
Continuous
 62
     7
370
    25
100
AcDbLine
 10
255.3842823374
 20
173.2872797813
 30
0.0
 11
253.6456158501
 21
173.5562232792
 31
0.0
  0
LINE
  5
19B
330
1F
100
AcDbEntity
  8
0
  6
Continuous
 62
     7
370
    25
100
AcDbLine
 10
255.5913375735
 20
173.7333734695
 30
0.0
 11
255.3842823374
 21
173.2872797813
 31
0.0
  0
LINE
  5
19C
330
1F
100
AcDbEntity
  8
0
  6
Continuous
 62
     7
370
    25
100
AcDbLine
 10
253.8526710862
 20
174.0023169674
 30
0.0
 11
255.5913375735
 21
173.7333734695
 31
0.0
  0
LINE
  5
19D
330
1F
100
AcDbEntity
  8
0
  6
Continuous
 62
     7
370
    25
100
AcDbLine
 10
254.3185453673
 20
175.006027766
 30
0.0
 11
253.8526710862
 21
174.0023169674
 31
0.0
  0
LINE
  5
19E
330
1F
100
AcDbEntity
  8
0
  6
Continuous
 62
     7
370
    25
100
AcDbLine
 10
252.872875189
 20
173.6757537227
 30
0.0
 11
252.872875189
 21
172.6959047484
 31
0.0
  0
LINE
  5
19F
330
1F
100
AcDbEntity
  8
0
  6
Continuous
 62
     7
370
    25
100
AcDbLine
 10
252.831333937
 20
172.6064054888
 30
0.0
 11
252.872875189
 21
172.6959047484
 31
0.0
  0
LINE
  5
1A0
330
1F
100
AcDbEntity
  8
0
  6
Continuous
 62
     7
370
    25
100
AcDbLine
 10
252.872875189
 20
173.1740265225
 30
0.0
 11
253.0799304251
 21
173.1419984367
 31
0.0
  0
LINE
  5
1A1
330
1F
100
AcDbEntity
  8
0
  6
Continuous
 62
     7
370
    25
100
AcDbLine
 10
253.0799304251
 20
173.1419984367
 30
0.0
 11
253.5458047063
 21
174.1457092352
 31
0.0
  0
LINE
  5
1A2
330
1F
100
AcDbEntity
  8
0
  6
Continuous
 62
     7
370
    25
100
AcDbLine
 10
253.5458047063
 20
174.1457092352
 30
0.0
 11
253.8942123382
 21
174.091816227
 31
0.0
  0
LINE
  5
1A3
330
1F
100
AcDbEntity
  8
0
  6
Continuous
 62
     7
370
    25
100
AcDbLine
 10
253.8526710862
 20
174.0023169674
 30
0.0
 11
253.8526710862
 21
173.5241951934
 31
0.0
  0
LINE
  5
1A4
330
1F
100
AcDbEntity
  8
0
  6
Continuous
 62
     7
370
    25
100
AcDbLine
 10
251.3412639378
 20
174.3907909088
 30
0.0
 11
251.3412639378
 21
173.9126691348
 31
0.0
  0
LINE
  5
1A5
330
1F
100
AcDbEntity
  8
0
  6
Continuous
 62
     7
370
    25
100
AcDbLine
 10
253.0799304251
 20
174.1218474109
 30
0.0
 11
253.0799304251
 21
173.1419984367
 31
0.0
  0
LINE
  5
1A6
330
1F
100
AcDbEntity
  8
0
  6
Continuous
 62
     7
370
    25
100
AcDbLine
 10
253.5458047063
 20
175.1255582095
 30
0.0
 11
253.5458047063
 21
174.1457092352
 31
0.0
  0
LWPOLYLINE
  5
1A7
330
1F
100
AcDbEntity
  8
0
  6
Continuous
 62
     7
370
    25
100
AcDbPolyline
 90
       36
 70
   128
 43
0.0
 10
359.512876025
 20
159.2671043315
 10
360.1434524245
 20
159.3303561445
 10
360.7834591855
 20
159.3275924785
 10
361.4123259639
 20
159.25890216
 10
362.0098404641
 20
159.1264929524
 10
362.5567980785
 20
158.9346205966
 10
363.0356191393
 20
158.6894520279
 10
363.4309139436
 20
158.3988671659
 10
363.7299773912
 20
158.0722056471
 10
363.9231973367
 20
157.7199666415
 10
364.0043635321
 20
157.3534714006
 10
363.9708672292
 20
156.984499383
 10
363.8237850267
 20
156.624909653
 10
363.5678442676
 20
156.2862597202
 10
363.2112710984
 20
155.9794340722
 10
362.7655260743
 20
155.7142943379
 10
362.244935807
 20
155.4993623263
 10
361.6662324961
 20
155.3415461292
 10
361.0480161422
 20
155.245918089
 10
360.4101567275
 20
155.2155517696
 10
359.7731555785
 20
155.2514231696
 10
359.1574864362
 20
155.3523793526
 10
358.5829374134
 20
155.5151755037
 10
358.0679749885
 20
155.7345792209
 10
357.6291504775
 20
156.003538688
 10
357.2805680612
 20
156.3134093264
 10
357.0334314654
 20
156.654231639
 10
356.8956838636
 20
157.0150513162
 10
356.871752577
 20
157.3842713166
 10
356.9624067768
 20
157.7500246057
 10
357.1647327626
 20
158.1005555717
 10
357.4722276106
 20
158.424597861
 10
357.8750081834
 20
158.7117364879
 10
358.360128782
 20
158.9527425806
 10
358.9119972312
 20
159.1398700049
 10
359.512876025
 20
159.2671043315
  0
LINE
  5
1A8
330
1F
100
AcDbEntity
  8
0
  6
Continuous
 62
     7
370
    25
100
AcDbLine
 10
358.4153508163
 20
156.724655684
 30
0.0
 11
358.2082955802
 21
157.1707493722
 31
0.0
  0
LINE
  5
1A9
330
1F
100
AcDbEntity
  8
0
  6
Continuous
 62
     7
370
    25
100
AcDbLine
 10
360.1540173036
 20
156.9935991819
 30
0.0
 11
358.4153508163
 21
156.724655684
 31
0.0
  0
LINE
  5
1AA
330
1F
100
AcDbEntity
  8
0
  6
Continuous
 62
     7
370
    25
100
AcDbLine
 10
360.6198915848
 20
155.9898883833
 30
0.0
 11
360.1540173036
 21
156.9935991819
 31
0.0
  0
LINE
  5
1AB
330
1F
100
AcDbEntity
  8
0
  6
Continuous
 62
     7
370
    25
100
AcDbLine
 10
361.3926322458
 20
156.1094188269
 30
0.0
 11
360.6198915848
 21
155.9898883833
 31
0.0
  0
LINE
  5
1AC
330
1F
100
AcDbEntity
  8
0
  6
Continuous
 62
     7
370
    25
100
AcDbLine
 10
360.9267579646
 20
157.1131296254
 30
0.0
 11
361.3926322458
 21
156.1094188269
 31
0.0
  0
LINE
  5
1AD
330
1F
100
AcDbEntity
  8
0
  6
Continuous
 62
     7
370
    25
100
AcDbLine
 10
362.6654244519
 20
157.3820731233
 30
0.0
 11
360.9267579646
 21
157.1131296254
 31
0.0
  0
LINE
  5
1AE
330
1F
100
AcDbEntity
  8
0
  6
Continuous
 62
     7
370
    25
100
AcDbLine
 10
362.4583692158
 20
157.8281668115
 30
0.0
 11
362.6654244519
 21
157.3820731233
 31
0.0
  0
LINE
  5
1AF
330
1F
100
AcDbEntity
  8
0
  6
Continuous
 62
     7
370
    25
100
AcDbLine
 10
360.7197027285
 20
157.5592233136
 30
0.0
 11
362.4583692158
 21
157.8281668115
 31
0.0
  0
LINE
  5
1B0
330
1F
100
AcDbEntity
  8
0
  6
Continuous
 62
     7
370
    25
100
AcDbLine
 10
360.2538284473
 20
158.5629341122
 30
0.0
 11
360.7197027285
 21
157.5592233136
 31
0.0
  0
LINE
  5
1B1
330
1F
100
AcDbEntity
  8
0
  6
Continuous
 62
     7
370
    25
100
AcDbLine
 10
359.4810877863
 20
158.4434036687
 30
0.0
 11
360.2538284473
 21
158.5629341122
 31
0.0
  0
LINE
  5
1B2
330
1F
100
AcDbEntity
  8
0
  6
Continuous
 62
     7
370
    25
100
AcDbLine
 10
359.9469620675
 20
157.4396928701
 30
0.0
 11
359.4810877863
 21
158.4434036687
 31
0.0
  0
LINE
  5
1B3
330
1F
100
AcDbEntity
  8
0
  6
Continuous
 62
     7
370
    25
100
AcDbLine
 10
358.2082955802
 20
157.1707493722
 30
0.0
 11
359.9469620675
 21
157.4396928701
 31
0.0
  0
LINE
  5
1B4
330
1F
100
AcDbEntity
  8
0
  6
Continuous
 62
     7
370
    25
100
AcDbLine
 10
360.9267579646
 20
156.1332806511
 30
0.0
 11
360.9682992166
 21
156.0437813915
 31
0.0
  0
LINE
  5
1B5
330
1F
100
AcDbEntity
  8
0
  6
Continuous
 62
     7
370
    25
100
AcDbLine
 10
360.9267579646
 20
157.1131296254
 30
0.0
 11
360.9267579646
 21
156.1332806511
 31
0.0
  0
LINE
  5
1B6
330
1F
100
AcDbEntity
  8
0
  6
Continuous
 62
     7
370
    25
100
AcDbLine
 10
359.9054208155
 20
157.5291921298
 30
0.0
 11
360.2538284473
 21
157.5830851379
 31
0.0
  0
LINE
  5
1B7
330
1F
100
AcDbEntity
  8
0
  6
Continuous
 62
     7
370
    25
100
AcDbLine
 10
360.2538284473
 20
157.5830851379
 30
0.0
 11
360.7197027285
 21
156.5793743394
 31
0.0
  0
LINE
  5
1B8
330
1F
100
AcDbEntity
  8
0
  6
Continuous
 62
     7
370
    25
100
AcDbLine
 10
360.7197027285
 20
156.5793743394
 30
0.0
 11
360.9267579646
 21
156.6114024252
 31
0.0
  0
LINE
  5
1B9
330
1F
100
AcDbEntity
  8
0
  6
Continuous
 62
     7
370
    25
100
AcDbLine
 10
359.9469620675
 20
157.4396928701
 30
0.0
 11
359.9469620675
 21
156.9615710961
 31
0.0
  0
LINE
  5
1BA
330
1F
100
AcDbEntity
  8
0
  6
Continuous
 62
     7
370
    25
100
AcDbLine
 10
362.4583692158
 20
157.8281668115
 30
0.0
 11
362.4583692158
 21
157.3500450375
 31
0.0
  0
LINE
  5
1BB
330
1F
100
AcDbEntity
  8
0
  6
Continuous
 62
     7
370
    25
100
AcDbLine
 10
360.7197027285
 20
157.5592233136
 30
0.0
 11
360.7197027285
 21
156.5793743394
 31
0.0
  0
LINE
  5
1BC
330
1F
100
AcDbEntity
  8
0
  6
Continuous
 62
     7
370
    25
100
AcDbLine
 10
360.2538284473
 20
158.5629341122
 30
0.0
 11
360.2538284473
 21
157.5830851379
 31
0.0
  0
LWPOLYLINE
  5
1BD
330
1F
100
AcDbEntity
  8
0
  6
Continuous
 62
     7
370
    25
100
AcDbPolyline
 90
       36
 70
   128
 43
0.0
 10
329.2220736978
 20
217.6316774059
 10
328.8118974973
 20
217.915305537
 10
328.4960400651
 20
218.2366560774
 10
328.2846533189
 20
218.5854005564
 10
328.1845314028
 20
218.9503300393
 10
328.1988923174
 20
219.3197153925
 10
328.3272744911
 20
219.6816842666
 10
328.5655516153
 20
220.0246026842
 10
328.9060652672
 20
220.3374489653
 10
329.3378710577
 20
220.610167973
 10
329.8470903935
 20
220.8339942939
 10
330.4173565462
 20
221.0017339659
 10
331.0303406923
 20
221.107995698
 10
331.6663410171
 20
221.1493641507
 10
332.3049159469
 20
221.1245097078
 10
332.9255411578
 20
221.0342312116
 10
333.5082692452
 20
220.8814302873
 10
334.0343708486
 20
220.6710180823
 10
334.4869366297
 20
220.4097574179
 10
334.851420752
 20
220.1060454269
 10
335.1161083959
 20
219.7696436626
 10
335.2724922826
 20
219.4113643545
 10
335.3155461054
 20
219.0427228943
 10
335.243886079
 20
218.675567722
 10
335.0598154157
 20
218.3216995067
 10
334.7692502979
 20
217.9924918641
 10
334.3815297277
 20
217.6985257988
 10
333.9091153632
 20
217.4492496219
 10
333.3671909907
 20
217.2526752749
 10
332.7731745056
 20
217.115120819
 10
332.1461580864
 20
217.0410073677
 10
331.5062945566
 20
217.0327169881
 10
330.8741496568
 20
217.0905161401
 10
330.2700410439
 20
217.2125471111
 10
329.7133852661
 20
217.3948877255
 10
329.2220736978
 20
217.6316774059
  0
LINE
  5
1BE
330
1F
100
AcDbEntity
  8
0
  6
Continuous
 62
     7
370
    25
100
AcDbLine
 10
333.5849225378
 20
218.3541985848
 30
0.0
 11
333.0192371128
 21
218.0276353401
 31
0.0
  0
LINE
  5
1BF
330
1F
100
AcDbEntity
  8
0
  6
Continuous
 62
     7
370
    25
100
AcDbLine
 10
332.3121303316
 20
219.0889658855
 30
0.0
 11
333.5849225378
 21
218.3541985848
 31
0.0
  0
LINE
  5
1C0
330
1F
100
AcDbEntity
  8
0
  6
Continuous
 62
     7
370
    25
100
AcDbLine
 10
333.5849225378
 20
219.8237331861
 30
0.0
 11
332.3121303316
 21
219.0889658855
 31
0.0
  0
LINE
  5
1C1
330
1F
100
AcDbEntity
  8
0
  6
Continuous
 62
     7
370
    25
100
AcDbLine
 10
333.0192371128
 20
220.1502964308
 30
0.0
 11
333.5849225378
 21
219.8237331861
 31
0.0
  0
LINE
  5
1C2
330
1F
100
AcDbEntity
  8
0
  6
Continuous
 62
     7
370
    25
100
AcDbLine
 10
331.7464449067
 20
219.4155291302
 30
0.0
 11
333.0192371128
 21
220.1502964308
 31
0.0
  0
LINE
  5
1C3
330
1F
100
AcDbEntity
  8
0
  6
Continuous
 62
     7
370
    25
100
AcDbLine
 10
330.4736527005
 20
220.1502964308
 30
0.0
 11
331.7464449067
 21
219.4155291302
 31
0.0
  0
LINE
  5
1C4
330
1F
100
AcDbEntity
  8
0
  6
Continuous
 62
     7
370
    25
100
AcDbLine
 10
329.9079672756
 20
219.8237331861
 30
0.0
 11
330.4736527005
 21
220.1502964308
 31
0.0
  0
LINE
  5
1C5
330
1F
100
AcDbEntity
  8
0
  6
Continuous
 62
     7
370
    25
100
AcDbLine
 10
331.1807594817
 20
219.0889658855
 30
0.0
 11
329.9079672756
 21
219.8237331861
 31
0.0
  0
LINE
  5
1C6
330
1F
100
AcDbEntity
  8
0
  6
Continuous
 62
     7
370
    25
100
AcDbLine
 10
329.9079672756
 20
218.3541985848
 30
0.0
 11
331.1807594817
 21
219.0889658855
 31
0.0
  0
LINE
  5
1C7
330
1F
100
AcDbEntity
  8
0
  6
Continuous
 62
     7
370
    25
100
AcDbLine
 10
330.4736527005
 20
218.0276353401
 30
0.0
 11
329.9079672756
 21
218.3541985848
 31
0.0
  0
LINE
  5
1C8
330
1F
100
AcDbEntity
  8
0
  6
Continuous
 62
     7
370
    25
100
AcDbLine
 10
331.7464449067
 20
218.7624026407
 30
0.0
 11
330.4736527005
 21
218.0276353401
 31
0.0
  0
LINE
  5
1C9
330
1F
100
AcDbEntity
  8
0
  6
Continuous
 62
     7
370
    25
100
AcDbLine
 10
333.0192371128
 20
218.0276353401
 30
0.0
 11
331.7464449067
 21
218.7624026407
 31
0.0
  0
LINE
  5
1CA
330
1F
100
AcDbEntity
  8
0
  6
Continuous
 62
     7
370
    25
100
AcDbLine
 10
331.1807594817
 20
218.7622434007
 30
0.0
 11
331.4634642733
 21
218.5990413983
 31
0.0
  0
LINE
  5
1CB
330
1F
100
AcDbEntity
  8
0
  6
Continuous
 62
     7
370
    25
100
AcDbLine
 10
332.02942554
 20
218.5990413983
 30
0.0
 11
332.3121303316
 21
218.7622434007
 31
0.0
  0
LINE
  5
1CC
330
1F
100
AcDbEntity
  8
0
  6
Continuous
 62
     7
370
    25
100
AcDbLine
 10
332.3121303316
 20
219.0889658855
 30
0.0
 11
332.3121303316
 21
218.435839396
 31
0.0
  0
LINE
  5
1CD
330
1F
100
AcDbEntity
  8
0
  6
Continuous
 62
     7
370
    25
100
AcDbLine
 10
331.1807594817
 20
219.0889658855
 30
0.0
 11
331.1807594817
 21
218.435839396
 31
0.0
  0
LINE
  5
1CE
330
1F
100
AcDbEntity
  8
0
  6
Continuous
 62
     7
370
    25
100
AcDbLine
 10
331.7464449067
 20
219.4155291302
 30
0.0
 11
331.7464449067
 21
218.7624026407
 31
0.0
  0
LINE
  5
1CF
330
1F
100
AcDbEntity
  8
0
  6
Continuous
 62
     7
370
    25
100
AcDbLine
 10
330.4736527005
 20
220.1502964308
 30
0.0
 11
330.4736527005
 21
219.4971699414
 31
0.0
  0
LINE
  5
1D0
330
1F
100
AcDbEntity
  8
0
  6
Continuous
 62
     7
370
    25
100
AcDbLine
 10
333.0192371128
 20
220.1502964308
 30
0.0
 11
333.0192371128
 21
219.4971699414
 31
0.0
  0
LWPOLYLINE
  5
1D1
330
1F
100
AcDbEntity
  8
0
  6
Continuous
 62
     7
370
    25
100
AcDbPolyline
 90
      169
 70
   128
 43
0.0
 10
391.0072033838
 20
171.6725460564
 10
390.1944912743
 20
170.0440254156
 10
389.2768674493
 20
168.4341863701
 10
388.2556152887
 20
166.8452804252
 10
387.1321631059
 20
165.2795298097
 10
385.9080821504
 20
163.7391243674
 10
384.5850844102
 20
162.2262184945
 10
383.1650202172
 20
160.7429281267
 10
381.6498756595
 20
159.2913277798
 10
380.0417698039
 20
157.873447648
 10
378.3429517318
 20
156.491270765
 10
376.5557973938
 20
155.14673023
 10
374.682806287
 20
153.8417065047
 10
372.7265979587
 20
152.5780247826
 10
370.6899083433
 20
151.3574524371
 10
368.5755859351
 20
150.1816965487
 10
366.3865878054
 20
149.0524015185
 10
364.125975466
 20
147.9711467677
 10
361.7969105876
 20
146.9394445288
 10
359.4026505781
 20
145.9587377307
 10
356.9465440266
 20
145.0303979805
 10
354.4320260201
 20
144.1557236453
 10
351.8626133395
 20
143.3359380363
 10
349.2418995408
 20
142.5721876978
 10
346.5735499292
 20
141.8655408036
 10
343.8612964329
 20
141.2169856634
 10
341.1089323836
 20
140.6274293401
 10
338.3203072114
 20
140.0976963816
 10
335.4993210607
 20
139.6285276673
 10
332.6499193357
 20
139.2205793722
 10
329.7760871824
 20
138.8744220487
 10
326.8818439149
 20
138.5905398292
 10
323.9712373942
 20
138.3693297486
 10
321.0483383666
 20
138.2111011893
 10
318.1172347708
 20
138.1160754482
 10
315.1820260201
 20
138.0843854274
 10
312.2468172694
 20
138.1160754482
 10
309.3157136736
 20
138.2111011893
 10
306.392814646
 20
138.3693297486
 10
303.4822081253
 20
138.5905398292
 10
300.5879648578
 20
138.8744220487
 10
297.7141327045
 20
139.2205793722
 10
294.8647309796
 20
139.6285276673
 10
292.0437448288
 20
140.0976963816
 10
289.2551196566
 20
140.6274293401
 10
286.5027556073
 20
141.2169856634
 10
283.790502111
 20
141.8655408036
 10
281.1221524994
 20
142.5721876978
 10
278.5014387007
 20
143.3359380363
 10
275.9320260201
 20
144.1557236453
 10
273.4175080137
 20
145.0303979805
 10
270.9614014621
 20
145.9587377307
 10
268.5671414526
 20
146.9394445288
 10
266.2380765742
 20
147.9711467677
 10
263.9774642348
 20
149.0524015185
 10
261.7884661051
 20
150.1816965487
 10
259.674143697
 20
151.3574524371
 10
257.6374540815
 20
152.5780247826
 10
255.6812457532
 20
153.8417065047
 10
253.8082546464
 20
155.14673023
 10
252.0211003084
 20
156.491270765
 10
250.3222822363
 20
157.873447648
 10
248.7141763807
 20
159.2913277798
 10
247.199031823
 20
160.7429281267
 10
245.77896763
 20
162.2262184945
 10
244.4559698898
 20
163.7391243674
 10
243.2318889343
 20
165.2795298097
 10
242.1084367515
 20
166.8452804252
 10
241.0871845909
 20
168.4341863701
 10
240.1695607659
 20
170.0440254156
 10
239.3568486564
 20
171.6725460564
 10
238.6501849138
 20
173.317470659
 10
238.0505578713
 20
174.9764986477
 10
237.5588061614
 20
176.6473097218
 10
237.1756175435
 20
178.3275671009
 10
236.9015279414
 20
180.0149207932
 10
236.7369206942
 20
181.7070108819
 10
236.6820260201
 20
183.4014708261
 10
236.7369206942
 20
185.0959307703
 10
236.9015279414
 20
186.788020859
 10
237.1756175435
 20
188.4753745513
 10
237.5588061614
 20
190.1556319304
 10
238.0505578713
 20
191.8264430045
 10
238.6501849138
 20
193.4854709932
 10
239.3568486564
 20
195.1303955958
 10
240.1695607659
 20
196.7589162366
 10
241.0871845909
 20
198.3687552821
 10
242.1084367515
 20
199.957661227
 10
243.2318889343
 20
201.5234118425
 10
244.4559698898
 20
203.0638172848
 10
245.77896763
 20
204.5767231577
 10
247.199031823
 20
206.0600135255
 10
248.7141763807
 20
207.5116138724
 10
250.3222822363
 20
208.9294940042
 10
252.0211003084
 20
210.3116708872
 10
253.8082546464
 20
211.6562114222
 10
255.6812457532
 20
212.9612351475
 10
257.6374540815
 20
214.2249168695
 10
259.674143697
 20
215.4454892151
 10
261.7884661051
 20
216.6212451035
 10
263.9774642348
 20
217.7505401337
 10
266.2380765742
 20
218.8317948845
 10
268.5671414526
 20
219.8634971234
 10
270.9614014621
 20
220.8442039215
 10
273.4175080137
 20
221.7725436717
 10
275.9320260201
 20
222.6472180068
 10
278.5014387007
 20
223.4670036159
 10
281.1221524994
 20
224.2307539544
 10
283.790502111
 20
224.9374008486
 10
286.5027556073
 20
225.5859559888
 10
289.2551196566
 20
226.1755123121
 10
292.0437448289
 20
226.7052452706
 10
294.8647309796
 20
227.1744139849
 10
297.7141327045
 20
227.58236228
 10
300.5879648578
 20
227.9285196035
 10
303.4822081253
 20
228.212401823
 10
306.392814646
 20
228.4336119036
 10
309.3157136736
 20
228.5918404629
 10
312.2468172694
 20
228.686866204
 10
315.1820260201
 20
228.7185562248
 10
318.1172347708
 20
228.686866204
 10
321.0483383666
 20
228.5918404629
 10
323.9712373942
 20
228.4336119036
 10
326.8818439149
 20
228.212401823
 10
329.7760871824
 20
227.9285196035
 10
332.6499193357
 20
227.58236228
 10
335.4993210607
 20
227.1744139849
 10
338.3203072114
 20
226.7052452706
 10
341.1089323836
 20
226.1755123121
 10
343.8612964329
 20
225.5859559888
 10
346.5735499292
 20
224.9374008486
 10
349.2418995408
 20
224.2307539544
 10
351.8626133395
 20
223.4670036159
 10
354.4320260201
 20
222.6472180068
 10
356.9465440266
 20
221.7725436717
 10
359.4026505781
 20
220.8442039215
 10
361.7969105876
 20
219.8634971234
 10
364.125975466
 20
218.8317948845
 10
366.3865878054
 20
217.7505401337
 10
368.5755859351
 20
216.6212451035
 10
370.6899083433
 20
215.4454892151
 10
372.7265979587
 20
214.2249168695
 10
374.682806287
 20
212.9612351475
 10
376.5557973938
 20
211.6562114222
 10
378.3429517318
 20
210.3116708872
 10
380.0417698039
 20
208.9294940042
 10
381.6498756595
 20
207.5116138724
 10
383.1650202172
 20
206.0600135254
 10
384.5850844102
 20
204.5767231577
 10
385.9080821504
 20
203.0638172848
 10
387.1321631059
 20
201.5234118425
 10
388.2556152887
 20
199.957661227
 10
389.2768674493
 20
198.3687552821
 10
390.1944912743
 20
196.7589162366
 10
391.0072033838
 20
195.1303955958
 10
391.7138671264
 20
193.4854709932
 10
392.3134941689
 20
191.8264430045
 10
392.8052458788
 20
190.1556319304
 10
393.1884344967
 20
188.4753745513
 10
393.4625240988
 20
186.788020859
 10
393.627131346
 20
185.0959307703
 10
393.6820260201
 20
183.4014708261
 10
393.627131346
 20
181.7070108819
 10
393.4625240988
 20
180.0149207932
 10
393.1884344967
 20
178.3275671009
 10
392.8052458788
 20
176.6473097218
 10
392.3134941689
 20
174.9764986477
 10
391.7138671264
 20
173.317470659
 10
391.0072033838
 20
171.6725460564
  0
LINE
  5
1D2
330
1F
100
AcDbEntity
  8
0
  6
Continuous
 62
     7
370
    25
100
AcDbLine
 10
391.0072033838
 20
170.0394644326
 30
0.0
 11
391.0072033838
 21
171.6725460564
 31
0.0
  0
ARC
  5
1D3
330
1F
100
AcDbEntity
  8
0
  6
Continuous
 62
     7
370
    25
100
AcDbCircle
 10
366.0414594443
 20
181.9024540884
 30
0.0
 40
27.64089170096327
100
AcDbArc
 50
334.5843031879
 51
359.7221007791
  0
LWPOLYLINE
  5
1D4
330
1F
100
AcDbEntity
  8
0
  6
Continuous
 62
     7
370
    25
100
AcDbPolyline
 90
       78
 70
   128
 43
0.0
 10
236.6820260201
 20
181.7683892023
 10
236.7369206942
 20
180.0739292581
 10
236.9015279414
 20
178.3818391694
 10
237.1756175435
 20
176.6944854771
 10
237.5588061614
 20
175.014228098
 10
238.0505578713
 20
173.3434170239
 10
238.6501849138
 20
171.6843890352
 10
239.3568486564
 20
170.0394644326
 10
240.1695607659
 20
168.4109437918
 10
241.0871845909
 20
166.8011047463
 10
242.1084367515
 20
165.2121988015
 10
243.2318889343
 20
163.646448186
 10
244.4559698898
 20
162.1060427436
 10
245.77896763
 20
160.5931368707
 10
247.199031823
 20
159.109846503
 10
248.7141763807
 20
157.658246156
 10
250.3222822363
 20
156.2403660242
 10
252.0211003084
 20
154.8581891412
 10
253.8082546464
 20
153.5136486063
 10
255.6812457532
 20
152.2086248809
 10
257.6374540815
 20
150.9449431589
 10
259.674143697
 20
149.7243708133
 10
261.7884661051
 20
148.5486149249
 10
263.9774642348
 20
147.4193198947
 10
266.2380765742
 20
146.3380651439
 10
268.5671414526
 20
145.306362905
 10
270.9614014621
 20
144.3256561069
 10
273.4175080137
 20
143.3973163567
 10
275.9320260201
 20
142.5226420216
 10
278.5014387007
 20
141.7028564126
 10
281.1221524994
 20
140.939106074
 10
283.790502111
 20
140.2324591798
 10
286.5027556073
 20
139.5839040396
 10
289.2551196566
 20
138.9943477163
 10
292.0437448289
 20
138.4646147578
 10
294.8647309796
 20
137.9954460436
 10
297.7141327045
 20
137.5874977484
 10
300.5879648578
 20
137.2413404249
 10
303.4822081253
 20
136.9574582054
 10
306.392814646
 20
136.7362481248
 10
309.3157136736
 20
136.5780195655
 10
312.2468172694
 20
136.4829938244
 10
315.1820260201
 20
136.4513038036
 10
318.1172347708
 20
136.4829938244
 10
321.0483383666
 20
136.5780195655
 10
323.9712373942
 20
136.7362481248
 10
326.8818439149
 20
136.9574582054
 10
329.7760871824
 20
137.2413404249
 10
332.6499193357
 20
137.5874977484
 10
335.4993210607
 20
137.9954460436
 10
338.3203072114
 20
138.4646147578
 10
341.1089323836
 20
138.9943477163
 10
343.8612964329
 20
139.5839040396
 10
346.5735499292
 20
140.2324591798
 10
349.2418995408
 20
140.939106074
 10
351.8626133395
 20
141.7028564126
 10
354.4320260201
 20
142.5226420216
 10
356.9465440266
 20
143.3973163567
 10
359.4026505781
 20
144.3256561069
 10
361.7969105876
 20
145.306362905
 10
364.125975466
 20
146.3380651439
 10
366.3865878054
 20
147.4193198947
 10
368.5755859351
 20
148.5486149249
 10
370.6899083433
 20
149.7243708133
 10
372.7265979587
 20
150.9449431589
 10
374.682806287
 20
152.2086248809
 10
376.5557973938
 20
153.5136486063
 10
378.3429517318
 20
154.8581891412
 10
380.0417698039
 20
156.2403660242
 10
381.6498756595
 20
157.658246156
 10
383.1650202172
 20
159.109846503
 10
384.5850844102
 20
160.5931368707
 10
385.9080821504
 20
162.1060427436
 10
387.1321631059
 20
163.646448186
 10
388.2556152887
 20
165.2121988015
 10
389.2768674493
 20
166.8011047463
 10
390.1944912743
 20
168.4109437918
 10
391.0072033838
 20
170.0394644326
  0
ARC
  5
1D5
330
1F
100
AcDbEntity
  8
0
  6
Continuous
 62
     7
370
    25
100
AcDbCircle
 10
309.9375805208
 20
176.8863195332
 30
0.0
 40
11.29553992363604
100
AcDbArc
 50
83.9136707922
 51
117.4388282399
  0
LINE
  5
1D6
330
1F
100
AcDbEntity
  8
0
  6
Continuous
 62
     7
370
    25
100
AcDbLine
 10
305.3959640798
 20
186.5281855341
 30
0.0
 11
304.7325806517
 21
186.9111486355
 31
0.0
  0
ARC
  5
1D7
330
1F
100
AcDbEntity
  8
0
  6
Continuous
 62
     7
370
    25
100
AcDbCircle
 10
308.7818997603
 20
180.5811884355
 30
0.0
 40
6.843342379512044
100
AcDbArc
 50
113.6563459409
 51
119.6551165643
  0
LINE
  5
1D8
330
1F
100
AcDbEntity
  8
0
  6
Continuous
 62
     7
370
    25
100
AcDbLine
 10
308.9374963935
 20
185.174481726
 30
0.0
 11
306.0360085603
 21
186.8494749989
 31
0.0
  0
ARC
  5
1D9
330
1F
100
AcDbEntity
  8
0
  6
Continuous
 62
     7
370
    25
100
AcDbCircle
 10
305.5920007051
 20
189.6097824637
 30
0.0
 40
5.555558840952497
100
AcDbArc
 50
300.1330715153
 51
307.0268251288
  0
LINE
  5
1DA
330
1F
100
AcDbEntity
  8
0
  6
Continuous
 62
     7
370
    25
100
AcDbLine
 10
309.0443099918
 20
184.4220404986
 30
0.0
 11
308.3809469372
 21
184.8049918387
 31
0.0
  0
ARC
  5
1DB
330
1F
100
AcDbEntity
  8
0
  6
Continuous
 62
     7
370
    25
100
AcDbCircle
 10
307.7249978924
 20
187.6078542166
 30
0.0
 40
3.448186981814403
100
AcDbArc
 50
292.4954690468
 51
8.5111029272
  0
LWPOLYLINE
  5
1DC
330
1F
100
AcDbEntity
  8
0
  6
Continuous
 62
     7
370
    25
100
AcDbPolyline
 90
       28
 70
   128
 43
0.0
 10
315.9711425891
 20
181.7013449267
 10
315.3902460512
 20
181.6454803413
 10
314.8015813598
 20
181.6551273346
 10
314.2271101132
 20
181.7299260017
 10
313.6882643879
 20
181.8670857925
 10
313.2051471617
 20
182.0614896204
 10
312.7957823224
 20
182.3058847679
 10
312.475442242
 20
182.591153467
 10
312.2560780027
 20
182.9066530605
 10
312.1458735321
 20
183.2406130527
 10
312.1489402818
 20
183.5805742366
 10
312.265163839
 20
183.9138535162
 10
312.4902081952
 20
184.2280170802
 10
312.815677512
 20
184.5113442767
 10
313.2294293482
 20
184.753264881
 10
313.7160276641
 20
184.9447534443
 10
314.2573187011
 20
185.0786660103
 10
314.833108253
 20
185.1500066379
 10
315.4219150606
 20
185.1561137881
 10
316.0017722238
 20
185.0967596183
 10
316.5510467312
 20
184.9741584834
 10
317.0492465332
 20
184.792884323
 10
317.4777850491
 20
184.5597000199
 10
317.8206745853
 20
184.2833050936
 10
318.0651227962
 20
183.9740111431
 10
318.2020099343
 20
183.6433571475
 10
318.2262290848
 20
183.303678975
 10
318.1368766924
 20
182.9676491635
  0
LINE
  5
1DD
330
1F
100
AcDbEntity
  8
0
  6
Continuous
 62
     7
370
    25
100
AcDbLine
 10
315.7283375762
 20
182.2244616047
 30
0.0
 11
315.9711425891
 21
181.7013449267
 31
0.0
  0
LWPOLYLINE
  5
1DE
330
1F
100
AcDbEntity
  8
0
  6
Continuous
 62
     7
370
    25
100
AcDbPolyline
 90
       23
 70
   128
 43
0.0
 10
317.2306068739
 20
183.1078329413
 10
317.2927692689
 20
183.3939028471
 10
317.2367667639
 20
183.6803964178
 10
317.0657345254
 20
183.9512749953
 10
316.7892473846
 20
184.1913740895
 10
316.4227838135
 20
184.3872523263
 10
315.9868593997
 20
184.5279439307
 10
315.5058783299
 20
184.6055726192
 10
315.0067671803
 20
184.6157925352
 10
314.517467496
 20
184.5580315411
 10
314.065371551
 20
184.4355232482
 10
313.6757888565
 20
184.2551259906
 10
313.370529269
 20
184.0269388777
 10
313.1666820172
 20
183.7637364199
 10
313.0756590024
 20
183.4802533779
 10
313.1025559307
 20
183.1923598727
 10
313.2458670417
 20
182.9161729342
 10
313.4975694054
 20
182.6671542284
 10
313.8435720663
 20
182.4592444725
 10
314.2645048919
 20
182.3040829976
 10
314.7368029638
 20
182.2103561481
 10
315.2340258028
 20
182.1833109978
 10
315.7283375762
 20
182.2244616047
  0
LINE
  5
1DF
330
1F
100
AcDbEntity
  8
0
  6
Continuous
 62
     7
370
    25
100
AcDbLine
 10
318.1368766924
 20
182.9676491635
 30
0.0
 11
317.2306068739
 21
183.1078329413
 31
0.0
  0
LWPOLYLINE
  5
1E0
330
1F
100
AcDbEntity
  8
0
  6
Continuous
 62
     7
370
    25
100
AcDbPolyline
 90
       34
 70
   128
 43
0.0
 10
324.2356953572
 20
179.4194778494
 10
324.033133571
 20
179.1059591472
 10
323.7314520397
 20
178.8202365013
 10
323.3415543197
 20
178.5726366726
 10
322.8775323307
 20
178.3721085639
 10
322.3561570363
 20
178.2258997837
 10
321.7962722981
 20
178.1392946981
 10
321.2181138092
 20
178.1154234406
 10
320.6425777238
 20
178.1551487807
 10
320.0904654156
 20
178.257034941
 10
319.581731662
 20
178.4173994903
 10
319.1347634262
 20
178.6304464359
 10
318.7657153049
 20
178.8884757061
 10
318.4879256588
 20
179.1821614508
 10
318.3114345293
 20
179.500889102
 10
318.2426207659
 20
179.8331390119
 10
318.2839714771
 20
180.1669028032
 10
318.4339921406
 20
180.4901173828
 10
318.6872606187
 20
180.7911009336
 10
319.0346231286
 20
181.058975126
 10
319.4635250843
 20
181.2840582887
 10
319.9584648516
 20
181.4582153297
 10
320.5015540178
 20
181.5751517598
 10
321.0731639253
 20
181.6306411918
 10
321.6526351028
 20
181.622678093
 10
322.2190239521
 20
181.5515502705
 10
322.7518597046
 20
181.4198284692
 10
323.2318842877
 20
181.2322734581
 10
323.6417483625
 20
180.9956639641
 10
323.9666383734
 20
180.7185516708
 10
324.1948119488
 20
180.4109521383
 10
324.3180223012
 20
180.0839828153
 10
324.3318162876
 20
179.7494612251
 10
324.2356953572
 20
179.4194778494
  0
LINE
  5
1E1
330
1F
100
AcDbEntity
  8
0
  6
Continuous
 62
     7
370
    25
100
AcDbLine
 10
279.8266869608
 20
206.2608979571
 30
0.0
 11
289.7261818974
 21
200.5460411744
 31
0.0
  0
LINE
  5
1E2
330
1F
100
AcDbEntity
  8
0
  6
Continuous
 62
     7
370
    25
100
AcDbLine
 10
275.5840462737
 20
203.8116736217
 30
0.0
 11
279.8266869608
 21
206.2608979571
 31
0.0
  0
LINE
  5
1E3
330
1F
100
AcDbEntity
  8
0
  6
Continuous
 62
     7
370
    25
100
AcDbLine
 10
285.4835412103
 20
198.0968168389
 30
0.0
 11
275.5840462737
 21
203.8116736217
 31
0.0
  0
LINE
  5
1E4
330
1F
100
AcDbEntity
  8
0
  6
Continuous
 62
     7
370
    25
100
AcDbLine
 10
289.7261818974
 20
200.5460411744
 30
0.0
 11
285.4835412103
 21
198.0968168389
 31
0.0
  0
LINE
  5
1E5
330
1F
100
AcDbEntity
  8
0
  6
Continuous
 62
     7
370
    25
100
AcDbLine
 10
303.1612107399
 20
203.4034695657
 30
0.0
 11
349.8302582982
 21
176.4620018756
 31
0.0
  0
LINE
  5
1E6
330
1F
100
AcDbEntity
  8
0
  6
Continuous
 62
     7
370
    25
100
AcDbLine
 10
298.9185700528
 20
200.9542452303
 30
0.0
 11
303.1612107399
 21
203.4034695657
 31
0.0
  0
LINE
  5
1E7
330
1F
100
AcDbEntity
  8
0
  6
Continuous
 62
     7
370
    25
100
AcDbLine
 10
345.5876176111
 20
174.0127775401
 30
0.0
 11
298.9185700528
 21
200.9542452303
 31
0.0
  0
LINE
  5
1E8
330
1F
100
AcDbEntity
  8
0
  6
Continuous
 62
     7
370
    25
100
AcDbLine
 10
349.8302582982
 20
176.4620018756
 30
0.0
 11
345.5876176111
 21
174.0127775401
 31
0.0
  0
LINE
  5
1E9
330
1F
100
AcDbEntity
  8
0
  6
Continuous
 62
     7
370
    25
100
AcDbLine
 10
276.998259836
 20
181.7686546024
 30
0.0
 11
281.2409005232
 21
184.2178789379
 31
0.0
  0
LINE
  5
1EA
330
1F
100
AcDbEntity
  8
0
  6
Continuous
 62
     7
370
    25
100
AcDbLine
 10
312.3535988954
 20
161.3584518069
 30
0.0
 11
276.998259836
 21
181.7686546024
 31
0.0
  0
LINE
  5
1EB
330
1F
100
AcDbEntity
  8
0
  6
Continuous
 62
     7
370
    25
100
AcDbLine
 10
316.5962395825
 20
163.8076761423
 30
0.0
 11
312.3535988954
 21
161.3584518069
 31
0.0
  0
LINE
  5
1EC
330
1F
100
AcDbEntity
  8
0
  6
Continuous
 62
     7
370
    25
100
AcDbLine
 10
281.2409005232
 20
184.2178789379
 30
0.0
 11
316.5962395825
 21
163.8076761423
 31
0.0
  0
LINE
  5
1ED
330
1F
100
AcDbEntity
  8
0
  6
Continuous
 62
     7
370
    25
100
AcDbLine
 10
259.3205903064
 20
186.2588992175
 30
0.0
 11
287.6048615538
 21
169.930736981
 31
0.0
  0
LINE
  5
1EE
330
1F
100
AcDbEntity
  8
0
  6
Continuous
 62
     7
370
    25
100
AcDbLine
 10
255.0779496193
 20
183.809674882
 30
0.0
 11
259.3205903064
 21
186.2588992175
 31
0.0
  0
LINE
  5
1EF
330
1F
100
AcDbEntity
  8
0
  6
Continuous
 62
     7
370
    25
100
AcDbLine
 10
283.3622208667
 20
167.4815126455
 30
0.0
 11
255.0779496193
 21
183.809674882
 31
0.0
  0
LINE
  5
1F0
330
1F
100
AcDbEntity
  8
0
  6
Continuous
 62
     7
370
    25
100
AcDbLine
 10
287.6048615538
 20
169.930736981
 30
0.0
 11
283.3622208667
 21
167.4815126455
 31
0.0
  0
LINE
  5
1F1
330
1F
100
AcDbEntity
  8
0
  6
Continuous
 62
     7
370
    25
100
AcDbLine
 10
262.1490174311
 20
169.1143288692
 30
0.0
 11
266.3916581182
 21
171.5635532047
 31
0.0
  0
LINE
  5
1F2
330
1F
100
AcDbEntity
  8
0
  6
Continuous
 62
     7
370
    25
100
AcDbLine
 10
290.4332886786
 20
152.7861666327
 30
0.0
 11
262.1490174311
 21
169.1143288692
 31
0.0
  0
LINE
  5
1F3
330
1F
100
AcDbEntity
  8
0
  6
Continuous
 62
     7
370
    25
100
AcDbLine
 10
294.6759293657
 20
155.2353909682
 30
0.0
 11
290.4332886786
 21
152.7861666327
 31
0.0
  0
LINE
  5
1F4
330
1F
100
AcDbEntity
  8
0
  6
Continuous
 62
     7
370
    25
100
AcDbLine
 10
266.3916581182
 20
171.5635532047
 30
0.0
 11
294.6759293657
 21
155.2353909682
 31
0.0
  0
LINE
  5
1F5
330
1F
100
AcDbEntity
  8
0
  6
Continuous
 62
     7
370
    25
100
AcDbLine
 10
338.5165497993
 20
199.3214290066
 30
0.0
 11
310.2322785518
 21
215.6495912431
 31
0.0
  0
LINE
  5
1F6
330
1F
100
AcDbEntity
  8
0
  6
Continuous
 62
     7
370
    25
100
AcDbLine
 10
342.7591904864
 20
201.7706533421
 30
0.0
 11
338.5165497993
 21
199.3214290066
 31
0.0
  0
LINE
  5
1F7
330
1F
100
AcDbEntity
  8
0
  6
Continuous
 62
     7
370
    25
100
AcDbLine
 10
314.4749192389
 20
218.0988155786
 30
0.0
 11
342.7591904864
 21
201.7706533421
 31
0.0
  0
LINE
  5
1F8
330
1F
100
AcDbEntity
  8
0
  6
Continuous
 62
     7
370
    25
100
AcDbLine
 10
310.2322785518
 20
215.6495912431
 30
0.0
 11
314.4749192389
 21
218.0988155786
 31
0.0
  0
LINE
  5
1F9
330
1F
100
AcDbEntity
  8
0
  6
Continuous
 62
     7
370
    25
100
AcDbLine
 10
257.1992699628
 20
193.198368168
 30
0.0
 11
261.4419106499
 21
195.6475925034
 31
0.0
  0
LINE
  5
1FA
330
1F
100
AcDbEntity
  8
0
  6
Continuous
 62
     7
370
    25
100
AcDbLine
 10
272.7556191489
 20
184.2178789379
 30
0.0
 11
257.1992699628
 21
193.198368168
 31
0.0
  0
LINE
  5
1FB
330
1F
100
AcDbEntity
  8
0
  6
Continuous
 62
     7
370
    25
100
AcDbLine
 10
276.998259836
 20
186.6671032734
 30
0.0
 11
272.7556191489
 21
184.2178789379
 31
0.0
  0
LINE
  5
1FC
330
1F
100
AcDbEntity
  8
0
  6
Continuous
 62
     7
370
    25
100
AcDbLine
 10
261.4419106499
 20
195.6475925034
 30
0.0
 11
276.998259836
 21
186.6671032734
 31
0.0
  0
LINE
  5
1FD
330
1F
100
AcDbEntity
  8
0
  6
Continuous
 62
     7
370
    25
100
AcDbLine
 10
368.9221413903
 20
171.1553491488
 30
0.0
 11
353.3657922042
 21
180.1358383788
 31
0.0
  0
LINE
  5
1FE
330
1F
100
AcDbEntity
  8
0
  6
Continuous
 62
     7
370
    25
100
AcDbLine
 10
373.1647820774
 20
173.6045734842
 30
0.0
 11
368.9221413903
 21
171.1553491488
 31
0.0
  0
LINE
  5
1FF
330
1F
100
AcDbEntity
  8
0
  6
Continuous
 62
     7
370
    25
100
AcDbLine
 10
357.6084328913
 20
182.5850627143
 30
0.0
 11
373.1647820774
 21
173.6045734842
 31
0.0
  0
LINE
  5
200
330
1F
100
AcDbEntity
  8
0
  6
Continuous
 62
     7
370
    25
100
AcDbLine
 10
353.3657922042
 20
180.1358383788
 30
0.0
 11
357.6084328913
 21
182.5850627143
 31
0.0
  0
LINE
  5
201
330
1F
100
AcDbEntity
  8
0
  6
Continuous
 62
     7
370
    25
100
AcDbLine
 10
330.7383752062
 20
176.8702059315
 30
0.0
 11
340.6378701428
 21
171.1553491488
 31
0.0
  0
LINE
  5
202
330
1F
100
AcDbEntity
  8
0
  6
Continuous
 62
     7
370
    25
100
AcDbLine
 10
326.4957345191
 20
174.420981596
 30
0.0
 11
330.7383752062
 21
176.8702059315
 31
0.0
  0
LINE
  5
203
330
1F
100
AcDbEntity
  8
0
  6
Continuous
 62
     7
370
    25
100
AcDbLine
 10
336.3952294557
 20
168.7061248133
 30
0.0
 11
326.4957345191
 21
174.420981596
 31
0.0
  0
LINE
  5
204
330
1F
100
AcDbEntity
  8
0
  6
Continuous
 62
     7
370
    25
100
AcDbLine
 10
340.6378701428
 20
171.1553491488
 30
0.0
 11
336.3952294557
 21
168.7061248133
 31
0.0
  0
LINE
  5
205
330
1F
100
AcDbEntity
  8
0
  6
Continuous
 62
     7
370
    25
100
AcDbLine
 10
294.6759293657
 20
203.4034695657
 30
0.0
 11
284.7764344291
 21
209.1183263485
 31
0.0
  0
LINE
  5
206
330
1F
100
AcDbEntity
  8
0
  6
Continuous
 62
     7
370
    25
100
AcDbLine
 10
298.9185700528
 20
205.8526939012
 30
0.0
 11
294.6759293657
 21
203.4034695657
 31
0.0
  0
LINE
  5
207
330
1F
100
AcDbEntity
  8
0
  6
Continuous
 62
     7
370
    25
100
AcDbLine
 10
289.0190751162
 20
211.567550684
 30
0.0
 11
298.9185700528
 21
205.8526939012
 31
0.0
  0
LINE
  5
208
330
1F
100
AcDbEntity
  8
0
  6
Continuous
 62
     7
370
    25
100
AcDbLine
 10
284.7764344291
 20
209.1183263485
 30
0.0
 11
289.0190751162
 21
211.567550684
 31
0.0
  0
LINE
  5
209
330
1F
100
AcDbEntity
  8
0
  6
Continuous
 62
     7
370
    25
100
AcDbLine
 10
359.7297532349
 20
165.8486964219
 30
0.0
 11
349.8302582982
 21
171.5635532047
 31
0.0
  0
LINE
  5
20A
330
1F
100
AcDbEntity
  8
0
  6
Continuous
 62
     7
370
    25
100
AcDbLine
 10
363.972393922
 20
168.2979207574
 30
0.0
 11
359.7297532349
 21
165.8486964219
 31
0.0
  0
LINE
  5
20B
330
1F
100
AcDbEntity
  8
0
  6
Continuous
 62
     7
370
    25
100
AcDbLine
 10
354.0728989854
 20
174.0127775401
 30
0.0
 11
363.972393922
 21
168.2979207574
 31
0.0
  0
LINE
  5
20C
330
1F
100
AcDbEntity
  8
0
  6
Continuous
 62
     7
370
    25
100
AcDbLine
 10
349.8302582982
 20
171.5635532047
 30
0.0
 11
354.0728989854
 21
174.0127775401
 31
0.0
  0
LINE
  5
20D
330
1F
100
AcDbEntity
  8
0
  6
Continuous
 62
     7
370
    25
100
AcDbLine
 10
335.6881226745
 20
163.3994720864
 30
0.0
 11
345.5876176111
 21
157.6846153037
 31
0.0
  0
LINE
  5
20E
330
1F
100
AcDbEntity
  8
0
  6
Continuous
 62
     7
370
    25
100
AcDbLine
 10
331.4454819874
 20
160.950247751
 30
0.0
 11
335.6881226745
 21
163.3994720864
 31
0.0
  0
LINE
  5
20F
330
1F
100
AcDbEntity
  8
0
  6
Continuous
 62
     7
370
    25
100
AcDbLine
 10
341.344976924
 20
155.2353909682
 30
0.0
 11
331.4454819874
 21
160.950247751
 31
0.0
  0
LINE
  5
210
330
1F
100
AcDbEntity
  8
0
  6
Continuous
 62
     7
370
    25
100
AcDbLine
 10
345.5876176111
 20
157.6846153037
 30
0.0
 11
341.344976924
 21
155.2353909682
 31
0.0
  0
LINE
  5
211
330
1F
100
AcDbEntity
  8
0
  6
Continuous
 62
     7
370
    25
100
AcDbLine
 10
266.3916581182
 20
198.5050208948
 30
0.0
 11
270.6342988054
 21
200.9542452303
 31
0.0
  0
LINE
  5
212
330
1F
100
AcDbEntity
  8
0
  6
Continuous
 62
     7
370
    25
100
AcDbLine
 10
276.2911530548
 20
192.7901641121
 30
0.0
 11
266.3916581182
 21
198.5050208948
 31
0.0
  0
LINE
  5
213
330
1F
100
AcDbEntity
  8
0
  6
Continuous
 62
     7
370
    25
100
AcDbLine
 10
280.533793742
 20
195.2393884475
 30
0.0
 11
276.2911530548
 21
192.7901641121
 31
0.0
  0
LINE
  5
214
330
1F
100
AcDbEntity
  8
0
  6
Continuous
 62
     7
370
    25
100
AcDbLine
 10
270.6342988054
 20
200.9542452303
 30
0.0
 11
280.533793742
 21
195.2393884475
 31
0.0
  0
LINE
  5
215
330
1F
100
AcDbEntity
  8
0
  6
Continuous
 62
     7
370
    25
100
AcDbLine
 10
293.9688225845
 20
198.0968168389
 30
0.0
 11
303.8683175211
 21
192.3819600561
 31
0.0
  0
LINE
  5
216
330
1F
100
AcDbEntity
  8
0
  6
Continuous
 62
     7
370
    25
100
AcDbLine
 10
289.7261818974
 20
195.6475925034
 30
0.0
 11
293.9688225845
 21
198.0968168389
 31
0.0
  0
LINE
  5
217
330
1F
100
AcDbEntity
  8
0
  6
Continuous
 62
     7
370
    25
100
AcDbLine
 10
299.625676834
 20
189.9327357207
 30
0.0
 11
289.7261818974
 21
195.6475925034
 31
0.0
  0
LINE
  5
218
330
1F
100
AcDbEntity
  8
0
  6
Continuous
 62
     7
370
    25
100
AcDbLine
 10
303.8683175211
 20
192.3819600561
 30
0.0
 11
299.625676834
 21
189.9327357207
 31
0.0
  0
LINE
  5
219
330
1F
100
AcDbEntity
  8
0
  6
Continuous
 62
     7
370
    25
100
AcDbLine
 10
309.5251717706
 20
205.4444898453
 30
0.0
 11
293.9688225845
 21
214.4249790754
 31
0.0
  0
LINE
  5
21A
330
1F
100
AcDbEntity
  8
0
  6
Continuous
 62
     7
370
    25
100
AcDbLine
 10
313.7678124577
 20
207.8937141808
 30
0.0
 11
309.5251717706
 21
205.4444898453
 31
0.0
  0
LINE
  5
21B
330
1F
100
AcDbEntity
  8
0
  6
Continuous
 62
     7
370
    25
100
AcDbLine
 10
298.2114632716
 20
216.8742034108
 30
0.0
 11
313.7678124577
 21
207.8937141808
 31
0.0
  0
LINE
  5
21C
330
1F
100
AcDbEntity
  8
0
  6
Continuous
 62
     7
370
    25
100
AcDbLine
 10
293.9688225845
 20
214.4249790754
 30
0.0
 11
298.2114632716
 21
216.8742034108
 31
0.0
  0
LINE
  5
21D
330
1F
100
AcDbEntity
  8
0
  6
Continuous
 62
     7
370
    25
100
AcDbLine
 10
332.1525887686
 20
149.9287382414
 30
0.0
 11
316.5962395825
 21
158.9092274714
 31
0.0
  0
LINE
  5
21E
330
1F
100
AcDbEntity
  8
0
  6
Continuous
 62
     7
370
    25
100
AcDbLine
 10
336.3952294557
 20
152.3779625768
 30
0.0
 11
332.1525887686
 21
149.9287382414
 31
0.0
  0
LINE
  5
21F
330
1F
100
AcDbEntity
  8
0
  6
Continuous
 62
     7
370
    25
100
AcDbLine
 10
320.8388802696
 20
161.3584518069
 30
0.0
 11
336.3952294557
 21
152.3779625768
 31
0.0
  0
LINE
  5
220
330
1F
100
AcDbEntity
  8
0
  6
Continuous
 62
     7
370
    25
100
AcDbLine
 10
316.5962395825
 20
158.9092274714
 30
0.0
 11
320.8388802696
 21
161.3584518069
 31
0.0
  0
LINE
  5
221
330
1F
100
AcDbEntity
  8
0
  6
Continuous
 62
     7
370
    25
100
AcDbLine
 10
363.972393922
 20
195.2393884475
 30
0.0
 11
335.6881226745
 21
211.567550684
 31
0.0
  0
LINE
  5
222
330
1F
100
AcDbEntity
  8
0
  6
Continuous
 62
     7
370
    25
100
AcDbLine
 10
368.2150346091
 20
197.688612783
 30
0.0
 11
363.972393922
 21
195.2393884475
 31
0.0
  0
LINE
  5
223
330
1F
100
AcDbEntity
  8
0
  6
Continuous
 62
     7
370
    25
100
AcDbLine
 10
339.9307633616
 20
214.0167750194
 30
0.0
 11
368.2150346091
 21
197.688612783
 31
0.0
  0
LINE
  5
224
330
1F
100
AcDbEntity
  8
0
  6
Continuous
 62
     7
370
    25
100
AcDbLine
 10
335.6881226745
 20
211.567550684
 30
0.0
 11
339.9307633616
 21
214.0167750194
 31
0.0
  0
LINE
  5
225
330
1F
100
AcDbEntity
  8
0
  6
Continuous
 62
     7
370
    25
100
AcDbLine
 10
371.0434617338
 20
180.5440424347
 30
0.0
 11
342.7591904864
 21
196.8722046712
 31
0.0
  0
LINE
  5
226
330
1F
100
AcDbEntity
  8
0
  6
Continuous
 62
     7
370
    25
100
AcDbLine
 10
375.286102421
 20
182.9932667702
 30
0.0
 11
371.0434617338
 21
180.5440424347
 31
0.0
  0
LINE
  5
227
330
1F
100
AcDbEntity
  8
0
  6
Continuous
 62
     7
370
    25
100
AcDbLine
 10
347.0018311735
 20
199.3214290066
 30
0.0
 11
375.286102421
 21
182.9932667702
 31
0.0
  0
LINE
  5
228
330
1F
100
AcDbEntity
  8
0
  6
Continuous
 62
     7
370
    25
100
AcDbLine
 10
342.7591904864
 20
196.8722046712
 30
0.0
 11
347.0018311735
 21
199.3214290066
 31
0.0
  0
LINE
  5
229
330
1F
100
AcDbEntity
  8
0
  6
Continuous
 62
     7
370
    25
100
AcDbLine
 10
287.6048615538
 20
165.0322883101
 30
0.0
 11
291.847502241
 21
167.4815126455
 31
0.0
  0
LINE
  5
22A
330
1F
100
AcDbEntity
  8
0
  6
Continuous
 62
     7
370
    25
100
AcDbLine
 10
315.8891328013
 20
148.7041260736
 30
0.0
 11
287.6048615538
 21
165.0322883101
 31
0.0
  0
LINE
  5
22B
330
1F
100
AcDbEntity
  8
0
  6
Continuous
 62
     7
370
    25
100
AcDbLine
 10
320.1317734884
 20
151.1533504091
 30
0.0
 11
315.8891328013
 21
148.7041260736
 31
0.0
  0
LINE
  5
22C
330
1F
100
AcDbEntity
  8
0
  6
Continuous
 62
     7
370
    25
100
AcDbLine
 10
291.847502241
 20
167.4815126455
 30
0.0
 11
320.1317734884
 21
151.1533504091
 31
0.0
  0
LINE
  5
22D
330
1F
100
AcDbEntity
  8
0
  6
Continuous
 62
     7
370
    25
100
AcDbLine
 10
318.0104531449
 20
205.4444898453
 30
0.0
 11
353.3657922042
 21
185.0342870497
 31
0.0
  0
LINE
  5
22E
330
1F
100
AcDbEntity
  8
0
  6
Continuous
 62
     7
370
    25
100
AcDbLine
 10
313.7678124577
 20
202.9952655098
 30
0.0
 11
318.0104531449
 21
205.4444898453
 31
0.0
  0
LINE
  5
22F
330
1F
100
AcDbEntity
  8
0
  6
Continuous
 62
     7
370
    25
100
AcDbLine
 10
349.1231515171
 20
182.5850627143
 30
0.0
 11
313.7678124577
 21
202.9952655098
 31
0.0
  0
LINE
  5
230
330
1F
100
AcDbEntity
  8
0
  6
Continuous
 62
     7
370
    25
100
AcDbLine
 10
353.3657922042
 20
185.0342870497
 30
0.0
 11
349.1231515171
 21
182.5850627143
 31
0.0
  0
LINE
  5
231
330
1F
100
AcDbEntity
  8
0
  6
Continuous
 62
     7
370
    25
100
AcDbLine
 10
280.533793742
 20
190.3409397766
 30
0.0
 11
284.7764344291
 21
192.7901641121
 31
0.0
  0
LINE
  5
232
330
1F
100
AcDbEntity
  8
0
  6
Continuous
 62
     7
370
    25
100
AcDbLine
 10
327.2028413003
 20
163.3994720864
 30
0.0
 11
280.533793742
 21
190.3409397766
 31
0.0
  0
LINE
  5
233
330
1F
100
AcDbEntity
  8
0
  6
Continuous
 62
     7
370
    25
100
AcDbLine
 10
331.4454819874
 20
165.8486964219
 30
0.0
 11
327.2028413003
 21
163.3994720864
 31
0.0
  0
LINE
  5
234
330
1F
100
AcDbEntity
  8
0
  6
Continuous
 62
     7
370
    25
100
AcDbLine
 10
284.7764344291
 20
192.7901641121
 30
0.0
 11
331.4454819874
 21
165.8486964219
 31
0.0
  0
LINE
  5
235
330
1F
100
AcDbEntity
  8
0
  6
Continuous
 62
     7
370
    25
100
AcDbLine
 10
344.8805108299
 20
168.7061248133
 30
0.0
 11
354.7800057666
 21
162.9912680305
 31
0.0
  0
LINE
  5
236
330
1F
100
AcDbEntity
  8
0
  6
Continuous
 62
     7
370
    25
100
AcDbLine
 10
340.6378701428
 20
166.2569004778
 30
0.0
 11
344.8805108299
 21
168.7061248133
 31
0.0
  0
LINE
  5
237
330
1F
100
AcDbEntity
  8
0
  6
Continuous
 62
     7
370
    25
100
AcDbLine
 10
350.5373650794
 20
160.5420436951
 30
0.0
 11
340.6378701428
 21
166.2569004778
 31
0.0
  0
LINE
  5
238
330
1F
100
AcDbEntity
  8
0
  6
Continuous
 62
     7
370
    25
100
AcDbLine
 10
354.7800057666
 20
162.9912680305
 30
0.0
 11
350.5373650794
 21
160.5420436951
 31
0.0
  0
LWPOLYLINE
  5
239
330
1F
100
AcDbEntity
  8
0
  6
Continuous
 62
     7
370
    25
100
AcDbPolyline
 90
       31
 70
   128
 43
0.0
 10
300.2329157754
 20
149.5064311504
 10
300.6959777831
 20
149.3396712067
 10
301.1654101956
 20
149.0993098649
 10
301.5529541214
 20
148.8144227452
 10
301.8461535797
 20
148.4941663543
 10
302.0355848989
 20
148.1488339959
 10
302.1151596003
 20
147.7895249362
 10
302.0823200877
 20
147.4277876641
 10
301.9381218499
 20
147.075248713
 10
301.687199537
 20
146.743238975
 10
301.3376179986
 20
146.4424295162
 10
300.900613073
 20
146.1824886001
 10
300.390230458
 20
145.9717709417
 10
299.8228742709
 20
145.8170491799
 10
299.2167798062
 20
145.7232961993
 10
298.5914274389
 20
145.693525298
 10
297.9669165085
 20
145.7286933371
 10
297.3633193101
 20
145.8276699871
 10
296.8000359545
 20
145.9872740569
 10
296.295170832
 20
146.2023757403
 10
295.8649507232
 20
146.4660614924
 10
295.5232032563
 20
146.769856236
 10
295.2809124761
 20
147.1039957582
 10
295.1458658076
 20
147.4577405397
 10
295.1224037619
 20
147.8197209323
 10
295.2112804284
 20
148.1783025882
 10
295.409639238
 20
148.521960398
 10
295.7111047753
 20
148.839648917
 10
296.1059876898
 20
149.1211573747
 10
296.5815961198
 20
149.3574378577
 10
297.0021686983
 20
149.5063921682
  0
LWPOLYLINE
  5
23A
330
1F
100
AcDbEntity
  8
0
  6
Continuous
 62
     7
370
    25
100
AcDbPolyline
 90
       12
 70
   128
 43
0.0
 10
374.5264051685
 20
191.5351921115
 10
374.1242716385
 20
191.8132589067
 10
373.8146074893
 20
192.1283084561
 10
373.6073655813
 20
192.470214808
 10
373.5092068399
 20
192.8279888109
 10
373.523286168
 20
193.190131314
 10
373.6491510442
 20
193.5450027592
 10
373.8827560679
 20
193.8811972863
 10
374.2165929815
 20
194.1879093266
 10
374.6399319918
 20
194.4552809027
 10
375.1391666348
 20
194.6747184722
 10
375.4307976607
 20
194.7695888779
  0
LWPOLYLINE
  5
23B
330
1F
100
AcDbEntity
  8
0
  6
Continuous
 62
     7
370
    25
100
AcDbPolyline
 90
       22
 70
   128
 43
0.0
 10
378.6352027847
 20
194.750730004
 10
378.7285576658
 20
194.7212243482
 10
379.2443435516
 20
194.5149378726
 10
379.6880354939
 20
194.2587999664
 10
380.0453728687
 20
193.9610431125
 10
380.3048705587
 20
193.6312374612
 10
380.4581880947
 20
193.2799832376
 10
380.5003977249
 20
192.9185700413
 10
380.4301427971
 20
192.55861399
 10
380.2496813624
 20
192.2116843672
 10
379.9648135999
 20
191.8889317764
 10
379.5846953938
 20
191.6007297516
 10
379.1215440561
 20
191.3563413429
 10
378.5902456517
 20
191.1636213948
 10
378.0078765486
 20
191.0287640851
 10
377.393154569
 20
190.9561038387
 10
376.765837383
 20
190.9479760156
 10
376.1460874811
 20
191.0046418509
 10
375.5538241352
 20
191.1242800578
 10
375.0080831765
 20
191.303045366
 10
374.5264051685
 20
191.5351921115
 10
374.5264051685
 20
191.5351921115
  0
LWPOLYLINE
  5
23C
330
1F
100
AcDbEntity
  8
0
  6
Continuous
 62
     7
370
    25
100
AcDbPolyline
 90
       24
 70
   128
 43
0.0
 10
273.3079324162
 20
209.003584714
 10
273.0918537897
 20
208.6635063375
 10
272.7740603302
 20
208.3511662645
 10
272.3647661809
 20
208.0766033621
 10
271.8771263926
 20
207.8486423078
 10
271.3268141093
 20
207.6746099576
 10
270.7315168205
 20
207.5600998542
 10
270.110367871
 20
207.5087924467
 10
269.4833314991
 20
207.5223367974
 10
268.8705611696
 20
207.6002975797
 10
268.2917518252
 20
207.7401690698
 10
267.7655068745
 20
207.9374556831
 10
267.308740263
 20
208.1858164654
 10
266.9361328457
 20
208.4772688969
 10
266.6596605314
 20
208.8024454565
 10
266.4882093679
 20
209.1508947022
 10
266.4272899365
 20
209.5114171884
 10
266.4788602379
 20
209.8724254258
 10
266.6412627602
 20
210.2223163126
 10
266.9092777528
 20
210.5498440678
 10
267.2742909932
 20
210.8444816799
 10
267.7245706555
 20
211.0967592536
 10
268.2456443809
 20
211.2985683801
 10
268.3425107554
 20
211.3280737202
  0
LWPOLYLINE
  5
23D
330
1F
100
AcDbEntity
  8
0
  6
Continuous
 62
     7
370
    25
100
AcDbPolyline
 90
        9
 70
   128
 43
0.0
 10
271.552172462
 20
211.3160700365
 10
271.8334286467
 20
211.2210701512
 10
272.3269210833
 20
210.9973458049
 10
272.7432842534
 20
210.7263482415
 10
273.0691359021
 20
210.4167875456
 10
273.2940028894
 20
210.0786132527
 10
273.4106578053
 20
209.7226945628
 10
273.4153512648
 20
209.3604709954
 10
273.3079324162
 20
209.003584714
  0
LWPOLYLINE
  5
23E
330
1F
100
AcDbEntity
  8
0
  6
Continuous
 62
     7
370
    25
100
AcDbPolyline
 90
       38
 70
   128
 43
0.0
 10
257.1298838601
 20
173.2563244329
 10
257.2462858624
 20
173.6322334203
 10
257.2509662743
 20
174.0140917225
 10
257.1437904489
 20
174.3909139714
 10
256.9278416395
 20
174.7518596771
 10
256.6093323002
 20
175.0865450888
 10
256.1974253648
 20
175.3853419164
 10
255.7039706458
 20
175.6396543193
 10
255.1431639372
 20
175.8421661927
 10
254.5311386268
 20
175.9870516387
 10
253.8855015685
 20
176.0701425669
 10
253.224826565
 20
176.0890486024
 10
252.5681200332
 20
176.0432258531
 10
251.9342742244
 20
175.933992556
 10
251.3415237285
 20
175.7644911543
 10
250.806920898
 20
175.5395978946
 10
250.345845283
 20
175.2657825466
 10
249.9715611895
 20
174.9509222792
 10
249.6948360893
 20
174.6040750491
 10
249.5236308599
 20
174.2352190197
 10
249.4628707639
 20
173.8549655073
 10
249.5143037586
 20
173.4742537131
 10
249.6764502104
 20
173.1040360223
 10
249.9446454613
 20
172.7549629238
 10
250.3111740219
 20
172.4370766151
 10
250.7654915332
 20
172.1595221066
 10
251.2945281073
 20
171.930284136
 10
251.8830643253
 20
171.7559574624
 10
252.5141690717
 20
171.6415571469
 10
253.1696866121
 20
171.5903742782
 10
253.8307589002
 20
171.6038812943
 10
254.47836809
 20
171.6816896228
 10
255.0938836442
 20
171.82156086
 10
255.6595983009
 20
172.0194711648
 10
256.1592374795
 20
172.2697270183
 10
256.5784274705
 20
172.5651290151
 10
256.9051089411
 20
172.8971789776
 10
257.1298838601
 20
173.2563244329
  0
LWPOLYLINE
  5
23F
330
1F
100
AcDbEntity
  8
0
  6
Continuous
 62
     7
370
    25
100
AcDbPolyline
 90
       38
 70
   128
 43
0.0
 10
335.5135556292
 20
218.5062549733
 10
335.6299576315
 20
218.8821639607
 10
335.6346380434
 20
219.2640222629
 10
335.5274622179
 20
219.6408445119
 10
335.3115134085
 20
220.0017902176
 10
334.9930040693
 20
220.3364756292
 10
334.5810971338
 20
220.6352724568
 10
334.0876424149
 20
220.8895848597
 10
333.5268357063
 20
221.0920967331
 10
332.9148103959
 20
221.2369821792
 10
332.2691733376
 20
221.3200731073
 10
331.608498334
 20
221.3389791428
 10
330.9517918023
 20
221.2931563935
 10
330.3179459935
 20
221.1839230965
 10
329.7251954976
 20
221.0144216947
 10
329.1905926671
 20
220.789528435
 10
328.7295170521
 20
220.515713087
 10
328.3552329585
 20
220.2008528196
 10
328.0785078584
 20
219.8540055896
 10
327.907302629
 20
219.4851495601
 10
327.8465425329
 20
219.1048960477
 10
327.8979755276
 20
218.7241842535
 10
328.0601219795
 20
218.3539665627
 10
328.3283172303
 20
218.0048934643
 10
328.694845791
 20
217.6870071556
 10
329.1491633022
 20
217.409452647
 10
329.6781998763
 20
217.1802146764
 10
330.2667360943
 20
217.0058880028
 10
330.8978408408
 20
216.8914876873
 10
331.5533583811
 20
216.8403048186
 10
332.2144306693
 20
216.8538118347
 10
332.8620398591
 20
216.9316201633
 10
333.4775554133
 20
217.0714914004
 10
334.04327007
 20
217.2694017052
 10
334.5429092486
 20
217.5196575587
 10
334.9620992396
 20
217.8150595555
 10
335.2887807102
 20
218.147109518
 10
335.5135556292
 20
218.5062549733
  0
LWPOLYLINE
  5
240
330
1F
100
AcDbEntity
  8
0
  6
Continuous
 62
     7
370
    25
100
AcDbPolyline
 90
       38
 70
   128
 43
0.0
 10
364.2039707386
 20
156.6937003356
 10
364.3203727409
 20
157.069609323
 10
364.3250531528
 20
157.4514676252
 10
364.2178773273
 20
157.8282898742
 10
364.0019285179
 20
158.1892355799
 10
363.6834191786
 20
158.5239209915
 10
363.2715122432
 20
158.8227178191
 10
362.7780575243
 20
159.077030222
 10
362.2172508156
 20
159.2795420954
 10
361.6052255052
 20
159.4244275415
 10
360.9595884469
 20
159.5075184696
 10
360.2989134434
 20
159.5264245051
 10
359.6422069116
 20
159.4806017558
 10
359.0083611029
 20
159.3713684588
 10
358.4156106069
 20
159.201867057
 10
357.8810077764
 20
158.9769737973
 10
357.4199321614
 20
158.7031584493
 10
357.0456480679
 20
158.3882981819
 10
356.7689229678
 20
158.0414509519
 10
356.5977177383
 20
157.6725949224
 10
356.5369576423
 20
157.29234141
 10
356.588390637
 20
156.9116296158
 10
356.7505370889
 20
156.541411925
 10
357.0187323397
 20
156.1923388265
 10
357.3852609004
 20
155.8744525179
 10
357.8395784116
 20
155.5968980093
 10
358.3686149857
 20
155.3676600387
 10
358.9571512037
 20
155.1933333651
 10
359.5882559501
 20
155.0789330496
 10
360.2437734905
 20
155.0277501809
 10
360.9048457786
 20
155.041257197
 10
361.5524549684
 20
155.1190655256
 10
362.1679705226
 20
155.2589367627
 10
362.7336851794
 20
155.4568470675
 10
363.233324358
 20
155.707102921
 10
363.652514349
 20
156.0025049178
 10
363.9791958196
 20
156.3345548803
 10
364.2039707386
 20
156.6937003356
  0
LINE
  5
241
330
1F
100
AcDbEntity
  8
0
  6
Continuous
 62
     7
370
    25
100
AcDbLine
 10
291.847502241
 20
167.4815126455
 30
0.0
 11
291.847502241
 21
165.8484310218
 31
0.0
  0
LINE
  5
242
330
1F
100
AcDbEntity
  8
0
  6
Continuous
 62
     7
370
    25
100
AcDbLine
 10
318.7173300579
 20
150.3368095972
 30
0.0
 11
291.847502241
 21
165.8484310218
 31
0.0
  0
LINE
  5
243
330
1F
100
AcDbEntity
  8
0
  6
Continuous
 62
     7
370
    25
100
AcDbLine
 10
320.8388802696
 20
161.3584518069
 30
0.0
 11
320.8388802696
 21
159.7253701831
 31
0.0
  0
LINE
  5
244
330
1F
100
AcDbEntity
  8
0
  6
Continuous
 62
     7
370
    25
100
AcDbLine
 10
334.9807860252
 20
151.5614217649
 30
0.0
 11
320.8388802696
 21
159.7253701831
 31
0.0
  0
LINE
  5
245
330
1F
100
AcDbEntity
  8
0
  6
Continuous
 62
     7
370
    25
100
AcDbLine
 10
266.3916581182
 20
171.5635532047
 30
0.0
 11
266.3916581182
 21
169.9304715809
 31
0.0
  0
LINE
  5
246
330
1F
100
AcDbEntity
  8
0
  6
Continuous
 62
     7
370
    25
100
AcDbLine
 10
293.2614859352
 20
154.4188501563
 30
0.0
 11
266.3916581182
 21
169.9304715809
 31
0.0
  0
LINE
  5
247
330
1F
100
AcDbEntity
  8
0
  6
Continuous
 62
     7
370
    25
100
AcDbLine
 10
335.6881226745
 20
163.3994720864
 30
0.0
 11
335.6881226745
 21
161.7663904627
 31
0.0
  0
LINE
  5
248
330
1F
100
AcDbEntity
  8
0
  6
Continuous
 62
     7
370
    25
100
AcDbLine
 10
344.1731741806
 20
156.8680744918
 30
0.0
 11
335.6881226745
 21
161.7663904627
 31
0.0
  0
LINE
  5
249
330
1F
100
AcDbEntity
  8
0
  6
Continuous
 62
     7
370
    25
100
AcDbLine
 10
320.8388802696
 20
159.7253701831
 30
0.0
 11
318.010683013
 21
158.0926866595
 31
0.0
  0
LINE
  5
24A
330
1F
100
AcDbEntity
  8
0
  6
Continuous
 62
     7
370
    25
100
AcDbLine
 10
335.6881226745
 20
161.7663904627
 30
0.0
 11
332.8599254179
 21
160.1337069391
 31
0.0
  0
LINE
  5
24B
330
1F
100
AcDbEntity
  8
0
  6
Continuous
 62
     7
370
    25
100
AcDbLine
 10
344.8805108299
 20
168.7061248133
 30
0.0
 11
344.8805108299
 21
167.0730431895
 31
0.0
  0
LINE
  5
24C
330
1F
100
AcDbEntity
  8
0
  6
Continuous
 62
     7
370
    25
100
AcDbLine
 10
353.365562336
 20
162.1747272186
 30
0.0
 11
344.8805108299
 21
167.0730431895
 31
0.0
  0
LINE
  5
24D
330
1F
100
AcDbEntity
  8
0
  6
Continuous
 62
     7
370
    25
100
AcDbLine
 10
281.2409005232
 20
184.2178789379
 30
0.0
 11
281.2409005232
 21
182.5847973141
 31
0.0
  0
LINE
  5
24E
330
1F
100
AcDbEntity
  8
0
  6
Continuous
 62
     7
370
    25
100
AcDbLine
 10
315.1817961519
 20
162.9911353305
 30
0.0
 11
281.2409005232
 21
182.5847973141
 31
0.0
  0
LINE
  5
24F
330
1F
100
AcDbEntity
  8
0
  6
Continuous
 62
     7
370
    25
100
AcDbLine
 10
291.847502241
 20
165.8484310218
 30
0.0
 11
289.0193049844
 21
164.2157474982
 31
0.0
  0
LINE
  5
250
330
1F
100
AcDbEntity
  8
0
  6
Continuous
 62
     7
370
    25
100
AcDbLine
 10
344.8805108299
 20
167.0730431895
 30
0.0
 11
342.0523135734
 21
165.4403596659
 31
0.0
  0
LINE
  5
251
330
1F
100
AcDbEntity
  8
0
  6
Continuous
 62
     7
370
    25
100
AcDbLine
 10
284.7764344291
 20
192.7901641121
 30
0.0
 11
284.7764344291
 21
191.1570824883
 31
0.0
  0
LINE
  5
252
330
1F
100
AcDbEntity
  8
0
  6
Continuous
 62
     7
370
    25
100
AcDbLine
 10
330.0310385569
 20
165.03215561
 30
0.0
 11
284.7764344291
 21
191.1570824883
 31
0.0
  0
LINE
  5
253
330
1F
100
AcDbEntity
  8
0
  6
Continuous
 62
     7
370
    25
100
AcDbLine
 10
354.0728989854
 20
174.0127775401
 30
0.0
 11
354.0728989854
 21
172.3796959164
 31
0.0
  0
LINE
  5
254
330
1F
100
AcDbEntity
  8
0
  6
Continuous
 62
     7
370
    25
100
AcDbLine
 10
362.5579504914
 20
167.4813799455
 30
0.0
 11
354.0728989854
 21
172.3796959164
 31
0.0
  0
LINE
  5
255
330
1F
100
AcDbEntity
  8
0
  6
Continuous
 62
     7
370
    25
100
AcDbLine
 10
266.3916581182
 20
169.9304715809
 30
0.0
 11
263.5634608616
 21
168.2977880573
 31
0.0
  0
LINE
  5
256
330
1F
100
AcDbEntity
  8
0
  6
Continuous
 62
     7
370
    25
100
AcDbLine
 10
259.3205903064
 20
186.2588992175
 30
0.0
 11
259.3205903064
 21
184.6258175937
 31
0.0
  0
LINE
  5
257
330
1F
100
AcDbEntity
  8
0
  6
Continuous
 62
     7
370
    25
100
AcDbLine
 10
286.1904181233
 20
169.1141961691
 30
0.0
 11
259.3205903064
 21
184.6258175937
 31
0.0
  0
LINE
  5
258
330
1F
100
AcDbEntity
  8
0
  6
Continuous
 62
     7
370
    25
100
AcDbLine
 10
354.0728989854
 20
172.3796959164
 30
0.0
 11
351.2447017288
 21
170.7470123928
 31
0.0
  0
LINE
  5
259
330
1F
100
AcDbEntity
  8
0
  6
Continuous
 62
     7
370
    25
100
AcDbLine
 10
330.7383752062
 20
176.8702059315
 30
0.0
 11
330.7383752062
 21
175.2371243077
 31
0.0
  0
LINE
  5
25A
330
1F
100
AcDbEntity
  8
0
  6
Continuous
 62
     7
370
    25
100
AcDbLine
 10
339.2234267123
 20
170.3388083369
 30
0.0
 11
330.7383752062
 21
175.2371243077
 31
0.0
  0
LINE
  5
25B
330
1F
100
AcDbEntity
  8
0
  6
Continuous
 62
     7
370
    25
100
AcDbLine
 10
357.6084328913
 20
182.5850627143
 30
0.0
 11
357.6084328913
 21
180.9519810905
 31
0.0
  0
LINE
  5
25C
330
1F
100
AcDbEntity
  8
0
  6
Continuous
 62
     7
370
    25
100
AcDbLine
 10
371.7503386469
 20
172.7880326723
 30
0.0
 11
357.6084328913
 21
180.9519810905
 31
0.0
  0
LINE
  5
25D
330
1F
100
AcDbEntity
  8
0
  6
Continuous
 62
     7
370
    25
100
AcDbLine
 10
330.7383752062
 20
175.2371243077
 30
0.0
 11
327.9101779496
 21
173.6044407842
 31
0.0
  0
LINE
  5
25E
330
1F
100
AcDbEntity
  8
0
  6
Continuous
 62
     7
370
    25
100
AcDbLine
 10
303.1612107399
 20
203.4034695657
 30
0.0
 11
303.1612107399
 21
201.770387942
 31
0.0
  0
LINE
  5
25F
330
1F
100
AcDbEntity
  8
0
  6
Continuous
 62
     7
370
    25
100
AcDbLine
 10
348.4158148677
 20
175.6454610637
 30
0.0
 11
303.1612107399
 21
201.770387942
 31
0.0
  0
LWPOLYLINE
  5
260
330
1F
100
AcDbEntity
  8
0
  6
Continuous
 62
     7
370
    25
100
AcDbPolyline
 90
       18
 70
   128
 43
0.0
 10
318.2425776385
 20
179.8341983077
 10
318.2839714771
 20
180.085248722
 10
318.4339921406
 20
180.4084633016
 10
318.6872606187
 20
180.7094468524
 10
319.0346231286
 20
180.9773210448
 10
319.4635250843
 20
181.2024042075
 10
319.9584648516
 20
181.3765612485
 10
320.5015540178
 20
181.4934976786
 10
321.0731639253
 20
181.5489871106
 10
321.6526351028
 20
181.5410240118
 10
322.2190239521
 20
181.4698961893
 10
322.7518597046
 20
181.338174388
 10
323.2318842877
 20
181.150619377
 10
323.6417483625
 20
180.914009883
 10
323.9666383734
 20
180.6368975896
 10
324.1948119488
 20
180.3292980571
 10
324.3180223012
 20
180.0023287341
 10
324.338764229
 20
179.8341983077
  0
LWPOLYLINE
  5
261
330
1F
100
AcDbEntity
  8
0
  6
Continuous
 62
     7
370
    25
100
AcDbPolyline
 90
        3
 70
   128
 43
0.0
 10
323.3295339961
 20
179.4779922294
 10
323.4005643294
 20
179.7579306348
 10
323.4014572974
 20
179.7933712672
  0
LWPOLYLINE
  5
262
330
1F
100
AcDbEntity
  8
0
  6
Continuous
 62
     7
370
    25
100
AcDbPolyline
 90
       14
 70
   128
 43
0.0
 10
319.1798845701
 20
179.7933712672
 10
319.1879167495
 20
179.6871692901
 10
319.2870225059
 20
179.4100887213
 10
319.4941454677
 20
179.1536710137
 10
319.7981195824
 20
178.9317397124
 10
320.1825575267
 20
178.7562591912
 10
320.6267341517
 20
178.6366896504
 10
321.1067037804
 20
178.579477115
 10
321.596591126
 20
178.5877059276
 10
322.0699862348
 20
178.6609324707
 10
322.5013682541
 20
178.7952090824
 10
322.8674812674
 20
178.9832968759
 10
323.1485880275
 20
179.2150559895
 10
323.3295339961
 20
179.4779922294
  0
LWPOLYLINE
  5
263
330
1F
100
AcDbEntity
  8
0
  6
Continuous
 62
     7
370
    25
100
AcDbPolyline
 90
       28
 70
   128
 43
0.0
 10
323.3295339961
 20
179.5596463106
 10
323.4005643294
 20
179.839584716
 10
323.3578497635
 20
180.1214337352
 10
323.2036930519
 20
180.3899988144
 10
322.9464048227
 20
180.6308015407
 10
322.5998555509
 20
180.8308601769
 10
322.1827277976
 20
180.9793895101
 10
321.7175090279
 20
181.0683822855
 10
321.229279306
 20
181.0930408795
 10
320.7443592227
 20
181.0520359409
 10
320.2888909451
 20
180.9475780566
 10
319.887428886
 20
180.7852985783
 10
319.5616159689
 20
180.5739460344
 10
319.3290168525
 20
180.3249144955
 10
319.2021710154
 20
180.0516293162
 10
319.1879167495
 20
179.7688233713
 10
319.2870225059
 20
179.4917428025
 10
319.4941454677
 20
179.2353250949
 10
319.7981195824
 20
179.0133937935
 10
320.1825575267
 20
178.8379132723
 10
320.6267341517
 20
178.7183437316
 10
321.1067037804
 20
178.6611311962
 10
321.596591126
 20
178.6693600088
 10
322.0699862348
 20
178.7425865519
 10
322.5013682541
 20
178.8768631636
 10
322.8674812674
 20
179.0649509571
 10
323.1485880275
 20
179.2967100707
 10
323.3295339961
 20
179.5596463106
  0
LINE
  5
264
330
1F
100
AcDbEntity
  8
0
  6
Continuous
 62
     7
370
    25
100
AcDbLine
 10
323.3295339961
 20
179.4779922294
 30
0.0
 11
323.3295339961
 21
179.5596463106
 31
0.0
  0
LINE
  5
265
330
1F
100
AcDbEntity
  8
0
  6
Continuous
 62
     7
370
    25
100
AcDbLine
 10
357.6084328913
 20
180.9519810905
 30
0.0
 11
354.7802356347
 21
179.3192975669
 31
0.0
  0
LWPOLYLINE
  5
266
330
1F
100
AcDbEntity
  8
0
  6
Continuous
 62
     7
370
    25
100
AcDbPolyline
 90
       18
 70
   128
 43
0.0
 10
312.1339343856
 20
183.3606436003
 10
312.1489402818
 20
183.4989201554
 10
312.265163839
 20
183.832199435
 10
312.4902081952
 20
184.146362999
 10
312.815677512
 20
184.4296901955
 10
313.2294293482
 20
184.6716107998
 10
313.7160276641
 20
184.8630993632
 10
314.2573187011
 20
184.9970119291
 10
314.833108253
 20
185.0683525567
 10
315.4219150606
 20
185.0744597069
 10
316.0017722238
 20
185.0151055372
 10
316.5510467312
 20
184.8925044022
 10
317.0492465332
 20
184.7112302418
 10
317.4777850491
 20
184.4780459387
 10
317.8206745853
 20
184.2016510124
 10
318.0651227962
 20
183.892357062
 10
318.2020099343
 20
183.5617030663
 10
318.2301182963
 20
183.3606436003
  0
LINE
  5
267
330
1F
100
AcDbEntity
  8
0
  6
Continuous
 62
     7
370
    25
100
AcDbLine
 10
315.7283375762
 20
182.1428075235
 30
0.0
 11
315.9357246976
 21
181.6959977122
 31
0.0
  0
LWPOLYLINE
  5
268
330
1F
100
AcDbEntity
  8
0
  6
Continuous
 62
     7
370
    25
100
AcDbPolyline
 90
        3
 70
   128
 43
0.0
 10
317.2592531364
 20
183.1034018754
 10
317.2927692689
 20
183.312248766
 10
317.2928099773
 20
183.3198165597
  0
LWPOLYLINE
  5
269
330
1F
100
AcDbEntity
  8
0
  6
Continuous
 62
     7
370
    25
100
AcDbPolyline
 90
        9
 70
   128
 43
0.0
 10
313.0712427046
 20
183.3198165597
 10
313.1025559307
 20
183.1107057915
 10
313.2458670417
 20
182.834518853
 10
313.4975694054
 20
182.5855001472
 10
313.8435720663
 20
182.3775903914
 10
314.2645048919
 20
182.2224289164
 10
314.7368029638
 20
182.1287020669
 10
315.2340258028
 20
182.1016569166
 10
315.7283375762
 20
182.1428075235
  0
LINE
  5
26A
330
1F
100
AcDbEntity
  8
0
  6
Continuous
 62
     7
370
    25
100
AcDbLine
 10
281.2409005232
 20
182.5847973141
 30
0.0
 11
278.4127032666
 21
180.9521137906
 31
0.0
  0
LINE
  5
26B
330
1F
100
AcDbEntity
  8
0
  6
Continuous
 62
     7
370
    25
100
AcDbLine
 10
315.7283375762
 20
182.2244616047
 30
0.0
 11
315.7283375762
 21
182.1428075235
 31
0.0
  0
LINE
  5
26C
330
1F
100
AcDbEntity
  8
0
  6
Continuous
 62
     7
370
    25
100
AcDbLine
 10
347.0018311735
 20
199.3214290066
 30
0.0
 11
347.0018311735
 21
197.6883473829
 31
0.0
  0
LINE
  5
26D
330
1F
100
AcDbEntity
  8
0
  6
Continuous
 62
     7
370
    25
100
AcDbLine
 10
373.8716589904
 20
182.1767259583
 30
0.0
 11
347.0018311735
 21
197.6883473829
 31
0.0
  0
LINE
  5
26E
330
1F
100
AcDbEntity
  8
0
  6
Continuous
 62
     7
370
    25
100
AcDbLine
 10
259.3205903064
 20
184.6258175937
 30
0.0
 11
256.4923930498
 21
182.9931340701
 31
0.0
  0
LWPOLYLINE
  5
26F
330
1F
100
AcDbEntity
  8
0
  6
Continuous
 62
     7
370
    25
100
AcDbPolyline
 90
        3
 70
   128
 43
0.0
 10
311.1352106872
 20
188.0365354723
 10
311.2149585465
 20
187.5349022353
 10
311.2187989733
 20
187.4312580671
  0
LINE
  5
270
330
1F
100
AcDbEntity
  8
0
  6
Continuous
 62
     7
370
    25
100
AcDbLine
 10
311.1352106872
 20
188.1181895534
 30
0.0
 11
311.1352106872
 21
188.0365354723
 31
0.0
  0
ARC
  5
271
330
1F
100
AcDbEntity
  8
0
  6
Continuous
 62
     7
370
    25
100
AcDbCircle
 10
305.6176824188
 20
189.4918996587
 30
0.0
 40
5.511170421047628
100
AcDbArc
 50
300.9348791793
 51
307.0404800864
  0
ARC
  5
272
330
1F
100
AcDbEntity
  8
0
  6
Continuous
 62
     7
370
    25
100
AcDbCircle
 10
309.9398466299
 20
176.7615632226
 30
0.0
 40
11.33816098227869
100
AcDbArc
 50
83.9481515091
 51
116.9339085101
  0
LINE
  5
273
330
1F
100
AcDbEntity
  8
0
  6
Continuous
 62
     7
370
    25
100
AcDbLine
 10
306.8388989108
 20
187.07021686
 30
0.0
 11
309.4613027371
 21
185.556335355
 31
0.0
  0
ARC
  5
274
330
1F
100
AcDbEntity
  8
0
  6
Continuous
 62
     7
370
    25
100
AcDbCircle
 10
307.6302286617
 20
187.4749083939
 30
0.0
 40
2.652122692335165
100
AcDbArc
 50
313.6632311026
 51
358.1746638356
  0
LINE
  5
275
330
1F
100
AcDbEntity
  8
0
  6
Continuous
 62
     7
370
    25
100
AcDbLine
 10
308.9374963935
 20
185.174481726
 30
0.0
 11
308.9374963935
 21
185.0928276448
 31
0.0
  0
LINE
  5
276
330
1F
100
AcDbEntity
  8
0
  6
Continuous
 62
     7
370
    25
100
AcDbLine
 10
318.0104531449
 20
205.4444898453
 30
0.0
 11
318.0104531449
 21
203.8114082215
 31
0.0
  0
LINE
  5
277
330
1F
100
AcDbEntity
  8
0
  6
Continuous
 62
     7
370
    25
100
AcDbLine
 10
351.9513487736
 20
184.2177462379
 30
0.0
 11
318.0104531449
 21
203.8114082215
 31
0.0
  0
ARC
  5
278
330
1F
100
AcDbEntity
  8
0
  6
Continuous
 62
     7
370
    25
100
AcDbCircle
 10
307.6576939032
 20
187.5377058102
 30
0.0
 40
2.619528035207133
100
AcDbArc
 50
313.5134114837
 51
1.84619429
  0
LINE
  5
279
330
1F
100
AcDbEntity
  8
0
  6
Continuous
 62
     7
370
    25
100
AcDbLine
 10
306.8388989108
 20
187.1518709412
 30
0.0
 11
309.4613027371
 21
185.6379894362
 31
0.0
  0
ARC
  5
27A
330
1F
100
AcDbEntity
  8
0
  6
Continuous
 62
     7
370
    25
100
AcDbCircle
 10
309.9780741483
 20
177.0029140646
 30
0.0
 40
10.62335854871784
100
AcDbArc
 50
88.3937064742
 51
107.1873683399
  0
LINE
  5
27B
330
1F
100
AcDbEntity
  8
0
  6
Continuous
 62
     7
370
    25
100
AcDbLine
 10
309.4613027371
 20
185.6379894362
 30
0.0
 11
309.4613027371
 21
185.556335355
 31
0.0
  0
LINE
  5
27C
330
1F
100
AcDbEntity
  8
0
  6
Continuous
 62
     7
370
    25
100
AcDbLine
 10
306.8388989108
 20
187.1518709412
 30
0.0
 11
306.8388989108
 21
187.07021686
 31
0.0
  0
LINE
  5
27D
330
1F
100
AcDbEntity
  8
0
  6
Continuous
 62
     7
370
    25
100
AcDbLine
 10
261.4419106499
 20
195.6475925034
 30
0.0
 11
261.4419106499
 21
194.0145108797
 31
0.0
  0
LINE
  5
27E
330
1F
100
AcDbEntity
  8
0
  6
Continuous
 62
     7
370
    25
100
AcDbLine
 10
275.5838164055
 20
185.8505624615
 30
0.0
 11
261.4419106499
 21
194.0145108797
 31
0.0
  0
ARC
  5
27F
330
1F
100
AcDbEntity
  8
0
  6
Continuous
 62
     7
370
    25
100
AcDbCircle
 10
383.3654380616
 20
185.7721450705
 30
0.0
 40
10.55183461221476
100
AcDbArc
 50
127.0946098755
 51
146.8956605338
  0
LINE
  5
280
330
1F
100
AcDbEntity
  8
0
  6
Continuous
 62
     7
370
    25
100
AcDbLine
 10
284.7764344291
 20
191.1570824883
 30
0.0
 11
281.9482371725
 21
189.5243989647
 31
0.0
  0
LINE
  5
281
330
1F
100
AcDbEntity
  8
0
  6
Continuous
 62
     7
370
    25
100
AcDbLine
 10
293.9688225845
 20
198.0968168389
 30
0.0
 11
293.9688225845
 21
196.4637352151
 31
0.0
  0
LINE
  5
282
330
1F
100
AcDbEntity
  8
0
  6
Continuous
 62
     7
370
    25
100
AcDbLine
 10
302.4538740906
 20
191.5654192443
 30
0.0
 11
293.9688225845
 21
196.4637352151
 31
0.0
  0
LINE
  5
283
330
1F
100
AcDbEntity
  8
0
  6
Continuous
 62
     7
370
    25
100
AcDbLine
 10
261.4419106499
 20
194.0145108797
 30
0.0
 11
258.6137133933
 21
192.3818273561
 31
0.0
  0
LINE
  5
284
330
1F
100
AcDbEntity
  8
0
  6
Continuous
 62
     7
370
    25
100
AcDbLine
 10
293.9688225845
 20
196.4637352151
 30
0.0
 11
291.1406253279
 21
194.8310516915
 31
0.0
  0
LINE
  5
285
330
1F
100
AcDbEntity
  8
0
  6
Continuous
 62
     7
370
    25
100
AcDbLine
 10
270.6342988054
 20
200.9542452303
 30
0.0
 11
270.6342988054
 21
199.3211636065
 31
0.0
  0
LINE
  5
286
330
1F
100
AcDbEntity
  8
0
  6
Continuous
 62
     7
370
    25
100
AcDbLine
 10
279.1193503114
 20
194.4228476356
 30
0.0
 11
270.6342988054
 21
199.3211636065
 31
0.0
  0
LINE
  5
287
330
1F
100
AcDbEntity
  8
0
  6
Continuous
 62
     7
370
    25
100
AcDbLine
 10
347.0018311735
 20
197.6883473829
 30
0.0
 11
344.1736339169
 21
196.0556638593
 31
0.0
  0
LINE
  5
288
330
1F
100
AcDbEntity
  8
0
  6
Continuous
 62
     7
370
    25
100
AcDbLine
 10
339.9307633616
 20
214.0167750194
 30
0.0
 11
339.9307633616
 21
212.3836933957
 31
0.0
  0
LINE
  5
289
330
1F
100
AcDbEntity
  8
0
  6
Continuous
 62
     7
370
    25
100
AcDbLine
 10
366.8005911786
 20
196.8720719711
 30
0.0
 11
339.9307633616
 21
212.3836933957
 31
0.0
  0
LINE
  5
28A
330
1F
100
AcDbEntity
  8
0
  6
Continuous
 62
     7
370
    25
100
AcDbLine
 10
270.6342988054
 20
199.3211636065
 30
0.0
 11
267.8061015488
 21
197.6884800829
 31
0.0
  0
LINE
  5
28B
330
1F
100
AcDbEntity
  8
0
  6
Continuous
 62
     7
370
    25
100
AcDbLine
 10
303.1612107399
 20
201.770387942
 30
0.0
 11
300.3330134833
 21
200.1377044184
 31
0.0
  0
LINE
  5
28C
330
1F
100
AcDbEntity
  8
0
  6
Continuous
 62
     7
370
    25
100
AcDbLine
 10
279.8266869608
 20
206.2608979571
 30
0.0
 11
279.8266869608
 21
204.6278163334
 31
0.0
  0
LINE
  5
28D
330
1F
100
AcDbEntity
  8
0
  6
Continuous
 62
     7
370
    25
100
AcDbLine
 10
288.3117384669
 20
199.7295003625
 30
0.0
 11
279.8266869608
 21
204.6278163334
 31
0.0
  0
LINE
  5
28E
330
1F
100
AcDbEntity
  8
0
  6
Continuous
 62
     7
370
    25
100
AcDbLine
 10
314.4749192389
 20
218.0988155786
 30
0.0
 11
314.4749192389
 21
216.4657339548
 31
0.0
  0
LINE
  5
28F
330
1F
100
AcDbEntity
  8
0
  6
Continuous
 62
     7
370
    25
100
AcDbLine
 10
341.3447470559
 20
200.9541125302
 30
0.0
 11
314.4749192389
 21
216.4657339548
 31
0.0
  0
LINE
  5
290
330
1F
100
AcDbEntity
  8
0
  6
Continuous
 62
     7
370
    25
100
AcDbLine
 10
318.0104531449
 20
203.8114082215
 30
0.0
 11
315.1822558883
 21
202.178724698
 31
0.0
  0
LINE
  5
291
330
1F
100
AcDbEntity
  8
0
  6
Continuous
 62
     7
370
    25
100
AcDbLine
 10
279.8266869608
 20
204.6278163334
 30
0.0
 11
276.9984897042
 21
202.9951328098
 31
0.0
  0
LINE
  5
292
330
1F
100
AcDbEntity
  8
0
  6
Continuous
 62
     7
370
    25
100
AcDbLine
 10
289.0190751162
 20
211.567550684
 30
0.0
 11
289.0190751162
 21
209.9344690602
 31
0.0
  0
LINE
  5
293
330
1F
100
AcDbEntity
  8
0
  6
Continuous
 62
     7
370
    25
100
AcDbLine
 10
297.5041266223
 20
205.0361530893
 30
0.0
 11
289.0190751162
 21
209.9344690602
 31
0.0
  0
ARC
  5
294
330
1F
100
AcDbEntity
  8
0
  6
Continuous
 62
     7
370
    25
100
AcDbCircle
 10
267.595165457
 20
202.0968163595
 30
0.0
 40
8.963211223339867
100
AcDbArc
 50
50.40496841
 51
74.9194008797
  0
LINE
  5
295
330
1F
100
AcDbEntity
  8
0
  6
Continuous
 62
     7
370
    25
100
AcDbLine
 10
298.2114632716
 20
216.8742034108
 30
0.0
 11
298.2114632716
 21
215.2411217871
 31
0.0
  0
LINE
  5
296
330
1F
100
AcDbEntity
  8
0
  6
Continuous
 62
     7
370
    25
100
AcDbLine
 10
312.3533690272
 20
207.0771733689
 30
0.0
 11
298.2114632716
 21
215.2411217871
 31
0.0
  0
LINE
  5
297
330
1F
100
AcDbEntity
  8
0
  6
Continuous
 62
     7
370
    25
100
AcDbLine
 10
289.0190751162
 20
209.9344690602
 30
0.0
 11
286.1908778596
 21
208.3017855366
 31
0.0
  0
LINE
  5
298
330
1F
100
AcDbEntity
  8
0
  6
Continuous
 62
     7
370
    25
100
AcDbLine
 10
339.9307633616
 20
212.3836933957
 30
0.0
 11
337.102566105
 21
210.7510098721
 31
0.0
  0
LINE
  5
299
330
1F
100
AcDbEntity
  8
0
  6
Continuous
 62
     7
370
    25
100
AcDbLine
 10
298.2114632716
 20
215.2411217871
 30
0.0
 11
295.383266015
 21
213.6084382635
 31
0.0
  0
LINE
  5
29A
330
1F
100
AcDbEntity
  8
0
  6
Continuous
 62
     7
370
    25
100
AcDbLine
 10
314.4749192389
 20
216.4657339548
 30
0.0
 11
311.6467219823
 21
214.8330504312
 31
0.0
  0
LINE
  5
29B
330
1F
100
AcDbEntity
  8
0
  6
Continuous
 62
     7
370
    25
100
AcDbLine
 10
256.8111283375
 20
173.0361722729
 30
0.0
 11
256.8111283375
 21
173.3056307409
 31
0.0
  0
LINE
  5
29C
330
1F
100
AcDbEntity
  8
0
  6
Continuous
 62
     7
370
    25
100
AcDbLine
 10
329.2220736978
 20
217.3728039885
 30
0.0
 11
329.2220736978
 21
217.6316774059
 31
0.0
  0
LWPOLYLINE
  5
29D
330
1F
100
AcDbEntity
  8
0
  6
Continuous
 62
     7
370
    25
100
AcDbPolyline
 90
        9
 70
   128
 43
0.0
 10
297.7740729874
 20
149.6819726036
 10
297.8116603118
 20
149.6856311864
 10
297.9163826417
 20
149.6734812299
 10
298.0254304733
 20
149.6292411244
 10
298.1383071127
 20
149.5531123757
 10
298.2544984264
 20
149.4454417371
 10
298.3734751832
 20
149.3067196297
 10
298.4946954647
 20
149.1375779084
 10
298.6176071335
 20
148.9387869845
  0
LINE
  5
29E
330
1F
100
AcDbEntity
  8
0
  6
Continuous
 62
     7
370
    25
100
AcDbLine
 10
364.2039707386
 20
156.6937003356
 30
0.0
 11
363.8852152159
 21
156.4735481757
 31
0.0
  0
LINE
  5
29F
330
1F
100
AcDbEntity
  8
0
  6
Continuous
 62
     7
370
    25
100
AcDbLine
 10
257.1298838601
 20
173.2563244329
 30
0.0
 11
256.8111283375
 21
173.0361722729
 31
0.0
  0
LINE
  5
2A0
330
1F
100
AcDbEntity
  8
0
  6
Continuous
 62
     7
370
    25
100
AcDbLine
 10
335.5135556292
 20
218.5062549733
 30
0.0
 11
335.1948001065
 21
218.2861028134
 31
0.0
  0
CIRCLE
  5
2A1
330
1F
100
AcDbEntity
  8
0
  6
Continuous
 62
     7
370
    25
100
AcDbCircle
 10
106.81511473
 20
64.0503374931
 30
0.0
 40
3.570000000000014
  0
LINE
  5
2A2
330
1F
100
AcDbEntity
  8
0
  6
Continuous
 62
     7
370
    25
100
AcDbLine
 10
105.3687045685
 20
65.7555933814
 30
0.0
 11
106.0615248915
 21
66.1555933814
 31
0.0
  0
LINE
  5
2A3
330
1F
100
AcDbEntity
  8
0
  6
Continuous
 62
     7
370
    25
100
AcDbLine
 10
106.2687045685
 20
64.1967476546
 30
0.0
 11
105.3687045685
 21
65.7555933814
 31
0.0
  0
LINE
  5
2A4
330
1F
100
AcDbEntity
  8
0
  6
Continuous
 62
     7
370
    25
100
AcDbLine
 10
104.7098588417
 20
63.2967476546
 30
0.0
 11
106.2687045685
 21
64.1967476546
 31
0.0
  0
LINE
  5
2A5
330
1F
100
AcDbEntity
  8
0
  6
Continuous
 62
     7
370
    25
100
AcDbLine
 10
105.1098588417
 20
62.6039273316
 30
0.0
 11
104.7098588417
 21
63.2967476546
 31
0.0
  0
LINE
  5
2A6
330
1F
100
AcDbEntity
  8
0
  6
Continuous
 62
     7
370
    25
100
AcDbLine
 10
106.6687045685
 20
63.5039273316
 30
0.0
 11
105.1098588417
 21
62.6039273316
 31
0.0
  0
LINE
  5
2A7
330
1F
100
AcDbEntity
  8
0
  6
Continuous
 62
     7
370
    25
100
AcDbLine
 10
107.5687045685
 20
61.9450816048
 30
0.0
 11
106.6687045685
 21
63.5039273316
 31
0.0
  0
LINE
  5
2A8
330
1F
100
AcDbEntity
  8
0
  6
Continuous
 62
     7
370
    25
100
AcDbLine
 10
108.2615248915
 20
62.3450816048
 30
0.0
 11
107.5687045685
 21
61.9450816048
 31
0.0
  0
LINE
  5
2A9
330
1F
100
AcDbEntity
  8
0
  6
Continuous
 62
     7
370
    25
100
AcDbLine
 10
107.3615248915
 20
63.9039273316
 30
0.0
 11
108.2615248915
 21
62.3450816048
 31
0.0
  0
LINE
  5
2AA
330
1F
100
AcDbEntity
  8
0
  6
Continuous
 62
     7
370
    25
100
AcDbLine
 10
108.9203706183
 20
64.8039273316
 30
0.0
 11
107.3615248915
 21
63.9039273316
 31
0.0
  0
LINE
  5
2AB
330
1F
100
AcDbEntity
  8
0
  6
Continuous
 62
     7
370
    25
100
AcDbLine
 10
108.5203706183
 20
65.4967476546
 30
0.0
 11
108.9203706183
 21
64.8039273316
 31
0.0
  0
LINE
  5
2AC
330
1F
100
AcDbEntity
  8
0
  6
Continuous
 62
     7
370
    25
100
AcDbLine
 10
106.9615248915
 20
64.5967476546
 30
0.0
 11
108.5203706183
 21
65.4967476546
 31
0.0
  0
LINE
  5
2AD
330
1F
100
AcDbEntity
  8
0
  6
Continuous
 62
     7
370
    25
100
AcDbLine
 10
106.0615248915
 20
66.1555933814
 30
0.0
 11
106.9615248915
 21
64.5967476546
 31
0.0
  0
LINE
  5
2AE
330
1F
100
AcDbEntity
  8
0
  6
Continuous
 62
     7
370
    25
100
AcDbLine
 10
202.0615248915
 20
117.370707447
 30
0.0
 11
201.3687045685
 21
117.770707447
 31
0.0
  0
LINE
  5
2AF
330
1F
100
AcDbEntity
  8
0
  6
Continuous
 62
     7
370
    25
100
AcDbLine
 10
202.9615248915
 20
118.9295531738
 30
0.0
 11
202.0615248915
 21
117.370707447
 31
0.0
  0
LINE
  5
2B0
330
1F
100
AcDbEntity
  8
0
  6
Continuous
 62
     7
370
    25
100
AcDbLine
 10
204.5203706183
 20
118.0295531738
 30
0.0
 11
202.9615248915
 21
118.9295531738
 31
0.0
  0
LINE
  5
2B1
330
1F
100
AcDbEntity
  8
0
  6
Continuous
 62
     7
370
    25
100
AcDbLine
 10
204.9203706183
 20
118.7223734968
 30
0.0
 11
204.5203706183
 21
118.0295531738
 31
0.0
  0
LINE
  5
2B2
330
1F
100
AcDbEntity
  8
0
  6
Continuous
 62
     7
370
    25
100
AcDbLine
 10
203.3615248915
 20
119.6223734968
 30
0.0
 11
204.9203706183
 21
118.7223734968
 31
0.0
  0
LINE
  5
2B3
330
1F
100
AcDbEntity
  8
0
  6
Continuous
 62
     7
370
    25
100
AcDbLine
 10
204.2615248915
 20
121.1812192236
 30
0.0
 11
203.3615248915
 21
119.6223734968
 31
0.0
  0
LINE
  5
2B4
330
1F
100
AcDbEntity
  8
0
  6
Continuous
 62
     7
370
    25
100
AcDbLine
 10
203.5687045685
 20
121.5812192236
 30
0.0
 11
204.2615248915
 21
121.1812192236
 31
0.0
  0
LINE
  5
2B5
330
1F
100
AcDbEntity
  8
0
  6
Continuous
 62
     7
370
    25
100
AcDbLine
 10
202.6687045685
 20
120.0223734968
 30
0.0
 11
203.5687045685
 21
121.5812192236
 31
0.0
  0
LINE
  5
2B6
330
1F
100
AcDbEntity
  8
0
  6
Continuous
 62
     7
370
    25
100
AcDbLine
 10
200.7098588417
 20
120.2295531738
 30
0.0
 11
201.1098588417
 21
120.9223734968
 31
0.0
  0
LINE
  5
2B7
330
1F
100
AcDbEntity
  8
0
  6
Continuous
 62
     7
370
    25
100
AcDbLine
 10
201.3687045685
 20
117.770707447
 30
0.0
 11
202.2687045685
 21
119.3295531738
 31
0.0
  0
CIRCLE
  5
2B8
330
1F
100
AcDbEntity
  8
0
  6
Continuous
 62
     7
370
    25
100
AcDbCircle
 10
202.81511473
 20
119.4759633353
 30
0.0
 40
3.56999999999999
  0
LINE
  5
2B9
330
1F
100
AcDbEntity
  8
0
  6
Continuous
 62
     7
370
    25
100
AcDbLine
 10
201.1098588417
 20
120.9223734968
 30
0.0
 11
202.6687045685
 21
120.0223734968
 31
0.0
  0
LINE
  5
2BA
330
1F
100
AcDbEntity
  8
0
  6
Continuous
 62
     7
370
    25
100
AcDbLine
 10
202.2687045685
 20
119.3295531738
 30
0.0
 11
200.7098588417
 21
120.2295531738
 31
0.0
  0
LINE
  5
2BB
330
1F
100
AcDbEntity
  8
0
  6
Continuous
 62
     7
370
    25
100
AcDbLine
 10
109.01511473
 20
175.3015891775
 30
0.0
 11
109.01511473
 21
174.5015891775
 31
0.0
  0
LINE
  5
2BC
330
1F
100
AcDbEntity
  8
0
  6
Continuous
 62
     7
370
    25
100
AcDbLine
 10
107.21511473
 20
175.3015891775
 30
0.0
 11
109.01511473
 21
175.3015891775
 31
0.0
  0
LINE
  5
2BD
330
1F
100
AcDbEntity
  8
0
  6
Continuous
 62
     7
370
    25
100
AcDbLine
 10
107.21511473
 20
177.1015891775
 30
0.0
 11
107.21511473
 21
175.3015891775
 31
0.0
  0
LINE
  5
2BE
330
1F
100
AcDbEntity
  8
0
  6
Continuous
 62
     7
370
    25
100
AcDbLine
 10
106.41511473
 20
177.1015891775
 30
0.0
 11
107.21511473
 21
177.1015891775
 31
0.0
  0
LINE
  5
2BF
330
1F
100
AcDbEntity
  8
0
  6
Continuous
 62
     7
370
    25
100
AcDbLine
 10
106.41511473
 20
175.3015891775
 30
0.0
 11
106.41511473
 21
177.1015891775
 31
0.0
  0
LINE
  5
2C0
330
1F
100
AcDbEntity
  8
0
  6
Continuous
 62
     7
370
    25
100
AcDbLine
 10
104.61511473
 20
175.3015891775
 30
0.0
 11
106.41511473
 21
175.3015891775
 31
0.0
  0
LINE
  5
2C1
330
1F
100
AcDbEntity
  8
0
  6
Continuous
 62
     7
370
    25
100
AcDbLine
 10
104.61511473
 20
174.5015891775
 30
0.0
 11
104.61511473
 21
175.3015891775
 31
0.0
  0
LINE
  5
2C2
330
1F
100
AcDbEntity
  8
0
  6
Continuous
 62
     7
370
    25
100
AcDbLine
 10
106.41511473
 20
174.5015891775
 30
0.0
 11
104.61511473
 21
174.5015891775
 31
0.0
  0
LINE
  5
2C3
330
1F
100
AcDbEntity
  8
0
  6
Continuous
 62
     7
370
    25
100
AcDbLine
 10
106.41511473
 20
172.7015891775
 30
0.0
 11
106.41511473
 21
174.5015891775
 31
0.0
  0
LINE
  5
2C4
330
1F
100
AcDbEntity
  8
0
  6
Continuous
 62
     7
370
    25
100
AcDbLine
 10
107.21511473
 20
172.7015891775
 30
0.0
 11
106.41511473
 21
172.7015891775
 31
0.0
  0
LINE
  5
2C5
330
1F
100
AcDbEntity
  8
0
  6
Continuous
 62
     7
370
    25
100
AcDbLine
 10
107.21511473
 20
174.5015891775
 30
0.0
 11
107.21511473
 21
172.7015891775
 31
0.0
  0
LINE
  5
2C6
330
1F
100
AcDbEntity
  8
0
  6
Continuous
 62
     7
370
    25
100
AcDbLine
 10
109.01511473
 20
174.5015891775
 30
0.0
 11
107.21511473
 21
174.5015891775
 31
0.0
  0
CIRCLE
  5
2C7
330
1F
100
AcDbEntity
  8
0
  6
Continuous
 62
     7
370
    25
100
AcDbCircle
 10
106.81511473
 20
174.9015891775
 30
0.0
 40
3.569999999999993
  0
CIRCLE
  5
2C8
330
1F
100
AcDbEntity
  8
0
  6
Continuous
 62
     7
370
    25
100
AcDbCircle
 10
170.81511473
 20
174.9015891775
 30
0.0
 40
3.499999999999943
  0
CIRCLE
  5
2C9
330
1F
100
AcDbEntity
  8
0
  6
Continuous
 62
     7
370
    25
100
AcDbCircle
 10
170.81511473
 20
64.0503374931
 30
0.0
 40
3.499999999999974
  0
CIRCLE
  5
2CA
330
1F
100
AcDbEntity
  8
0
  6
Continuous
 62
     7
370
    25
100
AcDbCircle
 10
74.81511473
 20
119.4759633353
 30
0.0
 40
3.500000000000002
  0
CIRCLE
  5
2CB
330
1F
100
AcDbEntity
  8
0
  6
Continuous
 62
     7
370
    25
100
AcDbCircle
 10
106.81511473
 20
174.9015891775
 30
0.0
 40
3.899999999999997
  0
CIRCLE
  5
2CC
330
1F
100
AcDbEntity
  8
0
  6
Continuous
 62
     7
370
    25
100
AcDbCircle
 10
106.81511473
 20
64.0503374931
 30
0.0
 40
3.900000000000002
  0
ARC
  5
2CD
330
1F
100
AcDbEntity
  8
0
  6
Continuous
 62
     7
370
    25
100
AcDbCircle
 10
125.7200630083
 20
116.3529200311
 30
0.0
 40
6.566904545454414
100
AcDbArc
 50
16.065892
 51
47.267837
  0
LINE
  5
2CE
330
1F
100
AcDbEntity
  8
0
  6
Continuous
 62
     7
370
    25
100
AcDbLine
 10
128.3218519223
 20
118.1702626325
 30
0.0
 11
132.0304909794
 21
118.1702626325
 31
0.0
  0
ARC
  5
2CF
330
1F
100
AcDbEntity
  8
0
  6
Continuous
 62
     7
370
    25
100
AcDbCircle
 10
134.6322173479
 20
116.3529295149
 30
0.0
 40
6.566841818181837
100
AcDbArc
 50
132.731692507
 51
163.9340364925
  0
CIRCLE
  5
2D0
330
1F
100
AcDbEntity
  8
0
  6
Continuous
 62
     7
370
    25
100
AcDbCircle
 10
202.81511473
 20
119.4759633353
 30
0.0
 40
3.900000000000009
  0
ARC
  5
2D1
330
1F
100
AcDbEntity
  8
0
  6
Continuous
 62
     7
370
    25
100
AcDbCircle
 10
134.6322173479
 20
116.3529295149
 30
0.0
 40
7.504974922529013
100
AcDbArc
 50
126.4231693347
 51
179.7474095642
  0
LINE
  5
2D2
330
1F
100
AcDbEntity
  8
0
  6
Continuous
 62
     7
370
    25
100
AcDbLine
 10
128.0654811965
 20
116.3860153505
 30
0.0
 11
127.1273153555
 21
116.3860153505
 31
0.0
  0
ARC
  5
2D3
330
1F
100
AcDbEntity
  8
0
  6
Continuous
 62
     7
370
    25
100
AcDbCircle
 10
134.6322173479
 20
116.3529295149
 30
0.0
 40
6.56681950063883
100
AcDbArc
 50
172.3057862491
 51
179.7113234549
  0
LINE
  5
2D4
330
1F
100
AcDbEntity
  8
0
  6
Continuous
 62
     7
370
    25
100
AcDbLine
 10
132.2278441686
 20
117.2321354081
 30
0.0
 11
128.1245207238
 21
117.2321354081
 31
0.0
  0
ARC
  5
2D5
330
1F
100
AcDbEntity
  8
0
  6
Continuous
 62
     7
370
    25
100
AcDbCircle
 10
125.7200630083
 20
116.3529200311
 30
0.0
 40
6.566904545454545
100
AcDbArc
 50
0.288758
 51
7.694197
  0
LINE
  5
2D6
330
1F
100
AcDbEntity
  8
0
  6
Continuous
 62
     7
370
    25
100
AcDbLine
 10
133.2250211851
 20
116.386015631
 30
0.0
 11
132.2868841564
 21
116.3860156311
 31
0.0
  0
ARC
  5
2D7
330
1F
100
AcDbEntity
  8
0
  6
Continuous
 62
     7
370
    25
100
AcDbCircle
 10
125.7200630083
 20
116.3529200311
 30
0.0
 40
7.505031149435109
100
AcDbArc
 50
0.2526630872
 51
53.5763708755
  0
ARC
  5
2D8
330
1F
100
AcDbEntity
  8
0
  6
Continuous
 62
     7
370
    25
100
AcDbCircle
 10
138.8151151837
 20
119.4759633353
 30
0.0
 40
3.048912296849465
100
AcDbArc
 50
30.7309504402
 51
329.9999937536
  0
LINE
  5
2D9
330
1F
100
AcDbEntity
  8
0
  6
Continuous
 62
     7
370
    25
100
AcDbLine
 10
140.6431075538
 20
118.4205717234
 30
0.0
 11
141.4555505205
 21
117.951506899
 31
0.0
  0
ARC
  5
2DA
330
1F
100
AcDbEntity
  8
0
  6
Continuous
 62
     7
370
    25
100
AcDbCircle
 10
138.8151151837
 20
119.4759633353
 30
0.0
 40
2.110783636363649
100
AcDbArc
 50
31.055783
 51
330.0000064643
  0
LINE
  5
2DB
330
1F
100
AcDbEntity
  8
0
  6
Continuous
 62
     7
370
    25
100
AcDbLine
 10
141.4358881101
 20
121.0339798507
 30
0.0
 11
140.623350608
 21
120.5648582843
 31
0.0
  0
CIRCLE
  5
2DC
330
1F
100
AcDbEntity
  8
0
  6
Continuous
 62
     7
370
    25
100
AcDbCircle
 10
147.4540430083
 20
119.4759635415
 30
0.0
 40
3.048913636363638
  0
LINE
  5
2DD
330
1F
100
AcDbEntity
  8
0
  6
Continuous
 62
     7
370
    25
100
AcDbLine
 10
85.81511473
 20
122.4759633353
 30
0.0
 11
99.81511473
 21
122.4759633353
 31
0.0
  0
LINE
  5
2DE
330
1F
100
AcDbEntity
  8
0
  6
Continuous
 62
     7
370
    25
100
AcDbLine
 10
85.81511473
 20
116.4759633353
 30
0.0
 11
85.81511473
 21
122.4759633353
 31
0.0
  0
LINE
  5
2DF
330
1F
100
AcDbEntity
  8
0
  6
Continuous
 62
     7
370
    25
100
AcDbLine
 10
99.81511473
 20
116.4759633353
 30
0.0
 11
85.81511473
 21
116.4759633353
 31
0.0
  0
LINE
  5
2E0
330
1F
100
AcDbEntity
  8
0
  6
Continuous
 62
     7
370
    25
100
AcDbLine
 10
99.81511473
 20
122.4759633353
 30
0.0
 11
99.81511473
 21
116.4759633353
 31
0.0
  0
LINE
  5
2E1
330
1F
100
AcDbEntity
  8
0
  6
Continuous
 62
     7
370
    25
100
AcDbLine
 10
105.81511473
 20
135.4759633353
 30
0.0
 11
171.81511473
 21
135.4759633353
 31
0.0
  0
LINE
  5
2E2
330
1F
100
AcDbEntity
  8
0
  6
Continuous
 62
     7
370
    25
100
AcDbLine
 10
105.81511473
 20
129.4759633353
 30
0.0
 11
105.81511473
 21
135.4759633353
 31
0.0
  0
LINE
  5
2E3
330
1F
100
AcDbEntity
  8
0
  6
Continuous
 62
     7
370
    25
100
AcDbLine
 10
171.81511473
 20
135.4759633353
 30
0.0
 11
171.81511473
 21
129.4759633353
 31
0.0
  0
LINE
  5
2E4
330
1F
100
AcDbEntity
  8
0
  6
Continuous
 62
     7
370
    25
100
AcDbLine
 10
113.81511473
 20
90.4759633353
 30
0.0
 11
113.81511473
 21
96.4759633353
 31
0.0
  0
LINE
  5
2E5
330
1F
100
AcDbEntity
  8
0
  6
Continuous
 62
     7
370
    25
100
AcDbLine
 10
163.81511473
 20
90.4759633353
 30
0.0
 11
113.81511473
 21
90.4759633353
 31
0.0
  0
LINE
  5
2E6
330
1F
100
AcDbEntity
  8
0
  6
Continuous
 62
     7
370
    25
100
AcDbLine
 10
95.81511473
 20
83.4759633353
 30
0.0
 11
135.81511473
 21
83.4759633353
 31
0.0
  0
LINE
  5
2E7
330
1F
100
AcDbEntity
  8
0
  6
Continuous
 62
     7
370
    25
100
AcDbLine
 10
95.81511473
 20
77.4759633353
 30
0.0
 11
95.81511473
 21
83.4759633353
 31
0.0
  0
LINE
  5
2E8
330
1F
100
AcDbEntity
  8
0
  6
Continuous
 62
     7
370
    25
100
AcDbLine
 10
135.81511473
 20
83.4759633353
 30
0.0
 11
135.81511473
 21
77.4759633353
 31
0.0
  0
LINE
  5
2E9
330
1F
100
AcDbEntity
  8
0
  6
Continuous
 62
     7
370
    25
100
AcDbLine
 10
118.81511473
 20
70.4759633353
 30
0.0
 11
158.81511473
 21
70.4759633353
 31
0.0
  0
LINE
  5
2EA
330
1F
100
AcDbEntity
  8
0
  6
Continuous
 62
     7
370
    25
100
AcDbLine
 10
135.81511473
 20
161.4759633353
 30
0.0
 11
135.81511473
 21
155.4759633353
 31
0.0
  0
LINE
  5
2EB
330
1F
100
AcDbEntity
  8
0
  6
Continuous
 62
     7
370
    25
100
AcDbLine
 10
95.81511473
 20
161.4759633353
 30
0.0
 11
135.81511473
 21
161.4759633353
 31
0.0
  0
LINE
  5
2EC
330
1F
100
AcDbEntity
  8
0
  6
Continuous
 62
     7
370
    25
100
AcDbLine
 10
95.81511473
 20
155.4759633353
 30
0.0
 11
95.81511473
 21
161.4759633353
 31
0.0
  0
LINE
  5
2ED
330
1F
100
AcDbEntity
  8
0
  6
Continuous
 62
     7
370
    25
100
AcDbLine
 10
85.81511473
 20
90.4759633353
 30
0.0
 11
85.81511473
 21
96.4759633353
 31
0.0
  0
LINE
  5
2EE
330
1F
100
AcDbEntity
  8
0
  6
Continuous
 62
     7
370
    25
100
AcDbLine
 10
107.81511473
 20
90.4759633353
 30
0.0
 11
85.81511473
 21
90.4759633353
 31
0.0
  0
LINE
  5
2EF
330
1F
100
AcDbEntity
  8
0
  6
Continuous
 62
     7
370
    25
100
AcDbLine
 10
107.81511473
 20
96.4759633353
 30
0.0
 11
107.81511473
 21
90.4759633353
 31
0.0
  0
LINE
  5
2F0
330
1F
100
AcDbEntity
  8
0
  6
Continuous
 62
     7
370
    25
100
AcDbLine
 10
85.81511473
 20
96.4759633353
 30
0.0
 11
107.81511473
 21
96.4759633353
 31
0.0
  0
LINE
  5
2F1
330
1F
100
AcDbEntity
  8
0
  6
Continuous
 62
     7
370
    25
100
AcDbLine
 10
191.81511473
 20
142.4759633353
 30
0.0
 11
169.81511473
 21
142.4759633353
 31
0.0
  0
LINE
  5
2F2
330
1F
100
AcDbEntity
  8
0
  6
Continuous
 62
     7
370
    25
100
AcDbLine
 10
191.81511473
 20
148.4759633353
 30
0.0
 11
191.81511473
 21
142.4759633353
 31
0.0
  0
LINE
  5
2F3
330
1F
100
AcDbEntity
  8
0
  6
Continuous
 62
     7
370
    25
100
AcDbLine
 10
169.81511473
 20
148.4759633353
 30
0.0
 11
191.81511473
 21
148.4759633353
 31
0.0
  0
LINE
  5
2F4
330
1F
100
AcDbEntity
  8
0
  6
Continuous
 62
     7
370
    25
100
AcDbLine
 10
169.81511473
 20
142.4759633353
 30
0.0
 11
169.81511473
 21
148.4759633353
 31
0.0
  0
LINE
  5
2F5
330
1F
100
AcDbEntity
  8
0
  6
Continuous
 62
     7
370
    25
100
AcDbLine
 10
157.81511473
 20
122.4759633353
 30
0.0
 11
171.81511473
 21
122.4759633353
 31
0.0
  0
LINE
  5
2F6
330
1F
100
AcDbEntity
  8
0
  6
Continuous
 62
     7
370
    25
100
AcDbLine
 10
171.81511473
 20
122.4759633353
 30
0.0
 11
171.81511473
 21
116.4759633353
 31
0.0
  0
LINE
  5
2F7
330
1F
100
AcDbEntity
  8
0
  6
Continuous
 62
     7
370
    25
100
AcDbLine
 10
85.81511473
 20
135.4759633353
 30
0.0
 11
99.81511473
 21
135.4759633353
 31
0.0
  0
LINE
  5
2F8
330
1F
100
AcDbEntity
  8
0
  6
Continuous
 62
     7
370
    25
100
AcDbLine
 10
191.81511473
 20
135.4759633353
 30
0.0
 11
191.81511473
 21
129.4759633353
 31
0.0
  0
LINE
  5
2F9
330
1F
100
AcDbEntity
  8
0
  6
Continuous
 62
     7
370
    25
100
AcDbLine
 10
177.81511473
 20
135.4759633353
 30
0.0
 11
191.81511473
 21
135.4759633353
 31
0.0
  0
LINE
  5
2FA
330
1F
100
AcDbEntity
  8
0
  6
Continuous
 62
     7
370
    25
100
AcDbLine
 10
177.81511473
 20
129.4759633353
 30
0.0
 11
177.81511473
 21
135.4759633353
 31
0.0
  0
LINE
  5
2FB
330
1F
100
AcDbEntity
  8
0
  6
Continuous
 62
     7
370
    25
100
AcDbLine
 10
177.81511473
 20
109.4759633353
 30
0.0
 11
191.81511473
 21
109.4759633353
 31
0.0
  0
LINE
  5
2FC
330
1F
100
AcDbEntity
  8
0
  6
Continuous
 62
     7
370
    25
100
AcDbLine
 10
177.81511473
 20
103.4759633353
 30
0.0
 11
177.81511473
 21
109.4759633353
 31
0.0
  0
LINE
  5
2FD
330
1F
100
AcDbEntity
  8
0
  6
Continuous
 62
     7
370
    25
100
AcDbLine
 10
191.81511473
 20
103.4759633353
 30
0.0
 11
177.81511473
 21
103.4759633353
 31
0.0
  0
LINE
  5
2FE
330
1F
100
AcDbEntity
  8
0
  6
Continuous
 62
     7
370
    25
100
AcDbLine
 10
191.81511473
 20
109.4759633353
 30
0.0
 11
191.81511473
 21
103.4759633353
 31
0.0
  0
LINE
  5
2FF
330
1F
100
AcDbEntity
  8
0
  6
Continuous
 62
     7
370
    25
100
AcDbLine
 10
85.81511473
 20
103.4759633353
 30
0.0
 11
85.81511473
 21
109.4759633353
 31
0.0
  0
LINE
  5
300
330
1F
100
AcDbEntity
  8
0
  6
Continuous
 62
     7
370
    25
100
AcDbLine
 10
99.81511473
 20
103.4759633353
 30
0.0
 11
85.81511473
 21
103.4759633353
 31
0.0
  0
LINE
  5
301
330
1F
100
AcDbEntity
  8
0
  6
Continuous
 62
     7
370
    25
100
AcDbLine
 10
99.81511473
 20
109.4759633353
 30
0.0
 11
99.81511473
 21
103.4759633353
 31
0.0
  0
LINE
  5
302
330
1F
100
AcDbEntity
  8
0
  6
Continuous
 62
     7
370
    25
100
AcDbLine
 10
85.81511473
 20
109.4759633353
 30
0.0
 11
99.81511473
 21
109.4759633353
 31
0.0
  0
LINE
  5
303
330
1F
100
AcDbEntity
  8
0
  6
Continuous
 62
     7
370
    25
100
AcDbLine
 10
105.81511473
 20
122.4759633353
 30
0.0
 11
119.81511473
 21
122.4759633353
 31
0.0
  0
LINE
  5
304
330
1F
100
AcDbEntity
  8
0
  6
Continuous
 62
     7
370
    25
100
AcDbLine
 10
119.81511473
 20
122.4759633353
 30
0.0
 11
119.81511473
 21
116.4759633353
 31
0.0
  0
LINE
  5
305
330
1F
100
AcDbEntity
  8
0
  6
Continuous
 62
     7
370
    25
100
AcDbLine
 10
158.81511473
 20
64.4759633353
 30
0.0
 11
118.81511473
 21
64.4759633353
 31
0.0
  0
LINE
  5
306
330
1F
100
AcDbEntity
  8
0
  6
Continuous
 62
     7
370
    25
100
AcDbLine
 10
85.81511473
 20
148.4759633353
 30
0.0
 11
107.81511473
 21
148.4759633353
 31
0.0
  0
LINE
  5
307
330
1F
100
AcDbEntity
  8
0
  6
Continuous
 62
     7
370
    25
100
AcDbLine
 10
169.81511473
 20
90.4759633353
 30
0.0
 11
169.81511473
 21
96.4759633353
 31
0.0
  0
LINE
  5
308
330
1F
100
AcDbEntity
  8
0
  6
Continuous
 62
     7
370
    25
100
AcDbLine
 10
191.81511473
 20
90.4759633353
 30
0.0
 11
169.81511473
 21
90.4759633353
 31
0.0
  0
LINE
  5
309
330
1F
100
AcDbEntity
  8
0
  6
Continuous
 62
     7
370
    25
100
AcDbLine
 10
191.81511473
 20
96.4759633353
 30
0.0
 11
191.81511473
 21
90.4759633353
 31
0.0
  0
LINE
  5
30A
330
1F
100
AcDbEntity
  8
0
  6
Continuous
 62
     7
370
    25
100
AcDbLine
 10
169.81511473
 20
96.4759633353
 30
0.0
 11
191.81511473
 21
96.4759633353
 31
0.0
  0
LINE
  5
30B
330
1F
100
AcDbEntity
  8
0
  6
Continuous
 62
     7
370
    25
100
AcDbLine
 10
118.81511473
 20
168.4759633353
 30
0.0
 11
118.81511473
 21
174.4759633353
 31
0.0
  0
LINE
  5
30C
330
1F
100
AcDbEntity
  8
0
  6
Continuous
 62
     7
370
    25
100
AcDbLine
 10
158.81511473
 20
168.4759633353
 30
0.0
 11
118.81511473
 21
168.4759633353
 31
0.0
  0
LINE
  5
30D
330
1F
100
AcDbEntity
  8
0
  6
Continuous
 62
     7
370
    25
100
AcDbLine
 10
158.81511473
 20
174.4759633353
 30
0.0
 11
158.81511473
 21
168.4759633353
 31
0.0
  0
LINE
  5
30E
330
1F
100
AcDbEntity
  8
0
  6
Continuous
 62
     7
370
    25
100
AcDbLine
 10
118.81511473
 20
174.4759633353
 30
0.0
 11
158.81511473
 21
174.4759633353
 31
0.0
  0
LINE
  5
30F
330
1F
100
AcDbEntity
  8
0
  6
Continuous
 62
     7
370
    25
100
AcDbLine
 10
141.81511473
 20
155.4759633353
 30
0.0
 11
141.81511473
 21
161.4759633353
 31
0.0
  0
LINE
  5
310
330
1F
100
AcDbEntity
  8
0
  6
Continuous
 62
     7
370
    25
100
AcDbLine
 10
181.81511473
 20
155.4759633353
 30
0.0
 11
141.81511473
 21
155.4759633353
 31
0.0
  0
LINE
  5
311
330
1F
100
AcDbEntity
  8
0
  6
Continuous
 62
     7
370
    25
100
AcDbLine
 10
181.81511473
 20
161.4759633353
 30
0.0
 11
181.81511473
 21
155.4759633353
 31
0.0
  0
LINE
  5
312
330
1F
100
AcDbEntity
  8
0
  6
Continuous
 62
     7
370
    25
100
AcDbLine
 10
141.81511473
 20
161.4759633353
 30
0.0
 11
181.81511473
 21
161.4759633353
 31
0.0
  0
LINE
  5
313
330
1F
100
AcDbEntity
  8
0
  6
Continuous
 62
     7
370
    25
100
AcDbLine
 10
141.81511473
 20
83.4759633353
 30
0.0
 11
181.81511473
 21
83.4759633353
 31
0.0
  0
LINE
  5
314
330
1F
100
AcDbEntity
  8
0
  6
Continuous
 62
     7
370
    25
100
AcDbLine
 10
141.81511473
 20
77.4759633353
 30
0.0
 11
141.81511473
 21
83.4759633353
 31
0.0
  0
LINE
  5
315
330
1F
100
AcDbEntity
  8
0
  6
Continuous
 62
     7
370
    25
100
AcDbLine
 10
181.81511473
 20
77.4759633353
 30
0.0
 11
141.81511473
 21
77.4759633353
 31
0.0
  0
LINE
  5
316
330
1F
100
AcDbEntity
  8
0
  6
Continuous
 62
     7
370
    25
100
AcDbLine
 10
181.81511473
 20
83.4759633353
 30
0.0
 11
181.81511473
 21
77.4759633353
 31
0.0
  0
LINE
  5
317
330
1F
100
AcDbEntity
  8
0
  6
Continuous
 62
     7
370
    25
100
AcDbLine
 10
163.81511473
 20
148.4759633353
 30
0.0
 11
163.81511473
 21
142.4759633353
 31
0.0
  0
LINE
  5
318
330
1F
100
AcDbEntity
  8
0
  6
Continuous
 62
     7
370
    25
100
AcDbLine
 10
113.81511473
 20
148.4759633353
 30
0.0
 11
163.81511473
 21
148.4759633353
 31
0.0
  0
LINE
  5
319
330
1F
100
AcDbEntity
  8
0
  6
Continuous
 62
     7
370
    25
100
AcDbLine
 10
113.81511473
 20
142.4759633353
 30
0.0
 11
113.81511473
 21
148.4759633353
 31
0.0
  0
LINE
  5
31A
330
1F
100
AcDbEntity
  8
0
  6
Continuous
 62
     7
370
    25
100
AcDbLine
 10
163.81511473
 20
142.4759633353
 30
0.0
 11
113.81511473
 21
142.4759633353
 31
0.0
  0
LINE
  5
31B
330
1F
100
AcDbEntity
  8
0
  6
Continuous
 62
     7
370
    25
100
AcDbLine
 10
105.81511473
 20
109.4759633353
 30
0.0
 11
171.81511473
 21
109.4759633353
 31
0.0
  0
LINE
  5
31C
330
1F
100
AcDbEntity
  8
0
  6
Continuous
 62
     7
370
    25
100
AcDbLine
 10
105.81511473
 20
103.4759633353
 30
0.0
 11
105.81511473
 21
109.4759633353
 31
0.0
  0
LINE
  5
31D
330
1F
100
AcDbEntity
  8
0
  6
Continuous
 62
     7
370
    25
100
AcDbLine
 10
171.81511473
 20
103.4759633353
 30
0.0
 11
105.81511473
 21
103.4759633353
 31
0.0
  0
LINE
  5
31E
330
1F
100
AcDbEntity
  8
0
  6
Continuous
 62
     7
370
    25
100
AcDbLine
 10
171.81511473
 20
109.4759633353
 30
0.0
 11
171.81511473
 21
103.4759633353
 31
0.0
  0
LINE
  5
31F
330
1F
100
AcDbEntity
  8
0
  6
Continuous
 62
     7
370
    25
100
AcDbLine
 10
191.81511473
 20
122.4759633353
 30
0.0
 11
191.81511473
 21
116.4759633353
 31
0.0
  0
LINE
  5
320
330
1F
100
AcDbEntity
  8
0
  6
Continuous
 62
     7
370
    25
100
AcDbLine
 10
177.81511473
 20
122.4759633353
 30
0.0
 11
191.81511473
 21
122.4759633353
 31
0.0
  0
LINE
  5
321
330
1F
100
AcDbEntity
  8
0
  6
Continuous
 62
     7
370
    25
100
AcDbLine
 10
177.81511473
 20
116.4759633353
 30
0.0
 11
177.81511473
 21
122.4759633353
 31
0.0
  0
LINE
  5
322
330
1F
100
AcDbEntity
  8
0
  6
Continuous
 62
     7
370
    25
100
AcDbLine
 10
191.81511473
 20
116.4759633353
 30
0.0
 11
177.81511473
 21
116.4759633353
 31
0.0
  0
LINE
  5
323
330
1F
100
AcDbEntity
  8
0
  6
Continuous
 62
     7
370
    25
100
AcDbLine
 10
171.81511473
 20
129.4759633353
 30
0.0
 11
105.81511473
 21
129.4759633353
 31
0.0
  0
LINE
  5
324
330
1F
100
AcDbEntity
  8
0
  6
Continuous
 62
     7
370
    25
100
AcDbLine
 10
113.81511473
 20
96.4759633353
 30
0.0
 11
163.81511473
 21
96.4759633353
 31
0.0
  0
LINE
  5
325
330
1F
100
AcDbEntity
  8
0
  6
Continuous
 62
     7
370
    25
100
AcDbLine
 10
163.81511473
 20
96.4759633353
 30
0.0
 11
163.81511473
 21
90.4759633353
 31
0.0
  0
LINE
  5
326
330
1F
100
AcDbEntity
  8
0
  6
Continuous
 62
     7
370
    25
100
AcDbLine
 10
135.81511473
 20
77.4759633353
 30
0.0
 11
95.81511473
 21
77.4759633353
 31
0.0
  0
LINE
  5
327
330
1F
100
AcDbEntity
  8
0
  6
Continuous
 62
     7
370
    25
100
AcDbLine
 10
118.81511473
 20
64.4759633353
 30
0.0
 11
118.81511473
 21
70.4759633353
 31
0.0
  0
LINE
  5
328
330
1F
100
AcDbEntity
  8
0
  6
Continuous
 62
     7
370
    25
100
AcDbLine
 10
158.81511473
 20
70.4759633353
 30
0.0
 11
158.81511473
 21
64.4759633353
 31
0.0
  0
CIRCLE
  5
329
330
1F
100
AcDbEntity
  8
0
  6
Continuous
 62
     7
370
    25
100
AcDbCircle
 10
138.81511473
 20
119.4759633353
 30
0.0
 40
78.50000000000004
  0
LINE
  5
32A
330
1F
100
AcDbEntity
  8
0
  6
Continuous
 62
     7
370
    25
100
AcDbLine
 10
135.81511473
 20
155.4759633353
 30
0.0
 11
95.81511473
 21
155.4759633353
 31
0.0
  0
LINE
  5
32B
330
1F
100
AcDbEntity
  8
0
  6
Continuous
 62
     7
370
    25
100
AcDbLine
 10
157.81511473
 20
116.4759633353
 30
0.0
 11
157.81511473
 21
122.4759633353
 31
0.0
  0
LINE
  5
32C
330
1F
100
AcDbEntity
  8
0
  6
Continuous
 62
     7
370
    25
100
AcDbLine
 10
171.81511473
 20
116.4759633353
 30
0.0
 11
157.81511473
 21
116.4759633353
 31
0.0
  0
LINE
  5
32D
330
1F
100
AcDbEntity
  8
0
  6
Continuous
 62
     7
370
    25
100
AcDbLine
 10
85.81511473
 20
129.4759633353
 30
0.0
 11
85.81511473
 21
135.4759633353
 31
0.0
  0
LINE
  5
32E
330
1F
100
AcDbEntity
  8
0
  6
Continuous
 62
     7
370
    25
100
AcDbLine
 10
99.81511473
 20
129.4759633353
 30
0.0
 11
85.81511473
 21
129.4759633353
 31
0.0
  0
LINE
  5
32F
330
1F
100
AcDbEntity
  8
0
  6
Continuous
 62
     7
370
    25
100
AcDbLine
 10
99.81511473
 20
135.4759633353
 30
0.0
 11
99.81511473
 21
129.4759633353
 31
0.0
  0
LINE
  5
330
330
1F
100
AcDbEntity
  8
0
  6
Continuous
 62
     7
370
    25
100
AcDbLine
 10
191.81511473
 20
129.4759633353
 30
0.0
 11
177.81511473
 21
129.4759633353
 31
0.0
  0
LINE
  5
331
330
1F
100
AcDbEntity
  8
0
  6
Continuous
 62
     7
370
    25
100
AcDbLine
 10
107.81511473
 20
142.4759633353
 30
0.0
 11
85.81511473
 21
142.4759633353
 31
0.0
  0
LINE
  5
332
330
1F
100
AcDbEntity
  8
0
  6
Continuous
 62
     7
370
    25
100
AcDbLine
 10
105.81511473
 20
116.4759633353
 30
0.0
 11
105.81511473
 21
122.4759633353
 31
0.0
  0
LINE
  5
333
330
1F
100
AcDbEntity
  8
0
  6
Continuous
 62
     7
370
    25
100
AcDbLine
 10
119.81511473
 20
116.4759633353
 30
0.0
 11
105.81511473
 21
116.4759633353
 31
0.0
  0
LINE
  5
334
330
1F
100
AcDbEntity
  8
0
  6
Continuous
 62
     7
370
    25
100
AcDbLine
 10
85.81511473
 20
142.4759633353
 30
0.0
 11
85.81511473
 21
148.4759633353
 31
0.0
  0
LINE
  5
335
330
1F
100
AcDbEntity
  8
0
  6
Continuous
 62
     7
370
    25
100
AcDbLine
 10
107.81511473
 20
148.4759633353
 30
0.0
 11
107.81511473
 21
142.4759633353
 31
0.0
  0
CIRCLE
  5
336
330
1F
100
AcDbEntity
  8
0
  6
Continuous
 62
     7
370
    25
100
AcDbCircle
 10
147.4540430083
 20
119.4759635415
 30
0.0
 40
2.110786363636384
  0
LINE
  5
337
330
1F
100
AcDbEntity
  8
0
  6
Continuous
 62
     7
370
    25
100
AcDbLine
 10
110.1926138048
 20
176.8515891775
 30
0.0
 11
109.9068254215
 21
176.6865891775
 31
0.0
  0
LINE
  5
338
330
1F
100
AcDbEntity
  8
0
  6
Continuous
 62
     7
370
    25
100
AcDbLine
 10
110.1926138048
 20
66.0003374931
 30
0.0
 11
109.9068254215
 21
65.8353374931
 31
0.0
  0
LINE
  5
339
330
1F
100
AcDbEntity
  8
0
  6
Continuous
 62
     7
370
    25
100
AcDbLine
 10
206.1926138048
 20
121.4259633353
 30
0.0
 11
205.9068254215
 21
121.2609633353
 31
0.0
  0
LINE
  5
33A
330
1F
100
AcDbEntity
  8
0
  6
CENTER
 62
     7
370
    25
100
AcDbLine
 10
223.6962637718
 20
119.4759633353
 30
0.0
 11
54.5953203921
 21
119.4759633353
 31
0.0
  0
LINE
  5
33B
330
1F
100
AcDbEntity
  8
0
  6
Continuous
 62
     7
370
    25
100
AcDbLine
 10
221.6962637718
 20
109.4759633353
 30
0.0
 11
221.6962637718
 21
119.4759633353
 31
0.0
  0
SOLID
  5
33C
330
1F
100
AcDbEntity
  8
0
  6
Continuous
 62
     7
370
    25
100
AcDbTrace
 10
221.6962637718
 20
119.4759633353
 30
0.0
 11
220.6962637718
 21
115.4759633353
 31
0.0
 12
222.6962637718
 22
115.4759633353
 32
0.0
 13
222.6962637718
 23
115.4759633353
 33
0.0
  0
LINE
  5
33D
330
1F
100
AcDbEntity
  8
0
  6
Continuous
 62
     7
370
    25
100
AcDbLine
 10
56.5953203921
 20
109.4759633353
 30
0.0
 11
56.5953203921
 21
119.4759633353
 31
0.0
  0
SOLID
  5
33E
330
1F
100
AcDbEntity
  8
0
  6
Continuous
 62
     7
370
    25
100
AcDbTrace
 10
56.5953203921
 20
119.4759633353
 30
0.0
 11
55.5953203921
 21
115.4759633353
 31
0.0
 12
57.5953203921
 22
115.4759633353
 32
0.0
 13
57.5953203921
 23
115.4759633353
 33
0.0
  0
MTEXT
  5
33F
330
1F
100
AcDbEntity
  8
0
  6
Continuous
 62
     7
100
AcDbMText
 10
219.9040680722
 20
124.4329744908
 30
0.0
 40
3.5956461589
 41
0.0
 71
     1
 72
     1
  1
A
  7
SLDTEXTSTYLE0
 73
     1
 44
1.0
  0
MTEXT
  5
340
330
1F
100
AcDbEntity
  8
0
  6
Continuous
 62
     7
100
AcDbMText
 10
54.9792467865
 20
124.7983342765
 30
0.0
 40
3.5956461589
 41
0.0
 71
     1
 72
     1
  1
A
  7
SLDTEXTSTYLE0
 73
     1
 44
1.0
  0
ARC
  5
341
330
1F
100
AcDbEntity
  8
0
  6
Continuous
 62
     7
370
    25
100
AcDbCircle
 10
102.36511473
 20
237.3945164996
 30
0.0
 40
0.4000000000000057
100
AcDbArc
 50
90.0
 51
180.0
  0
LINE
  5
342
330
1F
100
AcDbEntity
  8
0
  6
Continuous
 62
     7
370
    25
100
AcDbLine
 10
111.66511473
 20
236.4945164996
 30
0.0
 11
111.66511473
 21
237.3945164996
 31
0.0
  0
LINE
  5
343
330
1F
100
AcDbEntity
  8
0
  6
Continuous
 62
     7
370
    25
100
AcDbLine
 10
101.96511473
 20
237.3945164996
 30
0.0
 11
101.96511473
 21
236.4945164996
 31
0.0
  0
LINE
  5
344
330
1F
100
AcDbEntity
  8
0
  6
Continuous
 62
     7
370
    25
100
AcDbLine
 10
108.81511473
 20
236.1945164996
 30
0.0
 11
108.7459235329
 21
236.4945164996
 31
0.0
  0
LINE
  5
345
330
1F
100
AcDbEntity
  8
0
  6
Continuous
 62
     7
370
    25
100
AcDbLine
 10
104.8843059271
 20
236.4945164996
 30
0.0
 11
104.81511473
 21
236.1945164996
 31
0.0
  0
LINE
  5
346
330
1F
100
AcDbEntity
  8
0
  6
Continuous
 62
     7
370
    25
100
AcDbLine
 10
108.81511473
 20
231.7945164996
 30
0.0
 11
108.81511473
 21
236.1945164996
 31
0.0
  0
LINE
  5
347
330
1F
100
AcDbEntity
  8
0
  6
Continuous
 62
     7
370
    25
100
AcDbLine
 10
104.81511473
 20
236.1945164996
 30
0.0
 11
104.81511473
 21
231.7945164996
 31
0.0
  0
ARC
  5
348
330
1F
100
AcDbEntity
  8
0
  6
Continuous
 62
     7
370
    25
100
AcDbCircle
 10
171.7749665616
 20
234.2215288926
 30
0.0
 40
7.137819641043436
100
AcDbArc
 50
97.7282104198
 51
128.6689706075
  0
ARC
  5
349
330
1F
100
AcDbEntity
  8
0
  6
Continuous
 62
     7
370
    25
100
AcDbCircle
 10
169.8552628984
 20
234.2215288926
 30
0.0
 40
7.137819641043449
100
AcDbArc
 50
51.3310293925
 51
82.2717895802
  0
ARC
  5
34A
330
1F
100
AcDbEntity
  8
0
  6
Continuous
 62
     7
370
    25
100
AcDbCircle
 10
111.26511473
 20
237.3945164996
 30
0.0
 40
0.4000000000000057
100
AcDbArc
 50
0.0
 51
90.0
  0
LINE
  5
34B
330
1F
100
AcDbEntity
  8
0
  6
Continuous
 62
     7
370
    25
100
AcDbLine
 10
111.66511473
 20
236.4945164996
 30
0.0
 11
101.96511473
 21
236.4945164996
 31
0.0
  0
LINE
  5
34C
330
1F
100
AcDbEntity
  8
0
  6
Continuous
 62
     7
370
    25
100
AcDbLine
 10
106.81511473
 20
236.1945164996
 30
0.0
 11
104.81511473
 21
236.1945164996
 31
0.0
  0
LINE
  5
34D
330
1F
100
AcDbEntity
  8
0
  6
Continuous
 62
     7
370
    25
100
AcDbLine
 10
108.81511473
 20
236.1945164996
 30
0.0
 11
106.81511473
 21
236.1945164996
 31
0.0
  0
LINE
  5
34E
330
1F
100
AcDbEntity
  8
0
  6
Continuous
 62
     7
370
    25
100
AcDbLine
 10
106.81511473
 20
231.7945164996
 30
0.0
 11
104.81511473
 21
231.7945164996
 31
0.0
  0
LINE
  5
34F
330
1F
100
AcDbEntity
  8
0
  6
Continuous
 62
     7
370
    25
100
AcDbLine
 10
108.81511473
 20
231.7945164996
 30
0.0
 11
106.81511473
 21
231.7945164996
 31
0.0
  0
ARC
  5
350
330
1F
100
AcDbEntity
  8
0
  6
Continuous
 62
     7
370
    25
100
AcDbCircle
 10
200.6622720175
 20
237.3116737872
 30
0.0
 40
0.4000000000000193
100
AcDbArc
 50
347.0125590015
 51
45.0
  0
LINE
  5
351
330
1F
100
AcDbEntity
  8
0
  6
Continuous
 62
     7
370
    25
100
AcDbLine
 10
199.24511473
 20
239.2945164996
 30
0.0
 11
200.94511473
 21
237.5945164996
 31
0.0
  0
LINE
  5
352
330
1F
100
AcDbEntity
  8
0
  6
Continuous
 62
     7
370
    25
100
AcDbLine
 10
199.24511473
 20
239.7945164996
 30
0.0
 11
199.24511473
 21
239.2945164996
 31
0.0
  0
LINE
  5
353
330
1F
100
AcDbEntity
  8
0
  6
Continuous
 62
     7
370
    25
100
AcDbLine
 10
202.01511473
 20
239.7945164996
 30
0.0
 11
202.01511473
 21
238.5945164996
 31
0.0
  0
LINE
  5
354
330
1F
100
AcDbEntity
  8
0
  6
Continuous
 62
     7
370
    25
100
AcDbLine
 10
202.01511473
 20
238.5945164996
 30
0.0
 11
203.61511473
 21
238.5945164996
 31
0.0
  0
LINE
  5
355
330
1F
100
AcDbEntity
  8
0
  6
Continuous
 62
     7
370
    25
100
AcDbLine
 10
203.61511473
 20
238.5945164996
 30
0.0
 11
203.61511473
 21
239.7945164996
 31
0.0
  0
LINE
  5
356
330
1F
100
AcDbEntity
  8
0
  6
Continuous
 62
     7
370
    25
100
AcDbLine
 10
206.38511473
 20
239.2945164996
 30
0.0
 11
206.38511473
 21
239.7945164996
 31
0.0
  0
LINE
  5
357
330
1F
100
AcDbEntity
  8
0
  6
Continuous
 62
     7
370
    25
100
AcDbLine
 10
204.68511473
 20
237.5945164996
 30
0.0
 11
206.38511473
 21
239.2945164996
 31
0.0
  0
ARC
  5
358
330
1F
100
AcDbEntity
  8
0
  6
Continuous
 62
     7
370
    25
100
AcDbCircle
 10
204.9679574425
 20
237.3116737872
 30
0.0
 40
0.4000000000000193
100
AcDbArc
 50
135.0
 51
192.9874409985
  0
LINE
  5
359
330
1F
100
AcDbEntity
  8
0
  6
Continuous
 62
     7
370
    25
100
AcDbLine
 10
204.81511473
 20
236.1945164996
 30
0.0
 11
204.5781897026
 21
237.2217787988
 31
0.0
  0
LINE
  5
35A
330
1F
100
AcDbEntity
  8
0
  6
Continuous
 62
     7
370
    25
100
AcDbLine
 10
204.81511473
 20
231.7945164996
 30
0.0
 11
204.81511473
 21
236.1945164996
 31
0.0
  0
LINE
  5
35B
330
1F
100
AcDbEntity
  8
0
  6
Continuous
 62
     7
370
    25
100
AcDbLine
 10
200.81511473
 20
231.7945164996
 30
0.0
 11
204.81511473
 21
231.7945164996
 31
0.0
  0
LINE
  5
35C
330
1F
100
AcDbEntity
  8
0
  6
Continuous
 62
     7
370
    25
100
AcDbLine
 10
200.81511473
 20
236.1945164996
 30
0.0
 11
200.81511473
 21
231.7945164996
 31
0.0
  0
LINE
  5
35D
330
1F
100
AcDbEntity
  8
0
  6
Continuous
 62
     7
370
    25
100
AcDbLine
 10
201.0520397574
 20
237.2217787988
 30
0.0
 11
200.81511473
 21
236.1945164996
 31
0.0
  0
LINE
  5
35E
330
1F
100
AcDbEntity
  8
0
  6
Continuous
 62
     7
370
    25
100
AcDbLine
 10
202.01511473
 20
239.7945164996
 30
0.0
 11
199.24511473
 21
239.7945164996
 31
0.0
  0
LINE
  5
35F
330
1F
100
AcDbEntity
  8
0
  6
Continuous
 62
     7
370
    25
100
AcDbLine
 10
206.38511473
 20
239.7945164996
 30
0.0
 11
203.61511473
 21
239.7945164996
 31
0.0
  0
LINE
  5
360
330
1F
100
AcDbEntity
  8
0
  6
Continuous
 62
     7
370
    25
100
AcDbLine
 10
203.3615248915
 20
239.7945164996
 30
0.0
 11
203.3615248915
 21
238.5945164996
 31
0.0
  0
LINE
  5
361
330
1F
100
AcDbEntity
  8
0
  6
Continuous
 62
     7
370
    25
100
AcDbLine
 10
203.3615248915
 20
239.7945164996
 30
0.0
 11
203.61511473
 21
239.7945164996
 31
0.0
  0
LINE
  5
362
330
1F
100
AcDbEntity
  8
0
  6
Continuous
 62
     7
370
    25
100
AcDbLine
 10
202.6687045685
 20
239.7945164996
 30
0.0
 11
202.6687045685
 21
238.5945164996
 31
0.0
  0
LINE
  5
363
330
1F
100
AcDbEntity
  8
0
  6
Continuous
 62
     7
370
    25
100
AcDbLine
 10
202.01511473
 20
239.7945164996
 30
0.0
 11
202.6687045685
 21
239.7945164996
 31
0.0
  0
LINE
  5
364
330
1F
100
AcDbEntity
  8
0
  6
Continuous
 62
     7
370
    25
100
AcDbLine
 10
202.6687045685
 20
239.7945164996
 30
0.0
 11
203.3615248915
 21
239.7945164996
 31
0.0
  0
LINE
  5
365
330
1F
100
AcDbEntity
  8
0
  6
Continuous
 62
     7
370
    25
100
AcDbLine
 10
197.96511473
 20
237.3945164996
 30
0.0
 11
197.96511473
 21
236.4945164996
 31
0.0
  0
LINE
  5
366
330
1F
100
AcDbEntity
  8
0
  6
Continuous
 62
     7
370
    25
100
AcDbLine
 10
207.66511473
 20
236.4945164996
 30
0.0
 11
207.66511473
 21
237.3945164996
 31
0.0
  0
ARC
  5
367
330
1F
100
AcDbEntity
  8
0
  6
Continuous
 62
     7
370
    25
100
AcDbCircle
 10
198.36511473
 20
237.3945164996
 30
0.0
 40
0.4000000000000057
100
AcDbArc
 50
90.0
 51
180.0
  0
ARC
  5
368
330
1F
100
AcDbEntity
  8
0
  6
Continuous
 62
     7
370
    25
100
AcDbCircle
 10
207.26511473
 20
237.3945164996
 30
0.0
 40
0.4000000000000057
100
AcDbArc
 50
0.0
 51
90.0
  0
ARC
  5
369
330
1F
100
AcDbEntity
  8
0
  6
Continuous
 62
     7
370
    25
100
AcDbCircle
 10
198.36511473
 20
237.3945164996
 30
0.0
 40
0.2000000000000171
100
AcDbArc
 50
90.0
 51
180.0
  0
ARC
  5
36A
330
1F
100
AcDbEntity
  8
0
  6
Continuous
 62
     7
370
    25
100
AcDbCircle
 10
207.26511473
 20
237.3945164996
 30
0.0
 40
0.2000000000000171
100
AcDbArc
 50
0.0
 51
90.0
  0
LINE
  5
36B
330
1F
100
AcDbEntity
  8
0
  6
Continuous
 62
     7
370
    25
100
AcDbLine
 10
198.16511473
 20
237.3945164996
 30
0.0
 11
198.16511473
 21
236.4945164996
 31
0.0
  0
LINE
  5
36C
330
1F
100
AcDbEntity
  8
0
  6
Continuous
 62
     7
370
    25
100
AcDbLine
 10
207.46511473
 20
236.4945164996
 30
0.0
 11
207.46511473
 21
237.3945164996
 31
0.0
  0
LINE
  5
36D
330
1F
100
AcDbEntity
  8
0
  6
Continuous
 62
     7
370
    25
100
AcDbLine
 10
198.16511473
 20
236.4945164996
 30
0.0
 11
200.8843059271
 21
236.4945164996
 31
0.0
  0
LINE
  5
36E
330
1F
100
AcDbEntity
  8
0
  6
Continuous
 62
     7
370
    25
100
AcDbLine
 10
204.7459235329
 20
236.4945164996
 30
0.0
 11
207.46511473
 21
236.4945164996
 31
0.0
  0
ARC
  5
36F
330
1F
100
AcDbEntity
  8
0
  6
Continuous
 62
     7
370
    25
100
AcDbCircle
 10
199.4709950177
 20
237.3945164996
 30
0.0
 40
0.4000000000000057
100
AcDbArc
 50
75.0
 51
90.0
  0
ARC
  5
370
330
1F
100
AcDbEntity
  8
0
  6
Continuous
 62
     7
370
    25
100
AcDbCircle
 10
206.1592344423
 20
237.3945164996
 30
0.0
 40
0.4000000000000057
100
AcDbArc
 50
90.0
 51
105.0
  0
ARC
  5
371
330
1F
100
AcDbEntity
  8
0
  6
Continuous
 62
     7
370
    25
100
AcDbCircle
 10
199.4709950177
 20
237.3945164996
 30
0.0
 40
0.2000000000000171
100
AcDbArc
 50
75.0
 51
90.0
  0
ARC
  5
372
330
1F
100
AcDbEntity
  8
0
  6
Continuous
 62
     7
370
    25
100
AcDbCircle
 10
206.1592344423
 20
237.3945164996
 30
0.0
 40
0.2000000000000171
100
AcDbArc
 50
90.0
 51
105.0
  0
SPLINE
  5
373
330
1F
100
AcDbEntity
  8
0
  6
Continuous
 62
     7
370
    25
100
AcDbSpline
210
0.0
220
0.0
230
1.0
 70
     8
 71
     3
 72
    12
 73
     8
 74
     0
 42
0.00000001
 43
0.00000001
 40
0.0
 40
0.0
 40
0.0
 40
0.0
 40
0.2519941344872239
 40
0.5000154528576818
 40
0.7500633075991918
 40
0.8752773372485549
 40
1.0
 40
1.0
 40
1.0
 40
1.0
 10
199.8451147300044
 20
237.5041410152239
 30
0.0
 10
199.8126801185686
 20
237.5127164475914
 30
0.0
 10
199.7483222438968
 20
237.5297321162591
 30
0.0
 10
199.665040263644
 20
237.5509069049001
 30
0.0
 10
199.6181544484727
 20
237.5626106389461
 30
0.0
 10
199.5979550661301
 20
237.5676131081929
 30
0.0
 10
199.5960602670098
 20
237.5680806484814
 30
0.0
 10
199.5951147300044
 20
237.5683139590417
 30
0.0
  0
SPLINE
  5
374
330
1F
100
AcDbEntity
  8
0
  6
Continuous
 62
     7
370
    25
100
AcDbSpline
210
0.0
220
0.0
230
1.0
 70
     8
 71
     3
 72
    11
 73
     7
 74
     0
 42
0.00000001
 43
0.00000001
 40
0.0
 40
0.0
 40
0.0
 40
0.0
 40
0.0478119977005429
 40
0.3636983890320162
 40
0.6565843055694813
 40
1.0
 40
1.0
 40
1.0
 40
1.0
 10
201.0435426615492
 20
237.1849369913092
 30
0.0
 10
201.0244360692209
 20
237.1899984822734
 30
0.0
 10
200.8790952095227
 20
237.2285004524547
 30
0.0
 10
200.6167996993178
 20
237.2983403926727
 30
0.0
 10
200.2364302400701
 20
237.3996799755662
 30
0.0
 10
199.9822807133857
 20
237.4675247788082
 30
0.0
 10
199.8451147300044
 20
237.5041410152239
 30
0.0
  0
SPLINE
  5
375
330
1F
100
AcDbEntity
  8
0
  6
Continuous
 62
     7
370
    25
100
AcDbSpline
210
0.0
220
0.0
230
1.0
 70
     8
 71
     3
 72
    10
 73
     6
 74
     0
 42
0.00000001
 43
0.00000001
 40
0.0
 40
0.0
 40
0.0
 40
0.0
 40
0.427806522593909
 40
0.7786228387720047
 40
1.0
 40
1.0
 40
1.0
 40
1.0
 10
205.7851147300044
 20
237.5041410152239
 30
0.0
 10
205.6142386277077
 20
237.4585394310405
 30
0.0
 10
205.303238143092
 20
237.3755429523658
 30
0.0
 10
204.9037816581904
 20
237.2690711257615
 30
0.0
 10
204.675132316905
 20
237.2084608428401
 30
0.0
 10
204.5866696830423
 20
237.1850112005353
 30
0.0
  0
SPLINE
  5
376
330
1F
100
AcDbEntity
  8
0
  6
Continuous
 62
     7
370
    25
100
AcDbSpline
210
0.0
220
0.0
230
1.0
 70
     8
 71
     3
 72
    12
 73
     8
 74
     0
 42
0.00000001
 43
0.00000001
 40
0.0
 40
0.0
 40
0.0
 40
0.0
 40
0.1246168013541847
 40
0.2499366341572665
 40
0.4999845083153973
 40
0.7480058459450595
 40
1.0
 40
1.0
 40
1.0
 40
1.0
 10
206.0351147300044
 20
237.5683139590417
 30
0.0
 10
206.0341706486501
 20
237.5680810058508
 30
0.0
 10
206.0322771598629
 20
237.5676137852527
 30
0.0
 10
206.0120831315897
 20
237.5626126671562
 30
0.0
 10
205.9651891422011
 20
237.5509068909561
 30
0.0
 10
205.8819072298595
 20
237.5297321197983
 30
0.0
 10
205.8175493460469
 20
237.5127164487773
 30
0.0
 10
205.7851147300044
 20
237.5041410152239
 30
0.0
  0
LINE
  5
377
330
1F
100
AcDbEntity
  8
0
  6
Continuous
 62
     7
370
    25
100
AcDbLine
 10
206.03511473
 20
237.568313959
 30
0.0
 11
206.1074706333
 21
237.5877016649
 31
0.0
  0
LINE
  5
378
330
1F
100
AcDbEntity
  8
0
  6
Continuous
 62
     7
370
    25
100
AcDbLine
 10
199.5227588267
 20
237.5877016649
 30
0.0
 11
199.59511473
 21
237.568313959
 31
0.0
  0
LINE
  5
379
330
1F
100
AcDbEntity
  8
0
  6
Continuous
 62
     7
370
    25
100
AcDbLine
 10
206.03511473
 20
237.7753691951
 30
0.0
 11
206.0557068243
 21
237.7808868302
 31
0.0
  0
SPLINE
  5
37A
330
1F
100
AcDbEntity
  8
0
  6
Continuous
 62
     7
370
    25
100
AcDbSpline
210
0.0
220
0.0
230
1.0
 70
     8
 71
     3
 72
    12
 73
     8
 74
     0
 42
0.00000001
 43
0.00000001
 40
0.0
 40
0.0
 40
0.0
 40
0.0
 40
0.2519941344872097
 40
0.5000154528577291
 40
0.7500633075993028
 40
0.87527733724636
 40
1.0
 40
1.0
 40
1.0
 40
1.0
 10
205.7851147300044
 20
237.7111962513059
 30
0.0
 10
205.8175493414402
 20
237.7197716836734
 30
0.0
 10
205.881907216112
 20
237.7367873523411
 30
0.0
 10
205.9651891963647
 20
237.7579621409821
 30
0.0
 10
206.0120750115362
 20
237.7696658750282
 30
0.0
 10
206.0322743938782
 20
237.7746683442747
 30
0.0
 10
206.0341691929988
 20
237.7751358845634
 30
0.0
 10
206.0351147300044
 20
237.7753691951238
 30
0.0
  0
SPLINE
  5
37B
330
1F
100
AcDbEntity
  8
0
  6
Continuous
 62
     7
370
    25
100
AcDbSpline
210
0.0
220
0.0
230
1.0
 70
     8
 71
     3
 72
    11
 73
     7
 74
     0
 42
0.00000001
 43
0.00000001
 40
0.0
 40
0.0
 40
0.0
 40
0.0
 40
0.0097812070934163
 40
0.3337916540525319
 40
0.6381600300736182
 40
1.0
 40
1.0
 40
1.0
 40
1.0
 10
204.5840436579539
 20
237.3912725537001
 30
0.0
 10
204.5879611895285
 20
237.3923097736835
 30
0.0
 10
204.7216501434189
 20
237.4277057499234
 30
0.0
 10
204.9771469321499
 20
237.4957419679212
 30
0.0
 10
205.3735882860553
 20
237.6013389726325
 30
0.0
 10
205.6402706465083
 20
237.6725300195758
 30
0.0
 10
205.7851147300044
 20
237.7111962513059
 30
0.0
  0
SPLINE
  5
37C
330
1F
100
AcDbEntity
  8
0
  6
Continuous
 62
     7
370
    25
100
AcDbSpline
210
0.0
220
0.0
230
1.0
 70
     8
 71
     3
 72
    10
 73
     6
 74
     0
 42
0.00000001
 43
0.00000001
 40
0.0
 40
0.0
 40
0.0
 40
0.0
 40
0.4474741457045567
 40
0.8082862028102668
 40
1.0
 40
1.0
 40
1.0
 40
1.0
 10
199.8451147300044
 20
237.7111962513059
 30
0.0
 10
200.0252269384339
 20
237.6631326601328
 30
0.0
 10
200.3505691161413
 20
237.5763139288705
 30
0.0
 10
200.7531089766586
 20
237.4690194990409
 30
0.0
 10
200.9756119223179
 20
237.4100726795745
 30
0.0
 10
201.0528153405229
 20
237.3896194853858
 30
0.0
  0
SPLINE
  5
37D
330
1F
100
AcDbEntity
  8
0
  6
Continuous
 62
     7
370
    25
100
AcDbSpline
210
0.0
220
0.0
230
1.0
 70
     8
 71
     3
 72
    12
 73
     8
 74
     0
 42
0.00000001
 43
0.00000001
 40
0.0
 40
0.0
 40
0.0
 40
0.0
 40
0.1246168013526555
 40
0.249936634157375
 40
0.4999845083154402
 40
0.7480058459450901
 40
1.0
 40
1.0
 40
1.0
 40
1.0
 10
199.5951147300044
 20
237.7753691951238
 30
0.0
 10
199.5960588113585
 20
237.7751362419329
 30
0.0
 10
199.5979523001454
 20
237.7746690213348
 30
0.0
 10
199.6181463284193
 20
237.7696679032382
 30
0.0
 10
199.6650403178076
 20
237.7579621270382
 30
0.0
 10
199.7483222301493
 20
237.7367873558803
 30
0.0
 10
199.8126801139618
 20
237.7197716848593
 30
0.0
 10
199.8451147300044
 20
237.7111962513059
 30
0.0
  0
LINE
  5
37E
330
1F
100
AcDbEntity
  8
0
  6
Continuous
 62
     7
370
    25
100
AcDbLine
 10
199.5745226357
 20
237.7808868302
 30
0.0
 11
199.59511473
 21
237.7753691951
 31
0.0
  0
LINE
  5
37F
330
1F
100
AcDbEntity
  8
0
  6
Continuous
 62
     7
370
    25
100
AcDbLine
 10
206.03511473
 20
237.568313959
 30
0.0
 11
206.03511473
 21
237.7753691951
 31
0.0
  0
LINE
  5
380
330
1F
100
AcDbEntity
  8
0
  6
Continuous
 62
     7
370
    25
100
AcDbLine
 10
207.26511473
 20
237.7945164996
 30
0.0
 11
206.1592344423
 21
237.7945164996
 31
0.0
  0
LINE
  5
381
330
1F
100
AcDbEntity
  8
0
  6
Continuous
 62
     7
370
    25
100
AcDbLine
 10
206.1592344423
 20
237.5945164996
 30
0.0
 11
207.26511473
 21
237.5945164996
 31
0.0
  0
LINE
  5
382
330
1F
100
AcDbEntity
  8
0
  6
Continuous
 62
     7
370
    25
100
AcDbLine
 10
207.46511473
 20
236.4945164996
 30
0.0
 11
207.66511473
 21
236.4945164996
 31
0.0
  0
LINE
  5
383
330
1F
100
AcDbEntity
  8
0
  6
Continuous
 62
     7
370
    25
100
AcDbLine
 10
199.59511473
 20
237.7753691951
 30
0.0
 11
199.59511473
 21
237.568313959
 31
0.0
  0
LINE
  5
384
330
1F
100
AcDbEntity
  8
0
  6
Continuous
 62
     7
370
    25
100
AcDbLine
 10
199.4709950177
 20
237.7945164996
 30
0.0
 11
198.36511473
 21
237.7945164996
 31
0.0
  0
LINE
  5
385
330
1F
100
AcDbEntity
  8
0
  6
Continuous
 62
     7
370
    25
100
AcDbLine
 10
198.36511473
 20
237.5945164996
 30
0.0
 11
199.4709950177
 21
237.5945164996
 31
0.0
  0
LINE
  5
386
330
1F
100
AcDbEntity
  8
0
  6
Continuous
 62
     7
370
    25
100
AcDbLine
 10
197.96511473
 20
236.4945164996
 30
0.0
 11
198.16511473
 21
236.4945164996
 31
0.0
  0
LINE
  5
387
330
1F
100
AcDbEntity
  8
0
  6
Continuous
 62
     7
370
    25
100
AcDbLine
 10
199.84511473
 20
237.7111962513
 30
0.0
 11
199.84511473
 21
237.5041410152
 31
0.0
  0
LINE
  5
388
330
1F
100
AcDbEntity
  8
0
  6
Continuous
 62
     7
370
    25
100
AcDbLine
 10
205.78511473
 20
237.7111962513
 30
0.0
 11
205.78511473
 21
237.5041410152
 31
0.0
  0
LINE
  5
389
330
1F
100
AcDbEntity
  8
0
  6
Continuous
 62
     7
370
    25
100
AcDbLine
 10
60.31511473
 20
239.7945164996
 30
0.0
 11
60.31511473
 21
237.7945164996
 31
0.0
  0
LINE
  5
38A
330
1F
100
AcDbEntity
  8
0
  6
Continuous
 62
     7
370
    25
100
AcDbLine
 10
149.564829372
 20
239.6945164996
 30
0.0
 11
149.564829372
 21
239.7945164996
 31
0.0
  0
LINE
  5
38B
330
1F
100
AcDbEntity
  8
0
  6
Continuous
 62
     7
370
    25
100
AcDbLine
 10
150.5029566447
 20
239.6945164996
 30
0.0
 11
149.564829372
 21
239.6945164996
 31
0.0
  0
LINE
  5
38C
330
1F
100
AcDbEntity
  8
0
  6
Continuous
 62
     7
370
    25
100
AcDbLine
 10
150.5029566447
 20
239.6945164996
 30
0.0
 11
150.5029566447
 21
239.7945164996
 31
0.0
  0
LINE
  5
38D
330
1F
100
AcDbEntity
  8
0
  6
Continuous
 62
     7
370
    25
100
AcDbLine
 10
157.81511473
 20
239.7945164996
 30
0.0
 11
157.81511473
 21
237.7945164996
 31
0.0
  0
LINE
  5
38E
330
1F
100
AcDbEntity
  8
0
  6
Continuous
 62
     7
370
    25
100
AcDbLine
 10
119.81511473
 20
237.7945164996
 30
0.0
 11
119.81511473
 21
239.7945164996
 31
0.0
  0
LINE
  5
38F
330
1F
100
AcDbEntity
  8
0
  6
Continuous
 62
     7
370
    25
100
AcDbLine
 10
127.8078999209
 20
239.7945164996
 30
0.0
 11
127.8078999209
 21
239.6945164996
 31
0.0
  0
LINE
  5
390
330
1F
100
AcDbEntity
  8
0
  6
Continuous
 62
     7
370
    25
100
AcDbLine
 10
128.8555339377
 20
239.6945164996
 30
0.0
 11
127.8078999209
 21
239.6945164996
 31
0.0
  0
LINE
  5
391
330
1F
100
AcDbEntity
  8
0
  6
Continuous
 62
     7
370
    25
100
AcDbLine
 10
128.8555339377
 20
239.7945164996
 30
0.0
 11
128.8555339377
 21
239.6945164996
 31
0.0
  0
LINE
  5
392
330
1F
100
AcDbEntity
  8
0
  6
Continuous
 62
     7
370
    25
100
AcDbLine
 10
128.8555339377
 20
239.7945164996
 30
0.0
 11
131.4968125987
 21
239.7945164996
 31
0.0
  0
LINE
  5
393
330
1F
100
AcDbEntity
  8
0
  6
Continuous
 62
     7
370
    25
100
AcDbLine
 10
131.4968125987
 20
239.6945164996
 30
0.0
 11
131.4968125987
 21
239.7945164996
 31
0.0
  0
LINE
  5
394
330
1F
100
AcDbEntity
  8
0
  6
Continuous
 62
     7
370
    25
100
AcDbLine
 10
132.5444379302
 20
239.6945164996
 30
0.0
 11
131.4968125987
 21
239.6945164996
 31
0.0
  0
LINE
  5
395
330
1F
100
AcDbEntity
  8
0
  6
Continuous
 62
     7
370
    25
100
AcDbLine
 10
132.5444379302
 20
239.6945164996
 30
0.0
 11
132.5444379302
 21
239.7945164996
 31
0.0
  0
LINE
  5
396
330
1F
100
AcDbEntity
  8
0
  6
Continuous
 62
     7
370
    25
100
AcDbLine
 10
135.7662028869
 20
239.7945164996
 30
0.0
 11
135.7662028869
 21
239.6945164996
 31
0.0
  0
LINE
  5
397
330
1F
100
AcDbEntity
  8
0
  6
Continuous
 62
     7
370
    25
100
AcDbLine
 10
136.7043315474
 20
239.6945164996
 30
0.0
 11
135.7662028869
 21
239.6945164996
 31
0.0
  0
LINE
  5
398
330
1F
100
AcDbEntity
  8
0
  6
Continuous
 62
     7
370
    25
100
AcDbLine
 10
136.7043315474
 20
239.7945164996
 30
0.0
 11
136.7043315474
 21
239.6945164996
 31
0.0
  0
LINE
  5
399
330
1F
100
AcDbEntity
  8
0
  6
Continuous
 62
     7
370
    25
100
AcDbLine
 10
144.405129372
 20
239.7945164996
 30
0.0
 11
144.405129372
 21
239.6945164996
 31
0.0
  0
LINE
  5
39A
330
1F
100
AcDbEntity
  8
0
  6
Continuous
 62
     7
370
    25
100
AcDbLine
 10
145.3432566447
 20
239.6945164996
 30
0.0
 11
144.405129372
 21
239.6945164996
 31
0.0
  0
LINE
  5
39B
330
1F
100
AcDbEntity
  8
0
  6
Continuous
 62
     7
370
    25
100
AcDbLine
 10
145.3432566447
 20
239.7945164996
 30
0.0
 11
145.3432566447
 21
239.6945164996
 31
0.0
  0
LINE
  5
39C
330
1F
100
AcDbEntity
  8
0
  6
Continuous
 62
     7
370
    25
100
AcDbLine
 10
145.3432566447
 20
239.7945164996
 30
0.0
 11
149.564829372
 21
239.7945164996
 31
0.0
  0
LINE
  5
39D
330
1F
100
AcDbEntity
  8
0
  6
Continuous
 62
     7
370
    25
100
AcDbLine
 10
150.5029566447
 20
239.7945164996
 30
0.0
 11
157.81511473
 21
239.7945164996
 31
0.0
  0
LINE
  5
39E
330
1F
100
AcDbEntity
  8
0
  6
Continuous
 62
     7
370
    25
100
AcDbLine
 10
136.7043315474
 20
239.7945164996
 30
0.0
 11
144.405129372
 21
239.7945164996
 31
0.0
  0
LINE
  5
39F
330
1F
100
AcDbEntity
  8
0
  6
Continuous
 62
     7
370
    25
100
AcDbLine
 10
132.5444379302
 20
239.7945164996
 30
0.0
 11
135.7662028869
 21
239.7945164996
 31
0.0
  0
LINE
  5
3A0
330
1F
100
AcDbEntity
  8
0
  6
Continuous
 62
     7
370
    25
100
AcDbLine
 10
119.81511473
 20
239.7945164996
 30
0.0
 11
127.8078999209
 21
239.7945164996
 31
0.0
  0
LINE
  5
3A1
330
1F
100
AcDbEntity
  8
0
  6
Continuous
 62
     7
370
    25
100
AcDbLine
 10
119.81511473
 20
237.7945164996
 30
0.0
 11
157.81511473
 21
237.7945164996
 31
0.0
  0
SPLINE
  5
3A2
330
1F
100
AcDbEntity
  8
0
  6
Continuous
 62
     7
370
    25
100
AcDbSpline
210
0.0
220
0.0
230
1.0
 70
     8
 71
     3
 72
    12
 73
     8
 74
     0
 42
0.00000001
 43
0.00000001
 40
0.0
 40
0.0
 40
0.0
 40
0.0
 40
0.2421688548994501
 40
0.4843377097989001
 40
0.7396489922549286
 40
0.9999740366227411
 40
1.0
 40
1.0
 40
1.0
 40
1.0
 10
71.31511473000434
 20
239.7945164996413
 30
0.0
 10
71.56546319107896
 20
239.9796167927898
 30
0.0
 10
72.06616011322825
 20
240.3498173790869
 30
0.0
 10
72.91554769500718
 20
240.7835153461686
 30
0.0
 10
73.83290226608081
 20
241.1144996497313
 30
0.0
 10
74.48386344525714
 20
241.2495619008287
 30
0.0
 10
74.81508169942548
 20
241.2945120170129
 30
0.0
 10
74.81511473000432
 20
241.2945164996413
 30
0.0
  0
SPLINE
  5
3A3
330
1F
100
AcDbEntity
  8
0
  6
Continuous
 62
     7
370
    25
100
AcDbSpline
210
0.0
220
0.0
230
1.0
 70
     8
 71
     3
 72
    12
 73
     8
 74
     0
 42
0.00000001
 43
0.00000001
 40
0.0
 40
0.0
 40
0.0
 40
0.0
 40
0.000025963377259
 40
0.2603510077450532
 40
0.5156622902010642
 40
0.7578311451005298
 40
1.0
 40
1.0
 40
1.0
 40
1.0
 10
74.81511473000432
 20
241.2945164996413
 30
0.0
 10
74.81514776058317
 20
241.2945120170129
 30
0.0
 10
75.14636601479097
 20
241.2495619008245
 30
0.0
 10
75.79732719390985
 20
241.1144996497333
 30
0.0
 10
76.71468176500588
 20
240.7835153461682
 30
0.0
 10
77.56406934677923
 20
240.3498173790871
 30
0.0
 10
78.06476626892928
 20
239.9796167927899
 30
0.0
 10
78.31511473000432
 20
239.7945164996413
 30
0.0
  0
LINE
  5
3A4
330
1F
100
AcDbEntity
  8
0
  6
Continuous
 62
     7
370
    25
100
AcDbLine
 10
85.81511473
 20
239.7945164996
 30
0.0
 11
85.81511473
 21
237.7945164996
 31
0.0
  0
SPLINE
  5
3A5
330
1F
100
AcDbEntity
  8
0
  6
Continuous
 62
     7
370
    25
100
AcDbSpline
210
0.0
220
0.0
230
1.0
 70
     8
 71
     3
 72
    12
 73
     8
 74
     0
 42
0.00000001
 43
0.00000001
 40
0.0
 40
0.0
 40
0.0
 40
0.0
 40
0.0000261183792246
 40
0.2646575201929797
 40
0.5319200696911625
 40
0.7650639253191536
 40
1.0
 40
1.0
 40
1.0
 40
1.0
 10
74.81511473000432
 20
239.2945164996413
 30
0.0
 10
74.81514727404344
 20
239.2945092887064
 30
0.0
 10
75.14491600179622
 20
239.2214408899517
 30
0.0
 10
75.80106636931802
 20
239.041939655171
 30
0.0
 10
76.71314602038666
 20
238.6899418270706
 30
0.0
 10
77.55750810109576
 20
238.2762568507848
 30
0.0
 10
78.06193539086456
 20
237.9555059882301
 30
0.0
 10
78.31511473000432
 20
237.7945164996413
 30
0.0
  0
SPLINE
  5
3A6
330
1F
100
AcDbEntity
  8
0
  6
Continuous
 62
     7
370
    25
100
AcDbSpline
210
0.0
220
0.0
230
1.0
 70
     8
 71
     3
 72
    12
 73
     8
 74
     0
 42
0.00000001
 43
0.00000001
 40
0.0
 40
0.0
 40
0.0
 40
0.0
 40
0.2331438556279818
 40
0.4680799303088241
 40
0.7327113321225844
 40
0.9999738816207789
 40
1.0
 40
1.0
 40
1.0
 40
1.0
 10
71.31511473000432
 20
237.7945164996413
 30
0.0
 10
71.56633245224221
 20
237.9543182504238
 30
0.0
 10
72.07069905285762
 20
238.2751501769956
 30
0.0
 10
72.91193158794013
 20
238.6876373884511
 30
0.0
 10
73.8259407986085
 20
239.0408815841712
 30
0.0
 10
74.4820349940165
 20
239.2207144654063
 30
0.0
 10
74.81508218596525
 20
239.2945092887064
 30
0.0
 10
74.81511473000434
 20
239.2945164996413
 30
0.0
  0
LINE
  5
3A7
330
1F
100
AcDbEntity
  8
0
  6
Continuous
 62
     7
370
    25
100
AcDbLine
 10
78.31511473
 20
239.7945164996
 30
0.0
 11
85.81511473
 21
239.7945164996
 31
0.0
  0
LINE
  5
3A8
330
1F
100
AcDbEntity
  8
0
  6
Continuous
 62
     7
370
    25
100
AcDbLine
 10
60.31511473
 20
239.7945164996
 30
0.0
 11
71.31511473
 21
239.7945164996
 31
0.0
  0
LINE
  5
3A9
330
1F
100
AcDbEntity
  8
0
  6
Continuous
 62
     7
370
    25
100
AcDbLine
 10
78.31511473
 20
237.7945164996
 30
0.0
 11
85.81511473
 21
237.7945164996
 31
0.0
  0
LINE
  5
3AA
330
1F
100
AcDbEntity
  8
0
  6
Continuous
 62
     7
370
    25
100
AcDbLine
 10
60.31511473
 20
237.7945164996
 30
0.0
 11
71.31511473
 21
237.7945164996
 31
0.0
  0
LINE
  5
3AB
330
1F
100
AcDbEntity
  8
0
  6
Continuous
 62
     7
370
    25
100
AcDbLine
 10
205.01511473
 20
238.0945164996
 30
0.0
 11
206.71511473
 21
239.7945164996
 31
0.0
  0
LINE
  5
3AC
330
1F
100
AcDbEntity
  8
0
  6
Continuous
 62
     7
370
    25
100
AcDbLine
 10
217.31511473
 20
237.7945164996
 30
0.0
 11
217.31511473
 21
239.7945164996
 31
0.0
  0
LINE
  5
3AD
330
1F
100
AcDbEntity
  8
0
  6
Continuous
 62
     7
370
    25
100
AcDbLine
 10
205.01511473
 20
237.7945164996
 30
0.0
 11
205.01511473
 21
238.0945164996
 31
0.0
  0
LINE
  5
3AE
330
1F
100
AcDbEntity
  8
0
  6
Continuous
 62
     7
370
    25
100
AcDbLine
 10
206.71511473
 20
239.7945164996
 30
0.0
 11
217.31511473
 21
239.7945164996
 31
0.0
  0
LINE
  5
3AF
330
1F
100
AcDbEntity
  8
0
  6
Continuous
 62
     7
370
    25
100
AcDbLine
 10
205.01511473
 20
237.7945164996
 30
0.0
 11
217.31511473
 21
237.7945164996
 31
0.0
  0
LINE
  5
3B0
330
1F
100
AcDbEntity
  8
0
  6
Continuous
 62
     7
370
    25
100
AcDbLine
 10
198.91511473
 20
239.7945164996
 30
0.0
 11
200.61511473
 21
238.0945164996
 31
0.0
  0
LINE
  5
3B1
330
1F
100
AcDbEntity
  8
0
  6
Continuous
 62
     7
370
    25
100
AcDbLine
 10
200.61511473
 20
238.0945164996
 30
0.0
 11
200.61511473
 21
237.7945164996
 31
0.0
  0
LINE
  5
3B2
330
1F
100
AcDbEntity
  8
0
  6
Continuous
 62
     7
370
    25
100
AcDbLine
 10
191.81511473
 20
237.7945164996
 30
0.0
 11
191.81511473
 21
239.7945164996
 31
0.0
  0
LINE
  5
3B3
330
1F
100
AcDbEntity
  8
0
  6
Continuous
 62
     7
370
    25
100
AcDbLine
 10
191.81511473
 20
239.7945164996
 30
0.0
 11
198.91511473
 21
239.7945164996
 31
0.0
  0
LINE
  5
3B4
330
1F
100
AcDbEntity
  8
0
  6
Continuous
 62
     7
370
    25
100
AcDbLine
 10
191.81511473
 20
237.7945164996
 30
0.0
 11
200.61511473
 21
237.7945164996
 31
0.0
  0
LINE
  5
3B5
330
1F
100
AcDbEntity
  8
0
  6
Continuous
 62
     7
370
    25
100
AcDbLine
 10
177.81511473
 20
239.7945164996
 30
0.0
 11
191.81511473
 21
239.7945164996
 31
0.0
  0
LINE
  5
3B6
330
1F
100
AcDbEntity
  8
0
  6
Continuous
 62
     7
370
    25
100
AcDbLine
 10
191.81511473
 20
237.7945164996
 30
0.0
 11
177.81511473
 21
237.7945164996
 31
0.0
  0
LINE
  5
3B7
330
1F
100
AcDbEntity
  8
0
  6
Continuous
 62
     7
370
    25
100
AcDbLine
 10
157.81511473
 20
239.7945164996
 30
0.0
 11
171.81511473
 21
239.7945164996
 31
0.0
  0
LINE
  5
3B8
330
1F
100
AcDbEntity
  8
0
  6
Continuous
 62
     7
370
    25
100
AcDbLine
 10
171.81511473
 20
237.7945164996
 30
0.0
 11
157.81511473
 21
237.7945164996
 31
0.0
  0
LINE
  5
3B9
330
1F
100
AcDbEntity
  8
0
  6
Continuous
 62
     7
370
    25
100
AcDbLine
 10
105.81511473
 20
239.7945164996
 30
0.0
 11
119.81511473
 21
239.7945164996
 31
0.0
  0
LINE
  5
3BA
330
1F
100
AcDbEntity
  8
0
  6
Continuous
 62
     7
370
    25
100
AcDbLine
 10
119.81511473
 20
237.7945164996
 30
0.0
 11
105.81511473
 21
237.7945164996
 31
0.0
  0
LINE
  5
3BB
330
1F
100
AcDbEntity
  8
0
  6
Continuous
 62
     7
370
    25
100
AcDbLine
 10
85.81511473
 20
239.7945164996
 30
0.0
 11
99.81511473
 21
239.7945164996
 31
0.0
  0
LINE
  5
3BC
330
1F
100
AcDbEntity
  8
0
  6
Continuous
 62
     7
370
    25
100
AcDbLine
 10
99.81511473
 20
237.7945164996
 30
0.0
 11
85.81511473
 21
237.7945164996
 31
0.0
  0
LINE
  5
3BD
330
1F
100
AcDbEntity
  8
0
  6
Continuous
 62
     7
370
    25
100
AcDbLine
 10
105.81511473
 20
239.7945164996
 30
0.0
 11
105.81511473
 21
237.7945164996
 31
0.0
  0
LINE
  5
3BE
330
1F
100
AcDbEntity
  8
0
  6
Continuous
 62
     7
370
    25
100
AcDbLine
 10
99.81511473
 20
237.7945164996
 30
0.0
 11
99.81511473
 21
239.7945164996
 31
0.0
  0
LINE
  5
3BF
330
1F
100
AcDbEntity
  8
0
  6
Continuous
 62
     7
370
    25
100
AcDbLine
 10
99.81511473
 20
239.7945164996
 30
0.0
 11
105.81511473
 21
239.7945164996
 31
0.0
  0
LINE
  5
3C0
330
1F
100
AcDbEntity
  8
0
  6
Continuous
 62
     7
370
    25
100
AcDbLine
 10
99.81511473
 20
237.7945164996
 30
0.0
 11
105.81511473
 21
237.7945164996
 31
0.0
  0
LINE
  5
3C1
330
1F
100
AcDbEntity
  8
0
  6
Continuous
 62
     7
370
    25
100
AcDbLine
 10
177.81511473
 20
239.7945164996
 30
0.0
 11
177.81511473
 21
237.7945164996
 31
0.0
  0
LINE
  5
3C2
330
1F
100
AcDbEntity
  8
0
  6
Continuous
 62
     7
370
    25
100
AcDbLine
 10
171.81511473
 20
237.7945164996
 30
0.0
 11
171.81511473
 21
239.7945164996
 31
0.0
  0
LINE
  5
3C3
330
1F
100
AcDbEntity
  8
0
  6
Continuous
 62
     7
370
    25
100
AcDbLine
 10
171.81511473
 20
239.7945164996
 30
0.0
 11
177.81511473
 21
239.7945164996
 31
0.0
  0
LINE
  5
3C4
330
1F
100
AcDbEntity
  8
0
  6
Continuous
 62
     7
370
    25
100
AcDbLine
 10
171.81511473
 20
237.7945164996
 30
0.0
 11
177.81511473
 21
237.7945164996
 31
0.0
  0
LINE
  5
3C5
330
1F
100
AcDbEntity
  8
0
  6
Continuous
 62
     7
370
    25
100
AcDbLine
 10
199.24511473
 20
239.7945164996
 30
0.0
 11
198.91511473
 21
239.7945164996
 31
0.0
  0
ARC
  5
3C6
330
1F
100
AcDbEntity
  8
0
  6
Continuous
 62
     7
370
    25
100
AcDbCircle
 10
72.723045199
 20
231.2545173256
 30
0.0
 40
8.307727826633883
100
AcDbArc
 50
51.9263543779
 51
75.4146386387
  0
LINE
  5
3C7
330
1F
100
AcDbEntity
  8
0
  6
Continuous
 62
     7
370
    25
100
AcDbLine
 10
78.31511473
 20
237.7945164996
 30
0.0
 11
77.8462036432
 21
237.7945164996
 31
0.0
  0
LINE
  5
3C8
330
1F
100
AcDbEntity
  8
0
  6
Continuous
 62
     7
370
    25
100
AcDbLine
 10
77.8462036432
 20
237.7945164996
 30
0.0
 11
71.31511473
 21
237.7945164996
 31
0.0
  0
LINE
  5
3C9
330
1F
100
AcDbEntity
  8
0
  6
Continuous
 62
     7
370
    25
100
AcDbLine
 10
150.0944796714
 20
239.7945164996
 30
0.0
 11
150.0944796714
 21
239.6945164996
 31
0.0
  0
LINE
  5
3CA
330
1F
100
AcDbEntity
  8
0
  6
Continuous
 62
     7
370
    25
100
AcDbLine
 10
144.405129372
 20
239.7945164996
 30
0.0
 11
145.3432566447
 21
239.7945164996
 31
0.0
  0
LINE
  5
3CB
330
1F
100
AcDbEntity
  8
0
  6
Continuous
 62
     7
370
    25
100
AcDbLine
 10
149.564829372
 20
239.7945164996
 30
0.0
 11
150.0944796714
 21
239.7945164996
 31
0.0
  0
LINE
  5
3CC
330
1F
100
AcDbEntity
  8
0
  6
Continuous
 62
     7
370
    25
100
AcDbLine
 10
135.7662028869
 20
239.7945164996
 30
0.0
 11
136.7043315474
 21
239.7945164996
 31
0.0
  0
LINE
  5
3CD
330
1F
100
AcDbEntity
  8
0
  6
Continuous
 62
     7
370
    25
100
AcDbLine
 10
200.74511473
 20
237.7945164996
 30
0.0
 11
200.61511473
 21
237.7945164996
 31
0.0
  0
LINE
  5
3CE
330
1F
100
AcDbEntity
  8
0
  6
Continuous
 62
     7
370
    25
100
AcDbLine
 10
206.71511473
 20
239.7945164996
 30
0.0
 11
206.38511473
 21
239.7945164996
 31
0.0
  0
LINE
  5
3CF
330
1F
100
AcDbEntity
  8
0
  6
Continuous
 62
     7
370
    25
100
AcDbLine
 10
131.4968125987
 20
239.7945164996
 30
0.0
 11
132.5444379302
 21
239.7945164996
 31
0.0
  0
LINE
  5
3D0
330
1F
100
AcDbEntity
  8
0
  6
Continuous
 62
     7
370
    25
100
AcDbLine
 10
150.0944796714
 20
239.7945164996
 30
0.0
 11
150.5029566447
 21
239.7945164996
 31
0.0
  0
LINE
  5
3D1
330
1F
100
AcDbEntity
  8
0
  6
Continuous
 62
     7
370
    25
100
AcDbLine
 10
127.8078999209
 20
239.7945164996
 30
0.0
 11
128.8555339377
 21
239.7945164996
 31
0.0
  0
LINE
  5
3D2
330
1F
100
AcDbEntity
  8
0
  6
Continuous
 62
     7
370
    25
100
AcDbLine
 10
205.01511473
 20
237.7945164996
 30
0.0
 11
204.88511473
 21
237.7945164996
 31
0.0
  0
LINE
  5
3D3
330
1F
100
AcDbEntity
  8
0
  6
Continuous
 62
     7
370
    25
100
AcDbLine
 10
170.81511473
 20
239.7945164996
 30
0.0
 11
170.81511473
 21
241.2945164996
 31
0.0
  0
LINE
  5
3D4
330
1F
100
AcDbEntity
  8
0
  6
Continuous
 62
     7
370
    25
100
AcDbLine
 10
111.66511473
 20
237.3945164996
 30
0.0
 11
101.96511473
 21
237.3945164996
 31
0.0
  0
LINE
  5
3D5
330
1F
100
AcDbEntity
  8
0
  6
Continuous
 62
     7
370
    25
100
AcDbLine
 10
198.16511473
 20
237.3945164996
 30
0.0
 11
200.2424127327
 21
237.3945164996
 31
0.0
  0
LINE
  5
3D6
330
1F
100
AcDbEntity
  8
0
  6
Continuous
 62
     7
370
    25
100
AcDbLine
 10
205.395010836
 20
237.3945164996
 30
0.0
 11
207.46511473
 21
237.3945164996
 31
0.0
  0
LINE
  5
3D7
330
1F
100
AcDbEntity
  8
0
  6
Continuous
 62
     7
370
    25
100
AcDbLine
 10
199.5745226357
 20
237.7808868302
 30
0.0
 11
200.7587443995
 21
237.7808868302
 31
0.0
  0
LINE
  5
3D8
330
1F
100
AcDbEntity
  8
0
  6
Continuous
 62
     7
370
    25
100
AcDbLine
 10
204.8714850605
 20
237.7808868302
 30
0.0
 11
206.0557068243
 21
237.7808868302
 31
0.0
  0
HATCH
  5
3D9
330
1F
100
AcDbEntity
  8
0
  6
Continuous
 62
     7
370
    18
100
AcDbHatch
 10
0.0
 20
0.0
 30
0.0
210
0.0
220
0.0
230
1.0
  2
ANSI31
 70
     0
 71
     0
 91
        1
 92
        0
 93
       24
 72
     1
 10
149.5648293719684
 20
239.7945164996413
 11
145.3432566446957
 21
239.7945164996413
 72
     1
 10
145.3432566446957
 20
239.7945164996413
 11
145.3432566446957
 21
239.6945164996413
 72
     1
 10
145.3432566446957
 20
239.6945164996413
 11
144.4051293719685
 21
239.6945164996413
 72
     1
 10
144.4051293719685
 20
239.6945164996413
 11
144.4051293719685
 21
239.7945164996413
 72
     1
 10
144.4051293719685
 20
239.7945164996413
 11
136.7043315473673
 21
239.7945164996413
 72
     1
 10
136.7043315473673
 20
239.7945164996413
 11
136.7043315473673
 21
239.6945164996413
 72
     1
 10
136.7043315473673
 20
239.6945164996413
 11
135.7662028868815
 21
239.6945164996413
 72
     1
 10
135.7662028868815
 20
239.6945164996413
 11
135.7662028868815
 21
239.7945164996413
 72
     1
 10
135.7662028868815
 20
239.7945164996413
 11
132.5444379302071
 21
239.7945164996413
 72
     1
 10
132.5444379302071
 20
239.7945164996413
 11
132.5444379302071
 21
239.6945164996413
 72
     1
 10
132.5444379302071
 20
239.6945164996413
 11
131.496812598667
 21
239.6945164996413
 72
     1
 10
131.496812598667
 20
239.6945164996413
 11
131.496812598667
 21
239.7945164996413
 72
     1
 10
131.496812598667
 20
239.7945164996413
 11
128.8555339377255
 21
239.7945164996413
 72
     1
 10
128.8555339377255
 20
239.7945164996413
 11
128.8555339377255
 21
239.6945164996413
 72
     1
 10
128.8555339377255
 20
239.6945164996413
 11
127.8078999209222
 21
239.6945164996413
 72
     1
 10
127.8078999209222
 20
239.6945164996413
 11
127.8078999209222
 21
239.7945164996413
 72
     1
 10
127.8078999209222
 20
239.7945164996413
 11
119.8151147300044
 21
239.7945164996413
 72
     1
 10
119.8151147300044
 20
239.7945164996413
 11
119.8151147300044
 21
237.7945164996413
 72
     1
 10
119.8151147300044
 20
237.7945164996413
 11
157.8151147300044
 21
237.7945164996413
 72
     1
 10
157.8151147300044
 20
237.7945164996413
 11
157.8151147300044
 21
239.7945164996413
 72
     1
 10
157.8151147300044
 20
239.7945164996413
 11
150.5029566446957
 21
239.7945164996413
 72
     1
 10
150.5029566446957
 20
239.7945164996413
 11
150.5029566446957
 21
239.6945164996413
 72
     1
 10
150.5029566446957
 20
239.6945164996413
 11
149.5648293719684
 21
239.6945164996413
 72
     1
 10
149.5648293719684
 20
239.6945164996413
 11
149.5648293719684
 21
239.7945164996413
 97
        0
 75
     0
 76
     1
 52
0.0
 41
1.0
 77
     0
 78
     1
 53
45.0
 43
0.0
 44
0.0
 45
-2.245064030267288
 46
2.245064030267288
 79
     0
 98
        1
 10
0.0
 20
0.0
  0
HATCH
  5
3DA
330
1F
100
AcDbEntity
  8
0
  6
Continuous
 62
     7
370
    18
100
AcDbHatch
 10
0.0
 20
0.0
 30
0.0
210
0.0
220
0.0
230
1.0
  2
ANSI31
 70
     0
 71
     0
 91
        1
 92
        0
 93
        5
 72
     1
 10
205.0151147300044
 20
238.0945164996413
 11
205.0151147300044
 21
237.7945164996413
 72
     1
 10
205.0151147300044
 20
237.7945164996413
 11
217.3151147300044
 21
237.7945164996413
 72
     1
 10
217.3151147300044
 20
237.7945164996413
 11
217.3151147300044
 21
239.7945164996413
 72
     1
 10
217.3151147300044
 20
239.7945164996413
 11
206.7151147300044
 21
239.7945164996413
 72
     1
 10
206.7151147300044
 20
239.7945164996413
 11
205.0151147300044
 21
238.0945164996413
 97
        0
 75
     0
 76
     1
 52
0.0
 41
1.0
 77
     0
 78
     1
 53
45.0
 43
0.0
 44
0.0
 45
-2.245064030267288
 46
2.245064030267288
 79
     0
 98
        1
 10
0.0
 20
0.0
  0
HATCH
  5
3DB
330
1F
100
AcDbEntity
  8
0
  6
Continuous
 62
     7
370
    18
100
AcDbHatch
 10
0.0
 20
0.0
 30
0.0
210
0.0
220
0.0
230
1.0
  2
ANSI31
 70
     0
 71
     0
 91
        1
 92
        0
 93
        5
 72
     1
 10
191.8151147300044
 20
239.7945164996413
 11
191.8151147300044
 21
237.7945164996413
 72
     1
 10
191.8151147300044
 20
237.7945164996413
 11
200.6151147300044
 21
237.7945164996413
 72
     1
 10
200.6151147300044
 20
237.7945164996413
 11
200.6151147300044
 21
238.0945164996413
 72
     1
 10
200.6151147300044
 20
238.0945164996413
 11
198.9151147300044
 21
239.7945164996413
 72
     1
 10
198.9151147300044
 20
239.7945164996413
 11
191.8151147300044
 21
239.7945164996413
 97
        0
 75
     0
 76
     1
 52
0.0
 41
1.0
 77
     0
 78
     1
 53
45.0
 43
0.0
 44
0.0
 45
-2.245064030267288
 46
2.245064030267288
 79
     0
 98
        1
 10
0.0
 20
0.0
  0
HATCH
  5
3DC
330
1F
100
AcDbEntity
  8
0
  6
Continuous
 62
     7
370
    18
100
AcDbHatch
 10
0.0
 20
0.0
 30
0.0
210
0.0
220
0.0
230
1.0
  2
ANSI31
 70
     0
 71
     0
 91
        1
 92
        0
 93
        4
 72
     1
 10
171.8151147300044
 20
239.7945164996413
 11
171.8151147300044
 21
237.7945164996413
 72
     1
 10
171.8151147300044
 20
237.7945164996413
 11
177.8151147300043
 21
237.7945164996413
 72
     1
 10
177.8151147300043
 20
237.7945164996413
 11
177.8151147300044
 21
239.7945164996413
 72
     1
 10
177.8151147300044
 20
239.7945164996413
 11
171.8151147300044
 21
239.7945164996413
 97
        0
 75
     0
 76
     1
 52
0.0
 41
1.0
 77
     0
 78
     1
 53
45.0
 43
0.0
 44
0.0
 45
-2.245064030267288
 46
2.245064030267288
 79
     0
 98
        1
 10
0.0
 20
0.0
  0
HATCH
  5
3DD
330
1F
100
AcDbEntity
  8
0
  6
Continuous
 62
     7
370
    18
100
AcDbHatch
 10
0.0
 20
0.0
 30
0.0
210
0.0
220
0.0
230
1.0
  2
ANSI31
 70
     0
 71
     0
 91
        1
 92
        0
 93
        4
 72
     1
 10
99.81511473000431
 20
239.7945164996413
 11
99.81511473000435
 21
237.7945164996413
 72
     1
 10
99.81511473000435
 20
237.7945164996413
 11
105.8151147300043
 21
237.7945164996413
 72
     1
 10
105.8151147300043
 20
237.7945164996413
 11
105.8151147300044
 21
239.7945164996413
 72
     1
 10
105.8151147300044
 20
239.7945164996413
 11
99.81511473000431
 21
239.7945164996413
 97
        0
 75
     0
 76
     1
 52
0.0
 41
1.0
 77
     0
 78
     1
 53
45.0
 43
0.0
 44
0.0
 45
-2.245064030267288
 46
2.245064030267288
 79
     0
 98
        1
 10
0.0
 20
0.0
  0
HATCH
  5
3DE
330
1F
100
AcDbEntity
  8
0
  6
Continuous
 62
     7
370
    18
100
AcDbHatch
 10
0.0
 20
0.0
 30
0.0
210
0.0
220
0.0
230
1.0
  2
ANSI31
 70
     0
 71
     0
 91
        1
 92
        0
 93
       10
 72
     1
 10
60.31511473000435
 20
239.7945164996413
 11
60.31511473000435
 21
237.7945164996413
 72
     1
 10
60.31511473000435
 20
237.7945164996413
 11
71.31511473000432
 21
237.7945164996413
 72
     4
 94
        2
 73
     1
 74
     0
 95
        6
 96
        3
 40
0.0
 40
0.0
 40
0.0
 40
0.3736865268353351
 40
0.3736865268353351
 40
0.3736865268353351
 10
71.31511473000435
 20
237.7945164996413
 42
0.8683475025397251
 10
72.92332849128502
 20
238.875351056653
 42
0.8532343650039105
 10
74.81511473000434
 20
239.2945164996413
 42
0.8683475025397251
 72
     4
 94
        3
 73
     1
 74
     0
 95
       14
 96
       10
 40
-0.0000001000000457
 40
-0.0000001000000457
 40
-0.0000001000000457
 40
-0.0000001000000457
 40
0.0
 40
0.0
 40
0.0
 40
0.002033960930026
 40
0.002033960930026
 40
0.002033960930026
 40
0.0038223959607752
 40
0.0038223959607752
 40
0.0038223959607752
 40
0.0038223959607752
 10
74.81511473000432
 20
239.2945164996413
 42
1.0
 10
74.81514727403273
 20
239.2945092886537
 42
1.0
 10
74.8151798180963
 20
239.2945020778248
 42
1.0
 10
74.81521236208951
 20
239.2944948666784
 42
1.0
 10
75.47714416668605
 20
239.1478230336466
 42
1.0
 10
76.12761348714524
 20
238.9341084485199
 42
1.0
 10
76.74754955532475
 20
238.6596168968986
 42
1.0
 10
77.2932608946473
 20
238.4179901228542
 42
1.0
 10
77.81977635733712
 20
238.1274192787882
 42
1.0
 10
78.31511473000431
 20
237.7945164996413
 42
1.0
 72
     1
 10
78.31511473000431
 20
237.7945164996413
 11
85.81511473000431
 21
237.7945164996413
 72
     1
 10
85.81511473000431
 20
237.7945164996413
 11
85.8151147300043
 21
239.7945164996413
 72
     1
 10
85.8151147300043
 20
239.7945164996413
 11
78.31511473000431
 21
239.7945164996413
 72
     4
 94
        2
 73
     1
 74
     0
 95
        6
 96
        3
 40
0.0
 40
0.0
 40
0.0
 40
0.5400181383462959
 40
0.5400181383462959
 40
0.5400181383462959
 10
78.31511473000432
 20
239.7945164996413
 42
0.8683475022848217
 10
76.7726906547993
 20
241.0288603241629
 42
0.8368859500379435
 10
74.81511473000432
 20
241.2945164996413
 42
0.8683475022848217
 72
     4
 94
        3
 73
     1
 74
     0
 95
       17
 96
       13
 40
-0.0000001000000952
 40
-0.0000001000000952
 40
-0.0000001000000952
 40
-0.0000001000000952
 40
0.0
 40
0.0
 40
0.0
 40
0.0010026634427034
 40
0.0010026634427034
 40
0.0010026634427034
 40
0.001985922993006
 40
0.001985922993006
 40
0.001985922993006
 40
0.0038588315848247
 40
0.0038588315848247
 40
0.0038588315848247
 40
0.0038588315848247
 10
74.81511473000432
 20
241.2945164996413
 42
1.0
 10
74.81508169943395
 20
241.2945120169359
 42
1.0
 10
74.81504866883218
 20
241.2945075344618
 42
1.0
 10
74.8150156382932
 20
241.2945030515249
 42
1.0
 10
74.48383081449596
 20
241.2495543255372
 42
1.0
 10
74.15500474856786
 20
241.1811191627081
 42
1.0
 10
73.8333858973655
 20
241.0902066221385
 42
1.0
 10
73.5179613036161
 20
241.0010450227214
 42
1.0
 10
73.20796196766067
 20
240.8898419557248
 42
1.0
 10
72.90778499818637
 20
240.7581747534693
 42
1.0
 10
72.3395414296449
 20
240.5089249825738
 42
1.0
 10
71.79958557830601
 20
240.1822202507529
 42
1.0
 10
71.31511473000432
 20
239.7945164996413
 42
1.0
 72
     1
 10
71.31511473000432
 20
239.7945164996413
 11
60.31511473000435
 21
239.7945164996413
 97
        0
 75
     0
 76
     1
 52
0.0
 41
1.0
 77
     0
 78
     1
 53
45.0
 43
0.0
 44
0.0
 45
-2.245064030267288
 46
2.245064030267288
 79
     0
 98
        1
 10
0.0
 20
0.0
  0
HATCH
  5
3DF
330
1F
100
AcDbEntity
  8
0
  6
Continuous
 62
     7
370
    18
100
AcDbHatch
 10
0.0
 20
0.0
 30
0.0
210
0.0
220
0.0
230
1.0
  2
DIN 201 Stahl und Stahlguss
 70
     0
 71
     0
 91
        1
 92
        0
 93
       12
 72
     2
 10
206.1592344423268
 20
237.3945164996413
 40
0.200000000000004
 50
255.0000000000051
 51
270.0000000000008
 73
     0
 72
     1
 10
206.1592344423268
 20
237.5945164996413
 11
207.2651147300044
 21
237.5945164996413
 72
     2
 10
207.2651147300044
 20
237.3945164996413
 40
0.2
 50
270.000000000009
 51
360.0000000000008
 73
     0
 72
     1
 10
207.4651147300044
 20
237.3945164996413
 11
207.4651147300044
 21
236.4945164996413
 72
     1
 10
207.4651147300044
 20
236.4945164996413
 11
207.6651147300044
 21
236.4945164996413
 72
     1
 10
207.6651147300044
 20
236.4945164996413
 11
207.6651147300044
 21
237.3945164996413
 72
     2
 10
207.2651147300044
 20
237.3945164996413
 40
0.4
 50
0.0
 51
90.0
 73
     1
 72
     1
 10
207.2651147300044
 20
237.7945164996413
 11
206.1592344423268
 21
237.7945164996413
 72
     2
 10
206.1592344423268
 20
237.3945164996413
 40
0.400000000000009
 50
90.0
 51
104.9999999999996
 73
     1
 72
     1
 10
206.0557068242858
 20
237.7808868301569
 11
206.0351147300044
 21
237.7753691951238
 72
     1
 10
206.0351147300044
 20
237.7753691951238
 11
206.0351147300044
 21
237.5683139590418
 72
     1
 10
206.0351147300044
 20
237.5683139590418
 11
206.1074706333063
 21
237.5877016648991
 97
        0
 75
     0
 76
     2
 52
0.0
 41
1.0
 77
     0
 78
     4
 53
45.00000209717174
 43
0.0
 44
0.0
 45
-13.47038467465416
 46
13.47038368855329
 79
     0
 53
45.00000209717174
 43
4.490128
 44
0.0
 45
-13.47038467465416
 46
13.47038368855329
 79
     0
 53
45.00000209717174
 43
8.980256
 44
0.0
 45
-13.47038467465416
 46
13.47038368855329
 79
     0
 53
45.00000209717174
 43
13.47038
 44
0.0
 45
-13.47038467465416
 46
13.47038368855329
 79
     0
 98
        1
 10
0.0
 20
0.0
  0
HATCH
  5
3E0
330
1F
100
AcDbEntity
  8
0
  6
Continuous
 62
     7
370
    18
100
AcDbHatch
 10
0.0
 20
0.0
 30
0.0
210
0.0
220
0.0
230
1.0
  2
DIN 201 Stahl und Stahlguss
 70
     0
 71
     0
 91
        1
 92
        0
 93
       12
 72
     2
 10
198.3651147300044
 20
237.3945164996413
 40
0.2
 50
180.0
 51
269.9999999999927
 73
     0
 72
     1
 10
198.3651147300044
 20
237.5945164996413
 11
199.470995017682
 21
237.5945164996413
 72
     2
 10
199.470995017682
 20
237.3945164996413
 40
0.200000000000004
 50
270.0000000000008
 51
284.9999999999965
 73
     0
 72
     1
 10
199.5227588267024
 20
237.5877016648991
 11
199.5951147300044
 21
237.5683139590418
 72
     1
 10
199.5951147300044
 20
237.5683139590418
 11
199.5951147300044
 21
237.7753691951238
 72
     1
 10
199.5951147300044
 20
237.7753691951238
 11
199.574522635723
 21
237.7808868301569
 72
     2
 10
199.470995017682
 20
237.3945164996413
 40
0.400000000000009
 50
75.00000000000037
 51
90.0
 73
     1
 72
     1
 10
199.470995017682
 20
237.7945164996413
 11
198.3651147300044
 21
237.7945164996413
 72
     2
 10
198.3651147300044
 20
237.3945164996413
 40
0.4
 50
90.00000000000408
 51
180.0
 73
     1
 72
     1
 10
197.9651147300044
 20
237.3945164996413
 11
197.9651147300044
 21
236.4945164996413
 72
     1
 10
197.9651147300044
 20
236.4945164996413
 11
198.1651147300044
 21
236.4945164996413
 72
     1
 10
198.1651147300044
 20
236.4945164996413
 11
198.1651147300044
 21
237.3945164996413
 97
        0
 75
     0
 76
     2
 52
0.0
 41
1.0
 77
     0
 78
     4
 53
45.00000209717174
 43
0.0
 44
0.0
 45
-13.47038467465416
 46
13.47038368855329
 79
     0
 53
45.00000209717174
 43
4.490128
 44
0.0
 45
-13.47038467465416
 46
13.47038368855329
 79
     0
 53
45.00000209717174
 43
8.980256
 44
0.0
 45
-13.47038467465416
 46
13.47038368855329
 79
     0
 53
45.00000209717174
 43
13.47038
 44
0.0
 45
-13.47038467465416
 46
13.47038368855329
 79
     0
 98
        1
 10
0.0
 20
0.0
  0
HATCH
  5
3E1
330
1F
100
AcDbEntity
  8
0
  6
Continuous
 62
     7
370
    18
100
AcDbHatch
 10
0.0
 20
0.0
 30
0.0
210
0.0
220
0.0
230
1.0
  2
ANSI31
 70
     0
 71
     0
 91
        1
 92
        0
 93
       16
 72
     1
 10
201.0520397574225
 20
237.2217787987697
 11
200.8151147300044
 21
236.1945164996413
 72
     1
 10
200.8151147300044
 20
236.1945164996413
 11
200.8151147300044
 21
231.7945164996413
 72
     1
 10
200.8151147300044
 20
231.7945164996413
 11
204.8151147300044
 21
231.7945164996413
 72
     1
 10
204.8151147300044
 20
231.7945164996413
 11
204.8151147300044
 21
236.1945164996413
 72
     1
 10
204.8151147300044
 20
236.1945164996413
 11
204.5781897025862
 21
237.2217787987697
 72
     2
 10
204.967957442479
 20
237.3116737871667
 40
0.4
 50
167.012559001473
 51
225.0000000000037
 73
     0
 72
     1
 10
204.6851147300044
 20
237.5945164996413
 11
206.3851147300044
 21
239.2945164996413
 72
     1
 10
206.3851147300044
 20
239.2945164996413
 11
206.3851147300044
 21
239.7945164996413
 72
     1
 10
206.3851147300044
 20
239.7945164996413
 11
203.6151147300023
 21
239.7945164996413
 72
     1
 10
203.6151147300023
 20
239.7945164996413
 11
203.6151147300023
 21
238.5945164996413
 72
     1
 10
203.6151147300023
 20
238.5945164996413
 11
202.0151147300024
 21
238.5945164996413
 72
     1
 10
202.0151147300024
 20
238.5945164996413
 11
202.0151147300024
 21
239.7945164996413
 72
     1
 10
202.0151147300024
 20
239.7945164996413
 11
199.2451147300044
 21
239.7945164996413
 72
     1
 10
199.2451147300044
 20
239.7945164996413
 11
199.2451147300044
 21
239.2945164996413
 72
     1
 10
199.2451147300044
 20
239.2945164996413
 11
200.9451147300044
 21
237.5945164996413
 72
     2
 10
200.6622720175298
 20
237.3116737871667
 40
0.4
 50
314.9999999999979
 51
372.9874409985278
 73
     0
 97
        0
 75
     0
 76
     1
 52
90.0
 41
0.5
 77
     0
 78
     1
 53
135.0000000000002
 43
0.0
 44
0.0
 45
-1.12253201513364
 46
-1.122532015133648
 79
     0
 98
        1
 10
0.0
 20
0.0
  0
DIMENSION
  5
3E2
330
1F
100
AcDbEntity
  8
0
  6
Continuous
 62
     7
370
    18
100
AcDbDimension
  2
_D
 10
233.4231089271
 20
239.7945164996
 30
0.0
 11
233.4231089271
 21
233.6218553866
 31
0.0
 70
   160
  1
<>
 71
     2
 42
-1.0
  3
SLDDIMSTYLE0
100
AcDbAlignedDimension
 13
217.31511473
 23
237.7945164996
 33
0.0
 14
217.31511473
 24
239.7945164996
 34
0.0
 50
90.0
100
AcDbRotatedDimension
  0
DIMENSION
  5
3EF
330
1F
100
AcDbEntity
  8
0
  6
Continuous
 62
     7
370
    18
100
AcDbDimension
  2
_D_1
 10
60.31511473
 20
248.5372541974
 30
0.0
 11
138.81511473
 21
248.5372541974
 31
0.0
 70
   160
  1
%%c<>
 71
     2
 42
-1.0
  3
SLDDIMSTYLE1
100
AcDbAlignedDimension
 13
217.31511473
 23
239.7945164996
 33
0.0
 14
60.31511473
 24
239.7945164996
 34
0.0
100
AcDbRotatedDimension
  0
MTEXT
  5
3FB
330
1F
100
AcDbEntity
  8
0
  6
Continuous
 62
     7
370
     0
100
AcDbMText
 10
138.9244390656
 20
258.6940321734
 30
0.0
 40
3.7041666667
 41
0.0
 71
     2
 72
     1
  1
A-A
  7
SLDTEXTSTYLE0
 73
     1
 44
1.0
  0
ENDSEC
  0
SECTION
  2
OBJECTS
  0
DICTIONARY
  5
C
330
0
100
AcDbDictionary
281
     1
  3
ACAD_GROUP
350
D
  3
ACAD_LAYOUT
350
1A
  3
ACAD_MLINESTYLE
350
17
  3
ACAD_PLOTSETTINGS
350
19
  3
ACAD_PLOTSTYLENAME
350
E
  3
ACAD_SCALELIST
350
47
  3
DWGPROPS
350
3FC
  0
DICTIONARY
  5
D
102
{ACAD_REACTORS
330
C
102
}
330
C
100
AcDbDictionary
281
     1
  0
DICTIONARY
  5
1A
102
{ACAD_REACTORS
330
C
102
}
330
C
100
AcDbDictionary
281
     1
  3
Layout1
350
1E
  3
Layout2
350
26
  3
Model
350
22
  0
DICTIONARY
  5
17
102
{ACAD_REACTORS
330
C
102
}
330
C
100
AcDbDictionary
281
     1
  3
Standard
350
18
  0
DICTIONARY
  5
19
102
{ACAD_REACTORS
330
C
102
}
330
C
100
AcDbDictionary
281
     1
  0
ACDBDICTIONARYWDFLT
  5
E
102
{ACAD_REACTORS
330
C
102
}
330
C
100
AcDbDictionary
281
     1
  3
Normal
350
F
100
AcDbDictionaryWithDefault
340
F
  0
DICTIONARY
  5
47
102
{ACAD_REACTORS
330
C
102
}
330
C
100
AcDbDictionary
281
     1
  3
A0
350
48
  3
A1
350
49
  3
A2
350
4A
  3
A3
350
4B
  3
A4
350
4C
  3
A5
350
4D
  3
A6
350
4E
  3
A7
350
4F
  3
A8
350
50
  3
A9
350
51
  3
B0
350
52
  3
B1
350
53
  3
B2
350
54
  3
B3
350
55
  3
B4
350
56
  3
B5
350
57
  3
B6
350
58
  0
XRECORD
  5
3FC
102
{ACAD_REACTORS
330
C
102
}
330
C
100
AcDbXrecord
280
     1
  1
DWGPROPS COOKIE
  2

  3

  4

  6

  7

  8
CH-NTL-RS-WSCAD
  9

300
=
301
=
302
=
303
=
304
=
305
=
306
=
307
=
308
=
309
=
 40
0.0
 41
2461132.196029086
 42
2461132.19603404
  1

 90
        0
  0
LAYOUT
  5
1E
102
{ACAD_REACTORS
330
1A
102
}
330
1A
100
AcDbPlotSettings
  1

  2
none_device
  4

  6

 40
0.0
 41
0.0
 42
0.0
 43
0.0
 44
0.0
 45
0.0
 46
0.0
 47
0.0
 48
0.0
 49
0.0
140
0.0
141
0.0
142
1.0
143
1.0
 70
   688
 72
     1
 73
     0
 74
     5
  7

 75
    16
147
1.0
148
0.0
149
0.0
100
AcDbLayout
  1
Layout1
 70
     1
 71
     1
 10
0.0
 20
0.0
 11
420.0
 21
297.0
 12
0.0
 22
0.0
 32
0.0
 14
1.0000000000E+20
 24
1.0000000000E+20
 34
1.0000000000E+20
 15
-1.0000000000E+20
 25
-1.0000000000E+20
 35
-1.0000000000E+20
146
0.0
 13
0.0
 23
0.0
 33
0.0
 16
1.0
 26
0.0
 36
0.0
 17
0.0
 27
1.0
 37
0.0
 76
     0
330
1B
  0
LAYOUT
  5
26
102
{ACAD_REACTORS
330
1A
102
}
330
1A
100
AcDbPlotSettings
  1

  2
none_device
  4

  6

 40
0.0
 41
0.0
 42
0.0
 43
0.0
 44
0.0
 45
0.0
 46
0.0
 47
0.0
 48
0.0
 49
0.0
140
0.0
141
0.0
142
1.0
143
1.0
 70
   688
 72
     1
 73
     0
 74
     5
  7

 75
    16
147
1.0
148
0.0
149
0.0
100
AcDbLayout
  1
Layout2
 70
     1
 71
     2
 10
0.0
 20
0.0
 11
0.0
 21
0.0
 12
0.0
 22
0.0
 32
0.0
 14
0.0
 24
0.0
 34
0.0
 15
0.0
 25
0.0
 35
0.0
146
0.0
 13
0.0
 23
0.0
 33
0.0
 16
1.0
 26
0.0
 36
0.0
 17
0.0
 27
1.0
 37
0.0
 76
     0
330
23
  0
LAYOUT
  5
22
102
{ACAD_REACTORS
330
1A
102
}
330
1A
100
AcDbPlotSettings
  1

  2
none_device
  4
Letter_(8.50_x_11.00_Inches)
  6

 40
6.35
 41
6.35
 42
6.35000508
 43
6.35000508
 44
215.9
 45
279.4
 46
0.0
 47
0.0
 48
0.0
 49
0.0
140
0.0
141
0.0
142
1.0
143
1.0
 70
  1712
 72
     1
 73
     0
 74
     0
  7

 75
     0
147
1.0
148
0.0
149
0.0
100
AcDbLayout
  1
Model
 70
     1
 71
     0
 10
0.0
 20
0.0
 11
420.0
 21
297.0
 12
0.0
 22
0.0
 32
0.0
 14
0.0
 24
0.0
 34
0.0
 15
420.0
 25
297.0
 35
0.0
146
0.0
 13
0.0
 23
0.0
 33
0.0
 16
1.0
 26
0.0
 36
0.0
 17
0.0
 27
1.0
 37
0.0
 76
     0
330
1F
331
29
  0
MLINESTYLE
  5
18
102
{ACAD_REACTORS
330
17
102
}
330
17
100
AcDbMlineStyle
  2
Standard
 70
     0
  3

 62
   256
 51
90.0
 52
90.0
 71
     2
 49
0.5
 62
   256
  6
BYLAYER
 49
-0.5
 62
   256
  6
BYLAYER
  0
ACDBPLACEHOLDER
  5
F
102
{ACAD_REACTORS
330
E
102
}
330
E
  0
SCALE
  5
48
102
{ACAD_REACTORS
330
47
102
}
330
47
100
AcDbScale
 70
     0
300
1:1
140
1.0
141
1.0
290
     1
  0
SCALE
  5
49
102
{ACAD_REACTORS
330
47
102
}
330
47
100
AcDbScale
 70
     0
300
1:2
140
1.0
141
2.0
290
     0
  0
SCALE
  5
4A
102
{ACAD_REACTORS
330
47
102
}
330
47
100
AcDbScale
 70
     0
300
1:4
140
1.0
141
4.0
290
     0
  0
SCALE
  5
4B
102
{ACAD_REACTORS
330
47
102
}
330
47
100
AcDbScale
 70
     0
300
1:5
140
1.0
141
5.0
290
     0
  0
SCALE
  5
4C
102
{ACAD_REACTORS
330
47
102
}
330
47
100
AcDbScale
 70
     0
300
1:8
140
1.0
141
8.0
290
     0
  0
SCALE
  5
4D
102
{ACAD_REACTORS
330
47
102
}
330
47
100
AcDbScale
 70
     0
300
1:10
140
1.0
141
10.0
290
     0
  0
SCALE
  5
4E
102
{ACAD_REACTORS
330
47
102
}
330
47
100
AcDbScale
 70
     0
300
1:16
140
1.0
141
16.0
290
     0
  0
SCALE
  5
4F
102
{ACAD_REACTORS
330
47
102
}
330
47
100
AcDbScale
 70
     0
300
1:20
140
1.0
141
20.0
290
     0
  0
SCALE
  5
50
102
{ACAD_REACTORS
330
47
102
}
330
47
100
AcDbScale
 70
     0
300
1:30
140
1.0
141
30.0
290
     0
  0
SCALE
  5
51
102
{ACAD_REACTORS
330
47
102
}
330
47
100
AcDbScale
 70
     0
300
1:40
140
1.0
141
40.0
290
     0
  0
SCALE
  5
52
102
{ACAD_REACTORS
330
47
102
}
330
47
100
AcDbScale
 70
     0
300
1:50
140
1.0
141
50.0
290
     0
  0
SCALE
  5
53
102
{ACAD_REACTORS
330
47
102
}
330
47
100
AcDbScale
 70
     0
300
1:100
140
1.0
141
100.0
290
     0
  0
SCALE
  5
54
102
{ACAD_REACTORS
330
47
102
}
330
47
100
AcDbScale
 70
     0
300
2:1
140
2.0
141
1.0
290
     0
  0
SCALE
  5
55
102
{ACAD_REACTORS
330
47
102
}
330
47
100
AcDbScale
 70
     0
300
4:1
140
4.0
141
1.0
290
     0
  0
SCALE
  5
56
102
{ACAD_REACTORS
330
47
102
}
330
47
100
AcDbScale
 70
     0
300
8:1
140
8.0
141
1.0
290
     0
  0
SCALE
  5
57
102
{ACAD_REACTORS
330
47
102
}
330
47
100
AcDbScale
 70
     0
300
10:1
140
10.0
141
1.0
290
     0
  0
SCALE
  5
58
102
{ACAD_REACTORS
330
47
102
}
330
47
100
AcDbScale
 70
     0
300
100:1
140
100.0
141
1.0
290
     0
  0
ENDSEC
  0
EOF
