  0
SECTION
  2
HEADER
  9
$ACADVER
  1
AC1015
  9
$ACADMAINTVER
 70
     6
  9
$DWGCODEPAGE
  3
ANSI_1252
  9
$INSBASE
 10
0.0
 20
0.0
 30
0.0
  9
$EXTMIN
 10
0.0
 20
0.0
 30
0.0
  9
$EXTMAX
 10
420.0
 20
297.0
 30
0.0
  9
$LIMMIN
 10
0.0
 20
0.0
  9
$LIMMAX
 10
420.0
 20
297.0
  9
$ORTHOMODE
 70
     0
  9
$REGENMODE
 70
     1
  9
$FILLMODE
 70
     1
  9
$QTEXTMODE
 70
     0
  9
$MIRRTEXT
 70
     1
  9
$LTSCALE
 40
1.0
  9
$ATTMODE
 70
     1
  9
$TEXTSIZE
 40
3.5
  9
$TRACEWID
 40
1.0
  9
$TEXTSTYLE
  7
Standard
  9
$CLAYER
  8
0
  9
$CELTYPE
  6
ByLayer
  9
$CECOLOR
 62
   256
  9
$CELTSCALE
 40
1.0
  9
$DISPSILH
 70
     0
  9
$DIMSCALE
 40
1.0
  9
$DIMASZ
 40
2.5
  9
$DIMEXO
 40
0.3
  9
$DIMDLI
 40
3.75
  9
$DIMRND
 40
0.0
  9
$DIMDLE
 40
0.0
  9
$DIMEXE
 40
1.0
  9
$DIMTP
 40
0.0
  9
$DIMTM
 40
0.0
  9
$DIMTXT
 40
3.5277777778
  9
$DIMCEN
 40
2.5
  9
$DIMTSZ
 40
0.0
  9
$DIMTOL
 70
     0
  9
$DIMLIM
 70
     0
  9
$DIMTIH
 70
     1
  9
$DIMTOH
 70
     1
  9
$DIMSE1
 70
     0
  9
$DIMSE2
 70
     0
  9
$DIMTAD
 70
     1
  9
$DIMZIN
 70
     0
  9
$DIMBLK
  1

  9
$DIMASO
 70
     1
  9
$DIMSHO
 70
     1
  9
$DIMPOST
  1

  9
$DIMAPOST
  1

  9
$DIMALT
 70
     0
  9
$DIMALTD
 70
     3
  9
$DIMALTF
 40
0.0393700787
  9
$DIMLFAC
 40
1.0
  9
$DIMTOFL
 70
     1
  9
$DIMTVP
 40
0.0
  9
$DIMTIX
 70
     0
  9
$DIMSOXD
 70
     0
  9
$DIMSAH
 70
     0
  9
$DIMBLK1
  1

  9
$DIMBLK2
  1

  9
$DIMSTYLE
  2
ISO-25
  9
$DIMCLRD
 70
     0
  9
$DIMCLRE
 70
     0
  9
$DIMCLRT
 70
     0
  9
$DIMTFAC
 40
1.0
  9
$DIMGAP
 40
1.52
  9
$DIMJUST
 70
     0
  9
$DIMSD1
 70
     0
  9
$DIMSD2
 70
     0
  9
$DIMTOLJ
 70
     0
  9
$DIMTZIN
 70
     0
  9
$DIMALTZ
 70
     0
  9
$DIMALTTZ
 70
     0
  9
$DIMUPT
 70
     0
  9
$DIMDEC
 70
     1
  9
$DIMTDEC
 70
     1
  9
$DIMALTU
 70
     2
  9
$DIMALTTD
 70
     3
  9
$DIMTXSTY
  7
Standard
  9
$DIMAUNIT
 70
     0
  9
$DIMADEC
 70
     1
  9
$DIMALTRND
 40
0.0
  9
$DIMAZIN
 70
     0
  9
$DIMDSEP
 70
    44
  9
$DIMATFIT
 70
     3
  9
$DIMFRAC
 70
     0
  9
$DIMLDRBLK
  1

  9
$DIMLUNIT
 70
     2
  9
$DIMLWD
 70
    -2
  9
$DIMLWE
 70
    -2
  9
$DIMTMOVE
 70
     0
  9
$LUNITS
 70
     2
  9
$LUPREC
 70
     2
  9
$SKETCHINC
 40
1.0
  9
$FILLETRAD
 40
0.0
  9
$AUNITS
 70
     0
  9
$AUPREC
 70
     2
  9
$MENU
  1
.
  9
$ELEVATION
 40
0.0
  9
$PELEVATION
 40
0.0
  9
$THICKNESS
 40
0.0
  9
$LIMCHECK
 70
     0
  9
$CHAMFERA
 40
0.0
  9
$CHAMFERB
 40
0.0
  9
$CHAMFERC
 40
0.0
  9
$CHAMFERD
 40
0.0
  9
$SKPOLY
 70
     0
  9
$TDCREATE
 40
2461138.408712373
  9
$TDUCREATE
 40
2461138.325379039
  9
$TDUPDATE
 40
2461138.408717246
  9
$TDUUPDATE
 40
2461138.325383912
  9
$TDINDWG
 40
0.0000000116
  9
$TDUSRTIMER
 40
0.0000000116
  9
$USRTIMER
 70
     1
  9
$ANGBASE
 50
0.0
  9
$ANGDIR
 70
     0
  9
$PDMODE
 70
     0
  9
$PDSIZE
 40
-1.0
  9
$PLINEWID
 40
0.0
  9
$SPLFRAME
 70
     0
  9
$SPLINETYPE
 70
     6
  9
$SPLINESEGS
 70
     8
  9
$HANDSEED
  5
23B
  9
$SURFTAB1
 70
     6
  9
$SURFTAB2
 70
     6
  9
$SURFTYPE
 70
     6
  9
$SURFU
 70
     6
  9
$SURFV
 70
     6
  9
$UCSBASE
  2

  9
$UCSNAME
  2

  9
$UCSORG
 10
0.0
 20
0.0
 30
0.0
  9
$UCSXDIR
 10
1.0
 20
0.0
 30
0.0
  9
$UCSYDIR
 10
0.0
 20
1.0
 30
0.0
  9
$UCSORTHOREF
  2

  9
$UCSORTHOVIEW
 70
     0
  9
$UCSORGTOP
 10
0.0
 20
0.0
 30
0.0
  9
$UCSORGBOTTOM
 10
0.0
 20
0.0
 30
0.0
  9
$UCSORGLEFT
 10
0.0
 20
0.0
 30
0.0
  9
$UCSORGRIGHT
 10
0.0
 20
0.0
 30
0.0
  9
$UCSORGFRONT
 10
0.0
 20
0.0
 30
0.0
  9
$UCSORGBACK
 10
0.0
 20
0.0
 30
0.0
  9
$PUCSBASE
  2

  9
$PUCSNAME
  2

  9
$PUCSORG
 10
0.0
 20
0.0
 30
0.0
  9
$PUCSXDIR
 10
1.0
 20
0.0
 30
0.0
  9
$PUCSYDIR
 10
0.0
 20
1.0
 30
0.0
  9
$PUCSORTHOREF
  2

  9
$PUCSORTHOVIEW
 70
     0
  9
$PUCSORGTOP
 10
0.0
 20
0.0
 30
0.0
  9
$PUCSORGBOTTOM
 10
0.0
 20
0.0
 30
0.0
  9
$PUCSORGLEFT
 10
0.0
 20
0.0
 30
0.0
  9
$PUCSORGRIGHT
 10
0.0
 20
0.0
 30
0.0
  9
$PUCSORGFRONT
 10
0.0
 20
0.0
 30
0.0
  9
$PUCSORGBACK
 10
0.0
 20
0.0
 30
0.0
  9
$USERI1
 70
     0
  9
$USERI2
 70
     0
  9
$USERI3
 70
     0
  9
$USERI4
 70
     0
  9
$USERI5
 70
     0
  9
$USERR1
 40
0.0
  9
$USERR2
 40
0.0
  9
$USERR3
 40
0.0
  9
$USERR4
 40
0.0
  9
$USERR5
 40
0.0
  9
$WORLDVIEW
 70
     1
  9
$SHADEDGE
 70
     3
  9
$SHADEDIF
 70
    70
  9
$TILEMODE
 70
     1
  9
$MAXACTVP
 70
    64
  9
$PINSBASE
 10
0.0
 20
0.0
 30
0.0
  9
$PLIMCHECK
 70
     0
  9
$PEXTMIN
 10
1.0000000000E+20
 20
1.0000000000E+20
 30
1.0000000000E+20
  9
$PEXTMAX
 10
-1.0000000000E+20
 20
-1.0000000000E+20
 30
-1.0000000000E+20
  9
$PLIMMIN
 10
0.0
 20
0.0
  9
$PLIMMAX
 10
420.0
 20
297.0
  9
$UNITMODE
 70
     0
  9
$VISRETAIN
 70
     1
  9
$PLINEGEN
 70
     0
  9
$PSLTSCALE
 70
     1
  9
$TREEDEPTH
 70
  3020
  9
$CMLSTYLE
  2
Standard
  9
$CMLJUST
 70
     0
  9
$CMLSCALE
 40
20.0
  9
$PROXYGRAPHICS
 70
     1
  9
$MEASUREMENT
 70
     1
  9
$CELWEIGHT
370
    -1
  9
$ENDCAPS
280
     0
  9
$JOINSTYLE
280
     0
  9
$LWDISPLAY
290
     1
  9
$INSUNITS
 70
     4
  9
$HYPERLINKBASE
  1

  9
$STYLESHEET
  1

  9
$XEDIT
290
     1
  9
$CEPSNTYPE
380
     0
  9
$PSTYLEMODE
290
     1
  9
$FINGERPRINTGUID
  2
{5288818f-44b8-49d4-a62a-58b89c1e2e2f}
  9
$VERSIONGUID
  2
{FAEB1C32-E019-11D5-929B-00C0DF256EC4}
  9
$EXTNAMES
290
     1
  9
$PSVPSCALE
 40
0.0
  9
$OLESTARTUP
290
     0
  0
ENDSEC
  0
SECTION
  2
CLASSES
  0
CLASS
  1
ACDBDICTIONARYWDFLT
  2
AcDbDictionaryWithDefault
  3
ObjectDBX Classes
 90
        0
280
     0
281
     0
  0
CLASS
  1
VISUALSTYLE
  2
AcDbVisualStyle
  3
ObjectDBX Classes
 90
     4095
280
     0
281
     0
  0
CLASS
  1
MATERIAL
  2
AcDbMaterial
  3
ObjectDBX Classes
 90
     1153
280
     0
281
     0
  0
CLASS
  1
SCALE
  2
AcDbScale
  3
ObjectDBX Classes
 90
     1153
280
     0
281
     0
  0
CLASS
  1
TABLESTYLE
  2
AcDbTableStyle
  3
ObjectDBX Classes
 90
     4095
280
     0
281
     0
  0
CLASS
  1
MLEADERSTYLE
  2
AcDbMLeaderStyle
  3
ACDB_MLEADERSTYLE_CLASS
 90
     4095
280
     0
281
     0
  0
CLASS
  1
SUN
  2
AcDbSun
  3
SCENEOE
 90
     1153
280
     0
281
     0
  0
CLASS
  1
ACDBPLACEHOLDER
  2
AcDbPlaceHolder
  3
ObjectDBX Classes
 90
        0
280
     0
281
     0
  0
CLASS
  1
LAYOUT
  2
AcDbLayout
  3
ObjectDBX Classes
 90
        0
280
     0
281
     0
  0
ENDSEC
  0
SECTION
  2
TABLES
  0
TABLE
  2
VPORT
  5
8
330
0
100
AcDbSymbolTable
 70
     1
  0
VPORT
  5
29
330
8
100
AcDbSymbolTableRecord
100
AcDbViewportTableRecord
  2
*Active
 70
     0
 10
0.0
 20
0.0
 11
1.0
 21
1.0
 12
210.0
 22
148.5
 13
0.0
 23
0.0
 14
10.0
 24
10.0
 15
10.0
 25
10.0
 16
0.0
 26
0.0
 36
1.0
 17
0.0
 27
0.0
 37
0.0
 40
297.0
 41
1.4141414141
 42
50.0
 43
0.0
 44
0.0
 50
0.0
 51
0.0
 71
     0
 72
  2000
 73
     1
 74
     3
 75
     0
 76
     0
 77
     0
 78
     0
281
     0
 65
     1
110
0.0
120
0.0
130
0.0
111
1.0
121
0.0
131
0.0
112
0.0
122
1.0
132
0.0
 79
     0
146
0.0
  0
ENDTAB
  0
TABLE
  2
LTYPE
  5
5
330
0
100
AcDbSymbolTable
 70
     6
  0
LTYPE
  5
14
330
5
100
AcDbSymbolTableRecord
100
AcDbLinetypeTableRecord
  2
ByBlock
 70
     0
  3

 72
    65
 73
     0
 40
0.0
  0
LTYPE
  5
15
330
5
100
AcDbSymbolTableRecord
100
AcDbLinetypeTableRecord
  2
ByLayer
 70
     0
  3

 72
    65
 73
     0
 40
0.0
  0
LTYPE
  5
16
330
5
100
AcDbSymbolTableRecord
100
AcDbLinetypeTableRecord
  2
Continuous
 70
     0
  3
Solid line
 72
    65
 73
     0
 40
0.0
  0
LTYPE
  5
5E
330
5
100
AcDbSymbolTableRecord
100
AcDbLinetypeTableRecord
  2
HIDDEN
 70
     0
  3
Hidden __ __ __ __ __ __ __ __ __ __ __ __ __ __
 72
    65
 73
     2
 40
1.905
 49
1.27
 74
     0
 49
-0.635
 74
     0
  0
LTYPE
  5
5F
330
5
100
AcDbSymbolTableRecord
100
AcDbLinetypeTableRecord
  2
PHANTOM
 70
     0
  3
Phantom ______  __  __  ______  __  __  ______
 72
    65
 73
     6
 40
12.7
 49
6.35
 74
     0
 49
-1.27
 74
     0
 49
1.27
 74
     0
 49
-1.27
 74
     0
 49
1.27
 74
     0
 49
-1.27
 74
     0
  0
LTYPE
  5
60
330
5
100
AcDbSymbolTableRecord
100
AcDbLinetypeTableRecord
  2
CENTER
 70
     0
  3
Center ____ _ ____ _ ____ _ ____ _ ____ _ ____
 72
    65
 73
     4
 40
10.16
 49
6.35
 74
     0
 49
-1.27
 74
     0
 49
1.27
 74
     0
 49
-1.27
 74
     0
  0
LTYPE
  5
61
330
5
100
AcDbSymbolTableRecord
100
AcDbLinetypeTableRecord
  2
CENTERX2
 70
     0
  3
Center (2x) ________  __  ________  __  _____
 72
    65
 73
     4
 40
20.32
 49
12.7
 74
     0
 49
-2.54
 74
     0
 49
2.54
 74
     0
 49
-2.54
 74
     0
  0
LTYPE
  5
62
330
5
100
AcDbSymbolTableRecord
100
AcDbLinetypeTableRecord
  2
DOT2
 70
     0
  3
Dot (.5x) ........................................
 72
    65
 73
     2
 40
0.635
 49
0.0
 74
     0
 49
-0.635
 74
     0
  0
ENDTAB
  0
TABLE
  2
LAYER
  5
2
330
0
100
AcDbSymbolTable
 70
     1
  0
LAYER
  5
10
330
2
100
AcDbSymbolTableRecord
100
AcDbLayerTableRecord
  2
0
 70
     0
 62
     7
  6
Continuous
370
    -3
390
F
  0
ENDTAB
  0
TABLE
  2
STYLE
  5
3
330
0
100
AcDbSymbolTable
 70
     3
  0
STYLE
  5
11
330
3
100
AcDbSymbolTableRecord
100
AcDbTextStyleTableRecord
  2
Standard
 70
     0
 40
0.0
 41
1.0
 50
0.0
 71
     0
 42
3.5
  3
txt
  4

  0
STYLE
  5
D9
330
3
100
AcDbSymbolTableRecord
100
AcDbTextStyleTableRecord
  2
SLDTEXTSTYLE0
 70
     0
 40
0.0
 41
0.605
 50
0.0
 71
     0
 42
3.5
  3
TXT
  4

  0
STYLE
  5
179
330
3
100
AcDbSymbolTableRecord
100
AcDbTextStyleTableRecord
  2
SLDTEXTSTYLE1
 70
     0
 40
0.0
 41
0.563
 50
0.0
 71
     0
 42
3.5
  3
TXT
  4

  0
ENDTAB
  0
TABLE
  2
VIEW
  5
6
330
0
100
AcDbSymbolTable
 70
     0
  0
ENDTAB
  0
TABLE
  2
UCS
  5
7
330
0
100
AcDbSymbolTable
 70
     0
  0
ENDTAB
  0
TABLE
  2
APPID
  5
9
330
0
100
AcDbSymbolTable
 70
     1
  0
APPID
  5
12
330
9
100
AcDbSymbolTableRecord
100
AcDbRegAppTableRecord
  2
ACAD
 70
     0
  0
ENDTAB
  0
TABLE
  2
DIMSTYLE
  5
A
330
0
100
AcDbSymbolTable
 70
     2
100
AcDbDimStyleTable
  0
DIMSTYLE
105
27
330
A
100
AcDbSymbolTableRecord
100
AcDbDimStyleTableRecord
  2
ISO-25
 70
     0
 41
2.5
 42
0.625
 43
3.75
 44
1.25
 73
     0
 74
     0
 77
     1
 78
     8
140
2.5
141
2.5
143
0.0393700787
147
0.625
171
     3
172
     1
178
     0
271
     2
272
     2
274
     3
278
    44
283
     0
284
     8
340
11
  0
DIMSTYLE
105
203
102
{ACAD_REACTORS
330
202
330
20E
330
219
330
224
330
22F
102
}
330
A
100
AcDbSymbolTableRecord
100
AcDbDimStyleTableRecord
  2
SLDDIMSTYLE0
 70
     0
 41
2.5
 44
0.0
 45
0.000000001
 73
     0
 74
     0
 77
     1
 78
    12
 79
     3
140
2.5683186849
147
0.6420796712
173
     1
178
     0
271
     1
272
     1
276
     2
284
    12
340
D9
  0
ENDTAB
  0
TABLE
  2
BLOCK_RECORD
  5
1
330
0
100
AcDbSymbolTable
 70
    11
  0
BLOCK_RECORD
  5
1F
330
1
100
AcDbSymbolTableRecord
100
AcDbBlockTableRecord
  2
*Model_Space
340
22
  0
BLOCK_RECORD
  5
1B
330
1
100
AcDbSymbolTableRecord
100
AcDbBlockTableRecord
  2
*Paper_Space
340
1E
  0
BLOCK_RECORD
  5
23
330
1
100
AcDbSymbolTableRecord
100
AcDbBlockTableRecord
  2
*Paper_Space0
340
26
  0
BLOCK_RECORD
  5
63
330
1
100
AcDbSymbolTableRecord
100
AcDbBlockTableRecord
  2
ACO-Logo
340
0
102
{BLKREFS
331
139
102
}
  0
BLOCK_RECORD
  5
D6
330
1
100
AcDbSymbolTableRecord
100
AcDbBlockTableRecord
  2
SW_NOTE_0
340
0
102
{BLKREFS
331
DB
102
}
  0
BLOCK_RECORD
  5
DC
330
1
100
AcDbSymbolTableRecord
100
AcDbBlockTableRecord
  2
SW_NOTE_0_1
340
0
102
{BLKREFS
331
E0
102
}
  0
BLOCK_RECORD
  5
E1
330
1
100
AcDbSymbolTableRecord
100
AcDbBlockTableRecord
  2
SW_NOTE_0_2
340
0
102
{BLKREFS
331
E8
102
}
  0
BLOCK_RECORD
  5
18E
330
1
100
AcDbSymbolTableRecord
100
AcDbBlockTableRecord
  2
SW_CENTERMARKSYMBOL_0
340
0
102
{BLKREFS
331
199
102
}
  0
BLOCK_RECORD
  5
204
330
1
100
AcDbSymbolTableRecord
100
AcDbBlockTableRecord
  2
_D
340
0
  0
BLOCK_RECORD
  5
20F
330
1
100
AcDbSymbolTableRecord
100
AcDbBlockTableRecord
  2
_D_1
340
0
  0
BLOCK_RECORD
  5
21A
330
1
100
AcDbSymbolTableRecord
100
AcDbBlockTableRecord
  2
_D_2
340
0
  0
BLOCK_RECORD
  5
225
330
1
100
AcDbSymbolTableRecord
100
AcDbBlockTableRecord
  2
_D_3
340
0
  0
BLOCK_RECORD
  5
230
330
1
100
AcDbSymbolTableRecord
100
AcDbBlockTableRecord
  2
_D_4
340
0
  0
ENDTAB
  0
ENDSEC
  0
SECTION
  2
BLOCKS
  0
BLOCK
  5
20
330
1F
100
AcDbEntity
  8
0
100
AcDbBlockBegin
  2
*Model_Space
 70
     0
 10
0.0
 20
0.0
 30
0.0
  3
*Model_Space
  1

  0
ENDBLK
  5
21
330
1F
100
AcDbEntity
  8
0
100
AcDbBlockEnd
  0
BLOCK
  5
1C
330
1B
100
AcDbEntity
 67
     1
  8
0
100
AcDbBlockBegin
  2
*Paper_Space
 70
     0
 10
0.0
 20
0.0
 30
0.0
  3
*Paper_Space
  1

  0
ENDBLK
  5
1D
330
1B
100
AcDbEntity
 67
     1
  8
0
100
AcDbBlockEnd
  0
BLOCK
  5
24
330
23
100
AcDbEntity
  8
0
100
AcDbBlockBegin
  2
*Paper_Space0
 70
     0
 10
0.0
 20
0.0
 30
0.0
  3
*Paper_Space0
  1

  0
ENDBLK
  5
25
330
23
100
AcDbEntity
  8
0
100
AcDbBlockEnd
  0
BLOCK
  5
64
330
63
100
AcDbEntity
  8
0
100
AcDbBlockBegin
  2
ACO-Logo
 70
     0
 10
0.0
 20
0.0
 30
0.0
  3
ACO-Logo
  1

  0
ARC
  5
66
330
63
100
AcDbEntity
  8
0
  6
Continuous
 62
     7
370
    18
100
AcDbCircle
 10
80.3853261169
 20
4.9940995715
 30
0.0
 40
0.3000000000000441
100
AcDbArc
 50
181.9349323096
 51
274.6062978506
  0
ARC
  5
67
330
63
100
AcDbEntity
  8
0
  6
Continuous
 62
     7
370
    18
100
AcDbCircle
 10
81.2359083165
 20
2.1946665956
 30
0.0
 40
1.000000000000021
100
AcDbArc
 50
221.4087409628
 51
276.0561297228
  0
ARC
  5
68
330
63
100
AcDbEntity
  8
0
  6
Continuous
 62
     7
370
    18
100
AcDbCircle
 10
79.1360017163
 20
3.654242048
 30
0.0
 40
0.300000000000004
100
AcDbArc
 50
181.2730300201
 51
274.4996077095
  0
ARC
  5
69
330
63
100
AcDbEntity
  8
0
  6
Continuous
 62
     7
370
    18
100
AcDbCircle
 10
78.7699033484
 20
3.2873137407
 30
0.0
 40
0.4000000000000358
100
AcDbArc
 50
221.0090869016
 51
274.5606296317
  0
ARC
  5
6A
330
63
100
AcDbEntity
  8
0
  6
Continuous
 62
     7
370
    18
100
AcDbCircle
 10
91.2333953062
 20
4.6062442307
 30
0.0
 40
0.3000000000000493
100
AcDbArc
 50
274.4996077095
 51
3.7249371334
  0
ARC
  5
6B
330
63
100
AcDbEntity
  8
0
  6
Continuous
 62
     7
370
    18
100
AcDbCircle
 10
81.5287571045
 20
9.7648973508
 30
0.0
 40
1.00000000000002
100
AcDbArc
 50
93.1134387481
 51
181.9414863909
  0
ARC
  5
6C
330
63
100
AcDbEntity
  8
0
  6
Continuous
 62
     7
370
    18
100
AcDbCircle
 10
81.6051675115
 20
7.5107903456
 30
0.0
 40
1.0
100
AcDbArc
 50
181.9414863909
 51
274.398705355
  0
ARC
  5
6D
330
63
100
AcDbEntity
  8
0
  6
Continuous
 62
     7
370
    18
100
AcDbCircle
 10
80.1506905656
 20
11.9393118923
 30
0.0
 40
0.300000000000045
100
AcDbArc
 50
93.0418421566
 51
181.9349323096
  0
ARC
  5
6E
330
63
100
AcDbEntity
  8
0
  6
Continuous
 62
     7
370
    18
100
AcDbCircle
 10
78.1879722102
 20
12.3499352608
 30
0.0
 40
0.7999999999953393
100
AcDbArc
 50
92.6995697565
 51
148.2554209065
  0
ARC
  5
6F
330
63
100
AcDbEntity
  8
0
  6
Continuous
 62
     7
370
    18
100
AcDbCircle
 10
78.930862229
 20
12.8855189761
 30
0.0
 40
0.3000000000000031
100
AcDbArc
 50
92.6995697565
 51
181.2730300201
  0
ARC
  5
70
330
63
100
AcDbEntity
  8
0
  6
Continuous
 62
     7
370
    18
100
AcDbCircle
 10
82.327743407
 20
9.8083568568
 30
0.0
 40
1.000000000000034
100
AcDbArc
 50
1.9414863909
 51
93.1134387481
  0
ARC
  5
71
330
63
100
AcDbEntity
  8
0
  6
Continuous
 62
     7
370
    18
100
AcDbCircle
 10
81.5287571045
 20
9.7648973508
 30
0.0
 40
0.3625000000000009
100
AcDbArc
 50
93.1134387481
 51
181.9414863909
  0
ARC
  5
72
330
63
100
AcDbEntity
  8
0
  6
Continuous
 62
     7
370
    18
100
AcDbCircle
 10
82.327743407
 20
9.8083568568
 30
0.0
 40
0.3625000000000146
100
AcDbArc
 50
1.9414863909
 51
93.1134387481
  0
ARC
  5
73
330
63
100
AcDbEntity
  8
0
  6
Continuous
 62
     7
370
    18
100
AcDbCircle
 10
82.4035451983
 20
7.5722040138
 30
0.0
 40
1.000000000000008
100
AcDbArc
 50
274.398705355
 51
1.9414863909
  0
ARC
  5
74
330
63
100
AcDbEntity
  8
0
  6
Continuous
 62
     7
370
    18
100
AcDbCircle
 10
82.4035451983
 20
7.5722040138
 30
0.0
 40
0.3625000000000068
100
AcDbArc
 50
274.398705355
 51
1.9414863909
  0
ARC
  5
75
330
63
100
AcDbEntity
  8
0
  6
Continuous
 62
     7
370
    18
100
AcDbCircle
 10
81.6051675115
 20
7.5107903456
 30
0.0
 40
0.3625000000000111
100
AcDbArc
 50
181.9414863909
 51
274.398705355
  0
ARC
  5
76
330
63
100
AcDbEntity
  8
0
  6
Continuous
 62
     7
370
    18
100
AcDbCircle
 10
88.825822761
 20
8.0662148274
 30
0.0
 40
0.9999999999999997
100
AcDbArc
 50
274.398705355
 51
2.6541955134
  0
ARC
  5
77
330
63
100
AcDbEntity
  8
0
  6
Continuous
 62
     7
370
    18
100
AcDbCircle
 10
90.1578295581
 20
5.7814576687
 30
0.0
 40
0.3000000000000043
100
AcDbArc
 50
274.6062978507
 51
2.5147526475
  0
ARC
  5
78
330
63
100
AcDbEntity
  8
0
  6
Continuous
 62
     7
370
    18
100
AcDbCircle
 10
88.825822761
 20
8.0662148274
 30
0.0
 40
0.3625000000000083
100
AcDbArc
 50
274.398705355
 51
2.6541955134
  0
ARC
  5
79
330
63
100
AcDbEntity
  8
0
  6
Continuous
 62
     7
370
    18
100
AcDbCircle
 10
88.728529747
 20
10.16496413
 30
0.0
 40
1.000000000000001
100
AcDbArc
 50
2.6541955134
 51
93.1134387481
  0
ARC
  5
7A
330
63
100
AcDbEntity
  8
0
  6
Continuous
 62
     7
370
    18
100
AcDbCircle
 10
88.728529747
 20
10.16496413
 30
0.0
 40
0.3625000000000085
100
AcDbArc
 50
2.6541955134
 51
93.1134387481
  0
ARC
  5
7B
330
63
100
AcDbEntity
  8
0
  6
Continuous
 62
     7
370
    18
100
AcDbCircle
 10
89.8647121341
 20
12.455515937
 30
0.0
 40
0.2999999999999984
100
AcDbArc
 50
2.5147526475
 51
93.0418421566
  0
ARC
  5
7C
330
63
100
AcDbEntity
  8
0
  6
Continuous
 62
     7
370
    18
100
AcDbCircle
 10
90.6583795404
 20
13.4384863935
 30
0.0
 40
0.2999999999999911
100
AcDbArc
 50
3.7249371334
 51
92.6995697565
  0
CIRCLE
  5
7D
330
63
100
AcDbEntity
  8
0
  6
Continuous
 62
     7
370
    18
100
AcDbCircle
 10
15.7233972286
 20
6.4054930194
 30
0.0
 40
1.579500000000014
  0
CIRCLE
  5
7E
330
63
100
AcDbEntity
  8
0
  6
Continuous
 62
     7
370
    18
100
AcDbCircle
 10
15.7233972286
 20
6.4054930194
 30
0.0
 40
2.281499999999994
  0
ARC
  5
7F
330
63
100
AcDbEntity
  8
0
  6
Continuous
 62
     7
370
    18
100
AcDbCircle
 10
89.7681336026
 20
2.3106616691
 30
0.0
 40
0.098384530246548
100
AcDbArc
 50
332.3802627259
 51
4.9765441602
  0
ARC
  5
80
330
63
100
AcDbEntity
  8
0
  6
Continuous
 62
     7
370
    18
100
AcDbCircle
 10
89.6886560089
 20
2.3522464185
 30
0.0
 40
0.1880839130754018
100
AcDbArc
 50
303.690067526
 51
332.3802627258
  0
ARC
  5
81
330
63
100
AcDbEntity
  8
0
  6
Continuous
 62
     7
370
    18
100
AcDbCircle
 10
89.4849700869
 20
2.6577753016
 30
0.0
 40
0.5552839311631531
100
AcDbArc
 50
287.108652213
 51
303.690067526
  0
ARC
  5
82
330
63
100
AcDbEntity
  8
0
  6
Continuous
 62
     7
370
    18
100
AcDbCircle
 10
88.0513010646
 20
7.3154864882
 30
0.0
 40
5.428648309393203
100
AcDbArc
 50
285.2551187031
 51
287.108652213
  0
ARC
  5
83
330
63
100
AcDbEntity
  8
0
  6
Continuous
 62
     7
370
    18
100
AcDbCircle
 10
89.1317168954
 20
3.3539617753
 30
0.0
 40
1.322436378825653
100
AcDbArc
 50
281.4991866428
 51
285.255118703
  0
ARC
  5
84
330
63
100
AcDbEntity
  8
0
  6
Continuous
 62
     7
370
    18
100
AcDbCircle
 10
89.3198255509
 20
2.4293110075
 30
0.0
 40
0.3788454141584939
100
AcDbArc
 50
279.1917900003
 51
281.499186643
  0
ARC
  5
85
330
63
100
AcDbEntity
  8
0
  6
Continuous
 62
     7
370
    18
100
AcDbCircle
 10
89.0487250788
 20
4.1046569124
 30
0.0
 40
2.07598399629105
100
AcDbArc
 50
277.7634675038
 51
279.1917900002
  0
ARC
  5
86
330
63
100
AcDbEntity
  8
0
  6
Continuous
 62
     7
370
    18
100
AcDbCircle
 10
9.2588909915
 20
6.4054930194
 30
0.0
 40
1.579500000000074
100
AcDbArc
 50
31.0558004991
 51
330.0
  0
ARC
  5
87
330
63
100
AcDbEntity
  8
0
  6
Continuous
 62
     7
370
    18
100
AcDbCircle
 10
9.2588909915
 20
6.4054930194
 30
0.0
 40
2.281500000000107
100
AcDbArc
 50
30.7309172659
 51
330.0
  0
ARC
  5
88
330
63
100
AcDbEntity
  8
0
  6
Continuous
 62
     7
370
    18
100
AcDbCircle
 10
6.1288847544
 20
4.0685261312
 30
0.0
 40
4.914000000000307
100
AcDbArc
 50
172.3058370354
 51
179.7113029221
  0
ARC
  5
89
330
63
100
AcDbEntity
  8
0
  6
Continuous
 62
     7
370
    18
100
AcDbCircle
 10
-0.5401152456
 20
4.0685261312
 30
0.0
 40
4.91400000000019
100
AcDbArc
 50
0.2886970779
 51
7.6941629646
  0
ARC
  5
8A
330
63
100
AcDbEntity
  8
0
  6
Continuous
 62
     7
370
    18
100
AcDbCircle
 10
-0.5401152456
 20
4.0685261312
 30
0.0
 40
5.616000000000127
100
AcDbArc
 50
0.2526096926
 51
53.5764263577
  0
ARC
  5
8B
330
63
100
AcDbEntity
  8
0
  6
Continuous
 62
     7
370
    18
100
AcDbCircle
 10
6.1288847544
 20
4.0685261312
 30
0.0
 40
5.61600000000074
100
AcDbArc
 50
126.4235736423
 51
179.7473903073
  0
ARC
  5
8C
330
63
100
AcDbEntity
  8
0
  6
Continuous
 62
     7
370
    18
100
AcDbCircle
 10
-0.5401152456
 20
4.0685261312
 30
0.0
 40
4.914000000000161
100
AcDbArc
 50
16.0658750272
 51
47.2678899574
  0
ARC
  5
8D
330
63
100
AcDbEntity
  8
0
  6
Continuous
 62
     7
370
    18
100
AcDbCircle
 10
6.1288847544
 20
4.0685261312
 30
0.0
 40
4.914000000000584
100
AcDbArc
 50
132.7321100426
 51
163.9341249728
  0
LINE
  5
8E
330
63
100
AcDbEntity
  8
0
  6
Continuous
 62
     7
370
    18
100
AcDbLine
 10
78.8017089389
 20
2.8885802402
 30
0.0
 11
90.7982178739
 21
3.8455002136
 31
0.0
  0
LINE
  5
8F
330
63
100
AcDbEntity
  8
0
  6
Continuous
 62
     7
370
    18
100
AcDbLine
 10
76.6545490427
 20
5.8693097374
 30
0.0
 11
78.0344191726
 21
3.5235305166
 31
0.0
  0
LINE
  5
90
330
63
100
AcDbEntity
  8
0
  6
Continuous
 62
     7
370
    18
100
AcDbLine
 10
91.5327615373
 20
4.6257342197
 30
0.0
 11
90.9577457715
 21
13.4579763825
 31
0.0
  0
LINE
  5
91
330
63
100
AcDbEntity
  8
0
  6
Continuous
 62
     7
370
    18
100
AcDbLine
 10
78.6309362756
 20
12.8788539549
 30
0.0
 11
78.8360757629
 21
3.6475770268
 31
0.0
  0
LINE
  5
92
330
63
100
AcDbEntity
  8
0
  6
Continuous
 62
     7
370
    18
100
AcDbLine
 10
80.4094186633
 20
4.6950685544
 30
0.0
 11
90.1819221045
 21
5.4824266516
 31
0.0
  0
LINE
  5
93
330
63
100
AcDbEntity
  8
0
  6
Continuous
 62
     7
370
    18
100
AcDbLine
 10
79.1595373973
 20
3.3551666867
 30
0.0
 11
91.2569309872
 21
4.3071688694
 31
0.0
  0
LINE
  5
94
330
63
100
AcDbEntity
  8
0
  6
Continuous
 62
     7
370
    18
100
AcDbLine
 10
79.2585043218
 20
2.925017226
 30
0.0
 11
80.4858981444
 21
1.533240302
 31
0.0
  0
LINE
  5
95
330
63
100
AcDbEntity
  8
0
  6
Continuous
 62
     7
370
    18
100
AcDbLine
 10
78.0344191726
 20
3.5235305166
 30
0.0
 11
78.3638740472
 21
3.1446574108
 31
0.0
  0
LINE
  5
96
330
63
100
AcDbEntity
  8
0
  6
Continuous
 62
     7
370
    18
100
AcDbLine
 10
78.3638740472
 20
3.1446574108
 30
0.0
 11
78.4680611395
 21
3.0248422547
 31
0.0
  0
LINE
  5
97
330
63
100
AcDbEntity
  8
0
  6
Continuous
 62
     7
370
    18
100
AcDbLine
 10
81.3414110113
 20
1.2002475785
 30
0.0
 11
89.3291569519
 21
2.0477010263
 31
0.0
  0
LINE
  5
98
330
63
100
AcDbEntity
  8
0
  6
Continuous
 62
     7
370
    18
100
AcDbLine
 10
89.8661472522
 20
2.5197759309
 30
0.0
 11
89.8661472522
 21
2.3090867337
 31
0.0
  0
LINE
  5
99
330
63
100
AcDbEntity
  8
0
  6
Continuous
 62
     7
370
    18
100
AcDbLine
 10
88.676842368
 20
3.6762854359
 30
0.0
 11
89.6713239345
 21
2.7875997807
 31
0.0
  0
LINE
  5
9A
330
63
100
AcDbEntity
  8
0
  6
Continuous
 62
     7
370
    18
100
AcDbLine
 10
89.6713239345
 20
2.7875997807
 30
0.0
 11
89.7459749087
 21
2.7242700694
 31
0.0
  0
LINE
  5
9B
330
63
100
AcDbEntity
  8
0
  6
Continuous
 62
     7
370
    18
100
AcDbLine
 10
90.7982178739
 20
3.8455002136
 30
0.0
 11
91.3961615969
 21
4.3514525945
 31
0.0
  0
LINE
  5
9C
330
63
100
AcDbEntity
  8
0
  6
Continuous
 62
     7
370
    18
100
AcDbLine
 10
90.6442498554
 20
13.7381534621
 30
0.0
 11
78.1502930503
 21
13.1490474438
 31
0.0
  0
LINE
  5
9D
330
63
100
AcDbEntity
  8
0
  6
Continuous
 62
     7
370
    18
100
AcDbLine
 10
80.1347709981
 20
12.2388892068
 30
0.0
 11
89.8487925667
 21
12.7550932515
 31
0.0
  0
LINE
  5
9E
330
63
100
AcDbEntity
  8
0
  6
Continuous
 62
     7
370
    18
100
AcDbLine
 10
76.4935641943
 20
11.7567556248
 30
0.0
 11
76.6545490427
 21
5.8693097374
 31
0.0
  0
LINE
  5
9F
330
63
100
AcDbEntity
  8
0
  6
Continuous
 62
     7
370
    18
100
AcDbLine
 10
79.8508616208
 20
11.929182536
 30
0.0
 11
80.0854971721
 21
4.9839702153
 31
0.0
  0
LINE
  5
A0
330
63
100
AcDbEntity
  8
0
  6
Continuous
 62
     7
370
    18
100
AcDbLine
 10
80.5293311574
 20
9.7310185051
 30
0.0
 11
80.6057415643
 21
7.4769115
 31
0.0
  0
LINE
  5
A1
330
63
100
AcDbEntity
  8
0
  6
Continuous
 62
     7
370
    18
100
AcDbLine
 10
77.507650604
 20
12.7708420346
 30
0.0
 11
76.4935641943
 21
11.7567556248
 31
0.0
  0
LINE
  5
A2
330
63
100
AcDbEntity
  8
0
  6
Continuous
 62
     7
370
    18
100
AcDbLine
 10
86.8848195129
 20
11.0661568594
 30
0.0
 11
88.6742167283
 21
11.1634880887
 31
0.0
  0
LINE
  5
A3
330
63
100
AcDbEntity
  8
0
  6
Continuous
 62
     7
370
    18
100
AcDbLine
 10
87.0766213517
 20
6.9287171941
 30
0.0
 11
88.90708891
 21
7.0695223909
 31
0.0
  0
LINE
  5
A4
330
63
100
AcDbEntity
  8
0
  6
Continuous
 62
     7
370
    18
100
AcDbLine
 10
87.6830038473
 20
7.6147347768
 30
0.0
 11
88.8536252418
 21
7.7047825764
 31
0.0
  0
LINE
  5
A5
330
63
100
AcDbEntity
  8
0
  6
Continuous
 62
     7
370
    18
100
AcDbLine
 10
87.5509212094
 20
10.4639459651
 30
0.0
 11
88.7088412777
 21
10.5269290651
 31
0.0
  0
LINE
  5
A6
330
63
100
AcDbEntity
  8
0
  6
Continuous
 62
     7
370
    18
100
AcDbLine
 10
87.0766218384
 20
6.9287066941
 30
0.0
 11
86.8848195129
 21
11.0661568594
 31
0.0
  0
LINE
  5
A7
330
63
100
AcDbEntity
  8
0
  6
Continuous
 62
     7
370
    18
100
AcDbLine
 10
83.7004598825
 20
6.6667911093
 30
0.0
 11
84.5054929504
 21
10.9267193262
 31
0.0
  0
LINE
  5
A8
330
63
100
AcDbEntity
  8
0
  6
Continuous
 62
     7
370
    18
100
AcDbLine
 10
85.3543248406
 20
10.9728900984
 30
0.0
 11
86.4940946704
 21
6.8816860929
 31
0.0
  0
LINE
  5
A9
330
63
100
AcDbEntity
  8
0
  6
Continuous
 62
     7
370
    18
100
AcDbLine
 10
84.9728575427
 20
9.9667192298
 30
0.0
 11
85.4540299774
 21
8.2395506903
 31
0.0
  0
LINE
  5
AA
330
63
100
AcDbEntity
  8
0
  6
Continuous
 62
     7
370
    18
100
AcDbLine
 10
84.6363094629
 20
8.1858350416
 30
0.0
 11
84.9728575427
 21
9.9667192298
 31
0.0
  0
LINE
  5
AB
330
63
100
AcDbEntity
  8
0
  6
Continuous
 62
     7
370
    18
100
AcDbLine
 10
87.6830038473
 20
7.6147347768
 30
0.0
 11
87.5509212094
 21
10.4639459651
 31
0.0
  0
LINE
  5
AC
330
63
100
AcDbEntity
  8
0
  6
Continuous
 62
     7
370
    18
100
AcDbLine
 10
84.6363094629
 20
8.1858350416
 30
0.0
 11
85.4540299774
 21
8.2395506903
 31
0.0
  0
LINE
  5
AD
330
63
100
AcDbEntity
  8
0
  6
Continuous
 62
     7
370
    18
100
AcDbLine
 10
84.5140586807
 20
7.5389304886
 30
0.0
 11
85.6288154243
 21
7.6121582976
 31
0.0
  0
LINE
  5
AE
330
63
100
AcDbEntity
  8
0
  6
Continuous
 62
     7
370
    18
100
AcDbLine
 10
84.3588137958
 20
6.717433718
 30
0.0
 11
84.5140586807
 21
7.5389304886
 31
0.0
  0
LINE
  5
AF
330
63
100
AcDbEntity
  8
0
  6
Continuous
 62
     7
370
    18
100
AcDbLine
 10
81.6818640104
 20
6.5137358601
 30
0.0
 11
82.4802416972
 21
6.5751495283
 31
0.0
  0
LINE
  5
B0
330
63
100
AcDbEntity
  8
0
  6
Continuous
 62
     7
370
    18
100
AcDbLine
 10
81.6329699923
 20
7.1493580946
 30
0.0
 11
82.4313476791
 21
7.2107717628
 31
0.0
  0
LINE
  5
B1
330
63
100
AcDbEntity
  8
0
  6
Continuous
 62
     7
370
    18
100
AcDbLine
 10
83.7004598825
 20
6.6667911093
 30
0.0
 11
84.3588137958
 21
6.717433718
 31
0.0
  0
LINE
  5
B2
330
63
100
AcDbEntity
  8
0
  6
Continuous
 62
     7
370
    18
100
AcDbLine
 10
82.7059483815
 20
9.3512024135
 30
0.0
 11
83.3423973297
 21
9.3930104243
 31
0.0
  0
LINE
  5
B3
330
63
100
AcDbEntity
  8
0
  6
Continuous
 62
     7
370
    18
100
AcDbLine
 10
82.7491656358
 20
8.0762934118
 30
0.0
 11
83.385614584
 21
8.1181014226
 31
0.0
  0
LINE
  5
B4
330
63
100
AcDbEntity
  8
0
  6
Continuous
 62
     7
370
    18
100
AcDbLine
 10
81.1664651987
 20
9.7526162692
 30
0.0
 11
81.2428756056
 21
7.4985092641
 31
0.0
  0
LINE
  5
B5
330
63
100
AcDbEntity
  8
0
  6
Continuous
 62
     7
370
    18
100
AcDbLine
 10
82.6900353128
 20
9.8206379383
 30
0.0
 11
82.7052632884
 21
9.3714126602
 31
0.0
  0
LINE
  5
B6
330
63
100
AcDbEntity
  8
0
  6
Continuous
 62
     7
370
    18
100
AcDbLine
 10
82.7491656358
 20
8.0762934118
 30
0.0
 11
82.7658371041
 21
7.5844850954
 31
0.0
  0
LINE
  5
B7
330
63
100
AcDbEntity
  8
0
  6
Continuous
 62
     7
370
    18
100
AcDbLine
 10
83.3271693541
 20
9.8422357024
 30
0.0
 11
83.3423973297
 21
9.3930104243
 31
0.0
  0
LINE
  5
B8
330
63
100
AcDbEntity
  8
0
  6
Continuous
 62
     7
370
    18
100
AcDbLine
 10
83.385614584
 20
8.1181014226
 30
0.0
 11
83.4029711454
 21
7.6060828595
 31
0.0
  0
LINE
  5
B9
330
63
100
AcDbEntity
  8
0
  6
Continuous
 62
     7
370
    18
100
AcDbLine
 10
85.6288154243
 20
7.6121582976
 30
0.0
 11
85.8462022593
 21
6.8318482152
 31
0.0
  0
LINE
  5
BA
330
63
100
AcDbEntity
  8
0
  6
Continuous
 62
     7
370
    18
100
AcDbLine
 10
85.8462022593
 20
6.8318482152
 30
0.0
 11
86.4940946704
 21
6.8816860929
 31
0.0
  0
LINE
  5
BB
330
63
100
AcDbEntity
  8
0
  6
Continuous
 62
     7
370
    18
100
AcDbLine
 10
84.5054929504
 20
10.9267193262
 30
0.0
 11
85.3543248406
 21
10.9728900984
 31
0.0
  0
LINE
  5
BC
330
63
100
AcDbEntity
  8
0
  6
Continuous
 62
     7
370
    18
100
AcDbLine
 10
81.4744440858
 20
10.7634213094
 30
0.0
 11
82.2734303883
 21
10.8068808154
 31
0.0
  0
LINE
  5
BD
330
63
100
AcDbEntity
  8
0
  6
Continuous
 62
     7
370
    18
100
AcDbLine
 10
81.5090686352
 20
10.1268622858
 30
0.0
 11
82.3080549377
 21
10.1703217918
 31
0.0
  0
LINE
  5
BE
330
63
100
AcDbEntity
  8
0
  6
Continuous
 62
     7
370
    18
100
AcDbLine
 10
90.4575406452
 20
5.7946206556
 30
0.0
 11
90.1644232213
 21
12.4686789239
 31
0.0
  0
LINE
  5
BF
330
63
100
AcDbEntity
  8
0
  6
Continuous
 62
     7
370
    18
100
AcDbLine
 10
89.8247499755
 20
8.1125227115
 30
0.0
 11
89.7274569615
 21
10.2112720142
 31
0.0
  0
LINE
  5
C0
330
63
100
AcDbEntity
  8
0
  6
Continuous
 62
     7
370
    18
100
AcDbLine
 10
89.1879338763
 20
8.0830014354
 30
0.0
 11
89.0906408622
 21
10.181750738
 31
0.0
  0
LINE
  5
C1
330
63
100
AcDbEntity
  8
0
  6
Continuous
 62
     7
370
    18
100
AcDbLine
 10
89.7459749087
 20
2.7242700694
 30
0.0
 11
89.7974962577
 21
2.6659765769
 31
0.0
  0
LINE
  5
C2
330
63
100
AcDbEntity
  8
0
  6
Continuous
 62
     7
370
    18
100
AcDbLine
 10
89.7974962577
 20
2.6659765769
 30
0.0
 11
89.8351851379
 21
2.60192886
 31
0.0
  0
LINE
  5
C3
330
63
100
AcDbEntity
  8
0
  6
Continuous
 62
     7
370
    18
100
AcDbLine
 10
89.8351851379
 20
2.60192886
 30
0.0
 11
89.8661472522
 21
2.5197759309
 31
0.0
  0
LINE
  5
C4
330
63
100
AcDbEntity
  8
0
  6
Continuous
 62
     7
370
    18
100
AcDbLine
 10
10.6119938288
 20
7.2203138351
 30
0.0
 11
11.2200151261
 21
7.5713550947
 31
0.0
  0
LINE
  5
C5
330
63
100
AcDbEntity
  8
0
  6
Continuous
 62
     7
370
    18
100
AcDbLine
 10
11.2347279503
 20
5.2647430194
 30
0.0
 11
10.6267781168
 21
5.6157430194
 31
0.0
  0
LINE
  5
C6
330
63
100
AcDbEntity
  8
0
  6
Continuous
 62
     7
370
    18
100
AcDbLine
 10
6.4645062371
 20
16.1712617198
 30
0.0
 11
6.4645062371
 21
2.9364593988
 31
0.0
  0
LINE
  5
C7
330
63
100
AcDbEntity
  8
0
  6
Continuous
 62
     7
370
    18
100
AcDbLine
 10
6.4645062371
 20
2.9364593988
 30
0.0
 11
12.0532757459
 21
2.9364593988
 31
0.0
  0
LINE
  5
C8
330
63
100
AcDbEntity
  8
0
  6
Continuous
 62
     7
370
    18
100
AcDbLine
 10
12.0532757459
 20
2.9364593988
 30
0.0
 11
12.0532757459
 21
16.1712617198
 31
0.0
  0
LINE
  5
C9
330
63
100
AcDbEntity
  8
0
  6
Continuous
 62
     7
370
    18
100
AcDbLine
 10
12.0532757459
 20
16.1712617198
 30
0.0
 11
6.4645062371
 21
16.1712617198
 31
0.0
  0
LINE
  5
CA
330
63
100
AcDbEntity
  8
0
  6
Continuous
 62
     7
370
    18
100
AcDbLine
 10
0.0
 20
16.1712617198
 30
0.0
 11
0.0
 21
2.9364593988
 31
0.0
  0
LINE
  5
CB
330
63
100
AcDbEntity
  8
0
  6
Continuous
 62
     7
370
    18
100
AcDbLine
 10
0.0
 20
2.9364593988
 30
0.0
 11
5.5887695089
 21
2.9364593988
 31
0.0
  0
LINE
  5
CC
330
63
100
AcDbEntity
  8
0
  6
Continuous
 62
     7
370
    18
100
AcDbLine
 10
5.5887695089
 20
2.9364593988
 30
0.0
 11
5.5887695089
 21
16.1712617198
 31
0.0
  0
LINE
  5
CD
330
63
100
AcDbEntity
  8
0
  6
Continuous
 62
     7
370
    18
100
AcDbLine
 10
5.5887695089
 20
16.1712617198
 30
0.0
 11
0.0
 21
16.1712617198
 31
0.0
  0
LINE
  5
CE
330
63
100
AcDbEntity
  8
0
  6
Continuous
 62
     7
370
    18
100
AcDbLine
 10
1.2591262606
 20
4.7264381407
 30
0.0
 11
4.3296432482
 21
4.7264381407
 31
0.0
  0
LINE
  5
CF
330
63
100
AcDbEntity
  8
0
  6
Continuous
 62
     7
370
    18
100
AcDbLine
 10
4.3738223747
 20
4.0932862697
 30
0.0
 11
5.0758301722
 21
4.0932862697
 31
0.0
  0
LINE
  5
D0
330
63
100
AcDbEntity
  8
0
  6
Continuous
 62
     7
370
    18
100
AcDbLine
 10
0.5129393366
 20
4.0932862697
 30
0.0
 11
1.2149471342
 21
4.0932862697
 31
0.0
  0
LINE
  5
D1
330
63
100
AcDbEntity
  8
0
  6
Continuous
 62
     7
370
    18
100
AcDbLine
 10
4.1819643097
 20
5.4284381407
 30
0.0
 11
1.4068051992
 21
5.4284381407
 31
0.0
  0
LINE
  5
D2
330
63
100
AcDbEntity
  8
0
  6
Continuous
 62
     7
370
    18
100
AcDbLine
 10
18.517781983
 20
16.1712617198
 30
0.0
 11
18.517781983
 21
2.9364593988
 31
0.0
  0
LINE
  5
D3
330
63
100
AcDbEntity
  8
0
  6
Continuous
 62
     7
370
    18
100
AcDbLine
 10
18.517781983
 20
2.9364593988
 30
0.0
 11
12.9290124742
 21
2.9364593988
 31
0.0
  0
LINE
  5
D4
330
63
100
AcDbEntity
  8
0
  6
Continuous
 62
     7
370
    18
100
AcDbLine
 10
12.9290124742
 20
2.9364593988
 30
0.0
 11
12.9290124742
 21
16.1712617198
 31
0.0
  0
LINE
  5
D5
330
63
100
AcDbEntity
  8
0
  6
Continuous
 62
     7
370
    18
100
AcDbLine
 10
12.9290124742
 20
16.1712617198
 30
0.0
 11
18.517781983
 21
16.1712617198
 31
0.0
  0
INSERT
  5
DB
330
63
100
AcDbEntity
  8
0
  6
Continuous
 62
     7
370
     0
100
AcDbBlockReference
  2
SW_NOTE_0
 10
1.8998941161
 20
-0.3226565443
 30
0.0
  0
INSERT
  5
E0
330
63
100
AcDbEntity
  8
0
  6
Continuous
 62
     7
370
     0
100
AcDbBlockReference
  2
SW_NOTE_0_1
 10
29.1164837035
 20
12.7459167441
 30
0.0
  0
INSERT
  5
E8
330
63
100
AcDbEntity
  8
0
  6
Continuous
 62
     7
370
     0
100
AcDbBlockReference
  2
SW_NOTE_0_2
 10
28.8863479825
 20
8.6365742194
 30
0.0
  0
ENDBLK
  5
65
330
63
100
AcDbEntity
  8
0
100
AcDbBlockEnd
  0
BLOCK
  5
D7
330
D6
100
AcDbEntity
  8
0
100
AcDbBlockBegin
  2
SW_NOTE_0
 70
     0
 10
0.0
 20
0.0
 30
0.0
  3
SW_NOTE_0
  1

  0
MTEXT
  5
DA
330
D6
100
AcDbEntity
  8
0
  6
Continuous
 62
     0
370
     0
100
AcDbMText
 10
7.46875
 20
2.5781354795
 30
0.0
 40
2.0
 41
0.0
 71
     2
 72
     1
  1
www.aco.ch
  7
SLDTEXTSTYLE0
 73
     1
 44
1.0
  0
ENDBLK
  5
D8
330
D6
100
AcDbEntity
  8
0
100
AcDbBlockEnd
  0
BLOCK
  5
DD
330
DC
100
AcDbEntity
  8
0
100
AcDbBlockBegin
  2
SW_NOTE_0_1
 70
     0
 10
0.0
 20
0.0
 30
0.0
  3
SW_NOTE_0_1
  1

  0
MTEXT
  5
DF
330
DC
100
AcDbEntity
  8
0
  6
Continuous
 62
     0
370
     0
100
AcDbMText
 10
0.0
 20
3.8672032193
 30
0.0
 40
3.0
 41
0.0
 71
     1
 72
     1
  1
ACO AG
  7
SLDTEXTSTYLE0
 73
     1
 44
1.0
  0
ENDBLK
  5
DE
330
DC
100
AcDbEntity
  8
0
100
AcDbBlockEnd
  0
BLOCK
  5
E2
330
E1
100
AcDbEntity
  8
0
100
AcDbBlockBegin
  2
SW_NOTE_0_2
 70
     0
 10
0.0
 20
0.0
 30
0.0
  3
SW_NOTE_0_2
  1

  0
MTEXT
  5
E4
330
E1
100
AcDbEntity
  8
0
  6
Continuous
 62
     0
370
     0
100
AcDbMText
 10
0.0
 20
2.5781354795
 30
0.0
 40
2.0
 41
0.0
 71
     1
 72
     1
  1
Industrie Kleinzaun
  7
SLDTEXTSTYLE0
 73
     1
 44
1.0
  0
MTEXT
  5
E5
330
E1
100
AcDbEntity
  8
0
  6
Continuous
 62
     0
370
     0
100
AcDbMText
 10
0.0
 20
-0.4218645465
 30
0.0
 40
2.0
 41
0.0
 71
     1
 72
     1
  1
CH-8754 Netstal
  7
SLDTEXTSTYLE0
 73
     1
 44
1.0
  0
MTEXT
  5
E6
330
E1
100
AcDbEntity
  8
0
  6
Continuous
 62
     0
370
     0
100
AcDbMText
 10
0.0
 20
-3.4218645726
 30
0.0
 40
2.0
 41
0.0
 71
     1
 72
     1
  1
Tel. 055 / 645 53 00
  7
SLDTEXTSTYLE0
 73
     1
 44
1.0
  0
MTEXT
  5
E7
330
E1
100
AcDbEntity
  8
0
  6
Continuous
 62
     0
370
     0
100
AcDbMText
 10
0.0
 20
-6.4218645987
 30
0.0
 40
2.0
 41
0.0
 71
     1
 72
     1
  1
E-Mail: aco@aco.ch
  7
SLDTEXTSTYLE0
 73
     1
 44
1.0
  0
ENDBLK
  5
E3
330
E1
100
AcDbEntity
  8
0
100
AcDbBlockEnd
  0
BLOCK
  5
18F
330
18E
100
AcDbEntity
  8
0
100
AcDbBlockBegin
  2
SW_CENTERMARKSYMBOL_0
 70
     0
 10
0.0
 20
0.0
 30
0.0
  3
SW_CENTERMARKSYMBOL_0
  1

  0
LINE
  5
191
330
18E
100
AcDbEntity
  8
0
  6
Continuous
 62
     0
370
    18
100
AcDbLine
 10
0.0
 20
0.0
 30
0.0
 11
0.0
 21
2.5
 31
0.0
  0
LINE
  5
192
330
18E
100
AcDbEntity
  8
0
  6
Continuous
 62
     0
370
    18
100
AcDbLine
 10
0.0
 20
0.0
 30
0.0
 11
-2.5
 21
0.0
 31
0.0
  0
LINE
  5
193
330
18E
100
AcDbEntity
  8
0
  6
Continuous
 62
     0
370
    18
100
AcDbLine
 10
0.0
 20
0.0
 30
0.0
 11
0.0
 21
-2.5
 31
0.0
  0
LINE
  5
194
330
18E
100
AcDbEntity
  8
0
  6
Continuous
 62
     0
370
    18
100
AcDbLine
 10
0.0
 20
0.0
 30
0.0
 11
2.5
 21
0.0
 31
0.0
  0
LINE
  5
195
330
18E
100
AcDbEntity
  8
0
  6
Continuous
 62
     0
370
    18
100
AcDbLine
 10
0.0
 20
5.0
 30
0.0
 11
0.0
 21
68.0
 31
0.0
  0
LINE
  5
196
330
18E
100
AcDbEntity
  8
0
  6
Continuous
 62
     0
370
    18
100
AcDbLine
 10
-5.0
 20
0.0
 30
0.0
 11
-68.0
 21
0.0
 31
0.0
  0
LINE
  5
197
330
18E
100
AcDbEntity
  8
0
  6
Continuous
 62
     0
370
    18
100
AcDbLine
 10
0.0
 20
-5.0
 30
0.0
 11
0.0
 21
-68.0
 31
0.0
  0
LINE
  5
198
330
18E
100
AcDbEntity
  8
0
  6
Continuous
 62
     0
370
    18
100
AcDbLine
 10
5.0
 20
0.0
 30
0.0
 11
68.0
 21
0.0
 31
0.0
  0
ENDBLK
  5
190
330
18E
100
AcDbEntity
  8
0
100
AcDbBlockEnd
  0
BLOCK
  5
205
330
204
100
AcDbEntity
  8
0
100
AcDbBlockBegin
  2
_D
 70
     0
 10
0.0
 20
0.0
 30
0.0
  3
_D
  1

  0
SOLID
  5
207
330
204
100
AcDbEntity
  8
0
  6
Continuous
 62
     7
370
    18
100
AcDbTrace
 10
79.2991513824
 20
201.1759020995
 30
0.0
 11
81.7991513824
 21
200.8009020995
 31
0.0
 12
81.7991513824
 22
201.5509020995
 32
0.0
 13
81.7991513824
 23
201.5509020995
 33
0.0
  0
SOLID
  5
208
330
204
100
AcDbEntity
  8
0
  6
Continuous
 62
     7
370
    18
100
AcDbTrace
 10
187.354940712
 20
201.1759020995
 30
0.0
 11
184.854940712
 21
201.5509020995
 31
0.0
 12
184.854940712
 22
200.8009020995
 32
0.0
 13
184.854940712
 23
200.8009020995
 33
0.0
  0
LINE
  5
209
330
204
100
AcDbEntity
  8
0
  6
Continuous
 62
     7
370
     0
100
AcDbLine
 10
79.2991513824
 20
211.9630337873
 30
0.0
 11
79.2991513824
 21
200.1759020995
 31
0.0
  0
LINE
  5
20A
330
204
100
AcDbEntity
  8
0
  6
Continuous
 62
     7
370
     0
100
AcDbLine
 10
187.354940712
 20
211.9630337873
 30
0.0
 11
187.354940712
 21
200.1759020995
 31
0.0
  0
LINE
  5
20B
330
204
100
AcDbEntity
  8
0
  6
Continuous
 62
     7
370
     0
100
AcDbLine
 10
79.2991513824
 20
201.1759020995
 30
0.0
 11
187.354940712
 21
201.1759020995
 31
0.0
  0
MTEXT
  5
20C
330
204
100
AcDbEntity
  8
0
  6
Continuous
 62
     7
370
    18
100
AcDbMText
 10
128.5137116082
 20
204.586560669
 30
0.0
 40
2.6458333333
 41
0.0
 71
     1
 72
     1
  1
%%c
  7
SLDTEXTSTYLE0
 73
     1
 44
1.0
  0
MTEXT
  5
20D
330
204
100
AcDbEntity
  8
0
  6
Continuous
 62
     7
370
    18
100
AcDbMText
 10
132.2607506171
 20
204.586560669
 30
0.0
 40
2.6458333333
 41
0.0
 71
     1
 72
     1
  1
108
  7
SLDTEXTSTYLE0
 73
     1
 44
1.0
  0
ENDBLK
  5
206
330
204
100
AcDbEntity
  8
0
100
AcDbBlockEnd
  0
BLOCK
  5
210
330
20F
100
AcDbEntity
  8
0
100
AcDbBlockBegin
  2
_D_1
 70
     0
 10
0.0
 20
0.0
 30
0.0
  3
_D_1
  1

  0
SOLID
  5
212
330
20F
100
AcDbEntity
  8
0
  6
Continuous
 62
     7
370
    18
100
AcDbTrace
 10
78.8270460472
 20
236.6242300734
 30
0.0
 11
81.3270460472
 21
236.2492300734
 31
0.0
 12
81.3270460472
 22
236.9992300734
 32
0.0
 13
81.3270460472
 23
236.9992300734
 33
0.0
  0
SOLID
  5
213
330
20F
100
AcDbEntity
  8
0
  6
Continuous
 62
     7
370
    18
100
AcDbTrace
 10
187.8270460472
 20
236.6242300734
 30
0.0
 11
185.3270460472
 21
236.9992300734
 31
0.0
 12
185.3270460472
 22
236.2492300734
 32
0.0
 13
185.3270460472
 23
236.2492300734
 33
0.0
  0
LINE
  5
214
330
20F
100
AcDbEntity
  8
0
  6
Continuous
 62
     7
370
     0
100
AcDbLine
 10
78.8270460472
 20
229.1742300734
 30
0.0
 11
78.8270460472
 21
237.6242300734
 31
0.0
  0
LINE
  5
215
330
20F
100
AcDbEntity
  8
0
  6
Continuous
 62
     7
370
     0
100
AcDbLine
 10
187.8270460472
 20
229.1742300734
 30
0.0
 11
187.8270460472
 21
237.6242300734
 31
0.0
  0
LINE
  5
216
330
20F
100
AcDbEntity
  8
0
  6
Continuous
 62
     7
370
     0
100
AcDbLine
 10
78.8270460472
 20
236.6242300734
 30
0.0
 11
187.8270460472
 21
236.6242300734
 31
0.0
  0
MTEXT
  5
217
330
20F
100
AcDbEntity
  8
0
  6
Continuous
 62
     7
370
    18
100
AcDbMText
 10
128.5137116082
 20
240.0348886428
 30
0.0
 40
2.6458333333
 41
0.0
 71
     1
 72
     1
  1
%%c
  7
SLDTEXTSTYLE0
 73
     1
 44
1.0
  0
MTEXT
  5
218
330
20F
100
AcDbEntity
  8
0
  6
Continuous
 62
     7
370
    18
100
AcDbMText
 10
132.2607506171
 20
240.0348886428
 30
0.0
 40
2.6458333333
 41
0.0
 71
     1
 72
     1
  1
109
  7
SLDTEXTSTYLE0
 73
     1
 44
1.0
  0
ENDBLK
  5
211
330
20F
100
AcDbEntity
  8
0
100
AcDbBlockEnd
  0
BLOCK
  5
21B
330
21A
100
AcDbEntity
  8
0
100
AcDbBlockBegin
  2
_D_2
 70
     0
 10
0.0
 20
0.0
 30
0.0
  3
_D_2
  1

  0
SOLID
  5
21D
330
21A
100
AcDbEntity
  8
0
  6
Continuous
 62
     7
370
    18
100
AcDbTrace
 10
68.0050629072
 20
243.6242300734
 30
0.0
 11
70.5050629072
 21
243.2492300734
 31
0.0
 12
70.5050629072
 22
243.9992300734
 32
0.0
 13
70.5050629072
 23
243.9992300734
 33
0.0
  0
SOLID
  5
21E
330
21A
100
AcDbEntity
  8
0
  6
Continuous
 62
     7
370
    18
100
AcDbTrace
 10
198.6490291872
 20
243.6242300734
 30
0.0
 11
196.1490291872
 21
243.9992300734
 31
0.0
 12
196.1490291872
 22
243.2492300734
 32
0.0
 13
196.1490291872
 23
243.2492300734
 33
0.0
  0
LINE
  5
21F
330
21A
100
AcDbEntity
  8
0
  6
Continuous
 62
     7
370
     0
100
AcDbLine
 10
68.0050629072
 20
229.9242300734
 30
0.0
 11
68.0050629072
 21
244.6242300734
 31
0.0
  0
LINE
  5
220
330
21A
100
AcDbEntity
  8
0
  6
Continuous
 62
     7
370
     0
100
AcDbLine
 10
198.6490291872
 20
229.9242300734
 30
0.0
 11
198.6490291872
 21
244.6242300734
 31
0.0
  0
LINE
  5
221
330
21A
100
AcDbEntity
  8
0
  6
Continuous
 62
     7
370
     0
100
AcDbLine
 10
68.0050629072
 20
243.6242300734
 30
0.0
 11
198.6490291872
 21
243.6242300734
 31
0.0
  0
MTEXT
  5
222
330
21A
100
AcDbEntity
  8
0
  6
Continuous
 62
     7
370
    18
100
AcDbMText
 10
127.0438037917
 20
247.0348886428
 30
0.0
 40
2.6458333333
 41
0.0
 71
     1
 72
     1
  1
%%c
  7
SLDTEXTSTYLE0
 73
     1
 44
1.0
  0
MTEXT
  5
223
330
21A
100
AcDbEntity
  8
0
  6
Continuous
 62
     7
370
    18
100
AcDbMText
 10
130.7908428006
 20
247.0348886428
 30
0.0
 40
2.6458333333
 41
0.0
 71
     1
 72
     1
  1
130.6
  7
SLDTEXTSTYLE0
 73
     1
 44
1.0
  0
ENDBLK
  5
21C
330
21A
100
AcDbEntity
  8
0
100
AcDbBlockEnd
  0
BLOCK
  5
226
330
225
100
AcDbEntity
  8
0
100
AcDbBlockBegin
  2
_D_3
 70
     0
 10
0.0
 20
0.0
 30
0.0
  3
_D_3
  1

  0
SOLID
  5
228
330
225
100
AcDbEntity
  8
0
  6
Continuous
 62
     7
370
    18
100
AcDbTrace
 10
67.8270460472
 20
194.1759020995
 30
0.0
 11
70.3270460472
 21
193.8009020995
 31
0.0
 12
70.3270460472
 22
194.5509020995
 32
0.0
 13
70.3270460472
 23
194.5509020995
 33
0.0
  0
SOLID
  5
229
330
225
100
AcDbEntity
  8
0
  6
Continuous
 62
     7
370
    18
100
AcDbTrace
 10
198.8270460472
 20
194.1759020995
 30
0.0
 11
196.3270460472
 21
194.5509020995
 31
0.0
 12
196.3270460472
 22
193.8009020995
 32
0.0
 13
196.3270460472
 23
193.8009020995
 33
0.0
  0
LINE
  5
22A
330
225
100
AcDbEntity
  8
0
  6
Continuous
 62
     7
370
     0
100
AcDbLine
 10
67.8270460472
 20
209.2256310337
 30
0.0
 11
67.8270460472
 21
193.1759020995
 31
0.0
  0
LINE
  5
22B
330
225
100
AcDbEntity
  8
0
  6
Continuous
 62
     7
370
     0
100
AcDbLine
 10
198.8270460472
 20
209.2256310337
 30
0.0
 11
198.8270460472
 21
193.1759020995
 31
0.0
  0
LINE
  5
22C
330
225
100
AcDbEntity
  8
0
  6
Continuous
 62
     7
370
     0
100
AcDbLine
 10
67.8270460472
 20
194.1759020995
 30
0.0
 11
198.8270460472
 21
194.1759020995
 31
0.0
  0
MTEXT
  5
22D
330
225
100
AcDbEntity
  8
0
  6
Continuous
 62
     7
370
    18
100
AcDbMText
 10
128.5137116082
 20
197.586560669
 30
0.0
 40
2.6458333333
 41
0.0
 71
     1
 72
     1
  1
%%c
  7
SLDTEXTSTYLE0
 73
     1
 44
1.0
  0
MTEXT
  5
22E
330
225
100
AcDbEntity
  8
0
  6
Continuous
 62
     7
370
    18
100
AcDbMText
 10
132.2607506171
 20
197.586560669
 30
0.0
 40
2.6458333333
 41
0.0
 71
     1
 72
     1
  1
131
  7
SLDTEXTSTYLE0
 73
     1
 44
1.0
  0
ENDBLK
  5
227
330
225
100
AcDbEntity
  8
0
100
AcDbBlockEnd
  0
BLOCK
  5
231
330
230
100
AcDbEntity
  8
0
100
AcDbBlockBegin
  2
_D_4
 70
     0
 10
0.0
 20
0.0
 30
0.0
  3
_D_4
  1

  0
SOLID
  5
233
330
230
100
AcDbEntity
  8
0
  6
Continuous
 62
     7
370
    18
100
AcDbTrace
 10
205.8270460472
 20
229.6242300734
 30
0.0
 11
205.4520460472
 21
227.1242300734
 31
0.0
 12
206.2020460472
 22
227.1242300734
 32
0.0
 13
206.2020460472
 23
227.1242300734
 33
0.0
  0
SOLID
  5
234
330
230
100
AcDbEntity
  8
0
  6
Continuous
 62
     7
370
    18
100
AcDbTrace
 10
205.8270460472
 20
208.1759020995
 30
0.0
 11
206.2020460472
 21
210.6759020995
 31
0.0
 12
205.4520460472
 22
210.6759020995
 32
0.0
 13
205.4520460472
 23
210.6759020995
 33
0.0
  0
LINE
  5
235
330
230
100
AcDbEntity
  8
0
  6
Continuous
 62
     7
370
     0
100
AcDbLine
 10
198.9490291872
 20
229.6242300734
 30
0.0
 11
206.8270460472
 21
229.6242300734
 31
0.0
  0
LINE
  5
236
330
230
100
AcDbEntity
  8
0
  6
Continuous
 62
     7
370
     0
100
AcDbLine
 10
196.2108050126
 20
208.1759020995
 30
0.0
 11
206.8270460472
 21
208.1759020995
 31
0.0
  0
LINE
  5
237
330
230
100
AcDbEntity
  8
0
  6
Continuous
 62
     7
370
     0
100
AcDbLine
 10
205.8270460472
 20
229.6242300734
 30
0.0
 11
205.8270460472
 21
208.1759020995
 31
0.0
  0
MTEXT
  5
238
330
230
100
AcDbEntity
  8
0
  6
Continuous
 62
     7
370
    18
100
AcDbMText
 10
202.4163874778
 20
215.4702818798
 30
0.0
 40
2.6458333333
 41
0.0
 71
     1
 72
     1
  1
21.4
  7
SLDTEXTSTYLE0
 11
-7.044195017643634E-15
 21
1.0
 31
0.0
 73
     1
 44
1.0
  0
ENDBLK
  5
232
330
230
100
AcDbEntity
  8
0
100
AcDbBlockEnd
  0
ENDSEC
  0
SECTION
  2
ENTITIES
  0
LINE
  5
E9
330
1F
100
AcDbEntity
  8
0
  6
CENTERX2
 62
     7
370
    18
100
AcDbLine
 10
352.6174545849
 20
46.9080238789
 30
0.0
 11
352.6174545849
 21
39.4621586124
 31
0.0
  0
LINE
  5
EA
330
1F
100
AcDbEntity
  8
0
  6
Continuous
 62
     7
370
    18
100
AcDbLine
 10
357.7661698132
 20
46.3720107039
 30
0.0
 11
357.7661698132
 21
39.9353173413
 31
0.0
  0
LINE
  5
EB
330
1F
100
AcDbEntity
  8
0
  6
Continuous
 62
     7
370
    18
100
AcDbLine
 10
364.6059427486
 20
44.7376225767
 30
0.0
 11
364.6059427486
 21
41.5697054685
 31
0.0
  0
LINE
  5
EC
330
1F
100
AcDbEntity
  8
0
  6
Continuous
 62
     7
370
    18
100
AcDbLine
 10
364.6059427486
 20
44.7376225767
 30
0.0
 11
357.7661698132
 21
46.3720107039
 31
0.0
  0
LINE
  5
ED
330
1F
100
AcDbEntity
  8
0
  6
Continuous
 62
     7
370
    18
100
AcDbLine
 10
15.0
 20
198.5
 30
0.0
 11
20.0
 21
198.5
 31
0.0
  0
LINE
  5
EE
330
1F
100
AcDbEntity
  8
0
  6
Continuous
 62
     7
370
    18
100
AcDbLine
 10
12.0
 20
148.5
 30
0.0
 11
0.0
 21
148.5
 31
0.0
  0
LINE
  5
EF
330
1F
100
AcDbEntity
  8
0
  6
Continuous
 62
     7
370
    18
100
AcDbLine
 10
357.7661698132
 20
39.9353173413
 30
0.0
 11
364.6059427486
 21
41.5697054685
 31
0.0
  0
LINE
  5
F0
330
1F
100
AcDbEntity
  8
0
  6
CENTERX2
 62
     7
370
    18
100
AcDbLine
 10
348.6240467841
 20
43.1536640226
 30
0.0
 11
356.6108623857
 21
43.1536640226
 31
0.0
  0
LINE
  5
F1
330
1F
100
AcDbEntity
  8
0
  6
CENTERX2
 62
     7
370
    18
100
AcDbLine
 10
357.1289238876
 20
43.1536640226
 30
0.0
 11
365.6255362296
 21
43.1536640226
 31
0.0
  0
LINE
  5
F2
330
1F
100
AcDbEntity
  8
0
  6
Continuous
 62
     7
370
    18
100
AcDbLine
 10
0.0
 20
0.0
 30
0.0
 11
420.0
 21
0.0
 31
0.0
  0
LINE
  5
F3
330
1F
100
AcDbEntity
  8
0
  6
Continuous
 62
     7
370
    18
100
AcDbLine
 10
0.0
 20
0.0
 30
0.0
 11
0.0
 21
297.0
 31
0.0
  0
LINE
  5
F4
330
1F
100
AcDbEntity
  8
0
  6
Continuous
 62
     7
370
    18
100
AcDbLine
 10
0.0
 20
297.0
 30
0.0
 11
420.0
 21
297.0
 31
0.0
  0
LINE
  5
F5
330
1F
100
AcDbEntity
  8
0
  6
Continuous
 62
     7
370
    18
100
AcDbLine
 10
420.0
 20
0.0
 30
0.0
 11
420.0
 21
297.0
 31
0.0
  0
LINE
  5
F6
330
1F
100
AcDbEntity
  8
0
  6
Continuous
 62
     7
370
    25
100
AcDbLine
 10
228.0
 20
35.0
 30
0.0
 11
410.0
 21
35.0
 31
0.0
  0
LINE
  5
F7
330
1F
100
AcDbEntity
  8
0
  6
Continuous
 62
     7
370
    18
100
AcDbLine
 10
410.0
 20
198.5
 30
0.0
 11
415.0
 21
198.5
 31
0.0
  0
LINE
  5
F8
330
1F
100
AcDbEntity
  8
0
  6
Continuous
 62
     7
370
    18
100
AcDbLine
 10
15.0
 20
148.5
 30
0.0
 11
20.0
 21
148.5
 31
0.0
  0
LINE
  5
F9
330
1F
100
AcDbEntity
  8
0
  6
Continuous
 62
     7
370
    18
100
AcDbLine
 10
228.0
 20
40.0
 30
0.0
 11
296.6
 21
40.0
 31
0.0
  0
LINE
  5
FA
330
1F
100
AcDbEntity
  8
0
  6
Continuous
 62
     7
370
    18
100
AcDbLine
 10
15.0
 20
248.5
 30
0.0
 11
20.0
 21
248.5
 31
0.0
  0
LINE
  5
FB
330
1F
100
AcDbEntity
  8
0
  6
Continuous
 62
     7
370
    35
100
AcDbLine
 10
20.0
 20
287.0
 30
0.0
 11
20.0
 21
10.0
 31
0.0
  0
LINE
  5
FC
330
1F
100
AcDbEntity
  8
0
  6
Continuous
 62
     7
370
    35
100
AcDbLine
 10
410.0
 20
287.0
 30
0.0
 11
20.0
 21
287.0
 31
0.0
  0
LINE
  5
FD
330
1F
100
AcDbEntity
  8
0
  6
Continuous
 62
     7
370
    35
100
AcDbLine
 10
410.0
 20
5.0
 30
0.0
 11
410.0
 21
287.0
 31
0.0
  0
LINE
  5
FE
330
1F
100
AcDbEntity
  8
0
  6
Continuous
 62
     7
370
    35
100
AcDbLine
 10
20.0
 20
10.0
 30
0.0
 11
415.0
 21
10.0
 31
0.0
  0
LINE
  5
FF
330
1F
100
AcDbEntity
  8
0
  6
Continuous
 62
     7
370
    18
100
AcDbLine
 10
410.0
 20
148.5
 30
0.0
 11
415.0
 21
148.5
 31
0.0
  0
LINE
  5
100
330
1F
100
AcDbEntity
  8
0
  6
Continuous
 62
     7
370
    18
100
AcDbLine
 10
228.0
 20
50.0
 30
0.0
 11
296.6
 21
50.0
 31
0.0
  0
LINE
  5
101
330
1F
100
AcDbEntity
  8
0
  6
Continuous
 62
     7
370
    18
100
AcDbLine
 10
15.0
 20
98.5
 30
0.0
 11
20.0
 21
98.5
 31
0.0
  0
LINE
  5
102
330
1F
100
AcDbEntity
  8
0
  6
Continuous
 62
     7
370
    18
100
AcDbLine
 10
296.6
 20
45.0
 30
0.0
 11
228.0
 21
45.0
 31
0.0
  0
LINE
  5
103
330
1F
100
AcDbEntity
  8
0
  6
Continuous
 62
     7
370
    18
100
AcDbLine
 10
65.0
 20
292.0
 30
0.0
 11
65.0
 21
287.0
 31
0.0
  0
LINE
  5
104
330
1F
100
AcDbEntity
  8
0
  6
Continuous
 62
     7
370
    18
100
AcDbLine
 10
230.0
 20
292.0
 30
0.0
 11
230.0
 21
297.0
 31
0.0
  0
LINE
  5
105
330
1F
100
AcDbEntity
  8
0
  6
Continuous
 62
     7
370
    25
100
AcDbLine
 10
296.6
 20
55.0
 30
0.0
 11
296.6
 21
35.0
 31
0.0
  0
LINE
  5
106
330
1F
100
AcDbEntity
  8
0
  6
Continuous
 62
     7
370
    18
100
AcDbLine
 10
410.0
 20
98.5
 30
0.0
 11
415.0
 21
98.5
 31
0.0
  0
LINE
  5
107
330
1F
100
AcDbEntity
  8
0
100
AcDbLine
 10
230.0
 20
5.0
 30
0.0
 11
230.0
 21
0.0
 31
0.0
  0
LINE
  5
108
330
1F
100
AcDbEntity
  8
0
  6
Continuous
 62
     7
370
    18
100
AcDbLine
 10
125.0
 20
292.0
 30
0.0
 11
125.0
 21
297.0
 31
0.0
  0
LINE
  5
109
330
1F
100
AcDbEntity
  8
0
  6
Continuous
 62
     7
370
    18
100
AcDbLine
 10
125.0
 20
5.0
 30
0.0
 11
125.0
 21
0.0
 31
0.0
  0
LINE
  5
10A
330
1F
100
AcDbEntity
  8
0
  6
Continuous
 62
     7
370
    25
100
AcDbLine
 10
410.0
 20
55.0
 30
0.0
 11
228.0
 21
55.0
 31
0.0
  0
LINE
  5
10B
330
1F
100
AcDbEntity
  8
0
  6
Continuous
 62
     7
370
    18
100
AcDbLine
 10
228.0
 20
55.0
 30
0.0
 11
410.0
 21
55.0
 31
0.0
  0
LINE
  5
10C
330
1F
100
AcDbEntity
  8
0
  6
Continuous
 62
     7
370
    18
100
AcDbLine
 10
410.0
 20
55.0
 30
0.0
 11
228.0
 21
55.0
 31
0.0
  0
LINE
  5
10D
330
1F
100
AcDbEntity
  8
0
  6
Continuous
 62
     7
370
    18
100
AcDbLine
 10
268.0
 20
76.5
 30
0.0
 11
268.0
 21
55.0
 31
0.0
  0
LINE
  5
10E
330
1F
100
AcDbEntity
  8
0
  6
Continuous
 62
     7
370
    18
100
AcDbLine
 10
271.6
 20
55.0
 30
0.0
 11
271.6
 21
40.0
 31
0.0
  0
LINE
  5
10F
330
1F
100
AcDbEntity
  8
0
  6
Continuous
 62
     7
370
    18
100
AcDbLine
 10
247.0
 20
55.0
 30
0.0
 11
247.0
 21
35.0
 31
0.0
  0
LINE
  5
110
330
1F
100
AcDbEntity
  8
0
  6
Continuous
 62
     7
370
    35
100
AcDbLine
 10
228.0
 20
76.5
 30
0.0
 11
228.0
 21
10.0
 31
0.0
  0
LINE
  5
111
330
1F
100
AcDbEntity
  8
0
  6
Continuous
 62
     7
370
    18
100
AcDbLine
 10
15.0
 20
292.0
 30
0.0
 11
415.0
 21
292.0
 31
0.0
  0
LINE
  5
112
330
1F
100
AcDbEntity
  8
0
  6
Continuous
 62
     7
370
    18
100
AcDbLine
 10
228.0
 20
65.75
 30
0.0
 11
310.0
 21
65.75
 31
0.0
  0
LINE
  5
113
330
1F
100
AcDbEntity
  8
0
  6
Continuous
 62
     7
370
    35
100
AcDbLine
 10
228.0
 20
76.5
 30
0.0
 11
410.0
 21
76.5
 31
0.0
  0
LINE
  5
114
330
1F
100
AcDbEntity
  8
0
  6
Continuous
 62
     7
370
    18
100
AcDbLine
 10
15.0
 20
48.5
 30
0.0
 11
20.0
 21
48.5
 31
0.0
  0
LINE
  5
115
330
1F
100
AcDbEntity
  8
0
  6
Continuous
 62
     7
370
    18
100
AcDbLine
 10
410.0
 20
48.5
 30
0.0
 11
415.0
 21
48.5
 31
0.0
  0
LINE
  5
116
330
1F
100
AcDbEntity
  8
0
  6
Continuous
 62
     7
370
    18
100
AcDbLine
 10
332.6610845472
 20
20.0
 30
0.0
 11
332.6610845472
 21
10.0
 31
0.0
  0
LINE
  5
117
330
1F
100
AcDbEntity
  8
0
  6
Continuous
 62
     7
370
    18
100
AcDbLine
 10
410.0
 20
248.5
 30
0.0
 11
415.0
 21
248.5
 31
0.0
  0
LINE
  5
118
330
1F
100
AcDbEntity
  8
0
  6
Continuous
 62
     7
370
    18
100
AcDbLine
 10
65.0
 20
10.0
 30
0.0
 11
65.0
 21
5.0
 31
0.0
  0
LINE
  5
119
330
1F
100
AcDbEntity
  8
0
  6
Continuous
 62
     7
370
    18
100
AcDbLine
 10
115.0
 20
10.0
 30
0.0
 11
115.0
 21
5.0
 31
0.0
  0
LINE
  5
11A
330
1F
100
AcDbEntity
  8
0
  6
Continuous
 62
     7
370
    18
100
AcDbLine
 10
115.0
 20
292.0
 30
0.0
 11
115.0
 21
287.0
 31
0.0
  0
LINE
  5
11B
330
1F
100
AcDbEntity
  8
0
  6
Continuous
 62
     7
370
    18
100
AcDbLine
 10
165.0
 20
10.0
 30
0.0
 11
165.0
 21
5.0
 31
0.0
  0
LINE
  5
11C
330
1F
100
AcDbEntity
  8
0
  6
Continuous
 62
     7
370
    18
100
AcDbLine
 10
165.0
 20
292.0
 30
0.0
 11
165.0
 21
287.0
 31
0.0
  0
LINE
  5
11D
330
1F
100
AcDbEntity
  8
0
  6
Continuous
 62
     7
370
    18
100
AcDbLine
 10
215.0
 20
10.0
 30
0.0
 11
215.0
 21
5.0
 31
0.0
  0
LINE
  5
11E
330
1F
100
AcDbEntity
  8
0
  6
Continuous
 62
     7
370
    18
100
AcDbLine
 10
215.0
 20
292.0
 30
0.0
 11
215.0
 21
287.0
 31
0.0
  0
LINE
  5
11F
330
1F
100
AcDbEntity
  8
0
  6
Continuous
 62
     7
370
    18
100
AcDbLine
 10
265.0
 20
10.0
 30
0.0
 11
265.0
 21
5.0
 31
0.0
  0
LINE
  5
120
330
1F
100
AcDbEntity
  8
0
  6
Continuous
 62
     7
370
    18
100
AcDbLine
 10
265.0
 20
292.0
 30
0.0
 11
265.0
 21
287.0
 31
0.0
  0
LINE
  5
121
330
1F
100
AcDbEntity
  8
0
  6
Continuous
 62
     7
370
    18
100
AcDbLine
 10
347.6610845472
 20
20.0
 30
0.0
 11
347.6610845472
 21
10.0
 31
0.0
  0
LINE
  5
122
330
1F
100
AcDbEntity
  8
0
  6
Continuous
 62
     7
370
    18
100
AcDbLine
 10
362.6610845472
 20
20.0
 30
0.0
 11
362.6610845472
 21
10.0
 31
0.0
  0
LINE
  5
123
330
1F
100
AcDbEntity
  8
0
  6
Continuous
 62
     7
370
    25
100
AcDbLine
 10
327.6610845472
 20
10.0
 30
0.0
 11
327.6610845472
 21
55.0
 31
0.0
  0
LINE
  5
124
330
1F
100
AcDbEntity
  8
0
  6
Continuous
 62
     7
370
    18
100
AcDbLine
 10
20.0
 20
292.0
 30
0.0
 11
20.0
 21
297.0
 31
0.0
  0
LINE
  5
125
330
1F
100
AcDbEntity
  8
0
  6
Continuous
 62
     7
370
    18
100
AcDbLine
 10
20.0
 20
5.0
 30
0.0
 11
20.0
 21
0.0
 31
0.0
  0
LINE
  5
126
330
1F
100
AcDbEntity
  8
0
  6
Continuous
 62
     7
370
    18
100
AcDbLine
 10
315.0
 20
10.0
 30
0.0
 11
315.0
 21
5.0
 31
0.0
  0
LINE
  5
127
330
1F
100
AcDbEntity
  8
0
  6
Continuous
 62
     7
370
    18
100
AcDbLine
 10
315.0
 20
292.0
 30
0.0
 11
315.0
 21
287.0
 31
0.0
  0
LINE
  5
128
330
1F
100
AcDbEntity
  8
0
  6
Continuous
 62
     7
370
    18
100
AcDbLine
 10
365.0
 20
10.0
 30
0.0
 11
365.0
 21
5.0
 31
0.0
  0
LINE
  5
129
330
1F
100
AcDbEntity
  8
0
  6
Continuous
 62
     7
370
    18
100
AcDbLine
 10
365.0
 20
292.0
 30
0.0
 11
365.0
 21
287.0
 31
0.0
  0
LINE
  5
12A
330
1F
100
AcDbEntity
  8
0
  6
Continuous
 62
     7
370
    18
100
AcDbLine
 10
15.0
 20
292.0
 30
0.0
 11
15.0
 21
5.0
 31
0.0
  0
LINE
  5
12B
330
1F
100
AcDbEntity
  8
0
  6
Continuous
 62
     7
370
    18
100
AcDbLine
 10
15.0
 20
5.0
 30
0.0
 11
415.0
 21
5.0
 31
0.0
  0
LINE
  5
12C
330
1F
100
AcDbEntity
  8
0
  6
Continuous
 62
     7
370
    18
100
AcDbLine
 10
415.0
 20
292.0
 30
0.0
 11
415.0
 21
5.0
 31
0.0
  0
LINE
  5
12D
330
1F
100
AcDbEntity
  8
0
  6
Continuous
 62
     7
370
    18
100
AcDbLine
 10
347.6610845472
 20
44.213444
 30
0.0
 11
327.6610845472
 21
44.213444
 31
0.0
  0
LINE
  5
12E
330
1F
100
AcDbEntity
  8
0
  6
Continuous
 62
     7
370
    18
100
AcDbLine
 10
347.6610845472
 20
35.0
 30
0.0
 11
347.6610845472
 21
55.0
 31
0.0
  0
LINE
  5
12F
330
1F
100
AcDbEntity
  8
0
  6
Continuous
 62
     7
370
    18
100
AcDbLine
 10
370.057188
 20
55.012032
 30
0.0
 11
370.057188
 21
35.0
 31
0.0
  0
LINE
  5
130
330
1F
100
AcDbEntity
  8
0
  6
Continuous
 62
     7
370
    18
100
AcDbLine
 10
398.0
 20
35.0
 30
0.0
 11
398.0
 21
20.0
 31
0.0
  0
LINE
  5
131
330
1F
100
AcDbEntity
  8
0
  6
Continuous
 62
     7
370
    18
100
AcDbLine
 10
410.0
 20
15.0
 30
0.0
 11
327.6610845472
 21
15.0
 31
0.0
  0
LINE
  5
132
330
1F
100
AcDbEntity
  8
0
  6
Continuous
 62
     7
370
    18
100
AcDbLine
 10
327.6610845472
 20
20.0
 30
0.0
 11
410.0
 21
20.0
 31
0.0
  0
LINE
  5
133
330
1F
100
AcDbEntity
  8
0
  6
Continuous
 62
     7
370
    18
100
AcDbLine
 10
341.485486
 20
20.0
 30
0.0
 11
341.485486
 21
27.564675
 31
0.0
  0
LINE
  5
134
330
1F
100
AcDbEntity
  8
0
  6
Continuous
 62
     7
370
    25
100
AcDbLine
 10
310.0
 20
76.5
 30
0.0
 11
310.0
 21
55.0
 31
0.0
  0
CIRCLE
  5
135
330
1F
100
AcDbEntity
  8
0
  6
Continuous
 62
     7
370
    18
100
AcDbCircle
 10
11.0
 20
108.5
 30
0.0
 40
2.750000000000001
  0
CIRCLE
  5
136
330
1F
100
AcDbEntity
  8
0
  6
Continuous
 62
     7
370
    18
100
AcDbCircle
 10
11.0
 20
188.5
 30
0.0
 40
2.750000000000001
  0
CIRCLE
  5
137
330
1F
100
AcDbEntity
  8
0
  6
Continuous
 62
     7
370
    18
100
AcDbCircle
 10
352.6174545849
 20
43.1536640226
 30
0.0
 40
3.218346681300138
  0
CIRCLE
  5
138
330
1F
100
AcDbEntity
  8
0
  6
Continuous
 62
     7
370
    18
100
AcDbCircle
 10
352.6174545849
 20
43.1536640226
 30
0.0
 40
1.583958554121555
  0
INSERT
  5
139
330
1F
100
AcDbEntity
  8
0
  6
Continuous
 62
     7
100
AcDbBlockReference
  2
ACO-Logo
 10
314.3510726297
 20
57.6366106772
 30
0.0
  0
POINT
  5
13A
330
1F
100
AcDbEntity
  8
0
100
AcDbPoint
 10
0.0
 20
0.0
 30
0.0
  0
POINT
  5
13B
330
1F
100
AcDbEntity
  8
0
100
AcDbPoint
 10
410.0
 20
10.0
 30
0.0
  0
MTEXT
  5
13C
330
1F
100
AcDbEntity
  8
0
  6
Continuous
 62
     7
370
    18
100
AcDbMText
 10
17.7359443114
 20
124.8017866468
 30
0.0
 40
2.0
 41
0.0
 71
     2
 72
     1
  1
D
  7
SLDTEXTSTYLE0
 73
     1
 44
1.0
  0
MTEXT
  5
13D
330
1F
100
AcDbEntity
  8
0
  6
Continuous
 62
     7
370
    18
100
AcDbMText
 10
17.6274822413
 20
174.7261854936
 30
0.0
 40
2.0
 41
0.0
 71
     2
 72
     1
  1
C
  7
SLDTEXTSTYLE0
 73
     1
 44
1.0
  0
MTEXT
  5
13E
330
1F
100
AcDbEntity
  8
0
  6
Continuous
 62
     7
370
    18
100
AcDbMText
 10
17.5516905072
 20
224.4926420442
 30
0.0
 40
2.0
 41
0.0
 71
     2
 72
     1
  1
B
  7
SLDTEXTSTYLE0
 73
     1
 44
1.0
  0
MTEXT
  5
13F
330
1F
100
AcDbEntity
  8
0
  6
Continuous
 62
     7
370
    18
100
AcDbMText
 10
290.0344258799
 20
290.5428789914
 30
0.0
 40
2.0
 41
0.0
 71
     2
 72
     1
  1
6
  7
SLDTEXTSTYLE0
 73
     1
 44
1.0
  0
MTEXT
  5
140
330
1F
100
AcDbEntity
  8
0
  6
Continuous
 62
     7
370
    18
100
AcDbMText
 10
240.0417859812
 20
290.6369260235
 30
0.0
 40
2.0
 41
0.0
 71
     2
 72
     1
  1
5
  7
SLDTEXTSTYLE0
 73
     1
 44
1.0
  0
MTEXT
  5
141
330
1F
100
AcDbEntity
  8
0
  6
Continuous
 62
     7
370
    18
100
AcDbMText
 10
190.0300404524
 20
290.6343268032
 30
0.0
 40
2.0
 41
0.0
 71
     2
 72
     1
  1
4
  7
SLDTEXTSTYLE0
 73
     1
 44
1.0
  0
MTEXT
  5
142
330
1F
100
AcDbEntity
  8
0
  6
Continuous
 62
     7
370
    18
100
AcDbMText
 10
140.0165868337
 20
290.6378887952
 30
0.0
 40
2.0
 41
0.0
 71
     2
 72
     1
  1
3
  7
SLDTEXTSTYLE0
 73
     1
 44
1.0
  0
MTEXT
  5
143
330
1F
100
AcDbEntity
  8
0
  6
Continuous
 62
     7
370
    18
100
AcDbMText
 10
90.033223
 20
290.5566702875
 30
0.0
 40
2.0
 41
0.0
 71
     2
 72
     1
  1
2
  7
SLDTEXTSTYLE0
 73
     1
 44
1.0
  0
MTEXT
  5
144
330
1F
100
AcDbEntity
  8
0
  6
Continuous
 62
     7
370
    18
100
AcDbMText
 10
40.0509551097
 20
290.5530165805
 30
0.0
 40
2.0
 41
0.0
 71
     2
 72
     1
  1
1
  7
SLDTEXTSTYLE0
 73
     1
 44
1.0
  0
MTEXT
  5
145
330
1F
100
AcDbEntity
  8
0
  6
Continuous
 62
     7
370
    18
100
AcDbMText
 10
17.5609786315
 20
271.2966048816
 30
0.0
 40
2.0
 41
0.0
 71
     2
 72
     1
  1
A
  7
SLDTEXTSTYLE0
 73
     1
 44
1.0
  0
MTEXT
  5
146
330
1F
100
AcDbEntity
  8
0
  6
Continuous
 62
     7
370
    18
100
AcDbMText
 10
89.9333968896
 20
8.5904490253
 30
0.0
 40
2.0
 41
0.0
 71
     2
 72
     1
  1
2
  7
SLDTEXTSTYLE0
 73
     1
 44
1.0
  0
MTEXT
  5
147
330
1F
100
AcDbEntity
  8
0
  6
Continuous
 62
     7
370
    18
100
AcDbMText
 10
39.9009486579
 20
8.6623118453
 30
0.0
 40
2.0
 41
0.0
 71
     2
 72
     1
  1
1
  7
SLDTEXTSTYLE0
 73
     1
 44
1.0
  0
MTEXT
  5
148
330
1F
100
AcDbEntity
  8
0
  6
Continuous
 62
     7
370
    18
100
AcDbMText
 10
190.0227230239
 20
8.7073169286
 30
0.0
 40
2.0
 41
0.0
 71
     2
 72
     1
  1
4
  7
SLDTEXTSTYLE0
 73
     1
 44
1.0
  0
MTEXT
  5
149
330
1F
100
AcDbEntity
  8
0
  6
Continuous
 62
     7
370
    18
100
AcDbMText
 10
140.0453427777
 20
8.5647154541
 30
0.0
 40
2.0
 41
0.0
 71
     2
 72
     1
  1
3
  7
SLDTEXTSTYLE0
 73
     1
 44
1.0
  0
MTEXT
  5
14A
330
1F
100
AcDbEntity
  8
0
  6
Continuous
 62
     7
370
    18
100
AcDbMText
 10
239.8749782531
 20
8.5637526825
 30
0.0
 40
2.0
 41
0.0
 71
     2
 72
     1
  1
5
  7
SLDTEXTSTYLE0
 73
     1
 44
1.0
  0
MTEXT
  5
14B
330
1F
100
AcDbEntity
  8
0
  6
Continuous
 62
     7
370
    18
100
AcDbMText
 10
412.6717254925
 20
224.51208263
 30
0.0
 40
2.0
 41
0.0
 71
     2
 72
     1
  1
B
  7
SLDTEXTSTYLE0
 73
     1
 44
1.0
  0
MTEXT
  5
14C
330
1F
100
AcDbEntity
  8
0
  6
Continuous
 62
     7
370
    18
100
AcDbMText
 10
412.5951211154
 20
271.2798202564
 30
0.0
 40
2.0
 41
0.0
 71
     2
 72
     1
  1
A
  7
SLDTEXTSTYLE0
 73
     1
 44
1.0
  0
MTEXT
  5
14D
330
1F
100
AcDbEntity
  8
0
  6
Continuous
 62
     7
370
    18
100
AcDbMText
 10
412.6491448679
 20
174.7279841048
 30
0.0
 40
2.0
 41
0.0
 71
     2
 72
     1
  1
C
  7
SLDTEXTSTYLE0
 73
     1
 44
1.0
  0
MTEXT
  5
14E
330
1F
100
AcDbEntity
  8
0
  6
Continuous
 62
     7
370
    18
100
AcDbMText
 10
340.0216466634
 20
290.5954278102
 30
0.0
 40
2.0
 41
0.0
 71
     2
 72
     1
  1
7
  7
SLDTEXTSTYLE0
 73
     1
 44
1.0
  0
MTEXT
  5
14F
330
1F
100
AcDbEntity
  8
0
  6
Continuous
 62
     7
370
    18
100
AcDbMText
 10
390.037657264
 20
290.6215496941
 30
0.0
 40
2.0
 41
0.0
 71
     2
 72
     1
  1
8
  7
SLDTEXTSTYLE0
 73
     1
 44
1.0
  0
MTEXT
  5
150
330
1F
100
AcDbEntity
  8
0
  6
Continuous
 62
     7
370
    18
100
AcDbMText
 10
17.6897935208
 20
74.7267628143
 30
0.0
 40
2.0
 41
0.0
 71
     2
 72
     1
  1
E
  7
SLDTEXTSTYLE0
 73
     1
 44
1.0
  0
MTEXT
  5
151
330
1F
100
AcDbEntity
  8
0
  6
Continuous
 62
     7
370
    18
100
AcDbMText
 10
17.5936930126
 20
27.773321616
 30
0.0
 40
2.0
 41
0.0
 71
     2
 72
     1
  1
F
  7
SLDTEXTSTYLE0
 73
     1
 44
1.0
  0
MTEXT
  5
152
330
1F
100
AcDbEntity
  8
0
  6
Continuous
 62
     7
370
    18
100
AcDbMText
 10
339.8003474583
 20
8.7205095051
 30
0.0
 40
2.0
 41
0.0
 71
     2
 72
     1
  1
7
  7
SLDTEXTSTYLE0
 73
     1
 44
1.0
  0
MTEXT
  5
153
330
1F
100
AcDbEntity
  8
0
  6
Continuous
 62
     7
370
    18
100
AcDbMText
 10
289.7886477179
 20
8.6884673623
 30
0.0
 40
2.0
 41
0.0
 71
     2
 72
     1
  1
6
  7
SLDTEXTSTYLE0
 73
     1
 44
1.0
  0
MTEXT
  5
154
330
1F
100
AcDbEntity
  8
0
  6
Continuous
 62
     7
370
    18
100
AcDbMText
 10
412.5160699095
 20
74.5096307526
 30
0.0
 40
2.0
 41
0.0
 71
     2
 72
     1
  1
E
  7
SLDTEXTSTYLE0
 73
     1
 44
1.0
  0
MTEXT
  5
155
330
1F
100
AcDbEntity
  8
0
  6
Continuous
 62
     7
370
    18
100
AcDbMText
 10
412.6234021365
 20
124.4517683275
 30
0.0
 40
2.0
 41
0.0
 71
     2
 72
     1
  1
D
  7
SLDTEXTSTYLE0
 73
     1
 44
1.0
  0
MTEXT
  5
156
330
1F
100
AcDbEntity
  8
0
  6
Continuous
 62
     7
370
    18
100
AcDbMText
 10
411.7952690469
 20
41.7857890009
 30
0.0
 40
1.8
 41
0.0
 71
     3
 72
     1
  1
Plotdatum: 07.04.2026
  7
SLDTEXTSTYLE0
 11
-3.269436733918102E-15
 21
1.0
 31
0.0
 73
     1
 44
1.0
  0
MTEXT
  5
157
330
1F
100
AcDbEntity
  8
0
  6
Continuous
 62
     7
370
    18
100
AcDbMText
 10
412.557933251
 20
8.2549718046
 30
0.0
 40
1.8
 41
0.0
 71
     2
 72
     1
  1
A3
  7
SLDTEXTSTYLE0
 73
     1
 44
1.0
  0
MTEXT
  5
158
330
1F
100
AcDbEntity
  8
0
  6
Continuous
 62
     7
370
    18
100
AcDbMText
 10
390.594604279
 20
8.3847467643
 30
0.0
 40
1.8
 41
0.0
 71
     2
 72
     1
  1
CAD-System: SolidWorks
  7
SLDTEXTSTYLE0
 73
     1
 44
1.0
  0
MTEXT
  5
159
330
1F
100
AcDbEntity
  8
0
  6
Continuous
 62
     7
370
    18
100
AcDbMText
 10
404.0541923444
 20
28.4394692021
 30
0.0
 40
5.0
 41
0.0
 71
     2
 72
     1
  1
-
  7
SLDTEXTSTYLE0
 73
     1
 44
1.0
  0
MTEXT
  5
15A
330
1F
100
AcDbEntity
  8
0
  6
Continuous
 62
     7
370
    18
100
AcDbMText
 10
249.556836311
 20
38.5581729516
 30
0.0
 40
2.0
 41
0.0
 71
     1
 72
     1
  1
Freigegeben
  7
SLDTEXTSTYLE0
 73
     1
 44
1.0
  0
MTEXT
  5
15B
330
1F
100
AcDbEntity
  8
0
  6
Continuous
 62
     7
370
    18
100
AcDbMText
 10
284.1136255556
 20
43.5473338598
 30
0.0
 40
2.0
 41
0.0
 71
     2
 72
     1
  1
bae
  7
SLDTEXTSTYLE0
 73
     1
 44
1.0
  0
MTEXT
  5
15C
330
1F
100
AcDbEntity
  8
0
  6
Continuous
 62
     7
370
    18
100
AcDbMText
 10
249.5284668163
 20
43.5603133928
 30
0.0
 40
2.0
 41
0.0
 71
     1
 72
     1
  1
07.04.2026
  7
SLDTEXTSTYLE0
 73
     1
 44
1.0
  0
MTEXT
  5
15D
330
1F
100
AcDbEntity
  8
0
  6
Continuous
 62
     7
370
    18
100
AcDbMText
 10
284.1413255212
 20
48.5138972561
 30
0.0
 40
2.0
 41
0.0
 71
     2
 72
     1
  1
bae
  7
SLDTEXTSTYLE0
 73
     1
 44
1.0
  0
MTEXT
  5
15E
330
1F
100
AcDbEntity
  8
0
  6
Continuous
 62
     7
370
    18
100
AcDbMText
 10
249.5284668163
 20
48.4989062069
 30
0.0
 40
2.0
 41
0.0
 71
     1
 72
     1
  1
01.04.2026
  7
SLDTEXTSTYLE0
 73
     1
 44
1.0
  0
MTEXT
  5
15F
330
1F
100
AcDbEntity
  8
0
  6
Continuous
 62
     7
370
     0
100
AcDbMText
 10
372.2007348103
 20
38.8723054925
 30
0.0
 40
1.5
 41
0.0
 71
     1
 72
     1
  1
Copyright reserved! © ACO AG
  7
SLDTEXTSTYLE0
 73
     1
 44
1.0
  0
MTEXT
  5
160
330
1F
100
AcDbEntity
  8
0
  6
Continuous
 62
     7
370
     0
100
AcDbMText
 10
372.2203831445
 20
53.1538938951
 30
0.0
 40
1.5
 41
0.0
 71
     1
 72
     1
  1
Diese Zeichnung darf weder kopiert^Jnoch dritten Personen, insbesondere^Jzum Zweck anderweitiger Benutzung^Jmitgeteilt werden und bleibt unser^JEigentum.
  7
SLDTEXTSTYLE0
 73
     1
 44
1.0
  0
MTEXT
  5
161
330
1F
100
AcDbEntity
  8
0
  6
Continuous
 62
     7
370
    18
100
AcDbMText
 10
364.9468572407
 20
18.4594173137
 30
0.0
 40
2.0
 41
0.0
 71
     1
 72
     1
  1
Erstausgabe
  7
SLDTEXTSTYLE0
 73
     1
 44
1.0
  0
MTEXT
  5
162
330
1F
100
AcDbEntity
  8
0
  6
Continuous
 62
     7
370
    18
100
AcDbMText
 10
330.2607505021
 20
18.524501801
 30
0.0
 40
2.0
 41
0.0
 71
     2
 72
     1
  1
-
  7
SLDTEXTSTYLE0
 73
     1
 44
1.0
  0
MTEXT
  5
163
330
1F
100
AcDbEntity
  8
0
  6
Continuous
 62
     7
370
    18
100
AcDbMText
 10
311.764909851
 20
46.3490312465
 30
0.0
 40
5.0
 41
0.0
 71
     2
 72
     1
  1
1:1
  7
SLDTEXTSTYLE0
 73
     1
 44
1.0
  0
MTEXT
  5
164
330
1F
100
AcDbEntity
  8
0
  6
Continuous
 62
     7
370
    18
100
AcDbMText
 10
230.1851195342
 20
38.7793829468
 30
0.0
 40
2.0
 41
0.0
 71
     1
 72
     1
  1
Status:
  7
SLDTEXTSTYLE0
 73
     1
 44
1.0
  0
MTEXT
  5
165
330
1F
100
AcDbEntity
  8
0
  6
Continuous
 62
     7
370
    18
100
AcDbMText
 10
344.926838705
 20
28.2772828851
 30
0.0
 40
5.0
 41
0.0
 71
     1
 72
     1
  1
2228454
  7
SLDTEXTSTYLE0
 73
     1
 44
1.0
  0
MTEXT
  5
166
330
1F
100
AcDbEntity
  8
0
  6
Continuous
 62
     7
370
    18
100
AcDbMText
 10
231.1132118803
 20
14.9211049657
 30
0.0
 40
2.5
 41
0.0
 71
     1
 72
     1
  1
Art. Nr.: 2228454
  7
SLDTEXTSTYLE0
 73
     1
 44
1.0
  0
MTEXT
  5
167
330
1F
100
AcDbEntity
  8
0
  6
Continuous
 62
     7
370
    18
100
AcDbMText
 10
231.1159560181
 20
33.0904969858
 30
0.0
 40
2.5
 41
0.0
 71
     1
 72
     1
  1
ACO-Standard
  7
SLDTEXTSTYLE0
 73
     1
 44
1.0
  0
MTEXT
  5
168
330
1F
100
AcDbEntity
  8
0
  6
Continuous
 62
     7
370
    18
100
AcDbMText
 10
231.1475981734
 20
28.0307932366
 30
0.0
 40
3.5
 41
0.0
 71
     1
 72
     1
  1
Dichtung Mini-Gully Ø114
  7
SLDTEXTSTYLE0
 73
     1
 44
1.0
  0
MTEXT
  5
169
330
1F
100
AcDbEntity
  8
0
  6
Continuous
 62
     7
370
    18
100
AcDbMText
 10
348.2746465368
 20
53.819119072
 30
0.0
 40
2.0
 41
0.0
 71
     1
 72
     1
  1
Projektion: ISO-E
  7
SLDTEXTSTYLE0
 73
     1
 44
1.0
  0
MTEXT
  5
16A
330
1F
100
AcDbEntity
  8
0
  6
Continuous
 62
     7
370
    18
100
AcDbMText
 10
337.7677091855
 20
49.3670227094
 30
0.0
 40
2.5
 41
0.0
 71
     2
 72
     1
  1
Millimeter
  7
SLDTEXTSTYLE0
 73
     1
 44
1.0
  0
MTEXT
  5
16B
330
1F
100
AcDbEntity
  8
0
  6
Continuous
 62
     7
370
    18
100
AcDbMText
 10
337.6323777421
 20
53.855374072
 30
0.0
 40
2.0
 41
0.0
 71
     2
 72
     1
  1
Masseinheit:
  7
SLDTEXTSTYLE0
 73
     1
 44
1.0
  0
MTEXT
  5
16C
330
1F
100
AcDbEntity
  8
0
  6
Continuous
 62
     7
370
    18
100
AcDbMText
 10
337.6114490186
 20
43.5452078816
 30
0.0
 40
2.0
 41
0.0
 71
     2
 72
     1
  1
Blatt / Anz.:
  7
SLDTEXTSTYLE0
 73
     1
 44
1.0
  0
MTEXT
  5
16D
330
1F
100
AcDbEntity
  8
0
  6
Continuous
 62
     7
370
    18
100
AcDbMText
 10
329.2895578243
 20
28.4139191092
 30
0.0
 40
5.0
 41
0.0
 71
     1
 72
     1
  1
CH
  7
SLDTEXTSTYLE0
 73
     1
 44
1.0
  0
MTEXT
  5
16E
330
1F
100
AcDbEntity
  8
0
  6
Continuous
 62
     7
370
    18
100
AcDbMText
 10
330.40704
 20
33.692638072
 30
0.0
 40
2.0
 41
0.0
 71
     1
 72
     1
  1
Zeichnung Nr.:
  7
SLDTEXTSTYLE0
 73
     1
 44
1.0
  0
MTEXT
  5
16F
330
1F
100
AcDbEntity
  8
0
  6
Continuous
 62
     7
370
    18
100
AcDbMText
 10
269.897953
 20
75.161075072
 30
0.0
 40
2.0
 41
0.0
 71
     1
 72
     1
  1
Gewicht:
  7
SLDTEXTSTYLE0
 73
     1
 44
1.0
  0
MTEXT
  5
170
330
1F
100
AcDbEntity
  8
0
  6
Continuous
 62
     7
370
    18
100
AcDbMText
 10
230.0
 20
64.542328072
 30
0.0
 40
2.0
 41
0.0
 71
     1
 72
     1
  1
zul. Abweichung:
  7
SLDTEXTSTYLE0
 73
     1
 44
1.0
  0
MTEXT
  5
171
330
1F
100
AcDbEntity
  8
0
  6
Continuous
 62
     7
370
    18
100
AcDbMText
 10
269.612607
 20
64.542328072
 30
0.0
 40
2.0
 41
0.0
 71
     1
 72
     1
  1
Oberfläche:
  7
SLDTEXTSTYLE0
 73
     1
 44
1.0
  0
MTEXT
  5
172
330
1F
100
AcDbEntity
  8
0
  6
Continuous
 62
     7
370
    18
100
AcDbMText
 10
230.261411
 20
43.4433838912
 30
0.0
 40
2.0
 41
0.0
 71
     1
 72
     1
  1
Freigegeben:
  7
SLDTEXTSTYLE0
 73
     1
 44
1.0
  0
MTEXT
  5
173
330
1F
100
AcDbEntity
  8
0
  6
Continuous
 62
     7
370
    18
100
AcDbMText
 10
230.0
 20
75.161075072
 30
0.0
 40
2.0
 41
0.0
 71
     1
 72
     1
  1
Werkstoff:
  7
SLDTEXTSTYLE0
 73
     1
 44
1.0
  0
MTEXT
  5
174
330
1F
100
AcDbEntity
  8
0
  6
Continuous
 62
     7
370
    18
100
AcDbMText
 10
254.035545
 20
53.129475072
 30
0.0
 40
2.0
 41
0.0
 71
     1
 72
     1
  1
Datum:
  7
SLDTEXTSTYLE0
 73
     1
 44
1.0
  0
MTEXT
  5
175
330
1F
100
AcDbEntity
  8
0
  6
Continuous
 62
     7
370
    18
100
AcDbMText
 10
279.934928
 20
53.136060072
 30
0.0
 40
2.0
 41
0.0
 71
     1
 72
     1
  1
Name:
  7
SLDTEXTSTYLE0
 73
     1
 44
1.0
  0
MTEXT
  5
176
330
1F
100
AcDbEntity
  8
0
  6
Continuous
 62
     7
370
    18
100
AcDbMText
 10
312.162455406
 20
53.881591072
 30
0.0
 40
2.0
 41
0.0
 71
     2
 72
     1
  1
Massstab:
  7
SLDTEXTSTYLE0
 73
     1
 44
1.0
  0
MTEXT
  5
177
330
1F
100
AcDbEntity
  8
0
  6
Continuous
 62
     7
370
    18
100
AcDbMText
 10
403.9552944035
 20
33.324874072
 30
0.0
 40
2.0
 41
0.0
 71
     2
 72
     1
  1
Index:
  7
SLDTEXTSTYLE0
 73
     1
 44
1.0
  0
MTEXT
  5
178
330
1F
100
AcDbEntity
  8
0
  6
Continuous
 62
     7
370
    18
100
AcDbMText
 10
230.261411
 20
48.4499477886
 30
0.0
 40
2.0
 41
0.0
 71
     1
 72
     1
  1
Erstellt:
  7
SLDTEXTSTYLE0
 73
     1
 44
1.0
  0
MTEXT
  5
17A
330
1F
100
AcDbEntity
  8
0
  6
Continuous
 62
     7
370
    18
100
AcDbMText
 10
337.6348165843
 20
39.869706576
 30
0.0
 40
2.5
 41
0.0
 71
     2
 72
     1
  1
1 / 1
  7
SLDTEXTSTYLE1
 73
     1
 44
1.0
  0
MTEXT
  5
17B
330
1F
100
AcDbEntity
  8
0
  6
Continuous
 62
     7
370
    18
100
AcDbMText
 10
269.612607
 20
60.8119428599
 30
0.0
 40
3.0
 41
0.0
 71
     1
 72
     1
  1
DIN ISO 1302
  7
SLDTEXTSTYLE0
 73
     1
 44
1.0
  0
MTEXT
  5
17C
330
1F
100
AcDbEntity
  8
0
  6
Continuous
 62
     7
370
    18
100
AcDbMText
 10
230.0
 20
60.8119428599
 30
0.0
 40
3.0
 41
0.0
 71
     1
 72
     1
  1
Norm
  7
SLDTEXTSTYLE0
 73
     1
 44
1.0
  0
MTEXT
  5
17D
330
1F
100
AcDbEntity
  8
0
  6
Continuous
 62
     7
370
    18
100
AcDbMText
 10
269.612607
 20
71.2121947186
 30
0.0
 40
3.0
 41
0.0
 71
     1
 72
     1
  1
0.06 kg
  7
SLDTEXTSTYLE0
 73
     1
 44
1.0
  0
MTEXT
  5
17E
330
1F
100
AcDbEntity
  8
0
  6
Continuous
 62
     7
370
    18
100
AcDbMText
 10
230.0
 20
71.2121947186
 30
0.0
 40
3.0
 41
0.0
 71
     1
 72
     1
  1
NBR
  7
SLDTEXTSTYLE0
 73
     1
 44
1.0
  0
ARC
  5
17F
330
1F
100
AcDbEntity
  8
0
  6
Continuous
 62
     7
370
    25
100
AcDbCircle
 10
133.3270460472
 20
96.0811685393
 30
0.0
 40
54.50000000000001
100
AcDbArc
 50
90.0
 51
270.0
  0
ARC
  5
180
330
1F
100
AcDbEntity
  8
0
  6
Continuous
 62
     7
370
    25
100
AcDbCircle
 10
133.3270460472
 20
96.0811685393
 30
0.0
 40
54.50000000000001
100
AcDbArc
 50
270.0
 51
90.0
  0
ARC
  5
181
330
1F
100
AcDbEntity
  8
0
  6
Continuous
 62
     7
370
    25
100
AcDbCircle
 10
133.3270460472
 20
96.0811685393
 30
0.0
 40
54.02789466480631
100
AcDbArc
 50
90.0
 51
270.0
  0
ARC
  5
182
330
1F
100
AcDbEntity
  8
0
  6
Continuous
 62
     7
370
    25
100
AcDbCircle
 10
133.3270460472
 20
96.0811685393
 30
0.0
 40
54.02789466480631
100
AcDbArc
 50
270.0
 51
90.0
  0
LINE
  5
183
330
1F
100
AcDbEntity
  8
0
  6
Continuous
 62
     7
370
    25
100
AcDbLine
 10
133.3270460472
 20
40.7476796103
 30
0.0
 11
133.3270460472
 21
30.7591853993
 31
0.0
  0
CIRCLE
  5
184
330
1F
100
AcDbEntity
  8
0
  6
Continuous
 62
     7
370
    25
100
AcDbCircle
 10
133.3270460472
 20
96.0811685393
 30
0.0
 40
55.3334889290346
  0
CIRCLE
  5
185
330
1F
100
AcDbEntity
  8
0
  6
Continuous
 62
     7
370
    25
100
AcDbCircle
 10
133.3270460472
 20
96.0811685393
 30
0.0
 40
65.3219831399929
  0
CIRCLE
  5
186
330
1F
100
AcDbEntity
  8
0
  6
Continuous
 62
     7
370
    25
100
AcDbCircle
 10
133.3270460472
 20
96.0811685393
 30
0.0
 40
55.1200997500553
  0
LINE
  5
187
330
1F
100
AcDbEntity
  8
0
  6
Continuous
 62
     7
370
    25
100
AcDbLine
 10
133.3270460472
 20
40.7476796103
 30
0.0
 11
133.3270460472
 21
40.9610687893
 31
0.0
  0
CIRCLE
  5
188
330
1F
100
AcDbEntity
  8
0
  6
Continuous
 62
     7
370
    25
100
AcDbCircle
 10
133.3270460472
 20
96.0811685393
 30
0.0
 40
65.5
  0
CIRCLE
  5
189
330
1F
100
AcDbEntity
  8
0
  6
Continuous
 62
     7
370
    25
100
AcDbCircle
 10
133.3270460472
 20
96.0811685393
 30
0.0
 40
54.3350854578855
  0
LINE
  5
18A
330
1F
100
AcDbEntity
  8
0
  6
Continuous
 62
     7
370
    25
100
AcDbLine
 10
133.3270460472
 20
40.9610687893
 30
0.0
 11
133.3270460472
 21
41.5811685393
 31
0.0
  0
LINE
  5
18B
330
1F
100
AcDbEntity
  8
0
  6
Continuous
 62
     7
370
    25
100
AcDbLine
 10
133.3270460472
 20
30.5811685393
 30
0.0
 11
133.3270460472
 21
30.7591853993
 31
0.0
  0
LINE
  5
18C
330
1F
100
AcDbEntity
  8
0
  6
Continuous
 62
     7
370
    25
100
AcDbLine
 10
133.3270460472
 20
41.7460830814
 30
0.0
 11
133.3270460472
 21
41.5811685393
 31
0.0
  0
LINE
  5
18D
330
1F
100
AcDbEntity
  8
0
  6
Continuous
 62
     7
370
    25
100
AcDbLine
 10
133.3270460472
 20
41.7460830814
 30
0.0
 11
133.3270460472
 21
42.0532738745
 31
0.0
  0
INSERT
  5
199
330
1F
100
AcDbEntity
  8
0
  6
Continuous
 62
     7
370
     0
100
AcDbBlockReference
  2
SW_CENTERMARKSYMBOL_0
 10
133.3270460472
 20
96.0811685393
 30
0.0
  0
LINE
  5
19A
330
1F
100
AcDbEntity
  8
0
  6
CENTER
 62
     7
370
    25
100
AcDbLine
 10
204.2132288042
 20
96.0811685393
 30
0.0
 11
62.2274548189
 21
96.0811685393
 31
0.0
  0
LINE
  5
19B
330
1F
100
AcDbEntity
  8
0
  6
Continuous
 62
     7
370
    25
100
AcDbLine
 10
202.2132288042
 20
86.0811685393
 30
0.0
 11
202.2132288042
 21
96.0811685393
 31
0.0
  0
SOLID
  5
19C
330
1F
100
AcDbEntity
  8
0
  6
Continuous
 62
     7
370
    25
100
AcDbTrace
 10
202.2132288042
 20
96.0811685393
 30
0.0
 11
201.2132288042
 21
92.0811685393
 31
0.0
 12
203.2132288042
 22
92.0811685393
 32
0.0
 13
203.2132288042
 23
92.0811685393
 33
0.0
  0
LINE
  5
19D
330
1F
100
AcDbEntity
  8
0
  6
Continuous
 62
     7
370
    25
100
AcDbLine
 10
64.2274548189
 20
86.0811685393
 30
0.0
 11
64.2274548189
 21
96.0811685393
 31
0.0
  0
SOLID
  5
19E
330
1F
100
AcDbEntity
  8
0
  6
Continuous
 62
     7
370
    25
100
AcDbTrace
 10
64.2274548189
 20
96.0811685393
 30
0.0
 11
63.2274548189
 21
92.0811685393
 31
0.0
 12
65.2274548189
 22
92.0811685393
 32
0.0
 13
65.2274548189
 23
92.0811685393
 33
0.0
  0
MTEXT
  5
19F
330
1F
100
AcDbEntity
  8
0
  6
Continuous
 62
     7
100
AcDbMText
 10
200.630536228
 20
101.3073879106
 30
0.0
 40
3.5956461589
 41
0.0
 71
     1
 72
     1
  1
A
  7
SLDTEXTSTYLE0
 73
     1
 44
1.0
  0
MTEXT
  5
1A0
330
1F
100
AcDbEntity
  8
0
  6
Continuous
 62
     7
100
AcDbMText
 10
62.7684681287
 20
101.1812904204
 30
0.0
 40
3.5956461589
 41
0.0
 71
     1
 72
     1
  1
A
  7
SLDTEXTSTYLE0
 73
     1
 44
1.0
  0
LINE
  5
1A1
330
1F
100
AcDbEntity
  8
0
  6
Continuous
 62
     7
370
    25
100
AcDbLine
 10
388.922579749
 20
175.2730356017
 30
0.0
 11
388.922579749
 21
180.3580325348
 31
0.0
  0
LINE
  5
1A2
330
1F
100
AcDbEntity
  8
0
  6
Continuous
 62
     7
370
    25
100
AcDbLine
 10
258.278613469
 20
180.3580325348
 30
0.0
 11
258.278613469
 21
175.2730356017
 31
0.0
  0
SPLINE
  5
1A3
330
1F
100
AcDbEntity
  8
0
  6
Continuous
 62
     7
370
    25
100
AcDbSpline
210
0.0
220
0.0
230
1.0
 70
     8
 71
     3
 72
    91
 73
    87
 74
     0
 42
0.00000001
 43
0.00000001
 40
0.0
 40
0.0
 40
0.0
 40
0.0
 40
0.0004277417160344
 40
0.0125178711147539
 40
0.0246074077668638
 40
0.0366961365568954
 40
0.0487838891930526
 40
0.0608705381061189
 40
0.0729559908781267
 40
0.0850401852253431
 40
0.0971230845326493
 40
0.1092046739176415
 40
0.1212849567910291
 40
0.1333639518732984
 40
0.1454416906246166
 40
0.157518215044554
 40
0.1695935757995767
 40
0.1816678306386833
 40
0.1937410430605455
 40
0.2058132811989393
 40
0.2178846168965018
 40
0.2299551249402517
 40
0.2420248824352735
 40
0.2540939682958848
 40
0.2661624628361104
 40
0.2782304474435137
 40
0.2902980043224646
 40
0.3023652162945723
 40
0.3144321666454394
 40
0.3264989390080927
 40
0.3385656172743863
 40
0.3506322855264141
 40
0.3626990128365067
 40
0.3747658705869121
 40
0.3868329431341735
 40
0.3989003148274808
 40
0.4109680699374452
 40
0.4230362925648515
 40
0.4351050665204141
 40
0.4471744751667124
 40
0.45924460121241
 40
0.4713155264476669
 40
0.4833873314081566
 40
0.4954600949533725
 40
0.5075338937428006
 40
0.5196088015912828
 40
0.5316848886822105
 40
0.5437622206142632
 40
0.5558408572542161
 40
0.5679208513649576
 40
0.5800022469743091
 40
0.5920850774468096
 40
0.604169363217398
 40
0.6162551091434006
 40
0.6283423014296872
 40
0.6404309040821681
 40
0.6525208548476891
 40
0.6646120606050154
 40
0.6767043921834336
 40
0.6887976786045258
 40
0.7008917007706695
 40
0.7129861846636281
 40
0.7250807237986443
 40
0.7371748319452438
 40
0.7492680000290821
 40
0.7613596335106061
 40
0.7734490471044679
 40
0.7855354614430702
 40
0.7976180025469279
 40
0.8096957051117619
 40
0.8217675207216659
 40
0.8338323321257393
 40
0.845888974633721
 40
0.857936265453878
 40
0.8699730413789462
 40
0.8819982046042717
 40
0.8940107756449438
 40
0.9060099513533428
 40
0.9179951650173968
 40
0.9299661445775402
 40
0.9419229642981732
 40
0.9538660849295563
 40
0.9657963776256167
 40
0.9777151277034289
 40
0.98962401571075
 40
1.0
 40
1.0
 40
1.0
 40
1.0
 10
277.6186151460412
 20
148.1509271295183
 30
0.0
 10
277.6337035183544
 20
148.1419789380689
 30
0.0
 10
278.0752650796126
 20
147.8801099103931
 30
0.0
 10
278.9763406410423
 20
147.3849644726433
 30
0.0
 10
280.3233868840003
 20
146.6678797345937
 30
0.0
 10
281.7081355438682
 20
145.9757746302207
 30
0.0
 10
283.1241713941434
 20
145.3060197062428
 30
0.0
 10
284.5718068580635
 20
144.6599473274746
 30
0.0
 10
286.0495250779242
 20
144.0378052815442
 30
0.0
 10
287.5562732050189
 20
143.4401087991644
 30
0.0
 10
289.0908487429031
 20
142.8672782566941
 30
0.0
 10
290.6520647301083
 20
142.3197361085659
 30
0.0
 10
292.23870630064
 20
141.7978807389799
 30
0.0
 10
293.8495431771497
 20
141.302093249321
 30
0.0
 10
295.4833272228747
 20
140.8327353924793
 30
0.0
 10
297.1387940407088
 20
140.3901498579279
 30
0.0
 10
298.8146635319077
 20
139.9746599134655
 30
0.0
 10
300.5096407761234
 20
139.5865692123691
 30
0.0
 10
302.2224168660607
 20
139.2261615550513
 30
0.0
 10
303.9516697926691
 20
138.8937006667111
 30
0.0
 10
305.6960653525697
 20
138.5894299787718
 30
0.0
 10
307.4542580825246
 20
138.313572421009
 30
0.0
 10
309.2248922168082
 20
138.0663302255893
 30
0.0
 10
311.0066026657153
 20
137.8478847452706
 30
0.0
 10
312.7980160128188
 20
137.6583962873159
 30
0.0
 10
314.5977515288042
 20
137.498003964491
 30
0.0
 10
316.4044221997074
 20
137.3668255642549
 30
0.0
 10
318.2166357674518
 20
137.2649574370492
 30
0.0
 10
320.032995780623
 20
137.1924744044206
 30
0.0
 10
321.852102653483
 20
137.1494296875562
 30
0.0
 10
323.6725547312224
 20
137.1358548566809
 30
0.0
 10
325.4929485981083
 20
137.1517597950014
 30
0.0
 10
327.31188026445
 20
137.1971326257065
 30
0.0
 10
329.1279469024109
 20
137.2719396947234
 30
0.0
 10
330.9397486866459
 20
137.3761256688031
 30
0.0
 10
332.7458897483847
 20
137.50961364992
 30
0.0
 10
334.5449785895139
 20
137.6723052380554
 30
0.0
 10
336.3356291391693
 20
137.8640806314459
 30
0.0
 10
338.116461801589
 20
138.0847987477864
 30
0.0
 10
339.8861044931299
 20
138.334297365941
 30
0.0
 10
341.6431936663696
 20
138.6123932875813
 30
0.0
 10
343.3863753191399
 20
138.9188825179988
 30
0.0
 10
345.1143059862724
 20
139.2535404651532
 30
0.0
 10
346.8256537117579
 20
139.6161221557816
 30
0.0
 10
348.5190989989547
 20
140.0063624671318
 30
0.0
 10
350.1933357364154
 20
140.4239763725576
 30
0.0
 10
351.8470720968567
 20
140.8686591988465
 30
0.0
 10
353.4790314067778
 20
141.3400868927069
 30
0.0
 10
355.0879529842551
 20
141.8379162933346
 30
0.0
 10
356.6725929425271
 20
142.3617854073927
 30
0.0
 10
358.2317249571502
 20
142.9113136820621
 30
0.0
 10
359.7641409947904
 20
143.4861022710713
 30
0.0
 10
361.2686520021538
 20
144.0857342877698
 30
0.0
 10
362.7440885541904
 20
144.7097750384033
 30
0.0
 10
364.1893014615918
 20
145.3577722277919
 30
0.0
 10
365.6031623388099
 20
146.0292561286397
 30
0.0
 10
366.9845641354065
 20
146.7237397047882
 30
0.0
 10
368.3324216355987
 20
147.4407186779371
 30
0.0
 10
369.645671933446
 20
148.1796715268284
 30
0.0
 10
370.9232748943485
 20
148.9400594078135
 30
0.0
 10
372.1642136172351
 20
149.721325986186
 30
0.0
 10
373.3674925829759
 20
150.5228956148021
 30
0.0
 10
374.532138260944
 20
151.3441725188029
 30
0.0
 10
375.6572018861982
 20
152.1845413472368
 30
0.0
 10
376.7417623014086
 20
153.0433682217476
 30
0.0
 10
377.7849268220606
 20
153.9200004293077
 30
0.0
 10
378.7858305708754
 20
154.8137644596962
 30
0.0
 10
379.7436378602339
 20
155.7239653156313
 30
0.0
 10
380.6575438600867
 20
156.649885887908
 30
0.0
 10
381.5267765796765
 20
157.5907864761647
 30
0.0
 10
382.3505991747297
 20
158.5459045539796
 30
0.0
 10
383.1283125653013
 20
159.5144548915773
 30
0.0
 10
383.8592583179104
 20
160.4956301572752
 30
0.0
 10
384.5428216927992
 20
161.4886021163309
 30
0.0
 10
385.178434749826
 20
162.4925235272635
 30
0.0
 10
385.7655792115925
 20
163.5065308042092
 30
0.0
 10
386.3037892946598
 20
164.5297474438847
 30
0.0
 10
386.7926526402776
 20
165.561288198706
 30
0.0
 10
387.2318151385828
 20
166.6002636841178
 30
0.0
 10
387.6209669320209
 20
167.6457857952909
 30
0.0
 10
387.9598932888219
 20
168.6969713407732
 30
0.0
 10
388.2482779849008
 20
169.7529520092317
 30
0.0
 10
388.4864229062801
 20
170.812858668131
 30
0.0
 10
388.6725483337248
 20
171.87589743367
 30
0.0
 10
388.8068441055535
 20
172.8956111270367
 30
0.0
 10
388.8539990584539
 20
173.5615472568778
 30
0.0
 10
388.8759547171601
 20
173.8716115340663
 30
0.0
  0
SPLINE
  5
1A4
330
1F
100
AcDbEntity
  8
0
  6
Continuous
 62
     7
370
    25
100
AcDbSpline
210
0.0
220
0.0
230
1.0
 70
     8
 71
     3
 72
    34
 73
    30
 74
     0
 42
0.00000001
 43
0.00000001
 40
0.0
 40
0.0
 40
0.0
 40
0.0
 40
0.0345025179610258
 40
0.0713106905659745
 40
0.1081350476770999
 40
0.1449827312568344
 40
0.1818599833636133
 40
0.2187719561531698
 40
0.2557225899571963
 40
0.2927145622654121
 40
0.3297493044764708
 40
0.3668270781600257
 40
0.4039470987938056
 40
0.4411076927933038
 40
0.4783064731732016
 40
0.5155405201762747
 40
0.5528065553093762
 40
0.5901010999878347
 40
0.6274206129613839
 40
0.6647616035013364
 40
0.7021207197122917
 40
0.7394948131531818
 40
0.7768809821857969
 40
0.8142765971638367
 40
0.8516793108294638
 40
0.8890870572139826
 40
0.9264980420532535
 40
0.9639107273247723
 40
1.0
 40
1.0
 40
1.0
 40
1.0
 10
258.3276622325413
 20
173.8124143630149
 30
0.0
 10
258.3530600242834
 20
173.4792757645304
 30
0.0
 10
258.40555283278
 20
172.7907363501334
 30
0.0
 10
258.5481745736911
 20
171.7492194246061
 30
0.0
 10
258.7401325895669
 20
170.6882505050076
 30
0.0
 10
258.9836558379927
 20
169.6308600083936
 30
0.0
 10
259.2771632782996
 20
168.5777716044044
 30
0.0
 10
259.6208735614726
 20
167.5297713677869
 30
0.0
 10
260.0144820047524
 20
166.4876452514044
 30
0.0
 10
260.4577774397695
 20
165.4521965890976
 30
0.0
 10
260.9504707376094
 20
164.4242403129057
 30
0.0
 10
261.4922356888717
 20
163.4046018029049
 30
0.0
 10
262.082694095948
 20
162.3941132103251
 30
0.0
 10
262.7214172466935
 20
161.3936095854891
 30
0.0
 10
263.4079244498663
 20
160.403924618333
 30
0.0
 10
264.1416837274176
 20
159.4258864488649
 30
0.0
 10
264.9221131060053
 20
158.4603137687124
 30
0.0
 10
265.7485826508733
 20
157.5080123978944
 30
0.0
 10
266.6204169809166
 20
156.5697724808786
 30
0.0
 10
267.5368978362083
 20
155.6463661955056
 30
0.0
 10
268.4972674153798
 20
154.7385464984578
 30
0.0
 10
269.5007289555458
 20
153.8470448207473
 30
0.0
 10
270.546457103315
 20
152.9725751976003
 30
0.0
 10
271.6335707872813
 20
152.1158164750178
 30
0.0
 10
272.7612449005834
 20
151.2774780169972
 30
0.0
 10
273.9283024994457
 20
150.4580549023553
 30
0.0
 10
275.1347448680085
 20
149.6587430070947
 30
0.0
 10
276.3614062939349
 20
148.8872336492927
 30
0.0
 10
277.2046061709082
 20
148.3933987818017
 30
0.0
 10
277.6186151460412
 20
148.1509271295183
 30
0.0
  0
SPLINE
  5
1A5
330
1F
100
AcDbEntity
  8
0
  6
Continuous
 62
     7
370
    25
100
AcDbSpline
210
0.0
220
0.0
230
1.0
 70
     8
 71
     3
 72
    12
 73
     8
 74
     0
 42
0.00000001
 43
0.00000001
 40
0.0
 40
0.0
 40
0.0
 40
0.0
 40
0.0980516130674361
 40
0.3870521787907368
 40
0.6761380294452527
 40
0.9654208134915541
 40
1.0
 40
1.0
 40
1.0
 40
1.0
 10
389.0825428453875
 20
168.1112061330342
 30
0.0
 10
389.0800834751506
 20
168.2338179213092
 30
0.0
 10
389.0703752757761
 20
168.7178197476191
 30
0.0
 10
389.0024121694396
 20
169.562447222639
 30
0.0
 10
388.8725622527863
 20
170.6433064472191
 30
0.0
 10
388.7558614938183
 20
171.4059613453926
 30
0.0
 10
388.6693883985324
 20
171.8065446987532
 30
0.0
 10
388.6601555476215
 20
171.8493155324645
 30
0.0
  0
SPLINE
  5
1A6
330
1F
100
AcDbEntity
  8
0
  6
Continuous
 62
     7
370
    25
100
AcDbSpline
210
0.0
220
0.0
230
1.0
 70
     8
 71
     3
 72
    11
 73
     7
 74
     0
 42
0.00000001
 43
0.00000001
 40
0.0
 40
0.0
 40
0.0
 40
0.0
 40
0.1841417144996455
 40
0.4744000380453287
 40
0.7642817965430011
 40
1.0
 40
1.0
 40
1.0
 40
1.0
 10
258.543273331365
 20
171.8439470311138
 30
0.0
 10
258.498368884739
 20
171.6160570190124
 30
0.0
 10
258.3826825979808
 20
171.0289492541866
 30
0.0
 10
258.2547189944696
 20
170.0783002670973
 30
0.0
 10
258.1530794416948
 20
169.0615707434002
 30
0.0
 10
258.1280343704449
 20
168.4053035544096
 30
0.0
 10
258.1168022935275
 20
168.110984425844
 30
0.0
  0
LINE
  5
1A7
330
1F
100
AcDbEntity
  8
0
  6
Continuous
 62
     7
370
    25
100
AcDbLine
 10
389.100596609
 20
163.9467061572
 30
0.0
 11
389.100596609
 21
167.3544571108
 31
0.0
  0
LINE
  5
1A8
330
1F
100
AcDbEntity
  8
0
  6
Continuous
 62
     7
370
    25
100
AcDbLine
 10
258.100596609
 20
167.3544571108
 30
0.0
 11
258.100596609
 21
163.9467061572
 31
0.0
  0
SPLINE
  5
1A9
330
1F
100
AcDbEntity
  8
0
  6
Continuous
 62
     7
370
    25
100
AcDbSpline
210
0.0
220
0.0
230
1.0
 70
     8
 71
     3
 72
    91
 73
    87
 74
     0
 42
0.00000001
 43
0.00000001
 40
0.0
 40
0.0
 40
0.0
 40
0.0
 40
0.0106455608913582
 40
0.0227213817311774
 40
0.0347964286536118
 40
0.0468705276652491
 40
0.0589435460822605
 40
0.0710153869259629
 40
0.0830859838652087
 40
0.0951552967062439
 40
0.1072233074110183
 40
0.119290016612511
 40
0.1313554405881125
 40
0.1434196086489921
 40
0.1554825609023471
 40
0.1675443463447468
 40
0.1796050212469277
 40
0.1916646477933591
 40
0.203723292943099
 40
0.2157810274819022
 40
0.2278379252386309
 40
0.2398940624422958
 40
0.2519495171987163
 40
0.2640043690684419
 40
0.2760586987298554
 40
0.2881125877132946
 40
0.3001661181938379
 40
0.3122193728317879
 40
0.3242724346511346
 40
0.3363253869472401
 40
0.3483783132157277
 40
0.3604312874142305
 40
0.3724843750757378
 40
0.3845376599938066
 40
0.3965912259667607
 40
0.4086451567299616
 40
0.4206995358701061
 40
0.4327544467124954
 40
0.4448099721726866
 40
0.4568661945630087
 40
0.468923195343214
 40
0.48098105480318
 40
0.4930398516638524
 40
0.5050996625807054
 40
0.5171605615317075
 40
0.5292226190693126
 40
0.5412859014130561
 40
0.5533504693563556
 40
0.565416376957732
 40
0.5774836699831853
 40
0.5895523840631057
 40
0.6016225425237557
 40
0.6136941538507592
 40
0.6257672087402057
 40
0.6378416766927848
 40
0.64991750210867
 40
0.6619945998463062
 40
0.6740728502188041
 40
0.6861520934185232
 40
0.6982321233857876
 40
0.710312681174267
 40
0.7223934095579747
 40
0.7344738167359991
 40
0.7465534161345335
 40
0.7586316378328434
 40
0.770707822980065
 40
0.7827812199550387
 40
0.7948509830821874
 40
0.8069161748707611
 40
0.8189757728552095
 40
0.8310286821625279
 40
0.8430737548823544
 40
0.8551098171264796
 40
0.8671357043006551
 40
0.8791503045487589
 40
0.8911526095683643
 40
0.9031417710737127
 40
0.9151171601765529
 40
0.927078425990224
 40
0.9390255489917302
 40
0.9509588842632832
 40
0.9628791898163369
 40
0.9747876358578029
 40
0.9866857920849003
 40
0.9985755917938328
 40
1.0
 40
1.0
 40
1.0
 40
1.0
 10
277.4941396055985
 20
136.7525969664552
 30
0.0
 10
277.8775986971401
 20
136.5334845027819
 30
0.0
 10
278.6960356481022
 20
136.0658212222851
 30
0.0
 10
279.9922537469253
 20
135.3762260551166
 30
0.0
 10
281.372068237649
 20
134.6786640589582
 30
0.0
 10
282.7853739600058
 20
134.0045791434277
 30
0.0
 10
284.2299149209309
 20
133.3537747061845
 30
0.0
 10
285.7048686171186
 20
132.726911113274
 30
0.0
 10
287.20900234992
 20
132.1243960744459
 30
0.0
 10
288.7411679177462
 20
131.5466818651389
 30
0.0
 10
290.3001698524732
 20
130.9941855746976
 30
0.0
 10
291.8848015256762
 20
130.4673103002975
 30
0.0
 10
293.4938363214421
 20
129.966439256915
 30
0.0
 10
295.1260308900941
 20
129.4919371127312
 30
0.0
 10
296.7801252093071
 20
129.0441493666727
 30
0.0
 10
298.4548435442562
 20
128.623402235914
 30
0.0
 10
300.1488952094817
 20
128.2300023988849
 30
0.0
 10
301.8609754246509
 20
127.8642367749659
 30
0.0
 10
303.5897661836926
 20
127.5263722973933
 30
0.0
 10
305.3339371563277
 20
127.2166556953672
 30
0.0
 10
307.0921466141749
 20
126.9353132847792
 30
0.0
 10
308.8630423807063
 20
126.6825507708488
 30
0.0
 10
310.6452628023964
 20
126.4585530644216
 30
0.0
 10
312.4374377389377
 20
126.2634841136638
 30
0.0
 10
314.2381895702937
 20
126.0974867525203
 30
0.0
 10
316.0461342184433
 20
125.9606825670811
 30
0.0
 10
317.8598821817153
 20
125.8531717807905
 30
0.0
 10
319.6780395796631
 20
125.7750331592523
 30
0.0
 10
321.4992092064843
 20
125.7263239352344
 30
0.0
 10
323.3219915910128
 20
125.7070797543394
 30
0.0
 10
325.1449855733407
 20
125.717314638954
 30
0.0
 10
326.966788944768
 20
125.7570209234508
 30
0.0
 10
328.7860004449882
 20
125.8261692169978
 30
0.0
 10
330.6012213288861
 20
125.9247084733737
 30
0.0
 10
332.4110568578107
 20
126.0525661280155
 30
0.0
 10
334.2141164429399
 20
126.2096481524473
 30
0.0
 10
336.0090146991326
 20
126.3958391498846
 30
0.0
 10
337.7943724905294
 20
126.6110024717411
 30
0.0
 10
339.5688179657938
 20
126.8549803546227
 30
0.0
 10
341.3309875809512
 20
127.1275940772607
 30
0.0
 10
343.0795271077045
 20
127.4286441366773
 30
0.0
 10
344.8130926250363
 20
127.7579104426891
 30
0.0
 10
346.5303514918384
 20
128.1151525296405
 30
0.0
 10
348.2299832982366
 20
128.5001097839967
 30
0.0
 10
349.9106807932137
 20
128.9125016861251
 30
0.0
 10
351.5711507860844
 20
129.3520280642335
 30
0.0
 10
353.2101150193507
 20
129.8183693580173
 30
0.0
 10
354.8263110104787
 20
130.3111868890748
 30
0.0
 10
356.4184928602062
 20
130.8301231345908
 30
0.0
 10
357.9854320251401
 20
131.3748020001393
 30
0.0
 10
359.5259180526495
 20
131.9448290867264
 30
0.0
 10
361.0387592764641
 20
132.5397919463853
 30
0.0
 10
362.5227834719606
 20
133.1592603197474
 30
0.0
 10
363.9768384709404
 20
133.8027863480753
 30
0.0
 10
365.3997927368154
 20
134.4699047512841
 30
0.0
 10
366.7905359025963
 20
135.1601329625472
 30
0.0
 10
368.147979276004
 20
135.8729712092709
 30
0.0
 10
369.4710563184456
 20
136.6079025296272
 30
0.0
 10
370.7587231076332
 20
137.3643927136305
 30
0.0
 10
372.0099587972322
 20
138.1418901581028
 30
0.0
 10
373.2237648066579
 20
138.9398247816429
 30
0.0
 10
374.3991633708258
 20
139.7576060454212
 30
0.0
 10
375.5352012578984
 20
140.594624043113
 30
0.0
 10
376.6309516839904
 20
141.4502497940206
 30
0.0
 10
377.6855168976593
 20
142.3238362919099
 30
0.0
 10
378.698026600376
 20
143.2147159767917
 30
0.0
 10
379.6676392586519
 20
144.1222000455009
 30
0.0
 10
380.593543690836
 20
145.045577810321
 30
0.0
 10
381.4749609595408
 20
145.9841161809519
 30
0.0
 10
382.3111465858259
 20
146.9370593635089
 30
0.0
 10
383.1013930787161
 20
147.9036288856869
 30
0.0
 10
383.8450327387228
 20
148.8830240671055
 30
0.0
 10
384.5414406650967
 20
149.8744230538919
 30
0.0
 10
385.1900378095851
 20
150.8769845240956
 30
0.0
 10
385.7902940261413
 20
151.8898501367701
 30
0.0
 10
386.3417304515463
 20
152.9121477601813
 30
0.0
 10
386.8439226583965
 20
153.9429954010597
 30
0.0
 10
387.2964980629395
 20
154.9815058443407
 30
0.0
 10
387.6991507285742
 20
156.0267912930662
 30
0.0
 10
388.0515863634924
 20
157.0779695709038
 30
0.0
 10
388.3537217132495
 20
158.1341646168547
 30
0.0
 10
388.6049302813655
 20
159.1945266528977
 30
0.0
 10
388.8068360113725
 20
160.2581756612341
 30
0.0
 10
388.9528806028731
 20
161.3244255961738
 30
0.0
 10
389.0336713859851
 20
162.0789454947233
 30
0.0
 10
389.0508621475726
 20
162.4780126160439
 30
0.0
 10
389.0527012852841
 20
162.5207064425219
 30
0.0
  0
SPLINE
  5
1AA
330
1F
100
AcDbEntity
  8
0
  6
Continuous
 62
     7
370
    25
100
AcDbSpline
210
0.0
220
0.0
230
1.0
 70
     8
 71
     3
 72
    35
 73
    31
 74
     0
 42
0.00000001
 43
0.00000001
 40
0.0
 40
0.0
 40
0.0
 40
0.0
 40
0.0292405524903997
 40
0.0660325719329148
 40
0.102839820242608
 40
0.1396694905260863
 40
0.1765279086005827
 40
0.2134203368958187
 40
0.250350845082171
 40
0.2873222509569434
 40
0.3243361291657211
 40
0.3613928801383913
 40
0.3984918477005358
 40
0.4356314714930126
 40
0.4728094596614023
 40
0.5100229680968835
 40
0.5472687744756459
 40
0.5845434380166634
 40
0.6218434388109879
 40
0.6591652933888659
 40
0.6965056456112106
 40
0.7338613338503713
 40
0.7712294367200884
 40
0.8086073003682758
 40
0.8459925506508371
 40
0.8833830934722017
 40
0.920777106319935
 40
0.9581730236329605
 40
0.9955693708834062
 40
1.0
 40
1.0
 40
1.0
 40
1.0
 10
258.1541968315337
 20
162.4552697751547
 30
0.0
 10
258.1743963708074
 20
162.1724124109606
 30
0.0
 10
258.2200120454956
 20
161.5336488563379
 30
0.0
 10
258.3513871740308
 20
160.5411613949383
 30
0.0
 10
258.5371885985472
 20
159.4784020533427
 30
0.0
 10
258.7749807870298
 20
158.4191419036673
 30
0.0
 10
259.062665755234
 20
157.364085730828
 30
0.0
 10
259.4006054976546
 20
156.314021625491
 30
0.0
 10
259.7884624231714
 20
155.2697316522162
 30
0.0
 10
260.2260406143965
 20
154.2320167589829
 30
0.0
 10
260.71305411628
 20
153.2016892241098
 30
0.0
 10
261.2491838873808
 20
152.17957217726
 30
0.0
 10
261.8340584415218
 20
151.1664959019541
 30
0.0
 10
262.4672563510276
 20
150.1632940820257
 30
0.0
 10
263.1483043313993
 20
149.1707995727647
 30
0.0
 10
263.8766778898657
 20
148.1898402189162
 30
0.0
 10
264.6518024765711
 20
147.221234924253
 30
0.0
 10
265.4730554616284
 20
146.2657901932054
 30
0.0
 10
266.3397684948262
 20
145.3242972069193
 30
0.0
 10
267.2512303804697
 20
144.3975296690581
 30
0.0
 10
268.2066891153483
 20
143.4862417066785
 30
0.0
 10
269.2053572665364
 20
142.5911683947195
 30
0.0
 10
270.2464044489632
 20
141.7130190264431
 30
0.0
 10
271.3289970865038
 20
140.8524996152437
 30
0.0
 10
272.4521604835928
 20
140.0102279606509
 30
0.0
 10
273.6153029692254
 20
139.1870510483551
 30
0.0
 10
274.8162673508806
 20
138.3828614493217
 30
0.0
 10
276.0586090740208
 20
137.6010178629731
 30
0.0
 10
276.9524863384481
 20
137.0578611661184
 30
0.0
 10
277.4422591696909
 20
136.7818356708183
 30
0.0
 10
277.4941396055985
 20
136.7525969664552
 30
0.0
  0
SPLINE
  5
1AB
330
1F
100
AcDbEntity
  8
0
  6
Continuous
 62
     7
370
    25
100
AcDbSpline
210
0.0
220
0.0
230
1.0
 70
     8
 71
     3
 72
    52
 73
    48
 74
     0
 42
0.00000001
 43
0.00000001
 40
0.0
 40
0.0
 40
0.0
 40
0.0
 40
0.0088807910957025
 40
0.0313718863404208
 40
0.0538617781963337
 40
0.0763510563811068
 40
0.098840278394681
 40
0.121330197061538
 40
0.1438218238383081
 40
0.1663163625430924
 40
0.1888152261010072
 40
0.2113200496780976
 40
0.2338326978372859
 40
0.2563552627130356
 40
0.2788900495550037
 40
0.3014395454273873
 40
0.3240063665159172
 40
0.3465931795983567
 40
0.3692025940496418
 40
0.3918370225927919
 40
0.4144985121669989
 40
0.4371885509336164
 40
0.4599078634577637
 40
0.4826562128823993
 40
0.5054322352052248
 40
0.5282333346945218
 40
0.5510556688309716
 40
0.5738942441156603
 40
0.5967431301787943
 40
0.6195953450234308
 40
0.642442331278671
 40
0.6652776906335038
 40
0.6880957475852406
 40
0.7108918409263509
 40
0.7336625021545022
 40
0.7564055148219301
 40
0.7791198673281855
 40
0.801805623963583
 40
0.8244637441164746
 40
0.8470958784512455
 40
0.8697041656983395
 40
0.8922910467760081
 40
0.9148591060890271
 40
0.9374109441002975
 40
0.9599490810727345
 40
0.9824758892090568
 40
1.0
 40
1.0
 40
1.0
 40
1.0
 10
284.912172703327
 20
157.8443227806328
 30
0.0
 10
284.7573218910979
 20
157.9324845592565
 30
0.0
 10
284.2103028216682
 20
158.2439209244123
 30
0.0
 10
283.3090151179297
 20
158.7995032848104
 30
0.0
 10
282.2091081792986
 20
159.5098814530754
 30
0.0
 10
281.1500698534537
 20
160.2399525556336
 30
0.0
 10
280.129984470994
 20
160.9873960563185
 30
0.0
 10
279.1505353744444
 20
161.7519161710049
 30
0.0
 10
278.2123847485407
 20
162.5326610083605
 30
0.0
 10
277.3164109437139
 20
163.3289169307347
 30
0.0
 10
276.4633778993898
 20
164.139924272631
 30
0.0
 10
275.654023972699
 20
164.9649294119136
 30
0.0
 10
274.8890385643594
 20
165.8031738055841
 30
0.0
 10
274.1690694274865
 20
166.6538998451179
 30
0.0
 10
273.4947224246749
 20
167.5163519584802
 30
0.0
 10
272.8665640053042
 20
168.3897785204128
 30
0.0
 10
272.2851236154331
 20
169.2734328126485
 30
0.0
 10
271.7508966705306
 20
170.1665732036328
 30
0.0
 10
271.2643476966084
 20
171.0684621924635
 30
0.0
 10
270.8259133920263
 20
171.9783641385035
 30
0.0
 10
270.436005189466
 20
172.8955415498038
 30
0.0
 10
270.0950108306433
 20
173.8192499675886
 30
0.0
 10
269.8032944281505
 20
174.748731701655
 30
0.0
 10
269.5611945443235
 20
175.683208942161
 30
0.0
 10
269.3690199895166
 20
176.6218770505456
 30
0.0
 10
269.2270433450448
 20
177.5638990489276
 30
0.0
 10
269.1354926234889
 20
178.5084023984292
 30
0.0
 10
269.0945419190862
 20
179.4544790069743
 30
0.0
 10
269.1043021983216
 20
180.4011829876728
 30
0.0
 10
269.1648107522564
 20
181.3475194349977
 30
0.0
 10
269.2760223007195
 20
182.2924820036984
 30
0.0
 10
269.4378102945488
 20
183.2350728180844
 30
0.0
 10
269.6499784032659
 20
184.1743341290822
 30
0.0
 10
269.912265589131
 20
185.1093320790982
 30
0.0
 10
270.224354420446
 20
186.0391623586044
 30
0.0
 10
270.5858796974603
 20
186.9629524424043
 30
0.0
 10
270.9964363653762
 20
187.8798606796522
 30
0.0
 10
271.4555854620725
 20
188.7890731313585
 30
0.0
 10
271.9628593736871
 20
189.6897985178044
 30
0.0
 10
272.5177601728192
 20
190.5812643076721
 30
0.0
 10
273.1197744281916
 20
191.462706801171
 30
0.0
 10
273.7683187141862
 20
192.3333851480868
 30
0.0
 10
274.4629374644695
 20
193.1925099350797
 30
0.0
 10
275.2025564538631
 20
194.0394951268674
 30
0.0
 10
275.9882551119865
 20
194.8730097230298
 30
0.0
 10
276.7519853159581
 20
195.6338106565721
 30
0.0
 10
277.2736840491172
 20
196.1097864102078
 30
0.0
 10
277.5019511312278
 20
196.3180475953173
 30
0.0
  0
SPLINE
  5
1AC
330
1F
100
AcDbEntity
  8
0
  6
Continuous
 62
     7
370
    25
100
AcDbSpline
210
0.0
220
0.0
230
1.0
 70
     8
 71
     3
 72
   103
 73
    99
 74
     0
 42
0.00000001
 43
0.00000001
 40
0.0
 40
0.0
 40
0.0
 40
0.0
 40
0.0086130477916413
 40
0.019059344930738
 40
0.0295093950151001
 40
0.0399641825985017
 40
0.0504247897432146
 40
0.06089238031432
 40
0.0713681740662975
 40
0.0818534084867962
 40
0.0923492867947372
 40
0.102856911416827
 40
0.1133772038215263
 40
0.1239108138375626
 40
0.1344580244451311
 40
0.1450186611846894
 40
0.1555920181608635
 40
0.1661768142219112
 40
0.1767711922448703
 40
0.1873727707625819
 40
0.1979787503334339
 40
0.2085857286135689
 40
0.2191898784522087
 40
0.2297882645708595
 40
0.2403783075393055
 40
0.2509579126956898
 40
0.2615255456811426
 40
0.2720802530342201
 40
0.2826216345782376
 40
0.293149779614592
 40
0.3036651808850798
 40
0.3141686394439074
 40
0.3246611710178175
 40
0.3351439211823469
 40
0.3456180935383237
 40
0.3560848924926157
 40
0.3665454803950017
 40
0.3770009476289369
 40
0.38745229366859
 40
0.3979004169396587
 40
0.4083461114105172
 40
0.4187900680762111
 40
0.429232879797222
 40
0.4396750482630602
 40
0.4501169921361626
 40
0.4605589595312245
 40
0.4710012387734571
 40
0.4814440692623588
 40
0.4918876380755296
 40
0.5023320872617462
 40
0.5127775204282523
 40
0.5232240086035971
 40
0.5336715953937844
 40
0.5441203014715044
 40
0.5545701284509191
 40
0.5650210622064582
 40
0.5754730756957213
 40
0.5859261313449866
 40
0.5963801830526038
 40
0.6068351778610929
 40
0.6172910573439674
 40
0.6277477587483472
 40
0.6382052159296175
 40
0.6486633601099152
 40
0.6591221204881433
 40
0.6695814247255093
 40
0.6800411993274048
 40
0.6905013699396169
 40
0.7009618615744724
 40
0.7114225987805306
 40
0.7218835057677794
 40
0.7323445064989276
 40
0.7428055247564237
 40
0.7532664644259742
 40
0.7637272434177298
 40
0.7741877852917142
 40
0.7846480136472732
 40
0.7951078522034564
 40
0.8055672249100025
 40
0.81602605609875
 40
0.826484270686971
 40
0.8369417944456466
 40
0.8473985543476424
 40
0.8578544790129918
 40
0.8683094992711311
 40
0.8787635488631316
 40
0.8892165653104075
 40
0.899668490980428
 40
0.9101192743844182
 40
0.920568871746649
 40
0.9310172488901182
 40
0.9414643834882447
 40
0.9519102677370896
 40
0.9623549115064003
 40
0.9727983460303468
 40
0.9832406281986213
 40
0.9936818455046732
 40
1.0
 40
1.0
 40
1.0
 40
1.0
 10
370.1400281990552
 20
195.9122899339732
 30
0.0
 10
370.3752542419293
 20
195.6895948423487
 30
0.0
 10
370.8957731565207
 20
195.1968049881264
 30
0.0
 10
371.6489774835027
 20
194.4171776968877
 30
0.0
 10
372.4090943336076
 20
193.5775810384976
 30
0.0
 10
373.1228668930689
 20
192.7251919023258
 30
0.0
 10
373.791275262071
 20
191.8612851294186
 30
0.0
 10
374.4133341316394
 20
190.9864723897352
 30
0.0
 10
374.9886323526931
 20
190.1015370976138
 30
0.0
 10
375.5166482394646
 20
189.207210239021
 30
0.0
 10
375.9969292531088
 20
188.3042316017377
 30
0.0
 10
376.429039934361
 20
187.3933361046756
 30
0.0
 10
376.8125726002859
 20
186.4752620255784
 30
0.0
 10
377.1471424066209
 20
185.5507551257706
 30
0.0
 10
377.432388468648
 20
184.6205753438742
 30
0.0
 10
377.6679758145002
 20
183.6855036281793
 30
0.0
 10
377.8535999609377
 20
182.7463485727206
 30
0.0
 10
377.9889936486484
 20
181.8039516837543
 30
0.0
 10
378.073935376462
 20
180.8591902279834
 30
0.0
 10
378.1082587979669
 20
179.9129767510439
 30
0.0
 10
378.0918619167638
 20
178.9662649001599
 30
0.0
 10
378.024718073924
 20
178.0200518373027
 30
0.0
 10
377.9068834578856
 20
177.0753443726372
 30
0.0
 10
377.7384941346199
 20
176.1331349894973
 30
0.0
 10
377.5197553244269
 20
175.1943787526934
 30
0.0
 10
377.2509359321965
 20
174.2600059039183
 30
0.0
 10
376.9323601224248
 20
173.3309166500652
 30
0.0
 10
376.564398719653
 20
172.4079793703935
 30
0.0
 10
376.1474615438667
 20
171.4920318598875
 30
0.0
 10
375.6819914334966
 20
170.5838848296207
 30
0.0
 10
375.1684602962992
 20
169.6843267244029
 30
0.0
 10
374.6073671623889
 20
168.7941289602512
 30
0.0
 10
373.9992379534789
 20
167.9140508609226
 30
0.0
 10
373.3446265431445
 20
167.0448438070669
 30
0.0
 10
372.6441166482975
 20
166.1872543421405
 30
0.0
 10
371.8983241307714
 20
165.3420261688508
 30
0.0
 10
371.1078993670765
 20
164.5099011039597
 30
0.0
 10
370.2735294373025
 20
163.6916191390713
 30
0.0
 10
369.3959399728347
 20
162.8879177904552
 30
0.0
 10
368.4758965772737
 20
162.0995309246921
 30
0.0
 10
367.5142057920654
 20
161.3271872309284
 30
0.0
 10
366.5117156182574
 20
160.5716084843923
 30
0.0
 10
365.4693156307584
 20
159.8335077162519
 30
0.0
 10
364.3879367352569
 20
159.1135873765324
 30
0.0
 10
363.268554057298
 20
158.4125397024934
 30
0.0
 10
362.1121828618758
 20
157.7310423956707
 30
0.0
 10
360.9198771229749
 20
157.0697568754813
 30
0.0
 10
359.6927244057476
 20
156.429325073715
 30
0.0
 10
358.4318484583666
 20
155.8103705774943
 30
0.0
 10
357.138408308011
 20
155.2134976700421
 30
0.0
 10
355.8135968681754
 20
154.6392902464097
 30
0.0
 10
354.4586394967167
 20
154.0883108426736
 30
0.0
 10
353.07479252091
 20
153.5610997691024
 30
0.0
 10
351.663341741746
 20
153.0581743373228
 30
0.0
 10
350.225600926409
 20
152.5800281716622
 30
0.0
 10
348.7629102952643
 20
152.1271305954132
 30
0.0
 10
347.2766350076711
 20
151.6999260835613
 30
0.0
 10
345.7681636493969
 20
151.2988337744229
 30
0.0
 10
344.23890672328
 20
150.9242470335756
 30
0.0
 10
342.690295143975
 20
150.5765330643657
 30
0.0
 10
341.1237787370513
 20
150.256032560121
 30
0.0
 10
339.5408247423485
 20
149.9630593939625
 30
0.0
 10
337.9429163212668
 20
149.6979003427857
 30
0.0
 10
336.3315510675553
 20
149.4608148425709
 30
0.0
 10
334.7082395211198
 20
149.2520347726919
 30
0.0
 10
333.074503684383
 20
149.0717642673198
 30
0.0
 10
331.4318755407761
 20
148.9201795523825
 30
0.0
 10
329.7818955750083
 20
148.797428806839
 30
0.0
 10
328.1261112948298
 20
148.7036320472781
 30
0.0
 10
326.4660757540902
 20
148.6388810350532
 30
0.0
 10
324.8033460769366
 20
148.6032392053328
 30
0.0
 10
323.1394819831534
 20
148.5967416175837
 30
0.0
 10
321.4760453621465
 20
148.6193949128566
 30
0.0
 10
319.8145980472206
 20
148.6711772284666
 30
0.0
 10
318.1567000260831
 20
148.7520381972021
 30
0.0
 10
316.5039069194492
 20
148.8618990786305
 30
0.0
 10
314.8577692602934
 20
149.0006528327784
 30
0.0
 10
313.219831325138
 20
149.1681641863273
 30
0.0
 10
311.5916296658712
 20
149.3642697290083
 30
0.0
 10
309.9746916421431
 20
149.5887780311621
 30
0.0
 10
308.3705339541353
 20
149.8414697829095
 30
0.0
 10
306.7806611754422
 20
150.1220979555828
 30
0.0
 10
305.206564285457
 20
150.4303879861432
 30
0.0
 10
303.6497192014456
 20
150.7660379860688
 30
0.0
 10
302.1115853070349
 20
151.1287189746394
 30
0.0
 10
300.5936039862399
 20
151.5180751439158
 30
0.0
 10
299.0971971254633
 20
151.9337241370977
 30
0.0
 10
297.6237657198247
 20
152.3752574198177
 30
0.0
 10
296.174688071113
 20
152.8422404614514
 30
0.0
 10
294.7513194868305
 20
153.334213799325
 30
0.0
 10
293.3549863523413
 20
153.8506910034403
 30
0.0
 10
291.9870011719528
 20
154.3911684269411
 30
0.0
 10
290.6485993401291
 20
154.9550912300789
 30
0.0
 10
289.3411679453106
 20
155.541982851209
 30
0.0
 10
288.0653848718285
 20
156.1509649211588
 30
0.0
 10
286.8244240305251
 20
156.7825520608809
 30
0.0
 10
285.7715412813038
 20
157.346498429184
 30
0.0
 10
285.1474502358614
 20
157.7080286595234
 30
0.0
 10
284.912172703327
 20
157.8443227806328
 30
0.0
  0
SPLINE
  5
1AD
330
1F
100
AcDbEntity
  8
0
  6
Continuous
 62
     7
370
    25
100
AcDbSpline
210
0.0
220
0.0
230
1.0
 70
     8
 71
     3
 72
    26
 73
    22
 74
     0
 42
0.00000001
 43
0.00000001
 40
0.0
 40
0.0
 40
0.0
 40
0.0
 40
0.0430284457872872
 40
0.0967126690158962
 40
0.1503746824990828
 40
0.2040148484559794
 40
0.2576341370590569
 40
0.3112339796818007
 40
0.3648161250290383
 40
0.4183825085969471
 40
0.4719351416956106
 40
0.5254760226526776
 40
0.5790070700917251
 40
0.6325300763766664
 40
0.6860466783201867
 40
0.7395583418807248
 40
0.7930663576274901
 40
0.8465718440646537
 40
0.9000757563448736
 40
0.9535788983761685
 40
1.0
 40
1.0
 40
1.0
 40
1.0
 10
270.6640865010805
 20
172.379280698971
 30
0.0
 10
270.7538167738412
 20
172.6280838581201
 30
0.0
 10
270.9554985685569
 20
173.1873050231105
 30
0.0
 10
271.3282493004226
 20
174.0496284135724
 30
0.0
 10
271.7708707125092
 20
174.9663745689916
 30
0.0
 10
272.2635407282518
 20
175.8746709300307
 30
0.0
 10
272.8038905403948
 20
176.7738967333099
 30
0.0
 10
273.3919150970099
 20
177.6631718984757
 30
0.0
 10
274.0269266701257
 20
178.5416986994736
 30
0.0
 10
274.7083706915815
 20
179.4086693403614
 30
0.0
 10
275.435607048138
 20
180.2632901192294
 30
0.0
 10
276.2079680587688
 20
181.1047749079652
 30
0.0
 10
277.0247431933542
 20
181.9323467771116
 30
0.0
 10
277.8851803444683
 20
182.7452395449671
 30
0.0
 10
278.7884946435719
 20
183.5426930745807
 30
0.0
 10
279.7338313935718
 20
184.3239749111629
 30
0.0
 10
280.7204059612644
 20
185.0883037440282
 30
0.0
 10
281.7469828227286
 20
185.835139799053
 30
0.0
 10
282.8138218978497
 20
186.5631061026405
 30
0.0
 10
283.8668138893165
 20
187.2426527175538
 30
0.0
 10
284.5820132983561
 20
187.6694837738073
 30
0.0
 10
284.9142684471958
 20
187.86777366937
 30
0.0
  0
SPLINE
  5
1AE
330
1F
100
AcDbEntity
  8
0
  6
Continuous
 62
     7
370
    25
100
AcDbSpline
210
0.0
220
0.0
230
1.0
 70
     8
 71
     3
 72
    25
 73
    21
 74
     0
 42
0.00000001
 43
0.00000001
 40
0.0
 40
0.0
 40
0.0
 40
0.0
 40
0.0451982718845206
 40
0.1028916332058128
 40
0.1605850654059772
 40
0.2182793193002407
 40
0.2759753190756657
 40
0.3336741598176773
 40
0.391377120255425
 40
0.4490856713023535
 40
0.5068014780795126
 40
0.5645263925990672
 40
0.622262433837545
 40
0.6800117516530207
 40
0.7377765710492064
 40
0.795559113853988
 40
0.8533614961668625
 40
0.9111856021238164
 40
0.9690329377160198
 40
1.0
 40
1.0
 40
1.0
 40
1.0
 10
363.8331308575301
 20
186.9142821391106
 30
0.0
 10
364.1205071655449
 20
186.7285841126783
 30
0.0
 10
364.7747051347027
 20
186.3058517287604
 30
0.0
 10
365.750154998056
 20
185.623581845272
 30
0.0
 10
366.766314261017
 20
184.8723582342367
 30
0.0
 10
367.7407461771419
 20
184.1031376251355
 30
0.0
 10
368.674049635672
 20
183.3174129992612
 30
0.0
 10
369.5649638737739
 20
182.5157230212294
 30
0.0
 10
370.4127788012373
 20
181.6988778362423
 30
0.0
 10
371.2166896157633
 20
180.8676290225497
 30
0.0
 10
371.9759706155348
 20
180.0227564885843
 30
0.0
 10
372.6899270696991
 20
179.1650434447023
 30
0.0
 10
373.3579144119716
 20
178.2952823795333
 30
0.0
 10
373.9793088529244
 20
177.4142695563513
 30
0.0
 10
374.5536038199207
 20
176.5228154223192
 30
0.0
 10
375.0800504503337
 20
175.6217042661905
 30
0.0
 10
375.5589960451284
 20
174.7118429360407
 30
0.0
 10
375.9868833514407
 20
173.7937060093032
 30
0.0
 10
376.3147636293233
 20
173.0127041686417
 30
0.0
 10
376.4804649560427
 20
172.5358439562461
 30
0.0
 10
376.538240310352
 20
172.3695763211427
 30
0.0
  0
LWPOLYLINE
  5
1AF
330
1F
100
AcDbEntity
  8
0
  6
Continuous
 62
     7
370
    25
100
AcDbPolyline
 90
      215
 70
   128
 43
0.0
 10
277.4109793701
 20
153.6933340768
 10
276.07492312
 20
154.4876075707
 10
274.7798334085
 20
155.3041810487
 10
273.5268265868
 20
156.1423506347
 10
272.3169827313
 20
157.0013938368
 10
271.1513447123
 20
157.8805701707
 10
270.0309172952
 20
158.7791217972
 10
268.9566662745
 20
159.6962741759
 10
267.9295176412
 20
160.6312367331
 10
266.9503567847
 20
161.5832035426
 10
266.0200277294
 20
162.5513540208
 10
265.1393324073
 20
163.5348536342
 10
264.309029967
 20
164.5328546182
 10
263.5298361186
 20
165.5444967086
 10
262.8024225177
 20
166.5689078823
 10
262.1274161856
 20
167.6052051097
 10
261.5053989695
 20
168.6524951156
 10
260.9369070404
 20
169.7098751489
 10
260.4224304313
 20
170.7764337613
 10
259.9624126147
 20
171.8512515925
 10
259.5572501201
 20
172.9334021629
 10
259.2072921925
 20
174.0219526723
 10
258.9128404914
 20
175.1159648036
 10
258.6741488305
 20
176.2144955319
 10
258.491422959
 20
177.3165979376
 10
258.3648203843
 20
178.421322022
 10
258.2944502362
 20
179.5277155268
 10
258.280373173
 20
180.6348247545
 10
258.3226013289
 20
181.7416953907
 10
258.4210983038
 20
182.8473733268
 10
258.5757791944
 20
183.9509054821
 10
258.7865106678
 20
185.0513406257
 10
259.0531110762
 20
186.1477301961
 10
259.3753506132
 20
187.2391291193
 10
259.7529515123
 20
188.3245966229
 10
260.1855882864
 20
189.4031970475
 10
260.6728880079
 20
190.474000653
 10
261.2144306305
 20
191.5360844199
 10
261.8097493512
 20
192.5885328453
 10
262.4583310127
 20
193.6304387317
 10
263.1596165457
 20
194.6609039693
 10
263.9130014508
 20
195.6790403098
 10
264.7178363196
 20
196.6839701325
 10
265.5734273943
 20
197.6748272002
 10
266.4790371663
 20
198.6507574067
 10
267.4338850112
 20
199.6109195121
 10
268.4371478619
 20
200.5544858687
 10
269.4879609185
 20
201.480643134
 10
270.585418393
 20
202.3885929721
 10
271.728574291
 20
203.2775527414
 10
272.9164432262
 20
204.1467561698
 10
274.1480012704
 20
204.9954540147
 10
275.4221868359
 20
205.8229147091
 10
276.7379015906
 20
206.6284249922
 10
278.0940114047
 20
207.4112905241
 10
279.4893473286
 20
208.1708364846
 10
280.9227066
 20
208.9064081545
 10
282.3928536811
 20
209.6173714801
 10
283.8985213234
 20
210.30311362
 10
285.4384116601
 20
210.9630434729
 10
287.011197325
 20
211.5965921875
 10
288.6155225964
 20
212.2032136527
 10
290.2500045658
 20
212.7823849684
 10
291.9132343303
 20
213.3336068962
 10
293.6037782064
 20
213.8564042895
 10
295.3201789664
 20
214.3503265035
 10
297.0609570942
 20
214.8149477835
 10
298.8246120607
 20
215.2498676317
 10
300.6096236174
 20
215.6547111525
 10
302.4144531065
 20
216.029129376
 10
304.2375447874
 20
216.3727995583
 10
306.0773271778
 20
216.6854254599
 10
307.9322144082
 20
216.9667376012
 10
309.800607589
 20
217.2164934947
 10
311.6808961884
 20
217.4344778538
 10
313.5714594211
 20
217.6205027789
 10
315.4706676452
 20
217.7744079186
 10
317.3768837668
 20
217.8960606088
 10
319.2884646514
 20
217.9853559863
 10
321.20376254
 20
218.0422170795
 10
323.1211264698
 20
218.066594875
 10
325.0389036968
 20
218.0584683594
 10
326.955441121
 20
218.0178445377
 10
328.869086711
 20
217.944758427
 10
330.7781909282
 20
217.8392730266
 10
332.6811081485
 20
217.7014792638
 10
334.5761980809
 20
217.531495915
 10
336.4618271815
 20
217.3294695037
 10
338.3363700616
 20
217.0955741741
 10
340.1982108884
 20
216.8300115412
 10
342.0457447785
 20
216.5330105166
 10
343.8773791805
 20
216.2048271116
 10
345.6915352485
 20
215.845744216
 10
347.4866492025
 20
215.4560713549
 10
349.2611736767
 20
215.0361444215
 10
351.013579053
 20
214.5863253875
 10
352.7423547798
 20
214.1070019914
 10
354.446010674
 20
213.5985874038
 10
356.1230782055
 20
213.061519872
 10
357.7721117628
 20
212.4962623414
 10
359.3916898997
 20
211.9033020569
 10
360.9804165599
 20
211.283150143
 10
362.5369222808
 20
210.6363411628
 10
364.0598653739
 20
209.9634326577
 10
365.5479330811
 20
209.2650046664
 10
366.9998427068
 20
208.5416592251
 10
368.4143427228
 20
207.7940198486
 10
369.7902138478
 20
207.0227309927
 10
371.126270098
 20
206.2284574988
 10
372.4213598095
 20
205.4118840208
 10
373.6743666312
 20
204.5737144349
 10
374.8842104867
 20
203.7146712327
 10
376.0498485057
 20
202.8354948988
 10
377.1702759228
 20
201.9369432724
 10
378.2445269435
 20
201.0197908936
 10
379.2716755767
 20
200.0848283364
 10
380.2508364333
 20
199.132861527
 10
381.1811654886
 20
198.1647110487
 10
382.0618608106
 20
197.1812114354
 10
382.892163251
 20
196.1832104513
 10
383.6713570994
 20
195.171568361
 10
384.3987707003
 20
194.1471571873
 10
385.0737770324
 20
193.1108599598
 10
385.6957942485
 20
192.063569954
 10
386.2642861776
 20
191.0061899206
 10
386.7787627866
 20
189.9396313082
 10
387.2387806033
 20
188.864813477
 10
387.6439430979
 20
187.7826629066
 10
387.9939010254
 20
186.6941123973
 10
388.2883527265
 20
185.600100266
 10
388.5270443875
 20
184.5015695376
 10
388.709770259
 20
183.3994671319
 10
388.8363728337
 20
182.2947430475
 10
388.9067429818
 20
181.1883495428
 10
388.920820045
 20
180.0812403151
 10
388.8785918891
 20
178.9743696788
 10
388.7800949142
 20
177.8686917428
 10
388.6254140236
 20
176.7651595874
 10
388.4146825501
 20
175.6647244439
 10
388.1480821418
 20
174.5683348734
 10
387.8258426048
 20
173.4769359502
 10
387.4482417056
 20
172.3914684466
 10
387.0156049316
 20
171.312868022
 10
386.5283052101
 20
170.2420644166
 10
385.9867625875
 20
169.1799806497
 10
385.3914438667
 20
168.1275322243
 10
384.7428622052
 20
167.0856263378
 10
384.0415766722
 20
166.0551611002
 10
383.2881917672
 20
165.0370247597
 10
382.4833568984
 20
164.0320949371
 10
381.6277658236
 20
163.0412378693
 10
380.7221560516
 20
162.0653076629
 10
379.7673082068
 20
161.1051455575
 10
378.7640453561
 20
160.1615792009
 10
377.7132322995
 20
159.2354219355
 10
376.6157748249
 20
158.3274720974
 10
375.472618927
 20
157.4385123281
 10
374.2847499918
 20
156.5693088997
 10
373.0531919476
 20
155.7206110548
 10
371.7790063821
 20
154.8931503605
 10
370.4632916274
 20
154.0876400774
 10
369.1071818132
 20
153.3047745454
 10
367.7118458894
 20
152.5452285849
 10
366.278486618
 20
151.8096569151
 10
364.8083395369
 20
151.0986935894
 10
363.3026718946
 20
150.4129514496
 10
361.7627815579
 20
149.7530215967
 10
360.189995893
 20
149.1194728821
 10
358.5856706216
 20
148.5128514168
 10
356.9511886521
 20
147.9336801011
 10
355.2879588877
 20
147.3824581734
 10
353.5974150116
 20
146.85966078
 10
351.8810142516
 20
146.365738566
 10
350.1402361238
 20
145.901117286
 10
348.3765811572
 20
145.4661974378
 10
346.5915696006
 20
145.061353917
 10
344.7867401115
 20
144.6869356935
 10
342.9636484306
 20
144.3432655113
 10
341.1238660402
 20
144.0306396097
 10
339.2689788098
 20
143.7493274683
 10
337.400585629
 20
143.4995715749
 10
335.5202970296
 20
143.2815872157
 10
333.6297337968
 20
143.0955622907
 10
331.7305255727
 20
142.9416571509
 10
329.8243094511
 20
142.8200044607
 10
327.9127285666
 20
142.7307090833
 10
325.9974306779
 20
142.67384799
 10
324.0800667482
 20
142.6494701945
 10
322.1622895212
 20
142.6575967101
 10
320.245752097
 20
142.6982205319
 10
318.3321065069
 20
142.7713066426
 10
316.4230022897
 20
142.8767920429
 10
314.5200850695
 20
143.0145858057
 10
312.6249951371
 20
143.1845691546
 10
310.7393660364
 20
143.3865955659
 10
308.8648231564
 20
143.6204908954
 10
307.0029823295
 20
143.8860535283
 10
305.1554484395
 20
144.1830545529
 10
303.3238140374
 20
144.511237958
 10
301.5096579694
 20
144.8703208535
 10
299.7145440154
 20
145.2599937146
 10
297.9400195413
 20
145.679920648
 10
296.187614165
 20
146.129739682
 10
294.4588384381
 20
146.6090630782
 10
292.7551825439
 20
147.1174776657
 10
291.0781150125
 20
147.6545451975
 10
289.4290814551
 20
148.2198027281
 10
287.8095033183
 20
148.8127630126
 10
286.2207766581
 20
149.4329149266
 10
284.6642709372
 20
150.0797239067
 10
283.1413278441
 20
150.7526324118
 10
281.6532601368
 20
151.4510604032
 10
280.2013505112
 20
152.1744058445
 10
278.7868504951
 20
152.922045221
 10
277.4109793701
 20
153.6933340768
  0
LINE
  5
1B0
330
1F
100
AcDbEntity
  8
0
  6
Continuous
 62
     7
370
    25
100
AcDbLine
 10
277.4109793701
 20
148.6083371438
 30
0.0
 11
277.4109793701
 21
153.6933340768
 31
0.0
  0
LWPOLYLINE
  5
1B1
330
1F
100
AcDbEntity
  8
0
  6
Continuous
 62
     7
370
    25
100
AcDbPolyline
 90
        3
 70
   128
 43
0.0
 10
258.3247673344
 20
173.8557273869
 10
258.2944502362
 20
174.4427185937
 10
258.278613469
 20
175.2730356017
  0
LWPOLYLINE
  5
1B2
330
1F
100
AcDbEntity
  8
0
  6
Continuous
 62
     7
370
    25
100
AcDbPolyline
 90
        3
 70
   128
 43
0.0
 10
388.922579749
 20
175.2730356017
 10
388.920820045
 20
174.996243382
 10
388.8800882734
 20
173.9131033914
  0
LWPOLYLINE
  5
1B3
330
1F
100
AcDbEntity
  8
0
  6
Continuous
 62
     7
370
    25
100
AcDbPolyline
 90
       15
 70
   128
 43
0.0
 10
284.4739113606
 20
157.726636872
 10
284.013184387
 20
157.1509313562
 10
283.5320497609
 20
156.6080295817
 10
283.0337360629
 20
156.1015746082
 10
282.5215871513
 20
155.6349649247
 10
281.9990397236
 20
155.2113316447
 10
281.4696002548
 20
154.8335174948
 10
280.9368214679
 20
154.5040577394
 10
280.404278494
 20
154.2251631681
 10
279.8755448818
 20
153.9987052606
 10
279.3541686176
 20
153.8262036281
 10
278.8436483178
 20
153.7088158166
 10
278.347409751
 20
153.6473295393
 10
277.8687828508
 20
153.6421573904
 10
277.4109793701
 20
153.6933340768
  0
LWPOLYLINE
  5
1B4
330
1F
100
AcDbEntity
  8
0
  6
Continuous
 62
     7
370
    25
100
AcDbPolyline
 90
       49
 70
   128
 43
0.0
 10
285.3966385942
 20
203.4217491466
 10
285.4209556671
 20
203.4351392038
 10
286.7175677523
 20
204.1262326663
 10
288.0516958823
 20
204.7931052029
 10
289.4219830318
 20
205.4350784956
 10
290.8270353956
 20
206.0514995532
 10
292.2654238066
 20
206.6417413749
 10
293.7356851898
 20
207.2052035889
 10
295.2363240498
 20
207.7413130623
 10
296.7658139928
 20
208.2495244844
 10
298.3225992784
 20
208.7293209216
 10
299.9050964025
 20
209.1802143428
 10
301.5116957079
 20
209.6017461158
 10
303.1407630217
 20
209.9934874744
 10
304.7906413171
 20
210.3550399537
 10
306.4596523992
 20
210.686035796
 10
308.1460986122
 20
210.9861383247
 10
309.8482645656
 20
211.2550422866
 10
311.5644188796
 20
211.4924741627
 10
313.2928159458
 20
211.698192446
 10
315.0316977031
 20
211.8719878876
 10
316.7792954255
 20
212.0136837092
 10
318.5338315218
 20
212.1231357831
 10
320.293521343
 20
212.2002327787
 10
322.0565749982
 20
212.2448962758
 10
323.8211991747
 20
212.2570808444
 10
325.5855989625
 20
212.2367740908
 10
327.3479796798
 20
212.1839966703
 10
329.1065486984
 20
212.098802266
 10
330.8595172673
 20
211.9812775346
 10
332.6051023322
 20
211.8315420179
 10
334.3415283488
 20
211.6497480212
 10
336.0670290893
 20
211.4360804586
 10
337.7798494383
 20
211.1907566649
 10
339.4782471789
 20
210.9140261743
 10
341.1604947639
 20
210.6061704666
 10
342.8248810738
 20
210.2675026814
 10
344.4697131566
 20
209.8983672989
 10
346.0933179505
 20
209.4991397898
 10
347.6940439849
 20
209.0702262336
 10
349.2702630609
 20
208.6120629051
 10
350.8203719072
 20
208.125115831
 10
352.3427938105
 20
207.6098803158
 10
353.8359802201
 20
207.0668804379
 10
355.2984123222
 20
206.4966685166
 10
356.7286025854
 20
205.8998245502
 10
358.1250962732
 20
205.2769556262
 10
359.4864729243
 20
204.6286953037
 10
359.537825266
 20
204.6034060516
  0
ARC
  5
1B5
330
1F
100
AcDbEntity
  8
0
  6
Continuous
 62
     7
370
    25
100
AcDbCircle
 10
280.3041969125
 20
140.4880372081
 30
0.0
 40
3.021851489275098
100
AcDbArc
 50
143.0280357799
 51
177.5523241612
  0
LWPOLYLINE
  5
1B6
330
1F
100
AcDbEntity
  8
0
  6
Continuous
 62
     7
370
    25
100
AcDbPolyline
 90
        3
 70
   128
 43
0.0
 10
258.1135657842
 20
166.6020331094
 10
258.1023611086
 20
167.6320036506
 10
258.1122446887
 20
168.0675331099
  0
LWPOLYLINE
  5
1B7
330
1F
100
AcDbEntity
  8
0
  6
Continuous
 62
     7
370
    25
100
AcDbPolyline
 90
        3
 70
   128
 43
0.0
 10
389.0889421395
 20
168.0677286509
 10
389.0988321094
 20
167.0769105711
 10
389.0891042663
 20
166.6461637117
  0
ARC
  5
1B8
330
1F
100
AcDbEntity
  8
0
  6
Continuous
 62
     7
370
    25
100
AcDbCircle
 10
307.0345810412
 20
163.1378985948
 30
0.0
 40
44.4249551672842
100
AcDbArc
 50
117.8280999546
 51
131.7250435941
  0
ARC
  5
1B9
330
1F
100
AcDbEntity
  8
0
  6
Continuous
 62
     7
370
    25
100
AcDbCircle
 10
341.0635403511
 20
164.3472097846
 30
0.0
 40
42.9216917027852
100
AcDbArc
 50
47.2853668731
 51
60.3866580277
  0
LWPOLYLINE
  5
1BA
330
1F
100
AcDbEntity
  8
0
  6
Continuous
 62
     7
370
    25
100
AcDbPolyline
 90
       57
 70
   128
 43
0.0
 10
279.7517358053
 20
198.2065978845
 10
280.4048570383
 20
198.6276016963
 10
281.6492809755
 20
199.3921333422
 10
282.9342901012
 20
200.1339533204
 10
284.258641252
 20
200.8523439679
 10
285.6210532037
 20
201.5466102883
 10
287.0202079109
 20
202.2160806237
 10
288.4547517816
 20
202.8601073048
 10
289.9232969873
 20
203.4780672774
 10
291.4244228054
 20
204.069362705
 10
292.9566769935
 20
204.6334215477
 10
294.5185771948
 20
205.1696981148
 10
296.1086123717
 20
205.6776735935
 10
297.7252442677
 20
206.1568565502
 10
299.366908896
 20
206.6067834065
 10
301.0320180521
 20
207.027018887
 10
302.7189608503
 20
207.4171564412
 10
304.4261052826
 20
207.7768186361
 10
306.1517997968
 20
208.1056575219
 10
307.894374895
 20
208.403354968
 10
309.6521447484
 20
208.6696229715
 10
311.4234088281
 20
208.9042039353
 10
313.2064535505
 20
209.1068709175
 10
314.999553935
 20
209.2774278507
 10
316.8009752728
 20
209.4157097323
 10
318.6089748051
 20
209.5215827834
 10
320.4218034092
 20
209.5949445786
 10
322.2377072903
 20
209.6357241452
 10
324.0549296789
 20
209.6438820316
 10
325.8717125296
 20
209.6194103456
 10
327.6862982222
 20
209.5623327619
 10
329.4969312625
 20
209.4727044994
 10
331.3018599797
 20
209.3506122676
 10
333.0993382221
 20
209.196174183
 10
334.8876270454
 20
209.0095396543
 10
336.6649963957
 20
208.7908892385
 10
338.4297267829
 20
208.5404344656
 10
340.1801109445
 20
208.2584176346
 10
341.9144554967
 20
207.9451115784
 10
343.6310825732
 20
207.6008194005
 10
345.3283314482
 20
207.2258741813
 10
347.004560143
 20
206.8206386561
 10
348.6581470145
 20
206.385504864
 10
350.2874923244
 20
205.920893769
 10
351.8910197863
 20
205.4272548522
 10
353.4671780908
 20
204.9050656775
 10
355.0144424066
 20
204.354831429
 10
356.5313158555
 20
203.777084423
 10
358.0163309603
 20
203.1723835924
 10
359.4680510648
 20
202.541313946
 10
360.8850717235
 20
201.8844860031
 10
362.2660220606
 20
201.2025352023
 10
363.6095660957
 20
200.496121287
 10
364.9144040368
 20
199.7659276669
 10
366.1792735374
 20
199.0126607572
 10
367.402950918
 20
198.2370492951
 10
367.4494574127
 20
198.2065978845
  0
LINE
  5
1BB
330
1F
100
AcDbEntity
  8
0
  6
Continuous
 62
     7
370
    25
100
AcDbLine
 10
277.2851024413
 20
137.209340495
 30
0.0
 11
277.2851024413
 21
140.6170914487
 31
0.0
  0
LWPOLYLINE
  5
1BC
330
1F
100
AcDbEntity
  8
0
  6
Continuous
 62
     7
370
    25
100
AcDbPolyline
 90
        3
 70
   128
 43
0.0
 10
258.1486024211
 20
162.4992837816
 10
258.1164765349
 20
163.1141263516
 10
258.100596609
 20
163.9467061572
  0
LWPOLYLINE
  5
1BD
330
1F
100
AcDbEntity
  8
0
  6
Continuous
 62
     7
370
    25
100
AcDbPolyline
 90
        3
 70
   128
 43
0.0
 10
389.100596609
 20
163.9467061572
 10
389.0988321094
 20
163.6691596174
 10
389.0567132137
 20
162.5628042172
  0
LWPOLYLINE
  5
1BE
330
1F
100
AcDbEntity
  8
0
  6
Continuous
 62
     7
370
    25
100
AcDbPolyline
 90
      197
 70
   128
 43
0.0
 10
284.624800296
 20
157.8485287329
 10
283.3955896698
 20
158.581257449
 10
282.207692406
 20
159.336353763
 10
281.0623291494
 20
160.1130417623
 10
279.9606768381
 20
160.9105233475
 10
278.9038674944
 20
161.7279790523
 10
277.8929870613
 20
162.5645688857
 10
276.9290742867
 20
163.4194331952
 10
276.0131196563
 20
164.2916935499
 10
275.1460643753
 20
165.1804536433
 10
274.3287994016
 20
166.0848002142
 10
273.5621645303
 20
167.0038039856
 10
272.8469475305
 20
167.9365206189
 10
272.1838833359
 20
168.8819916846
 10
271.57365329
 20
169.8392456474
 10
271.0168844452
 20
170.8072988641
 10
270.5141489193
 20
171.7851565946
 10
270.065963307
 20
172.771814024
 10
269.6727881492
 20
173.7662572951
 10
269.3350274601
 20
174.7674645501
 10
269.0530283116
 20
175.774406981
 10
268.8270804768
 20
176.7860498863
 10
268.6574161325
 20
177.8013537345
 10
268.5442096202
 20
178.8192752324
 10
268.4875772673
 20
179.8387683967
 10
268.4875772673
 20
180.8587856294
 10
268.5442096202
 20
181.8782787938
 10
268.6574161325
 20
182.8962002916
 10
268.8270804768
 20
183.9115041399
 10
269.0530283116
 20
184.9231470452
 10
269.3350274601
 20
185.930089476
 10
269.6727881492
 20
186.9312967311
 10
270.065963307
 20
187.9257400021
 10
270.5141489193
 20
188.9123974315
 10
271.0168844452
 20
189.890255162
 10
271.57365329
 20
190.8583083787
 10
272.1838833359
 20
191.8155623415
 10
272.8469475305
 20
192.7610334073
 10
273.5621645303
 20
193.6937500405
 10
274.3287994016
 20
194.6127538119
 10
275.1460643753
 20
195.5171003829
 10
276.0131196563
 20
196.4058604762
 10
276.9290742867
 20
197.2781208309
 10
277.8929870613
 20
198.1329851404
 10
278.9038674944
 20
198.9695749738
 10
279.9606768381
 20
199.7870306787
 10
281.0623291494
 20
200.5845122638
 10
282.207692406
 20
201.3612002631
 10
283.3955896698
 20
202.1162965771
 10
284.624800296
 20
202.8490252933
 10
285.8940611877
 20
203.5586334834
 10
287.2020680934
 20
204.244391977
 10
288.5474769476
 20
204.9055961109
 10
289.9289052519
 20
205.5415664532
 10
291.3449334952
 20
206.1516495013
 10
292.7941066127
 20
206.7352183538
 10
294.2749354812
 20
207.291673354
 10
295.7858984489
 20
207.820442707
 10
297.3254428992
 20
208.3209830664
 10
298.8919868461
 20
208.7927800932
 10
300.4839205598
 20
209.2353489841
 10
302.0996082208
 20
209.6482349696
 10
303.7373896007
 20
210.0310137814
 10
305.3955817687
 20
210.3832920885
 10
307.07248082
 20
210.704707901
 10
308.7663636275
 20
210.9949309426
 10
310.4754896122
 20
211.2536629893
 10
312.1981025316
 20
211.4806381766
 10
313.9324322845
 20
211.675623272
 10
315.6766967297
 20
211.8384179153
 10
317.4291035177
 20
211.9688548239
 10
319.1878519321
 20
212.066799965
 10
320.9511347399
 20
212.1321526935
 10
322.7171400488
 20
212.164845855
 10
324.4840531691
 20
212.164845855
 10
326.2500584781
 20
212.1321526935
 10
328.0133412859
 20
212.066799965
 10
329.7720897003
 20
211.9688548239
 10
331.5244964883
 20
211.8384179153
 10
333.2687609335
 20
211.675623272
 10
335.0030906864
 20
211.4806381766
 10
336.7257036058
 20
211.2536629893
 10
338.4348295905
 20
210.9949309426
 10
340.128712398
 20
210.704707901
 10
341.8056114493
 20
210.3832920885
 10
343.4638036172
 20
210.0310137814
 10
345.1015849972
 20
209.6482349696
 10
346.7172726582
 20
209.2353489841
 10
348.3092063719
 20
208.7927800932
 10
349.8757503188
 20
208.3209830664
 10
351.415294769
 20
207.820442707
 10
352.9262577367
 20
207.291673354
 10
354.4070866052
 20
206.7352183538
 10
355.8562597228
 20
206.1516495013
 10
357.2722879661
 20
205.5415664532
 10
358.6537162703
 20
204.9055961109
 10
359.9991251246
 20
204.244391977
 10
361.3071320303
 20
203.5586334834
 10
362.5763929219
 20
202.8490252933
 10
363.8056035482
 20
202.1162965771
 10
364.993500812
 20
201.3612002631
 10
366.1388640686
 20
200.5845122638
 10
367.2405163799
 20
199.7870306787
 10
368.2973257236
 20
198.9695749738
 10
369.3082061567
 20
198.1329851404
 10
370.2721189312
 20
197.2781208309
 10
371.1880735617
 20
196.4058604762
 10
372.0551288427
 20
195.5171003829
 10
372.8723938163
 20
194.6127538119
 10
373.6390286877
 20
193.6937500405
 10
374.3542456875
 20
192.7610334073
 10
375.017309882
 20
191.8155623415
 10
375.627539928
 20
190.8583083787
 10
376.1843087727
 20
189.890255162
 10
376.6870442986
 20
188.9123974315
 10
377.135229911
 20
187.9257400021
 10
377.5284050687
 20
186.9312967311
 10
377.8661657578
 20
185.930089476
 10
378.1481649064
 20
184.9231470452
 10
378.3741127411
 20
183.9115041399
 10
378.5437770855
 20
182.8962002916
 10
378.6569835978
 20
181.8782787938
 10
378.7136159507
 20
180.8587856294
 10
378.7136159507
 20
179.8387683967
 10
378.6569835978
 20
178.8192752324
 10
378.5437770855
 20
177.8013537345
 10
378.3741127411
 20
176.7860498863
 10
378.1481649064
 20
175.774406981
 10
377.8661657578
 20
174.7674645501
 10
377.5284050687
 20
173.7662572951
 10
377.135229911
 20
172.771814024
 10
376.6870442986
 20
171.7851565946
 10
376.1843087727
 20
170.8072988641
 10
375.627539928
 20
169.8392456474
 10
375.017309882
 20
168.8819916846
 10
374.3542456875
 20
167.9365206189
 10
373.6390286877
 20
167.0038039856
 10
372.8723938163
 20
166.0848002142
 10
372.0551288427
 20
165.1804536433
 10
371.1880735617
 20
164.2916935499
 10
370.2721189312
 20
163.4194331952
 10
369.3082061567
 20
162.5645688857
 10
368.2973257236
 20
161.7279790523
 10
367.2405163799
 20
160.9105233475
 10
366.1388640686
 20
160.1130417623
 10
364.993500812
 20
159.336353763
 10
363.8056035482
 20
158.581257449
 10
362.5763929219
 20
157.8485287329
 10
361.3071320303
 20
157.1389205428
 10
359.9991251246
 20
156.4531620492
 10
358.6537162703
 20
155.7919579152
 10
357.2722879661
 20
155.1559875729
 10
355.8562597228
 20
154.5459045248
 10
354.4070866052
 20
153.9623356724
 10
352.9262577367
 20
153.4058806721
 10
351.415294769
 20
152.8771113191
 10
349.8757503188
 20
152.3765709597
 10
348.3092063719
 20
151.9047739329
 10
346.7172726582
 20
151.462205042
 10
345.1015849972
 20
151.0493190565
 10
343.4638036172
 20
150.6665402447
 10
341.8056114493
 20
150.3142619376
 10
340.128712398
 20
149.9928461251
 10
338.4348295905
 20
149.7026230836
 10
336.7257036058
 20
149.4438910368
 10
335.0030906864
 20
149.2169158496
 10
333.2687609335
 20
149.0219307541
 10
331.5244964883
 20
148.8591361108
 10
329.7720897003
 20
148.7286992023
 10
328.0133412859
 20
148.6307540611
 10
326.2500584781
 20
148.5654013326
 10
324.4840531691
 20
148.5327081712
 10
322.7171400488
 20
148.5327081712
 10
320.9511347399
 20
148.5654013326
 10
319.1878519321
 20
148.6307540611
 10
317.4291035177
 20
148.7286992023
 10
315.6766967297
 20
148.8591361108
 10
313.9324322844
 20
149.0219307541
 10
312.1981025316
 20
149.2169158496
 10
310.4754896122
 20
149.4438910368
 10
308.7663636275
 20
149.7026230836
 10
307.07248082
 20
149.9928461251
 10
305.3955817687
 20
150.3142619376
 10
303.7373896007
 20
150.6665402447
 10
302.0996082208
 20
151.0493190565
 10
300.4839205598
 20
151.462205042
 10
298.8919868461
 20
151.9047739329
 10
297.3254428992
 20
152.3765709597
 10
295.7858984489
 20
152.8771113191
 10
294.2749354812
 20
153.4058806721
 10
292.7941066127
 20
153.9623356724
 10
291.3449334952
 20
154.5459045248
 10
289.9289052519
 20
155.1559875729
 10
288.5474769476
 20
155.7919579152
 10
287.2020680934
 20
156.4531620492
 10
285.8940611877
 20
157.1389205428
 10
284.624800296
 20
157.8485287329
  0
ARC
  5
1BF
330
1F
100
AcDbEntity
  8
0
  6
Continuous
 62
     7
370
    25
100
AcDbCircle
 10
284.7669966763
 20
157.5181669806
 30
0.0
 40
0.3596647020270675
100
AcDbArc
 50
113.2883143925
 51
144.5759774224
  0
LWPOLYLINE
  5
1C0
330
1F
100
AcDbEntity
  8
0
  6
Continuous
 62
     7
370
    25
100
AcDbPolyline
 90
       52
 70
   128
 43
0.0
 10
284.8748551841
 20
187.8573570319
 10
285.9335296111
 20
188.4655868284
 10
287.2131721713
 20
189.1579434102
 10
288.530980115
 20
189.8260156858
 10
289.8855712436
 20
190.4691029395
 10
291.2755247781
 20
191.0865306616
 10
292.6993828491
 20
191.6776512557
 10
294.1556520262
 20
192.241844718
 10
295.642804884
 20
192.7785192873
 10
297.1592816047
 20
193.2871120662
 10
298.7034916135
 20
193.7670896111
 10
300.2738152473
 20
194.2179484919
 10
301.8686054536
 20
194.6392158197
 10
303.4861895176
 20
195.0304497434
 10
305.1248708171
 20
195.3912399127
 10
306.7829306015
 20
195.7212079083
 10
308.4586297952
 20
196.0200076395
 10
310.1502108212
 20
196.2873257067
 10
311.8558994445
 20
196.52288173
 10
313.5739066332
 20
196.7264286438
 10
315.3024304352
 20
196.8977529554
 10
317.0396578675
 20
197.0366749693
 10
318.7837668186
 20
197.1430489755
 10
320.532927959
 20
197.2167634023
 10
322.2853066601
 20
197.2577409335
 10
324.0390649188
 20
197.2659385893
 10
325.7923632848
 20
197.2413477716
 10
327.5433627902
 20
197.1839942726
 10
329.2902268784
 20
197.0939382483
 10
331.0311233301
 20
196.971274155
 10
332.7642261853
 20
196.8161306504
 10
334.4877176585
 20
196.6286704586
 10
336.1997900452
 20
196.4090901995
 10
337.8986476178
 20
196.1576201824
 10
339.5825085093
 20
195.8745241647
 10
341.2496065822
 20
195.560099075
 10
342.8981932808
 20
195.2146747018
 10
344.5265394653
 20
194.8386133475
 10
346.1329372254
 20
194.4323094487
 10
347.7157016718
 20
193.9961891619
 10
349.273172703
 20
193.5307099171
 10
350.803716747
 20
193.0363599378
 10
352.3057284745
 20
192.5136577289
 10
353.7776324827
 20
191.9631515328
 10
355.2178849473
 20
191.3854187544
 10
356.6249752426
 20
190.7810653556
 10
357.997427525
 20
190.1507252198
 10
359.3338022817
 20
189.4950594867
 10
360.6326978401
 20
188.8147558591
 10
361.8927518381
 20
188.1105278815
 10
363.1126426531
 20
187.3831141919
 10
363.8786164433
 20
186.9013124752
  0
SPLINE
  5
1C1
330
1F
100
AcDbEntity
  8
0
  6
Continuous
 62
     7
370
    25
100
AcDbSpline
210
0.0
220
0.0
230
1.0
 70
     8
 71
     3
 72
     9
 73
     5
 74
     0
 42
0.00000001
 43
0.00000001
 40
0.0
 40
0.0
 40
0.0
 40
0.0
 40
0.3988961408609849
 40
1.0
 40
1.0
 40
1.0
 40
1.0
 10
281.8790405985847
 20
134.4433601798062
 30
0.0
 10
281.8216603542268
 20
134.4597349384736
 30
0.0
 10
281.6778127746688
 20
134.500785119185
 30
0.0
 10
281.5589358720158
 20
134.55762156872
 30
0.0
 10
281.4874785070684
 20
134.5917861778752
 30
0.0
  0
LWPOLYLINE
  5
1C2
330
1F
100
AcDbEntity
  8
0
  6
Continuous
 62
     7
370
    25
100
AcDbPolyline
 90
       27
 70
   128
 43
0.0
 10
277.4109793701
 20
148.6083371438
 10
276.07492312
 20
149.4026106376
 10
274.7798334085
 20
150.2191841156
 10
273.5268265868
 20
151.0573537016
 10
272.3169827313
 20
151.9163969037
 10
271.1513447123
 20
152.7955732376
 10
270.0309172952
 20
153.6941248641
 10
268.9566662745
 20
154.6112772428
 10
267.9295176412
 20
155.5462398
 10
266.9503567847
 20
156.4982066095
 10
266.0200277294
 20
157.4663570877
 10
265.1393324073
 20
158.4498567011
 10
264.309029967
 20
159.4478576851
 10
263.5298361186
 20
160.4594997755
 10
262.8024225177
 20
161.4839109492
 10
262.1274161856
 20
162.5202081766
 10
261.5053989695
 20
163.5674981825
 10
260.9369070404
 20
164.6248782158
 10
260.4224304313
 20
165.6914368282
 10
259.9624126147
 20
166.7662546594
 10
259.5572501201
 20
167.8484052298
 10
259.2072921925
 20
168.9369557392
 10
258.9128404914
 20
170.0309678705
 10
258.6741488305
 20
171.1294985988
 10
258.491422959
 20
172.2316010045
 10
258.3648203843
 20
173.3363250889
 10
258.3247673344
 20
173.8557273869
  0
LWPOLYLINE
  5
1C3
330
1F
100
AcDbEntity
  8
0
  6
Continuous
 62
     7
370
    25
100
AcDbPolyline
 90
       81
 70
   128
 43
0.0
 10
388.8800882734
 20
173.9131033914
 10
388.8785918891
 20
173.8893727458
 10
388.7800949142
 20
172.7836948097
 10
388.6254140236
 20
171.6801626544
 10
388.4146825501
 20
170.5797275108
 10
388.1480821418
 20
169.4833379403
 10
387.8258426048
 20
168.3919390171
 10
387.4482417056
 20
167.3064715135
 10
387.0156049316
 20
166.2278710889
 10
386.5283052101
 20
165.1570674835
 10
385.9867625875
 20
164.0949837166
 10
385.3914438667
 20
163.0425352912
 10
384.7428622052
 20
162.0006294047
 10
384.0415766722
 20
160.9701641672
 10
383.2881917672
 20
159.9520278266
 10
382.4833568984
 20
158.947098004
 10
381.6277658236
 20
157.9562409362
 10
380.7221560516
 20
156.9803107298
 10
379.7673082068
 20
156.0201486244
 10
378.7640453561
 20
155.0765822678
 10
377.7132322995
 20
154.1504250024
 10
376.6157748249
 20
153.2424751643
 10
375.472618927
 20
152.353515395
 10
374.2847499918
 20
151.4843119666
 10
373.0531919476
 20
150.6356141218
 10
371.7790063821
 20
149.8081534274
 10
370.4632916274
 20
149.0026431443
 10
369.1071818132
 20
148.2197776123
 10
367.7118458894
 20
147.4602316518
 10
366.278486618
 20
146.724659982
 10
364.8083395369
 20
146.0136966563
 10
363.3026718946
 20
145.3279545165
 10
361.7627815579
 20
144.6680246636
 10
360.189995893
 20
144.034475949
 10
358.5856706216
 20
143.4278544837
 10
356.9511886521
 20
142.848683168
 10
355.2879588877
 20
142.2974612403
 10
353.5974150116
 20
141.774663847
 10
351.8810142516
 20
141.2807416329
 10
350.1402361238
 20
140.8161203529
 10
348.3765811572
 20
140.3812005047
 10
346.5915696006
 20
139.9763569839
 10
344.7867401115
 20
139.6019387604
 10
342.9636484306
 20
139.2582685782
 10
341.1238660402
 20
138.9456426766
 10
339.2689788098
 20
138.6643305352
 10
337.400585629
 20
138.4145746418
 10
335.5202970296
 20
138.1965902826
 10
333.6297337968
 20
138.0105653576
 10
331.7305255727
 20
137.8566602178
 10
329.8243094511
 20
137.7350075276
 10
327.9127285666
 20
137.6457121502
 10
325.9974306779
 20
137.5888510569
 10
324.0800667482
 20
137.5644732614
 10
322.1622895212
 20
137.572599777
 10
320.245752097
 20
137.6132235988
 10
318.3321065069
 20
137.6863097095
 10
316.4230022897
 20
137.7917951098
 10
314.5200850695
 20
137.9295888726
 10
312.6249951371
 20
138.0995722215
 10
310.7393660364
 20
138.3015986328
 10
308.8648231564
 20
138.5354939623
 10
307.0029823295
 20
138.8010565952
 10
305.1554484395
 20
139.0980576198
 10
303.3238140374
 20
139.4262410249
 10
301.5096579694
 20
139.7853239204
 10
299.7145440154
 20
140.1749967815
 10
297.9400195413
 20
140.5949237149
 10
296.187614165
 20
141.0447427489
 10
294.4588384381
 20
141.5240661451
 10
292.7551825439
 20
142.0324807326
 10
291.0781150125
 20
142.5695482644
 10
289.4290814551
 20
143.1348057951
 10
287.8095033183
 20
143.7277660795
 10
286.2207766581
 20
144.3479179935
 10
284.6642709372
 20
144.9947269736
 10
283.1413278441
 20
145.6676354788
 10
281.6532601368
 20
146.3660634701
 10
280.2013505112
 20
147.0894089114
 10
278.7868504951
 20
147.8370482879
 10
277.4109793701
 20
148.6083371438
  0
LWPOLYLINE
  5
1C4
330
1F
100
AcDbEntity
  8
0
  6
Continuous
 62
     7
370
    25
100
AcDbPolyline
 90
       51
 70
   128
 43
0.0
 10
284.4739113606
 20
157.726636872
 10
283.246102161
 20
158.4584110525
 10
282.059340052
 20
159.2124159164
 10
280.9148321638
 20
159.9878845181
 10
279.8137426474
 20
160.7840280795
 10
278.7571914899
 20
161.6000367933
 10
277.7462533759
 20
162.4350806456
 10
276.781956594
 20
163.2883102609
 10
275.8652819911
 20
164.1588577657
 10
274.9971619745
 20
165.0458376716
 10
274.1784795636
 20
165.9483477756
 10
273.4100674916
 20
166.865470078
 10
272.6927073587
 20
167.796271716
 10
272.027128837
 20
168.739805913
 10
271.4140089282
 20
169.6951129409
 10
270.853971275
 20
170.6612210971
 10
270.347585527
 20
171.6371476922
 10
269.8953667608
 20
172.62190005
 10
269.4977749565
 20
173.6144765171
 10
269.1552145299
 20
174.6138674816
 10
268.8680339205
 20
175.6190564002
 10
268.6365252378
 20
176.6290208321
 10
268.4609239638
 20
177.642733479
 10
268.3414087137
 20
178.6591632302
 10
268.2781010538
 20
179.6772762112
 10
268.2710653784
 20
180.6960368352
 10
268.3203088439
 20
181.7144088569
 10
268.4257813617
 20
182.7313564262
 10
268.5873756491
 20
183.7458451418
 10
268.8049273383
 20
184.7568431034
 10
269.0782151439
 20
185.7633219617
 10
269.4069610877
 20
186.7642579638
 10
269.7908307816
 20
187.7586329947
 10
270.2294337675
 20
188.7454356132
 10
270.7223239149
 20
189.7236620804
 10
271.2689998741
 20
190.6923173807
 10
271.8689055869
 20
191.650416234
 10
272.5214308513
 20
192.5969840977
 10
273.2259119429
 20
193.5310581582
 10
273.9816322899
 20
194.4516883102
 10
274.7878232015
 20
195.357938123
 10
275.6436646505
 20
196.2488857928
 10
276.5482861066
 20
197.1236250809
 10
277.5007674226
 20
197.981266235
 10
278.5001397699
 20
198.8209368945
 10
279.5453866242
 20
199.6417829776
 10
280.6354447992
 20
200.4429695501
 10
281.7692055283
 20
201.223681675
 10
282.9455155924
 20
201.9831252408
 10
284.1631784924
 20
202.7205277699
 10
285.3966385942
 20
203.4217491466
  0
LWPOLYLINE
  5
1C5
330
1F
100
AcDbEntity
  8
0
  6
Continuous
 62
     7
370
    25
100
AcDbPolyline
 90
      103
 70
   128
 43
0.0
 10
359.537825266
 20
204.6034060516
 10
360.811347797
 20
203.9557029689
 10
362.0983732778
 20
203.2586631647
 10
363.3462402523
 20
202.538284894
 10
364.5536794366
 20
201.7953008988
 10
365.7194626685
 20
201.0304669148
 10
366.8424041567
 20
200.2445609026
 10
367.9213616868
 20
199.4383822566
 10
368.9552377835
 20
198.6127509917
 10
369.9429808263
 20
197.7685069094
 10
370.8835861199
 20
196.9065087433
 10
371.7760969154
 20
196.0276332859
 10
372.6196053842
 20
195.1327744966
 10
373.4132535408
 20
194.2228425924
 10
374.1562341157
 20
193.2987631223
 10
374.8477913769
 20
192.3614760256
 10
375.4872218979
 20
191.4119346757
 10
376.0738752739
 20
190.4511049108
 10
376.6071547829
 20
189.4799640513
 10
377.0865179927
 20
188.4994999055
 10
377.5114773129
 20
187.5107097649
 10
377.8816004908
 20
186.5145993903
 10
378.1965110508
 20
185.5121819879
 10
378.4558886776
 20
184.5044771796
 10
378.659469542
 20
183.4925099651
 10
378.8070465689
 20
182.4773096798
 10
378.8984696487
 20
181.4599089477
 10
378.9336457891
 20
180.441342631
 10
378.9125392102
 20
179.4226467774
 10
378.835171381
 20
178.4048575666
 10
378.701620997
 20
177.3890102557
 10
378.5120239008
 20
176.3761381269
 10
378.2665729434
 20
175.367271436
 10
377.9655177885
 20
174.3634363648
 10
377.6091646582
 20
173.3656539769
 10
377.1978760215
 20
172.3749391794
 10
376.7320702261
 20
171.3922996905
 10
376.2122210722
 20
170.4187350147
 10
375.638857331
 20
169.4552354256
 10
375.0125622069
 20
168.5027809593
 10
374.3339727439
 20
167.5623404169
 10
373.6037791779
 20
166.6348703796
 10
372.8227242348
 20
165.7213142354
 10
371.9916023745
 20
164.8226012197
 10
371.1112589833
 20
163.9396454699
 10
370.1825895138
 20
163.0733450957
 10
369.2065385739
 20
162.2245812656
 10
368.1840989664
 20
161.3942173107
 10
367.1163106788
 20
160.5830978463
 10
366.0042598256
 20
159.7920479129
 10
364.8490775436
 20
159.0218721371
 10
363.6519388413
 20
158.2733539129
 10
362.4140614035
 20
157.5472546055
 10
361.1367043533
 20
156.8443127758
 10
359.8211669706
 20
156.1652434302
 10
358.4687873711
 20
155.5107372929
 10
357.0809411451
 20
154.881460103
 10
355.659039958
 20
154.2780519379
 10
354.204530115
 20
153.701126562
 10
352.7188910893
 20
153.1512708022
 10
351.2036340177
 20
152.6290439515
 10
349.6603001632
 20
152.1349771996
 10
348.0904593477
 20
151.6695730927
 10
346.4957083548
 20
151.2333050226
 10
344.877669306
 20
150.826616745
 10
343.2379880103
 20
150.449921928
 10
341.5783322907
 20
150.1036037317
 10
339.900390287
 20
149.7880144179
 10
338.2058687396
 20
149.5034749924
 10
336.4964912527
 20
149.2502748782
 10
334.7739965415
 20
149.0286716209
 10
333.0401366635
 20
148.8388906271
 10
331.2966752365
 20
148.6811249351
 10
329.5453856446
 20
148.5555350181
 10
327.7880492345
 20
148.4622486217
 10
326.0264535034
 20
148.4013606332
 10
324.2623902808
 20
148.3729329857
 10
322.4976539064
 20
148.3769945946
 10
320.7340394042
 20
148.4135413287
 10
318.9733406574
 20
148.482536014
 10
317.2173485832
 20
148.5839084717
 10
315.4678493115
 20
148.7175555895
 10
313.7266223677
 20
148.8833414264
 10
311.9954388633
 20
149.0810973514
 10
310.2760596936
 20
149.3106222144
 10
308.5702337471
 20
149.5716825513
 10
306.8796961267
 20
149.8640128213
 10
305.2061663841
 20
150.1873156767
 10
303.5513467718
 20
150.5412622661
 10
301.9169205105
 20
150.9254925681
 10
300.304550078
 20
151.339615758
 10
298.7158755173
 20
151.783210605
 10
297.1525127692
 20
152.2558259009
 10
295.6160520282
 20
152.7569809191
 10
294.1080561249
 20
153.2861659033
 10
292.6300589366
 20
153.8428425863
 10
291.1835638271
 20
154.4264447372
 10
289.7700421175
 20
155.0363787376
 10
288.3909315894
 20
155.6720241854
 10
287.0476350227
 20
156.3327345256
 10
285.7415187688
 20
157.0178377083
 10
284.4739113606
 20
157.726636872
 10
284.4739113606
 20
157.726636872
  0
ARC
  5
1C6
330
1F
100
AcDbEntity
  8
0
  6
Continuous
 62
     7
370
    25
100
AcDbCircle
 10
277.9162913075
 20
148.561205134
 30
0.0
 40
0.5075052515712678
100
AcDbArc
 50
174.6712625781
 51
234.0485759681
  0
LWPOLYLINE
  5
1C7
330
1F
100
AcDbEntity
  8
0
  6
Continuous
 62
     7
370
    25
100
AcDbPolyline
 90
       29
 70
   128
 43
0.0
 10
277.8899494269
 20
142.3054517181
 10
276.561634826
 20
143.0952317765
 10
275.2742488133
 20
143.9072850089
 10
274.0289115432
 20
144.740904848
 10
272.8267065832
 20
145.5953659615
 10
271.6686799716
 20
146.469924883
 10
270.5558393069
 20
147.3638206589
 10
269.4891528717
 20
148.2762755107
 10
268.4695487894
 20
149.2064955119
 10
267.4979142173
 20
150.1536712781
 10
266.5750945744
 20
151.116978672
 10
265.7018928058
 20
152.0955795201
 10
264.8790686842
 20
153.088622342
 10
264.1073381486
 20
154.0952430915
 10
263.3873726815
 20
155.1145659081
 10
262.7197987247
 20
156.1457038792
 10
262.1051971342
 20
157.187759812
 10
261.5441026745
 20
158.239827014
 10
261.0370035539
 20
159.3009900817
 10
260.5843409992
 20
160.3703256974
 10
260.1865088719
 20
161.4469034324
 10
259.8438533256
 20
162.5297865568
 10
259.5566725049
 20
163.6180328543
 10
259.3252162858
 20
164.710695442
 10
259.1496860581
 20
165.8068235945
 10
259.0302345508
 20
166.9054635709
 10
258.9669656985
 20
168.005659445
 10
258.9599345514
 20
169.1064539366
 10
258.975529163
 20
169.6113687539
  0
LWPOLYLINE
  5
1C8
330
1F
100
AcDbEntity
  8
0
  6
Continuous
 62
     7
370
    25
100
AcDbPolyline
 90
       82
 70
   128
 43
0.0
 10
388.224060125
 20
169.6482673865
 10
388.2447743357
 20
168.831251572
 10
388.2236812769
 20
167.730516947
 10
388.1463596892
 20
166.630620341
 10
388.01287685
 20
165.5325187736
 10
387.8233489027
 20
164.4371677027
 10
387.5779407556
 20
163.3455201931
 10
387.2768659381
 20
162.2585260869
 10
386.9203864154
 20
161.1771311773
 10
386.5088123603
 20
160.1022763859
 10
386.0425018832
 20
159.0348969436
 10
385.5218607207
 20
157.9759215768
 10
384.9473418826
 20
156.9262716997
 10
384.3194452576
 20
155.8868606125
 10
383.6387171784
 20
154.8585927065
 10
382.9057499462
 20
153.8423626773
 10
382.1211813158
 20
152.8390547463
 10
381.2856939399
 20
151.8495418916
 10
380.4000147761
 20
150.874685088
 10
379.4649144534
 20
149.9153325581
 10
378.4812066025
 20
148.9723190345
 10
377.4497471473
 20
148.0464650327
 10
376.3714335603
 20
147.1385761383
 10
375.247204082
 20
146.2494423051
 10
374.0780369041
 20
145.3798371681
 10
372.8649493187
 20
144.5305173707
 10
371.6089968329
 20
143.7022219057
 10
370.3112722508
 20
142.8956714727
 10
368.972904722
 20
142.1115678512
 10
367.5950587599
 20
141.3505932895
 10
366.1789332279
 20
140.6134099113
 10
364.7257602964
 20
139.9006591396
 10
363.2368043707
 20
139.2129611389
 10
361.7133609911
 20
138.5509142748
 10
360.1567557053
 20
137.9150945943
 10
358.568342915
 20
137.3060553238
 10
356.9495046979
 20
136.7243263883
 10
355.3016496046
 20
136.1704139499
 10
353.6262114334
 20
135.6447999677
 10
351.9246479827
 20
135.1479417784
 10
350.1984397823
 20
134.680271698
 10
348.4490888056
 20
134.2421966462
 10
346.6781171624
 20
133.834097792
 10
344.8870657746
 20
133.4563302221
 10
343.0774930355
 20
133.1092226319
 10
341.2509734541
 20
132.7930770397
 10
339.4090962843
 20
132.5081685237
 10
337.5534641432
 20
132.2547449827
 10
335.6856916157
 20
132.0330269204
 10
333.8074038501
 20
131.8432072538
 10
331.9202351443
 20
131.6854511447
 10
330.0258275232
 20
131.5598958568
 10
328.1258293104
 20
131.4666506357
 10
326.2218936938
 20
131.4057966141
 10
324.3156772873
 20
131.377386741
 10
322.4088386893
 20
131.3814457357
 10
320.5030370395
 20
131.4179700667
 10
318.5999305755
 20
131.4869279541
 10
316.7011751897
 20
131.5882593976
 10
314.8084229886
 20
131.7218762289
 10
312.9233208555
 20
131.8876621878
 10
311.0475090173
 20
132.0854730241
 10
309.1826196172
 20
132.3151366227
 10
307.3302752951
 20
132.5764531532
 10
305.4920877754
 20
132.8691952444
 10
303.6696564644
 20
133.1931081813
 10
301.8645670591
 20
133.5479101273
 10
300.0783901675
 20
133.9332923695
 10
298.3126799415
 20
134.3489195867
 10
296.5689727252
 20
134.794430142
 10
294.8487857177
 20
135.2694363966
 10
293.1536156532
 20
135.7735250478
 10
291.4849374989
 20
136.3062574881
 10
289.8442031712
 20
136.8671701872
 10
288.2328402725
 20
137.4557750951
 10
286.6522508492
 20
138.0715600668
 10
285.1038101719
 20
138.713989308
 10
283.5888655384
 20
139.3825038412
 10
282.1087351015
 20
140.076521992
 10
280.6647067225
 20
140.7954398954
 10
279.2580368499
 20
141.5386320213
 10
277.8899494269
 20
142.3054517181
  0
ARC
  5
1C9
330
1F
100
AcDbEntity
  8
0
  6
Continuous
 62
     7
370
    25
100
AcDbCircle
 10
274.2456882151
 20
145.5839462199
 30
0.0
 40
4.901955321858985
100
AcDbArc
 50
318.0244343838
 51
23.3061961123
  0
LWPOLYLINE
  5
1CA
330
1F
100
AcDbEntity
  8
0
  6
Continuous
 62
     7
370
    25
100
AcDbPolyline
 90
       28
 70
   128
 43
0.0
 10
277.2851024413
 20
140.6170914487
 10
275.9454051421
 20
141.4135295136
 10
274.6467860246
 20
142.232328335
 10
273.390364482
 20
143.0727821186
 10
272.1772235343
 20
143.9341664036
 10
271.0084088937
 20
144.8157386875
 10
269.8849280639
 20
145.716739066
 10
268.8077494715
 20
146.636390888
 10
267.7778016309
 20
147.573901425
 10
266.7959723443
 20
148.5284625547
 10
265.8631079365
 20
149.4992514573
 10
264.9800125247
 20
150.4854313247
 10
264.1474473265
 20
151.4861520823
 10
263.3661300024
 20
152.5005511212
 10
262.6367340384
 20
153.5277540421
 10
261.9598881648
 20
154.5668754088
 10
261.3361758141
 20
155.6170195117
 10
260.7661346187
 20
156.6772811396
 10
260.250255947
 20
157.7467463603
 10
259.78898448
 20
158.8244933079
 10
259.3827178279
 20
159.9095929782
 10
259.0318061876
 20
161.0011100285
 10
258.7365520404
 20
162.098103585
 10
258.4972098919
 20
163.1996280527
 10
258.3139860519
 20
164.3047339313
 10
258.1870384572
 20
165.4124686334
 10
258.1164765349
 20
166.5218773053
 10
258.1135657842
 20
166.6020331094
  0
LWPOLYLINE
  5
1CB
330
1F
100
AcDbEntity
  8
0
  6
Continuous
 62
     7
370
    25
100
AcDbPolyline
 90
       81
 70
   128
 43
0.0
 10
389.0891042663
 20
166.6461637117
 10
389.0564888724
 20
165.9670234674
 10
388.9577234715
 20
164.8583323143
 10
388.8026210412
 20
163.7517927896
 10
388.5913152779
 20
162.6483587167
 10
388.3239883244
 20
161.5489812421
 10
388.0008706134
 20
160.4546080153
 10
387.6222406682
 20
159.3661823725
 10
387.1884248632
 20
158.2846425231
 10
386.6997971421
 20
157.2109207408
 10
386.156778696
 20
156.1459425606
 10
385.5598376
 20
155.0906259804
 10
384.9094884099
 20
154.0458806698
 10
384.2062917187
 20
153.0126071864
 10
383.450853673
 20
151.991696199
 10
382.6438254511
 20
150.9840277202
 10
381.7859027013
 20
149.9904703477
 10
380.8778249423
 20
149.0118805154
 10
379.9203749258
 20
148.0491017558
 10
378.9143779617
 20
147.1029639721
 10
377.8607012071
 20
146.1742827232
 10
376.760252918
 20
145.2638585209
 10
375.6139816672
 20
144.3724761394
 10
374.4228755263
 20
143.5009039394
 10
373.1879612139
 20
142.6498932051
 10
371.9103032108
 20
141.8201774972
 10
370.5910028422
 20
141.0124720203
 10
369.2311973287
 20
140.2274730065
 10
367.8320588056
 20
139.4658571152
 10
366.394793313
 20
138.7282808497
 10
364.9206397558
 20
138.0153799917
 10
363.4108688359
 20
137.3277690528
 10
361.8667819573
 20
136.666040745
 10
360.2897101034
 20
136.0307654699
 10
358.6810126906
 20
135.4224908269
 10
357.0420763961
 20
134.8417411412
 10
355.3743139624
 20
134.2890170117
 10
353.6791629801
 20
133.7647948798
 10
351.9580846482
 20
133.2695266184
 10
350.2125625147
 20
132.8036391426
 10
348.4441011981
 20
132.3675340416
 10
346.6542250899
 20
131.9615872326
 10
344.8444770411
 20
131.5861486366
 10
343.0164170319
 20
131.241541877
 10
341.1716208274
 20
130.9280640007
 10
339.3116786187
 20
130.6459852215
 10
337.4381936531
 20
130.3955486879
 10
335.5527808511
 20
130.1769702732
 10
333.6570654152
 20
129.990438389
 10
331.7526814283
 20
129.8361138237
 10
329.841270446
 20
129.714129603
 10
327.9244800804
 20
129.6245908759
 10
326.0039625812
 20
129.5675748236
 10
324.0813734104
 20
129.5431305932
 10
322.1583698161
 20
129.5512792553
 10
320.2366094032
 20
129.592013786
 10
318.3177487055
 20
129.6652990725
 10
316.4034417568
 20
129.7710719439
 10
314.495338666
 20
129.9092412252
 10
312.5950841941
 20
130.0796878163
 10
310.7043163369
 20
130.2822647943
 10
308.8246649127
 20
130.5167975404
 10
306.9577501575
 20
130.7830838902
 10
305.1051813287
 20
131.0808943083
 10
303.2685553176
 20
131.4099720858
 10
301.4494552728
 20
131.7700335617
 10
299.649449236
 20
132.1607683676
 10
297.87008879
 20
132.5818396948
 10
296.1129077212
 20
133.0328845853
 10
294.379420698
 20
133.5135142437
 10
292.6711219644
 20
134.0233143735
 10
290.9894840528
 20
134.5618455332
 10
289.3359565141
 20
135.1286435157
 10
287.7119646684
 20
135.7232197482
 10
286.1189083765
 20
136.3450617133
 10
284.558160833
 20
136.9936333911
 10
283.031067383
 20
137.6683757208
 10
281.5389443619
 20
138.368707083
 10
280.0830779612
 20
139.0940238007
 10
278.6647231196
 20
139.84370066
 10
277.2851024413
 20
140.6170914487
  0
LWPOLYLINE
  5
1CC
330
1F
100
AcDbEntity
  8
0
  6
Continuous
 62
     7
370
    25
100
AcDbPolyline
 90
       50
 70
   128
 43
0.0
 10
286.2961050233
 20
202.4252025755
 10
286.5173214236
 20
202.5436678683
 10
287.831571079
 20
203.2212913124
 10
289.1829537353
 20
203.8741208251
 10
290.5700664777
 20
204.5014786825
 10
291.9914692988
 20
205.102713604
 10
293.4456865939
 20
205.6772014278
 10
294.9312086919
 20
206.2243457591
 10
296.4464934238
 20
206.7435785895
 10
297.9899677225
 20
207.2343608863
 10
299.5600292567
 20
207.6961831523
 10
301.1550480938
 20
208.1285659546
 10
302.7733683926
 20
208.5310604224
 10
304.4133101214
 20
208.903248713
 10
306.0731708028
 20
209.2447444454
 10
307.751227281
 20
209.5551931018
 10
309.4457375103
 20
209.8342723952
 10
311.154942364
 20
210.0816926042
 10
312.8770674604
 20
210.2971968737
 10
314.6103250048
 20
210.4805614817
 10
316.3529156456
 20
210.6315960713
 10
318.1030303422
 20
210.7501438487
 10
319.8588522429
 20
210.8360817453
 10
321.6185585715
 20
210.8893205464
 10
323.3803225189
 20
210.9098049829
 10
325.1423151401
 20
210.8975137893
 10
326.9027072526
 20
210.8524597255
 10
328.6596713355
 20
210.7746895635
 10
330.4113834267
 20
210.6642840391
 10
332.1560250163
 20
210.521357768
 10
333.8917849345
 20
210.3460591266
 10
335.6168612319
 20
210.1385700981
 10
337.3294630501
 20
209.8991060838
 10
339.0278124809
 20
209.6279156792
 10
340.7101464119
 20
209.3252804158
 10
342.374718357
 20
208.9915144693
 10
344.0198002693
 20
208.6269643331
 10
345.6436843353
 20
208.2320084586
 10
347.2446847475
 20
207.8070568626
 10
348.8211394548
 20
207.3525507013
 10
350.3714118878
 20
206.8689618124
 10
351.8938926577
 20
206.3567922255
 10
353.3870012271
 20
205.8165736406
 10
354.849187551
 20
205.2488668764
 10
356.2789336858
 20
204.654261288
 10
357.6747553649
 20
204.033374155
 10
359.0352035401
 20
203.3868500406
 10
360.3588658853
 20
202.7153601228
 10
361.6443682633
 20
202.0196014975
 10
362.2730507233
 20
201.6624652225
  0
LWPOLYLINE
  5
1CD
330
1F
100
AcDbEntity
  8
0
  6
Continuous
 62
     7
370
    25
100
AcDbPolyline
 90
       27
 70
   128
 43
0.0
 10
277.2851024413
 20
137.209340495
 10
275.9454051421
 20
138.0057785599
 10
274.6467860246
 20
138.8245773813
 10
273.390364482
 20
139.6650311649
 10
272.1772235343
 20
140.5264154499
 10
271.0084088937
 20
141.4079877338
 10
269.8849280639
 20
142.3089881123
 10
268.8077494715
 20
143.2286399343
 10
267.7778016309
 20
144.1661504713
 10
266.7959723443
 20
145.120711601
 10
265.8631079365
 20
146.0915005036
 10
264.9800125247
 20
147.077680371
 10
264.1474473265
 20
148.0784011286
 10
263.3661300024
 20
149.0928001675
 10
262.6367340384
 20
150.1200030884
 10
261.9598881648
 20
151.1591244551
 10
261.3361758141
 20
152.209268558
 10
260.7661346187
 20
153.269530186
 10
260.250255947
 20
154.3389954066
 10
259.78898448
 20
155.4167423543
 10
259.3827178279
 20
156.5018420245
 10
259.0318061876
 20
157.5933590749
 10
258.7365520404
 20
158.6903526313
 10
258.4972098919
 20
159.791877099
 10
258.3139860519
 20
160.8969829776
 10
258.1870384572
 20
162.0047176797
 10
258.1486024211
 20
162.4992837816
  0
LWPOLYLINE
  5
1CE
330
1F
100
AcDbEntity
  8
0
  6
Continuous
 62
     7
370
    25
100
AcDbPolyline
 90
       81
 70
   128
 43
0.0
 10
389.0567132137
 20
162.5628042172
 10
389.0564888724
 20
162.5592725138
 10
388.9577234715
 20
161.4505813606
 10
388.8026210412
 20
160.3440418359
 10
388.5913152779
 20
159.2406077631
 10
388.3239883244
 20
158.1412302884
 10
388.0008706134
 20
157.0468570616
 10
387.6222406682
 20
155.9584314188
 10
387.1884248632
 20
154.8768915694
 10
386.6997971421
 20
153.8031697871
 10
386.156778696
 20
152.7381916069
 10
385.5598376
 20
151.6828750267
 10
384.9094884099
 20
150.6381297161
 10
384.2062917187
 20
149.6048562327
 10
383.450853673
 20
148.5839452453
 10
382.6438254511
 20
147.5762767665
 10
381.7859027013
 20
146.582719394
 10
380.8778249423
 20
145.6041295618
 10
379.9203749258
 20
144.6413508021
 10
378.9143779617
 20
143.6952130184
 10
377.8607012071
 20
142.7665317695
 10
376.760252918
 20
141.8561075672
 10
375.6139816672
 20
140.9647251858
 10
374.4228755263
 20
140.0931529857
 10
373.1879612139
 20
139.2421422514
 10
371.9103032108
 20
138.4124265435
 10
370.5910028422
 20
137.6047210666
 10
369.2311973287
 20
136.8197220528
 10
367.8320588056
 20
136.0581061615
 10
366.394793313
 20
135.320529896
 10
364.9206397558
 20
134.607629038
 10
363.4108688359
 20
133.9200180991
 10
361.8667819573
 20
133.2582897913
 10
360.2897101034
 20
132.6230145162
 10
358.6810126906
 20
132.0147398732
 10
357.0420763961
 20
131.4339901875
 10
355.3743139624
 20
130.881266058
 10
353.6791629801
 20
130.3570439261
 10
351.9580846482
 20
129.8617756647
 10
350.2125625147
 20
129.3958881889
 10
348.4441011981
 20
128.9597830879
 10
346.6542250899
 20
128.5538362789
 10
344.8444770411
 20
128.1783976829
 10
343.0164170319
 20
127.8337909233
 10
341.1716208274
 20
127.520313047
 10
339.3116786187
 20
127.2382342678
 10
337.4381936531
 20
126.9877977343
 10
335.5527808511
 20
126.7692193195
 10
333.6570654152
 20
126.5826874353
 10
331.7526814283
 20
126.42836287
 10
329.841270446
 20
126.3063786493
 10
327.9244800804
 20
126.2168399222
 10
326.0039625812
 20
126.1598238699
 10
324.0813734104
 20
126.1353796395
 10
322.1583698161
 20
126.1435283017
 10
320.2366094032
 20
126.1842628323
 10
318.3177487055
 20
126.2575481189
 10
316.4034417568
 20
126.3633209902
 10
314.495338666
 20
126.5014902716
 10
312.5950841941
 20
126.6719368626
 10
310.7043163369
 20
126.8745138406
 10
308.8246649127
 20
127.1090465867
 10
306.9577501575
 20
127.3753329366
 10
305.1051813287
 20
127.6731433547
 10
303.2685553176
 20
128.0022211321
 10
301.4494552728
 20
128.3622826081
 10
299.649449236
 20
128.7530174139
 10
297.87008879
 20
129.1740887412
 10
296.1129077212
 20
129.6251336316
 10
294.379420698
 20
130.1057632901
 10
292.6711219644
 20
130.6155634198
 10
290.9894840528
 20
131.1540945795
 10
289.3359565141
 20
131.720892562
 10
287.7119646684
 20
132.3154687945
 10
286.1189083765
 20
132.9373107596
 10
284.558160833
 20
133.5858824374
 10
283.031067383
 20
134.2606247671
 10
281.5389443619
 20
134.9609561293
 10
280.0830779612
 20
135.686272847
 10
278.6647231196
 20
136.4359497063
 10
277.2851024413
 20
137.209340495
  0
LWPOLYLINE
  5
1CF
330
1F
100
AcDbEntity
  8
0
  6
Continuous
 62
     7
370
    25
100
AcDbPolyline
 90
       78
 70
   128
 43
0.0
 10
269.1433856241
 20
181.2891039666
 10
269.1974351679
 20
181.3599863325
 10
269.9629762583
 20
182.3205675067
 10
270.7793958805
 20
183.2670836061
 10
271.6459196112
 20
184.1986368028
 10
272.5617255001
 20
185.1143434622
 10
273.5259448498
 20
186.0133349811
 10
274.5376630399
 20
186.8947586115
 10
275.5959203944
 20
187.7577782698
 10
276.6997130921
 20
188.6015753295
 10
277.8479941187
 20
189.425349398
 10
279.0396742602
 20
190.2283190757
 10
280.2736231357
 20
191.0097226972
 10
281.5486702701
 20
191.7688190539
 10
282.8636062038
 20
192.5048880969
 10
284.2171836404
 20
193.2172316201
 10
285.6081186299
 20
193.9051739225
 10
287.035091786
 20
194.5680624492
 10
288.4967495383
 20
195.2052684103
 10
289.991705416
 20
195.8161873772
 10
291.5185413627
 20
196.4002398565
 10
293.0758090822
 20
196.9568718388
 10
294.6620314116
 20
197.4855553251
 10
296.275703723
 20
197.9857888271
 10
297.9152953505
 20
198.4570978429
 10
299.579251042
 20
198.8990353075
 10
301.2659924349
 20
199.3111820163
 10
302.9739195527
 20
199.6931470232
 10
304.7014123232
 20
200.0445680114
 10
306.4468321147
 20
200.3651116367
 10
308.2085232909
 20
200.654473844
 10
309.984814781
 20
200.9123801558
 10
311.7740216649
 20
201.1385859323
 10
313.5744467715
 20
201.3328766037
 10
315.3843822885
 20
201.4950678734
 10
317.2021113825
 20
201.6250058933
 10
319.0259098274
 20
201.7225674092
 10
320.8540476397
 20
201.7876598782
 10
322.6847907201
 20
201.820221556
 10
324.5164024979
 20
201.820221556
 10
326.3471455783
 20
201.7876598782
 10
328.1752833906
 20
201.7225674092
 10
329.9990818354
 20
201.6250058933
 10
331.8168109295
 20
201.4950678734
 10
333.6267464465
 20
201.3328766037
 10
335.4271715531
 20
201.1385859323
 10
337.216378437
 20
200.9123801558
 10
338.9926699271
 20
200.654473844
 10
340.7543611033
 20
200.3651116367
 10
342.4997808948
 20
200.0445680114
 10
344.2272736652
 20
199.6931470232
 10
345.9352007831
 20
199.3111820163
 10
347.6219421759
 20
198.8990353075
 10
349.2858978675
 20
198.4570978429
 10
350.925489495
 20
197.9857888271
 10
352.5391618064
 20
197.4855553251
 10
354.1253841358
 20
196.9568718388
 10
355.6826518552
 20
196.4002398565
 10
357.209487802
 20
195.8161873772
 10
358.7044436796
 20
195.2052684103
 10
360.166101432
 20
194.5680624492
 10
361.5930745881
 20
193.9051739225
 10
362.9840095776
 20
193.2172316201
 10
364.3375870142
 20
192.5048880969
 10
365.6525229479
 20
191.7688190539
 10
366.9275700822
 20
191.0097226972
 10
368.1615189578
 20
190.2283190757
 10
369.3531990992
 20
189.425349398
 10
370.5014801259
 20
188.6015753295
 10
371.6052728236
 20
187.7577782698
 10
372.6635301781
 20
186.8947586115
 10
373.6752483682
 20
186.0133349811
 10
374.6394677179
 20
185.1143434622
 10
375.5552736068
 20
184.1986368028
 10
376.4217973374
 20
183.2670836061
 10
377.2382169597
 20
182.3205675067
 10
378.00375805
 20
181.3599863325
 10
378.0341772749
 20
181.3201469169
  0
ARC
  5
1D0
330
1F
100
AcDbEntity
  8
0
  6
Continuous
 62
     7
370
    25
100
AcDbCircle
 10
277.7756359551
 20
137.155591098
 30
0.0
 40
0.4934694781918674
100
AcDbArc
 50
173.7468560137
 51
235.0760676024
  0
ARC
  5
1D1
330
1F
100
AcDbEntity
  8
0
  6
Continuous
 62
     7
370
    25
100
AcDbCircle
 10
284.7595993579
 20
157.5616450836
 30
0.0
 40
0.316974786509855
100
AcDbArc
 50
61.6449131575
 51
115.1675938428
  0
LWPOLYLINE
  5
1D2
330
1F
100
AcDbEntity
  8
0
  6
Continuous
 62
     7
370
    25
100
AcDbPolyline
 90
       78
 70
   128
 43
0.0
 10
269.0962271892
 20
180.051192928
 10
269.6974055354
 20
180.8520574916
 10
270.4715992088
 20
181.8083598503
 10
271.2966866507
 20
182.7503730841
 10
272.1718774865
 20
183.6771948119
 10
273.0963333461
 20
184.5879372051
 10
274.0691686671
 20
185.4817278377
 10
275.0894515431
 20
186.3577105225
 10
276.1562046163
 20
187.2150461308
 10
277.2684060137
 20
188.0529133966
 10
278.4249903263
 20
188.8705097033
 10
279.6248496291
 20
189.6670518521
 10
280.866834543
 20
190.4417768129
 10
282.1497553356
 20
191.1939424547
 10
283.4723830608
 20
191.9228282567
 10
284.8334507362
 20
192.6277359987
 10
286.2316545564
 20
193.3079904296
 10
287.6656551425
 20
193.9629399145
 10
289.1340788249
 20
194.5919570587
 10
290.635518959
 20
195.194439309
 10
292.1685372728
 20
195.7698095305
 10
293.7316652448
 20
196.3175165598
 10
295.3234055105
 20
196.837035733
 10
296.9422332968
 20
197.3278693878
 10
298.586597883
 20
197.789547341
 10
300.2549240856
 20
198.221627338
 10
301.9456137679
 20
198.6236954773
 10
303.6570473703
 20
198.9953666064
 10
305.3875854624
 20
199.3362846911
 10
307.1355703127
 20
199.6461231563
 10
308.8993274771
 20
199.9245851989
 10
310.6771674027
 20
200.1714040723
 10
312.4673870466
 20
200.3863433417
 10
314.2682715066
 20
200.5691971108
 10
316.0780956646
 20
200.7197902186
 10
317.8951258389
 20
200.8379784079
 10
319.7176214449
 20
200.9236484628
 10
321.5438366626
 20
200.9767183176
 10
323.3720221089
 20
200.9971371351
 10
325.200426513
 20
200.9848853555
 10
327.0272983949
 20
200.9399747153
 10
328.8508877423
 20
200.8624482355
 10
330.6694476874
 20
200.752380181
 10
332.4812361803
 20
200.6098759891
 10
334.2845176574
 20
200.4350721685
 10
336.0775647046
 20
200.2281361689
 10
337.8586597113
 20
199.98926622
 10
339.6260965163
 20
199.7186911421
 10
341.378182042
 20
199.4166701267
 10
343.113237916
 20
199.0834924883
 10
344.8296020793
 20
198.7194773872
 10
346.5256303782
 20
198.3249735238
 10
348.1996981393
 20
197.9003588043
 10
349.8502017255
 20
197.4460399794
 10
351.4755600731
 20
196.9624522537
 10
353.0742162051
 20
196.4500588698
 10
354.6446387238
 20
195.9093506636
 10
356.185323277
 20
195.3408455949
 10
357.6947939994
 20
194.7450882507
 10
359.1716049263
 20
194.1226493238
 10
360.6143413789
 20
193.4741250661
 10
362.021621319
 20
192.8001367173
 10
363.3920966735
 20
192.1013299099
 10
364.7244546253
 20
191.3783740507
 10
366.017418871
 20
190.6319616795
 10
367.2697508435
 20
189.8628078059
 10
368.4802508988
 20
189.071649224
 10
369.6477594646
 20
188.2592438071
 10
370.7711581515
 20
187.4263697813
 10
371.849370824
 20
186.5738249801
 10
372.8813646318
 20
185.7024260803
 10
373.8661509989
 20
184.8130078195
 10
374.8027865705
 20
183.9064221967
 10
375.6903741169
 20
182.9835376558
 10
376.528063393
 20
182.045238254
 10
377.3150519525
 20
181.0924228149
 10
378.0505859169
 20
180.1260040673
 10
378.1134621743
 20
180.0394594964
  0
LWPOLYLINE
  5
1D3
330
1F
100
AcDbEntity
  8
0
  6
Continuous
 62
     7
370
    25
100
AcDbPolyline
 90
       87
 70
   128
 43
0.0
 10
270.4358519052
 20
172.8558169598
 10
270.4987944252
 20
173.0257127068
 10
270.8971906694
 20
174.0098420867
 10
271.3503000513
 20
174.9860513301
 10
271.8576521832
 20
175.9533270019
 10
272.418720366
 20
176.9106649415
 10
273.0329221366
 20
177.857071305
 10
273.6996198718
 20
178.7915635967
 10
274.4181214509
 20
179.7131716897
 10
275.1876809737
 20
180.6209388321
 10
276.0074995352
 20
181.513922641
 10
276.8767260548
 20
182.3911960808
 10
277.7944581599
 20
183.2518484248
 10
278.7597431227
 20
184.0949862018
 10
279.771578849
 20
184.9197341226
 10
280.8289149191
 20
185.7252359894
 10
281.9306536774
 20
186.5106555841
 10
283.075651373
 20
187.2751775368
 10
284.2627193459
 20
188.0180081723
 10
285.490625262
 20
188.7383763336
 10
286.7580943918
 20
189.4355341829
 10
288.0638109338
 20
190.1087579776
 10
289.4064193809
 20
190.7573488221
 10
290.7845259271
 20
191.3806333928
 10
292.1966999147
 20
191.9779646376
 10
293.6414753194
 20
192.5487224473
 10
295.1173522726
 20
193.0923142994
 10
296.6227986176
 20
193.6081758734
 10
298.1562515014
 20
194.0957716364
 10
299.716118996
 20
194.5545953992
 10
301.3007817517
 20
194.9841708419
 10
302.908594678
 20
195.3840520079
 10
304.5378886516
 20
195.7538237676
 10
306.1869722487
 20
196.0931022487
 10
307.8541335016
 20
196.4015352351
 10
309.5376416752
 20
196.6788025324
 10
311.2357490645
 20
196.9246163003
 10
312.9466928084
 20
197.1387213513
 10
314.66869672
 20
197.3208954161
 10
316.3999731304
 20
197.4709493738
 10
318.1387247446
 20
197.5887274483
 10
319.8831465075
 20
197.6741073705
 10
321.6314274775
 20
197.7270005046
 10
323.3817527067
 20
197.7473519405
 10
325.1323051249
 20
197.7351405507
 10
326.8812674262
 20
197.6903790123
 10
328.6268239554
 20
197.6131137936
 10
330.3671625927
 20
197.5034251063
 10
332.1004766355
 20
197.3614268218
 10
333.8249666735
 20
197.1872663532
 10
335.538842457
 20
196.9811245021
 10
337.2403247551
 20
196.7432152712
 10
338.9276472032
 20
196.4737856419
 10
340.5990581364
 20
196.173115318
 10
342.2528224081
 20
195.8415164351
 10
343.8872231912
 20
195.4793332371
 10
345.5005637605
 20
195.0869417181
 10
347.0911692543
 20
194.6647492327
 10
348.6573884126
 20
194.2131940727
 10
350.197595292
 20
193.7327450126
 10
351.7101909529
 20
193.2239008221
 10
353.1936051202
 20
192.6871897492
 10
354.6462978129
 20
192.1231689713
 10
356.0667609429
 20
191.5324240168
 10
357.4535198807
 20
190.9155681576
 10
358.8051349865
 20
190.273241772
 10
360.120203104
 20
189.6061116801
 10
361.3973590179
 20
188.9148704515
 10
362.6352768706
 20
188.2002356866
 10
363.8326715389
 20
187.4629492711
 10
364.9882999681
 20
186.7037766063
 10
366.1009624624
 20
185.9235058143
 10
367.1695039302
 20
185.1229469198
 10
368.1928150834
 20
184.3029310094
 10
369.1698335893
 20
183.4643093685
 10
370.0995451727
 20
182.6079525978
 10
370.9809846696
 20
181.7347497094
 10
371.8132370285
 20
180.8456072039
 10
372.5954382611
 20
179.9414481293
 10
373.3267763383
 20
179.023211123
 10
374.0064920343
 20
178.0918494369
 10
374.6338797138
 20
177.1483299482
 10
375.208288065
 20
176.1936321555
 10
375.7291207757
 20
175.2287471619
 10
376.1958371524
 20
174.2546766463
 10
376.6079526814
 20
173.2724318233
 10
376.7588277411
 20
172.8736141794
  0
LINE
  5
1D4
330
1F
100
AcDbEntity
  8
0
  6
Continuous
 62
     7
370
    25
100
AcDbLine
 10
281.4874785071
 20
134.5917861779
 30
0.0
 11
281.4874785071
 21
134.6301764756
 31
0.0
  0
LINE
  5
1D5
330
1F
100
AcDbEntity
  8
0
  6
Continuous
 62
     7
370
    25
100
AcDbLine
 10
187.604940712
 20
212.5130337873
 30
0.0
 11
79.0491513824
 21
212.5130337873
 31
0.0
  0
LINE
  5
1D6
330
1F
100
AcDbEntity
  8
0
  6
Continuous
 62
     7
370
    25
100
AcDbLine
 10
70.7432870818
 20
208.1759020995
 30
0.0
 11
195.9108050126
 21
208.1759020995
 31
0.0
  0
LINE
  5
1D7
330
1F
100
AcDbEntity
  8
0
  6
Continuous
 62
     7
370
    25
100
AcDbLine
 10
188.4991058972
 20
229.6174290501
 30
0.0
 11
78.1549861972
 21
229.6174290501
 31
0.0
  0
ARC
  5
1D8
330
1F
100
AcDbEntity
  8
0
  6
Continuous
 62
     7
370
    25
100
AcDbCircle
 10
69.8270460472
 20
213.6990304573
 30
0.0
 40
2.000000000000167
100
AcDbArc
 50
124.9113685014
 51
180.0
  0
ARC
  5
1D9
330
1F
100
AcDbEntity
  8
0
  6
Continuous
 62
     7
370
    25
100
AcDbCircle
 10
66.2140830842
 20
218.8759020995
 30
0.0
 40
4.312962962963015
100
AcDbArc
 50
304.9113685013
 51
58.3105400113
  0
ARC
  5
1DA
330
1F
100
AcDbEntity
  8
0
  6
Continuous
 62
     7
370
    25
100
AcDbCircle
 10
69.0050629072
 20
223.3967435117
 30
0.0
 40
1.000000000000011
100
AcDbArc
 50
180.0
 51
238.3105400113
  0
LINE
  5
1DB
330
1F
100
AcDbEntity
  8
0
  6
Continuous
 62
     7
370
    25
100
AcDbLine
 10
68.0050629072
 20
223.3967435117
 30
0.0
 11
68.0050629072
 21
229.6242300734
 31
0.0
  0
ARC
  5
1DC
330
1F
100
AcDbEntity
  8
0
  6
Continuous
 62
     7
370
    25
100
AcDbCircle
 10
73.0410544772
 20
237.3279671044
 30
0.0
 40
9.203737031025854
100
AcDbArc
 50
236.8270491439
 51
302.5541823587
  0
ARC
  5
1DD
330
1F
100
AcDbEntity
  8
0
  6
Continuous
 62
     7
370
    25
100
AcDbCircle
 10
78.1549861972
 20
229.3174290501
 30
0.0
 40
0.3000000000000337
100
AcDbArc
 50
80.0260543913
 51
122.5541823587
  0
ARC
  5
1DE
330
1F
100
AcDbEntity
  8
0
  6
Continuous
 62
     7
370
    25
100
AcDbCircle
 10
78.0770460472
 20
228.8742300734
 30
0.0
 40
0.7499999999999796
100
AcDbArc
 50
318.2822581158
 51
80.0260543914
  0
LINE
  5
1DF
330
1F
100
AcDbEntity
  8
0
  6
Continuous
 62
     7
370
    25
100
AcDbLine
 10
74.9004992695
 20
224.1841367298
 30
0.0
 11
78.6368701635
 21
228.3751339315
 31
0.0
  0
LINE
  5
1E0
330
1F
100
AcDbEntity
  8
0
  6
Continuous
 62
     7
370
    25
100
AcDbLine
 10
73.8566414948
 20
213.868405455
 30
0.0
 11
74.9004992695
 21
224.1841367298
 31
0.0
  0
ARC
  5
1E1
330
1F
100
AcDbEntity
  8
0
  6
Continuous
 62
     7
370
    25
100
AcDbCircle
 10
74.6028308875
 20
213.7928979046
 30
0.0
 40
0.7499999999999666
100
AcDbArc
 50
174.2218588583
 51
241.7455549182
  0
ARC
  5
1E2
330
1F
100
AcDbEntity
  8
0
  6
Continuous
 62
     7
370
    25
100
AcDbCircle
 10
77.4462941093
 20
219.0838557676
 30
0.0
 40
6.756622861661
100
AcDbArc
 50
241.7455549182
 51
283.2242654707
  0
ARC
  5
1E3
330
1F
100
AcDbEntity
  8
0
  6
Continuous
 62
     7
370
    25
100
AcDbCircle
 10
79.0491513824
 20
212.2630337873
 30
0.0
 40
0.2499999999999922
100
AcDbArc
 50
299.8966880864
 51
103.2242654707
  0
LINE
  5
1E4
330
1F
100
AcDbEntity
  8
0
  6
Continuous
 62
     7
370
    25
100
AcDbLine
 10
73.6595281165
 20
208.8759020995
 30
0.0
 11
79.1737607896
 21
212.0463023968
 31
0.0
  0
ARC
  5
1E5
330
1F
100
AcDbEntity
  8
0
  6
Continuous
 62
     7
370
    25
100
AcDbCircle
 10
70.7432870818
 20
214.600517651
 30
0.0
 40
6.424615551491612
100
AcDbArc
 50
249.3138207931
 51
296.9952618944
  0
ARC
  5
1E6
330
1F
100
AcDbEntity
  8
0
  6
Continuous
 62
     7
370
    25
100
AcDbCircle
 10
68.8270460472
 20
209.5256310337
 30
0.0
 40
1.0
100
AcDbArc
 50
180.0
 51
249.3138207931
  0
LINE
  5
1E7
330
1F
100
AcDbEntity
  8
0
  6
Continuous
 62
     7
370
    25
100
AcDbLine
 10
67.8270460472
 20
209.5256310337
 30
0.0
 11
67.8270460472
 21
213.6990304573
 31
0.0
  0
ARC
  5
1E8
330
1F
100
AcDbEntity
  8
0
  6
Continuous
 62
     7
370
    25
100
AcDbCircle
 10
187.604940712
 20
212.2630337873
 30
0.0
 40
0.2499999999999922
100
AcDbArc
 50
76.7757345293
 51
240.1033119136
  0
LINE
  5
1E9
330
1F
100
AcDbEntity
  8
0
  6
Continuous
 62
     7
370
    25
100
AcDbLine
 10
79.1737607896
 20
212.0463023968
 30
0.0
 11
187.4803313047
 21
212.0463023968
 31
0.0
  0
ARC
  5
1EA
330
1F
100
AcDbEntity
  8
0
  6
Continuous
 62
     7
370
    25
100
AcDbCircle
 10
197.8270460472
 20
209.5256310337
 30
0.0
 40
1.0
100
AcDbArc
 50
290.6861792069
 51
0.0
  0
ARC
  5
1EB
330
1F
100
AcDbEntity
  8
0
  6
Continuous
 62
     7
370
    25
100
AcDbCircle
 10
195.9108050126
 20
214.600517651
 30
0.0
 40
6.424615551491602
100
AcDbArc
 50
243.0047381056
 51
290.6861792069
  0
LINE
  5
1EC
330
1F
100
AcDbEntity
  8
0
  6
Continuous
 62
     7
370
    25
100
AcDbLine
 10
187.4803313047
 20
212.0463023968
 30
0.0
 11
192.9945639779
 21
208.8759020995
 31
0.0
  0
ARC
  5
1ED
330
1F
100
AcDbEntity
  8
0
  6
Continuous
 62
     7
370
    25
100
AcDbCircle
 10
189.2077979851
 20
219.0838557676
 30
0.0
 40
6.756622861660992
100
AcDbArc
 50
256.7757345293
 51
298.2544450818
  0
ARC
  5
1EE
330
1F
100
AcDbEntity
  8
0
  6
Continuous
 62
     7
370
    25
100
AcDbCircle
 10
192.0512612069
 20
213.7928979046
 30
0.0
 40
0.7499999999999807
100
AcDbArc
 50
298.2544450818
 51
5.7781411417
  0
LINE
  5
1EF
330
1F
100
AcDbEntity
  8
0
  6
Continuous
 62
     7
370
    25
100
AcDbLine
 10
191.7535928249
 20
224.1841367298
 30
0.0
 11
192.7974505996
 21
213.868405455
 31
0.0
  0
LINE
  5
1F0
330
1F
100
AcDbEntity
  8
0
  6
Continuous
 62
     7
370
    25
100
AcDbLine
 10
188.0172219309
 20
228.3751339315
 30
0.0
 11
191.7535928249
 21
224.1841367298
 31
0.0
  0
ARC
  5
1F1
330
1F
100
AcDbEntity
  8
0
  6
Continuous
 62
     7
370
    25
100
AcDbCircle
 10
188.5770460472
 20
228.8742300734
 30
0.0
 40
0.749999999999982
100
AcDbArc
 50
99.9739456086
 51
221.7177418842
  0
ARC
  5
1F2
330
1F
100
AcDbEntity
  8
0
  6
Continuous
 62
     7
370
    25
100
AcDbCircle
 10
188.4991058972
 20
229.3174290501
 30
0.0
 40
0.3000000000000362
100
AcDbArc
 50
57.4458176413
 51
99.9739456087
  0
ARC
  5
1F3
330
1F
100
AcDbEntity
  8
0
  6
Continuous
 62
     7
370
    25
100
AcDbCircle
 10
193.6130376172
 20
237.3279671044
 30
0.0
 40
9.203737031025854
100
AcDbArc
 50
237.4458176413
 51
303.1729508561
  0
LINE
  5
1F4
330
1F
100
AcDbEntity
  8
0
  6
Continuous
 62
     7
370
    25
100
AcDbLine
 10
198.6490291872
 20
229.6242300734
 30
0.0
 11
198.6490291872
 21
223.3967435117
 31
0.0
  0
ARC
  5
1F5
330
1F
100
AcDbEntity
  8
0
  6
Continuous
 62
     7
370
    25
100
AcDbCircle
 10
197.6490291872
 20
223.3967435117
 30
0.0
 40
1.000000000000004
100
AcDbArc
 50
301.6894599887
 51
360.0
  0
ARC
  5
1F6
330
1F
100
AcDbEntity
  8
0
  6
Continuous
 62
     7
370
    25
100
AcDbCircle
 10
200.4400090102
 20
218.8759020995
 30
0.0
 40
4.312962962963023
100
AcDbArc
 50
121.6894599887
 51
235.0886314987
  0
ARC
  5
1F7
330
1F
100
AcDbEntity
  8
0
  6
Continuous
 62
     7
370
    25
100
AcDbCircle
 10
196.8270460472
 20
213.6990304573
 30
0.0
 40
2.000000000000167
100
AcDbArc
 50
0.0
 51
55.0886314986
  0
LINE
  5
1F8
330
1F
100
AcDbEntity
  8
0
  6
Continuous
 62
     7
370
    25
100
AcDbLine
 10
198.8270460472
 20
213.6990304573
 30
0.0
 11
198.8270460472
 21
209.5256310337
 31
0.0
  0
LINE
  5
1F9
330
1F
100
AcDbEntity
  8
0
  6
Continuous
 62
     7
370
    25
100
AcDbLine
 10
73.6595281165
 20
208.8759020995
 30
0.0
 11
192.9945639779
 21
208.8759020995
 31
0.0
  0
LINE
  5
1FA
330
1F
100
AcDbEntity
  8
0
  6
Continuous
 62
     7
370
    25
100
AcDbLine
 10
68.0050629072
 20
229.6242300734
 30
0.0
 11
198.6490291872
 21
229.6242300734
 31
0.0
  0
LINE
  5
1FB
330
1F
100
AcDbEntity
  8
0
  6
Continuous
 62
     7
370
    25
100
AcDbLine
 10
74.2477898827
 20
213.1322573935
 30
0.0
 11
192.4063022117
 21
213.1322573935
 31
0.0
  0
LINE
  5
1FC
330
1F
100
AcDbEntity
  8
0
  6
Continuous
 62
     7
370
    25
100
AcDbLine
 10
73.8566414948
 20
213.868405455
 30
0.0
 11
192.7974505996
 21
213.868405455
 31
0.0
  0
LINE
  5
1FD
330
1F
100
AcDbEntity
  8
0
  6
Continuous
 62
     7
370
    25
100
AcDbLine
 10
74.9004992695
 20
224.1841367298
 30
0.0
 11
191.7535928249
 21
224.1841367298
 31
0.0
  0
LINE
  5
1FE
330
1F
100
AcDbEntity
  8
0
  6
Continuous
 62
     7
370
    25
100
AcDbLine
 10
78.6368701635
 20
228.3751339315
 30
0.0
 11
188.0172219309
 21
228.3751339315
 31
0.0
  0
LINE
  5
1FF
330
1F
100
AcDbEntity
  8
0
  6
Continuous
 62
     7
370
    25
100
AcDbLine
 10
78.2069462971
 20
229.6128950347
 30
0.0
 11
188.4471457972
 21
229.6128950347
 31
0.0
  0
HATCH
  5
200
330
1F
100
AcDbEntity
  8
0
  6
Continuous
 62
     7
370
    18
100
AcDbHatch
 10
0.0
 20
0.0
 30
0.0
210
0.0
220
0.0
230
1.0
  2
DIN 128 Elastomer-Rubber
 70
     0
 71
     0
 91
        1
 92
        0
 93
       16
 72
     1
 10
67.82704604718728
 20
213.6990304573264
 11
67.82704604718731
 21
209.5256310337146
 72
     2
 10
68.82704604718731
 20
209.5256310337146
 40
1.0
 50
180.0
 51
249.3138207931221
 73
     1
 72
     2
 10
70.74328708182202
 20
214.6005176510359
 40
6.4246155514916
 50
249.3138207931292
 51
296.9952618943816
 73
     1
 72
     1
 10
73.65952811645656
 20
208.8759020995442
 11
79.17376078963038
 21
212.046302396783
 72
     2
 10
79.04915138238101
 20
212.2630337872757
 40
0.25
 50
299.896688086416
 51
463.2242654707387
 73
     1
 72
     2
 10
77.44629410932262
 20
219.0838557676352
 40
6.756622861660991
 50
76.77573452931318
 51
118.2544450818068
 73
     0
 72
     2
 10
74.6028308875215
 20
213.7928979045925
 40
0.749999999999985
 50
118.254445081829
 51
185.7781411417194
 73
     0
 72
     1
 10
73.85664149478339
 20
213.8684054549769
 11
74.90049926945919
 21
224.1841367298454
 72
     1
 10
74.90049926945919
 20
224.1841367298454
 11
78.6368701634795
 21
228.375133931505
 72
     2
 10
78.07704604718732
 20
228.874230073363
 40
0.75
 50
318.2822581158003
 51
440.0260543913701
 73
     1
 72
     2
 10
78.15498619715403
 20
229.3174290501478
 40
0.2999999999999799
 50
80.02605439134256
 51
122.5541823586695
 73
     1
 72
     2
 10
73.04105447719051
 20
237.3279671043888
 40
9.20373703102582
 50
57.44581764133708
 51
123.17295085608
 73
     0
 72
     1
 10
68.00506290719383
 20
229.6242300733633
 11
68.00506290719412
 21
223.3967435116702
 72
     2
 10
69.00506290719383
 20
223.3967435116702
 40
0.9999999999999881
 50
180.0000000000024
 51
238.3105400112943
 73
     1
 72
     2
 10
66.21408308422421
 20
218.8759020995442
 40
4.31296296296296
 50
301.689459988715
 51
415.0886314986639
 73
     0
 72
     2
 10
69.82704604718731
 20
213.6990304573261
 40
2.00000000000004
 50
124.9113685013497
 51
179.9999999999935
 73
     1
 97
        0
 75
     0
 76
     2
 52
0.0
 41
0.25
 77
     0
 78
     3
 53
45.00000209717174
 43
1.683798
 44
1.683798
 45
1.122531891871035
 46
3.367596086488466
 79
     2
 49
1.5875
 49
-3.175
 53
45.00000209717174
 43
3.9288625
 44
1.683798
 45
1.122531891871035
 46
3.367596086488466
 79
     2
 49
1.5875
 49
-3.175
 53
134.9999719140475
 43
0.0
 44
0.0
 45
-1.12253256539011
 46
-1.122531464876908
 79
     0
 98
        1
 10
0.0
 20
0.0
  0
HATCH
  5
201
330
1F
100
AcDbEntity
  8
0
  6
Continuous
 62
     7
370
    18
100
AcDbHatch
 10
0.0
 20
0.0
 30
0.0
210
0.0
220
0.0
230
1.0
  2
DIN 128 Elastomer-Rubber
 70
     0
 71
     0
 91
        1
 92
        0
 93
       16
 72
     1
 10
198.8270460471873
 20
209.5256310337146
 11
198.8270460471873
 21
213.6990304573264
 72
     2
 10
196.8270460471873
 20
213.6990304573261
 40
2.00000000000004
 50
0.0000000000065138
 51
55.08863149865025
 73
     1
 72
     2
 10
200.4400090101504
 20
218.8759020995442
 40
4.31296296296296
 50
124.9113685013371
 51
238.3105400112866
 73
     0
 72
     2
 10
197.6490291871808
 20
223.3967435116702
 40
0.9999999999999881
 50
301.6894599887067
 51
359.9999999999992
 73
     1
 72
     1
 10
198.6490291871805
 20
223.3967435116702
 11
198.6490291871808
 21
229.6242300733633
 72
     2
 10
193.6130376171841
 20
237.3279671043888
 40
9.20373703102582
 50
56.82704914391999
 51
122.5541823586629
 73
     0
 72
     2
 10
188.4991058972206
 20
229.3174290501478
 40
0.2999999999999799
 50
57.44581764133049
 51
99.97394560866012
 73
     1
 72
     2
 10
188.5770460471873
 20
228.874230073363
 40
0.75
 50
99.97394560863181
 51
221.7177418842005
 73
     1
 72
     1
 10
188.0172219308951
 20
228.375133931505
 11
191.7535928249154
 21
224.1841367298454
 72
     1
 10
191.7535928249154
 20
224.1841367298454
 11
192.7974505995913
 21
213.8684054549769
 72
     2
 10
192.0512612068531
 20
213.7928979045925
 40
0.749999999999985
 50
354.2218588582823
 51
421.7455549181738
 73
     0
 72
     2
 10
189.207797985052
 20
219.0838557676352
 40
6.756622861660991
 50
61.74555491819326
 51
103.2242654706866
 73
     0
 72
     2
 10
187.6049407119936
 20
212.2630337872757
 40
0.25
 50
76.77573452926221
 51
240.1033119135772
 73
     1
 72
     1
 10
187.4803313047442
 20
212.046302396783
 11
192.9945639779181
 21
208.8759020995442
 72
     2
 10
195.9108050125526
 20
214.6005176510359
 40
6.4246155514916
 50
243.0047381056203
 51
290.6861792068726
 73
     1
 72
     2
 10
197.8270460471873
 20
209.5256310337146
 40
1.0
 50
290.686179206881
 51
360.0000000000008
 73
     1
 97
        0
 75
     0
 76
     2
 52
0.0
 41
0.25
 77
     0
 78
     3
 53
45.00000209717174
 43
1.683798
 44
1.683798
 45
1.122531891871035
 46
3.367596086488466
 79
     2
 49
1.5875
 49
-3.175
 53
45.00000209717174
 43
3.9288625
 44
1.683798
 45
1.122531891871035
 46
3.367596086488466
 79
     2
 49
1.5875
 49
-3.175
 53
134.9999719140475
 43
0.0
 44
0.0
 45
-1.12253256539011
 46
-1.122531464876908
 79
     0
 98
        1
 10
0.0
 20
0.0
  0
DIMENSION
  5
202
330
1F
100
AcDbEntity
  8
0
  6
Continuous
 62
     7
370
    18
100
AcDbDimension
  2
_D
 10
187.354940712
 20
201.1759020995
 30
0.0
 11
133.3270460472
 21
201.1759020995
 31
0.0
 70
   160
  1
%%c<>
 71
     2
 42
-1.0
  3
SLDDIMSTYLE0
100
AcDbAlignedDimension
 13
79.2991513824
 23
212.2630337873
 33
0.0
 14
187.354940712
 24
212.2630337873
 34
0.0
100
AcDbRotatedDimension
  0
DIMENSION
  5
20E
330
1F
100
AcDbEntity
  8
0
  6
Continuous
 62
     7
370
    18
100
AcDbDimension
  2
_D_1
 10
187.8270460472
 20
236.6242300734
 30
0.0
 11
133.3270460472
 21
236.6242300734
 31
0.0
 70
   160
  1
%%c<>
 71
     2
 42
-1.0
  3
SLDDIMSTYLE0
100
AcDbAlignedDimension
 13
78.8270460472
 23
228.8742300734
 33
0.0
 14
187.8270460472
 24
228.8742300734
 34
0.0
100
AcDbRotatedDimension
  0
DIMENSION
  5
219
330
1F
100
AcDbEntity
  8
0
  6
Continuous
 62
     7
370
    18
100
AcDbDimension
  2
_D_2
 10
198.6490291872
 20
243.6242300734
 30
0.0
 11
133.3270460472
 21
243.6242300734
 31
0.0
 70
   160
  1
%%c<>
 71
     2
 42
-1.0
  3
SLDDIMSTYLE0
100
AcDbAlignedDimension
 13
68.0050629072
 23
229.6242300734
 33
0.0
 14
198.6490291872
 24
229.6242300734
 34
0.0
 50
0.0
100
AcDbRotatedDimension
  0
DIMENSION
  5
224
330
1F
100
AcDbEntity
  8
0
  6
Continuous
 62
     7
370
    18
100
AcDbDimension
  2
_D_3
 10
198.8270460472
 20
194.1759020995
 30
0.0
 11
133.3270460472
 21
194.1759020995
 31
0.0
 70
   160
  1
%%c<>
 71
     2
 42
-1.0
  3
SLDDIMSTYLE0
100
AcDbAlignedDimension
 13
67.8270460472
 23
209.5256310337
 33
0.0
 14
198.8270460472
 24
209.5256310337
 34
0.0
 50
0.0
100
AcDbRotatedDimension
  0
DIMENSION
  5
22F
330
1F
100
AcDbEntity
  8
0
  6
Continuous
 62
     7
370
    18
100
AcDbDimension
  2
_D_4
 10
205.8270460472
 20
208.1759020995
 30
0.0
 11
205.8270460472
 21
218.9000660865
 31
0.0
 70
   160
  1
<>
 71
     2
 42
-1.0
  3
SLDDIMSTYLE0
100
AcDbAlignedDimension
 13
198.6490291872
 23
229.6242300734
 33
0.0
 14
195.9108050126
 24
208.1759020995
 34
0.0
 50
90.0
100
AcDbRotatedDimension
  0
MTEXT
  5
239
330
1F
100
AcDbEntity
  8
0
  6
Continuous
 62
     7
370
     0
100
AcDbMText
 10
133.4363703827
 20
254.2018577582
 30
0.0
 40
3.7041666667
 41
0.0
 71
     2
 72
     1
  1
A-A
  7
SLDTEXTSTYLE0
 73
     1
 44
1.0
  0
ENDSEC
  0
SECTION
  2
OBJECTS
  0
DICTIONARY
  5
C
330
0
100
AcDbDictionary
281
     1
  3
ACAD_GROUP
350
D
  3
ACAD_LAYOUT
350
1A
  3
ACAD_MLINESTYLE
350
17
  3
ACAD_PLOTSETTINGS
350
19
  3
ACAD_PLOTSTYLENAME
350
E
  3
ACAD_SCALELIST
350
47
  3
DWGPROPS
350
23A
  0
DICTIONARY
  5
D
102
{ACAD_REACTORS
330
C
102
}
330
C
100
AcDbDictionary
281
     1
  0
DICTIONARY
  5
1A
102
{ACAD_REACTORS
330
C
102
}
330
C
100
AcDbDictionary
281
     1
  3
Layout1
350
1E
  3
Layout2
350
26
  3
Model
350
22
  0
DICTIONARY
  5
17
102
{ACAD_REACTORS
330
C
102
}
330
C
100
AcDbDictionary
281
     1
  3
Standard
350
18
  0
DICTIONARY
  5
19
102
{ACAD_REACTORS
330
C
102
}
330
C
100
AcDbDictionary
281
     1
  0
ACDBDICTIONARYWDFLT
  5
E
102
{ACAD_REACTORS
330
C
102
}
330
C
100
AcDbDictionary
281
     1
  3
Normal
350
F
100
AcDbDictionaryWithDefault
340
F
  0
DICTIONARY
  5
47
102
{ACAD_REACTORS
330
C
102
}
330
C
100
AcDbDictionary
281
     1
  3
A0
350
48
  3
A1
350
49
  3
A2
350
4A
  3
A3
350
4B
  3
A4
350
4C
  3
A5
350
4D
  3
A6
350
4E
  3
A7
350
4F
  3
A8
350
50
  3
A9
350
51
  3
B0
350
52
  3
B1
350
53
  3
B2
350
54
  3
B3
350
55
  3
B4
350
56
  3
B5
350
57
  3
B6
350
58
  0
XRECORD
  5
23A
102
{ACAD_REACTORS
330
C
102
}
330
C
100
AcDbXrecord
280
     1
  1
DWGPROPS COOKIE
  2

  3

  4

  6

  7

  8
CH-NTL-RS-WSCAD
  9

300
=
301
=
302
=
303
=
304
=
305
=
306
=
307
=
308
=
309
=
 40
0.0
 41
2461138.325379039
 42
2461138.325383912
  1

 90
        0
  0
LAYOUT
  5
1E
102
{ACAD_REACTORS
330
1A
102
}
330
1A
100
AcDbPlotSettings
  1

  2
none_device
  4

  6

 40
0.0
 41
0.0
 42
0.0
 43
0.0
 44
0.0
 45
0.0
 46
0.0
 47
0.0
 48
0.0
 49
0.0
140
0.0
141
0.0
142
1.0
143
1.0
 70
   688
 72
     1
 73
     0
 74
     5
  7

 75
    16
147
1.0
148
0.0
149
0.0
100
AcDbLayout
  1
Layout1
 70
     1
 71
     1
 10
0.0
 20
0.0
 11
420.0
 21
297.0
 12
0.0
 22
0.0
 32
0.0
 14
1.0000000000E+20
 24
1.0000000000E+20
 34
1.0000000000E+20
 15
-1.0000000000E+20
 25
-1.0000000000E+20
 35
-1.0000000000E+20
146
0.0
 13
0.0
 23
0.0
 33
0.0
 16
1.0
 26
0.0
 36
0.0
 17
0.0
 27
1.0
 37
0.0
 76
     0
330
1B
  0
LAYOUT
  5
26
102
{ACAD_REACTORS
330
1A
102
}
330
1A
100
AcDbPlotSettings
  1

  2
none_device
  4

  6

 40
0.0
 41
0.0
 42
0.0
 43
0.0
 44
0.0
 45
0.0
 46
0.0
 47
0.0
 48
0.0
 49
0.0
140
0.0
141
0.0
142
1.0
143
1.0
 70
   688
 72
     1
 73
     0
 74
     5
  7

 75
    16
147
1.0
148
0.0
149
0.0
100
AcDbLayout
  1
Layout2
 70
     1
 71
     2
 10
0.0
 20
0.0
 11
0.0
 21
0.0
 12
0.0
 22
0.0
 32
0.0
 14
0.0
 24
0.0
 34
0.0
 15
0.0
 25
0.0
 35
0.0
146
0.0
 13
0.0
 23
0.0
 33
0.0
 16
1.0
 26
0.0
 36
0.0
 17
0.0
 27
1.0
 37
0.0
 76
     0
330
23
  0
LAYOUT
  5
22
102
{ACAD_REACTORS
330
1A
102
}
330
1A
100
AcDbPlotSettings
  1

  2
none_device
  4
Letter_(8.50_x_11.00_Inches)
  6

 40
6.35
 41
6.35
 42
6.35000508
 43
6.35000508
 44
215.9
 45
279.4
 46
0.0
 47
0.0
 48
0.0
 49
0.0
140
0.0
141
0.0
142
1.0
143
1.0
 70
  1712
 72
     1
 73
     0
 74
     0
  7

 75
     0
147
1.0
148
0.0
149
0.0
100
AcDbLayout
  1
Model
 70
     1
 71
     0
 10
0.0
 20
0.0
 11
420.0
 21
297.0
 12
0.0
 22
0.0
 32
0.0
 14
0.0
 24
0.0
 34
0.0
 15
420.0
 25
297.0
 35
0.0
146
0.0
 13
0.0
 23
0.0
 33
0.0
 16
1.0
 26
0.0
 36
0.0
 17
0.0
 27
1.0
 37
0.0
 76
     0
330
1F
331
29
  0
MLINESTYLE
  5
18
102
{ACAD_REACTORS
330
17
102
}
330
17
100
AcDbMlineStyle
  2
Standard
 70
     0
  3

 62
   256
 51
90.0
 52
90.0
 71
     2
 49
0.5
 62
   256
  6
BYLAYER
 49
-0.5
 62
   256
  6
BYLAYER
  0
ACDBPLACEHOLDER
  5
F
102
{ACAD_REACTORS
330
E
102
}
330
E
  0
SCALE
  5
48
102
{ACAD_REACTORS
330
47
102
}
330
47
100
AcDbScale
 70
     0
300
1:1
140
1.0
141
1.0
290
     1
  0
SCALE
  5
49
102
{ACAD_REACTORS
330
47
102
}
330
47
100
AcDbScale
 70
     0
300
1:2
140
1.0
141
2.0
290
     0
  0
SCALE
  5
4A
102
{ACAD_REACTORS
330
47
102
}
330
47
100
AcDbScale
 70
     0
300
1:4
140
1.0
141
4.0
290
     0
  0
SCALE
  5
4B
102
{ACAD_REACTORS
330
47
102
}
330
47
100
AcDbScale
 70
     0
300
1:5
140
1.0
141
5.0
290
     0
  0
SCALE
  5
4C
102
{ACAD_REACTORS
330
47
102
}
330
47
100
AcDbScale
 70
     0
300
1:8
140
1.0
141
8.0
290
     0
  0
SCALE
  5
4D
102
{ACAD_REACTORS
330
47
102
}
330
47
100
AcDbScale
 70
     0
300
1:10
140
1.0
141
10.0
290
     0
  0
SCALE
  5
4E
102
{ACAD_REACTORS
330
47
102
}
330
47
100
AcDbScale
 70
     0
300
1:16
140
1.0
141
16.0
290
     0
  0
SCALE
  5
4F
102
{ACAD_REACTORS
330
47
102
}
330
47
100
AcDbScale
 70
     0
300
1:20
140
1.0
141
20.0
290
     0
  0
SCALE
  5
50
102
{ACAD_REACTORS
330
47
102
}
330
47
100
AcDbScale
 70
     0
300
1:30
140
1.0
141
30.0
290
     0
  0
SCALE
  5
51
102
{ACAD_REACTORS
330
47
102
}
330
47
100
AcDbScale
 70
     0
300
1:40
140
1.0
141
40.0
290
     0
  0
SCALE
  5
52
102
{ACAD_REACTORS
330
47
102
}
330
47
100
AcDbScale
 70
     0
300
1:50
140
1.0
141
50.0
290
     0
  0
SCALE
  5
53
102
{ACAD_REACTORS
330
47
102
}
330
47
100
AcDbScale
 70
     0
300
1:100
140
1.0
141
100.0
290
     0
  0
SCALE
  5
54
102
{ACAD_REACTORS
330
47
102
}
330
47
100
AcDbScale
 70
     0
300
2:1
140
2.0
141
1.0
290
     0
  0
SCALE
  5
55
102
{ACAD_REACTORS
330
47
102
}
330
47
100
AcDbScale
 70
     0
300
4:1
140
4.0
141
1.0
290
     0
  0
SCALE
  5
56
102
{ACAD_REACTORS
330
47
102
}
330
47
100
AcDbScale
 70
     0
300
8:1
140
8.0
141
1.0
290
     0
  0
SCALE
  5
57
102
{ACAD_REACTORS
330
47
102
}
330
47
100
AcDbScale
 70
     0
300
10:1
140
10.0
141
1.0
290
     0
  0
SCALE
  5
58
102
{ACAD_REACTORS
330
47
102
}
330
47
100
AcDbScale
 70
     0
300
100:1
140
100.0
141
1.0
290
     0
  0
ENDSEC
  0
EOF
