  0
SECTION
  2
HEADER
  9
$ACADVER
  1
AC1027
  9
$ACADMAINTVER
 70
    57
  9
$DWGCODEPAGE
  3
ANSI_1252
  9
$LASTSAVEDBY
  1
nschleicher
  9
$CUSTOMPROPERTYTAG
  1
AmdtFileType
  9
$CUSTOMPROPERTY
  1
84
  9
$REQUIREDVERSIONS
160
                 0
  9
$INSBASE
 10
0.0
 20
0.0
 30
0.0
  9
$EXTMIN
 10
47.70121366593333
 20
-0.0000004186497335
 30
0.0
  9
$EXTMAX
 10
1099.464993193492
 20
79.99999958135027
 30
0.0
  9
$LIMMIN
 10
0.0
 20
0.0
  9
$LIMMAX
 10
420.0
 20
297.0
  9
$ORTHOMODE
 70
     0
  9
$REGENMODE
 70
     1
  9
$FILLMODE
 70
     1
  9
$QTEXTMODE
 70
     0
  9
$MIRRTEXT
 70
     1
  9
$LTSCALE
 40
1.0
  9
$ATTMODE
 70
     1
  9
$TEXTSIZE
 40
2.5
  9
$TRACEWID
 40
1.0
  9
$TEXTSTYLE
  7
STANDARD
  9
$CLAYER
  8
0
  9
$CELTYPE
  6
ByLayer
  9
$CECOLOR
 62
   256
  9
$CELTSCALE
 40
1.0
  9
$DISPSILH
 70
     0
  9
$DIMSCALE
 40
1.0
  9
$DIMASZ
 40
2.5
  9
$DIMEXO
 40
1.0
  9
$DIMDLI
 40
10.0
  9
$DIMRND
 40
0.0
  9
$DIMDLE
 40
0.0
  9
$DIMEXE
 40
1.0
  9
$DIMTP
 40
0.1
  9
$DIMTM
 40
0.1
  9
$DIMTXT
 40
3.5
  9
$DIMCEN
 40
0.0
  9
$DIMTSZ
 40
0.0
  9
$DIMTOL
 70
     0
  9
$DIMLIM
 70
     0
  9
$DIMTIH
 70
     0
  9
$DIMTOH
 70
     0
  9
$DIMSE1
 70
     0
  9
$DIMSE2
 70
     0
  9
$DIMTAD
 70
     1
  9
$DIMZIN
 70
     8
  9
$DIMBLK
  1

  9
$DIMASO
 70
     1
  9
$DIMSHO
 70
     1
  9
$DIMPOST
  1

  9
$DIMAPOST
  1
"
  9
$DIMALT
 70
     0
  9
$DIMALTD
 70
     2
  9
$DIMALTF
 40
0.0393701
  9
$DIMLFAC
 40
1.0
  9
$DIMTOFL
 70
     1
  9
$DIMTVP
 40
0.0
  9
$DIMTIX
 70
     0
  9
$DIMSOXD
 70
     0
  9
$DIMSAH
 70
     0
  9
$DIMBLK1
  1

  9
$DIMBLK2
  1

  9
$DIMSTYLE
  2
AM_DIN
  9
$DIMCLRD
 70
   256
  9
$DIMCLRE
 70
   256
  9
$DIMCLRT
 70
     2
  9
$DIMTFAC
 40
0.71
  9
$DIMGAP
 40
1.5
  9
$DIMJUST
 70
     0
  9
$DIMSD1
 70
     0
  9
$DIMSD2
 70
     0
  9
$DIMTOLJ
 70
     0
  9
$DIMTZIN
 70
     8
  9
$DIMALTZ
 70
     0
  9
$DIMALTTZ
 70
     0
  9
$DIMUPT
 70
     0
  9
$DIMDEC
 70
     2
  9
$DIMTDEC
 70
     3
  9
$DIMALTU
 70
     2
  9
$DIMALTTD
 70
     4
  9
$DIMTXSTY
  7
STANDARD
  9
$DIMAUNIT
 70
     0
  9
$DIMADEC
 70
     0
  9
$DIMALTRND
 40
0.0
  9
$DIMAZIN
 70
     2
  9
$DIMDSEP
 70
    46
  9
$DIMATFIT
 70
     3
  9
$DIMFRAC
 70
     0
  9
$DIMLDRBLK
  1

  9
$DIMLUNIT
 70
     2
  9
$DIMLWD
 70
    -1
  9
$DIMLWE
 70
    -1
  9
$DIMTMOVE
 70
     0
  9
$DIMFXL
 40
1.0
  9
$DIMFXLON
 70
     0
  9
$DIMJOGANG
 40
1.570796326794896
  9
$DIMTFILL
 70
     0
  9
$DIMTFILLCLR
 70
     0
  9
$DIMARCSYM
 70
     0
  9
$DIMLTYPE
  6

  9
$DIMLTEX1
  6

  9
$DIMLTEX2
  6

  9
$DIMTXTDIRECTION
 70
     0
  9
$LUNITS
 70
     2
  9
$LUPREC
 70
     2
  9
$SKETCHINC
 40
1.0
  9
$FILLETRAD
 40
0.0
  9
$AUNITS
 70
     0
  9
$AUPREC
 70
     0
  9
$MENU
  1
.
  9
$ELEVATION
 40
0.0
  9
$PELEVATION
 40
0.0
  9
$THICKNESS
 40
0.0
  9
$LIMCHECK
 70
     0
  9
$CHAMFERA
 40
2.5
  9
$CHAMFERB
 40
2.5
  9
$CHAMFERC
 40
20.0
  9
$CHAMFERD
 40
0.0
  9
$SKPOLY
 70
     0
  9
$TDCREATE
 40
2457997.365671655
  9
$TDUCREATE
 40
2457997.282338322
  9
$TDUPDATE
 40
2457997.383076030
  9
$TDUUPDATE
 40
2457997.299742697
  9
$TDINDWG
 40
0.0041498148
  9
$TDUSRTIMER
 40
0.0041495949
  9
$USRTIMER
 70
     1
  9
$ANGBASE
 50
0.0
  9
$ANGDIR
 70
     0
  9
$PDMODE
 70
     0
  9
$PDSIZE
 40
0.0
  9
$PLINEWID
 40
0.0
  9
$SPLFRAME
 70
     0
  9
$SPLINETYPE
 70
     6
  9
$SPLINESEGS
 70
     8
  9
$HANDSEED
  5
95C
  9
$SURFTAB1
 70
     6
  9
$SURFTAB2
 70
     6
  9
$SURFTYPE
 70
     6
  9
$SURFU
 70
     6
  9
$SURFV
 70
     6
  9
$UCSBASE
  2

  9
$UCSNAME
  2

  9
$UCSORG
 10
0.0
 20
0.0
 30
0.0
  9
$UCSXDIR
 10
1.0
 20
0.0
 30
0.0
  9
$UCSYDIR
 10
0.0
 20
1.0
 30
0.0
  9
$UCSORTHOREF
  2

  9
$UCSORTHOVIEW
 70
     0
  9
$UCSORGTOP
 10
0.0
 20
0.0
 30
0.0
  9
$UCSORGBOTTOM
 10
0.0
 20
0.0
 30
0.0
  9
$UCSORGLEFT
 10
0.0
 20
0.0
 30
0.0
  9
$UCSORGRIGHT
 10
0.0
 20
0.0
 30
0.0
  9
$UCSORGFRONT
 10
0.0
 20
0.0
 30
0.0
  9
$UCSORGBACK
 10
0.0
 20
0.0
 30
0.0
  9
$PUCSBASE
  2

  9
$PUCSNAME
  2

  9
$PUCSORG
 10
0.0
 20
0.0
 30
0.0
  9
$PUCSXDIR
 10
1.0
 20
0.0
 30
0.0
  9
$PUCSYDIR
 10
0.0
 20
1.0
 30
0.0
  9
$PUCSORTHOREF
  2

  9
$PUCSORTHOVIEW
 70
     0
  9
$PUCSORGTOP
 10
0.0
 20
0.0
 30
0.0
  9
$PUCSORGBOTTOM
 10
0.0
 20
0.0
 30
0.0
  9
$PUCSORGLEFT
 10
0.0
 20
0.0
 30
0.0
  9
$PUCSORGRIGHT
 10
0.0
 20
0.0
 30
0.0
  9
$PUCSORGFRONT
 10
0.0
 20
0.0
 30
0.0
  9
$PUCSORGBACK
 10
0.0
 20
0.0
 30
0.0
  9
$USERI1
 70
     0
  9
$USERI2
 70
     0
  9
$USERI3
 70
     0
  9
$USERI4
 70
     0
  9
$USERI5
 70
     0
  9
$USERR1
 40
0.0
  9
$USERR2
 40
0.0
  9
$USERR3
 40
0.0
  9
$USERR4
 40
0.0
  9
$USERR5
 40
0.0
  9
$WORLDVIEW
 70
     1
  9
$SHADEDGE
 70
     3
  9
$SHADEDIF
 70
    70
  9
$TILEMODE
 70
     1
  9
$MAXACTVP
 70
    64
  9
$PINSBASE
 10
0.0
 20
0.0
 30
0.0
  9
$PLIMCHECK
 70
     0
  9
$PEXTMIN
 10
1.000000000000000E+20
 20
1.000000000000000E+20
 30
1.000000000000000E+20
  9
$PEXTMAX
 10
-1.000000000000000E+20
 20
-1.000000000000000E+20
 30
-1.000000000000000E+20
  9
$PLIMMIN
 10
0.0
 20
0.0
  9
$PLIMMAX
 10
420.0
 20
297.0
  9
$UNITMODE
 70
     0
  9
$VISRETAIN
 70
     1
  9
$PLINEGEN
 70
     0
  9
$PSLTSCALE
 70
     1
  9
$TREEDEPTH
 70
  3020
  9
$CMLSTYLE
  2
Standard
  9
$CMLJUST
 70
     0
  9
$CMLSCALE
 40
20.0
  9
$PROXYGRAPHICS
 70
     1
  9
$MEASUREMENT
 70
     1
  9
$CELWEIGHT
370
    -1
  9
$ENDCAPS
280
     0
  9
$JOINSTYLE
280
     0
  9
$LWDISPLAY
290
     0
  9
$INSUNITS
 70
     4
  9
$HYPERLINKBASE
  1

  9
$STYLESHEET
  1

  9
$XEDIT
290
     1
  9
$CEPSNTYPE
380
     0
  9
$PSTYLEMODE
290
     1
  9
$FINGERPRINTGUID
  2
{AC9CF93D-882E-436F-989A-F33D50B271A4}
  9
$VERSIONGUID
  2
{969243C8-D456-4D51-9628-2A9E5038EA86}
  9
$EXTNAMES
290
     1
  9
$PSVPSCALE
 40
0.0
  9
$OLESTARTUP
290
     0
  9
$SORTENTS
280
   127
  9
$INDEXCTL
280
     0
  9
$HIDETEXT
280
     0
  9
$XCLIPFRAME
280
     0
  9
$HALOGAP
280
     0
  9
$OBSCOLOR
 70
   257
  9
$OBSLTYPE
280
     0
  9
$INTERSECTIONDISPLAY
280
     0
  9
$INTERSECTIONCOLOR
 70
   257
  9
$DIMASSOC
280
     2
  9
$PROJECTNAME
  1

  9
$CAMERADISPLAY
290
     0
  9
$LENSLENGTH
 40
50.0
  9
$CAMERAHEIGHT
 40
0.0
  9
$STEPSPERSEC
 40
2.0
  9
$STEPSIZE
 40
6.0
  9
$3DDWFPREC
 40
2.0
  9
$PSOLWIDTH
 40
0.25
  9
$PSOLHEIGHT
 40
4.0
  9
$LOFTANG1
 40
1.570796326794896
  9
$LOFTANG2
 40
1.570796326794896
  9
$LOFTMAG1
 40
0.0
  9
$LOFTMAG2
 40
0.0
  9
$LOFTPARAM
 70
     7
  9
$LOFTNORMALS
280
     1
  9
$LATITUDE
 40
37.795
  9
$LONGITUDE
 40
-122.394
  9
$NORTHDIRECTION
 40
0.0
  9
$TIMEZONE
 70
 -8000
  9
$LIGHTGLYPHDISPLAY
280
     1
  9
$TILEMODELIGHTSYNCH
280
     1
  9
$CMATERIAL
347
3B4
  9
$SOLIDHIST
280
     1
  9
$SHOWHIST
280
     1
  9
$DWFFRAME
280
     2
  9
$DGNFRAME
280
     0
  9
$REALWORLDSCALE
290
     1
  9
$INTERFERECOLOR
 62
     1
  9
$INTERFEREOBJVS
345
3D6
  9
$INTERFEREVPVS
346
5E6
  9
$CSHADOW
280
     0
  9
$SHADOWPLANELOCATION
 40
0.0
  0
ENDSEC
  0
SECTION
  2
CLASSES
  0
CLASS
  1
ACDBDICTIONARYWDFLT
  2
AcDbDictionaryWithDefault
  3
ObjectDBX Classes
 90
        0
 91
        1
280
     0
281
     0
  0
CLASS
  1
ACME_DOCUMENT
  2
AcMeDbDoc
  3
AcMeServices
 90
     1024
 91
        1
280
     0
281
     0
  0
CLASS
  1
AMGSETTINGSOBJ
  2
AmgSettingsObj
  3
"AcadM|Product Description: AutoCAD Mechanical|Company: Autodesk, Inc."
 90
     1024
 91
        2
280
     0
281
     0
  0
CLASS
  1
ACMESCOPE
  2
AcMeScope
  3
AcMeServices
 90
     1024
 91
        1
280
     0
281
     0
  0
CLASS
  1
ACMECOMMANDHISTORY
  2
AcMeCommandHistory
  3
AcMeServices
 90
     1024
 91
        1
280
     0
281
     0
  0
CLASS
  1
ACIMSYSVARMAN
  2
AcImSysVarManager
  3
AcMeServices
 90
     1024
 91
        3
280
     0
281
     0
  0
CLASS
  1
ACIMREALSYSVAR
  2
AcImRealSysVar
  3
AcMeServices
 90
     1024
 91
        0
280
     0
281
     0
  0
CLASS
  1
ACIMINTSYSVAR
  2
AcImIntSysVar
  3
AcMeServices
 90
     1024
 91
        2
280
     0
281
     0
  0
CLASS
  1
ACMEDRAWINGMAN
  2
AcMeDrawingMan
  3
AcMeServices
 90
     1024
 91
        0
280
     0
281
     0
  0
CLASS
  1
ACMEVIEW
  2
AcMeView
  3
AcMeServices
 90
     1024
 91
        0
280
     0
281
     0
  0
CLASS
  1
ACDBENTITYCACHE
  2
AcMeEntityCache
  3
AcMeServices
 90
     1024
 91
        1
280
     0
281
     0
  0
CLASS
  1
GSMANAGER
  2
AcMeGSManager
  3
AcMeServices
 90
     1024
 91
        0
280
     0
281
     0
  0
CLASS
  1
AMDTINTERNALREACTOR
  2
AmdtInternalReactor
  3
AcMeServices
 90
     1024
 91
        0
280
     0
281
     0
  0
CLASS
  1
ACMESTATEMGR
  2
AcMeStateMgr
  3
AcMeServices
 90
     1024
 91
        1
280
     0
281
     0
  0
CLASS
  1
ACGREFMASTER
  2
AcGrefMaster
  3
AcAttribServices
 90
     1024
 91
        1
280
     0
281
     0
  0
CLASS
  1
ACME_DATABASE
  2
AcMeDbDatabase
  3
AcMeServices
 90
     1024
 91
        1
280
     0
281
     0
  0
CLASS
  1
ACRFINSADJUSTERMGR
  2
AcRfInsAdjusterMgr
  3
AcMeServices
 90
     1024
 91
        1
280
     0
281
     0
  0
CLASS
  1
ACGREFACADMASTER
  2
AcGrefacadMaster
  3
AcGrefServices
 90
     1024
 91
        1
280
     0
281
     0
  0
CLASS
  1
AMIMASTER
  2
AmiMaster
  3
AmiServices
 90
     1024
 91
        1
280
     0
281
     0
  0
CLASS
  1
ACMDATADICTIONARY
  2
AcmDataDictionary
  3
"AcmSymBB|Product Description: AutoCAD Mechanical|Company: Autodesk, Inc."
 90
     1024
 91
        1
280
     0
281
     0
  0
CLASS
  1
ACMDATAENTRYBLOCK
  2
AcmDataEntryBlock
  3
AcmSymBB|Product Description: AutoCAD Mechanical|Company: Autodesk, Inc.
 90
     1024
 91
        0
280
     0
281
     0
  0
CLASS
  1
ACIMSTRSYSVAR
  2
AcImStrSysVar
  3
AcMeServices
 90
     1024
 91
        5
280
     0
281
     0
  0
CLASS
  1
ACMSTANDARDISO
  2
AcmStandardISO
  3
"Amdt_StdImp|Product Description: AutoCAD Mechanical|Company: Autodesk, Inc."
 90
     1024
 91
        1
280
     0
281
     0
  0
CLASS
  1
AMGOBJPROPCFG
  2
AmgObjPropCfg
  3
"AmgLay|Product Description: AutoCAD Mechanical|Company: Autodesk, Inc."
 90
     1024
 91
        1
280
     0
281
     0
  0
CLASS
  1
AMDTEDGESTANDARDISO
  2
AmdtEdgeStdISO
  3
"Amdt_StdImp|Product Description: AutoCAD Mechanical|Company: Autodesk, Inc."
 90
     1024
 91
        0
280
     0
281
     0
  0
CLASS
  1
ACMSURFSTANDARDISO
  2
AcmSurfTextStdISO
  3
"Amdt_StdImp|Product Description: AutoCAD Mechanical|Company: Autodesk, Inc."
 90
     1024
 91
        0
280
     0
281
     0
  0
CLASS
  1
ACMFCFSTANDARDISO
  2
AcmFCFStdISO
  3
"Amdt_StdImp|Product Description: AutoCAD Mechanical|Company: Autodesk, Inc."
 90
     1024
 91
        0
280
     0
281
     0
  0
CLASS
  1
ACMWELDSTANDARDISO
  2
AcmWeldingStdISO
  3
"Amdt_StdImp|Product Description: AutoCAD Mechanical|Company: Autodesk, Inc."
 90
     1024
 91
        1
280
     0
281
     0
  0
CLASS
  1
ACMIDSTANDARDISO
  2
AcmIdStdISO
  3
"Amdt_StdImp|Product Description: AutoCAD Mechanical|Company: Autodesk, Inc."
 90
     1024
 91
        0
280
     0
281
     0
  0
CLASS
  1
ACMDATUMSTANDARDISO
  2
AcmDatumStdISO
  3
"Amdt_StdImp|Product Description: AutoCAD Mechanical|Company: Autodesk, Inc."
 90
     1024
 91
        1
280
     0
281
     0
  0
CLASS
  1
ACMBOMSTANDARDISO
  2
AcmBOMStdISO
  3
"Amdt_StdImp|Product Description: AutoCAD Mechanical|Company: Autodesk, Inc."
 90
     1024
 91
        1
280
     0
281
     0
  0
CLASS
  1
ACMDETAILSTANDARDISO
  2
AmdtDetailSymStdISO
  3
"Amdt_StdImp|Product Description: AutoCAD Mechanical|Company: Autodesk, Inc."
 90
     1024
 91
        1
280
     0
281
     0
  0
CLASS
  1
ACMSECTIONSTANDARDISO
  2
AmdtSectionSymStdISO
  3
"Amdt_StdImp|Product Description: AutoCAD Mechanical|Company: Autodesk, Inc."
 90
     1024
 91
        0
280
     0
281
     0
  0
CLASS
  1
ACMCENTERLINESTANDARDISO
  2
AmdtCenterLineStdISO
  3
"Amdt_StdImp|Product Description: AutoCAD Mechanical|Company: Autodesk, Inc."
 90
     1024
 91
        1
280
     0
281
     0
  0
CLASS
  1
ACMNOTESTANDARDISO
  2
AmdtNoteStdISO
  3
"Amdt_StdImp|Product Description: AutoCAD Mechanical|Company: Autodesk, Inc."
 90
     1024
 91
        1
280
     0
281
     0
  0
CLASS
  1
ACAMGLAYSTD
  2
AcAmgLayStd
  3
"AmgLay|Product Description: AutoCAD Mechanical|Company: Autodesk, Inc."
 90
     1024
 91
        1
280
     0
281
     0
  0
CLASS
  1
ACAMGDIMSTD
  2
AcAmgDimStd
  3
"AmgDim|Product Description: AutoCAD Mechanical|Company: Autodesk, Inc."
 90
     1024
 91
        1
280
     0
281
     0
  0
CLASS
  1
ACAMGHOLECHARTSTDISO
  2
AcAmgHoleChartStdISO
  3
AmgDim|Product Description: AutoCAD Mechanical|Company: Autodesk, Inc.
 90
     1024
 91
        1
280
     0
281
     0
  0
CLASS
  1
ACAMGTITLESTD
  2
AcAmgTitleStd
  3
"AmgTitle|Product Description: AutoCAD Mechanical|Company: Autodesk, Inc."
 90
     1024
 91
        1
280
     0
281
     0
  0
CLASS
  1
LAYER_INDEX
  2
AcDbLayerIndex
  3
ObjectDBX Classes
 90
        0
 91
        0
280
     0
281
     0
  0
CLASS
  1
IDBUFFER
  2
AcDbIdBuffer
  3
ObjectDBX Classes
 90
        0
 91
        0
280
     0
281
     0
  0
CLASS
  1
DICTIONARYVAR
  2
AcDbDictionaryVar
  3
ObjectDBX Classes
 90
        0
 91
       11
280
     0
281
     0
  0
CLASS
  1
AM_DRAWING_MGR
  2
AcDmDwgMgr
  3
AcMechDwgViewMgmt
 90
     1024
 91
        0
280
     0
281
     0
  0
CLASS
  1
AM_DWG_DOCUMENT
  2
AcDmDwgDocument
  3
AcMechDwgViewMgmt
 90
     1024
 91
        0
280
     0
281
     0
  0
CLASS
  1
AM_DWG_SHEET
  2
AcDmSheet
  3
AcMechDwgViewMgmt
 90
     1024
 91
        0
280
     0
281
     0
  0
CLASS
  1
AM_VIEWDIMPARMAP
  2
AcDmViewDimParMap
  3
AcMechDwgViewMgmt
 90
     1024
 91
        0
280
     0
281
     0
  0
CLASS
  1
AM_DWGMGR_NAME
  2
AcDmDwgMgrName
  3
AcMechDwgViewMgmt
 90
     1024
 91
        0
280
     0
281
     0
  0
CLASS
  1
AMDTMENUSTATEMGR
  2
AmdtMenuStateMgr
  3
McadcomServices
 90
     1024
 91
        1
280
     0
281
     0
  0
CLASS
  1
AMDTMCOMMENUSTATE
  2
AmdtMcomMenuState
  3
McadcomServices
 90
     1024
 91
        1
280
     0
281
     0
  0
CLASS
  1
MAPIAMMOUDLE
  2
MApiAmModule
  3
MApiAmServices
 90
     1024
 91
        1
280
     0
281
     0
  0
CLASS
  1
AMDTADMENUSTATE
  2
AmdtAdMenuState
  3
DesignerServices
 90
     1024
 91
        0
280
     0
281
     0
  0
CLASS
  1
ADAPPL
  2
AcAdAppl
  3
DesignerAssemblies
 90
     1024
 91
        0
280
     0
281
     0
  0
CLASS
  1
DEPMGR
  2
AcAdDepMgr
  3
DesignerAssemblies
 90
     1024
 91
        0
280
     0
281
     0
  0
CLASS
  1
PARAMMGR
  2
AcAdParamMgr
  3
DesignerAssemblies
 90
     1024
 91
        0
280
     0
281
     0
  0
CLASS
  1
PARAMSCOPE
  2
AcAdParamScope
  3
DesignerAssemblies
 90
     1024
 91
        0
280
     0
281
     0
  0
CLASS
  1
NAMEDAPPL
  2
AcAdNamedAppl
  3
DesignerAssemblies
 90
     1024
 91
        0
280
     0
281
     0
  0
CLASS
  1
AMDTDMMENUSTATE
  2
AmdtDmMenuState
  3
AcMechDwgViewMgmt
 90
     1024
 91
        0
280
     0
281
     0
  0
CLASS
  1
AMDTAMMENUSTATE
  2
AmdtAmMenuState
  3
DesignerAssemblies
 90
     1024
 91
        1
280
     0
281
     0
  0
CLASS
  1
ACAMPROJECT
  2
AcAmProject
  3
DesignerAssemblies
 90
     1024
 91
        1
280
     0
281
     0
  0
CLASS
  1
ACAMGRCOMPDEF
  2
AcAmGrCompDef
  3
DesignerAssemblies
 90
     1024
 91
        1
280
     0
281
     0
  0
CLASS
  1
ACCMCONTEXT
  2
AcCmContext
  3
DesignerAssemblies
 90
     1024
 91
        0
280
     0
281
     0
  0
CLASS
  1
ACAMCOMPDEF
  2
AcAmCompDef
  3
DesignerAssemblies
 90
     1024
 91
        1
280
     0
281
     0
  0
CLASS
  1
ACAMCOMPDEFMGR
  2
AcAmCompDefMgr
  3
DesignerAssemblies
 90
     1024
 91
        1
280
     0
281
     0
  0
CLASS
  1
AMCONTEXTMGR
  2
AcAmContextMgr
  3
DesignerAssemblies
 90
     1024
 91
        1
280
     0
281
     0
  0
CLASS
  1
ACAMCONTEXTMODELER
  2
AcAmContextModeler
  3
DesignerAssemblies
 90
     1024
 91
        1
280
     0
281
     0
  0
CLASS
  1
ACMTHREADLINESTANDARDISO
  2
AmdtThreadLineStdISO
  3
"Amdt_StdImp|Product Description: AutoCAD Mechanical|Company: Autodesk, Inc."
 90
     1024
 91
        1
280
     0
281
     0
  0
CLASS
  1
CATALOGSTATE
  2
AcAmCatalogState
  3
DesignerAssemblies
 90
     1024
 91
        0
280
     0
281
     0
  0
CLASS
  1
ACAMGRCOMPDEFSET
  2
AcAmGrCompDefSet
  3
DesignerAssemblies
 90
     1024
 91
        1
280
     0
281
     0
  0
CLASS
  1
AMDTBROWSERDBTAB
  2
AmdtBrowserDbTab
  3
McadcomServices
 90
     1024
 91
        1
280
     0
281
     0
  0
CLASS
  1
CBROWSERAPPOBJECT
  2
CBrowserAppObject
  3
McadcomServices
 90
     1024
 91
        2
280
     0
281
     0
  0
CLASS
  1
DM_PLACEHOLDER
  2
AcDmSelsetPlaceholder
  3
McadcomServices
 90
     1024
 91
        1
280
     0
281
     0
  0
CLASS
  1
TABLESTYLE
  2
AcDbTableStyle
  3
ObjectDBX Classes
 90
     4095
 91
        1
280
     0
281
     0
  0
CLASS
  1
VAACXREFPANELOBJECT
  2
VaAcXREFPanelObject
  3
VAAC_ADDIN
 90
        0
 91
        0
280
     0
281
     0
  0
CLASS
  1
VAACIMAGEINVENTORY
  2
VaAcImageInventory
  3
VAAC_ADDIN
 90
        0
 91
        0
280
     0
281
     0
  0
CLASS
  1
AMDTNOTETEMPLATEDB
  2
AmdtNoteTemplateDB
  3
AcmSymBB|Product Description: AutoCAD Mechanical|Company: Autodesk, Inc.
 90
     1024
 91
        7
280
     0
281
     0
  0
CLASS
  1
ACAMGFILTERDAT
  2
AcAmgFilterDat
  3
"AcadM|Product Description: AutoCAD Mechanical|Company: Autodesk, Inc."
 90
     1024
 91
        0
280
     0
281
     0
  0
CLASS
  1
ACMBOM
  2
AcmBom
  3
"AcmSymBB|Product Description: AutoCAD Mechanical|Company: Autodesk, Inc."
 90
     1024
 91
        0
280
     0
281
     0
  0
CLASS
  1
AMDTFORMULAUPDATEDISPATCHER
  2
AmdtFormulaUpdateDispatcher
  3
AcMeServices
 90
     1024
 91
        0
280
     0
281
     0
  0
CLASS
  1
ACMSTANDARDDIN
  2
AcmStandardDIN
  3
"Amdt_StdImp|Product Description: AutoCAD Mechanical|Company: Autodesk, Inc."
 90
     1024
 91
        0
280
     0
281
     0
  0
CLASS
  1
AMDTEDGESTANDARDDIN13715
  2
AmdtEdgeStdDIN13715
  3
"Amdt_StdImp|Product Description: AutoCAD Mechanical|Company: Autodesk, Inc."
 90
     1024
 91
        0
280
     0
281
     0
  0
CLASS
  1
ACMSURFSTANDARDDIN
  2
AcmSurfTextStdDIN
  3
"Amdt_StdImp|Product Description: AutoCAD Mechanical|Company: Autodesk, Inc."
 90
     1024
 91
        0
280
     0
281
     0
  0
CLASS
  1
ACMFCFSTANDARDDIN
  2
AcmFCFStdDIN
  3
"Amdt_StdImp|Product Description: AutoCAD Mechanical|Company: Autodesk, Inc."
 90
     1024
 91
        0
280
     0
281
     0
  0
CLASS
  1
ACMWELDSTANDARDDIN
  2
AcmWeldingStdDIN
  3
"Amdt_StdImp|Product Description: AutoCAD Mechanical|Company: Autodesk, Inc."
 90
     1024
 91
        0
280
     0
281
     0
  0
CLASS
  1
ACMIDSTANDARDDIN
  2
AcmIdStdDIN
  3
"Amdt_StdImp|Product Description: AutoCAD Mechanical|Company: Autodesk, Inc."
 90
     1024
 91
        0
280
     0
281
     0
  0
CLASS
  1
ACMDATUMSTANDARDDIN
  2
AcmDatumStdDIN
  3
"Amdt_StdImp|Product Description: AutoCAD Mechanical|Company: Autodesk, Inc."
 90
     1024
 91
        0
280
     0
281
     0
  0
CLASS
  1
ACMBOMSTANDARDDIN
  2
AcmBOMStdDIN
  3
"Amdt_StdImp|Product Description: AutoCAD Mechanical|Company: Autodesk, Inc."
 90
     1024
 91
        0
280
     0
281
     0
  0
CLASS
  1
ACMDETAILSTANDARDDIN
  2
AmdtDetailSymStdDIN
  3
"Amdt_StdImp|Product Description: AutoCAD Mechanical|Company: Autodesk, Inc."
 90
     1024
 91
        0
280
     0
281
     0
  0
CLASS
  1
ACMSECTIONSTANDARDDIN
  2
AmdtSectionSymStdDIN
  3
"Amdt_StdImp|Product Description: AutoCAD Mechanical|Company: Autodesk, Inc."
 90
     1024
 91
        0
280
     0
281
     0
  0
CLASS
  1
ACMCENTERLINESTANDARDDIN
  2
AmdtCenterLineStdDIN
  3
"Amdt_StdImp|Product Description: AutoCAD Mechanical|Company: Autodesk, Inc."
 90
     1024
 91
        0
280
     0
281
     0
  0
CLASS
  1
ACMTHREADLINESTANDARDDIN
  2
AmdtThreadLineStdDIN
  3
"Amdt_StdImp|Product Description: AutoCAD Mechanical|Company: Autodesk, Inc."
 90
     1024
 91
        0
280
     0
281
     0
  0
CLASS
  1
ACMNOTESTANDARDDIN
  2
AmdtNoteStdDIN
  3
"Amdt_StdImp|Product Description: AutoCAD Mechanical|Company: Autodesk, Inc."
 90
     1024
 91
        0
280
     0
281
     0
  0
CLASS
  1
ACAMGHOLECHARTSTDDIN
  2
AcAmgHoleChartStdDIN
  3
AmgDim|Product Description: AutoCAD Mechanical|Company: Autodesk, Inc.
 90
     1024
 91
        0
280
     0
281
     0
  0
CLASS
  1
MATERIAL
  2
AcDbMaterial
  3
ObjectDBX Classes
 90
     1153
 91
        3
280
     0
281
     0
  0
CLASS
  1
VISUALSTYLE
  2
AcDbVisualStyle
  3
ObjectDBX Classes
 90
     4095
 91
       26
280
     0
281
     0
  0
CLASS
  1
SCALE
  2
AcDbScale
  3
ObjectDBX Classes
 90
     1153
 91
       17
280
     0
281
     0
  0
CLASS
  1
MLEADERSTYLE
  2
AcDbMLeaderStyle
  3
ACDB_MLEADERSTYLE_CLASS
 90
     4095
 91
        1
280
     0
281
     0
  0
CLASS
  1
ACRFATTGENMGR
  2
AcRfAttGeneralMgr
  3
AcAttribServices
 90
     1024
 91
        0
280
     0
281
     0
  0
CLASS
  1
ACRFOBJATTMGR
  2
AcRfObjAttGroupMgr
  3
AcAttribServices
 90
     1024
 91
        0
280
     0
281
     0
  0
CLASS
  1
ACRFMCADAPIATTHOLDER
  2
AcRfMCADAPIAttHolder
  3
AcAttribServices
 90
     1024
 91
        0
280
     0
281
     0
  0
CLASS
  1
AMDTSYSATTR
  2
AmdtSystemAttribute
  3
AcAttribServices
 90
     1024
 91
        0
280
     0
281
     0
  0
CLASS
  1
ACMTAPERSTANDARDISO
  2
AcmTaperStdISO
  3
"Amdt_StdImp|Product Description: AutoCAD Mechanical|Company: Autodesk, Inc."
 90
     1024
 91
        1
280
     0
281
     0
  0
CLASS
  1
ACMANOOTATIONVIEWSTANDARDISO
  2
AmdtAnViewStdISO
  3
"Amdt_StdImp|Product Description: AutoCAD Mechanical|Company: Autodesk, Inc."
 90
     1024
 91
        1
280
     0
281
     0
  0
CLASS
  1
ACMTAPERSTANDARDDIN
  2
AcmTaperStdDIN
  3
"Amdt_StdImp|Product Description: AutoCAD Mechanical|Company: Autodesk, Inc."
 90
     1024
 91
        0
280
     0
281
     0
  0
CLASS
  1
ACMANOOTATIONVIEWSTANDARDDIN
  2
AmdtAnViewStdDIN
  3
"Amdt_StdImp|Product Description: AutoCAD Mechanical|Company: Autodesk, Inc."
 90
     1024
 91
        0
280
     0
281
     0
  0
CLASS
  1
EXACXREFPANELOBJECT
  2
ExAcXREFPanelObject
  3
EXAC_ESW
 90
     1025
 91
        0
280
     0
281
     0
  0
CLASS
  1
NPOCOLLECTION
  2
AcDbImpNonPersistentObjectsCollection
  3
ObjectDBX Classes
 90
     1153
 91
        0
280
     0
281
     0
  0
CLASS
  1
CAMSSTRUCTBTNSTATE
  2
StructBtnState
  3
DesignerAssemblies
 90
     1024
 91
        0
280
     0
281
     0
  0
CLASS
  1
CELLSTYLEMAP
  2
AcDbCellStyleMap
  3
ObjectDBX Classes
 90
     1152
 91
        2
280
     0
281
     0
  0
CLASS
  1
AEC_REFEDIT_STATUS_TRACKER
  2
AecDbRefEditStatusTracker
  3
AecArchBase60|Product Desc: Autodesk Architectural Desktop 2007 |Company: Autodesk,Inc. |WEB Address: www.autodesk.com
 90
      129
 91
        0
280
     0
281
     0
  0
CLASS
  1
IMAGE
  2
AcDbRasterImage
  3
ISM
 90
     2175
 91
        0
280
     0
281
     1
  0
CLASS
  1
IMAGEDEF_REACTOR
  2
AcDbRasterImageDefReactor
  3
ISM
 90
        1
 91
        0
280
     0
281
     0
  0
CLASS
  1
IMAGEDEF
  2
AcDbRasterImageDef
  3
ISM
 90
        0
 91
        0
280
     0
281
     0
  0
CLASS
  1
RASTERVARIABLES
  2
AcDbRasterVariables
  3
ISM
 90
        0
 91
        0
280
     0
281
     0
  0
CLASS
  1
ACDBSECTIONVIEWSTYLE
  2
AcDbSectionViewStyle
  3
ObjectDBX Classes
 90
     1025
 91
        2
280
     0
281
     0
  0
CLASS
  1
ACDBDETAILVIEWSTYLE
  2
AcDbDetailViewStyle
  3
ObjectDBX Classes
 90
     1025
 91
        2
280
     0
281
     0
  0
CLASS
  1
ACMSECTIONSTANDARDCUSTOM
  2
AmdtSectionSymStdCustom
  3
"Amdt_StdImp|Product Description: AutoCAD Mechanical|Company: Autodesk, Inc."
 90
     1024
 91
        1
280
     0
281
     0
  0
CLASS
  1
ACMDETAILTANDARDCUSTOM
  2
AmdtDetailSymStdCustom
  3
"Amdt_StdImp|Product Description: AutoCAD Mechanical|Company: Autodesk, Inc."
 90
     1024
 91
        1
280
     0
281
     0
  0
CLASS
  1
FIELD
  2
AcDbField
  3
ObjectDBX Classes
 90
     1152
 91
        3
280
     0
281
     0
  0
CLASS
  1
FIELDLIST
  2
AcDbFieldList
  3
ObjectDBX Classes
 90
     1152
 91
        1
280
     0
281
     0
  0
CLASS
  1
SORTENTSTABLE
  2
AcDbSortentsTable
  3
ObjectDBX Classes
 90
        0
 91
        0
280
     0
281
     0
  0
CLASS
  1
DIMASSOC
  2
AcDbDimAssoc
  3
"AcDbDimAssoc|Product Desc:     AcDim ARX App For Dimension|Company:          Autodesk, Inc.|WEB Address:      www.autodesk.com"
 90
        0
 91
        1
280
     0
281
     0
  0
CLASS
  1
AMDTEDGESTANDARDISO13715
  2
AmdtEdgeStdISO13715
  3
"Amdt_StdImp|Product Description: AutoCAD Mechanical|Company: Autodesk, Inc."
 90
     1024
 91
        1
280
     0
281
     0
  0
CLASS
  1
ACMSURFSTANDARDISO2002
  2
AcmSurfTextStdISO2002
  3
"Amdt_StdImp|Product Description: AutoCAD Mechanical|Company: Autodesk, Inc."
 90
     1024
 91
        1
280
     0
281
     0
  0
CLASS
  1
ACMFCFSTANDARDISO2004
  2
AcmFCFStdISO2004
  3
"Amdt_StdImp|Product Description: AutoCAD Mechanical|Company: Autodesk, Inc."
 90
     1024
 91
        1
280
     0
281
     0
  0
CLASS
  1
ACMIDSTANDARDISO2004
  2
AcmIdStdISO2004
  3
"Amdt_StdImp|Product Description: AutoCAD Mechanical|Company: Autodesk, Inc."
 90
     1024
 91
        1
280
     0
281
     0
  0
CLASS
  1
ACMSECTIONSTANDARDISO2001
  2
AmdtSectionSymStdISO2001
  3
"Amdt_StdImp|Product Description: AutoCAD Mechanical|Company: Autodesk, Inc."
 90
     1024
 91
        1
280
     0
281
     0
  0
ENDSEC
  0
SECTION
  2
TABLES
  0
TABLE
  2
VPORT
  5
8
330
0
100
AcDbSymbolTable
 70
     1
  0
VPORT
  5
3B2
330
8
100
AcDbSymbolTableRecord
100
AcDbViewportTableRecord
  2
*Active
 70
     0
 10
0.0
 20
0.0
 11
1.0
 21
1.0
 12
656.1457291320953
 22
11.05694587317862
 13
0.0
 23
0.0
 14
2.5
 24
2.5
 15
10.0
 25
10.0
 16
0.0
 26
0.0
 36
1.0
 17
0.0
 27
0.0
 37
0.0
 40
1237.416775436421
 41
2.170157068062827
 42
50.0
 43
0.0
 44
0.0
 50
0.0
 51
0.0
 71
     0
 72
   100
 73
     1
 74
     3
 75
     0
 76
     0
 77
     0
 78
     0
281
     0
 65
     0
110
0.0
120
0.0
130
0.0
111
1.0
121
0.0
131
0.0
112
0.0
122
1.0
132
0.0
 79
     0
146
0.0
348
3D2
 60
     3
 61
     5
292
     1
282
     1
141
0.0
142
0.0
 63
   250
421
  3355443
1001
ACAD_NAV_VCDISPLAY
1070
     3
  0
ENDTAB
  0
TABLE
  2
LTYPE
  5
5
330
0
100
AcDbSymbolTable
 70
    22
  0
LTYPE
  5
14
330
5
100
AcDbSymbolTableRecord
100
AcDbLinetypeTableRecord
  2
ByBlock
 70
     0
  3

 72
    65
 73
     0
 40
0.0
  0
LTYPE
  5
15
330
5
100
AcDbSymbolTableRecord
100
AcDbLinetypeTableRecord
  2
ByLayer
 70
     0
  3

 72
    65
 73
     0
 40
0.0
  0
LTYPE
  5
16
330
5
100
AcDbSymbolTableRecord
100
AcDbLinetypeTableRecord
  2
Continuous
 70
     0
  3
Solid line
 72
    65
 73
     0
 40
0.0
  0
LTYPE
  5
64
330
5
100
AcDbSymbolTableRecord
100
AcDbLinetypeTableRecord
  2
AM_ISO02W050
 70
     0
  3
__ __ __ __ __ __ __ __ __ __ __ __ __ __ __
 72
    65
 73
     2
 40
7.5
 49
6.0
 74
     0
 49
-1.5
 74
     0
  0
LTYPE
  5
65
330
5
100
AcDbSymbolTableRecord
100
AcDbLinetypeTableRecord
  2
AM_ISO08W050
 70
     0
  3
____ . ____ . ____ . ____ . ____ . ____ . ____
 72
    65
 73
     4
 40
18.0
 49
12.0
 74
     0
 49
-1.5
 74
     0
 49
3.0
 74
     0
 49
-1.5
 74
     0
  0
LTYPE
  5
66
330
5
100
AcDbSymbolTableRecord
100
AcDbLinetypeTableRecord
  2
AM_ISO09W050
 70
     0
  3
_____ . . _____ . . _____ . . ____ .. ____
 72
    65
 73
     6
 40
22.5
 49
12.0
 74
     0
 49
-1.5
 74
     0
 49
3.0
 74
     0
 49
-1.5
 74
     0
 49
3.0
 74
     0
 49
-1.5
 74
     0
  0
LTYPE
  5
67
330
5
100
AcDbSymbolTableRecord
100
AcDbLinetypeTableRecord
  2
Amconstr
 70
     0
  3
_______________________
 72
    65
 73
     2
 40
9999.0
 49
9999.0
 74
     0
 49
0.0
 74
     0
  0
LTYPE
  5
68
330
5
100
AcDbSymbolTableRecord
100
AcDbLinetypeTableRecord
  2
AM_ISO08W050x2
 70
     0
  3
__ . __ . __ . __ . __ . __
 72
    65
 73
     4
 40
9.0
 49
6.0
 74
     0
 49
-0.75
 74
     0
 49
1.5
 74
     0
 49
-0.75
 74
     0
  0
LTYPE
  5
69
330
5
100
AcDbSymbolTableRecord
100
AcDbLinetypeTableRecord
  2
AM_ISO02W050x2
 70
     0
  3
 _ _ _ _ _ _ _ _ _ _ _ _
 72
    65
 73
     2
 40
3.75
 49
3.0
 74
     0
 49
-0.75
 74
     0
  0
LTYPE
  5
6C
330
5
100
AcDbSymbolTableRecord
100
AcDbLinetypeTableRecord
  2
Amzigzag
 70
     0
  3
/\/-/\/-/\/-/\/-/\/-/\/
 72
    65
 73
     2
 40
11.0001
 49
0.0001
 74
     4
 75
   136
340
22C
 46
0.04
 50
0.0
 44
0.0
 45
0.0
 49
-11.0
 74
     0
  0
LTYPE
  5
7A
330
5
100
AcDbSymbolTableRecord
100
AcDbLinetypeTableRecord
  2
ACISOWELD
 70
     0
  3
_ _ _ _ _
 72
    65
 73
     2
 40
2.0
 49
2.0
 74
     0
 49
-1.0
 74
     0
  0
LTYPE
  5
7B
330
5
100
AcDbSymbolTableRecord
100
AcDbLinetypeTableRecord
  2
ACISOTGB
 70
     0
  3
__ . . __ . .
 72
    65
 73
     6
 40
9.0
 49
4.0
 74
     0
 49
-1.0
 74
     0
 49
1.0
 74
     0
 49
-1.0
 74
     0
 49
1.0
 74
     0
 49
-1.0
 74
     0
  0
LTYPE
  5
7C
330
5
100
AcDbSymbolTableRecord
100
AcDbLinetypeTableRecord
  2
ACISOTGL
 70
     0
  3
_ _ _ _ _
 72
    65
 73
     2
 40
3.0
 49
2.0
 74
     0
 49
-1.0
 74
     0
  0
LTYPE
  5
7E
330
5
100
AcDbSymbolTableRecord
100
AcDbLinetypeTableRecord
  2
CENTER
 70
     0
  3
__ . __
 72
    65
 73
     4
 40
7.0
 49
4.0
 74
     0
 49
-1.0
 74
     0
 49
1.0
 74
     0
 49
-1.0
 74
     0
  0
LTYPE
  5
D8
330
5
100
AcDbSymbolTableRecord
100
AcDbLinetypeTableRecord
  2
HIDDEN
 70
     0
  3
Hidden __ __ __ __ __ __ __ __ __ __ __ __ __ _
 72
    65
 73
     2
 40
9.524999999999996
 49
6.349999999999998
 74
     0
 49
-3.174999999999998
 74
     0
  0
LTYPE
  5
D9
330
5
100
AcDbSymbolTableRecord
100
AcDbLinetypeTableRecord
  2
PHANTOM2
 70
     0
  3
Phantom (.5x) ___ _ _ ___ _ _ ___ _ _ ___ _ _
 72
    65
 73
     6
 40
31.75
 49
15.875
 74
     0
 49
-3.174999999999998
 74
     0
 49
3.174999999999998
 74
     0
 49
-3.174999999999998
 74
     0
 49
3.174999999999998
 74
     0
 49
-3.174999999999998
 74
     0
  0
LTYPE
  5
2E5
330
5
100
AcDbSymbolTableRecord
100
AcDbLinetypeTableRecord
  2
ACDINWELD
 70
     0
  3
_ _ _ _ _
 72
    65
 73
     2
 40
2.0
 49
2.0
 74
     0
 49
-1.0
 74
     0
  0
LTYPE
  5
2E6
330
5
100
AcDbSymbolTableRecord
100
AcDbLinetypeTableRecord
  2
ACDINTGB
 70
     0
  3
__ . . __ . .
 72
    65
 73
     6
 40
9.0
 49
4.0
 74
     0
 49
-1.0
 74
     0
 49
1.0
 74
     0
 49
-1.0
 74
     0
 49
1.0
 74
     0
 49
-1.0
 74
     0
  0
LTYPE
  5
2E7
330
5
100
AcDbSymbolTableRecord
100
AcDbLinetypeTableRecord
  2
ACDINTGL
 70
     0
  3
_ _ _ _ _
 72
    65
 73
     2
 40
3.0
 49
2.0
 74
     0
 49
-1.0
 74
     0
  0
LTYPE
  5
321
330
5
100
AcDbSymbolTableRecord
100
AcDbLinetypeTableRecord
  2
AM_DIN_F_W050
 70
     0
  3
__ __ __ __ __ __ __ __ __ __ __ __ __ __ __
 72
    65
 73
     2
 40
6.25
 49
4.75
 74
     0
 49
-1.5
 74
     0
  0
LTYPE
  5
322
330
5
100
AcDbSymbolTableRecord
100
AcDbLinetypeTableRecord
  2
AM_DIN_G_W050
 70
     0
  3
____ . ____ . ____ . ____ . ____ . ____ . ____
 72
    65
 73
     4
 40
13.75
 49
9.75
 74
     0
 49
-1.5
 74
     0
 49
1.0
 74
     0
 49
-1.5
 74
     0
  0
LTYPE
  5
323
330
5
100
AcDbSymbolTableRecord
100
AcDbLinetypeTableRecord
  2
AM_DIN_K_W050
 70
     0
  3
_____ . . _____ . . _____ . . ____ .. ____
 72
    65
 73
     6
 40
16.25
 49
9.75
 74
     0
 49
-1.5
 74
     0
 49
1.0
 74
     0
 49
-1.5
 74
     0
 49
1.0
 74
     0
 49
-1.5
 74
     0
  0
LTYPE
  5
324
330
5
100
AcDbSymbolTableRecord
100
AcDbLinetypeTableRecord
  2
AM_DIN_G_W050x2
 70
     0
  3
__ . __ . __ . __ . __ . __
 72
    65
 73
     4
 40
6.875
 49
4.75
 74
     0
 49
-0.875
 74
     0
 49
0.375
 74
     0
 49
-0.875
 74
     0
  0
LTYPE
  5
325
330
5
100
AcDbSymbolTableRecord
100
AcDbLinetypeTableRecord
  2
AM_DIN_F_W050x2
 70
     0
  3
 _ _ _ _ _ _ _ _ _ _ _ _
 72
    65
 73
     2
 40
3.125
 49
2.25
 74
     0
 49
-0.875
 74
     0
  0
ENDTAB
  0
TABLE
  2
LAYER
  5
2
102
{ACAD_XDICTIONARY
360
5DD
102
}
330
0
100
AcDbSymbolTable
 70
     8
  0
LAYER
  5
10
102
{ACAD_XDICTIONARY
360
8E1
102
}
330
2
100
AcDbSymbolTableRecord
100
AcDbLayerTableRecord
  2
0
 70
     0
 62
     7
  6
Continuous
370
    -3
390
F
347
3C4
348
0
  0
LAYER
  5
836
102
{ACAD_XDICTIONARY
360
837
102
}
330
2
100
AcDbSymbolTableRecord
100
AcDbLayerTableRecord
  2
ZEICHNUNGSBEMASSUNGEN
 70
     0
 62
     7
  6
Continuous
370
    -3
390
F
347
3C4
348
0
  0
LAYER
  5
838
102
{ACAD_XDICTIONARY
360
839
102
}
330
2
100
AcDbSymbolTableRecord
100
AcDbLayerTableRecord
  2
BEGU_LW600_A15_AUSSEN_new_v_BL1
 70
     0
 62
     7
  6
Continuous
370
    -3
390
F
347
3C4
348
0
  0
LAYER
  5
83A
102
{ACAD_XDICTIONARY
360
83B
102
}
330
2
100
AcDbSymbolTableRecord
100
AcDbLayerTableRecord
  2
BEGU_LW600_A15_DECKEL_AU_ne_BL5
 70
     0
 62
     7
  6
Continuous
370
    -3
390
F
347
3C4
348
0
  0
LAYER
  5
83C
102
{ACAD_XDICTIONARY
360
83D
102
}
330
2
100
AcDbSymbolTableRecord
100
AcDbLayerTableRecord
  2
BEGU_LW600_A15_DECKEL_new_v_BL6
 70
     0
 62
     7
  6
Continuous
370
    -3
390
F
347
3C4
348
0
  0
LAYER
  5
83E
102
{ACAD_XDICTIONARY
360
83F
102
}
330
2
100
AcDbSymbolTableRecord
100
AcDbLayerTableRecord
  2
BEGU_LW600_A15_INNEN_new_v_BL11
 70
     0
 62
     7
  6
Continuous
370
    -3
390
F
347
3C4
348
0
  0
LAYER
  5
840
330
2
100
AcDbSymbolTableRecord
100
AcDbLayerTableRecord
  2
Defpoints
 70
     0
 62
     7
  6
Continuous
290
     0
370
    -3
390
F
347
3C4
348
0
  0
LAYER
  5
86A
102
{ACAD_XDICTIONARY
360
8E8
102
}
330
2
100
AcDbSymbolTableRecord
100
AcDbLayerTableRecord
  2
AM_5
 70
     0
 62
     3
  6
Continuous
370
    25
390
F
347
3C4
348
0
1001
AcAecLayerStandard
1000

1000

  0
ENDTAB
  0
TABLE
  2
STYLE
  5
3
330
0
100
AcDbSymbolTable
 70
    10
  0
STYLE
  5
11
330
3
100
AcDbSymbolTableRecord
100
AcDbTextStyleTableRecord
  2
STANDARD
 70
     0
 40
0.0
 41
1.0
 50
0.0
 71
     0
 42
2.5
  3
ISOCP.SHX
  4

  0
STYLE
  5
6B
330
3
100
AcDbSymbolTableRecord
100
AcDbTextStyleTableRecord
  2

 70
     1
 40
0.0
 41
1.0
 50
0.0
 71
     0
 42
2.5
  3
ltypeshp.shx
  4

  0
STYLE
  5
6D
330
3
100
AcDbSymbolTableRecord
100
AcDbTextStyleTableRecord
  2
ACISOTS
 70
     0
 40
1.0
 41
1.0
 50
0.0
 71
     0
 42
2.5
  3
isocp.shx
  4
bigfont.shx
  0
STYLE
  5
79
330
3
100
AcDbSymbolTableRecord
100
AcDbTextStyleTableRecord
  2
ACISOGDT
 70
     0
 40
0.0
 41
1.0
 50
0.0
 71
     0
 42
2.5
  3
amgdt.shx
  4
bigfont.shx
  0
STYLE
  5
1ED
330
3
100
AcDbSymbolTableRecord
100
AcDbTextStyleTableRecord
  2
USER1
 70
     0
 40
0.0
 41
1.0
 50
0.0
 71
     0
 42
2.5
  3
TXT.SHX
  4
bigfont.shx
  0
STYLE
  5
1EE
330
3
100
AcDbSymbolTableRecord
100
AcDbTextStyleTableRecord
  2
USER2
 70
     0
 40
0.0
 41
1.0
 50
0.0
 71
     0
 42
2.5
  3
SIMPLEX.SHX
  4
bigfont.shx
  0
STYLE
  5
1EF
330
3
100
AcDbSymbolTableRecord
100
AcDbTextStyleTableRecord
  2
USER3
 70
     0
 40
0.0
 41
1.0
 50
0.0
 71
     0
 42
2.5
  3
ITALIC.SHX
  4
bigfont.shx
  0
STYLE
  5
22C
330
3
100
AcDbSymbolTableRecord
100
AcDbTextStyleTableRecord
  2

 70
     1
 40
0.0
 41
1.0
 50
0.0
 71
     0
 42
2.5
  3
genltshp.shx
  4

  0
STYLE
  5
2D7
330
3
100
AcDbSymbolTableRecord
100
AcDbTextStyleTableRecord
  2
ACDINTS
 70
     0
 40
1.0
 41
1.0
 50
0.0
 71
     0
 42
2.5
  3
isocp.shx
  4

  0
STYLE
  5
2E4
330
3
100
AcDbSymbolTableRecord
100
AcDbTextStyleTableRecord
  2
ACDINGDT
 70
     0
 40
0.0
 41
1.0
 50
0.0
 71
     0
 42
2.5
  3
AMGDT
  4

  0
ENDTAB
  0
TABLE
  2
VIEW
  5
6
330
0
100
AcDbSymbolTable
 70
     0
  0
ENDTAB
  0
TABLE
  2
UCS
  5
7
330
0
100
AcDbSymbolTable
 70
     0
  0
ENDTAB
  0
TABLE
  2
APPID
  5
9
330
0
100
AcDbSymbolTable
 70
    19
  0
APPID
  5
12
330
9
100
AcDbSymbolTableRecord
100
AcDbRegAppTableRecord
  2
ACAD
 70
     0
  0
APPID
  5
46
330
9
100
AcDbSymbolTableRecord
100
AcDbRegAppTableRecord
  2
MCAD_NO_VIS
 70
     0
  0
APPID
  5
47
330
9
100
AcDbSymbolTableRecord
100
AcDbRegAppTableRecord
  2
ACAD_TEMP_GRAPHIC
 70
     0
  0
APPID
  5
58
330
9
100
AcDbSymbolTableRecord
100
AcDbRegAppTableRecord
  2
ACATTRIBSERVICES
 70
     0
  0
APPID
  5
EE
330
9
100
AcDbSymbolTableRecord
100
AcDbRegAppTableRecord
  2
AD_DRAW
 70
     0
  0
APPID
  5
10C
330
9
100
AcDbSymbolTableRecord
100
AcDbRegAppTableRecord
  2
DESIGNERASSEMBLIES
 70
     0
  0
APPID
  5
111
330
9
100
AcDbSymbolTableRecord
100
AcDbRegAppTableRecord
  2
ACADM_DIM_EDIT
 70
     0
  0
APPID
  5
112
330
9
100
AcDbSymbolTableRecord
100
AcDbRegAppTableRecord
  2
AMDT_DM_ADJ
 70
     0
  0
APPID
  5
1A3
330
9
100
AcDbSymbolTableRecord
100
AcDbRegAppTableRecord
  2
ACAD_DSTYLE_DIMARC_LENGTH_SYMBOL
 70
     0
  0
APPID
  5
1A4
330
9
100
AcDbSymbolTableRecord
100
AcDbRegAppTableRecord
  2
ACAD_DSTYLE_DIMJOGGED_JOGANGLE_SYMBOL
 70
     0
  0
APPID
  5
3F1
330
9
100
AcDbSymbolTableRecord
100
AcDbRegAppTableRecord
  2
ACAD_MLEADERVER
 70
     0
  0
APPID
  5
629
330
9
100
AcDbSymbolTableRecord
100
AcDbRegAppTableRecord
  2
ACAD_NAV_VCDISPLAY
 70
     0
  0
APPID
  5
842
330
9
100
AcDbSymbolTableRecord
100
AcDbRegAppTableRecord
  2
ACAD_DSTYLE_DIMINSPECT
 70
     0
  0
APPID
  5
86B
330
9
100
AcDbSymbolTableRecord
100
AcDbRegAppTableRecord
  2
AcAecLayerStandard
 70
     0
  0
APPID
  5
86C
330
9
100
AcDbSymbolTableRecord
100
AcDbRegAppTableRecord
  2
ACAD_DSTYLE_DIMBREAK
 70
     0
  0
APPID
  5
86D
330
9
100
AcDbSymbolTableRecord
100
AcDbRegAppTableRecord
  2
ACAD_DSTYLE_DIMJAG
 70
     0
  0
APPID
  5
888
330
9
100
AcDbSymbolTableRecord
100
AcDbRegAppTableRecord
  2
GENIUS_GENDTOL_13
 70
     0
  0
APPID
  5
89B
330
9
100
AcDbSymbolTableRecord
100
AcDbRegAppTableRecord
  2
AcadAnnoMonitorAlertIconDisabled
 70
     0
  0
APPID
  5
89C
330
9
100
AcDbSymbolTableRecord
100
AcDbRegAppTableRecord
  2
ACAD_EXEMPT_FROM_CAD_STANDARDS
 70
     0
  0
ENDTAB
  0
TABLE
  2
DIMSTYLE
  5
A
330
0
100
AcDbSymbolTable
 70
    17
100
AcDbDimStyleTable
 71
     2
340
2F0
340
81
  0
DIMSTYLE
105
27
330
A
100
AcDbSymbolTableRecord
100
AcDbDimStyleTableRecord
  2
ISO-25
 70
     0
 41
2.5
 42
0.625
 43
3.75
 44
1.25
 73
     0
 74
     0
 77
     1
 78
     8
140
2.5
141
2.5
143
0.03937007874016
147
0.625
171
     3
172
     1
271
     2
272
     2
274
     3
278
    44
283
     0
284
     8
340
11
  0
DIMSTYLE
105
81
102
{ACAD_REACTORS
330
929
102
}
330
A
100
AcDbSymbolTableRecord
100
AcDbDimStyleTableRecord
  2
AM_ISO
 70
     0
  4
"
 41
2.5
 42
1.0
 43
10.0
 44
1.0
 47
0.1
 48
0.1
 73
     0
 74
     0
 77
     1
 78
     8
 79
     2
 90
     1
140
3.5
141
0.0
143
0.0393701
146
0.71
147
1.5
172
     1
176
   256
177
   256
178
     2
271
     2
272
     3
274
     4
283
     0
284
     8
340
11
371
    -1
372
    -1
1001
ACAD_DSTYLE_DIMJOGGED_JOGANGLE_SYMBOL
1070
   384
1040
0.7853981633974483
  0
DIMSTYLE
105
82
330
A
100
AcDbSymbolTableRecord
100
AcDbDimStyleTableRecord
  2
AM_ISO$3
 70
     0
  4
"
 41
2.5
 42
1.0
 43
10.0
 44
1.0
 47
0.1
 48
0.1
 73
     0
 77
     1
 78
     8
 79
     2
 90
     1
140
3.5
141
0.0
143
0.0393701
146
0.71
147
1.5
176
   256
177
   256
178
     2
271
     2
272
     3
274
     4
283
     0
284
     8
288
     1
289
     0
340
11
371
    -1
372
    -1
1001
ACAD_DSTYLE_DIMJOGGED_JOGANGLE_SYMBOL
1070
   384
1040
0.7853981633974483
  0
DIMSTYLE
105
83
330
A
100
AcDbSymbolTableRecord
100
AcDbDimStyleTableRecord
  2
AM_ISO$4
 70
     0
  4
"
 41
2.5
 42
1.0
 43
10.0
 44
1.0
 47
0.1
 48
0.1
 73
     0
 77
     1
 78
     8
 79
     2
 90
     1
140
3.5
141
0.0
143
0.0393701
146
0.71
147
1.5
176
   256
177
   256
178
     2
271
     2
272
     3
274
     4
283
     0
284
     8
288
     1
289
     0
340
11
371
    -1
372
    -1
1001
ACAD_DSTYLE_DIMJOGGED_JOGANGLE_SYMBOL
1070
   384
1040
0.7853981633974483
  0
DIMSTYLE
105
84
330
A
100
AcDbSymbolTableRecord
100
AcDbDimStyleTableRecord
  2
AM_ISO$6
 70
     0
  4
"
 41
2.5
 42
1.0
 43
10.0
 44
1.0
 47
0.1
 48
0.1
 73
     0
 74
     0
 78
     8
 79
     2
 90
     1
140
3.5
141
0.0
143
0.0393701
146
0.71
147
1.5
172
     1
176
   256
177
   256
178
     2
271
     2
272
     3
274
     4
283
     0
284
     8
340
11
371
    -1
372
    -1
1001
ACAD_DSTYLE_DIMJOGGED_JOGANGLE_SYMBOL
1070
   384
1040
0.7853981633974483
  0
DIMSTYLE
105
85
330
A
100
AcDbSymbolTableRecord
100
AcDbDimStyleTableRecord
  2
AM_ISO$7
 70
     0
  4
"
 41
2.5
 42
1.0
 43
10.0
 44
1.0
 47
0.1
 48
0.1
 73
     0
 74
     0
 77
     1
 78
     8
 79
     2
 90
     1
140
5.0
141
0.0
143
0.0393701
146
0.71
147
1.5
172
     1
176
   256
177
   256
178
     2
271
     2
272
     3
274
     4
283
     0
284
     8
340
11
371
    -1
372
    -1
1001
ACAD_DSTYLE_DIMJOGGED_JOGANGLE_SYMBOL
1070
   384
1040
0.7853981633974483
  0
DIMSTYLE
105
86
330
A
100
AcDbSymbolTableRecord
100
AcDbDimStyleTableRecord
  2
AM_ISO$SF
 70
     0
  4
"
 41
2.5
 42
1.0
 43
10.0
 44
1.0
 47
0.1
 48
0.1
 73
     0
 74
     0
 75
     1
 76
     1
 77
     1
 78
     8
 79
     2
 90
     1
140
3.5
141
0.0
143
0.0393701
146
0.71
147
1.5
172
     1
176
   256
177
   256
178
     2
271
     2
272
     3
274
     4
283
     0
284
     8
340
11
371
    -1
372
    -1
1001
ACAD_DSTYLE_DIMJOGGED_JOGANGLE_SYMBOL
1070
   384
1040
0.7853981633974483
  0
DIMSTYLE
105
8B
330
A
100
AcDbSymbolTableRecord
100
AcDbDimStyleTableRecord
  2
AM_ISO$SH
 70
     0
  4
"
 41
2.5
 42
1.0
 43
10.0
 44
1.0
 47
0.1
 48
0.1
 73
     0
 74
     0
 75
     1
 76
     1
 77
     1
 78
     8
 79
     2
 90
     1
140
3.5
141
0.0
143
0.0393701
144
2.0
146
0.71
147
1.5
172
     1
173
     1
176
   256
177
   256
178
     2
271
     2
272
     3
274
     4
283
     0
284
     8
340
11
343
87
371
    -1
372
    -1
1001
ACAD_DSTYLE_DIMJOGGED_JOGANGLE_SYMBOL
1070
   384
1040
0.7853981633974483
  0
DIMSTYLE
105
2F0
330
A
100
AcDbSymbolTableRecord
100
AcDbDimStyleTableRecord
  2
AM_DIN
 70
     0
  4
"
 41
2.5
 42
1.0
 43
10.0
 44
1.0
 47
0.1
 48
0.1
 50
90.0
 73
     0
 74
     0
 77
     1
 78
     8
 79
     2
140
3.5
141
0.0
143
0.0393701
146
0.71
147
1.5
172
     1
176
   256
177
   256
178
     2
271
     2
272
     3
274
     4
283
     0
284
     8
340
11
371
    -1
372
    -1
1001
ACAD_DSTYLE_DIMJOGGED_JOGANGLE_SYMBOL
1070
   384
1040
1.570796326794896
  0
DIMSTYLE
105
301
330
A
100
AcDbSymbolTableRecord
100
AcDbDimStyleTableRecord
  2
AM_DIN$3
 70
     0
  4
"
 41
2.5
 42
1.0
 43
10.0
 44
1.0
 47
0.1
 48
0.1
 50
90.0
 73
     0
 77
     1
 78
     8
 79
     2
140
3.5
141
0.0
143
0.0393701
146
0.71
147
1.5
176
   256
177
   256
178
     2
271
     2
272
     3
274
     4
283
     0
284
     8
288
     1
289
     0
340
11
371
    -1
372
    -1
1001
ACAD_DSTYLE_DIMJOGGED_JOGANGLE_SYMBOL
1070
   384
1040
1.570796326794896
  0
DIMSTYLE
105
306
330
A
100
AcDbSymbolTableRecord
100
AcDbDimStyleTableRecord
  2
AM_DIN$4
 70
     0
  4
"
 41
2.5
 42
1.0
 43
10.0
 44
1.0
 47
0.1
 48
0.1
 50
90.0
 73
     0
 77
     1
 78
     8
 79
     2
140
3.5
141
0.0
143
0.0393701
146
0.71
147
1.5
176
   256
177
   256
178
     2
271
     2
272
     3
274
     4
283
     0
284
     8
288
     1
289
     0
340
11
371
    -1
372
    -1
1001
ACAD_DSTYLE_DIMJOGGED_JOGANGLE_SYMBOL
1070
   384
1040
1.570796326794896
  0
DIMSTYLE
105
30B
330
A
100
AcDbSymbolTableRecord
100
AcDbDimStyleTableRecord
  2
AM_DIN$6
 70
     0
  4
"
 41
2.5
 42
1.0
 43
10.0
 44
1.0
 47
0.1
 48
0.1
 50
90.0
 73
     0
 74
     0
 78
     8
 79
     2
140
3.5
141
0.0
143
0.0393701
146
0.71
147
1.5
172
     1
176
   256
177
   256
178
     2
271
     2
272
     3
274
     4
283
     0
284
     8
340
11
371
    -1
372
    -1
1001
ACAD_DSTYLE_DIMJOGGED_JOGANGLE_SYMBOL
1070
   384
1040
1.570796326794896
  0
DIMSTYLE
105
310
330
A
100
AcDbSymbolTableRecord
100
AcDbDimStyleTableRecord
  2
AM_DIN$7
 70
     0
  4
"
 41
2.5
 42
1.0
 43
10.0
 44
1.0
 47
0.1
 48
0.1
 50
90.0
 73
     0
 74
     0
 77
     1
 78
     8
 79
     2
140
5.0
141
0.0
143
0.0393701
146
0.71
147
1.5
172
     1
176
   256
177
   256
178
     2
271
     2
272
     3
274
     4
283
     0
284
     8
340
11
371
    -1
372
    -1
1001
ACAD_DSTYLE_DIMJOGGED_JOGANGLE_SYMBOL
1070
   384
1040
1.570796326794896
  0
DIMSTYLE
105
315
330
A
100
AcDbSymbolTableRecord
100
AcDbDimStyleTableRecord
  2
AM_DIN$SF
 70
     0
  4
"
 41
2.5
 42
1.0
 43
10.0
 44
1.0
 47
0.1
 48
0.1
 50
90.0
 73
     0
 74
     0
 75
     1
 76
     1
 77
     1
 78
     8
 79
     2
140
3.5
141
0.0
143
0.0393701
146
0.71
147
1.5
172
     1
176
   256
177
   256
178
     2
271
     2
272
     3
274
     4
283
     0
284
     8
340
11
371
    -1
372
    -1
1001
ACAD_DSTYLE_DIMJOGGED_JOGANGLE_SYMBOL
1070
   384
1040
1.570796326794896
  0
DIMSTYLE
105
31A
330
A
100
AcDbSymbolTableRecord
100
AcDbDimStyleTableRecord
  2
AM_DIN$SH
 70
     0
  4
"
 41
2.5
 42
1.0
 43
10.0
 44
1.0
 47
0.1
 48
0.1
 50
90.0
 73
     0
 74
     0
 75
     1
 76
     1
 77
     1
 78
     8
 79
     2
140
3.5
141
0.0
143
0.0393701
144
2.0
146
0.71
147
1.5
172
     1
173
     1
176
   256
177
   256
178
     2
271
     2
272
     3
274
     4
283
     0
284
     8
340
11
343
87
371
    -1
372
    -1
1001
ACAD_DSTYLE_DIMJOGGED_JOGANGLE_SYMBOL
1070
   384
1040
1.570796326794896
  0
DIMSTYLE
105
841
330
A
100
AcDbSymbolTableRecord
100
AcDbDimStyleTableRecord
  2
DIMSTYLE_3
 70
     0
 41
5.0
 47
1.199999999999999
 48
1.199999999999999
 73
     0
 74
     0
 77
     1
 78
     8
140
7.0
178
     5
271
     3
272
     3
284
     8
340
11
341
656
342
656
343
656
344
656
  0
DIMSTYLE
105
86E
102
{ACAD_REACTORS
330
870
102
}
330
A
100
AcDbSymbolTableRecord
100
AcDbDimStyleTableRecord
  2
AM_DIN$0
 70
     0
  4
"
 41
2.5
 42
1.0
 43
10.0
 44
1.0
 47
0.1
 48
0.1
 50
90.0
 73
     0
 74
     0
 77
     1
 78
     8
 79
     2
140
3.5
141
0.0
143
0.0393701
146
0.71
147
1.5
172
     1
176
   256
177
   256
178
     2
271
     2
272
     3
274
     4
283
     0
284
     8
340
11
371
    -1
372
    -1
1001
ACAD_DSTYLE_DIMBREAK
1070
   391
1040
3.75
1001
ACAD_DSTYLE_DIMJAG
1070
   388
1040
1.5
  0
ENDTAB
  0
TABLE
  2
BLOCK_RECORD
  5
1
330
0
100
AcDbSymbolTable
 70
    13
  0
BLOCK_RECORD
  5
1F
102
{ACAD_XDICTIONARY
360
8F
102
}
330
1
100
AcDbSymbolTableRecord
100
AcDbBlockTableRecord
  2
*Model_Space
340
22
 70
     0
280
     1
281
     0
  0
BLOCK_RECORD
  5
1B
330
1
100
AcDbSymbolTableRecord
100
AcDbBlockTableRecord
  2
*Paper_Space
340
1E
 70
     0
280
     1
281
     0
  0
BLOCK_RECORD
  5
23
330
1
100
AcDbSymbolTableRecord
100
AcDbBlockTableRecord
  2
*Paper_Space0
340
26
 70
     0
280
     1
281
     0
  0
BLOCK_RECORD
  5
87
330
1
100
AcDbSymbolTableRecord
100
AcDbBlockTableRecord
  2
GENAXEH
340
0
 70
     0
280
     1
281
     0
  0
BLOCK_RECORD
  5
609
330
1
100
AcDbSymbolTableRecord
100
AcDbBlockTableRecord
  2
_ACMFILLED15
340
0
 70
     0
280
     1
281
     0
  0
BLOCK_RECORD
  5
61B
330
1
100
AcDbSymbolTableRecord
100
AcDbBlockTableRecord
  2
_ACMFILLED30
340
0
 70
     0
280
     1
281
     0
  0
BLOCK_RECORD
  5
656
330
1
100
AcDbSymbolTableRecord
100
AcDbBlockTableRecord
  2
_FILLED
340
0
102
{BLKREFS
331
830
331
82F
331
862
331
863
102
}
 70
     0
280
     1
281
     0
  0
BLOCK_RECORD
  5
65A
330
1
100
AcDbSymbolTableRecord
100
AcDbBlockTableRecord
  2
BEGU_LW600_A15_AUSSEN_NEW_V_BL1
340
0
102
{BLKREFS
331
84F
102
}
 70
     0
280
     1
281
     0
  0
BLOCK_RECORD
  5
697
330
1
100
AcDbSymbolTableRecord
100
AcDbBlockTableRecord
  2
BEGU_LW600_A15_DECKEL_AU_NE_BL5
340
0
102
{BLKREFS
331
850
102
}
 70
     0
280
     1
281
     0
  0
BLOCK_RECORD
  5
763
330
1
100
AcDbSymbolTableRecord
100
AcDbBlockTableRecord
  2
BEGU_LW600_A15_DECKEL_NEW_V_BL6
340
0
102
{BLKREFS
331
851
102
}
 70
     0
280
     1
281
     0
  0
BLOCK_RECORD
  5
7CF
330
1
100
AcDbSymbolTableRecord
100
AcDbBlockTableRecord
  2
BEGU_LW600_A15_INNEN_NEW_V_BL11
340
0
102
{BLKREFS
331
852
102
}
 70
     0
280
     1
281
     0
  0
BLOCK_RECORD
  5
82A
330
1
100
AcDbSymbolTableRecord
100
AcDbBlockTableRecord
  2
*D9
340
0
 70
     0
280
     1
281
     0
  0
BLOCK_RECORD
  5
853
330
1
100
AcDbSymbolTableRecord
100
AcDbBlockTableRecord
  2
*D10
340
0
 70
     0
280
     1
281
     0
  0
BLOCK_RECORD
  5
871
330
1
100
AcDbSymbolTableRecord
100
AcDbBlockTableRecord
  2
*D11
340
0
 70
     0
280
     1
281
     0
  0
ENDTAB
  0
ENDSEC
  0
SECTION
  2
BLOCKS
  0
BLOCK
  5
20
330
1F
100
AcDbEntity
  8
0
100
AcDbBlockBegin
  2
*Model_Space
 70
     0
 10
0.0
 20
0.0
 30
0.0
  3
*Model_Space
  1

  0
ENDBLK
  5
21
330
1F
100
AcDbEntity
  8
0
100
AcDbBlockEnd
  0
BLOCK
  5
1C
330
1B
100
AcDbEntity
 67
     1
  8
0
100
AcDbBlockBegin
  2
*Paper_Space
 70
     0
 10
0.0
 20
0.0
 30
0.0
  3
*Paper_Space
  1

  0
ENDBLK
  5
1D
330
1B
100
AcDbEntity
 67
     1
  8
0
100
AcDbBlockEnd
  0
BLOCK
  5
24
330
23
100
AcDbEntity
 67
     1
  8
0
100
AcDbBlockBegin
  2
*Paper_Space0
 70
     0
 10
0.0
 20
0.0
 30
0.0
  3
*Paper_Space0
  1

  0
ENDBLK
  5
25
330
23
100
AcDbEntity
 67
     1
  8
0
100
AcDbBlockEnd
  0
BLOCK
  5
89
330
87
100
AcDbEntity
  8
0
100
AcDbBlockBegin
  2
GENAXEH
 70
     0
 10
0.0
 20
0.0
 30
0.0
  3
GENAXEH
  1

  0
LINE
  5
88
330
87
100
AcDbEntity
  8
0
100
AcDbLine
 10
-1.0
 20
0.0
 30
0.0
 11
1.0
 21
0.0
 31
0.0
  0
ENDBLK
  5
8A
330
87
100
AcDbEntity
  8
0
100
AcDbBlockEnd
  0
BLOCK
  5
60A
330
609
100
AcDbEntity
  8
0
100
AcDbBlockBegin
  2
_ACMFILLED15
 70
     0
 10
0.0
 20
0.0
 30
0.0
  3
_ACMFILLED15
  1

  0
TRACE
  5
60C
330
609
100
AcDbEntity
  8
0
 62
     0
100
AcDbTrace
 10
-1.0
 20
-0.131652497
 30
0.0
 11
-1.0
 21
0.131652497
 31
0.0
 12
0.0
 22
0.0
 32
0.0
 13
0.0
 23
0.0
 33
0.0
  0
ENDBLK
  5
60B
330
609
100
AcDbEntity
  8
0
100
AcDbBlockEnd
  0
BLOCK
  5
61C
330
61B
100
AcDbEntity
  8
0
100
AcDbBlockBegin
  2
_ACMFILLED30
 70
     0
 10
0.0
 20
0.0
 30
0.0
  3
_ACMFILLED30
  1

  0
TRACE
  5
61E
330
61B
100
AcDbEntity
  8
0
 62
     0
100
AcDbTrace
 10
-1.0
 20
-0.26794919
 30
0.0
 11
-1.0
 21
0.26794919
 31
0.0
 12
0.0
 22
0.0
 32
0.0
 13
0.0
 23
0.0
 33
0.0
  0
ENDBLK
  5
61D
330
61B
100
AcDbEntity
  8
0
100
AcDbBlockEnd
  0
BLOCK
  5
657
330
656
100
AcDbEntity
  8
0
100
AcDbBlockBegin
  2
_FILLED
 70
     0
 10
0.0
 20
0.0
 30
0.0
  3
_FILLED
  1

  0
SOLID
  5
658
330
656
100
AcDbEntity
  8
0
  6
ByBlock
 62
     0
100
AcDbTrace
 10
0.0
 20
0.0
 30
0.0
 11
-1.0
 21
0.15
 31
0.0
 12
-1.0
 22
-0.15
 32
0.0
 13
-1.0
 23
-0.15
 33
0.0
  0
ENDBLK
  5
659
330
656
100
AcDbEntity
  8
0
  6
ByBlock
 62
     0
100
AcDbBlockEnd
  0
BLOCK
  5
65B
330
65A
100
AcDbEntity
  8
BEGU_LW600_A15_AUSSEN_new_v_BL1
100
AcDbBlockBegin
  2
BEGU_LW600_A15_AUSSEN_NEW_V_BL1
 70
     0
 10
303.7898985403
 20
1115.5392129747
 30
0.0
  3
BEGU_LW600_A15_AUSSEN_NEW_V_BL1
  1

  0
LINE
  5
65C
330
65A
100
AcDbEntity
  8
BEGU_LW600_A15_AUSSEN_new_v_BL1
  6
Continuous
 62
     2
100
AcDbLine
 10
-198.7101014597
 20
1144.2565203783
 30
0.0
 11
-187.4274088632
 21
1155.5392129747
 31
0.0
  0
LINE
  5
65D
330
65A
100
AcDbEntity
  8
BEGU_LW600_A15_AUSSEN_new_v_BL1
  6
Continuous
 62
     2
100
AcDbLine
 10
-198.7101014597
 20
1132.9428118793
 30
0.0
 11
-176.1137003642
 21
1155.5392129747
 31
0.0
  0
LINE
  5
65E
330
65A
100
AcDbEntity
  8
BEGU_LW600_A15_AUSSEN_new_v_BL1
  6
Continuous
 62
     2
100
AcDbLine
 10
-198.7101014597
 20
1121.6291033803
 30
0.0
 11
-164.7999918653
 21
1155.5392129747
 31
0.0
  0
LINE
  5
65F
330
65A
100
AcDbEntity
  8
BEGU_LW600_A15_AUSSEN_new_v_BL1
  6
Continuous
 62
     2
100
AcDbLine
 10
-198.7101014597
 20
1110.3153948813
 30
0.0
 11
-153.4862833663
 21
1155.5392129747
 31
0.0
  0
LINE
  5
660
330
65A
100
AcDbEntity
  8
BEGU_LW600_A15_AUSSEN_new_v_BL1
  6
Continuous
 62
     2
100
AcDbLine
 10
-198.7101014597
 20
1099.0016863823
 30
0.0
 11
-142.1725748673
 21
1155.5392129747
 31
0.0
  0
LINE
  5
661
330
65A
100
AcDbEntity
  8
BEGU_LW600_A15_AUSSEN_new_v_BL1
  6
Continuous
 62
     2
100
AcDbLine
 10
-198.7101014597
 20
1087.6879778833
 30
0.0
 11
-130.8588663683
 21
1155.5392129747
 31
0.0
  0
LINE
  5
662
330
65A
100
AcDbEntity
  8
BEGU_LW600_A15_AUSSEN_new_v_BL1
  6
Continuous
 62
     2
100
AcDbLine
 10
-198.7101014597
 20
1076.3742693844
 30
0.0
 11
-119.5451578693
 21
1155.5392129747
 31
0.0
  0
LINE
  5
663
330
65A
100
AcDbEntity
  8
BEGU_LW600_A15_AUSSEN_new_v_BL1
  6
Continuous
 62
     2
100
AcDbLine
 10
-188.2314493703
 20
1075.5392129747
 30
0.0
 11
-108.2314493703
 21
1155.5392129747
 31
0.0
  0
LINE
  5
664
330
65A
100
AcDbEntity
  8
BEGU_LW600_A15_AUSSEN_new_v_BL1
  6
Continuous
 62
     2
100
AcDbLine
 10
-176.9177408714
 20
1075.5392129747
 30
0.0
 11
-96.9177408714
 21
1155.5392129747
 31
0.0
  0
LINE
  5
665
330
65A
100
AcDbEntity
  8
BEGU_LW600_A15_AUSSEN_new_v_BL1
  6
Continuous
 62
     2
100
AcDbLine
 10
-165.6040323724
 20
1075.5392129747
 30
0.0
 11
-85.6040323724
 21
1155.5392129747
 31
0.0
  0
LINE
  5
666
330
65A
100
AcDbEntity
  8
BEGU_LW600_A15_AUSSEN_new_v_BL1
  6
Continuous
 62
     2
100
AcDbLine
 10
-154.2903238734
 20
1075.5392129747
 30
0.0
 11
-74.2903238734
 21
1155.5392129747
 31
0.0
  0
LINE
  5
667
330
65A
100
AcDbEntity
  8
BEGU_LW600_A15_AUSSEN_new_v_BL1
  6
Continuous
 62
     2
100
AcDbLine
 10
-142.9766153744
 20
1075.5392129747
 30
0.0
 11
-62.97661537439999
 21
1155.5392129747
 31
0.0
  0
LINE
  5
668
330
65A
100
AcDbEntity
  8
BEGU_LW600_A15_AUSSEN_new_v_BL1
  6
Continuous
 62
     2
100
AcDbLine
 10
-131.6629068754
 20
1075.5392129747
 30
0.0
 11
-51.6629068754
 21
1155.5392129747
 31
0.0
  0
LINE
  5
669
330
65A
100
AcDbEntity
  8
BEGU_LW600_A15_AUSSEN_new_v_BL1
  6
Continuous
 62
     2
100
AcDbLine
 10
-120.3491983764
 20
1075.5392129747
 30
0.0
 11
-40.34919837639999
 21
1155.5392129747
 31
0.0
  0
LINE
  5
66A
330
65A
100
AcDbEntity
  8
BEGU_LW600_A15_AUSSEN_new_v_BL1
  6
Continuous
 62
     2
100
AcDbLine
 10
-109.0354898774
 20
1075.5392129747
 30
0.0
 11
-29.0354898774
 21
1155.5392129747
 31
0.0
  0
LINE
  5
66B
330
65A
100
AcDbEntity
  8
BEGU_LW600_A15_AUSSEN_new_v_BL1
  6
Continuous
 62
     2
100
AcDbLine
 10
-97.7217813785
 20
1075.5392129747
 30
0.0
 11
-23.5454552524
 21
1149.7155391007
 31
0.0
  0
LINE
  5
66C
330
65A
100
AcDbEntity
  8
BEGU_LW600_A15_AUSSEN_new_v_BL1
  6
Continuous
 62
     2
100
AcDbLine
 10
-86.40807287950002
 20
1075.5392129747
 30
0.0
 11
-23.2305462127
 21
1138.7167396415
 31
0.0
  0
LINE
  5
66D
330
65A
100
AcDbEntity
  8
BEGU_LW600_A15_AUSSEN_new_v_BL1
  6
Continuous
 62
     2
100
AcDbLine
 10
-75.09436438049998
 20
1075.5392129747
 30
0.0
 11
-22.9156371729
 21
1127.7179401823
 31
0.0
  0
LINE
  5
66E
330
65A
100
AcDbEntity
  8
BEGU_LW600_A15_AUSSEN_new_v_BL1
  6
Continuous
 62
     2
100
AcDbLine
 10
-63.7806558815
 20
1075.5392129747
 30
0.0
 11
-18.7806558815
 21
1120.5392129747
 31
0.0
  0
LINE
  5
66F
330
65A
100
AcDbEntity
  8
BEGU_LW600_A15_AUSSEN_new_v_BL1
  6
Continuous
 62
     2
100
AcDbLine
 10
-52.4669473825
 20
1075.5392129747
 30
0.0
 11
-7.466947382499999
 21
1120.5392129747
 31
0.0
  0
LINE
  5
670
330
65A
100
AcDbEntity
  8
BEGU_LW600_A15_AUSSEN_new_v_BL1
  6
Continuous
 62
     2
100
AcDbLine
 10
-41.1532388835
 20
1075.5392129747
 30
0.0
 11
3.359277771799998
 21
1120.05172963
 31
0.0
  0
LINE
  5
671
330
65A
100
AcDbEntity
  8
BEGU_LW600_A15_AUSSEN_new_v_BL1
  6
Continuous
 62
     2
100
AcDbLine
 10
-29.8395303845
 20
1075.5392129747
 30
0.0
 11
-0.7818269498000002
 21
1104.5969164094
 31
0.0
  0
LINE
  5
672
330
65A
100
AcDbEntity
  8
BEGU_LW600_A15_AUSSEN_new_v_BL1
  6
Continuous
 62
     2
100
AcDbLine
 10
-18.5258218856
 20
1075.5392129747
 30
0.0
 11
-4.922931671499997
 21
1089.1421031888
 31
0.0
  0
LINE
  5
673
330
65A
100
AcDbEntity
  8
BEGU_LW600_A15_AUSSEN_new_v_BL1
  6
Continuous
 62
     7
100
AcDbLine
 10
-198.7101014597
 20
1155.5392129747
 30
0.0
 11
-198.7101014597
 21
1075.5392129747
 31
0.0
  0
LINE
  5
674
330
65A
100
AcDbEntity
  8
BEGU_LW600_A15_AUSSEN_new_v_BL1
  6
Continuous
 62
     7
100
AcDbLine
 10
3.489898540299997
 20
1120.5392129747
 30
0.0
 11
-8.5678151191
 21
1075.5392129747
 31
0.0
  0
LINE
  5
675
330
65A
100
AcDbEntity
  8
BEGU_LW600_A15_AUSSEN_new_v_BL1
  6
Continuous
 62
     7
100
AcDbLine
 10
-23.7121941365
 20
1155.5392129747
 30
0.0
 11
-22.7101014597
 21
1120.5392129747
 31
0.0
  0
LINE
  5
676
330
65A
100
AcDbEntity
  8
BEGU_LW600_A15_AUSSEN_new_v_BL1
  6
Continuous
 62
     2
100
AcDbLine
 10
631.0803208792997
 20
1148.1462222913
 30
0.0
 11
638.4733115627
 21
1155.5392129747
 31
0.0
  0
LINE
  5
677
330
65A
100
AcDbEntity
  8
BEGU_LW600_A15_AUSSEN_new_v_BL1
  6
Continuous
 62
     2
100
AcDbLine
 10
606.3504663059999
 20
1112.1026592191
 30
0.0
 11
614.7870200616
 21
1120.5392129747
 31
0.0
  0
LINE
  5
678
330
65A
100
AcDbEntity
  8
BEGU_LW600_A15_AUSSEN_new_v_BL1
  6
Continuous
 62
     2
100
AcDbLine
 10
630.7468478708997
 20
1136.499040784
 30
0.0
 11
649.7870200616
 21
1155.5392129747
 31
0.0
  0
LINE
  5
679
330
65A
100
AcDbEntity
  8
BEGU_LW600_A15_AUSSEN_new_v_BL1
  6
Continuous
 62
     2
100
AcDbLine
 10
608.7413342318
 20
1103.1798186459
 30
0.0
 11
626.1007285606
 21
1120.5392129747
 31
0.0
  0
LINE
  5
67A
330
65A
100
AcDbEntity
  8
BEGU_LW600_A15_AUSSEN_new_v_BL1
  6
Continuous
 62
     2
100
AcDbLine
 10
630.4133748624997
 20
1124.8518592766
 30
0.0
 11
661.1007285606
 21
1155.5392129747
 31
0.0
  0
LINE
  5
67B
330
65A
100
AcDbEntity
  8
BEGU_LW600_A15_AUSSEN_new_v_BL1
  6
Continuous
 62
     2
100
AcDbLine
 10
611.1322021576
 20
1094.2569780727
 30
0.0
 11
672.4144370596
 21
1155.5392129747
 31
0.0
  0
LINE
  5
67C
330
65A
100
AcDbEntity
  8
BEGU_LW600_A15_AUSSEN_new_v_BL1
  6
Continuous
 62
     2
100
AcDbLine
 10
613.5230700833999
 20
1085.3341374995
 30
0.0
 11
683.7281455585999
 21
1155.5392129747
 31
0.0
  0
LINE
  5
67D
330
65A
100
AcDbEntity
  8
BEGU_LW600_A15_AUSSEN_new_v_BL1
  6
Continuous
 62
     2
100
AcDbLine
 10
615.9139380092
 20
1076.4112969263
 30
0.0
 11
695.0418540575999
 21
1155.5392129747
 31
0.0
  0
LINE
  5
67E
330
65A
100
AcDbEntity
  8
BEGU_LW600_A15_AUSSEN_new_v_BL1
  6
Continuous
 62
     2
100
AcDbLine
 10
626.3555625566
 20
1075.5392129747
 30
0.0
 11
706.3555625566
 21
1155.5392129747
 31
0.0
  0
LINE
  5
67F
330
65A
100
AcDbEntity
  8
BEGU_LW600_A15_AUSSEN_new_v_BL1
  6
Continuous
 62
     2
100
AcDbLine
 10
637.6692710556
 20
1075.5392129747
 30
0.0
 11
717.6692710555998
 21
1155.5392129747
 31
0.0
  0
LINE
  5
680
330
65A
100
AcDbEntity
  8
BEGU_LW600_A15_AUSSEN_new_v_BL1
  6
Continuous
 62
     2
100
AcDbLine
 10
648.9829795544999
 20
1075.5392129747
 30
0.0
 11
728.9829795544997
 21
1155.5392129747
 31
0.0
  0
LINE
  5
681
330
65A
100
AcDbEntity
  8
BEGU_LW600_A15_AUSSEN_new_v_BL1
  6
Continuous
 62
     2
100
AcDbLine
 10
660.2966880534999
 20
1075.5392129747
 30
0.0
 11
740.2966880535
 21
1155.5392129747
 31
0.0
  0
LINE
  5
682
330
65A
100
AcDbEntity
  8
BEGU_LW600_A15_AUSSEN_new_v_BL1
  6
Continuous
 62
     2
100
AcDbLine
 10
671.6103965524998
 20
1075.5392129747
 30
0.0
 11
751.6103965524997
 21
1155.5392129747
 31
0.0
  0
LINE
  5
683
330
65A
100
AcDbEntity
  8
BEGU_LW600_A15_AUSSEN_new_v_BL1
  6
Continuous
 62
     2
100
AcDbLine
 10
682.9241050514997
 20
1075.5392129747
 30
0.0
 11
762.9241050514999
 21
1155.5392129747
 31
0.0
  0
LINE
  5
684
330
65A
100
AcDbEntity
  8
BEGU_LW600_A15_AUSSEN_new_v_BL1
  6
Continuous
 62
     2
100
AcDbLine
 10
694.2378135505
 20
1075.5392129747
 30
0.0
 11
774.2378135505
 21
1155.5392129747
 31
0.0
  0
LINE
  5
685
330
65A
100
AcDbEntity
  8
BEGU_LW600_A15_AUSSEN_new_v_BL1
  6
Continuous
 62
     2
100
AcDbLine
 10
705.5515220495
 20
1075.5392129747
 30
0.0
 11
785.5515220495
 21
1155.5392129747
 31
0.0
  0
LINE
  5
686
330
65A
100
AcDbEntity
  8
BEGU_LW600_A15_AUSSEN_new_v_BL1
  6
Continuous
 62
     2
100
AcDbLine
 10
716.8652305483998
 20
1075.5392129747
 30
0.0
 11
796.8652305483998
 21
1155.5392129747
 31
0.0
  0
LINE
  5
687
330
65A
100
AcDbEntity
  8
BEGU_LW600_A15_AUSSEN_new_v_BL1
  6
Continuous
 62
     2
100
AcDbLine
 10
728.1789390474
 20
1075.5392129747
 30
0.0
 11
806.2898985403
 21
1153.6501724676
 31
0.0
  0
LINE
  5
688
330
65A
100
AcDbEntity
  8
BEGU_LW600_A15_AUSSEN_new_v_BL1
  6
Continuous
 62
     2
100
AcDbLine
 10
739.4926475464
 20
1075.5392129747
 30
0.0
 11
806.2898985403
 21
1142.3364639686
 31
0.0
  0
LINE
  5
689
330
65A
100
AcDbEntity
  8
BEGU_LW600_A15_AUSSEN_new_v_BL1
  6
Continuous
 62
     2
100
AcDbLine
 10
750.8063560453999
 20
1075.5392129747
 30
0.0
 11
806.2898985403
 21
1131.0227554696
 31
0.0
  0
LINE
  5
68A
330
65A
100
AcDbEntity
  8
BEGU_LW600_A15_AUSSEN_new_v_BL1
  6
Continuous
 62
     2
100
AcDbLine
 10
762.1200645444
 20
1075.5392129747
 30
0.0
 11
806.2898985403
 21
1119.7090469706
 31
0.0
  0
LINE
  5
68B
330
65A
100
AcDbEntity
  8
BEGU_LW600_A15_AUSSEN_new_v_BL1
  6
Continuous
 62
     2
100
AcDbLine
 10
773.4337730433998
 20
1075.5392129747
 30
0.0
 11
806.2898985403
 21
1108.3953384717
 31
0.0
  0
LINE
  5
68C
330
65A
100
AcDbEntity
  8
BEGU_LW600_A15_AUSSEN_new_v_BL1
  6
Continuous
 62
     2
100
AcDbLine
 10
784.7474815424
 20
1075.5392129747
 30
0.0
 11
806.2898985403
 21
1097.0816299727
 31
0.0
  0
LINE
  5
68D
330
65A
100
AcDbEntity
  8
BEGU_LW600_A15_AUSSEN_new_v_BL1
  6
Continuous
 62
     2
100
AcDbLine
 10
796.0611900413
 20
1075.5392129747
 30
0.0
 11
806.2898985403
 21
1085.7679214737
 31
0.0
  0
LINE
  5
68E
330
65A
100
AcDbEntity
  8
BEGU_LW600_A15_AUSSEN_new_v_BL1
  6
Continuous
 62
     7
100
AcDbLine
 10
631.2919912171
 20
1155.5392129747
 30
0.0
 11
630.2898985402999
 21
1120.5392129747
 31
0.0
  0
LINE
  5
68F
330
65A
100
AcDbEntity
  8
BEGU_LW600_A15_AUSSEN_new_v_BL1
  6
Continuous
 62
     7
100
AcDbLine
 10
604.0898985402999
 20
1120.5392129747
 30
0.0
 11
616.1476121997
 21
1075.5392129747
 31
0.0
  0
LINE
  5
690
330
65A
100
AcDbEntity
  8
BEGU_LW600_A15_AUSSEN_new_v_BL1
  6
Continuous
 62
     7
100
AcDbLine
 10
806.2898985403
 20
1155.5392129747
 30
0.0
 11
806.2898985403
 21
1075.5392129747
 31
0.0
  0
LINE
  5
691
330
65A
100
AcDbEntity
  8
BEGU_LW600_A15_AUSSEN_new_v_BL1
  6
Continuous
 62
     7
100
AcDbLine
 10
806.2898985403
 20
1075.5392129747
 30
0.0
 11
-198.7101014597
 21
1075.5392129747
 31
0.0
  0
LINE
  5
692
330
65A
100
AcDbEntity
  8
BEGU_LW600_A15_AUSSEN_new_v_BL1
  6
Continuous
 62
     7
100
AcDbLine
 10
630.2898985402999
 20
1120.5392129747
 30
0.0
 11
604.0898985402999
 21
1120.5392129747
 31
0.0
  0
LINE
  5
693
330
65A
100
AcDbEntity
  8
BEGU_LW600_A15_AUSSEN_new_v_BL1
  6
Continuous
 62
     7
100
AcDbLine
 10
3.489898540299997
 20
1120.5392129747
 30
0.0
 11
-22.7101014597
 21
1120.5392129747
 31
0.0
  0
LINE
  5
694
330
65A
100
AcDbEntity
  8
BEGU_LW600_A15_AUSSEN_new_v_BL1
  6
Continuous
 62
     7
100
AcDbLine
 10
806.2898985403
 20
1155.5392129747
 30
0.0
 11
631.2919912171
 21
1155.5392129747
 31
0.0
  0
LINE
  5
695
330
65A
100
AcDbEntity
  8
BEGU_LW600_A15_AUSSEN_new_v_BL1
  6
Continuous
 62
     7
100
AcDbLine
 10
-23.7121941365
 20
1155.5392129747
 30
0.0
 11
-198.7101014597
 21
1155.5392129747
 31
0.0
  0
ENDBLK
  5
696
330
65A
100
AcDbEntity
  8
0
  6
ByBlock
 62
     0
100
AcDbBlockEnd
  0
BLOCK
  5
698
330
697
100
AcDbEntity
  8
BEGU_LW600_A15_DECKEL_AU_ne_BL5
100
AcDbBlockBegin
  2
BEGU_LW600_A15_DECKEL_AU_NE_BL5
 70
     0
 10
303.7898985403
 20
1130.5392129747
 30
0.0
  3
BEGU_LW600_A15_DECKEL_AU_NE_BL5
  1

  0
LINE
  5
699
330
697
100
AcDbEntity
  8
BEGU_LW600_A15_DECKEL_AU_ne_BL5
  6
Continuous
 62
     2
100
AcDbLine
 10
-16.1214339411
 20
1154.5938888157
 30
0.0
 11
-15.1761097821
 21
1155.5392129747
 31
0.0
  0
LINE
  5
69A
330
697
100
AcDbEntity
  8
BEGU_LW600_A15_DECKEL_AU_ne_BL5
  6
Continuous
 62
     2
100
AcDbLine
 10
-15.7159691093
 20
1152.1709265228
 30
0.0
 11
-12.3476826574
 21
1155.5392129747
 31
0.0
  0
LINE
  5
69B
330
697
100
AcDbEntity
  8
BEGU_LW600_A15_DECKEL_AU_ne_BL5
  6
Continuous
 62
     2
100
AcDbLine
 10
-15.3105042775
 20
1149.7479642299
 30
0.0
 11
-10.9677128355
 21
1154.0907556719
 31
0.0
  0
LINE
  5
69C
330
697
100
AcDbEntity
  8
BEGU_LW600_A15_DECKEL_AU_ne_BL5
  6
Continuous
 62
     2
100
AcDbLine
 10
-14.9050394457
 20
1147.3250019369
 30
0.0
 11
-10.5622480037
 21
1151.6677933789
 31
0.0
  0
LINE
  5
69D
330
697
100
AcDbEntity
  8
BEGU_LW600_A15_DECKEL_AU_ne_BL5
  6
Continuous
 62
     2
100
AcDbLine
 10
-14.4995746139
 20
1144.902039644
 30
0.0
 11
-9.8624012832
 21
1149.5392129747
 31
0.0
  0
LINE
  5
69E
330
697
100
AcDbEntity
  8
BEGU_LW600_A15_DECKEL_AU_ne_BL5
  6
Continuous
 62
     2
100
AcDbLine
 10
-14.0941097821
 20
1142.479077351
 30
0.0
 11
-7.0339741584
 21
1149.5392129747
 31
0.0
  0
LINE
  5
69F
330
697
100
AcDbEntity
  8
BEGU_LW600_A15_DECKEL_AU_ne_BL5
  6
Continuous
 62
     2
100
AcDbLine
 10
-13.6886449503
 20
1140.0561150581
 30
0.0
 11
-4.2055470337
 21
1149.5392129747
 31
0.0
  0
LINE
  5
6A0
330
697
100
AcDbEntity
  8
BEGU_LW600_A15_DECKEL_AU_ne_BL5
  6
Continuous
 62
     2
100
AcDbLine
 10
-13.2831801185
 20
1137.6331527652
 30
0.0
 11
-1.377119908899999
 21
1149.5392129747
 31
0.0
  0
LINE
  5
6A1
330
697
100
AcDbEntity
  8
BEGU_LW600_A15_DECKEL_AU_ne_BL5
  6
Continuous
 62
     2
100
AcDbLine
 10
-12.8777152867
 20
1135.2101904722
 30
0.0
 11
1.4513072158
 21
1149.5392129747
 31
0.0
  0
LINE
  5
6A2
330
697
100
AcDbEntity
  8
BEGU_LW600_A15_DECKEL_AU_ne_BL5
  6
Continuous
 62
     2
100
AcDbLine
 10
-12.4722504549
 20
1132.7872281793
 30
0.0
 11
4.2797343406
 21
1149.5392129747
 31
0.0
  0
LINE
  5
6A3
330
697
100
AcDbEntity
  8
BEGU_LW600_A15_DECKEL_AU_ne_BL5
  6
Continuous
 62
     2
100
AcDbLine
 10
-12.066785623
 20
1130.3642658863
 30
0.0
 11
-7.369348679899996
 21
1135.0617028295
 31
0.0
  0
LINE
  5
6A4
330
697
100
AcDbEntity
  8
BEGU_LW600_A15_DECKEL_AU_ne_BL5
  6
Continuous
 62
     2
100
AcDbLine
 10
-6.910649155499999
 20
1135.5204023539
 30
0.0
 11
7.108161465299997
 21
1149.5392129747
 31
0.0
  0
LINE
  5
6A5
330
697
100
AcDbEntity
  8
BEGU_LW600_A15_DECKEL_AU_ne_BL5
  6
Continuous
 62
     2
100
AcDbLine
 10
-11.6613207912
 20
1127.9413035934
 30
0.0
 11
-7.369348679899996
 21
1132.2332757048
 31
0.0
  0
LINE
  5
6A6
330
697
100
AcDbEntity
  8
BEGU_LW600_A15_DECKEL_AU_ne_BL5
  6
Continuous
 62
     2
100
AcDbLine
 10
-4.082222030799997
 20
1135.5204023539
 30
0.0
 11
9.936588590099999
 21
1149.5392129747
 31
0.0
  0
LINE
  5
6A7
330
697
100
AcDbEntity
  8
BEGU_LW600_A15_DECKEL_AU_ne_BL5
  6
Continuous
 62
     2
100
AcDbLine
 10
-11.2349842852
 20
1125.5392129747
 30
0.0
 11
-7.369348679899996
 21
1129.40484858
 31
0.0
  0
LINE
  5
6A8
330
697
100
AcDbEntity
  8
BEGU_LW600_A15_DECKEL_AU_ne_BL5
  6
Continuous
 62
     2
100
AcDbLine
 10
-1.253794905999999
 20
1135.5204023539
 30
0.0
 11
12.7650157148
 21
1149.5392129747
 31
0.0
  0
LINE
  5
6A9
330
697
100
AcDbEntity
  8
BEGU_LW600_A15_DECKEL_AU_ne_BL5
  6
Continuous
 62
     2
100
AcDbLine
 10
-8.4065571604
 20
1125.5392129747
 30
0.0
 11
-7.369348679899996
 21
1126.5764214553
 31
0.0
  0
LINE
  5
6AA
330
697
100
AcDbEntity
  8
BEGU_LW600_A15_DECKEL_AU_ne_BL5
  6
Continuous
 62
     2
100
AcDbLine
 10
1.5746322187
 20
1135.5204023539
 30
0.0
 11
15.5934428396
 21
1149.5392129747
 31
0.0
  0
LINE
  5
6AB
330
697
100
AcDbEntity
  8
BEGU_LW600_A15_DECKEL_AU_ne_BL5
  6
Continuous
 62
     2
100
AcDbLine
 10
4.403059343499998
 20
1135.5204023539
 30
0.0
 11
18.4218699643
 21
1149.5392129747
 31
0.0
  0
LINE
  5
6AC
330
697
100
AcDbEntity
  8
BEGU_LW600_A15_DECKEL_AU_ne_BL5
  6
Continuous
 62
     2
100
AcDbLine
 10
7.2314864682
 20
1135.5204023539
 30
0.0
 11
21.2502970891
 21
1149.5392129747
 31
0.0
  0
LINE
  5
6AD
330
697
100
AcDbEntity
  8
BEGU_LW600_A15_DECKEL_AU_ne_BL5
  6
Continuous
 62
     2
100
AcDbLine
 10
9.9025464907
 20
1135.3630352516
 30
0.0
 11
24.0787242138
 21
1149.5392129747
 31
0.0
  0
LINE
  5
6AE
330
697
100
AcDbEntity
  8
BEGU_LW600_A15_DECKEL_AU_ne_BL5
  6
Continuous
 62
     2
100
AcDbLine
 10
9.9840726093
 20
1132.6161342455
 30
0.0
 11
26.9071513385
 21
1149.5392129747
 31
0.0
  0
LINE
  5
6AF
330
697
100
AcDbEntity
  8
BEGU_LW600_A15_DECKEL_AU_ne_BL5
  6
Continuous
 62
     2
100
AcDbLine
 10
10.0655987279
 20
1129.8692332393
 30
0.0
 11
22.7383250847
 21
1142.5419595961
 31
0.0
  0
LINE
  5
6B0
330
697
100
AcDbEntity
  8
BEGU_LW600_A15_DECKEL_AU_ne_BL5
  6
Continuous
 62
     2
100
AcDbLine
 10
25.3120419744
 20
1145.1156764859
 30
0.0
 11
29.7355784633
 21
1149.5392129747
 31
0.0
  0
LINE
  5
6B1
330
697
100
AcDbEntity
  8
BEGU_LW600_A15_DECKEL_AU_ne_BL5
  6
Continuous
 62
     2
100
AcDbLine
 10
10.1471248465
 20
1127.1223322332
 30
0.0
 11
22.321376667
 21
1139.2965840537
 31
0.0
  0
LINE
  5
6B2
330
697
100
AcDbEntity
  8
BEGU_LW600_A15_DECKEL_AU_ne_BL5
  6
Continuous
 62
     2
100
AcDbLine
 10
28.564005588
 20
1145.5392129747
 30
0.0
 11
32.564005588
 21
1149.5392129747
 31
0.0
  0
LINE
  5
6B3
330
697
100
AcDbEntity
  8
BEGU_LW600_A15_DECKEL_AU_ne_BL5
  6
Continuous
 62
     2
100
AcDbLine
 10
37.7898985403
 20
1154.765105927
 30
0.0
 11
38.564005588
 21
1155.5392129747
 31
0.0
  0
LINE
  5
6B4
330
697
100
AcDbEntity
  8
BEGU_LW600_A15_DECKEL_AU_ne_BL5
  6
Continuous
 62
     2
100
AcDbLine
 10
10.2286509652
 20
1124.3754312271
 30
0.0
 11
22.321376667
 21
1136.4681569289
 31
0.0
  0
LINE
  5
6B5
330
697
100
AcDbEntity
  8
BEGU_LW600_A15_DECKEL_AU_ne_BL5
  6
Continuous
 62
     2
100
AcDbLine
 10
31.2619457932
 20
1145.4087260551
 30
0.0
 11
35.3924327128
 21
1149.5392129747
 31
0.0
  0
LINE
  5
6B6
330
697
100
AcDbEntity
  8
BEGU_LW600_A15_DECKEL_AU_ne_BL5
  6
Continuous
 62
     2
100
AcDbLine
 10
37.7898985403
 20
1151.9366788022
 30
0.0
 11
41.3924327128
 21
1155.5392129747
 31
0.0
  0
LINE
  5
6B7
330
697
100
AcDbEntity
  8
BEGU_LW600_A15_DECKEL_AU_ne_BL5
  6
Continuous
 62
     2
100
AcDbLine
 10
10.3101770838
 20
1121.628530221
 30
0.0
 11
22.321376667
 21
1133.6397298042
 31
0.0
  0
LINE
  5
6B8
330
697
100
AcDbEntity
  8
BEGU_LW600_A15_DECKEL_AU_ne_BL5
  6
Continuous
 62
     2
100
AcDbLine
 10
33.180227168
 20
1144.4985803052
 30
0.0
 11
43.78989854029998
 21
1155.1082516775
 31
0.0
  0
LINE
  5
6B9
330
697
100
AcDbEntity
  8
BEGU_LW600_A15_DECKEL_AU_ne_BL5
  6
Continuous
 62
     2
100
AcDbLine
 10
10.3917032024
 20
1118.8816292148
 30
0.0
 11
22.321376667
 21
1130.8113026794
 31
0.0
  0
LINE
  5
6BA
330
697
100
AcDbEntity
  8
BEGU_LW600_A15_DECKEL_AU_ne_BL5
  6
Continuous
 62
     2
100
AcDbLine
 10
34.4940267611
 20
1142.9839527735
 30
0.0
 11
43.78989854029998
 21
1152.2798245528
 31
0.0
  0
LINE
  5
6BB
330
697
100
AcDbEntity
  8
BEGU_LW600_A15_DECKEL_AU_ne_BL5
  6
Continuous
 62
     2
100
AcDbLine
 10
10.473229321
 20
1116.1347282087
 30
0.0
 11
22.321376667
 21
1127.9828755547
 31
0.0
  0
LINE
  5
6BC
330
697
100
AcDbEntity
  8
BEGU_LW600_A15_DECKEL_AU_ne_BL5
  6
Continuous
 62
     2
100
AcDbLine
 10
35.84188933570001
 20
1141.5033882234
 30
0.0
 11
43.78989854029998
 21
1149.451397428
 31
0.0
  0
LINE
  5
6BD
330
697
100
AcDbEntity
  8
BEGU_LW600_A15_DECKEL_AU_ne_BL5
  6
Continuous
 62
     2
100
AcDbLine
 10
10.5547554396
 20
1113.3878272026
 30
0.0
 11
22.321376667
 21
1125.1544484299
 31
0.0
  0
LINE
  5
6BE
330
697
100
AcDbEntity
  8
BEGU_LW600_A15_DECKEL_AU_ne_BL5
  6
Continuous
 62
     2
100
AcDbLine
 10
37.80620305260001
 20
1140.6392748155
 30
0.0
 11
43.78989854029998
 21
1146.6229703033
 31
0.0
  0
LINE
  5
6BF
330
697
100
AcDbEntity
  8
BEGU_LW600_A15_DECKEL_AU_ne_BL5
  6
Continuous
 62
     2
100
AcDbLine
 10
10.6362815583
 20
1110.6409261965
 30
0.0
 11
22.4606453493
 21
1122.4652899875
 31
0.0
  0
LINE
  5
6C0
330
697
100
AcDbEntity
  8
BEGU_LW600_A15_DECKEL_AU_ne_BL5
  6
Continuous
 62
     2
100
AcDbLine
 10
41.1062067865
 20
1141.1108514247
 30
0.0
 11
43.21943149189999
 21
1143.2240761301
 31
0.0
  0
LINE
  5
6C1
330
697
100
AcDbEntity
  8
BEGU_LW600_A15_DECKEL_AU_ne_BL5
  6
Continuous
 62
     2
100
AcDbLine
 10
10.7178076769
 20
1107.8940251903
 30
0.0
 11
15.5758267065
 21
1112.75204422
 31
0.0
  0
LINE
  5
6C2
330
697
100
AcDbEntity
  8
BEGU_LW600_A15_DECKEL_AU_ne_BL5
  6
Continuous
 62
     2
100
AcDbLine
 10
16.7317350677
 20
1113.9079525812
 30
0.0
 11
23.3795596602
 21
1120.5557771736
 31
0.0
  0
LINE
  5
6C3
330
697
100
AcDbEntity
  8
BEGU_LW600_A15_DECKEL_AU_ne_BL5
  6
Continuous
 62
     2
100
AcDbLine
 10
11.191422586
 20
1105.5392129747
 30
0.0
 11
15.6573528251
 21
1110.0051432138
 31
0.0
  0
LINE
  5
6C4
330
697
100
AcDbEntity
  8
BEGU_LW600_A15_DECKEL_AU_ne_BL5
  6
Continuous
 62
     2
100
AcDbLine
 10
18.9552772956
 20
1113.3030676843
 30
0.0
 11
24.9049171284
 21
1119.2527075171
 31
0.0
  0
LINE
  5
6C5
330
697
100
AcDbEntity
  8
BEGU_LW600_A15_DECKEL_AU_ne_BL5
  6
Continuous
 62
     2
100
AcDbLine
 10
14.0198497108
 20
1105.5392129747
 30
0.0
 11
15.7388789437
 21
1107.2582422077
 31
0.0
  0
LINE
  5
6C6
330
697
100
AcDbEntity
  8
BEGU_LW600_A15_DECKEL_AU_ne_BL5
  6
Continuous
 62
     2
100
AcDbLine
 10
21.4999905015
 20
1113.0193537654
 30
0.0
 11
27.1129524932
 21
1118.6323157572
 31
0.0
  0
LINE
  5
6C7
330
697
100
AcDbEntity
  8
BEGU_LW600_A15_DECKEL_AU_ne_BL5
  6
Continuous
 62
     2
100
AcDbLine
 10
24.1130791078
 20
1112.804015247
 30
0.0
 11
29.8605343174
 21
1118.5514704566
 31
0.0
  0
LINE
  5
6C8
330
697
100
AcDbEntity
  8
BEGU_LW600_A15_DECKEL_AU_ne_BL5
  6
Continuous
 62
     2
100
AcDbLine
 10
26.788557304
 20
1112.6510663185
 30
0.0
 11
32.6872026424
 21
1118.5497116569
 31
0.0
  0
LINE
  5
6C9
330
697
100
AcDbEntity
  8
BEGU_LW600_A15_DECKEL_AU_ne_BL5
  6
Continuous
 62
     2
100
AcDbLine
 10
29.5313494363
 20
1112.565431326
 30
0.0
 11
35.6000022276
 21
1118.6340841173
 31
0.0
  0
LINE
  5
6CA
330
697
100
AcDbEntity
  8
BEGU_LW600_A15_DECKEL_AU_ne_BL5
  6
Continuous
 62
     2
100
AcDbLine
 10
32.34710848530002
 20
1112.5527632503
 30
0.0
 11
38.6069712133
 21
1118.8126259782
 31
0.0
  0
LINE
  5
6CB
330
697
100
AcDbEntity
  8
BEGU_LW600_A15_DECKEL_AU_ne_BL5
  6
Continuous
 62
     2
100
AcDbLine
 10
35.2423788178
 20
1112.619606458
 30
0.0
 11
41.7175826726
 21
1119.0948103128
 31
0.0
  0
LINE
  5
6CC
330
697
100
AcDbEntity
  8
BEGU_LW600_A15_DECKEL_AU_ne_BL5
  6
Continuous
 62
     2
100
AcDbLine
 10
38.2246450839
 20
1112.7734455994
 30
0.0
 11
44.9428091749
 21
1119.4916096904
 31
0.0
  0
LINE
  5
6CD
330
697
100
AcDbEntity
  8
BEGU_LW600_A15_DECKEL_AU_ne_BL5
  6
Continuous
 62
     2
100
AcDbLine
 10
41.302703188
 20
1113.0230765787
 30
0.0
 11
48.2956152086
 21
1120.0159885993
 31
0.0
  0
LINE
  5
6CE
330
697
100
AcDbEntity
  8
BEGU_LW600_A15_DECKEL_AU_ne_BL5
  6
Continuous
 62
     2
100
AcDbLine
 10
44.4867551212
 20
1113.3787013872
 30
0.0
 11
51.8029004137
 21
1120.6948466796
 31
0.0
  0
LINE
  5
6CF
330
697
100
AcDbEntity
  8
BEGU_LW600_A15_DECKEL_AU_ne_BL5
  6
Continuous
 62
     2
100
AcDbLine
 10
85.7898985403
 20
1154.6818448063
 30
0.0
 11
86.64726670870001
 21
1155.5392129747
 31
0.0
  0
LINE
  5
6D0
330
697
100
AcDbEntity
  8
BEGU_LW600_A15_DECKEL_AU_ne_BL5
  6
Continuous
 62
     2
100
AcDbLine
 10
47.7888975488
 20
1113.85241669
 30
0.0
 11
55.49989638060001
 21
1121.5634155218
 31
0.0
  0
LINE
  5
6D1
330
697
100
AcDbEntity
  8
BEGU_LW600_A15_DECKEL_AU_ne_BL5
  6
Continuous
 62
     2
100
AcDbLine
 10
85.7898985403
 20
1151.8534176816
 30
0.0
 11
89.4756938335
 21
1155.5392129747
 31
0.0
  0
LINE
  5
6D2
330
697
100
AcDbEntity
  8
BEGU_LW600_A15_DECKEL_AU_ne_BL5
  6
Continuous
 62
     2
100
AcDbLine
 10
51.2234602566
 20
1114.4585522731
 30
0.0
 11
59.39323588989999
 21
1122.6283279064
 31
0.0
  0
LINE
  5
6D3
330
697
100
AcDbEntity
  8
BEGU_LW600_A15_DECKEL_AU_ne_BL5
  6
Continuous
 62
     2
100
AcDbLine
 10
85.7898985403
 20
1149.024990556799
 30
0.0
 11
91.7898985403
 21
1155.0249905568
 31
0.0
  0
LINE
  5
6D4
330
697
100
AcDbEntity
  8
BEGU_LW600_A15_DECKEL_AU_ne_BL5
  6
Continuous
 62
     2
100
AcDbLine
 10
54.8075633574
 20
1115.2142282492
 30
0.0
 11
63.5844747533
 21
1123.991139645
 31
0.0
  0
LINE
  5
6D5
330
697
100
AcDbEntity
  8
BEGU_LW600_A15_DECKEL_AU_ne_BL5
  6
Continuous
 62
     2
100
AcDbLine
 10
85.78237902839999
 20
1146.1890439201
 30
0.0
 11
91.7898985403
 21
1152.1965634321
 31
0.0
  0
LINE
  5
6D6
330
697
100
AcDbEntity
  8
BEGU_LW600_A15_DECKEL_AU_ne_BL5
  6
Continuous
 62
     2
100
AcDbLine
 10
58.59276012529999
 20
1116.1709978923
 30
0.0
 11
68.11662491799999
 21
1125.694862685
 31
0.0
  0
LINE
  5
6D7
330
697
100
AcDbEntity
  8
BEGU_LW600_A15_DECKEL_AU_ne_BL5
  6
Continuous
 62
     2
100
AcDbLine
 10
85.4839885057
 20
1143.0622262727
 30
0.0
 11
91.7898985403
 21
1149.3681363073
 31
0.0
  0
LINE
  5
6D8
330
697
100
AcDbEntity
  8
BEGU_LW600_A15_DECKEL_AU_ne_BL5
  6
Continuous
 62
     2
100
AcDbLine
 10
62.5936421071
 20
1117.3434527493
 30
0.0
 11
73.1437922301
 21
1127.8936028724
 31
0.0
  0
LINE
  5
6D9
330
697
100
AcDbEntity
  8
BEGU_LW600_A15_DECKEL_AU_ne_BL5
  6
Continuous
 62
     2
100
AcDbLine
 10
84.3547466671
 20
1139.1045573094
 30
0.0
 11
91.7898985403
 21
1146.5397091826
 31
0.0
  0
LINE
  5
6DA
330
697
100
AcDbEntity
  8
BEGU_LW600_A15_DECKEL_AU_ne_BL5
  6
Continuous
 62
     2
100
AcDbLine
 10
66.86596703220001
 20
1118.7873505497
 30
0.0
 11
91.61036884339999
 21
1143.5317523609
 31
0.0
  0
LINE
  5
6DB
330
697
100
AcDbEntity
  8
BEGU_LW600_A15_DECKEL_AU_ne_BL5
  6
Continuous
 62
     2
100
AcDbLine
 10
71.50228058999998
 20
1120.5952369828
 30
0.0
 11
90.96701978879998
 21
1140.0599761815
 31
0.0
  0
LINE
  5
6DC
330
697
100
AcDbEntity
  8
BEGU_LW600_A15_DECKEL_AU_ne_BL5
  6
Continuous
 62
     2
100
AcDbLine
 10
76.6545540308
 20
1122.9190832988
 30
0.0
 11
89.40902510289999
 21
1135.6735543709
 31
0.0
  0
LINE
  5
6DD
330
697
100
AcDbEntity
  8
BEGU_LW600_A15_DECKEL_AU_ne_BL5
  6
Continuous
 62
     7
100
AcDbLine
 10
-7.369348679899996
 20
1135.5204023539
 30
0.0
 11
-7.369348679899996
 21
1125.5392129747
 31
0.0
  0
LINE
  5
6DE
330
697
100
AcDbEntity
  8
BEGU_LW600_A15_DECKEL_AU_ne_BL5
  6
Continuous
 62
     7
100
AcDbLine
 10
9.897875944099999
 20
1135.5204023539
 30
0.0
 11
10.7876968719
 21
1105.5392129747
 31
0.0
  0
LINE
  5
6DF
330
697
100
AcDbEntity
  8
BEGU_LW600_A15_DECKEL_AU_ne_BL5
  6
Continuous
 62
     7
100
AcDbLine
 10
15.5716718619
 20
1112.8920355148
 30
0.0
 11
15.7898985403
 21
1105.5392129747
 31
0.0
  0
LINE
  5
6E0
330
697
100
AcDbEntity
  8
BEGU_LW600_A15_DECKEL_AU_ne_BL5
  6
Continuous
 62
     7
100
AcDbLine
 10
22.321376667
 20
1123.6278426993
 30
0.0
 11
22.321376667
 21
1140.6697921609
 31
0.0
  0
LINE
  5
6E1
330
697
100
AcDbEntity
  8
BEGU_LW600_A15_DECKEL_AU_ne_BL5
  6
Continuous
 62
     7
100
AcDbLine
 10
37.7898985403
 20
1155.5392129747
 30
0.0
 11
37.7898985403
 21
1149.5392129747
 31
0.0
  0
LINE
  5
6E2
330
697
100
AcDbEntity
  8
BEGU_LW600_A15_DECKEL_AU_ne_BL5
  6
Continuous
 62
     7
100
AcDbLine
 10
43.78989854029998
 20
1145.5392129747
 30
0.0
 11
43.78989854029998
 21
1155.5392129747
 31
0.0
  0
LINE
  5
6E3
330
697
100
AcDbEntity
  8
BEGU_LW600_A15_DECKEL_AU_ne_BL5
  6
Continuous
 62
     2
100
AcDbLine
 10
515.7898985403
 20
1154.7609218449
 30
0.0
 11
516.5681896700997
 21
1155.5392129747
 31
0.0
  0
LINE
  5
6E4
330
697
100
AcDbEntity
  8
BEGU_LW600_A15_DECKEL_AU_ne_BL5
  6
Continuous
 62
     2
100
AcDbLine
 10
515.7898985403
 20
1151.932494720099
 30
0.0
 11
519.3966167948999
 21
1155.5392129747
 31
0.0
  0
LINE
  5
6E5
330
697
100
AcDbEntity
  8
BEGU_LW600_A15_DECKEL_AU_ne_BL5
  6
Continuous
 62
     2
100
AcDbLine
 10
515.7898985403
 20
1149.1040675954
 30
0.0
 11
521.7898985403
 21
1155.1040675954
 31
0.0
  0
LINE
  5
6E6
330
697
100
AcDbEntity
  8
BEGU_LW600_A15_DECKEL_AU_ne_BL5
  6
Continuous
 62
     2
100
AcDbLine
 10
515.7954394963
 20
1146.2811814266
 30
0.0
 11
521.7898985403
 21
1152.2756404706
 31
0.0
  0
LINE
  5
6E7
330
697
100
AcDbEntity
  8
BEGU_LW600_A15_DECKEL_AU_ne_BL5
  6
Continuous
 62
     2
100
AcDbLine
 10
515.9602041129
 20
1143.6175189185
 30
0.0
 11
521.7898985403
 21
1149.4472133459
 31
0.0
  0
LINE
  5
6E8
330
697
100
AcDbEntity
  8
BEGU_LW600_A15_DECKEL_AU_ne_BL5
  6
Continuous
 62
     2
100
AcDbLine
 10
516.351370933
 20
1141.1802586138
 30
0.0
 11
521.7898985403
 21
1146.6187862212
 31
0.0
  0
LINE
  5
6E9
330
697
100
AcDbEntity
  8
BEGU_LW600_A15_DECKEL_AU_ne_BL5
  6
Continuous
 62
     2
100
AcDbLine
 10
516.9298028843
 20
1138.9302634404
 30
0.0
 11
521.957564239
 21
1143.9580247951
 31
0.0
  0
LINE
  5
6EA
330
697
100
AcDbEntity
  8
BEGU_LW600_A15_DECKEL_AU_ne_BL5
  6
Continuous
 62
     2
100
AcDbLine
 10
517.6684382438
 20
1136.8404716752
 30
0.0
 11
522.4151906125
 21
1141.5872240439
 31
0.0
  0
LINE
  5
6EB
330
697
100
AcDbEntity
  8
BEGU_LW600_A15_DECKEL_AU_ne_BL5
  6
Continuous
 62
     2
100
AcDbLine
 10
518.5482581716001
 20
1134.8918644782
 30
0.0
 11
523.0969624039
 21
1139.4405687105
 31
0.0
  0
LINE
  5
6EC
330
697
100
AcDbEntity
  8
BEGU_LW600_A15_DECKEL_AU_ne_BL5
  6
Continuous
 62
     2
100
AcDbLine
 10
519.5558553048998
 20
1133.0710344868
 30
0.0
 11
523.9614799664
 21
1137.4766591483
 31
0.0
  0
LINE
  5
6ED
330
697
100
AcDbEntity
  8
BEGU_LW600_A15_DECKEL_AU_ne_BL5
  6
Continuous
 62
     2
100
AcDbLine
 10
520.6819282056
 20
1131.3686802627
 30
0.0
 11
524.9973331762
 21
1135.6840852333
 31
0.0
  0
LINE
  5
6EE
330
697
100
AcDbEntity
  8
BEGU_LW600_A15_DECKEL_AU_ne_BL5
  6
Continuous
 62
     2
100
AcDbLine
 10
521.9203431006
 20
1129.7786680329
 30
0.0
 11
526.1813346338998
 21
1134.0396595663
 31
0.0
  0
LINE
  5
6EF
330
697
100
AcDbEntity
  8
BEGU_LW600_A15_DECKEL_AU_ne_BL5
  6
Continuous
 62
     2
100
AcDbLine
 10
523.2675655291999
 20
1128.2974633368
 30
0.0
 11
527.5093409942
 21
1132.5392388018
 31
0.0
  0
LINE
  5
6F0
330
697
100
AcDbEntity
  8
BEGU_LW600_A15_DECKEL_AU_ne_BL5
  6
Continuous
 62
     2
100
AcDbLine
 10
524.7240284087999
 20
1126.9254990916
 30
0.0
 11
528.9823944206998
 21
1131.1838651035
 31
0.0
  0
LINE
  5
6F1
330
697
100
AcDbEntity
  8
BEGU_LW600_A15_DECKEL_AU_ne_BL5
  6
Continuous
 62
     2
100
AcDbLine
 10
526.2939806494
 20
1125.6670242075
 30
0.0
 11
530.5958869263998
 21
1129.9689304845
 31
0.0
  0
LINE
  5
6F2
330
697
100
AcDbEntity
  8
BEGU_LW600_A15_DECKEL_AU_ne_BL5
  6
Continuous
 62
     2
100
AcDbLine
 10
527.9752208702999
 20
1124.5198373037
 30
0.0
 11
532.3604041937999
 21
1128.9050206272
 31
0.0
  0
LINE
  5
6F3
330
697
100
AcDbEntity
  8
BEGU_LW600_A15_DECKEL_AU_ne_BL5
  6
Continuous
 62
     2
100
AcDbLine
 10
529.7732520601
 20
1123.4894413688
 30
0.0
 11
534.2606171083
 21
1127.9768064169
 31
0.0
  0
LINE
  5
6F4
330
697
100
AcDbEntity
  8
BEGU_LW600_A15_DECKEL_AU_ne_BL5
  6
Continuous
 62
     2
100
AcDbLine
 10
531.6756575395998
 20
1122.5634197235
 30
0.0
 11
536.1964506655
 21
1127.0842128494
 31
0.0
  0
LINE
  5
6F5
330
697
100
AcDbEntity
  8
BEGU_LW600_A15_DECKEL_AU_ne_BL5
  6
Continuous
 62
     2
100
AcDbLine
 10
563.7898985402999
 20
1154.6776607242
 30
0.0
 11
564.6514507908
 21
1155.5392129747
 31
0.0
  0
LINE
  5
6F6
330
697
100
AcDbEntity
  8
BEGU_LW600_A15_DECKEL_AU_ne_BL5
  6
Continuous
 62
     2
100
AcDbLine
 10
533.6087778088
 20
1121.6681128679
 30
0.0
 11
538.1650896883
 21
1126.2244247474
 31
0.0
  0
LINE
  5
6F7
330
697
100
AcDbEntity
  8
BEGU_LW600_A15_DECKEL_AU_ne_BL5
  6
Continuous
 62
     2
100
AcDbLine
 10
563.7898985402999
 20
1151.8492335995
 30
0.0
 11
567.4798779156
 21
1155.5392129747
 31
0.0
  0
LINE
  5
6F8
330
697
100
AcDbEntity
  8
BEGU_LW600_A15_DECKEL_AU_ne_BL5
  6
Continuous
 62
     2
100
AcDbLine
 10
535.5736464626
 20
1120.804554397
 30
0.0
 11
540.1739768689
 21
1125.4048848033
 31
0.0
  0
LINE
  5
6F9
330
697
100
AcDbEntity
  8
BEGU_LW600_A15_DECKEL_AU_ne_BL5
  6
Continuous
 62
     2
100
AcDbLine
 10
563.7898985402999
 20
1149.0208064747
 30
0.0
 11
569.7898985402997
 21
1155.0208064747
 31
0.0
  0
LINE
  5
6FA
330
697
100
AcDbEntity
  8
BEGU_LW600_A15_DECKEL_AU_ne_BL5
  6
Continuous
 62
     2
100
AcDbLine
 10
537.5821023477999
 20
1119.9845831574
 30
0.0
 11
542.2233425548999
 21
1124.6258233646
 31
0.0
  0
LINE
  5
6FB
330
697
100
AcDbEntity
  8
BEGU_LW600_A15_DECKEL_AU_ne_BL5
  6
Continuous
 62
     2
100
AcDbLine
 10
563.7898985402999
 20
1146.19237935
 30
0.0
 11
569.7898985402997
 21
1152.19237935
 31
0.0
  0
LINE
  5
6FC
330
697
100
AcDbEntity
  8
BEGU_LW600_A15_DECKEL_AU_ne_BL5
  6
Continuous
 62
     2
100
AcDbLine
 10
539.6209655624
 20
1119.1950192473
 30
0.0
 11
544.3090268762
 21
1123.8830805611
 31
0.0
  0
LINE
  5
6FD
330
697
100
AcDbEntity
  8
BEGU_LW600_A15_DECKEL_AU_ne_BL5
  6
Continuous
 62
     2
100
AcDbLine
 10
564.1364077267
 20
1143.7104614116
 30
0.0
 11
569.9651592898
 21
1149.5392129747
 31
0.0
  0
LINE
  5
6FE
330
697
100
AcDbEntity
  8
BEGU_LW600_A15_DECKEL_AU_ne_BL5
  6
Continuous
 62
     2
100
AcDbLine
 10
541.6914162123
 20
1118.4370427724
 30
0.0
 11
546.4324795851998
 21
1123.1781061453
 31
0.0
  0
LINE
  5
6FF
330
697
100
AcDbEntity
  8
BEGU_LW600_A15_DECKEL_AU_ne_BL5
  6
Continuous
 62
     2
100
AcDbLine
 10
565.2578575721999
 20
1142.0034841324
 30
0.0
 11
572.7935864145997
 21
1149.5392129747
 31
0.0
  0
LINE
  5
700
330
697
100
AcDbEntity
  8
BEGU_LW600_A15_DECKEL_AU_ne_BL5
  6
Continuous
 62
     2
100
AcDbLine
 10
543.8008510167
 20
1117.7180504521
 30
0.0
 11
548.5953080253997
 21
1122.5125074608
 31
0.0
  0
LINE
  5
701
330
697
100
AcDbEntity
  8
BEGU_LW600_A15_DECKEL_AU_ne_BL5
  6
Continuous
 62
     2
100
AcDbLine
 10
566.9676663617
 20
1140.8848657971
 30
0.0
 11
575.6220135393
 21
1149.5392129747
 31
0.0
  0
LINE
  5
702
330
697
100
AcDbEntity
  8
BEGU_LW600_A15_DECKEL_AU_ne_BL5
  6
Continuous
 62
     2
100
AcDbLine
 10
545.9549959352999
 20
1117.043768246
 30
0.0
 11
550.7993408808
 21
1121.8881131915
 31
0.0
  0
LINE
  5
703
330
697
100
AcDbEntity
  8
BEGU_LW600_A15_DECKEL_AU_ne_BL5
  6
Continuous
 62
     2
100
AcDbLine
 10
569.5041929382997
 20
1140.5929652489
 30
0.0
 11
578.4504406641
 21
1149.5392129747
 31
0.0
  0
LINE
  5
704
330
697
100
AcDbEntity
  8
BEGU_LW600_A15_DECKEL_AU_ne_BL5
  6
Continuous
 62
     7
100
AcDbLine
 10
85.7898985403
 20
1155.5392129747
 30
0.0
 11
85.7898985403
 21
1146.5392129747
 31
0.0
  0
LINE
  5
705
330
697
100
AcDbEntity
  8
BEGU_LW600_A15_DECKEL_AU_ne_BL5
  6
Continuous
 62
     7
100
AcDbLine
 10
91.7898985403
 20
1146.5392129747
 30
0.0
 11
91.7898985403
 21
1155.5392129747
 31
0.0
  0
LINE
  5
706
330
697
100
AcDbEntity
  8
BEGU_LW600_A15_DECKEL_AU_ne_BL5
  6
Continuous
 62
     2
100
AcDbLine
 10
548.1450021197996
 20
1116.4053473057
 30
0.0
 11
553.0556581087997
 21
1121.3160032947
 31
0.0
  0
LINE
  5
707
330
697
100
AcDbEntity
  8
BEGU_LW600_A15_DECKEL_AU_ne_BL5
  6
Continuous
 62
     2
100
AcDbLine
 10
577.2737122359999
 20
1145.5340574219
 30
0.0
 11
581.2788677888
 21
1149.5392129747
 31
0.0
  0
LINE
  5
708
330
697
100
AcDbEntity
  8
BEGU_LW600_A15_DECKEL_AU_ne_BL5
  6
Continuous
 62
     2
100
AcDbLine
 10
550.3725825267999
 20
1115.804500588
 30
0.0
 11
555.3570384116
 21
1120.7889564728
 31
0.0
  0
LINE
  5
709
330
697
100
AcDbEntity
  8
BEGU_LW600_A15_DECKEL_AU_ne_BL5
  6
Continuous
 62
     2
100
AcDbLine
 10
580.1072949135
 20
1145.5392129747
 30
0.0
 11
584.1072949135
 21
1149.5392129747
 31
0.0
  0
LINE
  5
70A
330
697
100
AcDbEntity
  8
BEGU_LW600_A15_DECKEL_AU_ne_BL5
  6
Continuous
 62
     2
100
AcDbLine
 10
552.6396136563
 20
1115.2431045927
 30
0.0
 11
557.7057328791
 21
1120.3092238155
 31
0.0
  0
LINE
  5
70B
330
697
100
AcDbEntity
  8
BEGU_LW600_A15_DECKEL_AU_ne_BL5
  6
Continuous
 62
     2
100
AcDbLine
 10
582.4369445291
 20
1145.0404354655
 30
0.0
 11
586.9357220383
 21
1149.5392129747
 31
0.0
  0
LINE
  5
70C
330
697
100
AcDbEntity
  8
BEGU_LW600_A15_DECKEL_AU_ne_BL5
  6
Continuous
 62
     2
100
AcDbLine
 10
554.9623042570998
 20
1114.7373680688
 30
0.0
 11
560.1044363429998
 21
1119.8795001546
 31
0.0
  0
LINE
  5
70D
330
697
100
AcDbEntity
  8
BEGU_LW600_A15_DECKEL_AU_ne_BL5
  6
Continuous
 62
     2
100
AcDbLine
 10
584.0370872298
 20
1143.8121510415
 30
0.0
 11
589.764149163
 21
1149.5392129747
 31
0.0
  0
LINE
  5
70E
330
697
100
AcDbEntity
  8
BEGU_LW600_A15_DECKEL_AU_ne_BL5
  6
Continuous
 62
     2
100
AcDbLine
 10
557.3290028149998
 20
1114.275639502
 30
0.0
 11
562.5561284521999
 21
1119.5027651392
 31
0.0
  0
LINE
  5
70F
330
697
100
AcDbEntity
  8
BEGU_LW600_A15_DECKEL_AU_ne_BL5
  6
Continuous
 62
     2
100
AcDbLine
 10
585.0434592518999
 20
1141.9900959388
 30
0.0
 11
592.5925762877999
 21
1149.5392129747
 31
0.0
  0
LINE
  5
710
330
697
100
AcDbEntity
  8
BEGU_LW600_A15_DECKEL_AU_ne_BL5
  6
Continuous
 62
     2
100
AcDbLine
 10
559.7419698112
 20
1113.8601793734
 30
0.0
 11
565.0641549808
 21
1119.182364543
 31
0.0
  0
LINE
  5
711
330
697
100
AcDbEntity
  8
BEGU_LW600_A15_DECKEL_AU_ne_BL5
  6
Continuous
 62
     2
100
AcDbLine
 10
585.2584204135999
 20
1139.3766299758
 30
0.0
 11
595.4210034125
 21
1149.5392129747
 31
0.0
  0
LINE
  5
712
330
697
100
AcDbEntity
  8
BEGU_LW600_A15_DECKEL_AU_ne_BL5
  6
Continuous
 62
     2
100
AcDbLine
 10
562.2040810501998
 20
1113.4938634876
 30
0.0
 11
567.6323116794
 21
1118.9220941168
 31
0.0
  0
LINE
  5
713
330
697
100
AcDbEntity
  8
BEGU_LW600_A15_DECKEL_AU_ne_BL5
  6
Continuous
 62
     2
100
AcDbLine
 10
585.2584204135999
 20
1136.5482028511
 30
0.0
 11
598.2494305372997
 21
1149.5392129747
 31
0.0
  0
LINE
  5
714
330
697
100
AcDbEntity
  8
BEGU_LW600_A15_DECKEL_AU_ne_BL5
  6
Continuous
 62
     2
100
AcDbLine
 10
564.7185471494
 20
1113.1799024621
 30
0.0
 11
570.2648365006997
 21
1118.7261918134
 31
0.0
  0
LINE
  5
715
330
697
100
AcDbEntity
  8
BEGU_LW600_A15_DECKEL_AU_ne_BL5
  6
Continuous
 62
     2
100
AcDbLine
 10
585.2584204135999
 20
1133.7197757263
 30
0.0
 11
601.0778576619999
 21
1149.5392129747
 31
0.0
  0
LINE
  5
716
330
697
100
AcDbEntity
  8
BEGU_LW600_A15_DECKEL_AU_ne_BL5
  6
Continuous
 62
     2
100
AcDbLine
 10
567.2890690612
 20
1112.9219972492
 30
0.0
 11
572.9666110308999
 21
1118.5995392188
 31
0.0
  0
LINE
  5
717
330
697
100
AcDbEntity
  8
BEGU_LW600_A15_DECKEL_AU_ne_BL5
  6
Continuous
 62
     2
100
AcDbLine
 10
585.2584204135999
 20
1130.8913486016
 30
0.0
 11
603.9062847868
 21
1149.5392129747
 31
0.0
  0
LINE
  5
718
330
697
100
AcDbEntity
  8
BEGU_LW600_A15_DECKEL_AU_ne_BL5
  6
Continuous
 62
     2
100
AcDbLine
 10
569.9277730062
 20
1112.7322740694
 30
0.0
 11
575.7431103374
 21
1118.5476114006
 31
0.0
  0
LINE
  5
719
330
697
100
AcDbEntity
  8
BEGU_LW600_A15_DECKEL_AU_ne_BL5
  6
Continuous
 62
     2
100
AcDbLine
 10
585.2584204135999
 20
1128.0629214768
 30
0.0
 11
606.7347119114997
 21
1149.5392129747
 31
0.0
  0
LINE
  5
71A
330
697
100
AcDbEntity
  8
BEGU_LW600_A15_DECKEL_AU_ne_BL5
  6
Continuous
 62
     2
100
AcDbLine
 10
572.6308391897998
 20
1112.6069131282
 30
0.0
 11
578.6007190016
 21
1118.5767929401
 31
0.0
  0
LINE
  5
71B
330
697
100
AcDbEntity
  8
BEGU_LW600_A15_DECKEL_AU_ne_BL5
  6
Continuous
 62
     2
100
AcDbLine
 10
585.2584204135999
 20
1125.2344943521
 30
0.0
 11
609.5631390362997
 21
1149.5392129747
 31
0.0
  0
LINE
  5
71C
330
697
100
AcDbEntity
  8
BEGU_LW600_A15_DECKEL_AU_ne_BL5
  6
Continuous
 62
     2
100
AcDbLine
 10
575.4026142919
 20
1112.5502611056
 30
0.0
 11
581.6908969266001
 21
1118.8385437403
 31
0.0
  0
LINE
  5
71D
330
697
100
AcDbEntity
  8
BEGU_LW600_A15_DECKEL_AU_ne_BL5
  6
Continuous
 62
     2
100
AcDbLine
 10
585.0455930831
 20
1122.1932398968
 30
0.0
 11
597.6607905076997
 21
1134.8084373214
 31
0.0
  0
LINE
  5
71E
330
697
100
AcDbEntity
  8
BEGU_LW600_A15_DECKEL_AU_ne_BL5
  6
Continuous
 62
     2
100
AcDbLine
 10
598.3727555401999
 20
1135.5204023539
 30
0.0
 11
612.3915661609999
 21
1149.5392129747
 31
0.0
  0
LINE
  5
71F
330
697
100
AcDbEntity
  8
BEGU_LW600_A15_DECKEL_AU_ne_BL5
  6
Continuous
 62
     2
100
AcDbLine
 10
578.2489831970997
 20
1112.568202886
 30
0.0
 11
597.5742770921
 21
1131.8934967811
 31
0.0
  0
LINE
  5
720
330
697
100
AcDbEntity
  8
BEGU_LW600_A15_DECKEL_AU_ne_BL5
  6
Continuous
 62
     2
100
AcDbLine
 10
601.2011826649
 20
1135.5204023539
 30
0.0
 11
615.2199932858
 21
1149.5392129747
 31
0.0
  0
LINE
  5
721
330
697
100
AcDbEntity
  8
BEGU_LW600_A15_DECKEL_AU_ne_BL5
  6
Continuous
 62
     2
100
AcDbLine
 10
618.3015123211998
 20
1152.6207320101
 30
0.0
 11
621.2199932857997
 21
1155.5392129747
 31
0.0
  0
LINE
  5
722
330
697
100
AcDbEntity
  8
BEGU_LW600_A15_DECKEL_AU_ne_BL5
  6
Continuous
 62
     2
100
AcDbLine
 10
581.1765951666999
 20
1112.6673877309
 30
0.0
 11
597.4877636765
 21
1128.9785562407
 31
0.0
  0
LINE
  5
723
330
697
100
AcDbEntity
  8
BEGU_LW600_A15_DECKEL_AU_ne_BL5
  6
Continuous
 62
     2
100
AcDbLine
 10
604.0296097896
 20
1135.5204023539
 30
0.0
 11
623.8214406471
 21
1155.3122332113
 31
0.0
  0
LINE
  5
724
330
697
100
AcDbEntity
  8
BEGU_LW600_A15_DECKEL_AU_ne_BL5
  6
Continuous
 62
     2
100
AcDbLine
 10
584.1932211726
 20
1112.855586612
 30
0.0
 11
597.4012502609999
 21
1126.0636157004
 31
0.0
  0
LINE
  5
725
330
697
100
AcDbEntity
  8
BEGU_LW600_A15_DECKEL_AU_ne_BL5
  6
Continuous
 62
     2
100
AcDbLine
 10
606.8580369144
 20
1135.5204023539
 30
0.0
 11
623.2529999177
 21
1151.9153653572
 31
0.0
  0
LINE
  5
726
330
697
100
AcDbEntity
  8
BEGU_LW600_A15_DECKEL_AU_ne_BL5
  6
Continuous
 62
     2
100
AcDbLine
 10
587.3078573563
 20
1113.141795671
 30
0.0
 11
597.3147368454
 21
1123.1486751601
 31
0.0
  0
LINE
  5
727
330
697
100
AcDbEntity
  8
BEGU_LW600_A15_DECKEL_AU_ne_BL5
  6
Continuous
 62
     2
100
AcDbLine
 10
609.6864640391
 20
1135.5204023539
 30
0.0
 11
622.6845591883
 21
1148.518497503
 31
0.0
  0
LINE
  5
728
330
697
100
AcDbEntity
  8
BEGU_LW600_A15_DECKEL_AU_ne_BL5
  6
Continuous
 62
     2
100
AcDbLine
 10
590.9113407303997
 20
1113.9168519204
 30
0.0
 11
597.2282234297997
 21
1120.2337346198
 31
0.0
  0
LINE
  5
729
330
697
100
AcDbEntity
  8
BEGU_LW600_A15_DECKEL_AU_ne_BL5
  6
Continuous
 62
     2
100
AcDbLine
 10
612.5148911639
 20
1135.5204023539
 30
0.0
 11
622.1161184589
 21
1145.1216296488
 31
0.0
  0
LINE
  5
72A
330
697
100
AcDbEntity
  8
BEGU_LW600_A15_DECKEL_AU_ne_BL5
  6
Continuous
 62
     2
100
AcDbLine
 10
591.9865054460997
 20
1112.1635895113
 30
0.0
 11
597.1417100142997
 21
1117.3187940795
 31
0.0
  0
LINE
  5
72B
330
697
100
AcDbEntity
  8
BEGU_LW600_A15_DECKEL_AU_ne_BL5
  6
Continuous
 62
     2
100
AcDbLine
 10
614.9491457605001
 20
1135.1262298257
 30
0.0
 11
621.5476777294999
 21
1141.7247617947
 31
0.0
  0
LINE
  5
72C
330
697
100
AcDbEntity
  8
BEGU_LW600_A15_DECKEL_AU_ne_BL5
  6
Continuous
 62
     2
100
AcDbLine
 10
591.8999920305
 20
1109.248648971
 30
0.0
 11
597.0551965987
 21
1114.4038535392
 31
0.0
  0
LINE
  5
72D
330
697
100
AcDbEntity
  8
BEGU_LW600_A15_DECKEL_AU_ne_BL5
  6
Continuous
 62
     2
100
AcDbLine
 10
614.9491457605001
 20
1132.297802701
 30
0.0
 11
620.979237
 21
1138.3278939405
 31
0.0
  0
LINE
  5
72E
330
697
100
AcDbEntity
  8
BEGU_LW600_A15_DECKEL_AU_ne_BL5
  6
Continuous
 62
     2
100
AcDbLine
 10
591.813478615
 20
1106.3337084307
 30
0.0
 11
596.9686831830999
 21
1111.4889129989
 31
0.0
  0
LINE
  5
72F
330
697
100
AcDbEntity
  8
BEGU_LW600_A15_DECKEL_AU_ne_BL5
  6
Continuous
 62
     2
100
AcDbLine
 10
614.9491457605001
 20
1129.4693755762
 30
0.0
 11
620.4107962706
 21
1134.9310260863
 31
0.0
  0
LINE
  5
730
330
697
100
AcDbEntity
  8
BEGU_LW600_A15_DECKEL_AU_ne_BL5
  6
Continuous
 62
     2
100
AcDbLine
 10
593.8474102837
 20
1105.5392129747
 30
0.0
 11
596.8821697675998
 21
1108.5739724585
 31
0.0
  0
LINE
  5
731
330
697
100
AcDbEntity
  8
BEGU_LW600_A15_DECKEL_AU_ne_BL5
  6
Continuous
 62
     2
100
AcDbLine
 10
614.9491457605001
 20
1126.6409484515
 30
0.0
 11
619.8423555412
 21
1131.5341582322
 31
0.0
  0
LINE
  5
732
330
697
100
AcDbEntity
  8
BEGU_LW600_A15_DECKEL_AU_ne_BL5
  6
Continuous
 62
     2
100
AcDbLine
 10
596.6758374084998
 20
1105.5392129747
 30
0.0
 11
596.7956563519999
 21
1105.6590319182
 31
0.0
  0
LINE
  5
733
330
697
100
AcDbEntity
  8
BEGU_LW600_A15_DECKEL_AU_ne_BL5
  6
Continuous
 62
     2
100
AcDbLine
 10
616.6758374085
 20
1125.5392129747
 30
0.0
 11
619.2739148118
 21
1128.137290378
 31
0.0
  0
LINE
  5
734
330
697
100
AcDbEntity
  8
BEGU_LW600_A15_DECKEL_AU_ne_BL5
  6
Continuous
 62
     7
100
AcDbLine
 10
-16.2796269523
 20
1155.5392129747
 30
0.0
 11
-11.2593486799
 21
1125.5392129747
 31
0.0
  0
LINE
  5
735
330
697
100
AcDbEntity
  8
BEGU_LW600_A15_DECKEL_AU_ne_BL5
  6
Continuous
 62
     7
100
AcDbLine
 10
-11.2101014597
 20
1155.5392129747
 30
0.0
 11
-10.2060458052
 21
1149.5392129747
 31
0.0
  0
LINE
  5
736
330
697
100
AcDbEntity
  8
BEGU_LW600_A15_DECKEL_AU_ne_BL5
  6
Continuous
 62
     7
100
AcDbLine
 10
515.7898985403
 20
1155.5392129747
 30
0.0
 11
515.7898985403
 21
1146.5392129747
 31
0.0
  0
LINE
  5
737
330
697
100
AcDbEntity
  8
BEGU_LW600_A15_DECKEL_AU_ne_BL5
  6
Continuous
 62
     7
100
AcDbLine
 10
521.7898985403
 20
1146.5392129747
 30
0.0
 11
521.7898985403
 21
1155.5392129747
 31
0.0
  0
LINE
  5
738
330
697
100
AcDbEntity
  8
BEGU_LW600_A15_DECKEL_AU_ne_BL5
  6
Continuous
 62
     7
100
AcDbLine
 10
618.7898985402997
 20
1155.5392129747
 30
0.0
 11
617.7858428858
 21
1149.5392129747
 31
0.0
  0
LINE
  5
739
330
697
100
AcDbEntity
  8
BEGU_LW600_A15_DECKEL_AU_ne_BL5
  6
Continuous
 62
     7
100
AcDbLine
 10
623.8594240329
 20
1155.5392129747
 30
0.0
 11
618.8391457605
 21
1125.5392129747
 31
0.0
  0
LINE
  5
73A
330
697
100
AcDbEntity
  8
BEGU_LW600_A15_DECKEL_AU_ne_BL5
  6
Continuous
 62
     7
100
AcDbLine
 10
563.7898985402999
 20
1155.5392129747
 30
0.0
 11
563.7898985402999
 21
1145.5392129747
 31
0.0
  0
LINE
  5
73B
330
697
100
AcDbEntity
  8
BEGU_LW600_A15_DECKEL_AU_ne_BL5
  6
Continuous
 62
     7
100
AcDbLine
 10
569.7898985402997
 20
1149.5392129747
 30
0.0
 11
569.7898985402997
 21
1155.5392129747
 31
0.0
  0
LINE
  5
73C
330
697
100
AcDbEntity
  8
BEGU_LW600_A15_DECKEL_AU_ne_BL5
  6
Continuous
 62
     7
100
AcDbLine
 10
585.2584204135999
 20
1140.6697921609
 30
0.0
 11
585.2584204135999
 21
1123.6278426993
 31
0.0
  0
LINE
  5
73D
330
697
100
AcDbEntity
  8
BEGU_LW600_A15_DECKEL_AU_ne_BL5
  6
Continuous
 62
     7
100
AcDbLine
 10
614.9491457605001
 20
1135.5204023539
 30
0.0
 11
614.9491457605001
 21
1125.5392129747
 31
0.0
  0
LINE
  5
73E
330
697
100
AcDbEntity
  8
BEGU_LW600_A15_DECKEL_AU_ne_BL5
  6
Continuous
 62
     7
100
AcDbLine
 10
592.0081252187999
 20
1112.8920355148
 30
0.0
 11
591.7898985403
 21
1105.5392129747
 31
0.0
  0
LINE
  5
73F
330
697
100
AcDbEntity
  8
BEGU_LW600_A15_DECKEL_AU_ne_BL5
  6
Continuous
 62
     7
100
AcDbLine
 10
597.6819211365
 20
1135.5204023539
 30
0.0
 11
596.7921002087997
 21
1105.5392129747
 31
0.0
  0
LINE
  5
740
330
697
100
AcDbEntity
  8
BEGU_LW600_A15_DECKEL_AU_ne_BL5
  6
Continuous
 62
     7
100
AcDbLine
 10
596.7921002087997
 20
1105.5392129747
 30
0.0
 11
591.7898985403
 21
1105.5392129747
 31
0.0
  0
LINE
  5
741
330
697
100
AcDbEntity
  8
BEGU_LW600_A15_DECKEL_AU_ne_BL5
  6
Continuous
 62
     7
100
AcDbLine
 10
15.7898985403
 20
1105.5392129747
 30
0.0
 11
10.7876968719
 21
1105.5392129747
 31
0.0
  0
LINE
  5
742
330
697
100
AcDbEntity
  8
BEGU_LW600_A15_DECKEL_AU_ne_BL5
  6
Continuous
 62
     7
100
AcDbLine
 10
618.8391457605
 20
1125.5392129747
 30
0.0
 11
614.9491457605001
 21
1125.5392129747
 31
0.0
  0
LINE
  5
743
330
697
100
AcDbEntity
  8
BEGU_LW600_A15_DECKEL_AU_ne_BL5
  6
Continuous
 62
     7
100
AcDbLine
 10
-7.369348679899996
 20
1125.5392129747
 30
0.0
 11
-11.2593486799
 21
1125.5392129747
 31
0.0
  0
LINE
  5
744
330
697
100
AcDbEntity
  8
BEGU_LW600_A15_DECKEL_AU_ne_BL5
  6
Continuous
 62
     7
100
AcDbLine
 10
-7.369348679899996
 20
1135.5204023539
 30
0.0
 11
9.897875944099999
 21
1135.5204023539
 31
0.0
  0
LINE
  5
745
330
697
100
AcDbEntity
  8
BEGU_LW600_A15_DECKEL_AU_ne_BL5
  6
Continuous
 62
     7
100
AcDbLine
 10
597.6819211365
 20
1135.5204023539
 30
0.0
 11
614.9491457605001
 21
1135.5204023539
 31
0.0
  0
LINE
  5
746
330
697
100
AcDbEntity
  8
BEGU_LW600_A15_DECKEL_AU_ne_BL5
  6
Continuous
 62
     7
100
AcDbLine
 10
27.3196712838
 20
1145.5392129747
 30
0.0
 11
30.1296445025
 21
1145.5392129747
 31
0.0
  0
LINE
  5
747
330
697
100
AcDbEntity
  8
BEGU_LW600_A15_DECKEL_AU_ne_BL5
  6
Continuous
 62
     7
100
AcDbLine
 10
577.4501525782
 20
1145.5392129747
 30
0.0
 11
580.2601257969
 21
1145.5392129747
 31
0.0
  0
LINE
  5
748
330
697
100
AcDbEntity
  8
BEGU_LW600_A15_DECKEL_AU_ne_BL5
  6
Continuous
 62
     7
100
AcDbLine
 10
617.7858428858
 20
1149.5392129747
 30
0.0
 11
569.7898985402997
 21
1149.5392129747
 31
0.0
  0
LINE
  5
749
330
697
100
AcDbEntity
  8
BEGU_LW600_A15_DECKEL_AU_ne_BL5
  6
Continuous
 62
     7
100
AcDbLine
 10
37.7898985403
 20
1149.5392129747
 30
0.0
 11
-10.2060458052
 21
1149.5392129747
 31
0.0
  0
LINE
  5
74A
330
697
100
AcDbEntity
  8
BEGU_LW600_A15_DECKEL_AU_ne_BL5
  6
Continuous
 62
     7
100
AcDbLine
 10
623.8594240329
 20
1155.5392129747
 30
0.0
 11
618.7898985402997
 21
1155.5392129747
 31
0.0
  0
LINE
  5
74B
330
697
100
AcDbEntity
  8
BEGU_LW600_A15_DECKEL_AU_ne_BL5
  6
Continuous
 62
     7
100
AcDbLine
 10
569.7898985402997
 20
1155.5392129747
 30
0.0
 11
515.7898985403
 21
1155.5392129747
 31
0.0
  0
LINE
  5
74C
330
697
100
AcDbEntity
  8
BEGU_LW600_A15_DECKEL_AU_ne_BL5
  6
Continuous
 62
     7
100
AcDbLine
 10
91.7898985403
 20
1155.5392129747
 30
0.0
 11
37.7898985403
 21
1155.5392129747
 31
0.0
  0
LINE
  5
74D
330
697
100
AcDbEntity
  8
BEGU_LW600_A15_DECKEL_AU_ne_BL5
  6
Continuous
 62
     7
100
AcDbLine
 10
-11.2101014597
 20
1155.5392129747
 30
0.0
 11
-16.2796269523
 21
1155.5392129747
 31
0.0
  0
ARC
  5
74E
330
697
100
AcDbEntity
  8
BEGU_LW600_A15_DECKEL_AU_ne_BL5
  6
Continuous
 62
     7
100
AcDbCircle
 10
31.3805974722
 20
1216.5392129747
 30
0.0
 40
104.0
100
AcDbArc
 50
263.4881325855
 51
296.1769521717
  0
ARC
  5
74F
330
697
100
AcDbEntity
  8
BEGU_LW600_A15_DECKEL_AU_ne_BL5
  6
Continuous
 62
     7
100
AcDbCircle
 10
31.3805974722
 20
1216.5392129747
 30
0.0
 40
98.0
100
AcDbArc
 50
267.498385691
 51
296.1769521717
  0
ARC
  5
750
330
697
100
AcDbEntity
  8
BEGU_LW600_A15_DECKEL_AU_ne_BL5
  6
Continuous
 62
     7
100
AcDbCircle
 10
65.7898985403
 20
1146.5392129747
 30
0.0
 40
26.0
100
AcDbArc
 50
296.1769521717
 51
360.0
  0
ARC
  5
751
330
697
100
AcDbEntity
  8
BEGU_LW600_A15_DECKEL_AU_ne_BL5
  6
Continuous
 62
     7
100
AcDbCircle
 10
65.7898985403
 20
1146.5392129747
 30
0.0
 40
20.0
100
AcDbArc
 50
296.1769521717
 51
360.0
  0
ARC
  5
752
330
697
100
AcDbEntity
  8
BEGU_LW600_A15_DECKEL_AU_ne_BL5
  6
Continuous
 62
     7
100
AcDbCircle
 10
20.8335599734
 20
1124.1392129747
 30
0.0
 40
11.0
100
AcDbArc
 50
249.1946640583
 51
263.4881325855
  0
ARC
  5
753
330
697
100
AcDbEntity
  8
BEGU_LW600_A15_DECKEL_AU_ne_BL5
  6
Continuous
 62
     7
100
AcDbCircle
 10
38.7898985403
 20
1145.5392129747
 30
0.0
 40
5.0
100
AcDbArc
 50
210.0
 51
360.0
  0
ARC
  5
754
330
697
100
AcDbEntity
  8
BEGU_LW600_A15_DECKEL_AU_ne_BL5
  6
Continuous
 62
     7
100
AcDbCircle
 10
30.1296445025
 20
1140.5392129747
 30
0.0
 40
5.0
100
AcDbArc
 50
30.0
 51
90.0
  0
ARC
  5
755
330
697
100
AcDbEntity
  8
BEGU_LW600_A15_DECKEL_AU_ne_BL5
  6
Continuous
 62
     7
100
AcDbCircle
 10
27.3196712838
 20
1140.5392129747
 30
0.0
 40
5.0
100
AcDbArc
 50
90.0
 51
178.5035026038
  0
ARC
  5
756
330
697
100
AcDbEntity
  8
BEGU_LW600_A15_DECKEL_AU_ne_BL5
  6
Continuous
 62
     7
100
AcDbCircle
 10
27.321376667
 20
1123.6278426993
 30
0.0
 40
5.0
100
AcDbArc
 50
180.0
 51
267.498385691
  0
ARC
  5
757
330
697
100
AcDbEntity
  8
BEGU_LW600_A15_DECKEL_AU_ne_BL5
  6
Continuous
 62
     7
100
AcDbCircle
 10
16.571231722
 20
1112.9217017589
 30
0.0
 40
1.0
100
AcDbArc
 50
69.1946640583
 51
181.7
  0
ARC
  5
758
330
697
100
AcDbEntity
  8
BEGU_LW600_A15_DECKEL_AU_ne_BL5
  6
Continuous
 62
     7
100
AcDbCircle
 10
576.1991996084999
 20
1216.5392129747
 30
0.0
 40
104.0
100
AcDbArc
 50
243.8230478283
 51
276.5118674145
  0
ARC
  5
759
330
697
100
AcDbEntity
  8
BEGU_LW600_A15_DECKEL_AU_ne_BL5
  6
Continuous
 62
     7
100
AcDbCircle
 10
576.1991996084999
 20
1216.5392129747
 30
0.0
 40
98.0
100
AcDbArc
 50
243.8230478283
 51
272.501614309
  0
ARC
  5
75A
330
697
100
AcDbEntity
  8
BEGU_LW600_A15_DECKEL_AU_ne_BL5
  6
Continuous
 62
     7
100
AcDbCircle
 10
541.7898985403
 20
1146.5392129747
 30
0.0
 40
26.0
100
AcDbArc
 50
180.0
 51
243.8230478283
  0
ARC
  5
75B
330
697
100
AcDbEntity
  8
BEGU_LW600_A15_DECKEL_AU_ne_BL5
  6
Continuous
 62
     7
100
AcDbCircle
 10
541.7898985403
 20
1146.5392129747
 30
0.0
 40
20.0
100
AcDbArc
 50
180.0
 51
243.8230478283
  0
ARC
  5
75C
330
697
100
AcDbEntity
  8
BEGU_LW600_A15_DECKEL_AU_ne_BL5
  6
Continuous
 62
     7
100
AcDbCircle
 10
586.7462371072
 20
1124.1392129747
 30
0.0
 40
11.0
100
AcDbArc
 50
276.5118674145
 51
290.8053359417
  0
ARC
  5
75D
330
697
100
AcDbEntity
  8
BEGU_LW600_A15_DECKEL_AU_ne_BL5
  6
Continuous
 62
     7
100
AcDbCircle
 10
580.2584204136
 20
1123.6278426993
 30
0.0
 40
5.0
100
AcDbArc
 50
272.501614309
 51
360.0
  0
ARC
  5
75E
330
697
100
AcDbEntity
  8
BEGU_LW600_A15_DECKEL_AU_ne_BL5
  6
Continuous
 62
     7
100
AcDbCircle
 10
580.2601257969
 20
1140.5392129747
 30
0.0
 40
5.0
100
AcDbArc
 50
1.4964973962
 51
90.0
  0
ARC
  5
75F
330
697
100
AcDbEntity
  8
BEGU_LW600_A15_DECKEL_AU_ne_BL5
  6
Continuous
 62
     7
100
AcDbCircle
 10
577.4501525782
 20
1140.5392129747
 30
0.0
 40
5.0
100
AcDbArc
 50
90.0
 51
150.0
  0
ARC
  5
760
330
697
100
AcDbEntity
  8
BEGU_LW600_A15_DECKEL_AU_ne_BL5
  6
Continuous
 62
     7
100
AcDbCircle
 10
568.7898985402997
 20
1145.5392129747
 30
0.0
 40
5.0
100
AcDbArc
 50
180.0
 51
330.0
  0
ARC
  5
761
330
697
100
AcDbEntity
  8
BEGU_LW600_A15_DECKEL_AU_ne_BL5
  6
Continuous
 62
     7
100
AcDbCircle
 10
591.0085653587
 20
1112.9217017589
 30
0.0
 40
1.0
100
AcDbArc
 50
358.3
 51
110.8053359417
  0
ENDBLK
  5
762
330
697
100
AcDbEntity
  8
0
  6
ByBlock
 62
     0
100
AcDbBlockEnd
  0
BLOCK
  5
764
330
763
100
AcDbEntity
  8
BEGU_LW600_A15_DECKEL_new_v_BL6
100
AcDbBlockBegin
  2
BEGU_LW600_A15_DECKEL_NEW_V_BL6
 70
     0
 10
303.7898985403
 20
1130.5392129747
 30
0.0
  3
BEGU_LW600_A15_DECKEL_NEW_V_BL6
  1

  0
LINE
  5
765
330
763
100
AcDbEntity
  8
BEGU_LW600_A15_DECKEL_new_v_BL6
  6
Continuous
 62
     2
100
AcDbLine
 10
-11.169054462
 20
1155.2939257888
 30
0.0
 11
-10.923767276
 21
1155.5392129747
 31
0.0
  0
LINE
  5
766
330
763
100
AcDbEntity
  8
BEGU_LW600_A15_DECKEL_new_v_BL6
  6
Continuous
 62
     2
100
AcDbLine
 10
-8.4384859018
 20
1149.5392129747
 30
0.0
 11
-2.4384859018
 21
1155.5392129747
 31
0.0
  0
LINE
  5
767
330
763
100
AcDbEntity
  8
BEGU_LW600_A15_DECKEL_new_v_BL6
  6
Continuous
 62
     2
100
AcDbLine
 10
0.0467954724
 20
1149.5392129747
 30
0.0
 11
6.0467954724
 21
1155.5392129747
 31
0.0
  0
LINE
  5
768
330
763
100
AcDbEntity
  8
BEGU_LW600_A15_DECKEL_new_v_BL6
  6
Continuous
 62
     2
100
AcDbLine
 10
8.532076846699997
 20
1149.5392129747
 30
0.0
 11
14.5320768467
 21
1155.5392129747
 31
0.0
  0
LINE
  5
769
330
763
100
AcDbEntity
  8
BEGU_LW600_A15_DECKEL_new_v_BL6
  6
Continuous
 62
     2
100
AcDbLine
 10
17.0173582209
 20
1149.5392129747
 30
0.0
 11
23.0173582209
 21
1155.5392129747
 31
0.0
  0
LINE
  5
76A
330
763
100
AcDbEntity
  8
BEGU_LW600_A15_DECKEL_new_v_BL6
  6
Continuous
 62
     2
100
AcDbLine
 10
25.5026395951
 20
1149.5392129747
 30
0.0
 11
31.50263959510001
 21
1155.5392129747
 31
0.0
  0
LINE
  5
76B
330
763
100
AcDbEntity
  8
BEGU_LW600_A15_DECKEL_new_v_BL6
  6
Continuous
 62
     2
100
AcDbLine
 10
33.9879209694
 20
1149.5392129747
 30
0.0
 11
37.7898985403
 21
1153.3411905456
 31
0.0
  0
LINE
  5
76C
330
763
100
AcDbEntity
  8
BEGU_LW600_A15_DECKEL_new_v_BL6
  6
Continuous
 62
     2
100
AcDbLine
 10
15.7799216467
 20
1105.8753695293
 30
0.0
 11
22.8016594549
 21
1112.8971073375
 31
0.0
  0
LINE
  5
76D
330
763
100
AcDbEntity
  8
BEGU_LW600_A15_DECKEL_new_v_BL6
  6
Continuous
 62
     2
100
AcDbLine
 10
23.9290464663
 20
1105.5392129747
 30
0.0
 11
30.9358534611
 21
1112.5460199694
 31
0.0
  0
LINE
  5
76E
330
763
100
AcDbEntity
  8
BEGU_LW600_A15_DECKEL_new_v_BL6
  6
Continuous
 62
     2
100
AcDbLine
 10
32.41432784060002
 20
1105.5392129747
 30
0.0
 11
39.758871562
 21
1112.8837566961
 31
0.0
  0
LINE
  5
76F
330
763
100
AcDbEntity
  8
BEGU_LW600_A15_DECKEL_new_v_BL6
  6
Continuous
 62
     2
100
AcDbLine
 10
40.8996092148
 20
1105.5392129747
 30
0.0
 11
49.4936530556
 21
1114.1332568155
 31
0.0
  0
LINE
  5
770
330
763
100
AcDbEntity
  8
BEGU_LW600_A15_DECKEL_new_v_BL6
  6
Continuous
 62
     2
100
AcDbLine
 10
49.3848905891
 20
1105.5392129747
 30
0.0
 11
60.5657980003
 21
1116.7201203859
 31
0.0
  0
LINE
  5
771
330
763
100
AcDbEntity
  8
BEGU_LW600_A15_DECKEL_new_v_BL6
  6
Continuous
 62
     2
100
AcDbLine
 10
91.7898985403
 20
1147.944220926
 30
0.0
 11
99.38489058910001
 21
1155.5392129747
 31
0.0
  0
LINE
  5
772
330
763
100
AcDbEntity
  8
BEGU_LW600_A15_DECKEL_new_v_BL6
  6
Continuous
 62
     2
100
AcDbLine
 10
57.8701719633
 20
1105.5392129747
 30
0.0
 11
74.02106842710002
 21
1121.6901094385
 31
0.0
  0
LINE
  5
773
330
763
100
AcDbEntity
  8
BEGU_LW600_A15_DECKEL_new_v_BL6
  6
Continuous
 62
     2
100
AcDbLine
 10
90.35014590719999
 20
1138.0191869186
 30
0.0
 11
107.8701719633
 21
1155.5392129747
 31
0.0
  0
LINE
  5
774
330
763
100
AcDbEntity
  8
BEGU_LW600_A15_DECKEL_new_v_BL6
  6
Continuous
 62
     2
100
AcDbLine
 10
66.35545333749999
 20
1105.5392129747
 30
0.0
 11
116.3554533375
 21
1155.5392129747
 31
0.0
  0
LINE
  5
775
330
763
100
AcDbEntity
  8
BEGU_LW600_A15_DECKEL_new_v_BL6
  6
Continuous
 62
     2
100
AcDbLine
 10
74.8407347118
 20
1105.5392129747
 30
0.0
 11
124.8407347118
 21
1155.5392129747
 31
0.0
  0
LINE
  5
776
330
763
100
AcDbEntity
  8
BEGU_LW600_A15_DECKEL_new_v_BL6
  6
Continuous
 62
     2
100
AcDbLine
 10
83.326016086
 20
1105.5392129747
 30
0.0
 11
133.326016086
 21
1155.5392129747
 31
0.0
  0
LINE
  5
777
330
763
100
AcDbEntity
  8
BEGU_LW600_A15_DECKEL_new_v_BL6
  6
Continuous
 62
     2
100
AcDbLine
 10
91.81129746020001
 20
1105.5392129747
 30
0.0
 11
141.8112974602
 21
1155.5392129747
 31
0.0
  0
LINE
  5
778
330
763
100
AcDbEntity
  8
BEGU_LW600_A15_DECKEL_new_v_BL6
  6
Continuous
 62
     2
100
AcDbLine
 10
100.2965788345
 20
1105.5392129747
 30
0.0
 11
150.2965788345
 21
1155.5392129747
 31
0.0
  0
LINE
  5
779
330
763
100
AcDbEntity
  8
BEGU_LW600_A15_DECKEL_new_v_BL6
  6
Continuous
 62
     2
100
AcDbLine
 10
108.7818602087
 20
1105.5392129747
 30
0.0
 11
158.7818602087
 21
1155.5392129747
 31
0.0
  0
LINE
  5
77A
330
763
100
AcDbEntity
  8
BEGU_LW600_A15_DECKEL_new_v_BL6
  6
Continuous
 62
     2
100
AcDbLine
 10
117.267141583
 20
1105.5392129747
 30
0.0
 11
167.267141583
 21
1155.5392129747
 31
0.0
  0
LINE
  5
77B
330
763
100
AcDbEntity
  8
BEGU_LW600_A15_DECKEL_new_v_BL6
  6
Continuous
 62
     2
100
AcDbLine
 10
125.7524229572
 20
1105.5392129747
 30
0.0
 11
175.7524229572
 21
1155.5392129747
 31
0.0
  0
LINE
  5
77C
330
763
100
AcDbEntity
  8
BEGU_LW600_A15_DECKEL_new_v_BL6
  6
Continuous
 62
     2
100
AcDbLine
 10
134.2377043314
 20
1105.5392129747
 30
0.0
 11
184.2377043314
 21
1155.5392129747
 31
0.0
  0
LINE
  5
77D
330
763
100
AcDbEntity
  8
BEGU_LW600_A15_DECKEL_new_v_BL6
  6
Continuous
 62
     2
100
AcDbLine
 10
142.7229857057
 20
1105.5392129747
 30
0.0
 11
192.7229857057
 21
1155.5392129747
 31
0.0
  0
LINE
  5
77E
330
763
100
AcDbEntity
  8
BEGU_LW600_A15_DECKEL_new_v_BL6
  6
Continuous
 62
     2
100
AcDbLine
 10
151.2082670799
 20
1105.5392129747
 30
0.0
 11
201.2082670799
 21
1155.5392129747
 31
0.0
  0
LINE
  5
77F
330
763
100
AcDbEntity
  8
BEGU_LW600_A15_DECKEL_new_v_BL6
  6
Continuous
 62
     2
100
AcDbLine
 10
159.6935484542
 20
1105.5392129747
 30
0.0
 11
209.6935484542
 21
1155.5392129747
 31
0.0
  0
LINE
  5
780
330
763
100
AcDbEntity
  8
BEGU_LW600_A15_DECKEL_new_v_BL6
  6
Continuous
 62
     2
100
AcDbLine
 10
168.1788298284
 20
1105.5392129747
 30
0.0
 11
218.1788298284
 21
1155.5392129747
 31
0.0
  0
LINE
  5
781
330
763
100
AcDbEntity
  8
BEGU_LW600_A15_DECKEL_new_v_BL6
  6
Continuous
 62
     2
100
AcDbLine
 10
176.6641112026
 20
1105.5392129747
 30
0.0
 11
226.6641112026
 21
1155.5392129747
 31
0.0
  0
LINE
  5
782
330
763
100
AcDbEntity
  8
BEGU_LW600_A15_DECKEL_new_v_BL6
  6
Continuous
 62
     2
100
AcDbLine
 10
185.1493925769
 20
1105.5392129747
 30
0.0
 11
235.1493925769
 21
1155.5392129747
 31
0.0
  0
LINE
  5
783
330
763
100
AcDbEntity
  8
BEGU_LW600_A15_DECKEL_new_v_BL6
  6
Continuous
 62
     2
100
AcDbLine
 10
193.6346739511
 20
1105.5392129747
 30
0.0
 11
243.6346739511
 21
1155.5392129747
 31
0.0
  0
LINE
  5
784
330
763
100
AcDbEntity
  8
BEGU_LW600_A15_DECKEL_new_v_BL6
  6
Continuous
 62
     2
100
AcDbLine
 10
202.1199553253
 20
1105.5392129747
 30
0.0
 11
252.1199553253
 21
1155.5392129747
 31
0.0
  0
LINE
  5
785
330
763
100
AcDbEntity
  8
BEGU_LW600_A15_DECKEL_new_v_BL6
  6
Continuous
 62
     2
100
AcDbLine
 10
210.6052366996
 20
1105.5392129747
 30
0.0
 11
260.6052366996
 21
1155.5392129747
 31
0.0
  0
LINE
  5
786
330
763
100
AcDbEntity
  8
BEGU_LW600_A15_DECKEL_new_v_BL6
  6
Continuous
 62
     2
100
AcDbLine
 10
219.0905180738
 20
1105.5392129747
 30
0.0
 11
269.0905180738
 21
1155.5392129747
 31
0.0
  0
LINE
  5
787
330
763
100
AcDbEntity
  8
BEGU_LW600_A15_DECKEL_new_v_BL6
  6
Continuous
 62
     2
100
AcDbLine
 10
227.5757994481
 20
1105.5392129747
 30
0.0
 11
277.5757994481
 21
1155.5392129747
 31
0.0
  0
LINE
  5
788
330
763
100
AcDbEntity
  8
BEGU_LW600_A15_DECKEL_new_v_BL6
  6
Continuous
 62
     2
100
AcDbLine
 10
236.0610808223
 20
1105.5392129747
 30
0.0
 11
286.0610808223
 21
1155.5392129747
 31
0.0
  0
LINE
  5
789
330
763
100
AcDbEntity
  8
BEGU_LW600_A15_DECKEL_new_v_BL6
  6
Continuous
 62
     2
100
AcDbLine
 10
244.5463621965
 20
1105.5392129747
 30
0.0
 11
294.5463621965
 21
1155.5392129747
 31
0.0
  0
LINE
  5
78A
330
763
100
AcDbEntity
  8
BEGU_LW600_A15_DECKEL_new_v_BL6
  6
Continuous
 62
     2
100
AcDbLine
 10
253.0316435708
 20
1105.5392129747
 30
0.0
 11
303.0316435708
 21
1155.5392129747
 31
0.0
  0
LINE
  5
78B
330
763
100
AcDbEntity
  8
BEGU_LW600_A15_DECKEL_new_v_BL6
  6
Continuous
 62
     2
100
AcDbLine
 10
261.516924945
 20
1105.5392129747
 30
0.0
 11
311.516924945
 21
1155.5392129747
 31
0.0
  0
LINE
  5
78C
330
763
100
AcDbEntity
  8
BEGU_LW600_A15_DECKEL_new_v_BL6
  6
Continuous
 62
     2
100
AcDbLine
 10
270.0022063193
 20
1105.5392129747
 30
0.0
 11
320.0022063193
 21
1155.5392129747
 31
0.0
  0
LINE
  5
78D
330
763
100
AcDbEntity
  8
BEGU_LW600_A15_DECKEL_new_v_BL6
  6
Continuous
 62
     2
100
AcDbLine
 10
278.4874876935
 20
1105.5392129747
 30
0.0
 11
328.4874876935
 21
1155.5392129747
 31
0.0
  0
LINE
  5
78E
330
763
100
AcDbEntity
  8
BEGU_LW600_A15_DECKEL_new_v_BL6
  6
Continuous
 62
     2
100
AcDbLine
 10
286.9727690677
 20
1105.5392129747
 30
0.0
 11
336.9727690677
 21
1155.5392129747
 31
0.0
  0
LINE
  5
78F
330
763
100
AcDbEntity
  8
BEGU_LW600_A15_DECKEL_new_v_BL6
  6
Continuous
 62
     2
100
AcDbLine
 10
295.458050442
 20
1105.5392129747
 30
0.0
 11
345.4580504419999
 21
1155.5392129747
 31
0.0
  0
LINE
  5
790
330
763
100
AcDbEntity
  8
BEGU_LW600_A15_DECKEL_new_v_BL6
  6
Continuous
 62
     2
100
AcDbLine
 10
303.9433318162
 20
1105.5392129747
 30
0.0
 11
353.9433318162001
 21
1155.5392129747
 31
0.0
  0
LINE
  5
791
330
763
100
AcDbEntity
  8
BEGU_LW600_A15_DECKEL_new_v_BL6
  6
Continuous
 62
     2
100
AcDbLine
 10
312.4286131905
 20
1105.5392129747
 30
0.0
 11
362.4286131905
 21
1155.5392129747
 31
0.0
  0
LINE
  5
792
330
763
100
AcDbEntity
  8
BEGU_LW600_A15_DECKEL_new_v_BL6
  6
Continuous
 62
     2
100
AcDbLine
 10
320.9138945647
 20
1105.5392129747
 30
0.0
 11
370.9138945647
 21
1155.5392129747
 31
0.0
  0
LINE
  5
793
330
763
100
AcDbEntity
  8
BEGU_LW600_A15_DECKEL_new_v_BL6
  6
Continuous
 62
     2
100
AcDbLine
 10
329.3991759389
 20
1105.5392129747
 30
0.0
 11
379.3991759389
 21
1155.5392129747
 31
0.0
  0
LINE
  5
794
330
763
100
AcDbEntity
  8
BEGU_LW600_A15_DECKEL_new_v_BL6
  6
Continuous
 62
     2
100
AcDbLine
 10
337.8844573132
 20
1105.5392129747
 30
0.0
 11
387.8844573132
 21
1155.5392129747
 31
0.0
  0
LINE
  5
795
330
763
100
AcDbEntity
  8
BEGU_LW600_A15_DECKEL_new_v_BL6
  6
Continuous
 62
     2
100
AcDbLine
 10
346.3697386874
 20
1105.5392129747
 30
0.0
 11
396.3697386874
 21
1155.5392129747
 31
0.0
  0
LINE
  5
796
330
763
100
AcDbEntity
  8
BEGU_LW600_A15_DECKEL_new_v_BL6
  6
Continuous
 62
     2
100
AcDbLine
 10
354.8550200616
 20
1105.5392129747
 30
0.0
 11
404.8550200616
 21
1155.5392129747
 31
0.0
  0
LINE
  5
797
330
763
100
AcDbEntity
  8
BEGU_LW600_A15_DECKEL_new_v_BL6
  6
Continuous
 62
     2
100
AcDbLine
 10
363.3403014359
 20
1105.5392129747
 30
0.0
 11
413.3403014358997
 21
1155.5392129747
 31
0.0
  0
LINE
  5
798
330
763
100
AcDbEntity
  8
BEGU_LW600_A15_DECKEL_new_v_BL6
  6
Continuous
 62
     2
100
AcDbLine
 10
371.8255828101
 20
1105.5392129747
 30
0.0
 11
421.8255828101
 21
1155.5392129747
 31
0.0
  0
LINE
  5
799
330
763
100
AcDbEntity
  8
BEGU_LW600_A15_DECKEL_new_v_BL6
  6
Continuous
 62
     2
100
AcDbLine
 10
380.3108641844
 20
1105.5392129747
 30
0.0
 11
430.3108641844
 21
1155.5392129747
 31
0.0
  0
LINE
  5
79A
330
763
100
AcDbEntity
  8
BEGU_LW600_A15_DECKEL_new_v_BL6
  6
Continuous
 62
     2
100
AcDbLine
 10
388.7961455586
 20
1105.5392129747
 30
0.0
 11
438.7961455586
 21
1155.5392129747
 31
0.0
  0
LINE
  5
79B
330
763
100
AcDbEntity
  8
BEGU_LW600_A15_DECKEL_new_v_BL6
  6
Continuous
 62
     2
100
AcDbLine
 10
397.2814269328
 20
1105.5392129747
 30
0.0
 11
447.2814269328
 21
1155.5392129747
 31
0.0
  0
LINE
  5
79C
330
763
100
AcDbEntity
  8
BEGU_LW600_A15_DECKEL_new_v_BL6
  6
Continuous
 62
     2
100
AcDbLine
 10
405.7667083071
 20
1105.5392129747
 30
0.0
 11
455.7667083071
 21
1155.5392129747
 31
0.0
  0
LINE
  5
79D
330
763
100
AcDbEntity
  8
BEGU_LW600_A15_DECKEL_new_v_BL6
  6
Continuous
 62
     2
100
AcDbLine
 10
414.2519896812999
 20
1105.5392129747
 30
0.0
 11
464.2519896812999
 21
1155.5392129747
 31
0.0
  0
LINE
  5
79E
330
763
100
AcDbEntity
  8
BEGU_LW600_A15_DECKEL_new_v_BL6
  6
Continuous
 62
     2
100
AcDbLine
 10
422.7372710555996
 20
1105.5392129747
 30
0.0
 11
472.7372710555996
 21
1155.5392129747
 31
0.0
  0
LINE
  5
79F
330
763
100
AcDbEntity
  8
BEGU_LW600_A15_DECKEL_new_v_BL6
  6
Continuous
 62
     2
100
AcDbLine
 10
431.2225524298
 20
1105.5392129747
 30
0.0
 11
481.2225524298
 21
1155.5392129747
 31
0.0
  0
LINE
  5
7A0
330
763
100
AcDbEntity
  8
BEGU_LW600_A15_DECKEL_new_v_BL6
  6
Continuous
 62
     2
100
AcDbLine
 10
439.707833804
 20
1105.5392129747
 30
0.0
 11
489.707833804
 21
1155.5392129747
 31
0.0
  0
LINE
  5
7A1
330
763
100
AcDbEntity
  8
BEGU_LW600_A15_DECKEL_new_v_BL6
  6
Continuous
 62
     7
100
AcDbLine
 10
15.5716718619
 20
1112.8920355148
 30
0.0
 11
15.7898985403
 21
1105.5392129747
 31
0.0
  0
LINE
  5
7A2
330
763
100
AcDbEntity
  8
BEGU_LW600_A15_DECKEL_new_v_BL6
  6
Continuous
 62
     7
100
AcDbLine
 10
37.7898985403
 20
1155.5392129747
 30
0.0
 11
37.7898985403
 21
1149.5392129747
 31
0.0
  0
LINE
  5
7A3
330
763
100
AcDbEntity
  8
BEGU_LW600_A15_DECKEL_new_v_BL6
  6
Continuous
 62
     2
100
AcDbLine
 10
448.1931151782998
 20
1105.5392129747
 30
0.0
 11
498.1931151782998
 21
1155.5392129747
 31
0.0
  0
LINE
  5
7A4
330
763
100
AcDbEntity
  8
BEGU_LW600_A15_DECKEL_new_v_BL6
  6
Continuous
 62
     2
100
AcDbLine
 10
456.6783965524998
 20
1105.5392129747
 30
0.0
 11
506.6783965524998
 21
1155.5392129747
 31
0.0
  0
LINE
  5
7A5
330
763
100
AcDbEntity
  8
BEGU_LW600_A15_DECKEL_new_v_BL6
  6
Continuous
 62
     2
100
AcDbLine
 10
465.1636779267
 20
1105.5392129747
 30
0.0
 11
515.1636779267
 21
1155.5392129747
 31
0.0
  0
LINE
  5
7A6
330
763
100
AcDbEntity
  8
BEGU_LW600_A15_DECKEL_new_v_BL6
  6
Continuous
 62
     2
100
AcDbLine
 10
473.6489593009999
 20
1105.5392129747
 30
0.0
 11
515.7898985403
 21
1147.6801522141
 31
0.0
  0
LINE
  5
7A7
330
763
100
AcDbEntity
  8
BEGU_LW600_A15_DECKEL_new_v_BL6
  6
Continuous
 62
     2
100
AcDbLine
 10
482.1342406751996
 20
1105.5392129747
 30
0.0
 11
516.6209520089998
 21
1140.0259243085
 31
0.0
  0
LINE
  5
7A8
330
763
100
AcDbEntity
  8
BEGU_LW600_A15_DECKEL_new_v_BL6
  6
Continuous
 62
     2
100
AcDbLine
 10
490.6195220494999
 20
1105.5392129747
 30
0.0
 11
519.0401241695998
 21
1133.9598150948
 31
0.0
  0
LINE
  5
7A9
330
763
100
AcDbEntity
  8
BEGU_LW600_A15_DECKEL_new_v_BL6
  6
Continuous
 62
     2
100
AcDbLine
 10
499.1048034237
 20
1105.5392129747
 30
0.0
 11
522.5851717677
 21
1129.0195813187
 31
0.0
  0
LINE
  5
7AA
330
763
100
AcDbEntity
  8
BEGU_LW600_A15_DECKEL_new_v_BL6
  6
Continuous
 62
     2
100
AcDbLine
 10
507.5900847979
 20
1105.5392129747
 30
0.0
 11
527.1261438583999
 21
1125.0752720351
 31
0.0
  0
LINE
  5
7AB
330
763
100
AcDbEntity
  8
BEGU_LW600_A15_DECKEL_new_v_BL6
  6
Continuous
 62
     2
100
AcDbLine
 10
516.0753661722
 20
1105.5392129747
 30
0.0
 11
532.6417075572
 21
1122.1055543598
 31
0.0
  0
LINE
  5
7AC
330
763
100
AcDbEntity
  8
BEGU_LW600_A15_DECKEL_new_v_BL6
  6
Continuous
 62
     2
100
AcDbLine
 10
524.5606475464
 20
1105.5392129747
 30
0.0
 11
538.5980351658997
 21
1119.5766005942
 31
0.0
  0
LINE
  5
7AD
330
763
100
AcDbEntity
  8
BEGU_LW600_A15_DECKEL_new_v_BL6
  6
Continuous
 62
     2
100
AcDbLine
 10
569.7898985402997
 20
1150.7684639686
 30
0.0
 11
574.5606475464
 21
1155.5392129747
 31
0.0
  0
LINE
  5
7AE
330
763
100
AcDbEntity
  8
BEGU_LW600_A15_DECKEL_new_v_BL6
  6
Continuous
 62
     2
100
AcDbLine
 10
533.0459289206998
 20
1105.5392129747
 30
0.0
 11
544.8822949563
 21
1117.3755790104
 31
0.0
  0
LINE
  5
7AF
330
763
100
AcDbEntity
  8
BEGU_LW600_A15_DECKEL_new_v_BL6
  6
Continuous
 62
     2
100
AcDbLine
 10
577.0459289207
 20
1149.5392129747
 30
0.0
 11
583.0459289206998
 21
1155.5392129747
 31
0.0
  0
LINE
  5
7B0
330
763
100
AcDbEntity
  8
BEGU_LW600_A15_DECKEL_new_v_BL6
  6
Continuous
 62
     7
100
AcDbLine
 10
91.7898985403
 20
1146.5392129747
 30
0.0
 11
91.7898985403
 21
1155.5392129747
 31
0.0
  0
LINE
  5
7B1
330
763
100
AcDbEntity
  8
BEGU_LW600_A15_DECKEL_new_v_BL6
  6
Continuous
 62
     2
100
AcDbLine
 10
541.5312102949
 20
1105.5392129747
 30
0.0
 11
551.5136961811
 21
1115.5216988609
 31
0.0
  0
LINE
  5
7B2
330
763
100
AcDbEntity
  8
BEGU_LW600_A15_DECKEL_new_v_BL6
  6
Continuous
 62
     2
100
AcDbLine
 10
585.5312102949
 20
1149.5392129747
 30
0.0
 11
591.5312102949
 21
1155.5392129747
 31
0.0
  0
LINE
  5
7B3
330
763
100
AcDbEntity
  8
BEGU_LW600_A15_DECKEL_new_v_BL6
  6
Continuous
 62
     2
100
AcDbLine
 10
550.0164916691
 20
1105.5392129747
 30
0.0
 11
558.5297727199998
 21
1114.0524940256
 31
0.0
  0
LINE
  5
7B4
330
763
100
AcDbEntity
  8
BEGU_LW600_A15_DECKEL_new_v_BL6
  6
Continuous
 62
     2
100
AcDbLine
 10
594.0164916690997
 20
1149.5392129747
 30
0.0
 11
600.0164916691
 21
1155.5392129747
 31
0.0
  0
LINE
  5
7B5
330
763
100
AcDbEntity
  8
BEGU_LW600_A15_DECKEL_new_v_BL6
  6
Continuous
 62
     2
100
AcDbLine
 10
558.5017730433999
 20
1105.5392129747
 30
0.0
 11
566.0122827761997
 21
1113.0497227075
 31
0.0
  0
LINE
  5
7B6
330
763
100
AcDbEntity
  8
BEGU_LW600_A15_DECKEL_new_v_BL6
  6
Continuous
 62
     2
100
AcDbLine
 10
602.5017730433999
 20
1149.5392129747
 30
0.0
 11
608.5017730433999
 21
1155.5392129747
 31
0.0
  0
LINE
  5
7B7
330
763
100
AcDbEntity
  8
BEGU_LW600_A15_DECKEL_new_v_BL6
  6
Continuous
 62
     2
100
AcDbLine
 10
566.9870544175997
 20
1105.5392129747
 30
0.0
 11
574.0184837786
 21
1112.5706423357
 31
0.0
  0
LINE
  5
7B8
330
763
100
AcDbEntity
  8
BEGU_LW600_A15_DECKEL_new_v_BL6
  6
Continuous
 62
     2
100
AcDbLine
 10
610.9870544176
 20
1149.5392129747
 30
0.0
 11
616.9870544175997
 21
1155.5392129747
 31
0.0
  0
LINE
  5
7B9
330
763
100
AcDbEntity
  8
BEGU_LW600_A15_DECKEL_new_v_BL6
  6
Continuous
 62
     2
100
AcDbLine
 10
575.4723357918
 20
1105.5392129747
 30
0.0
 11
582.6813910541
 21
1112.748268237
 31
0.0
  0
LINE
  5
7BA
330
763
100
AcDbEntity
  8
BEGU_LW600_A15_DECKEL_new_v_BL6
  6
Continuous
 62
     2
100
AcDbLine
 10
583.9576171661
 20
1105.5392129747
 30
0.0
 11
591.8610056493998
 21
1113.442601458
 31
0.0
  0
LINE
  5
7BB
330
763
100
AcDbEntity
  8
BEGU_LW600_A15_DECKEL_new_v_BL6
  6
Continuous
 62
     7
100
AcDbLine
 10
-11.2101014597
 20
1155.5392129747
 30
0.0
 11
-10.2060458052
 21
1149.5392129747
 31
0.0
  0
LINE
  5
7BC
330
763
100
AcDbEntity
  8
BEGU_LW600_A15_DECKEL_new_v_BL6
  6
Continuous
 62
     7
100
AcDbLine
 10
515.7898985403
 20
1155.5392129747
 30
0.0
 11
515.7898985403
 21
1146.5392129747
 31
0.0
  0
LINE
  5
7BD
330
763
100
AcDbEntity
  8
BEGU_LW600_A15_DECKEL_new_v_BL6
  6
Continuous
 62
     7
100
AcDbLine
 10
618.7898985402997
 20
1155.5392129747
 30
0.0
 11
617.7858428858
 21
1149.5392129747
 31
0.0
  0
LINE
  5
7BE
330
763
100
AcDbEntity
  8
BEGU_LW600_A15_DECKEL_new_v_BL6
  6
Continuous
 62
     7
100
AcDbLine
 10
569.7898985402997
 20
1149.5392129747
 30
0.0
 11
569.7898985402997
 21
1155.5392129747
 31
0.0
  0
LINE
  5
7BF
330
763
100
AcDbEntity
  8
BEGU_LW600_A15_DECKEL_new_v_BL6
  6
Continuous
 62
     7
100
AcDbLine
 10
592.0081252187999
 20
1112.8920355148
 30
0.0
 11
591.7898985403
 21
1105.5392129747
 31
0.0
  0
LINE
  5
7C0
330
763
100
AcDbEntity
  8
BEGU_LW600_A15_DECKEL_new_v_BL6
  6
Continuous
 62
     7
100
AcDbLine
 10
591.7898985403
 20
1105.5392129747
 30
0.0
 11
15.7898985403
 21
1105.5392129747
 31
0.0
  0
LINE
  5
7C1
330
763
100
AcDbEntity
  8
BEGU_LW600_A15_DECKEL_new_v_BL6
  6
Continuous
 62
     7
100
AcDbLine
 10
617.7858428858
 20
1149.5392129747
 30
0.0
 11
569.7898985402997
 21
1149.5392129747
 31
0.0
  0
LINE
  5
7C2
330
763
100
AcDbEntity
  8
BEGU_LW600_A15_DECKEL_new_v_BL6
  6
Continuous
 62
     7
100
AcDbLine
 10
37.7898985403
 20
1149.5392129747
 30
0.0
 11
-10.2060458052
 21
1149.5392129747
 31
0.0
  0
LINE
  5
7C3
330
763
100
AcDbEntity
  8
BEGU_LW600_A15_DECKEL_new_v_BL6
  6
Continuous
 62
     7
100
AcDbLine
 10
618.7898985402997
 20
1155.5392129747
 30
0.0
 11
569.7898985402997
 21
1155.5392129747
 31
0.0
  0
LINE
  5
7C4
330
763
100
AcDbEntity
  8
BEGU_LW600_A15_DECKEL_new_v_BL6
  6
Continuous
 62
     7
100
AcDbLine
 10
515.7898985403
 20
1155.5392129747
 30
0.0
 11
91.7898985403
 21
1155.5392129747
 31
0.0
  0
LINE
  5
7C5
330
763
100
AcDbEntity
  8
BEGU_LW600_A15_DECKEL_new_v_BL6
  6
Continuous
 62
     7
100
AcDbLine
 10
37.7898985403
 20
1155.5392129747
 30
0.0
 11
-11.2101014597
 21
1155.5392129747
 31
0.0
  0
ARC
  5
7C6
330
763
100
AcDbEntity
  8
BEGU_LW600_A15_DECKEL_new_v_BL6
  6
Continuous
 62
     7
100
AcDbCircle
 10
31.3805974722
 20
1216.5392129747
 30
0.0
 40
104.0
100
AcDbArc
 50
263.4881325855
 51
296.1769521717
  0
ARC
  5
7C7
330
763
100
AcDbEntity
  8
BEGU_LW600_A15_DECKEL_new_v_BL6
  6
Continuous
 62
     7
100
AcDbCircle
 10
65.7898985403
 20
1146.5392129747
 30
0.0
 40
26.0
100
AcDbArc
 50
296.1769521717
 51
360.0
  0
ARC
  5
7C8
330
763
100
AcDbEntity
  8
BEGU_LW600_A15_DECKEL_new_v_BL6
  6
Continuous
 62
     7
100
AcDbCircle
 10
20.8335599734
 20
1124.1392129747
 30
0.0
 40
11.0
100
AcDbArc
 50
249.1946640583
 51
263.4881325855
  0
ARC
  5
7C9
330
763
100
AcDbEntity
  8
BEGU_LW600_A15_DECKEL_new_v_BL6
  6
Continuous
 62
     7
100
AcDbCircle
 10
16.571231722
 20
1112.9217017589
 30
0.0
 40
1.0
100
AcDbArc
 50
69.1946640583
 51
181.7
  0
ARC
  5
7CA
330
763
100
AcDbEntity
  8
BEGU_LW600_A15_DECKEL_new_v_BL6
  6
Continuous
 62
     7
100
AcDbCircle
 10
576.1991996084999
 20
1216.5392129747
 30
0.0
 40
104.0
100
AcDbArc
 50
243.8230478283
 51
276.5118674145
  0
ARC
  5
7CB
330
763
100
AcDbEntity
  8
BEGU_LW600_A15_DECKEL_new_v_BL6
  6
Continuous
 62
     7
100
AcDbCircle
 10
541.7898985403
 20
1146.5392129747
 30
0.0
 40
26.0
100
AcDbArc
 50
180.0
 51
243.8230478283
  0
ARC
  5
7CC
330
763
100
AcDbEntity
  8
BEGU_LW600_A15_DECKEL_new_v_BL6
  6
Continuous
 62
     7
100
AcDbCircle
 10
586.7462371072
 20
1124.1392129747
 30
0.0
 40
11.0
100
AcDbArc
 50
276.5118674145
 51
290.8053359417
  0
ARC
  5
7CD
330
763
100
AcDbEntity
  8
BEGU_LW600_A15_DECKEL_new_v_BL6
  6
Continuous
 62
     7
100
AcDbCircle
 10
591.0085653587
 20
1112.9217017589
 30
0.0
 40
1.0
100
AcDbArc
 50
358.3
 51
110.8053359417
  0
ENDBLK
  5
7CE
330
763
100
AcDbEntity
  8
0
  6
ByBlock
 62
     0
100
AcDbBlockEnd
  0
BLOCK
  5
7D0
330
7CF
100
AcDbEntity
  8
BEGU_LW600_A15_INNEN_new_v_BL11
100
AcDbBlockBegin
  2
BEGU_LW600_A15_INNEN_NEW_V_BL11
 70
     0
 10
303.7898985403
 20
1138.0392129747
 30
0.0
  3
BEGU_LW600_A15_INNEN_NEW_V_BL11
  1

  0
LINE
  5
7D1
330
7CF
100
AcDbEntity
  8
BEGU_LW600_A15_INNEN_new_v_BL11
  6
Continuous
 62
     7
100
AcDbLine
 10
-4.9346468857
 20
1129.735159119
 30
0.0
 11
-5.4517480308
 21
1127.1473206862
 31
0.0
  0
LINE
  5
7D2
330
7CF
100
AcDbEntity
  8
BEGU_LW600_A15_INNEN_new_v_BL11
  6
Continuous
 62
     7
100
AcDbLine
 10
-23.7101014597
 20
1155.5392129747
 30
0.0
 11
-22.7324629378
 21
1120.5392129747
 31
0.0
  0
LINE
  5
7D3
330
7CF
100
AcDbEntity
  8
BEGU_LW600_A15_INNEN_new_v_BL11
  6
Continuous
 62
     7
100
AcDbLine
 10
-18.7081512745
 20
1155.5392129747
 30
0.0
 11
-17.924480613
 21
1127.4833696973
 31
0.0
  0
LINE
  5
7D4
330
7CF
100
AcDbEntity
  8
BEGU_LW600_A15_INNEN_new_v_BL11
  6
Continuous
 62
     7
100
AcDbLine
 10
3.789898540299998
 20
1129.5392129747
 30
0.0
 11
3.789898540299998
 21
1120.5392129747
 31
0.0
  0
LINE
  5
7D5
330
7CF
100
AcDbEntity
  8
BEGU_LW600_A15_INNEN_new_v_BL11
  6
Continuous
 62
     2
100
AcDbLine
 10
-22.45019075510001
 20
1120.5392129747
 30
0.0
 11
-22.7405740785
 21
1120.8295962981
 31
0.0
  0
LINE
  5
7D6
330
7CF
100
AcDbEntity
  8
BEGU_LW600_A15_INNEN_new_v_BL11
  6
Continuous
 62
     2
100
AcDbLine
 10
-20.3288704115
 20
1120.5392129747
 30
0.0
 11
-22.8015305904
 21
1123.0118731536
 31
0.0
  0
LINE
  5
7D7
330
7CF
100
AcDbEntity
  8
BEGU_LW600_A15_INNEN_new_v_BL11
  6
Continuous
 62
     2
100
AcDbLine
 10
-18.207550068
 20
1120.5392129747
 30
0.0
 11
-22.8624871024
 21
1125.1941500092
 31
0.0
  0
LINE
  5
7D8
330
7CF
100
AcDbEntity
  8
BEGU_LW600_A15_INNEN_new_v_BL11
  6
Continuous
 62
     2
100
AcDbLine
 10
-16.0862297244
 20
1120.5392129747
 30
0.0
 11
-22.9234436144
 21
1127.3764268647
 31
0.0
  0
LINE
  5
7D9
330
7CF
100
AcDbEntity
  8
BEGU_LW600_A15_INNEN_new_v_BL11
  6
Continuous
 62
     2
100
AcDbLine
 10
-13.9649093808
 20
1120.5392129747
 30
0.0
 11
-22.9844001264
 21
1129.5587037202
 31
0.0
  0
LINE
  5
7DA
330
7CF
100
AcDbEntity
  8
BEGU_LW600_A15_INNEN_new_v_BL11
  6
Continuous
 62
     2
100
AcDbLine
 10
-11.8435890373
 20
1120.5392129747
 30
0.0
 11
-23.0453566384
 21
1131.7409805758
 31
0.0
  0
LINE
  5
7DB
330
7CF
100
AcDbEntity
  8
BEGU_LW600_A15_INNEN_new_v_BL11
  6
Continuous
 62
     2
100
AcDbLine
 10
-9.7222686937
 20
1120.5392129747
 30
0.0
 11
-14.7222686937
 21
1125.5392129747
 31
0.0
  0
LINE
  5
7DC
330
7CF
100
AcDbEntity
  8
BEGU_LW600_A15_INNEN_new_v_BL11
  6
Continuous
 62
     2
100
AcDbLine
 10
-17.9606310497
 20
1128.7775753307
 30
0.0
 11
-23.10631315030001
 21
1133.9232574313
 31
0.0
  0
LINE
  5
7DD
330
7CF
100
AcDbEntity
  8
BEGU_LW600_A15_INNEN_new_v_BL11
  6
Continuous
 62
     2
100
AcDbLine
 10
-7.600948350199997
 20
1120.5392129747
 30
0.0
 11
-12.6009483502
 21
1125.5392129747
 31
0.0
  0
LINE
  5
7DE
330
7CF
100
AcDbEntity
  8
BEGU_LW600_A15_INNEN_new_v_BL11
  6
Continuous
 62
     2
100
AcDbLine
 10
-18.0215875617
 20
1130.9598521862
 30
0.0
 11
-23.1672696623
 21
1136.1055342869
 31
0.0
  0
LINE
  5
7DF
330
7CF
100
AcDbEntity
  8
BEGU_LW600_A15_INNEN_new_v_BL11
  6
Continuous
 62
     2
100
AcDbLine
 10
-5.479628006599998
 20
1120.5392129747
 30
0.0
 11
-10.4796280066
 21
1125.5392129747
 31
0.0
  0
LINE
  5
7E0
330
7CF
100
AcDbEntity
  8
BEGU_LW600_A15_INNEN_new_v_BL11
  6
Continuous
 62
     2
100
AcDbLine
 10
-18.0825440737
 20
1133.1421290418
 30
0.0
 11
-23.2282261743
 21
1138.2878111424
 31
0.0
  0
LINE
  5
7E1
330
7CF
100
AcDbEntity
  8
BEGU_LW600_A15_INNEN_new_v_BL11
  6
Continuous
 62
     2
100
AcDbLine
 10
-3.358307663
 20
1120.5392129747
 30
0.0
 11
-8.358307662999999
 21
1125.5392129747
 31
0.0
  0
LINE
  5
7E2
330
7CF
100
AcDbEntity
  8
BEGU_LW600_A15_INNEN_new_v_BL11
  6
Continuous
 62
     2
100
AcDbLine
 10
-18.1435005856
 20
1135.3244058973
 30
0.0
 11
-23.2891826863
 21
1140.470087998
 31
0.0
  0
LINE
  5
7E3
330
7CF
100
AcDbEntity
  8
BEGU_LW600_A15_INNEN_new_v_BL11
  6
Continuous
 62
     2
100
AcDbLine
 10
-1.2369873195
 20
1120.5392129747
 30
0.0
 11
-6.473167350199997
 21
1125.7753930054
 31
0.0
  0
LINE
  5
7E4
330
7CF
100
AcDbEntity
  8
BEGU_LW600_A15_INNEN_new_v_BL11
  6
Continuous
 62
     2
100
AcDbLine
 10
-18.2044570976
 20
1137.5066827528
 30
0.0
 11
-23.3501391983
 21
1142.6523648535
 31
0.0
  0
LINE
  5
7E5
330
7CF
100
AcDbEntity
  8
BEGU_LW600_A15_INNEN_new_v_BL11
  6
Continuous
 62
     2
100
AcDbLine
 10
0.8843330240999998
 20
1120.5392129747
 30
0.0
 11
-5.508795567399999
 21
1126.9323415662
 31
0.0
  0
LINE
  5
7E6
330
7CF
100
AcDbEntity
  8
BEGU_LW600_A15_INNEN_new_v_BL11
  6
Continuous
 62
     2
100
AcDbLine
 10
-18.2654136096
 20
1139.6889596084
 30
0.0
 11
-23.4110957103
 21
1144.834641709
 31
0.0
  0
LINE
  5
7E7
330
7CF
100
AcDbEntity
  8
BEGU_LW600_A15_INNEN_new_v_BL11
  6
Continuous
 62
     2
100
AcDbLine
 10
3.005653367599998
 20
1120.5392129747
 30
0.0
 11
-5.1437639754
 21
1128.6886303177
 31
0.0
  0
LINE
  5
7E8
330
7CF
100
AcDbEntity
  8
BEGU_LW600_A15_INNEN_new_v_BL11
  6
Continuous
 62
     2
100
AcDbLine
 10
-18.3263701216
 20
1141.8712364639
 30
0.0
 11
-23.4720522222
 21
1147.0169185646
 31
0.0
  0
LINE
  5
7E9
330
7CF
100
AcDbEntity
  8
BEGU_LW600_A15_INNEN_new_v_BL11
  6
Continuous
 62
     2
100
AcDbLine
 10
3.789898540299998
 20
1121.8762881456
 30
0.0
 11
-4.618816782499997
 21
1130.2850034684
 31
0.0
  0
LINE
  5
7EA
330
7CF
100
AcDbEntity
  8
BEGU_LW600_A15_INNEN_new_v_BL11
  6
Continuous
 62
     2
100
AcDbLine
 10
-18.3873266336
 20
1144.0535133195
 30
0.0
 11
-23.5330087342
 21
1149.199195420099
 31
0.0
  0
LINE
  5
7EB
330
7CF
100
AcDbEntity
  8
BEGU_LW600_A15_INNEN_new_v_BL11
  6
Continuous
 62
     2
100
AcDbLine
 10
3.789898540299998
 20
1123.9976084891
 30
0.0
 11
-2.751705945199999
 21
1130.5392129747
 31
0.0
  0
LINE
  5
7EC
330
7CF
100
AcDbEntity
  8
BEGU_LW600_A15_INNEN_new_v_BL11
  6
Continuous
 62
     2
100
AcDbLine
 10
-18.4482831455
 20
1146.235790175
 30
0.0
 11
-23.5939652462
 21
1151.3814722757
 31
0.0
  0
LINE
  5
7ED
330
7CF
100
AcDbEntity
  8
BEGU_LW600_A15_INNEN_new_v_BL11
  6
Continuous
 62
     2
100
AcDbLine
 10
3.789898540299998
 20
1126.1189288327
 30
0.0
 11
-0.6303856017000001
 21
1130.5392129747
 31
0.0
  0
LINE
  5
7EE
330
7CF
100
AcDbEntity
  8
BEGU_LW600_A15_INNEN_new_v_BL11
  6
Continuous
 62
     2
100
AcDbLine
 10
-18.5092396575
 20
1148.4180670306
 30
0.0
 11
-23.6549217582
 21
1153.5637491312
 31
0.0
  0
LINE
  5
7EF
330
7CF
100
AcDbEntity
  8
BEGU_LW600_A15_INNEN_new_v_BL11
  6
Continuous
 62
     2
100
AcDbLine
 10
3.789898540299998
 20
1128.2402491763
 30
0.0
 11
1.4909347419
 21
1130.5392129747
 31
0.0
  0
LINE
  5
7F0
330
7CF
100
AcDbEntity
  8
BEGU_LW600_A15_INNEN_new_v_BL11
  6
Continuous
 62
     2
100
AcDbLine
 10
-18.5701961695
 20
1150.6003438861
 30
0.0
 11
-23.5090652581
 21
1155.5392129747
 31
0.0
  0
LINE
  5
7F1
330
7CF
100
AcDbEntity
  8
BEGU_LW600_A15_INNEN_new_v_BL11
  6
Continuous
 62
     2
100
AcDbLine
 10
-18.6311526815
 20
1152.7826207416
 30
0.0
 11
-21.3877449146
 21
1155.5392129747
 31
0.0
  0
LINE
  5
7F2
330
7CF
100
AcDbEntity
  8
BEGU_LW600_A15_INNEN_new_v_BL11
  6
Continuous
 62
     2
100
AcDbLine
 10
-18.6921091935
 20
1154.9648975972
 30
0.0
 11
-19.26642457099999
 21
1155.5392129747
 31
0.0
  0
LINE
  5
7F3
330
7CF
100
AcDbEntity
  8
BEGU_LW600_A15_INNEN_new_v_BL11
  6
Continuous
 62
     7
100
AcDbLine
 10
603.7898985403
 20
1129.5392129747
 30
0.0
 11
603.7898985403
 21
1120.5392129747
 31
0.0
  0
LINE
  5
7F4
330
7CF
100
AcDbEntity
  8
BEGU_LW600_A15_INNEN_new_v_BL11
  6
Continuous
 62
     7
100
AcDbLine
 10
626.2879483552
 20
1155.5392129747
 30
0.0
 11
625.5042776937
 21
1127.4833696973
 31
0.0
  0
LINE
  5
7F5
330
7CF
100
AcDbEntity
  8
BEGU_LW600_A15_INNEN_new_v_BL11
  6
Continuous
 62
     7
100
AcDbLine
 10
631.2898985402997
 20
1155.5392129747
 30
0.0
 11
630.3122600183999
 21
1120.5392129747
 31
0.0
  0
LINE
  5
7F6
330
7CF
100
AcDbEntity
  8
BEGU_LW600_A15_INNEN_new_v_BL11
  6
Continuous
 62
     7
100
AcDbLine
 10
612.5144439664
 20
1129.735159119
 30
0.0
 11
613.0315451114999
 21
1127.1473206862
 31
0.0
  0
LINE
  5
7F7
330
7CF
100
AcDbEntity
  8
BEGU_LW600_A15_INNEN_new_v_BL11
  6
Continuous
 62
     7
100
AcDbLine
 10
630.3122600183999
 20
1120.5392129747
 30
0.0
 11
597.2372898157
 21
1120.5392129747
 31
0.0
  0
LINE
  5
7F8
330
7CF
100
AcDbEntity
  8
BEGU_LW600_A15_INNEN_new_v_BL11
  6
Continuous
 62
     7
100
AcDbLine
 10
10.3425072649
 20
1120.5392129747
 30
0.0
 11
-22.7324629378
 21
1120.5392129747
 31
0.0
  0
LINE
  5
7F9
330
7CF
100
AcDbEntity
  8
BEGU_LW600_A15_INNEN_new_v_BL11
  6
Continuous
 62
     7
100
AcDbLine
 10
623.5050574636
 20
1125.5392129747
 30
0.0
 11
614.9927744285998
 21
1125.5392129747
 31
0.0
  0
LINE
  5
7FA
330
7CF
100
AcDbEntity
  8
BEGU_LW600_A15_INNEN_new_v_BL11
  6
Continuous
 62
     7
100
AcDbLine
 10
-7.412977347899999
 20
1125.5392129747
 30
0.0
 11
-15.925260383
 21
1125.5392129747
 31
0.0
  0
LINE
  5
7FB
330
7CF
100
AcDbEntity
  8
BEGU_LW600_A15_INNEN_new_v_BL11
  6
Continuous
 62
     9
100
AcDbLine
 10
625.5042776937
 20
1127.4833696973
 30
0.0
 11
619.1644860189
 21
1127.4833696973
 31
0.0
  0
LINE
  5
7FC
330
7CF
100
AcDbEntity
  8
BEGU_LW600_A15_INNEN_new_v_BL11
  6
Continuous
 62
     9
100
AcDbLine
 10
-11.5846889383
 20
1127.4833696973
 30
0.0
 11
-17.924480613
 21
1127.4833696973
 31
0.0
  0
LINE
  5
7FD
330
7CF
100
AcDbEntity
  8
BEGU_LW600_A15_INNEN_new_v_BL11
  6
Continuous
 62
     9
100
AcDbLine
 10
603.7898985403
 20
1129.5392129747
 30
0.0
 11
597.5044035798998
 21
1129.5392129747
 31
0.0
  0
LINE
  5
7FE
330
7CF
100
AcDbEntity
  8
BEGU_LW600_A15_INNEN_new_v_BL11
  6
Continuous
 62
     9
100
AcDbLine
 10
10.0753935007
 20
1129.5392129747
 30
0.0
 11
3.789898540299998
 21
1129.5392129747
 31
0.0
  0
LINE
  5
7FF
330
7CF
100
AcDbEntity
  8
BEGU_LW600_A15_INNEN_new_v_BL11
  6
Continuous
 62
     7
100
AcDbLine
 10
611.5338293078
 20
1130.5392129747
 30
0.0
 11
597.5340828871
 21
1130.5392129747
 31
0.0
  0
LINE
  5
800
330
7CF
100
AcDbEntity
  8
BEGU_LW600_A15_INNEN_new_v_BL11
  6
Continuous
 62
     7
100
AcDbLine
 10
10.0457141936
 20
1130.5392129747
 30
0.0
 11
-3.9540322272
 21
1130.5392129747
 31
0.0
  0
LINE
  5
801
330
7CF
100
AcDbEntity
  8
BEGU_LW600_A15_INNEN_new_v_BL11
  6
Continuous
 62
     7
100
AcDbLine
 10
-16.2796269523
 20
1155.5392129747
 30
0.0
 11
-23.7101014597
 21
1155.5392129747
 31
0.0
  0
LINE
  5
802
330
7CF
100
AcDbEntity
  8
BEGU_LW600_A15_INNEN_new_v_BL11
  6
Continuous
 62
     7
100
AcDbLine
 10
623.8594240329
 20
1155.5392129747
 30
0.0
 11
631.2898985402997
 21
1155.5392129747
 31
0.0
  0
LINE
  5
803
330
7CF
100
AcDbEntity
  8
BEGU_LW600_A15_INNEN_new_v_BL11
  6
Continuous
 62
     2
100
AcDbLine
 10
605.4606309386
 20
1120.5392129747
 30
0.0
 11
603.7898985403
 21
1122.209945373
 31
0.0
  0
LINE
  5
804
330
7CF
100
AcDbEntity
  8
BEGU_LW600_A15_INNEN_new_v_BL11
  6
Continuous
 62
     2
100
AcDbLine
 10
607.5819512820998
 20
1120.5392129747
 30
0.0
 11
603.7898985403
 21
1124.3312657165
 31
0.0
  0
LINE
  5
805
330
7CF
100
AcDbEntity
  8
BEGU_LW600_A15_INNEN_new_v_BL11
  6
Continuous
 62
     2
100
AcDbLine
 10
609.7032716257
 20
1120.5392129747
 30
0.0
 11
603.7898985403
 21
1126.4525860601
 31
0.0
  0
LINE
  5
806
330
7CF
100
AcDbEntity
  8
BEGU_LW600_A15_INNEN_new_v_BL11
  6
Continuous
 62
     2
100
AcDbLine
 10
611.8245919693
 20
1120.5392129747
 30
0.0
 11
603.7898985403
 21
1128.5739064036
 31
0.0
  0
LINE
  5
807
330
7CF
100
AcDbEntity
  8
BEGU_LW600_A15_INNEN_new_v_BL11
  6
Continuous
 62
     2
100
AcDbLine
 10
613.9459123128
 20
1120.5392129747
 30
0.0
 11
604.1656498061
 21
1130.3194754814
 31
0.0
  0
LINE
  5
808
330
7CF
100
AcDbEntity
  8
BEGU_LW600_A15_INNEN_new_v_BL11
  6
Continuous
 62
     2
100
AcDbLine
 10
616.0672326563997
 20
1120.5392129747
 30
0.0
 11
606.0672326563997
 21
1130.5392129747
 31
0.0
  0
LINE
  5
809
330
7CF
100
AcDbEntity
  8
BEGU_LW600_A15_INNEN_new_v_BL11
  6
Continuous
 62
     2
100
AcDbLine
 10
618.1885529999
 20
1120.5392129747
 30
0.0
 11
608.1885529999
 21
1130.5392129747
 31
0.0
  0
LINE
  5
80A
330
7CF
100
AcDbEntity
  8
BEGU_LW600_A15_INNEN_new_v_BL11
  6
Continuous
 62
     2
100
AcDbLine
 10
620.3098733434999
 20
1120.5392129747
 30
0.0
 11
615.3098733434999
 21
1125.5392129747
 31
0.0
  0
LINE
  5
80B
330
7CF
100
AcDbEntity
  8
BEGU_LW600_A15_INNEN_new_v_BL11
  6
Continuous
 62
     2
100
AcDbLine
 10
612.8641787338997
 20
1127.9849075843
 30
0.0
 11
610.3098733434999
 21
1130.5392129747
 31
0.0
  0
LINE
  5
80C
330
7CF
100
AcDbEntity
  8
BEGU_LW600_A15_INNEN_new_v_BL11
  6
Continuous
 62
     2
100
AcDbLine
 10
622.431193687
 20
1120.5392129747
 30
0.0
 11
617.431193687
 21
1125.5392129747
 31
0.0
  0
LINE
  5
80D
330
7CF
100
AcDbEntity
  8
BEGU_LW600_A15_INNEN_new_v_BL11
  6
Continuous
 62
     2
100
AcDbLine
 10
624.5525140305999
 20
1120.5392129747
 30
0.0
 11
619.5525140305999
 21
1125.5392129747
 31
0.0
  0
LINE
  5
80E
330
7CF
100
AcDbEntity
  8
BEGU_LW600_A15_INNEN_new_v_BL11
  6
Continuous
 62
     2
100
AcDbLine
 10
626.6738343741999
 20
1120.5392129747
 30
0.0
 11
621.6738343741999
 21
1125.5392129747
 31
0.0
  0
LINE
  5
80F
330
7CF
100
AcDbEntity
  8
BEGU_LW600_A15_INNEN_new_v_BL11
  6
Continuous
 62
     2
100
AcDbLine
 10
628.7951547176999
 20
1120.5392129747
 30
0.0
 11
623.7756660401998
 21
1125.5587016523
 31
0.0
  0
LINE
  5
810
330
7CF
100
AcDbEntity
  8
BEGU_LW600_A15_INNEN_new_v_BL11
  6
Continuous
 62
     2
100
AcDbLine
 10
630.3286786585998
 20
1121.1270093774
 30
0.0
 11
625.1096471641999
 21
1126.3460408718
 31
0.0
  0
LINE
  5
811
330
7CF
100
AcDbEntity
  8
BEGU_LW600_A15_INNEN_new_v_BL11
  6
Continuous
 62
     2
100
AcDbLine
 10
630.3863223665
 20
1123.1906860131
 30
0.0
 11
625.5202926972
 21
1128.0567156824
 31
0.0
  0
LINE
  5
812
330
7CF
100
AcDbEntity
  8
BEGU_LW600_A15_INNEN_new_v_BL11
  6
Continuous
 62
     2
100
AcDbLine
 10
630.4439660744
 20
1125.2543626487
 30
0.0
 11
625.5779364049997
 21
1130.1203923181
 31
0.0
  0
LINE
  5
813
330
7CF
100
AcDbEntity
  8
BEGU_LW600_A15_INNEN_new_v_BL11
  6
Continuous
 62
     2
100
AcDbLine
 10
630.5016097823
 20
1127.3180392844
 30
0.0
 11
625.6355801129
 21
1132.1840689538
 31
0.0
  0
LINE
  5
814
330
7CF
100
AcDbEntity
  8
BEGU_LW600_A15_INNEN_new_v_BL11
  6
Continuous
 62
     2
100
AcDbLine
 10
630.5592534900998
 20
1129.3817159201
 30
0.0
 11
625.6932238207999
 21
1134.2477455894
 31
0.0
  0
LINE
  5
815
330
7CF
100
AcDbEntity
  8
BEGU_LW600_A15_INNEN_new_v_BL11
  6
Continuous
 62
     2
100
AcDbLine
 10
630.616897198
 20
1131.4453925558
 30
0.0
 11
625.7508675287
 21
1136.3114222251
 31
0.0
  0
LINE
  5
816
330
7CF
100
AcDbEntity
  8
BEGU_LW600_A15_INNEN_new_v_BL11
  6
Continuous
 62
     2
100
AcDbLine
 10
630.6745409059
 20
1133.5090691915
 30
0.0
 11
625.8085112366
 21
1138.3750988608
 31
0.0
  0
LINE
  5
817
330
7CF
100
AcDbEntity
  8
BEGU_LW600_A15_INNEN_new_v_BL11
  6
Continuous
 62
     2
100
AcDbLine
 10
630.7321846137997
 20
1135.5727458271
 30
0.0
 11
625.8661549444
 21
1140.4387754965
 31
0.0
  0
LINE
  5
818
330
7CF
100
AcDbEntity
  8
BEGU_LW600_A15_INNEN_new_v_BL11
  6
Continuous
 62
     2
100
AcDbLine
 10
630.7898283215997
 20
1137.6364224628
 30
0.0
 11
625.9237986522999
 21
1142.5024521322
 31
0.0
  0
LINE
  5
819
330
7CF
100
AcDbEntity
  8
BEGU_LW600_A15_INNEN_new_v_BL11
  6
Continuous
 62
     2
100
AcDbLine
 10
630.8474720295
 20
1139.7000990985
 30
0.0
 11
625.9814423601999
 21
1144.5661287678
 31
0.0
  0
LINE
  5
81A
330
7CF
100
AcDbEntity
  8
BEGU_LW600_A15_INNEN_new_v_BL11
  6
Continuous
 62
     2
100
AcDbLine
 10
630.9051157374
 20
1141.7637757342
 30
0.0
 11
626.0390860681
 21
1146.6298054035
 31
0.0
  0
LINE
  5
81B
330
7CF
100
AcDbEntity
  8
BEGU_LW600_A15_INNEN_new_v_BL11
  6
Continuous
 62
     2
100
AcDbLine
 10
630.9627594452997
 20
1143.8274523699
 30
0.0
 11
626.0967297758999
 21
1148.6934820392
 31
0.0
  0
LINE
  5
81C
330
7CF
100
AcDbEntity
  8
BEGU_LW600_A15_INNEN_new_v_BL11
  6
Continuous
 62
     2
100
AcDbLine
 10
631.0204031532
 20
1145.8911290055
 30
0.0
 11
626.1543734837998
 21
1150.7571586749
 31
0.0
  0
LINE
  5
81D
330
7CF
100
AcDbEntity
  8
BEGU_LW600_A15_INNEN_new_v_BL11
  6
Continuous
 62
     2
100
AcDbLine
 10
631.0780468609999
 20
1147.9548056412
 30
0.0
 11
626.2120171916999
 21
1152.8208353106
 31
0.0
  0
LINE
  5
81E
330
7CF
100
AcDbEntity
  8
BEGU_LW600_A15_INNEN_new_v_BL11
  6
Continuous
 62
     2
100
AcDbLine
 10
631.1356905689
 20
1150.0184822769
 30
0.0
 11
626.2696608996
 21
1154.8845119462
 31
0.0
  0
LINE
  5
81F
330
7CF
100
AcDbEntity
  8
BEGU_LW600_A15_INNEN_new_v_BL11
  6
Continuous
 62
     2
100
AcDbLine
 10
631.1933342768
 20
1152.0821589126
 30
0.0
 11
627.7362802147
 21
1155.5392129747
 31
0.0
  0
LINE
  5
820
330
7CF
100
AcDbEntity
  8
BEGU_LW600_A15_INNEN_new_v_BL11
  6
Continuous
 62
     2
100
AcDbLine
 10
631.2509779847
 20
1154.1458355483
 30
0.0
 11
629.8576005582
 21
1155.5392129747
 31
0.0
  0
ARC
  5
821
330
7CF
100
AcDbEntity
  8
BEGU_LW600_A15_INNEN_new_v_BL11
  6
Continuous
 62
     7
100
AcDbCircle
 10
-7.412977347899999
 20
1127.5392129747
 30
0.0
 40
2.0
100
AcDbArc
 50
270.0
 51
348.7
  0
ARC
  5
822
330
7CF
100
AcDbEntity
  8
BEGU_LW600_A15_INNEN_new_v_BL11
  6
Continuous
 62
     7
100
AcDbCircle
 10
-15.925260383
 20
1127.5392129747
 30
0.0
 40
2.0
100
AcDbArc
 50
181.6
 51
270.0
  0
ARC
  5
823
330
7CF
100
AcDbEntity
  8
BEGU_LW600_A15_INNEN_new_v_BL11
  6
Continuous
 62
     7
100
AcDbCircle
 10
-3.9540322272
 20
1129.5392129747
 30
0.0
 40
1.0
100
AcDbArc
 50
90.0
 51
168.7
  0
ARC
  5
824
330
7CF
100
AcDbEntity
  8
BEGU_LW600_A15_INNEN_new_v_BL11
  6
Continuous
 62
     7
100
AcDbCircle
 10
2.789898540299998
 20
1129.5392129747
 30
0.0
 40
1.0
100
AcDbArc
 50
0.0
 51
90.0
  0
ARC
  5
825
330
7CF
100
AcDbEntity
  8
BEGU_LW600_A15_INNEN_new_v_BL11
  6
Continuous
 62
     7
100
AcDbCircle
 10
614.9927744285998
 20
1127.5392129747
 30
0.0
 40
2.0
100
AcDbArc
 50
191.3
 51
270.0
  0
ARC
  5
826
330
7CF
100
AcDbEntity
  8
BEGU_LW600_A15_INNEN_new_v_BL11
  6
Continuous
 62
     7
100
AcDbCircle
 10
623.5050574636
 20
1127.5392129747
 30
0.0
 40
2.0
100
AcDbArc
 50
270.0
 51
358.4
  0
ARC
  5
827
330
7CF
100
AcDbEntity
  8
BEGU_LW600_A15_INNEN_new_v_BL11
  6
Continuous
 62
     7
100
AcDbCircle
 10
611.5338293078
 20
1129.5392129747
 30
0.0
 40
1.0
100
AcDbArc
 50
11.3
 51
90.0
  0
ARC
  5
828
330
7CF
100
AcDbEntity
  8
BEGU_LW600_A15_INNEN_new_v_BL11
  6
Continuous
 62
     7
100
AcDbCircle
 10
604.7898985403
 20
1129.5392129747
 30
0.0
 40
1.0
100
AcDbArc
 50
90.0
 51
180.0
  0
ENDBLK
  5
829
330
7CF
100
AcDbEntity
  8
0
  6
ByBlock
 62
     0
100
AcDbBlockEnd
  0
BLOCK
  5
82B
330
82A
100
AcDbEntity
  8
0
100
AcDbBlockBegin
  2
*D9
 70
     1
 10
0.0
 20
0.0
 30
0.0
  3
*D9
  1

  0
LINE
  5
82C
330
82A
100
AcDbEntity
  8
ZEICHNUNGSBEMASSUNGEN
  6
Continuous
 62
     0
440
 16777216
370
    -2
100
AcDbLine
 10
-198.7726014597
 20
465.5392129747
 30
0.0
 11
-257.9050961515438
 21
465.5392129747
 31
0.0
  0
LINE
  5
82D
330
82A
100
AcDbEntity
  8
ZEICHNUNGSBEMASSUNGEN
  6
Continuous
 62
     0
440
 16777216
370
    -2
100
AcDbLine
 10
-200.2726014597
 20
545.5392129746996
 30
0.0
 11
-257.9050961515438
 21
545.5392129746996
 31
0.0
  0
LINE
  5
82E
330
82A
100
AcDbEntity
  8
ZEICHNUNGSBEMASSUNGEN
  6
Continuous
 62
     0
440
 16777216
370
    -2
100
AcDbLine
 10
-257.7250961515438
 20
490.5392129747
 30
0.0
 11
-257.7250961515438
 21
520.5392129746996
 31
0.0
  0
INSERT
  5
82F
330
82A
100
AcDbEntity
  8
ZEICHNUNGSBEMASSUNGEN
  6
Continuous
 62
     0
440
 16777216
370
    -2
100
AcDbBlockReference
  2
_FILLED
 10
-257.7250961515438
 20
465.5392129747
 30
0.0
 41
25.0
 42
25.0
 43
25.0
 50
270.0
  0
INSERT
  5
830
330
82A
100
AcDbEntity
  8
ZEICHNUNGSBEMASSUNGEN
  6
Continuous
 62
     0
440
 16777216
370
    -2
100
AcDbBlockReference
  2
_FILLED
 10
-257.7250961515438
 20
545.5392129746996
 30
0.0
 41
25.0
 42
25.0
 43
25.0
 50
90.0
  0
MTEXT
  5
831
330
82A
100
AcDbEntity
  8
ZEICHNUNGSBEMASSUNGEN
  6
Continuous
 62
     5
440
 16777216
100
AcDbMText
 10
-275.6750961515438
 20
499.161639285426
 30
0.0
 40
35.0
 41
0.0
 46
0.0
 71
     5
 72
     1
  1
\A1;420
 11
0.0000000000000001
 21
1.0
 31
0.0
 73
     1
 44
1.0
  0
POINT
  5
832
330
82A
100
AcDbEntity
  8
Defpoints
  6
Continuous
 62
     0
440
 16777216
100
AcDbPoint
 10
-198.7101014597
 20
465.5392129747
 30
0.0
  0
POINT
  5
833
330
82A
100
AcDbEntity
  8
Defpoints
  6
Continuous
 62
     0
440
 16777216
100
AcDbPoint
 10
-200.2101014597
 20
545.5392129746996
 30
0.0
  0
POINT
  5
834
330
82A
100
AcDbEntity
  8
Defpoints
  6
Continuous
 62
     0
440
 16777216
100
AcDbPoint
 10
-257.7250961515438
 20
545.5392129746996
 30
0.0
  0
ENDBLK
  5
835
330
82A
100
AcDbEntity
  8
0
100
AcDbBlockEnd
  0
BLOCK
  5
854
330
853
100
AcDbEntity
  8
0
100
AcDbBlockBegin
  2
*D10
 70
     1
 10
0.0
 20
0.0
 30
0.0
  3
*D10
  1

  0
LINE
  5
85F
330
853
100
AcDbEntity
  8
ZEICHNUNGSBEMASSUNGEN
  6
Continuous
 62
     0
440
 16777216
370
    -2
100
AcDbLine
 10
94.40249319349243
 20
-0.0000004186498472
 30
0.0
 11
35.26999850164862
 21
-0.0000004186498305
 31
0.0
  0
LINE
  5
860
330
853
100
AcDbEntity
  8
ZEICHNUNGSBEMASSUNGEN
  6
Continuous
 62
     0
440
 16777216
370
    -2
100
AcDbLine
 10
92.90249319349243
 20
79.99999958134981
 30
0.0
 11
35.26999850164865
 21
79.99999958134981
 31
0.0
  0
LINE
  5
861
330
853
100
AcDbEntity
  8
ZEICHNUNGSBEMASSUNGEN
  6
Continuous
 62
     0
440
 16777216
370
    -2
100
AcDbLine
 10
35.44999850164863
 20
24.99999958135017
 30
0.0
 11
35.44999850164864
 21
54.99999958134981
 31
0.0
  0
INSERT
  5
862
330
853
100
AcDbEntity
  8
ZEICHNUNGSBEMASSUNGEN
  6
Continuous
 62
     0
440
 16777216
370
    -2
100
AcDbBlockReference
  2
_FILLED
 10
35.44999850164862
 20
-0.0000004186498305
 30
0.0
 41
25.0
 42
25.0
 43
25.0
 50
270.0
  0
INSERT
  5
863
330
853
100
AcDbEntity
  8
ZEICHNUNGSBEMASSUNGEN
  6
Continuous
 62
     0
440
 16777216
370
    -2
100
AcDbBlockReference
  2
_FILLED
 10
35.44999850164864
 20
79.99999958134981
 30
0.0
 41
25.0
 42
25.0
 43
25.0
 50
90.0
  0
MTEXT
  5
864
330
853
100
AcDbEntity
  8
ZEICHNUNGSBEMASSUNGEN
  6
Continuous
 62
     5
440
 16777216
100
AcDbMText
 10
17.49655361975886
 20
33.6224258920762
 30
0.0
 40
35.0
 41
0.0
 46
0.0
 71
     5
 72
     1
  1
\A1;420
 11
0.0000000000000001
 21
1.0
 31
0.0
 73
     1
 44
1.0
  0
POINT
  5
865
330
853
100
AcDbEntity
  8
Defpoints
  6
Continuous
 62
     0
440
 16777216
100
AcDbPoint
 10
94.46499319349243
 20
-0.0000004186498472
 30
0.0
  0
POINT
  5
866
330
853
100
AcDbEntity
  8
Defpoints
  6
Continuous
 62
     0
440
 16777216
100
AcDbPoint
 10
92.96499319349242
 20
79.99999958134981
 30
0.0
  0
POINT
  5
867
330
853
100
AcDbEntity
  8
Defpoints
  6
Continuous
 62
     0
440
 16777216
100
AcDbPoint
 10
35.44999850164864
 20
79.99999958134981
 30
0.0
  0
ENDBLK
  5
855
330
853
100
AcDbEntity
  8
0
100
AcDbBlockEnd
  0
BLOCK
  5
872
330
871
100
AcDbEntity
  8
0
100
AcDbBlockBegin
  2
*D11
 70
     1
 10
0.0
 20
0.0
 30
0.0
  3
*D11
  1

  0
LINE
  5
94F
330
871
100
AcDbEntity
  8
AM_5
440
 16777216
100
AcDbLine
 10
93.46499319349243
 20
-0.0000004186497332
 30
0.0
 11
81.46499319349238
 21
-0.0000004186497298
 31
0.0
  0
LINE
  5
950
330
871
100
AcDbEntity
  8
AM_5
440
 16777216
100
AcDbLine
 10
93.46499319349243
 20
79.99999958135027
 30
0.0
 11
81.4649931934924
 21
79.99999958135027
 31
0.0
  0
LINE
  5
951
330
871
100
AcDbEntity
  8
AM_5
440
 16777216
100
AcDbLine
 10
82.46499319349238
 20
2.49999958135027
 30
0.0
 11
82.4649931934924
 21
77.49999958135027
 31
0.0
  0
SOLID
  5
952
330
871
100
AcDbEntity
  8
AM_5
440
 16777216
100
AcDbTrace
 10
82.04832652682572
 20
2.49999958135027
 30
0.0
 11
82.88165986015906
 21
2.49999958135027
 31
0.0
 12
82.46499319349238
 22
-0.0000004186497301
 32
0.0
 13
82.46499319349238
 23
-0.0000004186497301
 33
0.0
  0
SOLID
  5
953
330
871
100
AcDbEntity
  8
AM_5
440
 16777216
100
AcDbTrace
 10
82.04832652682574
 20
77.49999958135027
 30
0.0
 11
82.88165986015908
 21
77.49999958135027
 31
0.0
 12
82.4649931934924
 22
79.99999958135027
 32
0.0
 13
82.4649931934924
 23
79.99999958135027
 33
0.0
  0
MTEXT
  5
954
330
871
100
AcDbEntity
  8
AM_5
 62
     2
440
 16777216
100
AcDbMText
 10
63.46499319349239
 20
39.99999958135028
 30
0.0
 40
35.0
 41
0.0
 46
0.0
 71
     5
 72
     1
  1
80
 11
0.0000000000000001
 21
1.0
 31
0.0
 73
     1
 44
1.0
  0
POINT
  5
955
330
871
100
AcDbEntity
  8
Defpoints
 62
     0
440
 16777216
100
AcDbPoint
 10
94.46499319349243
 20
-0.0000004186497335
 30
0.0
  0
POINT
  5
956
330
871
100
AcDbEntity
  8
Defpoints
 62
     0
440
 16777216
100
AcDbPoint
 10
94.46499319349243
 20
79.99999958135027
 30
0.0
  0
POINT
  5
957
330
871
100
AcDbEntity
  8
Defpoints
 62
     0
440
 16777216
100
AcDbPoint
 10
82.4649931934924
 20
79.99999958135027
 30
0.0
  0
ENDBLK
  5
873
330
871
100
AcDbEntity
  8
0
100
AcDbBlockEnd
  0
ENDSEC
  0
SECTION
  2
ENTITIES
  0
INSERT
  5
84F
102
{ACAD_REACTORS
330
87E
102
}
330
1F
100
AcDbEntity
  8
BEGU_LW600_A15_AUSSEN_new_v_BL1
100
AcDbBlockReference
  2
BEGU_LW600_A15_AUSSEN_NEW_V_BL1
 10
596.9649931934923
 20
39.99999958135015
 30
0.0
  0
INSERT
  5
850
330
1F
100
AcDbEntity
  8
BEGU_LW600_A15_DECKEL_AU_ne_BL5
100
AcDbBlockReference
  2
BEGU_LW600_A15_DECKEL_AU_NE_BL5
 10
596.9649931934923
 20
54.99999958135014
 30
0.0
  0
INSERT
  5
851
330
1F
100
AcDbEntity
  8
BEGU_LW600_A15_DECKEL_new_v_BL6
100
AcDbBlockReference
  2
BEGU_LW600_A15_DECKEL_NEW_V_BL6
 10
596.9649931934923
 20
54.99999958135014
 30
0.0
  0
INSERT
  5
852
330
1F
100
AcDbEntity
  8
BEGU_LW600_A15_INNEN_new_v_BL11
100
AcDbBlockReference
  2
BEGU_LW600_A15_INNEN_NEW_V_BL11
 10
596.9649931934923
 20
62.49999958135014
 30
0.0
  0
DIMENSION
  5
870
102
{ACAD_XDICTIONARY
360
87D
102
}
102
{ACAD_REACTORS
330
87E
102
}
330
1F
100
AcDbEntity
  8
AM_5
100
AcDbDimension
280
     0
  2
*D11
 10
82.4649931934924
 20
79.99999958135027
 30
0.0
 11
63.46499319349239
 21
39.99999958135028
 31
0.0
 70
    32
  1
<>
 71
     5
 42
80.0
 73
     0
 74
     0
 75
     0
  3
AM_DIN$0
100
AcDbAlignedDimension
 13
94.46499319349243
 23
-0.0000004186497335
 33
0.0
 14
94.46499319349243
 24
79.99999958135027
 34
0.0
 50
90.0
100
AcDbRotatedDimension
1001
ACAD_DSTYLE_DIMINSPECT
1070
   396
1000
100%
1070
   395
1000

1070
   394
1070
    33
1070
   393
1070
     0
1001
ACAD
1000
DSTYLE
1002
{
1070
   140
1040
35.0
1070
     3
1000

1002
}
  0
ENDSEC
  0
SECTION
  2
OBJECTS
  0
DICTIONARY
  5
C
330
0
100
AcDbDictionary
281
     1
  3
ACAD_CIP_PREVIOUS_PRODUCT_INFO
350
5FA
  3
ACAD_COLOR
350
BE
  3
ACAD_DETAILVIEWSTYLE
350
5EF
  3
ACAD_FIELDLIST
350
612
  3
ACAD_GROUP
350
D
  3
ACAD_LAYOUT
350
1A
  3
ACAD_MATERIAL
350
BD
  3
ACAD_MLEADERSTYLE
350
3EF
  3
ACAD_MLINESTYLE
350
17
  3
ACAD_PLOTSETTINGS
350
19
  3
ACAD_PLOTSTYLENAME
350
E
  3
ACAD_SCALELIST
350
3DD
  3
ACAD_SECTIONVIEWSTYLE
350
5ED
  3
ACAD_TABLESTYLE
350
11A
  3
ACAD_VISUALSTYLE
350
3CC
  3
ACDB_RECOMPOSE_DATA
350
95B
  3
AcDbVariableDictionary
350
94
  3
AcmDictionary
350
5B
  3
AMG
350
41
  3
AMGSNAPSETTINGS
350
26B
  0
DICTIONARY
  5
5DD
330
2
100
AcDbDictionary
280
     1
281
     1
  3
ACAD_LAYERSTATES
360
5DE
  0
DICTIONARY
  5
8E1
330
10
100
AcDbDictionary
280
     1
281
     1
  3
ADSK_XREC_LAYER_RECONCILED
360
8E2
  0
DICTIONARY
  5
837
330
836
100
AcDbDictionary
280
     1
281
     1
  3
ADSK_XREC_LAYER_RECONCILED
360
8E3
  0
DICTIONARY
  5
839
330
838
100
AcDbDictionary
280
     1
281
     1
  3
ADSK_XREC_LAYER_RECONCILED
360
8E4
  0
DICTIONARY
  5
83B
330
83A
100
AcDbDictionary
280
     1
281
     1
  3
ADSK_XREC_LAYER_RECONCILED
360
8E5
  0
DICTIONARY
  5
83D
330
83C
100
AcDbDictionary
280
     1
281
     1
  3
ADSK_XREC_LAYER_RECONCILED
360
8E6
  0
DICTIONARY
  5
83F
330
83E
100
AcDbDictionary
280
     1
281
     1
  3
ADSK_XREC_LAYER_RECONCILED
360
8E7
  0
DICTIONARY
  5
8E8
330
86A
100
AcDbDictionary
280
     1
281
     1
  3
ADSK_XREC_LAYER_RECONCILED
360
8E9
  0
DICTIONARY
  5
8F
330
1F
100
AcDbDictionary
280
     1
281
     1
  0
DICTIONARY
  5
87D
330
870
100
AcDbDictionary
280
     1
281
     1
  3
ACAD_DIMASSOC
360
87E
  0
XRECORD
  5
5FA
102
{ACAD_REACTORS
330
C
102
}
330
C
100
AcDbXrecord
280
     1
300
AMECH_PP
300
2014
300
86138AMECH_PP_2014_0F
  0
DICTIONARY
  5
BE
102
{ACAD_REACTORS
330
C
102
}
330
C
100
AcDbDictionary
281
     1
  0
DICTIONARY
  5
5EF
102
{ACAD_REACTORS
330
C
102
}
330
C
100
AcDbDictionary
281
     1
  3
Metric50
350
5F0
  0
FIELDLIST
  5
612
102
{ACAD_REACTORS
330
C
102
}
330
C
100
AcDbIdSet
 90
        3
330
943
330
944
330
945
100
AcDbFieldList
  0
DICTIONARY
  5
D
102
{ACAD_REACTORS
330
C
102
}
330
C
100
AcDbDictionary
281
     1
  0
DICTIONARY
  5
1A
102
{ACAD_REACTORS
330
C
102
}
330
C
100
AcDbDictionary
281
     1
  3
Layout1
350
1E
  3
Layout2
350
26
  3
Model
350
22
  0
DICTIONARY
  5
BD
102
{ACAD_REACTORS
330
C
102
}
330
C
100
AcDbDictionary
281
     1
  3
ByBlock
350
3BC
  3
ByLayer
350
3B4
  3
Global
350
3C4
  0
DICTIONARY
  5
3EF
102
{ACAD_REACTORS
330
C
102
}
330
C
100
AcDbDictionary
281
     1
  3
Standard
350
3F0
  0
DICTIONARY
  5
17
102
{ACAD_REACTORS
330
C
102
}
330
C
100
AcDbDictionary
281
     1
  3
Standard
350
18
  0
DICTIONARY
  5
19
102
{ACAD_REACTORS
330
C
102
}
330
C
100
AcDbDictionary
281
     1
  0
ACDBDICTIONARYWDFLT
  5
E
102
{ACAD_REACTORS
330
C
102
}
330
C
100
AcDbDictionary
281
     1
  3
Normal
350
F
100
AcDbDictionaryWithDefault
340
F
  0
DICTIONARY
  5
3DD
102
{ACAD_REACTORS
330
C
102
}
330
C
100
AcDbDictionary
281
     1
  3
A0
350
3DE
  3
A1
350
3DF
  3
A2
350
3E0
  3
A3
350
3E1
  3
A4
350
3E2
  3
A5
350
3E3
  3
A6
350
3E4
  3
A7
350
3E5
  3
A8
350
3E6
  3
A9
350
3E7
  3
B0
350
3E8
  3
B1
350
3E9
  3
B2
350
3EA
  3
B3
350
3EB
  3
B4
350
3EC
  3
B5
350
3ED
  3
B6
350
3EE
  0
DICTIONARY
  5
5ED
102
{ACAD_REACTORS
330
C
102
}
330
C
100
AcDbDictionary
281
     1
  3
Metric50
350
5EE
  0
DICTIONARY
  5
11A
102
{ACAD_REACTORS
330
C
102
}
330
C
100
AcDbDictionary
281
     1
  3
Standard
350
11B
  0
DICTIONARY
  5
3CC
102
{ACAD_REACTORS
330
C
102
}
330
C
100
AcDbDictionary
281
     1
  3
2dWireframe
350
3D2
  3
3D Hidden
350
3D4
  3
3dWireframe
350
3D3
  3
Basic
350
3D1
  3
Brighten
350
3D8
  3
ColorChange
350
3DC
  3
Conceptual
350
3D5
  3
Dim
350
3D7
  3
EdgeColorOff
350
5A4
  3
Facepattern
350
3DB
  3
Flat
350
3CD
  3
FlatWithEdges
350
3CE
  3
Gouraud
350
3CF
  3
GouraudWithEdges
350
3D0
  3
Hidden
350
5E7
  3
JitterOff
350
5A2
  3
Linepattern
350
3DA
  3
OverhangOff
350
5A3
  3
Realistic
350
3D6
  3
Shaded
350
5EC
  3
Shaded with edges
350
5EB
  3
Shades of Gray
350
5E8
  3
Sketchy
350
5E9
  3
Thicken
350
3D9
  3
Wireframe
350
5E6
  3
X-Ray
350
5EA
  0
XRECORD
  5
95B
102
{ACAD_REACTORS
330
C
102
}
330
C
100
AcDbXrecord
280
     1
 90
        1
330
11B
330
5EE
330
5F0
  0
DICTIONARY
  5
94
102
{ACAD_REACTORS
330
C
102
}
330
C
100
AcDbDictionary
281
     1
  3
CANNOSCALE
350
420
  3
CMLEADERSTYLE
350
41E
  3
CTABLESTYLE
350
138
  3
CVIEWDETAILSTYLE
350
63B
  3
CVIEWSECTIONSTYLE
350
63C
  3
DIMASSOC
350
96
  3
INDEXCTL
350
95
  3
LAYEREVAL
350
422
  3
LAYERNOTIFY
350
423
  3
LIGHTINGUNITS
350
421
  3
MSLTSCALE
350
41F
  0
DICTIONARY
  5
5B
102
{ACAD_REACTORS
330
C
102
}
330
C
100
AcDbDictionary
281
     1
  3
AcmBOM
350
272
  3
AcmStdDictionary
350
61
  3
AMDTSECTSYM_ARROWCOLOR
350
123
  0
DICTIONARY
  5
41
102
{ACAD_REACTORS
330
C
102
}
330
C
100
AcDbDictionary
281
     1
  0
DICTIONARY
  5
26B
102
{ACAD_REACTORS
330
C
102
}
330
C
100
AcDbDictionary
281
     1
  0
DICTIONARY
  5
5DE
102
{ACAD_REACTORS
330
5DD
102
}
330
5DD
100
AcDbDictionary
281
     1
  0
XRECORD
  5
8E2
102
{ACAD_REACTORS
330
8E1
102
}
330
8E1
100
AcDbXrecord
280
     1
290
     1
  0
XRECORD
  5
8E3
102
{ACAD_REACTORS
330
837
102
}
330
837
100
AcDbXrecord
280
     1
290
     1
  0
XRECORD
  5
8E4
102
{ACAD_REACTORS
330
839
102
}
330
839
100
AcDbXrecord
280
     1
290
     1
  0
XRECORD
  5
8E5
102
{ACAD_REACTORS
330
83B
102
}
330
83B
100
AcDbXrecord
280
     1
290
     1
  0
XRECORD
  5
8E6
102
{ACAD_REACTORS
330
83D
102
}
330
83D
100
AcDbXrecord
280
     1
290
     1
  0
XRECORD
  5
8E7
102
{ACAD_REACTORS
330
83F
102
}
330
83F
100
AcDbXrecord
280
     1
290
     1
  0
XRECORD
  5
8E9
102
{ACAD_REACTORS
330
8E8
102
}
330
8E8
100
AcDbXrecord
280
     1
290
     1
  0
DIMASSOC
  5
87E
102
{ACAD_REACTORS
330
87D
102
}
330
87D
100
AcDbDimAssoc
330
870
 90
        3
 70
     0
 71
     0
  1
AcDbOsnapPointRef
 72
     1
331
84F
331
673
 73
     0
 91
        0
 40
0.0
 10
0.0
 20
0.0
 30
2.000000000000000E+50
 75
     0
  1
AcDbOsnapPointRef
 72
    13
331
84F
331
673
 73
     0
 91
        0
 40
0.0
 10
0.0
 20
0.0
 30
2.000000000000000E+50
 75
     0
  0
ACDBDETAILVIEWSTYLE
  5
5F0
102
{ACAD_XDICTIONARY
360
633
102
}
102
{ACAD_REACTORS
330
5EF
330
93E
102
}
330
5EF
100
AcDbModelDocViewStyle
 70
     0
  3
Metric50
290
     0
100
AcDbDetailViewStyle
 70
     0
 71
     0
 90
        3
 71
     1
340
11
 62
   256
 40
5.0
340
0
 62
   256
 40
5.0
300

 40
0.0
280
     1
 71
     2
340
16
 90
       25
 62
   256
 71
     3
340
11
 62
   256
 40
5.0
 90
        0
 40
15.0
 90
        1
300
%<\AcVar ViewDetailId>% (%<\AcVar ViewScale \f "%sn">%)
 71
     4
340
16
 90
       25
 62
   256
340
16
 90
       25
 62
   256
280
     0
  0
LAYOUT
  5
1E
102
{ACAD_REACTORS
330
1A
102
}
330
1A
100
AcDbPlotSettings
  1

  2

  4

  6

 40
0.0
 41
0.0
 42
0.0
 43
0.0
 44
0.0
 45
0.0
 46
0.0
 47
0.0
 48
0.0
 49
0.0
140
0.0
141
0.0
142
1.0
143
1.0
 70
   688
 72
     0
 73
     0
 74
     5
  7

 75
    16
147
1.0
 76
     0
 77
     2
 78
   300
148
0.0
149
0.0
100
AcDbLayout
  1
Layout1
 70
     1
 71
     1
 10
0.0
 20
0.0
 11
420.0
 21
297.0
 12
0.0
 22
0.0
 32
0.0
 14
1.000000000000000E+20
 24
1.000000000000000E+20
 34
1.000000000000000E+20
 15
-1.000000000000000E+20
 25
-1.000000000000000E+20
 35
-1.000000000000000E+20
146
0.0
 13
0.0
 23
0.0
 33
0.0
 16
1.0
 26
0.0
 36
0.0
 17
0.0
 27
1.0
 37
0.0
 76
     0
330
1B
  0
LAYOUT
  5
26
102
{ACAD_REACTORS
330
1A
102
}
330
1A
100
AcDbPlotSettings
  1

  2

  4

  6

 40
0.0
 41
0.0
 42
0.0
 43
0.0
 44
0.0
 45
0.0
 46
0.0
 47
0.0
 48
0.0
 49
0.0
140
0.0
141
0.0
142
1.0
143
1.0
 70
   688
 72
     0
 73
     0
 74
     5
  7

 75
    16
147
1.0
 76
     0
 77
     2
 78
   300
148
0.0
149
0.0
100
AcDbLayout
  1
Layout2
 70
     1
 71
     2
 10
0.0
 20
0.0
 11
12.0
 21
9.0
 12
0.0
 22
0.0
 32
0.0
 14
0.0
 24
0.0
 34
0.0
 15
0.0
 25
0.0
 35
0.0
146
0.0
 13
0.0
 23
0.0
 33
0.0
 16
1.0
 26
0.0
 36
0.0
 17
0.0
 27
1.0
 37
0.0
 76
     0
330
23
  0
LAYOUT
  5
22
102
{ACAD_XDICTIONARY
360
5E3
102
}
102
{ACAD_REACTORS
330
1A
102
}
330
1A
100
AcDbPlotSettings
  1

  2

  4

  6

 40
0.0
 41
0.0
 42
0.0
 43
0.0
 44
0.0
 45
0.0
 46
0.0
 47
0.0
 48
0.0
 49
0.0
140
0.0
141
0.0
142
1.0
143
1.0
 70
  1712
 72
     0
 73
     0
 74
     0
  7

 75
     0
147
1.0
 76
     0
 77
     2
 78
   300
148
0.0
149
0.0
100
AcDbLayout
  1
Model
 70
     1
 71
     0
 10
0.0
 20
0.0
 11
12.0
 21
9.0
 12
0.0
 22
0.0
 32
0.0
 14
0.0
 24
0.0
 34
0.0
 15
0.0
 25
0.0
 35
0.0
146
0.0
 13
0.0
 23
0.0
 33
0.0
 16
1.0
 26
0.0
 36
0.0
 17
0.0
 27
1.0
 37
0.0
 76
     0
330
1F
331
3B2
  0
MATERIAL
  5
3BC
102
{ACAD_XDICTIONARY
360
3BD
102
}
102
{ACAD_REACTORS
330
BD
102
}
330
BD
100
AcDbMaterial
  1
ByBlock
 72
     0
 43
0.0008202099737533
 43
0.0
 43
0.0
 43
0.0
 43
0.0
 43
0.0008202099737533
 43
0.0
 43
0.0
 43
0.0
 43
0.0
 43
1.0
 43
0.0
 43
0.0
 43
0.0
 43
0.0
 43
1.0
 77
     0
 47
0.0008202099737533
 47
0.0
 47
0.0
 47
0.0
 47
0.0
 47
0.0008202099737533
 47
0.0
 47
0.0
 47
0.0
 47
0.0
 47
1.0
 47
0.0
 47
0.0
 47
0.0
 47
0.0
 47
1.0
171
     0
 49
0.0008202099737533
 49
0.0
 49
0.0
 49
0.0
 49
0.0
 49
0.0008202099737533
 49
0.0
 49
0.0
 49
0.0
 49
0.0
 49
1.0
 49
0.0
 49
0.0
 49
0.0
 49
0.0
 49
1.0
175
     0
142
0.0008202099737533
142
0.0
142
0.0
142
0.0
142
0.0
142
0.0008202099737533
142
0.0
142
0.0
142
0.0
142
0.0
142
1.0
142
0.0
142
0.0
142
0.0
142
0.0
142
1.0
179
     0
144
0.0008202099737533
144
0.0
144
0.0
144
0.0
144
0.0
144
0.0008202099737533
144
0.0
144
0.0
144
0.0
144
0.0
144
1.0
144
0.0
144
0.0
144
0.0
144
0.0
144
1.0
147
0.0008202099737533
147
0.0
147
0.0
147
0.0
147
0.0
147
0.0008202099737533
147
0.0
147
0.0
147
0.0
147
0.0
147
1.0
147
0.0
147
0.0
147
0.0
147
0.0
147
1.0
  0
MATERIAL
  5
3B4
102
{ACAD_XDICTIONARY
360
3B5
102
}
102
{ACAD_REACTORS
330
BD
102
}
330
BD
100
AcDbMaterial
  1
ByLayer
 72
     0
 43
0.0008202099737533
 43
0.0
 43
0.0
 43
0.0
 43
0.0
 43
0.0008202099737533
 43
0.0
 43
0.0
 43
0.0
 43
0.0
 43
1.0
 43
0.0
 43
0.0
 43
0.0
 43
0.0
 43
1.0
 77
     0
 47
0.0008202099737533
 47
0.0
 47
0.0
 47
0.0
 47
0.0
 47
0.0008202099737533
 47
0.0
 47
0.0
 47
0.0
 47
0.0
 47
1.0
 47
0.0
 47
0.0
 47
0.0
 47
0.0
 47
1.0
171
     0
 49
0.0008202099737533
 49
0.0
 49
0.0
 49
0.0
 49
0.0
 49
0.0008202099737533
 49
0.0
 49
0.0
 49
0.0
 49
0.0
 49
1.0
 49
0.0
 49
0.0
 49
0.0
 49
0.0
 49
1.0
175
     0
142
0.0008202099737533
142
0.0
142
0.0
142
0.0
142
0.0
142
0.0008202099737533
142
0.0
142
0.0
142
0.0
142
0.0
142
1.0
142
0.0
142
0.0
142
0.0
142
0.0
142
1.0
179
     0
144
0.0008202099737533
144
0.0
144
0.0
144
0.0
144
0.0
144
0.0008202099737533
144
0.0
144
0.0
144
0.0
144
0.0
144
1.0
144
0.0
144
0.0
144
0.0
144
0.0
144
1.0
147
0.0008202099737533
147
0.0
147
0.0
147
0.0
147
0.0
147
0.0008202099737533
147
0.0
147
0.0
147
0.0
147
0.0
147
1.0
147
0.0
147
0.0
147
0.0
147
0.0
147
1.0
  0
MATERIAL
  5
3C4
102
{ACAD_XDICTIONARY
360
3C5
102
}
102
{ACAD_REACTORS
330
BD
102
}
330
BD
100
AcDbMaterial
  1
Global
 72
     0
 43
0.0008202099737533
 43
0.0
 43
0.0
 43
0.0
 43
0.0
 43
0.0008202099737533
 43
0.0
 43
0.0
 43
0.0
 43
0.0
 43
1.0
 43
0.0
 43
0.0
 43
0.0
 43
0.0
 43
1.0
 77
     0
 47
0.0008202099737533
 47
0.0
 47
0.0
 47
0.0
 47
0.0
 47
0.0008202099737533
 47
0.0
 47
0.0
 47
0.0
 47
0.0
 47
1.0
 47
0.0
 47
0.0
 47
0.0
 47
0.0
 47
1.0
171
     0
 49
0.0008202099737533
 49
0.0
 49
0.0
 49
0.0
 49
0.0
 49
0.0008202099737533
 49
0.0
 49
0.0
 49
0.0
 49
0.0
 49
1.0
 49
0.0
 49
0.0
 49
0.0
 49
0.0
 49
1.0
175
     0
142
0.0008202099737533
142
0.0
142
0.0
142
0.0
142
0.0
142
0.0008202099737533
142
0.0
142
0.0
142
0.0
142
0.0
142
1.0
142
0.0
142
0.0
142
0.0
142
0.0
142
1.0
179
     0
144
0.0008202099737533
144
0.0
144
0.0
144
0.0
144
0.0
144
0.0008202099737533
144
0.0
144
0.0
144
0.0
144
0.0
144
1.0
144
0.0
144
0.0
144
0.0
144
0.0
144
1.0
147
0.0008202099737533
147
0.0
147
0.0
147
0.0
147
0.0
147
0.0008202099737533
147
0.0
147
0.0
147
0.0
147
0.0
147
1.0
147
0.0
147
0.0
147
0.0
147
0.0
147
1.0
  0
MLEADERSTYLE
  5
3F0
102
{ACAD_REACTORS
330
3EF
102
}
330
3EF
100
AcDbMLeaderStyle
179
     2
170
     2
171
     1
172
     0
 90
        2
 40
0.0
 41
0.0
173
     1
 91
-1056964608
340
14
 92
       -2
290
     1
 42
2.0
291
     1
 43
0.36
  3
Standard
 44
4.0
300

342
11
174
     1
178
     6
175
     1
176
     0
 93
-1056964608
 45
4.0
292
     0
297
     0
 46
4.0
 94
-1056964608
 47
1.0
 49
1.0
140
1.0
293
     1
141
0.0
294
     1
177
     0
142
1.0
295
     0
296
     0
143
0.125
271
     0
272
     9
273
     9
298
     0
  0
MLINESTYLE
  5
18
102
{ACAD_REACTORS
330
17
102
}
330
17
100
AcDbMlineStyle
  2
STANDARD
 70
     0
  3

 62
   256
 51
90.0
 52
90.0
 71
     2
 49
0.5
 62
   256
  6
BYLAYER
 49
-0.5
 62
   256
  6
BYLAYER
  0
ACDBPLACEHOLDER
  5
F
102
{ACAD_REACTORS
330
E
102
}
330
E
  0
SCALE
  5
3DE
102
{ACAD_REACTORS
330
3DD
102
}
330
3DD
100
AcDbScale
 70
     0
300
1:1
140
1.0
141
1.0
290
     1
  0
SCALE
  5
3DF
102
{ACAD_REACTORS
330
3DD
102
}
330
3DD
100
AcDbScale
 70
     0
300
1:2
140
1.0
141
2.0
290
     0
  0
SCALE
  5
3E0
102
{ACAD_REACTORS
330
3DD
102
}
330
3DD
100
AcDbScale
 70
     0
300
1:4
140
1.0
141
4.0
290
     0
  0
SCALE
  5
3E1
102
{ACAD_REACTORS
330
3DD
102
}
330
3DD
100
AcDbScale
 70
     0
300
1:5
140
1.0
141
5.0
290
     0
  0
SCALE
  5
3E2
102
{ACAD_REACTORS
330
3DD
102
}
330
3DD
100
AcDbScale
 70
     0
300
1:8
140
1.0
141
8.0
290
     0
  0
SCALE
  5
3E3
102
{ACAD_REACTORS
330
3DD
102
}
330
3DD
100
AcDbScale
 70
     0
300
1:10
140
1.0
141
10.0
290
     0
  0
SCALE
  5
3E4
102
{ACAD_REACTORS
330
3DD
102
}
330
3DD
100
AcDbScale
 70
     0
300
1:16
140
1.0
141
16.0
290
     0
  0
SCALE
  5
3E5
102
{ACAD_REACTORS
330
3DD
102
}
330
3DD
100
AcDbScale
 70
     0
300
1:20
140
1.0
141
20.0
290
     0
  0
SCALE
  5
3E6
102
{ACAD_REACTORS
330
3DD
102
}
330
3DD
100
AcDbScale
 70
     0
300
1:30
140
1.0
141
30.0
290
     0
  0
SCALE
  5
3E7
102
{ACAD_REACTORS
330
3DD
102
}
330
3DD
100
AcDbScale
 70
     0
300
1:40
140
1.0
141
40.0
290
     0
  0
SCALE
  5
3E8
102
{ACAD_REACTORS
330
3DD
102
}
330
3DD
100
AcDbScale
 70
     0
300
1:50
140
1.0
141
50.0
290
     0
  0
SCALE
  5
3E9
102
{ACAD_REACTORS
330
3DD
102
}
330
3DD
100
AcDbScale
 70
     0
300
1:100
140
1.0
141
100.0
290
     0
  0
SCALE
  5
3EA
102
{ACAD_REACTORS
330
3DD
102
}
330
3DD
100
AcDbScale
 70
     0
300
2:1
140
2.0
141
1.0
290
     0
  0
SCALE
  5
3EB
102
{ACAD_REACTORS
330
3DD
102
}
330
3DD
100
AcDbScale
 70
     0
300
4:1
140
4.0
141
1.0
290
     0
  0
SCALE
  5
3EC
102
{ACAD_REACTORS
330
3DD
102
}
330
3DD
100
AcDbScale
 70
     0
300
8:1
140
8.0
141
1.0
290
     0
  0
SCALE
  5
3ED
102
{ACAD_REACTORS
330
3DD
102
}
330
3DD
100
AcDbScale
 70
     0
300
10:1
140
10.0
141
1.0
290
     0
  0
SCALE
  5
3EE
102
{ACAD_REACTORS
330
3DD
102
}
330
3DD
100
AcDbScale
 70
     0
300
100:1
140
100.0
141
1.0
290
     0
  0
ACDBSECTIONVIEWSTYLE
  5
5EE
102
{ACAD_XDICTIONARY
360
631
102
}
102
{ACAD_REACTORS
330
5ED
330
93D
102
}
330
5ED
100
AcDbModelDocViewStyle
 70
     0
  3
Metric50
290
     0
100
AcDbSectionViewStyle
 70
     0
 71
     0
 90
      102
 71
     1
340
11
 62
   256
 40
5.0
340
0
340
0
 62
   256
 40
5.0
300
I, O, Q, S, X, Z
 40
10.0
 90
        0
 40
2.5
 90
        0
 71
     2
340
16
 90
       25
 62
   256
340
16
 90
       50
 62
   256
 40
5.0
 40
2.5
 40
5.0
 71
     3
340
11
 62
   256
 40
5.0
 90
        0
 40
15.0
 90
        1
300
%<\AcVar ViewSectionStartId>%-%<\AcVar ViewSectionEndId>% (%<\AcVar ViewScale \f "%sn">%)
 71
     4
 62
   256
 62
   257
300
ANSI31
 40
1.0
 90
        0
290
     0
290
     0
 90
        6
 40
0.0
 40
1.570796326794896
 40
0.2617993877991494
 40
1.308996938995747
 40
-0.2617993877991494
 40
1.832595714594045
  0
TABLESTYLE
  5
11B
102
{ACAD_XDICTIONARY
360
41B
102
}
102
{ACAD_REACTORS
330
11A
102
}
330
11A
100
AcDbTableStyle
280
     0
  3
Standard
 70
     0
 71
     0
 40
1.5
 41
1.5
280
     0
281
     0
  7
STANDARD
140
4.5
170
     2
 62
     0
 63
     7
283
     0
 90
        4
 91
        0
  1

274
    -2
284
     1
 64
     0
275
    -2
285
     1
 65
     0
276
    -2
286
     1
 66
     0
277
    -2
287
     1
 67
     0
278
    -2
288
     1
 68
     0
279
    -2
289
     1
 69
     0
  7
STANDARD
140
6.0
170
     5
 62
     0
 63
     7
283
     0
 90
        4
 91
        0
  1

274
    -2
284
     1
 64
     0
275
    -2
285
     1
 65
     0
276
    -2
286
     1
 66
     0
277
    -2
287
     1
 67
     0
278
    -2
288
     1
 68
     0
279
    -2
289
     1
 69
     0
  7
STANDARD
140
4.5
170
     5
 62
     0
 63
     7
283
     0
 90
        4
 91
        0
  1

274
    -2
284
     1
 64
     0
275
    -2
285
     1
 65
     0
276
    -2
286
     1
 66
     0
277
    -2
287
     1
 67
     0
278
    -2
288
     1
 68
     0
279
    -2
289
     1
 69
     0
  0
VISUALSTYLE
  5
3D2
102
{ACAD_REACTORS
330
3CC
102
}
330
3CC
100
AcDbVisualStyle
  2
2dWireframe
 70
     4
177
     3
291
     0
 70
    58
 90
        0
176
     1
 90
        2
176
     1
 90
        0
176
     1
 90
        0
176
     1
 40
0.6
176
     1
 40
30.0
176
     1
 62
     7
420
 16777215
176
     1
 90
        1
176
     1
 90
        4
176
     1
 62
     7
176
     1
 62
   257
176
     1
 90
        1
176
     1
 90
        1
176
     1
 40
1.0
176
     1
 90
        0
176
     1
 62
   257
176
     1
 40
1.0
176
     1
 90
        1
176
     1
 90
        6
176
     1
 90
        2
176
     1
 62
     7
176
     1
 90
        5
176
     1
 90
        0
176
     1
 90
        0
176
     1
290
     0
176
     1
 90
        1
176
     1
 40
0.0
176
     1
 90
        0
176
     1
290
     1
176
     1
290
     1
176
     1
290
     0
176
     1
290
     0
176
     1
290
     0
176
     1
290
     0
176
     1
290
     0
176
     1
290
     0
176
     1
290
     0
176
     1
 90
       50
176
     1
 40
0.0
176
     1
 40
1.0
176
     1
 90
        0
176
     1
 62
    18
176
     1
 90
       50
176
     1
 90
        3
176
     1
 62
     5
420
      255
176
     1
290
     0
176
     1
 90
       50
176
     1
 90
       50
176
     1
 90
       50
176
     1
290
     0
176
     1
 90
       50
176
     1
 62
   256
176
     0
 40
1.0
176
     0
 90
        2
176
     1
  1
strokes_ogs.tif
176
     1
290
     0
176
     1
 40
1.0
176
     1
 40
1.0
176
     1
  0
VISUALSTYLE
  5
3D4
102
{ACAD_REACTORS
330
3CC
102
}
330
3CC
100
AcDbVisualStyle
  2
3D Hidden
 70
     6
177
     3
291
     0
 70
    58
 90
        1
176
     1
 90
        2
176
     1
 90
        2
176
     1
 90
        0
176
     1
 40
0.6
176
     1
 40
30.0
176
     1
 62
     7
420
 16777215
176
     1
 90
        2
176
     1
 90
        2
176
     1
 62
     7
176
     1
 62
   257
176
     1
 90
        2
176
     1
 90
        1
176
     1
 40
40.0
176
     1
 90
        0
176
     1
 62
   257
176
     1
 40
1.0
176
     1
 90
        1
176
     1
 90
        6
176
     1
 90
        2
176
     1
 62
     7
176
     1
 90
        3
176
     1
 90
        0
176
     1
 90
        0
176
     1
290
     0
176
     1
 90
        1
176
     1
 40
0.0
176
     1
 90
        0
176
     1
290
     0
176
     1
290
     1
176
     1
290
     1
176
     1
290
     0
176
     1
290
     0
176
     1
290
     0
176
     1
290
     0
176
     1
290
     0
176
     1
290
     0
176
     1
 90
       50
176
     1
 40
0.0
176
     1
 40
1.0
176
     1
 90
        0
176
     1
 62
    18
176
     1
 90
       50
176
     1
 90
        3
176
     1
 62
     5
420
      255
176
     1
290
     0
176
     1
 90
       50
176
     1
 90
       50
176
     1
 90
       50
176
     1
290
     0
176
     1
 90
       50
176
     1
 62
   256
176
     0
 40
1.0
176
     0
 90
        2
176
     1
  1
strokes_ogs.tif
176
     1
290
     0
176
     1
 40
1.0
176
     1
 40
1.0
176
     1
  0
VISUALSTYLE
  5
3D3
102
{ACAD_REACTORS
330
3CC
102
}
330
3CC
100
AcDbVisualStyle
  2
3dWireframe
 70
     5
177
     3
291
     0
 70
    58
 90
        0
176
     1
 90
        2
176
     1
 90
        0
176
     1
 90
        0
176
     1
 40
0.6
176
     1
 40
30.0
176
     1
 62
     7
420
 16777215
176
     1
 90
        1
176
     1
 90
        4
176
     1
 62
     7
176
     1
 62
   257
176
     1
 90
        1
176
     1
 90
        1
176
     1
 40
1.0
176
     1
 90
        0
176
     1
 62
   257
176
     1
 40
1.0
176
     1
 90
        1
176
     1
 90
        6
176
     1
 90
        2
176
     1
 62
     7
176
     1
 90
        5
176
     1
 90
        0
176
     1
 90
        0
176
     1
290
     0
176
     1
 90
        1
176
     1
 40
0.0
176
     1
 90
        0
176
     1
290
     0
176
     1
290
     1
176
     1
290
     1
176
     1
290
     0
176
     1
290
     0
176
     1
290
     0
176
     1
290
     0
176
     1
290
     0
176
     1
290
     0
176
     1
 90
       50
176
     1
 40
0.0
176
     1
 40
1.0
176
     1
 90
        0
176
     1
 62
    18
176
     1
 90
       50
176
     1
 90
        3
176
     1
 62
     5
420
      255
176
     1
290
     0
176
     1
 90
       50
176
     1
 90
       50
176
     1
 90
       50
176
     1
290
     0
176
     1
 90
       50
176
     1
 62
   256
176
     0
 40
1.0
176
     0
 90
        2
176
     1
  1
strokes_ogs.tif
176
     1
290
     0
176
     1
 40
1.0
176
     1
 40
1.0
176
     1
  0
VISUALSTYLE
  5
3D1
102
{ACAD_REACTORS
330
3CC
102
}
330
3CC
100
AcDbVisualStyle
  2
Basic
 70
     7
177
     3
291
     1
 70
    58
 90
        1
176
     1
 90
        0
176
     1
 90
        1
176
     1
 90
        0
176
     1
 40
0.6
176
     1
 40
30.0
176
     1
 62
     7
420
 16777215
176
     1
 90
        0
176
     1
 90
        4
176
     1
 62
     7
176
     1
 62
   257
176
     1
 90
        1
176
     1
 90
        1
176
     1
 40
1.0
176
     1
 90
        8
176
     1
 62
     7
176
     1
 40
1.0
176
     1
 90
        1
176
     1
 90
        6
176
     1
 90
        2
176
     1
 62
     7
176
     1
 90
        5
176
     1
 90
        0
176
     1
 90
        0
176
     1
290
     0
176
     1
 90
        1
176
     1
 40
0.0
176
     1
 90
        0
176
     1
290
     0
176
     1
290
     1
176
     1
290
     1
176
     1
290
     0
176
     1
290
     0
176
     1
290
     0
176
     1
290
     0
176
     1
290
     0
176
     1
290
     0
176
     1
 90
       50
176
     1
 40
0.0
176
     1
 40
1.0
176
     1
 90
        0
176
     1
 62
    18
176
     1
 90
       50
176
     1
 90
        3
176
     1
 62
     5
420
      255
176
     1
290
     0
176
     1
 90
       50
176
     1
 90
       50
176
     1
 90
       50
176
     1
290
     0
176
     1
 90
       50
176
     1
 62
   256
176
     0
 40
1.0
176
     0
 90
        2
176
     1
  1
strokes_ogs.tif
176
     1
290
     0
176
     1
 40
1.0
176
     1
 40
1.0
176
     1
  0
VISUALSTYLE
  5
3D8
102
{ACAD_REACTORS
330
3CC
102
}
330
3CC
100
AcDbVisualStyle
  2
Brighten
 70
    12
177
     3
291
     1
 70
    58
 90
        2
176
     1
 90
        2
176
     1
 90
        0
176
     1
 90
        0
176
     1
 40
0.6
176
     1
 40
30.0
176
     1
 62
     7
420
 16777215
176
     1
 90
        1
176
     1
 90
        4
176
     1
 62
     7
176
     1
 62
   257
176
     1
 90
        1
176
     1
 90
        1
176
     1
 40
1.0
176
     1
 90
        8
176
     1
 62
     7
176
     1
 40
1.0
176
     1
 90
        1
176
     1
 90
        6
176
     1
 90
        2
176
     1
 62
     7
176
     1
 90
        5
176
     1
 90
        0
176
     1
 90
        0
176
     1
290
     0
176
     1
 90
        1
176
     1
 40
50.0
176
     1
 90
        0
176
     1
290
     0
176
     1
290
     1
176
     1
290
     1
176
     1
290
     0
176
     1
290
     0
176
     1
290
     0
176
     1
290
     0
176
     1
290
     0
176
     1
290
     0
176
     1
 90
       50
176
     1
 40
0.0
176
     1
 40
1.0
176
     1
 90
        0
176
     1
 62
    18
176
     1
 90
       50
176
     1
 90
        3
176
     1
 62
     5
420
      255
176
     1
290
     0
176
     1
 90
       50
176
     1
 90
       50
176
     1
 90
       50
176
     1
290
     0
176
     1
 90
       50
176
     1
 62
   256
176
     0
 40
1.0
176
     0
 90
        2
176
     1
  1
strokes_ogs.tif
176
     1
290
     0
176
     1
 40
1.0
176
     1
 40
1.0
176
     1
  0
VISUALSTYLE
  5
3DC
102
{ACAD_REACTORS
330
3CC
102
}
330
3CC
100
AcDbVisualStyle
  2
ColorChange
 70
    16
177
     3
291
     1
 70
    58
 90
        2
176
     1
 90
        2
176
     1
 90
        3
176
     1
 90
        0
176
     1
 40
0.6
176
     1
 40
30.0
176
     1
 62
     8
420
  8421504
176
     1
 90
        1
176
     1
 90
        4
176
     1
 62
     7
176
     1
 62
   257
176
     1
 90
        1
176
     1
 90
        1
176
     1
 40
1.0
176
     1
 90
        8
176
     1
 62
     8
420
  8421504
176
     1
 40
1.0
176
     1
 90
        1
176
     1
 90
        6
176
     1
 90
        2
176
     1
 62
     7
176
     1
 90
        5
176
     1
 90
        0
176
     1
 90
        0
176
     1
290
     0
176
     1
 90
        1
176
     1
 40
0.0
176
     1
 90
        0
176
     1
290
     0
176
     1
290
     1
176
     1
290
     1
176
     1
290
     0
176
     1
290
     0
176
     1
290
     0
176
     1
290
     0
176
     1
290
     0
176
     1
290
     0
176
     1
 90
       50
176
     1
 40
0.0
176
     1
 40
1.0
176
     1
 90
        0
176
     1
 62
    18
176
     1
 90
       50
176
     1
 90
        3
176
     1
 62
     5
420
      255
176
     1
290
     0
176
     1
 90
       50
176
     1
 90
       50
176
     1
 90
       50
176
     1
290
     0
176
     1
 90
       50
176
     1
 62
   256
176
     0
 40
1.0
176
     0
 90
        2
176
     1
  1
strokes_ogs.tif
176
     1
290
     0
176
     1
 40
1.0
176
     1
 40
1.0
176
     1
  0
VISUALSTYLE
  5
3D5
102
{ACAD_REACTORS
330
3CC
102
}
330
3CC
100
AcDbVisualStyle
  2
Conceptual
 70
     9
177
     3
291
     0
 70
    58
 90
        3
176
     1
 90
        2
176
     1
 90
        0
176
     1
 90
        0
176
     1
 40
0.6
176
     1
 40
30.0
176
     1
 62
     7
420
 16777215
176
     1
 90
        2
176
     1
 90
        2
176
     1
 62
     7
176
     1
 62
   257
176
     1
 90
        1
176
     1
 90
        1
176
     1
 40
40.0
176
     1
 90
        8
176
     1
 62
     7
176
     1
 40
1.0
176
     1
 90
        1
176
     1
 90
        6
176
     1
 90
        2
176
     1
 62
     7
176
     1
 90
        3
176
     1
 90
        0
176
     1
 90
        0
176
     1
290
     0
176
     1
 90
        1
176
     1
 40
0.0
176
     1
 90
        0
176
     1
290
     0
176
     1
290
     1
176
     1
290
     1
176
     1
290
     0
176
     1
290
     0
176
     1
290
     0
176
     1
290
     0
176
     1
290
     0
176
     1
290
     0
176
     1
 90
       50
176
     1
 40
0.0
176
     1
 40
1.0
176
     1
 90
        0
176
     1
 62
    18
176
     1
 90
       50
176
     1
 90
        3
176
     1
 62
     5
420
      255
176
     1
290
     0
176
     1
 90
       50
176
     1
 90
       50
176
     1
 90
       50
176
     1
290
     0
176
     1
 90
       50
176
     1
 62
   256
176
     0
 40
1.0
176
     0
 90
        2
176
     1
  1
strokes_ogs.tif
176
     1
290
     0
176
     1
 40
1.0
176
     1
 40
1.0
176
     1
  0
VISUALSTYLE
  5
3D7
102
{ACAD_REACTORS
330
3CC
102
}
330
3CC
100
AcDbVisualStyle
  2
Dim
 70
    11
177
     3
291
     1
 70
    58
 90
        2
176
     1
 90
        2
176
     1
 90
        0
176
     1
 90
        0
176
     1
 40
0.6
176
     1
 40
30.0
176
     1
 62
     7
420
 16777215
176
     1
 90
        1
176
     1
 90
        4
176
     1
 62
     7
176
     1
 62
   257
176
     1
 90
        1
176
     1
 90
        1
176
     1
 40
1.0
176
     1
 90
        8
176
     1
 62
     7
176
     1
 40
1.0
176
     1
 90
        1
176
     1
 90
        6
176
     1
 90
        2
176
     1
 62
     7
176
     1
 90
        5
176
     1
 90
        0
176
     1
 90
        0
176
     1
290
     0
176
     1
 90
        1
176
     1
 40
-50.0
176
     1
 90
        0
176
     1
290
     0
176
     1
290
     1
176
     1
290
     1
176
     1
290
     0
176
     1
290
     0
176
     1
290
     0
176
     1
290
     0
176
     1
290
     0
176
     1
290
     0
176
     1
 90
       50
176
     1
 40
0.0
176
     1
 40
1.0
176
     1
 90
        0
176
     1
 62
    18
176
     1
 90
       50
176
     1
 90
        3
176
     1
 62
     5
420
      255
176
     1
290
     0
176
     1
 90
       50
176
     1
 90
       50
176
     1
 90
       50
176
     1
290
     0
176
     1
 90
       50
176
     1
 62
   256
176
     0
 40
1.0
176
     0
 90
        2
176
     1
  1
strokes_ogs.tif
176
     1
290
     0
176
     1
 40
1.0
176
     1
 40
1.0
176
     1
  0
VISUALSTYLE
  5
5A4
102
{ACAD_REACTORS
330
3CC
102
}
330
3CC
100
AcDbVisualStyle
  2
EdgeColorOff
 70
    22
177
     3
291
     1
 70
    58
 90
        2
176
     0
 90
        2
176
     0
 90
        0
176
     0
 90
        0
176
     0
 40
0.6
176
     0
 40
30.0
176
     0
 62
     7
420
 16777215
176
     0
 90
        1
176
     0
 90
        4
176
     0
 62
     7
176
     0
 62
   257
176
     0
 90
        1
176
     0
 90
        1
176
     0
 40
1.0
176
     0
 90
        8
176
     2
 62
     7
176
     0
 40
1.0
176
     0
 90
        1
176
     0
 90
        6
176
     0
 90
        2
176
     0
 62
     7
176
     0
 90
        5
176
     0
 90
        0
176
     0
 90
        0
176
     0
290
     0
176
     0
 90
        1
176
     0
 40
0.0
176
     0
 90
        0
176
     0
290
     0
176
     1
290
     1
176
     1
290
     1
176
     1
290
     0
176
     1
290
     0
176
     1
290
     0
176
     1
290
     0
176
     1
290
     0
176
     1
290
     0
176
     1
 90
       50
176
     1
 40
0.0
176
     1
 40
1.0
176
     1
 90
        0
176
     1
 62
    18
176
     1
 90
       50
176
     1
 90
        3
176
     1
 62
     5
420
      255
176
     1
290
     0
176
     1
 90
       50
176
     1
 90
       50
176
     1
 90
       50
176
     1
290
     0
176
     1
 90
       50
176
     1
 62
   256
176
     0
 40
1.0
176
     0
 90
        2
176
     1
  1
strokes_ogs.tif
176
     1
290
     0
176
     1
 40
1.0
176
     1
 40
1.0
176
     1
  0
VISUALSTYLE
  5
3DB
102
{ACAD_REACTORS
330
3CC
102
}
330
3CC
100
AcDbVisualStyle
  2
Facepattern
 70
    15
177
     3
291
     1
 70
    58
 90
        2
176
     1
 90
        2
176
     1
 90
        0
176
     1
 90
        0
176
     1
 40
0.6
176
     1
 40
30.0
176
     1
 62
     7
420
 16777215
176
     1
 90
        1
176
     1
 90
        4
176
     1
 62
     7
176
     1
 62
   257
176
     1
 90
        1
176
     1
 90
        1
176
     1
 40
1.0
176
     1
 90
        8
176
     1
 62
     7
176
     1
 40
1.0
176
     1
 90
        1
176
     1
 90
        6
176
     1
 90
        2
176
     1
 62
     7
176
     1
 90
        5
176
     1
 90
        0
176
     1
 90
        0
176
     1
290
     0
176
     1
 90
        1
176
     1
 40
0.0
176
     1
 90
        0
176
     1
290
     0
176
     1
290
     1
176
     1
290
     1
176
     1
290
     0
176
     1
290
     0
176
     1
290
     0
176
     1
290
     0
176
     1
290
     0
176
     1
290
     0
176
     1
 90
       50
176
     1
 40
0.0
176
     1
 40
1.0
176
     1
 90
        0
176
     1
 62
    18
176
     1
 90
       50
176
     1
 90
        3
176
     1
 62
     5
420
      255
176
     1
290
     0
176
     1
 90
       50
176
     1
 90
       50
176
     1
 90
       50
176
     1
290
     0
176
     1
 90
       50
176
     1
 62
   256
176
     0
 40
1.0
176
     0
 90
        2
176
     1
  1
strokes_ogs.tif
176
     1
290
     0
176
     1
 40
1.0
176
     1
 40
1.0
176
     1
  0
VISUALSTYLE
  5
3CD
102
{ACAD_REACTORS
330
3CC
102
}
330
3CC
100
AcDbVisualStyle
  2
Flat
 70
     0
177
     3
291
     1
 70
    58
 90
        2
176
     1
 90
        1
176
     1
 90
        1
176
     1
 90
        2
176
     1
 40
0.6
176
     1
 40
30.0
176
     1
 62
     7
420
 16777215
176
     1
 90
        0
176
     1
 90
        4
176
     1
 62
     7
176
     1
 62
   257
176
     1
 90
        1
176
     1
 90
        1
176
     1
 40
1.0
176
     1
 90
        8
176
     1
 62
     7
176
     1
 40
1.0
176
     1
 90
        1
176
     1
 90
        6
176
     1
 90
        2
176
     1
 62
     7
176
     1
 90
        5
176
     1
 90
        0
176
     1
 90
        0
176
     1
290
     0
176
     1
 90
       13
176
     1
 40
0.0
176
     1
 90
        0
176
     1
290
     0
176
     1
290
     1
176
     1
290
     1
176
     1
290
     0
176
     1
290
     0
176
     1
290
     0
176
     1
290
     0
176
     1
290
     0
176
     1
290
     0
176
     1
 90
       50
176
     1
 40
0.0
176
     1
 40
1.0
176
     1
 90
        0
176
     1
 62
    18
176
     1
 90
       50
176
     1
 90
        3
176
     1
 62
     5
420
      255
176
     1
290
     0
176
     1
 90
       50
176
     1
 90
       50
176
     1
 90
       50
176
     1
290
     0
176
     1
 90
       50
176
     1
 62
   256
176
     0
 40
1.0
176
     0
 90
        2
176
     1
  1
strokes_ogs.tif
176
     1
290
     0
176
     1
 40
1.0
176
     1
 40
1.0
176
     1
  0
VISUALSTYLE
  5
3CE
102
{ACAD_REACTORS
330
3CC
102
}
330
3CC
100
AcDbVisualStyle
  2
FlatWithEdges
 70
     1
177
     3
291
     1
 70
    58
 90
        2
176
     1
 90
        1
176
     1
 90
        1
176
     1
 90
        2
176
     1
 40
0.6
176
     1
 40
30.0
176
     1
 62
     7
420
 16777215
176
     1
 90
        1
176
     1
 90
        4
176
     1
 62
     7
176
     1
 62
   257
176
     1
 90
        1
176
     1
 90
        1
176
     1
 40
1.0
176
     1
 90
        0
176
     1
 62
   257
176
     1
 40
1.0
176
     1
 90
        1
176
     1
 90
        6
176
     1
 90
        2
176
     1
 62
     7
176
     1
 90
        5
176
     1
 90
        0
176
     1
 90
        0
176
     1
290
     0
176
     1
 90
       13
176
     1
 40
0.0
176
     1
 90
        0
176
     1
290
     0
176
     1
290
     1
176
     1
290
     1
176
     1
290
     0
176
     1
290
     0
176
     1
290
     0
176
     1
290
     0
176
     1
290
     0
176
     1
290
     0
176
     1
 90
       50
176
     1
 40
0.0
176
     1
 40
1.0
176
     1
 90
        0
176
     1
 62
    18
176
     1
 90
       50
176
     1
 90
        3
176
     1
 62
     5
420
      255
176
     1
290
     0
176
     1
 90
       50
176
     1
 90
       50
176
     1
 90
       50
176
     1
290
     0
176
     1
 90
       50
176
     1
 62
   256
176
     0
 40
1.0
176
     0
 90
        2
176
     1
  1
strokes_ogs.tif
176
     1
290
     0
176
     1
 40
1.0
176
     1
 40
1.0
176
     1
  0
VISUALSTYLE
  5
3CF
102
{ACAD_REACTORS
330
3CC
102
}
330
3CC
100
AcDbVisualStyle
  2
Gouraud
 70
     2
177
     3
291
     1
 70
    58
 90
        2
176
     1
 90
        2
176
     1
 90
        1
176
     1
 90
        2
176
     1
 40
0.6
176
     1
 40
30.0
176
     1
 62
     7
420
 16777215
176
     1
 90
        0
176
     1
 90
        4
176
     1
 62
     7
176
     1
 62
   257
176
     1
 90
        1
176
     1
 90
        1
176
     1
 40
1.0
176
     1
 90
        0
176
     1
 62
     7
176
     1
 40
1.0
176
     1
 90
        1
176
     1
 90
        6
176
     1
 90
        2
176
     1
 62
     7
176
     1
 90
        5
176
     1
 90
        0
176
     1
 90
        0
176
     1
290
     0
176
     1
 90
       13
176
     1
 40
0.0
176
     1
 90
        0
176
     1
290
     0
176
     1
290
     1
176
     1
290
     1
176
     1
290
     0
176
     1
290
     0
176
     1
290
     0
176
     1
290
     0
176
     1
290
     0
176
     1
290
     0
176
     1
 90
       50
176
     1
 40
0.0
176
     1
 40
1.0
176
     1
 90
        0
176
     1
 62
    18
176
     1
 90
       50
176
     1
 90
        3
176
     1
 62
     5
420
      255
176
     1
290
     0
176
     1
 90
       50
176
     1
 90
       50
176
     1
 90
       50
176
     1
290
     0
176
     1
 90
       50
176
     1
 62
   256
176
     0
 40
1.0
176
     0
 90
        2
176
     1
  1
strokes_ogs.tif
176
     1
290
     0
176
     1
 40
1.0
176
     1
 40
1.0
176
     1
  0
VISUALSTYLE
  5
3D0
102
{ACAD_REACTORS
330
3CC
102
}
330
3CC
100
AcDbVisualStyle
  2
GouraudWithEdges
 70
     3
177
     3
291
     1
 70
    58
 90
        2
176
     1
 90
        2
176
     1
 90
        1
176
     1
 90
        2
176
     1
 40
0.6
176
     1
 40
30.0
176
     1
 62
     7
420
 16777215
176
     1
 90
        1
176
     1
 90
        4
176
     1
 62
     7
176
     1
 62
   257
176
     1
 90
        1
176
     1
 90
        1
176
     1
 40
1.0
176
     1
 90
        0
176
     1
 62
   257
176
     1
 40
1.0
176
     1
 90
        1
176
     1
 90
        6
176
     1
 90
        2
176
     1
 62
     7
176
     1
 90
        5
176
     1
 90
        0
176
     1
 90
        0
176
     1
290
     0
176
     1
 90
       13
176
     1
 40
0.0
176
     1
 90
        0
176
     1
290
     0
176
     1
290
     1
176
     1
290
     1
176
     1
290
     0
176
     1
290
     0
176
     1
290
     0
176
     1
290
     0
176
     1
290
     0
176
     1
290
     0
176
     1
 90
       50
176
     1
 40
0.0
176
     1
 40
1.0
176
     1
 90
        0
176
     1
 62
    18
176
     1
 90
       50
176
     1
 90
        3
176
     1
 62
     5
420
      255
176
     1
290
     0
176
     1
 90
       50
176
     1
 90
       50
176
     1
 90
       50
176
     1
290
     0
176
     1
 90
       50
176
     1
 62
   256
176
     0
 40
1.0
176
     0
 90
        2
176
     1
  1
strokes_ogs.tif
176
     1
290
     0
176
     1
 40
1.0
176
     1
 40
1.0
176
     1
  0
VISUALSTYLE
  5
5E7
102
{ACAD_REACTORS
330
3CC
102
}
330
3CC
100
AcDbVisualStyle
  2
Hidden
 70
     6
177
     3
291
     0
 70
    58
 90
        1
176
     1
 90
        2
176
     1
 90
        2
176
     1
 90
        0
176
     1
 40
0.6
176
     1
 40
30.0
176
     1
 62
     7
420
 16777215
176
     1
 90
        2
176
     1
 90
        2
176
     1
 62
     7
176
     1
 62
   257
176
     1
 90
        2
176
     1
 90
        1
176
     1
 40
40.0
176
     1
 90
        0
176
     1
 62
   257
176
     1
 40
1.0
176
     1
 90
        1
176
     1
 90
        6
176
     1
 90
        2
176
     1
 62
     7
176
     1
 90
        3
176
     1
 90
        0
176
     1
 90
        0
176
     1
290
     0
176
     1
 90
        1
176
     1
 40
0.0
176
     1
 90
        0
176
     1
290
     0
176
     1
290
     1
176
     1
290
     1
176
     1
290
     0
176
     1
290
     0
176
     1
290
     0
176
     1
290
     0
176
     1
290
     0
176
     1
290
     0
176
     1
 90
       50
176
     1
 40
0.0
176
     1
 40
1.0
176
     1
 90
        0
176
     1
 62
    18
176
     1
 90
       50
176
     1
 90
        3
176
     1
 62
     5
420
      255
176
     1
290
     0
176
     1
 90
       50
176
     1
 90
       50
176
     1
 90
       50
176
     1
290
     0
176
     1
 90
       50
176
     1
 62
   256
176
     0
 40
1.0
176
     0
 90
        2
176
     1
  1
strokes_ogs.tif
176
     1
290
     0
176
     1
 40
1.0
176
     1
 40
1.0
176
     1
  0
VISUALSTYLE
  5
5A2
102
{ACAD_REACTORS
330
3CC
102
}
330
3CC
100
AcDbVisualStyle
  2
JitterOff
 70
    20
177
     3
291
     1
 70
    58
 90
        2
176
     0
 90
        2
176
     0
 90
        0
176
     0
 90
        0
176
     0
 40
0.6
176
     0
 40
30.0
176
     0
 62
     7
420
 16777215
176
     0
 90
        1
176
     0
 90
        4
176
     0
 62
     7
176
     0
 62
   257
176
     0
 90
        1
176
     0
 90
        1
176
     0
 40
1.0
176
     0
 90
       10
176
     2
 62
     7
176
     0
 40
1.0
176
     0
 90
        1
176
     0
 90
        6
176
     0
 90
        2
176
     0
 62
     7
176
     0
 90
        5
176
     0
 90
        0
176
     0
 90
        0
176
     0
290
     0
176
     0
 90
        1
176
     0
 40
0.0
176
     0
 90
        0
176
     0
290
     0
176
     1
290
     1
176
     1
290
     1
176
     1
290
     0
176
     1
290
     0
176
     1
290
     0
176
     1
290
     0
176
     1
290
     0
176
     1
290
     0
176
     1
 90
       50
176
     1
 40
0.0
176
     1
 40
1.0
176
     1
 90
        0
176
     1
 62
    18
176
     1
 90
       50
176
     1
 90
        3
176
     1
 62
     5
420
      255
176
     1
290
     0
176
     1
 90
       50
176
     1
 90
       50
176
     1
 90
       50
176
     1
290
     0
176
     1
 90
       50
176
     1
 62
   256
176
     0
 40
1.0
176
     0
 90
        2
176
     1
  1
strokes_ogs.tif
176
     1
290
     0
176
     1
 40
1.0
176
     1
 40
1.0
176
     1
  0
VISUALSTYLE
  5
3DA
102
{ACAD_REACTORS
330
3CC
102
}
330
3CC
100
AcDbVisualStyle
  2
Linepattern
 70
    14
177
     3
291
     1
 70
    58
 90
        2
176
     1
 90
        2
176
     1
 90
        0
176
     1
 90
        0
176
     1
 40
0.6
176
     1
 40
30.0
176
     1
 62
     7
420
 16777215
176
     1
 90
        1
176
     1
 90
        4
176
     1
 62
     7
176
     1
 62
   257
176
     1
 90
        7
176
     1
 90
        7
176
     1
 40
1.0
176
     1
 90
        8
176
     1
 62
     7
176
     1
 40
1.0
176
     1
 90
        1
176
     1
 90
        6
176
     1
 90
        2
176
     1
 62
     7
176
     1
 90
        5
176
     1
 90
        0
176
     1
 90
        0
176
     1
290
     0
176
     1
 90
        1
176
     1
 40
0.0
176
     1
 90
        0
176
     1
290
     0
176
     1
290
     1
176
     1
290
     1
176
     1
290
     0
176
     1
290
     0
176
     1
290
     0
176
     1
290
     0
176
     1
290
     0
176
     1
290
     0
176
     1
 90
       50
176
     1
 40
0.0
176
     1
 40
1.0
176
     1
 90
        0
176
     1
 62
    18
176
     1
 90
       50
176
     1
 90
        3
176
     1
 62
     5
420
      255
176
     1
290
     0
176
     1
 90
       50
176
     1
 90
       50
176
     1
 90
       50
176
     1
290
     0
176
     1
 90
       50
176
     1
 62
   256
176
     0
 40
1.0
176
     0
 90
        2
176
     1
  1
strokes_ogs.tif
176
     1
290
     0
176
     1
 40
1.0
176
     1
 40
1.0
176
     1
  0
VISUALSTYLE
  5
5A3
102
{ACAD_REACTORS
330
3CC
102
}
330
3CC
100
AcDbVisualStyle
  2
OverhangOff
 70
    21
177
     3
291
     1
 70
    58
 90
        2
176
     0
 90
        2
176
     0
 90
        0
176
     0
 90
        0
176
     0
 40
0.6
176
     0
 40
30.0
176
     0
 62
     7
420
 16777215
176
     0
 90
        1
176
     0
 90
        4
176
     0
 62
     7
176
     0
 62
   257
176
     0
 90
        1
176
     0
 90
        1
176
     0
 40
1.0
176
     0
 90
        9
176
     2
 62
     7
176
     0
 40
1.0
176
     0
 90
        1
176
     0
 90
        6
176
     0
 90
        2
176
     0
 62
     7
176
     0
 90
        5
176
     0
 90
        0
176
     0
 90
        0
176
     0
290
     0
176
     0
 90
        1
176
     0
 40
0.0
176
     0
 90
        0
176
     0
290
     0
176
     1
290
     1
176
     1
290
     1
176
     1
290
     0
176
     1
290
     0
176
     1
290
     0
176
     1
290
     0
176
     1
290
     0
176
     1
290
     0
176
     1
 90
       50
176
     1
 40
0.0
176
     1
 40
1.0
176
     1
 90
        0
176
     1
 62
    18
176
     1
 90
       50
176
     1
 90
        3
176
     1
 62
     5
420
      255
176
     1
290
     0
176
     1
 90
       50
176
     1
 90
       50
176
     1
 90
       50
176
     1
290
     0
176
     1
 90
       50
176
     1
 62
   256
176
     0
 40
1.0
176
     0
 90
        2
176
     1
  1
strokes_ogs.tif
176
     1
290
     0
176
     1
 40
1.0
176
     1
 40
1.0
176
     1
  0
VISUALSTYLE
  5
3D6
102
{ACAD_REACTORS
330
3CC
102
}
330
3CC
100
AcDbVisualStyle
  2
Realistic
 70
     8
177
     3
291
     0
 70
    58
 90
        2
176
     1
 90
        2
176
     1
 90
        0
176
     1
 90
        0
176
     1
 40
0.6
176
     1
 40
30.0
176
     1
 62
     7
420
 16777215
176
     1
 90
        1
176
     1
 90
        0
176
     1
 62
     7
176
     1
 62
   257
176
     1
 90
        1
176
     1
 90
        1
176
     1
 40
1.0
176
     1
 90
        8
176
     1
 62
     8
420
  7895160
176
     1
 40
1.0
176
     1
 90
        1
176
     1
 90
        6
176
     1
 90
        2
176
     1
 62
     7
176
     1
 90
        5
176
     1
 90
        0
176
     1
 90
        0
176
     1
290
     0
176
     1
 90
       13
176
     1
 40
0.0
176
     1
 90
        0
176
     1
290
     0
176
     1
290
     1
176
     1
290
     1
176
     1
290
     0
176
     1
290
     0
176
     1
290
     0
176
     1
290
     0
176
     1
290
     0
176
     1
290
     0
176
     1
 90
       50
176
     1
 40
0.0
176
     1
 40
1.0
176
     1
 90
        0
176
     1
 62
    18
176
     1
 90
       50
176
     1
 90
        3
176
     1
 62
     5
420
      255
176
     1
290
     0
176
     1
 90
       50
176
     1
 90
       50
176
     1
 90
       50
176
     1
290
     0
176
     1
 90
       50
176
     1
 62
   256
176
     0
 40
1.0
176
     0
 90
        2
176
     1
  1
strokes_ogs.tif
176
     1
290
     0
176
     1
 40
1.0
176
     1
 40
1.0
176
     1
  0
VISUALSTYLE
  5
5EC
102
{ACAD_REACTORS
330
3CC
102
}
330
3CC
100
AcDbVisualStyle
  2
Shaded
 70
    27
177
     3
291
     0
 70
    58
 90
        2
176
     1
 90
        2
176
     1
 90
        1
176
     1
 90
        2
176
     1
 40
0.6
176
     1
 40
30.0
176
     1
 62
     7
420
 16777215
176
     1
 90
        0
176
     1
 90
        4
176
     1
 62
     7
176
     1
 62
   257
176
     1
 90
        1
176
     1
 90
        1
176
     1
 40
1.0
176
     1
 90
        8
176
     1
 62
   257
176
     1
 40
1.0
176
     1
 90
        1
176
     1
 90
        6
176
     1
 90
        2
176
     1
 62
     8
420
  7895160
176
     1
 90
        3
176
     1
 90
        0
176
     1
 90
        0
176
     1
290
     0
176
     1
 90
        5
176
     1
 40
0.0
176
     1
 90
        0
176
     1
290
     0
176
     1
290
     1
176
     1
290
     1
176
     1
290
     0
176
     1
290
     0
176
     1
290
     0
176
     1
290
     0
176
     1
290
     0
176
     1
290
     0
176
     1
 90
       50
176
     1
 40
0.0
176
     1
 40
1.0
176
     1
 90
        0
176
     1
 62
    18
176
     1
 90
       50
176
     1
 90
        3
176
     1
 62
     5
420
      255
176
     1
290
     0
176
     1
 90
       50
176
     1
 90
       50
176
     1
 90
       50
176
     1
290
     0
176
     1
 90
       50
176
     1
 62
   256
176
     0
 40
1.0
176
     0
 90
        2
176
     1
  1
strokes_ogs.tif
176
     1
290
     0
176
     1
 40
1.0
176
     1
 40
1.0
176
     1
  0
VISUALSTYLE
  5
5EB
102
{ACAD_REACTORS
330
3CC
102
}
330
3CC
100
AcDbVisualStyle
  2
Shaded with edges
 70
    26
177
     3
291
     0
 70
    58
 90
        2
176
     1
 90
        2
176
     1
 90
        1
176
     1
 90
        2
176
     1
 40
0.6
176
     1
 40
30.0
176
     1
 62
     7
420
 16777215
176
     1
 90
        1
176
     1
 90
       10
176
     1
 62
     7
176
     1
 62
   257
176
     1
 90
        2
176
     1
 90
        1
176
     1
 40
1.0
176
     1
 90
        8
176
     1
 62
   257
176
     1
 40
1.0
176
     1
 90
        1
176
     1
 90
        6
176
     1
 90
        2
176
     1
 62
     7
176
     1
 90
        3
176
     1
 90
        0
176
     1
 90
        0
176
     1
290
     0
176
     1
 90
        5
176
     1
 40
0.0
176
     1
 90
        0
176
     1
290
     0
176
     1
290
     1
176
     1
290
     1
176
     1
290
     0
176
     1
290
     0
176
     1
290
     0
176
     1
290
     0
176
     1
290
     0
176
     1
290
     0
176
     1
 90
       50
176
     1
 40
0.0
176
     1
 40
1.0
176
     1
 90
        0
176
     1
 62
    18
176
     1
 90
       50
176
     1
 90
        3
176
     1
 62
     5
420
      255
176
     1
290
     0
176
     1
 90
       50
176
     1
 90
       50
176
     1
 90
       50
176
     1
290
     0
176
     1
 90
       50
176
     1
 62
   256
176
     0
 40
1.0
176
     0
 90
        2
176
     1
  1
strokes_ogs.tif
176
     1
290
     0
176
     1
 40
1.0
176
     1
 40
1.0
176
     1
  0
VISUALSTYLE
  5
5E8
102
{ACAD_REACTORS
330
3CC
102
}
330
3CC
100
AcDbVisualStyle
  2
Shades of Gray
 70
    23
177
     3
291
     0
 70
    58
 90
        2
176
     1
 90
        2
176
     1
 90
        3
176
     1
 90
        0
176
     1
 40
0.6
176
     1
 40
30.0
176
     1
 62
     7
420
 16777215
176
     1
 90
        2
176
     1
 90
        2
176
     1
 62
     7
176
     1
 62
     7
176
     1
 90
        1
176
     1
 90
        1
176
     1
 40
40.0
176
     1
 90
        8
176
     1
 62
     7
176
     1
 40
1.0
176
     1
 90
        1
176
     1
 90
        6
176
     1
 90
        2
176
     1
 62
     7
176
     1
 90
        3
176
     1
 90
        0
176
     1
 90
        0
176
     1
290
     0
176
     1
 90
        1
176
     1
 40
0.0
176
     1
 90
        0
176
     1
290
     0
176
     1
290
     1
176
     1
290
     1
176
     1
290
     0
176
     1
290
     0
176
     1
290
     0
176
     1
290
     0
176
     1
290
     0
176
     1
290
     0
176
     1
 90
       50
176
     1
 40
0.0
176
     1
 40
1.0
176
     1
 90
        0
176
     1
 62
    18
176
     1
 90
       50
176
     1
 90
        3
176
     1
 62
     5
420
      255
176
     1
290
     0
176
     1
 90
       50
176
     1
 90
       50
176
     1
 90
       50
176
     1
290
     0
176
     1
 90
       50
176
     1
 62
   256
176
     0
 40
1.0
176
     0
 90
        2
176
     1
  1
strokes_ogs.tif
176
     1
290
     0
176
     1
 40
1.0
176
     1
 40
1.0
176
     1
  0
VISUALSTYLE
  5
5E9
102
{ACAD_REACTORS
330
3CC
102
}
330
3CC
100
AcDbVisualStyle
  2
Sketchy
 70
    24
177
     3
291
     0
 70
    58
 90
        1
176
     1
 90
        2
176
     1
 90
        2
176
     1
 90
        0
176
     1
 40
0.6
176
     1
 40
30.0
176
     1
 62
     7
420
 16777215
176
     1
 90
        2
176
     1
 90
        2
176
     1
 62
     7
176
     1
 62
     7
176
     1
 90
        1
176
     1
 90
        1
176
     1
 40
40.0
176
     1
 90
       11
176
     1
 62
     7
176
     1
 40
1.0
176
     1
 90
        1
176
     1
 90
        6
176
     1
 90
        2
176
     1
 62
     7
176
     1
 90
        6
176
     1
 90
        0
176
     1
 90
        0
176
     1
290
     0
176
     1
 90
        1
176
     1
 40
0.0
176
     1
 90
        0
176
     1
290
     0
176
     1
290
     1
176
     1
290
     1
176
     1
290
     0
176
     1
290
     0
176
     1
290
     0
176
     1
290
     0
176
     1
290
     0
176
     1
290
     0
176
     1
 90
       50
176
     1
 40
0.0
176
     1
 40
1.0
176
     1
 90
        0
176
     1
 62
    18
176
     1
 90
       50
176
     1
 90
        3
176
     1
 62
     5
420
      255
176
     1
290
     0
176
     1
 90
       50
176
     1
 90
       50
176
     1
 90
       50
176
     1
290
     0
176
     1
 90
       50
176
     1
 62
   256
176
     0
 40
1.0
176
     0
 90
        2
176
     1
  1
strokes_ogs.tif
176
     1
290
     0
176
     1
 40
1.0
176
     1
 40
1.0
176
     1
  0
VISUALSTYLE
  5
3D9
102
{ACAD_REACTORS
330
3CC
102
}
330
3CC
100
AcDbVisualStyle
  2
Thicken
 70
    13
177
     3
291
     1
 70
    58
 90
        2
176
     1
 90
        2
176
     1
 90
        0
176
     1
 90
        0
176
     1
 40
0.6
176
     1
 40
30.0
176
     1
 62
     7
420
 16777215
176
     1
 90
        1
176
     1
 90
        4
176
     1
 62
     7
176
     1
 62
   257
176
     1
 90
        1
176
     1
 90
        1
176
     1
 40
1.0
176
     1
 90
       12
176
     1
 62
     7
176
     1
 40
1.0
176
     1
 90
        1
176
     1
 90
        6
176
     1
 90
        2
176
     1
 62
     7
176
     1
 90
        5
176
     1
 90
        0
176
     1
 90
        0
176
     1
290
     0
176
     1
 90
        1
176
     1
 40
0.0
176
     1
 90
        0
176
     1
290
     0
176
     1
290
     1
176
     1
290
     1
176
     1
290
     0
176
     1
290
     0
176
     1
290
     0
176
     1
290
     0
176
     1
290
     0
176
     1
290
     0
176
     1
 90
       50
176
     1
 40
0.0
176
     1
 40
1.0
176
     1
 90
        0
176
     1
 62
    18
176
     1
 90
       50
176
     1
 90
        3
176
     1
 62
     5
420
      255
176
     1
290
     0
176
     1
 90
       50
176
     1
 90
       50
176
     1
 90
       50
176
     1
290
     0
176
     1
 90
       50
176
     1
 62
   256
176
     0
 40
1.0
176
     0
 90
        2
176
     1
  1
strokes_ogs.tif
176
     1
290
     0
176
     1
 40
1.0
176
     1
 40
1.0
176
     1
  0
VISUALSTYLE
  5
5E6
102
{ACAD_REACTORS
330
3CC
102
}
330
3CC
100
AcDbVisualStyle
  2
Wireframe
 70
     5
177
     3
291
     0
 70
    58
 90
        0
176
     1
 90
        2
176
     1
 90
        0
176
     1
 90
        0
176
     1
 40
0.6
176
     1
 40
30.0
176
     1
 62
     7
420
 16777215
176
     1
 90
        1
176
     1
 90
        4
176
     1
 62
     7
176
     1
 62
   257
176
     1
 90
        1
176
     1
 90
        1
176
     1
 40
1.0
176
     1
 90
        0
176
     1
 62
   257
176
     1
 40
1.0
176
     1
 90
        1
176
     1
 90
        6
176
     1
 90
        2
176
     1
 62
     7
176
     1
 90
        3
176
     1
 90
        0
176
     1
 90
        0
176
     1
290
     0
176
     1
 90
        1
176
     1
 40
0.0
176
     1
 90
        0
176
     1
290
     0
176
     1
290
     1
176
     1
290
     1
176
     1
290
     0
176
     1
290
     0
176
     1
290
     0
176
     1
290
     0
176
     1
290
     0
176
     1
290
     0
176
     1
 90
       50
176
     1
 40
0.0
176
     1
 40
1.0
176
     1
 90
        0
176
     1
 62
    18
176
     1
 90
       50
176
     1
 90
        3
176
     1
 62
     5
420
      255
176
     1
290
     0
176
     1
 90
       50
176
     1
 90
       50
176
     1
 90
       50
176
     1
290
     0
176
     1
 90
       50
176
     1
 62
   256
176
     0
 40
1.0
176
     0
 90
        2
176
     1
  1
strokes_ogs.tif
176
     1
290
     0
176
     1
 40
1.0
176
     1
 40
1.0
176
     1
  0
VISUALSTYLE
  5
5EA
102
{ACAD_REACTORS
330
3CC
102
}
330
3CC
100
AcDbVisualStyle
  2
X-Ray
 70
    25
177
     3
291
     0
 70
    58
 90
        2
176
     1
 90
        2
176
     1
 90
        1
176
     1
 90
        1
176
     1
 40
0.5
176
     1
 40
30.0
176
     1
 62
     7
420
 16777215
176
     1
 90
        1
176
     1
 90
        0
176
     1
 62
     7
176
     1
 62
   257
176
     1
 90
        1
176
     1
 90
        1
176
     1
 40
1.0
176
     1
 90
        8
176
     1
 62
     7
176
     1
 40
1.0
176
     1
 90
        1
176
     1
 90
        6
176
     1
 90
        2
176
     1
 62
     7
176
     1
 90
        3
176
     1
 90
        0
176
     1
 90
        0
176
     1
290
     0
176
     1
 90
       13
176
     1
 40
0.0
176
     1
 90
        0
176
     1
290
     0
176
     1
290
     1
176
     1
290
     1
176
     1
290
     0
176
     1
290
     0
176
     1
290
     0
176
     1
290
     0
176
     1
290
     0
176
     1
290
     0
176
     1
 90
       50
176
     1
 40
0.0
176
     1
 40
1.0
176
     1
 90
        0
176
     1
 62
    18
176
     1
 90
       50
176
     1
 90
        3
176
     1
 62
     5
420
      255
176
     1
290
     0
176
     1
 90
       50
176
     1
 90
       50
176
     1
 90
       50
176
     1
290
     0
176
     1
 90
       50
176
     1
 62
   256
176
     0
 40
1.0
176
     0
 90
        2
176
     1
  1
strokes_ogs.tif
176
     1
290
     0
176
     1
 40
1.0
176
     1
 40
1.0
176
     1
  0
DICTIONARYVAR
  5
420
102
{ACAD_REACTORS
330
94
102
}
330
94
100
DictionaryVariables
280
     0
  1
1:1
  0
DICTIONARYVAR
  5
41E
102
{ACAD_REACTORS
330
94
102
}
330
94
100
DictionaryVariables
280
     0
  1
STANDARD
  0
DICTIONARYVAR
  5
138
102
{ACAD_REACTORS
330
94
102
}
330
94
100
DictionaryVariables
280
     0
  1
STANDARD
  0
DICTIONARYVAR
  5
63B
102
{ACAD_REACTORS
330
94
102
}
330
94
100
DictionaryVariables
280
     0
  1
Metric50
  0
DICTIONARYVAR
  5
63C
102
{ACAD_REACTORS
330
94
102
}
330
94
100
DictionaryVariables
280
     0
  1
Metric50
  0
DICTIONARYVAR
  5
96
102
{ACAD_REACTORS
330
94
102
}
330
94
100
DictionaryVariables
280
     0
  1
2
  0
DICTIONARYVAR
  5
95
102
{ACAD_REACTORS
330
94
102
}
330
94
100
DictionaryVariables
280
     0
  1
1
  0
DICTIONARYVAR
  5
422
102
{ACAD_REACTORS
330
94
102
}
330
94
100
DictionaryVariables
280
     0
  1
1
  0
DICTIONARYVAR
  5
423
102
{ACAD_REACTORS
330
94
102
}
330
94
100
DictionaryVariables
280
     0
  1
15
  0
DICTIONARYVAR
  5
421
102
{ACAD_REACTORS
330
94
102
}
330
94
100
DictionaryVariables
280
     0
  1
0
  0
DICTIONARYVAR
  5
41F
102
{ACAD_REACTORS
330
94
102
}
330
94
100
DictionaryVariables
280
     0
  1
0
  0
DICTIONARY
  5
272
102
{ACAD_REACTORS
330
5B
102
}
330
5B
100
AcDbDictionary
281
     1
  0
DICTIONARY
  5
61
102
{ACAD_REACTORS
330
5B
102
}
330
5B
100
AcDbDictionary
281
     1
  0
XRECORD
  5
123
102
{ACAD_REACTORS
330
5B
102
}
330
5B
100
AcDbXrecord
280
     1
 90
-1023410169
  0
DICTIONARY
  5
633
330
5F0
100
AcDbDictionary
280
     1
281
     1
  3
ACAD_XREC_ROUNDTRIP
360
95A
  0
DICTIONARY
  5
5E3
330
22
100
AcDbDictionary
280
     1
281
     1
  0
DICTIONARY
  5
3BD
330
3BC
100
AcDbDictionary
280
     1
281
     1
  3
BUMPTILE
360
3BF
  3
DIFFUSETILE
360
3BE
  3
OPACITYTILE
360
3C2
  3
REFLECTIONTILE
360
3C1
  3
REFRACTIONTILE
360
3C3
  3
SPECULARTILE
360
3C0
  0
DICTIONARY
  5
3B5
330
3B4
100
AcDbDictionary
280
     1
281
     1
  3
BUMPTILE
360
3B7
  3
DIFFUSETILE
360
3B6
  3
OPACITYTILE
360
3BA
  3
REFLECTIONTILE
360
3B9
  3
REFRACTIONTILE
360
3BB
  3
SPECULARTILE
360
3B8
  0
DICTIONARY
  5
3C5
330
3C4
100
AcDbDictionary
280
     1
281
     1
  3
BUMPTILE
360
3C7
  3
DIFFUSETILE
360
3C6
  3
OPACITYTILE
360
3CA
  3
REFLECTIONTILE
360
3C9
  3
REFRACTIONTILE
360
3CB
  3
SPECULARTILE
360
3C8
  0
DICTIONARY
  5
631
330
5EE
100
AcDbDictionary
280
     1
281
     1
  3
ACAD_XREC_ROUNDTRIP
360
959
  0
DICTIONARY
  5
41B
330
11B
100
AcDbDictionary
280
     1
281
     1
  3
ACAD_ROUNDTRIP_2008_TABLESTYLE_CELLSTYLEMAP
360
958
  0
XRECORD
  5
95A
102
{ACAD_REACTORS
330
633
102
}
330
633
100
AcDbXrecord
280
     1
102
DISPLAYNAME
  1
Metric50
102
FLAGS
 90
        0
  0
XRECORD
  5
3BF
102
{ACAD_REACTORS
330
3BD
102
}
330
3BD
100
AcDbXrecord
280
     1
270
     1
271
     1
  0
XRECORD
  5
3BE
102
{ACAD_REACTORS
330
3BD
102
}
330
3BD
100
AcDbXrecord
280
     1
270
     1
271
     1
  0
XRECORD
  5
3C2
102
{ACAD_REACTORS
330
3BD
102
}
330
3BD
100
AcDbXrecord
280
     1
270
     1
271
     1
  0
XRECORD
  5
3C1
102
{ACAD_REACTORS
330
3BD
102
}
330
3BD
100
AcDbXrecord
280
     1
270
     1
271
     1
  0
XRECORD
  5
3C3
102
{ACAD_REACTORS
330
3BD
102
}
330
3BD
100
AcDbXrecord
280
     1
270
     1
271
     1
  0
XRECORD
  5
3C0
102
{ACAD_REACTORS
330
3BD
102
}
330
3BD
100
AcDbXrecord
280
     1
270
     1
271
     1
  0
XRECORD
  5
3B7
102
{ACAD_REACTORS
330
3B5
102
}
330
3B5
100
AcDbXrecord
280
     1
270
     1
271
     1
  0
XRECORD
  5
3B6
102
{ACAD_REACTORS
330
3B5
102
}
330
3B5
100
AcDbXrecord
280
     1
270
     1
271
     1
  0
XRECORD
  5
3BA
102
{ACAD_REACTORS
330
3B5
102
}
330
3B5
100
AcDbXrecord
280
     1
270
     1
271
     1
  0
XRECORD
  5
3B9
102
{ACAD_REACTORS
330
3B5
102
}
330
3B5
100
AcDbXrecord
280
     1
270
     1
271
     1
  0
XRECORD
  5
3BB
102
{ACAD_REACTORS
330
3B5
102
}
330
3B5
100
AcDbXrecord
280
     1
270
     1
271
     1
  0
XRECORD
  5
3B8
102
{ACAD_REACTORS
330
3B5
102
}
330
3B5
100
AcDbXrecord
280
     1
270
     1
271
     1
  0
XRECORD
  5
3C7
102
{ACAD_REACTORS
330
3C5
102
}
330
3C5
100
AcDbXrecord
280
     1
270
     1
271
     1
  0
XRECORD
  5
3C6
102
{ACAD_REACTORS
330
3C5
102
}
330
3C5
100
AcDbXrecord
280
     1
270
     1
271
     1
  0
XRECORD
  5
3CA
102
{ACAD_REACTORS
330
3C5
102
}
330
3C5
100
AcDbXrecord
280
     1
270
     1
271
     1
  0
XRECORD
  5
3C9
102
{ACAD_REACTORS
330
3C5
102
}
330
3C5
100
AcDbXrecord
280
     1
270
     1
271
     1
  0
XRECORD
  5
3CB
102
{ACAD_REACTORS
330
3C5
102
}
330
3C5
100
AcDbXrecord
280
     1
270
     1
271
     1
  0
XRECORD
  5
3C8
102
{ACAD_REACTORS
330
3C5
102
}
330
3C5
100
AcDbXrecord
280
     1
270
     1
271
     1
  0
XRECORD
  5
959
102
{ACAD_REACTORS
330
631
102
}
330
631
100
AcDbXrecord
280
     1
102
DISPLAYNAME
  1
Metric50
102
FLAGS
 90
        0
  0
CELLSTYLEMAP
  5
958
102
{ACAD_REACTORS
330
41B
102
}
330
41B
100
AcDbCellStyleMap
 90
        3
300
CELLSTYLE
  1
TABLEFORMAT_BEGIN
 90
        5
170
     1
 91
        0
 92
    32768
 62
   257
 93
        1
300
CONTENTFORMAT
  1
CONTENTFORMAT_BEGIN
 90
        0
 91
        0
 92
        4
 93
        0
300

 40
0.0
140
1.0
 94
        5
 62
     0
340
11
144
6.0
309
CONTENTFORMAT_END
171
     1
301
MARGIN
  1
CELLMARGIN_BEGIN
 40
1.5
 40
1.5
 40
1.5
 40
1.5
 40
0.18
 40
0.18
309
CELLMARGIN_END
 94
        6
 95
        1
302
GRIDFORMAT
  1
GRIDFORMAT_BEGIN
 90
        0
 91
        1
 62
     0
 92
       -2
340
0
 93
        0
 40
0.045
309
GRIDFORMAT_END
 95
        2
302
GRIDFORMAT
  1
GRIDFORMAT_BEGIN
 90
        0
 91
        1
 62
     0
 92
       -2
340
0
 93
        0
 40
0.045
309
GRIDFORMAT_END
 95
        4
302
GRIDFORMAT
  1
GRIDFORMAT_BEGIN
 90
        0
 91
        1
 62
     0
 92
       -2
340
0
 93
        0
 40
0.045
309
GRIDFORMAT_END
 95
        8
302
GRIDFORMAT
  1
GRIDFORMAT_BEGIN
 90
        0
 91
        1
 62
     0
 92
       -2
340
0
 93
        0
 40
0.045
309
GRIDFORMAT_END
 95
       16
302
GRIDFORMAT
  1
GRIDFORMAT_BEGIN
 90
        0
 91
        1
 62
     0
 92
       -2
340
0
 93
        0
 40
0.045
309
GRIDFORMAT_END
 95
       32
302
GRIDFORMAT
  1
GRIDFORMAT_BEGIN
 90
        0
 91
        1
 62
     0
 92
       -2
340
0
 93
        0
 40
0.045
309
GRIDFORMAT_END
309
TABLEFORMAT_END
  1
CELLSTYLE_BEGIN
 90
        1
 91
        1
300
_TITLE
309
CELLSTYLE_END
300
CELLSTYLE
  1
TABLEFORMAT_BEGIN
 90
        5
170
     1
 91
        0
 92
        0
 62
   257
 93
        1
300
CONTENTFORMAT
  1
CONTENTFORMAT_BEGIN
 90
        0
 91
        0
 92
        4
 93
        0
300

 40
0.0
140
1.0
 94
        5
 62
     0
340
11
144
4.5
309
CONTENTFORMAT_END
171
     1
301
MARGIN
  1
CELLMARGIN_BEGIN
 40
1.5
 40
1.5
 40
1.5
 40
1.5
 40
0.18
 40
0.18
309
CELLMARGIN_END
 94
        6
 95
        1
302
GRIDFORMAT
  1
GRIDFORMAT_BEGIN
 90
        0
 91
        1
 62
     0
 92
       -2
340
0
 93
        0
 40
0.045
309
GRIDFORMAT_END
 95
        2
302
GRIDFORMAT
  1
GRIDFORMAT_BEGIN
 90
        0
 91
        1
 62
     0
 92
       -2
340
0
 93
        0
 40
0.045
309
GRIDFORMAT_END
 95
        4
302
GRIDFORMAT
  1
GRIDFORMAT_BEGIN
 90
        0
 91
        1
 62
     0
 92
       -2
340
0
 93
        0
 40
0.045
309
GRIDFORMAT_END
 95
        8
302
GRIDFORMAT
  1
GRIDFORMAT_BEGIN
 90
        0
 91
        1
 62
     0
 92
       -2
340
0
 93
        0
 40
0.045
309
GRIDFORMAT_END
 95
       16
302
GRIDFORMAT
  1
GRIDFORMAT_BEGIN
 90
        0
 91
        1
 62
     0
 92
       -2
340
0
 93
        0
 40
0.045
309
GRIDFORMAT_END
 95
       32
302
GRIDFORMAT
  1
GRIDFORMAT_BEGIN
 90
        0
 91
        1
 62
     0
 92
       -2
340
0
 93
        0
 40
0.045
309
GRIDFORMAT_END
309
TABLEFORMAT_END
  1
CELLSTYLE_BEGIN
 90
        2
 91
        1
300
_HEADER
309
CELLSTYLE_END
300
CELLSTYLE
  1
TABLEFORMAT_BEGIN
 90
        5
170
     1
 91
        0
 92
        0
 62
   257
 93
        1
300
CONTENTFORMAT
  1
CONTENTFORMAT_BEGIN
 90
        0
 91
        0
 92
        4
 93
        0
300

 40
0.0
140
1.0
 94
        2
 62
     0
340
11
144
4.5
309
CONTENTFORMAT_END
171
     1
301
MARGIN
  1
CELLMARGIN_BEGIN
 40
1.5
 40
1.5
 40
1.5
 40
1.5
 40
0.18
 40
0.18
309
CELLMARGIN_END
 94
        6
 95
        1
302
GRIDFORMAT
  1
GRIDFORMAT_BEGIN
 90
        0
 91
        1
 62
     0
 92
       -2
340
0
 93
        0
 40
0.045
309
GRIDFORMAT_END
 95
        2
302
GRIDFORMAT
  1
GRIDFORMAT_BEGIN
 90
        0
 91
        1
 62
     0
 92
       -2
340
0
 93
        0
 40
0.045
309
GRIDFORMAT_END
 95
        4
302
GRIDFORMAT
  1
GRIDFORMAT_BEGIN
 90
        0
 91
        1
 62
     0
 92
       -2
340
0
 93
        0
 40
0.045
309
GRIDFORMAT_END
 95
        8
302
GRIDFORMAT
  1
GRIDFORMAT_BEGIN
 90
        0
 91
        1
 62
     0
 92
       -2
340
0
 93
        0
 40
0.045
309
GRIDFORMAT_END
 95
       16
302
GRIDFORMAT
  1
GRIDFORMAT_BEGIN
 90
        0
 91
        1
 62
     0
 92
       -2
340
0
 93
        0
 40
0.045
309
GRIDFORMAT_END
 95
       32
302
GRIDFORMAT
  1
GRIDFORMAT_BEGIN
 90
        0
 91
        1
 62
     0
 92
       -2
340
0
 93
        0
 40
0.045
309
GRIDFORMAT_END
309
TABLEFORMAT_END
  1
CELLSTYLE_BEGIN
 90
        3
 91
        2
300
_DATA
309
CELLSTYLE_END
  0
ENDSEC
  0
SECTION
  2
ACDSDATA
 70
     2
 71
     6
  0
ACDSSCHEMA
 90
        0
  1
AcDb_Thumbnail_Schema
  2
AcDbDs::ID
280
    10
 91
        8
  2
Thumbnail_Data
280
    15
 91
        0
101
ACDSRECORD
 95
        0
 90
        1
  2
AcDbDs::TreatedAsObjectData
280
     1
291
     1
101
ACDSRECORD
 95
        0
 90
        2
  2
AcDbDs::Legacy
280
     1
291
     1
101
ACDSRECORD
  1
AcDbDs::ID
 90
        3
  2
AcDs:Indexable
280
     1
291
     1
101
ACDSRECORD
  1
AcDbDs::ID
 90
        4
  2
AcDbDs::HandleAttribute
280
     7
282
     1
  0
ACDSSCHEMA
 90
        1
  1
AcDbDs::TreatedAsObjectDataSchema
  2
AcDbDs::TreatedAsObjectData
280
     1
 91
        0
  0
ACDSSCHEMA
 90
        2
  1
AcDbDs::LegacySchema
  2
AcDbDs::Legacy
280
     1
 91
        0
  0
ACDSSCHEMA
 90
        3
  1
AcDbDs::IndexedPropertySchema
  2
AcDs:Indexable
280
     1
 91
        0
  0
ACDSSCHEMA
 90
        4
  1
AcDbDs::HandleAttributeSchema
  2
AcDbDs::HandleAttribute
280
     7
 91
        1
284
     1
  0
ACDSRECORD
 90
        0
  2
AcDbDs::ID
280
    10
320
22
  2
Thumbnail_Data
280
    15
 94
     1020
310
89504E470D0A1A0A0000000D494844520000010000000076080300000010A0BD3C00000300504C5445000000000000C8C8C80000000000000000000000000000000000000000000000000000330000660000990000CC0000FF0033000033330033660033990033CC0033FF0066000066330066660066990066CC0066FF0099
310
000099330099660099990099CC0099FF00CC0000CC3300CC6600CC9900CCCC00CCFF00FF0000FF3300FF6600FF9900FFCC00FFFF3300003300333300663300993300CC3300FF3333003333333333663333993333CC3333FF3366003366333366663366993366CC3366FF3399003399333399663399993399CC3399FF33CC00
310
33CC3333CC6633CC9933CCCC33CCFF33FF0033FF3333FF6633FF9933FFCC33FFFF6600006600336600666600996600CC6600FF6633006633336633666633996633CC6633FF6666006666336666666666996666CC6666FF6699006699336699666699996699CC6699FF66CC0066CC3366CC6666CC9966CCCC66CCFF66FF0066
310
FF3366FF6666FF9966FFCC66FFFF9900009900339900669900999900CC9900FF9933009933339933669933999933CC9933FF9966009966339966669966999966CC9966FF9999009999339999669999999999CC9999FF99CC0099CC3399CC6699CC9999CCCC99CCFF99FF0099FF3399FF6699FF9999FFCC99FFFFCC0000CC00
310
33CC0066CC0099CC00CCCC00FFCC3300CC3333CC3366CC3399CC33CCCC33FFCC6600CC6633CC6666CC6699CC66CCCC66FFCC9900CC9933CC9966CC9999CC99CCCC99FFCCCC00CCCC33CCCC66CCCC99CCCCCCCCCCFFCCFF00CCFF33CCFF66CCFF99CCFFCCCCFFFFFF0000FF0033FF0066FF0099FF00CCFF00FFFF3300FF3333
310
FF3366FF3399FF33CCFF33FFFF6600FF6633FF6666FF6699FF66CCFF66FFFF9900FF9933FF9966FF9999FF99CCFF99FFFFCC00FFCC33FFCC66FFCC99FFCCCCFFCCFFFFFF00FFFF33FFFF66FFFF99FFFFCCFFFFFF0000000D0D0D1A1A1A2828283535354343435050505D5D5D6B6B6B787878868686939393A1A1A1AEAEAEBB
310
BBBBC9C9C9D6D6D6E4E4E4F1F1F1FFFFFF00000000000000000000000000000000000000000000000000000000000008F1915C000000B74944415478DAEDD65B0AC2301040D1594EF7BF9ED946FE45431F69458B2D98C0393F42ABD2B903A11100000000000000000007D334955BE5E14AE701A2E422EAC7F2DC9B5B9FD56F
310
D700ED7F65F41F20F6CF3C07C8D3015E059A00CBFCD97780E786DECE1FDB6D7E15B5D85A609D7FA000CDFECF0FDFFC703BFC7C79B000B136F8E90C6CE68FEE03B487E0F5A565D9CF3F5A808B3B6BCECDC81102DCFD1E50067B0F000000000000000000000000000000000000F8BF077F5694F663B43F000000000049454E44
310
AE426082
  0
ENDSEC
  0
EOF
