  0
SECTION
  2
HEADER
  9
$ACADVER
  1
AC1015
  9
$ACADMAINTVER
 70
     6
  9
$DWGCODEPAGE
  3
ANSI_1252
  9
$INSBASE
 10
0.0
 20
0.0
 30
0.0
  9
$EXTMIN
 10
0.0
 20
0.0
 30
0.0
  9
$EXTMAX
 10
420.0
 20
297.0
 30
0.0
  9
$LIMMIN
 10
0.0
 20
0.0
  9
$LIMMAX
 10
420.0
 20
297.0
  9
$ORTHOMODE
 70
     0
  9
$REGENMODE
 70
     1
  9
$FILLMODE
 70
     1
  9
$QTEXTMODE
 70
     0
  9
$MIRRTEXT
 70
     1
  9
$LTSCALE
 40
1.0
  9
$ATTMODE
 70
     1
  9
$TEXTSIZE
 40
3.5
  9
$TRACEWID
 40
1.0
  9
$TEXTSTYLE
  7
Standard
  9
$CLAYER
  8
0
  9
$CELTYPE
  6
ByLayer
  9
$CECOLOR
 62
   256
  9
$CELTSCALE
 40
1.0
  9
$DISPSILH
 70
     0
  9
$DIMSCALE
 40
1.0
  9
$DIMASZ
 40
3.5
  9
$DIMEXO
 40
0.1
  9
$DIMDLI
 40
3.75
  9
$DIMRND
 40
0.0
  9
$DIMDLE
 40
0.0
  9
$DIMEXE
 40
1.0
  9
$DIMTP
 40
0.0
  9
$DIMTM
 40
0.0
  9
$DIMTXT
 40
3.5
  9
$DIMCEN
 40
2.5
  9
$DIMTSZ
 40
0.0
  9
$DIMTOL
 70
     0
  9
$DIMLIM
 70
     0
  9
$DIMTIH
 70
     1
  9
$DIMTOH
 70
     1
  9
$DIMSE1
 70
     0
  9
$DIMSE2
 70
     0
  9
$DIMTAD
 70
     1
  9
$DIMZIN
 70
     0
  9
$DIMBLK
  1

  9
$DIMASO
 70
     1
  9
$DIMSHO
 70
     1
  9
$DIMPOST
  1

  9
$DIMAPOST
  1

  9
$DIMALT
 70
     0
  9
$DIMALTD
 70
     3
  9
$DIMALTF
 40
0.0393700787
  9
$DIMLFAC
 40
1.0
  9
$DIMTOFL
 70
     1
  9
$DIMTVP
 40
0.0
  9
$DIMTIX
 70
     0
  9
$DIMSOXD
 70
     0
  9
$DIMSAH
 70
     0
  9
$DIMBLK1
  1

  9
$DIMBLK2
  1

  9
$DIMSTYLE
  2
ISO-25
  9
$DIMCLRD
 70
     0
  9
$DIMCLRE
 70
     0
  9
$DIMCLRT
 70
     0
  9
$DIMTFAC
 40
1.0
  9
$DIMGAP
 40
2.0
  9
$DIMJUST
 70
     0
  9
$DIMSD1
 70
     0
  9
$DIMSD2
 70
     0
  9
$DIMTOLJ
 70
     0
  9
$DIMTZIN
 70
     0
  9
$DIMALTZ
 70
     0
  9
$DIMALTTZ
 70
     0
  9
$DIMUPT
 70
     0
  9
$DIMDEC
 70
     2
  9
$DIMTDEC
 70
     3
  9
$DIMALTU
 70
     2
  9
$DIMALTTD
 70
     3
  9
$DIMTXSTY
  7
Standard
  9
$DIMAUNIT
 70
     0
  9
$DIMADEC
 70
     2
  9
$DIMALTRND
 40
0.0
  9
$DIMAZIN
 70
     0
  9
$DIMDSEP
 70
    44
  9
$DIMATFIT
 70
     3
  9
$DIMFRAC
 70
     0
  9
$DIMLDRBLK
  1

  9
$DIMLUNIT
 70
     2
  9
$DIMLWD
 70
    -2
  9
$DIMLWE
 70
    -2
  9
$DIMTMOVE
 70
     0
  9
$LUNITS
 70
     2
  9
$LUPREC
 70
     2
  9
$SKETCHINC
 40
1.0
  9
$FILLETRAD
 40
10.0
  9
$AUNITS
 70
     0
  9
$AUPREC
 70
     2
  9
$MENU
  1
.
  9
$ELEVATION
 40
0.0
  9
$PELEVATION
 40
0.0
  9
$THICKNESS
 40
0.0
  9
$LIMCHECK
 70
     0
  9
$CHAMFERA
 40
0.0
  9
$CHAMFERB
 40
0.0
  9
$CHAMFERC
 40
0.0
  9
$CHAMFERD
 40
0.0
  9
$SKPOLY
 70
     0
  9
$TDCREATE
 40
2460203.65765404
  9
$TDUCREATE
 40
2460203.574320706
  9
$TDUPDATE
 40
2460203.657662199
  9
$TDUUPDATE
 40
2460203.574328866
  9
$TDINDWG
 40
0.0000000116
  9
$TDUSRTIMER
 40
0.0000000116
  9
$USRTIMER
 70
     1
  9
$ANGBASE
 50
0.0
  9
$ANGDIR
 70
     0
  9
$PDMODE
 70
     0
  9
$PDSIZE
 40
-1.0
  9
$PLINEWID
 40
0.0
  9
$SPLFRAME
 70
     0
  9
$SPLINETYPE
 70
     6
  9
$SPLINESEGS
 70
     8
  9
$HANDSEED
  5
2ED
  9
$SURFTAB1
 70
     6
  9
$SURFTAB2
 70
     6
  9
$SURFTYPE
 70
     6
  9
$SURFU
 70
     6
  9
$SURFV
 70
     6
  9
$UCSBASE
  2

  9
$UCSNAME
  2

  9
$UCSORG
 10
0.0
 20
0.0
 30
0.0
  9
$UCSXDIR
 10
1.0
 20
0.0
 30
0.0
  9
$UCSYDIR
 10
0.0
 20
1.0
 30
0.0
  9
$UCSORTHOREF
  2

  9
$UCSORTHOVIEW
 70
     0
  9
$UCSORGTOP
 10
0.0
 20
0.0
 30
0.0
  9
$UCSORGBOTTOM
 10
0.0
 20
0.0
 30
0.0
  9
$UCSORGLEFT
 10
0.0
 20
0.0
 30
0.0
  9
$UCSORGRIGHT
 10
0.0
 20
0.0
 30
0.0
  9
$UCSORGFRONT
 10
0.0
 20
0.0
 30
0.0
  9
$UCSORGBACK
 10
0.0
 20
0.0
 30
0.0
  9
$PUCSBASE
  2

  9
$PUCSNAME
  2

  9
$PUCSORG
 10
0.0
 20
0.0
 30
0.0
  9
$PUCSXDIR
 10
1.0
 20
0.0
 30
0.0
  9
$PUCSYDIR
 10
0.0
 20
1.0
 30
0.0
  9
$PUCSORTHOREF
  2

  9
$PUCSORTHOVIEW
 70
     0
  9
$PUCSORGTOP
 10
0.0
 20
0.0
 30
0.0
  9
$PUCSORGBOTTOM
 10
0.0
 20
0.0
 30
0.0
  9
$PUCSORGLEFT
 10
0.0
 20
0.0
 30
0.0
  9
$PUCSORGRIGHT
 10
0.0
 20
0.0
 30
0.0
  9
$PUCSORGFRONT
 10
0.0
 20
0.0
 30
0.0
  9
$PUCSORGBACK
 10
0.0
 20
0.0
 30
0.0
  9
$USERI1
 70
     0
  9
$USERI2
 70
     0
  9
$USERI3
 70
     0
  9
$USERI4
 70
     0
  9
$USERI5
 70
     0
  9
$USERR1
 40
0.0
  9
$USERR2
 40
0.0
  9
$USERR3
 40
0.0
  9
$USERR4
 40
0.0
  9
$USERR5
 40
0.0
  9
$WORLDVIEW
 70
     1
  9
$SHADEDGE
 70
     3
  9
$SHADEDIF
 70
    70
  9
$TILEMODE
 70
     1
  9
$MAXACTVP
 70
    64
  9
$PINSBASE
 10
0.0
 20
0.0
 30
0.0
  9
$PLIMCHECK
 70
     0
  9
$PEXTMIN
 10
1.0000000000E+20
 20
1.0000000000E+20
 30
1.0000000000E+20
  9
$PEXTMAX
 10
-1.0000000000E+20
 20
-1.0000000000E+20
 30
-1.0000000000E+20
  9
$PLIMMIN
 10
0.0
 20
0.0
  9
$PLIMMAX
 10
420.0
 20
297.0
  9
$UNITMODE
 70
     0
  9
$VISRETAIN
 70
     1
  9
$PLINEGEN
 70
     0
  9
$PSLTSCALE
 70
     1
  9
$TREEDEPTH
 70
  3020
  9
$CMLSTYLE
  2
Standard
  9
$CMLJUST
 70
     0
  9
$CMLSCALE
 40
20.0
  9
$PROXYGRAPHICS
 70
     1
  9
$MEASUREMENT
 70
     1
  9
$CELWEIGHT
370
    -1
  9
$ENDCAPS
280
     0
  9
$JOINSTYLE
280
     0
  9
$LWDISPLAY
290
     1
  9
$INSUNITS
 70
     4
  9
$HYPERLINKBASE
  1

  9
$STYLESHEET
  1

  9
$XEDIT
290
     1
  9
$CEPSNTYPE
380
     0
  9
$PSTYLEMODE
290
     1
  9
$FINGERPRINTGUID
  2
{c14e8a12-fb80-4452-a5d9-c87ed335f183}
  9
$VERSIONGUID
  2
{FAEB1C32-E019-11D5-929B-00C0DF256EC4}
  9
$EXTNAMES
290
     1
  9
$PSVPSCALE
 40
0.0
  9
$OLESTARTUP
290
     0
  0
ENDSEC
  0
SECTION
  2
CLASSES
  0
CLASS
  1
ACDBDICTIONARYWDFLT
  2
AcDbDictionaryWithDefault
  3
ObjectDBX Classes
 90
        0
280
     0
281
     0
  0
CLASS
  1
VISUALSTYLE
  2
AcDbVisualStyle
  3
ObjectDBX Classes
 90
     4095
280
     0
281
     0
  0
CLASS
  1
MATERIAL
  2
AcDbMaterial
  3
ObjectDBX Classes
 90
     1153
280
     0
281
     0
  0
CLASS
  1
SCALE
  2
AcDbScale
  3
ObjectDBX Classes
 90
     1153
280
     0
281
     0
  0
CLASS
  1
TABLESTYLE
  2
AcDbTableStyle
  3
ObjectDBX Classes
 90
     4095
280
     0
281
     0
  0
CLASS
  1
MLEADERSTYLE
  2
AcDbMLeaderStyle
  3
ACDB_MLEADERSTYLE_CLASS
 90
     4095
280
     0
281
     0
  0
CLASS
  1
SUN
  2
AcDbSun
  3
SCENEOE
 90
     1153
280
     0
281
     0
  0
CLASS
  1
ACDBPLACEHOLDER
  2
AcDbPlaceHolder
  3
ObjectDBX Classes
 90
        0
280
     0
281
     0
  0
CLASS
  1
LAYOUT
  2
AcDbLayout
  3
ObjectDBX Classes
 90
        0
280
     0
281
     0
  0
ENDSEC
  0
SECTION
  2
TABLES
  0
TABLE
  2
VPORT
  5
8
330
0
100
AcDbSymbolTable
 70
     1
  0
VPORT
  5
29
330
8
100
AcDbSymbolTableRecord
100
AcDbViewportTableRecord
  2
*Active
 70
     0
 10
0.0
 20
0.0
 11
1.0
 21
1.0
 12
210.0
 22
148.5
 13
0.0
 23
0.0
 14
10.0
 24
10.0
 15
10.0
 25
10.0
 16
0.0
 26
0.0
 36
1.0
 17
0.0
 27
0.0
 37
0.0
 40
297.0
 41
1.4141414141
 42
50.0
 43
0.0
 44
0.0
 50
0.0
 51
0.0
 71
     0
 72
  2000
 73
     1
 74
     3
 75
     0
 76
     0
 77
     0
 78
     0
281
     0
 65
     1
110
0.0
120
0.0
130
0.0
111
1.0
121
0.0
131
0.0
112
0.0
122
1.0
132
0.0
 79
     0
146
0.0
  0
ENDTAB
  0
TABLE
  2
LTYPE
  5
5
330
0
100
AcDbSymbolTable
 70
     6
  0
LTYPE
  5
14
330
5
100
AcDbSymbolTableRecord
100
AcDbLinetypeTableRecord
  2
ByBlock
 70
     0
  3

 72
    65
 73
     0
 40
0.0
  0
LTYPE
  5
15
330
5
100
AcDbSymbolTableRecord
100
AcDbLinetypeTableRecord
  2
ByLayer
 70
     0
  3

 72
    65
 73
     0
 40
0.0
  0
LTYPE
  5
16
330
5
100
AcDbSymbolTableRecord
100
AcDbLinetypeTableRecord
  2
Continuous
 70
     0
  3
Solid line
 72
    65
 73
     0
 40
0.0
  0
LTYPE
  5
6E
330
5
100
AcDbSymbolTableRecord
100
AcDbLinetypeTableRecord
  2
HIDDEN
 70
     0
  3
Hidden __ __ __ __ __ __ __ __ __ __ __ __ __ __
 72
    65
 73
     2
 40
1.905
 49
1.27
 74
     0
 49
-0.635
 74
     0
  0
LTYPE
  5
6F
330
5
100
AcDbSymbolTableRecord
100
AcDbLinetypeTableRecord
  2
PHANTOM
 70
     0
  3
Phantom ______  __  __  ______  __  __  ______
 72
    65
 73
     6
 40
12.7
 49
6.35
 74
     0
 49
-1.27
 74
     0
 49
1.27
 74
     0
 49
-1.27
 74
     0
 49
1.27
 74
     0
 49
-1.27
 74
     0
  0
LTYPE
  5
70
330
5
100
AcDbSymbolTableRecord
100
AcDbLinetypeTableRecord
  2
CENTER
 70
     0
  3
Center ____ _ ____ _ ____ _ ____ _ ____ _ ____
 72
    65
 73
     4
 40
10.16
 49
6.35
 74
     0
 49
-1.27
 74
     0
 49
1.27
 74
     0
 49
-1.27
 74
     0
  0
LTYPE
  5
71
330
5
100
AcDbSymbolTableRecord
100
AcDbLinetypeTableRecord
  2
CENTERX2
 70
     0
  3
Center (2x) ________  __  ________  __  _____
 72
    65
 73
     4
 40
20.32
 49
12.7
 74
     0
 49
-2.54
 74
     0
 49
2.54
 74
     0
 49
-2.54
 74
     0
  0
LTYPE
  5
72
330
5
100
AcDbSymbolTableRecord
100
AcDbLinetypeTableRecord
  2
DOT2
 70
     0
  3
Dot (.5x) ........................................
 72
    65
 73
     2
 40
0.635
 49
0.0
 74
     0
 49
-0.635
 74
     0
  0
ENDTAB
  0
TABLE
  2
LAYER
  5
2
330
0
100
AcDbSymbolTable
 70
     9
  0
LAYER
  5
10
330
2
100
AcDbSymbolTableRecord
100
AcDbLayerTableRecord
  2
0
 70
     0
 62
     7
  6
Continuous
370
    -3
390
F
  0
LAYER
  5
73
330
2
100
AcDbSymbolTableRecord
100
AcDbLayerTableRecord
  2
VORLAGE_TEXT
 70
     0
 62
     7
  6
Continuous
370
    -3
390
F
  0
LAYER
  5
74
330
2
100
AcDbSymbolTableRecord
100
AcDbLayerTableRecord
  2
VORLAGE_BEMASSUNG
 70
     0
 62
    -5
  6
Continuous
290
     0
370
    -3
390
F
  0
LAYER
  5
75
330
2
100
AcDbSymbolTableRecord
100
AcDbLayerTableRecord
  2
TEXT
 70
     0
 62
     7
  6
Continuous
370
    -3
390
F
  0
LAYER
  5
76
330
2
100
AcDbSymbolTableRecord
100
AcDbLayerTableRecord
  2
LINIEN-DICK
 70
     0
 62
     7
  6
Continuous
370
    35
390
F
  0
LAYER
  5
77
330
2
100
AcDbSymbolTableRecord
100
AcDbLayerTableRecord
  2
LINIEN-NORMAL
 70
     0
 62
     7
  6
Continuous
370
    25
390
F
  0
LAYER
  5
78
330
2
100
AcDbSymbolTableRecord
100
AcDbLayerTableRecord
  2
LINIEN-DÜNN
 70
     0
 62
     7
  6
Continuous
370
    -3
390
F
  0
LAYER
  5
79
330
2
100
AcDbSymbolTableRecord
100
AcDbLayerTableRecord
  2
TEXT-DEUTSCH
 70
     0
 62
     7
  6
Continuous
370
    -3
390
F
  0
LAYER
  5
7A
330
2
100
AcDbSymbolTableRecord
100
AcDbLayerTableRecord
  2
TEXT-ENGLISCH
 70
     0
 62
    -7
  6
Continuous
290
     0
370
    -3
390
F
  0
ENDTAB
  0
TABLE
  2
STYLE
  5
3
330
0
100
AcDbSymbolTable
 70
     3
  0
STYLE
  5
11
330
3
100
AcDbSymbolTableRecord
100
AcDbTextStyleTableRecord
  2
Standard
 70
     0
 40
0.0
 41
1.0
 50
0.0
 71
     0
 42
3.5
  3
txt
  4

  0
STYLE
  5
F1
330
3
100
AcDbSymbolTableRecord
100
AcDbTextStyleTableRecord
  2
SLDTEXTSTYLE0
 70
     0
 40
0.0
 41
0.605
 50
0.0
 71
     0
 42
3.5
  3
TXT
  4

  0
STYLE
  5
19A
330
3
100
AcDbSymbolTableRecord
100
AcDbTextStyleTableRecord
  2
SLDTEXTSTYLE1
 70
     0
 40
0.0
 41
0.563
 50
0.0
 71
     0
 42
3.5
  3
TXT
  4

  0
ENDTAB
  0
TABLE
  2
VIEW
  5
6
330
0
100
AcDbSymbolTable
 70
     0
  0
ENDTAB
  0
TABLE
  2
UCS
  5
7
330
0
100
AcDbSymbolTable
 70
     0
  0
ENDTAB
  0
TABLE
  2
APPID
  5
9
330
0
100
AcDbSymbolTable
 70
     1
  0
APPID
  5
12
330
9
100
AcDbSymbolTableRecord
100
AcDbRegAppTableRecord
  2
ACAD
 70
     0
  0
ENDTAB
  0
TABLE
  2
DIMSTYLE
  5
A
330
0
100
AcDbSymbolTable
 70
     4
100
AcDbDimStyleTable
  0
DIMSTYLE
105
27
330
A
100
AcDbSymbolTableRecord
100
AcDbDimStyleTableRecord
  2
ISO-25
 70
     0
 41
2.5
 42
0.625
 43
3.75
 44
1.25
 73
     0
 74
     0
 77
     1
 78
     8
140
2.5
141
2.5
143
0.0393700787
147
0.625
171
     3
172
     1
178
     0
271
     2
272
     2
274
     3
278
    44
283
     0
284
     8
340
11
  0
DIMSTYLE
105
1B0
102
{ACAD_REACTORS
330
1AF
102
}
330
A
100
AcDbSymbolTableRecord
100
AcDbDimStyleTableRecord
  2
SLDDIMSTYLE0
 70
     0
 41
3.5
 44
0.0
 45
0.000000001
 73
     0
 74
     0
 77
     1
 78
    12
 79
     3
140
3.5
141
0.0
147
0.875
173
     1
178
     0
271
     1
272
     3
276
     2
284
    12
340
F1
  0
DIMSTYLE
105
1B9
102
{ACAD_REACTORS
330
1B8
102
}
330
A
100
AcDbSymbolTableRecord
100
AcDbDimStyleTableRecord
  2
SLDDIMSTYLE1
 70
     0
 41
3.5
 44
0.0
 45
0.000000001
 73
     0
 74
     0
 77
     1
 78
    12
 79
     3
140
3.5
141
0.0
147
0.875
172
     1
173
     1
178
     0
271
     2
272
     3
276
     2
284
    12
340
F1
  0
DIMSTYLE
105
297
102
{ACAD_REACTORS
330
296
102
}
330
A
100
AcDbSymbolTableRecord
100
AcDbDimStyleTableRecord
  2
SLDDIMSTYLE2
 70
     0
 41
3.5
 44
0.0
 45
0.000000001
 73
     0
 74
     0
 77
     1
 78
    12
 79
     3
140
3.5
147
0.875
173
     1
178
     0
271
     2
272
     3
276
     2
284
    12
340
F1
  0
ENDTAB
  0
TABLE
  2
BLOCK_RECORD
  5
1
330
0
100
AcDbSymbolTable
 70
    10
  0
BLOCK_RECORD
  5
1F
330
1
100
AcDbSymbolTableRecord
100
AcDbBlockTableRecord
  2
*Model_Space
340
22
  0
BLOCK_RECORD
  5
1B
330
1
100
AcDbSymbolTableRecord
100
AcDbBlockTableRecord
  2
*Paper_Space
340
1E
  0
BLOCK_RECORD
  5
23
330
1
100
AcDbSymbolTableRecord
100
AcDbBlockTableRecord
  2
*Paper_Space0
340
26
  0
BLOCK_RECORD
  5
7B
330
1
100
AcDbSymbolTableRecord
100
AcDbBlockTableRecord
  2
ACO-Logo
340
0
102
{BLKREFS
331
151
102
}
  0
BLOCK_RECORD
  5
EE
330
1
100
AcDbSymbolTableRecord
100
AcDbBlockTableRecord
  2
SW_NOTE_0
340
0
102
{BLKREFS
331
F3
102
}
  0
BLOCK_RECORD
  5
F4
330
1
100
AcDbSymbolTableRecord
100
AcDbBlockTableRecord
  2
SW_NOTE_0_1
340
0
102
{BLKREFS
331
F8
102
}
  0
BLOCK_RECORD
  5
F9
330
1
100
AcDbSymbolTableRecord
100
AcDbBlockTableRecord
  2
SW_NOTE_0_2
340
0
102
{BLKREFS
331
100
102
}
  0
BLOCK_RECORD
  5
178
330
1
100
AcDbSymbolTableRecord
100
AcDbBlockTableRecord
  2
SW_NOTE_0_3
340
0
102
{BLKREFS
331
180
102
}
  0
BLOCK_RECORD
  5
1B1
330
1
100
AcDbSymbolTableRecord
100
AcDbBlockTableRecord
  2
_D
340
0
  0
BLOCK_RECORD
  5
1BA
330
1
100
AcDbSymbolTableRecord
100
AcDbBlockTableRecord
  2
_D_1
340
0
  0
BLOCK_RECORD
  5
1C3
330
1
100
AcDbSymbolTableRecord
100
AcDbBlockTableRecord
  2
SW_CENTERMARKSYMBOL_0
340
0
102
{BLKREFS
331
1CE
102
}
  0
BLOCK_RECORD
  5
298
330
1
100
AcDbSymbolTableRecord
100
AcDbBlockTableRecord
  2
_D_2
340
0
  0
ENDTAB
  0
ENDSEC
  0
SECTION
  2
BLOCKS
  0
BLOCK
  5
20
330
1F
100
AcDbEntity
  8
0
100
AcDbBlockBegin
  2
*Model_Space
 70
     0
 10
0.0
 20
0.0
 30
0.0
  3
*Model_Space
  1

  0
ENDBLK
  5
21
330
1F
100
AcDbEntity
  8
0
100
AcDbBlockEnd
  0
BLOCK
  5
1C
330
1B
100
AcDbEntity
 67
     1
  8
0
100
AcDbBlockBegin
  2
*Paper_Space
 70
     0
 10
0.0
 20
0.0
 30
0.0
  3
*Paper_Space
  1

  0
ENDBLK
  5
1D
330
1B
100
AcDbEntity
 67
     1
  8
0
100
AcDbBlockEnd
  0
BLOCK
  5
24
330
23
100
AcDbEntity
  8
0
100
AcDbBlockBegin
  2
*Paper_Space0
 70
     0
 10
0.0
 20
0.0
 30
0.0
  3
*Paper_Space0
  1

  0
ENDBLK
  5
25
330
23
100
AcDbEntity
  8
0
100
AcDbBlockEnd
  0
BLOCK
  5
7C
330
7B
100
AcDbEntity
  8
0
100
AcDbBlockBegin
  2
ACO-Logo
 70
     0
 10
0.0
 20
0.0
 30
0.0
  3
ACO-Logo
  1

  0
ARC
  5
7E
330
7B
100
AcDbEntity
  8
0
  6
Continuous
 62
   179
370
    18
100
AcDbCircle
 10
80.3853261169
 20
4.9940995715
 30
0.0
 40
0.3000000000000441
100
AcDbArc
 50
181.9349323096
 51
274.6062978506
  0
ARC
  5
7F
330
7B
100
AcDbEntity
  8
0
  6
Continuous
 62
   179
370
    18
100
AcDbCircle
 10
81.2359083165
 20
2.1946665956
 30
0.0
 40
1.000000000000021
100
AcDbArc
 50
221.4087409628
 51
276.0561297228
  0
ARC
  5
80
330
7B
100
AcDbEntity
  8
0
  6
Continuous
 62
   179
370
    18
100
AcDbCircle
 10
79.1360017163
 20
3.654242048
 30
0.0
 40
0.300000000000004
100
AcDbArc
 50
181.2730300201
 51
274.4996077095
  0
ARC
  5
81
330
7B
100
AcDbEntity
  8
0
  6
Continuous
 62
   179
370
    18
100
AcDbCircle
 10
78.7699033484
 20
3.2873137407
 30
0.0
 40
0.4000000000000358
100
AcDbArc
 50
221.0090869016
 51
274.5606296317
  0
ARC
  5
82
330
7B
100
AcDbEntity
  8
0
  6
Continuous
 62
   179
370
    18
100
AcDbCircle
 10
91.2333953062
 20
4.6062442307
 30
0.0
 40
0.3000000000000493
100
AcDbArc
 50
274.4996077095
 51
3.7249371334
  0
ARC
  5
83
330
7B
100
AcDbEntity
  8
0
  6
Continuous
 62
   179
370
    18
100
AcDbCircle
 10
81.5287571045
 20
9.7648973508
 30
0.0
 40
1.00000000000002
100
AcDbArc
 50
93.1134387481
 51
181.9414863909
  0
ARC
  5
84
330
7B
100
AcDbEntity
  8
0
  6
Continuous
 62
   179
370
    18
100
AcDbCircle
 10
81.6051675115
 20
7.5107903456
 30
0.0
 40
1.0
100
AcDbArc
 50
181.9414863909
 51
274.398705355
  0
ARC
  5
85
330
7B
100
AcDbEntity
  8
0
  6
Continuous
 62
   179
370
    18
100
AcDbCircle
 10
80.1506905656
 20
11.9393118923
 30
0.0
 40
0.300000000000045
100
AcDbArc
 50
93.0418421566
 51
181.9349323096
  0
ARC
  5
86
330
7B
100
AcDbEntity
  8
0
  6
Continuous
 62
   179
370
    18
100
AcDbCircle
 10
78.1879722102
 20
12.3499352608
 30
0.0
 40
0.7999999999953393
100
AcDbArc
 50
92.6995697565
 51
148.2554209065
  0
ARC
  5
87
330
7B
100
AcDbEntity
  8
0
  6
Continuous
 62
   179
370
    18
100
AcDbCircle
 10
78.930862229
 20
12.8855189761
 30
0.0
 40
0.3000000000000031
100
AcDbArc
 50
92.6995697565
 51
181.2730300201
  0
ARC
  5
88
330
7B
100
AcDbEntity
  8
0
  6
Continuous
 62
   179
370
    18
100
AcDbCircle
 10
82.327743407
 20
9.8083568568
 30
0.0
 40
1.000000000000034
100
AcDbArc
 50
1.9414863909
 51
93.1134387481
  0
ARC
  5
89
330
7B
100
AcDbEntity
  8
0
  6
Continuous
 62
   179
370
    18
100
AcDbCircle
 10
81.5287571045
 20
9.7648973508
 30
0.0
 40
0.3625000000000009
100
AcDbArc
 50
93.1134387481
 51
181.9414863909
  0
ARC
  5
8A
330
7B
100
AcDbEntity
  8
0
  6
Continuous
 62
   179
370
    18
100
AcDbCircle
 10
82.327743407
 20
9.8083568568
 30
0.0
 40
0.3625000000000146
100
AcDbArc
 50
1.9414863909
 51
93.1134387481
  0
ARC
  5
8B
330
7B
100
AcDbEntity
  8
0
  6
Continuous
 62
   179
370
    18
100
AcDbCircle
 10
82.4035451983
 20
7.5722040138
 30
0.0
 40
1.000000000000008
100
AcDbArc
 50
274.398705355
 51
1.9414863909
  0
ARC
  5
8C
330
7B
100
AcDbEntity
  8
0
  6
Continuous
 62
   179
370
    18
100
AcDbCircle
 10
82.4035451983
 20
7.5722040138
 30
0.0
 40
0.3625000000000068
100
AcDbArc
 50
274.398705355
 51
1.9414863909
  0
ARC
  5
8D
330
7B
100
AcDbEntity
  8
0
  6
Continuous
 62
   179
370
    18
100
AcDbCircle
 10
81.6051675115
 20
7.5107903456
 30
0.0
 40
0.3625000000000111
100
AcDbArc
 50
181.9414863909
 51
274.398705355
  0
ARC
  5
8E
330
7B
100
AcDbEntity
  8
0
  6
Continuous
 62
   179
370
    18
100
AcDbCircle
 10
88.825822761
 20
8.0662148274
 30
0.0
 40
0.9999999999999997
100
AcDbArc
 50
274.398705355
 51
2.6541955134
  0
ARC
  5
8F
330
7B
100
AcDbEntity
  8
0
  6
Continuous
 62
   179
370
    18
100
AcDbCircle
 10
90.1578295581
 20
5.7814576687
 30
0.0
 40
0.3000000000000043
100
AcDbArc
 50
274.6062978507
 51
2.5147526475
  0
ARC
  5
90
330
7B
100
AcDbEntity
  8
0
  6
Continuous
 62
   179
370
    18
100
AcDbCircle
 10
88.825822761
 20
8.0662148274
 30
0.0
 40
0.3625000000000083
100
AcDbArc
 50
274.398705355
 51
2.6541955134
  0
ARC
  5
91
330
7B
100
AcDbEntity
  8
0
  6
Continuous
 62
   179
370
    18
100
AcDbCircle
 10
88.728529747
 20
10.16496413
 30
0.0
 40
1.000000000000001
100
AcDbArc
 50
2.6541955134
 51
93.1134387481
  0
ARC
  5
92
330
7B
100
AcDbEntity
  8
0
  6
Continuous
 62
   179
370
    18
100
AcDbCircle
 10
88.728529747
 20
10.16496413
 30
0.0
 40
0.3625000000000085
100
AcDbArc
 50
2.6541955134
 51
93.1134387481
  0
ARC
  5
93
330
7B
100
AcDbEntity
  8
0
  6
Continuous
 62
   179
370
    18
100
AcDbCircle
 10
89.8647121341
 20
12.455515937
 30
0.0
 40
0.2999999999999984
100
AcDbArc
 50
2.5147526475
 51
93.0418421566
  0
ARC
  5
94
330
7B
100
AcDbEntity
  8
0
  6
Continuous
 62
   179
370
    18
100
AcDbCircle
 10
90.6583795404
 20
13.4384863935
 30
0.0
 40
0.2999999999999911
100
AcDbArc
 50
3.7249371334
 51
92.6995697565
  0
CIRCLE
  5
95
330
7B
100
AcDbEntity
  8
0
  6
Continuous
 62
   179
370
    18
100
AcDbCircle
 10
15.7233972286
 20
6.4054930194
 30
0.0
 40
1.579500000000014
  0
CIRCLE
  5
96
330
7B
100
AcDbEntity
  8
0
  6
Continuous
 62
   179
370
    18
100
AcDbCircle
 10
15.7233972286
 20
6.4054930194
 30
0.0
 40
2.281499999999994
  0
ARC
  5
97
330
7B
100
AcDbEntity
  8
0
  6
Continuous
 62
   179
370
    18
100
AcDbCircle
 10
89.7681336026
 20
2.3106616691
 30
0.0
 40
0.098384530246548
100
AcDbArc
 50
332.3802627259
 51
4.9765441602
  0
ARC
  5
98
330
7B
100
AcDbEntity
  8
0
  6
Continuous
 62
   179
370
    18
100
AcDbCircle
 10
89.6886560089
 20
2.3522464185
 30
0.0
 40
0.1880839130754018
100
AcDbArc
 50
303.690067526
 51
332.3802627258
  0
ARC
  5
99
330
7B
100
AcDbEntity
  8
0
  6
Continuous
 62
   179
370
    18
100
AcDbCircle
 10
89.4849700869
 20
2.6577753016
 30
0.0
 40
0.5552839311631531
100
AcDbArc
 50
287.108652213
 51
303.690067526
  0
ARC
  5
9A
330
7B
100
AcDbEntity
  8
0
  6
Continuous
 62
   179
370
    18
100
AcDbCircle
 10
88.0513010646
 20
7.3154864882
 30
0.0
 40
5.428648309393203
100
AcDbArc
 50
285.2551187031
 51
287.108652213
  0
ARC
  5
9B
330
7B
100
AcDbEntity
  8
0
  6
Continuous
 62
   179
370
    18
100
AcDbCircle
 10
89.1317168954
 20
3.3539617753
 30
0.0
 40
1.322436378825653
100
AcDbArc
 50
281.4991866428
 51
285.255118703
  0
ARC
  5
9C
330
7B
100
AcDbEntity
  8
0
  6
Continuous
 62
   179
370
    18
100
AcDbCircle
 10
89.3198255509
 20
2.4293110075
 30
0.0
 40
0.3788454141584939
100
AcDbArc
 50
279.1917900003
 51
281.499186643
  0
ARC
  5
9D
330
7B
100
AcDbEntity
  8
0
  6
Continuous
 62
   179
370
    18
100
AcDbCircle
 10
89.0487250788
 20
4.1046569124
 30
0.0
 40
2.07598399629105
100
AcDbArc
 50
277.7634675038
 51
279.1917900002
  0
ARC
  5
9E
330
7B
100
AcDbEntity
  8
0
  6
Continuous
 62
   179
370
    18
100
AcDbCircle
 10
9.2588909915
 20
6.4054930194
 30
0.0
 40
1.579500000000074
100
AcDbArc
 50
31.0558004991
 51
330.0
  0
ARC
  5
9F
330
7B
100
AcDbEntity
  8
0
  6
Continuous
 62
   179
370
    18
100
AcDbCircle
 10
9.2588909915
 20
6.4054930194
 30
0.0
 40
2.281500000000107
100
AcDbArc
 50
30.7309172659
 51
330.0
  0
ARC
  5
A0
330
7B
100
AcDbEntity
  8
0
  6
Continuous
 62
   179
370
    18
100
AcDbCircle
 10
6.1288847544
 20
4.0685261312
 30
0.0
 40
4.914000000000307
100
AcDbArc
 50
172.3058370354
 51
179.7113029221
  0
ARC
  5
A1
330
7B
100
AcDbEntity
  8
0
  6
Continuous
 62
   179
370
    18
100
AcDbCircle
 10
-0.5401152456
 20
4.0685261312
 30
0.0
 40
4.91400000000019
100
AcDbArc
 50
0.2886970779
 51
7.6941629646
  0
ARC
  5
A2
330
7B
100
AcDbEntity
  8
0
  6
Continuous
 62
   179
370
    18
100
AcDbCircle
 10
-0.5401152456
 20
4.0685261312
 30
0.0
 40
5.616000000000127
100
AcDbArc
 50
0.2526096926
 51
53.5764263577
  0
ARC
  5
A3
330
7B
100
AcDbEntity
  8
0
  6
Continuous
 62
   179
370
    18
100
AcDbCircle
 10
6.1288847544
 20
4.0685261312
 30
0.0
 40
5.61600000000074
100
AcDbArc
 50
126.4235736423
 51
179.7473903073
  0
ARC
  5
A4
330
7B
100
AcDbEntity
  8
0
  6
Continuous
 62
   179
370
    18
100
AcDbCircle
 10
-0.5401152456
 20
4.0685261312
 30
0.0
 40
4.914000000000161
100
AcDbArc
 50
16.0658750272
 51
47.2678899574
  0
ARC
  5
A5
330
7B
100
AcDbEntity
  8
0
  6
Continuous
 62
   179
370
    18
100
AcDbCircle
 10
6.1288847544
 20
4.0685261312
 30
0.0
 40
4.914000000000584
100
AcDbArc
 50
132.7321100426
 51
163.9341249728
  0
LINE
  5
A6
330
7B
100
AcDbEntity
  8
0
  6
Continuous
 62
   179
370
    18
100
AcDbLine
 10
78.8017089389
 20
2.8885802402
 30
0.0
 11
90.7982178739
 21
3.8455002136
 31
0.0
  0
LINE
  5
A7
330
7B
100
AcDbEntity
  8
0
  6
Continuous
 62
   179
370
    18
100
AcDbLine
 10
76.6545490427
 20
5.8693097374
 30
0.0
 11
78.0344191726
 21
3.5235305166
 31
0.0
  0
LINE
  5
A8
330
7B
100
AcDbEntity
  8
0
  6
Continuous
 62
   179
370
    18
100
AcDbLine
 10
91.5327615373
 20
4.6257342197
 30
0.0
 11
90.9577457715
 21
13.4579763825
 31
0.0
  0
LINE
  5
A9
330
7B
100
AcDbEntity
  8
0
  6
Continuous
 62
   179
370
    18
100
AcDbLine
 10
78.6309362756
 20
12.8788539549
 30
0.0
 11
78.8360757629
 21
3.6475770268
 31
0.0
  0
LINE
  5
AA
330
7B
100
AcDbEntity
  8
0
  6
Continuous
 62
   179
370
    18
100
AcDbLine
 10
80.4094186633
 20
4.6950685544
 30
0.0
 11
90.1819221045
 21
5.4824266516
 31
0.0
  0
LINE
  5
AB
330
7B
100
AcDbEntity
  8
0
  6
Continuous
 62
   179
370
    18
100
AcDbLine
 10
79.1595373973
 20
3.3551666867
 30
0.0
 11
91.2569309872
 21
4.3071688694
 31
0.0
  0
LINE
  5
AC
330
7B
100
AcDbEntity
  8
0
  6
Continuous
 62
   179
370
    18
100
AcDbLine
 10
79.2585043218
 20
2.925017226
 30
0.0
 11
80.4858981444
 21
1.533240302
 31
0.0
  0
LINE
  5
AD
330
7B
100
AcDbEntity
  8
0
  6
Continuous
 62
   179
370
    18
100
AcDbLine
 10
78.0344191726
 20
3.5235305166
 30
0.0
 11
78.3638740472
 21
3.1446574108
 31
0.0
  0
LINE
  5
AE
330
7B
100
AcDbEntity
  8
0
  6
Continuous
 62
   179
370
    18
100
AcDbLine
 10
78.3638740472
 20
3.1446574108
 30
0.0
 11
78.4680611395
 21
3.0248422547
 31
0.0
  0
LINE
  5
AF
330
7B
100
AcDbEntity
  8
0
  6
Continuous
 62
   179
370
    18
100
AcDbLine
 10
81.3414110113
 20
1.2002475785
 30
0.0
 11
89.3291569519
 21
2.0477010263
 31
0.0
  0
LINE
  5
B0
330
7B
100
AcDbEntity
  8
0
  6
Continuous
 62
   179
370
    18
100
AcDbLine
 10
89.8661472522
 20
2.5197759309
 30
0.0
 11
89.8661472522
 21
2.3090867337
 31
0.0
  0
LINE
  5
B1
330
7B
100
AcDbEntity
  8
0
  6
Continuous
 62
   179
370
    18
100
AcDbLine
 10
88.676842368
 20
3.6762854359
 30
0.0
 11
89.6713239345
 21
2.7875997807
 31
0.0
  0
LINE
  5
B2
330
7B
100
AcDbEntity
  8
0
  6
Continuous
 62
   179
370
    18
100
AcDbLine
 10
89.6713239345
 20
2.7875997807
 30
0.0
 11
89.7459749087
 21
2.7242700694
 31
0.0
  0
LINE
  5
B3
330
7B
100
AcDbEntity
  8
0
  6
Continuous
 62
   179
370
    18
100
AcDbLine
 10
90.7982178739
 20
3.8455002136
 30
0.0
 11
91.3961615969
 21
4.3514525945
 31
0.0
  0
LINE
  5
B4
330
7B
100
AcDbEntity
  8
0
  6
Continuous
 62
   179
370
    18
100
AcDbLine
 10
90.6442498554
 20
13.7381534621
 30
0.0
 11
78.1502930503
 21
13.1490474438
 31
0.0
  0
LINE
  5
B5
330
7B
100
AcDbEntity
  8
0
  6
Continuous
 62
   179
370
    18
100
AcDbLine
 10
80.1347709981
 20
12.2388892068
 30
0.0
 11
89.8487925667
 21
12.7550932515
 31
0.0
  0
LINE
  5
B6
330
7B
100
AcDbEntity
  8
0
  6
Continuous
 62
   179
370
    18
100
AcDbLine
 10
76.4935641943
 20
11.7567556248
 30
0.0
 11
76.6545490427
 21
5.8693097374
 31
0.0
  0
LINE
  5
B7
330
7B
100
AcDbEntity
  8
0
  6
Continuous
 62
   179
370
    18
100
AcDbLine
 10
79.8508616208
 20
11.929182536
 30
0.0
 11
80.0854971721
 21
4.9839702153
 31
0.0
  0
LINE
  5
B8
330
7B
100
AcDbEntity
  8
0
  6
Continuous
 62
   179
370
    18
100
AcDbLine
 10
80.5293311574
 20
9.7310185051
 30
0.0
 11
80.6057415643
 21
7.4769115
 31
0.0
  0
LINE
  5
B9
330
7B
100
AcDbEntity
  8
0
  6
Continuous
 62
   179
370
    18
100
AcDbLine
 10
77.507650604
 20
12.7708420346
 30
0.0
 11
76.4935641943
 21
11.7567556248
 31
0.0
  0
LINE
  5
BA
330
7B
100
AcDbEntity
  8
0
  6
Continuous
 62
   179
370
    18
100
AcDbLine
 10
86.8848195129
 20
11.0661568594
 30
0.0
 11
88.6742167283
 21
11.1634880887
 31
0.0
  0
LINE
  5
BB
330
7B
100
AcDbEntity
  8
0
  6
Continuous
 62
   179
370
    18
100
AcDbLine
 10
87.0766213517
 20
6.9287171941
 30
0.0
 11
88.90708891
 21
7.0695223909
 31
0.0
  0
LINE
  5
BC
330
7B
100
AcDbEntity
  8
0
  6
Continuous
 62
   179
370
    18
100
AcDbLine
 10
87.6830038473
 20
7.6147347768
 30
0.0
 11
88.8536252418
 21
7.7047825764
 31
0.0
  0
LINE
  5
BD
330
7B
100
AcDbEntity
  8
0
  6
Continuous
 62
   179
370
    18
100
AcDbLine
 10
87.5509212094
 20
10.4639459651
 30
0.0
 11
88.7088412777
 21
10.5269290651
 31
0.0
  0
LINE
  5
BE
330
7B
100
AcDbEntity
  8
0
  6
Continuous
 62
   179
370
    18
100
AcDbLine
 10
87.0766218384
 20
6.9287066941
 30
0.0
 11
86.8848195129
 21
11.0661568594
 31
0.0
  0
LINE
  5
BF
330
7B
100
AcDbEntity
  8
0
  6
Continuous
 62
   179
370
    18
100
AcDbLine
 10
83.7004598825
 20
6.6667911093
 30
0.0
 11
84.5054929504
 21
10.9267193262
 31
0.0
  0
LINE
  5
C0
330
7B
100
AcDbEntity
  8
0
  6
Continuous
 62
   179
370
    18
100
AcDbLine
 10
85.3543248406
 20
10.9728900984
 30
0.0
 11
86.4940946704
 21
6.8816860929
 31
0.0
  0
LINE
  5
C1
330
7B
100
AcDbEntity
  8
0
  6
Continuous
 62
   179
370
    18
100
AcDbLine
 10
84.9728575427
 20
9.9667192298
 30
0.0
 11
85.4540299774
 21
8.2395506903
 31
0.0
  0
LINE
  5
C2
330
7B
100
AcDbEntity
  8
0
  6
Continuous
 62
   179
370
    18
100
AcDbLine
 10
84.6363094629
 20
8.1858350416
 30
0.0
 11
84.9728575427
 21
9.9667192298
 31
0.0
  0
LINE
  5
C3
330
7B
100
AcDbEntity
  8
0
  6
Continuous
 62
   179
370
    18
100
AcDbLine
 10
87.6830038473
 20
7.6147347768
 30
0.0
 11
87.5509212094
 21
10.4639459651
 31
0.0
  0
LINE
  5
C4
330
7B
100
AcDbEntity
  8
0
  6
Continuous
 62
   179
370
    18
100
AcDbLine
 10
84.6363094629
 20
8.1858350416
 30
0.0
 11
85.4540299774
 21
8.2395506903
 31
0.0
  0
LINE
  5
C5
330
7B
100
AcDbEntity
  8
0
  6
Continuous
 62
   179
370
    18
100
AcDbLine
 10
84.5140586807
 20
7.5389304886
 30
0.0
 11
85.6288154243
 21
7.6121582976
 31
0.0
  0
LINE
  5
C6
330
7B
100
AcDbEntity
  8
0
  6
Continuous
 62
   179
370
    18
100
AcDbLine
 10
84.3588137958
 20
6.717433718
 30
0.0
 11
84.5140586807
 21
7.5389304886
 31
0.0
  0
LINE
  5
C7
330
7B
100
AcDbEntity
  8
0
  6
Continuous
 62
   179
370
    18
100
AcDbLine
 10
81.6818640104
 20
6.5137358601
 30
0.0
 11
82.4802416972
 21
6.5751495283
 31
0.0
  0
LINE
  5
C8
330
7B
100
AcDbEntity
  8
0
  6
Continuous
 62
   179
370
    18
100
AcDbLine
 10
81.6329699923
 20
7.1493580946
 30
0.0
 11
82.4313476791
 21
7.2107717628
 31
0.0
  0
LINE
  5
C9
330
7B
100
AcDbEntity
  8
0
  6
Continuous
 62
   179
370
    18
100
AcDbLine
 10
83.7004598825
 20
6.6667911093
 30
0.0
 11
84.3588137958
 21
6.717433718
 31
0.0
  0
LINE
  5
CA
330
7B
100
AcDbEntity
  8
0
  6
Continuous
 62
   179
370
    18
100
AcDbLine
 10
82.7059483815
 20
9.3512024135
 30
0.0
 11
83.3423973297
 21
9.3930104243
 31
0.0
  0
LINE
  5
CB
330
7B
100
AcDbEntity
  8
0
  6
Continuous
 62
   179
370
    18
100
AcDbLine
 10
82.7491656358
 20
8.0762934118
 30
0.0
 11
83.385614584
 21
8.1181014226
 31
0.0
  0
LINE
  5
CC
330
7B
100
AcDbEntity
  8
0
  6
Continuous
 62
   179
370
    18
100
AcDbLine
 10
81.1664651987
 20
9.7526162692
 30
0.0
 11
81.2428756056
 21
7.4985092641
 31
0.0
  0
LINE
  5
CD
330
7B
100
AcDbEntity
  8
0
  6
Continuous
 62
   179
370
    18
100
AcDbLine
 10
82.6900353128
 20
9.8206379383
 30
0.0
 11
82.7052632884
 21
9.3714126602
 31
0.0
  0
LINE
  5
CE
330
7B
100
AcDbEntity
  8
0
  6
Continuous
 62
   179
370
    18
100
AcDbLine
 10
82.7491656358
 20
8.0762934118
 30
0.0
 11
82.7658371041
 21
7.5844850954
 31
0.0
  0
LINE
  5
CF
330
7B
100
AcDbEntity
  8
0
  6
Continuous
 62
   179
370
    18
100
AcDbLine
 10
83.3271693541
 20
9.8422357024
 30
0.0
 11
83.3423973297
 21
9.3930104243
 31
0.0
  0
LINE
  5
D0
330
7B
100
AcDbEntity
  8
0
  6
Continuous
 62
   179
370
    18
100
AcDbLine
 10
83.385614584
 20
8.1181014226
 30
0.0
 11
83.4029711454
 21
7.6060828595
 31
0.0
  0
LINE
  5
D1
330
7B
100
AcDbEntity
  8
0
  6
Continuous
 62
   179
370
    18
100
AcDbLine
 10
85.6288154243
 20
7.6121582976
 30
0.0
 11
85.8462022593
 21
6.8318482152
 31
0.0
  0
LINE
  5
D2
330
7B
100
AcDbEntity
  8
0
  6
Continuous
 62
   179
370
    18
100
AcDbLine
 10
85.8462022593
 20
6.8318482152
 30
0.0
 11
86.4940946704
 21
6.8816860929
 31
0.0
  0
LINE
  5
D3
330
7B
100
AcDbEntity
  8
0
  6
Continuous
 62
   179
370
    18
100
AcDbLine
 10
84.5054929504
 20
10.9267193262
 30
0.0
 11
85.3543248406
 21
10.9728900984
 31
0.0
  0
LINE
  5
D4
330
7B
100
AcDbEntity
  8
0
  6
Continuous
 62
   179
370
    18
100
AcDbLine
 10
81.4744440858
 20
10.7634213094
 30
0.0
 11
82.2734303883
 21
10.8068808154
 31
0.0
  0
LINE
  5
D5
330
7B
100
AcDbEntity
  8
0
  6
Continuous
 62
   179
370
    18
100
AcDbLine
 10
81.5090686352
 20
10.1268622858
 30
0.0
 11
82.3080549377
 21
10.1703217918
 31
0.0
  0
LINE
  5
D6
330
7B
100
AcDbEntity
  8
0
  6
Continuous
 62
   179
370
    18
100
AcDbLine
 10
90.4575406452
 20
5.7946206556
 30
0.0
 11
90.1644232213
 21
12.4686789239
 31
0.0
  0
LINE
  5
D7
330
7B
100
AcDbEntity
  8
0
  6
Continuous
 62
   179
370
    18
100
AcDbLine
 10
89.8247499755
 20
8.1125227115
 30
0.0
 11
89.7274569615
 21
10.2112720142
 31
0.0
  0
LINE
  5
D8
330
7B
100
AcDbEntity
  8
0
  6
Continuous
 62
   179
370
    18
100
AcDbLine
 10
89.1879338763
 20
8.0830014354
 30
0.0
 11
89.0906408622
 21
10.181750738
 31
0.0
  0
LINE
  5
D9
330
7B
100
AcDbEntity
  8
0
  6
Continuous
 62
   179
370
    18
100
AcDbLine
 10
89.7459749087
 20
2.7242700694
 30
0.0
 11
89.7974962577
 21
2.6659765769
 31
0.0
  0
LINE
  5
DA
330
7B
100
AcDbEntity
  8
0
  6
Continuous
 62
   179
370
    18
100
AcDbLine
 10
89.7974962577
 20
2.6659765769
 30
0.0
 11
89.8351851379
 21
2.60192886
 31
0.0
  0
LINE
  5
DB
330
7B
100
AcDbEntity
  8
0
  6
Continuous
 62
   179
370
    18
100
AcDbLine
 10
89.8351851379
 20
2.60192886
 30
0.0
 11
89.8661472522
 21
2.5197759309
 31
0.0
  0
LINE
  5
DC
330
7B
100
AcDbEntity
  8
0
  6
Continuous
 62
   179
370
    18
100
AcDbLine
 10
10.6119938288
 20
7.2203138351
 30
0.0
 11
11.2200151261
 21
7.5713550947
 31
0.0
  0
LINE
  5
DD
330
7B
100
AcDbEntity
  8
0
  6
Continuous
 62
   179
370
    18
100
AcDbLine
 10
11.2347279503
 20
5.2647430194
 30
0.0
 11
10.6267781168
 21
5.6157430194
 31
0.0
  0
LINE
  5
DE
330
7B
100
AcDbEntity
  8
0
  6
Continuous
 62
   179
370
    18
100
AcDbLine
 10
6.4645062371
 20
16.1712617198
 30
0.0
 11
6.4645062371
 21
2.9364593988
 31
0.0
  0
LINE
  5
DF
330
7B
100
AcDbEntity
  8
0
  6
Continuous
 62
   179
370
    18
100
AcDbLine
 10
6.4645062371
 20
2.9364593988
 30
0.0
 11
12.0532757459
 21
2.9364593988
 31
0.0
  0
LINE
  5
E0
330
7B
100
AcDbEntity
  8
0
  6
Continuous
 62
   179
370
    18
100
AcDbLine
 10
12.0532757459
 20
2.9364593988
 30
0.0
 11
12.0532757459
 21
16.1712617198
 31
0.0
  0
LINE
  5
E1
330
7B
100
AcDbEntity
  8
0
  6
Continuous
 62
   179
370
    18
100
AcDbLine
 10
12.0532757459
 20
16.1712617198
 30
0.0
 11
6.4645062371
 21
16.1712617198
 31
0.0
  0
LINE
  5
E2
330
7B
100
AcDbEntity
  8
0
  6
Continuous
 62
   179
370
    18
100
AcDbLine
 10
0.0
 20
16.1712617198
 30
0.0
 11
0.0
 21
2.9364593988
 31
0.0
  0
LINE
  5
E3
330
7B
100
AcDbEntity
  8
0
  6
Continuous
 62
   179
370
    18
100
AcDbLine
 10
0.0
 20
2.9364593988
 30
0.0
 11
5.5887695089
 21
2.9364593988
 31
0.0
  0
LINE
  5
E4
330
7B
100
AcDbEntity
  8
0
  6
Continuous
 62
   179
370
    18
100
AcDbLine
 10
5.5887695089
 20
2.9364593988
 30
0.0
 11
5.5887695089
 21
16.1712617198
 31
0.0
  0
LINE
  5
E5
330
7B
100
AcDbEntity
  8
0
  6
Continuous
 62
   179
370
    18
100
AcDbLine
 10
5.5887695089
 20
16.1712617198
 30
0.0
 11
0.0
 21
16.1712617198
 31
0.0
  0
LINE
  5
E6
330
7B
100
AcDbEntity
  8
0
  6
Continuous
 62
   179
370
    18
100
AcDbLine
 10
1.2591262606
 20
4.7264381407
 30
0.0
 11
4.3296432482
 21
4.7264381407
 31
0.0
  0
LINE
  5
E7
330
7B
100
AcDbEntity
  8
0
  6
Continuous
 62
   179
370
    18
100
AcDbLine
 10
4.3738223747
 20
4.0932862697
 30
0.0
 11
5.0758301722
 21
4.0932862697
 31
0.0
  0
LINE
  5
E8
330
7B
100
AcDbEntity
  8
0
  6
Continuous
 62
   179
370
    18
100
AcDbLine
 10
0.5129393366
 20
4.0932862697
 30
0.0
 11
1.2149471342
 21
4.0932862697
 31
0.0
  0
LINE
  5
E9
330
7B
100
AcDbEntity
  8
0
  6
Continuous
 62
   179
370
    18
100
AcDbLine
 10
4.1819643097
 20
5.4284381407
 30
0.0
 11
1.4068051992
 21
5.4284381407
 31
0.0
  0
LINE
  5
EA
330
7B
100
AcDbEntity
  8
0
  6
Continuous
 62
   179
370
    18
100
AcDbLine
 10
18.517781983
 20
16.1712617198
 30
0.0
 11
18.517781983
 21
2.9364593988
 31
0.0
  0
LINE
  5
EB
330
7B
100
AcDbEntity
  8
0
  6
Continuous
 62
   179
370
    18
100
AcDbLine
 10
18.517781983
 20
2.9364593988
 30
0.0
 11
12.9290124742
 21
2.9364593988
 31
0.0
  0
LINE
  5
EC
330
7B
100
AcDbEntity
  8
0
  6
Continuous
 62
   179
370
    18
100
AcDbLine
 10
12.9290124742
 20
2.9364593988
 30
0.0
 11
12.9290124742
 21
16.1712617198
 31
0.0
  0
LINE
  5
ED
330
7B
100
AcDbEntity
  8
0
  6
Continuous
 62
   179
370
    18
100
AcDbLine
 10
12.9290124742
 20
16.1712617198
 30
0.0
 11
18.517781983
 21
16.1712617198
 31
0.0
  0
INSERT
  5
F3
330
7B
100
AcDbEntity
  8
0
  6
Continuous
 62
     7
370
     0
100
AcDbBlockReference
  2
SW_NOTE_0
 10
1.8998941161
 20
-0.3226565443
 30
0.0
  0
INSERT
  5
F8
330
7B
100
AcDbEntity
  8
0
  6
Continuous
 62
     7
370
     0
100
AcDbBlockReference
  2
SW_NOTE_0_1
 10
29.1164837035
 20
12.7459167441
 30
0.0
  0
INSERT
  5
100
330
7B
100
AcDbEntity
  8
0
  6
Continuous
 62
     7
370
     0
100
AcDbBlockReference
  2
SW_NOTE_0_2
 10
28.8863479825
 20
8.6365742194
 30
0.0
  0
ENDBLK
  5
7D
330
7B
100
AcDbEntity
  8
0
100
AcDbBlockEnd
  0
BLOCK
  5
EF
330
EE
100
AcDbEntity
  8
0
100
AcDbBlockBegin
  2
SW_NOTE_0
 70
     0
 10
0.0
 20
0.0
 30
0.0
  3
SW_NOTE_0
  1

  0
MTEXT
  5
F2
330
EE
100
AcDbEntity
  8
0
  6
Continuous
 62
     0
370
     0
100
AcDbMText
 10
7.46875
 20
2.5781354795
 30
0.0
 40
2.0
 41
0.0
 71
     2
 72
     1
  1
www.aco.ch
  7
SLDTEXTSTYLE0
 73
     1
 44
1.0
  0
ENDBLK
  5
F0
330
EE
100
AcDbEntity
  8
0
100
AcDbBlockEnd
  0
BLOCK
  5
F5
330
F4
100
AcDbEntity
  8
0
100
AcDbBlockBegin
  2
SW_NOTE_0_1
 70
     0
 10
0.0
 20
0.0
 30
0.0
  3
SW_NOTE_0_1
  1

  0
MTEXT
  5
F7
330
F4
100
AcDbEntity
  8
0
  6
Continuous
 62
     0
370
     0
100
AcDbMText
 10
0.0
 20
3.8672032193
 30
0.0
 40
3.0
 41
0.0
 71
     1
 72
     1
  1
ACO AG
  7
SLDTEXTSTYLE0
 73
     1
 44
1.0
  0
ENDBLK
  5
F6
330
F4
100
AcDbEntity
  8
0
100
AcDbBlockEnd
  0
BLOCK
  5
FA
330
F9
100
AcDbEntity
  8
0
100
AcDbBlockBegin
  2
SW_NOTE_0_2
 70
     0
 10
0.0
 20
0.0
 30
0.0
  3
SW_NOTE_0_2
  1

  0
MTEXT
  5
FC
330
F9
100
AcDbEntity
  8
0
  6
Continuous
 62
     0
370
     0
100
AcDbMText
 10
0.0
 20
2.5781354795
 30
0.0
 40
2.0
 41
0.0
 71
     1
 72
     1
  1
Industrie Kleinzaun
  7
SLDTEXTSTYLE0
 73
     1
 44
1.0
  0
MTEXT
  5
FD
330
F9
100
AcDbEntity
  8
0
  6
Continuous
 62
     0
370
     0
100
AcDbMText
 10
0.0
 20
-0.4218645465
 30
0.0
 40
2.0
 41
0.0
 71
     1
 72
     1
  1
CH-8754 Netstal
  7
SLDTEXTSTYLE0
 73
     1
 44
1.0
  0
MTEXT
  5
FE
330
F9
100
AcDbEntity
  8
0
  6
Continuous
 62
     0
370
     0
100
AcDbMText
 10
0.0
 20
-3.4218645726
 30
0.0
 40
2.0
 41
0.0
 71
     1
 72
     1
  1
Tel. 055 / 645 53 00
  7
SLDTEXTSTYLE0
 73
     1
 44
1.0
  0
MTEXT
  5
FF
330
F9
100
AcDbEntity
  8
0
  6
Continuous
 62
     0
370
     0
100
AcDbMText
 10
0.0
 20
-6.4218645987
 30
0.0
 40
2.0
 41
0.0
 71
     1
 72
     1
  1
E-Mail: aco@aco.ch
  7
SLDTEXTSTYLE0
 73
     1
 44
1.0
  0
ENDBLK
  5
FB
330
F9
100
AcDbEntity
  8
0
100
AcDbBlockEnd
  0
BLOCK
  5
179
330
178
100
AcDbEntity
  8
0
100
AcDbBlockBegin
  2
SW_NOTE_0_3
 70
     0
 10
0.0
 20
0.0
 30
0.0
  3
SW_NOTE_0_3
  1

  0
MTEXT
  5
17B
330
178
100
AcDbEntity
  8
0
  6
Continuous
 62
     0
370
     0
100
AcDbMText
 10
0.0
 20
1.9336016097
 30
0.0
 40
1.5
 41
0.0
 71
     1
 72
     1
  1
Diese Zeichnung darf weder kopiert
  7
SLDTEXTSTYLE0
 73
     1
 44
1.0
  0
MTEXT
  5
17C
330
178
100
AcDbEntity
  8
0
  6
Continuous
 62
     0
370
     0
100
AcDbMText
 10
0.0
 20
-0.5663983345
 30
0.0
 40
1.5
 41
0.0
 71
     1
 72
     1
  1
noch dritten Personen, insbesondere
  7
SLDTEXTSTYLE0
 73
     1
 44
1.0
  0
MTEXT
  5
17D
330
178
100
AcDbEntity
  8
0
  6
Continuous
 62
     0
370
     0
100
AcDbMText
 10
0.0
 20
-3.0663982786
 30
0.0
 40
1.5
 41
0.0
 71
     1
 72
     1
  1
zum Zweck anderweitiger Benutzung
  7
SLDTEXTSTYLE0
 73
     1
 44
1.0
  0
MTEXT
  5
17E
330
178
100
AcDbEntity
  8
0
  6
Continuous
 62
     0
370
     0
100
AcDbMText
 10
0.0
 20
-5.5663982227
 30
0.0
 40
1.5
 41
0.0
 71
     1
 72
     1
  1
mitgeteilt werden und bleibt unser
  7
SLDTEXTSTYLE0
 73
     1
 44
1.0
  0
MTEXT
  5
17F
330
178
100
AcDbEntity
  8
0
  6
Continuous
 62
     0
370
     0
100
AcDbMText
 10
0.0
 20
-8.0663981668
 30
0.0
 40
1.5
 41
0.0
 71
     1
 72
     1
  1
Eigentum.
  7
SLDTEXTSTYLE0
 73
     1
 44
1.0
  0
ENDBLK
  5
17A
330
178
100
AcDbEntity
  8
0
100
AcDbBlockEnd
  0
BLOCK
  5
1B2
330
1B1
100
AcDbEntity
  8
0
100
AcDbBlockBegin
  2
_D
 70
     0
 10
0.0
 20
0.0
 30
0.0
  3
_D
  1

  0
SOLID
  5
1B4
330
1B1
100
AcDbEntity
  8
0
  6
Continuous
 62
     7
370
    18
100
AcDbTrace
 10
184.4261750502
 20
171.729547895
 30
0.0
 11
187.2817985896
 21
173.8236718239
 31
0.0
 12
186.5202989791
 22
174.5851714344
 32
0.0
 13
186.5202989791
 23
174.5851714344
 33
0.0
  0
LINE
  5
1B5
330
1B1
100
AcDbEntity
  8
0
  6
Continuous
 62
     7
370
     0
100
AcDbLine
 10
184.4261750502
 20
171.729547895
 30
0.0
 11
199.265491146
 21
186.5688639908
 31
0.0
  0
MTEXT
  5
1B6
330
1B1
100
AcDbEntity
  8
0
  6
Continuous
 62
     7
370
    18
100
AcDbMText
 10
183.9605880248
 20
177.6423479863
 30
0.0
 40
3.5
 41
0.0
 71
     1
 72
     1
  1
%%c
  7
SLDTEXTSTYLE0
 11
0.707106781186546
 21
0.707106781186549
 31
0.0
 73
     1
 44
1.0
  0
MTEXT
  5
1B7
330
1B1
100
AcDbEntity
  8
0
  6
Continuous
 62
     7
370
    18
100
AcDbMText
 10
187.5620449558
 20
181.2575543388
 30
0.0
 40
3.5
 41
0.0
 71
     1
 72
     1
  1
141.4
  7
SLDTEXTSTYLE0
 11
0.707106781186546
 21
0.707106781186549
 31
0.0
 73
     1
 44
1.0
  0
ENDBLK
  5
1B3
330
1B1
100
AcDbEntity
  8
0
100
AcDbBlockEnd
  0
BLOCK
  5
1BB
330
1BA
100
AcDbEntity
  8
0
100
AcDbBlockBegin
  2
_D_1
 70
     0
 10
0.0
 20
0.0
 30
0.0
  3
_D_1
  1

  0
SOLID
  5
1BD
330
1BA
100
AcDbEntity
  8
0
  6
Continuous
 62
     7
370
    18
100
AcDbTrace
 10
81.7739049918
 20
91.3316107389
 30
0.0
 11
85.0742246743
 21
92.6152893676
 31
0.0
 12
84.5357631358
 22
93.5479321101
 32
0.0
 13
84.5357631358
 23
93.5479321101
 33
0.0
  0
SOLID
  5
1BE
330
1BA
100
AcDbEntity
  8
0
  6
Continuous
 62
     7
370
    18
100
AcDbTrace
 10
187.0825389737
 20
152.1315789163
 30
0.0
 11
183.7822192912
 21
150.8479002876
 31
0.0
 12
184.3206808297
 22
149.915257545
 32
0.0
 13
184.3206808297
 23
149.915257545
 33
0.0
  0
LINE
  5
1BF
330
1BA
100
AcDbEntity
  8
0
  6
Continuous
 62
     7
370
     0
100
AcDbLine
 10
187.0825389737
 20
152.1315789163
 30
0.0
 11
213.4335593247
 21
167.3453476094
 31
0.0
  0
LINE
  5
1C0
330
1BA
100
AcDbEntity
  8
0
  6
Continuous
 62
     7
370
     0
100
AcDbLine
 10
187.0825389737
 20
152.1315789163
 30
0.0
 11
81.7739049918
 21
91.3316107389
 31
0.0
  0
MTEXT
  5
1C1
330
1BA
100
AcDbEntity
  8
0
  6
Continuous
 62
     7
370
    18
100
AcDbMText
 10
196.3398144555
 20
162.6841806512
 30
0.0
 40
3.5
 41
0.0
 71
     1
 72
     1
  1
%%c
  7
SLDTEXTSTYLE0
 11
0.866025403784438
 21
0.500000000000001
 31
0.0
 73
     1
 44
1.0
  0
MTEXT
  5
1C2
330
1BA
100
AcDbEntity
  8
0
  6
Continuous
 62
     7
370
    18
100
AcDbMText
 10
200.7542389734
 20
165.2440761906
 30
0.0
 40
3.5
 41
0.0
 71
     1
 72
     1
  1
121.6
  7
SLDTEXTSTYLE0
 11
0.866025403784438
 21
0.500000000000001
 31
0.0
 73
     1
 44
1.0
  0
ENDBLK
  5
1BC
330
1BA
100
AcDbEntity
  8
0
100
AcDbBlockEnd
  0
BLOCK
  5
1C4
330
1C3
100
AcDbEntity
  8
0
100
AcDbBlockBegin
  2
SW_CENTERMARKSYMBOL_0
 70
     0
 10
0.0
 20
0.0
 30
0.0
  3
SW_CENTERMARKSYMBOL_0
  1

  0
LINE
  5
1C6
330
1C3
100
AcDbEntity
  8
0
  6
Continuous
 62
     0
370
    18
100
AcDbLine
 10
0.0
 20
0.0
 30
0.0
 11
0.0
 21
2.5
 31
0.0
  0
LINE
  5
1C7
330
1C3
100
AcDbEntity
  8
0
  6
Continuous
 62
     0
370
    18
100
AcDbLine
 10
0.0
 20
0.0
 30
0.0
 11
-2.5
 21
0.0
 31
0.0
  0
LINE
  5
1C8
330
1C3
100
AcDbEntity
  8
0
  6
Continuous
 62
     0
370
    18
100
AcDbLine
 10
0.0
 20
0.0
 30
0.0
 11
0.0
 21
-2.5
 31
0.0
  0
LINE
  5
1C9
330
1C3
100
AcDbEntity
  8
0
  6
Continuous
 62
     0
370
    18
100
AcDbLine
 10
0.0
 20
0.0
 30
0.0
 11
2.5
 21
0.0
 31
0.0
  0
LINE
  5
1CA
330
1C3
100
AcDbEntity
  8
0
  6
Continuous
 62
     0
370
    18
100
AcDbLine
 10
0.0
 20
5.0
 30
0.0
 11
0.0
 21
73.2077833189
 31
0.0
  0
LINE
  5
1CB
330
1C3
100
AcDbEntity
  8
0
  6
Continuous
 62
     0
370
    18
100
AcDbLine
 10
-5.0
 20
0.0
 30
0.0
 11
-73.2077833189
 21
0.0
 31
0.0
  0
LINE
  5
1CC
330
1C3
100
AcDbEntity
  8
0
  6
Continuous
 62
     0
370
    18
100
AcDbLine
 10
0.0
 20
-5.0
 30
0.0
 11
0.0
 21
-73.2077833189
 31
0.0
  0
LINE
  5
1CD
330
1C3
100
AcDbEntity
  8
0
  6
Continuous
 62
     0
370
    18
100
AcDbLine
 10
5.0
 20
0.0
 30
0.0
 11
73.2077833189
 21
0.0
 31
0.0
  0
ENDBLK
  5
1C5
330
1C3
100
AcDbEntity
  8
0
100
AcDbBlockEnd
  0
BLOCK
  5
299
330
298
100
AcDbEntity
  8
0
100
AcDbBlockBegin
  2
_D_2
 70
     0
 10
0.0
 20
0.0
 30
0.0
  3
_D_2
  1

  0
SOLID
  5
29B
330
298
100
AcDbEntity
  8
0
  6
Continuous
 62
     7
370
    18
100
AcDbTrace
 10
220.1474419059
 20
233.9011915234
 30
0.0
 11
219.6089803675
 21
230.4011915234
 31
0.0
 12
220.6859034444
 22
230.4011915234
 32
0.0
 13
220.6859034444
 23
230.4011915234
 33
0.0
  0
SOLID
  5
29C
330
298
100
AcDbEntity
  8
0
  6
Continuous
 62
     7
370
    18
100
AcDbTrace
 10
220.1474419059
 20
216.2010283042
 30
0.0
 11
220.6859034444
 21
219.7010283042
 31
0.0
 12
219.6089803675
 22
219.7010283042
 32
0.0
 13
219.6089803675
 23
219.7010283042
 33
0.0
  0
LINE
  5
29D
330
298
100
AcDbEntity
  8
0
  6
Continuous
 62
     7
370
     0
100
AcDbLine
 10
201.3209390634
 20
233.9011915234
 30
0.0
 11
221.1474419059
 21
233.9011915234
 31
0.0
  0
LINE
  5
29E
330
298
100
AcDbEntity
  8
0
  6
Continuous
 62
     7
370
     0
100
AcDbLine
 10
200.4966446224
 20
216.2010283042
 30
0.0
 11
221.1474419059
 21
216.2010283042
 31
0.0
  0
LINE
  5
29F
330
298
100
AcDbEntity
  8
0
  6
Continuous
 62
     7
370
     0
100
AcDbLine
 10
220.1474419059
 20
233.9011915234
 30
0.0
 11
220.1474419059
 21
216.2010283042
 31
0.0
  0
MTEXT
  5
2A0
330
298
100
AcDbEntity
  8
0
  6
Continuous
 62
     7
370
    18
100
AcDbMText
 10
215.6357045839
 20
220.3722905852
 30
0.0
 40
3.5
 41
0.0
 71
     1
 72
     1
  1
17.7
  7
SLDTEXTSTYLE0
 11
-7.044195017643634E-15
 21
1.0
 31
0.0
 73
     1
 44
1.0
  0
ENDBLK
  5
29A
330
298
100
AcDbEntity
  8
0
100
AcDbBlockEnd
  0
ENDSEC
  0
SECTION
  2
ENTITIES
  0
LINE
  5
101
330
1F
100
AcDbEntity
  8
LINIEN-DÜNN
  6
CENTERX2
100
AcDbLine
 10
352.6174545849
 20
46.9080238789
 30
0.0
 11
352.6174545849
 21
39.4621586124
 31
0.0
  0
LINE
  5
102
330
1F
100
AcDbEntity
  8
LINIEN-DÜNN
100
AcDbLine
 10
357.7661698132
 20
46.3720107039
 30
0.0
 11
357.7661698132
 21
39.9353173413
 31
0.0
  0
LINE
  5
103
330
1F
100
AcDbEntity
  8
LINIEN-DÜNN
100
AcDbLine
 10
364.6059427486
 20
44.7376225767
 30
0.0
 11
364.6059427486
 21
41.5697054685
 31
0.0
  0
LINE
  5
104
330
1F
100
AcDbEntity
  8
LINIEN-DÜNN
100
AcDbLine
 10
364.6059427486
 20
44.7376225767
 30
0.0
 11
357.7661698132
 21
46.3720107039
 31
0.0
  0
LINE
  5
105
330
1F
100
AcDbEntity
  8
LINIEN-DÜNN
100
AcDbLine
 10
15.0
 20
198.5
 30
0.0
 11
20.0
 21
198.5
 31
0.0
  0
LINE
  5
106
330
1F
100
AcDbEntity
  8
LINIEN-DÜNN
100
AcDbLine
 10
12.0
 20
148.5
 30
0.0
 11
0.0
 21
148.5
 31
0.0
  0
LINE
  5
107
330
1F
100
AcDbEntity
  8
LINIEN-DÜNN
100
AcDbLine
 10
357.7661698132
 20
39.9353173413
 30
0.0
 11
364.6059427486
 21
41.5697054685
 31
0.0
  0
LINE
  5
108
330
1F
100
AcDbEntity
  8
LINIEN-DÜNN
  6
CENTERX2
100
AcDbLine
 10
348.6240467841
 20
43.1536640226
 30
0.0
 11
356.6108623857
 21
43.1536640226
 31
0.0
  0
LINE
  5
109
330
1F
100
AcDbEntity
  8
LINIEN-DÜNN
  6
CENTERX2
100
AcDbLine
 10
357.1289238876
 20
43.1536640226
 30
0.0
 11
365.6255362296
 21
43.1536640226
 31
0.0
  0
LINE
  5
10A
330
1F
100
AcDbEntity
  8
LINIEN-DÜNN
100
AcDbLine
 10
0.0
 20
0.0
 30
0.0
 11
420.0
 21
0.0
 31
0.0
  0
LINE
  5
10B
330
1F
100
AcDbEntity
  8
LINIEN-DÜNN
100
AcDbLine
 10
0.0
 20
0.0
 30
0.0
 11
0.0
 21
297.0
 31
0.0
  0
LINE
  5
10C
330
1F
100
AcDbEntity
  8
LINIEN-DÜNN
100
AcDbLine
 10
0.0
 20
297.0
 30
0.0
 11
420.0
 21
297.0
 31
0.0
  0
LINE
  5
10D
330
1F
100
AcDbEntity
  8
LINIEN-DÜNN
100
AcDbLine
 10
420.0
 20
0.0
 30
0.0
 11
420.0
 21
297.0
 31
0.0
  0
LINE
  5
10E
330
1F
100
AcDbEntity
  8
LINIEN-NORMAL
100
AcDbLine
 10
228.0
 20
35.0
 30
0.0
 11
410.0
 21
35.0
 31
0.0
  0
LINE
  5
10F
330
1F
100
AcDbEntity
  8
LINIEN-DÜNN
100
AcDbLine
 10
410.0
 20
198.5
 30
0.0
 11
415.0
 21
198.5
 31
0.0
  0
LINE
  5
110
330
1F
100
AcDbEntity
  8
LINIEN-DÜNN
100
AcDbLine
 10
15.0
 20
148.5
 30
0.0
 11
20.0
 21
148.5
 31
0.0
  0
LINE
  5
111
330
1F
100
AcDbEntity
  8
LINIEN-DÜNN
100
AcDbLine
 10
228.0
 20
40.0
 30
0.0
 11
296.6
 21
40.0
 31
0.0
  0
LINE
  5
112
330
1F
100
AcDbEntity
  8
LINIEN-DÜNN
100
AcDbLine
 10
15.0
 20
248.5
 30
0.0
 11
20.0
 21
248.5
 31
0.0
  0
LINE
  5
113
330
1F
100
AcDbEntity
  8
LINIEN-DICK
100
AcDbLine
 10
20.0
 20
287.0
 30
0.0
 11
20.0
 21
10.0
 31
0.0
  0
LINE
  5
114
330
1F
100
AcDbEntity
  8
LINIEN-DICK
100
AcDbLine
 10
410.0
 20
287.0
 30
0.0
 11
20.0
 21
287.0
 31
0.0
  0
LINE
  5
115
330
1F
100
AcDbEntity
  8
LINIEN-DICK
100
AcDbLine
 10
410.0
 20
5.0
 30
0.0
 11
410.0
 21
287.0
 31
0.0
  0
LINE
  5
116
330
1F
100
AcDbEntity
  8
LINIEN-DICK
100
AcDbLine
 10
20.0
 20
10.0
 30
0.0
 11
415.0
 21
10.0
 31
0.0
  0
LINE
  5
117
330
1F
100
AcDbEntity
  8
LINIEN-DÜNN
100
AcDbLine
 10
410.0
 20
148.5
 30
0.0
 11
415.0
 21
148.5
 31
0.0
  0
LINE
  5
118
330
1F
100
AcDbEntity
  8
LINIEN-DÜNN
100
AcDbLine
 10
228.0
 20
50.0
 30
0.0
 11
296.6
 21
50.0
 31
0.0
  0
LINE
  5
119
330
1F
100
AcDbEntity
  8
LINIEN-DÜNN
100
AcDbLine
 10
15.0
 20
98.5
 30
0.0
 11
20.0
 21
98.5
 31
0.0
  0
LINE
  5
11A
330
1F
100
AcDbEntity
  8
LINIEN-DÜNN
100
AcDbLine
 10
296.6
 20
45.0
 30
0.0
 11
228.0
 21
45.0
 31
0.0
  0
LINE
  5
11B
330
1F
100
AcDbEntity
  8
LINIEN-DÜNN
100
AcDbLine
 10
65.0
 20
292.0
 30
0.0
 11
65.0
 21
287.0
 31
0.0
  0
LINE
  5
11C
330
1F
100
AcDbEntity
  8
LINIEN-DÜNN
100
AcDbLine
 10
230.0
 20
292.0
 30
0.0
 11
230.0
 21
297.0
 31
0.0
  0
LINE
  5
11D
330
1F
100
AcDbEntity
  8
LINIEN-NORMAL
100
AcDbLine
 10
296.6
 20
55.0
 30
0.0
 11
296.6
 21
35.0
 31
0.0
  0
LINE
  5
11E
330
1F
100
AcDbEntity
  8
LINIEN-DÜNN
100
AcDbLine
 10
410.0
 20
98.5
 30
0.0
 11
415.0
 21
98.5
 31
0.0
  0
LINE
  5
11F
330
1F
100
AcDbEntity
  8
VORLAGE_BEMASSUNG
100
AcDbLine
 10
230.0
 20
5.0
 30
0.0
 11
230.0
 21
0.0
 31
0.0
  0
LINE
  5
120
330
1F
100
AcDbEntity
  8
LINIEN-DÜNN
100
AcDbLine
 10
125.0
 20
292.0
 30
0.0
 11
125.0
 21
297.0
 31
0.0
  0
LINE
  5
121
330
1F
100
AcDbEntity
  8
LINIEN-DÜNN
100
AcDbLine
 10
125.0
 20
5.0
 30
0.0
 11
125.0
 21
0.0
 31
0.0
  0
LINE
  5
122
330
1F
100
AcDbEntity
  8
LINIEN-NORMAL
100
AcDbLine
 10
410.0
 20
55.0
 30
0.0
 11
228.0
 21
55.0
 31
0.0
  0
LINE
  5
123
330
1F
100
AcDbEntity
  8
LINIEN-DÜNN
100
AcDbLine
 10
228.0
 20
55.0
 30
0.0
 11
410.0
 21
55.0
 31
0.0
  0
LINE
  5
124
330
1F
100
AcDbEntity
  8
LINIEN-DÜNN
100
AcDbLine
 10
410.0
 20
55.0
 30
0.0
 11
228.0
 21
55.0
 31
0.0
  0
LINE
  5
125
330
1F
100
AcDbEntity
  8
LINIEN-DÜNN
100
AcDbLine
 10
268.0
 20
76.5
 30
0.0
 11
268.0
 21
55.0
 31
0.0
  0
LINE
  5
126
330
1F
100
AcDbEntity
  8
LINIEN-DÜNN
100
AcDbLine
 10
271.6
 20
55.0
 30
0.0
 11
271.6
 21
40.0
 31
0.0
  0
LINE
  5
127
330
1F
100
AcDbEntity
  8
LINIEN-DÜNN
100
AcDbLine
 10
247.0
 20
55.0
 30
0.0
 11
247.0
 21
35.0
 31
0.0
  0
LINE
  5
128
330
1F
100
AcDbEntity
  8
LINIEN-DICK
100
AcDbLine
 10
228.0
 20
76.5
 30
0.0
 11
228.0
 21
10.0
 31
0.0
  0
LINE
  5
129
330
1F
100
AcDbEntity
  8
LINIEN-DÜNN
100
AcDbLine
 10
15.0
 20
292.0
 30
0.0
 11
415.0
 21
292.0
 31
0.0
  0
LINE
  5
12A
330
1F
100
AcDbEntity
  8
LINIEN-DÜNN
100
AcDbLine
 10
228.0
 20
65.75
 30
0.0
 11
310.0
 21
65.75
 31
0.0
  0
LINE
  5
12B
330
1F
100
AcDbEntity
  8
LINIEN-DICK
100
AcDbLine
 10
228.0
 20
76.5
 30
0.0
 11
410.0
 21
76.5
 31
0.0
  0
LINE
  5
12C
330
1F
100
AcDbEntity
  8
LINIEN-DÜNN
100
AcDbLine
 10
15.0
 20
48.5
 30
0.0
 11
20.0
 21
48.5
 31
0.0
  0
LINE
  5
12D
330
1F
100
AcDbEntity
  8
LINIEN-DÜNN
100
AcDbLine
 10
410.0
 20
48.5
 30
0.0
 11
415.0
 21
48.5
 31
0.0
  0
LINE
  5
12E
330
1F
100
AcDbEntity
  8
LINIEN-DÜNN
100
AcDbLine
 10
332.6610845472
 20
20.0
 30
0.0
 11
332.6610845472
 21
10.0
 31
0.0
  0
LINE
  5
12F
330
1F
100
AcDbEntity
  8
LINIEN-DÜNN
100
AcDbLine
 10
410.0
 20
248.5
 30
0.0
 11
415.0
 21
248.5
 31
0.0
  0
LINE
  5
130
330
1F
100
AcDbEntity
  8
LINIEN-DÜNN
100
AcDbLine
 10
65.0
 20
10.0
 30
0.0
 11
65.0
 21
5.0
 31
0.0
  0
LINE
  5
131
330
1F
100
AcDbEntity
  8
LINIEN-DÜNN
100
AcDbLine
 10
115.0
 20
10.0
 30
0.0
 11
115.0
 21
5.0
 31
0.0
  0
LINE
  5
132
330
1F
100
AcDbEntity
  8
LINIEN-DÜNN
100
AcDbLine
 10
115.0
 20
292.0
 30
0.0
 11
115.0
 21
287.0
 31
0.0
  0
LINE
  5
133
330
1F
100
AcDbEntity
  8
LINIEN-DÜNN
100
AcDbLine
 10
165.0
 20
10.0
 30
0.0
 11
165.0
 21
5.0
 31
0.0
  0
LINE
  5
134
330
1F
100
AcDbEntity
  8
LINIEN-DÜNN
100
AcDbLine
 10
165.0
 20
292.0
 30
0.0
 11
165.0
 21
287.0
 31
0.0
  0
LINE
  5
135
330
1F
100
AcDbEntity
  8
LINIEN-DÜNN
100
AcDbLine
 10
215.0
 20
10.0
 30
0.0
 11
215.0
 21
5.0
 31
0.0
  0
LINE
  5
136
330
1F
100
AcDbEntity
  8
LINIEN-DÜNN
100
AcDbLine
 10
215.0
 20
292.0
 30
0.0
 11
215.0
 21
287.0
 31
0.0
  0
LINE
  5
137
330
1F
100
AcDbEntity
  8
LINIEN-DÜNN
100
AcDbLine
 10
265.0
 20
10.0
 30
0.0
 11
265.0
 21
5.0
 31
0.0
  0
LINE
  5
138
330
1F
100
AcDbEntity
  8
LINIEN-DÜNN
100
AcDbLine
 10
265.0
 20
292.0
 30
0.0
 11
265.0
 21
287.0
 31
0.0
  0
LINE
  5
139
330
1F
100
AcDbEntity
  8
LINIEN-DÜNN
100
AcDbLine
 10
347.6610845472
 20
20.0
 30
0.0
 11
347.6610845472
 21
10.0
 31
0.0
  0
LINE
  5
13A
330
1F
100
AcDbEntity
  8
LINIEN-DÜNN
100
AcDbLine
 10
362.6610845472
 20
20.0
 30
0.0
 11
362.6610845472
 21
10.0
 31
0.0
  0
LINE
  5
13B
330
1F
100
AcDbEntity
  8
LINIEN-NORMAL
100
AcDbLine
 10
327.6610845472
 20
10.0
 30
0.0
 11
327.6610845472
 21
55.0
 31
0.0
  0
LINE
  5
13C
330
1F
100
AcDbEntity
  8
LINIEN-DÜNN
100
AcDbLine
 10
20.0
 20
292.0
 30
0.0
 11
20.0
 21
297.0
 31
0.0
  0
LINE
  5
13D
330
1F
100
AcDbEntity
  8
LINIEN-DÜNN
100
AcDbLine
 10
20.0
 20
5.0
 30
0.0
 11
20.0
 21
0.0
 31
0.0
  0
LINE
  5
13E
330
1F
100
AcDbEntity
  8
LINIEN-DÜNN
100
AcDbLine
 10
315.0
 20
10.0
 30
0.0
 11
315.0
 21
5.0
 31
0.0
  0
LINE
  5
13F
330
1F
100
AcDbEntity
  8
LINIEN-DÜNN
100
AcDbLine
 10
315.0
 20
292.0
 30
0.0
 11
315.0
 21
287.0
 31
0.0
  0
LINE
  5
140
330
1F
100
AcDbEntity
  8
LINIEN-DÜNN
100
AcDbLine
 10
365.0
 20
10.0
 30
0.0
 11
365.0
 21
5.0
 31
0.0
  0
LINE
  5
141
330
1F
100
AcDbEntity
  8
LINIEN-DÜNN
100
AcDbLine
 10
365.0
 20
292.0
 30
0.0
 11
365.0
 21
287.0
 31
0.0
  0
LINE
  5
142
330
1F
100
AcDbEntity
  8
LINIEN-DÜNN
100
AcDbLine
 10
15.0
 20
292.0
 30
0.0
 11
15.0
 21
5.0
 31
0.0
  0
LINE
  5
143
330
1F
100
AcDbEntity
  8
LINIEN-DÜNN
100
AcDbLine
 10
15.0
 20
5.0
 30
0.0
 11
415.0
 21
5.0
 31
0.0
  0
LINE
  5
144
330
1F
100
AcDbEntity
  8
LINIEN-DÜNN
100
AcDbLine
 10
415.0
 20
292.0
 30
0.0
 11
415.0
 21
5.0
 31
0.0
  0
LINE
  5
145
330
1F
100
AcDbEntity
  8
LINIEN-DÜNN
100
AcDbLine
 10
347.6610845472
 20
44.213444
 30
0.0
 11
327.6610845472
 21
44.213444
 31
0.0
  0
LINE
  5
146
330
1F
100
AcDbEntity
  8
LINIEN-DÜNN
100
AcDbLine
 10
347.6610845472
 20
35.0
 30
0.0
 11
347.6610845472
 21
55.0
 31
0.0
  0
LINE
  5
147
330
1F
100
AcDbEntity
  8
LINIEN-DÜNN
100
AcDbLine
 10
370.057188
 20
55.012032
 30
0.0
 11
370.057188
 21
35.0
 31
0.0
  0
LINE
  5
148
330
1F
100
AcDbEntity
  8
LINIEN-DÜNN
100
AcDbLine
 10
398.0
 20
35.0
 30
0.0
 11
398.0
 21
20.0
 31
0.0
  0
LINE
  5
149
330
1F
100
AcDbEntity
  8
LINIEN-DÜNN
100
AcDbLine
 10
410.0
 20
15.0
 30
0.0
 11
327.6610845472
 21
15.0
 31
0.0
  0
LINE
  5
14A
330
1F
100
AcDbEntity
  8
LINIEN-DÜNN
100
AcDbLine
 10
327.6610845472
 20
20.0
 30
0.0
 11
410.0
 21
20.0
 31
0.0
  0
LINE
  5
14B
330
1F
100
AcDbEntity
  8
LINIEN-DÜNN
100
AcDbLine
 10
341.485486
 20
20.0
 30
0.0
 11
341.485486
 21
27.564675
 31
0.0
  0
LINE
  5
14C
330
1F
100
AcDbEntity
  8
LINIEN-NORMAL
100
AcDbLine
 10
310.0
 20
76.5
 30
0.0
 11
310.0
 21
55.0
 31
0.0
  0
CIRCLE
  5
14D
330
1F
100
AcDbEntity
  8
LINIEN-DÜNN
100
AcDbCircle
 10
11.0
 20
108.5
 30
0.0
 40
2.750000000000001
  0
CIRCLE
  5
14E
330
1F
100
AcDbEntity
  8
LINIEN-DÜNN
100
AcDbCircle
 10
11.0
 20
188.5
 30
0.0
 40
2.750000000000001
  0
CIRCLE
  5
14F
330
1F
100
AcDbEntity
  8
LINIEN-DÜNN
100
AcDbCircle
 10
352.6174545849
 20
43.1536640226
 30
0.0
 40
3.218346681300138
  0
CIRCLE
  5
150
330
1F
100
AcDbEntity
  8
LINIEN-DÜNN
100
AcDbCircle
 10
352.6174545849
 20
43.1536640226
 30
0.0
 40
1.583958554121555
  0
INSERT
  5
151
330
1F
100
AcDbEntity
  8
0
  6
Continuous
 62
     7
100
AcDbBlockReference
  2
ACO-Logo
 10
314.3510726297
 20
57.6366106772
 30
0.0
  0
POINT
  5
152
330
1F
100
AcDbEntity
  8
VORLAGE_BEMASSUNG
100
AcDbPoint
 10
0.0
 20
0.0
 30
0.0
  0
POINT
  5
153
330
1F
100
AcDbEntity
  8
VORLAGE_BEMASSUNG
100
AcDbPoint
 10
410.0
 20
10.0
 30
0.0
  0
MTEXT
  5
154
330
1F
100
AcDbEntity
  8
VORLAGE_TEXT
100
AcDbMText
 10
17.7359443114
 20
124.8017866468
 30
0.0
 40
2.0
 41
0.0
 71
     2
 72
     1
  1
D
  7
SLDTEXTSTYLE0
 73
     1
 44
1.0
  0
MTEXT
  5
155
330
1F
100
AcDbEntity
  8
VORLAGE_TEXT
100
AcDbMText
 10
17.6274822413
 20
174.7261854936
 30
0.0
 40
2.0
 41
0.0
 71
     2
 72
     1
  1
C
  7
SLDTEXTSTYLE0
 73
     1
 44
1.0
  0
MTEXT
  5
156
330
1F
100
AcDbEntity
  8
VORLAGE_TEXT
100
AcDbMText
 10
17.5516905072
 20
224.4926420442
 30
0.0
 40
2.0
 41
0.0
 71
     2
 72
     1
  1
B
  7
SLDTEXTSTYLE0
 73
     1
 44
1.0
  0
MTEXT
  5
157
330
1F
100
AcDbEntity
  8
VORLAGE_TEXT
100
AcDbMText
 10
290.0344258799
 20
290.5428789914
 30
0.0
 40
2.0
 41
0.0
 71
     2
 72
     1
  1
6
  7
SLDTEXTSTYLE0
 73
     1
 44
1.0
  0
MTEXT
  5
158
330
1F
100
AcDbEntity
  8
VORLAGE_TEXT
100
AcDbMText
 10
240.0417859812
 20
290.6369260235
 30
0.0
 40
2.0
 41
0.0
 71
     2
 72
     1
  1
5
  7
SLDTEXTSTYLE0
 73
     1
 44
1.0
  0
MTEXT
  5
159
330
1F
100
AcDbEntity
  8
VORLAGE_TEXT
100
AcDbMText
 10
190.0300404524
 20
290.6343268032
 30
0.0
 40
2.0
 41
0.0
 71
     2
 72
     1
  1
4
  7
SLDTEXTSTYLE0
 73
     1
 44
1.0
  0
MTEXT
  5
15A
330
1F
100
AcDbEntity
  8
VORLAGE_TEXT
100
AcDbMText
 10
140.0165868337
 20
290.6378887952
 30
0.0
 40
2.0
 41
0.0
 71
     2
 72
     1
  1
3
  7
SLDTEXTSTYLE0
 73
     1
 44
1.0
  0
MTEXT
  5
15B
330
1F
100
AcDbEntity
  8
VORLAGE_TEXT
100
AcDbMText
 10
90.033223
 20
290.5566702875
 30
0.0
 40
2.0
 41
0.0
 71
     2
 72
     1
  1
2
  7
SLDTEXTSTYLE0
 73
     1
 44
1.0
  0
MTEXT
  5
15C
330
1F
100
AcDbEntity
  8
VORLAGE_TEXT
100
AcDbMText
 10
40.0509551097
 20
290.5530165805
 30
0.0
 40
2.0
 41
0.0
 71
     2
 72
     1
  1
1
  7
SLDTEXTSTYLE0
 73
     1
 44
1.0
  0
MTEXT
  5
15D
330
1F
100
AcDbEntity
  8
VORLAGE_TEXT
100
AcDbMText
 10
17.5609786315
 20
271.2966048816
 30
0.0
 40
2.0
 41
0.0
 71
     2
 72
     1
  1
A
  7
SLDTEXTSTYLE0
 73
     1
 44
1.0
  0
MTEXT
  5
15E
330
1F
100
AcDbEntity
  8
VORLAGE_TEXT
100
AcDbMText
 10
89.9333968896
 20
8.5904490253
 30
0.0
 40
2.0
 41
0.0
 71
     2
 72
     1
  1
2
  7
SLDTEXTSTYLE0
 73
     1
 44
1.0
  0
MTEXT
  5
15F
330
1F
100
AcDbEntity
  8
VORLAGE_TEXT
100
AcDbMText
 10
39.9009486579
 20
8.6623118453
 30
0.0
 40
2.0
 41
0.0
 71
     2
 72
     1
  1
1
  7
SLDTEXTSTYLE0
 73
     1
 44
1.0
  0
MTEXT
  5
160
330
1F
100
AcDbEntity
  8
VORLAGE_TEXT
100
AcDbMText
 10
190.0227230239
 20
8.7073169286
 30
0.0
 40
2.0
 41
0.0
 71
     2
 72
     1
  1
4
  7
SLDTEXTSTYLE0
 73
     1
 44
1.0
  0
MTEXT
  5
161
330
1F
100
AcDbEntity
  8
VORLAGE_TEXT
100
AcDbMText
 10
140.0453427777
 20
8.5647154541
 30
0.0
 40
2.0
 41
0.0
 71
     2
 72
     1
  1
3
  7
SLDTEXTSTYLE0
 73
     1
 44
1.0
  0
MTEXT
  5
162
330
1F
100
AcDbEntity
  8
VORLAGE_TEXT
100
AcDbMText
 10
239.8749782531
 20
8.5637526825
 30
0.0
 40
2.0
 41
0.0
 71
     2
 72
     1
  1
5
  7
SLDTEXTSTYLE0
 73
     1
 44
1.0
  0
MTEXT
  5
163
330
1F
100
AcDbEntity
  8
VORLAGE_TEXT
100
AcDbMText
 10
412.6717254925
 20
224.51208263
 30
0.0
 40
2.0
 41
0.0
 71
     2
 72
     1
  1
B
  7
SLDTEXTSTYLE0
 73
     1
 44
1.0
  0
MTEXT
  5
164
330
1F
100
AcDbEntity
  8
VORLAGE_TEXT
100
AcDbMText
 10
412.5951211154
 20
271.2798202564
 30
0.0
 40
2.0
 41
0.0
 71
     2
 72
     1
  1
A
  7
SLDTEXTSTYLE0
 73
     1
 44
1.0
  0
MTEXT
  5
165
330
1F
100
AcDbEntity
  8
VORLAGE_TEXT
100
AcDbMText
 10
412.6491448679
 20
174.7279841048
 30
0.0
 40
2.0
 41
0.0
 71
     2
 72
     1
  1
C
  7
SLDTEXTSTYLE0
 73
     1
 44
1.0
  0
MTEXT
  5
166
330
1F
100
AcDbEntity
  8
VORLAGE_TEXT
100
AcDbMText
 10
340.0216466634
 20
290.5954278102
 30
0.0
 40
2.0
 41
0.0
 71
     2
 72
     1
  1
7
  7
SLDTEXTSTYLE0
 73
     1
 44
1.0
  0
MTEXT
  5
167
330
1F
100
AcDbEntity
  8
VORLAGE_TEXT
100
AcDbMText
 10
390.037657264
 20
290.6215496941
 30
0.0
 40
2.0
 41
0.0
 71
     2
 72
     1
  1
8
  7
SLDTEXTSTYLE0
 73
     1
 44
1.0
  0
MTEXT
  5
168
330
1F
100
AcDbEntity
  8
VORLAGE_TEXT
100
AcDbMText
 10
17.6897935208
 20
74.7267628143
 30
0.0
 40
2.0
 41
0.0
 71
     2
 72
     1
  1
E
  7
SLDTEXTSTYLE0
 73
     1
 44
1.0
  0
MTEXT
  5
169
330
1F
100
AcDbEntity
  8
VORLAGE_TEXT
100
AcDbMText
 10
17.5936930126
 20
27.773321616
 30
0.0
 40
2.0
 41
0.0
 71
     2
 72
     1
  1
F
  7
SLDTEXTSTYLE0
 73
     1
 44
1.0
  0
MTEXT
  5
16A
330
1F
100
AcDbEntity
  8
VORLAGE_TEXT
100
AcDbMText
 10
339.8003474583
 20
8.7205095051
 30
0.0
 40
2.0
 41
0.0
 71
     2
 72
     1
  1
7
  7
SLDTEXTSTYLE0
 73
     1
 44
1.0
  0
MTEXT
  5
16B
330
1F
100
AcDbEntity
  8
VORLAGE_TEXT
100
AcDbMText
 10
289.7886477179
 20
8.6884673623
 30
0.0
 40
2.0
 41
0.0
 71
     2
 72
     1
  1
6
  7
SLDTEXTSTYLE0
 73
     1
 44
1.0
  0
MTEXT
  5
16C
330
1F
100
AcDbEntity
  8
VORLAGE_TEXT
100
AcDbMText
 10
412.5160699095
 20
74.5096307526
 30
0.0
 40
2.0
 41
0.0
 71
     2
 72
     1
  1
E
  7
SLDTEXTSTYLE0
 73
     1
 44
1.0
  0
MTEXT
  5
16D
330
1F
100
AcDbEntity
  8
VORLAGE_TEXT
100
AcDbMText
 10
412.6234021365
 20
124.4517683275
 30
0.0
 40
2.0
 41
0.0
 71
     2
 72
     1
  1
D
  7
SLDTEXTSTYLE0
 73
     1
 44
1.0
  0
MTEXT
  5
16E
330
1F
100
AcDbEntity
  8
TEXT-DEUTSCH
100
AcDbMText
 10
411.7952690469
 20
41.8542244463
 30
0.0
 40
1.8
 41
0.0
 71
     3
 72
     1
  1
Plotdatum: 15.09.2023
  7
SLDTEXTSTYLE0
 11
-3.269436733918102E-15
 21
1.0
 31
0.0
 73
     1
 44
1.0
  0
MTEXT
  5
16F
330
1F
100
AcDbEntity
  8
VORLAGE_TEXT
100
AcDbMText
 10
412.557933251
 20
8.2549718046
 30
0.0
 40
1.8
 41
0.0
 71
     2
 72
     1
  1
A3
  7
SLDTEXTSTYLE0
 73
     1
 44
1.0
  0
MTEXT
  5
170
330
1F
100
AcDbEntity
  8
VORLAGE_TEXT
100
AcDbMText
 10
390.594604279
 20
8.3847467643
 30
0.0
 40
1.8
 41
0.0
 71
     2
 72
     1
  1
CAD-System: SolidWorks
  7
SLDTEXTSTYLE0
 73
     1
 44
1.0
  0
MTEXT
  5
171
330
1F
100
AcDbEntity
  8
TEXT
100
AcDbMText
 10
404.0541923444
 20
28.4394692021
 30
0.0
 40
5.0
 41
0.0
 71
     2
 72
     1
  1
-
  7
SLDTEXTSTYLE0
 73
     1
 44
1.0
  0
MTEXT
  5
172
330
1F
100
AcDbEntity
  8
TEXT
100
AcDbMText
 10
249.556836311
 20
38.5581729516
 30
0.0
 40
2.0
 41
0.0
 71
     1
 72
     1
  1
Freigegeben
  7
SLDTEXTSTYLE0
 73
     1
 44
1.0
  0
MTEXT
  5
173
330
1F
100
AcDbEntity
  8
TEXT
100
AcDbMText
 10
284.1136255556
 20
43.5473338598
 30
0.0
 40
2.0
 41
0.0
 71
     2
 72
     1
  1
bae
  7
SLDTEXTSTYLE0
 73
     1
 44
1.0
  0
MTEXT
  5
174
330
1F
100
AcDbEntity
  8
TEXT
100
AcDbMText
 10
249.5284668163
 20
43.5603133928
 30
0.0
 40
2.0
 41
0.0
 71
     1
 72
     1
  1
15.09.2023
  7
SLDTEXTSTYLE0
 73
     1
 44
1.0
  0
MTEXT
  5
175
330
1F
100
AcDbEntity
  8
TEXT
100
AcDbMText
 10
284.1309088133
 20
48.5138972561
 30
0.0
 40
2.0
 41
0.0
 71
     2
 72
     1
  1
AB
  7
SLDTEXTSTYLE0
 73
     1
 44
1.0
  0
MTEXT
  5
176
330
1F
100
AcDbEntity
  8
TEXT
100
AcDbMText
 10
249.5284668163
 20
48.4989062069
 30
0.0
 40
2.0
 41
0.0
 71
     1
 72
     1
  1
01.02.2021
  7
SLDTEXTSTYLE0
 73
     1
 44
1.0
  0
MTEXT
  5
177
330
1F
100
AcDbEntity
  8
0
  6
Continuous
 62
     7
370
     0
100
AcDbMText
 10
370.655574235
 20
38.8723054925
 30
0.0
 40
1.5
 41
0.0
 71
     1
 72
     1
  1
Copyright reserved! © ACO Passavant AG
  7
SLDTEXTSTYLE0
 73
     1
 44
1.0
  0
INSERT
  5
180
330
1F
100
AcDbEntity
  8
0
  6
Continuous
 62
     7
370
     0
100
AcDbBlockReference
  2
SW_NOTE_0_3
 10
372.2203831445
 20
51.2202922854
 30
0.0
  0
MTEXT
  5
181
330
1F
100
AcDbEntity
  8
TEXT
100
AcDbMText
 10
364.9468572407
 20
18.4594173137
 30
0.0
 40
2.0
 41
0.0
 71
     1
 72
     1
  1
Erstausgabe
  7
SLDTEXTSTYLE0
 73
     1
 44
1.0
  0
MTEXT
  5
182
330
1F
100
AcDbEntity
  8
TEXT
100
AcDbMText
 10
330.2607505021
 20
18.524501801
 30
0.0
 40
2.0
 41
0.0
 71
     2
 72
     1
  1
-
  7
SLDTEXTSTYLE0
 73
     1
 44
1.0
  0
MTEXT
  5
183
330
1F
100
AcDbEntity
  8
VORLAGE_TEXT
100
AcDbMText
 10
311.764909851
 20
46.3490312465
 30
0.0
 40
5.0
 41
0.0
 71
     2
 72
     1
  1
1:1
  7
SLDTEXTSTYLE0
 73
     1
 44
1.0
  0
MTEXT
  5
184
330
1F
100
AcDbEntity
  8
VORLAGE_TEXT
100
AcDbMText
 10
230.1851195342
 20
38.7793829468
 30
0.0
 40
2.0
 41
0.0
 71
     1
 72
     1
  1
Status:
  7
SLDTEXTSTYLE0
 73
     1
 44
1.0
  0
MTEXT
  5
185
330
1F
100
AcDbEntity
  8
TEXT
100
AcDbMText
 10
344.926838705
 20
28.2772828851
 30
0.0
 40
5.0
 41
0.0
 71
     1
 72
     1
  1
419453
  7
SLDTEXTSTYLE0
 73
     1
 44
1.0
  0
MTEXT
  5
186
330
1F
100
AcDbEntity
  8
TEXT
100
AcDbMText
 10
231.1132118803
 20
14.9211049657
 30
0.0
 40
2.5
 41
0.0
 71
     1
 72
     1
  1
Art. Nr.: 419453
  7
SLDTEXTSTYLE0
 73
     1
 44
1.0
  0
MTEXT
  5
187
330
1F
100
AcDbEntity
  8
TEXT
100
AcDbMText
 10
231.1475981734
 20
21.4529560996
 30
0.0
 40
2.5
 41
0.0
 71
     1
 72
     1
  1
Pipe Dichtung EPDM
  7
SLDTEXTSTYLE0
 73
     1
 44
1.0
  0
MTEXT
  5
188
330
1F
100
AcDbEntity
  8
TEXT
100
AcDbMText
 10
231.1159560181
 20
33.0904969858
 30
0.0
 40
2.5
 41
0.0
 71
     1
 72
     1
  1
ACO-Standard
  7
SLDTEXTSTYLE0
 73
     1
 44
1.0
  0
MTEXT
  5
189
330
1F
100
AcDbEntity
  8
TEXT
100
AcDbMText
 10
231.1475981734
 20
28.0307932366
 30
0.0
 40
3.5
 41
0.0
 71
     1
 72
     1
  1
Pipe Dichtung Ø125
  7
SLDTEXTSTYLE0
 73
     1
 44
1.0
  0
MTEXT
  5
18A
330
1F
100
AcDbEntity
  8
VORLAGE_TEXT
100
AcDbMText
 10
348.2746465368
 20
53.819119072
 30
0.0
 40
2.0
 41
0.0
 71
     1
 72
     1
  1
Projektion: ISO-E
  7
SLDTEXTSTYLE0
 73
     1
 44
1.0
  0
MTEXT
  5
18B
330
1F
100
AcDbEntity
  8
TEXT
100
AcDbMText
 10
337.7677091855
 20
49.3670227094
 30
0.0
 40
2.5
 41
0.0
 71
     2
 72
     1
  1
Millimeter
  7
SLDTEXTSTYLE0
 73
     1
 44
1.0
  0
MTEXT
  5
18C
330
1F
100
AcDbEntity
  8
VORLAGE_TEXT
100
AcDbMText
 10
337.6323777421
 20
53.855374072
 30
0.0
 40
2.0
 41
0.0
 71
     2
 72
     1
  1
Masseinheit:
  7
SLDTEXTSTYLE0
 73
     1
 44
1.0
  0
MTEXT
  5
18D
330
1F
100
AcDbEntity
  8
VORLAGE_TEXT
100
AcDbMText
 10
337.6114490186
 20
43.5452078816
 30
0.0
 40
2.0
 41
0.0
 71
     2
 72
     1
  1
Blatt / Anz.:
  7
SLDTEXTSTYLE0
 73
     1
 44
1.0
  0
MTEXT
  5
18E
330
1F
100
AcDbEntity
  8
VORLAGE_TEXT
100
AcDbMText
 10
329.2895578243
 20
28.4139191092
 30
0.0
 40
5.0
 41
0.0
 71
     1
 72
     1
  1
CH
  7
SLDTEXTSTYLE0
 73
     1
 44
1.0
  0
MTEXT
  5
18F
330
1F
100
AcDbEntity
  8
VORLAGE_TEXT
100
AcDbMText
 10
330.40704
 20
33.692638072
 30
0.0
 40
2.0
 41
0.0
 71
     1
 72
     1
  1
Zeichnung Nr.:
  7
SLDTEXTSTYLE0
 73
     1
 44
1.0
  0
MTEXT
  5
190
330
1F
100
AcDbEntity
  8
VORLAGE_TEXT
100
AcDbMText
 10
269.897953
 20
75.161075072
 30
0.0
 40
2.0
 41
0.0
 71
     1
 72
     1
  1
Gewicht:
  7
SLDTEXTSTYLE0
 73
     1
 44
1.0
  0
MTEXT
  5
191
330
1F
100
AcDbEntity
  8
VORLAGE_TEXT
100
AcDbMText
 10
230.0
 20
64.542328072
 30
0.0
 40
2.0
 41
0.0
 71
     1
 72
     1
  1
zul. Abweichung:
  7
SLDTEXTSTYLE0
 73
     1
 44
1.0
  0
MTEXT
  5
192
330
1F
100
AcDbEntity
  8
VORLAGE_TEXT
100
AcDbMText
 10
269.612607
 20
64.542328072
 30
0.0
 40
2.0
 41
0.0
 71
     1
 72
     1
  1
Oberfläche:
  7
SLDTEXTSTYLE0
 73
     1
 44
1.0
  0
MTEXT
  5
193
330
1F
100
AcDbEntity
  8
VORLAGE_TEXT
100
AcDbMText
 10
230.261411
 20
43.4433838912
 30
0.0
 40
2.0
 41
0.0
 71
     1
 72
     1
  1
Freigegeben:
  7
SLDTEXTSTYLE0
 73
     1
 44
1.0
  0
MTEXT
  5
194
330
1F
100
AcDbEntity
  8
VORLAGE_TEXT
100
AcDbMText
 10
230.0
 20
75.161075072
 30
0.0
 40
2.0
 41
0.0
 71
     1
 72
     1
  1
Werkstoff:
  7
SLDTEXTSTYLE0
 73
     1
 44
1.0
  0
MTEXT
  5
195
330
1F
100
AcDbEntity
  8
VORLAGE_TEXT
100
AcDbMText
 10
254.035545
 20
53.129475072
 30
0.0
 40
2.0
 41
0.0
 71
     1
 72
     1
  1
Datum:
  7
SLDTEXTSTYLE0
 73
     1
 44
1.0
  0
MTEXT
  5
196
330
1F
100
AcDbEntity
  8
VORLAGE_TEXT
100
AcDbMText
 10
279.934928
 20
53.136060072
 30
0.0
 40
2.0
 41
0.0
 71
     1
 72
     1
  1
Name:
  7
SLDTEXTSTYLE0
 73
     1
 44
1.0
  0
MTEXT
  5
197
330
1F
100
AcDbEntity
  8
VORLAGE_TEXT
100
AcDbMText
 10
312.162455406
 20
53.881591072
 30
0.0
 40
2.0
 41
0.0
 71
     2
 72
     1
  1
Massstab:
  7
SLDTEXTSTYLE0
 73
     1
 44
1.0
  0
MTEXT
  5
198
330
1F
100
AcDbEntity
  8
VORLAGE_TEXT
100
AcDbMText
 10
403.9552944035
 20
33.324874072
 30
0.0
 40
2.0
 41
0.0
 71
     2
 72
     1
  1
Index:
  7
SLDTEXTSTYLE0
 73
     1
 44
1.0
  0
MTEXT
  5
199
330
1F
100
AcDbEntity
  8
VORLAGE_TEXT
100
AcDbMText
 10
230.261411
 20
48.4499477886
 30
0.0
 40
2.0
 41
0.0
 71
     1
 72
     1
  1
Erstellt:
  7
SLDTEXTSTYLE0
 73
     1
 44
1.0
  0
MTEXT
  5
19B
330
1F
100
AcDbEntity
  8
VORLAGE_TEXT
100
AcDbMText
 10
337.6348165843
 20
39.869706576
 30
0.0
 40
2.5
 41
0.0
 71
     2
 72
     1
  1
1 / 1
  7
SLDTEXTSTYLE1
 73
     1
 44
1.0
  0
MTEXT
  5
19C
330
1F
100
AcDbEntity
  8
TEXT
100
AcDbMText
 10
269.612607
 20
60.8119428599
 30
0.0
 40
3.0
 41
0.0
 71
     1
 72
     1
  1
DIN ISO 1302
  7
SLDTEXTSTYLE0
 73
     1
 44
1.0
  0
MTEXT
  5
19D
330
1F
100
AcDbEntity
  8
TEXT
100
AcDbMText
 10
230.0
 20
60.8119428599
 30
0.0
 40
3.0
 41
0.0
 71
     1
 72
     1
  1
Norm
  7
SLDTEXTSTYLE0
 73
     1
 44
1.0
  0
MTEXT
  5
19E
330
1F
100
AcDbEntity
  8
TEXT
100
AcDbMText
 10
269.612607
 20
71.2121947186
 30
0.0
 40
3.0
 41
0.0
 71
     1
 72
     1
  1
0.06
  7
SLDTEXTSTYLE0
 73
     1
 44
1.0
  0
MTEXT
  5
19F
330
1F
100
AcDbEntity
  8
TEXT
100
AcDbMText
 10
230.0
 20
71.2121947186
 30
0.0
 40
3.0
 41
0.0
 71
     1
 72
     1
  1
EPDM 60
  7
SLDTEXTSTYLE0
 73
     1
 44
1.0
  0
CIRCLE
  5
1A0
330
1F
100
AcDbEntity
  8
0
  6
Continuous
 62
     7
370
    25
100
AcDbCircle
 10
134.4282219828
 20
121.7315948276
 30
0.0
 40
66.4265200214017
  0
CIRCLE
  5
1A1
330
1F
100
AcDbEntity
  8
0
  6
Continuous
 62
     7
370
    25
100
AcDbCircle
 10
134.4282219828
 20
121.7315948276
 30
0.0
 40
70.44999999991708
  0
CIRCLE
  5
1A2
330
1F
100
AcDbEntity
  8
0
  6
Continuous
 62
     7
370
    25
100
AcDbCircle
 10
134.4282219828
 20
121.7315948276
 30
0.0
 40
66.32525673490419
  0
CIRCLE
  5
1A3
330
1F
100
AcDbEntity
  8
0
  6
Continuous
 62
     7
370
    25
100
AcDbCircle
 10
134.4282219828
 20
121.7315948276
 30
0.0
 40
70.71921992317098
  0
CIRCLE
  5
1A4
330
1F
100
AcDbEntity
  8
0
  6
Continuous
 62
     7
370
    25
100
AcDbCircle
 10
134.4282219828
 20
121.7315948276
 30
0.0
 40
65.27857295904424
  0
CIRCLE
  5
1A5
330
1F
100
AcDbEntity
  8
0
  6
Continuous
 62
     8
370
    18
100
AcDbCircle
 10
134.4282219828
 20
121.7315948276
 30
0.0
 40
66.92386575041905
  0
CIRCLE
  5
1A6
330
1F
100
AcDbEntity
  8
0
  6
Continuous
 62
     8
370
    18
100
AcDbCircle
 10
134.4282219828
 20
121.7315948276
 30
0.0
 40
67.60783153188909
  0
CIRCLE
  5
1A7
330
1F
100
AcDbEntity
  8
0
  6
Continuous
 62
     8
370
    18
100
AcDbCircle
 10
134.4282219828
 20
121.7315948276
 30
0.0
 40
67.81563097105689
  0
CIRCLE
  5
1A8
330
1F
100
AcDbEntity
  8
0
  6
Continuous
 62
     8
370
    18
100
AcDbCircle
 10
134.4282219828
 20
121.7315948276
 30
0.0
 40
69.1781233922518
  0
CIRCLE
  5
1A9
330
1F
100
AcDbEntity
  8
0
  6
Continuous
 62
     8
370
    18
100
AcDbCircle
 10
134.4282219828
 20
121.7315948276
 30
0.0
 40
70.29741789185135
  0
CIRCLE
  5
1AA
330
1F
100
AcDbEntity
  8
0
  6
Continuous
 62
     8
370
    18
100
AcDbCircle
 10
134.4282219828
 20
121.7315948276
 30
0.0
 40
66.34978728645085
  0
CIRCLE
  5
1AB
330
1F
100
AcDbEntity
  8
0
  6
Continuous
 62
     8
370
    18
100
AcDbCircle
 10
134.4282219828
 20
121.7315948276
 30
0.0
 40
60.7999681774337
  0
CIRCLE
  5
1AC
330
1F
100
AcDbEntity
  8
0
  6
Continuous
 62
     8
370
    18
100
AcDbCircle
 10
134.4282219828
 20
121.7315948276
 30
0.0
 40
61.08321317740038
  0
CIRCLE
  5
1AD
330
1F
100
AcDbEntity
  8
0
  6
Continuous
 62
     8
370
    18
100
AcDbCircle
 10
134.4282219828
 20
121.7315948276
 30
0.0
 40
64.67223076972631
  0
CIRCLE
  5
1AE
330
1F
100
AcDbEntity
  8
0
  6
Continuous
 62
     8
370
    18
100
AcDbCircle
 10
134.4282219828
 20
121.7315948276
 30
0.0
 40
70.70778331887024
  0
DIMENSION
  5
1AF
330
1F
100
AcDbEntity
  8
0
  6
Continuous
 62
     7
370
    18
100
AcDbDimension
  2
_D
 10
84.4302689153
 20
71.7336417601
 30
0.0
 11
193.2402550595
 21
180.5436279043
 31
0.0
 70
   163
  1
<>
 71
     1
 42
-1.0
  3
SLDDIMSTYLE0
100
AcDbDiametricDimension
 15
184.4261750502
 25
171.729547895
 35
0.0
 40
0.0
  0
DIMENSION
  5
1B8
330
1F
100
AcDbEntity
  8
0
  6
Continuous
 62
     7
370
    18
100
AcDbDimension
  2
_D_1
 10
187.0825389737
 20
152.1315789163
 30
0.0
 11
206.0544047159
 21
163.0849949361
 31
0.0
 70
   163
  1
<>
 71
     1
 42
-1.0
  3
SLDDIMSTYLE1
100
AcDbDiametricDimension
 15
81.7739049918
 25
91.3316107389
 35
0.0
 40
0.0
  0
INSERT
  5
1CE
330
1F
100
AcDbEntity
  8
0
  6
Continuous
 62
     7
370
     0
100
AcDbBlockReference
  2
SW_CENTERMARKSYMBOL_0
 10
134.4282219828
 20
121.7315948276
 30
0.0
  0
LINE
  5
1CF
330
1F
100
AcDbEntity
  8
0
  6
CENTER
 62
     7
370
    18
100
AcDbLine
 10
211.0441519866
 20
121.7315948276
 30
0.0
 11
57.8408159271
 21
121.7315948276
 31
0.0
  0
LINE
  5
1D0
330
1F
100
AcDbEntity
  8
0
  6
Continuous
 62
     7
370
    18
100
AcDbLine
 10
209.0441519866
 20
114.1315948276
 30
0.0
 11
209.0441519866
 21
121.7315948276
 31
0.0
  0
SOLID
  5
1D1
330
1F
100
AcDbEntity
  8
0
  6
Continuous
 62
     7
370
    18
100
AcDbTrace
 10
209.0441519866
 20
121.7315948276
 30
0.0
 11
208.2441519866
 21
116.7315948276
 31
0.0
 12
209.8441519866
 22
116.7315948276
 32
0.0
 13
209.8441519866
 23
116.7315948276
 33
0.0
  0
LINE
  5
1D2
330
1F
100
AcDbEntity
  8
0
  6
Continuous
 62
     7
370
    18
100
AcDbLine
 10
59.8408159271
 20
114.1315948276
 30
0.0
 11
59.8408159271
 21
121.7315948276
 31
0.0
  0
SOLID
  5
1D3
330
1F
100
AcDbEntity
  8
0
  6
Continuous
 62
     7
370
    18
100
AcDbTrace
 10
59.8408159271
 20
121.7315948276
 30
0.0
 11
59.0408159271
 21
116.7315948276
 31
0.0
 12
60.6408159271
 22
116.7315948276
 32
0.0
 13
60.6408159271
 23
116.7315948276
 33
0.0
  0
MTEXT
  5
1D4
330
1F
100
AcDbEntity
  8
0
  6
Continuous
 62
     7
100
AcDbMText
 10
206.9148641932
 20
112.6789013982
 30
0.0
 40
5.0
 41
0.0
 71
     1
 72
     1
  1
A
  7
SLDTEXTSTYLE0
 73
     1
 44
1.0
  0
MTEXT
  5
1D5
330
1F
100
AcDbEntity
  8
0
  6
Continuous
 62
     7
100
AcDbMText
 10
57.6608563115
 20
112.8213767109
 30
0.0
 40
5.0
 41
0.0
 71
     1
 72
     1
  1
A
  7
SLDTEXTSTYLE0
 73
     1
 44
1.0
  0
LINE
  5
1D6
330
1F
100
AcDbEntity
  8
0
  6
Continuous
 62
     7
370
    25
100
AcDbLine
 10
68.4597993431
 20
216.2010283042
 30
0.0
 11
200.3966446224
 21
216.2010283042
 31
0.0
  0
LINE
  5
1D7
330
1F
100
AcDbEntity
  8
0
  6
Continuous
 62
     7
370
    25
100
AcDbLine
 10
195.9070395753
 20
221.5964011675
 30
0.0
 11
72.9494043902
 21
221.5964011675
 31
0.0
  0
LINE
  5
1D8
330
1F
100
AcDbEntity
  8
0
  6
Continuous
 62
     7
370
    25
100
AcDbLine
 10
63.8310677461
 20
223.9877117724
 30
0.0
 11
64.5546979431
 21
223.9877117724
 31
0.0
  0
LINE
  5
1D9
330
1F
100
AcDbEntity
  8
0
  6
Continuous
 62
     7
370
    25
100
AcDbLine
 10
204.3017460225
 20
223.9877117724
 30
0.0
 11
205.0253762194
 21
223.9877117724
 31
0.0
  0
LINE
  5
1DA
330
1F
100
AcDbEntity
  8
0
  6
Continuous
 62
     7
370
    25
100
AcDbLine
 10
72.7921094738
 20
226.1482850139
 30
0.0
 11
196.0643344917
 21
226.1482850139
 31
0.0
  0
LINE
  5
1DB
330
1F
100
AcDbEntity
  8
0
  6
Continuous
 62
     7
370
    25
100
AcDbLine
 10
201.2209390634
 20
233.9011915234
 30
0.0
 11
67.6355049021
 21
233.9011915234
 31
0.0
  0
LINE
  5
1DC
330
1F
100
AcDbEntity
  8
0
  6
Continuous
 62
     7
370
    25
100
AcDbLine
 10
197.9751660547
 20
216.550694231
 30
0.0
 11
200.1193250994
 21
216.2221514407
 31
0.0
  0
LINE
  5
1DD
330
1F
100
AcDbEntity
  8
0
  6
Continuous
 62
     7
370
    25
100
AcDbLine
 10
68.7371188662
 20
216.2221514407
 30
0.0
 11
70.8812779108
 21
216.550694231
 31
0.0
  0
ARC
  5
1DE
330
1F
100
AcDbEntity
  8
0
  6
Continuous
 62
     7
370
    25
100
AcDbCircle
 10
201.2209390634
 20
233.5349944641
 30
0.0
 40
0.3661970592836753
100
AcDbArc
 50
69.0141809731
 51
181.93657938
  0
LINE
  5
1DF
330
1F
100
AcDbEntity
  8
0
  6
Continuous
 62
     7
370
    25
100
AcDbLine
 10
201.3520877332
 20
233.8769013413
 30
0.0
 11
202.0360535146
 21
233.6145456872
 31
0.0
  0
ARC
  5
1E0
330
1F
100
AcDbEntity
  8
0
  6
Continuous
 62
     7
370
    25
100
AcDbCircle
 10
201.5114588356
 20
232.2469181785
 30
0.0
 40
1.464788237226061
100
AcDbArc
 50
60.0000000162
 51
69.0141809716
  0
LINE
  5
1E1
330
1F
100
AcDbEntity
  8
0
  6
Continuous
 62
     7
370
    25
100
AcDbLine
 10
202.2438529537
 20
233.515462003
 30
0.0
 11
203.606345375
 21
232.728826638
 31
0.0
  0
LINE
  5
1E2
330
1F
100
AcDbEntity
  8
0
  6
Continuous
 62
     7
370
    25
100
AcDbLine
 10
203.606345375
 20
232.728826638
 30
0.0
 11
204.7256398746
 21
232.0826016575
 31
0.0
  0
ARC
  5
1E3
330
1F
100
AcDbEntity
  8
0
  6
Continuous
 62
     7
370
    25
100
AcDbCircle
 10
204.5730577665
 20
231.818321694
 30
0.0
 40
0.3051642161258136
100
AcDbArc
 50
300.0000000008
 51
60.0000000006
  0
LINE
  5
1E4
330
1F
100
AcDbEntity
  8
0
  6
Continuous
 62
     7
370
    25
100
AcDbLine
 10
204.7256398746
 20
231.5540417306
 30
0.0
 11
204.4543281304
 21
231.397399822
 31
0.0
  0
ARC
  5
1E5
330
1F
100
AcDbEntity
  8
0
  6
Continuous
 62
     7
370
    25
100
AcDbCircle
 10
204.6069102385
 20
231.1331198585
 30
0.0
 40
0.3051642161257594
100
AcDbArc
 50
120.000000002
 51
180.0000000005
  0
LINE
  5
1E6
330
1F
100
AcDbEntity
  8
0
  6
Continuous
 62
     7
370
    25
100
AcDbLine
 10
204.3017460224
 20
231.1331198585
 30
0.0
 11
204.3017460224
 21
230.6815261249
 31
0.0
  0
ARC
  5
1E7
330
1F
100
AcDbEntity
  8
0
  6
Continuous
 62
     7
370
    25
100
AcDbCircle
 10
204.6069102385
 20
230.6815261249
 30
0.0
 40
0.3051642161477163
100
AcDbArc
 50
179.9999999948
 51
239.9999999941
  0
LINE
  5
1E8
330
1F
100
AcDbEntity
  8
0
  6
Continuous
 62
     7
370
    25
100
AcDbLine
 10
204.4543281304
 20
230.4172461614
 30
0.0
 11
204.7256398746
 21
230.260604253
 31
0.0
  0
ARC
  5
1E9
330
1F
100
AcDbEntity
  8
0
  6
Continuous
 62
     7
370
    25
100
AcDbCircle
 10
204.5730577666
 20
229.9963242895
 30
0.0
 40
0.3051642161257598
100
AcDbArc
 50
300.0000000002
 51
60.0000000011
  0
LINE
  5
1EA
330
1F
100
AcDbEntity
  8
0
  6
Continuous
 62
     7
370
    25
100
AcDbLine
 10
204.7256398746
 20
229.7320443261
 30
0.0
 11
204.4543281304
 21
229.5754024175
 31
0.0
  0
ARC
  5
1EB
330
1F
100
AcDbEntity
  8
0
  6
Continuous
 62
     7
370
    25
100
AcDbCircle
 10
204.6069102385
 20
229.311122454
 30
0.0
 40
0.3051642161257632
100
AcDbArc
 50
120.000000002
 51
180.0000000005
  0
LINE
  5
1EC
330
1F
100
AcDbEntity
  8
0
  6
Continuous
 62
     7
370
    25
100
AcDbLine
 10
204.3017460224
 20
229.311122454
 30
0.0
 11
204.3017460224
 21
228.0168937936
 31
0.0
  0
ARC
  5
1ED
330
1F
100
AcDbEntity
  8
0
  6
Continuous
 62
     7
370
    25
100
AcDbCircle
 10
204.6069102386
 20
228.0168937936
 30
0.0
 40
0.3051642161491234
100
AcDbArc
 50
179.9999999948
 51
239.9999999941
  0
LINE
  5
1EE
330
1F
100
AcDbEntity
  8
0
  6
Continuous
 62
     7
370
    25
100
AcDbLine
 10
204.4543281305
 20
227.7526138301
 30
0.0
 11
204.7256398746
 21
227.5959719216
 31
0.0
  0
ARC
  5
1EF
330
1F
100
AcDbEntity
  8
0
  6
Continuous
 62
     7
370
    25
100
AcDbCircle
 10
204.5730577666
 20
227.3316919581
 30
0.0
 40
0.3051642161257967
100
AcDbArc
 50
300.0000000003
 51
60.0
  0
LINE
  5
1F0
330
1F
100
AcDbEntity
  8
0
  6
Continuous
 62
     7
370
    25
100
AcDbLine
 10
204.7256398746
 20
227.0674119947
 30
0.0
 11
204.4543281304
 21
226.9107700862
 31
0.0
  0
ARC
  5
1F1
330
1F
100
AcDbEntity
  8
0
  6
Continuous
 62
     7
370
    25
100
AcDbCircle
 10
204.6069102385
 20
226.6464901227
 30
0.0
 40
0.305164216125784
100
AcDbArc
 50
120.000000002
 51
180.0000000005
  0
LINE
  5
1F2
330
1F
100
AcDbEntity
  8
0
  6
Continuous
 62
     7
370
    25
100
AcDbLine
 10
204.3017460224
 20
226.6464901227
 30
0.0
 11
204.3017460224
 21
226.0180927215
 31
0.0
  0
ARC
  5
1F3
330
1F
100
AcDbEntity
  8
0
  6
Continuous
 62
     7
370
    25
100
AcDbCircle
 10
204.6069102385
 20
226.0180927217
 30
0.0
 40
0.3051642161257462
100
AcDbArc
 50
180.0000000356
 51
205.0000000381
  0
LINE
  5
1F4
330
1F
100
AcDbEntity
  8
0
  6
Continuous
 62
     7
370
    25
100
AcDbLine
 10
204.3303375332
 20
225.889124751
 30
0.0
 11
205.1360053016
 21
224.1613646472
 31
0.0
  0
ARC
  5
1F5
330
1F
100
AcDbEntity
  8
0
  6
Continuous
 62
     7
370
    25
100
AcDbCircle
 10
205.0253762194
 20
224.109777459
 30
0.0
 40
0.1220656865435311
100
AcDbArc
 50
234.9999999975
 51
25.0000000017
  0
LINE
  5
1F6
330
1F
100
AcDbEntity
  8
0
  6
Continuous
 62
     7
370
    25
100
AcDbLine
 10
204.4938257104
 20
224.3329584436
 30
0.0
 11
204.9553622179
 21
224.0097871024
 31
0.0
  0
ARC
  5
1F7
330
1F
100
AcDbEntity
  8
0
  6
Continuous
 62
     7
370
    25
100
AcDbCircle
 10
204.4238117089
 20
224.232968087
 30
0.0
 40
0.1220656865435393
100
AcDbArc
 50
54.9999999888
 51
180.0000000005
  0
LINE
  5
1F8
330
1F
100
AcDbEntity
  8
0
  6
Continuous
 62
     7
370
    25
100
AcDbLine
 10
204.3017460225
 20
224.232968087
 30
0.0
 11
204.3017460225
 21
222.5495902859
 31
0.0
  0
ARC
  5
1F9
330
1F
100
AcDbEntity
  8
0
  6
Continuous
 62
     7
370
    25
100
AcDbCircle
 10
204.6069102386
 20
222.5495902858
 30
0.0
 40
0.3051642161431479
100
AcDbArc
 50
179.9999999941
 51
239.9999999945
  0
LINE
  5
1FA
330
1F
100
AcDbEntity
  8
0
  6
Continuous
 62
     7
370
    25
100
AcDbLine
 10
204.4543281305
 20
222.2853103224
 30
0.0
 11
204.7256398747
 21
222.1286684139
 31
0.0
  0
ARC
  5
1FB
330
1F
100
AcDbEntity
  8
0
  6
Continuous
 62
     7
370
    25
100
AcDbCircle
 10
204.5730577666
 20
221.8643884504
 30
0.0
 40
0.3051642161257757
100
AcDbArc
 50
300.0000000003
 51
60.0000000012
  0
LINE
  5
1FC
330
1F
100
AcDbEntity
  8
0
  6
Continuous
 62
     7
370
    25
100
AcDbLine
 10
204.7256398747
 20
221.600108487
 30
0.0
 11
204.4543281305
 21
221.4434665784
 31
0.0
  0
ARC
  5
1FD
330
1F
100
AcDbEntity
  8
0
  6
Continuous
 62
     7
370
    25
100
AcDbCircle
 10
204.6069102386
 20
221.179186615
 30
0.0
 40
0.3051642161257935
100
AcDbArc
 50
120.0000000031
 51
180.0000000004
  0
LINE
  5
1FE
330
1F
100
AcDbEntity
  8
0
  6
Continuous
 62
     7
370
    25
100
AcDbLine
 10
204.3017460225
 20
221.179186615
 30
0.0
 11
204.3017460225
 21
219.1006742383
 31
0.0
  0
ARC
  5
1FF
330
1F
100
AcDbEntity
  8
0
  6
Continuous
 62
     7
370
    25
100
AcDbCircle
 10
204.6069102386
 20
219.1006742383
 30
0.0
 40
0.3051642161433711
100
AcDbArc
 50
179.9999999942
 51
239.9999999946
  0
LINE
  5
200
330
1F
100
AcDbEntity
  8
0
  6
Continuous
 62
     7
370
    25
100
AcDbLine
 10
204.4543281305
 20
218.8363942748
 30
0.0
 11
204.7256398747
 21
218.6797523663
 31
0.0
  0
ARC
  5
201
330
1F
100
AcDbEntity
  8
0
  6
Continuous
 62
     7
370
    25
100
AcDbCircle
 10
204.5730577666
 20
218.4154724028
 30
0.0
 40
0.305164216125782
100
AcDbArc
 50
300.0000000003
 51
60.0
  0
LINE
  5
202
330
1F
100
AcDbEntity
  8
0
  6
Continuous
 62
     7
370
    25
100
AcDbLine
 10
204.7256398747
 20
218.1511924393
 30
0.0
 11
201.8078412536
 21
216.46660062
 31
0.0
  0
ARC
  5
203
330
1F
100
AcDbEntity
  8
0
  6
Continuous
 62
     7
370
    25
100
AcDbCircle
 10
201.075447135
 20
217.7351444446
 30
0.0
 40
1.464788237284529
100
AcDbArc
 50
276.0000000005
 51
300.0000000005
  0
LINE
  5
204
330
1F
100
AcDbEntity
  8
0
  6
Continuous
 62
     7
370
    25
100
AcDbLine
 10
201.2285591984
 20
216.2783804706
 30
0.0
 11
200.588034702
 21
216.2110586332
 31
0.0
  0
ARC
  5
205
330
1F
100
AcDbEntity
  8
0
  6
Continuous
 62
     7
370
    25
100
AcDbCircle
 10
200.3966446224
 20
218.0320136007
 30
0.0
 40
1.830985296515584
100
AcDbArc
 50
261.2885026263
 51
276.0000000083
  0
ARC
  5
206
330
1F
100
AcDbEntity
  8
0
  6
Continuous
 62
     7
370
    25
100
AcDbCircle
 10
198.0312059496
 20
216.9164257311
 30
0.0
 40
0.3700000000003172
100
AcDbArc
 50
180.0000000005
 51
261.28850262
  0
LINE
  5
207
330
1F
100
AcDbEntity
  8
0
  6
Continuous
 62
     7
370
    25
100
AcDbLine
 10
197.6612059496
 20
217.7846923346
 30
0.0
 11
197.6612059496
 21
216.9164257311
 31
0.0
  0
ARC
  5
208
330
1F
100
AcDbEntity
  8
0
  6
Continuous
 62
     7
370
    25
100
AcDbCircle
 10
197.4170745767
 20
217.7846923346
 30
0.0
 40
0.2441313728737953
100
AcDbArc
 50
0.0000000005
 51
28.0000000015
  0
LINE
  5
209
330
1F
100
AcDbEntity
  8
0
  6
Continuous
 62
     7
370
    25
100
AcDbLine
 10
196.213515704
 20
220.5682704807
 30
0.0
 11
197.6326297847
 21
217.8993050718
 31
0.0
  0
ARC
  5
20A
330
1F
100
AcDbEntity
  8
0
  6
Continuous
 62
     7
370
    25
100
AcDbCircle
 10
195.674627684
 20
220.2817386378
 30
0.0
 40
0.6103284322031212
100
AcDbArc
 50
27.9999999969
 51
76.2315422679
  0
ARC
  5
20B
330
1F
100
AcDbEntity
  8
0
  6
Continuous
 62
     7
370
    25
100
AcDbCircle
 10
195.9070395753
 20
221.2302041082
 30
0.0
 40
0.3661970593752933
100
AcDbArc
 50
79.0000000086
 51
256.2315422697
  0
LINE
  5
20C
330
1F
100
AcDbEntity
  8
0
  6
Continuous
 62
     7
370
    25
100
AcDbLine
 10
195.9769132682
 20
221.5896730961
 30
0.0
 11
196.563854336
 21
221.47558331
 31
0.0
  0
ARC
  5
20D
330
1F
100
AcDbEntity
  8
0
  6
Continuous
 62
     7
370
    25
100
AcDbCircle
 10
196.680310491
 20
222.0746982899
 30
0.0
 40
0.6103284322031755
100
AcDbArc
 50
259.0000000002
 51
0.0
  0
LINE
  5
20E
330
1F
100
AcDbEntity
  8
0
  6
Continuous
 62
     7
370
    25
100
AcDbLine
 10
197.2906389232
 20
224.3901866672
 30
0.0
 11
197.2906389232
 21
222.0746982899
 31
0.0
  0
ARC
  5
20F
330
1F
100
AcDbEntity
  8
0
  6
Continuous
 62
     7
370
    25
100
AcDbCircle
 10
197.0465075502
 20
224.3901866672
 30
0.0
 40
0.2441313729528929
100
AcDbArc
 50
0.0000000103
 51
46.0610789801
  0
LINE
  5
210
330
1F
100
AcDbEntity
  8
0
  6
Continuous
 62
     7
370
    25
100
AcDbLine
 10
197.0046966209
 20
224.7695106833
 30
0.0
 11
197.2159081465
 21
224.565980766
 31
0.0
  0
ARC
  5
211
330
1F
100
AcDbEntity
  8
0
  6
Continuous
 62
     7
370
    25
100
AcDbCircle
 10
197.2164473664
 20
224.9892533068
 30
0.0
 40
0.3051642161257983
100
AcDbArc
 50
164.9999999831
 51
226.0610789469
  0
LINE
  5
212
330
1F
100
AcDbEntity
  8
0
  6
Continuous
 62
     7
370
    25
100
AcDbLine
 10
196.987627601
 20
225.3143503068
 30
0.0
 11
196.9216813688
 21
225.0682356179
 31
0.0
  0
ARC
  5
213
330
1F
100
AcDbEntity
  8
0
  6
Continuous
 62
     7
370
    25
100
AcDbCircle
 10
196.8107680024
 20
225.3617396933
 30
0.0
 40
0.1830985296528113
100
AcDbArc
 50
345.0000000163
 51
14.7005665801
  0
LINE
  5
214
330
1F
100
AcDbEntity
  8
0
  6
Continuous
 62
     7
370
    25
100
AcDbLine
 10
196.7975305429
 20
226.1337166285
 30
0.0
 11
196.9878728463
 21
225.4082041512
 31
0.0
  0
ARC
  5
215
330
1F
100
AcDbEntity
  8
0
  6
Continuous
 62
     7
370
    25
100
AcDbCircle
 10
196.6204256991
 20
226.0872521706
 30
0.0
 40
0.1830985296528196
100
AcDbArc
 50
14.700566578
 51
103.5831004039
  0
LINE
  5
216
330
1F
100
AcDbEntity
  8
0
  6
Continuous
 62
     7
370
    25
100
AcDbLine
 10
196.5774240171
 20
226.265229492
 30
0.0
 11
196.1216700676
 21
226.1551132916
 31
0.0
  0
ARC
  5
217
330
1F
100
AcDbEntity
  8
0
  6
Continuous
 62
     7
370
    25
100
AcDbCircle
 10
196.0643344917
 20
226.3924163868
 30
0.0
 40
0.2441313728751656
100
AcDbArc
 50
165.9023045179
 51
283.5831003835
  0
LINE
  5
218
330
1F
100
AcDbEntity
  8
0
  6
Continuous
 62
     7
370
    25
100
AcDbLine
 10
196.0556756599
 20
227.3602183356
 30
0.0
 11
195.8275559132
 21
226.4518809305
 31
0.0
  0
ARC
  5
219
330
1F
100
AcDbEntity
  8
0
  6
Continuous
 62
     7
370
    25
100
AcDbCircle
 10
195.7597024367
 20
227.4345490152
 30
0.0
 40
0.3051642161257988
100
AcDbArc
 50
345.9023045267
 51
65.7584100062
  0
LINE
  5
21A
330
1F
100
AcDbEntity
  8
0
  6
Continuous
 62
     7
370
    25
100
AcDbLine
 10
194.7238459683
 20
228.235660533
 30
0.0
 11
195.8849982917
 21
227.7128045588
 31
0.0
  0
LINE
  5
21B
330
1F
100
AcDbEntity
  8
0
  6
Continuous
 62
     7
370
    25
100
AcDbLine
 10
194.357648909
 20
228.4005556258
 30
0.0
 11
194.7238459683
 21
228.235660533
 31
0.0
  0
ARC
  5
21C
330
1F
100
AcDbEntity
  8
0
  6
Continuous
 62
     7
370
    25
100
AcDbCircle
 10
194.482944764
 20
228.6788111693
 30
0.0
 40
0.305164216125785
100
AcDbArc
 50
125.0000000033
 51
245.7584100204
  0
LINE
  5
21D
330
1F
100
AcDbEntity
  8
0
  6
Continuous
 62
     7
370
    25
100
AcDbLine
 10
195.2281901602
 20
229.5731743341
 30
0.0
 11
194.3079097604
 21
228.9287870608
 31
0.0
  0
ARC
  5
21E
330
1F
100
AcDbEntity
  8
0
  6
Continuous
 62
     7
370
    25
100
AcDbCircle
 10
195.5082461659
 20
229.1732129078
 30
0.0
 40
0.4882627456950815
100
AcDbArc
 50
89.6257809664
 51
124.9999999995
  0
LINE
  5
21F
330
1F
100
AcDbEntity
  8
0
  6
Continuous
 62
     7
370
    25
100
AcDbLine
 10
195.5114351602
 20
229.6614652392
 30
0.0
 11
199.1004527525
 21
229.638023761
 31
0.0
  0
ARC
  5
220
330
1F
100
AcDbEntity
  8
0
  6
Continuous
 62
     7
370
    25
100
AcDbCircle
 10
199.0964665096
 20
229.0277083466
 30
0.0
 40
0.610328432203147
100
AcDbArc
 50
0.0
 51
89.6257809644
  0
LINE
  5
221
330
1F
100
AcDbEntity
  8
0
  6
Continuous
 62
     7
370
    25
100
AcDbLine
 10
199.7067949418
 20
229.0277083466
 30
0.0
 11
199.7067949418
 21
228.7473989867
 31
0.0
  0
ARC
  5
222
330
1F
100
AcDbEntity
  8
0
  6
Continuous
 62
     7
370
    25
100
AcDbCircle
 10
200.5612547468
 20
228.7473989866
 30
0.0
 40
0.8544598050195629
100
AcDbArc
 50
179.9999999974
 51
25.7456652653
  0
LINE
  5
223
330
1F
100
AcDbEntity
  8
0
  6
Continuous
 62
     7
370
    25
100
AcDbLine
 10
200.7716547064
 20
230.2782025127
 30
0.0
 11
201.3308932711
 21
229.1185567703
 31
0.0
  0
ARC
  5
224
330
1F
100
AcDbEntity
  8
0
  6
Continuous
 62
     7
370
    25
100
AcDbCircle
 10
200.9365772473
 20
230.3577363235
 30
0.0
 40
0.183098529657014
100
AcDbArc
 50
150.0000000199
 51
205.7456652652
  0
LINE
  5
225
330
1F
100
AcDbEntity
  8
0
  6
Continuous
 62
     7
370
    25
100
AcDbLine
 10
200.9226659239
 20
230.699838264
 30
0.0
 11
200.7780092692
 21
230.4492855882
 31
0.0
  0
ARC
  5
226
330
1F
100
AcDbEntity
  8
0
  6
Continuous
 62
     7
370
    25
100
AcDbCircle
 10
200.7640979458
 20
230.7913875288
 30
0.0
 40
0.1830985296532029
100
AcDbArc
 50
330.0000000199
 51
1.9365793799
  0
LINE
  5
227
330
1F
100
AcDbEntity
  8
0
  6
Continuous
 62
     7
370
    25
100
AcDbLine
 10
200.8549511594
 20
233.5226194749
 30
0.0
 11
200.9470918978
 21
230.7975750234
 31
0.0
  0
ARC
  5
228
330
1F
100
AcDbEntity
  8
0
  6
Continuous
 62
     7
370
    25
100
AcDbCircle
 10
68.4597993431
 20
218.0320136007
 30
0.0
 40
1.830985296515582
100
AcDbArc
 50
263.9999999917
 51
278.7114973737
  0
ARC
  5
229
330
1F
100
AcDbEntity
  8
0
  6
Continuous
 62
     7
370
    25
100
AcDbCircle
 10
67.9198667182
 20
230.3577363235
 30
0.0
 40
0.183098529657014
100
AcDbArc
 50
334.2543347348
 51
29.9999999801
  0
LINE
  5
22A
330
1F
100
AcDbEntity
  8
0
  6
Continuous
 62
     7
370
    25
100
AcDbLine
 10
67.5255506945
 20
229.1185567703
 30
0.0
 11
68.0847892591
 21
230.2782025127
 31
0.0
  0
ARC
  5
22B
330
1F
100
AcDbEntity
  8
0
  6
Continuous
 62
     7
370
    25
100
AcDbCircle
 10
68.2951892187
 20
228.7473989866
 30
0.0
 40
0.8544598050169583
100
AcDbArc
 50
154.2543347345
 51
0.0000000027
  0
LINE
  5
22C
330
1F
100
AcDbEntity
  8
0
  6
Continuous
 62
     7
370
    25
100
AcDbLine
 10
69.1496490237
 20
228.7473989867
 30
0.0
 11
69.1496490237
 21
229.0277083466
 31
0.0
  0
ARC
  5
22D
330
1F
100
AcDbEntity
  8
0
  6
Continuous
 62
     7
370
    25
100
AcDbCircle
 10
69.7599774559
 20
229.0277083466
 30
0.0
 40
0.610328432203147
100
AcDbArc
 50
90.3742190356
 51
180.0
  0
LINE
  5
22E
330
1F
100
AcDbEntity
  8
0
  6
Continuous
 62
     7
370
    25
100
AcDbLine
 10
69.755991213
 20
229.638023761
 30
0.0
 11
73.3450088054
 21
229.6614652392
 31
0.0
  0
ARC
  5
22F
330
1F
100
AcDbEntity
  8
0
  6
Continuous
 62
     7
370
    25
100
AcDbCircle
 10
73.3481977996
 20
229.1732129078
 30
0.0
 40
0.4882627456950815
100
AcDbArc
 50
55.0000000005
 51
90.3742190336
  0
LINE
  5
230
330
1F
100
AcDbEntity
  8
0
  6
Continuous
 62
     7
370
    25
100
AcDbLine
 10
74.5485342051
 20
228.9287870608
 30
0.0
 11
73.6282538053
 21
229.5731743341
 31
0.0
  0
ARC
  5
231
330
1F
100
AcDbEntity
  8
0
  6
Continuous
 62
     7
370
    25
100
AcDbCircle
 10
74.3734992015
 20
228.6788111693
 30
0.0
 40
0.3051642161257931
100
AcDbArc
 50
294.2415899796
 51
54.9999999967
  0
LINE
  5
232
330
1F
100
AcDbEntity
  8
0
  6
Continuous
 62
     7
370
    25
100
AcDbLine
 10
74.1325979972
 20
228.235660533
 30
0.0
 11
74.4987950565
 21
228.4005556258
 31
0.0
  0
LINE
  5
233
330
1F
100
AcDbEntity
  8
0
  6
Continuous
 62
     7
370
    25
100
AcDbLine
 10
72.9714456738
 20
227.7128045588
 30
0.0
 11
74.1325979972
 21
228.235660533
 31
0.0
  0
ARC
  5
234
330
1F
100
AcDbEntity
  8
0
  6
Continuous
 62
     7
370
    25
100
AcDbCircle
 10
73.0967415288
 20
227.4345490153
 30
0.0
 40
0.3051642160943682
100
AcDbArc
 50
114.2415899915
 51
194.0976954787
  0
LINE
  5
235
330
1F
100
AcDbEntity
  8
0
  6
Continuous
 62
     7
370
    25
100
AcDbLine
 10
73.0288880524
 20
226.4518809305
 30
0.0
 11
72.8007683056
 21
227.3602183356
 31
0.0
  0
ARC
  5
236
330
1F
100
AcDbEntity
  8
0
  6
Continuous
 62
     7
370
    25
100
AcDbCircle
 10
72.7921094738
 20
226.3924163868
 30
0.0
 40
0.2441313728751623
100
AcDbArc
 50
256.4168996165
 51
14.0976954821
  0
LINE
  5
237
330
1F
100
AcDbEntity
  8
0
  6
Continuous
 62
     7
370
    25
100
AcDbLine
 10
72.7347738979
 20
226.1551132916
 30
0.0
 11
72.2790199484
 21
226.265229492
 31
0.0
  0
ARC
  5
238
330
1F
100
AcDbEntity
  8
0
  6
Continuous
 62
     7
370
    25
100
AcDbCircle
 10
72.2360182664
 20
226.0872521706
 30
0.0
 40
0.1830985296528163
100
AcDbArc
 50
76.4168995961
 51
165.299433422
  0
LINE
  5
239
330
1F
100
AcDbEntity
  8
0
  6
Continuous
 62
     7
370
    25
100
AcDbLine
 10
71.8685711192
 20
225.4082041512
 30
0.0
 11
72.0589134226
 21
226.1337166285
 31
0.0
  0
LWPOLYLINE
  5
23A
330
1F
100
AcDbEntity
  8
0
  6
Continuous
 62
     7
370
    25
100
AcDbPolyline
 90
        3
 70
   128
 43
0.0
 10
71.8688163645
 20
225.3143503068
 10
71.8631000017
 20
225.3755632196
 10
71.8685711192
 20
225.4082041512
  0
LINE
  5
23B
330
1F
100
AcDbEntity
  8
0
  6
Continuous
 62
     7
370
    25
100
AcDbLine
 10
71.9347625967
 20
225.0682356179
 30
0.0
 11
71.8688163645
 21
225.3143503068
 31
0.0
  0
ARC
  5
23C
330
1F
100
AcDbEntity
  8
0
  6
Continuous
 62
     7
370
    25
100
AcDbCircle
 10
71.6399965991
 20
224.9892533068
 30
0.0
 40
0.3051642161257708
100
AcDbArc
 50
313.9389210531
 51
15.0000000169
  0
LINE
  5
23D
330
1F
100
AcDbEntity
  8
0
  6
Continuous
 62
     7
370
    25
100
AcDbLine
 10
71.640535819
 20
224.565980766
 30
0.0
 11
71.8517473446
 21
224.7695106833
 31
0.0
  0
ARC
  5
23E
330
1F
100
AcDbEntity
  8
0
  6
Continuous
 62
     7
370
    25
100
AcDbCircle
 10
71.8099364153
 20
224.3901866672
 30
0.0
 40
0.2441313729528929
100
AcDbArc
 50
133.9389210199
 51
179.9999999897
  0
LINE
  5
23F
330
1F
100
AcDbEntity
  8
0
  6
Continuous
 62
     7
370
    25
100
AcDbLine
 10
71.5658050423
 20
222.0746982899
 30
0.0
 11
71.5658050424
 21
224.3901866672
 31
0.0
  0
ARC
  5
240
330
1F
100
AcDbEntity
  8
0
  6
Continuous
 62
     7
370
    25
100
AcDbCircle
 10
72.1761334745
 20
222.0746982899
 30
0.0
 40
0.6103284322031612
100
AcDbArc
 50
180.0
 51
280.9999999998
  0
LINE
  5
241
330
1F
100
AcDbEntity
  8
0
  6
Continuous
 62
     7
370
    25
100
AcDbLine
 10
72.2925896295
 20
221.47558331
 30
0.0
 11
72.8795306973
 21
221.5896730961
 31
0.0
  0
ARC
  5
242
330
1F
100
AcDbEntity
  8
0
  6
Continuous
 62
     7
370
    25
100
AcDbCircle
 10
72.9494043902
 20
221.2302041082
 30
0.0
 40
0.36619705937529
100
AcDbArc
 50
283.7684577303
 51
100.9999999914
  0
ARC
  5
243
330
1F
100
AcDbEntity
  8
0
  6
Continuous
 62
     7
370
    25
100
AcDbCircle
 10
73.1818162816
 20
220.2817386378
 30
0.0
 40
0.6103284322031177
100
AcDbArc
 50
103.7684577321
 51
152.0000000031
  0
LINE
  5
244
330
1F
100
AcDbEntity
  8
0
  6
Continuous
 62
     7
370
    25
100
AcDbLine
 10
71.2238141808
 20
217.8993050718
 30
0.0
 11
72.6429282615
 21
220.5682704807
 31
0.0
  0
ARC
  5
245
330
1F
100
AcDbEntity
  8
0
  6
Continuous
 62
     7
370
    25
100
AcDbCircle
 10
71.4393693888
 20
217.7846923346
 30
0.0
 40
0.2441313728737953
100
AcDbArc
 50
151.9999999985
 51
179.9999999995
  0
LINE
  5
246
330
1F
100
AcDbEntity
  8
0
  6
Continuous
 62
     7
370
    25
100
AcDbLine
 10
71.1952380159
 20
216.9164257311
 30
0.0
 11
71.1952380159
 21
217.7846923346
 31
0.0
  0
ARC
  5
247
330
1F
100
AcDbEntity
  8
0
  6
Continuous
 62
     7
370
    25
100
AcDbCircle
 10
70.8252380159
 20
216.9164257311
 30
0.0
 40
0.370000000000303
100
AcDbArc
 50
278.71149738
 51
359.9999999995
  0
LINE
  5
248
330
1F
100
AcDbEntity
  8
0
  6
Continuous
 62
     7
370
    25
100
AcDbLine
 10
68.2684092635
 20
216.2110586332
 30
0.0
 11
67.6278847671
 21
216.2783804706
 31
0.0
  0
ARC
  5
249
330
1F
100
AcDbEntity
  8
0
  6
Continuous
 62
     7
370
    25
100
AcDbCircle
 10
67.7809968305
 20
217.7351444446
 30
0.0
 40
1.464788237284529
100
AcDbArc
 50
239.9999999995
 51
263.9999999995
  0
LINE
  5
24A
330
1F
100
AcDbEntity
  8
0
  6
Continuous
 62
     7
370
    25
100
AcDbLine
 10
67.0486027119
 20
216.46660062
 30
0.0
 11
64.1308040908
 21
218.1511924393
 31
0.0
  0
ARC
  5
24B
330
1F
100
AcDbEntity
  8
0
  6
Continuous
 62
     7
370
    25
100
AcDbCircle
 10
64.2833861989
 20
218.4154724028
 30
0.0
 40
0.3051642161257498
100
AcDbArc
 50
119.9999999999
 51
239.9999999997
  0
LINE
  5
24C
330
1F
100
AcDbEntity
  8
0
  6
Continuous
 62
     7
370
    25
100
AcDbLine
 10
64.1308040908
 20
218.6797523663
 30
0.0
 11
64.402115835
 21
218.8363942748
 31
0.0
  0
ARC
  5
24D
330
1F
100
AcDbEntity
  8
0
  6
Continuous
 62
     7
370
    25
100
AcDbCircle
 10
64.2495337269
 20
219.1006742383
 30
0.0
 40
0.3051642161433783
100
AcDbArc
 50
300.0000000054
 51
0.0000000058
  0
LINE
  5
24E
330
1F
100
AcDbEntity
  8
0
  6
Continuous
 62
     7
370
    25
100
AcDbLine
 10
64.554697943
 20
219.1006742383
 30
0.0
 11
64.554697943
 21
221.179186615
 31
0.0
  0
ARC
  5
24F
330
1F
100
AcDbEntity
  8
0
  6
Continuous
 62
     7
370
    25
100
AcDbCircle
 10
64.249533727
 20
221.179186615
 30
0.0
 40
0.3051642161257793
100
AcDbArc
 50
359.9999999996
 51
59.9999999969
  0
LINE
  5
250
330
1F
100
AcDbEntity
  8
0
  6
Continuous
 62
     7
370
    25
100
AcDbLine
 10
64.402115835
 20
221.4434665784
 30
0.0
 11
64.1308040908
 21
221.600108487
 31
0.0
  0
ARC
  5
251
330
1F
100
AcDbEntity
  8
0
  6
Continuous
 62
     7
370
    25
100
AcDbCircle
 10
64.2833861988
 20
221.8643884505
 30
0.0
 40
0.3051642160580837
100
AcDbArc
 50
119.9999999922
 51
240.0000000141
  0
LINE
  5
252
330
1F
100
AcDbEntity
  8
0
  6
Continuous
 62
     7
370
    25
100
AcDbLine
 10
64.1308040908
 20
222.1286684139
 30
0.0
 11
64.402115835
 21
222.2853103224
 31
0.0
  0
ARC
  5
253
330
1F
100
AcDbEntity
  8
0
  6
Continuous
 62
     7
370
    25
100
AcDbCircle
 10
64.2495337269
 20
222.5495902858
 30
0.0
 40
0.3051642161431337
100
AcDbArc
 50
300.0000000055
 51
0.0000000059
  0
LINE
  5
254
330
1F
100
AcDbEntity
  8
0
  6
Continuous
 62
     7
370
    25
100
AcDbLine
 10
64.554697943
 20
222.5495902859
 30
0.0
 11
64.5546979431
 21
224.232968087
 31
0.0
  0
ARC
  5
255
330
1F
100
AcDbEntity
  8
0
  6
Continuous
 62
     7
370
    25
100
AcDbCircle
 10
64.4326322566
 20
224.232968087
 30
0.0
 40
0.1220656865435556
100
AcDbArc
 50
359.9999999995
 51
125.0000000112
  0
LINE
  5
256
330
1F
100
AcDbEntity
  8
0
  6
Continuous
 62
     7
370
    25
100
AcDbLine
 10
63.9010817476
 20
224.0097871024
 30
0.0
 11
64.3626182551
 21
224.3329584436
 31
0.0
  0
ARC
  5
257
330
1F
100
AcDbEntity
  8
0
  6
Continuous
 62
     7
370
    25
100
AcDbCircle
 10
63.831067746
 20
224.1097774589
 30
0.0
 40
0.122065686477514
100
AcDbArc
 50
154.9999999698
 51
305.0000000426
  0
LINE
  5
258
330
1F
100
AcDbEntity
  8
0
  6
Continuous
 62
     7
370
    25
100
AcDbLine
 10
63.7204386639
 20
224.1613646472
 30
0.0
 11
64.5261064323
 21
225.889124751
 31
0.0
  0
ARC
  5
259
330
1F
100
AcDbEntity
  8
0
  6
Continuous
 62
     7
370
    25
100
AcDbCircle
 10
64.249533727
 20
226.0180927217
 30
0.0
 40
0.3051642161257746
100
AcDbArc
 50
334.9999999619
 51
359.9999999644
  0
LINE
  5
25A
330
1F
100
AcDbEntity
  8
0
  6
Continuous
 62
     7
370
    25
100
AcDbLine
 10
64.5546979432
 20
226.0180927215
 30
0.0
 11
64.5546979431
 21
226.6464901227
 31
0.0
  0
ARC
  5
25B
330
1F
100
AcDbEntity
  8
0
  6
Continuous
 62
     7
370
    25
100
AcDbCircle
 10
64.249533727
 20
226.6464901227
 30
0.0
 40
0.305164216125784
100
AcDbArc
 50
359.9999999995
 51
59.999999998
  0
LINE
  5
25C
330
1F
100
AcDbEntity
  8
0
  6
Continuous
 62
     7
370
    25
100
AcDbLine
 10
64.4021158351
 20
226.9107700862
 30
0.0
 11
64.1308040909
 21
227.0674119947
 31
0.0
  0
ARC
  5
25D
330
1F
100
AcDbEntity
  8
0
  6
Continuous
 62
     7
370
    25
100
AcDbCircle
 10
64.283386199
 20
227.3316919581
 30
0.0
 40
0.3051642161252346
100
AcDbArc
 50
119.9999999999
 51
239.9999999998
  0
LINE
  5
25E
330
1F
100
AcDbEntity
  8
0
  6
Continuous
 62
     7
370
    25
100
AcDbLine
 10
64.1308040909
 20
227.5959719216
 30
0.0
 11
64.4021158351
 21
227.7526138301
 31
0.0
  0
ARC
  5
25F
330
1F
100
AcDbEntity
  8
0
  6
Continuous
 62
     7
370
    25
100
AcDbCircle
 10
64.249533727
 20
228.0168937936
 30
0.0
 40
0.3051642161491447
100
AcDbArc
 50
300.0000000059
 51
0.0000000052
  0
LINE
  5
260
330
1F
100
AcDbEntity
  8
0
  6
Continuous
 62
     7
370
    25
100
AcDbLine
 10
64.5546979431
 20
228.0168937936
 30
0.0
 11
64.5546979431
 21
229.311122454
 31
0.0
  0
ARC
  5
261
330
1F
100
AcDbEntity
  8
0
  6
Continuous
 62
     7
370
    25
100
AcDbCircle
 10
64.249533727
 20
229.311122454
 30
0.0
 40
0.3051642161257703
100
AcDbArc
 50
359.9999999995
 51
59.999999998
  0
LINE
  5
262
330
1F
100
AcDbEntity
  8
0
  6
Continuous
 62
     7
370
    25
100
AcDbLine
 10
64.4021158351
 20
229.5754024175
 30
0.0
 11
64.1308040909
 21
229.7320443261
 31
0.0
  0
ARC
  5
263
330
1F
100
AcDbEntity
  8
0
  6
Continuous
 62
     7
370
    25
100
AcDbCircle
 10
64.2833861989
 20
229.9963242895
 30
0.0
 40
0.3051642160573704
100
AcDbArc
 50
119.9999999922
 51
240.0000000143
  0
LINE
  5
264
330
1F
100
AcDbEntity
  8
0
  6
Continuous
 62
     7
370
    25
100
AcDbLine
 10
64.1308040909
 20
230.260604253
 30
0.0
 11
64.4021158351
 21
230.4172461614
 31
0.0
  0
ARC
  5
265
330
1F
100
AcDbEntity
  8
0
  6
Continuous
 62
     7
370
    25
100
AcDbCircle
 10
64.249533727
 20
230.6815261249
 30
0.0
 40
0.3051642161477305
100
AcDbArc
 50
300.0000000059
 51
0.0000000052
  0
LINE
  5
266
330
1F
100
AcDbEntity
  8
0
  6
Continuous
 62
     7
370
    25
100
AcDbLine
 10
64.5546979431
 20
230.6815261249
 30
0.0
 11
64.5546979431
 21
231.1331198585
 31
0.0
  0
ARC
  5
267
330
1F
100
AcDbEntity
  8
0
  6
Continuous
 62
     7
370
    25
100
AcDbCircle
 10
64.249533727
 20
231.1331198585
 30
0.0
 40
0.3051642161257523
100
AcDbArc
 50
359.9999999995
 51
59.999999998
  0
LINE
  5
268
330
1F
100
AcDbEntity
  8
0
  6
Continuous
 62
     7
370
    25
100
AcDbLine
 10
64.4021158351
 20
231.397399822
 30
0.0
 11
64.1308040909
 21
231.5540417306
 31
0.0
  0
ARC
  5
269
330
1F
100
AcDbEntity
  8
0
  6
Continuous
 62
     7
370
    25
100
AcDbCircle
 10
64.2833861989
 20
231.818321694
 30
0.0
 40
0.3051642160589765
100
AcDbArc
 50
119.9999999928
 51
240.0000000134
  0
LINE
  5
26A
330
1F
100
AcDbEntity
  8
0
  6
Continuous
 62
     7
370
    25
100
AcDbLine
 10
64.1308040909
 20
232.0826016575
 30
0.0
 11
65.2500985905
 21
232.728826638
 31
0.0
  0
LINE
  5
26B
330
1F
100
AcDbEntity
  8
0
  6
Continuous
 62
     7
370
    25
100
AcDbLine
 10
65.2500985905
 20
232.728826638
 30
0.0
 11
66.6125910118
 21
233.515462003
 31
0.0
  0
ARC
  5
26C
330
1F
100
AcDbEntity
  8
0
  6
Continuous
 62
     7
370
    25
100
AcDbCircle
 10
67.3449851299
 20
232.2469181785
 30
0.0
 40
1.464788237226071
100
AcDbArc
 50
110.9858190284
 51
119.9999999838
  0
LINE
  5
26D
330
1F
100
AcDbEntity
  8
0
  6
Continuous
 62
     7
370
    25
100
AcDbLine
 10
66.8203904509
 20
233.6145456872
 30
0.0
 11
67.5043562323
 21
233.8769013413
 31
0.0
  0
ARC
  5
26E
330
1F
100
AcDbEntity
  8
0
  6
Continuous
 62
     7
370
    25
100
AcDbCircle
 10
67.6355049021
 20
233.5349944641
 30
0.0
 40
0.3661970592836895
100
AcDbArc
 50
358.06342062
 51
110.9858190269
  0
LINE
  5
26F
330
1F
100
AcDbEntity
  8
0
  6
Continuous
 62
     7
370
    25
100
AcDbLine
 10
67.9093520677
 20
230.7975750234
 30
0.0
 11
68.0014928061
 21
233.5226194749
 31
0.0
  0
LWPOLYLINE
  5
270
330
1F
100
AcDbEntity
  8
0
  6
Continuous
 62
     7
370
    25
100
AcDbPolyline
 90
        3
 70
   128
 43
0.0
 10
67.9337780416
 20
230.699838264
 10
67.9124133915
 20
230.7574858939
 10
67.9093520677
 20
230.7975750234
  0
LINE
  5
271
330
1F
100
AcDbEntity
  8
0
  6
Continuous
 62
     7
370
    25
100
AcDbLine
 10
68.0784346963
 20
230.4492855882
 30
0.0
 11
67.9337780416
 21
230.699838264
 31
0.0
  0
LINE
  5
272
330
1F
100
AcDbEntity
  8
0
  6
Continuous
 62
     7
370
    25
100
AcDbLine
 10
195.5050571716
 20
229.6614652392
 30
0.0
 11
73.3513867939
 21
229.6614652392
 31
0.0
  0
LINE
  5
273
330
1F
100
AcDbEntity
  8
0
  6
Continuous
 62
     8
370
    18
100
AcDbLine
 10
70.8812779108
 20
216.550694231
 30
0.0
 11
197.9751660547
 21
216.550694231
 31
0.0
  0
LINE
  5
274
330
1F
100
AcDbEntity
  8
0
  6
Continuous
 62
     8
370
    18
100
AcDbLine
 10
200.1193250994
 20
216.2221514407
 30
0.0
 11
68.7371188662
 21
216.2221514407
 31
0.0
  0
LINE
  5
275
330
1F
100
AcDbEntity
  8
0
  6
Continuous
 62
     8
370
    18
100
AcDbLine
 10
197.6612059496
 20
216.9164257311
 30
0.0
 11
71.1952380159
 21
216.9164257311
 31
0.0
  0
LINE
  5
276
330
1F
100
AcDbEntity
  8
0
  6
Continuous
 62
     8
370
    18
100
AcDbLine
 10
71.1952380159
 20
217.7846923346
 30
0.0
 11
197.6612059496
 21
217.7846923346
 31
0.0
  0
LINE
  5
277
330
1F
100
AcDbEntity
  8
0
  6
Continuous
 62
     8
370
    18
100
AcDbLine
 10
72.6429282615
 20
220.5682704807
 30
0.0
 11
196.213515704
 21
220.5682704807
 31
0.0
  0
LINE
  5
278
330
1F
100
AcDbEntity
  8
0
  6
Continuous
 62
     8
370
    18
100
AcDbLine
 10
71.2238141808
 20
217.8993050718
 30
0.0
 11
197.6326297847
 21
217.8993050718
 31
0.0
  0
LINE
  5
279
330
1F
100
AcDbEntity
  8
0
  6
Continuous
 62
     8
370
    18
100
AcDbLine
 10
73.0365588495
 20
220.8745295568
 30
0.0
 11
195.819885116
 21
220.8745295568
 31
0.0
  0
LINE
  5
27A
330
1F
100
AcDbEntity
  8
0
  6
Continuous
 62
     8
370
    18
100
AcDbLine
 10
71.5658050423
 20
222.0746982899
 30
0.0
 11
197.2906389232
 21
222.0746982899
 31
0.0
  0
LINE
  5
27B
330
1F
100
AcDbEntity
  8
0
  6
Continuous
 62
     8
370
    18
100
AcDbLine
 10
71.5658050424
 20
224.3901866672
 30
0.0
 11
197.2906389232
 21
224.3901866672
 31
0.0
  0
LINE
  5
27C
330
1F
100
AcDbEntity
  8
0
  6
Continuous
 62
     8
370
    18
100
AcDbLine
 10
71.8517473446
 20
224.7695106833
 30
0.0
 11
197.0046966209
 21
224.7695106833
 31
0.0
  0
LINE
  5
27D
330
1F
100
AcDbEntity
  8
0
  6
Continuous
 62
     8
370
    18
100
AcDbLine
 10
71.640535819
 20
224.565980766
 30
0.0
 11
197.2159081465
 21
224.565980766
 31
0.0
  0
LINE
  5
27E
330
1F
100
AcDbEntity
  8
0
  6
Continuous
 62
     8
370
    18
100
AcDbLine
 10
204.9553622179
 20
224.0097871024
 30
0.0
 11
204.3017460225
 21
224.0097871024
 31
0.0
  0
LINE
  5
27F
330
1F
100
AcDbEntity
  8
0
  6
Continuous
 62
     8
370
    18
100
AcDbLine
 10
64.5546979431
 20
224.0097871024
 30
0.0
 11
63.9010817476
 21
224.0097871024
 31
0.0
  0
LINE
  5
280
330
1F
100
AcDbEntity
  8
0
  6
Continuous
 62
     8
370
    18
100
AcDbLine
 10
204.4938257104
 20
224.3329584436
 30
0.0
 11
204.3537977074
 21
224.3329584436
 31
0.0
  0
LINE
  5
281
330
1F
100
AcDbEntity
  8
0
  6
Continuous
 62
     8
370
    18
100
AcDbLine
 10
64.5026462581
 20
224.3329584436
 30
0.0
 11
64.3626182551
 21
224.3329584436
 31
0.0
  0
LINE
  5
282
330
1F
100
AcDbEntity
  8
0
  6
Continuous
 62
     8
370
    18
100
AcDbLine
 10
72.0589134226
 20
226.1337166285
 30
0.0
 11
196.7975305429
 21
226.1337166285
 31
0.0
  0
LINE
  5
283
330
1F
100
AcDbEntity
  8
0
  6
Continuous
 62
     8
370
    18
100
AcDbLine
 10
71.8685711192
 20
225.4082041512
 30
0.0
 11
196.9878728463
 21
225.4082041512
 31
0.0
  0
LINE
  5
284
330
1F
100
AcDbEntity
  8
0
  6
Continuous
 62
     8
370
    18
100
AcDbLine
 10
196.9216813688
 20
225.0682356179
 30
0.0
 11
71.9347625967
 21
225.0682356179
 31
0.0
  0
LINE
  5
285
330
1F
100
AcDbEntity
  8
0
  6
Continuous
 62
     8
370
    18
100
AcDbLine
 10
71.8688163645
 20
225.3143503068
 30
0.0
 11
196.987627601
 21
225.3143503068
 31
0.0
  0
LINE
  5
286
330
1F
100
AcDbEntity
  8
0
  6
Continuous
 62
     8
370
    18
100
AcDbLine
 10
195.8275559132
 20
226.4518809305
 30
0.0
 11
73.0288880524
 21
226.4518809305
 31
0.0
  0
LINE
  5
287
330
1F
100
AcDbEntity
  8
0
  6
Continuous
 62
     8
370
    18
100
AcDbLine
 10
72.8007683056
 20
227.3602183356
 30
0.0
 11
196.0556756599
 21
227.3602183356
 31
0.0
  0
LINE
  5
288
330
1F
100
AcDbEntity
  8
0
  6
Continuous
 62
     8
370
    18
100
AcDbLine
 10
74.4987950566
 20
228.4005556258
 30
0.0
 11
194.3576489089
 21
228.4005556258
 31
0.0
  0
LINE
  5
289
330
1F
100
AcDbEntity
  8
0
  6
Continuous
 62
     8
370
    18
100
AcDbLine
 10
74.1325979972
 20
228.235660533
 30
0.0
 11
194.7238459683
 21
228.235660533
 31
0.0
  0
LINE
  5
28A
330
1F
100
AcDbEntity
  8
0
  6
Continuous
 62
     8
370
    18
100
AcDbLine
 10
72.9714456738
 20
227.7128045588
 30
0.0
 11
195.8849982917
 21
227.7128045588
 31
0.0
  0
LINE
  5
28B
330
1F
100
AcDbEntity
  8
0
  6
Continuous
 62
     8
370
    18
100
AcDbLine
 10
67.5255506945
 20
229.1185567703
 30
0.0
 11
69.1564483687
 21
229.1185567703
 31
0.0
  0
LINE
  5
28C
330
1F
100
AcDbEntity
  8
0
  6
Continuous
 62
     8
370
    18
100
AcDbLine
 10
199.6999955968
 20
229.1185567703
 30
0.0
 11
201.3308932711
 21
229.1185567703
 31
0.0
  0
LINE
  5
28D
330
1F
100
AcDbEntity
  8
0
  6
Continuous
 62
     8
370
    18
100
AcDbLine
 10
68.0847892591
 20
230.2782025127
 30
0.0
 11
200.7716547064
 21
230.2782025127
 31
0.0
  0
LINE
  5
28E
330
1F
100
AcDbEntity
  8
0
  6
Continuous
 62
     8
370
    18
100
AcDbLine
 10
194.3079097604
 20
228.9287870608
 30
0.0
 11
74.5485342051
 21
228.9287870608
 31
0.0
  0
LINE
  5
28F
330
1F
100
AcDbEntity
  8
0
  6
Continuous
 62
     8
370
    18
100
AcDbLine
 10
73.6282538053
 20
229.5731743341
 30
0.0
 11
195.2281901602
 21
229.5731743341
 31
0.0
  0
LINE
  5
290
330
1F
100
AcDbEntity
  8
0
  6
Continuous
 62
     8
370
    18
100
AcDbLine
 10
200.7780092692
 20
230.4492855882
 30
0.0
 11
68.0784346963
 21
230.4492855882
 31
0.0
  0
LINE
  5
291
330
1F
100
AcDbEntity
  8
0
  6
Continuous
 62
     8
370
    18
100
AcDbLine
 10
67.9337780416
 20
230.699838264
 30
0.0
 11
200.9226659239
 21
230.699838264
 31
0.0
  0
LINE
  5
292
330
1F
100
AcDbEntity
  8
0
  6
Continuous
 62
     8
370
    18
100
AcDbLine
 10
200.9470918978
 20
230.7975750234
 30
0.0
 11
67.9093520677
 21
230.7975750234
 31
0.0
  0
LINE
  5
293
330
1F
100
AcDbEntity
  8
0
  6
Continuous
 62
     8
370
    18
100
AcDbLine
 10
68.0014928061
 20
233.5226194749
 30
0.0
 11
200.8549511594
 21
233.5226194749
 31
0.0
  0
HATCH
  5
294
330
1F
100
AcDbEntity
  8
0
  6
Continuous
 62
     7
370
    18
100
AcDbHatch
 10
0.0
 20
0.0
 30
0.0
210
0.0
220
0.0
230
1.0
  2
DIN 128 Elastomer-Gummi
 70
     0
 71
     0
 91
        1
 92
        0
 93
       75
 72
     1
 10
68.0784346963077
 20
230.4492855882322
 11
67.9337780416191
 21
230.6998382639984
 72
     4
 94
        3
 73
     1
 74
     0
 95
       11
 96
        7
 40
0.0
 40
0.0
 40
0.0
 40
0.0
 40
0.0000614792445073
 40
0.0000614792445073
 40
0.0000614792445073
 40
0.0001013554996676
 40
0.0001013554996676
 40
0.0001013554996676
 40
0.0001013554996676
 10
67.93377804161946
 20
230.6998382639986
 42
1.0
 10
67.9235315008744
 20
230.717585793185
 42
1.0
 10
67.91620779095656
 20
230.7373471520466
 42
1.0
 10
67.91241339146843
 20
230.7574858938641
 42
1.0
 10
67.90993195174654
 20
230.7706561133022
 42
1.0
 10
67.90889917230645
 20
230.784180729485
 42
1.0
 10
67.90935206771817
 20
230.7975750233779
 42
1.0
 72
     1
 10
67.90935206771832
 20
230.7975750233781
 11
68.00149280606715
 21
233.5226194749124
 72
     2
 10
67.63550490207315
 20
233.5349944641287
 40
0.3661970592836911
 50
358.0634206199928
 51
470.9858190269188
 73
     1
 72
     1
 10
67.50435623233966
 20
233.876901341297
 11
66.82039045086944
 21
233.6145456872492
 72
     2
 10
67.34498512987165
 20
232.2469181785034
 40
1.46478823722606
 50
110.9858190283922
 51
119.9999999837565
 73
     1
 72
     1
 10
66.61259101178506
 20
233.5154620030245
 11
65.25009859050677
 21
232.7288266380129
 72
     1
 10
65.25009859050677
 20
232.7288266380129
 11
64.13080409090719
 21
232.082601657477
 72
     4
 94
        3
 73
     1
 74
     0
 95
       26
 96
       22
 40
0.0
 40
0.0
 40
0.0
 40
0.0
 40
0.0000214122930042
 40
0.0000214122930042
 40
0.0000214122930042
 40
0.0001252889993508
 40
0.0001252889993508
 40
0.0001252889993508
 40
0.0002291657056973
 40
0.0002291657056973
 40
0.0002291657056973
 40
0.0003330424120439
 40
0.0003330424120439
 40
0.0003330424120439
 40
0.0004369191183904
 40
0.0004369191183904
 40
0.0004369191183904
 40
0.0005407958247343
 40
0.0005407958247343
 40
0.0005407958247343
 40
0.0006446725310782
 40
0.0006446725310782
 40
0.0006446725310782
 40
0.0006446725310782
 10
64.13080409090719
 20
232.082601657477
 42
1.0
 10
64.12462289434218
 20
232.0790329419763
 42
1.0
 10
64.11856325349878
 20
232.0752449089185
 42
1.0
 10
64.11264752296181
 20
232.0712515327136
 42
1.0
 10
64.08433865664031
 20
232.0521418128829
 42
1.0
 10
64.05893871473883
 20
232.0278809909188
 42
1.0
 10
64.03855107748979
 20
232.0004781160364
 42
1.0
 10
64.01816344024076
 20
231.973075241154
 42
1.0
 10
64.00222579143649
 20
231.9417745082303
 42
1.0
 10
63.992057934704
 20
231.9091679445677
 42
1.0
 10
63.98189007797152
 20
231.876561380905
 42
1.0
 10
63.97721157126801
 20
231.8417496572189
 42
1.0
 10
63.97840984376776
 20
231.8076155474834
 42
1.0
 10
63.97960811626751
 20
231.773481437748
 42
1.0
 10
63.98671621780555
 20
231.7390834810717
 42
1.0
 10
63.99914552340299
 20
231.7072701872029
 42
1.0
 10
64.01157482900012
 20
231.6754568933349
 42
1.0
 10
64.02966815425103
 20
231.64535081235
 42
1.0
 10
64.05192718302499
 20
231.619445041904
 42
1.0
 10
64.07418621179896
 20
231.5935392714581
 42
1.0
 10
64.10122487559245
 20
231.5711192984168
 42
1.0
 10
64.13080409090074
 20
231.5540417304956
 42
1.0
 72
     1
 10
64.13080409093574
 20
231.5540417305562
 11
64.40211583511147
 21
231.397399821986
 72
     2
 10
64.24953372703936
 20
231.1331198585004
 40
0.305164216125787
 50
300.0000000020001
 51
360.0000000005344
 73
     0
 72
     1
 10
64.55469794312536
 20
231.1331198584976
 11
64.55469794310144
 21
230.6815261249239
 72
     2
 10
64.24953372697566
 20
230.6815261248961
 40
0.305164216125787
 50
359.9999999947713
 51
419.999999994072
 73
     0
 72
     1
 10
64.40211583507686
 20
230.417246161402
 11
64.13080409089045
 21
230.2606042529923
 72
     4
 94
        3
 73
     1
 74
     0
 95
       26
 96
       22
 40
0.0
 40
0.0
 40
0.0
 40
0.0
 40
0.0000214122930098
 40
0.0000214122930098
 40
0.0000214122930098
 40
0.0001252889993563
 40
0.0001252889993563
 40
0.0001252889993563
 40
0.0002291657057028
 40
0.0002291657057028
 40
0.0002291657057028
 40
0.0003330424120493
 40
0.0003330424120493
 40
0.0003330424120493
 40
0.0004369191183959
 40
0.0004369191183959
 40
0.0004369191183959
 40
0.0005407958247397
 40
0.0005407958247397
 40
0.0005407958247397
 40
0.0006446725310835
 40
0.0006446725310835
 40
0.0006446725310835
 40
0.0006446725310835
 10
64.13080409089045
 20
230.2606042529923
 42
1.0
 10
64.1246228943238
 20
230.2570355374908
 42
1.0
 10
64.11856325347884
 20
230.253247504432
 42
1.0
 10
64.11264752294036
 20
230.249254128226
 42
1.0
 10
64.08433865661905
 20
230.230144408395
 42
1.0
 10
64.05893871471781
 20
230.2058835864306
 42
1.0
 10
64.03855107746904
 20
230.1784807115481
 42
1.0
 10
64.01816344022025
 20
230.1510778366655
 42
1.0
 10
64.00222579141631
 20
230.1197771037416
 42
1.0
 10
63.99205793468413
 20
230.0871705400789
 42
1.0
 10
63.98189007795195
 20
230.0545639764161
 42
1.0
 10
63.97721157124879
 20
230.01975225273
 42
1.0
 10
63.97840984374888
 20
229.9856181429945
 42
1.0
 10
63.97960811624896
 20
229.951484033259
 42
1.0
 10
63.98671621778733
 20
229.9170860765829
 42
1.0
 10
63.99914552338508
 20
229.8852727827142
 42
1.0
 10
64.01157482898252
 20
229.8534594888463
 42
1.0
 10
64.0296681542337
 20
229.8233534078616
 42
1.0
 10
64.05192718300792
 20
229.7974476374158
 42
1.0
 10
64.07418621178213
 20
229.7715418669701
 42
1.0
 10
64.10122487557584
 20
229.7491218939291
 42
1.0
 10
64.1308040908843
 20
229.7320443260082
 42
1.0
 72
     1
 10
64.13080409092014
 20
229.7320443260703
 11
64.40211583509586
 21
229.5754024174989
 72
     2
 10
64.24953372702366
 20
229.3111224540133
 40
0.305164216125787
 50
300.0000000020193
 51
360.0000000005398
 73
     0
 72
     1
 10
64.55469794310606
 20
229.3111224540105
 11
64.55469794307814
 21
228.016893793635
 72
     2
 10
64.24953372695235
 20
228.0168937936072
 40
0.305164216125787
 50
359.9999999947713
 51
419.9999999940497
 73
     0
 72
     1
 10
64.40211583505436
 20
227.7526138301119
 11
64.13080409089812
 21
227.5959719216391
 72
     4
 94
        3
 73
     1
 74
     0
 95
       26
 96
       22
 40
0.0
 40
0.0
 40
0.0
 40
0.0
 40
0.0000214122930032
 40
0.0000214122930032
 40
0.0000214122930032
 40
0.0001252889993498
 40
0.0001252889993498
 40
0.0001252889993498
 40
0.0002291657056963
 40
0.0002291657056963
 40
0.0002291657056963
 40
0.0003330424120429
 40
0.0003330424120429
 40
0.0003330424120429
 40
0.0004369191183895
 40
0.0004369191183895
 40
0.0004369191183895
 40
0.0005407958247333
 40
0.0005407958247333
 40
0.0005407958247333
 40
0.0006446725310772
 40
0.0006446725310772
 40
0.0006446725310772
 40
0.0006446725310772
 10
64.13080409089812
 20
227.5959719216391
 42
1.0
 10
64.12462289433343
 20
227.5924032061386
 42
1.0
 10
64.11856325349036
 20
227.5886151730809
 42
1.0
 10
64.11264752295371
 20
227.5846217968761
 42
1.0
 10
64.08433865663235
 20
227.5655120770452
 42
1.0
 10
64.05893871473106
 20
227.5412512550809
 42
1.0
 10
64.03855107748221
 20
227.5138483801983
 42
1.0
 10
64.01816344023337
 20
227.4864455053158
 42
1.0
 10
64.00222579142937
 20
227.4551447723919
 42
1.0
 10
63.99205793469712
 20
227.4225382087292
 42
1.0
 10
63.98189007796487
 20
227.3899316450665
 42
1.0
 10
63.97721157126164
 20
227.3551199213803
 42
1.0
 10
63.97840984376165
 20
227.3209858116449
 42
1.0
 10
63.97960811626164
 20
227.2868517019094
 42
1.0
 10
63.98671621779994
 20
227.2524537452333
 42
1.0
 10
63.99914552339762
 20
227.2206404513645
 42
1.0
 10
64.011574828995
 20
227.1888271574967
 42
1.0
 10
64.02966815424612
 20
227.1587210765118
 42
1.0
 10
64.05192718302028
 20
227.1328153060661
 42
1.0
 10
64.07418621179445
 20
227.1069095356203
 42
1.0
 10
64.1012248755881
 20
227.0844895625792
 42
1.0
 10
64.13080409089653
 20
227.0674119946582
 42
1.0
 72
     1
 10
64.13080409089706
 20
227.0674119946586
 11
64.40211583507278
 21
226.91077008621
 72
     2
 10
64.24953372700065
 20
226.6464901227245
 40
0.305164216125787
 50
300.000000002005
 51
360.0000000005398
 73
     0
 72
     1
 10
64.55469794308596
 20
226.6464901227216
 11
64.55469794316683
 21
226.0180927215181
 72
     2
 10
64.24953372704105
 20
226.0180927217079
 40
0.305164216125787
 50
0.0000000356464006
 51
25.00000003813137
 73
     0
 72
     1
 10
64.5261064322794
 20
225.8891247509945
 11
63.7204386638883
 21
224.1613646472433
 72
     4
 94
        3
 73
     1
 74
     0
 95
       29
 96
       25
 40
0.0
 40
0.0
 40
0.0
 40
0.0
 40
0.0000312132648197
 40
0.0000312132648197
 40
0.0000312132648197
 40
0.0000724483234609
 40
0.0000724483234609
 40
0.0000724483234609
 40
0.000113683382102
 40
0.000113683382102
 40
0.000113683382102
 40
0.0001549184407432
 40
0.0001549184407432
 40
0.0001549184407432
 40
0.0001961534993844
 40
0.0001961534993844
 40
0.0001961534993844
 40
0.0002373885580256
 40
0.0002373885580256
 40
0.0002373885580256
 40
0.0002786236166657
 40
0.0002786236166657
 40
0.0002786236166657
 40
0.0003198586753058
 40
0.0003198586753058
 40
0.0003198586753058
 40
0.0003198586753058
 10
63.72043866388828
 20
224.1613646472433
 42
1.0
 10
63.71604156531423
 20
224.1519350389218
 42
1.0
 10
63.71283437769205
 20
224.1418578955033
 42
1.0
 10
63.71097247988968
 20
224.1316214251379
 42
1.0
 10
63.70852762039365
 20
224.1181799076999
 42
1.0
 10
63.70836974248033
 20
224.1041309148598
 42
1.0
 10
63.71051192008834
 20
224.090637849823
 42
1.0
 10
63.71265409769634
 20
224.0771447847862
 42
1.0
 10
63.71715541472906
 20
224.0638354921593
 42
1.0
 10
63.72364311516584
 20
224.0518121202514
 42
1.0
 10
63.73013081560264
 20
224.0397887483436
 42
1.0
 10
63.73878383823181
 20
224.0287196777125
 42
1.0
 10
63.74888562248726
 20
224.0195215429098
 42
1.0
 10
63.75898740674271
 20
224.0103234081071
 42
1.0
 10
63.77081657230671
 20
224.0027425132182
 42
1.0
 10
63.78339354083573
 20
223.9974066354448
 42
1.0
 10
63.79597050936474
 20
223.9920707576715
 42
1.0
 10
63.80964216917939
 20
223.9888327269166
 42
1.0
 10
63.82327636418618
 20
223.9879606859149
 42
1.0
 10
63.83691055919262
 20
223.9870886449131
 42
1.0
 10
63.85088333732339
 20
223.9885585416968
 42
1.0
 10
63.86403760674636
 20
223.9922486534743
 42
1.0
 10
63.87719187616933
 20
223.9959387652518
 42
1.0
 10
63.88989044787655
 20
224.001950869862
 42
1.0
 10
63.90108174762381
 20
224.0097871023081
 42
1.0
 72
     1
 10
63.90108174757054
 20
224.0097871023842
 11
64.36261825512506
 21
224.3329584436362
 72
     2
 10
64.43263225663296
 20
224.2329680869802
 40
0.122065686543547
 50
234.999999988825
 51
360.0000000005344
 73
     0
 72
     1
 10
64.55469794306096
 20
224.2329680869791
 11
64.55469794303603
 21
222.5495902858763
 72
     2
 10
64.24953372691026
 20
222.549590285845
 40
0.305164216125787
 50
359.9999999941203
 51
419.9999999945103
 73
     0
 72
     1
 10
64.40211583500714
 20
222.2853103223537
 11
64.13080409082106
 21
222.1286684139437
 72
     4
 94
        3
 73
     1
 74
     0
 95
       26
 96
       22
 40
0.0
 40
0.0
 40
0.0
 40
0.0
 40
0.0000214122930099
 40
0.0000214122930099
 40
0.0000214122930099
 40
0.0001252889993565
 40
0.0001252889993565
 40
0.0001252889993565
 40
0.000229165705703
 40
0.000229165705703
 40
0.000229165705703
 40
0.0003330424120495
 40
0.0003330424120495
 40
0.0003330424120495
 40
0.000436919118396
 40
0.000436919118396
 40
0.000436919118396
 40
0.0005407958247399
 40
0.0005407958247399
 40
0.0005407958247399
 40
0.0006446725310837
 40
0.0006446725310837
 40
0.0006446725310837
 40
0.0006446725310837
 10
64.13080409082106
 20
222.1286684139437
 42
1.0
 10
64.12462289425436
 20
222.1250996984422
 42
1.0
 10
64.11856325340933
 20
222.1213116653834
 42
1.0
 10
64.11264752287083
 20
222.1173182891773
 42
1.0
 10
64.0843386565495
 20
222.0982085693464
 42
1.0
 10
64.05893871464824
 20
222.0739477473821
 42
1.0
 10
64.03855107739943
 20
222.0465448724995
 42
1.0
 10
64.01816344015063
 20
222.0191419976169
 42
1.0
 10
64.00222579134666
 20
221.987841264693
 42
1.0
 10
63.99205793461447
 20
221.9552347010303
 42
1.0
 10
63.98189007788228
 20
221.9226281373676
 42
1.0
 10
63.9772115711791
 20
221.8878164136814
 42
1.0
 10
63.97840984367915
 20
221.853682303946
 42
1.0
 10
63.97960811617921
 20
221.8195481942105
 42
1.0
 10
63.98671621771756
 20
221.7851502375343
 42
1.0
 10
63.9991455233153
 20
221.7533369436656
 42
1.0
 10
64.01157482891271
 20
221.7215236497978
 42
1.0
 10
64.02966815416389
 20
221.691417568813
 42
1.0
 10
64.05192718293809
 20
221.6655117983672
 42
1.0
 10
64.07418621171229
 20
221.6396060279215
 42
1.0
 10
64.10122487550598
 20
221.6171860548805
 42
1.0
 10
64.13080409081442
 20
221.6001084869596
 42
1.0
 72
     1
 10
64.13080409084989
 20
221.600108487021
 11
64.40211583503144
 21
221.4434665784482
 72
     2
 10
64.24953372695406
 20
221.1791866149657
 40
0.305164216125787
 50
300.0000000031428
 51
360.0000000004331
 73
     0
 72
     1
 10
64.55469794303316
 20
221.1791866149634
 11
64.55469794300683
 21
219.1006742383178
 72
     2
 10
64.24953372688105
 20
219.1006742382871
 40
0.305164216125787
 50
359.9999999942377
 51
419.9999999946043
 73
     0
 72
     1
 10
64.40211583497764
 20
218.8363942747953
 11
64.13080409082156
 21
218.679752366322
 72
     4
 94
        3
 73
     1
 74
     0
 95
       26
 96
       22
 40
0.0
 40
0.0
 40
0.0
 40
0.0
 40
0.0000214122930039
 40
0.0000214122930039
 40
0.0000214122930039
 40
0.0001252889993504
 40
0.0001252889993504
 40
0.0001252889993504
 40
0.000229165705697
 40
0.000229165705697
 40
0.000229165705697
 40
0.0003330424120435
 40
0.0003330424120435
 40
0.0003330424120435
 40
0.0004369191183901
 40
0.0004369191183901
 40
0.0004369191183901
 40
0.0005407958247339
 40
0.0005407958247339
 40
0.0005407958247339
 40
0.0006446725310778
 40
0.0006446725310778
 40
0.0006446725310778
 40
0.0006446725310778
 10
64.13080409082156
 20
218.679752366322
 42
1.0
 10
64.12462289425669
 20
218.6761836508214
 42
1.0
 10
64.11856325341343
 20
218.6723956177636
 42
1.0
 10
64.1126475228766
 20
218.6684022415587
 42
1.0
 10
64.08433865655527
 20
218.6492925217277
 42
1.0
 10
64.058938714654
 20
218.6250316997634
 42
1.0
 10
64.03855107740519
 20
218.5976288248808
 42
1.0
 10
64.01816344015639
 20
218.5702259499983
 42
1.0
 10
64.00222579135242
 20
218.5389252170744
 42
1.0
 10
63.99205793462021
 20
218.5063186534117
 42
1.0
 10
63.981890077888
 20
218.473712089749
 42
1.0
 10
63.97721157118482
 20
218.4389003660628
 42
1.0
 10
63.97840984368486
 20
218.4047662563273
 42
1.0
 10
63.9796081161849
 20
218.3706321465919
 42
1.0
 10
63.98671621772324
 20
218.3362341899157
 42
1.0
 10
63.99914552332096
 20
218.304420896047
 42
1.0
 10
64.01157482891837
 20
218.2726076021791
 42
1.0
 10
64.02966815416954
 20
218.2425015211944
 42
1.0
 10
64.05192718294373
 20
218.2165957507486
 42
1.0
 10
64.07418621171792
 20
218.1906899803029
 42
1.0
 10
64.10122487551158
 20
218.1682700072618
 42
1.0
 10
64.13080409082004
 20
218.1511924393409
 42
1.0
 72
     1
 10
64.13080409082004
 20
218.1511924393409
 11
67.04860271189062
 21
216.4666006199572
 72
     2
 10
67.78099683054486
 20
217.7351444446033
 40
1.46478823722273
 50
239.9999999994599
 51
263.9999999994625
 73
     1
 72
     1
 10
67.62788476708175
 20
216.2783804706089
 11
68.26840926352598
 21
216.2110586332355
 72
     2
 10
68.45979934309926
 20
218.0320136006896
 40
1.83098529651558
 50
263.9999999917295
 51
278.7114973737155
 73
     1
 72
     1
 10
68.73711886615011
 20
216.222151440692
 11
70.881277910834
 21
216.5506942310138
 72
     2
 10
70.82523801592184
 20
216.9164257311315
 40
0.370000000000294
 50
278.7114973800116
 51
359.999999999477
 73
     1
 72
     1
 10
71.19523801592214
 20
216.9164257311281
 11
71.19523801592555
 21
217.7846923346238
 72
     2
 10
71.43936938879935
 20
217.7846923346215
 40
0.24413137287047
 50
180.0000000005344
 51
208.0000000015339
 73
     0
 72
     1
 10
71.2238141807851
 20
217.8993050717739
 11
72.64292826147201
 21
220.5682704806622
 72
     2
 10
73.18181628155465
 20
220.2817386378127
 40
0.610328432203156
 50
207.9999999968648
 51
256.2315422679175
 73
     0
 72
     2
 10
72.94940439022476
 20
221.2302041081757
 40
0.3661970592836911
 50
283.7684577302862
 51
460.9999999914293
 73
     1
 72
     1
 10
72.87953069728677
 20
221.5896730960776
 11
72.29258962951558
 21
221.4755833100066
 72
     2
 10
72.17613347452415
 20
222.0746982898624
 40
0.610328432203156
 50
79.00000000018399
 51
180.0
 73
     0
 72
     1
 10
71.56580504232099
 20
222.0746982898624
 11
71.56580504235797
 21
224.3901866672034
 72
     2
 10
71.80993641531086
 20
224.3901866671594
 40
0.24413137287047
 50
180.0000000103398
 51
226.0610789800995
 73
     0
 72
     1
 10
71.64053581902559
 20
224.5659807660302
 11
71.85174734459932
 21
224.7695106833357
 72
     2
 10
71.63999659911336
 20
224.9892533068033
 40
0.305164216125787
 50
313.938921053148
 51
375.000000016869
 73
     1
 72
     1
 10
71.93476259670526
 20
225.0682356179072
 11
71.86881636453663
 21
225.3143503067658
 72
     4
 94
        3
 73
     1
 74
     0
 95
       11
 96
        7
 40
0.0
 40
0.0
 40
0.0
 40
0.0
 40
0.0000614792445073
 40
0.0000614792445073
 40
0.0000614792445073
 40
0.000094239840936
 40
0.000094239840936
 40
0.000094239840936
 40
0.000094239840936
 10
71.86881636453654
 20
225.3143503067657
 42
1.0
 10
71.8635123647565
 20
225.3341451034507
 42
1.0
 10
71.86155282023178
 20
225.3551286259451
 42
1.0
 10
71.86310000169642
 20
225.3755632196279
 42
1.0
 10
71.86393289979875
 20
225.386563826014
 42
1.0
 10
71.86577153266344
 20
225.3975331917717
 42
1.0
 10
71.86857111924725
 20
225.4082041511977
 42
1.0
 72
     1
 10
71.86857111924725
 20
225.4082041511977
 11
72.0589134225724
 21
226.1337166284978
 72
     2
 10
72.23601826641276
 20
226.0872521706291
 40
0.183098529652831
 50
194.70056657804
 51
283.583100403905
 73
     0
 72
     1
 10
72.27901994840198
 20
226.2652294919571
 11
72.73477389791661
 21
226.1551132916374
 72
     2
 10
72.79210947381875
 20
226.3924163867666
 40
0.24413137287047
 50
256.4168996165234
 51
374.0976954821019
 73
     1
 72
     1
 10
73.02888805235908
 20
226.451880930522
 11
72.80076830564435
 21
227.3602183355821
 72
     4
 94
        3
 73
     1
 74
     0
 95
       20
 96
       16
 40
0.0000000000000015
 40
0.0000000000000015
 40
0.0000000000000015
 40
0.0000000000000015
 40
0.0001024654075248
 40
0.0001024654075248
 40
0.0001024654075248
 40
0.0002049308150496
 40
0.0002049308150496
 40
0.0002049308150496
 40
0.0003073962225771
 40
0.0003073962225771
 40
0.0003073962225771
 40
0.0004098616301046
 40
0.0004098616301046
 40
0.0004098616301046
 40
0.000423183424525
 40
0.000423183424525
 40
0.000423183424525
 40
0.000423183424525
 10
72.80076830563081
 20
227.3602183355795
 42
1.0
 10
72.7924489342015
 20
227.3933447806556
 42
1.0
 10
72.7897341628432
 20
227.4283644115415
 42
1.0
 10
72.79284880295246
 20
227.4623772373774
 42
1.0
 10
72.79596344306172
 20
227.4963900632134
 42
1.0
 10
72.8049934002583
 20
227.5303341997312
 42
1.0
 10
72.8191908998607
 20
227.5613987182273
 42
1.0
 10
72.83338839946347
 20
227.5924632367243
 42
1.0
 10
72.85314502604082
 20
227.6215049349745
 42
1.0
 10
72.87682472475593
 20
227.646118857319
 42
1.0
 10
72.90050442347103
 20
227.6707327796634
 42
1.0
 10
72.92876030965145
 20
227.6915978084708
 42
1.0
 10
72.95925250107726
 20
227.7069861016337
 42
1.0
 10
72.96327296342648
 20
227.7090150818541
 42
1.0
 10
72.96733934615227
 20
227.7109555180432
 42
1.0
 10
72.97144567378564
 20
227.7128045587685
 42
1.0
 72
     1
 10
72.97144567378695
 20
227.7128045587691
 11
74.132597997241
 21
228.2356605330184
 72
     1
 10
74.132597997241
 20
228.2356605330184
 11
74.49879505651082
 21
228.4005556258066
 72
     2
 10
74.37349920154765
 20
228.6788111692915
 40
0.305164216125787
 50
294.2415899795932
 51
414.9999999967296
 73
     1
 72
     1
 10
74.54853420514921
 20
228.9287870607648
 11
73.62825380532453
 21
229.5731743340826
 72
     2
 10
73.34819779964936
 20
229.1732129077946
 40
0.4882627456951
 50
55.00000000046025
 51
90.37421903362579
 73
     1
 72
     1
 10
73.34500880535818
 20
229.661465239227
 11
69.75599121303226
 21
229.6380237610194
 72
     2
 10
69.75997745591745
 20
229.0277083466453
 40
0.610328432203156
 50
90.37421903556626
 51
180.0
 73
     1
 72
     1
 10
69.1496490237143
 20
229.0277083466453
 11
69.14964902372036
 21
228.7473989866658
 72
     4
 94
        3
 73
     1
 74
     0
 95
       38
 96
       34
 40
0.0000000000000011
 40
0.0000000000000011
 40
0.0000000000000011
 40
0.0000000000000011
 40
0.0002869031410322
 40
0.0002869031410322
 40
0.0002869031410322
 40
0.0005738062820643
 40
0.0005738062820643
 40
0.0005738062820643
 40
0.0008607094230965
 40
0.0008607094230965
 40
0.0008607094230965
 40
0.0011476125641287
 40
0.0011476125641287
 40
0.0011476125641287
 40
0.0014345157051609
 40
0.0014345157051609
 40
0.0014345157051609
 40
0.001721418846193
 40
0.001721418846193
 40
0.001721418846193
 40
0.0020083219872252
 40
0.0020083219872252
 40
0.0020083219872252
 40
0.0022952251282574
 40
0.0022952251282574
 40
0.0022952251282574
 40
0.0025821282692896
 40
0.0025821282692896
 40
0.0025821282692896
 40
0.0028690314103217
 40
0.0028690314103217
 40
0.0028690314103217
 40
0.0030527502473687
 40
0.0030527502473687
 40
0.0030527502473687
 40
0.0030527502473687
 10
69.14964902372685
 20
228.7473989866658
 42
1.0
 10
69.14964902373111
 20
228.6517646063218
 42
1.0
 10
69.13313760767284
 20
228.5548113688329
 42
1.0
 10
69.10148209309476
 20
228.4645680139496
 42
1.0
 10
69.06982657851668
 20
228.3743246590664
 42
1.0
 10
69.02215386724215
 20
228.2883021636389
 42
1.0
 10
68.96241175721929
 20
228.2136240879151
 42
1.0
 10
68.90266964719642
 20
228.1389460121914
 42
1.0
 10
68.82921037726811
 20
228.0735526426388
 42
1.0
 10
68.74811714151626
 20
228.0228592326225
 42
1.0
 10
68.66702390576441
 20
227.9721658226061
 42
1.0
 10
68.5760600526224
 20
227.9347741852872
 42
1.0
 10
68.4827583383188
 20
227.9137807384097
 42
1.0
 10
68.38945662401521
 20
227.892787291532
 42
1.0
 10
68.29124367207135
 20
227.8876130099105
 42
1.0
 10
68.19625253973938
 20
227.8986863780559
 42
1.0
 10
68.1012614074074
 20
227.9097597462012
 42
1.0
 10
68.00687212197353
 20
227.937386181279
 42
1.0
 10
67.92090110120373
 20
227.9792779261889
 42
1.0
 10
67.83493008043394
 20
228.0211696710987
 42
1.0
 10
67.7550061374283
 20
228.0784821518883
 42
1.0
 10
67.68774780865698
 20
228.1464692971047
 42
1.0
 10
67.62048947988566
 20
228.2144564423212
 42
1.0
 10
67.56404169759831
 20
228.2949934213723
 42
1.0
 10
67.52307892718895
 20
228.3814109320063
 42
1.0
 10
67.48211615677958
 20
228.4678284426403
 42
1.0
 10
67.45550859446416
 20
228.562509986499
 42
1.0
 10
67.44545962404668
 20
228.657614943769
 42
1.0
 10
67.43541065362918
 20
228.7527199010391
 42
1.0
 10
67.44164311209819
 20
228.8508713838667
 42
1.0
 10
67.46364088685806
 20
228.9439414252839
 42
1.0
 10
67.47784578873527
 20
229.0040407226206
 42
1.0
 10
67.49872564876696
 20
229.0629319404214
 42
1.0
 10
67.52555069446362
 20
229.1185567703184
 42
1.0
 72
     1
 10
67.52555069446363
 20
229.1185567703184
 11
68.08478925911251
 21
230.2782025126653
 72
     2
 10
67.91986671819735
 20
230.3577363234587
 40
0.183098529657006
 50
334.2543347347739
 51
389.9999999801062
 73
     1
 97
        0
 75
     0
 76
     2
 52
0.0
 41
0.125
 77
     0
 78
     3
 53
45.00000209717174
 43
0.8418990000000001
 44
0.8418990000000001
 45
0.5612659459355175
 46
1.683798043244233
 79
     2
 49
0.79375
 49
-1.5875
 53
45.00000209717174
 43
1.96443125
 44
0.8418990000000001
 45
0.5612659459355175
 46
1.683798043244233
 79
     2
 49
0.79375
 49
-1.5875
 53
134.9999719140475
 43
0.0
 44
0.0
 45
-0.5612662826950551
 46
-0.5612657324384541
 79
     0
 98
        1
 10
0.0
 20
0.0
  0
HATCH
  5
295
330
1F
100
AcDbEntity
  8
0
  6
Continuous
 62
     7
370
    18
100
AcDbHatch
 10
0.0
 20
0.0
 30
0.0
210
0.0
220
0.0
230
1.0
  2
DIN 128 Elastomer-Gummi
 70
     0
 71
     0
 91
        1
 92
        0
 93
       75
 72
     1
 10
200.85495115945
 20
233.5226194749124
 11
200.9470918977988
 21
230.7975750233781
 72
     2
 10
200.764097945791
 20
230.7913875287699
 40
0.183098529652831
 50
358.063420620112
 51
389.9999999800939
 73
     0
 72
     1
 10
200.922665923898
 20
230.6998382639984
 11
200.7780092692094
 21
230.4492855882322
 72
     2
 10
200.9365772473197
 20
230.3577363234587
 40
0.183098529657006
 50
150.0000000198945
 51
205.7456652652296
 73
     1
 72
     1
 10
200.7716547064046
 20
230.2782025126653
 11
201.3308932710535
 21
229.1185567703184
 72
     2
 10
200.5612547468099
 20
228.7473989866278
 40
0.8544598050195871
 50
334.2543347347183
 51
540.0000000025555
 73
     0
 72
     1
 10
199.7067949417968
 20
228.7473989866658
 11
199.7067949418028
 21
229.0277083466453
 72
     2
 10
199.0964665095997
 20
229.0277083466453
 40
0.610328432203156
 50
0.0
 51
89.62578096443642
 73
     1
 72
     1
 10
199.1004527524848
 20
229.6380237610194
 11
195.511435160159
 21
229.661465239227
 72
     2
 10
195.5082461658678
 20
229.1732129077946
 40
0.4882627456951
 50
89.62578096637424
 51
124.9999999995411
 73
     1
 72
     1
 10
195.2281901601926
 20
229.5731743340826
 11
194.3079097603679
 21
228.9287870607648
 72
     2
 10
194.4829447639695
 20
228.6788111692915
 40
0.305164216125787
 50
125.000000003269
 51
245.7584100204108
 73
     1
 72
     1
 10
194.3576489090063
 20
228.4005556258066
 11
194.7238459682761
 21
228.2356605330184
 72
     1
 10
194.7238459682761
 20
228.2356605330184
 11
195.8849982917302
 21
227.7128045587691
 72
     2
 10
195.7597024366626
 20
227.4345490152366
 40
0.305164216125787
 50
294.2415899937879
 51
374.0976954732695
 73
     0
 72
     1
 10
196.0556756598727
 20
227.3602183355821
 11
195.827555913158
 21
226.451880930522
 72
     2
 10
196.0643344916984
 20
226.3924163867666
 40
0.24413137287047
 50
165.9023045178997
 51
283.5831003834815
 73
     1
 72
     1
 10
196.1216700676005
 20
226.1551132916374
 11
196.5774240171151
 21
226.2652294919571
 72
     2
 10
196.6204256991044
 20
226.0872521706291
 40
0.183098529652831
 50
256.4168995960923
 51
345.2994334219605
 73
     0
 72
     1
 10
196.7975305429447
 20
226.1337166284978
 11
196.9878728462699
 21
225.4082041511977
 72
     2
 10
196.8107680024199
 20
225.3617396933198
 40
0.183098529652831
 50
345.2994334199492
 51
374.9999999836897
 73
     0
 72
     1
 10
196.9876276009805
 20
225.3143503067658
 11
196.9216813688118
 21
225.0682356179072
 72
     2
 10
197.2164473664038
 20
224.9892533068033
 40
0.305164216125787
 50
164.9999999831331
 51
226.0610789468518
 73
     1
 72
     1
 10
197.0046966209178
 20
224.7695106833357
 11
197.2159081464915
 21
224.5659807660302
 72
     2
 10
197.0465075502063
 20
224.3901866671594
 40
0.24413137287047
 50
313.9389210199022
 51
359.9999999896618
 73
     0
 72
     1
 10
197.2906389231592
 20
224.3901866672034
 11
197.2906389231961
 21
222.0746982898624
 72
     2
 10
196.680310490993
 20
222.0746982898624
 40
0.610328432203156
 50
0.0
 51
100.9999999998134
 73
     0
 72
     1
 10
196.5638543360016
 20
221.4755833100066
 11
195.9769132682304
 21
221.5896730960776
 72
     2
 10
195.9070395752924
 20
221.2302041081757
 40
0.3661970592836911
 50
79.00000000857153
 51
256.2315422697133
 73
     1
 72
     2
 10
195.6746276839625
 20
220.2817386378127
 40
0.610328432203156
 50
283.7684577320854
 51
332.0000000031375
 73
     0
 72
     1
 10
196.2135157040451
 20
220.5682704806622
 11
197.632629784732
 21
217.8993050717739
 72
     2
 10
197.4170745767178
 20
217.7846923346215
 40
0.24413137287047
 50
331.9999999984677
 51
359.9999999994672
 73
     0
 72
     1
 10
197.6612059495916
 20
217.7846923346238
 11
197.661205949595
 21
216.9164257311281
 72
     2
 10
198.0312059495953
 20
216.9164257311315
 40
0.370000000000294
 50
180.0000000005246
 51
261.2885026199879
 73
     1
 72
     1
 10
197.9751660546831
 20
216.5506942310138
 11
200.119325099367
 21
216.222151440692
 72
     2
 10
200.3966446224179
 20
218.0320136006896
 40
1.83098529651558
 50
261.2885026262857
 51
276.0000000082717
 73
     1
 72
     1
 10
200.5880347019911
 20
216.2110586332355
 11
201.2285591984354
 21
216.2783804706089
 72
     2
 10
201.0754471349723
 20
217.7351444446033
 40
1.46478823722273
 50
276.000000000539
 51
300.0000000005417
 73
     1
 72
     1
 10
201.8078412536265
 20
216.4666006199572
 11
204.7256398746971
 21
218.1511924393409
 72
     2
 10
204.5730577666329
 20
218.415472402831
 40
0.305164216125787
 50
300.0000000002835
 51
420.0000000000431
 73
     1
 72
     1
 10
204.7256398746956
 20
218.679752366322
 11
204.4543281305395
 21
218.8363942747953
 72
     2
 10
204.6069102386361
 20
219.1006742382871
 40
0.305164216125787
 50
120.0000000053943
 51
180.000000005764
 73
     0
 72
     1
 10
204.3017460225103
 20
219.1006742383178
 11
204.301746022484
 21
221.1791866149634
 72
     2
 10
204.6069102385631
 20
221.1791866149657
 40
0.305164216125787
 50
179.9999999995678
 51
239.9999999968542
 73
     0
 72
     1
 10
204.4543281304857
 20
221.4434665784482
 11
204.7256398746672
 21
221.600108487021
 72
     2
 10
204.5730577666386
 20
221.8643884504497
 40
0.305164216125787
 50
300.0000000002726
 51
420.0000000011717
 73
     1
 72
     1
 10
204.725639874696
 20
222.1286684139437
 11
204.45432813051
 21
222.2853103223537
 72
     2
 10
204.6069102386069
 20
222.549590285845
 40
0.305164216125787
 50
120.0000000054951
 51
180.0000000058814
 73
     0
 72
     1
 10
204.3017460224811
 20
222.5495902858763
 11
204.3017460224561
 21
224.2329680869791
 72
     2
 10
204.4238117088842
 20
224.2329680869802
 40
0.122065686543547
 50
179.9999999994664
 51
305.0000000111657
 73
     0
 72
     1
 10
204.493825710392
 20
224.3329584436362
 11
204.9553622179466
 21
224.0097871023842
 72
     2
 10
205.025376219386
 20
224.1097774589748
 40
0.122065686543547
 50
234.9999999975469
 51
385.0000000017105
 73
     1
 72
     1
 10
205.1360053016288
 20
224.1613646472433
 11
204.3303375332377
 21
225.8891247509945
 72
     2
 10
204.606910238476
 20
226.0180927217079
 40
0.305164216125787
 50
154.9999999618686
 51
179.9999999643536
 73
     0
 72
     1
 10
204.3017460223503
 20
226.0180927215181
 11
204.3017460224312
 21
226.6464901227216
 72
     2
 10
204.6069102385165
 20
226.6464901227245
 40
0.305164216125787
 50
179.999999999461
 51
239.9999999979966
 73
     0
 72
     1
 10
204.4543281304443
 20
226.91077008621
 11
204.7256398746201
 21
227.0674119946586
 72
     2
 10
204.573057766556
 20
227.3316919581482
 40
0.305164216125787
 50
300.0000000003091
 51
419.9999999999908
 73
     1
 72
     1
 10
204.725639874619
 20
227.5959719216391
 11
204.4543281304628
 21
227.7526138301119
 72
     2
 10
204.6069102385648
 20
228.0168937936072
 40
0.305164216125787
 50
120.0000000059442
 51
180.0000000052304
 73
     0
 72
     1
 10
204.301746022439
 20
228.016893793635
 11
204.301746022411
 21
229.3111224540105
 72
     2
 10
204.6069102384934
 20
229.3111224540133
 40
0.305164216125787
 50
179.999999999461
 51
239.9999999979846
 73
     0
 72
     1
 10
204.4543281304213
 20
229.5754024174989
 11
204.725639874597
 21
229.7320443260703
 72
     2
 10
204.5730577665689
 20
229.9963242894985
 40
0.305164216125787
 50
300.0000000002282
 51
420.0000000011048
 73
     1
 72
     1
 10
204.7256398746267
 20
230.2606042529923
 11
204.4543281304403
 21
230.417246161402
 72
     2
 10
204.6069102385414
 20
230.6815261248961
 40
0.305164216125787
 50
120.0000000059242
 51
180.0000000052304
 73
     0
 72
     1
 10
204.3017460224157
 20
230.6815261249239
 11
204.3017460223918
 21
231.1331198584976
 72
     2
 10
204.6069102384778
 20
231.1331198585004
 40
0.305164216125787
 50
179.9999999994664
 51
239.9999999979992
 73
     0
 72
     1
 10
204.4543281304057
 20
231.397399821986
 11
204.7256398745814
 21
231.5540417305562
 72
     2
 10
204.5730577665499
 20
231.8183216939844
 40
0.305164216125787
 50
300.0000000007854
 51
420.000000000615
 73
     1
 72
     1
 10
204.7256398746099
 20
232.082601657477
 11
203.6063453750104
 21
232.7288266380129
 72
     1
 10
203.6063453750104
 20
232.7288266380129
 11
202.243852953732
 21
233.5154620030245
 72
     2
 10
201.5114588356455
 20
232.2469181785034
 40
1.46478823722606
 50
60.00000001624404
 51
69.01418097160888
 73
     1
 72
     1
 10
202.0360535146476
 20
233.6145456872492
 11
201.3520877331775
 21
233.876901341297
 72
     2
 10
201.220939063444
 20
233.5349944641287
 40
0.3661970592836911
 50
69.0141809730799
 51
181.9365793800089
 73
     1
 97
        0
 75
     0
 76
     2
 52
0.0
 41
0.125
 77
     0
 78
     3
 53
45.00000209717174
 43
0.8418990000000001
 44
0.8418990000000001
 45
0.5612659459355175
 46
1.683798043244233
 79
     2
 49
0.79375
 49
-1.5875
 53
45.00000209717174
 43
1.96443125
 44
0.8418990000000001
 45
0.5612659459355175
 46
1.683798043244233
 79
     2
 49
0.79375
 49
-1.5875
 53
134.9999719140475
 43
0.0
 44
0.0
 45
-0.5612662826950551
 46
-0.5612657324384541
 79
     0
 98
        1
 10
0.0
 20
0.0
  0
DIMENSION
  5
296
330
1F
100
AcDbEntity
  8
0
  6
Continuous
 62
     7
370
    18
100
AcDbDimension
  2
_D_2
 10
220.1474419059
 20
216.2010283042
 30
0.0
 11
220.1474419059
 21
225.0511099138
 31
0.0
 70
   160
  1
<>
 71
     2
 42
-1.0
  3
SLDDIMSTYLE2
100
AcDbAlignedDimension
 13
201.2209390634
 23
233.9011915234
 33
0.0
 14
200.3966446224
 24
216.2010283042
 34
0.0
 50
90.0
100
AcDbRotatedDimension
  0
MTEXT
  5
2A1
330
1F
100
AcDbEntity
  8
0
  6
Continuous
 62
     7
370
     0
100
AcDbMText
 10
134.402967529
 20
251.3449374226
 30
0.0
 40
5.0
 41
0.0
 71
     2
 72
     1
  1
A-A
  7
SLDTEXTSTYLE0
 73
     1
 44
1.0
  0
LINE
  5
2A2
330
1F
100
AcDbEntity
  8
0
  6
Continuous
 62
     7
370
    25
100
AcDbLine
 10
252.7284748297
 20
150.4612358875
 30
0.0
 11
253.4411867562
 21
149.5051772771
 31
0.0
  0
LINE
  5
2A3
330
1F
100
AcDbEntity
  8
0
  6
Continuous
 62
     7
370
    25
100
AcDbLine
 10
377.1151710024
 20
149.5051772771
 30
0.0
 11
377.827882929
 21
150.4612358875
 31
0.0
  0
LWPOLYLINE
  5
2A4
330
1F
100
AcDbEntity
  8
0
  6
Continuous
 62
     7
370
    25
100
AcDbPolyline
 90
        3
 70
   128
 43
0.0
 10
376.3857292284
 20
176.2880679795
 10
376.5161507396
 20
175.361286146
 10
376.5861117284
 20
174.3090174874
  0
LWPOLYLINE
  5
2A5
330
1F
100
AcDbEntity
  8
0
  6
Continuous
 62
     7
370
    25
100
AcDbPolyline
 90
      166
 70
   128
 43
0.0
 10
385.5755967712
 20
177.6517495237
 10
385.5246345035
 20
179.5441599587
 10
385.3718215908
 20
181.4338265795
 10
385.1173795971
 20
183.3180095501
 10
384.7616774391
 20
185.1939769853
 10
384.3052308509
 20
187.0590089118
 10
383.7487016363
 20
188.9104012115
 10
383.0928967096
 20
190.7454695426
 10
382.3387669252
 20
192.5615532315
 10
381.4874056992
 20
194.3560191303
 10
380.540047424
 20
196.1262654352
 10
379.4980656785
 20
197.8697254582
 10
378.3629712366
 20
199.5838713489
 10
377.1364098767
 20
201.2662177598
 10
375.8201599957
 20
202.9143254492
 10
374.4161300298
 20
204.5258048187
 10
372.9263556884
 20
206.0983193772
 10
371.3529970019
 20
207.6295891289
 10
369.6983351899
 20
209.1173938791
 10
367.9647693539
 20
210.5595764532
 10
366.1548129986
 20
211.9540458242
 10
364.2710903877
 20
213.2987801449
 10
362.3163327388
 20
214.5918296791
 10
360.2933742637
 20
215.8313196285
 10
358.2051480589
 20
217.0154528514
 10
356.0546818525
 20
218.1425124676
 10
353.8450936152
 20
219.2108643485
 10
351.5795870385
 20
220.218959486
 10
349.2614468904
 20
221.1653362385
 10
346.8940342525
 20
222.0486224502
 10
344.4807816469
 20
222.8675374405
 10
342.025188059
 20
223.6208938611
 10
339.5308138649
 20
224.307599417
 10
337.0012756686
 20
224.926658451
 10
334.4402410587
 20
225.4771733865
 10
331.8514232906
 20
225.9583460296
 10
329.2385759025
 20
226.3694787259
 10
326.6054872733
 20
226.7099753723
 10
323.9559751299
 20
226.9793422813
 10
321.2938810115
 20
227.1771888965
 10
318.6230647001
 20
227.3032283593
 10
315.947398624
 20
227.3572779245
 10
313.2707622433
 20
227.3392592255
 10
310.5970364248
 20
227.2491983875
 10
307.9300978154
 20
227.0872259903
 10
305.273813221
 20
226.8535768783
 10
302.6320340004
 20
226.5485898203
 10
300.0085904809
 20
226.1727070185
 10
297.4072864047
 20
225.726473467
 10
294.8318934142
 20
225.2105361617
 10
292.2861455829
 20
224.6256431625
 10
289.7737340019
 20
223.9726425083
 10
287.2983014276
 20
223.2524809875
 10
284.8634370008
 20
222.4662027656
 10
282.472671042
 20
221.6149478708
 10
280.1294699333
 20
220.6999505413
 10
277.8372310924
 20
219.7225374358
 10
275.5992780464
 20
218.6841257099
 10
273.4188556132
 20
217.5862209612
 10
271.299125197
 20
216.4304150467
 10
269.2431602041
 20
215.2183837744
 10
267.2539415874
 20
213.9518844739
 10
265.3343535236
 20
212.6327534481
 10
263.4871792318
 20
211.2629033107
 10
261.7150969383
 20
209.8443202137
 10
260.0206759929
 20
208.3790609668
 10
258.4063731441
 20
206.8692500558
 10
256.8745289765
 20
205.3170765623
 10
255.4273645179
 20
203.7247909894
 10
254.0669780183
 20
202.0947019991
 10
252.795341908
 20
200.4291730643
 10
251.614299938
 20
198.730619043
 10
250.5255645061
 20
197.0015026761
 10
249.5307141747
 20
195.2443310169
 10
248.6311913815
 20
193.4616517965
 10
247.8283003488
 20
191.6560497291
 10
247.1232051916
 20
189.8301427654
 10
246.5169282305
 20
187.9865782956
 10
246.0103485093
 20
186.1280293122
 10
245.60420052
 20
184.2571905334
 10
245.2990731385
 20
182.3767744967
 10
245.0954087702
 20
180.4895076254
 10
244.9935027091
 20
178.5981262762
 10
244.9935027091
 20
176.7053727712
 10
245.0954087702
 20
174.813991422
 10
245.2990731385
 20
172.9267245508
 10
245.60420052
 20
171.046308514
 10
246.0103485093
 20
169.1754697352
 10
246.5169282305
 20
167.3169207518
 10
247.1232051916
 20
165.4733562821
 10
247.8283003488
 20
163.6474493183
 10
248.6311913815
 20
161.841847251
 10
249.5307141747
 20
160.0591680305
 10
250.5255645061
 20
158.3019963714
 10
251.614299938
 20
156.5728800044
 10
252.795341908
 20
154.8743259831
 10
254.0669780183
 20
153.2087970484
 10
255.4273645179
 20
151.578708058
 10
256.8745289765
 20
149.9864224851
 10
258.4063731441
 20
148.4342489916
 10
260.0206759929
 20
146.9244380807
 10
261.7150969383
 20
145.4591788338
 10
263.4871792318
 20
144.0405957367
 10
265.3343535236
 20
142.6707455994
 10
267.2539415874
 20
141.3516145735
 10
269.2431602041
 20
140.085115273
 10
271.299125197
 20
138.8730840008
 10
273.4188556132
 20
137.7172780863
 10
275.5992780464
 20
136.6193733376
 10
277.8372310924
 20
135.5809616116
 10
280.1294699333
 20
134.6035485061
 10
282.472671042
 20
133.6885511766
 10
284.8634370008
 20
132.8372962819
 10
287.2983014276
 20
132.05101806
 10
289.7737340019
 20
131.3308565392
 10
292.2861455829
 20
130.677855885
 10
294.8318934142
 20
130.0929628858
 10
297.4072864047
 20
129.5770255805
 10
300.0085904809
 20
129.130792029
 10
302.6320340004
 20
128.7549092272
 10
305.273813221
 20
128.4499221692
 10
307.9300978154
 20
128.2162730572
 10
310.5970364248
 20
128.0543006599
 10
313.2707622433
 20
127.964239822
 10
315.947398624
 20
127.9462211229
 10
318.6230647001
 20
128.0002706882
 10
321.2938810115
 20
128.126310151
 10
323.9559751299
 20
128.3241567662
 10
326.6054872733
 20
128.5935236751
 10
329.2385759025
 20
128.9340203216
 10
331.8514232906
 20
129.3451530179
 10
334.4402410587
 20
129.826325661
 10
337.0012756686
 20
130.3768405965
 10
339.5308138649
 20
130.9958996304
 10
342.025188059
 20
131.6826051864
 10
344.4807816469
 20
132.4359616069
 10
346.8940342525
 20
133.2548765973
 10
349.2614468904
 20
134.138162809
 10
351.5795870385
 20
135.0845395615
 10
353.8450936152
 20
136.092634699
 10
356.0546818525
 20
137.1609865799
 10
358.2051480589
 20
138.2880461961
 10
360.2933742637
 20
139.4721794189
 10
362.3163327388
 20
140.7116693684
 10
364.2710903877
 20
142.0047189026
 10
366.1548129986
 20
143.3494532233
 10
367.9647693539
 20
144.7439225943
 10
369.6983351899
 20
146.1861051683
 10
371.3529970019
 20
147.6739099185
 10
372.9263556884
 20
149.2051796703
 10
374.4161300298
 20
150.7776942288
 10
375.8201599957
 20
152.3891735982
 10
377.1364098767
 20
154.0372812877
 10
378.3629712366
 20
155.7196276985
 10
379.4980656785
 20
157.4337735893
 10
380.540047424
 20
159.1772336122
 10
381.4874056992
 20
160.9474799171
 10
382.3387669252
 20
162.741945816
 10
383.0928967096
 20
164.5580295048
 10
383.7487016363
 20
166.3930978359
 10
384.3052308509
 20
168.2444901357
 10
384.7616774391
 20
170.1095220621
 10
385.1173795971
 20
171.9854894974
 10
385.3718215908
 20
173.869672468
 10
385.5246345035
 20
175.7593390888
 10
385.5755967712
 20
177.6517495237
  0
LWPOLYLINE
  5
2A6
330
1F
100
AcDbEntity
  8
0
  6
Continuous
 62
     7
370
    25
100
AcDbPolyline
 90
       86
 70
   128
 43
0.0
 10
245.0019154129
 20
176.4323735611
 10
244.9935027091
 20
176.1593743512
 10
244.9935027091
 20
174.2666208462
 10
245.0954087702
 20
172.375239497
 10
245.2990731385
 20
170.4879726258
 10
245.60420052
 20
168.607556589
 10
246.0103485093
 20
166.7367178102
 10
246.5169282305
 20
164.8781688268
 10
247.1232051916
 20
163.0346043571
 10
247.8283003488
 20
161.2086973933
 10
248.6311913815
 20
159.403095326
 10
249.5307141747
 20
157.6204161055
 10
250.5255645061
 20
155.8632444464
 10
251.614299938
 20
154.1341280794
 10
252.795341908
 20
152.4355740581
 10
254.0669780183
 20
150.7700451234
 10
255.4273645179
 20
149.139956133
 10
256.8745289765
 20
147.5476705601
 10
258.4063731441
 20
145.9954970666
 10
260.0206759929
 20
144.4856861557
 10
261.7150969383
 20
143.0204269088
 10
263.4871792318
 20
141.6018438117
 10
265.3343535236
 20
140.2319936744
 10
267.2539415874
 20
138.9128626485
 10
269.2431602041
 20
137.646363348
 10
271.299125197
 20
136.4343320758
 10
273.4188556132
 20
135.2785261613
 10
275.5992780464
 20
134.1806214126
 10
277.8372310924
 20
133.1422096866
 10
280.1294699333
 20
132.1647965811
 10
282.472671042
 20
131.2497992516
 10
284.8634370008
 20
130.3985443568
 10
287.2983014276
 20
129.6122661349
 10
289.7737340019
 20
128.8921046142
 10
292.2861455829
 20
128.23910396
 10
294.8318934142
 20
127.6542109607
 10
297.4072864047
 20
127.1382736555
 10
300.0085904809
 20
126.692040104
 10
302.6320340004
 20
126.3161573022
 10
305.273813221
 20
126.0111702442
 10
307.9300978154
 20
125.7775211322
 10
310.5970364248
 20
125.6155487349
 10
313.2707622433
 20
125.525487897
 10
315.947398624
 20
125.5074691979
 10
318.6230647001
 20
125.5615187631
 10
321.2938810115
 20
125.687558226
 10
323.9559751299
 20
125.8854048412
 10
326.6054872733
 20
126.1547717501
 10
329.2385759025
 20
126.4952683966
 10
331.8514232906
 20
126.9064010929
 10
334.4402410587
 20
127.3875737359
 10
337.0012756686
 20
127.9380886715
 10
339.5308138649
 20
128.5571477054
 10
342.025188059
 20
129.2438532614
 10
344.4807816469
 20
129.9972096819
 10
346.8940342525
 20
130.8161246723
 10
349.2614468904
 20
131.699410884
 10
351.5795870385
 20
132.6457876365
 10
353.8450936152
 20
133.653882774
 10
356.0546818525
 20
134.7222346549
 10
358.2051480589
 20
135.8492942711
 10
360.2933742637
 20
137.0334274939
 10
362.3163327388
 20
138.2729174434
 10
364.2710903877
 20
139.5659669776
 10
366.1548129986
 20
140.9107012983
 10
367.9647693539
 20
142.3051706693
 10
369.6983351899
 20
143.7473532433
 10
371.3529970019
 20
145.2351579935
 10
372.9263556884
 20
146.7664277453
 10
374.4161300298
 20
148.3389423037
 10
375.8201599957
 20
149.9504216732
 10
377.1364098767
 20
151.5985293627
 10
378.3629712366
 20
153.2808757735
 10
379.4980656785
 20
154.9950216642
 10
380.540047424
 20
156.7384816872
 10
381.4874056992
 20
158.5087279921
 10
382.3387669252
 20
160.303193891
 10
383.0928967096
 20
162.1192775798
 10
383.7487016363
 20
163.9543459109
 10
384.3052308509
 20
165.8057382106
 10
384.7616774391
 20
167.6707701371
 10
385.1173795971
 20
169.5467375724
 10
385.3718215908
 20
171.430920543
 10
385.5246345035
 20
173.3205871637
 10
385.5755967712
 20
175.2129975987
 10
385.5755967712
 20
175.2129975987
  0
LWPOLYLINE
  5
2A7
330
1F
100
AcDbEntity
  8
0
  6
Continuous
 62
     7
370
    25
100
AcDbPolyline
 90
       79
 70
   128
 43
0.0
 10
378.5111628461
 20
178.8986097449
 10
378.4598807805
 20
177.098220035
 10
378.3061177634
 20
175.3007505637
 10
378.0501231989
 20
173.5091168333
 10
377.6923123112
 20
171.72622488
 10
377.2332654708
 20
169.9549665612
 10
376.6737272533
 20
168.1982148643
 10
376.014605232
 20
166.4588192471
 10
375.2569685049
 20
164.7396010155
 10
374.4020459618
 20
163.0433487479
 10
373.45122429
 20
161.3728137716
 10
372.4060457259
 20
159.7307057005
 10
371.2682055528
 20
158.1196880398
 10
370.0395493517
 20
156.5423738661
 10
368.7220700074
 20
155.0013215888
 10
367.3179044763
 20
153.4990308002
 10
365.82933032
 20
152.0379382216
 10
364.2587620112
 20
150.6204137504
 10
362.6087470174
 20
149.2487566165
 10
360.881961669
 20
147.9251916528
 10
359.0812068182
 20
146.6518656865
 10
357.2094032959
 20
145.4308440571
 10
355.2695871742
 20
144.2641072659
 10
353.2649048421
 20
143.1535477644
 10
351.1986079015
 20
142.1009668842
 10
349.0740478937
 20
141.1080719152
 10
346.8946708627
 20
140.1764733368
 10
344.6640117662
 20
139.3076822053
 10
342.3856887412
 20
138.503107703
 10
340.0633972361
 20
137.7640548527
 10
337.7009040162
 20
137.0917224009
 10
335.3020410542
 20
136.4872008733
 10
332.8706993144
 20
135.9514708059
 10
330.4108224422
 20
135.485401155
 10
327.9264003668
 20
135.0897478871
 10
325.4214628299
 20
134.7651527534
 10
322.9000728493
 20
134.5121422483
 10
320.3663201288
 20
134.3311267558
 10
317.8243144247
 20
134.2223998837
 10
315.2781788793
 20
134.1861379873
 10
312.732043334
 20
134.2223998837
 10
310.1900376298
 20
134.3311267558
 10
307.6562849093
 20
134.5121422483
 10
305.1348949287
 20
134.7651527534
 10
302.6299573918
 20
135.0897478871
 10
300.1455353164
 20
135.485401155
 10
297.6856584442
 20
135.9514708059
 10
295.2543167045
 20
136.4872008733
 10
292.8554537424
 20
137.0917224009
 10
290.4929605225
 20
137.7640548527
 10
288.1706690174
 20
138.503107703
 10
285.8923459924
 20
139.3076822053
 10
283.6616868959
 20
140.1764733368
 10
281.4823098649
 20
141.1080719152
 10
279.3577498571
 20
142.1009668842
 10
277.2914529165
 20
143.1535477644
 10
275.2867705844
 20
144.2641072659
 10
273.3469544627
 20
145.4308440571
 10
271.4751509404
 20
146.6518656865
 10
269.6743960896
 20
147.9251916528
 10
267.9476107412
 20
149.2487566165
 10
266.2975957474
 20
150.6204137504
 10
264.7270274386
 20
152.0379382216
 10
263.2384532823
 20
153.4990308002
 10
261.8342877512
 20
155.0013215888
 10
260.5168084069
 20
156.5423738661
 10
259.2881522058
 20
158.1196880398
 10
258.1503120328
 20
159.7307057005
 10
257.1051334686
 20
161.3728137716
 10
256.1543117969
 20
163.0433487479
 10
255.2993892537
 20
164.7396010155
 10
254.5417525267
 20
166.4588192471
 10
253.8826305053
 20
168.1982148643
 10
253.3230922879
 20
169.9549665612
 10
252.8640454475
 20
171.72622488
 10
252.5062345597
 20
173.5091168333
 10
252.2502399952
 20
175.3007505637
 10
252.0964769781
 20
177.098220035
 10
252.0451949125
 20
178.8986097449
  0
ARC
  5
2A8
330
1F
100
AcDbEntity
  8
0
  6
Continuous
 62
     7
370
    25
100
AcDbCircle
 10
350.4288917775
 20
173.7684931609
 30
0.0
 40
35.55707114380616
100
AcDbArc
 50
0.0115554082
 51
9.1875960139
  0
ARC
  5
2A9
330
1F
100
AcDbEntity
  8
0
  6
Continuous
 62
     7
370
    25
100
AcDbCircle
 10
282.7188149116
 20
173.9459848604
 30
0.0
 40
38.09138921790994
100
AcDbArc
 50
171.6983462141
 51
218.0636829738
  0
ARC
  5
2AA
330
1F
100
AcDbEntity
  8
0
  6
Continuous
 62
     7
370
    25
100
AcDbCircle
 10
347.0359692364
 20
174.3203362562
 30
0.0
 40
38.95380108861154
100
AcDbArc
 50
322.2297016922
 51
359.1988350312
  0
LWPOLYLINE
  5
2AB
330
1F
100
AcDbEntity
  8
0
  6
Continuous
 62
     7
370
    25
100
AcDbPolyline
 90
       59
 70
   128
 43
0.0
 10
253.4411867562
 20
149.5051772771
 10
254.4111859814
 20
148.2484506093
 10
255.7639226414
 20
146.6275280722
 10
257.2029492834
 20
145.0441963732
 10
258.7261794562
 20
143.500751192
 10
260.3314046218
 20
141.9994303765
 10
262.0162973571
 20
140.5424106984
 10
263.7784147287
 20
139.1318046969
 10
265.6152018349
 20
137.7696576159
 10
267.52399551
 20
136.4579444383
 10
269.5020281856
 20
135.198567023
 10
271.5464319035
 20
133.9933513468
 10
273.6542424737
 20
132.8440448571
 10
275.8224037724
 20
131.7523139386
 10
278.047772173
 20
130.7197414966
 10
280.3271211041
 20
129.7478246625
 10
282.6571457276
 20
128.8379726228
 10
285.0344677305
 20
127.991504576
 10
287.4556402233
 20
127.2096478198
 10
289.9171527373
 20
126.4935359718
 10
292.4154363147
 20
125.8442073257
 10
294.946868683
 20
125.2626033459
 10
297.5077795075
 20
124.7495673026
 10
300.0944557122
 20
124.305843049
 10
302.7031468639
 20
123.9320739429
 10
305.3300706098
 20
123.6288019138
 10
307.9714181617
 20
123.3964666771
 10
310.623359818
 20
123.2354050966
 10
313.2820505171
 20
123.1458506963
 10
315.9436354114
 20
123.1279333215
 10
318.6042554573
 20
123.1816789507
 10
321.2600530102
 20
123.3070096578
 10
323.9071774175
 20
123.5037437253
 10
326.5417906018
 20
123.7715959077
 10
329.160072626
 20
124.1101778448
 10
331.7582272313
 20
124.5189986252
 10
334.3324873421
 20
124.9974654979
 10
336.8791205272
 20
125.5448847316
 10
339.3944344119
 20
126.1604626208
 10
341.8747820317
 20
126.8433066365
 10
344.3165671196
 20
127.5924267199
 10
346.7162493206
 20
128.4067367188
 10
349.0703493249
 20
129.2850559613
 10
351.3754539127
 20
130.2261109686
 10
353.6282209027
 20
131.2285373009
 10
355.825383998
 20
132.2908815358
 10
357.9637575222
 20
133.4116033758
 10
360.0402410382
 20
134.5890778813
 10
362.0518238433
 20
135.8215978268
 10
363.9955893349
 20
137.1073761763
 10
365.8687192387
 20
138.4445486741
 10
367.6684976955
 20
139.8311765479
 10
369.3923151986
 20
141.2652493198
 10
371.0376723774
 20
142.7446877214
 10
372.6021836213
 20
144.2673467086
 10
374.0835805385
 20
145.8310185712
 10
375.4797152452
 20
147.4334361346
 10
376.7885634794
 20
149.0722760465
 10
377.1151710024
 20
149.5051772771
  0
LWPOLYLINE
  5
2AC
330
1F
100
AcDbEntity
  8
0
  6
Continuous
 62
     7
370
    25
100
AcDbPolyline
 90
       79
 70
   128
 43
0.0
 10
252.0451949125
 20
178.2846525417
 10
252.0964769781
 20
176.4842628318
 10
252.2502399952
 20
174.6867933605
 10
252.5062345597
 20
172.89515963
 10
252.8640454475
 20
171.1122676768
 10
253.3230922879
 20
169.341009358
 10
253.8826305053
 20
167.5842576611
 10
254.5417525267
 20
165.8448620439
 10
255.2993892537
 20
164.1256438123
 10
256.1543117969
 20
162.4293915447
 10
257.1051334686
 20
160.7588565684
 10
258.1503120328
 20
159.1167484973
 10
259.2881522058
 20
157.5057308366
 10
260.5168084069
 20
155.9284166629
 10
261.8342877512
 20
154.3873643856
 10
263.2384532823
 20
152.885073597
 10
264.7270274386
 20
151.4239810184
 10
266.2975957474
 20
150.0064565472
 10
267.9476107412
 20
148.6347994133
 10
269.6743960896
 20
147.3112344496
 10
271.4751509404
 20
146.0379084833
 10
273.3469544627
 20
144.8168868538
 10
275.2867705844
 20
143.6501500627
 10
277.2914529166
 20
142.5395905612
 10
279.3577498571
 20
141.487009681
 10
281.482309865
 20
140.494114712
 10
283.6616868959
 20
139.5625161336
 10
285.8923459925
 20
138.6937250021
 10
288.1706690174
 20
137.8891504998
 10
290.4929605225
 20
137.1500976495
 10
292.8554537424
 20
136.4777651977
 10
295.2543167045
 20
135.8732436701
 10
297.6856584442
 20
135.3375136027
 10
300.1455353164
 20
134.8714439518
 10
302.6299573918
 20
134.4757906839
 10
305.1348949287
 20
134.1511955502
 10
307.6562849093
 20
133.8981850451
 10
310.1900376298
 20
133.7171695526
 10
312.732043334
 20
133.6084426805
 10
315.2781788793
 20
133.5721807841
 10
317.8243144247
 20
133.6084426805
 10
320.3663201288
 20
133.7171695526
 10
322.9000728493
 20
133.8981850451
 10
325.4214628299
 20
134.1511955502
 10
327.9264003668
 20
134.4757906839
 10
330.4108224422
 20
134.8714439518
 10
332.8706993144
 20
135.3375136027
 10
335.3020410542
 20
135.8732436701
 10
337.7009040162
 20
136.4777651977
 10
340.0633972361
 20
137.1500976495
 10
342.3856887412
 20
137.8891504998
 10
344.6640117662
 20
138.6937250021
 10
346.8946708627
 20
139.5625161336
 10
349.0740478937
 20
140.494114712
 10
351.1986079015
 20
141.487009681
 10
353.2649048421
 20
142.5395905612
 10
355.2695871742
 20
143.6501500627
 10
357.2094032959
 20
144.8168868539
 10
359.0812068182
 20
146.0379084833
 10
360.881961669
 20
147.3112344496
 10
362.6087470174
 20
148.6347994133
 10
364.2587620112
 20
150.0064565472
 10
365.82933032
 20
151.4239810184
 10
367.3179044763
 20
152.885073597
 10
368.7220700074
 20
154.3873643856
 10
370.0395493517
 20
155.9284166629
 10
371.2682055528
 20
157.5057308366
 10
372.4060457259
 20
159.1167484973
 10
373.45122429
 20
160.7588565684
 10
374.4020459618
 20
162.4293915447
 10
375.2569685049
 20
164.1256438123
 10
376.0146052319
 20
165.8448620439
 10
376.6737272533
 20
167.5842576611
 10
377.2332654708
 20
169.341009358
 10
377.6923123112
 20
171.1122676768
 10
378.0501231989
 20
172.89515963
 10
378.3061177634
 20
174.6867933605
 10
378.4598807805
 20
176.4842628318
 10
378.5111628461
 20
178.2846525417
  0
LWPOLYLINE
  5
2AD
330
1F
100
AcDbEntity
  8
0
  6
Continuous
 62
     7
370
    25
100
AcDbPolyline
 90
       61
 70
   128
 43
0.0
 10
378.0684351515
 20
150.7868154989
 10
377.8964244671
 20
150.5394306114
 10
376.6629257624
 20
148.8595581167
 10
375.3393364768
 20
147.2143265747
 10
373.9275991601
 20
145.6061505894
 10
372.4297857315
 20
144.0373903808
 10
370.8480944387
 20
142.5103483209
 10
369.1848466319
 20
141.0272655546
 10
367.4424833564
 20
139.5903187102
 10
365.6235617708
 20
138.2016167054
 10
363.7307513933
 20
136.8631976519
 10
361.766830184
 20
135.5770258643
 10
359.7346804682
 20
134.3449889769
 10
357.6372847059
 20
133.1688951739
 10
355.4777211145
 20
132.050470535
 10
353.2591591515
 20
130.9913565027
 10
350.9848548623
 20
129.9931074728
 10
348.6581461023
 20
129.0571885135
 10
346.2824476374
 20
128.1849732148
 10
343.8612461325
 20
127.3777416731
 10
341.398095035
 20
126.6366786118
 10
338.8966093586
 20
125.9628716433
 10
336.3604603785
 20
125.3573096722
 10
333.7933702431
 20
124.8208814442
 10
331.1991065112
 20
124.3543742417
 10
328.5814766225
 20
123.9584727283
 10
325.9443223098
 20
123.6337579441
 10
323.2915139608
 20
123.3807064528
 10
320.6269449376
 20
123.1996896424
 10
317.9545258626
 20
123.0909731801
 10
315.2781788793
 20
123.0547166221
 10
312.601831896
 20
123.0909731801
 10
309.929412821
 20
123.1996896424
 10
307.2648437978
 20
123.3807064528
 10
304.6120354488
 20
123.6337579441
 10
301.9748811362
 20
123.9584727283
 10
299.3572512475
 20
124.3543742417
 10
296.7629875155
 20
124.8208814442
 10
294.1958973801
 20
125.3573096722
 10
291.6597484
 20
125.9628716433
 10
289.1582627236
 20
126.6366786118
 10
286.6951116261
 20
127.3777416731
 10
284.2739101213
 20
128.1849732148
 10
281.8982116563
 20
129.0571885135
 10
279.5715028963
 20
129.9931074728
 10
277.2971986072
 20
130.9913565027
 10
275.0786366441
 20
132.050470535
 10
272.9190730527
 20
133.1688951739
 10
270.8216772904
 20
134.3449889769
 10
268.7895275746
 20
135.5770258643
 10
266.8256063654
 20
136.8631976519
 10
264.9327959878
 20
138.2016167054
 10
263.1138744022
 20
139.5903187102
 10
261.3715111267
 20
141.0272655546
 10
259.7082633199
 20
142.5103483209
 10
258.1265720271
 20
144.0373903808
 10
256.6287585985
 20
145.6061505894
 10
255.2170212818
 20
147.2143265747
 10
253.8934319962
 20
148.8595581167
 10
252.6599332915
 20
150.5394306114
 10
252.4879226071
 20
150.7868154989
  0
LWPOLYLINE
  5
2AE
330
1F
100
AcDbEntity
  8
0
  6
Continuous
 62
     7
370
    25
100
AcDbPolyline
 90
       79
 70
   128
 43
0.0
 10
245.3013807937
 20
166.6049477627
 10
245.6042005201
 20
164.7415892039
 10
246.0103485094
 20
162.8707504251
 10
246.5169282306
 20
161.0122014417
 10
247.1232051916
 20
159.168636972
 10
247.8283003488
 20
157.3427300082
 10
248.6311913816
 20
155.5371279409
 10
249.5307141748
 20
153.7544487204
 10
250.5255645062
 20
151.9972770613
 10
251.6142999381
 20
150.2681606943
 10
252.7953419081
 20
148.569606673
 10
254.0669780183
 20
146.9040777383
 10
255.4273645179
 20
145.2739887479
 10
256.8745289766
 20
143.6817031751
 10
258.4063731441
 20
142.1295296816
 10
260.020675993
 20
140.6197187706
 10
261.7150969384
 20
139.1544595237
 10
263.4871792319
 20
137.7358764266
 10
265.3343535236
 20
136.3660262893
 10
267.2539415875
 20
135.0468952635
 10
269.2431602042
 20
133.780395963
 10
271.299125197
 20
132.5683646907
 10
273.4188556132
 20
131.4125587762
 10
275.5992780464
 20
130.3146540275
 10
277.8372310924
 20
129.2762423016
 10
280.1294699334
 20
128.2988291961
 10
282.472671042
 20
127.3838318666
 10
284.8634370008
 20
126.5325769718
 10
287.2983014277
 20
125.7462987499
 10
289.7737340019
 20
125.0261372291
 10
292.2861455829
 20
124.3731365749
 10
294.8318934142
 20
123.7882435757
 10
297.4072864047
 20
123.2723062704
 10
300.0085904809
 20
122.8260727189
 10
302.6320340004
 20
122.4501899171
 10
305.273813221
 20
122.1452028592
 10
307.9300978154
 20
121.9115537471
 10
310.5970364248
 20
121.7495813499
 10
313.2707622433
 20
121.6595205119
 10
315.947398624
 20
121.6415018129
 10
318.6230647001
 20
121.6955513781
 10
321.2938810114
 20
121.8215908409
 10
323.9559751298
 20
122.0194374561
 10
326.6054872733
 20
122.2888043651
 10
329.2385759024
 20
122.6293010115
 10
331.8514232906
 20
123.0404337078
 10
334.4402410587
 20
123.5216063509
 10
337.0012756686
 20
124.0721212864
 10
339.5308138649
 20
124.6911803204
 10
342.025188059
 20
125.3778858763
 10
344.4807816469
 20
126.1312422969
 10
346.8940342525
 20
126.9501572872
 10
349.2614468904
 20
127.8334434989
 10
351.5795870384
 20
128.7798202514
 10
353.8450936151
 20
129.7879153889
 10
356.0546818525
 20
130.8562672698
 10
358.2051480588
 20
131.983326886
 10
360.2933742637
 20
133.1674601089
 10
362.3163327388
 20
134.4069500583
 10
364.2710903876
 20
135.6999995925
 10
366.1548129985
 20
137.0447339132
 10
367.9647693539
 20
138.4392032842
 10
369.6983351899
 20
139.8813858583
 10
371.3529970019
 20
141.3691906085
 10
372.9263556884
 20
142.9004603602
 10
374.4161300297
 20
144.4729749187
 10
375.8201599956
 20
146.0844542882
 10
377.1364098767
 20
147.7325619776
 10
378.3629712365
 20
149.4149083884
 10
379.4980656784
 20
151.1290542792
 10
380.5400474239
 20
152.8725143022
 10
381.4874056992
 20
154.642760607
 10
382.3387669252
 20
156.4372265059
 10
383.0928967096
 20
158.2533101947
 10
383.7487016363
 20
160.0883785258
 10
384.3052308508
 20
161.9397708256
 10
384.761677439
 20
163.804802752
 10
385.117379597
 20
165.6807701873
 10
385.254976965
 20
166.6049477627
  0
LWPOLYLINE
  5
2AF
330
1F
100
AcDbEntity
  8
0
  6
Continuous
 62
     7
370
    25
100
AcDbPolyline
 90
       90
 70
   128
 43
0.0
 10
376.6698420126
 20
176.0998076892
 10
376.6187518303
 20
177.8704590263
 10
376.465566318
 20
179.638163289
 10
376.2105404378
 20
181.399978308
 10
375.8540986552
 20
183.1529717161
 10
375.3968342323
 20
184.8942258287
 10
374.8395082406
 20
186.6208425002
 10
374.1830482942
 20
188.3299479476
 10
373.428547006
 20
190.0186975336
 10
372.5772601688
 20
191.684280501
 10
371.6306046657
 20
193.3239246515
 10
370.5901561112
 20
194.9349009591
 10
369.4576462292
 20
196.5145281128
 10
368.2349599708
 20
198.060176979
 10
366.9241323766
 20
199.5692749778
 10
365.5273451896
 20
201.0393103645
 10
364.0469232244
 20
202.4678364103
 10
362.4853304971
 20
203.8524754745
 10
360.8451661248
 20
205.190922962
 10
359.1291599992
 20
206.4809511592
 10
357.3401682432
 20
207.7204129413
 10
355.4811684569
 20
208.9072453466
 10
353.5552547621
 20
210.0394730097
 10
351.565632652
 20
211.1152114493
 10
349.5156136562
 20
212.132670205
 10
347.4086098292
 20
213.0901558171
 10
345.2481280707
 20
213.9860746453
 10
343.0377642895
 20
214.8189355211
 10
340.781197418
 20
215.5873522297
 10
338.482183289
 20
216.2900458175
 10
336.1445483847
 20
216.9258467203
 10
333.7721834676
 20
217.4936967101
 10
331.369037105
 20
217.9926506569
 10
328.9391090969
 20
218.4218781009
 10
326.4864438186
 20
218.7806646354
 10
324.0151234895
 20
219.0684130956
 10
321.5292613783
 20
219.2846445527
 10
319.0329949572
 20
219.4289991107
 10
316.5304790153
 20
219.5012365058
 10
314.0258787434
 20
219.5012365058
 10
311.5233628015
 20
219.4289991107
 10
309.0270963804
 20
219.2846445527
 10
306.5412342692
 20
219.0684130956
 10
304.06991394
 20
218.7806646354
 10
301.6172486618
 20
218.4218781009
 10
299.1873206536
 20
217.9926506569
 10
296.7841742911
 20
217.4936967102
 10
294.4118093739
 20
216.9258467203
 10
292.0741744696
 20
216.2900458175
 10
289.7751603406
 20
215.5873522298
 10
287.5185934691
 20
214.8189355211
 10
285.3082296879
 20
213.9860746453
 10
283.1477479295
 20
213.0901558171
 10
281.0407441024
 20
212.132670205
 10
278.9907251067
 20
211.1152114493
 10
277.0011029966
 20
210.0394730097
 10
275.0751893017
 20
208.9072453467
 10
273.2161895154
 20
207.7204129414
 10
271.4271977594
 20
206.4809511592
 10
269.7111916338
 20
205.1909229621
 10
268.0710272615
 20
203.8524754745
 10
266.5094345343
 20
202.4678364104
 10
265.029012569
 20
201.0393103646
 10
263.632225382
 20
199.5692749779
 10
262.3213977878
 20
198.0601769791
 10
261.0987115294
 20
196.5145281128
 10
259.9662016475
 20
194.9349009592
 10
258.925753093
 20
193.3239246515
 10
257.9790975898
 20
191.6842805011
 10
257.1278107526
 20
190.0186975336
 10
256.3733094644
 20
188.3299479477
 10
255.7168495181
 20
186.6208425003
 10
255.1595235264
 20
184.8942258287
 10
254.7022591035
 20
183.1529717161
 10
254.3458173208
 20
181.399978308
 10
254.0907914406
 20
179.638163289
 10
253.9376059283
 20
177.8704590263
 10
253.886515746
 20
176.0998076892
 10
253.9376059283
 20
174.3291563521
 10
254.0907914406
 20
172.5614520894
 10
254.3458173208
 20
170.7996370704
 10
254.7022591035
 20
169.0466436623
 10
255.1595235264
 20
167.3053895497
 10
255.7168495181
 20
165.5787728781
 10
256.3733094644
 20
163.8696674307
 10
257.1278107526
 20
162.1809178448
 10
257.9790975898
 20
160.5153348773
 10
258.925753093
 20
158.8756907269
 10
259.9662016475
 20
157.2647144193
 10
260.1468781932
 20
157.0016927701
  0
ARC
  5
2B0
330
1F
100
AcDbEntity
  8
0
  6
Continuous
 62
     7
370
    25
100
AcDbCircle
 10
343.0900291878
 20
176.5321400691
 30
0.0
 40
33.58259579958556
100
AcDbArc
 50
324.4393396679
 51
359.2623707489
  0
LWPOLYLINE
  5
2B1
330
1F
100
AcDbEntity
  8
0
  6
Continuous
 62
     7
370
    25
100
AcDbPolyline
 90
       83
 70
   128
 43
0.0
 10
245.001172085
 20
168.2650863936
 10
245.0954087703
 20
166.625092521
 10
245.2990731386
 20
164.7378256498
 10
245.6042005201
 20
162.857409613
 10
246.0103485094
 20
160.9865708343
 10
246.5169282306
 20
159.1280218509
 10
247.1232051916
 20
157.2844573811
 10
247.8283003488
 20
155.4585504173
 10
248.6311913816
 20
153.65294835
 10
249.5307141748
 20
151.8702691296
 10
250.5255645062
 20
150.1130974704
 10
251.6142999381
 20
148.3839811035
 10
252.7953419081
 20
146.6854270822
 10
254.0669780183
 20
145.0198981475
 10
255.4273645179
 20
143.3898091571
 10
256.8745289766
 20
141.7975235842
 10
258.4063731441
 20
140.2453500907
 10
260.020675993
 20
138.7355391797
 10
261.7150969384
 20
137.2702799328
 10
263.4871792319
 20
135.8516968358
 10
265.3343535236
 20
134.4818466984
 10
267.2539415874
 20
133.1627156726
 10
269.2431602042
 20
131.8962163721
 10
271.299125197
 20
130.6841850999
 10
273.4188556132
 20
129.5283791853
 10
275.5992780464
 20
128.4304744366
 10
277.8372310924
 20
127.3920627107
 10
280.1294699334
 20
126.4146496052
 10
282.472671042
 20
125.4996522757
 10
284.8634370008
 20
124.6483973809
 10
287.2983014277
 20
123.862119159
 10
289.7737340019
 20
123.1419576383
 10
292.2861455829
 20
122.488956984
 10
294.8318934142
 20
121.9040639848
 10
297.4072864047
 20
121.3881266796
 10
300.0085904809
 20
120.941893128
 10
302.6320340004
 20
120.5660103262
 10
305.273813221
 20
120.2610232683
 10
307.9300978154
 20
120.0273741562
 10
310.5970364248
 20
119.865401759
 10
313.2707622433
 20
119.775340921
 10
315.947398624
 20
119.757322222
 10
318.6230647001
 20
119.8113717872
 10
321.2938810114
 20
119.93741125
 10
323.9559751298
 20
120.1352578653
 10
326.6054872733
 20
120.4046247742
 10
329.2385759024
 20
120.7451214206
 10
331.8514232906
 20
121.1562541169
 10
334.4402410587
 20
121.63742676
 10
337.0012756686
 20
122.1879416956
 10
339.5308138649
 20
122.8070007295
 10
342.025188059
 20
123.4937062855
 10
344.4807816469
 20
124.247062706
 10
346.8940342525
 20
125.0659776964
 10
349.2614468904
 20
125.9492639081
 10
351.5795870384
 20
126.8956406606
 10
353.8450936151
 20
127.9037357981
 10
356.0546818525
 20
128.972087679
 10
358.2051480588
 20
130.0991472952
 10
360.2933742637
 20
131.283280518
 10
362.3163327388
 20
132.5227704675
 10
364.2710903876
 20
133.8158200017
 10
366.1548129986
 20
135.1605543224
 10
367.9647693539
 20
136.5550236934
 10
369.6983351899
 20
137.9972062674
 10
371.3529970019
 20
139.4850110176
 10
372.9263556884
 20
141.0162807693
 10
374.4161300298
 20
142.5887953278
 10
375.8201599956
 20
144.2002746973
 10
377.1364098767
 20
145.8483823867
 10
378.3629712365
 20
147.5307287976
 10
379.4980656784
 20
149.2448746883
 10
380.540047424
 20
150.9883347113
 10
381.4874056992
 20
152.7585810162
 10
382.3387669252
 20
154.553046915
 10
383.0928967096
 20
156.3691306039
 10
383.7487016363
 20
158.204198935
 10
384.3052308508
 20
160.0555912347
 10
384.761677439
 20
161.9206231612
 10
385.117379597
 20
163.7965905964
 10
385.3718215907
 20
165.680773567
 10
385.5246345035
 20
167.5704401878
 10
385.5551856736
 20
168.2650863936
  0
LINE
  5
2B2
330
1F
100
AcDbEntity
  8
0
  6
Continuous
 62
     7
370
    25
100
AcDbLine
 10
385.5755967712
 20
168.1745039027
 30
0.0
 11
385.5749212452
 21
168.3924201831
 31
0.0
  0
LWPOLYLINE
  5
2B3
330
1F
100
AcDbEntity
  8
0
  6
Continuous
 62
     7
370
    25
100
AcDbPolyline
 90
       85
 70
   128
 43
0.0
 10
244.9814365135
 20
168.3924201831
 10
244.9935027091
 20
167.2281271502
 10
245.0954087703
 20
165.336745801
 10
245.2990731386
 20
163.4494789298
 10
245.6042005201
 20
161.569062893
 10
246.0103485094
 20
159.6982241143
 10
246.5169282306
 20
157.8396751308
 10
247.1232051916
 20
155.9961106611
 10
247.8283003488
 20
154.1702036973
 10
248.6311913816
 20
152.36460163
 10
249.5307141748
 20
150.5819224096
 10
250.5255645062
 20
148.8247507504
 10
251.6142999381
 20
147.0956343835
 10
252.7953419081
 20
145.3970803622
 10
254.0669780183
 20
143.7315514274
 10
255.4273645179
 20
142.1014624371
 10
256.8745289766
 20
140.5091768642
 10
258.4063731441
 20
138.9570033707
 10
260.020675993
 20
137.4471924597
 10
261.7150969384
 20
135.9819332128
 10
263.4871792319
 20
134.5633501158
 10
265.3343535236
 20
133.1934999784
 10
267.2539415875
 20
131.8743689526
 10
269.2431602042
 20
130.6078696521
 10
271.299125197
 20
129.3958383798
 10
273.4188556132
 20
128.2400324653
 10
275.5992780464
 20
127.1421277166
 10
277.8372310924
 20
126.1037159907
 10
280.1294699334
 20
125.1263028852
 10
282.472671042
 20
124.2113055557
 10
284.8634370008
 20
123.3600506609
 10
287.2983014277
 20
122.573772439
 10
289.7737340019
 20
121.8536109183
 10
292.2861455829
 20
121.200610264
 10
294.8318934142
 20
120.6157172648
 10
297.4072864047
 20
120.0997799596
 10
300.0085904809
 20
119.653546408
 10
302.6320340004
 20
119.2776636062
 10
305.273813221
 20
118.9726765483
 10
307.9300978154
 20
118.7390274362
 10
310.5970364248
 20
118.577055039
 10
313.2707622433
 20
118.486994201
 10
315.947398624
 20
118.468975502
 10
318.6230647001
 20
118.5230250672
 10
321.2938810114
 20
118.64906453
 10
323.9559751298
 20
118.8469111453
 10
326.6054872733
 20
119.1162780542
 10
329.2385759024
 20
119.4567747006
 10
331.8514232906
 20
119.8679073969
 10
334.4402410587
 20
120.34908004
 10
337.0012756686
 20
120.8995949756
 10
339.5308138649
 20
121.5186540095
 10
342.025188059
 20
122.2053595655
 10
344.4807816469
 20
122.958715986
 10
346.8940342525
 20
123.7776309764
 10
349.2614468904
 20
124.6609171881
 10
351.5795870384
 20
125.6072939406
 10
353.8450936151
 20
126.6153890781
 10
356.0546818525
 20
127.683740959
 10
358.2051480588
 20
128.8108005752
 10
360.2933742637
 20
129.994933798
 10
362.3163327387
 20
131.2344237475
 10
364.2710903876
 20
132.5274732816
 10
366.1548129985
 20
133.8722076023
 10
367.9647693539
 20
135.2666769733
 10
369.6983351899
 20
136.7088595474
 10
371.3529970019
 20
138.1966642976
 10
372.9263556884
 20
139.7279340493
 10
374.4161300297
 20
141.3004486078
 10
375.8201599956
 20
142.9119279773
 10
377.1364098767
 20
144.5600356667
 10
378.3629712365
 20
146.2423820775
 10
379.4980656784
 20
147.9565279683
 10
380.5400474239
 20
149.6999879913
 10
381.4874056992
 20
151.4702342962
 10
382.3387669252
 20
153.264700195
 10
383.0928967096
 20
155.0807838839
 10
383.7487016362
 20
156.915852215
 10
384.3052308508
 20
158.7672445147
 10
384.761677439
 20
160.6322764412
 10
385.117379597
 20
162.5082438764
 10
385.3718215907
 20
164.392426847
 10
385.5246345034
 20
166.2820934678
 10
385.5755967712
 20
168.1745039027
 10
385.5755967712
 20
168.1745039027
  0
LWPOLYLINE
  5
2B4
330
1F
100
AcDbEntity
  8
0
  6
Continuous
 62
     7
370
    25
100
AcDbPolyline
 90
        3
 70
   128
 43
0.0
 10
275.4254268016
 20
131.9456789561
 10
276.2824875379
 20
131.4978895824
 10
277.1707934528
 20
131.0493765696
  0
LWPOLYLINE
  5
2B5
330
1F
100
AcDbEntity
  8
0
  6
Continuous
 62
     7
370
    25
100
AcDbPolyline
 90
        3
 70
   128
 43
0.0
 10
353.3855643058
 20
131.0493765696
 10
354.2738702207
 20
131.4978895824
 10
355.130930957
 20
131.9456789561
  0
LINE
  5
2B6
330
1F
100
AcDbEntity
  8
0
  6
Continuous
 62
     7
370
    25
100
AcDbLine
 10
357.9715359081
 20
133.415845241
 30
0.0
 11
356.554585219
 21
132.5969365815
 31
0.0
  0
LINE
  5
2B7
330
1F
100
AcDbEntity
  8
0
  6
Continuous
 62
     7
370
    25
100
AcDbLine
 10
274.0017725396
 20
132.5969365815
 30
0.0
 11
272.5848218505
 21
133.415845241
 31
0.0
  0
LINE
  5
2B8
330
1F
100
AcDbEntity
  8
0
  6
Continuous
 62
     7
370
    25
100
AcDbLine
 10
267.169636717
 20
136.6939901664
 30
0.0
 11
268.1126528193
 21
136.0092099955
 31
0.0
  0
LINE
  5
2B9
330
1F
100
AcDbEntity
  8
0
  6
Continuous
 62
     7
370
    25
100
AcDbLine
 10
362.4437049393
 20
136.0092099955
 30
0.0
 11
363.3867210416
 21
136.6939901664
 31
0.0
  0
LWPOLYLINE
  5
2BA
330
1F
100
AcDbEntity
  8
0
  6
Continuous
 62
     7
370
    25
100
AcDbPolyline
 90
        3
 70
   128
 43
0.0
 10
364.6650187654
 20
137.5736317794
 10
364.1244823601
 20
137.1551210999
 10
363.8237329363
 20
136.9265907981
  0
LWPOLYLINE
  5
2BB
330
1F
100
AcDbEntity
  8
0
  6
Continuous
 62
     7
370
    25
100
AcDbPolyline
 90
        3
 70
   128
 43
0.0
 10
266.7326248224
 20
136.9265907981
 10
266.4318753985
 20
137.1551210999
 10
265.8913389932
 20
137.5736317794
  0
ARC
  5
2BC
330
1F
100
AcDbEntity
  8
0
  6
Continuous
 62
     7
370
    25
100
AcDbCircle
 10
285.7779935773
 20
172.0080629773
 30
0.0
 40
31.90642073123569
100
AcDbArc
 50
159.7334567465
 51
176.0830141447
  0
ARC
  5
2BD
330
1F
100
AcDbEntity
  8
0
  6
Continuous
 62
     7
370
    25
100
AcDbCircle
 10
344.529035225
 20
171.935193584
 30
0.0
 40
32.16556018857061
100
AcDbArc
 50
7.6511524206
 51
20.2344676599
  0
LWPOLYLINE
  5
2BE
330
1F
100
AcDbEntity
  8
0
  6
Continuous
 62
     7
370
    25
100
AcDbPolyline
 90
       81
 70
   128
 43
0.0
 10
375.2076058055
 20
170.7781036204
 10
375.1564115951
 20
172.529311564
 10
375.0029164287
 20
174.2775275983
 10
374.74738255
 20
176.0197649254
 10
374.3902465344
 20
177.7530469621
 10
373.9321185427
 20
179.4744124251
 10
373.3737812791
 20
181.1809203904
 10
372.7161886533
 20
182.8696553177
 10
371.9604641513
 20
184.5377320318
 10
371.1078989157
 20
186.1823006516
 10
370.15994954
 20
187.8005514591
 10
369.1182355797
 20
189.3897197
 10
367.9845367857
 20
190.9470903071
 10
366.7607900633
 20
192.4700025387
 10
365.4490861634
 20
193.955854525
 10
364.0516661099
 20
195.4021077126
 10
362.5709173716
 20
196.8062912022
 10
361.009369783
 20
198.16600597
 10
359.3696912218
 20
199.478928966
 10
357.6546830514
 20
200.7428170834
 10
355.8672753345
 20
201.9555109905
 10
354.0105218271
 20
203.1149388201
 10
352.0875947616
 20
204.2191197092
 10
350.1017794264
 20
205.2661671832
 10
348.0564685539
 20
206.2542923792
 10
345.9551565233
 20
207.1818071018
 10
343.801433391
 20
208.0471267076
 10
341.5989787568
 20
208.8487728127
 10
339.3515554776
 20
209.585375818
 10
337.0630032383
 20
210.2556772498
 10
334.737231992
 20
210.8585319093
 10
332.3782152798
 20
211.3929098294
 10
329.9899834423
 20
211.8578980344
 10
327.5766167335
 20
212.2527020997
 10
325.14223835
 20
212.5766475092
 10
322.6910073863
 20
212.8291808076
 10
320.2271117294
 20
213.0098705461
 10
317.7547609038
 20
213.1184080192
 10
315.2781788793
 20
213.1546077924
 10
312.8015968548
 20
213.1184080192
 10
310.3292460292
 20
213.0098705461
 10
307.8653503724
 20
212.8291808076
 10
305.4141194086
 20
212.5766475092
 10
302.9797410251
 20
212.2527020997
 10
300.5663743163
 20
211.8578980343
 10
298.1781424788
 20
211.3929098294
 10
295.8191257667
 20
210.8585319093
 10
293.4933545203
 20
210.2556772498
 10
291.204802281
 20
209.585375818
 10
288.9573790018
 20
208.8487728127
 10
286.7549243676
 20
208.0471267076
 10
284.6012012353
 20
207.1818071017
 10
282.4998892047
 20
206.2542923792
 10
280.4545783322
 20
205.2661671832
 10
278.4687629971
 20
204.2191197091
 10
276.5458359315
 20
203.1149388201
 10
274.6890824241
 20
201.9555109905
 10
272.9016747072
 20
200.7428170834
 10
271.1866665368
 20
199.478928966
 10
269.5469879756
 20
198.16600597
 10
267.985440387
 20
196.8062912022
 10
266.5046916487
 20
195.4021077125
 10
265.1072715953
 20
193.9558545249
 10
263.7955676953
 20
192.4700025387
 10
262.5718209729
 20
190.9470903071
 10
261.4381221789
 20
189.3897197
 10
260.3964082186
 20
187.800551459
 10
259.4484588429
 20
186.1823006515
 10
258.5958936073
 20
184.5377320317
 10
257.8401691053
 20
182.8696553177
 10
257.1825764795
 20
181.1809203903
 10
256.6242392159
 20
179.474412425
 10
256.1661112243
 20
177.7530469621
 10
255.8089752087
 20
176.0197649254
 10
255.5534413299
 20
174.2775275983
 10
255.3999461635
 20
172.529311564
 10
255.3487519532
 20
170.7781036203
 10
255.3999461635
 20
169.0268956766
 10
255.5534413299
 20
167.2786796424
 10
255.8089752087
 20
165.5364423153
 10
255.8881838299
 20
165.1051546637
  0
ARC
  5
2BF
330
1F
100
AcDbEntity
  8
0
  6
Continuous
 62
     7
370
    25
100
AcDbCircle
 10
344.9658602337
 20
170.7916227376
 30
0.0
 40
30.24174859346285
100
AcDbArc
 50
349.1619442638
 51
359.9743867857
  0
LWPOLYLINE
  5
2C0
330
1F
100
AcDbEntity
  8
0
  6
Continuous
 62
     8
370
    18
100
AcDbPolyline
 90
      166
 70
   128
 43
0.0
 10
385.5755967712
 20
178.0254978324
 10
385.5246345035
 20
179.9179082673
 10
385.3718215908
 20
181.8075748881
 10
385.1173795971
 20
183.6917578587
 10
384.7616774391
 20
185.567725294
 10
384.3052308509
 20
187.4327572204
 10
383.7487016363
 20
189.2841495202
 10
383.0928967096
 20
191.1192178513
 10
382.3387669252
 20
192.9353015401
 10
381.4874056992
 20
194.729767439
 10
380.540047424
 20
196.5000137438
 10
379.4980656785
 20
198.2434737668
 10
378.3629712366
 20
199.9576196576
 10
377.1364098767
 20
201.6399660684
 10
375.8201599957
 20
203.2880737579
 10
374.4161300298
 20
204.8995531273
 10
372.9263556884
 20
206.4720676858
 10
371.3529970019
 20
208.0033374376
 10
369.6983351899
 20
209.4911421878
 10
367.9647693539
 20
210.9333247618
 10
366.1548129986
 20
212.3277941328
 10
364.2710903877
 20
213.6725284535
 10
362.3163327388
 20
214.9655779877
 10
360.2933742637
 20
216.2050679372
 10
358.2051480589
 20
217.38920116
 10
356.0546818525
 20
218.5162607762
 10
353.8450936152
 20
219.5846126571
 10
351.5795870385
 20
220.5927077946
 10
349.2614468904
 20
221.5390845471
 10
346.8940342525
 20
222.4223707588
 10
344.4807816469
 20
223.2412857492
 10
342.025188059
 20
223.9946421697
 10
339.5308138649
 20
224.6813477257
 10
337.0012756686
 20
225.3004067596
 10
334.4402410587
 20
225.8509216951
 10
331.8514232906
 20
226.3320943382
 10
329.2385759025
 20
226.7432270345
 10
326.6054872733
 20
227.0837236809
 10
323.9559751299
 20
227.3530905899
 10
321.2938810115
 20
227.5509372051
 10
318.6230647001
 20
227.6769766679
 10
315.947398624
 20
227.7310262332
 10
313.2707622433
 20
227.7130075341
 10
310.5970364248
 20
227.6229466962
 10
307.9300978154
 20
227.4609742989
 10
305.273813221
 20
227.2273251869
 10
302.6320340004
 20
226.9223381289
 10
300.0085904809
 20
226.5464553271
 10
297.4072864047
 20
226.1002217756
 10
294.8318934142
 20
225.5842844703
 10
292.2861455829
 20
224.9993914711
 10
289.7737340019
 20
224.3463908169
 10
287.2983014276
 20
223.6262292961
 10
284.8634370008
 20
222.8399510742
 10
282.472671042
 20
221.9886961794
 10
280.1294699333
 20
221.07369885
 10
277.8372310924
 20
220.0962857445
 10
275.5992780464
 20
219.0578740185
 10
273.4188556132
 20
217.9599692698
 10
271.299125197
 20
216.8041633553
 10
269.2431602041
 20
215.5921320831
 10
267.2539415874
 20
214.3256327826
 10
265.3343535236
 20
213.0065017567
 10
263.4871792318
 20
211.6366516194
 10
261.7150969383
 20
210.2180685223
 10
260.0206759929
 20
208.7528092754
 10
258.4063731441
 20
207.2429983645
 10
256.8745289765
 20
205.690824871
 10
255.4273645179
 20
204.0985392981
 10
254.0669780183
 20
202.4684503077
 10
252.795341908
 20
200.802921373
 10
251.614299938
 20
199.1043673517
 10
250.5255645061
 20
197.3752509847
 10
249.5307141747
 20
195.6180793256
 10
248.6311913815
 20
193.8354001051
 10
247.8283003488
 20
192.0297980378
 10
247.1232051916
 20
190.203891074
 10
246.5169282305
 20
188.3603266043
 10
246.0103485093
 20
186.5017776208
 10
245.60420052
 20
184.6309388421
 10
245.2990731385
 20
182.7505228053
 10
245.0954087702
 20
180.8632559341
 10
244.993502709
 20
178.9718745849
 10
244.993502709
 20
177.0791210799
 10
245.0954087702
 20
175.1877397307
 10
245.2990731385
 20
173.3004728594
 10
245.60420052
 20
171.4200568227
 10
246.0103485093
 20
169.5492180439
 10
246.5169282305
 20
167.6906690605
 10
247.1232051916
 20
165.8471045907
 10
247.8283003488
 20
164.0211976269
 10
248.6311913815
 20
162.2155955596
 10
249.5307141747
 20
160.4329163392
 10
250.5255645061
 20
158.67574468
 10
251.614299938
 20
156.9466283131
 10
252.795341908
 20
155.2480742918
 10
254.0669780183
 20
153.582545357
 10
255.4273645179
 20
151.9524563667
 10
256.8745289765
 20
150.3601707938
 10
258.4063731441
 20
148.8079973003
 10
260.0206759929
 20
147.2981863893
 10
261.7150969383
 20
145.8329271424
 10
263.4871792318
 20
144.4143440454
 10
265.3343535236
 20
143.044493908
 10
267.2539415874
 20
141.7253628822
 10
269.2431602041
 20
140.4588635817
 10
271.299125197
 20
139.2468323094
 10
273.4188556132
 20
138.0910263949
 10
275.5992780464
 20
136.9931216462
 10
277.8372310924
 20
135.9547099203
 10
280.1294699333
 20
134.9772968148
 10
282.472671042
 20
134.0622994853
 10
284.8634370008
 20
133.2110445905
 10
287.2983014276
 20
132.4247663686
 10
289.7737340019
 20
131.7046048478
 10
292.2861455829
 20
131.0516041936
 10
294.8318934142
 20
130.4667111944
 10
297.4072864047
 20
129.9507738891
 10
300.0085904809
 20
129.5045403376
 10
302.6320340004
 20
129.1286575358
 10
305.273813221
 20
128.8236704778
 10
307.9300978154
 20
128.5900213658
 10
310.5970364248
 20
128.4280489686
 10
313.2707622433
 20
128.3379881306
 10
315.947398624
 20
128.3199694316
 10
318.6230647001
 20
128.3740189968
 10
321.2938810115
 20
128.5000584596
 10
323.9559751299
 20
128.6979050748
 10
326.6054872733
 20
128.9672719838
 10
329.2385759025
 20
129.3077686302
 10
331.8514232906
 20
129.7189013265
 10
334.4402410587
 20
130.2000739696
 10
337.0012756686
 20
130.7505889051
 10
339.5308138649
 20
131.3696479391
 10
342.025188059
 20
132.056353495
 10
344.4807816469
 20
132.8097099156
 10
346.8940342525
 20
133.6286249059
 10
349.2614468904
 20
134.5119111176
 10
351.5795870385
 20
135.4582878701
 10
353.8450936152
 20
136.4663830076
 10
356.0546818525
 20
137.5347348885
 10
358.2051480589
 20
138.6617945047
 10
360.2933742637
 20
139.8459277276
 10
362.3163327388
 20
141.085417677
 10
364.2710903877
 20
142.3784672112
 10
366.1548129986
 20
143.7232015319
 10
367.9647693539
 20
145.1176709029
 10
369.6983351899
 20
146.559853477
 10
371.3529970019
 20
148.0476582272
 10
372.9263556885
 20
149.5789279789
 10
374.4161300298
 20
151.1514425374
 10
375.8201599957
 20
152.7629219069
 10
377.1364098767
 20
154.4110295963
 10
378.3629712366
 20
156.0933760072
 10
379.4980656785
 20
157.8075218979
 10
380.540047424
 20
159.5509819209
 10
381.4874056992
 20
161.3212282258
 10
382.3387669253
 20
163.1156941246
 10
383.0928967096
 20
164.9317778135
 10
383.7487016363
 20
166.7668461446
 10
384.3052308509
 20
168.6182384443
 10
384.7616774391
 20
170.4832703708
 10
385.1173795971
 20
172.359237806
 10
385.3718215908
 20
174.2434207766
 10
385.5246345035
 20
176.1330873974
 10
385.5755967712
 20
178.0254978324
  0
LWPOLYLINE
  5
2C1
330
1F
100
AcDbEntity
  8
0
  6
Continuous
 62
     8
370
    18
100
AcDbPolyline
 90
      162
 70
   128
 43
0.0
 10
315.2781788793
 20
226.8612698316
 10
317.9070681803
 20
226.8249924091
 10
320.5319541165
 20
226.7162153861
 10
323.1488394196
 20
226.5351044122
 10
325.753739005
 20
226.2819352894
 10
328.3426860403
 20
225.9570935526
 10
330.9117379862
 20
225.5610738821
 10
333.4569826004
 20
225.0944793506
 10
335.9745438951
 20
224.5580205046
 10
338.4605880398
 20
223.9525142824
 10
340.9113291993
 20
223.2788827701
 10
343.323035299
 20
222.5381517974
 10
345.6920337085
 20
221.7314493754
 10
348.0147168339
 20
220.8600039788
 10
350.287547612
 20
219.9251426752
 10
352.5070648962
 20
218.9282891041
 10
354.6698887281
 20
217.8709613092
 10
356.7727254835
 20
216.7547694262
 10
358.8123728891
 20
215.5814132312
 10
360.7857248982
 20
214.3526795522
 10
362.6897764212
 20
213.070439548
 10
364.5216279018
 20
211.7366458584
 10
366.2784897323
 20
210.3533296314
 10
367.957686502
 20
208.9225974292
 10
369.5566610711
 20
207.4466280212
 10
371.0729784651
 20
205.9276690652
 10
372.5043295828
 20
204.3680336851
 10
373.8485347125
 20
202.7700969485
 10
375.1035468515
 20
201.1362922492
 10
376.2674548234
 20
199.4691076025
 10
377.3384861882
 20
197.7710818555
 10
378.315009942
 20
196.0448008213
 10
379.1955390001
 20
194.2928933413
 10
379.9787324619
 20
192.5180272814
 10
380.6633976531
 20
190.72290547
 10
381.2484919415
 20
188.9102615815
 10
381.733124325
 20
187.0828559735
 10
382.1165567884
 20
185.2434714833
 10
382.3982054273
 20
183.3949091901
 10
382.5776413373
 20
181.5399841493
 10
382.6545912672
 20
179.6815211058
 10
382.6289380348
 20
177.8223501923
 10
382.5007207058
 20
175.9653026194
 10
382.2701345341
 20
174.1132063643
 10
381.9375306643
 20
172.2688818639
 10
381.5034155973
 20
170.4351377203
 10
380.9684504187
 20
168.6147664234
 10
380.3334497922
 20
166.8105400984
 10
379.5993807191
 20
165.0252062843
 10
378.7673610655
 20
163.2614837501
 10
377.83865786
 20
161.5220583542
 10
376.8146853645
 20
159.8095789546
 10
375.6970029201
 20
158.126653375
 10
374.4873125729
 20
156.4758444334
 10
373.1874564817
 20
154.8596660395
 10
371.7994141129
 20
153.2805793664
 10
370.3252992261
 20
151.7409891028
 10
368.7673566551
 20
150.2432397905
 10
367.1279588895
 20
148.7896122547
 10
365.4096024616
 20
147.3823201304
 10
363.6149041449
 20
146.0235064913
 10
361.7465969687
 20
144.7152405865
 10
359.8075260569
 20
143.4595146892
 10
357.8006442944
 20
142.2582410628
 10
355.7290078313
 20
141.1132490488
 10
353.5957714281
 20
140.0262822812
 10
351.404183652
 20
138.9989960312
 10
349.1575819297
 20
138.0329546861
 10
346.8593874649
 20
137.1296293677
 10
344.5131000289
 20
136.2903956914
 10
342.1222926302
 20
135.5165316716
 10
339.6906060744
 20
134.8092157756
 10
337.2217434187
 20
134.1695251289
 10
334.7194643339
 20
133.5984338747
 10
332.1875793782
 20
133.0968116909
 10
329.6299441947
 20
132.6654224652
 10
327.0504536401
 20
132.3049231324
 10
324.4530358528
 20
132.0158626735
 10
321.8416462718
 20
131.7986812797
 10
319.2202616125
 20
131.6537096827
 10
316.5928738116
 20
131.5811686502
 10
313.9634839471
 20
131.5811686502
 10
311.3360961461
 20
131.6537096827
 10
308.7147114869
 20
131.7986812797
 10
306.1033219058
 20
132.0158626735
 10
303.5059041185
 20
132.3049231324
 10
300.9264135639
 20
132.6654224652
 10
298.3687783804
 20
133.0968116909
 10
295.8368934247
 20
133.5984338747
 10
293.3346143399
 20
134.1695251289
 10
290.8657516843
 20
134.8092157756
 10
288.4340651284
 20
135.5165316716
 10
286.0432577297
 20
136.2903956914
 10
283.6969702937
 20
137.1296293677
 10
281.398775829
 20
138.0329546861
 10
279.1521741066
 20
138.9989960312
 10
276.9605863305
 20
140.0262822812
 10
274.8273499273
 20
141.1132490488
 10
272.7557134642
 20
142.2582410628
 10
270.7488317018
 20
143.4595146892
 10
268.8097607899
 20
144.7152405865
 10
266.9414536138
 20
146.0235064913
 10
265.146755297
 20
147.3823201304
 10
263.4283988691
 20
148.7896122547
 10
261.7890011035
 20
150.2432397905
 10
260.2310585325
 20
151.7409891028
 10
258.7569436457
 20
153.2805793664
 10
257.3689012769
 20
154.8596660395
 10
256.0690451857
 20
156.4758444334
 10
254.8593548385
 20
158.126653375
 10
253.7416723941
 20
159.8095789546
 10
252.7176998986
 20
161.5220583542
 10
251.7889966931
 20
163.2614837501
 10
250.9569770395
 20
165.0252062843
 10
250.2229079664
 20
166.8105400984
 10
249.58790734
 20
168.6147664234
 10
249.0529421614
 20
170.4351377203
 10
248.6188270944
 20
172.2688818639
 10
248.2862232246
 20
174.1132063643
 10
248.0556370528
 20
175.9653026194
 10
247.9274197238
 20
177.8223501923
 10
247.9017664914
 20
179.6815211058
 10
247.9787164213
 20
181.5399841493
 10
248.1581523313
 20
183.3949091901
 10
248.4398009702
 20
185.2434714833
 10
248.8232334336
 20
187.0828559735
 10
249.3078658171
 20
188.9102615815
 10
249.8929601055
 20
190.72290547
 10
250.5776252967
 20
192.5180272814
 10
251.3608187586
 20
194.2928933413
 10
252.2413478166
 20
196.0448008213
 10
253.2178715704
 20
197.7710818555
 10
254.2889029353
 20
199.4691076025
 10
255.4528109071
 20
201.1362922492
 10
256.7078230461
 20
202.7700969485
 10
258.0520281758
 20
204.3680336851
 10
259.4833792935
 20
205.9276690652
 10
260.9996966875
 20
207.4466280212
 10
262.5986712566
 20
208.9225974292
 10
264.2778680263
 20
210.3533296314
 10
266.0347298568
 20
211.7366458584
 10
267.8665813374
 20
213.070439548
 10
269.7706328604
 20
214.3526795522
 10
271.7439848695
 20
215.5814132312
 10
273.7836322751
 20
216.7547694262
 10
275.8864690305
 20
217.8709613092
 10
278.0492928624
 20
218.9282891041
 10
280.2688101467
 20
219.9251426752
 10
282.5416409247
 20
220.8600039788
 10
284.8643240501
 20
221.7314493754
 10
287.2333224596
 20
222.5381517974
 10
289.6450285594
 20
223.2788827701
 10
292.0957697189
 20
223.9525142824
 10
294.5818138635
 20
224.5580205046
 10
297.0993751582
 20
225.0944793506
 10
299.6446197724
 20
225.5610738821
 10
302.2136717183
 20
225.9570935526
 10
304.8026187536
 20
226.2819352894
 10
307.407518339
 20
226.5351044122
 10
310.0244036421
 20
226.7162153861
 10
312.6492895783
 20
226.8249924091
 10
315.2781788793
 20
226.8612698316
  0
LWPOLYLINE
  5
2C2
330
1F
100
AcDbEntity
  8
0
  6
Continuous
 62
     8
370
    18
100
AcDbPolyline
 90
      162
 70
   128
 43
0.0
 10
382.078516095
 20
179.3497758753
 10
382.0276531476
 20
177.5068519709
 10
381.8751417613
 20
175.6667345356
 10
381.6212141858
 20
173.8322257647
 10
381.2662571109
 20
172.0061193125
 10
380.8108110777
 20
170.1911960379
 10
380.2555696554
 20
168.3902197697
 10
379.6013783849
 20
166.6059330976
 10
378.8492334919
 20
164.841053196
 10
378.0002803688
 20
163.0982676858
 10
377.0558118312
 20
161.3802305418
 10
376.017266149
 20
159.6895580513
 10
374.8862248558
 20
158.0288248296
 10
373.664410341
 20
156.4005598993
 10
372.3536832266
 20
154.8072428395
 10
370.9560395338
 20
153.2513000092
 10
369.4736076433
 20
151.7351008527
 10
367.9086450544
 20
150.2609542911
 10
366.2635349471
 20
148.8311052066
 10
364.5407825525
 20
147.4477310234
 10
362.7430113384
 20
146.1129383922
 10
360.8729590139
 20
144.8287599821
 10
358.9334733602
 20
143.5971513849
 10
356.927507894
 20
142.4199881373
 10
354.8581173698
 20
141.2990628648
 10
352.7284531281
 20
140.2360825518
 10
350.5417582961
 20
139.2326659418
 10
348.3013628495
 20
138.2903410729
 10
346.0106785409
 20
137.4105429503
 10
343.6731937047
 20
136.5946113616
 10
341.2924679447
 20
135.8437888359
 10
338.8721267135
 20
135.1592187521
 10
336.4158557917
 20
134.5419435975
 10
333.9273956746
 20
133.9929033804
 10
331.4105358765
 20
133.5129341984
 10
328.8691091598
 20
133.1027669654
 10
326.3069856981
 20
132.7630262984
 10
323.7280671828
 20
132.4942295666
 10
321.1362808815
 20
132.2967861029
 10
318.5355736571
 20
132.1709965811
 10
315.9299059578
 20
132.117052558
 10
313.3232457857
 20
132.1350361814
 10
310.7195626541
 20
132.2249200653
 10
308.1228215432
 20
132.3865673312
 10
305.5369768612
 20
132.6197318171
 10
302.965966423
 20
132.9240584519
 10
300.4137054535
 20
133.2990837964
 10
297.8840806251
 20
133.7442367488
 10
295.3809441391
 20
134.2588394145
 10
292.9081078596
 20
134.8421081387
 10
290.4693375083
 20
135.4931546993
 10
288.0683469302
 20
136.2109876597
 10
285.7087924378
 20
136.9945138788
 10
283.3942672434
 20
137.8425401753
 10
281.1282959872
 20
138.7537751451
 10
278.9143293695
 20
139.7268311277
 10
276.7557388964
 20
140.7602263192
 10
274.655811745
 20
141.8523870293
 10
272.6177457581
 20
143.0016500774
 10
270.6446445739
 20
144.2062653255
 10
268.7395129002
 20
145.4643983431
 10
266.905251938
 20
146.7741332012
 10
265.1446549645
 20
148.1334753898
 10
263.4604030782
 20
149.5403548548
 10
261.8550611171
 20
150.9926291509
 10
260.3310737522
 20
152.488086704
 10
258.8907617647
 20
154.0244501788
 10
257.5363185124
 20
155.5993799471
 10
256.2698065887
 20
157.2104776509
 10
255.0931546826
 20
158.8552898539
 10
254.0081546407
 20
160.5313117785
 10
253.0164587392
 20
162.2359911198
 10
252.1195771672
 20
163.9667319323
 10
251.3188757276
 20
165.7208985833
 10
250.6155737566
 20
167.4958197664
 10
250.0107422669
 20
169.2887925692
 10
249.5053023172
 20
171.0970865901
 10
249.1000236093
 20
172.9179480955
 10
248.7955233156
 20
174.7486042136
 10
248.5922651399
 20
176.5862671572
 10
248.490558611
 20
178.4281384687
 10
248.490558611
 20
180.271413282
 10
248.5922651399
 20
182.1132845935
 10
248.7955233156
 20
183.9509475371
 10
249.1000236093
 20
185.7816036552
 10
249.5053023172
 20
187.6024651606
 10
250.0107422669
 20
189.4107591814
 10
250.6155737566
 20
191.2037319843
 10
251.3188757276
 20
192.9786531673
 10
252.1195771672
 20
194.7328198184
 10
253.0164587392
 20
196.4635606309
 10
254.0081546407
 20
198.1682399722
 10
255.0931546826
 20
199.8442618968
 10
256.2698065887
 20
201.4890740998
 10
257.5363185124
 20
203.1001718035
 10
258.8907617647
 20
204.6751015719
 10
260.3310737522
 20
206.2114650467
 10
261.8550611171
 20
207.7069225997
 10
263.4604030782
 20
209.1591968959
 10
265.1446549645
 20
210.5660763609
 10
266.905251938
 20
211.9254185495
 10
268.7395129002
 20
213.2351534076
 10
270.6446445739
 20
214.4932864252
 10
272.6177457581
 20
215.6979016732
 10
274.655811745
 20
216.8471647213
 10
276.7557388964
 20
217.9393254315
 10
278.9143293695
 20
218.972720623
 10
281.1282959872
 20
219.9457766056
 10
283.3942672434
 20
220.8570115754
 10
285.7087924378
 20
221.7050378719
 10
288.0683469302
 20
222.488564091
 10
290.4693375083
 20
223.2063970514
 10
292.9081078596
 20
223.8574436119
 10
295.3809441391
 20
224.4407123361
 10
297.8840806251
 20
224.9553150019
 10
300.4137054535
 20
225.4004679543
 10
302.965966423
 20
225.7754932988
 10
305.5369768612
 20
226.0798199336
 10
308.1228215432
 20
226.3129844195
 10
310.7195626541
 20
226.4746316854
 10
313.3232457857
 20
226.5645155693
 10
315.9299059578
 20
226.5824991927
 10
318.5355736571
 20
226.5285551696
 10
321.1362808815
 20
226.4027656478
 10
323.7280671828
 20
226.2053221841
 10
326.3069856981
 20
225.9365254522
 10
328.8691091598
 20
225.5967847853
 10
331.4105358765
 20
225.1866175523
 10
333.9273956746
 20
224.7066483703
 10
336.4158557917
 20
224.1576081532
 10
338.8721267135
 20
223.5403329986
 10
341.2924679447
 20
222.8557629148
 10
343.6731937047
 20
222.1049403891
 10
346.0106785409
 20
221.2890088004
 10
348.3013628495
 20
220.4092106778
 10
350.5417582961
 20
219.4668858089
 10
352.7284531281
 20
218.4634691989
 10
354.8581173698
 20
217.4004888858
 10
356.927507894
 20
216.2795636134
 10
358.9334733602
 20
215.1024003658
 10
360.8729590139
 20
213.8707917686
 10
362.7430113384
 20
212.5866133584
 10
364.5407825525
 20
211.2518207273
 10
366.2635349471
 20
209.8684465441
 10
367.9086450544
 20
208.4385974596
 10
369.4736076433
 20
206.964450898
 10
370.9560395338
 20
205.4482517415
 10
372.3536832266
 20
203.8923089111
 10
373.664410341
 20
202.2989918513
 10
374.8862248558
 20
200.6707269211
 10
376.017266149
 20
199.0099936994
 10
377.0558118312
 20
197.3193212089
 10
378.0002803688
 20
195.6012840649
 10
378.8492334919
 20
193.8584985547
 10
379.6013783849
 20
192.0936186531
 10
380.2555696554
 20
190.309331981
 10
380.8108110777
 20
188.5083557128
 10
381.2662571109
 20
186.6934324382
 10
381.6212141858
 20
184.867325986
 10
381.8751417613
 20
183.0328172151
 10
382.0276531476
 20
181.1926997798
 10
382.078516095
 20
179.3497758753
  0
LWPOLYLINE
  5
2C3
330
1F
100
AcDbEntity
  8
0
  6
Continuous
 62
     8
370
    18
100
AcDbPolyline
 90
       77
 70
   128
 43
0.0
 10
246.2189696325
 20
168.3632464021
 10
246.2235429303
 20
168.3422802686
 10
246.682758982
 20
166.4775305711
 10
247.2426482716
 20
164.6265867261
 10
247.9023890844
 20
162.7921652491
 10
248.6610131597
 20
160.9769584064
 10
249.5174071121
 20
159.1836302645
 10
250.4703140653
 20
157.4148127797
 10
251.5183354971
 20
155.6731019355
 10
252.6599332914
 20
153.9610539328
 10
253.8934319961
 20
152.2811814382
 10
255.2170212817
 20
150.6359498961
 10
256.6287585984
 20
149.0277739108
 10
258.126572027
 20
147.4590137022
 10
259.7082633198
 20
145.9319716424
 10
261.3715111267
 20
144.448888876
 10
263.1138744021
 20
143.0119420316
 10
264.9327959877
 20
141.6232400268
 10
266.8256063653
 20
140.2848209733
 10
268.7895275746
 20
138.9986491857
 10
270.8216772903
 20
137.7666122983
 10
272.9190730527
 20
136.5905184953
 10
275.078636644
 20
135.4720938564
 10
277.2971986071
 20
134.4129798241
 10
279.5715028962
 20
133.4147307942
 10
281.8982116563
 20
132.4788118349
 10
284.2739101212
 20
131.6065965362
 10
286.695111626
 20
130.7993649945
 10
289.1582627236
 20
130.0583019332
 10
291.6597484
 20
129.3844949647
 10
294.1958973801
 20
128.7789329936
 10
296.7629875155
 20
128.2425047656
 10
299.3572512474
 20
127.7759975631
 10
301.9748811361
 20
127.3800960497
 10
304.6120354488
 20
127.0553812655
 10
307.2648437978
 20
126.8023297742
 10
309.929412821
 20
126.6213129638
 10
312.601831896
 20
126.5125965015
 10
315.2781788793
 20
126.4763399435
 10
317.9545258626
 20
126.5125965015
 10
320.6269449376
 20
126.6213129638
 10
323.2915139608
 20
126.8023297742
 10
325.9443223098
 20
127.0553812655
 10
328.5814766225
 20
127.3800960497
 10
331.1991065112
 20
127.7759975631
 10
333.7933702431
 20
128.2425047656
 10
336.3604603785
 20
128.7789329936
 10
338.8966093586
 20
129.3844949647
 10
341.398095035
 20
130.0583019332
 10
343.8612461326
 20
130.7993649945
 10
346.2824476374
 20
131.6065965362
 10
348.6581461024
 20
132.4788118349
 10
350.9848548624
 20
133.4147307942
 10
353.2591591515
 20
134.4129798241
 10
355.4777211146
 20
135.4720938564
 10
357.637284706
 20
136.5905184953
 10
359.7346804683
 20
137.7666122983
 10
361.7668301841
 20
138.9986491857
 10
363.7307513933
 20
140.2848209733
 10
365.6235617709
 20
141.6232400268
 10
367.4424833565
 20
143.0119420316
 10
369.184846632
 20
144.448888876
 10
370.8480944388
 20
145.9319716424
 10
372.4297857316
 20
147.4590137022
 10
373.9275991602
 20
149.0277739108
 10
375.3393364769
 20
150.6359498961
 10
376.6629257625
 20
152.2811814382
 10
377.8964244672
 20
153.9610539328
 10
379.0380222615
 20
155.6731019355
 10
380.0860436933
 20
157.4148127797
 10
381.0389506465
 20
159.1836302645
 10
381.8953445989
 20
160.9769584064
 10
382.6539686742
 20
162.7921652491
 10
383.313709487
 20
164.6265867261
 10
383.8735987766
 20
166.4775305711
 10
384.3328148283
 20
168.3422802686
 10
384.3373881261
 20
168.3632464021
  0
LWPOLYLINE
  5
2C4
330
1F
100
AcDbEntity
  8
0
  6
Continuous
 62
     8
370
    18
100
AcDbPolyline
 90
      161
 70
   128
 43
0.0
 10
315.2781788793
 20
226.1794318189
 10
317.8756009373
 20
226.143364552
 10
320.4690179588
 20
226.0352183646
 10
323.0544310826
 20
225.8551600102
 10
325.6278537892
 20
225.6034671257
 10
328.1853180472
 20
225.2805278034
 10
330.7228804322
 20
224.8868399922
 10
333.2366282068
 20
224.4230107302
 10
335.7226853542
 20
223.8897552086
 10
338.1772185545
 20
223.2878956686
 10
340.5964430953
 20
222.6183601341
 10
342.9766287079
 20
221.8821809804
 10
345.3141053184
 20
221.0804933423
 10
347.6052687074
 20
220.214533364
 10
349.846586067
 20
219.2856362932
 10
352.0346014483
 20
218.2952344217
 10
354.1659410901
 20
217.2448548774
 10
356.2373186213
 20
216.1361172695
 10
358.2455401277
 20
214.970731191
 10
360.1875090774
 20
213.7504935827
 10
362.0602310951
 20
212.4772859627
 10
363.8608185791
 20
211.1530715247
 10
365.586495154
 20
209.7798921115
 10
367.2345999516
 20
208.3598650662
 10
368.8025917138
 20
206.8951799675
 10
370.288052711
 20
205.3880952537
 10
371.6886924699
 20
203.8409347403
 10
373.0023513055
 20
202.2560840365
 10
374.2270036512
 20
200.6359868674
 10
375.3607611818
 20
198.9831413052
 10
376.4018757254
 20
197.3000959181
 10
377.3487419587
 20
195.58944584
 10
378.1998998828
 20
193.8538287695
 10
378.9540370737
 20
192.0959209021
 10
379.6099907066
 20
190.3184328045
 10
380.1667493486
 20
188.5241052344
 10
380.6234545181
 20
186.7157049149
 10
380.9794020088
 20
184.8960202683
 10
381.2340429757
 20
183.0678571162
 10
381.3869847806
 20
181.2340343539
 10
381.4379915985
 20
179.3973796031
 10
381.3869847806
 20
177.5607248522
 10
381.2340429757
 20
175.7269020899
 10
380.9794020088
 20
173.8987389379
 10
380.6234545181
 20
172.0790542912
 10
380.1667493486
 20
170.2706539717
 10
379.6099907066
 20
168.4763264016
 10
378.9540370737
 20
166.698838304
 10
378.1998998828
 20
164.9409304367
 10
377.3487419587
 20
163.2053133661
 10
376.4018757254
 20
161.494663288
 10
375.3607611818
 20
159.8116179009
 10
374.2270036512
 20
158.1587723388
 10
373.0023513055
 20
156.5386751696
 10
371.6886924699
 20
154.9538244658
 10
370.288052711
 20
153.4066639524
 10
368.8025917138
 20
151.8995792386
 10
367.2345999516
 20
150.43489414
 10
365.586495154
 20
149.0148670946
 10
363.8608185791
 20
147.6416876814
 10
362.0602310951
 20
146.3174732435
 10
360.1875090774
 20
145.0442656234
 10
358.2455401277
 20
143.8240280152
 10
356.2373186213
 20
142.6586419367
 10
354.1659410901
 20
141.5499043288
 10
352.0346014483
 20
140.4995247845
 10
349.846586067
 20
139.509122913
 10
347.6052687074
 20
138.5802258421
 10
345.3141053184
 20
137.7142658639
 10
342.9766287079
 20
136.9125782258
 10
340.5964430953
 20
136.176399072
 10
338.1772185545
 20
135.5068635375
 10
335.7226853542
 20
134.9050039976
 10
333.2366282068
 20
134.3717484759
 10
330.7228804322
 20
133.907919214
 10
328.1853180472
 20
133.5142314028
 10
325.6278537892
 20
133.1912920804
 10
323.0544310826
 20
132.9395991959
 10
320.4690179588
 20
132.7595408415
 10
317.8756009373
 20
132.6513946541
 10
315.2781788793
 20
132.6153273873
 10
312.6807568213
 20
132.6513946541
 10
310.0873397998
 20
132.7595408415
 10
307.501926676
 20
132.9395991959
 10
304.9285039694
 20
133.1912920804
 10
302.3710397114
 20
133.5142314028
 10
299.8334773264
 20
133.907919214
 10
297.3197295518
 20
134.3717484759
 10
294.8336724044
 20
134.9050039976
 10
292.3791392041
 20
135.5068635375
 10
289.9599146633
 20
136.176399072
 10
287.5797290508
 20
136.9125782258
 10
285.2422524402
 20
137.7142658639
 10
282.9510890512
 20
138.5802258421
 10
280.7097716916
 20
139.509122913
 10
278.5217563104
 20
140.4995247845
 10
276.3904166685
 20
141.5499043288
 10
274.3190391374
 20
142.6586419367
 10
272.3108176309
 20
143.8240280152
 10
270.3688486812
 20
145.0442656234
 10
268.4961266635
 20
146.3174732435
 10
266.6955391795
 20
147.6416876814
 10
264.9698626046
 20
149.0148670946
 10
263.321757807
 20
150.43489414
 10
261.7537660448
 20
151.8995792386
 10
260.2683050476
 20
153.4066639524
 10
258.8676652887
 20
154.9538244658
 10
257.5540064531
 20
156.5386751696
 10
256.3293541074
 20
158.1587723388
 10
255.1955965768
 20
159.8116179009
 10
254.1544820332
 20
161.494663288
 10
253.2076157999
 20
163.2053133661
 10
252.3564578758
 20
164.9409304367
 10
251.6023206849
 20
166.698838304
 10
250.946367052
 20
168.4763264016
 10
250.3896084101
 20
170.2706539717
 10
249.9329032406
 20
172.0790542912
 10
249.5769557498
 20
173.8987389379
 10
249.322314783
 20
175.7269020899
 10
249.169372978
 20
177.5607248522
 10
249.1183661601
 20
179.3973796031
 10
249.169372978
 20
181.2340343539
 10
249.322314783
 20
183.0678571162
 10
249.5769557498
 20
184.8960202683
 10
249.9329032406
 20
186.7157049149
 10
250.3896084101
 20
188.5241052344
 10
250.946367052
 20
190.3184328045
 10
251.6023206849
 20
192.0959209021
 10
252.3564578758
 20
193.8538287695
 10
253.2076157999
 20
195.5894458401
 10
254.1544820332
 20
197.3000959181
 10
255.1955965768
 20
198.9831413052
 10
256.3293541074
 20
200.6359868674
 10
257.5540064531
 20
202.2560840365
 10
258.8676652887
 20
203.8409347403
 10
260.2683050476
 20
205.3880952537
 10
261.7537660448
 20
206.8951799675
 10
263.321757807
 20
208.3598650662
 10
264.9698626046
 20
209.7798921115
 10
266.6955391795
 20
211.1530715247
 10
268.4961266635
 20
212.4772859627
 10
270.3688486812
 20
213.7504935827
 10
272.3108176309
 20
214.970731191
 10
274.3190391374
 20
216.1361172695
 10
276.3904166685
 20
217.2448548774
 10
278.5217563104
 20
218.2952344217
 10
280.7097716916
 20
219.2856362932
 10
282.9510890512
 20
220.214533364
 10
285.2422524402
 20
221.0804933423
 10
287.5797290508
 20
221.8821809804
 10
289.9599146633
 20
222.6183601341
 10
292.3791392041
 20
223.2878956686
 10
294.8336724044
 20
223.8897552086
 10
297.3197295518
 20
224.4230107302
 10
299.8334773264
 20
224.8868399922
 10
302.3710397114
 20
225.2805278034
 10
304.9285039694
 20
225.6034671257
 10
307.501926676
 20
225.8551600102
 10
310.0873397998
 20
226.0352183646
 10
312.6807568213
 20
226.143364552
 10
315.2781788793
 20
226.1794318189
  0
LWPOLYLINE
  5
2C5
330
1F
100
AcDbEntity
  8
0
  6
Continuous
 62
     8
370
    18
100
AcDbPolyline
 90
      160
 70
   128
 43
0.0
 10
380.9692819959
 20
179.3895358037
 10
380.9179975662
 20
177.5544293444
 10
380.7642243514
 20
175.7221881859
 10
380.5082024504
 20
173.8956731555
 10
380.1503316108
 20
172.0777361394
 10
379.6911706055
 20
170.2712156305
 10
379.1314363599
 20
168.4789322961
 10
378.4720028326
 20
166.703684574
 10
377.7138996507
 20
164.9482443027
 10
376.8583105024
 20
163.2153523937
 10
375.9065712886
 20
161.5077145522
 10
374.8601680371
 20
159.8279970518
 10
373.7207345823
 20
158.1788225721
 10
372.4900500143
 20
156.5627661033
 10
371.170035901
 20
154.9823509256
 10
369.7627532877
 20
153.4400446698
 10
368.2703994792
 20
151.9382554641
 10
366.6953046088
 20
150.4793281739
 10
365.0399280001
 20
149.0655407411
 10
363.3068543273
 20
147.6991006269
 10
361.4987895791
 20
146.3821413654
 10
359.618556834
 20
145.116719232
 10
357.6690918522
 20
143.9048100333
 10
355.653438492
 20
142.7483060216
 10
353.5747439567
 20
141.6490129407
 10
351.4362538811
 20
140.6086472061
 10
349.2413072636
 20
139.6288332255
 10
346.9933312528
 20
138.711100862
 10
344.6958357964
 20
137.856883046
 10
342.3524081608
 20
137.067513537
 10
339.96670733
 20
136.3442248418
 10
337.5424582928
 20
135.6881462899
 10
335.0834462263
 20
135.1003022701
 10
332.5935105858
 20
134.581610631
 10
330.0765391103
 20
134.132881248
 10
327.5364617519
 20
133.7548147588
 10
324.97724454
 20
133.4480014694
 10
322.4028833884
 20
133.2129204322
 10
319.8173978565
 20
133.0499386984
 10
317.224824873
 20
132.9593107447
 10
314.6292124328
 20
132.9411780758
 10
312.0346132768
 20
132.9955690038
 10
309.4450785633
 20
133.1223986036
 10
306.8646515436
 20
133.3214688459
 10
304.2973612481
 20
133.5924689062
 10
301.7472161958
 20
133.93497565
 10
299.2181981355
 20
134.3484542937
 10
296.7142558287
 20
134.8322592394
 10
294.2392988841
 20
135.3856350833
 10
291.7971916531
 20
136.0077177945
 10
289.3917471963
 20
136.6975360649
 10
287.0267213297
 20
137.454012825
 10
284.7058067604
 20
138.2759669261
 10
282.432627321
 20
139.1621149846
 10
280.2107323114
 20
140.1110733855
 10
278.0435909568
 20
141.1213604427
 10
275.9345869912
 20
142.1913987131
 10
273.8870133741
 20
143.3195174589
 10
271.9040671484
 20
144.5039552565
 10
269.9888444494
 20
145.742862747
 10
268.1443356699
 20
147.0343055234
 10
266.3734207915
 20
148.376267151
 10
264.6788648875
 20
149.7666523162
 10
263.0633138057
 20
151.2032900975
 10
261.5292900375
 20
152.6839373555
 10
260.0791887789
 20
154.2062822354
 10
258.7152741908
 20
155.7679477763
 10
257.4396758639
 20
157.3664956228
 10
256.2543854937
 20
158.9994298323
 10
255.1612537703
 20
160.6642007718
 10
254.1619874891
 20
162.3582090991
 10
253.2581468859
 20
164.0788098214
 10
252.4511432004
 20
165.8233164248
 10
251.7422364731
 20
167.5890050693
 10
251.1325335777
 20
169.3731188418
 10
250.6229864928
 20
171.1728720603
 10
250.2143908159
 20
172.9854546239
 10
249.9073845205
 20
174.8080364
 10
249.7024469605
 20
176.6377716436
 10
249.5998981216
 20
178.4718034403
 10
249.5998981216
 20
180.3072681671
 10
249.7024469605
 20
182.1412999638
 10
249.9073845205
 20
183.9710352074
 10
250.2143908159
 20
185.7936169835
 10
250.6229864928
 20
187.6061995471
 10
251.1325335777
 20
189.4059527656
 10
251.7422364731
 20
191.1900665381
 10
252.4511432004
 20
192.9557551826
 10
253.2581468859
 20
194.700261786
 10
254.1619874891
 20
196.4208625082
 10
255.1612537703
 20
198.1148708356
 10
256.2543854937
 20
199.7796417751
 10
257.4396758639
 20
201.4125759846
 10
258.7152741908
 20
203.0111238311
 10
260.0791887789
 20
204.572789372
 10
261.5292900375
 20
206.0951342519
 10
263.0633138057
 20
207.5757815099
 10
264.6788648875
 20
209.0124192912
 10
266.3734207915
 20
210.4028044564
 10
268.1443356699
 20
211.744766084
 10
269.9888444494
 20
213.0362088604
 10
271.9040671484
 20
214.2751163509
 10
273.8870133741
 20
215.4595541485
 10
275.9345869912
 20
216.5876728943
 10
278.0435909568
 20
217.6577111647
 10
280.2107323114
 20
218.6679982219
 10
282.432627321
 20
219.6169566228
 10
284.7058067604
 20
220.5031046813
 10
287.0267213297
 20
221.3250587824
 10
289.3917471963
 20
222.0815355425
 10
291.7971916531
 20
222.7713538129
 10
294.2392988841
 20
223.3934365241
 10
296.7142558287
 20
223.946812368
 10
299.2181981355
 20
224.4306173137
 10
301.7472161958
 20
224.8440959574
 10
304.2973612481
 20
225.1866027012
 10
306.8646515436
 20
225.4576027614
 10
309.4450785633
 20
225.6566730038
 10
312.0346132768
 20
225.7835026036
 10
314.6292124328
 20
225.8378935315
 10
317.224824873
 20
225.8197608627
 10
319.8173978565
 20
225.7291329089
 10
322.4028833884
 20
225.5661511752
 10
324.97724454
 20
225.331070138
 10
327.5364617519
 20
225.0242568486
 10
330.0765391103
 20
224.6461903594
 10
332.5935105858
 20
224.1974609764
 10
335.0834462263
 20
223.6787693373
 10
337.5424582928
 20
223.0909253175
 10
339.96670733
 20
222.4348467656
 10
342.3524081608
 20
221.7115580704
 10
344.6958357964
 20
220.9221885614
 10
346.9933312528
 20
220.0679707453
 10
349.2413072636
 20
219.1502383819
 10
351.4362538811
 20
218.1704244013
 10
353.5747439567
 20
217.1300586667
 10
355.653438492
 20
216.0307655858
 10
357.6690918522
 20
214.8742615741
 10
359.618556834
 20
213.6623523754
 10
361.4987895791
 20
212.396930242
 10
363.3068543273
 20
211.0799709805
 10
365.0399280001
 20
209.7135308663
 10
366.6953046088
 20
208.2997434335
 10
368.2703994792
 20
206.8408161433
 10
369.7627532877
 20
205.3390269375
 10
371.170035901
 20
203.7967206818
 10
372.4900500143
 20
202.2163055041
 10
373.7207345823
 20
200.6002490353
 10
374.8601680371
 20
198.9510745556
 10
375.9065712886
 20
197.2713570552
 10
376.8583105024
 20
195.5637192137
 10
377.7138996507
 20
193.8308273047
 10
378.4720028326
 20
192.0753870334
 10
379.1314363599
 20
190.3001393112
 10
379.6911706055
 20
188.5078559769
 10
380.1503316108
 20
186.701335468
 10
380.5082024504
 20
184.8833984519
 10
380.7642243514
 20
183.0568834214
 10
380.9179975662
 20
181.224642263
 10
380.9692819959
 20
179.3895358037
  0
LWPOLYLINE
  5
2C6
330
1F
100
AcDbEntity
  8
0
  6
Continuous
 62
     8
370
    18
100
AcDbPolyline
 90
      158
 70
   128
 43
0.0
 10
378.8251229512
 20
179.1572209687
 10
378.7742406035
 20
180.9550316362
 10
378.621675044
 20
182.7499632722
 10
378.3676705925
 20
184.5391414556
 10
378.0126340143
 20
186.3197009792
 10
377.5571338684
 20
188.0887904374
 10
377.0018995972
 20
189.8435767933
 10
376.3478203583
 20
191.5812499149
 10
375.5959436005
 20
193.2990270754
 10
374.7474733866
 20
194.9941574099
 10
373.8037684651
 20
196.66392632
 10
372.7663400942
 20
198.3056598217
 10
371.6368496219
 20
199.9167288268
 10
370.4171058251
 20
201.4945533537
 10
369.1090620134
 20
203.0366066589
 10
367.7148129011
 20
204.5404192833
 10
366.2365912521
 20
206.0035830065
 10
364.6767643051
 20
207.423754704
 10
363.037829982
 20
208.798660099
 10
361.3224128884
 20
210.1260974046
 10
359.5332601098
 20
211.4039408497
 10
357.673236813
 20
212.6301440834
 10
355.7453216573
 20
213.8027434519
 10
353.7526020249
 20
214.9198611432
 10
351.6982690765
 20
215.979708194
 10
349.5856126407
 20
216.9805873551
 10
347.4180159463
 20
217.9208958087
 10
345.1989502036
 20
218.7991277357
 10
342.9319690463
 20
219.613876727
 10
340.6207028399
 20
220.3638380356
 10
338.2688528687
 20
221.0478106662
 10
335.8801854082
 20
221.6646992982
 10
333.4585256938
 20
222.2135160404
 10
331.0077517948
 20
222.6933820121
 10
328.5317884045
 20
223.1035287513
 10
326.0346005548
 20
223.4432994451
 10
323.5201872666
 20
223.7121499813
 10
320.9925751458
 20
223.9096498201
 10
318.4558119353
 20
224.0354826833
 10
315.9139600321
 20
224.089447061
 10
313.3710899829
 20
224.071456534
 10
310.8312739644
 20
223.9815399126
 10
308.2985792627
 20
223.8198411901
 10
305.7770617599
 20
223.5866193124
 10
303.2707594386
 20
223.2822477634
 10
300.7836859157
 20
222.9072139665
 10
298.3198240152
 20
222.4621185046
 10
295.8831193893
 20
221.9476741579
 10
293.4774742007
 20
221.3647047625
 10
291.1067408729
 20
220.7141438913
 10
288.7747159215
 20
219.9970333589
 10
286.4851338738
 20
219.214521553
 10
284.241661289
 20
218.3678615957
 10
282.0478908858
 20
217.4584093364
 10
279.9073357896
 20
216.4876211809
 10
277.8234239062
 20
215.4570517589
 10
275.7994924322
 20
214.3683514341
 10
273.8387825114
 20
213.2232636619
 10
271.9444340437
 20
212.0236221971
 10
270.1194806571
 20
210.7713481571
 10
268.3668448499
 20
209.4684469458
 10
266.6893333101
 20
208.1170050419
 10
265.0896324209
 20
206.7191866576
 10
263.570303959
 20
205.277230273
 10
262.1337809918
 20
203.793445051
 10
260.7823639812
 20
202.2702071397
 10
259.5182170995
 20
200.7099558671
 10
258.3433647639
 20
199.1151898349
 10
257.2596883943
 20
197.4884629169
 10
256.2689234007
 20
195.8323801694
 10
255.3726564037
 20
194.1495936595
 10
254.572322694
 20
192.442798218
 10
253.8692039339
 20
190.7147271236
 10
253.2644261046
 20
188.9681477262
 10
252.7589577032
 20
187.2058570151
 10
252.3536081917
 20
185.4306771398
 10
252.0490267008
 20
183.6454508907
 10
251.8457009902
 20
181.8530371465
 10
251.7439566677
 20
180.056306296
 10
251.7439566677
 20
178.2581356415
 10
251.8457009902
 20
176.461404791
 10
252.0490267008
 20
174.6689910468
 10
252.3536081917
 20
172.8837647977
 10
252.7589577032
 20
171.1085849224
 10
253.2644261046
 20
169.3462942113
 10
253.8692039339
 20
167.5997148139
 10
254.572322694
 20
165.8716437195
 10
255.3726564037
 20
164.164848278
 10
256.2689234007
 20
162.4820617681
 10
257.2596883943
 20
160.8259790206
 10
258.3433647639
 20
159.1992521026
 10
259.5182170995
 20
157.6044860704
 10
260.7823639812
 20
156.0442347978
 10
262.1337809918
 20
154.5209968865
 10
263.570303959
 20
153.0372116645
 10
265.0896324209
 20
151.5952552798
 10
266.6893333101
 20
150.1974368956
 10
268.3668448499
 20
148.8459949917
 10
270.1194806571
 20
147.5430937804
 10
271.9444340437
 20
146.2908197404
 10
273.8387825114
 20
145.0911782756
 10
275.7994924322
 20
143.9460905034
 10
277.8234239062
 20
142.8573901786
 10
279.9073357896
 20
141.8268207566
 10
282.0478908858
 20
140.8560326011
 10
284.241661289
 20
139.9465803418
 10
286.4851338738
 20
139.0999203845
 10
288.7747159215
 20
138.3174085786
 10
291.1067408729
 20
137.6002980462
 10
293.4774742007
 20
136.949737175
 10
295.8831193893
 20
136.3667677796
 10
298.3198240152
 20
135.8523234329
 10
300.7836859157
 20
135.407227971
 10
303.2707594386
 20
135.0321941741
 10
305.7770617599
 20
134.7278226251
 10
308.2985792627
 20
134.4946007474
 10
310.8312739644
 20
134.3329020249
 10
313.3710899829
 20
134.2429854035
 10
315.9139600321
 20
134.2249948765
 10
318.4558119353
 20
134.2789592542
 10
320.9925751458
 20
134.4047921174
 10
323.5201872666
 20
134.6022919562
 10
326.0346005548
 20
134.8711424924
 10
328.5317884045
 20
135.2109131862
 10
331.0077517948
 20
135.6210599254
 10
333.4585256938
 20
136.1009258971
 10
335.8801854082
 20
136.6497426393
 10
338.2688528687
 20
137.2666312713
 10
340.6207028399
 20
137.9506039019
 10
342.9319690463
 20
138.7005652105
 10
345.1989502036
 20
139.5153142018
 10
347.4180159463
 20
140.3935461288
 10
349.5856126407
 20
141.3338545824
 10
351.6982690765
 20
142.3347337435
 10
353.7526020249
 20
143.3945807943
 10
355.7453216573
 20
144.5116984856
 10
357.673236813
 20
145.6842978541
 10
359.5332601098
 20
146.9105010878
 10
361.3224128884
 20
148.1883445329
 10
363.037829982
 20
149.5157818385
 10
364.6767643051
 20
150.8906872335
 10
366.2365912521
 20
152.310858931
 10
367.7148129011
 20
153.7740226542
 10
369.1090620134
 20
155.2778352786
 10
370.4171058251
 20
156.8198885838
 10
371.6368496219
 20
158.3977131107
 10
372.7663400942
 20
160.0087821158
 10
373.8037684651
 20
161.6505156175
 10
374.7474733866
 20
163.3202845276
 10
375.5959436005
 20
165.0154148621
 10
376.3478203583
 20
166.7331920226
 10
377.0018995972
 20
168.4708651442
 10
377.5571338684
 20
170.2256515001
 10
378.0126340143
 20
171.9947409583
 10
378.3676705925
 20
173.7753004819
 10
378.621675044
 20
175.5644786653
 10
378.7742406035
 20
177.3594103013
 10
378.8251229512
 20
179.1572209687
  0
LINE
  5
2C7
330
1F
100
AcDbEntity
  8
0
  6
Continuous
 62
     8
370
    18
100
AcDbLine
 10
385.5755967712
 20
175.5867459073
 30
0.0
 11
385.5604301402
 21
176.6192477148
 31
0.0
  0
LWPOLYLINE
  5
2C8
330
1F
100
AcDbEntity
  8
0
  6
Continuous
 62
     8
370
    18
100
AcDbPolyline
 90
       86
 70
   128
 43
0.0
 10
244.9959276184
 20
176.6192477148
 10
244.9935027091
 20
176.5331226598
 10
244.9935027091
 20
174.6403691548
 10
245.0954087702
 20
172.7489878056
 10
245.2990731385
 20
170.8617209343
 10
245.6042005201
 20
168.9813048976
 10
246.0103485093
 20
167.1104661188
 10
246.5169282305
 20
165.2519171354
 10
247.1232051916
 20
163.4083526657
 10
247.8283003488
 20
161.5824457019
 10
248.6311913816
 20
159.7768436346
 10
249.5307141747
 20
157.9941644141
 10
250.5255645062
 20
156.2369927549
 10
251.614299938
 20
154.507876388
 10
252.7953419081
 20
152.8093223667
 10
254.0669780183
 20
151.143793432
 10
255.4273645179
 20
149.5137044416
 10
256.8745289765
 20
147.9214188687
 10
258.4063731441
 20
146.3692453752
 10
260.0206759929
 20
144.8594344643
 10
261.7150969383
 20
143.3941752173
 10
263.4871792318
 20
141.9755921203
 10
265.3343535236
 20
140.605741983
 10
267.2539415874
 20
139.2866109571
 10
269.2431602041
 20
138.0201116566
 10
271.299125197
 20
136.8080803844
 10
273.4188556132
 20
135.6522744699
 10
275.5992780464
 20
134.5543697212
 10
277.8372310924
 20
133.5159579952
 10
280.1294699333
 20
132.5385448897
 10
282.472671042
 20
131.6235475602
 10
284.8634370008
 20
130.7722926654
 10
287.2983014276
 20
129.9860144435
 10
289.7737340019
 20
129.2658529228
 10
292.2861455829
 20
128.6128522685
 10
294.8318934142
 20
128.0279592693
 10
297.4072864047
 20
127.5120219641
 10
300.0085904809
 20
127.0657884126
 10
302.6320340004
 20
126.6899056107
 10
305.273813221
 20
126.3849185528
 10
307.9300978154
 20
126.1512694408
 10
310.5970364248
 20
125.9892970435
 10
313.2707622433
 20
125.8992362056
 10
315.947398624
 20
125.8812175065
 10
318.6230647001
 20
125.9352670717
 10
321.2938810115
 20
126.0613065346
 10
323.9559751299
 20
126.2591531498
 10
326.6054872733
 20
126.5285200587
 10
329.2385759025
 20
126.8690167052
 10
331.8514232906
 20
127.2801494015
 10
334.4402410587
 20
127.7613220446
 10
337.0012756686
 20
128.3118369801
 10
339.5308138649
 20
128.930896014
 10
342.025188059
 20
129.61760157
 10
344.4807816469
 20
130.3709579905
 10
346.8940342525
 20
131.1898729809
 10
349.2614468904
 20
132.0731591926
 10
351.5795870385
 20
133.0195359451
 10
353.8450936152
 20
134.0276310826
 10
356.0546818525
 20
135.0959829635
 10
358.2051480589
 20
136.2230425797
 10
360.2933742637
 20
137.4071758025
 10
362.3163327388
 20
138.646665752
 10
364.2710903877
 20
139.9397152862
 10
366.1548129986
 20
141.2844496069
 10
367.9647693539
 20
142.6789189779
 10
369.6983351899
 20
144.1211015519
 10
371.3529970019
 20
145.6089063021
 10
372.9263556884
 20
147.1401760539
 10
374.4161300298
 20
148.7126906124
 10
375.8201599956
 20
150.3241699818
 10
377.1364098767
 20
151.9722776713
 10
378.3629712366
 20
153.6546240821
 10
379.4980656785
 20
155.3687699729
 10
380.540047424
 20
157.1122299958
 10
381.4874056992
 20
158.8824763007
 10
382.3387669252
 20
160.6769421996
 10
383.0928967096
 20
162.4930258884
 10
383.7487016363
 20
164.3280942195
 10
384.3052308509
 20
166.1794865193
 10
384.7616774391
 20
168.0445184457
 10
385.1173795971
 20
169.920485881
 10
385.3718215908
 20
171.8046688516
 10
385.5246345035
 20
173.6943354724
 10
385.5755967712
 20
175.5867459073
 10
385.5755967712
 20
175.5867459073
  0
LWPOLYLINE
  5
2C9
330
1F
100
AcDbEntity
  8
0
  6
Continuous
 62
     8
370
    18
100
AcDbPolyline
 90
       80
 70
   128
 43
0.0
 10
385.0874972746
 20
171.8042702608
 10
384.8478363347
 20
170.0531172754
 10
384.4935070034
 20
168.1843901061
 10
384.0388220633
 20
166.32655624
 10
383.4844407643
 20
164.4823093589
 10
382.8311669061
 20
162.6543234442
 10
382.0799476733
 20
160.8452489009
 10
381.2318722622
 20
159.0577087141
 10
380.2881703008
 20
157.2942946461
 10
379.250210067
 20
155.5575634788
 10
378.1194965037
 20
153.8500333063
 10
376.8976690375
 20
152.1741798842
 10
375.5864992015
 20
150.5324330396
 10
374.1878880665
 20
148.9271731486
 10
372.703863485
 20
147.3607276846
 10
371.1365771509
 20
145.8353678436
 10
369.4883014793
 20
144.3533052517
 10
367.7614263125
 20
142.916688758
 10
365.9584554544
 20
141.5276013189
 10
364.0820030403
 20
140.1880569785
 10
362.1347897469
 20
138.899997948
 10
360.1196388473
 20
137.6652917899
 10
358.0394721175
 20
136.48572871
 10
355.8973056007
 20
135.3630189621
 10
353.6962452333
 20
134.298790368
 10
351.4394823425
 20
133.2945859573
 10
349.1302890187
 20
132.3518617305
 10
346.7720133715
 20
131.4719845476
 10
344.3680746751
 20
130.6562301464
 10
341.9219584109
 20
129.9057812927
 10
339.4372112135
 20
129.2217260657
 10
336.9174357289
 20
128.6050562801
 10
334.3662853905
 20
128.056666048
 10
331.7874591226
 20
127.577350483
 10
329.1846959766
 20
127.1678045466
 10
326.5617697103
 20
126.8286220415
 10
323.922483316
 20
126.5602947497
 10
321.2706635066
 20
126.3632117203
 10
318.6101551675
 20
126.2376587048
 10
315.9448157813
 20
126.183817743
 10
313.2785098353
 20
126.2017668991
 10
310.6151032182
 20
126.2914801488
 10
307.9584576151
 20
126.4528274162
 10
305.312424908
 20
126.6855747632
 10
302.6808415914
 20
126.9893847286
 10
300.0675232096
 20
127.3638168168
 10
297.4762588244
 20
127.8083281372
 10
294.9108055213
 20
128.3222741908
 10
292.3748829625
 20
128.904909805
 10
289.8721679932
 20
129.5553902138
 10
287.4062893108
 20
130.2727722828
 10
284.9808222038
 20
131.0560158766
 10
282.5992833674
 20
131.903985367
 10
280.2651258054
 20
132.8154512791
 10
277.9817338231
 20
133.7890920746
 10
275.7524181206
 20
134.8234960673
 10
273.5804109924
 20
135.9171634705
 10
271.4688616414
 20
137.0685085708
 10
269.4208316121
 20
138.275862028
 10
267.4392903523
 20
139.537473295
 10
265.5271109075
 20
140.851513156
 10
263.687065755
 20
142.216076379
 10
261.9218227843
 20
143.6291844776
 10
260.2339414291
 20
145.0887885802
 10
258.6258689559
 20
146.5927724004
 10
257.0999369161
 20
148.1389553055
 10
255.6583577652
 20
149.725095478
 10
254.3032216552
 20
151.3488931664
 10
253.0364934039
 20
153.0079940192
 10
251.8600096462
 20
154.6999924988
 10
250.7754761711
 20
156.4224353692
 10
249.7844654484
 20
158.1728252528
 10
248.8884143489
 20
159.9486242517
 10
248.088622061
 20
161.7472576272
 10
247.3862482071
 20
163.5661175326
 10
246.7823111622
 20
165.4025667952
 10
246.2776865772
 20
167.253942739
 10
245.8731061095
 20
169.1175610458
 10
245.5691563621
 20
170.9907196474
 10
245.468860484
 20
171.8042702608
  0
LWPOLYLINE
  5
2CA
330
1F
100
AcDbEntity
  8
0
  6
Continuous
 62
     8
370
    18
100
AcDbPolyline
 90
       75
 70
   128
 43
0.0
 10
246.637161791
 20
164.4859818125
 10
246.6827589821
 20
164.3181809839
 10
247.2426482717
 20
162.467237139
 10
247.9023890845
 20
160.632815662
 10
248.6610131598
 20
158.8176088193
 10
249.5174071121
 20
157.0242806774
 10
250.4703140654
 20
155.2554631925
 10
251.5183354972
 20
153.5137523484
 10
252.6599332915
 20
151.8017043457
 10
253.8934319962
 20
150.1218318511
 10
255.2170212817
 20
148.476600309
 10
256.6287585984
 20
146.8684243237
 10
258.1265720271
 20
145.2996641151
 10
259.7082633198
 20
143.7726220553
 10
261.3715111267
 20
142.2895392889
 10
263.1138744021
 20
140.8525924445
 10
264.9327959878
 20
139.4638904397
 10
266.8256063653
 20
138.1254713862
 10
268.7895275746
 20
136.8392995986
 10
270.8216772904
 20
135.6072627112
 10
272.9190730527
 20
134.4311689082
 10
275.0786366441
 20
133.3127442693
 10
277.2971986071
 20
132.253630237
 10
279.5715028963
 20
131.2553812071
 10
281.8982116563
 20
130.3194622478
 10
284.2739101212
 20
129.4472469491
 10
286.6951116261
 20
128.6400154074
 10
289.1582627236
 20
127.8989523461
 10
291.6597484
 20
127.2251453776
 10
294.1958973801
 20
126.6195834065
 10
296.7629875155
 20
126.0831551785
 10
299.3572512475
 20
125.616647976
 10
301.9748811362
 20
125.2207464626
 10
304.6120354488
 20
124.8960316784
 10
307.2648437978
 20
124.6429801871
 10
309.929412821
 20
124.4619633768
 10
312.601831896
 20
124.3532469144
 10
315.2781788793
 20
124.3169903564
 10
317.9545258626
 20
124.3532469144
 10
320.6269449376
 20
124.4619633768
 10
323.2915139608
 20
124.6429801871
 10
325.9443223098
 20
124.8960316784
 10
328.5814766225
 20
125.2207464626
 10
331.1991065112
 20
125.616647976
 10
333.7933702431
 20
126.0831551785
 10
336.3604603785
 20
126.6195834065
 10
338.8966093586
 20
127.2251453776
 10
341.398095035
 20
127.8989523461
 10
343.8612461326
 20
128.6400154074
 10
346.2824476374
 20
129.4472469491
 10
348.6581461023
 20
130.3194622478
 10
350.9848548624
 20
131.2553812071
 10
353.2591591515
 20
132.253630237
 10
355.4777211146
 20
133.3127442693
 10
357.6372847059
 20
134.4311689082
 10
359.7346804683
 20
135.6072627112
 10
361.766830184
 20
136.8392995986
 10
363.7307513933
 20
138.1254713862
 10
365.6235617709
 20
139.4638904397
 10
367.4424833565
 20
140.8525924445
 10
369.1848466319
 20
142.2895392889
 10
370.8480944388
 20
143.7726220553
 10
372.4297857316
 20
145.2996641151
 10
373.9275991602
 20
146.8684243237
 10
375.3393364769
 20
148.476600309
 10
376.6629257625
 20
150.1218318511
 10
377.8964244671
 20
151.8017043457
 10
379.0380222614
 20
153.5137523484
 10
380.0860436932
 20
155.2554631925
 10
381.0389506465
 20
157.0242806774
 10
381.8953445989
 20
158.8176088193
 10
382.6539686742
 20
160.632815662
 10
383.3137094869
 20
162.467237139
 10
383.8735987765
 20
164.3181809839
 10
383.9191959676
 20
164.4859818125
  0
LWPOLYLINE
  5
2CB
330
1F
100
AcDbEntity
  8
0
  6
Continuous
 62
     8
370
    18
100
AcDbPolyline
 90
       79
 70
   128
 43
0.0
 10
252.0451949125
 20
178.8986097449
 10
252.0964769781
 20
180.6989994549
 10
252.2502399952
 20
182.4964689261
 10
252.5062345597
 20
184.2881026566
 10
252.8640454475
 20
186.0709946099
 10
253.3230922879
 20
187.8422529287
 10
253.8826305053
 20
189.5990046255
 10
254.5417525267
 20
191.3384002428
 10
255.2993892537
 20
193.0576184743
 10
256.1543117969
 20
194.7538707419
 10
257.1051334686
 20
196.4244057182
 10
258.1503120328
 20
198.0665137894
 10
259.2881522058
 20
199.67753145
 10
260.5168084069
 20
201.2548456237
 10
261.8342877512
 20
202.7958979011
 10
263.2384532823
 20
204.2981886896
 10
264.7270274386
 20
205.7592812683
 10
266.2975957474
 20
207.1768057395
 10
267.9476107412
 20
208.5484628733
 10
269.6743960896
 20
209.872027837
 10
271.4751509404
 20
211.1453538033
 10
273.3469544627
 20
212.3663754328
 10
275.2867705844
 20
213.5331122239
 10
277.2914529165
 20
214.6436717254
 10
279.3577498571
 20
215.6962526057
 10
281.4823098649
 20
216.6891475746
 10
283.6616868959
 20
217.620746153
 10
285.8923459924
 20
218.4895372846
 10
288.1706690174
 20
219.2941117868
 10
290.4929605225
 20
220.0331646371
 10
292.8554537424
 20
220.7054970889
 10
295.2543167045
 20
221.3100186166
 10
297.6856584442
 20
221.8457486839
 10
300.1455353164
 20
222.3118183349
 10
302.6299573918
 20
222.7074716027
 10
305.1348949287
 20
223.0320667365
 10
307.6562849093
 20
223.2850772416
 10
310.1900376298
 20
223.4660927341
 10
312.732043334
 20
223.5748196062
 10
315.2781788793
 20
223.6110815025
 10
317.8243144247
 20
223.5748196062
 10
320.3663201288
 20
223.4660927341
 10
322.9000728493
 20
223.2850772416
 10
325.4214628299
 20
223.0320667365
 10
327.9264003668
 20
222.7074716027
 10
330.4108224422
 20
222.3118183349
 10
332.8706993144
 20
221.8457486839
 10
335.3020410542
 20
221.3100186166
 10
337.7009040162
 20
220.7054970889
 10
340.0633972361
 20
220.0331646371
 10
342.3856887412
 20
219.2941117868
 10
344.6640117662
 20
218.4895372845
 10
346.8946708627
 20
217.620746153
 10
349.0740478937
 20
216.6891475746
 10
351.1986079015
 20
215.6962526057
 10
353.2649048421
 20
214.6436717254
 10
355.2695871742
 20
213.5331122239
 10
357.2094032959
 20
212.3663754328
 10
359.0812068182
 20
211.1453538033
 10
360.881961669
 20
209.872027837
 10
362.6087470174
 20
208.5484628733
 10
364.2587620112
 20
207.1768057395
 10
365.82933032
 20
205.7592812683
 10
367.3179044763
 20
204.2981886896
 10
368.7220700074
 20
202.7958979011
 10
370.0395493517
 20
201.2548456237
 10
371.2682055528
 20
199.67753145
 10
372.4060457259
 20
198.0665137894
 10
373.45122429
 20
196.4244057182
 10
374.4020459618
 20
194.7538707419
 10
375.2569685049
 20
193.0576184743
 10
376.014605232
 20
191.3384002428
 10
376.6737272533
 20
189.5990046255
 10
377.2332654708
 20
187.8422529287
 10
377.6923123112
 20
186.0709946099
 10
378.0501231989
 20
184.2881026566
 10
378.3061177634
 20
182.4964689261
 10
378.4598807805
 20
180.6989994549
 10
378.5111628461
 20
178.8986097449
  0
LWPOLYLINE
  5
2CC
330
1F
100
AcDbEntity
  8
0
  6
Continuous
 62
     8
370
    18
100
AcDbPolyline
 90
       59
 70
   128
 43
0.0
 10
252.7284748297
 20
150.4612358875
 10
253.7096539326
 20
149.1900246199
 10
255.0779817706
 20
147.5504198865
 10
256.5335941393
 20
145.9488392503
 10
258.0743805398
 20
144.3876048502
 10
259.6981069791
 20
142.8689803268
 10
261.4024192092
 20
141.3951675404
 10
263.1848461402
 20
139.9683033788
 10
265.0428034236
 20
138.5904566585
 10
266.9735971988
 20
137.2636251255
 10
268.9744279995
 20
135.9897325588
 10
271.0423948122
 20
134.7706259807
 10
273.1744992829
 20
133.6080729793
 10
275.3676500639
 20
132.5037591452
 10
277.6186672961
 20
131.459285628
 10
279.9242872199
 20
130.4761668144
 10
282.2811669067
 20
129.5558281327
 10
284.6858891063
 20
128.699603986
 10
287.1349672014
 20
127.9087358175
 10
289.624850263
 20
127.1843703103
 10
292.1519281985
 20
126.5275577253
 10
294.7125369867
 20
125.9392503778
 10
297.3029639895
 20
125.4203012573
 10
299.9194533354
 20
124.9714627905
 10
302.5582113651
 20
124.5933857501
 10
305.2154121316
 20
124.2866183117
 10
307.8872029479
 20
124.0516052589
 10
310.5697099727
 20
123.888687338
 10
313.2590438273
 20
123.7981007645
 10
315.9513052347
 20
123.7799768802
 10
318.6425906733
 20
123.834341963
 10
321.3289980363
 20
123.9611171888
 10
324.0066322901
 20
124.1601187456
 10
326.6716111209
 20
124.4310581002
 10
329.3200705641
 20
124.7735424163
 10
331.9481706068
 20
125.1870751246
 10
334.5521007552
 20
125.6710566421
 10
337.1280855594
 20
126.2247852418
 10
339.6723900879
 20
126.8474580703
 10
342.1813253422
 20
127.5381723115
 10
344.6512536061
 20
128.2959264957
 10
347.0785937197
 20
129.1196219518
 10
349.459826272
 20
130.0080644002
 10
351.7914987033
 20
130.9599656842
 10
354.0702303116
 20
131.973945638
 10
356.2927171539
 20
133.0485340876
 10
358.4557368367
 20
134.1821729824
 10
360.5561531883
 20
135.3732186545
 10
362.5909208058
 20
136.6199442015
 10
364.5570894706
 20
137.9205419905
 10
366.4518084261
 20
139.2731262791
 10
368.2723305111
 20
140.6757359494
 10
370.0160161425
 20
142.1263373514
 10
371.6803371429
 20
143.6228272518
 10
373.2628804058
 20
145.1630358833
 10
374.761351395
 20
146.7447300906
 10
376.1735774706
 20
148.3656165683
 10
377.49751104
 20
150.023345186
 10
377.827882929
 20
150.4612358875
  0
LWPOLYLINE
  5
2CD
330
1F
100
AcDbEntity
  8
0
  6
Continuous
 62
     8
370
    18
100
AcDbPolyline
 90
       88
 70
   128
 43
0.0
 10
385.5746244998
 20
177.9131834512
 10
385.7254357862
 20
176.2557663861
 10
385.8021232021
 20
174.3576020224
 10
385.7765576409
 20
172.4587493077
 10
385.6487761702
 20
170.5619613967
 10
385.4189640609
 20
168.6699884507
 10
385.0874545186
 20
166.7855736495
 10
384.6547282005
 20
164.9114492144
 10
384.1214125184
 20
163.0503324467
 10
383.4882807289
 20
161.2049217879
 10
382.7562508127
 20
159.3778929068
 10
381.9263841432
 20
157.5718948208
 10
380.9998839476
 20
155.7895460544
 10
379.9780935628
 20
154.0334308429
 10
378.8624944871
 20
152.3060953855
 10
377.6547042324
 20
150.6100441534
 10
376.3564739793
 20
148.9477362589
 10
374.9696860373
 20
147.3215818894
 10
373.4963511166
 20
145.7339388134
 10
371.9386054119
 20
144.1871089614
 10
370.2987075054
 20
142.6833350889
 10
368.5790350925
 20
141.2247975243
 10
366.7820815336
 20
139.8136110075
 10
364.9104522398
 20
138.4518216242
 10
362.9668608945
 20
137.1414038388
 10
360.9541255193
 20
135.8842576316
 10
358.8751643881
 20
134.6822057447
 10
356.7329917959
 20
133.5369910382
 10
354.5307136881
 20
132.4502739641
 10
352.2715231574
 20
131.4236301582
 10
349.958695814
 20
130.4585481558
 10
347.5955850367
 20
129.5564272336
 10
345.1856171099
 20
128.7185753808
 10
342.7322862569
 20
127.9462074023
 10
340.2391495729
 20
127.2404431579
 10
337.7098218676
 20
126.6023059384
 10
335.1479704245
 20
126.0327209816
 10
332.5573096832
 20
125.5325141313
 10
329.9415958541
 20
125.1024106396
 10
327.3046214723
 20
124.7430341154
 10
324.6502098985
 20
124.4549056204
 10
321.9822097756
 20
124.2384429134
 10
319.3044894489
 20
124.0939598445
 10
316.6209313567
 20
124.0216659004
 10
313.9354264019
 20
124.0216659004
 10
311.2518683097
 20
124.0939598445
 10
308.574147983
 20
124.2384429134
 10
305.9061478601
 20
124.4549056204
 10
303.2517362863
 20
124.7430341154
 10
300.6147619045
 20
125.1024106396
 10
297.9990480754
 20
125.5325141313
 10
295.4083873341
 20
126.0327209816
 10
292.846535891
 20
126.6023059384
 10
290.3172081858
 20
127.2404431579
 10
287.8240715017
 20
127.9462074023
 10
285.3707406487
 20
128.7185753808
 10
282.960772722
 20
129.5564272336
 10
280.5976619446
 20
130.4585481558
 10
278.2848346012
 20
131.4236301582
 10
276.0256440705
 20
132.4502739641
 10
273.8233659627
 20
133.5369910382
 10
271.6811933705
 20
134.6822057447
 10
269.6022322393
 20
135.8842576316
 10
267.5894968642
 20
137.1414038388
 10
265.6459055188
 20
138.4518216242
 10
263.774276225
 20
139.8136110075
 10
261.9773226661
 20
141.2247975243
 10
260.2576502532
 20
142.6833350889
 10
258.6177523468
 20
144.1871089614
 10
257.060006642
 20
145.7339388134
 10
255.5866717213
 20
147.3215818894
 10
254.1998837794
 20
148.9477362589
 10
252.9016535262
 20
150.6100441534
 10
251.6938632716
 20
152.3060953855
 10
250.5782641958
 20
154.0334308429
 10
249.556473811
 20
155.7895460544
 10
248.6299736155
 20
157.5718948208
 10
247.8001069459
 20
159.3778929068
 10
247.0680770297
 20
161.2049217879
 10
246.4349452403
 20
163.0503324467
 10
245.9016295581
 20
164.9114492144
 10
245.46890324
 20
166.7855736495
 10
245.1373936977
 20
168.6699884507
 10
244.9075815884
 20
170.5619613967
 10
244.7798001177
 20
172.4587493077
 10
244.7542345565
 20
174.3576020224
 10
244.8309219724
 20
176.2557663861
 10
244.9817332588
 20
177.9131834512
  0
LWPOLYLINE
  5
2CE
330
1F
100
AcDbEntity
  8
0
  6
Continuous
 62
     8
370
    18
100
AcDbPolyline
 90
       80
 70
   128
 43
0.0
 10
385.0619115316
 20
169.2147637174
 10
384.8870764589
 20
168.0067543165
 10
384.5325472714
 20
166.1369731088
 10
384.0776058705
 20
164.2780913487
 10
383.5229118778
 20
162.4328042371
 10
382.8692695465
 20
160.6037872639
 10
382.1176265955
 20
158.7936923287
 10
381.2690728352
 20
157.0051438963
 10
380.3248385875
 20
155.2407351909
 10
379.2862929017
 20
153.5030244364
 10
378.1549415698
 20
151.7945311472
 10
376.9324249431
 20
150.1177324754
 10
375.6205155538
 20
148.4750596187
 10
374.2211155451
 20
146.8688942956
 10
372.7362539133
 20
145.3015652924
 10
371.1680835657
 20
143.7753450863
 10
369.5188781994
 20
142.2924465507
 10
367.7910290046
 20
140.8550197466
 10
365.9870411974
 20
139.4651488056
 10
364.1095303876
 20
138.1248489075
 10
362.1612187865
 20
136.8360633592
 10
360.1449312595
 20
135.6006607764
 10
358.063591231
 20
134.4204323749
 10
355.9202164448
 20
133.2970893729
 10
353.7179145896
 20
132.2322605104
 10
351.4598787925
 20
131.2274896875
 10
349.1493829895
 20
130.2842337259
 10
346.7897771786
 20
129.4038602563
 10
344.3844825628
 20
128.5876457363
 10
341.9369865892
 20
127.8367735989
 10
339.4508378931
 20
127.1523325369
 10
336.9296411523
 20
126.5353149243
 10
334.3770518611
 20
125.9866153778
 10
331.79677103
 20
125.5070294592
 10
329.1925398194
 20
125.0972525223
 10
326.5681341157
 20
124.7578787044
 10
323.9273590562
 20
124.4894000651
 10
321.2740435124
 20
124.2922058728
 10
318.612034538
 20
124.1665820402
 10
315.9451917917
 20
124.1127107099
 10
313.2773819404
 20
124.1306699901
 10
310.6124730534
 20
124.2204338417
 10
307.9543289937
 20
124.3818721155
 10
305.3068038163
 20
124.6147507416
 10
302.6737361794
 20
124.9187320682
 10
300.0589437795
 20
125.2933753514
 10
297.4662178154
 20
125.7381373943
 10
294.8993174921
 20
126.2523733344
 10
292.3619645695
 20
126.8353375788
 10
289.8578379669
 20
127.4861848851
 10
287.3905684284
 20
128.2039715869
 10
284.9637332589
 20
128.9876569621
 10
282.5808511375
 20
129.8361047418
 10
280.2453770155
 20
130.7480847578
 10
277.960697107
 20
131.7222747264
 10
275.7301239794
 20
132.7572621652
 10
273.5568917507
 20
133.8515464414
 10
271.4441513997
 20
135.0035409473
 10
269.3949661979
 20
136.2115754011
 10
267.4123072681
 20
137.4738982683
 10
265.499049276
 20
138.7886793014
 10
263.657966263
 20
140.1540121937
 10
261.8917276233
 20
141.5679173429
 10
260.2028942342
 20
143.0283447217
 10
258.5939147425
 20
144.5331768502
 10
257.0671220148
 20
146.0802318655
 10
255.6247297545
 20
147.6672666858
 10
254.2688292924
 20
149.2919802622
 10
253.0013865548
 20
150.9520169156
 10
251.8242392123
 20
152.6449697514
 10
250.739094016
 20
154.3683841498
 10
249.7475243228
 20
156.1197613247
 10
248.8509678139
 20
157.8965619467
 10
248.0507244106
 20
159.6962098247
 10
247.3479543892
 20
161.5160956413
 10
246.7436766992
 20
163.3535807362
 10
246.2387674853
 20
165.2060009315
 10
245.8339588177
 20
167.070670395
 10
245.5298376303
 20
168.9448855345
 10
245.494446227
 20
169.2147637174
  0
LWPOLYLINE
  5
2CF
330
1F
100
AcDbEntity
  8
0
  6
Continuous
 62
     8
370
    18
100
AcDbPolyline
 90
       79
 70
   128
 43
0.0
 10
378.5096725326
 20
178.5916311443
 10
378.4598807805
 20
180.0850422517
 10
378.3061177634
 20
181.8825117229
 10
378.0501231989
 20
183.6741454534
 10
377.6923123112
 20
185.4570374067
 10
377.2332654708
 20
187.2282957255
 10
376.6737272533
 20
188.9850474223
 10
376.0146052319
 20
190.7244430396
 10
375.2569685049
 20
192.4436612711
 10
374.4020459618
 20
194.1399135387
 10
373.45122429
 20
195.810448515
 10
372.4060457259
 20
197.4525565861
 10
371.2682055528
 20
199.0635742468
 10
370.0395493517
 20
200.6408884205
 10
368.7220700074
 20
202.1819406979
 10
367.3179044763
 20
203.6842314864
 10
365.82933032
 20
205.1453240651
 10
364.2587620112
 20
206.5628485363
 10
362.6087470174
 20
207.9345056701
 10
360.881961669
 20
209.2580706338
 10
359.0812068182
 20
210.5313966001
 10
357.2094032959
 20
211.7524182296
 10
355.2695871742
 20
212.9191550207
 10
353.2649048421
 20
214.0297145222
 10
351.1986079015
 20
215.0822954025
 10
349.0740478937
 20
216.0751903714
 10
346.8946708627
 20
217.0067889498
 10
344.6640117662
 20
217.8755800813
 10
342.3856887412
 20
218.6801545836
 10
340.0633972361
 20
219.4192074339
 10
337.7009040162
 20
220.0915398857
 10
335.3020410542
 20
220.6960614133
 10
332.8706993144
 20
221.2317914807
 10
330.4108224422
 20
221.6978611317
 10
327.9264003668
 20
222.0935143995
 10
325.4214628299
 20
222.4181095333
 10
322.9000728493
 20
222.6711200384
 10
320.3663201288
 20
222.8521355309
 10
317.8243144247
 20
222.960862403
 10
315.2781788793
 20
222.9971242993
 10
312.732043334
 20
222.960862403
 10
310.1900376298
 20
222.8521355309
 10
307.6562849093
 20
222.6711200384
 10
305.1348949287
 20
222.4181095333
 10
302.6299573918
 20
222.0935143995
 10
300.1455353164
 20
221.6978611317
 10
297.6856584442
 20
221.2317914807
 10
295.2543167045
 20
220.6960614133
 10
292.8554537424
 20
220.0915398857
 10
290.4929605225
 20
219.4192074339
 10
288.1706690174
 20
218.6801545836
 10
285.8923459925
 20
217.8755800813
 10
283.6616868959
 20
217.0067889498
 10
281.482309865
 20
216.0751903714
 10
279.3577498571
 20
215.0822954025
 10
277.2914529166
 20
214.0297145222
 10
275.2867705844
 20
212.9191550207
 10
273.3469544627
 20
211.7524182296
 10
271.4751509404
 20
210.5313966001
 10
269.6743960896
 20
209.2580706338
 10
267.9476107412
 20
207.9345056701
 10
266.2975957474
 20
206.5628485363
 10
264.7270274386
 20
205.1453240651
 10
263.2384532823
 20
203.6842314864
 10
261.8342877512
 20
202.1819406979
 10
260.5168084069
 20
200.6408884205
 10
259.2881522058
 20
199.0635742468
 10
258.1503120328
 20
197.4525565861
 10
257.1051334686
 20
195.810448515
 10
256.1543117969
 20
194.1399135387
 10
255.2993892537
 20
192.4436612711
 10
254.5417525267
 20
190.7244430396
 10
253.8826305053
 20
188.9850474223
 10
253.3230922879
 20
187.2282957255
 10
252.8640454475
 20
185.4570374067
 10
252.5062345597
 20
183.6741454534
 10
252.2502399952
 20
181.8825117229
 10
252.0964769781
 20
180.0850422517
 10
252.046685226
 20
178.5916311443
  0
LINE
  5
2D0
330
1F
100
AcDbEntity
  8
0
  6
Continuous
 62
     8
370
    18
100
AcDbLine
 10
252.0737710773
 20
178.2036090981
 30
0.0
 11
252.0761046915
 21
177.8195622532
 31
0.0
  0
LWPOLYLINE
  5
2D1
330
1F
100
AcDbEntity
  8
0
  6
Continuous
 62
     8
370
    18
100
AcDbPolyline
 90
       81
 70
   128
 43
0.0
 10
378.4682405821
 20
177.2514359001
 10
378.4825866813
 20
178.2036090981
 10
378.431327791
 20
180.0031851783
 10
378.2776342622
 20
181.7998423396
 10
378.0217553864
 20
183.5906663974
 10
377.6641062001
 20
185.3727526285
 10
377.2052668116
 20
187.1432104827
 10
376.6459814599
 20
188.8991682706
 10
375.987157308
 20
190.6377778226
 10
375.2298629712
 20
192.3562191073
 10
374.3753267835
 20
194.0517048069
 10
373.4249348058
 20
195.7214848373
 10
372.3802285773
 20
197.3628508091
 10
371.2429026154
 20
198.9731404209
 10
370.014801667
 20
200.5497417769
 10
368.6979177162
 20
202.090097624
 10
367.2943867537
 20
203.5917094993
 10
365.8064853118
 20
205.0521417829
 10
364.2366267721
 20
206.4690256484
 10
362.5873574509
 20
207.8400629048
 10
360.861352469
 20
209.1630297248
 10
359.0614114129
 20
210.4357802513
 10
357.1904537935
 20
211.6562500784
 10
355.2515143109
 20
212.8224595994
 10
353.2477379321
 20
213.9325172184
 10
351.1823747896
 20
214.9846224177
 10
349.0587749101
 20
215.9770686788
 10
346.8803827803
 20
216.9082462505
 10
344.6507317602
 20
217.7766447591
 10
342.3734383519
 20
218.5808556592
 10
340.0521963337
 20
219.3195745177
 10
337.6907707685
 20
219.9916031299
 10
335.2929918974
 20
220.595851463
 10
332.8627489263
 20
221.1313394239
 10
330.4039837183
 20
221.5971984493
 10
327.9206843996
 20
221.9926729141
 10
325.4168788907
 20
222.3171213572
 10
322.8966283733
 20
222.5700175222
 10
320.3640207029
 20
222.7509512104
 10
317.8231637785
 20
222.8596289468
 10
315.2781788793
 20
222.8958744557
 10
312.7331939801
 20
222.8596289468
 10
310.1923370557
 20
222.7509512104
 10
307.6597293854
 20
222.5700175222
 10
305.1394788679
 20
222.3171213572
 10
302.635673359
 20
221.9926729141
 10
300.1523740403
 20
221.5971984493
 10
297.6936088323
 20
221.1313394239
 10
295.2633658612
 20
220.595851463
 10
292.8655869901
 20
219.9916031299
 10
290.504161425
 20
219.3195745177
 10
288.1829194067
 20
218.5808556592
 10
285.9056259984
 20
217.7766447591
 10
283.6759749783
 20
216.9082462505
 10
281.4975828485
 20
215.9770686788
 10
279.373982969
 20
214.9846224177
 10
277.3086198265
 20
213.9325172184
 10
275.3048434477
 20
212.8224595994
 10
273.3659039651
 20
211.6562500784
 10
271.4949463457
 20
210.4357802513
 10
269.6950052896
 20
209.1630297248
 10
267.9690003077
 20
207.8400629048
 10
266.3197309865
 20
206.4690256484
 10
264.7498724468
 20
205.0521417829
 10
263.2619710049
 20
203.5917094993
 10
261.8584400424
 20
202.090097624
 10
260.5415560916
 20
200.5497417769
 10
259.3134551432
 20
198.9731404209
 10
258.1761291813
 20
197.3628508091
 10
257.1314229529
 20
195.7214848373
 10
256.1810309752
 20
194.0517048069
 10
255.3264947875
 20
192.3562191073
 10
254.5692004506
 20
190.6377778226
 10
253.9103762987
 20
188.8991682706
 10
253.3510909471
 20
187.1432104827
 10
252.8922515585
 20
185.3727526285
 10
252.5346023722
 20
183.5906663974
 10
252.2787234964
 20
181.7998423396
 10
252.1250299676
 20
180.0031851783
 10
252.0737710773
 20
178.2036090981
 10
252.0737710773
 20
178.2036090981
  0
LWPOLYLINE
  5
2D2
330
1F
100
AcDbEntity
  8
0
  6
Continuous
 62
     8
370
    18
100
AcDbPolyline
 90
       88
 70
   128
 43
0.0
 10
377.0634726006
 20
176.3163655587
 10
377.0127160629
 20
178.0868794602
 10
376.8605298428
 20
179.854484412
 10
376.6071639817
 20
181.6162762439
 10
376.2530347591
 20
183.3693603363
 10
375.7987240084
 20
185.1108563769
 10
375.244978161
 20
186.8379030922
 10
374.5927070198
 20
188.5476629489
 10
373.8429822646
 20
190.2373268162
 10
372.9970356913
 20
191.9041185806
 10
372.0562571877
 20
193.5452997078
 10
371.0221924506
 20
195.1581737414
 10
369.8965404456
 20
196.7400907336
 10
368.6811506159
 20
198.288451599
 10
367.3780198439
 20
199.8007123847
 10
365.98928917
 20
201.2743884503
 10
364.517240275
 20
202.7070585497
 10
362.9642917315
 20
204.0963688099
 10
361.3329950297
 20
205.4400365977
 10
359.626030386
 20
206.7358542704
 10
357.8462023387
 20
207.9816928031
 10
355.9964351406
 20
209.1755052862
 10
354.0797679543
 20
210.3153302891
 10
352.0993498591
 20
211.3992950822
 10
350.0584346767
 20
212.4256187142
 10
347.9603756254
 20
213.392614938
 10
345.8086198105
 20
214.2986949815
 10
343.6067025615
 20
215.1423701575
 10
341.3582416223
 20
215.9222543099
 10
339.0669312086
 20
216.6370660911
 10
336.7365359373
 20
217.2856310671
 10
334.3708846416
 20
217.8668836475
 10
331.9738640806
 20
218.3798688358
 10
329.5494125525
 20
218.8237437986
 10
327.1015134251
 20
219.1977792507
 10
324.63418859
 20
219.5013606526
 10
322.1514918555
 20
219.733989221
 10
319.6575022859
 20
219.8952827477
 10
317.1563174994
 20
219.9849762278
 10
314.6520469361
 20
220.0029222954
 10
312.1488051059
 20
219.9490914649
 10
309.6507048286
 20
219.8235721803
 10
307.1618504764
 20
219.6265706695
 10
304.6863312304
 20
219.3584106054
 10
302.2282143624
 20
219.0195325743
 10
299.7915385517
 20
218.610493352
 10
297.3803072505
 20
218.1319649887
 10
294.9984821053
 20
217.5847337054
 10
292.6499764487
 20
216.9696986015
 10
290.3386488693
 20
216.2878701783
 10
288.0682968722
 20
215.5403686779
 10
285.8426506398
 20
214.7284222433
 10
283.665366903
 20
213.8533649005
 10
281.5400229332
 20
212.9166343663
 10
279.4701106651
 20
211.9197696866
 10
277.459030959
 20
210.8644087074
 10
275.5100880137
 20
209.752285384
 10
273.6264839373
 20
208.5852269322
 10
271.8113134862
 20
207.3651508258
 10
270.0675589809
 20
206.0940616467
 10
268.3980854053
 20
204.7740477912
 10
266.8056357003
 20
203.4072780385
 10
265.2928262563
 20
201.9959979877
 10
263.8621426155
 20
200.5425263683
 10
262.5159353873
 20
199.0492512303
 10
261.2564163866
 20
197.5186260208
 10
260.0856549998
 20
195.9531655531
 10
259.0055747848
 20
194.3554418745
 10
258.0179503106
 20
192.7280800409
 10
257.1244042416
 20
191.0737538035
 10
256.3264046716
 20
189.3951812159
 10
255.6252627119
 20
187.6951201686
 10
255.0221303367
 20
185.9763638573
 10
254.5179984911
 20
184.2417361942
 10
254.1136954624
 20
182.494087168
 10
253.8098855192
 20
180.7362881613
 10
253.6070678207
 20
178.9712272335
 10
253.5055755957
 20
177.2018043748
 10
253.5055755957
 20
175.4309267426
 10
253.6070678207
 20
173.6615038839
 10
253.8098855192
 20
171.8964429561
 10
254.1136954624
 20
170.1386439494
 10
254.5179984911
 20
168.3909949232
 10
255.0221303367
 20
166.6563672601
 10
255.6252627119
 20
164.9376109488
 10
256.3264046716
 20
163.2375499015
 10
257.1244042416
 20
161.5589773139
 10
257.9151394969
 20
160.0851574545
  0
ARC
  5
2D3
330
1F
100
AcDbEntity
  8
0
  6
Continuous
 62
     8
370
    18
100
AcDbCircle
 10
344.1138198738
 20
176.5755896245
 30
0.0
 40
32.95067240489158
100
AcDbArc
 50
329.9696851776
 51
359.5492474951
  0
LWPOLYLINE
  5
2D4
330
1F
100
AcDbEntity
  8
0
  6
Continuous
 62
     8
370
    18
100
AcDbPolyline
 90
       67
 70
   128
 43
0.0
 10
249.0769383172
 20
156.2116902432
 10
249.5174071121
 20
155.3176628794
 10
250.4703140654
 20
153.5488453945
 10
251.5183354972
 20
151.8071345504
 10
252.6599332915
 20
150.0950865477
 10
253.8934319962
 20
148.4152140531
 10
255.2170212817
 20
146.769982511
 10
256.6287585984
 20
145.1618065257
 10
258.126572027
 20
143.5930463171
 10
259.7082633198
 20
142.0660042572
 10
261.3715111267
 20
140.5829214909
 10
263.1138744021
 20
139.1459746465
 10
264.9327959878
 20
137.7572726417
 10
266.8256063653
 20
136.4188535882
 10
268.7895275746
 20
135.1326818006
 10
270.8216772904
 20
133.9006449132
 10
272.9190730527
 20
132.7245511102
 10
275.0786366441
 20
131.6061264713
 10
277.2971986071
 20
130.547012439
 10
279.5715028963
 20
129.5487634091
 10
281.8982116563
 20
128.6128444497
 10
284.2739101212
 20
127.7406291511
 10
286.6951116261
 20
126.9333976093
 10
289.1582627236
 20
126.1923345481
 10
291.6597484
 20
125.5185275796
 10
294.1958973801
 20
124.9129656085
 10
296.7629875155
 20
124.3765373805
 10
299.3572512474
 20
123.910030178
 10
301.9748811362
 20
123.5141286646
 10
304.6120354488
 20
123.1894138804
 10
307.2648437978
 20
122.9363623891
 10
309.929412821
 20
122.7553455787
 10
312.601831896
 20
122.6466291164
 10
315.2781788793
 20
122.6103725584
 10
317.9545258626
 20
122.6466291164
 10
320.6269449376
 20
122.7553455787
 10
323.2915139608
 20
122.9363623891
 10
325.9443223098
 20
123.1894138804
 10
328.5814766225
 20
123.5141286646
 10
331.1991065112
 20
123.910030178
 10
333.7933702431
 20
124.3765373805
 10
336.3604603785
 20
124.9129656085
 10
338.8966093586
 20
125.5185275796
 10
341.398095035
 20
126.1923345481
 10
343.8612461326
 20
126.9333976093
 10
346.2824476374
 20
127.7406291511
 10
348.6581461023
 20
128.6128444497
 10
350.9848548624
 20
129.5487634091
 10
353.2591591515
 20
130.547012439
 10
355.4777211146
 20
131.6061264713
 10
357.6372847059
 20
132.7245511102
 10
359.7346804683
 20
133.9006449132
 10
361.766830184
 20
135.1326818006
 10
363.7307513933
 20
136.4188535882
 10
365.6235617709
 20
137.7572726417
 10
367.4424833565
 20
139.1459746465
 10
369.1848466319
 20
140.5829214909
 10
370.8480944388
 20
142.0660042572
 10
372.4297857316
 20
143.5930463171
 10
373.9275991602
 20
145.1618065257
 10
375.3393364769
 20
146.769982511
 10
376.6629257625
 20
148.4152140531
 10
377.8964244671
 20
150.0950865477
 10
379.0380222615
 20
151.8071345504
 10
380.0860436932
 20
153.5488453945
 10
381.0389506465
 20
155.3176628794
 10
381.4794194414
 20
156.2116902432
  0
LWPOLYLINE
  5
2D5
330
1F
100
AcDbEntity
  8
0
  6
Continuous
 62
     8
370
    18
100
AcDbPolyline
 90
       78
 70
   128
 43
0.0
 10
245.4968711661
 20
165.7084555063
 10
245.6042005201
 20
165.1153375125
 10
246.0103485094
 20
163.2444987338
 10
246.5169282306
 20
161.3859497504
 10
247.1232051916
 20
159.5423852806
 10
247.8283003488
 20
157.7164783168
 10
248.6311913816
 20
155.9108762495
 10
249.5307141748
 20
154.1281970291
 10
250.5255645062
 20
152.3710253699
 10
251.6142999381
 20
150.641909003
 10
252.7953419081
 20
148.9433549817
 10
254.0669780183
 20
147.277826047
 10
255.4273645179
 20
145.6477370566
 10
256.8745289766
 20
144.0554514837
 10
258.4063731441
 20
142.5032779902
 10
260.020675993
 20
140.9934670792
 10
261.7150969384
 20
139.5282078323
 10
263.4871792319
 20
138.1096247353
 10
265.3343535236
 20
136.739774598
 10
267.2539415875
 20
135.4206435721
 10
269.2431602042
 20
134.1541442716
 10
271.299125197
 20
132.9421129994
 10
273.4188556132
 20
131.7863070848
 10
275.5992780464
 20
130.6884023361
 10
277.8372310924
 20
129.6499906102
 10
280.1294699334
 20
128.6725775047
 10
282.472671042
 20
127.7575801752
 10
284.8634370008
 20
126.9063252804
 10
287.2983014277
 20
126.1200470585
 10
289.7737340019
 20
125.3998855378
 10
292.2861455829
 20
124.7468848835
 10
294.8318934142
 20
124.1619918843
 10
297.4072864047
 20
123.6460545791
 10
300.0085904809
 20
123.1998210275
 10
302.6320340004
 20
122.8239382257
 10
305.273813221
 20
122.5189511678
 10
307.9300978154
 20
122.2853020557
 10
310.5970364248
 20
122.1233296585
 10
313.2707622433
 20
122.0332688206
 10
315.947398624
 20
122.0152501215
 10
318.6230647001
 20
122.0692996867
 10
321.2938810114
 20
122.1953391495
 10
323.9559751298
 20
122.3931857648
 10
326.6054872733
 20
122.6625526737
 10
329.2385759024
 20
123.0030493201
 10
331.8514232906
 20
123.4141820165
 10
334.4402410587
 20
123.8953546595
 10
337.0012756686
 20
124.4458695951
 10
339.5308138649
 20
125.064928629
 10
342.025188059
 20
125.751634185
 10
344.4807816469
 20
126.5049906055
 10
346.8940342525
 20
127.3239055959
 10
349.2614468904
 20
128.2071918076
 10
351.5795870384
 20
129.1535685601
 10
353.8450936151
 20
130.1616636976
 10
356.0546818525
 20
131.2300155785
 10
358.2051480588
 20
132.3570751947
 10
360.2933742637
 20
133.5412084175
 10
362.3163327388
 20
134.780698367
 10
364.2710903876
 20
136.0737479012
 10
366.1548129985
 20
137.4184822219
 10
367.9647693539
 20
138.8129515929
 10
369.6983351899
 20
140.2551341669
 10
371.3529970019
 20
141.7429389171
 10
372.9263556884
 20
143.2742086688
 10
374.4161300297
 20
144.8467232273
 10
375.8201599956
 20
146.4582025968
 10
377.1364098767
 20
148.1063102862
 10
378.3629712365
 20
149.7886566971
 10
379.4980656784
 20
151.5028025878
 10
380.5400474239
 20
153.2462626108
 10
381.4874056992
 20
155.0165089157
 10
382.3387669252
 20
156.8109748145
 10
383.0928967096
 20
158.6270585034
 10
383.7487016363
 20
160.4621268345
 10
384.3052308508
 20
162.3135191342
 10
384.761677439
 20
164.1785510607
 10
385.0594865925
 20
165.7084555063
  0
LWPOLYLINE
  5
2D6
330
1F
100
AcDbEntity
  8
0
  6
Continuous
 62
     8
370
    18
100
AcDbPolyline
 90
       72
 70
   128
 43
0.0
 10
383.435001223
 20
160.4670545031
 10
382.831166906
 20
158.7883560591
 10
382.0799476733
 20
156.9792815158
 10
381.2318722621
 20
155.191741329
 10
380.2881703008
 20
153.428327261
 10
379.2502100669
 20
151.6915960937
 10
378.1194965036
 20
149.9840659212
 10
376.8976690374
 20
148.3082124991
 10
375.5864992014
 20
146.6664656545
 10
374.1878880665
 20
145.0612057635
 10
372.703863485
 20
143.4947602995
 10
371.1365771508
 20
141.9694004585
 10
369.4883014793
 20
140.4873378666
 10
367.7614263125
 20
139.0507213728
 10
365.9584554543
 20
137.6616339337
 10
364.0820030403
 20
136.3220895933
 10
362.1347897469
 20
135.0340305629
 10
360.1196388472
 20
133.7993244047
 10
358.0394721175
 20
132.6197613249
 10
355.8973056006
 20
131.497051577
 10
353.6962452332
 20
130.4328229829
 10
351.4394823424
 20
129.4286185722
 10
349.1302890187
 20
128.4858943454
 10
346.7720133715
 20
127.6060171625
 10
344.3680746751
 20
126.7902627613
 10
341.9219584109
 20
126.0398139076
 10
339.4372112135
 20
125.3557586806
 10
336.9174357288
 20
124.739088895
 10
334.3662853905
 20
124.1906986629
 10
331.7874591226
 20
123.7113830978
 10
329.1846959766
 20
123.3018371615
 10
326.5617697103
 20
122.9626546564
 10
323.922483316
 20
122.6943273646
 10
321.2706635066
 20
122.4972443352
 10
318.6101551675
 20
122.3716913197
 10
315.9448157813
 20
122.3178503579
 10
313.2785098353
 20
122.335799514
 10
310.6151032182
 20
122.4255127636
 10
307.9584576151
 20
122.586860031
 10
305.312424908
 20
122.8196073781
 10
302.6808415914
 20
123.1234173435
 10
300.0675232096
 20
123.4978494317
 10
297.4762588244
 20
123.9423607521
 10
294.9108055213
 20
124.4563068057
 10
292.3748829625
 20
125.0389424198
 10
289.8721679932
 20
125.6894228286
 10
287.4062893109
 20
126.4068048977
 10
284.9808222038
 20
127.1900484915
 10
282.5992833675
 20
128.0380179819
 10
280.2651258055
 20
128.949483894
 10
277.9817338232
 20
129.9231246895
 10
275.7524181206
 20
130.9575286822
 10
273.5804109925
 20
132.0511960853
 10
271.4688616414
 20
133.2025411857
 10
269.4208316121
 20
134.4098946429
 10
267.4392903524
 20
135.6715059099
 10
265.5271109075
 20
136.9855457709
 10
263.687065755
 20
138.3501089938
 10
261.9218227844
 20
139.7632170924
 10
260.2339414291
 20
141.2228211951
 10
258.6258689559
 20
142.7268050153
 10
257.0999369161
 20
144.2729879204
 10
255.6583577652
 20
145.8591280929
 10
254.3032216552
 20
147.4829257813
 10
253.036493404
 20
149.1420266341
 10
251.8600096463
 20
150.8340251137
 10
250.7754761711
 20
152.5564679841
 10
249.7844654484
 20
154.3068578677
 10
248.8884143489
 20
156.0826568666
 10
248.088622061
 20
157.881290242
 10
247.3862482072
 20
159.7001501475
 10
247.1213565356
 20
160.4670545031
  0
LWPOLYLINE
  5
2D7
330
1F
100
AcDbEntity
  8
0
  6
Continuous
 62
     8
370
    18
100
AcDbPolyline
 90
       71
 70
   128
 43
0.0
 10
247.3719789154
 20
158.4925568925
 10
247.9023890845
 20
157.0420182731
 10
248.6610131598
 20
155.2268114305
 10
249.5174071122
 20
153.4334832885
 10
250.4703140654
 20
151.6646658037
 10
251.5183354972
 20
149.9229549595
 10
252.6599332915
 20
148.2109069569
 10
253.8934319962
 20
146.5310344622
 10
255.2170212818
 20
144.8858029202
 10
256.6287585984
 20
143.2776269349
 10
258.1265720271
 20
141.7088667263
 10
259.7082633198
 20
140.1818246664
 10
261.3715111267
 20
138.6987419001
 10
263.1138744021
 20
137.2617950557
 10
264.9327959878
 20
135.8730930509
 10
266.8256063653
 20
134.5346739974
 10
268.7895275746
 20
133.2485022097
 10
270.8216772904
 20
132.0164653224
 10
272.9190730527
 20
130.8403715194
 10
275.0786366441
 20
129.7219468805
 10
277.2971986071
 20
128.6628328482
 10
279.5715028963
 20
127.6645838183
 10
281.8982116563
 20
126.7286648589
 10
284.2739101213
 20
125.8564495603
 10
286.6951116261
 20
125.0492180185
 10
289.1582627236
 20
124.3081549573
 10
291.6597484
 20
123.6343479888
 10
294.1958973801
 20
123.0287860177
 10
296.7629875155
 20
122.4923577897
 10
299.3572512475
 20
122.0258505872
 10
301.9748811362
 20
121.6299490738
 10
304.6120354488
 20
121.3052342896
 10
307.2648437978
 20
121.0521827983
 10
309.929412821
 20
120.8711659879
 10
312.601831896
 20
120.7624495256
 10
315.2781788793
 20
120.7261929676
 10
317.9545258626
 20
120.7624495256
 10
320.6269449376
 20
120.8711659879
 10
323.2915139608
 20
121.0521827983
 10
325.9443223098
 20
121.3052342896
 10
328.5814766225
 20
121.6299490738
 10
331.1991065112
 20
122.0258505872
 10
333.7933702431
 20
122.4923577897
 10
336.3604603785
 20
123.0287860177
 10
338.8966093586
 20
123.6343479888
 10
341.398095035
 20
124.3081549573
 10
343.8612461326
 20
125.0492180185
 10
346.2824476374
 20
125.8564495603
 10
348.6581461023
 20
126.7286648589
 10
350.9848548624
 20
127.6645838183
 10
353.2591591515
 20
128.6628328482
 10
355.4777211145
 20
129.7219468805
 10
357.6372847059
 20
130.8403715194
 10
359.7346804682
 20
132.0164653224
 10
361.766830184
 20
133.2485022097
 10
363.7307513933
 20
134.5346739974
 10
365.6235617708
 20
135.8730930509
 10
367.4424833565
 20
137.2617950557
 10
369.1848466319
 20
138.6987419001
 10
370.8480944388
 20
140.1818246664
 10
372.4297857316
 20
141.7088667263
 10
373.9275991602
 20
143.2776269349
 10
375.3393364769
 20
144.8858029202
 10
376.6629257624
 20
146.5310344622
 10
377.8964244671
 20
148.2109069569
 10
379.0380222614
 20
149.9229549595
 10
380.0860436932
 20
151.6646658037
 10
381.0389506465
 20
153.4334832885
 10
381.8953445989
 20
155.2268114305
 10
382.6539686742
 20
157.0420182731
 10
383.1843788432
 20
158.4925568925
  0
LWPOLYLINE
  5
2D8
330
1F
100
AcDbEntity
  8
0
  6
Continuous
 62
     8
370
    18
100
AcDbPolyline
 90
       57
 70
   128
 43
0.0
 10
371.6848752096
 20
193.2348727805
 10
370.9400847463
 20
194.2710127859
 10
369.718628893
 20
195.8390833562
 10
368.4088704306
 20
197.3711045374
 10
367.0129337923
 20
198.8645913854
 10
365.5330831923
 20
200.3171214592
 10
363.9717189538
 20
201.7263387496
 10
362.3313736152
 20
203.0899575011
 10
360.6147078226
 20
204.405765919
 10
358.8245060144
 20
205.6716297573
 10
356.9636719042
 20
206.8854957803
 10
355.035223772
 20
208.0453950927
 10
353.0422895675
 20
209.1494463337
 10
350.9881018374
 20
210.195858728
 10
348.8759924817
 20
211.1829349911
 10
346.7093873495
 20
212.1090740815
 10
344.4918006822
 20
212.9727737983
 10
342.2268294135
 20
213.7726332174
 10
339.918147335
 20
214.5073549639
 10
337.5694991377
 20
215.1757473164
 10
335.1846943373
 20
215.77672614
 10
332.7676010961
 20
216.309316645
 10
330.3221399481
 20
216.7726549675
 10
327.8522774402
 20
217.1659895712
 10
325.3620196985
 20
217.4886824659
 10
322.8554059301
 20
217.7402102424
 10
320.3365018717
 20
217.9201649219
 10
317.809393195
 20
218.0282546172
 10
315.2781788793
 20
218.0643040063
 10
312.7469645637
 20
218.0282546172
 10
310.2198558869
 20
217.9201649219
 10
307.7009518285
 20
217.7402102424
 10
305.1943380601
 20
217.4886824659
 10
302.7040803184
 20
217.1659895712
 10
300.2342178105
 20
216.7726549675
 10
297.7887566625
 20
216.309316645
 10
295.3716634213
 20
215.77672614
 10
292.986858621
 20
215.1757473163
 10
290.6382104236
 20
214.5073549639
 10
288.3295283452
 20
213.7726332174
 10
286.0645570764
 20
212.9727737983
 10
283.8469704091
 20
212.1090740815
 10
281.6803652769
 20
211.1829349911
 10
279.5682559212
 20
210.195858728
 10
277.5140681911
 20
209.1494463336
 10
275.5211339866
 20
208.0453950927
 10
273.5926858544
 20
206.8854957802
 10
271.7318517442
 20
205.6716297573
 10
269.941649936
 20
204.405765919
 10
268.2249841434
 20
203.089957501
 10
266.5846388048
 20
201.7263387496
 10
265.0232745663
 20
200.3171214591
 10
263.5434239663
 20
198.8645913853
 10
262.147487328
 20
197.3711045373
 10
260.8377288657
 20
195.8390833562
 10
259.6162730123
 20
194.2710127858
 10
258.871482549
 20
193.2348727805
  0
LWPOLYLINE
  5
2D9
330
1F
100
AcDbEntity
  8
0
  6
Continuous
 62
     8
370
    18
100
AcDbPolyline
 90
       83
 70
   128
 43
0.0
 10
245.0220240573
 20
168.1337084638
 10
245.0954087703
 20
166.9988408296
 10
245.2990731386
 20
165.1115739584
 10
245.6042005201
 20
163.2311579216
 10
246.0103485094
 20
161.3603191428
 10
246.5169282306
 20
159.5017701594
 10
247.1232051916
 20
157.6582056897
 10
247.8283003488
 20
155.8322987259
 10
248.6311913816
 20
154.0266966586
 10
249.5307141748
 20
152.2440174381
 10
250.5255645062
 20
150.486845779
 10
251.6142999381
 20
148.757729412
 10
252.7953419081
 20
147.0591753907
 10
254.0669780183
 20
145.393646456
 10
255.4273645179
 20
143.7635574656
 10
256.8745289766
 20
142.1712718928
 10
258.4063731441
 20
140.6190983993
 10
260.020675993
 20
139.1092874883
 10
261.7150969384
 20
137.6440282414
 10
263.4871792319
 20
136.2254451444
 10
265.3343535236
 20
134.855595007
 10
267.2539415875
 20
133.5364639812
 10
269.2431602042
 20
132.2699646807
 10
271.299125197
 20
131.0579334084
 10
273.4188556132
 20
129.9021274939
 10
275.5992780464
 20
128.8042227452
 10
277.8372310924
 20
127.7658110193
 10
280.1294699334
 20
126.7883979138
 10
282.472671042
 20
125.8734005843
 10
284.8634370008
 20
125.0221456895
 10
287.2983014277
 20
124.2358674676
 10
289.7737340019
 20
123.5157059469
 10
292.2861455829
 20
122.8627052926
 10
294.8318934142
 20
122.2778122934
 10
297.4072864047
 20
121.7618749882
 10
300.0085904809
 20
121.3156414366
 10
302.6320340004
 20
120.9397586348
 10
305.273813221
 20
120.6347715769
 10
307.9300978154
 20
120.4011224648
 10
310.5970364248
 20
120.2391500676
 10
313.2707622433
 20
120.1490892296
 10
315.947398624
 20
120.1310705306
 10
318.6230647001
 20
120.1851200958
 10
321.2938810114
 20
120.3111595586
 10
323.9559751298
 20
120.5090061739
 10
326.6054872733
 20
120.7783730828
 10
329.2385759024
 20
121.1188697292
 10
331.8514232906
 20
121.5300024256
 10
334.4402410587
 20
122.0111750686
 10
337.0012756686
 20
122.5616900042
 10
339.5308138649
 20
123.1807490381
 10
342.025188059
 20
123.8674545941
 10
344.4807816469
 20
124.6208110146
 10
346.8940342525
 20
125.439726005
 10
349.2614468904
 20
126.3230122167
 10
351.5795870384
 20
127.2693889692
 10
353.8450936151
 20
128.2774841067
 10
356.0546818525
 20
129.3458359876
 10
358.2051480588
 20
130.4728956038
 10
360.2933742637
 20
131.6570288266
 10
362.3163327388
 20
132.8965187761
 10
364.2710903876
 20
134.1895683103
 10
366.1548129985
 20
135.534302631
 10
367.9647693539
 20
136.928772002
 10
369.6983351899
 20
138.370954576
 10
371.3529970019
 20
139.8587593262
 10
372.9263556884
 20
141.3900290779
 10
374.4161300297
 20
142.9625436364
 10
375.8201599956
 20
144.5740230059
 10
377.1364098767
 20
146.2221306953
 10
378.3629712365
 20
147.9044771062
 10
379.4980656784
 20
149.6186229969
 10
380.5400474239
 20
151.3620830199
 10
381.4874056992
 20
153.1323293248
 10
382.3387669252
 20
154.9267952236
 10
383.0928967096
 20
156.7428789125
 10
383.7487016363
 20
158.5779472436
 10
384.3052308508
 20
160.4293395433
 10
384.761677439
 20
162.2943714698
 10
385.117379597
 20
164.170338905
 10
385.3718215907
 20
166.0545218756
 10
385.5246345034
 20
167.9441884964
 10
385.5343337013
 20
168.1337084638
  0
LWPOLYLINE
  5
2DA
330
1F
100
AcDbEntity
  8
0
  6
Continuous
 62
     8
370
    18
100
AcDbPolyline
 90
       78
 70
   128
 43
0.0
 10
384.7708376536
 20
163.8471189227
 10
384.4935070033
 20
162.4342431301
 10
384.0388220633
 20
160.5764092641
 10
383.4844407642
 20
158.7321623829
 10
382.831166906
 20
156.9041764683
 10
382.0799476733
 20
155.095101925
 10
381.2318722621
 20
153.3075617381
 10
380.2881703008
 20
151.5441476702
 10
379.2502100669
 20
149.8074165029
 10
378.1194965036
 20
148.0998863304
 10
376.8976690374
 20
146.4240329082
 10
375.5864992014
 20
144.7822860637
 10
374.1878880664
 20
143.1770261727
 10
372.703863485
 20
141.6105807087
 10
371.1365771508
 20
140.0852208677
 10
369.4883014792
 20
138.6031582758
 10
367.7614263125
 20
137.166541782
 10
365.9584554543
 20
135.7774543429
 10
364.0820030403
 20
134.4379100025
 10
362.1347897468
 20
133.149850972
 10
360.1196388472
 20
131.9151448139
 10
358.0394721175
 20
130.7355817341
 10
355.8973056006
 20
129.6128719862
 10
353.6962452332
 20
128.548643392
 10
351.4394823424
 20
127.5444389814
 10
349.1302890187
 20
126.6017147546
 10
346.7720133715
 20
125.7218375717
 10
344.3680746751
 20
124.9060831705
 10
341.9219584109
 20
124.1556343168
 10
339.4372112135
 20
123.4715790898
 10
336.9174357288
 20
122.8549093042
 10
334.3662853905
 20
122.3065190721
 10
331.7874591226
 20
121.827203507
 10
329.1846959766
 20
121.4176575707
 10
326.5617697102
 20
121.0784750656
 10
323.922483316
 20
120.8101477738
 10
321.2706635066
 20
120.6130647444
 10
318.6101551675
 20
120.4875117289
 10
315.9448157813
 20
120.433670767
 10
313.2785098353
 20
120.4516199232
 10
310.6151032182
 20
120.5413331728
 10
307.9584576151
 20
120.7026804402
 10
305.312424908
 20
120.9354277873
 10
302.6808415914
 20
121.2392377527
 10
300.0675232096
 20
121.6136698409
 10
297.4762588244
 20
122.0581811613
 10
294.9108055214
 20
122.5721272149
 10
292.3748829625
 20
123.154762829
 10
289.8721679932
 20
123.8052432378
 10
287.4062893109
 20
124.5226253069
 10
284.9808222038
 20
125.3058689007
 10
282.5992833675
 20
126.1538383911
 10
280.2651258055
 20
127.0653043032
 10
277.9817338232
 20
128.0389450986
 10
275.7524181206
 20
129.0733490914
 10
273.5804109925
 20
130.1670164945
 10
271.4688616414
 20
131.3183615949
 10
269.4208316121
 20
132.5257150521
 10
267.4392903524
 20
133.787326319
 10
265.5271109075
 20
135.1013661801
 10
263.687065755
 20
136.465929403
 10
261.9218227844
 20
137.8790375016
 10
260.2339414292
 20
139.3386416043
 10
258.6258689559
 20
140.8426254245
 10
257.0999369161
 20
142.3888083296
 10
255.6583577652
 20
143.9749485021
 10
254.3032216553
 20
145.5987461905
 10
253.036493404
 20
147.2578470433
 10
251.8600096463
 20
148.9498455229
 10
250.7754761712
 20
150.6722883932
 10
249.7844654484
 20
152.4226782769
 10
248.8884143489
 20
154.1984772758
 10
248.088622061
 20
155.9971106512
 10
247.3862482072
 20
157.8159705567
 10
246.7823111622
 20
159.6524198192
 10
246.2776865772
 20
161.503795763
 10
245.8731061095
 20
163.3674140699
 10
245.7855201051
 20
163.8471189227
  0
LWPOLYLINE
  5
2DB
330
1F
100
AcDbEntity
  8
0
  6
Continuous
 62
     8
370
    18
100
AcDbPolyline
 90
       57
 70
   128
 43
0.0
 10
254.0209088261
 20
145.0776724618
 10
255.2170212818
 20
143.5974562002
 10
256.6287585985
 20
141.9892802148
 10
258.1265720271
 20
140.4205200063
 10
259.7082633199
 20
138.8934779464
 10
261.3715111267
 20
137.41039518
 10
263.1138744022
 20
135.9734483356
 10
264.9327959878
 20
134.5847463309
 10
266.8256063654
 20
133.2463272774
 10
268.7895275746
 20
131.9601554897
 10
270.8216772904
 20
130.7281186024
 10
272.9190730527
 20
129.5520247994
 10
275.0786366441
 20
128.4336001605
 10
277.2971986071
 20
127.3744861282
 10
279.5715028963
 20
126.3762370983
 10
281.8982116563
 20
125.4403181389
 10
284.2739101213
 20
124.5681028403
 10
286.6951116261
 20
123.7608712985
 10
289.1582627236
 20
123.0198082373
 10
291.6597484
 20
122.3460012688
 10
294.1958973801
 20
121.7404392977
 10
296.7629875155
 20
121.2040110697
 10
299.3572512475
 20
120.7375038672
 10
301.9748811362
 20
120.3416023538
 10
304.6120354488
 20
120.0168875696
 10
307.2648437978
 20
119.7638360783
 10
309.929412821
 20
119.5828192679
 10
312.601831896
 20
119.4741028056
 10
315.2781788793
 20
119.4378462476
 10
317.9545258626
 20
119.4741028056
 10
320.6269449376
 20
119.5828192679
 10
323.2915139608
 20
119.7638360783
 10
325.9443223098
 20
120.0168875696
 10
328.5814766225
 20
120.3416023538
 10
331.1991065112
 20
120.7375038672
 10
333.7933702431
 20
121.2040110697
 10
336.3604603785
 20
121.7404392977
 10
338.8966093586
 20
122.3460012688
 10
341.398095035
 20
123.0198082373
 10
343.8612461326
 20
123.7608712985
 10
346.2824476374
 20
124.5681028403
 10
348.6581461023
 20
125.4403181389
 10
350.9848548624
 20
126.3762370983
 10
353.2591591515
 20
127.3744861282
 10
355.4777211145
 20
128.4336001605
 10
357.6372847059
 20
129.5520247994
 10
359.7346804682
 20
130.7281186024
 10
361.766830184
 20
131.9601554897
 10
363.7307513933
 20
133.2463272774
 10
365.6235617708
 20
134.5847463309
 10
367.4424833565
 20
135.9734483356
 10
369.1848466319
 20
137.41039518
 10
370.8480944388
 20
138.8934779464
 10
372.4297857315
 20
140.4205200063
 10
373.9275991602
 20
141.9892802148
 10
375.3393364769
 20
143.5974562002
 10
376.5354489325
 20
145.0776724618
  0
LWPOLYLINE
  5
2DC
330
1F
100
AcDbEntity
  8
0
  6
Continuous
 62
     8
370
    18
100
AcDbPolyline
 90
       84
 70
   128
 43
0.0
 10
244.9810966596
 20
168.3946396257
 10
244.9935027091
 20
167.6018754588
 10
245.0954087703
 20
165.7104941096
 10
245.2990731386
 20
163.8232272384
 10
245.6042005201
 20
161.9428112016
 10
246.0103485094
 20
160.0719724228
 10
246.5169282306
 20
158.2134234394
 10
247.1232051917
 20
156.3698589697
 10
247.8283003488
 20
154.5439520059
 10
248.6311913816
 20
152.7383499386
 10
249.5307141748
 20
150.9556707181
 10
250.5255645062
 20
149.198499059
 10
251.6142999381
 20
147.469382692
 10
252.7953419081
 20
145.7708286707
 10
254.0669780183
 20
144.105299736
 10
255.4273645179
 20
142.4752107456
 10
256.8745289766
 20
140.8829251728
 10
258.4063731441
 20
139.3307516793
 10
260.020675993
 20
137.8209407683
 10
261.7150969384
 20
136.3556815214
 10
263.4871792319
 20
134.9370984243
 10
265.3343535236
 20
133.567248287
 10
267.2539415875
 20
132.2481172612
 10
269.2431602042
 20
130.9816179607
 10
271.299125197
 20
129.7695866884
 10
273.4188556132
 20
128.6137807739
 10
275.5992780464
 20
127.5158760252
 10
277.8372310925
 20
126.4774642993
 10
280.1294699334
 20
125.5000511938
 10
282.472671042
 20
124.5850538643
 10
284.8634370008
 20
123.7337989695
 10
287.2983014277
 20
122.9475207476
 10
289.7737340019
 20
122.2273592269
 10
292.286145583
 20
121.5743585726
 10
294.8318934142
 20
120.9894655734
 10
297.4072864047
 20
120.4735282682
 10
300.0085904809
 20
120.0272947166
 10
302.6320340004
 20
119.6514119148
 10
305.273813221
 20
119.3464248569
 10
307.9300978154
 20
119.1127757448
 10
310.5970364248
 20
118.9508033476
 10
313.2707622433
 20
118.8607425096
 10
315.947398624
 20
118.8427238106
 10
318.6230647001
 20
118.8967733758
 10
321.2938810114
 20
119.0228128386
 10
323.9559751298
 20
119.2206594539
 10
326.6054872733
 20
119.4900263628
 10
329.2385759024
 20
119.8305230092
 10
331.8514232906
 20
120.2416557055
 10
334.4402410587
 20
120.7228283486
 10
337.0012756686
 20
121.2733432842
 10
339.5308138649
 20
121.8924023181
 10
342.025188059
 20
122.5791078741
 10
344.4807816468
 20
123.3324642946
 10
346.8940342525
 20
124.151379285
 10
349.2614468904
 20
125.0346654967
 10
351.5795870384
 20
125.9810422492
 10
353.8450936151
 20
126.9891373867
 10
356.0546818525
 20
128.0574892676
 10
358.2051480588
 20
129.1845488838
 10
360.2933742637
 20
130.3686821066
 10
362.3163327387
 20
131.6081720561
 10
364.2710903876
 20
132.9012215903
 10
366.1548129985
 20
134.245955911
 10
367.9647693539
 20
135.640425282
 10
369.6983351899
 20
137.082607856
 10
371.3529970019
 20
138.5704126062
 10
372.9263556884
 20
140.1016823579
 10
374.4161300297
 20
141.6741969164
 10
375.8201599956
 20
143.2856762859
 10
377.1364098767
 20
144.9337839753
 10
378.3629712365
 20
146.6161303862
 10
379.4980656784
 20
148.3302762769
 10
380.5400474239
 20
150.0737362999
 10
381.4874056992
 20
151.8439826048
 10
382.3387669252
 20
153.6384485036
 10
383.0928967095
 20
155.4545321925
 10
383.7487016362
 20
157.2896005236
 10
384.3052308508
 20
159.1409928233
 10
384.761677439
 20
161.0060247498
 10
385.117379597
 20
162.881992185
 10
385.3718215907
 20
164.7661751556
 10
385.5246345034
 20
166.6558417764
 10
385.575261099
 20
168.3946396257
  0
LWPOLYLINE
  5
2DD
330
1F
100
AcDbEntity
  8
0
  6
Continuous
 62
     8
370
    18
100
AcDbPolyline
 90
       72
 70
   128
 43
0.0
 10
383.4101914814
 20
157.2203872053
 10
382.831166906
 20
155.6158297483
 10
382.0799476733
 20
153.806755205
 10
381.2318722621
 20
152.0192150181
 10
380.2881703008
 20
150.2558009502
 10
379.2502100669
 20
148.5190697829
 10
378.1194965036
 20
146.8115396104
 10
376.8976690374
 20
145.1356861882
 10
375.5864992014
 20
143.4939393437
 10
374.1878880664
 20
141.8886794527
 10
372.703863485
 20
140.3222339886
 10
371.1365771508
 20
138.7968741477
 10
369.4883014792
 20
137.3148115558
 10
367.7614263124
 20
135.878195062
 10
365.9584554543
 20
134.4891076229
 10
364.0820030402
 20
133.1495632825
 10
362.1347897468
 20
131.861504252
 10
360.1196388472
 20
130.6267980939
 10
358.0394721175
 20
129.4472350141
 10
355.8973056006
 20
128.3245252662
 10
353.6962452332
 20
127.260296672
 10
351.4394823424
 20
126.2560922614
 10
349.1302890186
 20
125.3133680346
 10
346.7720133715
 20
124.4334908517
 10
344.3680746751
 20
123.6177364505
 10
341.9219584109
 20
122.8672875968
 10
339.4372112135
 20
122.1832323698
 10
336.9174357288
 20
121.5665625842
 10
334.3662853905
 20
121.0181723521
 10
331.7874591225
 20
120.538856787
 10
329.1846959766
 20
120.1293108507
 10
326.5617697102
 20
119.7901283456
 10
323.922483316
 20
119.5218010538
 10
321.2706635066
 20
119.3247180244
 10
318.6101551675
 20
119.1991650088
 10
315.9448157813
 20
119.145324047
 10
313.2785098353
 20
119.1632732032
 10
310.6151032182
 20
119.2529864528
 10
307.9584576151
 20
119.4143337202
 10
305.312424908
 20
119.6470810673
 10
302.6808415914
 20
119.9508910327
 10
300.0675232096
 20
120.3253231209
 10
297.4762588244
 20
120.7698344413
 10
294.9108055214
 20
121.2837804949
 10
292.3748829625
 20
121.866416109
 10
289.8721679932
 20
122.5168965178
 10
287.4062893109
 20
123.2342785869
 10
284.9808222038
 20
124.0175221807
 10
282.5992833675
 20
124.865491671
 10
280.2651258055
 20
125.7769575832
 10
277.9817338232
 20
126.7505983786
 10
275.7524181206
 20
127.7850023714
 10
273.5804109925
 20
128.8786697745
 10
271.4688616414
 20
130.0300148748
 10
269.4208316121
 20
131.237368332
 10
267.4392903524
 20
132.498979599
 10
265.5271109076
 20
133.8130194601
 10
263.687065755
 20
135.177582683
 10
261.9218227844
 20
136.5906907816
 10
260.2339414292
 20
138.0502948842
 10
258.625868956
 20
139.5542787045
 10
257.0999369161
 20
141.1004616095
 10
255.6583577652
 20
142.6866017821
 10
254.3032216553
 20
144.3103994704
 10
253.036493404
 20
145.9695003232
 10
251.8600096463
 20
147.6614988028
 10
250.7754761712
 20
149.3839416732
 10
249.7844654484
 20
151.1343315569
 10
248.8884143489
 20
152.9101305558
 10
248.0886220611
 20
154.7087639312
 10
247.3862482072
 20
156.5276238367
 10
247.1461662773
 20
157.2203872053
  0
LWPOLYLINE
  5
2DE
330
1F
100
AcDbEntity
  8
0
  6
Continuous
 62
     8
370
    18
100
AcDbPolyline
 90
       59
 70
   128
 43
0.0
 10
372.7312493604
 20
191.3981898677
 10
372.0037412321
 20
192.522477797
 10
370.8739139298
 20
194.1221503877
 10
369.6539101419
 20
195.6883568374
 10
368.3457087191
 20
197.2185567533
 10
366.9514315689
 20
198.7102681457
 10
365.4733402138
 20
200.1610714533
 10
363.9138321234
 20
201.5686134676
 10
362.2754368257
 20
202.9306111505
 10
360.5608118036
 20
204.2448553368
 10
358.7727381854
 20
205.5092143175
 10
356.914116233
 20
206.7216372977
 10
354.9879606379
 20
207.880157723
 10
352.9973956316
 20
208.982896469
 10
350.9456499177
 20
210.0280648894
 10
348.8360514355
 20
211.0139677172
 10
346.6720219612
 20
211.9390058145
 10
344.4570715586
 20
212.8016787659
 10
342.1947928854
 20
213.600587313
 10
339.8888553659
 20
214.334435623
 10
337.5429992391
 20
215.0020333913
 10
335.1610294922
 20
215.602297772
 10
332.746809689
 20
216.1342551339
 10
330.3042557027
 20
216.5970426403
 10
327.8373293648
 20
216.9899096482
 10
325.3500320389
 20
217.3122189259
 10
322.8463981304
 20
217.5634476865
 10
320.3304885426
 20
217.743188436
 10
317.80638409
 20
217.8511496344
 10
315.2781788793
 20
217.8871561681
 10
312.7499736686
 20
217.8511496344
 10
310.2258692161
 20
217.743188436
 10
307.7099596282
 20
217.5634476865
 10
305.2063257197
 20
217.3122189259
 10
302.7190283938
 20
216.9899096482
 10
300.252102056
 20
216.5970426403
 10
297.8095480697
 20
216.1342551339
 10
295.3953282664
 20
215.602297772
 10
293.0133585196
 20
215.0020333913
 10
290.6675023928
 20
214.334435623
 10
288.3615648732
 20
213.600587313
 10
286.0992862
 20
212.8016787659
 10
283.8843357974
 20
211.9390058145
 10
281.7203063232
 20
211.0139677172
 10
279.6107078409
 20
210.0280648894
 10
277.558962127
 20
208.982896469
 10
275.5683971207
 20
207.880157723
 10
273.6422415256
 20
206.7216372977
 10
271.7836195732
 20
205.5092143175
 10
269.995545955
 20
204.2448553368
 10
268.280920933
 20
202.9306111505
 10
266.6425256352
 20
201.5686134676
 10
265.0830175449
 20
200.1610714533
 10
263.6049261898
 20
198.7102681457
 10
262.2106490395
 20
197.2185567533
 10
260.9024476167
 20
195.6883568374
 10
259.6824438288
 20
194.1221503877
 10
258.5526165265
 20
192.522477797
 10
257.8251083982
 20
191.3981898677
  0
LWPOLYLINE
  5
2DF
330
1F
100
AcDbEntity
  8
0
  6
Continuous
 62
     8
370
    18
100
AcDbPolyline
 90
       63
 70
   128
 43
0.0
 10
374.295770922
 20
188.055143982
 10
373.788199076
 20
189.0362856588
 10
372.847249203
 20
190.689476494
 10
371.8129220875
 20
192.3145355632
 10
370.6868954118
 20
193.9088270146
 10
369.4709955952
 20
195.4697649017
 10
368.1671948317
 20
196.9948173774
 10
366.777607891
 20
198.4815108012
 10
365.3044886881
 20
199.9274337508
 10
363.7502266277
 20
201.330240934
 10
362.1173427286
 20
202.6876569923
 10
360.4084855345
 20
203.9974801919
 10
358.6264268179
 20
205.2575859949
 10
356.7740570847
 20
206.4659305049
 10
354.8543808853
 20
207.6205537829
 10
352.8705119415
 20
208.7195830255
 10
350.825668096
 20
209.7612356034
 10
348.7231660929
 20
210.7438219522
 10
346.5664161984
 20
211.6657483134
 10
344.3589166685
 20
212.5255193189
 10
342.1042480755
 20
213.3217404171
 10
339.8060675002
 20
214.0531201345
 10
337.4681025999
 20
214.7184721704
 10
335.0941455621
 20
215.3167173214
 10
332.688046954
 20
215.8468852317
 10
330.2537094761
 20
216.3081159671
 10
327.7950816329
 20
216.6996614095
 10
325.3161513276
 20
217.0208864708
 10
322.8209393943
 20
217.2712701229
 10
320.3134930758
 20
217.4504062424
 10
317.7978794593
 20
217.5580042701
 10
315.2781788793
 20
217.5938896813
 10
312.7584782993
 20
217.5580042701
 10
310.2428646828
 20
217.4504062424
 10
307.7354183643
 20
217.2712701229
 10
305.240206431
 20
217.0208864708
 10
302.7612761258
 20
216.6996614095
 10
300.3026482825
 20
216.3081159671
 10
297.8683108047
 20
215.8468852317
 10
295.4622121965
 20
215.3167173214
 10
293.0882551587
 20
214.7184721704
 10
290.7502902584
 20
214.0531201345
 10
288.4521096831
 20
213.3217404171
 10
286.1974410902
 20
212.5255193189
 10
283.9899415602
 20
211.6657483134
 10
281.8331916657
 20
210.7438219522
 10
279.7306896627
 20
209.7612356034
 10
277.6858458172
 20
208.7195830255
 10
275.7019768734
 20
207.6205537828
 10
273.7823006739
 20
206.4659305049
 10
271.9299309407
 20
205.2575859949
 10
270.1478722241
 20
203.9974801919
 10
268.43901503
 20
202.6876569923
 10
266.8061311309
 20
201.330240934
 10
265.2518690706
 20
199.9274337508
 10
263.7787498676
 20
198.4815108012
 10
262.3891629269
 20
196.9948173774
 10
261.0853621634
 20
195.4697649017
 10
259.8694623468
 20
193.9088270146
 10
258.7434356711
 20
192.3145355632
 10
257.7091085556
 20
190.689476494
 10
256.7681586827
 20
189.0362856588
 10
256.2605868366
 20
188.055143982
  0
LWPOLYLINE
  5
2E0
330
1F
100
AcDbEntity
  8
0
  6
Continuous
 62
     8
370
    18
100
AcDbPolyline
 90
       65
 70
   128
 43
0.0
 10
255.545886352
 20
186.124515458
 10
256.0008552683
 20
187.1278254959
 10
256.8457792917
 20
188.8042396953
 10
257.785480881
 20
190.4552373732
 10
258.8184358367
 20
192.0781406052
 10
259.942968702
 20
193.6703170365
 10
261.1572554806
 20
195.2291841509
 10
262.4593265949
 20
196.7522134603
 10
263.8470700807
 20
198.2369346057
 10
265.3182350131
 20
199.6809393639
 10
266.8704351571
 20
201.0818855539
 10
268.5011528385
 20
202.4375008358
 10
270.2077430271
 20
203.7455863968
 10
271.9874376275
 20
205.0040205172
 10
273.8373499686
 20
206.2107620123
 10
275.7544794856
 20
207.363853543
 10
277.7357165877
 20
208.4614247906
 10
279.7778477008
 20
209.5016954905
 10
281.877560481
 20
210.4829783198
 10
284.0314491863
 20
211.4036816343
 10
286.2360202014
 20
212.2623120498
 10
288.4876977042
 20
213.0574768645
 10
290.7828294653
 20
213.7878863183
 10
293.1176927728
 20
214.4523556844
 10
295.4885004698
 20
215.049807191
 10
297.8914070976
 20
215.5792717695
 10
300.3225151327
 20
216.0398906266
 10
302.7778813092
 20
216.4309166367
 10
305.253523014
 20
216.7517155542
 10
307.7454247472
 20
217.0017670421
 10
310.2495446353
 20
217.1806655159
 10
312.7618209864
 20
217.2881208018
 10
315.2781788793
 20
217.3239586067
 10
317.7945367722
 20
217.2881208018
 10
320.3068131233
 20
217.1806655159
 10
322.8109330114
 20
217.0017670421
 10
325.3028347447
 20
216.7517155542
 10
327.7784764495
 20
216.4309166367
 10
330.2338426259
 20
216.0398906266
 10
332.6649506611
 20
215.5792717695
 10
335.0678572888
 20
215.049807191
 10
337.4386649858
 20
214.4523556844
 10
339.7735282933
 20
213.7878863183
 10
342.0686600545
 20
213.0574768645
 10
344.3203375572
 20
212.2623120498
 10
346.5249085723
 20
211.4036816343
 10
348.6787972777
 20
210.4829783198
 10
350.7785100578
 20
209.5016954905
 10
352.820641171
 20
208.4614247906
 10
354.801878273
 20
207.363853543
 10
356.7190077901
 20
206.2107620123
 10
358.5689201311
 20
205.0040205172
 10
360.3486147315
 20
203.7455863968
 10
362.0552049202
 20
202.4375008358
 10
363.6859226015
 20
201.0818855539
 10
365.2381227455
 20
199.6809393639
 10
366.7092876779
 20
198.2369346057
 10
368.0970311637
 20
196.7522134603
 10
369.399102278
 20
195.2291841509
 10
370.6133890566
 20
193.6703170365
 10
371.7379219219
 20
192.0781406052
 10
372.7708768776
 20
190.4552373732
 10
373.7105784669
 20
188.8042396953
 10
374.5555024903
 20
187.1278254959
 10
375.0104714066
 20
186.124515458
  0
LWPOLYLINE
  5
2E1
330
1F
100
AcDbEntity
  8
0
  6
Continuous
 62
     8
370
    18
100
AcDbPolyline
 90
       65
 70
   128
 43
0.0
 10
375.0332811112
 20
186.0563145949
 10
374.6180548947
 20
186.9685626845
 10
373.7722392651
 20
188.6467459203
 10
372.8315460556
 20
190.2994858137
 10
371.7975010741
 20
191.9241016146
 10
370.6717815452
 20
193.5179581902
 10
369.4562133903
 20
195.0784702994
 10
368.1527682653
 20
196.6031067858
 10
366.763560363
 20
198.0893946834
 10
365.2908429836
 20
199.5349232278
 10
363.7370048802
 20
200.9373477664
 10
362.1045663837
 20
202.2943935616
 10
360.3961753155
 20
203.60385948
 10
358.6146026921
 20
204.8636215632
 10
356.7627382308
 20
206.0716364725
 10
354.8435856626
 20
207.2259448031
 10
352.8602578598
 20
208.324674263
 10
350.8159717875
 20
209.3660427087
 10
348.7140432851
 20
210.3483610369
 10
346.5578816884
 20
211.2700359237
 10
344.3509842994
 20
212.129572409
 10
342.0969307136
 20
212.9255763216
 10
339.7993770143
 20
213.6567565401
 10
337.462049842
 20
214.3219270875
 10
335.0887403498
 20
214.9200090549
 10
332.6832980545
 20
215.450032351
 10
330.2496245923
 20
215.9111372762
 10
327.7916673903
 20
216.3025759165
 10
325.3134132642
 20
216.6237133571
 10
322.8188819513
 20
216.8740287119
 10
320.3121195904
 20
217.0531159684
 10
317.7971921592
 20
217.1606846464
 10
315.2781788793
 20
217.1965602692
 10
312.7591655994
 20
217.1606846464
 10
310.2442381683
 20
217.0531159684
 10
307.7374758073
 20
216.8740287119
 10
305.2429444944
 20
216.6237133571
 10
302.7646903683
 20
216.3025759165
 10
300.3067331664
 20
215.9111372762
 10
297.8730597041
 20
215.450032351
 10
295.4676174088
 20
214.9200090549
 10
293.0943079166
 20
214.3219270875
 10
290.7569807443
 20
213.6567565401
 10
288.459427045
 20
212.9255763216
 10
286.2053734592
 20
212.129572409
 10
283.9984760702
 20
211.2700359237
 10
281.8423144735
 20
210.3483610369
 10
279.7403859711
 20
209.3660427087
 10
277.6960998988
 20
208.324674263
 10
275.7127720961
 20
207.2259448031
 10
273.7936195278
 20
206.0716364725
 10
271.9417550665
 20
204.8636215632
 10
270.1601824431
 20
203.60385948
 10
268.4517913749
 20
202.2943935616
 10
266.8193528784
 20
200.9373477664
 10
265.265514775
 20
199.5349232278
 10
263.7927973956
 20
198.0893946834
 10
262.4035894933
 20
196.6031067858
 10
261.1001443683
 20
195.0784702994
 10
259.8845762134
 20
193.5179581902
 10
258.7588566846
 20
191.9241016146
 10
257.724811703
 20
190.2994858137
 10
256.7841184935
 20
188.6467459203
 10
255.9383028639
 20
186.9685626845
 10
255.5230766474
 20
186.0563145949
  0
LWPOLYLINE
  5
2E2
330
1F
100
AcDbEntity
  8
0
  6
Continuous
 62
     8
370
    18
100
AcDbPolyline
 90
       65
 70
   128
 43
0.0
 10
375.1217766957
 20
185.7869151692
 10
374.6182875188
 20
186.9022529095
 10
373.7724685734
 20
188.5804427241
 10
372.8317716762
 20
190.2331890966
 10
371.797722641
 20
191.8578112663
 10
370.6719986992
 20
193.4516740902
 10
369.456425779
 20
195.0121923169
 10
368.1529755442
 20
196.5368347801
 10
366.7637621959
 20
198.0231285043
 10
365.2910390432
 20
199.4686627154
 10
363.7371948484
 20
200.8710927519
 10
362.1047499525
 20
202.2281438669
 10
360.396352187
 20
203.5376149187
 10
358.6147725795
 20
204.7973819404
 10
356.7629008585
 20
206.0054015853
 10
354.8437407668
 20
207.1597144411
 10
352.860405189
 20
208.2584482082
 10
350.8161111027
 20
209.2998207363
 10
348.7141743603
 20
210.2821429154
 10
346.5580043111
 20
211.2038214153
 10
344.3510982706
 20
212.0633612702
 10
342.0970358485
 20
212.8593683032
 10
339.7994731423
 20
213.5905513881
 10
337.4621368072
 20
214.2557245432
 10
335.0888180112
 20
214.8538088551
 10
332.6833662861
 20
215.383834229
 10
330.2496832833
 20
215.8449409618
 10
327.7917164457
 20
216.2363811367
 10
325.3134526043
 20
216.5575198362
 10
322.8189115123
 20
216.8078361723
 10
320.3121393244
 20
216.9869241308
 10
317.7972020342
 20
217.0944932306
 10
315.2781788793
 20
217.130368994
 10
312.7591557244
 20
217.0944932306
 10
310.2442184342
 20
216.9869241308
 10
307.7374462463
 20
216.8078361723
 10
305.2429051543
 20
216.5575198362
 10
302.7646413129
 20
216.2363811367
 10
300.3066744753
 20
215.8449409618
 10
297.8729914726
 20
215.383834229
 10
295.4675397474
 20
214.8538088551
 10
293.0942209514
 20
214.2557245432
 10
290.7568846163
 20
213.5905513881
 10
288.4593219102
 20
212.8593683032
 10
286.2052594881
 20
212.0633612702
 10
283.9983534476
 20
211.2038214153
 10
281.8421833983
 20
210.2821429154
 10
279.7402466559
 20
209.2998207363
 10
277.6959525696
 20
208.2584482082
 10
275.7126169918
 20
207.1597144411
 10
273.7934569001
 20
206.0054015853
 10
271.9415851791
 20
204.7973819404
 10
270.1600055716
 20
203.5376149187
 10
268.4516078061
 20
202.2281438669
 10
266.8191629102
 20
200.8710927519
 10
265.2653187154
 20
199.4686627154
 10
263.7925955627
 20
198.0231285043
 10
262.4033822144
 20
196.5368347801
 10
261.0999319796
 20
195.0121923169
 10
259.8843590595
 20
193.4516740902
 10
258.7586351176
 20
191.8578112663
 10
257.7245860824
 20
190.2331890966
 10
256.7838891852
 20
188.5804427241
 10
255.9380702398
 20
186.9022529095
 10
255.4345810629
 20
185.7869151692
  0
LWPOLYLINE
  5
2E3
330
1F
100
AcDbEntity
  8
0
  6
Continuous
 62
     8
370
    18
100
AcDbPolyline
 90
       68
 70
   128
 43
0.0
 10
376.0251660114
 20
182.3743537544
 10
375.8118039946
 20
183.0019914007
 10
375.1533673729
 20
184.7279124677
 10
374.3965559737
 20
186.4335475914
 10
373.5426132362
 20
188.1160944177
 10
372.592942186
 20
189.7727885266
 10
371.5491031303
 20
191.400907974
 10
370.4128110937
 20
192.9977777639
 10
369.1859330011
 20
194.5607742435
 10
367.8704846101
 20
196.0873294136
 10
366.4686271989
 20
197.5749351481
 10
364.9826640155
 20
199.0211473148
 10
363.4150364935
 20
200.4235897907
 10
361.7683202409
 20
201.7799583666
 10
360.0452208081
 20
203.0880245326
 10
358.2485692429
 20
204.3456391392
 10
356.3813174392
 20
205.5507359291
 10
354.4465332868
 20
206.7013349313
 10
352.4473956309
 20
207.7955457147
 10
350.3871890495
 20
208.831570494
 10
348.2692984566
 20
209.807707083
 10
346.0972035409
 20
210.7223516919
 10
343.8744730485
 20
211.574001562
 10
341.60475892
 20
212.3612574349
 10
339.2917902895
 20
213.0828258512
 10
336.9393673586
 20
213.7375212759
 10
334.5513551518
 20
214.3242680462
 10
332.1316771671
 20
214.8421021385
 10
329.6843089289
 20
215.290172753
 10
327.2132714569
 20
215.6677437106
 10
324.7226246591
 20
215.9741946634
 10
322.2164606617
 20
216.2090221132
 10
319.6988970855
 20
216.3718402392
 10
317.1740702809
 20
216.4623815315
 10
314.6461285318
 20
216.4804972312
 10
312.1192252397
 20
216.426157574
 10
309.5975121001
 20
216.2994518401
 10
307.0851322812
 20
216.1005882064
 10
304.5862136163
 20
215.8298934056
 10
302.1048618222
 20
215.4878121883
 10
299.6451537535
 20
215.0749065932
 10
297.211130704
 20
214.5918550231
 10
294.8067917672
 20
214.0394511303
 10
292.4360872657
 20
213.4186025132
 10
290.1029122607
 20
212.7303292243
 10
287.8111001527
 20
211.9757620948
 10
285.5644163829
 20
211.1561408765
 10
283.3665522469
 20
210.272812205
 10
281.2211188296
 20
209.3272273869
 10
279.1316410726
 20
208.3209400157
 10
277.1015519823
 20
207.2556034187
 10
275.1341869897
 20
206.1329679413
 10
273.2327784704
 20
204.9548780706
 10
271.4004504335
 20
203.7232694051
 10
269.6402133893
 20
202.4401654747
 10
267.9549594025
 20
201.1076744158
 10
266.3474573411
 20
199.7279855076
 10
264.8203483267
 20
198.3033655754
 10
263.3761413954
 20
196.836155266
 10
262.0172093754
 20
195.3287652022
 10
260.7457849884
 20
193.7836720217
 10
259.5639571814
 20
192.2034143087
 10
258.4736676944
 20
190.5905884225
 10
257.4767078701
 20
188.9478442316
 10
256.5747157109
 20
187.2778807606
 10
255.7691731875
 20
185.583441755
 10
255.0614038042
 20
183.8673111737
 10
254.5311917473
 20
182.3743537544
  0
LWPOLYLINE
  5
2E4
330
1F
100
AcDbEntity
  8
0
  6
Continuous
 62
     8
370
    18
100
AcDbPolyline
 90
       70
 70
   128
 43
0.0
 10
376.3774040322
 20
180.3318868465
 10
375.8891286558
 20
182.0049017934
 10
375.2824438999
 20
183.7337813827
 10
374.5771722942
 20
185.4438555952
 10
373.774472598
 20
187.1323147833
 10
372.8756636449
 20
188.796384813
 10
371.8822221755
 20
190.4333316216
 10
370.7957804116
 20
192.04046571
 10
369.6181233741
 20
193.6151465608
 10
368.3511859506
 20
195.1547869777
 10
366.9970497158
 20
196.6568573355
 10
365.5579395119
 20
198.1188897365
 10
364.0362197934
 20
199.5384820654
 10
362.4343907418
 20
200.9133019356
 10
360.7550841578
 20
202.2410905217
 10
359.0010591379
 20
203.5196662706
 10
357.1751975405
 20
204.7469284857
 10
355.2804992515
 20
205.9208607784
 10
353.3200772551
 20
207.0395343809
 10
351.2971525196
 20
208.1011113156
 10
349.215048705
 20
209.1038474143
 10
347.0771867024
 20
210.0460951841
 10
344.8870790134
 20
210.9263065146
 10
342.6483239792
 20
211.7430352208
 10
340.3645998685
 20
212.4949394195
 10
338.039658834
 20
213.1807837342
 10
335.6773207477
 20
213.7994413245
 10
333.2814669249
 20
214.3498957375
 10
330.8560337471
 20
214.8312425781
 10
328.4050061946
 20
215.2426909947
 10
325.9324112994
 20
215.5835649786
 10
323.4423115282
 20
215.8533044748
 10
320.9387981085
 20
216.051466302
 10
318.4259843063
 20
216.1777248808
 10
315.9079986681
 20
216.2318727687
 10
313.3889782376
 20
216.2138210009
 10
310.8730617588
 20
216.1235992364
 10
308.3643828758
 20
215.9613557092
 10
305.8670633416
 20
215.7273569852
 10
303.3852062454
 20
215.4219875235
 10
300.9228892721
 20
215.0457490455
 10
298.4841580019
 20
214.5992597099
 10
296.0730192639
 20
214.0832530975
 10
293.6934345527
 20
213.4985770059
 10
291.3493135197
 20
212.8461920563
 10
289.0445075497
 20
212.1271701155
 10
286.7828034329
 20
211.3426925347
 10
284.567917143
 20
210.4940482084
 10
282.4034877326
 20
209.5826314571
 10
280.2930713534
 20
208.6099397361
 10
278.240135414
 20
207.5775711753
 10
276.2480528827
 20
206.4872219536
 10
274.320096746
 20
205.3406835118
 10
272.4594346307
 20
204.1398396097
 10
270.6691235997
 20
202.8866632306
 10
268.9521051295
 20
201.5832133399
 10
267.3112002767
 20
200.2316315026
 10
265.7491050439
 20
198.8341383639
 10
264.2683859493
 20
197.3930300014
 10
262.8714758106
 20
195.9106741524
 10
261.5606697474
 20
194.3895063236
 10
260.3381214106
 20
192.8320257898
 10
259.205839444
 20
191.2407914874
 10
258.1656841839
 20
189.6184178103
 10
257.2193646026
 20
187.967570314
 10
256.3684355006
 20
186.2909613367
 10
255.6142949524
 20
184.5913455425
 10
254.9581820088
 20
182.8715153958
 10
254.4011746617
 20
181.1342965729
 10
254.1789537264
 20
180.3318868465
  0
LWPOLYLINE
  5
2E5
330
1F
100
AcDbEntity
  8
0
  6
Continuous
 62
     8
370
    18
100
AcDbPolyline
 90
       38
 70
   128
 43
0.0
 10
315.2781788793
 20
215.9897266172
 10
317.7783415536
 20
215.9538896772
 10
320.2743964673
 20
215.8464377371
 10
322.7622426085
 20
215.6675473403
 10
325.2377924527
 20
215.4175124031
 10
327.696978678
 20
215.0967437324
 10
330.1357608477
 20
214.7057683502
 10
332.5501320494
 20
214.245228628
 10
334.9361254773
 20
213.7158812313
 10
337.2898209505
 20
213.1185958767
 10
339.6073513537
 20
212.4543539023
 10
341.8849089904
 20
211.7242466559
 10
344.1187518393
 20
210.9294737019
 10
346.3052097026
 20
210.0713408501
 10
348.4406902357
 20
209.1512580105
 10
350.5216848498
 20
208.1707368769
 10
352.5447744761
 20
207.1313884429
 10
354.5066351836
 20
206.0349203551
 10
356.4040436405
 20
204.8831341079
 10
358.2338824096
 20
203.677922083
 10
359.9931450705
 20
202.4212644406
 10
361.6789411594
 20
201.1152258659
 10
363.2885009177
 20
199.7619521768
 10
364.819179843
 20
198.3636667985
 10
366.2684630338
 20
196.9226671102
 10
367.6339693216
 20
195.4413206705
 10
368.9134551831
 20
193.9220613278
 10
370.1048184266
 20
192.3673852212
 10
371.2061016452
 20
190.7798466795
 10
372.2154954336
 20
189.1620540242
 10
373.1313413604
 20
187.5166652846
 10
373.9521346931
 20
185.8463838299
 10
374.6765268705
 20
184.1539539283
 10
375.3033277181
 20
182.4421562375
 10
375.8315074038
 20
180.7138032368
 10
376.2601981298
 20
178.9717346055
 10
376.5886955582
 20
177.2188125579
 10
376.663579571
 20
176.7198416385
  0
LWPOLYLINE
  5
2E6
330
1F
100
AcDbEntity
  8
0
  6
Continuous
 62
     8
370
    18
100
AcDbPolyline
 90
       38
 70
   128
 43
0.0
 10
253.8927781877
 20
176.7198416385
 10
253.9676622004
 20
177.2188125579
 10
254.2961596289
 20
178.9717346055
 10
254.7248503548
 20
180.7138032368
 10
255.2530300405
 20
182.4421562375
 10
255.8798308881
 20
184.1539539283
 10
256.6042230655
 20
185.8463838299
 10
257.4250163982
 20
187.5166652846
 10
258.340862325
 20
189.1620540242
 10
259.3502561134
 20
190.7798466795
 10
260.451539332
 20
192.3673852212
 10
261.6429025755
 20
193.9220613278
 10
262.9223884371
 20
195.4413206705
 10
264.2878947249
 20
196.9226671102
 10
265.7371779156
 20
198.3636667985
 10
267.2678568409
 20
199.7619521768
 10
268.8774165992
 20
201.1152258659
 10
270.5632126881
 20
202.4212644406
 10
272.3224753491
 20
203.677922083
 10
274.1523141181
 20
204.8831341079
 10
276.049722575
 20
206.0349203551
 10
278.0115832826
 20
207.1313884429
 10
280.0346729088
 20
208.1707368769
 10
282.1156675229
 20
209.1512580105
 10
284.251148056
 20
210.0713408501
 10
286.4376059193
 20
210.9294737019
 10
288.6714487683
 20
211.7242466559
 10
290.9490064049
 20
212.4543539023
 10
293.2665368081
 20
213.1185958767
 10
295.6202322813
 20
213.7158812313
 10
298.0062257093
 20
214.245228628
 10
300.4205969109
 20
214.7057683502
 10
302.8593790807
 20
215.0967437324
 10
305.3185653059
 20
215.4175124031
 10
307.7941151501
 20
215.6675473403
 10
310.2819612913
 20
215.8464377371
 10
312.778016205
 20
215.9538896772
 10
315.2781788793
 20
215.9897266172
  0
LWPOLYLINE
  5
2E7
330
1F
100
AcDbEntity
  8
0
  6
Continuous
 62
     8
370
    18
100
AcDbPolyline
 90
       66
 70
   128
 43
0.0
 10
255.8468559299
 20
183.0600620277
 10
256.3659493885
 20
184.3876931081
 10
257.1205449505
 20
186.0766537008
 10
257.9719381547
 20
187.7424447803
 10
258.9187119411
 20
189.3822938019
 10
259.9592904981
 20
190.9934713986
 10
261.0919418854
 20
192.5732959244
 10
262.3147809167
 20
194.1191379171
 10
263.6257722969
 20
195.6284244755
 10
265.0227340103
 20
197.0986435409
 10
266.5033409521
 20
198.5273480789
 10
268.065128798
 20
199.9121601517
 10
269.7054981064
 20
201.2507748762
 10
271.4217186444
 20
202.5409642605
 10
273.2109339324
 20
203.7805809115
 10
275.0701659979
 20
204.9675616098
 10
276.9963203328
 20
206.099930743
 10
278.9861910432
 20
207.1758035945
 10
281.0364661858
 20
208.1933894802
 10
283.1437332798
 20
209.1509947287
 10
285.3044849873
 20
210.0470255006
 10
287.5151249501
 20
210.8799904411
 10
289.7719737763
 20
211.6485031623
 10
292.0712751637
 20
212.3512845506
 10
294.4092021521
 20
212.9871648958
 10
296.7818634927
 20
213.5550858376
 10
299.1853101248
 20
214.0541021279
 10
301.6155417488
 20
214.4833832032
 10
304.068513484
 20
214.8422145676
 10
306.5401426009
 20
215.1299989816
 10
309.0263153169
 20
215.3462574565
 10
311.5228936428
 20
215.4906300514
 10
314.0257222703
 20
215.5628764724
 10
316.5306354883
 20
215.5628764724
 10
319.0334641158
 20
215.4906300514
 10
321.5300424417
 20
215.3462574565
 10
324.0162151577
 20
215.1299989816
 10
326.4878442746
 20
214.8422145676
 10
328.9408160098
 20
214.4833832032
 10
331.3710476338
 20
214.0541021279
 10
333.774494266
 20
213.5550858376
 10
336.1471556066
 20
212.9871648958
 10
338.4850825949
 20
212.3512845506
 10
340.7843839823
 20
211.6485031623
 10
343.0412328085
 20
210.8799904411
 10
345.2518727713
 20
210.0470255006
 10
347.4126244788
 20
209.1509947287
 10
349.5198915728
 20
208.1933894802
 10
351.5701667154
 20
207.1758035945
 10
353.5600374258
 20
206.099930743
 10
355.4861917607
 20
204.9675616098
 10
357.3454238263
 20
203.7805809115
 10
359.1346391142
 20
202.5409642605
 10
360.8508596522
 20
201.2507748762
 10
362.4912289606
 20
199.9121601517
 10
364.0530168065
 20
198.5273480789
 10
365.5336237483
 20
197.0986435409
 10
366.9305854617
 20
195.6284244755
 10
368.241576842
 20
194.1191379171
 10
369.4644158732
 20
192.5732959243
 10
370.5970672605
 20
190.9934713986
 10
371.6376458176
 20
189.3822938019
 10
372.5844196039
 20
187.7424447803
 10
373.4358128081
 20
186.0766537008
 10
374.1904083701
 20
184.3876931081
 10
374.7095020637
 20
183.0600613875
  0
LWPOLYLINE
  5
2E8
330
1F
100
AcDbEntity
  8
0
  6
Continuous
 62
     8
370
    18
100
AcDbPolyline
 90
       66
 70
   128
 43
0.0
 10
374.8184950185
 20
182.7585942387
 10
374.4092876643
 20
183.790846445
 10
373.6518885189
 20
185.4860821101
 10
372.7973320947
 20
187.1580621792
 10
371.8470407165
 20
188.8040038067
 10
370.8025960505
 20
190.421167485
 10
369.6657364718
 20
192.0068616049
 10
368.4383541709
 20
193.558446935
 10
367.1224920046
 20
195.0733410146
 10
365.7203400955
 20
196.549022452
 10
364.2342321872
 20
197.9830351211
 10
362.6666417597
 20
199.3729922493
 10
361.0201779123
 20
200.7165803903
 10
359.2975810219
 20
202.011563274
 10
357.5017181808
 20
203.2557855293
 10
355.6355784255
 20
204.4471762711
 10
353.7022677615
 20
205.5837525471
 10
351.7050039936
 20
206.6636226381
 10
349.6471113703
 20
207.684989207
 10
347.5320150507
 20
208.64615229
 10
345.3632354038
 20
209.5455121259
 10
343.1443821495
 20
210.3815718191
 10
340.8791483499
 20
211.1529398306
 10
338.5713042631
 20
211.8583322947
 10
336.2246910679
 20
212.4965751551
 10
333.8432144704
 20
213.0666061196
 10
331.4308382033
 20
213.5674764278
 10
328.9915774289
 20
213.9983524307
 10
326.5294920559
 20
214.3585169776
 10
324.0486799826
 20
214.6473706102
 10
321.5532702757
 20
214.8644325601
 10
319.0474162984
 20
215.009341549
 10
316.5352887975
 20
215.0818563904
 10
314.0210689611
 20
215.0818563904
 10
311.5089414602
 20
215.009341549
 10
309.003087483
 20
214.8644325601
 10
306.5076777761
 20
214.6473706102
 10
304.0268657027
 20
214.3585169776
 10
301.5647803297
 20
213.9983524307
 10
299.1255195553
 20
213.5674764278
 10
296.7131432882
 20
213.0666061196
 10
294.3316666907
 20
212.4965751551
 10
291.9850534955
 20
211.8583322947
 10
289.6772094088
 20
211.1529398306
 10
287.4119756092
 20
210.3815718191
 10
285.1931223548
 20
209.5455121259
 10
283.024342708
 20
208.64615229
 10
280.9092463883
 20
207.684989207
 10
278.851353765
 20
206.6636226381
 10
276.8540899971
 20
205.5837525471
 10
274.9207793331
 20
204.4471762711
 10
273.0546395779
 20
203.2557855293
 10
271.2587767368
 20
202.011563274
 10
269.5361798463
 20
200.7165803903
 10
267.889715999
 20
199.3729922493
 10
266.3221255714
 20
197.9830351211
 10
264.8360176631
 20
196.549022452
 10
263.433865754
 20
195.0733410146
 10
262.1180035877
 20
193.558446935
 10
260.8906212869
 20
192.0068616049
 10
259.7537617081
 20
190.421167485
 10
258.7093170421
 20
188.8040038067
 10
257.7590256639
 20
187.1580621792
 10
256.9044692397
 20
185.4860821101
 10
256.1470700944
 20
183.790846445
 10
255.7378627402
 20
182.7585942387
  0
LWPOLYLINE
  5
2E9
330
1F
100
AcDbEntity
  8
0
  6
Continuous
 62
     8
370
    18
100
AcDbPolyline
 90
       76
 70
   128
 43
0.0
 10
376.6043824956
 20
174.0956804126
 10
376.5304628349
 20
174.8065255113
 10
376.2751664694
 20
176.5702091451
 10
375.9183466378
 20
178.3250618116
 10
375.4605972315
 20
180.0681627318
 10
374.9026801291
 20
181.7966106861
 10
374.2455239288
 20
183.5075288435
 10
373.490222402
 20
185.1980695497
 10
372.6380326737
 20
186.8654190664
 10
371.6903731295
 20
188.5068022549
 10
370.6488210553
 20
190.1194871948
 10
369.5151100117
 20
191.7007897314
 10
368.2911269488
 20
193.2480779425
 10
366.9789090656
 20
194.7587765196
 10
365.5806404194
 20
196.230371054
 10
364.0986482902
 20
197.6604122219
 10
362.5353993078
 20
199.0465198608
 10
360.8934953457
 20
200.3863869315
 10
359.1756691911
 20
201.6777833573
 10
357.384779996
 20
202.9185597363
 10
355.5238085189
 20
204.1066509189
 10
353.5958521631
 20
205.2400794443
 10
351.6041198216
 20
206.3169588327
 10
349.5519265364
 20
207.3354967247
 10
347.4426879806
 20
208.2939978644
 10
345.2799147738
 20
209.1908669213
 10
343.0672066384
 20
210.0246111453
 10
340.8082464088
 20
210.7938428515
 10
338.5067939013
 20
211.4972817296
 10
336.1666796565
 20
212.133756975
 10
333.7917985636
 20
212.7022092374
 10
331.3861033779
 20
213.2016923843
 10
328.9535981415
 20
213.6313750751
 10
326.4983315194
 20
213.9905421455
 10
324.0243900605
 20
214.2785957973
 10
321.5358913963
 20
214.4950565936
 10
319.0369773871
 20
214.6395642569
 10
316.5318072288
 20
214.7118782683
 10
314.0245505298
 20
214.7118782683
 10
311.5193803715
 20
214.6395642569
 10
309.0204663623
 20
214.4950565936
 10
306.5319676981
 20
214.2785957973
 10
304.0580262392
 20
213.9905421455
 10
301.6027596171
 20
213.6313750751
 10
299.1702543807
 20
213.2016923843
 10
296.764559195
 20
212.7022092374
 10
294.3896781021
 20
212.133756975
 10
292.0495638574
 20
211.4972817296
 10
289.7481113499
 20
210.7938428515
 10
287.4891511202
 20
210.0246111453
 10
285.2764429848
 20
209.1908669213
 10
283.113669778
 20
208.2939978644
 10
281.0044312223
 20
207.3354967247
 10
278.952237937
 20
206.3169588327
 10
276.9605055956
 20
205.2400794443
 10
275.0325492397
 20
204.1066509189
 10
273.1715777626
 20
202.9185597363
 10
271.3806885676
 20
201.6777833573
 10
269.662862413
 20
200.3863869315
 10
268.0209584509
 20
199.0465198608
 10
266.4577094684
 20
197.6604122219
 10
264.9757173392
 20
196.230371054
 10
263.577448693
 20
194.7587765196
 10
262.2652308098
 20
193.2480779425
 10
261.0412477469
 20
191.7007897314
 10
259.9075367033
 20
190.1194871948
 10
258.8659846291
 20
188.5068022549
 10
257.9183250849
 20
186.8654190664
 10
257.0661353566
 20
185.1980695497
 10
256.3108338299
 20
183.5075288435
 10
255.6536776295
 20
181.7966106861
 10
255.0957605272
 20
180.0681627318
 10
254.6380111208
 20
178.3250618116
 10
254.2811912892
 20
176.5702091451
 10
254.0258949237
 20
174.8065255113
 10
253.951975263
 20
174.0956804126
  0
LWPOLYLINE
  5
2EA
330
1F
100
AcDbEntity
  8
0
  6
Continuous
 62
     8
370
    18
100
AcDbPolyline
 90
       42
 70
   128
 43
0.0
 10
315.2781788793
 20
213.5301466547
 10
312.8027403042
 20
213.4942001523
 10
310.3314758785
 20
213.3864212591
 10
307.8685527132
 20
213.2069917148
 10
305.4181238538
 20
212.9562140779
 10
302.9843212777
 20
212.6345112166
 10
300.5712489267
 20
212.2424255944
 10
298.1829757867
 20
211.7806183565
 10
295.8235290265
 20
211.2498682144
 10
293.496887207
 20
210.6510701328
 10
291.2069735727
 20
209.9852338208
 10
288.957649436
 20
209.253482029
 10
286.7527076664
 20
208.4570486566
 10
284.5958662943
 20
207.5972766702
 10
282.4907622423
 20
206.6756158401
 10
280.440945192
 20
205.6936202949
 10
278.4498715988
 20
204.6529459011
 10
276.5208988631
 20
203.5553474714
 10
274.6572796693
 20
202.4026758048
 10
272.862156501
 20
201.1968745666
 10
271.138556342
 20
199.9399770106
 10
269.4893855719
 20
198.6341025502
 10
267.917425066
 20
197.2814531853
 10
266.425325505
 20
195.8843097886
 10
265.0156029066
 20
194.4450282601
 10
263.6906343818
 20
192.966035554
 10
262.4526541274
 20
191.4498255865
 10
261.3037496581
 20
189.8989550307
 10
260.2458582868
 20
188.3160390052
 10
259.2807638576
 20
186.7037466644
 10
258.4100937382
 20
185.0647966981
 10
257.6353160751
 20
183.4019527466
 10
256.957737319
 20
181.718018741
 10
256.3785000208
 20
180.015834175
 10
255.8985809057
 20
178.2982693168
 10
255.5187892258
 20
176.5682203693
 10
255.2397653959
 20
174.8286045865
 10
255.0619799132
 20
173.0823553541
 10
254.9857325644
 20
171.3324172434
 10
255.0111519196
 20
169.5817410458
 10
255.1381951161
 20
167.8332787975
 10
255.2229458251
 20
167.0913315395
  0
LWPOLYLINE
  5
2EB
330
1F
100
AcDbEntity
  8
0
  6
Continuous
 62
     8
370
    18
100
AcDbPolyline
 90
       42
 70
   128
 43
0.0
 10
375.3334119335
 20
167.0913315395
 10
375.4181626425
 20
167.8332787975
 10
375.545205839
 20
169.5817410458
 10
375.5706251942
 20
171.3324172434
 10
375.4943778454
 20
173.0823553541
 10
375.3165923627
 20
174.8286045865
 10
375.0375685328
 20
176.5682203693
 10
374.657776853
 20
178.2982693168
 10
374.1778577378
 20
180.015834175
 10
373.5986204396
 20
181.718018741
 10
372.9210416835
 20
183.4019527466
 10
372.1462640205
 20
185.0647966981
 10
371.275593901
 20
186.7037466644
 10
370.3104994718
 20
188.3160390052
 10
369.2526081005
 20
189.8989550307
 10
368.1037036312
 20
191.4498255865
 10
366.8657233768
 20
192.966035554
 10
365.540754852
 20
194.4450282601
 10
364.1310322536
 20
195.8843097886
 10
362.6389326927
 20
197.2814531853
 10
361.0669721867
 20
198.6341025502
 10
359.4178014167
 20
199.9399770106
 10
357.6942012576
 20
201.1968745666
 10
355.8990780893
 20
202.4026758048
 10
354.0354588955
 20
203.5553474714
 10
352.1064861598
 20
204.6529459011
 10
350.1154125666
 20
205.6936202949
 10
348.0655955163
 20
206.6756158401
 10
345.9604914643
 20
207.5972766702
 10
343.8036500923
 20
208.4570486566
 10
341.5987083226
 20
209.253482029
 10
339.3493841859
 20
209.9852338208
 10
337.0594705516
 20
210.6510701328
 10
334.7328287321
 20
211.2498682144
 10
332.3733819719
 20
211.7806183565
 10
329.9851088319
 20
212.2424255944
 10
327.5720364809
 20
212.6345112166
 10
325.1382339049
 20
212.9562140779
 10
322.6878050455
 20
213.2069917148
 10
320.2248818801
 20
213.3864212591
 10
317.7536174544
 20
213.4942001523
 10
315.2781788793
 20
213.5301466547
  0
ENDSEC
  0
SECTION
  2
OBJECTS
  0
DICTIONARY
  5
C
330
0
100
AcDbDictionary
281
     1
  3
ACAD_GROUP
350
D
  3
ACAD_LAYOUT
350
1A
  3
ACAD_MLINESTYLE
350
17
  3
ACAD_PLOTSETTINGS
350
19
  3
ACAD_PLOTSTYLENAME
350
E
  3
ACAD_SCALELIST
350
47
  3
DWGPROPS
350
2EC
  0
DICTIONARY
  5
D
102
{ACAD_REACTORS
330
C
102
}
330
C
100
AcDbDictionary
281
     1
  0
DICTIONARY
  5
1A
102
{ACAD_REACTORS
330
C
102
}
330
C
100
AcDbDictionary
281
     1
  3
Layout1
350
1E
  3
Layout2
350
26
  3
Model
350
22
  0
DICTIONARY
  5
17
102
{ACAD_REACTORS
330
C
102
}
330
C
100
AcDbDictionary
281
     1
  3
Standard
350
18
  0
DICTIONARY
  5
19
102
{ACAD_REACTORS
330
C
102
}
330
C
100
AcDbDictionary
281
     1
  0
ACDBDICTIONARYWDFLT
  5
E
102
{ACAD_REACTORS
330
C
102
}
330
C
100
AcDbDictionary
281
     1
  3
Normal
350
F
100
AcDbDictionaryWithDefault
340
F
  0
DICTIONARY
  5
47
102
{ACAD_REACTORS
330
C
102
}
330
C
100
AcDbDictionary
281
     1
  3
A0
350
48
  3
A1
350
49
  3
A2
350
4A
  3
A3
350
4B
  3
A4
350
4C
  3
A5
350
4D
  3
A6
350
4E
  3
A7
350
4F
  3
A8
350
50
  3
A9
350
51
  3
B0
350
52
  3
B1
350
53
  3
B2
350
54
  3
B3
350
55
  3
B4
350
56
  3
B5
350
57
  3
B6
350
58
  3
B7
350
59
  3
B8
350
5A
  3
B9
350
5B
  3
C0
350
5C
  3
C1
350
5D
  3
C2
350
5E
  3
C3
350
5F
  3
C4
350
60
  3
C5
350
61
  3
C6
350
62
  3
C7
350
63
  3
C8
350
64
  3
C9
350
65
  3
D0
350
66
  3
D1
350
67
  3
D2
350
68
  0
XRECORD
  5
2EC
102
{ACAD_REACTORS
330
C
102
}
330
C
100
AcDbXrecord
280
     1
  1
DWGPROPS COOKIE
  2

  3

  4

  6

  7

  8
ch-ntl-rs-wscad
  9

300
=
301
=
302
=
303
=
304
=
305
=
306
=
307
=
308
=
309
=
 40
0.0
 41
2460203.574320706
 42
2460203.574328866
  1

 90
        0
  0
LAYOUT
  5
1E
102
{ACAD_REACTORS
330
1A
102
}
330
1A
100
AcDbPlotSettings
  1

  2
none_device
  4

  6

 40
0.0
 41
0.0
 42
0.0
 43
0.0
 44
0.0
 45
0.0
 46
0.0
 47
0.0
 48
0.0
 49
0.0
140
0.0
141
0.0
142
1.0
143
1.0
 70
   688
 72
     1
 73
     0
 74
     5
  7

 75
    16
147
1.0
148
0.0
149
0.0
100
AcDbLayout
  1
Layout1
 70
     1
 71
     1
 10
0.0
 20
0.0
 11
420.0
 21
297.0
 12
0.0
 22
0.0
 32
0.0
 14
1.0000000000E+20
 24
1.0000000000E+20
 34
1.0000000000E+20
 15
-1.0000000000E+20
 25
-1.0000000000E+20
 35
-1.0000000000E+20
146
0.0
 13
0.0
 23
0.0
 33
0.0
 16
1.0
 26
0.0
 36
0.0
 17
0.0
 27
1.0
 37
0.0
 76
     0
330
1B
  0
LAYOUT
  5
26
102
{ACAD_REACTORS
330
1A
102
}
330
1A
100
AcDbPlotSettings
  1

  2
none_device
  4

  6

 40
0.0
 41
0.0
 42
0.0
 43
0.0
 44
0.0
 45
0.0
 46
0.0
 47
0.0
 48
0.0
 49
0.0
140
0.0
141
0.0
142
1.0
143
1.0
 70
   688
 72
     1
 73
     0
 74
     5
  7

 75
    16
147
1.0
148
0.0
149
0.0
100
AcDbLayout
  1
Layout2
 70
     1
 71
     2
 10
0.0
 20
0.0
 11
0.0
 21
0.0
 12
0.0
 22
0.0
 32
0.0
 14
0.0
 24
0.0
 34
0.0
 15
0.0
 25
0.0
 35
0.0
146
0.0
 13
0.0
 23
0.0
 33
0.0
 16
1.0
 26
0.0
 36
0.0
 17
0.0
 27
1.0
 37
0.0
 76
     0
330
23
  0
LAYOUT
  5
22
102
{ACAD_REACTORS
330
1A
102
}
330
1A
100
AcDbPlotSettings
  1

  2
none_device
  4
Letter_(8.50_x_11.00_Inches)
  6

 40
6.35
 41
6.35
 42
6.35000508
 43
6.35000508
 44
215.9
 45
279.4
 46
0.0
 47
0.0
 48
0.0
 49
0.0
140
0.0
141
0.0
142
1.0
143
1.0
 70
  1712
 72
     1
 73
     0
 74
     0
  7

 75
     0
147
1.0
148
0.0
149
0.0
100
AcDbLayout
  1
Model
 70
     1
 71
     0
 10
0.0
 20
0.0
 11
420.0
 21
297.0
 12
0.0
 22
0.0
 32
0.0
 14
0.0
 24
0.0
 34
0.0
 15
420.0
 25
297.0
 35
0.0
146
0.0
 13
0.0
 23
0.0
 33
0.0
 16
1.0
 26
0.0
 36
0.0
 17
0.0
 27
1.0
 37
0.0
 76
     0
330
1F
331
29
  0
MLINESTYLE
  5
18
102
{ACAD_REACTORS
330
17
102
}
330
17
100
AcDbMlineStyle
  2
Standard
 70
     0
  3

 62
   256
 51
90.0
 52
90.0
 71
     2
 49
0.5
 62
   256
  6
BYLAYER
 49
-0.5
 62
   256
  6
BYLAYER
  0
ACDBPLACEHOLDER
  5
F
102
{ACAD_REACTORS
330
E
102
}
330
E
  0
SCALE
  5
48
102
{ACAD_REACTORS
330
47
102
}
330
47
100
AcDbScale
 70
     0
300
1:1
140
1.0
141
1.0
290
     1
  0
SCALE
  5
49
102
{ACAD_REACTORS
330
47
102
}
330
47
100
AcDbScale
 70
     0
300
1:2
140
1.0
141
2.0
290
     0
  0
SCALE
  5
4A
102
{ACAD_REACTORS
330
47
102
}
330
47
100
AcDbScale
 70
     0
300
1:4
140
1.0
141
4.0
290
     0
  0
SCALE
  5
4B
102
{ACAD_REACTORS
330
47
102
}
330
47
100
AcDbScale
 70
     0
300
1:5
140
1.0
141
5.0
290
     0
  0
SCALE
  5
4C
102
{ACAD_REACTORS
330
47
102
}
330
47
100
AcDbScale
 70
     0
300
1:8
140
1.0
141
8.0
290
     0
  0
SCALE
  5
4D
102
{ACAD_REACTORS
330
47
102
}
330
47
100
AcDbScale
 70
     0
300
1:10
140
1.0
141
10.0
290
     0
  0
SCALE
  5
4E
102
{ACAD_REACTORS
330
47
102
}
330
47
100
AcDbScale
 70
     0
300
1:16
140
1.0
141
16.0
290
     0
  0
SCALE
  5
4F
102
{ACAD_REACTORS
330
47
102
}
330
47
100
AcDbScale
 70
     0
300
1:20
140
1.0
141
20.0
290
     0
  0
SCALE
  5
50
102
{ACAD_REACTORS
330
47
102
}
330
47
100
AcDbScale
 70
     0
300
1:30
140
1.0
141
30.0
290
     0
  0
SCALE
  5
51
102
{ACAD_REACTORS
330
47
102
}
330
47
100
AcDbScale
 70
     0
300
1:40
140
1.0
141
40.0
290
     0
  0
SCALE
  5
52
102
{ACAD_REACTORS
330
47
102
}
330
47
100
AcDbScale
 70
     0
300
1:50
140
1.0
141
50.0
290
     0
  0
SCALE
  5
53
102
{ACAD_REACTORS
330
47
102
}
330
47
100
AcDbScale
 70
     0
300
1:100
140
1.0
141
100.0
290
     0
  0
SCALE
  5
54
102
{ACAD_REACTORS
330
47
102
}
330
47
100
AcDbScale
 70
     0
300
2:1
140
2.0
141
1.0
290
     0
  0
SCALE
  5
55
102
{ACAD_REACTORS
330
47
102
}
330
47
100
AcDbScale
 70
     0
300
4:1
140
4.0
141
1.0
290
     0
  0
SCALE
  5
56
102
{ACAD_REACTORS
330
47
102
}
330
47
100
AcDbScale
 70
     0
300
8:1
140
8.0
141
1.0
290
     0
  0
SCALE
  5
57
102
{ACAD_REACTORS
330
47
102
}
330
47
100
AcDbScale
 70
     0
300
10:1
140
10.0
141
1.0
290
     0
  0
SCALE
  5
58
102
{ACAD_REACTORS
330
47
102
}
330
47
100
AcDbScale
 70
     0
300
100:1
140
100.0
141
1.0
290
     0
  0
SCALE
  5
59
102
{ACAD_REACTORS
330
47
102
}
330
47
100
AcDbScale
 70
     0
300
1/128" = 1'-0"
140
0.0078125
141
12.0
290
     0
  0
SCALE
  5
5A
102
{ACAD_REACTORS
330
47
102
}
330
47
100
AcDbScale
 70
     0
300
1/64" = 1'-0"
140
0.015625
141
12.0
290
     0
  0
SCALE
  5
5B
102
{ACAD_REACTORS
330
47
102
}
330
47
100
AcDbScale
 70
     0
300
1/32" = 1'-0"
140
0.03125
141
12.0
290
     0
  0
SCALE
  5
5C
102
{ACAD_REACTORS
330
47
102
}
330
47
100
AcDbScale
 70
     0
300
1/16" = 1'-0"
140
0.0625
141
12.0
290
     0
  0
SCALE
  5
5D
102
{ACAD_REACTORS
330
47
102
}
330
47
100
AcDbScale
 70
     0
300
3/32" = 1'-0"
140
0.09375
141
12.0
290
     0
  0
SCALE
  5
5E
102
{ACAD_REACTORS
330
47
102
}
330
47
100
AcDbScale
 70
     0
300
1/8" = 1'-0"
140
0.125
141
12.0
290
     0
  0
SCALE
  5
5F
102
{ACAD_REACTORS
330
47
102
}
330
47
100
AcDbScale
 70
     0
300
3/16" = 1'-0"
140
0.1875
141
12.0
290
     0
  0
SCALE
  5
60
102
{ACAD_REACTORS
330
47
102
}
330
47
100
AcDbScale
 70
     0
300
1/4" = 1'-0"
140
0.25
141
12.0
290
     0
  0
SCALE
  5
61
102
{ACAD_REACTORS
330
47
102
}
330
47
100
AcDbScale
 70
     0
300
3/8" = 1'-0"
140
0.375
141
12.0
290
     0
  0
SCALE
  5
62
102
{ACAD_REACTORS
330
47
102
}
330
47
100
AcDbScale
 70
     0
300
1/2" = 1'-0"
140
0.5
141
12.0
290
     0
  0
SCALE
  5
63
102
{ACAD_REACTORS
330
47
102
}
330
47
100
AcDbScale
 70
     0
300
3/4" = 1'-0"
140
0.75
141
12.0
290
     0
  0
SCALE
  5
64
102
{ACAD_REACTORS
330
47
102
}
330
47
100
AcDbScale
 70
     0
300
1" = 1'-0"
140
1.0
141
12.0
290
     0
  0
SCALE
  5
65
102
{ACAD_REACTORS
330
47
102
}
330
47
100
AcDbScale
 70
     0
300
1-1/2" = 1'-0"
140
1.5
141
12.0
290
     0
  0
SCALE
  5
66
102
{ACAD_REACTORS
330
47
102
}
330
47
100
AcDbScale
 70
     0
300
3" = 1'-0"
140
3.0
141
12.0
290
     0
  0
SCALE
  5
67
102
{ACAD_REACTORS
330
47
102
}
330
47
100
AcDbScale
 70
     0
300
6" = 1'-0"
140
6.0
141
12.0
290
     0
  0
SCALE
  5
68
102
{ACAD_REACTORS
330
47
102
}
330
47
100
AcDbScale
 70
     0
300
1'-0" = 1'-0"
140
12.0
141
12.0
290
     0
  0
ENDSEC
  0
EOF
