  0
SECTION
  2
HEADER
  9
$ACADVER
  1
AC1015
  9
$ACADMAINTVER
 70
     6
  9
$DWGCODEPAGE
  3
ANSI_1252
  9
$INSBASE
 10
0.0
 20
0.0
 30
0.0
  9
$EXTMIN
 10
0.0
 20
0.0
 30
0.0
  9
$EXTMAX
 10
420.0
 20
297.0
 30
0.0
  9
$LIMMIN
 10
0.0
 20
0.0
  9
$LIMMAX
 10
420.0
 20
297.0
  9
$ORTHOMODE
 70
     0
  9
$REGENMODE
 70
     1
  9
$FILLMODE
 70
     1
  9
$QTEXTMODE
 70
     0
  9
$MIRRTEXT
 70
     1
  9
$LTSCALE
 40
1.0
  9
$ATTMODE
 70
     1
  9
$TEXTSIZE
 40
3.5
  9
$TRACEWID
 40
1.0
  9
$TEXTSTYLE
  7
Standard
  9
$CLAYER
  8
0
  9
$CELTYPE
  6
ByLayer
  9
$CECOLOR
 62
   256
  9
$CELTSCALE
 40
1.0
  9
$DISPSILH
 70
     0
  9
$DIMSCALE
 40
1.0
  9
$DIMASZ
 40
3.302
  9
$DIMEXO
 40
1.0
  9
$DIMDLI
 40
3.75
  9
$DIMRND
 40
0.0
  9
$DIMDLE
 40
0.0
  9
$DIMEXE
 40
1.0
  9
$DIMTP
 40
0.0
  9
$DIMTM
 40
0.0
  9
$DIMTXT
 40
3.5
  9
$DIMCEN
 40
2.5
  9
$DIMTSZ
 40
0.0
  9
$DIMTOL
 70
     0
  9
$DIMLIM
 70
     0
  9
$DIMTIH
 70
     1
  9
$DIMTOH
 70
     1
  9
$DIMSE1
 70
     0
  9
$DIMSE2
 70
     0
  9
$DIMTAD
 70
     1
  9
$DIMZIN
 70
     0
  9
$DIMBLK
  1

  9
$DIMASO
 70
     1
  9
$DIMSHO
 70
     1
  9
$DIMPOST
  1

  9
$DIMAPOST
  1

  9
$DIMALT
 70
     0
  9
$DIMALTD
 70
     3
  9
$DIMALTF
 40
0.0393700787
  9
$DIMLFAC
 40
1.0
  9
$DIMTOFL
 70
     1
  9
$DIMTVP
 40
0.0
  9
$DIMTIX
 70
     0
  9
$DIMSOXD
 70
     0
  9
$DIMSAH
 70
     0
  9
$DIMBLK1
  1

  9
$DIMBLK2
  1

  9
$DIMSTYLE
  2
ISO-25
  9
$DIMCLRD
 70
     0
  9
$DIMCLRE
 70
     0
  9
$DIMCLRT
 70
     0
  9
$DIMTFAC
 40
1.0
  9
$DIMGAP
 40
1.524
  9
$DIMJUST
 70
     0
  9
$DIMSD1
 70
     0
  9
$DIMSD2
 70
     0
  9
$DIMTOLJ
 70
     0
  9
$DIMTZIN
 70
     0
  9
$DIMALTZ
 70
     0
  9
$DIMALTTZ
 70
     0
  9
$DIMUPT
 70
     0
  9
$DIMDEC
 70
     2
  9
$DIMTDEC
 70
     2
  9
$DIMALTU
 70
     2
  9
$DIMALTTD
 70
     3
  9
$DIMTXSTY
  7
Standard
  9
$DIMAUNIT
 70
     0
  9
$DIMADEC
 70
     2
  9
$DIMALTRND
 40
0.0
  9
$DIMAZIN
 70
     0
  9
$DIMDSEP
 70
    44
  9
$DIMATFIT
 70
     3
  9
$DIMFRAC
 70
     0
  9
$DIMLDRBLK
  1

  9
$DIMLUNIT
 70
     2
  9
$DIMLWD
 70
    -2
  9
$DIMLWE
 70
    -2
  9
$DIMTMOVE
 70
     0
  9
$LUNITS
 70
     2
  9
$LUPREC
 70
     2
  9
$SKETCHINC
 40
1.0
  9
$FILLETRAD
 40
10.0
  9
$AUNITS
 70
     0
  9
$AUPREC
 70
     2
  9
$MENU
  1
.
  9
$ELEVATION
 40
0.0
  9
$PELEVATION
 40
0.0
  9
$THICKNESS
 40
0.0
  9
$LIMCHECK
 70
     0
  9
$CHAMFERA
 40
0.0
  9
$CHAMFERB
 40
0.0
  9
$CHAMFERC
 40
0.0
  9
$CHAMFERD
 40
0.0
  9
$SKPOLY
 70
     0
  9
$TDCREATE
 40
2458418.392039849
  9
$TDUCREATE
 40
2458418.308706516
  9
$TDUPDATE
 40
2458418.392047616
  9
$TDUUPDATE
 40
2458418.308714282
  9
$TDINDWG
 40
0.0000000116
  9
$TDUSRTIMER
 40
0.0000000116
  9
$USRTIMER
 70
     1
  9
$ANGBASE
 50
0.0
  9
$ANGDIR
 70
     0
  9
$PDMODE
 70
     0
  9
$PDSIZE
 40
-1.0
  9
$PLINEWID
 40
0.0
  9
$SPLFRAME
 70
     0
  9
$SPLINETYPE
 70
     6
  9
$SPLINESEGS
 70
     8
  9
$HANDSEED
  5
377
  9
$SURFTAB1
 70
     6
  9
$SURFTAB2
 70
     6
  9
$SURFTYPE
 70
     6
  9
$SURFU
 70
     6
  9
$SURFV
 70
     6
  9
$UCSBASE
  2

  9
$UCSNAME
  2

  9
$UCSORG
 10
0.0
 20
0.0
 30
0.0
  9
$UCSXDIR
 10
1.0
 20
0.0
 30
0.0
  9
$UCSYDIR
 10
0.0
 20
1.0
 30
0.0
  9
$UCSORTHOREF
  2

  9
$UCSORTHOVIEW
 70
     0
  9
$UCSORGTOP
 10
0.0
 20
0.0
 30
0.0
  9
$UCSORGBOTTOM
 10
0.0
 20
0.0
 30
0.0
  9
$UCSORGLEFT
 10
0.0
 20
0.0
 30
0.0
  9
$UCSORGRIGHT
 10
0.0
 20
0.0
 30
0.0
  9
$UCSORGFRONT
 10
0.0
 20
0.0
 30
0.0
  9
$UCSORGBACK
 10
0.0
 20
0.0
 30
0.0
  9
$PUCSBASE
  2

  9
$PUCSNAME
  2

  9
$PUCSORG
 10
0.0
 20
0.0
 30
0.0
  9
$PUCSXDIR
 10
1.0
 20
0.0
 30
0.0
  9
$PUCSYDIR
 10
0.0
 20
1.0
 30
0.0
  9
$PUCSORTHOREF
  2

  9
$PUCSORTHOVIEW
 70
     0
  9
$PUCSORGTOP
 10
0.0
 20
0.0
 30
0.0
  9
$PUCSORGBOTTOM
 10
0.0
 20
0.0
 30
0.0
  9
$PUCSORGLEFT
 10
0.0
 20
0.0
 30
0.0
  9
$PUCSORGRIGHT
 10
0.0
 20
0.0
 30
0.0
  9
$PUCSORGFRONT
 10
0.0
 20
0.0
 30
0.0
  9
$PUCSORGBACK
 10
0.0
 20
0.0
 30
0.0
  9
$USERI1
 70
     0
  9
$USERI2
 70
     0
  9
$USERI3
 70
     0
  9
$USERI4
 70
     0
  9
$USERI5
 70
     0
  9
$USERR1
 40
0.0
  9
$USERR2
 40
0.0
  9
$USERR3
 40
0.0
  9
$USERR4
 40
0.0
  9
$USERR5
 40
0.0
  9
$WORLDVIEW
 70
     1
  9
$SHADEDGE
 70
     3
  9
$SHADEDIF
 70
    70
  9
$TILEMODE
 70
     1
  9
$MAXACTVP
 70
    64
  9
$PINSBASE
 10
0.0
 20
0.0
 30
0.0
  9
$PLIMCHECK
 70
     0
  9
$PEXTMIN
 10
1.0000000000E+20
 20
1.0000000000E+20
 30
1.0000000000E+20
  9
$PEXTMAX
 10
-1.0000000000E+20
 20
-1.0000000000E+20
 30
-1.0000000000E+20
  9
$PLIMMIN
 10
0.0
 20
0.0
  9
$PLIMMAX
 10
420.0
 20
297.0
  9
$UNITMODE
 70
     0
  9
$VISRETAIN
 70
     1
  9
$PLINEGEN
 70
     0
  9
$PSLTSCALE
 70
     1
  9
$TREEDEPTH
 70
  3020
  9
$CMLSTYLE
  2
Standard
  9
$CMLJUST
 70
     0
  9
$CMLSCALE
 40
20.0
  9
$PROXYGRAPHICS
 70
     1
  9
$MEASUREMENT
 70
     1
  9
$CELWEIGHT
370
    -1
  9
$ENDCAPS
280
     0
  9
$JOINSTYLE
280
     0
  9
$LWDISPLAY
290
     1
  9
$INSUNITS
 70
     4
  9
$HYPERLINKBASE
  1

  9
$STYLESHEET
  1

  9
$XEDIT
290
     1
  9
$CEPSNTYPE
380
     0
  9
$PSTYLEMODE
290
     1
  9
$FINGERPRINTGUID
  2
{35061BB8-D3B3-4CB5-AC5D-874492951731}
  9
$VERSIONGUID
  2
{FAEB1C32-E019-11D5-929B-00C0DF256EC4}
  9
$EXTNAMES
290
     1
  9
$PSVPSCALE
 40
0.0
  9
$OLESTARTUP
290
     0
  0
ENDSEC
  0
SECTION
  2
CLASSES
  0
CLASS
  1
ACDBDICTIONARYWDFLT
  2
AcDbDictionaryWithDefault
  3
ObjectDBX Classes
 90
        0
280
     0
281
     0
  0
CLASS
  1
VISUALSTYLE
  2
AcDbVisualStyle
  3
ObjectDBX Classes
 90
     4095
280
     0
281
     0
  0
CLASS
  1
MATERIAL
  2
AcDbMaterial
  3
ObjectDBX Classes
 90
     1153
280
     0
281
     0
  0
CLASS
  1
SCALE
  2
AcDbScale
  3
ObjectDBX Classes
 90
     1153
280
     0
281
     0
  0
CLASS
  1
TABLESTYLE
  2
AcDbTableStyle
  3
ObjectDBX Classes
 90
     4095
280
     0
281
     0
  0
CLASS
  1
MLEADERSTYLE
  2
AcDbMLeaderStyle
  3
ACDB_MLEADERSTYLE_CLASS
 90
     4095
280
     0
281
     0
  0
CLASS
  1
SUN
  2
AcDbSun
  3
SCENEOE
 90
     1153
280
     0
281
     0
  0
CLASS
  1
ACDBPLACEHOLDER
  2
AcDbPlaceHolder
  3
ObjectDBX Classes
 90
        0
280
     0
281
     0
  0
CLASS
  1
LAYOUT
  2
AcDbLayout
  3
ObjectDBX Classes
 90
        0
280
     0
281
     0
  0
ENDSEC
  0
SECTION
  2
TABLES
  0
TABLE
  2
VPORT
  5
8
330
0
100
AcDbSymbolTable
 70
     1
  0
VPORT
  5
29
330
8
100
AcDbSymbolTableRecord
100
AcDbViewportTableRecord
  2
*Active
 70
     0
 10
0.0
 20
0.0
 11
1.0
 21
1.0
 12
210.0
 22
148.5
 13
0.0
 23
0.0
 14
10.0
 24
10.0
 15
10.0
 25
10.0
 16
0.0
 26
0.0
 36
1.0
 17
0.0
 27
0.0
 37
0.0
 40
297.0
 41
1.4141414141
 42
50.0
 43
0.0
 44
0.0
 50
0.0
 51
0.0
 71
     0
 72
  2000
 73
     1
 74
     3
 75
     0
 76
     0
 77
     0
 78
     0
281
     0
 65
     1
110
0.0
120
0.0
130
0.0
111
1.0
121
0.0
131
0.0
112
0.0
122
1.0
132
0.0
 79
     0
146
0.0
  0
ENDTAB
  0
TABLE
  2
LTYPE
  5
5
330
0
100
AcDbSymbolTable
 70
     6
  0
LTYPE
  5
14
330
5
100
AcDbSymbolTableRecord
100
AcDbLinetypeTableRecord
  2
ByBlock
 70
     0
  3

 72
    65
 73
     0
 40
0.0
  0
LTYPE
  5
15
330
5
100
AcDbSymbolTableRecord
100
AcDbLinetypeTableRecord
  2
ByLayer
 70
     0
  3

 72
    65
 73
     0
 40
0.0
  0
LTYPE
  5
16
330
5
100
AcDbSymbolTableRecord
100
AcDbLinetypeTableRecord
  2
Continuous
 70
     0
  3
Solid line
 72
    65
 73
     0
 40
0.0
  0
LTYPE
  5
6E
330
5
100
AcDbSymbolTableRecord
100
AcDbLinetypeTableRecord
  2
HIDDEN
 70
     0
  3
Hidden __ __ __ __ __ __ __ __ __ __ __ __ __ __
 72
    65
 73
     2
 40
1.905
 49
1.27
 74
     0
 49
-0.635
 74
     0
  0
LTYPE
  5
6F
330
5
100
AcDbSymbolTableRecord
100
AcDbLinetypeTableRecord
  2
PHANTOM
 70
     0
  3
Phantom ______  __  __  ______  __  __  ______
 72
    65
 73
     6
 40
12.7
 49
6.35
 74
     0
 49
-1.27
 74
     0
 49
1.27
 74
     0
 49
-1.27
 74
     0
 49
1.27
 74
     0
 49
-1.27
 74
     0
  0
LTYPE
  5
70
330
5
100
AcDbSymbolTableRecord
100
AcDbLinetypeTableRecord
  2
CENTER
 70
     0
  3
Center ____ _ ____ _ ____ _ ____ _ ____ _ ____
 72
    65
 73
     4
 40
10.16
 49
6.35
 74
     0
 49
-1.27
 74
     0
 49
1.27
 74
     0
 49
-1.27
 74
     0
  0
LTYPE
  5
71
330
5
100
AcDbSymbolTableRecord
100
AcDbLinetypeTableRecord
  2
CENTERX2
 70
     0
  3
Center (2x) ________  __  ________  __  _____
 72
    65
 73
     4
 40
20.32
 49
12.7
 74
     0
 49
-2.54
 74
     0
 49
2.54
 74
     0
 49
-2.54
 74
     0
  0
LTYPE
  5
72
330
5
100
AcDbSymbolTableRecord
100
AcDbLinetypeTableRecord
  2
DOT2
 70
     0
  3
Dot (.5x) ........................................
 72
    65
 73
     2
 40
0.635
 49
0.0
 74
     0
 49
-0.635
 74
     0
  0
ENDTAB
  0
TABLE
  2
LAYER
  5
2
330
0
100
AcDbSymbolTable
 70
    14
  0
LAYER
  5
10
330
2
100
AcDbSymbolTableRecord
100
AcDbLayerTableRecord
  2
0
 70
     0
 62
     7
  6
Continuous
370
    -3
390
F
  0
LAYER
  5
73
330
2
100
AcDbSymbolTableRecord
100
AcDbLayerTableRecord
  2
SLD-0
 70
     0
 62
   179
  6
Continuous
370
    -3
390
F
  0
LAYER
  5
74
330
2
100
AcDbSymbolTableRecord
100
AcDbLayerTableRecord
  2
RAHMEN
 70
     0
 62
     9
  6
Continuous
370
    -3
390
F
  0
LAYER
  5
75
330
2
100
AcDbSymbolTableRecord
100
AcDbLayerTableRecord
  2
ASHADE
 70
     0
 62
   179
  6
Continuous
370
    -3
390
F
  0
LAYER
  5
76
330
2
100
AcDbSymbolTableRecord
100
AcDbLayerTableRecord
  2
SLD-DEFPOINTS
 70
     0
 62
   179
  6
Continuous
370
    -3
390
F
  0
LAYER
  5
77
330
2
100
AcDbSymbolTableRecord
100
AcDbLayerTableRecord
  2
KOPF
 70
     0
 62
     9
  6
Continuous
370
    -3
390
F
  0
LAYER
  5
78
330
2
100
AcDbSymbolTableRecord
100
AcDbLayerTableRecord
  2
VORLAGE_TEXT
 70
     0
 62
     7
  6
Continuous
370
    -3
390
F
  0
LAYER
  5
79
330
2
100
AcDbSymbolTableRecord
100
AcDbLayerTableRecord
  2
VORLAGE_BEMASSUNG
 70
     0
 62
    -5
  6
Continuous
290
     0
370
    -3
390
F
  0
LAYER
  5
7A
330
2
100
AcDbSymbolTableRecord
100
AcDbLayerTableRecord
  2
TEXT
 70
     0
 62
     7
  6
Continuous
370
    -3
390
F
  0
LAYER
  5
7B
330
2
100
AcDbSymbolTableRecord
100
AcDbLayerTableRecord
  2
LINIEN-DICK
 70
     0
 62
     7
  6
Continuous
370
    35
390
F
  0
LAYER
  5
7C
330
2
100
AcDbSymbolTableRecord
100
AcDbLayerTableRecord
  2
LINIEN-NORMAL
 70
     0
 62
     7
  6
Continuous
370
    25
390
F
  0
LAYER
  5
7D
330
2
100
AcDbSymbolTableRecord
100
AcDbLayerTableRecord
  2
LINIEN-DÜNN
 70
     0
 62
     7
  6
Continuous
370
    -3
390
F
  0
LAYER
  5
7E
330
2
100
AcDbSymbolTableRecord
100
AcDbLayerTableRecord
  2
TEXT-DEUTSCH
 70
     0
 62
     7
  6
Continuous
370
    -3
390
F
  0
LAYER
  5
7F
330
2
100
AcDbSymbolTableRecord
100
AcDbLayerTableRecord
  2
TEXT-ENGLISCH
 70
     0
 62
    -7
  6
Continuous
290
     0
370
    -3
390
F
  0
ENDTAB
  0
TABLE
  2
STYLE
  5
3
330
0
100
AcDbSymbolTable
 70
     5
  0
STYLE
  5
11
330
3
100
AcDbSymbolTableRecord
100
AcDbTextStyleTableRecord
  2
Standard
 70
     0
 40
0.0
 41
1.0
 50
0.0
 71
     0
 42
3.5
  3
txt
  4

  0
STYLE
  5
F3
330
3
100
AcDbSymbolTableRecord
100
AcDbTextStyleTableRecord
  2
SLDTEXTSTYLE0
 70
     0
 40
0.0
 41
0.605
 50
0.0
 71
     0
 42
3.5
  3
TXT
  4

  0
STYLE
  5
FB
330
3
100
AcDbSymbolTableRecord
100
AcDbTextStyleTableRecord
  2
SLDTEXTSTYLE1
 70
     0
 40
0.0
 41
0.5715909091
 50
0.0
 71
     0
 42
3.5
  3
TXT
  4

  0
STYLE
  5
19E
330
3
100
AcDbSymbolTableRecord
100
AcDbTextStyleTableRecord
  2
SLDTEXTSTYLE2
 70
     0
 40
0.0
 41
0.563
 50
0.0
 71
     0
 42
3.5
  3
TXT
  4

  0
STYLE
  5
255
330
3
100
AcDbSymbolTableRecord
100
AcDbTextStyleTableRecord
  2
SLDTEXTSTYLE3
 70
     0
 40
0.0
 41
0.75
 50
0.0
 71
     0
 42
3.5
  3
TXT
  4

  0
ENDTAB
  0
TABLE
  2
VIEW
  5
6
330
0
100
AcDbSymbolTable
 70
     0
  0
ENDTAB
  0
TABLE
  2
UCS
  5
7
330
0
100
AcDbSymbolTable
 70
     0
  0
ENDTAB
  0
TABLE
  2
APPID
  5
9
330
0
100
AcDbSymbolTable
 70
     1
  0
APPID
  5
12
330
9
100
AcDbSymbolTableRecord
100
AcDbRegAppTableRecord
  2
ACAD
 70
     0
  0
ENDTAB
  0
TABLE
  2
DIMSTYLE
  5
A
330
0
100
AcDbSymbolTable
 70
     6
100
AcDbDimStyleTable
  0
DIMSTYLE
105
27
330
A
100
AcDbSymbolTableRecord
100
AcDbDimStyleTableRecord
  2
ISO-25
 70
     0
 41
2.5
 42
0.625
 43
3.75
 44
1.25
 73
     0
 74
     0
 77
     1
 78
     8
140
2.5
141
2.5
143
0.0393700787
147
0.625
171
     3
172
     1
178
     0
271
     2
272
     2
274
     3
278
    44
283
     0
284
     8
340
11
  0
DIMSTYLE
105
256
102
{ACAD_REACTORS
330
254
330
260
330
26A
330
274
102
}
330
A
100
AcDbSymbolTableRecord
100
AcDbDimStyleTableRecord
  2
SLDDIMSTYLE0
 70
     0
 41
3.302
 44
0.0
 45
0.000000001
 73
     0
 74
     0
 77
     1
 78
    12
 79
     3
140
3.5
144
2.0
147
0.875
173
     1
178
     0
271
     2
272
     2
276
     2
284
    12
340
255
  0
DIMSTYLE
105
27F
102
{ACAD_REACTORS
330
27E
102
}
330
A
100
AcDbSymbolTableRecord
100
AcDbDimStyleTableRecord
  2
SLDDIMSTYLE1
 70
     0
 41
3.302
 44
0.0
 45
0.000000001
 73
     0
 74
     0
 77
     1
 78
    12
 79
     3
140
3.5
144
2.0
147
0.875
173
     1
178
     0
271
     0
272
     0
276
     2
284
    12
340
255
  0
DIMSTYLE
105
32F
102
{ACAD_REACTORS
330
32E
102
}
330
A
100
AcDbSymbolTableRecord
100
AcDbDimStyleTableRecord
  2
SLDDIMSTYLE2
 70
     0
 41
3.302
 44
0.0
 45
0.000000001
 73
     0
 74
     0
 77
     1
 78
    12
 79
     3
140
3.5
147
0.875
173
     1
178
     0
271
     0
272
     2
276
     2
284
    12
340
255
  0
DIMSTYLE
105
33A
102
{ACAD_REACTORS
330
339
330
344
330
34E
330
358
330
362
102
}
330
A
100
AcDbSymbolTableRecord
100
AcDbDimStyleTableRecord
  2
SLDDIMSTYLE3
 70
     0
 41
3.302
 44
0.0
 45
0.000000001
 73
     0
 74
     0
 77
     1
 78
    12
 79
     3
140
3.5
147
0.875
173
     1
178
     0
271
     2
272
     2
276
     2
284
    12
340
255
  0
DIMSTYLE
105
36D
102
{ACAD_REACTORS
330
36C
102
}
330
A
100
AcDbSymbolTableRecord
100
AcDbDimStyleTableRecord
  2
SLDDIMSTYLE4
 70
     0
 41
3.302
 44
0.0
 45
0.000000001
 73
     0
 74
     0
 77
     1
 78
    12
 79
     3
140
3.5
147
0.875
172
     1
173
     1
178
     0
271
     2
272
     2
276
     2
284
    12
289
     0
340
255
  0
ENDTAB
  0
TABLE
  2
BLOCK_RECORD
  5
1
330
0
100
AcDbSymbolTable
 70
    19
  0
BLOCK_RECORD
  5
1F
330
1
100
AcDbSymbolTableRecord
100
AcDbBlockTableRecord
  2
*Model_Space
340
22
  0
BLOCK_RECORD
  5
1B
330
1
100
AcDbSymbolTableRecord
100
AcDbBlockTableRecord
  2
*Paper_Space
340
1E
  0
BLOCK_RECORD
  5
23
330
1
100
AcDbSymbolTableRecord
100
AcDbBlockTableRecord
  2
*Paper_Space0
340
26
  0
BLOCK_RECORD
  5
80
330
1
100
AcDbSymbolTableRecord
100
AcDbBlockTableRecord
  2
ACO-Logo
340
0
102
{BLKREFS
331
14F
102
}
  0
BLOCK_RECORD
  5
F6
330
1
100
AcDbSymbolTableRecord
100
AcDbBlockTableRecord
  2
SW_NOTE_0
340
0
102
{BLKREFS
331
FE
102
}
  0
BLOCK_RECORD
  5
178
330
1
100
AcDbSymbolTableRecord
100
AcDbBlockTableRecord
  2
SW_NOTE_1
340
0
102
{BLKREFS
331
180
102
}
  0
BLOCK_RECORD
  5
209
330
1
100
AcDbSymbolTableRecord
100
AcDbBlockTableRecord
  2
SW_BROKEN_VIEW_0
340
0
102
{BLKREFS
331
20C
102
}
  0
BLOCK_RECORD
  5
257
330
1
100
AcDbSymbolTableRecord
100
AcDbBlockTableRecord
  2
_D
340
0
  0
BLOCK_RECORD
  5
261
330
1
100
AcDbSymbolTableRecord
100
AcDbBlockTableRecord
  2
_D_1
340
0
  0
BLOCK_RECORD
  5
26B
330
1
100
AcDbSymbolTableRecord
100
AcDbBlockTableRecord
  2
_D_2
340
0
  0
BLOCK_RECORD
  5
275
330
1
100
AcDbSymbolTableRecord
100
AcDbBlockTableRecord
  2
_D_3
340
0
  0
BLOCK_RECORD
  5
280
330
1
100
AcDbSymbolTableRecord
100
AcDbBlockTableRecord
  2
_D_4
340
0
  0
BLOCK_RECORD
  5
289
330
1
100
AcDbSymbolTableRecord
100
AcDbBlockTableRecord
  2
SW_CENTERMARKSYMBOL_0
340
0
102
{BLKREFS
331
294
102
}
  0
BLOCK_RECORD
  5
295
330
1
100
AcDbSymbolTableRecord
100
AcDbBlockTableRecord
  2
SW_CENTERMARKSYMBOL_1
340
0
102
{BLKREFS
331
2A0
102
}
  0
BLOCK_RECORD
  5
330
330
1
100
AcDbSymbolTableRecord
100
AcDbBlockTableRecord
  2
_D_5
340
0
  0
BLOCK_RECORD
  5
33B
330
1
100
AcDbSymbolTableRecord
100
AcDbBlockTableRecord
  2
_D_6
340
0
  0
BLOCK_RECORD
  5
345
330
1
100
AcDbSymbolTableRecord
100
AcDbBlockTableRecord
  2
_D_7
340
0
  0
BLOCK_RECORD
  5
34F
330
1
100
AcDbSymbolTableRecord
100
AcDbBlockTableRecord
  2
_D_8
340
0
  0
BLOCK_RECORD
  5
359
330
1
100
AcDbSymbolTableRecord
100
AcDbBlockTableRecord
  2
_D_9
340
0
  0
BLOCK_RECORD
  5
363
330
1
100
AcDbSymbolTableRecord
100
AcDbBlockTableRecord
  2
_D_10
340
0
  0
BLOCK_RECORD
  5
36E
330
1
100
AcDbSymbolTableRecord
100
AcDbBlockTableRecord
  2
_D_11
340
0
  0
ENDTAB
  0
ENDSEC
  0
SECTION
  2
BLOCKS
  0
BLOCK
  5
20
330
1F
100
AcDbEntity
  8
0
100
AcDbBlockBegin
  2
*Model_Space
 70
     0
 10
0.0
 20
0.0
 30
0.0
  3
*Model_Space
  1

  0
ENDBLK
  5
21
330
1F
100
AcDbEntity
  8
0
100
AcDbBlockEnd
  0
BLOCK
  5
1C
330
1B
100
AcDbEntity
 67
     1
  8
0
100
AcDbBlockBegin
  2
*Paper_Space
 70
     0
 10
0.0
 20
0.0
 30
0.0
  3
*Paper_Space
  1

  0
ENDBLK
  5
1D
330
1B
100
AcDbEntity
 67
     1
  8
0
100
AcDbBlockEnd
  0
BLOCK
  5
24
330
23
100
AcDbEntity
  8
0
100
AcDbBlockBegin
  2
*Paper_Space0
 70
     0
 10
0.0
 20
0.0
 30
0.0
  3
*Paper_Space0
  1

  0
ENDBLK
  5
25
330
23
100
AcDbEntity
  8
0
100
AcDbBlockEnd
  0
BLOCK
  5
81
330
80
100
AcDbEntity
  8
0
100
AcDbBlockBegin
  2
ACO-Logo
 70
     0
 10
0.0
 20
0.0
 30
0.0
  3
ACO-Logo
  1

  0
ARC
  5
83
330
80
100
AcDbEntity
  8
0
  6
Continuous
 62
   179
370
    18
100
AcDbCircle
 10
80.3853261169
 20
4.9940995715
 30
0.0
 40
0.3000000000000441
100
AcDbArc
 50
181.9349323096
 51
274.6062978506
  0
ARC
  5
84
330
80
100
AcDbEntity
  8
0
  6
Continuous
 62
   179
370
    18
100
AcDbCircle
 10
81.2359083165
 20
2.1946665956
 30
0.0
 40
1.000000000000021
100
AcDbArc
 50
221.4087409628
 51
276.0561297228
  0
ARC
  5
85
330
80
100
AcDbEntity
  8
0
  6
Continuous
 62
   179
370
    18
100
AcDbCircle
 10
79.1360017163
 20
3.654242048
 30
0.0
 40
0.300000000000004
100
AcDbArc
 50
181.2730300201
 51
274.4996077095
  0
ARC
  5
86
330
80
100
AcDbEntity
  8
0
  6
Continuous
 62
   179
370
    18
100
AcDbCircle
 10
78.7699033484
 20
3.2873137407
 30
0.0
 40
0.4000000000000358
100
AcDbArc
 50
221.0090869016
 51
274.5606296317
  0
ARC
  5
87
330
80
100
AcDbEntity
  8
0
  6
Continuous
 62
   179
370
    18
100
AcDbCircle
 10
91.2333953062
 20
4.6062442307
 30
0.0
 40
0.3000000000000493
100
AcDbArc
 50
274.4996077095
 51
3.7249371334
  0
ARC
  5
88
330
80
100
AcDbEntity
  8
0
  6
Continuous
 62
   179
370
    18
100
AcDbCircle
 10
81.5287571045
 20
9.7648973508
 30
0.0
 40
1.00000000000002
100
AcDbArc
 50
93.1134387481
 51
181.9414863909
  0
ARC
  5
89
330
80
100
AcDbEntity
  8
0
  6
Continuous
 62
   179
370
    18
100
AcDbCircle
 10
81.6051675115
 20
7.5107903456
 30
0.0
 40
1.0
100
AcDbArc
 50
181.9414863909
 51
274.398705355
  0
ARC
  5
8A
330
80
100
AcDbEntity
  8
0
  6
Continuous
 62
   179
370
    18
100
AcDbCircle
 10
80.1506905656
 20
11.9393118923
 30
0.0
 40
0.300000000000045
100
AcDbArc
 50
93.0418421566
 51
181.9349323096
  0
ARC
  5
8B
330
80
100
AcDbEntity
  8
0
  6
Continuous
 62
   179
370
    18
100
AcDbCircle
 10
78.1879722102
 20
12.3499352608
 30
0.0
 40
0.7999999999953393
100
AcDbArc
 50
92.6995697565
 51
148.2554209065
  0
ARC
  5
8C
330
80
100
AcDbEntity
  8
0
  6
Continuous
 62
   179
370
    18
100
AcDbCircle
 10
78.930862229
 20
12.8855189761
 30
0.0
 40
0.3000000000000031
100
AcDbArc
 50
92.6995697565
 51
181.2730300201
  0
ARC
  5
8D
330
80
100
AcDbEntity
  8
0
  6
Continuous
 62
   179
370
    18
100
AcDbCircle
 10
82.327743407
 20
9.8083568568
 30
0.0
 40
1.000000000000034
100
AcDbArc
 50
1.9414863909
 51
93.1134387481
  0
ARC
  5
8E
330
80
100
AcDbEntity
  8
0
  6
Continuous
 62
   179
370
    18
100
AcDbCircle
 10
81.5287571045
 20
9.7648973508
 30
0.0
 40
0.3625000000000009
100
AcDbArc
 50
93.1134387481
 51
181.9414863909
  0
ARC
  5
8F
330
80
100
AcDbEntity
  8
0
  6
Continuous
 62
   179
370
    18
100
AcDbCircle
 10
82.327743407
 20
9.8083568568
 30
0.0
 40
0.3625000000000146
100
AcDbArc
 50
1.9414863909
 51
93.1134387481
  0
ARC
  5
90
330
80
100
AcDbEntity
  8
0
  6
Continuous
 62
   179
370
    18
100
AcDbCircle
 10
82.4035451983
 20
7.5722040138
 30
0.0
 40
1.000000000000008
100
AcDbArc
 50
274.398705355
 51
1.9414863909
  0
ARC
  5
91
330
80
100
AcDbEntity
  8
0
  6
Continuous
 62
   179
370
    18
100
AcDbCircle
 10
82.4035451983
 20
7.5722040138
 30
0.0
 40
0.3625000000000068
100
AcDbArc
 50
274.398705355
 51
1.9414863909
  0
ARC
  5
92
330
80
100
AcDbEntity
  8
0
  6
Continuous
 62
   179
370
    18
100
AcDbCircle
 10
81.6051675115
 20
7.5107903456
 30
0.0
 40
0.3625000000000111
100
AcDbArc
 50
181.9414863909
 51
274.398705355
  0
ARC
  5
93
330
80
100
AcDbEntity
  8
0
  6
Continuous
 62
   179
370
    18
100
AcDbCircle
 10
88.825822761
 20
8.0662148274
 30
0.0
 40
0.9999999999999997
100
AcDbArc
 50
274.398705355
 51
2.6541955134
  0
ARC
  5
94
330
80
100
AcDbEntity
  8
0
  6
Continuous
 62
   179
370
    18
100
AcDbCircle
 10
90.1578295581
 20
5.7814576687
 30
0.0
 40
0.3000000000000043
100
AcDbArc
 50
274.6062978507
 51
2.5147526475
  0
ARC
  5
95
330
80
100
AcDbEntity
  8
0
  6
Continuous
 62
   179
370
    18
100
AcDbCircle
 10
88.825822761
 20
8.0662148274
 30
0.0
 40
0.3625000000000083
100
AcDbArc
 50
274.398705355
 51
2.6541955134
  0
ARC
  5
96
330
80
100
AcDbEntity
  8
0
  6
Continuous
 62
   179
370
    18
100
AcDbCircle
 10
88.728529747
 20
10.16496413
 30
0.0
 40
1.000000000000001
100
AcDbArc
 50
2.6541955134
 51
93.1134387481
  0
ARC
  5
97
330
80
100
AcDbEntity
  8
0
  6
Continuous
 62
   179
370
    18
100
AcDbCircle
 10
88.728529747
 20
10.16496413
 30
0.0
 40
0.3625000000000085
100
AcDbArc
 50
2.6541955134
 51
93.1134387481
  0
ARC
  5
98
330
80
100
AcDbEntity
  8
0
  6
Continuous
 62
   179
370
    18
100
AcDbCircle
 10
89.8647121341
 20
12.455515937
 30
0.0
 40
0.2999999999999984
100
AcDbArc
 50
2.5147526475
 51
93.0418421566
  0
ARC
  5
99
330
80
100
AcDbEntity
  8
0
  6
Continuous
 62
   179
370
    18
100
AcDbCircle
 10
90.6583795404
 20
13.4384863935
 30
0.0
 40
0.2999999999999911
100
AcDbArc
 50
3.7249371334
 51
92.6995697565
  0
CIRCLE
  5
9A
330
80
100
AcDbEntity
  8
0
  6
Continuous
 62
   179
370
    18
100
AcDbCircle
 10
15.7233972286
 20
6.4054930194
 30
0.0
 40
1.579500000000014
  0
CIRCLE
  5
9B
330
80
100
AcDbEntity
  8
0
  6
Continuous
 62
   179
370
    18
100
AcDbCircle
 10
15.7233972286
 20
6.4054930194
 30
0.0
 40
2.281499999999994
  0
ARC
  5
9C
330
80
100
AcDbEntity
  8
0
  6
Continuous
 62
   179
370
    18
100
AcDbCircle
 10
89.7681336026
 20
2.3106616691
 30
0.0
 40
0.098384530246548
100
AcDbArc
 50
332.3802627259
 51
4.9765441602
  0
ARC
  5
9D
330
80
100
AcDbEntity
  8
0
  6
Continuous
 62
   179
370
    18
100
AcDbCircle
 10
89.6886560089
 20
2.3522464185
 30
0.0
 40
0.1880839130754018
100
AcDbArc
 50
303.690067526
 51
332.3802627258
  0
ARC
  5
9E
330
80
100
AcDbEntity
  8
0
  6
Continuous
 62
   179
370
    18
100
AcDbCircle
 10
89.4849700869
 20
2.6577753016
 30
0.0
 40
0.5552839311631531
100
AcDbArc
 50
287.108652213
 51
303.690067526
  0
ARC
  5
9F
330
80
100
AcDbEntity
  8
0
  6
Continuous
 62
   179
370
    18
100
AcDbCircle
 10
88.0513010646
 20
7.3154864882
 30
0.0
 40
5.428648309393203
100
AcDbArc
 50
285.2551187031
 51
287.108652213
  0
ARC
  5
A0
330
80
100
AcDbEntity
  8
0
  6
Continuous
 62
   179
370
    18
100
AcDbCircle
 10
89.1317168954
 20
3.3539617753
 30
0.0
 40
1.322436378825653
100
AcDbArc
 50
281.4991866428
 51
285.255118703
  0
ARC
  5
A1
330
80
100
AcDbEntity
  8
0
  6
Continuous
 62
   179
370
    18
100
AcDbCircle
 10
89.3198255509
 20
2.4293110075
 30
0.0
 40
0.3788454141584939
100
AcDbArc
 50
279.1917900003
 51
281.499186643
  0
ARC
  5
A2
330
80
100
AcDbEntity
  8
0
  6
Continuous
 62
   179
370
    18
100
AcDbCircle
 10
89.0487250788
 20
4.1046569124
 30
0.0
 40
2.07598399629105
100
AcDbArc
 50
277.7634675038
 51
279.1917900002
  0
ARC
  5
A3
330
80
100
AcDbEntity
  8
0
  6
Continuous
 62
   179
370
    18
100
AcDbCircle
 10
9.2588909915
 20
6.4054930194
 30
0.0
 40
1.579500000000074
100
AcDbArc
 50
31.0558004991
 51
330.0
  0
ARC
  5
A4
330
80
100
AcDbEntity
  8
0
  6
Continuous
 62
   179
370
    18
100
AcDbCircle
 10
9.2588909915
 20
6.4054930194
 30
0.0
 40
2.281500000000107
100
AcDbArc
 50
30.7309172659
 51
330.0
  0
ARC
  5
A5
330
80
100
AcDbEntity
  8
0
  6
Continuous
 62
   179
370
    18
100
AcDbCircle
 10
6.1288847544
 20
4.0685261312
 30
0.0
 40
4.914000000000307
100
AcDbArc
 50
172.3058370354
 51
179.7113029221
  0
ARC
  5
A6
330
80
100
AcDbEntity
  8
0
  6
Continuous
 62
   179
370
    18
100
AcDbCircle
 10
-0.5401152456
 20
4.0685261312
 30
0.0
 40
4.91400000000019
100
AcDbArc
 50
0.2886970779
 51
7.6941629646
  0
ARC
  5
A7
330
80
100
AcDbEntity
  8
0
  6
Continuous
 62
   179
370
    18
100
AcDbCircle
 10
-0.5401152456
 20
4.0685261312
 30
0.0
 40
5.616000000000127
100
AcDbArc
 50
0.2526096926
 51
53.5764263577
  0
ARC
  5
A8
330
80
100
AcDbEntity
  8
0
  6
Continuous
 62
   179
370
    18
100
AcDbCircle
 10
6.1288847544
 20
4.0685261312
 30
0.0
 40
5.61600000000074
100
AcDbArc
 50
126.4235736423
 51
179.7473903073
  0
ARC
  5
A9
330
80
100
AcDbEntity
  8
0
  6
Continuous
 62
   179
370
    18
100
AcDbCircle
 10
-0.5401152456
 20
4.0685261312
 30
0.0
 40
4.914000000000161
100
AcDbArc
 50
16.0658750272
 51
47.2678899574
  0
ARC
  5
AA
330
80
100
AcDbEntity
  8
0
  6
Continuous
 62
   179
370
    18
100
AcDbCircle
 10
6.1288847544
 20
4.0685261312
 30
0.0
 40
4.914000000000584
100
AcDbArc
 50
132.7321100426
 51
163.9341249728
  0
LINE
  5
AB
330
80
100
AcDbEntity
  8
0
  6
Continuous
 62
   179
370
    18
100
AcDbLine
 10
78.8017089389
 20
2.8885802402
 30
0.0
 11
90.7982178739
 21
3.8455002136
 31
0.0
  0
LINE
  5
AC
330
80
100
AcDbEntity
  8
0
  6
Continuous
 62
   179
370
    18
100
AcDbLine
 10
76.6545490427
 20
5.8693097374
 30
0.0
 11
78.0344191726
 21
3.5235305166
 31
0.0
  0
LINE
  5
AD
330
80
100
AcDbEntity
  8
0
  6
Continuous
 62
   179
370
    18
100
AcDbLine
 10
91.5327615373
 20
4.6257342197
 30
0.0
 11
90.9577457715
 21
13.4579763825
 31
0.0
  0
LINE
  5
AE
330
80
100
AcDbEntity
  8
0
  6
Continuous
 62
   179
370
    18
100
AcDbLine
 10
78.6309362756
 20
12.8788539549
 30
0.0
 11
78.8360757629
 21
3.6475770268
 31
0.0
  0
LINE
  5
AF
330
80
100
AcDbEntity
  8
0
  6
Continuous
 62
   179
370
    18
100
AcDbLine
 10
80.4094186633
 20
4.6950685544
 30
0.0
 11
90.1819221045
 21
5.4824266516
 31
0.0
  0
LINE
  5
B0
330
80
100
AcDbEntity
  8
0
  6
Continuous
 62
   179
370
    18
100
AcDbLine
 10
79.1595373973
 20
3.3551666867
 30
0.0
 11
91.2569309872
 21
4.3071688694
 31
0.0
  0
LINE
  5
B1
330
80
100
AcDbEntity
  8
0
  6
Continuous
 62
   179
370
    18
100
AcDbLine
 10
79.2585043218
 20
2.925017226
 30
0.0
 11
80.4858981444
 21
1.533240302
 31
0.0
  0
LINE
  5
B2
330
80
100
AcDbEntity
  8
0
  6
Continuous
 62
   179
370
    18
100
AcDbLine
 10
78.0344191726
 20
3.5235305166
 30
0.0
 11
78.3638740472
 21
3.1446574108
 31
0.0
  0
LINE
  5
B3
330
80
100
AcDbEntity
  8
0
  6
Continuous
 62
   179
370
    18
100
AcDbLine
 10
78.3638740472
 20
3.1446574108
 30
0.0
 11
78.4680611395
 21
3.0248422547
 31
0.0
  0
LINE
  5
B4
330
80
100
AcDbEntity
  8
0
  6
Continuous
 62
   179
370
    18
100
AcDbLine
 10
81.3414110113
 20
1.2002475785
 30
0.0
 11
89.3291569519
 21
2.0477010263
 31
0.0
  0
LINE
  5
B5
330
80
100
AcDbEntity
  8
0
  6
Continuous
 62
   179
370
    18
100
AcDbLine
 10
89.8661472522
 20
2.5197759309
 30
0.0
 11
89.8661472522
 21
2.3090867337
 31
0.0
  0
LINE
  5
B6
330
80
100
AcDbEntity
  8
0
  6
Continuous
 62
   179
370
    18
100
AcDbLine
 10
88.676842368
 20
3.6762854359
 30
0.0
 11
89.6713239345
 21
2.7875997807
 31
0.0
  0
LINE
  5
B7
330
80
100
AcDbEntity
  8
0
  6
Continuous
 62
   179
370
    18
100
AcDbLine
 10
89.6713239345
 20
2.7875997807
 30
0.0
 11
89.7459749087
 21
2.7242700694
 31
0.0
  0
LINE
  5
B8
330
80
100
AcDbEntity
  8
0
  6
Continuous
 62
   179
370
    18
100
AcDbLine
 10
90.7982178739
 20
3.8455002136
 30
0.0
 11
91.3961615969
 21
4.3514525945
 31
0.0
  0
LINE
  5
B9
330
80
100
AcDbEntity
  8
0
  6
Continuous
 62
   179
370
    18
100
AcDbLine
 10
90.6442498554
 20
13.7381534621
 30
0.0
 11
78.1502930503
 21
13.1490474438
 31
0.0
  0
LINE
  5
BA
330
80
100
AcDbEntity
  8
0
  6
Continuous
 62
   179
370
    18
100
AcDbLine
 10
80.1347709981
 20
12.2388892068
 30
0.0
 11
89.8487925667
 21
12.7550932515
 31
0.0
  0
LINE
  5
BB
330
80
100
AcDbEntity
  8
0
  6
Continuous
 62
   179
370
    18
100
AcDbLine
 10
76.4935641943
 20
11.7567556248
 30
0.0
 11
76.6545490427
 21
5.8693097374
 31
0.0
  0
LINE
  5
BC
330
80
100
AcDbEntity
  8
0
  6
Continuous
 62
   179
370
    18
100
AcDbLine
 10
79.8508616208
 20
11.929182536
 30
0.0
 11
80.0854971721
 21
4.9839702153
 31
0.0
  0
LINE
  5
BD
330
80
100
AcDbEntity
  8
0
  6
Continuous
 62
   179
370
    18
100
AcDbLine
 10
80.5293311574
 20
9.7310185051
 30
0.0
 11
80.6057415643
 21
7.4769115
 31
0.0
  0
LINE
  5
BE
330
80
100
AcDbEntity
  8
0
  6
Continuous
 62
   179
370
    18
100
AcDbLine
 10
77.507650604
 20
12.7708420346
 30
0.0
 11
76.4935641943
 21
11.7567556248
 31
0.0
  0
LINE
  5
BF
330
80
100
AcDbEntity
  8
0
  6
Continuous
 62
   179
370
    18
100
AcDbLine
 10
86.8848195129
 20
11.0661568594
 30
0.0
 11
88.6742167283
 21
11.1634880887
 31
0.0
  0
LINE
  5
C0
330
80
100
AcDbEntity
  8
0
  6
Continuous
 62
   179
370
    18
100
AcDbLine
 10
87.0766213517
 20
6.9287171941
 30
0.0
 11
88.90708891
 21
7.0695223909
 31
0.0
  0
LINE
  5
C1
330
80
100
AcDbEntity
  8
0
  6
Continuous
 62
   179
370
    18
100
AcDbLine
 10
87.6830038473
 20
7.6147347768
 30
0.0
 11
88.8536252418
 21
7.7047825764
 31
0.0
  0
LINE
  5
C2
330
80
100
AcDbEntity
  8
0
  6
Continuous
 62
   179
370
    18
100
AcDbLine
 10
87.5509212094
 20
10.4639459651
 30
0.0
 11
88.7088412777
 21
10.5269290651
 31
0.0
  0
LINE
  5
C3
330
80
100
AcDbEntity
  8
0
  6
Continuous
 62
   179
370
    18
100
AcDbLine
 10
87.0766218384
 20
6.9287066941
 30
0.0
 11
86.8848195129
 21
11.0661568594
 31
0.0
  0
LINE
  5
C4
330
80
100
AcDbEntity
  8
0
  6
Continuous
 62
   179
370
    18
100
AcDbLine
 10
83.7004598825
 20
6.6667911093
 30
0.0
 11
84.5054929504
 21
10.9267193262
 31
0.0
  0
LINE
  5
C5
330
80
100
AcDbEntity
  8
0
  6
Continuous
 62
   179
370
    18
100
AcDbLine
 10
85.3543248406
 20
10.9728900984
 30
0.0
 11
86.4940946704
 21
6.8816860929
 31
0.0
  0
LINE
  5
C6
330
80
100
AcDbEntity
  8
0
  6
Continuous
 62
   179
370
    18
100
AcDbLine
 10
84.9728575427
 20
9.9667192298
 30
0.0
 11
85.4540299774
 21
8.2395506903
 31
0.0
  0
LINE
  5
C7
330
80
100
AcDbEntity
  8
0
  6
Continuous
 62
   179
370
    18
100
AcDbLine
 10
84.6363094629
 20
8.1858350416
 30
0.0
 11
84.9728575427
 21
9.9667192298
 31
0.0
  0
LINE
  5
C8
330
80
100
AcDbEntity
  8
0
  6
Continuous
 62
   179
370
    18
100
AcDbLine
 10
87.6830038473
 20
7.6147347768
 30
0.0
 11
87.5509212094
 21
10.4639459651
 31
0.0
  0
LINE
  5
C9
330
80
100
AcDbEntity
  8
0
  6
Continuous
 62
   179
370
    18
100
AcDbLine
 10
84.6363094629
 20
8.1858350416
 30
0.0
 11
85.4540299774
 21
8.2395506903
 31
0.0
  0
LINE
  5
CA
330
80
100
AcDbEntity
  8
0
  6
Continuous
 62
   179
370
    18
100
AcDbLine
 10
84.5140586807
 20
7.5389304886
 30
0.0
 11
85.6288154243
 21
7.6121582976
 31
0.0
  0
LINE
  5
CB
330
80
100
AcDbEntity
  8
0
  6
Continuous
 62
   179
370
    18
100
AcDbLine
 10
84.3588137958
 20
6.717433718
 30
0.0
 11
84.5140586807
 21
7.5389304886
 31
0.0
  0
LINE
  5
CC
330
80
100
AcDbEntity
  8
0
  6
Continuous
 62
   179
370
    18
100
AcDbLine
 10
81.6818640104
 20
6.5137358601
 30
0.0
 11
82.4802416972
 21
6.5751495283
 31
0.0
  0
LINE
  5
CD
330
80
100
AcDbEntity
  8
0
  6
Continuous
 62
   179
370
    18
100
AcDbLine
 10
81.6329699923
 20
7.1493580946
 30
0.0
 11
82.4313476791
 21
7.2107717628
 31
0.0
  0
LINE
  5
CE
330
80
100
AcDbEntity
  8
0
  6
Continuous
 62
   179
370
    18
100
AcDbLine
 10
83.7004598825
 20
6.6667911093
 30
0.0
 11
84.3588137958
 21
6.717433718
 31
0.0
  0
LINE
  5
CF
330
80
100
AcDbEntity
  8
0
  6
Continuous
 62
   179
370
    18
100
AcDbLine
 10
82.7059483815
 20
9.3512024135
 30
0.0
 11
83.3423973297
 21
9.3930104243
 31
0.0
  0
LINE
  5
D0
330
80
100
AcDbEntity
  8
0
  6
Continuous
 62
   179
370
    18
100
AcDbLine
 10
82.7491656358
 20
8.0762934118
 30
0.0
 11
83.385614584
 21
8.1181014226
 31
0.0
  0
LINE
  5
D1
330
80
100
AcDbEntity
  8
0
  6
Continuous
 62
   179
370
    18
100
AcDbLine
 10
81.1664651987
 20
9.7526162692
 30
0.0
 11
81.2428756056
 21
7.4985092641
 31
0.0
  0
LINE
  5
D2
330
80
100
AcDbEntity
  8
0
  6
Continuous
 62
   179
370
    18
100
AcDbLine
 10
82.6900353128
 20
9.8206379383
 30
0.0
 11
82.7052632884
 21
9.3714126602
 31
0.0
  0
LINE
  5
D3
330
80
100
AcDbEntity
  8
0
  6
Continuous
 62
   179
370
    18
100
AcDbLine
 10
82.7491656358
 20
8.0762934118
 30
0.0
 11
82.7658371041
 21
7.5844850954
 31
0.0
  0
LINE
  5
D4
330
80
100
AcDbEntity
  8
0
  6
Continuous
 62
   179
370
    18
100
AcDbLine
 10
83.3271693541
 20
9.8422357024
 30
0.0
 11
83.3423973297
 21
9.3930104243
 31
0.0
  0
LINE
  5
D5
330
80
100
AcDbEntity
  8
0
  6
Continuous
 62
   179
370
    18
100
AcDbLine
 10
83.385614584
 20
8.1181014226
 30
0.0
 11
83.4029711454
 21
7.6060828595
 31
0.0
  0
LINE
  5
D6
330
80
100
AcDbEntity
  8
0
  6
Continuous
 62
   179
370
    18
100
AcDbLine
 10
85.6288154243
 20
7.6121582976
 30
0.0
 11
85.8462022593
 21
6.8318482152
 31
0.0
  0
LINE
  5
D7
330
80
100
AcDbEntity
  8
0
  6
Continuous
 62
   179
370
    18
100
AcDbLine
 10
85.8462022593
 20
6.8318482152
 30
0.0
 11
86.4940946704
 21
6.8816860929
 31
0.0
  0
LINE
  5
D8
330
80
100
AcDbEntity
  8
0
  6
Continuous
 62
   179
370
    18
100
AcDbLine
 10
84.5054929504
 20
10.9267193262
 30
0.0
 11
85.3543248406
 21
10.9728900984
 31
0.0
  0
LINE
  5
D9
330
80
100
AcDbEntity
  8
0
  6
Continuous
 62
   179
370
    18
100
AcDbLine
 10
81.4744440858
 20
10.7634213094
 30
0.0
 11
82.2734303883
 21
10.8068808154
 31
0.0
  0
LINE
  5
DA
330
80
100
AcDbEntity
  8
0
  6
Continuous
 62
   179
370
    18
100
AcDbLine
 10
81.5090686352
 20
10.1268622858
 30
0.0
 11
82.3080549377
 21
10.1703217918
 31
0.0
  0
LINE
  5
DB
330
80
100
AcDbEntity
  8
0
  6
Continuous
 62
   179
370
    18
100
AcDbLine
 10
90.4575406452
 20
5.7946206556
 30
0.0
 11
90.1644232213
 21
12.4686789239
 31
0.0
  0
LINE
  5
DC
330
80
100
AcDbEntity
  8
0
  6
Continuous
 62
   179
370
    18
100
AcDbLine
 10
89.8247499755
 20
8.1125227115
 30
0.0
 11
89.7274569615
 21
10.2112720142
 31
0.0
  0
LINE
  5
DD
330
80
100
AcDbEntity
  8
0
  6
Continuous
 62
   179
370
    18
100
AcDbLine
 10
89.1879338763
 20
8.0830014354
 30
0.0
 11
89.0906408622
 21
10.181750738
 31
0.0
  0
LINE
  5
DE
330
80
100
AcDbEntity
  8
0
  6
Continuous
 62
   179
370
    18
100
AcDbLine
 10
89.7459749087
 20
2.7242700694
 30
0.0
 11
89.7974962577
 21
2.6659765769
 31
0.0
  0
LINE
  5
DF
330
80
100
AcDbEntity
  8
0
  6
Continuous
 62
   179
370
    18
100
AcDbLine
 10
89.7974962577
 20
2.6659765769
 30
0.0
 11
89.8351851379
 21
2.60192886
 31
0.0
  0
LINE
  5
E0
330
80
100
AcDbEntity
  8
0
  6
Continuous
 62
   179
370
    18
100
AcDbLine
 10
89.8351851379
 20
2.60192886
 30
0.0
 11
89.8661472522
 21
2.5197759309
 31
0.0
  0
LINE
  5
E1
330
80
100
AcDbEntity
  8
0
  6
Continuous
 62
   179
370
    18
100
AcDbLine
 10
10.6119938288
 20
7.2203138351
 30
0.0
 11
11.2200151261
 21
7.5713550947
 31
0.0
  0
LINE
  5
E2
330
80
100
AcDbEntity
  8
0
  6
Continuous
 62
   179
370
    18
100
AcDbLine
 10
11.2347279503
 20
5.2647430194
 30
0.0
 11
10.6267781168
 21
5.6157430194
 31
0.0
  0
LINE
  5
E3
330
80
100
AcDbEntity
  8
0
  6
Continuous
 62
   179
370
    18
100
AcDbLine
 10
6.4645062371
 20
16.1712617198
 30
0.0
 11
6.4645062371
 21
2.9364593988
 31
0.0
  0
LINE
  5
E4
330
80
100
AcDbEntity
  8
0
  6
Continuous
 62
   179
370
    18
100
AcDbLine
 10
6.4645062371
 20
2.9364593988
 30
0.0
 11
12.0532757459
 21
2.9364593988
 31
0.0
  0
LINE
  5
E5
330
80
100
AcDbEntity
  8
0
  6
Continuous
 62
   179
370
    18
100
AcDbLine
 10
12.0532757459
 20
2.9364593988
 30
0.0
 11
12.0532757459
 21
16.1712617198
 31
0.0
  0
LINE
  5
E6
330
80
100
AcDbEntity
  8
0
  6
Continuous
 62
   179
370
    18
100
AcDbLine
 10
12.0532757459
 20
16.1712617198
 30
0.0
 11
6.4645062371
 21
16.1712617198
 31
0.0
  0
LINE
  5
E7
330
80
100
AcDbEntity
  8
0
  6
Continuous
 62
   179
370
    18
100
AcDbLine
 10
0.0
 20
16.1712617198
 30
0.0
 11
0.0
 21
2.9364593988
 31
0.0
  0
LINE
  5
E8
330
80
100
AcDbEntity
  8
0
  6
Continuous
 62
   179
370
    18
100
AcDbLine
 10
0.0
 20
2.9364593988
 30
0.0
 11
5.5887695089
 21
2.9364593988
 31
0.0
  0
LINE
  5
E9
330
80
100
AcDbEntity
  8
0
  6
Continuous
 62
   179
370
    18
100
AcDbLine
 10
5.5887695089
 20
2.9364593988
 30
0.0
 11
5.5887695089
 21
16.1712617198
 31
0.0
  0
LINE
  5
EA
330
80
100
AcDbEntity
  8
0
  6
Continuous
 62
   179
370
    18
100
AcDbLine
 10
5.5887695089
 20
16.1712617198
 30
0.0
 11
0.0
 21
16.1712617198
 31
0.0
  0
LINE
  5
EB
330
80
100
AcDbEntity
  8
0
  6
Continuous
 62
   179
370
    18
100
AcDbLine
 10
1.2591262606
 20
4.7264381407
 30
0.0
 11
4.3296432482
 21
4.7264381407
 31
0.0
  0
LINE
  5
EC
330
80
100
AcDbEntity
  8
0
  6
Continuous
 62
   179
370
    18
100
AcDbLine
 10
4.3738223747
 20
4.0932862697
 30
0.0
 11
5.0758301722
 21
4.0932862697
 31
0.0
  0
LINE
  5
ED
330
80
100
AcDbEntity
  8
0
  6
Continuous
 62
   179
370
    18
100
AcDbLine
 10
0.5129393366
 20
4.0932862697
 30
0.0
 11
1.2149471342
 21
4.0932862697
 31
0.0
  0
LINE
  5
EE
330
80
100
AcDbEntity
  8
0
  6
Continuous
 62
   179
370
    18
100
AcDbLine
 10
4.1819643097
 20
5.4284381407
 30
0.0
 11
1.4068051992
 21
5.4284381407
 31
0.0
  0
LINE
  5
EF
330
80
100
AcDbEntity
  8
0
  6
Continuous
 62
   179
370
    18
100
AcDbLine
 10
18.517781983
 20
16.1712617198
 30
0.0
 11
18.517781983
 21
2.9364593988
 31
0.0
  0
LINE
  5
F0
330
80
100
AcDbEntity
  8
0
  6
Continuous
 62
   179
370
    18
100
AcDbLine
 10
18.517781983
 20
2.9364593988
 30
0.0
 11
12.9290124742
 21
2.9364593988
 31
0.0
  0
LINE
  5
F1
330
80
100
AcDbEntity
  8
0
  6
Continuous
 62
   179
370
    18
100
AcDbLine
 10
12.9290124742
 20
2.9364593988
 30
0.0
 11
12.9290124742
 21
16.1712617198
 31
0.0
  0
LINE
  5
F2
330
80
100
AcDbEntity
  8
0
  6
Continuous
 62
   179
370
    18
100
AcDbLine
 10
12.9290124742
 20
16.1712617198
 30
0.0
 11
18.517781983
 21
16.1712617198
 31
0.0
  0
MTEXT
  5
F4
330
80
100
AcDbEntity
  8
0
  6
Continuous
 62
     7
370
     0
100
AcDbMText
 10
9.3686441161
 20
2.2554789353
 30
0.0
 40
2.0
 41
0.0
 71
     2
 72
     1
  1
www.aco.ch
  7
SLDTEXTSTYLE0
 73
     1
 44
1.0
  0
MTEXT
  5
F5
330
80
100
AcDbEntity
  8
0
  6
Continuous
 62
     7
370
     0
100
AcDbMText
 10
46.980584205
 20
16.6131199634
 30
0.0
 40
3.0
 41
0.0
 71
     2
 72
     1
  1
ACO Passavant AG
  7
SLDTEXTSTYLE0
 73
     1
 44
1.0
  0
INSERT
  5
FE
330
80
100
AcDbEntity
  8
0
  6
Continuous
 62
     7
370
     0
100
AcDbBlockReference
  2
SW_NOTE_0
 10
28.8863479825
 20
8.6365742194
 30
0.0
  0
ENDBLK
  5
82
330
80
100
AcDbEntity
  8
0
100
AcDbBlockEnd
  0
BLOCK
  5
F7
330
F6
100
AcDbEntity
  8
0
100
AcDbBlockBegin
  2
SW_NOTE_0
 70
     0
 10
0.0
 20
0.0
 30
0.0
  3
SW_NOTE_0
  1

  0
MTEXT
  5
F9
330
F6
100
AcDbEntity
  8
0
  6
Continuous
 62
     0
370
     0
100
AcDbMText
 10
0.0
 20
2.5781354795
 30
0.0
 40
2.0
 41
0.0
 71
     1
 72
     1
  1
Industrie Kleinzaun
  7
SLDTEXTSTYLE0
 73
     1
 44
1.0
  0
MTEXT
  5
FA
330
F6
100
AcDbEntity
  8
0
  6
Continuous
 62
     0
370
     0
100
AcDbMText
 10
0.0
 20
-0.4218645465
 30
0.0
 40
2.0
 41
0.0
 71
     1
 72
     1
  1
CH-8754 Netstal
  7
SLDTEXTSTYLE0
 73
     1
 44
1.0
  0
MTEXT
  5
FC
330
F6
100
AcDbEntity
  8
0
  6
Continuous
 62
     0
370
     0
100
AcDbMText
 10
0.0
 20
-3.4218645726
 30
0.0
 40
2.0
 41
0.0
 71
     1
 72
     1
  1
Tel. 055 / 645 53 00  -  Fax 055 / 645 53 10
  7
SLDTEXTSTYLE1
 73
     1
 44
1.0
  0
MTEXT
  5
FD
330
F6
100
AcDbEntity
  8
0
  6
Continuous
 62
     0
370
     0
100
AcDbMText
 10
0.0
 20
-6.4218645987
 30
0.0
 40
2.0
 41
0.0
 71
     1
 72
     1
  1
E-Mail: aco@aco.ch
  7
SLDTEXTSTYLE0
 73
     1
 44
1.0
  0
ENDBLK
  5
F8
330
F6
100
AcDbEntity
  8
0
100
AcDbBlockEnd
  0
BLOCK
  5
179
330
178
100
AcDbEntity
  8
0
100
AcDbBlockBegin
  2
SW_NOTE_1
 70
     0
 10
0.0
 20
0.0
 30
0.0
  3
SW_NOTE_1
  1

  0
MTEXT
  5
17B
330
178
100
AcDbEntity
  8
0
  6
Continuous
 62
     0
370
     0
100
AcDbMText
 10
0.0
 20
1.9336016097
 30
0.0
 40
1.5
 41
0.0
 71
     1
 72
     1
  1
Diese Zeichnung darf weder kopiert
  7
SLDTEXTSTYLE0
 73
     1
 44
1.0
  0
MTEXT
  5
17C
330
178
100
AcDbEntity
  8
0
  6
Continuous
 62
     0
370
     0
100
AcDbMText
 10
0.0
 20
-0.5663983345
 30
0.0
 40
1.5
 41
0.0
 71
     1
 72
     1
  1
noch dritten Personen, insbesondere
  7
SLDTEXTSTYLE0
 73
     1
 44
1.0
  0
MTEXT
  5
17D
330
178
100
AcDbEntity
  8
0
  6
Continuous
 62
     0
370
     0
100
AcDbMText
 10
0.0
 20
-3.0663982786
 30
0.0
 40
1.5
 41
0.0
 71
     1
 72
     1
  1
zum Zweck anderweitiger Benutzung
  7
SLDTEXTSTYLE0
 73
     1
 44
1.0
  0
MTEXT
  5
17E
330
178
100
AcDbEntity
  8
0
  6
Continuous
 62
     0
370
     0
100
AcDbMText
 10
0.0
 20
-5.5663982227
 30
0.0
 40
1.5
 41
0.0
 71
     1
 72
     1
  1
mitgeteilt werden und bleibt unser
  7
SLDTEXTSTYLE0
 73
     1
 44
1.0
  0
MTEXT
  5
17F
330
178
100
AcDbEntity
  8
0
  6
Continuous
 62
     0
370
     0
100
AcDbMText
 10
0.0
 20
-8.0663981668
 30
0.0
 40
1.5
 41
0.0
 71
     1
 72
     1
  1
Eigentum.
  7
SLDTEXTSTYLE0
 73
     1
 44
1.0
  0
ENDBLK
  5
17A
330
178
100
AcDbEntity
  8
0
100
AcDbBlockEnd
  0
BLOCK
  5
20A
330
209
100
AcDbEntity
  8
0
100
AcDbBlockBegin
  2
SW_BROKEN_VIEW_0
 70
     0
 10
0.0
 20
0.0
 30
0.0
  3
SW_BROKEN_VIEW_0
  1

  0
ENDBLK
  5
20B
330
209
100
AcDbEntity
  8
0
100
AcDbBlockEnd
  0
BLOCK
  5
258
330
257
100
AcDbEntity
  8
0
100
AcDbBlockBegin
  2
_D
 70
     0
 10
0.0
 20
0.0
 30
0.0
  3
_D
  1

  0
SOLID
  5
25A
330
257
100
AcDbEntity
  8
SLD-0
100
AcDbTrace
 10
205.3838872492
 20
234.0849367898
 30
0.0
 11
204.8758872492
 21
230.7829367898
 31
0.0
 12
205.8918872492
 22
230.7829367898
 32
0.0
 13
205.8918872492
 23
230.7829367898
 33
0.0
  0
SOLID
  5
25B
330
257
100
AcDbEntity
  8
SLD-0
100
AcDbTrace
 10
205.3838872492
 20
209.0868094505
 30
0.0
 11
205.8918872492
 21
212.3888094505
 31
0.0
 12
204.8758872492
 22
212.3888094505
 32
0.0
 13
204.8758872492
 23
212.3888094505
 33
0.0
  0
LINE
  5
25C
330
257
100
AcDbEntity
  8
SLD-0
100
AcDbLine
 10
196.3464340365
 20
234.0849367898
 30
0.0
 11
206.3838872492
 21
234.0849367898
 31
0.0
  0
LINE
  5
25D
330
257
100
AcDbEntity
  8
SLD-0
100
AcDbLine
 10
196.3089808238
 20
209.0868094505
 30
0.0
 11
206.3838872492
 21
209.0868094505
 31
0.0
  0
LINE
  5
25E
330
257
100
AcDbEntity
  8
SLD-0
100
AcDbLine
 10
205.3838872492
 20
234.0849367898
 30
0.0
 11
205.3838872492
 21
209.0868094505
 31
0.0
  0
MTEXT
  5
25F
330
257
100
AcDbEntity
  8
SLD-0
100
AcDbMText
 10
200.8721503346
 20
218.9997619266
 30
0.0
 40
3.5
 41
0.0
 71
     1
 72
     1
  1
50
  7
SLDTEXTSTYLE3
 11
-7.044195017643634E-15
 21
1.0
 31
0.0
 73
     1
 44
1.0
  0
ENDBLK
  5
259
330
257
100
AcDbEntity
  8
0
100
AcDbBlockEnd
  0
BLOCK
  5
262
330
261
100
AcDbEntity
  8
0
100
AcDbBlockBegin
  2
_D_1
 70
     0
 10
0.0
 20
0.0
 30
0.0
  3
_D_1
  1

  0
SOLID
  5
264
330
261
100
AcDbEntity
  8
SLD-0
100
AcDbTrace
 10
33.4266938472
 20
259.0849367898
 30
0.0
 11
32.9186938472
 21
255.7829367898
 31
0.0
 12
33.9346938472
 22
255.7829367898
 32
0.0
 13
33.9346938472
 23
255.7829367898
 33
0.0
  0
SOLID
  5
265
330
261
100
AcDbEntity
  8
SLD-0
100
AcDbTrace
 10
33.4266938472
 20
209.0868094505
 30
0.0
 11
33.9346938472
 21
212.3888094505
 31
0.0
 12
32.9186938472
 22
212.3888094505
 32
0.0
 13
32.9186938472
 23
212.3888094505
 33
0.0
  0
LINE
  5
266
330
261
100
AcDbEntity
  8
SLD-0
100
AcDbLine
 10
43.2339310439
 20
259.0849367898
 30
0.0
 11
32.4266938472
 21
259.0849367898
 31
0.0
  0
LINE
  5
267
330
261
100
AcDbEntity
  8
SLD-0
100
AcDbLine
 10
43.1964778312
 20
209.0868094505
 30
0.0
 11
32.4266938472
 21
209.0868094505
 31
0.0
  0
LINE
  5
268
330
261
100
AcDbEntity
  8
SLD-0
100
AcDbLine
 10
33.4266938472
 20
259.0849367898
 30
0.0
 11
33.4266938472
 21
209.0868094505
 31
0.0
  0
MTEXT
  5
269
330
261
100
AcDbEntity
  8
SLD-0
100
AcDbMText
 10
28.9149569326
 20
230.2067064463
 30
0.0
 40
3.5
 41
0.0
 71
     1
 72
     1
  1
100
  7
SLDTEXTSTYLE3
 11
-7.044195017643634E-15
 21
1.0
 31
0.0
 73
     1
 44
1.0
  0
ENDBLK
  5
263
330
261
100
AcDbEntity
  8
0
100
AcDbBlockEnd
  0
BLOCK
  5
26C
330
26B
100
AcDbEntity
  8
0
100
AcDbBlockBegin
  2
_D_2
 70
     0
 10
0.0
 20
0.0
 30
0.0
  3
_D_2
  1

  0
SOLID
  5
26E
330
26B
100
AcDbEntity
  8
SLD-0
100
AcDbTrace
 10
44.1964778312
 20
199.0868094505
 30
0.0
 11
47.4984778312
 21
198.5788094505
 31
0.0
 12
47.4984778312
 22
199.5948094505
 32
0.0
 13
47.4984778312
 23
199.5948094505
 33
0.0
  0
SOLID
  5
26F
330
26B
100
AcDbEntity
  8
SLD-0
100
AcDbTrace
 10
195.3089808238
 20
199.0868094505
 30
0.0
 11
192.0069808238
 21
199.5948094505
 31
0.0
 12
192.0069808238
 22
198.5788094505
 32
0.0
 13
192.0069808238
 23
198.5788094505
 33
0.0
  0
LINE
  5
270
330
26B
100
AcDbEntity
  8
SLD-0
100
AcDbLine
 10
44.1964778312
 20
208.0868094505
 30
0.0
 11
44.1964778312
 21
198.0868094505
 31
0.0
  0
LINE
  5
271
330
26B
100
AcDbEntity
  8
SLD-0
100
AcDbLine
 10
195.3089808238
 20
208.0868094505
 30
0.0
 11
195.3089808238
 21
198.0868094505
 31
0.0
  0
LINE
  5
272
330
26B
100
AcDbEntity
  8
SLD-0
100
AcDbLine
 10
44.1964778312
 20
199.0868094505
 30
0.0
 11
195.3089808238
 21
199.0868094505
 31
0.0
  0
MTEXT
  5
273
330
26B
100
AcDbEntity
  8
SLD-0
100
AcDbMText
 10
114.5805069404
 20
203.5985463651
 30
0.0
 40
3.5
 41
0.0
 71
     1
 72
     1
  1
1000
  7
SLDTEXTSTYLE3
 73
     1
 44
1.0
  0
ENDBLK
  5
26D
330
26B
100
AcDbEntity
  8
0
100
AcDbBlockEnd
  0
BLOCK
  5
276
330
275
100
AcDbEntity
  8
0
100
AcDbBlockBegin
  2
_D_3
 70
     0
 10
0.0
 20
0.0
 30
0.0
  3
_D_3
  1

  0
SOLID
  5
278
330
275
100
AcDbEntity
  8
SLD-0
100
AcDbTrace
 10
44.1964778312
 20
268.7184077068
 30
0.0
 11
47.4984778312
 21
268.2104077068
 31
0.0
 12
47.4984778312
 22
269.2264077068
 32
0.0
 13
47.4984778312
 23
269.2264077068
 33
0.0
  0
SOLID
  5
279
330
275
100
AcDbEntity
  8
SLD-0
100
AcDbTrace
 10
106.6964778312
 20
268.7184077068
 30
0.0
 11
103.3944778312
 21
269.2264077068
 31
0.0
 12
103.3944778312
 22
268.2104077068
 32
0.0
 13
103.3944778312
 23
268.2104077068
 33
0.0
  0
LINE
  5
27A
330
275
100
AcDbEntity
  8
SLD-0
100
AcDbLine
 10
44.1964778312
 20
258.5849356209
 30
0.0
 11
44.1964778312
 21
269.7184077068
 31
0.0
  0
LINE
  5
27B
330
275
100
AcDbEntity
  8
SLD-0
100
AcDbLine
 10
106.6964778312
 20
239.024517523
 30
0.0
 11
106.6964778312
 21
269.7184077068
 31
0.0
  0
LINE
  5
27C
330
275
100
AcDbEntity
  8
SLD-0
100
AcDbLine
 10
44.1964778312
 20
268.7184077068
 30
0.0
 11
106.6964778312
 21
268.7184077068
 31
0.0
  0
MTEXT
  5
27D
330
275
100
AcDbEntity
  8
SLD-0
100
AcDbMText
 10
71.5673111573
 20
273.2301446214
 30
0.0
 40
3.5
 41
0.0
 71
     1
 72
     1
  1
125
  7
SLDTEXTSTYLE3
 73
     1
 44
1.0
  0
ENDBLK
  5
277
330
275
100
AcDbEntity
  8
0
100
AcDbBlockEnd
  0
BLOCK
  5
281
330
280
100
AcDbEntity
  8
0
100
AcDbBlockBegin
  2
_D_4
 70
     0
 10
0.0
 20
0.0
 30
0.0
  3
_D_4
  1

  0
SOLID
  5
283
330
280
100
AcDbEntity
  8
SLD-0
100
AcDbTrace
 10
106.6964778312
 20
268.7184077068
 30
0.0
 11
109.9984778312
 21
268.2104077068
 31
0.0
 12
109.9984778312
 22
269.2264077068
 32
0.0
 13
109.9984778312
 23
269.2264077068
 33
0.0
  0
SOLID
  5
284
330
280
100
AcDbEntity
  8
SLD-0
100
AcDbTrace
 10
142.3469431669
 20
268.7184077068
 30
0.0
 11
139.0449431669
 21
269.2264077068
 31
0.0
 12
139.0449431669
 22
268.2104077068
 32
0.0
 13
139.0449431669
 23
268.2104077068
 33
0.0
  0
LINE
  5
285
330
280
100
AcDbEntity
  8
SLD-0
100
AcDbLine
 10
106.6964778312
 20
242.774517523
 30
0.0
 11
106.6964778312
 21
269.7184077068
 31
0.0
  0
LINE
  5
286
330
280
100
AcDbEntity
  8
SLD-0
100
AcDbLine
 10
142.3469431669
 20
236.532315405
 30
0.0
 11
142.3469431669
 21
269.7184077068
 31
0.0
  0
LINE
  5
287
330
280
100
AcDbEntity
  8
SLD-0
100
AcDbLine
 10
106.6964778312
 20
268.7184077068
 30
0.0
 11
142.3469431669
 21
268.7184077068
 31
0.0
  0
MTEXT
  5
288
330
280
100
AcDbEntity
  8
SLD-0
100
AcDbMText
 10
120.6425438251
 20
273.2301446214
 30
0.0
 40
3.5
 41
0.0
 71
     1
 72
     1
  1
250
  7
SLDTEXTSTYLE3
 73
     1
 44
1.0
  0
ENDBLK
  5
282
330
280
100
AcDbEntity
  8
0
100
AcDbBlockEnd
  0
BLOCK
  5
28A
330
289
100
AcDbEntity
  8
0
100
AcDbBlockBegin
  2
SW_CENTERMARKSYMBOL_0
 70
     0
 10
0.0
 20
0.0
 30
0.0
  3
SW_CENTERMARKSYMBOL_0
  1

  0
LINE
  5
28C
330
289
100
AcDbEntity
  8
SLD-0
 62
     0
100
AcDbLine
 10
0.0
 20
0.0
 30
0.0
 11
0.0
 21
1.2500000885
 31
0.0
  0
LINE
  5
28D
330
289
100
AcDbEntity
  8
SLD-0
 62
     0
100
AcDbLine
 10
0.0
 20
0.0
 30
0.0
 11
-1.2499988079
 21
0.0
 31
0.0
  0
LINE
  5
28E
330
289
100
AcDbEntity
  8
SLD-0
 62
     0
100
AcDbLine
 10
0.0
 20
0.0
 30
0.0
 11
0.0
 21
-1.2499999721
 31
0.0
  0
LINE
  5
28F
330
289
100
AcDbEntity
  8
SLD-0
 62
     0
100
AcDbLine
 10
0.0
 20
0.0
 30
0.0
 11
1.2500025332
 21
0.0
 31
0.0
  0
LINE
  5
290
330
289
100
AcDbEntity
  8
SLD-0
 62
     0
100
AcDbLine
 10
0.0
 20
2.5000001042
 30
0.0
 11
0.0
 21
3.750000149
 31
0.0
  0
LINE
  5
291
330
289
100
AcDbEntity
  8
SLD-0
 62
     0
100
AcDbLine
 10
-2.4999976158
 20
0.0
 30
0.0
 11
-3.7499964237
 21
0.0
 31
0.0
  0
LINE
  5
292
330
289
100
AcDbEntity
  8
SLD-0
 62
     0
100
AcDbLine
 10
0.0
 20
-2.4999997113
 30
0.0
 11
0.0
 21
-3.7499999162
 31
0.0
  0
LINE
  5
293
330
289
100
AcDbEntity
  8
SLD-0
 62
     0
100
AcDbLine
 10
2.5000013411
 20
0.0
 30
0.0
 11
3.750000149
 21
0.0
 31
0.0
  0
ENDBLK
  5
28B
330
289
100
AcDbEntity
  8
0
100
AcDbBlockEnd
  0
BLOCK
  5
296
330
295
100
AcDbEntity
  8
0
100
AcDbBlockBegin
  2
SW_CENTERMARKSYMBOL_1
 70
     0
 10
0.0
 20
0.0
 30
0.0
  3
SW_CENTERMARKSYMBOL_1
  1

  0
LINE
  5
298
330
295
100
AcDbEntity
  8
SLD-0
 62
     0
100
AcDbLine
 10
0.0
 20
0.0
 30
0.0
 11
0.0
 21
1.2499997392
 31
0.0
  0
LINE
  5
299
330
295
100
AcDbEntity
  8
SLD-0
 62
     0
100
AcDbLine
 10
0.0
 20
0.0
 30
0.0
 11
-1.2499988079
 21
0.0
 31
0.0
  0
LINE
  5
29A
330
295
100
AcDbEntity
  8
SLD-0
 62
     0
100
AcDbLine
 10
0.0
 20
0.0
 30
0.0
 11
0.0
 21
-1.2500002049
 31
0.0
  0
LINE
  5
29B
330
295
100
AcDbEntity
  8
SLD-0
 62
     0
100
AcDbLine
 10
0.0
 20
0.0
 30
0.0
 11
1.2499988079
 21
0.0
 31
0.0
  0
LINE
  5
29C
330
295
100
AcDbEntity
  8
SLD-0
 62
     0
100
AcDbLine
 10
0.0
 20
2.4999999441
 30
0.0
 11
0.0
 21
3.7499996834
 31
0.0
  0
LINE
  5
29D
330
295
100
AcDbEntity
  8
SLD-0
 62
     0
100
AcDbLine
 10
-2.4999976158
 20
0.0
 30
0.0
 11
-3.7499964237
 21
0.0
 31
0.0
  0
LINE
  5
29E
330
295
100
AcDbEntity
  8
SLD-0
 62
     0
100
AcDbLine
 10
0.0
 20
-2.500000177
 30
0.0
 11
0.0
 21
-3.7500001345
 31
0.0
  0
LINE
  5
29F
330
295
100
AcDbEntity
  8
SLD-0
 62
     0
100
AcDbLine
 10
2.4999976158
 20
0.0
 30
0.0
 11
3.7499964237
 21
0.0
 31
0.0
  0
ENDBLK
  5
297
330
295
100
AcDbEntity
  8
0
100
AcDbBlockEnd
  0
BLOCK
  5
331
330
330
100
AcDbEntity
  8
0
100
AcDbBlockBegin
  2
_D_5
 70
     0
 10
0.0
 20
0.0
 30
0.0
  3
_D_5
  1

  0
SOLID
  5
333
330
330
100
AcDbEntity
  8
SLD-0
100
AcDbTrace
 10
288.1942633835
 20
208.3531093887
 30
0.0
 11
287.6862633835
 21
205.0511093887
 31
0.0
 12
288.7022633835
 22
205.0511093887
 32
0.0
 13
288.7022633835
 23
205.0511093887
 33
0.0
  0
SOLID
  5
334
330
330
100
AcDbEntity
  8
SLD-0
100
AcDbTrace
 10
288.1942633835
 20
187.3830546567
 30
0.0
 11
288.7022633835
 21
190.6850546567
 31
0.0
 12
287.6862633835
 22
190.6850546567
 32
0.0
 13
287.6862633835
 23
190.6850546567
 33
0.0
  0
LINE
  5
335
330
330
100
AcDbEntity
  8
SLD-0
100
AcDbLine
 10
257.8130195527
 20
208.3531093887
 30
0.0
 11
289.1942633835
 21
208.3531093887
 31
0.0
  0
LINE
  5
336
330
330
100
AcDbEntity
  8
SLD-0
100
AcDbLine
 10
270.310661884
 20
187.3830546567
 30
0.0
 11
289.1942633835
 21
187.3830546567
 31
0.0
  0
LINE
  5
337
330
330
100
AcDbEntity
  8
SLD-0
100
AcDbLine
 10
288.1942633835
 20
208.3531093887
 30
0.0
 11
288.1942633835
 21
187.3830546567
 31
0.0
  0
MTEXT
  5
338
330
330
100
AcDbEntity
  8
SLD-0
100
AcDbMText
 10
283.6825264689
 20
195.2819708292
 30
0.0
 40
3.5
 41
0.0
 71
     1
 72
     1
  1
21
  7
SLDTEXTSTYLE3
 11
6.123233995736766E-17
 21
1.0
 31
0.0
 73
     1
 44
1.0
  0
ENDBLK
  5
332
330
330
100
AcDbEntity
  8
0
100
AcDbBlockEnd
  0
BLOCK
  5
33C
330
33B
100
AcDbEntity
  8
0
100
AcDbBlockBegin
  2
_D_6
 70
     0
 10
0.0
 20
0.0
 30
0.0
  3
_D_6
  1

  0
SOLID
  5
33E
330
33B
100
AcDbEntity
  8
SLD-0
100
AcDbTrace
 10
219.810661884
 20
208.3531093887
 30
0.0
 11
219.302661884
 21
205.0511093887
 31
0.0
 12
220.318661884
 22
205.0511093887
 32
0.0
 13
220.318661884
 23
205.0511093887
 33
0.0
  0
SOLID
  5
33F
330
33B
100
AcDbEntity
  8
SLD-0
100
AcDbTrace
 10
219.810661884
 20
108.3568537731
 30
0.0
 11
220.318661884
 21
111.6588537731
 31
0.0
 12
219.302661884
 22
111.6588537731
 32
0.0
 13
219.302661884
 23
111.6588537731
 33
0.0
  0
LINE
  5
340
330
33B
100
AcDbEntity
  8
SLD-0
100
AcDbLine
 10
255.8130195527
 20
208.3531093887
 30
0.0
 11
218.810661884
 21
208.3531093887
 31
0.0
  0
LINE
  5
341
330
33B
100
AcDbEntity
  8
SLD-0
100
AcDbLine
 10
255.810661884
 20
108.3568537731
 30
0.0
 11
218.810661884
 21
108.3568537731
 31
0.0
  0
LINE
  5
342
330
33B
100
AcDbEntity
  8
SLD-0
100
AcDbLine
 10
219.810661884
 20
208.3531093887
 30
0.0
 11
219.810661884
 21
108.3568537731
 31
0.0
  0
MTEXT
  5
343
330
33B
100
AcDbEntity
  8
SLD-0
100
AcDbMText
 10
215.2989249694
 20
154.4758149071
 30
0.0
 40
3.5
 41
0.0
 71
     1
 72
     1
  1
100
  7
SLDTEXTSTYLE3
 11
-7.044195017643634E-15
 21
1.0
 31
0.0
 73
     1
 44
1.0
  0
ENDBLK
  5
33D
330
33B
100
AcDbEntity
  8
0
100
AcDbBlockEnd
  0
BLOCK
  5
346
330
345
100
AcDbEntity
  8
0
100
AcDbBlockBegin
  2
_D_7
 70
     0
 10
0.0
 20
0.0
 30
0.0
  3
_D_7
  1

  0
SOLID
  5
348
330
345
100
AcDbEntity
  8
SLD-0
100
AcDbTrace
 10
237.810661884
 20
158.3531093887
 30
0.0
 11
238.318661884
 21
161.6551093887
 31
0.0
 12
237.302661884
 22
161.6551093887
 32
0.0
 13
237.302661884
 23
161.6551093887
 33
0.0
  0
SOLID
  5
349
330
345
100
AcDbEntity
  8
SLD-0
100
AcDbTrace
 10
237.810661884
 20
208.3531093887
 30
0.0
 11
237.302661884
 21
205.0511093887
 31
0.0
 12
238.318661884
 22
205.0511093887
 32
0.0
 13
238.318661884
 23
205.0511093887
 33
0.0
  0
LINE
  5
34A
330
345
100
AcDbEntity
  8
SLD-0
100
AcDbLine
 10
255.8130195527
 20
158.3531093887
 30
0.0
 11
236.810661884
 21
158.3531093887
 31
0.0
  0
LINE
  5
34B
330
345
100
AcDbEntity
  8
SLD-0
100
AcDbLine
 10
255.8130195527
 20
208.3531093887
 30
0.0
 11
236.810661884
 21
208.3531093887
 31
0.0
  0
LINE
  5
34C
330
345
100
AcDbEntity
  8
SLD-0
100
AcDbLine
 10
237.810661884
 20
158.3531093887
 30
0.0
 11
237.810661884
 21
208.3531093887
 31
0.0
  0
MTEXT
  5
34D
330
345
100
AcDbEntity
  8
SLD-0
100
AcDbMText
 10
233.2989249694
 20
180.7669981952
 30
0.0
 40
3.5
 41
0.0
 71
     1
 72
     1
  1
50
  7
SLDTEXTSTYLE3
 11
6.123233995736766E-17
 21
1.0
 31
0.0
 73
     1
 44
1.0
  0
ENDBLK
  5
347
330
345
100
AcDbEntity
  8
0
100
AcDbBlockEnd
  0
BLOCK
  5
350
330
34F
100
AcDbEntity
  8
0
100
AcDbBlockBegin
  2
_D_8
 70
     0
 10
0.0
 20
0.0
 30
0.0
  3
_D_8
  1

  0
SOLID
  5
352
330
34F
100
AcDbEntity
  8
SLD-0
100
AcDbTrace
 10
253.810661884
 20
260.3568537731
 30
0.0
 11
257.112661884
 21
259.8488537731
 31
0.0
 12
257.112661884
 22
260.8648537731
 32
0.0
 13
257.112661884
 23
260.8648537731
 33
0.0
  0
SOLID
  5
353
330
34F
100
AcDbEntity
  8
SLD-0
100
AcDbTrace
 10
390.810661884
 20
260.3568537731
 30
0.0
 11
387.508661884
 21
260.8648537731
 31
0.0
 12
387.508661884
 22
259.8488537731
 32
0.0
 13
387.508661884
 23
259.8488537731
 33
0.0
  0
LINE
  5
354
330
34F
100
AcDbEntity
  8
SLD-0
100
AcDbLine
 10
253.810661884
 20
206.3531061139
 30
0.0
 11
253.810661884
 21
261.3568537731
 31
0.0
  0
LINE
  5
355
330
34F
100
AcDbEntity
  8
SLD-0
100
AcDbLine
 10
390.810661884
 20
206.3531061139
 30
0.0
 11
390.810661884
 21
261.3568537731
 31
0.0
  0
LINE
  5
356
330
34F
100
AcDbEntity
  8
SLD-0
100
AcDbLine
 10
253.810661884
 20
260.3568537731
 30
0.0
 11
390.810661884
 21
260.3568537731
 31
0.0
  0
MTEXT
  5
357
330
34F
100
AcDbEntity
  8
SLD-0
100
AcDbMText
 10
318.4314952101
 20
264.8685906877
 30
0.0
 40
3.5
 41
0.0
 71
     1
 72
     1
  1
137
  7
SLDTEXTSTYLE3
 73
     1
 44
1.0
  0
ENDBLK
  5
351
330
34F
100
AcDbEntity
  8
0
100
AcDbBlockEnd
  0
BLOCK
  5
35A
330
359
100
AcDbEntity
  8
0
100
AcDbBlockBegin
  2
_D_9
 70
     0
 10
0.0
 20
0.0
 30
0.0
  3
_D_9
  1

  0
SOLID
  5
35C
330
359
100
AcDbEntity
  8
SLD-0
100
AcDbTrace
 10
259.810661884
 20
242.3568537731
 30
0.0
 11
263.112661884
 21
241.8488537731
 31
0.0
 12
263.112661884
 22
242.8648537731
 32
0.0
 13
263.112661884
 23
242.8648537731
 33
0.0
  0
SOLID
  5
35D
330
359
100
AcDbEntity
  8
SLD-0
100
AcDbTrace
 10
384.810661884
 20
242.3568537731
 30
0.0
 11
381.508661884
 21
242.8648537731
 31
0.0
 12
381.508661884
 22
241.8488537731
 32
0.0
 13
381.508661884
 23
241.8488537731
 33
0.0
  0
LINE
  5
35E
330
359
100
AcDbEntity
  8
SLD-0
100
AcDbLine
 10
259.810661884
 20
206.3605967565
 30
0.0
 11
259.810661884
 21
243.3568537731
 31
0.0
  0
LINE
  5
35F
330
359
100
AcDbEntity
  8
SLD-0
100
AcDbLine
 10
384.810661884
 20
206.3605967565
 30
0.0
 11
384.810661884
 21
243.3568537731
 31
0.0
  0
LINE
  5
360
330
359
100
AcDbEntity
  8
SLD-0
100
AcDbLine
 10
259.810661884
 20
242.3568537731
 30
0.0
 11
384.810661884
 21
242.3568537731
 31
0.0
  0
MTEXT
  5
361
330
359
100
AcDbEntity
  8
SLD-0
100
AcDbMText
 10
318.4314952101
 20
246.8685906877
 30
0.0
 40
3.5
 41
0.0
 71
     1
 72
     1
  1
125
  7
SLDTEXTSTYLE3
 73
     1
 44
1.0
  0
ENDBLK
  5
35B
330
359
100
AcDbEntity
  8
0
100
AcDbBlockEnd
  0
BLOCK
  5
364
330
363
100
AcDbEntity
  8
0
100
AcDbBlockBegin
  2
_D_10
 70
     0
 10
0.0
 20
0.0
 30
0.0
  3
_D_10
  1

  0
SOLID
  5
366
330
363
100
AcDbEntity
  8
SLD-0
100
AcDbTrace
 10
272.310661884
 20
224.3568537731
 30
0.0
 11
275.612661884
 21
223.8488537731
 31
0.0
 12
275.612661884
 22
224.8648537731
 32
0.0
 13
275.612661884
 23
224.8648537731
 33
0.0
  0
SOLID
  5
367
330
363
100
AcDbEntity
  8
SLD-0
100
AcDbTrace
 10
372.310661884
 20
224.3568537731
 30
0.0
 11
369.008661884
 21
224.8648537731
 31
0.0
 12
369.008661884
 22
223.8488537731
 32
0.0
 13
369.008661884
 23
223.8488537731
 33
0.0
  0
LINE
  5
368
330
363
100
AcDbEntity
  8
SLD-0
100
AcDbLine
 10
272.310661884
 20
185.3867976401
 30
0.0
 11
272.310661884
 21
225.3568537731
 31
0.0
  0
LINE
  5
369
330
363
100
AcDbEntity
  8
SLD-0
100
AcDbLine
 10
372.310661884
 20
185.3867976401
 30
0.0
 11
372.310661884
 21
225.3568537731
 31
0.0
  0
LINE
  5
36A
330
363
100
AcDbEntity
  8
SLD-0
100
AcDbLine
 10
272.310661884
 20
224.3568537731
 30
0.0
 11
372.310661884
 21
224.3568537731
 31
0.0
  0
MTEXT
  5
36B
330
363
100
AcDbEntity
  8
SLD-0
100
AcDbMText
 10
318.4314952101
 20
228.8685906877
 30
0.0
 40
3.5
 41
0.0
 71
     1
 72
     1
  1
100
  7
SLDTEXTSTYLE3
 73
     1
 44
1.0
  0
ENDBLK
  5
365
330
363
100
AcDbEntity
  8
0
100
AcDbBlockEnd
  0
BLOCK
  5
36F
330
36E
100
AcDbEntity
  8
0
100
AcDbBlockBegin
  2
_D_11
 70
     0
 10
0.0
 20
0.0
 30
0.0
  3
_D_11
  1

  0
SOLID
  5
371
330
36E
100
AcDbEntity
  8
SLD-0
100
AcDbTrace
 10
322.310661884
 20
110.3568537731
 30
0.0
 11
322.818661884
 21
113.6588537731
 31
0.0
 12
321.802661884
 22
113.6588537731
 32
0.0
 13
321.802661884
 23
113.6588537731
 33
0.0
  0
SOLID
  5
372
330
36E
100
AcDbEntity
  8
SLD-0
100
AcDbTrace
 10
322.310661884
 20
108.3568537731
 30
0.0
 11
321.802661884
 21
105.0548537731
 31
0.0
 12
322.818661884
 22
105.0548537731
 32
0.0
 13
322.818661884
 23
105.0548537731
 33
0.0
  0
LINE
  5
373
330
36E
100
AcDbEntity
  8
SLD-0
100
AcDbLine
 10
322.310661884
 20
110.3568537731
 30
0.0
 11
322.310661884
 21
116.7068537731
 31
0.0
  0
LINE
  5
374
330
36E
100
AcDbEntity
  8
SLD-0
100
AcDbLine
 10
322.310661884
 20
110.3568537731
 30
0.0
 11
322.310661884
 21
108.3568537731
 31
0.0
  0
LINE
  5
375
330
36E
100
AcDbEntity
  8
SLD-0
100
AcDbLine
 10
322.310661884
 20
108.3568537731
 30
0.0
 11
322.310661884
 21
100.9727486178
 31
0.0
  0
MTEXT
  5
376
330
36E
100
AcDbEntity
  8
SLD-0
100
AcDbMText
 10
317.7989249694
 20
100.9727486178
 30
0.0
 40
3.5
 41
0.0
 71
     1
 72
     1
  1
2
  7
SLDTEXTSTYLE3
 11
-7.044195017643634E-15
 21
1.0
 31
0.0
 73
     1
 44
1.0
  0
ENDBLK
  5
370
330
36E
100
AcDbEntity
  8
0
100
AcDbBlockEnd
  0
ENDSEC
  0
SECTION
  2
ENTITIES
  0
LINE
  5
FF
330
1F
100
AcDbEntity
  8
LINIEN-DÜNN
  6
CENTERX2
100
AcDbLine
 10
352.6174545849
 20
46.9080238789
 30
0.0
 11
352.6174545849
 21
39.4621586124
 31
0.0
  0
LINE
  5
100
330
1F
100
AcDbEntity
  8
LINIEN-DÜNN
100
AcDbLine
 10
357.7661698132
 20
46.3720107039
 30
0.0
 11
357.7661698132
 21
39.9353173413
 31
0.0
  0
LINE
  5
101
330
1F
100
AcDbEntity
  8
LINIEN-DÜNN
100
AcDbLine
 10
364.6059427486
 20
44.7376225767
 30
0.0
 11
364.6059427486
 21
41.5697054685
 31
0.0
  0
LINE
  5
102
330
1F
100
AcDbEntity
  8
LINIEN-DÜNN
100
AcDbLine
 10
364.6059427486
 20
44.7376225767
 30
0.0
 11
357.7661698132
 21
46.3720107039
 31
0.0
  0
LINE
  5
103
330
1F
100
AcDbEntity
  8
LINIEN-DÜNN
100
AcDbLine
 10
15.0
 20
198.5
 30
0.0
 11
20.0
 21
198.5
 31
0.0
  0
LINE
  5
104
330
1F
100
AcDbEntity
  8
LINIEN-DÜNN
100
AcDbLine
 10
12.0
 20
148.5
 30
0.0
 11
0.0
 21
148.5
 31
0.0
  0
LINE
  5
105
330
1F
100
AcDbEntity
  8
LINIEN-DÜNN
100
AcDbLine
 10
357.7661698132
 20
39.9353173413
 30
0.0
 11
364.6059427486
 21
41.5697054685
 31
0.0
  0
LINE
  5
106
330
1F
100
AcDbEntity
  8
LINIEN-DÜNN
  6
CENTERX2
100
AcDbLine
 10
348.6240467841
 20
43.1536640226
 30
0.0
 11
356.6108623857
 21
43.1536640226
 31
0.0
  0
LINE
  5
107
330
1F
100
AcDbEntity
  8
LINIEN-DÜNN
  6
CENTERX2
100
AcDbLine
 10
357.1289238876
 20
43.1536640226
 30
0.0
 11
365.6255362296
 21
43.1536640226
 31
0.0
  0
LINE
  5
108
330
1F
100
AcDbEntity
  8
LINIEN-DÜNN
100
AcDbLine
 10
0.0
 20
0.0
 30
0.0
 11
420.0
 21
0.0
 31
0.0
  0
LINE
  5
109
330
1F
100
AcDbEntity
  8
LINIEN-DÜNN
100
AcDbLine
 10
0.0
 20
0.0
 30
0.0
 11
0.0
 21
297.0
 31
0.0
  0
LINE
  5
10A
330
1F
100
AcDbEntity
  8
LINIEN-DÜNN
100
AcDbLine
 10
0.0
 20
297.0
 30
0.0
 11
420.0
 21
297.0
 31
0.0
  0
LINE
  5
10B
330
1F
100
AcDbEntity
  8
LINIEN-DÜNN
100
AcDbLine
 10
420.0
 20
0.0
 30
0.0
 11
420.0
 21
297.0
 31
0.0
  0
LINE
  5
10C
330
1F
100
AcDbEntity
  8
LINIEN-NORMAL
100
AcDbLine
 10
228.0
 20
35.0
 30
0.0
 11
410.0
 21
35.0
 31
0.0
  0
LINE
  5
10D
330
1F
100
AcDbEntity
  8
LINIEN-DÜNN
100
AcDbLine
 10
410.0
 20
198.5
 30
0.0
 11
415.0
 21
198.5
 31
0.0
  0
LINE
  5
10E
330
1F
100
AcDbEntity
  8
LINIEN-DÜNN
100
AcDbLine
 10
15.0
 20
148.5
 30
0.0
 11
20.0
 21
148.5
 31
0.0
  0
LINE
  5
10F
330
1F
100
AcDbEntity
  8
LINIEN-DÜNN
100
AcDbLine
 10
228.0
 20
40.0
 30
0.0
 11
296.6
 21
40.0
 31
0.0
  0
LINE
  5
110
330
1F
100
AcDbEntity
  8
LINIEN-DÜNN
100
AcDbLine
 10
15.0
 20
248.5
 30
0.0
 11
20.0
 21
248.5
 31
0.0
  0
LINE
  5
111
330
1F
100
AcDbEntity
  8
LINIEN-DICK
100
AcDbLine
 10
20.0
 20
287.0
 30
0.0
 11
20.0
 21
10.0
 31
0.0
  0
LINE
  5
112
330
1F
100
AcDbEntity
  8
LINIEN-DICK
100
AcDbLine
 10
410.0
 20
287.0
 30
0.0
 11
20.0
 21
287.0
 31
0.0
  0
LINE
  5
113
330
1F
100
AcDbEntity
  8
LINIEN-DICK
100
AcDbLine
 10
410.0
 20
5.0
 30
0.0
 11
410.0
 21
287.0
 31
0.0
  0
LINE
  5
114
330
1F
100
AcDbEntity
  8
LINIEN-DICK
100
AcDbLine
 10
20.0
 20
10.0
 30
0.0
 11
415.0
 21
10.0
 31
0.0
  0
LINE
  5
115
330
1F
100
AcDbEntity
  8
LINIEN-DÜNN
100
AcDbLine
 10
410.0
 20
148.5
 30
0.0
 11
415.0
 21
148.5
 31
0.0
  0
LINE
  5
116
330
1F
100
AcDbEntity
  8
LINIEN-DÜNN
100
AcDbLine
 10
228.0
 20
50.0
 30
0.0
 11
296.6
 21
50.0
 31
0.0
  0
LINE
  5
117
330
1F
100
AcDbEntity
  8
LINIEN-DÜNN
100
AcDbLine
 10
15.0
 20
98.5
 30
0.0
 11
20.0
 21
98.5
 31
0.0
  0
LINE
  5
118
330
1F
100
AcDbEntity
  8
LINIEN-DÜNN
100
AcDbLine
 10
296.6
 20
45.0
 30
0.0
 11
228.0
 21
45.0
 31
0.0
  0
LINE
  5
119
330
1F
100
AcDbEntity
  8
LINIEN-DÜNN
100
AcDbLine
 10
65.0
 20
292.0
 30
0.0
 11
65.0
 21
287.0
 31
0.0
  0
LINE
  5
11A
330
1F
100
AcDbEntity
  8
LINIEN-DÜNN
100
AcDbLine
 10
230.0
 20
292.0
 30
0.0
 11
230.0
 21
297.0
 31
0.0
  0
LINE
  5
11B
330
1F
100
AcDbEntity
  8
LINIEN-NORMAL
100
AcDbLine
 10
296.6
 20
55.0
 30
0.0
 11
296.6
 21
35.0
 31
0.0
  0
LINE
  5
11C
330
1F
100
AcDbEntity
  8
LINIEN-DÜNN
100
AcDbLine
 10
410.0
 20
98.5
 30
0.0
 11
415.0
 21
98.5
 31
0.0
  0
LINE
  5
11D
330
1F
100
AcDbEntity
  8
VORLAGE_BEMASSUNG
100
AcDbLine
 10
230.0
 20
5.0
 30
0.0
 11
230.0
 21
0.0
 31
0.0
  0
LINE
  5
11E
330
1F
100
AcDbEntity
  8
LINIEN-DÜNN
100
AcDbLine
 10
125.0
 20
292.0
 30
0.0
 11
125.0
 21
297.0
 31
0.0
  0
LINE
  5
11F
330
1F
100
AcDbEntity
  8
LINIEN-DÜNN
100
AcDbLine
 10
125.0
 20
5.0
 30
0.0
 11
125.0
 21
0.0
 31
0.0
  0
LINE
  5
120
330
1F
100
AcDbEntity
  8
LINIEN-NORMAL
100
AcDbLine
 10
410.0
 20
55.0
 30
0.0
 11
228.0
 21
55.0
 31
0.0
  0
LINE
  5
121
330
1F
100
AcDbEntity
  8
LINIEN-DÜNN
100
AcDbLine
 10
228.0
 20
55.0
 30
0.0
 11
410.0
 21
55.0
 31
0.0
  0
LINE
  5
122
330
1F
100
AcDbEntity
  8
LINIEN-DÜNN
100
AcDbLine
 10
410.0
 20
55.0
 30
0.0
 11
228.0
 21
55.0
 31
0.0
  0
LINE
  5
123
330
1F
100
AcDbEntity
  8
LINIEN-DÜNN
100
AcDbLine
 10
268.0
 20
76.5
 30
0.0
 11
268.0
 21
55.0
 31
0.0
  0
LINE
  5
124
330
1F
100
AcDbEntity
  8
LINIEN-DÜNN
100
AcDbLine
 10
271.6
 20
55.0
 30
0.0
 11
271.6
 21
40.0
 31
0.0
  0
LINE
  5
125
330
1F
100
AcDbEntity
  8
LINIEN-DÜNN
100
AcDbLine
 10
247.0
 20
55.0
 30
0.0
 11
247.0
 21
35.0
 31
0.0
  0
LINE
  5
126
330
1F
100
AcDbEntity
  8
LINIEN-DICK
100
AcDbLine
 10
228.0
 20
76.5
 30
0.0
 11
228.0
 21
10.0
 31
0.0
  0
LINE
  5
127
330
1F
100
AcDbEntity
  8
LINIEN-DÜNN
100
AcDbLine
 10
15.0
 20
292.0
 30
0.0
 11
415.0
 21
292.0
 31
0.0
  0
LINE
  5
128
330
1F
100
AcDbEntity
  8
LINIEN-DÜNN
100
AcDbLine
 10
228.0
 20
65.75
 30
0.0
 11
310.0
 21
65.75
 31
0.0
  0
LINE
  5
129
330
1F
100
AcDbEntity
  8
LINIEN-DICK
100
AcDbLine
 10
228.0
 20
76.5
 30
0.0
 11
410.0
 21
76.5
 31
0.0
  0
LINE
  5
12A
330
1F
100
AcDbEntity
  8
LINIEN-DÜNN
100
AcDbLine
 10
15.0
 20
48.5
 30
0.0
 11
20.0
 21
48.5
 31
0.0
  0
LINE
  5
12B
330
1F
100
AcDbEntity
  8
LINIEN-DÜNN
100
AcDbLine
 10
410.0
 20
48.5
 30
0.0
 11
415.0
 21
48.5
 31
0.0
  0
LINE
  5
12C
330
1F
100
AcDbEntity
  8
LINIEN-DÜNN
100
AcDbLine
 10
332.6610845472
 20
20.0
 30
0.0
 11
332.6610845472
 21
10.0
 31
0.0
  0
LINE
  5
12D
330
1F
100
AcDbEntity
  8
LINIEN-DÜNN
100
AcDbLine
 10
410.0
 20
248.5
 30
0.0
 11
415.0
 21
248.5
 31
0.0
  0
LINE
  5
12E
330
1F
100
AcDbEntity
  8
LINIEN-DÜNN
100
AcDbLine
 10
65.0
 20
10.0
 30
0.0
 11
65.0
 21
5.0
 31
0.0
  0
LINE
  5
12F
330
1F
100
AcDbEntity
  8
LINIEN-DÜNN
100
AcDbLine
 10
115.0
 20
10.0
 30
0.0
 11
115.0
 21
5.0
 31
0.0
  0
LINE
  5
130
330
1F
100
AcDbEntity
  8
LINIEN-DÜNN
100
AcDbLine
 10
115.0
 20
292.0
 30
0.0
 11
115.0
 21
287.0
 31
0.0
  0
LINE
  5
131
330
1F
100
AcDbEntity
  8
LINIEN-DÜNN
100
AcDbLine
 10
165.0
 20
10.0
 30
0.0
 11
165.0
 21
5.0
 31
0.0
  0
LINE
  5
132
330
1F
100
AcDbEntity
  8
LINIEN-DÜNN
100
AcDbLine
 10
165.0
 20
292.0
 30
0.0
 11
165.0
 21
287.0
 31
0.0
  0
LINE
  5
133
330
1F
100
AcDbEntity
  8
LINIEN-DÜNN
100
AcDbLine
 10
215.0
 20
10.0
 30
0.0
 11
215.0
 21
5.0
 31
0.0
  0
LINE
  5
134
330
1F
100
AcDbEntity
  8
LINIEN-DÜNN
100
AcDbLine
 10
215.0
 20
292.0
 30
0.0
 11
215.0
 21
287.0
 31
0.0
  0
LINE
  5
135
330
1F
100
AcDbEntity
  8
LINIEN-DÜNN
100
AcDbLine
 10
265.0
 20
10.0
 30
0.0
 11
265.0
 21
5.0
 31
0.0
  0
LINE
  5
136
330
1F
100
AcDbEntity
  8
LINIEN-DÜNN
100
AcDbLine
 10
265.0
 20
292.0
 30
0.0
 11
265.0
 21
287.0
 31
0.0
  0
LINE
  5
137
330
1F
100
AcDbEntity
  8
LINIEN-DÜNN
100
AcDbLine
 10
347.6610845472
 20
20.0
 30
0.0
 11
347.6610845472
 21
10.0
 31
0.0
  0
LINE
  5
138
330
1F
100
AcDbEntity
  8
LINIEN-DÜNN
100
AcDbLine
 10
362.6610845472
 20
20.0
 30
0.0
 11
362.6610845472
 21
10.0
 31
0.0
  0
LINE
  5
139
330
1F
100
AcDbEntity
  8
LINIEN-NORMAL
100
AcDbLine
 10
327.6610845472
 20
10.0
 30
0.0
 11
327.6610845472
 21
55.0
 31
0.0
  0
LINE
  5
13A
330
1F
100
AcDbEntity
  8
LINIEN-DÜNN
100
AcDbLine
 10
20.0
 20
292.0
 30
0.0
 11
20.0
 21
297.0
 31
0.0
  0
LINE
  5
13B
330
1F
100
AcDbEntity
  8
LINIEN-DÜNN
100
AcDbLine
 10
20.0
 20
5.0
 30
0.0
 11
20.0
 21
0.0
 31
0.0
  0
LINE
  5
13C
330
1F
100
AcDbEntity
  8
LINIEN-DÜNN
100
AcDbLine
 10
315.0
 20
10.0
 30
0.0
 11
315.0
 21
5.0
 31
0.0
  0
LINE
  5
13D
330
1F
100
AcDbEntity
  8
LINIEN-DÜNN
100
AcDbLine
 10
315.0
 20
292.0
 30
0.0
 11
315.0
 21
287.0
 31
0.0
  0
LINE
  5
13E
330
1F
100
AcDbEntity
  8
LINIEN-DÜNN
100
AcDbLine
 10
365.0
 20
10.0
 30
0.0
 11
365.0
 21
5.0
 31
0.0
  0
LINE
  5
13F
330
1F
100
AcDbEntity
  8
LINIEN-DÜNN
100
AcDbLine
 10
365.0
 20
292.0
 30
0.0
 11
365.0
 21
287.0
 31
0.0
  0
LINE
  5
140
330
1F
100
AcDbEntity
  8
LINIEN-DÜNN
100
AcDbLine
 10
15.0
 20
292.0
 30
0.0
 11
15.0
 21
5.0
 31
0.0
  0
LINE
  5
141
330
1F
100
AcDbEntity
  8
LINIEN-DÜNN
100
AcDbLine
 10
15.0
 20
5.0
 30
0.0
 11
415.0
 21
5.0
 31
0.0
  0
LINE
  5
142
330
1F
100
AcDbEntity
  8
LINIEN-DÜNN
100
AcDbLine
 10
415.0
 20
292.0
 30
0.0
 11
415.0
 21
5.0
 31
0.0
  0
LINE
  5
143
330
1F
100
AcDbEntity
  8
LINIEN-DÜNN
100
AcDbLine
 10
347.6610845472
 20
44.213444
 30
0.0
 11
327.6610845472
 21
44.213444
 31
0.0
  0
LINE
  5
144
330
1F
100
AcDbEntity
  8
LINIEN-DÜNN
100
AcDbLine
 10
347.6610845472
 20
35.0
 30
0.0
 11
347.6610845472
 21
55.0
 31
0.0
  0
LINE
  5
145
330
1F
100
AcDbEntity
  8
LINIEN-DÜNN
100
AcDbLine
 10
370.057188
 20
55.012032
 30
0.0
 11
370.057188
 21
35.0
 31
0.0
  0
LINE
  5
146
330
1F
100
AcDbEntity
  8
LINIEN-DÜNN
100
AcDbLine
 10
398.0
 20
35.0
 30
0.0
 11
398.0
 21
20.0
 31
0.0
  0
LINE
  5
147
330
1F
100
AcDbEntity
  8
LINIEN-DÜNN
100
AcDbLine
 10
410.0
 20
15.0
 30
0.0
 11
327.6610845472
 21
15.0
 31
0.0
  0
LINE
  5
148
330
1F
100
AcDbEntity
  8
LINIEN-DÜNN
100
AcDbLine
 10
327.6610845472
 20
20.0
 30
0.0
 11
410.0
 21
20.0
 31
0.0
  0
LINE
  5
149
330
1F
100
AcDbEntity
  8
LINIEN-DÜNN
100
AcDbLine
 10
341.485486
 20
20.0
 30
0.0
 11
341.485486
 21
27.564675
 31
0.0
  0
LINE
  5
14A
330
1F
100
AcDbEntity
  8
LINIEN-NORMAL
100
AcDbLine
 10
310.0
 20
76.5
 30
0.0
 11
310.0
 21
55.0
 31
0.0
  0
CIRCLE
  5
14B
330
1F
100
AcDbEntity
  8
LINIEN-DÜNN
100
AcDbCircle
 10
11.0
 20
108.5
 30
0.0
 40
2.750000000000001
  0
CIRCLE
  5
14C
330
1F
100
AcDbEntity
  8
LINIEN-DÜNN
100
AcDbCircle
 10
11.0
 20
188.5
 30
0.0
 40
2.750000000000001
  0
CIRCLE
  5
14D
330
1F
100
AcDbEntity
  8
LINIEN-DÜNN
100
AcDbCircle
 10
352.6174545849
 20
43.1536640226
 30
0.0
 40
3.218346681300138
  0
CIRCLE
  5
14E
330
1F
100
AcDbEntity
  8
LINIEN-DÜNN
100
AcDbCircle
 10
352.6174545849
 20
43.1536640226
 30
0.0
 40
1.583958554121555
  0
INSERT
  5
14F
330
1F
100
AcDbEntity
  8
0
  6
Continuous
 62
     7
100
AcDbBlockReference
  2
ACO-Logo
 10
314.3510726297
 20
57.2426704952
 30
0.0
  0
POINT
  5
150
330
1F
100
AcDbEntity
  8
0
  6
Continuous
 62
     7
370
     0
100
AcDbPoint
 10
314.3510726297
 20
57.2426704952
 30
0.0
  0
POINT
  5
151
330
1F
100
AcDbEntity
  8
VORLAGE_BEMASSUNG
100
AcDbPoint
 10
0.0
 20
0.0
 30
0.0
  0
POINT
  5
152
330
1F
100
AcDbEntity
  8
VORLAGE_BEMASSUNG
100
AcDbPoint
 10
410.0
 20
10.0
 30
0.0
  0
MTEXT
  5
153
330
1F
100
AcDbEntity
  8
SLD-0
100
AcDbMText
 10
227.3455434783
 20
84.8129688143
 30
0.0
 40
3.5
 41
0.0
 71
     1
 72
     1
  1
ab H = 75mm wird mit Distanzstangen ausgesteift
  7
SLDTEXTSTYLE0
 73
     1
 44
1.0
  0
MTEXT
  5
154
330
1F
100
AcDbEntity
  8
VORLAGE_TEXT
100
AcDbMText
 10
17.7359443114
 20
124.8017866468
 30
0.0
 40
2.0
 41
0.0
 71
     2
 72
     1
  1
D
  7
SLDTEXTSTYLE0
 73
     1
 44
1.0
  0
MTEXT
  5
155
330
1F
100
AcDbEntity
  8
VORLAGE_TEXT
100
AcDbMText
 10
17.6274822413
 20
174.7261854936
 30
0.0
 40
2.0
 41
0.0
 71
     2
 72
     1
  1
C
  7
SLDTEXTSTYLE0
 73
     1
 44
1.0
  0
MTEXT
  5
156
330
1F
100
AcDbEntity
  8
VORLAGE_TEXT
100
AcDbMText
 10
17.5516905072
 20
224.4926420442
 30
0.0
 40
2.0
 41
0.0
 71
     2
 72
     1
  1
B
  7
SLDTEXTSTYLE0
 73
     1
 44
1.0
  0
MTEXT
  5
157
330
1F
100
AcDbEntity
  8
VORLAGE_TEXT
100
AcDbMText
 10
290.0344258799
 20
290.5428789914
 30
0.0
 40
2.0
 41
0.0
 71
     2
 72
     1
  1
6
  7
SLDTEXTSTYLE0
 73
     1
 44
1.0
  0
MTEXT
  5
158
330
1F
100
AcDbEntity
  8
VORLAGE_TEXT
100
AcDbMText
 10
240.0417859812
 20
290.6369260235
 30
0.0
 40
2.0
 41
0.0
 71
     2
 72
     1
  1
5
  7
SLDTEXTSTYLE0
 73
     1
 44
1.0
  0
MTEXT
  5
159
330
1F
100
AcDbEntity
  8
VORLAGE_TEXT
100
AcDbMText
 10
190.0300404524
 20
290.6343268032
 30
0.0
 40
2.0
 41
0.0
 71
     2
 72
     1
  1
4
  7
SLDTEXTSTYLE0
 73
     1
 44
1.0
  0
MTEXT
  5
15A
330
1F
100
AcDbEntity
  8
VORLAGE_TEXT
100
AcDbMText
 10
140.0165868337
 20
290.6378887952
 30
0.0
 40
2.0
 41
0.0
 71
     2
 72
     1
  1
3
  7
SLDTEXTSTYLE0
 73
     1
 44
1.0
  0
MTEXT
  5
15B
330
1F
100
AcDbEntity
  8
VORLAGE_TEXT
100
AcDbMText
 10
90.033223
 20
290.5566702875
 30
0.0
 40
2.0
 41
0.0
 71
     2
 72
     1
  1
2
  7
SLDTEXTSTYLE0
 73
     1
 44
1.0
  0
MTEXT
  5
15C
330
1F
100
AcDbEntity
  8
VORLAGE_TEXT
100
AcDbMText
 10
40.0509551097
 20
290.5530165805
 30
0.0
 40
2.0
 41
0.0
 71
     2
 72
     1
  1
1
  7
SLDTEXTSTYLE0
 73
     1
 44
1.0
  0
MTEXT
  5
15D
330
1F
100
AcDbEntity
  8
VORLAGE_TEXT
100
AcDbMText
 10
17.5609786315
 20
271.2966048816
 30
0.0
 40
2.0
 41
0.0
 71
     2
 72
     1
  1
A
  7
SLDTEXTSTYLE0
 73
     1
 44
1.0
  0
MTEXT
  5
15E
330
1F
100
AcDbEntity
  8
VORLAGE_TEXT
100
AcDbMText
 10
89.9333968896
 20
8.5904490253
 30
0.0
 40
2.0
 41
0.0
 71
     2
 72
     1
  1
2
  7
SLDTEXTSTYLE0
 73
     1
 44
1.0
  0
MTEXT
  5
15F
330
1F
100
AcDbEntity
  8
VORLAGE_TEXT
100
AcDbMText
 10
39.9009486579
 20
8.6623118453
 30
0.0
 40
2.0
 41
0.0
 71
     2
 72
     1
  1
1
  7
SLDTEXTSTYLE0
 73
     1
 44
1.0
  0
MTEXT
  5
160
330
1F
100
AcDbEntity
  8
VORLAGE_TEXT
100
AcDbMText
 10
190.0227230239
 20
8.7073169286
 30
0.0
 40
2.0
 41
0.0
 71
     2
 72
     1
  1
4
  7
SLDTEXTSTYLE0
 73
     1
 44
1.0
  0
MTEXT
  5
161
330
1F
100
AcDbEntity
  8
VORLAGE_TEXT
100
AcDbMText
 10
140.0453427777
 20
8.5647154541
 30
0.0
 40
2.0
 41
0.0
 71
     2
 72
     1
  1
3
  7
SLDTEXTSTYLE0
 73
     1
 44
1.0
  0
MTEXT
  5
162
330
1F
100
AcDbEntity
  8
VORLAGE_TEXT
100
AcDbMText
 10
239.8749782531
 20
8.5637526825
 30
0.0
 40
2.0
 41
0.0
 71
     2
 72
     1
  1
5
  7
SLDTEXTSTYLE0
 73
     1
 44
1.0
  0
MTEXT
  5
163
330
1F
100
AcDbEntity
  8
VORLAGE_TEXT
100
AcDbMText
 10
412.6717254925
 20
224.51208263
 30
0.0
 40
2.0
 41
0.0
 71
     2
 72
     1
  1
B
  7
SLDTEXTSTYLE0
 73
     1
 44
1.0
  0
MTEXT
  5
164
330
1F
100
AcDbEntity
  8
VORLAGE_TEXT
100
AcDbMText
 10
412.5951211154
 20
271.2798202564
 30
0.0
 40
2.0
 41
0.0
 71
     2
 72
     1
  1
A
  7
SLDTEXTSTYLE0
 73
     1
 44
1.0
  0
MTEXT
  5
165
330
1F
100
AcDbEntity
  8
VORLAGE_TEXT
100
AcDbMText
 10
412.6491448679
 20
174.7279841048
 30
0.0
 40
2.0
 41
0.0
 71
     2
 72
     1
  1
C
  7
SLDTEXTSTYLE0
 73
     1
 44
1.0
  0
MTEXT
  5
166
330
1F
100
AcDbEntity
  8
VORLAGE_TEXT
100
AcDbMText
 10
340.0216466634
 20
290.5954278102
 30
0.0
 40
2.0
 41
0.0
 71
     2
 72
     1
  1
7
  7
SLDTEXTSTYLE0
 73
     1
 44
1.0
  0
MTEXT
  5
167
330
1F
100
AcDbEntity
  8
VORLAGE_TEXT
100
AcDbMText
 10
390.037657264
 20
290.6215496941
 30
0.0
 40
2.0
 41
0.0
 71
     2
 72
     1
  1
8
  7
SLDTEXTSTYLE0
 73
     1
 44
1.0
  0
MTEXT
  5
168
330
1F
100
AcDbEntity
  8
VORLAGE_TEXT
100
AcDbMText
 10
17.6897935208
 20
74.7267628143
 30
0.0
 40
2.0
 41
0.0
 71
     2
 72
     1
  1
E
  7
SLDTEXTSTYLE0
 73
     1
 44
1.0
  0
MTEXT
  5
169
330
1F
100
AcDbEntity
  8
VORLAGE_TEXT
100
AcDbMText
 10
17.5936930126
 20
27.773321616
 30
0.0
 40
2.0
 41
0.0
 71
     2
 72
     1
  1
F
  7
SLDTEXTSTYLE0
 73
     1
 44
1.0
  0
MTEXT
  5
16A
330
1F
100
AcDbEntity
  8
VORLAGE_TEXT
100
AcDbMText
 10
339.8003474583
 20
8.7205095051
 30
0.0
 40
2.0
 41
0.0
 71
     2
 72
     1
  1
7
  7
SLDTEXTSTYLE0
 73
     1
 44
1.0
  0
MTEXT
  5
16B
330
1F
100
AcDbEntity
  8
VORLAGE_TEXT
100
AcDbMText
 10
289.7886477179
 20
8.6884673623
 30
0.0
 40
2.0
 41
0.0
 71
     2
 72
     1
  1
6
  7
SLDTEXTSTYLE0
 73
     1
 44
1.0
  0
MTEXT
  5
16C
330
1F
100
AcDbEntity
  8
VORLAGE_TEXT
100
AcDbMText
 10
412.5160699095
 20
74.5096307526
 30
0.0
 40
2.0
 41
0.0
 71
     2
 72
     1
  1
E
  7
SLDTEXTSTYLE0
 73
     1
 44
1.0
  0
MTEXT
  5
16D
330
1F
100
AcDbEntity
  8
VORLAGE_TEXT
100
AcDbMText
 10
412.6234021365
 20
124.4517683275
 30
0.0
 40
2.0
 41
0.0
 71
     2
 72
     1
  1
D
  7
SLDTEXTSTYLE0
 73
     1
 44
1.0
  0
MTEXT
  5
16E
330
1F
100
AcDbEntity
  8
TEXT-DEUTSCH
100
AcDbMText
 10
411.7952690469
 20
41.9173494904
 30
0.0
 40
1.8
 41
0.0
 71
     3
 72
     1
  1
Plotdatum: 26.10.2018
  7
SLDTEXTSTYLE0
 11
-3.269436733918102E-15
 21
1.0
 31
0.0
 73
     1
 44
1.0
  0
MTEXT
  5
16F
330
1F
100
AcDbEntity
  8
VORLAGE_TEXT
100
AcDbMText
 10
412.557933251
 20
8.2549718046
 30
0.0
 40
1.8
 41
0.0
 71
     2
 72
     1
  1
A3
  7
SLDTEXTSTYLE0
 73
     1
 44
1.0
  0
MTEXT
  5
170
330
1F
100
AcDbEntity
  8
VORLAGE_TEXT
100
AcDbMText
 10
390.594604279
 20
8.3847467643
 30
0.0
 40
1.8
 41
0.0
 71
     2
 72
     1
  1
CAD-System: SolidWorks
  7
SLDTEXTSTYLE0
 73
     1
 44
1.0
  0
MTEXT
  5
171
330
1F
100
AcDbEntity
  8
TEXT
100
AcDbMText
 10
404.0455117056
 20
28.4394692021
 30
0.0
 40
5.0
 41
0.0
 71
     2
 72
     1
  1
D
  7
SLDTEXTSTYLE0
 73
     1
 44
1.0
  0
MTEXT
  5
172
330
1F
100
AcDbEntity
  8
TEXT
100
AcDbMText
 10
249.556836311
 20
38.5581729516
 30
0.0
 40
2.0
 41
0.0
 71
     1
 72
     1
  1
Freigegeben
  7
SLDTEXTSTYLE0
 73
     1
 44
1.0
  0
MTEXT
  5
173
330
1F
100
AcDbEntity
  8
TEXT
100
AcDbMText
 10
284.1032088477
 20
43.5473338598
 30
0.0
 40
2.0
 41
0.0
 71
     2
 72
     1
  1
AB
  7
SLDTEXTSTYLE0
 73
     1
 44
1.0
  0
MTEXT
  5
174
330
1F
100
AcDbEntity
  8
TEXT
100
AcDbMText
 10
249.5284668163
 20
43.5603133928
 30
0.0
 40
2.0
 41
0.0
 71
     1
 72
     1
  1
26.10.2018
  7
SLDTEXTSTYLE0
 73
     1
 44
1.0
  0
MTEXT
  5
175
330
1F
100
AcDbEntity
  8
TEXT
100
AcDbMText
 10
283.7836865885
 20
48.5138972561
 30
0.0
 40
2.0
 41
0.0
 71
     2
 72
     1
  1
haljilji
  7
SLDTEXTSTYLE0
 73
     1
 44
1.0
  0
MTEXT
  5
176
330
1F
100
AcDbEntity
  8
TEXT
100
AcDbMText
 10
249.5284668163
 20
48.4989062069
 30
0.0
 40
2.0
 41
0.0
 71
     1
 72
     1
  1
30.5.17
  7
SLDTEXTSTYLE0
 73
     1
 44
1.0
  0
MTEXT
  5
177
330
1F
100
AcDbEntity
  8
0
  6
Continuous
 62
     7
370
     0
100
AcDbMText
 10
370.655574235
 20
38.8723054925
 30
0.0
 40
1.5
 41
0.0
 71
     1
 72
     1
  1
Copyright reserved! © ACO Passavant AG
  7
SLDTEXTSTYLE0
 73
     1
 44
1.0
  0
INSERT
  5
180
330
1F
100
AcDbEntity
  8
0
  6
Continuous
 62
     7
370
     0
100
AcDbBlockReference
  2
SW_NOTE_1
 10
372.2203831445
 20
51.2202922854
 30
0.0
  0
MTEXT
  5
181
330
1F
100
AcDbEntity
  8
TEXT
100
AcDbMText
 10
340.2992737993
 20
13.606872109
 30
0.0
 40
2.0
 41
0.0
 71
     2
 72
     1
  1
26.10.2018
  7
SLDTEXTSTYLE0
 73
     1
 44
1.0
  0
MTEXT
  5
182
330
1F
100
AcDbEntity
  8
TEXT
100
AcDbMText
 10
354.2334651348
 20
13.606872109
 30
0.0
 40
2.0
 41
0.0
 71
     2
 72
     1
  1
AB
  7
SLDTEXTSTYLE0
 73
     1
 44
1.0
  0
MTEXT
  5
183
330
1F
100
AcDbEntity
  8
TEXT
100
AcDbMText
 10
330.2617921867
 20
13.524501801
 30
0.0
 40
2.0
 41
0.0
 71
     2
 72
     1
  1
C
  7
SLDTEXTSTYLE0
 73
     1
 44
1.0
  0
MTEXT
  5
184
330
1F
100
AcDbEntity
  8
TEXT
100
AcDbMText
 10
354.2334651348
 20
18.5245664709
 30
0.0
 40
2.0
 41
0.0
 71
     2
 72
     1
  1
AB
  7
SLDTEXTSTYLE0
 73
     1
 44
1.0
  0
MTEXT
  5
185
330
1F
100
AcDbEntity
  8
TEXT
100
AcDbMText
 10
340.3427986845
 20
18.5245664709
 30
0.0
 40
2.0
 41
0.0
 71
     2
 72
     1
  1
26.10.2018
  7
SLDTEXTSTYLE0
 73
     1
 44
1.0
  0
MTEXT
  5
186
330
1F
100
AcDbEntity
  8
TEXT
100
AcDbMText
 10
330.2689102269
 20
18.524501801
 30
0.0
 40
2.0
 41
0.0
 71
     2
 72
     1
  1
D
  7
SLDTEXTSTYLE0
 73
     1
 44
1.0
  0
MTEXT
  5
187
330
1F
100
AcDbEntity
  8
VORLAGE_TEXT
100
AcDbMText
 10
311.764909851
 20
46.3490312465
 30
0.0
 40
5.0
 41
0.0
 71
     2
 72
     1
  1
1:1
  7
SLDTEXTSTYLE0
 73
     1
 44
1.0
  0
MTEXT
  5
188
330
1F
100
AcDbEntity
  8
VORLAGE_TEXT
100
AcDbMText
 10
230.1851195342
 20
38.7793829468
 30
0.0
 40
2.0
 41
0.0
 71
     1
 72
     1
  1
Status:
  7
SLDTEXTSTYLE0
 73
     1
 44
1.0
  0
MTEXT
  5
189
330
1F
100
AcDbEntity
  8
TEXT
100
AcDbMText
 10
344.926838705
 20
28.2772828851
 30
0.0
 40
5.0
 41
0.0
 71
     1
 72
     1
  1
422023
  7
SLDTEXTSTYLE0
 73
     1
 44
1.0
  0
MTEXT
  5
18A
330
1F
100
AcDbEntity
  8
TEXT
100
AcDbMText
 10
231.1132118803
 20
14.9211049657
 30
0.0
 40
2.5
 41
0.0
 71
     1
 72
     1
  1
Art. Nr.: 422023
  7
SLDTEXTSTYLE0
 73
     1
 44
1.0
  0
MTEXT
  5
18B
330
1F
100
AcDbEntity
  8
TEXT
100
AcDbMText
 10
231.1475981734
 20
21.4529560996
 30
0.0
 40
2.5
 41
0.0
 71
     1
 72
     1
  1
NW 100 mit Sohlengefälle
  7
SLDTEXTSTYLE0
 73
     1
 44
1.0
  0
MTEXT
  5
18C
330
1F
100
AcDbEntity
  8
TEXT
100
AcDbMText
 10
231.1159560181
 20
33.0904969858
 30
0.0
 40
2.5
 41
0.0
 71
     1
 72
     1
  1
Bauelemente
  7
SLDTEXTSTYLE0
 73
     1
 44
1.0
  0
MTEXT
  5
18D
330
1F
100
AcDbEntity
  8
TEXT
100
AcDbMText
 10
231.1475981734
 20
28.0307932366
 30
0.0
 40
3.5
 41
0.0
 71
     1
 72
     1
  1
AHR 050 - 100
  7
SLDTEXTSTYLE0
 73
     1
 44
1.0
  0
MTEXT
  5
18E
330
1F
100
AcDbEntity
  8
VORLAGE_TEXT
100
AcDbMText
 10
348.2746465368
 20
53.819119072
 30
0.0
 40
2.0
 41
0.0
 71
     1
 72
     1
  1
Projektion: ISO-E
  7
SLDTEXTSTYLE0
 73
     1
 44
1.0
  0
MTEXT
  5
18F
330
1F
100
AcDbEntity
  8
TEXT
100
AcDbMText
 10
337.7677091855
 20
49.3670227094
 30
0.0
 40
2.5
 41
0.0
 71
     2
 72
     1
  1
Millimeter
  7
SLDTEXTSTYLE0
 73
     1
 44
1.0
  0
MTEXT
  5
190
330
1F
100
AcDbEntity
  8
VORLAGE_TEXT
100
AcDbMText
 10
337.6323777421
 20
53.855374072
 30
0.0
 40
2.0
 41
0.0
 71
     2
 72
     1
  1
Masseinheit:
  7
SLDTEXTSTYLE0
 73
     1
 44
1.0
  0
MTEXT
  5
191
330
1F
100
AcDbEntity
  8
VORLAGE_TEXT
100
AcDbMText
 10
337.6114490186
 20
43.5452078816
 30
0.0
 40
2.0
 41
0.0
 71
     2
 72
     1
  1
Blatt / Anz.:
  7
SLDTEXTSTYLE0
 73
     1
 44
1.0
  0
MTEXT
  5
192
330
1F
100
AcDbEntity
  8
VORLAGE_TEXT
100
AcDbMText
 10
329.2895578243
 20
28.4139191092
 30
0.0
 40
5.0
 41
0.0
 71
     1
 72
     1
  1
CH
  7
SLDTEXTSTYLE0
 73
     1
 44
1.0
  0
MTEXT
  5
193
330
1F
100
AcDbEntity
  8
VORLAGE_TEXT
100
AcDbMText
 10
330.40704
 20
33.692638072
 30
0.0
 40
2.0
 41
0.0
 71
     1
 72
     1
  1
Zeichnung Nr.:
  7
SLDTEXTSTYLE0
 73
     1
 44
1.0
  0
MTEXT
  5
194
330
1F
100
AcDbEntity
  8
VORLAGE_TEXT
100
AcDbMText
 10
269.897953
 20
75.161075072
 30
0.0
 40
2.0
 41
0.0
 71
     1
 72
     1
  1
Gewicht:
  7
SLDTEXTSTYLE0
 73
     1
 44
1.0
  0
MTEXT
  5
195
330
1F
100
AcDbEntity
  8
VORLAGE_TEXT
100
AcDbMText
 10
230.0
 20
64.542328072
 30
0.0
 40
2.0
 41
0.0
 71
     1
 72
     1
  1
zul. Abweichung:
  7
SLDTEXTSTYLE0
 73
     1
 44
1.0
  0
MTEXT
  5
196
330
1F
100
AcDbEntity
  8
VORLAGE_TEXT
100
AcDbMText
 10
269.612607
 20
64.542328072
 30
0.0
 40
2.0
 41
0.0
 71
     1
 72
     1
  1
Oberfläche:
  7
SLDTEXTSTYLE0
 73
     1
 44
1.0
  0
MTEXT
  5
197
330
1F
100
AcDbEntity
  8
VORLAGE_TEXT
100
AcDbMText
 10
230.261411
 20
43.4433838912
 30
0.0
 40
2.0
 41
0.0
 71
     1
 72
     1
  1
Freigegeben:
  7
SLDTEXTSTYLE0
 73
     1
 44
1.0
  0
MTEXT
  5
198
330
1F
100
AcDbEntity
  8
VORLAGE_TEXT
100
AcDbMText
 10
230.0
 20
75.161075072
 30
0.0
 40
2.0
 41
0.0
 71
     1
 72
     1
  1
Werkstoff:
  7
SLDTEXTSTYLE0
 73
     1
 44
1.0
  0
MTEXT
  5
199
330
1F
100
AcDbEntity
  8
VORLAGE_TEXT
100
AcDbMText
 10
254.035545
 20
53.129475072
 30
0.0
 40
2.0
 41
0.0
 71
     1
 72
     1
  1
Datum:
  7
SLDTEXTSTYLE0
 73
     1
 44
1.0
  0
MTEXT
  5
19A
330
1F
100
AcDbEntity
  8
VORLAGE_TEXT
100
AcDbMText
 10
279.934928
 20
53.136060072
 30
0.0
 40
2.0
 41
0.0
 71
     1
 72
     1
  1
Name:
  7
SLDTEXTSTYLE0
 73
     1
 44
1.0
  0
MTEXT
  5
19B
330
1F
100
AcDbEntity
  8
VORLAGE_TEXT
100
AcDbMText
 10
312.162455406
 20
53.881591072
 30
0.0
 40
2.0
 41
0.0
 71
     2
 72
     1
  1
Massstab:
  7
SLDTEXTSTYLE0
 73
     1
 44
1.0
  0
MTEXT
  5
19C
330
1F
100
AcDbEntity
  8
VORLAGE_TEXT
100
AcDbMText
 10
403.9552944035
 20
33.324874072
 30
0.0
 40
2.0
 41
0.0
 71
     2
 72
     1
  1
Index:
  7
SLDTEXTSTYLE0
 73
     1
 44
1.0
  0
MTEXT
  5
19D
330
1F
100
AcDbEntity
  8
VORLAGE_TEXT
100
AcDbMText
 10
230.261411
 20
48.4499477886
 30
0.0
 40
2.0
 41
0.0
 71
     1
 72
     1
  1
Erstellt:
  7
SLDTEXTSTYLE0
 73
     1
 44
1.0
  0
MTEXT
  5
19F
330
1F
100
AcDbEntity
  8
VORLAGE_TEXT
100
AcDbMText
 10
337.6348165843
 20
39.869706576
 30
0.0
 40
2.5
 41
0.0
 71
     2
 72
     1
  1
1 / 1
  7
SLDTEXTSTYLE2
 73
     1
 44
1.0
  0
MTEXT
  5
1A0
330
1F
100
AcDbEntity
  8
TEXT
100
AcDbMText
 10
269.612607
 20
60.8119428599
 30
0.0
 40
3.0
 41
0.0
 71
     1
 72
     1
  1
DIN ISO 1302
  7
SLDTEXTSTYLE0
 73
     1
 44
1.0
  0
MTEXT
  5
1A1
330
1F
100
AcDbEntity
  8
TEXT
100
AcDbMText
 10
230.0
 20
60.8119428599
 30
0.0
 40
3.0
 41
0.0
 71
     1
 72
     1
  1
Norm
  7
SLDTEXTSTYLE0
 73
     1
 44
1.0
  0
MTEXT
  5
1A2
330
1F
100
AcDbEntity
  8
TEXT
100
AcDbMText
 10
269.612607
 20
71.2121947186
 30
0.0
 40
3.0
 41
0.0
 71
     1
 72
     1
  1
5.92 kg
  7
SLDTEXTSTYLE0
 73
     1
 44
1.0
  0
MTEXT
  5
1A3
330
1F
100
AcDbEntity
  8
TEXT
100
AcDbMText
 10
230.0
 20
71.212194835
 30
0.0
 40
3.0
 41
0.0
 71
     1
 72
     1
  1
1.4301
  7
SLDTEXTSTYLE0
 73
     1
 44
1.0
  0
LINE
  5
1A4
330
1F
100
AcDbEntity
  8
0
  6
Continuous
 62
     7
370
    25
100
AcDbLine
 10
192.3211209076
 20
117.7865690527
 30
0.0
 11
50.8997646703
 21
44.3111659893
 31
0.0
  0
LINE
  5
1A5
330
1F
100
AcDbEntity
  8
0
  6
Continuous
 62
     7
370
    25
100
AcDbLine
 10
50.7617924576
 20
40.7279455728
 30
0.0
 11
51.3335213062
 21
41.0249870432
 31
0.0
  0
LINE
  5
1A6
330
1F
100
AcDbEntity
  8
0
  6
Continuous
 62
     7
370
    25
100
AcDbLine
 10
50.6911917936
 20
42.7079991483
 30
0.0
 11
48.9782162618
 21
41.8180234686
 31
0.0
  0
LINE
  5
1A7
330
1F
100
AcDbEntity
  8
0
  6
Continuous
 62
     7
370
    25
100
AcDbLine
 10
51.4920755698
 20
27.9169166076
 30
0.0
 11
192.9134318071
 21
109.5577277899
 31
0.0
  0
LINE
  5
1A8
330
1F
100
AcDbEntity
  8
0
  6
Continuous
 62
     7
370
    25
100
AcDbLine
 10
173.8051613776
 20
128.4868345372
 30
0.0
 11
32.3838051403
 21
55.0114314738
 31
0.0
  0
LINE
  5
1A9
330
1F
100
AcDbEntity
  8
0
  6
Continuous
 62
     7
370
    25
100
AcDbLine
 10
83.992341114
 20
74.832733973
 30
0.0
 11
96.1439472843
 21
67.8177610488
 31
0.0
  0
LINE
  5
1AA
330
1F
100
AcDbEntity
  8
0
  6
Continuous
 62
     7
370
    25
100
AcDbLine
 10
87.571524417
 20
76.6922970746
 30
0.0
 11
99.7231305873
 21
69.6773241503
 31
0.0
  0
LINE
  5
1AB
330
1F
100
AcDbEntity
  8
0
  6
Continuous
 62
     7
370
    25
100
AcDbLine
 10
84.0133780336
 20
74.8205520846
 30
0.0
 11
83.9923104991
 21
74.8327180671
 31
0.0
  0
LINE
  5
1AC
330
1F
100
AcDbEntity
  8
0
  6
Continuous
 62
     7
370
    25
100
AcDbLine
 10
84.0133780336
 20
74.8205520846
 30
0.0
 11
96.1439130648
 21
67.8177432701
 31
0.0
  0
LINE
  5
1AD
330
1F
100
AcDbEntity
  8
0
  6
Continuous
 62
     7
370
    25
100
AcDbLine
 10
48.6811135367
 20
56.4868013081
 30
0.0
 11
60.832719707
 21
49.4718283839
 31
0.0
  0
LINE
  5
1AE
330
1F
100
AcDbEntity
  8
0
  6
Continuous
 62
     7
370
    25
100
AcDbLine
 10
52.2602968397
 20
58.3463644097
 30
0.0
 11
64.41190301
 21
51.3313914855
 31
0.0
  0
LINE
  5
1AF
330
1F
100
AcDbEntity
  8
0
  6
Continuous
 62
     7
370
    25
100
AcDbLine
 10
48.7021504563
 20
56.4746194197
 30
0.0
 11
48.6810829218
 21
56.4867854022
 31
0.0
  0
LINE
  5
1B0
330
1F
100
AcDbEntity
  8
0
  6
Continuous
 62
     7
370
    25
100
AcDbLine
 10
48.7021504563
 20
56.4746194197
 30
0.0
 11
60.8326854875
 21
49.4718106052
 31
0.0
  0
SPLINE
  5
1B1
330
1F
100
AcDbEntity
  8
0
  6
Continuous
 62
     7
370
    25
100
AcDbSpline
210
0.0
220
0.0
230
1.0
 70
     8
 71
     3
 72
    39
 73
    35
 74
     0
 42
0.000000001
 43
0.00000001
 40
0.0
 40
0.0
 40
0.0
 40
0.0
 40
0.0312500000000008
 40
0.0625000000000007
 40
0.0937499999999999
 40
0.1250000000000007
 40
0.1562499999999999
 40
0.1874999999999979
 40
0.2187499999999974
 40
0.2499999999999981
 40
0.2812499999999967
 40
0.3124999999999964
 40
0.3437499999999961
 40
0.3749999999999974
 40
0.4062499999999966
 40
0.4374999999999955
 40
0.4687499999999956
 40
0.499999999999995
 40
0.5312499999999942
 40
0.5624999999999941
 40
0.5937499999999927
 40
0.6249999999999918
 40
0.6562499999999912
 40
0.6874999999999918
 40
0.7187499999999903
 40
0.7499999999999908
 40
0.7812499999999919
 40
0.8124999999999901
 40
0.8437499999999888
 40
0.8749999999999879
 40
0.9062499999999898
 40
0.937499999999988
 40
0.9687499999999876
 40
0.9999999999999999
 40
0.9999999999999999
 40
0.9999999999999999
 40
0.9999999999999999
 10
51.61636401869668
 20
43.5419787315881
 30
0.0
 10
51.61644285999655
 20
43.55850438679952
 30
0.0
 10
51.61660054259628
 20
43.59155569722233
 30
0.0
 10
51.61164770524703
 20
43.64364265537752
 30
0.0
 10
51.60293499523121
 20
43.69693329605191
 30
0.0
 10
51.5901679864258
 20
43.75112581527371
 30
0.0
 10
51.573562921715
 20
43.80563746080856
 30
0.0
 10
51.55324663531827
 20
43.8599553596264
 30
0.0
 10
51.52941556362062
 20
43.91354895700299
 30
0.0
 10
51.50229091926403
 20
43.96589991139145
 30
0.0
 10
51.47212806491125
 20
44.01650044512309
 30
0.0
 10
51.43921097143244
 20
44.06486001409093
 30
0.0
 10
51.40385030907287
 20
44.11050955514062
 30
0.0
 10
51.36638023421207
 20
44.15300613116739
 30
0.0
 10
51.32715523055689
 20
44.19193716260873
 30
0.0
 10
51.28654667938016
 20
44.2269244099841
 30
0.0
 10
51.24493928717304
 20
44.25762761409023
 30
0.0
 10
51.20272737957194
 20
44.28374777354079
 30
0.0
 10
51.160311104087
 20
44.30503002414029
 30
0.0
 10
51.11809257640272
 20
44.32126609340008
 30
0.0
 10
51.07647200772433
 20
44.33229630635105
 30
0.0
 10
51.03584385082463
 20
44.33801112312755
 30
0.0
 10
50.99659300010931
 20
44.33835219455418
 30
0.0
 10
50.95909108913008
 20
44.3333129216222
 30
0.0
 10
50.92369289566154
 20
44.32293852821499
 30
0.0
 10
50.89073298429759
 20
44.30732559134282
 30
0.0
 10
50.86052226309697
 20
44.28662123881688
 30
0.0
 10
50.8333458153292
 20
44.26102125550999
 30
0.0
 10
50.80945707143658
 20
44.23076997734888
 30
0.0
 10
50.78908687252287
 20
44.19615129701395
 30
0.0
 10
50.77239831310789
 20
44.1575107152367
 30
0.0
 10
50.75964540275226
 20
44.11515951329328
 30
0.0
 10
50.75057262467045
 20
44.06971697043928
 30
0.0
 10
50.74795697137449
 20
44.03711634953498
 30
0.0
 10
50.7466491447265
 20
44.02081603908283
 30
0.0
  0
LINE
  5
1B2
330
1F
100
AcDbEntity
  8
0
  6
Continuous
 62
     7
370
    25
100
AcDbLine
 10
51.3335213062
 20
43.705260354
 30
0.0
 11
51.6163640187
 21
43.5419787316
 31
0.0
  0
SPLINE
  5
1B3
330
1F
100
AcDbEntity
  8
0
  6
Continuous
 62
     7
370
    25
100
AcDbSpline
210
0.0
220
0.0
230
1.0
 70
     8
 71
     3
 72
    23
 73
    19
 74
     0
 42
0.000000001
 43
0.00000001
 40
0.0
 40
0.0
 40
0.0
 40
0.0
 40
0.0625000000000003
 40
0.1250000000000008
 40
0.1875000000000017
 40
0.2500000000000038
 40
0.3125000000000023
 40
0.3749999999999981
 40
0.4374999999999981
 40
0.4999999999999958
 40
0.5625000000000027
 40
0.6249999999999918
 40
0.6874999999999949
 40
0.749999999999997
 40
0.8124999999999942
 40
0.8749999999999921
 40
0.9374999999999901
 40
1.0
 40
1.0
 40
1.0
 40
1.0
 10
51.33352130622206
 20
43.70526035395265
 30
0.0
 10
51.33301580541052
 20
43.71627677679835
 30
0.0
 10
51.33200480378744
 20
43.73830962248975
 30
0.0
 10
51.32360471403588
 20
43.7740404649898
 30
0.0
 10
51.31043939261806
 20
43.8099874042764
 30
0.0
 10
51.29246913855734
 20
43.84502819418414
 30
0.0
 10
51.27046621840783
 20
43.87771326915843
 30
0.0
 10
51.24518978697207
 20
43.90678062576567
 30
0.0
 10
51.21756982098269
 20
43.93108129639316
 30
0.0
 10
51.18861435183032
 20
43.94965642544843
 30
0.0
 10
51.15938573505832
 20
43.96176545395289
 30
0.0
 10
51.13095682312008
 20
43.96691631154598
 30
0.0
 10
51.10436673474524
 20
43.96488605921074
 30
0.0
 10
51.08059592976588
 20
43.95572079300639
 30
0.0
 10
51.06047150180736
 20
43.93976679464097
 30
0.0
 10
51.04484850111824
 20
43.91753419967488
 30
0.0
 10
51.03378167395837
 20
43.89013656881676
 30
0.0
 10
51.03092179612015
 20
43.86840180075109
 30
0.0
 10
51.02949185720106
 20
43.85753441671826
 30
0.0
  0
LINE
  5
1B4
330
1F
100
AcDbEntity
  8
0
  6
Continuous
 62
     7
370
    25
100
AcDbLine
 10
51.0294918572
 20
43.8575344167
 30
0.0
 11
50.7466491447
 21
44.0208160391
 31
0.0
  0
SPLINE
  5
1B5
330
1F
100
AcDbEntity
  8
0
  6
Continuous
 62
     7
370
    25
100
AcDbSpline
210
0.0
220
0.0
230
1.0
 70
     8
 71
     3
 72
    31
 73
    27
 74
     0
 42
0.000000001
 43
0.00000001
 40
0.0
 40
0.0
 40
0.0
 40
0.0
 40
0.0308335317562088
 40
0.0729712042885466
 40
0.1151088768208867
 40
0.1572465493532253
 40
0.1993842218855627
 40
0.2415218944179003
 40
0.283659566950243
 40
0.3257972394825815
 40
0.3679349120149197
 40
0.4100725845472583
 40
0.4522102570795963
 40
0.4943479296119379
 40
0.536485602144274
 40
0.5786232746766139
 40
0.6207609472089544
 40
0.662898619741292
 40
0.7050362922736316
 40
0.7471739648059711
 40
0.7893116373383087
 40
0.8314493098706478
 40
0.8735869824029873
 40
0.9157246549353257
 40
0.9578623274676645
 40
0.9999999999999999
 40
0.9999999999999999
 40
0.9999999999999999
 40
0.9999999999999999
 10
192.3213755705892
 20
117.7860619406588
 30
0.0
 10
192.3292919188358
 20
117.7900935132173
 30
0.0
 10
192.3480268944362
 20
117.7996347071065
 30
0.0
 10
192.38050402983
 20
117.8086055515012
 30
0.0
 10
192.4179340437914
 20
117.8137848485438
 30
0.0
 10
192.4572041592546
 20
117.8134062577698
 30
0.0
 10
192.4978271541806
 20
117.8077014942721
 30
0.0
 10
192.5394491060057
 20
117.7966685875532
 30
0.0
 10
192.581667263077
 20
117.7804332400863
 30
0.0
 10
192.6240836378674
 20
117.759150796083
 30
0.0
 10
192.6662955188597
 20
117.7330306884549
 30
0.0
 10
192.7079029181966
 20
117.702327470463
 30
0.0
 10
192.7485114674629
 20
117.6673402268083
 30
0.0
 10
192.78773647163
 20
117.62840919437
 30
0.0
 10
192.8252065463536
 20
117.5859126186104
 30
0.0
 10
192.86056720875
 20
117.5402630774891
 30
0.0
 10
192.8934843022189
 20
117.4919035085404
 30
0.0
 10
192.9236471565743
 20
117.4413029748036
 30
0.0
 10
192.9507718009303
 20
117.3889520204166
 30
0.0
 10
192.974602872628
 20
117.3353584230396
 30
0.0
 10
192.9949191590248
 20
117.2810405242219
 30
0.0
 10
193.0115242237355
 20
117.226528878687
 30
0.0
 10
193.024291232541
 20
117.1723363594652
 30
0.0
 10
193.0330039425567
 20
117.1190457187908
 30
0.0
 10
193.037956779906
 20
117.0669587606356
 30
0.0
 10
193.0377990973063
 20
117.0339074502128
 30
0.0
 10
193.0377202560064
 20
117.0173817950014
 30
0.0
  0
LINE
  5
1B6
330
1F
100
AcDbEntity
  8
0
  6
Continuous
 62
     7
370
    25
100
AcDbLine
 10
193.037720256
 20
117.017381795
 30
0.0
 11
51.6163640187
 21
43.5419787316
 31
0.0
  0
LINE
  5
1B7
330
1F
100
AcDbEntity
  8
0
  6
Continuous
 62
     7
370
    25
100
AcDbLine
 10
193.037720256
 20
109.8324346737
 30
0.0
 11
51.6163640187
 21
28.1916234915
 31
0.0
  0
LINE
  5
1B8
330
1F
100
AcDbEntity
  8
0
  6
Continuous
 62
     7
370
    25
100
AcDbLine
 10
51.6163640187
 20
43.5419787316
 30
0.0
 11
51.6163640187
 21
28.1916234915
 31
0.0
  0
LINE
  5
1B9
330
1F
100
AcDbEntity
  8
0
  6
Continuous
 62
     7
370
    25
100
AcDbLine
 10
193.037720256
 20
109.8324346737
 30
0.0
 11
193.037720256
 21
117.017381795
 31
0.0
  0
LINE
  5
1BA
330
1F
100
AcDbEntity
  8
0
  6
Continuous
 62
     7
370
    25
100
AcDbLine
 10
51.3335213062
 20
28.3549051138
 30
0.0
 11
51.6163640187
 21
28.1916234915
 31
0.0
  0
LINE
  5
1BB
330
1F
100
AcDbEntity
  8
0
  6
Continuous
 62
     7
370
    25
100
AcDbLine
 10
51.3335213062
 20
43.705260354
 30
0.0
 11
51.3335213062
 21
28.3549051138
 31
0.0
  0
LINE
  5
1BC
330
1F
100
AcDbEntity
  8
0
  6
Continuous
 62
     7
370
    25
100
AcDbLine
 10
51.0294918572
 20
43.8575344167
 30
0.0
 11
50.9094336834
 21
41.015451353
 31
0.0
  0
LINE
  5
1BD
330
1F
100
AcDbEntity
  8
0
  6
Continuous
 62
     7
370
    25
100
AcDbLine
 10
50.626590971
 20
41.1787329754
 30
0.0
 11
50.9094336834
 21
41.015451353
 31
0.0
  0
LINE
  5
1BE
330
1F
100
AcDbEntity
  8
0
  6
Continuous
 62
     7
370
    25
100
AcDbLine
 10
50.7466491447
 20
44.0208160391
 30
0.0
 11
50.626590971
 21
41.1787329754
 31
0.0
  0
ARC
  5
1BF
330
1F
100
AcDbEntity
  8
0
  6
Continuous
 62
     7
370
    25
100
AcDbCircle
 10
50.6314193454
 20
40.9831125702
 30
0.0
 40
0.2798888511884669
100
AcDbArc
 50
233.2571322862
 51
6.6348599723
  0
LINE
  5
1C0
330
1F
100
AcDbEntity
  8
0
  6
Continuous
 62
     7
370
    25
100
AcDbLine
 10
50.4781073692
 20
41.0931924299
 30
0.0
 11
50.4639828782
 21
40.7588297165
 31
0.0
  0
ARC
  5
1C1
330
1F
100
AcDbEntity
  8
0
  6
Continuous
 62
     7
370
    25
100
AcDbCircle
 10
50.5335886303
 20
41.1685277571
 30
0.0
 40
0.0935605785113564
100
AcDbArc
 50
233.6299356102
 51
6.2620566482
  0
LINE
  5
1C2
330
1F
100
AcDbEntity
  8
0
  6
Continuous
 62
     7
370
    25
100
AcDbLine
 10
50.4781073692
 20
41.0931924299
 30
0.0
 11
49.2760258412
 21
41.7871393249
 31
0.0
  0
LINE
  5
1C3
330
1F
100
AcDbEntity
  8
0
  6
Continuous
 62
     7
370
    25
100
AcDbLine
 10
50.4639828782
 20
40.7588297165
 30
0.0
 11
49.2619013502
 21
41.4527766116
 31
0.0
  0
LINE
  5
1C4
330
1F
100
AcDbEntity
  8
0
  6
Continuous
 62
     7
370
    25
100
AcDbLine
 10
49.2619013502
 20
41.4527766116
 30
0.0
 11
49.2760258412
 21
41.7871393249
 31
0.0
  0
LWPOLYLINE
  5
1C5
330
1F
100
AcDbEntity
  8
0
  6
Continuous
 62
     7
370
    25
100
AcDbPolyline
 90
       36
 70
   128
 43
0.0
 10
49.2760258412
 20
41.7871393249
 10
49.2495560852
 20
41.8014221957
 10
49.2231068493
 20
41.8137015078
 10
49.1967808668
 20
41.8239295662
 10
49.1706803923
 20
41.8320666435
 10
49.1449068044
 20
41.838081134
 10
49.1195602121
 20
41.8419496762
 10
49.0947390657
 20
41.8436572442
 10
49.0705397749
 20
41.8431972055
 10
49.0470563337
 20
41.8405713469
 10
49.0243799558
 20
41.8357898677
 10
49.00259872
 20
41.8288713399
 10
48.9817972284
 20
41.8198426364
 10
48.9620562774
 20
41.8087388261
 10
48.9434525441
 20
41.795603038
 10
48.9260582888
 20
41.7804862939
 10
48.9099410734
 20
41.7634473096
 10
48.8951635001
 20
41.7445522675
 10
48.8817829674
 20
41.723874559
 10
48.8698514476
 20
41.7014944999
 10
48.8594152847
 20
41.6774990181
 10
48.8505150144
 20
41.6519813162
 10
48.843185207
 20
41.625040509
 10
48.8374543327
 20
41.5967812393
 10
48.8333446511
 20
41.5673132709
 10
48.830872125
 20
41.5367510623
 10
48.8300463579
 20
41.5052133222
 10
48.8308705575
 20
41.4728225485
 10
48.8333415223
 20
41.4397045525
 10
48.8374496546
 20
41.4059879701
 10
48.8431789979
 20
41.371803762
 10
48.8505072983
 20
41.3372847057
 10
48.8594060916
 20
41.3025648787
 10
48.8698408133
 20
41.2677791389
 10
48.8817709331
 20
41.2330625999
 10
48.8951501126
 20
41.1985501066
  0
LWPOLYLINE
  5
1C6
330
1F
100
AcDbEntity
  8
0
  6
Continuous
 62
     7
370
    25
100
AcDbPolyline
 90
       21
 70
   128
 43
0.0
 10
49.2619013502
 20
41.4527766116
 10
49.2464632735
 20
41.4606709221
 10
49.231124763
 20
41.4664840515
 10
49.2160681526
 20
41.4701468973
 10
49.201472425
 20
41.471615918
 10
49.1875110844
 20
41.4708736509
 10
49.1743500938
 20
41.4679289195
 10
49.1621459021
 20
41.4628167289
 10
49.1510435845
 20
41.4555978493
 10
49.1411751178
 20
41.4463580938
 10
49.1326578117
 20
41.4352072984
 10
49.1255929142
 20
41.4222780163
 10
49.1200644079
 20
41.407723942
 10
49.1161380121
 20
41.3917180844
 10
49.113860401
 20
41.3744507104
 10
49.1132586494
 20
41.3561270829
 10
49.1143399105
 20
41.3369650208
 10
49.117091331
 20
41.3171923096
 10
49.1214802038
 20
41.2970439939
 10
49.127454357
 20
41.2767595835
 10
49.134942774
 20
41.2565802055
  0
LINE
  5
1C7
330
1F
100
AcDbEntity
  8
0
  6
Continuous
 62
     7
370
    25
100
AcDbLine
 10
49.134942774
 20
41.2565802055
 30
0.0
 11
48.8951501126
 21
41.1985501066
 31
0.0
  0
LINE
  5
1C8
330
1F
100
AcDbEntity
  8
0
  6
Continuous
 62
     7
370
    25
100
AcDbLine
 10
49.3649930043
 20
40.0523405946
 30
0.0
 11
49.6047856656
 21
40.1103706935
 31
0.0
  0
LINE
  5
1C9
330
1F
100
AcDbEntity
  8
0
  6
Continuous
 62
     7
370
    25
100
AcDbLine
 10
48.8951501126
 20
41.1985501066
 30
0.0
 11
49.3649930043
 21
40.0523405946
 31
0.0
  0
LINE
  5
1CA
330
1F
100
AcDbEntity
  8
0
  6
Continuous
 62
     7
370
    25
100
AcDbLine
 10
49.134942774
 20
41.2565802055
 30
0.0
 11
49.6047856656
 21
40.1103706935
 31
0.0
  0
LINE
  5
1CB
330
1F
100
AcDbEntity
  8
0
  6
Continuous
 62
     7
370
    25
100
AcDbLine
 10
49.6047856656
 20
40.1103706935
 30
0.0
 11
51.3335213062
 21
41.0085345307
 31
0.0
  0
ARC
  5
1CC
330
1F
100
AcDbEntity
  8
0
  6
Continuous
 62
     7
370
    25
100
AcDbCircle
 10
51.3572944069
 20
28.1504031204
 30
0.0
 40
0.2623283872027195
100
AcDbArc
 50
230.9702441573
 51
9.0405075975
  0
LINE
  5
1CD
330
1F
100
AcDbEntity
  8
0
  6
Continuous
 62
     7
370
    25
100
AcDbLine
 10
51.19209995
 20
28.2732377626
 30
0.0
 11
51.19209995
 21
27.9466214379
 31
0.0
  0
LWPOLYLINE
  5
1CE
330
1F
100
AcDbEntity
  8
0
  6
Continuous
 62
     7
370
    25
100
AcDbPolyline
 90
       15
 70
   128
 43
0.0
 10
51.19209995
 20
28.2732377626
 10
51.207934118
 20
28.2651237394
 10
51.2235691623
 20
28.2591654497
 10
51.2388084629
 20
28.2554378223
 10
51.2534603768
 20
28.2539877344
 10
51.2673406478
 20
28.2548334217
 10
51.2802747234
 20
28.2579642491
 10
51.29209995
 20
28.2633408448
 10
51.3026676186
 20
28.2708955948
 10
51.3118448346
 20
28.2805334938
 10
51.3195161892
 20
28.2921333397
 10
51.3255852107
 20
28.3055492576
 10
51.3299755776
 20
28.3206125346
 10
51.3326320784
 20
28.3371337413
 10
51.3335213062
 20
28.3549051138
  0
ARC
  5
1CF
330
1F
100
AcDbEntity
  8
0
  6
Continuous
 62
     7
370
    25
100
AcDbCircle
 10
192.7405923492
 20
109.8013973058
 30
0.0
 40
0.2987445584783761
100
AcDbArc
 50
305.3488084627
 51
5.9633719307
  0
LINE
  5
1D0
330
1F
100
AcDbEntity
  8
0
  6
Continuous
 62
     7
370
    25
100
AcDbLine
 10
32.6659022829
 20
38.9681840275
 30
0.0
 11
51.19209995
 21
28.2732377626
 31
0.0
  0
LINE
  5
1D1
330
1F
100
AcDbEntity
  8
0
  6
Continuous
 62
     7
370
    25
100
AcDbLine
 10
185.2975096973
 20
114.1374549559
 30
0.0
 11
174.0872585202
 21
120.6089952098
 31
0.0
  0
LINE
  5
1D2
330
1F
100
AcDbEntity
  8
0
  6
Continuous
 62
     7
370
    25
100
AcDbLine
 10
32.6659022829
 20
38.6415677028
 30
0.0
 11
51.19209995
 21
27.9466214379
 31
0.0
  0
LINE
  5
1D3
330
1F
100
AcDbEntity
  8
0
  6
Continuous
 62
     7
370
    25
100
AcDbLine
 10
32.6659022829
 20
38.9681840275
 30
0.0
 11
32.6659022829
 21
38.6415677028
 31
0.0
  0
SPLINE
  5
1D4
330
1F
100
AcDbEntity
  8
0
  6
Continuous
 62
     7
370
    25
100
AcDbSpline
210
0.0
220
0.0
230
1.0
 70
     8
 71
     3
 72
    31
 73
    27
 74
     0
 42
0.000000001
 43
0.00000001
 40
0.0
 40
0.0
 40
0.0
 40
0.0
 40
0.0308335317561974
 40
0.0729712042885369
 40
0.1151088768208773
 40
0.1572465493532153
 40
0.1993842218855558
 40
0.2415218944178952
 40
0.2836595669502341
 40
0.3257972394825723
 40
0.3679349120149124
 40
0.4100725845472516
 40
0.4522102570795916
 40
0.4943479296119312
 40
0.5364856021442685
 40
0.5786232746766075
 40
0.6207609472089484
 40
0.6628986197412878
 40
0.7050362922736254
 40
0.7471739648059659
 40
0.7893116373383036
 40
0.8314493098706452
 40
0.8735869824029845
 40
0.9157246549353233
 40
0.9578623274676621
 40
1.0
 40
1.0
 40
1.0
 40
1.0
 10
173.8054160405795
 20
128.4863274251254
 30
0.0
 10
173.8130094088799
 20
128.4901911935958
 30
0.0
 10
173.8309800141892
 20
128.4993352592384
 30
0.0
 10
173.8622513889473
 20
128.5076796512283
 30
0.0
 10
173.8983572318745
 20
128.5121709757959
 30
0.0
 10
173.9363031763036
 20
128.511104412547
 30
0.0
 10
173.9756020001955
 20
128.5047116765744
 30
0.0
 10
174.0158997809864
 20
128.4929907973806
 30
0.0
 10
174.0567937670235
 20
128.4760674774388
 30
0.0
 10
174.0978859707798
 20
128.4540970609605
 30
0.0
 10
174.138773680738
 20
128.4272889808575
 30
0.0
 10
174.1790569090407
 20
128.3958977903906
 30
0.0
 10
174.2183412872728
 20
128.360222574261
 30
0.0
 10
174.2562421204057
 20
128.3206035693478
 30
0.0
 10
174.2923880240953
 20
128.2774190211132
 30
0.0
 10
174.3264245154575
 20
128.231081507517
 30
0.0
 10
174.3580174378922
 20
128.1820339660933
 30
0.0
 10
174.3868561212136
 20
128.1307454598817
 30
0.0
 10
174.4126565945353
 20
128.0777065330197
 30
0.0
 10
174.4351634951989
 20
128.0234249631678
 30
0.0
 10
174.4541556105615
 20
127.9684190918751
 30
0.0
 10
174.4694365042381
 20
127.9132194738653
 30
0.0
 10
174.4808793420095
 20
127.8583389821686
 30
0.0
 10
174.488267880991
 20
127.8043603690192
 30
0.0
 10
174.4918965473062
 20
127.7515854383892
 30
0.0
 10
174.4908560840171
 20
127.7180754796497
 30
0.0
 10
174.4903358523725
 20
127.70132050028
 30
0.0
  0
LINE
  5
1D5
330
1F
100
AcDbEntity
  8
0
  6
Continuous
 62
     7
370
    25
100
AcDbLine
 10
33.0689796151
 20
54.2259174369
 30
0.0
 11
174.4903358524
 21
127.7013205003
 31
0.0
  0
SPLINE
  5
1D6
330
1F
100
AcDbEntity
  8
0
  6
Continuous
 62
     7
370
    25
100
AcDbSpline
210
0.0
220
0.0
230
1.0
 70
     8
 71
     3
 72
    39
 73
    35
 74
     0
 42
0.000000001
 43
0.00000001
 40
0.0
 40
0.0
 40
0.0
 40
0.0
 40
0.0312500000000052
 40
0.0625000000000051
 40
0.093750000000006
 40
0.1250000000000055
 40
0.1562500000000046
 40
0.1875000000000051
 40
0.2187500000000049
 40
0.2500000000000044
 40
0.2812500000000038
 40
0.3125000000000041
 40
0.3437500000000037
 40
0.3750000000000034
 40
0.4062500000000034
 40
0.4375000000000041
 40
0.4687500000000038
 40
0.5000000000000033
 40
0.531250000000003
 40
0.562500000000003
 40
0.5937500000000019
 40
0.625000000000003
 40
0.6562500000000023
 40
0.6875000000000022
 40
0.7187500000000018
 40
0.7500000000000021
 40
0.7812500000000006
 40
0.8125000000000017
 40
0.8437500000000003
 40
0.8750000000000007
 40
0.9062500000000013
 40
0.9375000000000011
 40
0.9687500000000007
 40
1.0
 40
1.0
 40
1.0
 40
1.0
 10
33.06897961506265
 20
54.22591743686672
 30
0.0
 10
33.06949984670723
 20
54.24267241623644
 30
0.0
 10
33.0705403099964
 20
54.27618237497587
 30
0.0
 10
33.06691164368119
 20
54.32895730560597
 30
0.0
 10
33.05952310469969
 20
54.38293591875537
 30
0.0
 10
33.04808026692834
 20
54.43781641045206
 30
0.0
 10
33.03279937325171
 20
54.49301602846187
 30
0.0
 10
33.01380725788915
 20
54.54802189975464
 30
0.0
 10
32.99130035722564
 20
54.60230346960616
 30
0.0
 10
32.96549988390318
 20
54.65534239646956
 30
0.0
 10
32.93666120058454
 20
54.7066309026761
 30
0.0
 10
32.90506827813991
 20
54.75567844411892
 30
0.0
 10
32.87103178681451
 20
54.80201595764354
 30
0.0
 10
32.83488588298781
 20
54.84520050614522
 30
0.0
 10
32.79698505036679
 20
54.8848195100615
 30
0.0
 10
32.75770067022418
 20
54.92049472991179
 30
0.0
 10
32.71741744905124
 20
54.95188590649286
 30
0.0
 10
32.67652971248427
 20
54.97869403841833
 30
0.0
 10
32.63543760803351
 20
55.00066426149279
 30
0.0
 10
32.59454325138341
 20
55.01758830322752
 30
0.0
 10
32.55424685373909
 20
55.02930648865338
 30
0.0
 10
32.5149428678736
 20
55.03570927790486
 30
0.0
 10
32.47701618819234
 20
55.03673832180636
 30
0.0
 10
32.4408384482474
 20
55.03238702134938
 30
0.0
 10
32.40676442581287
 20
55.02270060041705
 30
0.0
 10
32.37512868548319
 20
55.00777563601984
 30
0.0
 10
32.34624213531663
 20
54.9877592559688
 30
0.0
 10
32.32038985858304
 20
54.96284724513685
 30
0.0
 10
32.29782528572458
 20
54.9332839394507
 30
0.0
 10
32.27877925784502
 20
54.89935323159068
 30
0.0
 10
32.26341486946419
 20
54.86140062228835
 30
0.0
 10
32.25198613014265
 20
54.81973739281985
 30
0.0
 10
32.24423752309507
 20
54.77498282244081
 30
0.0
 10
32.2425046504885
 20
54.74284084985313
 30
0.0
 10
32.24163821418522
 20
54.72676986355929
 30
0.0
  0
LINE
  5
1D7
330
1F
100
AcDbEntity
  8
0
  6
Continuous
 62
     7
370
    25
100
AcDbLine
 10
32.5244809267
 20
54.5634882412
 30
0.0
 11
32.2416382142
 21
54.7267698636
 31
0.0
  0
LINE
  5
1D8
330
1F
100
AcDbEntity
  8
0
  6
Continuous
 62
     7
370
    25
100
AcDbLine
 10
32.7861369026
 20
54.3891990592
 30
0.0
 11
33.0689796151
 21
54.2259174369
 31
0.0
  0
SPLINE
  5
1D9
330
1F
100
AcDbEntity
  8
0
  6
Continuous
 62
     7
370
    25
100
AcDbSpline
210
0.0
220
0.0
230
1.0
 70
     8
 71
     3
 72
    23
 73
    19
 74
     0
 42
0.000000001
 43
0.00000001
 40
0.0
 40
0.0
 40
0.0
 40
0.0
 40
0.0625000000000028
 40
0.1249999999999997
 40
0.1875000000000027
 40
0.2500000000000018
 40
0.3125000000000012
 40
0.3750000000000019
 40
0.437500000000001
 40
0.4999999999999984
 40
0.5624999999999999
 40
0.6250000000000006
 40
0.6874999999999964
 40
0.7499999999999983
 40
0.8124999999999996
 40
0.8749999999999957
 40
0.9374999999999956
 40
1.0
 40
1.0
 40
1.0
 40
1.0
 10
32.78613690258803
 20
54.38919905923127
 30
0.0
 10
32.78651418246592
 20
54.40067413039358
 30
0.0
 10
32.78726874222168
 20
54.42362427271821
 30
0.0
 10
32.78151699453846
 20
54.46073106016816
 30
0.0
 10
32.77100001518892
 20
54.49805394440462
 30
0.0
 10
32.75567810319653
 20
54.53447067926223
 30
0.0
 10
32.7363235251153
 20
54.56853169918639
 30
0.0
 10
32.71369543574783
 20
54.59897500074349
 30
0.0
 10
32.68872381182673
 20
54.62465161632083
 30
0.0
 10
32.66241668474267
 20
54.64460269032597
 30
0.0
 10
32.63583641003905
 20
54.65808766378033
 30
0.0
 10
32.610055840169
 20
54.66461446632324
 30
0.0
 10
32.5861140938625
 20
54.66396015893789
 30
0.0
 10
32.56499163095148
 20
54.65617083768343
 30
0.0
 10
32.54751554506116
 20
54.64159278426784
 30
0.0
 10
32.53454088644044
 20
54.62073613425164
 30
0.0
 10
32.52612240134878
 20
54.59471444834335
 30
0.0
 10
32.52502808488948
 20
54.57389697691094
 30
0.0
 10
32.52448092665983
 20
54.56348824119475
 30
0.0
  0
LINE
  5
1DA
330
1F
100
AcDbEntity
  8
0
  6
Continuous
 62
     7
370
    25
100
AcDbLine
 10
174.4903358524
 20
127.7013205003
 30
0.0
 11
174.3702776786
 21
124.8592374366
 31
0.0
  0
LINE
  5
1DB
330
1F
100
AcDbEntity
  8
0
  6
Continuous
 62
     7
370
    25
100
AcDbLine
 10
174.3702776786
 20
124.8592374366
 30
0.0
 11
32.9489214413
 21
51.3838343732
 31
0.0
  0
LINE
  5
1DC
330
1F
100
AcDbEntity
  8
0
  6
Continuous
 62
     7
370
    25
100
AcDbLine
 10
32.9489214413
 20
51.3838343732
 30
0.0
 11
33.0689796151
 21
54.2259174369
 31
0.0
  0
LINE
  5
1DD
330
1F
100
AcDbEntity
  8
0
  6
Continuous
 62
     7
370
    25
100
AcDbLine
 10
32.6660787288
 20
51.5471159955
 30
0.0
 11
32.7861369026
 21
54.3891990592
 31
0.0
  0
LINE
  5
1DE
330
1F
100
AcDbEntity
  8
0
  6
Continuous
 62
     7
370
    25
100
AcDbLine
 10
32.9489214413
 20
51.3838343732
 30
0.0
 11
32.6660787288
 21
51.5471159955
 31
0.0
  0
LINE
  5
1DF
330
1F
100
AcDbEntity
  8
0
  6
Continuous
 62
     7
370
    25
100
AcDbLine
 10
32.5244809267
 20
39.2131330011
 30
0.0
 11
32.2416382142
 21
39.3764146234
 31
0.0
  0
LINE
  5
1E0
330
1F
100
AcDbEntity
  8
0
  6
Continuous
 62
     7
370
    25
100
AcDbLine
 10
32.2416382142
 20
39.3764146234
 30
0.0
 11
32.2416382142
 21
54.7267698636
 31
0.0
  0
LINE
  5
1E1
330
1F
100
AcDbEntity
  8
0
  6
Continuous
 62
     7
370
    25
100
AcDbLine
 10
32.5244809267
 20
39.2131330011
 30
0.0
 11
32.5244809267
 21
54.5634882412
 31
0.0
  0
LINE
  5
1E2
330
1F
100
AcDbEntity
  8
0
  6
Continuous
 62
     7
370
    25
100
AcDbLine
 10
173.945837164
 20
121.5680330473
 30
0.0
 11
173.945837164
 21
120.8539441833
 31
0.0
  0
LWPOLYLINE
  5
1E3
330
1F
100
AcDbEntity
  8
0
  6
Continuous
 62
     7
370
    25
100
AcDbPolyline
 90
       36
 70
   128
 43
0.0
 10
175.7067183173
 20
123.9164683737
 10
175.7331057805
 20
123.9002374213
 10
175.7593084575
 20
123.882121431
 10
175.7852245727
 20
123.8621907684
 10
175.8107534635
 20
123.8405228476
 10
175.8357959714
 20
123.8172018304
 10
175.8602548271
 20
123.7923182995
 10
175.8840350284
 20
123.7659689067
 10
175.9070442088
 20
123.7382559976
 10
175.9291929968
 20
123.7092872138
 10
175.9503953629
 20
123.6791750749
 10
175.9705689534
 20
123.6480365414
 10
175.9896354108
 20
123.6159925608
 10
176.0075206778
 20
123.5831675972
 10
176.0241552848
 20
123.5496891483
 10
176.0394746204
 20
123.5156872501
 10
176.0534191815
 20
123.4812939716
 10
176.0659348053
 20
123.4466429022
 10
176.076972879
 20
123.4118686324
 10
176.0864905287
 20
123.3771062313
 10
176.0944507863
 20
123.342490722
 10
176.1008227329
 20
123.3081565569
 10
176.1055816187
 20
123.2742370957
 10
176.1087089594
 20
123.2408640873
 10
176.1101926079
 20
123.2081671581
 10
176.1100268015
 20
123.1762733085
 10
176.1082121842
 20
123.1453064196
 10
176.1047558042
 20
123.1153867719
 10
176.0996710868
 20
123.0866305784
 10
176.0929777818
 20
123.059149533
 10
176.0847018871
 20
123.0330503767
 10
176.0748755477
 20
123.0084344831
 10
176.0635369309
 20
122.9853974644
 10
176.0507300775
 20
122.9640288003
 10
176.0365047318
 20
122.9444114902
 10
176.0209161472
 20
122.9266217311
  0
LINE
  5
1E4
330
1F
100
AcDbEntity
  8
0
  6
Continuous
 62
     7
370
    25
100
AcDbLine
 10
176.0209161472
 20
122.9266217311
 30
0.0
 11
34.5995599098
 21
49.4512186677
 31
0.0
  0
LWPOLYLINE
  5
1E5
330
1F
100
AcDbEntity
  8
0
  6
Continuous
 62
     7
370
    25
100
AcDbPolyline
 90
       36
 70
   128
 43
0.0
 10
34.5995599098
 20
49.4512186677
 10
34.6151484944
 20
49.4690084268
 10
34.6293738402
 20
49.4886257368
 10
34.6421806935
 20
49.509994401
 10
34.6535193104
 20
49.5330314197
 10
34.6633456498
 20
49.5576473133
 10
34.6716215445
 20
49.5837464696
 10
34.6783148495
 20
49.611227515
 10
34.6833995669
 20
49.6399837085
 10
34.6868559469
 20
49.6699033562
 10
34.6886705642
 20
49.7008702451
 10
34.6888363706
 20
49.7327640947
 10
34.6873527221
 20
49.7654610239
 10
34.6842253814
 20
49.7988340323
 10
34.6794664955
 20
49.8327534935
 10
34.673094549
 20
49.8670876586
 10
34.6651342913
 20
49.9017031679
 10
34.6556166416
 20
49.936465569
 10
34.644578568
 20
49.9712398388
 10
34.6320629442
 20
50.0058909082
 10
34.618118383
 20
50.0402841867
 10
34.6027990475
 20
50.0742860849
 10
34.5861644404
 20
50.1077645338
 10
34.5682791735
 20
50.1405894974
 10
34.5492127161
 20
50.172633478
 10
34.5290391256
 20
50.2037720114
 10
34.5078367595
 20
50.2338841504
 10
34.4856879714
 20
50.2628529342
 10
34.462678791
 20
50.2905658433
 10
34.4388985898
 20
50.316915236
 10
34.4144397341
 20
50.3417987669
 10
34.3893972262
 20
50.3651197842
 10
34.3638683354
 20
50.386787705
 10
34.3379522202
 20
50.4067183676
 10
34.3117495432
 20
50.4248343579
 10
34.28536208
 20
50.4410653103
  0
LINE
  5
1E6
330
1F
100
AcDbEntity
  8
0
  6
Continuous
 62
     7
370
    25
100
AcDbLine
 10
34.28536208
 20
50.4410653103
 30
0.0
 11
175.7067183173
 21
123.9164683737
 31
0.0
  0
LINE
  5
1E7
330
1F
100
AcDbEntity
  8
0
  6
Continuous
 62
     7
370
    25
100
AcDbLine
 10
34.271237589
 20
50.1067025969
 30
0.0
 11
34.28536208
 21
50.4410653103
 31
0.0
  0
LINE
  5
1E8
330
1F
100
AcDbEntity
  8
0
  6
Continuous
 62
     7
370
    25
100
AcDbLine
 10
34.3759701989
 20
49.776753716
 30
0.0
 11
34.5995599098
 21
49.4512186677
 31
0.0
  0
ARC
  5
1E9
330
1F
100
AcDbEntity
  8
0
  6
Continuous
 62
     7
370
    25
100
AcDbCircle
 10
34.1521534201
 20
49.8873062243
 30
0.0
 40
0.2496313433407063
100
AcDbArc
 50
333.7132992141
 51
61.507733882
  0
LINE
  5
1EA
330
1F
100
AcDbEntity
  8
0
  6
Continuous
 62
     7
370
    25
100
AcDbLine
 10
34.271237589
 20
50.1067025969
 30
0.0
 11
33.069156061
 21
50.8006494919
 31
0.0
  0
LINE
  5
1EB
330
1F
100
AcDbEntity
  8
0
  6
Continuous
 62
     7
370
    25
100
AcDbLine
 10
33.083280552
 20
51.1350122053
 30
0.0
 11
33.069156061
 21
50.8006494919
 31
0.0
  0
LINE
  5
1EC
330
1F
100
AcDbEntity
  8
0
  6
Continuous
 62
     7
370
    25
100
AcDbLine
 10
34.28536208
 20
50.4410653103
 30
0.0
 11
33.083280552
 21
51.1350122053
 31
0.0
  0
LINE
  5
1ED
330
1F
100
AcDbEntity
  8
0
  6
Continuous
 62
     7
370
    25
100
AcDbLine
 10
33.083280552
 20
51.1350122053
 30
0.0
 11
174.5046367893
 21
124.6104152687
 31
0.0
  0
LINE
  5
1EE
330
1F
100
AcDbEntity
  8
0
  6
Continuous
 62
     7
370
    25
100
AcDbLine
 10
174.5046367893
 20
124.6104152687
 30
0.0
 11
175.7067183173
 21
123.9164683737
 31
0.0
  0
LINE
  5
1EF
330
1F
100
AcDbEntity
  8
0
  6
Continuous
 62
     7
370
    25
100
AcDbLine
 10
34.0575536485
 20
48.8891372382
 30
0.0
 11
33.8339639376
 21
49.2146722865
 31
0.0
  0
LINE
  5
1F0
330
1F
100
AcDbEntity
  8
0
  6
Continuous
 62
     7
370
    25
100
AcDbLine
 10
33.8339639376
 20
49.2146722865
 30
0.0
 11
34.3759701989
 21
49.776753716
 31
0.0
  0
LINE
  5
1F1
330
1F
100
AcDbEntity
  8
0
  6
Continuous
 62
     7
370
    25
100
AcDbLine
 10
34.0575536485
 20
48.8891372382
 30
0.0
 11
34.5995599098
 21
49.4512186677
 31
0.0
  0
LINE
  5
1F2
330
1F
100
AcDbEntity
  8
0
  6
Continuous
 62
     7
370
    25
100
AcDbLine
 10
175.4789098858
 20
122.3645403016
 30
0.0
 11
34.0575536485
 21
48.8891372382
 31
0.0
  0
LINE
  5
1F3
330
1F
100
AcDbEntity
  8
0
  6
Continuous
 62
     7
370
    25
100
AcDbLine
 10
176.0209161472
 20
122.9266217311
 30
0.0
 11
175.4789098858
 21
122.3645403016
 31
0.0
  0
ARC
  5
1F4
330
1F
100
AcDbEntity
  8
0
  6
Continuous
 62
     7
370
    25
100
AcDbCircle
 10
33.2423314433
 20
51.3815833117
 30
0.0
 40
0.293418637009153
100
AcDbArc
 50
179.5604315191
 51
237.1759281858
  0
ARC
  5
1F5
330
1F
100
AcDbEntity
  8
0
  6
Continuous
 62
     7
370
    25
100
AcDbCircle
 10
33.5491962752
 20
51.5419220267
 30
0.0
 40
0.8831328201583935
100
AcDbArc
 50
179.663024402
 51
237.0733353029
  0
ARC
  5
1F6
330
1F
100
AcDbEntity
  8
0
  6
Continuous
 62
     7
370
    25
100
AcDbCircle
 10
174.6636876806
 20
124.8569863752
 30
0.0
 40
0.2934186370092378
100
AcDbArc
 50
179.5604315192
 51
237.1759281857
  0
ARC
  5
1F7
330
1F
100
AcDbEntity
  8
0
  6
Continuous
 62
     7
370
    25
100
AcDbCircle
 10
32.8299969348
 20
39.2262234352
 30
0.0
 40
0.3057963222310252
100
AcDbArc
 50
182.4534496702
 51
237.5465504754
  0
ARC
  5
1F8
330
1F
100
AcDbEntity
  8
0
  6
Continuous
 62
     7
370
    25
100
AcDbCircle
 10
174.2513531721
 20
120.8670346175
 30
0.0
 40
0.3057963222311249
100
AcDbArc
 50
182.4534496702
 51
237.5465504754
  0
ARC
  5
1F9
330
1F
100
AcDbEntity
  8
0
  6
Continuous
 62
     7
370
    25
100
AcDbCircle
 10
33.1614931773
 20
39.4175951877
 30
0.0
 40
0.9207762985869227
100
AcDbArc
 50
182.5633368485
 51
237.4366632972
  0
LINE
  5
1FA
330
1F
100
AcDbEntity
  8
0
  6
Continuous
 62
     8
370
    25
100
AcDbLine
 10
86.5188838329
 20
76.1453981248
 30
0.0
 11
98.6704900032
 21
69.1304252006
 31
0.0
  0
LINE
  5
1FB
330
1F
100
AcDbEntity
  8
0
  6
Continuous
 62
     8
370
    25
100
AcDbLine
 10
51.2076562556
 20
57.7994654599
 30
0.0
 11
63.3592624259
 21
50.7844925357
 31
0.0
  0
LINE
  5
1FC
330
1F
100
AcDbEntity
  8
0
  6
Continuous
 62
     8
370
    25
100
AcDbLine
 10
51.1958022659
 20
43.943940916
 30
0.0
 11
51.0294918572
 21
43.8575344167
 31
0.0
  0
LINE
  5
1FD
330
1F
100
AcDbEntity
  8
0
  6
Continuous
 62
     8
370
    25
100
AcDbLine
 10
50.9094336834
 20
41.015451353
 30
0.0
 11
51.3335213062
 21
41.2357858898
 31
0.0
  0
LINE
  5
1FE
330
1F
100
AcDbEntity
  8
0
  6
Continuous
 62
     8
370
    25
100
AcDbLine
 10
50.6260227921
 20
41.1700418224
 30
0.0
 11
50.4781073692
 21
41.0931924299
 31
0.0
  0
LINE
  5
1FF
330
1F
100
AcDbEntity
  8
0
  6
Continuous
 62
     8
370
    25
100
AcDbLine
 10
50.6831750796
 20
42.5182230892
 30
0.0
 11
49.2760258412
 21
41.7871393249
 31
0.0
  0
LINE
  5
200
330
1F
100
AcDbEntity
  8
0
  6
Continuous
 62
     8
370
    25
100
AcDbLine
 10
49.134942774
 20
41.2565802055
 30
0.0
 11
49.3806383202
 21
41.3842312178
 31
0.0
  0
LINE
  5
201
330
1F
100
AcDbEntity
  8
0
  6
Continuous
 62
     8
370
    25
100
AcDbLine
 10
51.3335213044
 20
28.3548785727
 30
0.0
 11
51.19209995
 21
28.2732377626
 31
0.0
  0
LINE
  5
202
330
1F
100
AcDbEntity
  8
0
  6
Continuous
 62
     8
370
    25
100
AcDbLine
 10
32.6659022829
 20
38.9681840275
 30
0.0
 11
55.8466870548
 21
52.3501662328
 31
0.0
  0
LINE
  5
203
330
1F
100
AcDbEntity
  8
0
  6
Continuous
 62
     8
370
    25
100
AcDbLine
 10
59.2469146127
 20
54.3130758203
 30
0.0
 11
89.3920662766
 21
71.7155014548
 31
0.0
  0
LINE
  5
204
330
1F
100
AcDbEntity
  8
0
  6
Continuous
 62
     8
370
    25
100
AcDbLine
 10
92.7922938344
 20
73.6784110423
 30
0.0
 11
174.0872585202
 21
120.6089952098
 31
0.0
  0
LINE
  5
205
330
1F
100
AcDbEntity
  8
0
  6
Continuous
 62
     8
370
    25
100
AcDbLine
 10
32.5244809267
 20
54.5634882412
 30
0.0
 11
32.6689389394
 21
54.6385413378
 31
0.0
  0
LINE
  5
206
330
1F
100
AcDbEntity
  8
0
  6
Continuous
 62
     8
370
    25
100
AcDbLine
 10
173.945837164
 20
120.8539441833
 30
0.0
 11
92.5094281351
 21
73.8417059346
 31
0.0
  0
LINE
  5
207
330
1F
100
AcDbEntity
  8
0
  6
Continuous
 62
     8
370
    25
100
AcDbLine
 10
89.1092005773
 20
71.8787963472
 30
0.0
 11
58.9640489134
 21
54.4763707127
 31
0.0
  0
LINE
  5
208
330
1F
100
AcDbEntity
  8
0
  6
Continuous
 62
     8
370
    25
100
AcDbLine
 10
55.5638213555
 20
52.5134611252
 30
0.0
 11
32.5244809267
 21
39.2131330011
 31
0.0
  0
INSERT
  5
20C
330
1F
100
AcDbEntity
  8
0
  6
Continuous
 62
     7
100
AcDbBlockReference
  2
SW_BROKEN_VIEW_0
 10
0.0
 20
0.0
 30
0.0
  0
LINE
  5
20D
330
1F
100
AcDbEntity
  8
0
  6
Continuous
 62
     7
370
    25
100
AcDbLine
 10
195.3464390381
 20
234.0849367899
 30
0.0
 11
166.057595764
 21
235.5493787943
 31
0.0
  0
LINE
  5
20E
330
1F
100
AcDbEntity
  8
0
  6
Continuous
 62
     7
370
    25
100
AcDbLine
 10
195.3089775189
 20
210.5868102551
 30
0.0
 11
195.3089775189
 21
232.5849356164
 31
0.0
  0
SPLINE
  5
20F
330
1F
100
AcDbEntity
  8
0
  6
Continuous
 62
     7
370
    25
100
AcDbSpline
210
0.0
220
0.0
230
1.0
 70
     8
 71
     3
 72
    23
 73
    19
 74
     0
 42
0.000000001
 43
0.00000001
 40
0.0
 40
0.0
 40
0.0
 40
0.0
 40
0.0050570047787552
 40
0.0195327186338148
 40
0.0434137535540212
 40
0.0764908389640536
 40
0.1184520954381991
 40
0.1688964364132949
 40
0.2273403874955935
 40
0.293221517953588
 40
0.3659064185973441
 40
0.4446961676643681
 40
0.5288317850380658
 40
0.6175033812899163
 40
0.7098580703905694
 40
0.805006211077783
 40
0.9020312553402052
 40
0.9999999999999999
 40
0.9999999999999999
 40
0.9999999999999999
 40
0.9999999999999999
 10
195.3464390381493
 20
234.0849367898659
 30
0.0
 10
195.3471626584583
 20
234.0825045098372
 30
0.0
 10
195.3499576472928
 20
234.0731098101053
 30
0.0
 10
195.3494084341636
 20
234.0510982933934
 30
0.0
 10
195.350597825229
 20
234.0155291568453
 30
0.0
 10
195.3500637259796
 20
233.9659638598964
 30
0.0
 10
195.3493262099414
 20
233.9032172511021
 30
0.0
 10
195.3478378708938
 20
233.8277490306896
 30
0.0
 10
195.3457601757194
 20
233.7403381063188
 30
0.0
 10
195.3431642260055
 20
233.6418047436293
 30
0.0
 10
195.3400677916563
 20
233.5331035800812
 30
0.0
 10
195.336482873692
 20
233.4152794867139
 30
0.0
 10
195.3325256419477
 20
233.2894649412823
 30
0.0
 10
195.3282513058267
 20
233.1568703095944
 30
0.0
 10
195.3236643168023
 20
233.0187732888692
 30
0.0
 10
195.3188707381406
 20
232.8765015301186
 30
0.0
 10
195.3139784689151
 20
232.7314227250825
 30
0.0
 10
195.3106498719844
 20
232.6339219423169
 30
0.0
 10
195.308977518908
 20
232.5849356164258
 30
0.0
  0
LINE
  5
210
330
1F
100
AcDbEntity
  8
0
  6
Continuous
 62
     7
370
    25
100
AcDbLine
 10
195.3089775189
 20
209.086809078
 30
0.0
 11
163.9978231534
 21
209.086809078
 31
0.0
  0
LINE
  5
211
330
1F
100
AcDbEntity
  8
0
  6
Continuous
 62
     7
370
    25
100
AcDbLine
 10
195.3089775189
 20
210.5868102551
 30
0.0
 11
195.3089775189
 21
209.086809078
 31
0.0
  0
SPLINE
  5
212
330
1F
100
AcDbEntity
  8
0
  6
HIDDEN
 62
     7
370
    18
100
AcDbSpline
210
0.0
220
0.0
230
1.0
 70
     8
 71
     3
 72
    23
 73
    19
 74
     0
 42
0.000000001
 43
0.00000001
 40
0.0
 40
0.0
 40
0.0
 40
0.0
 40
0.0979683778423151
 40
0.1949927366566136
 40
0.2901405848690818
 40
0.3824950137937091
 40
0.4711658945173261
 40
0.5553010578486773
 40
0.6340907205191972
 40
0.7067750912686133
 40
0.7726557633013467
 40
0.8310999989569254
 40
0.8815436953454271
 40
0.9235047738052525
 40
0.9565824620743058
 40
0.9804625069704981
 40
0.9949382397815695
 40
0.9999999999999999
 40
0.9999999999999999
 40
0.9999999999999999
 40
0.9999999999999999
 10
195.2340842827477
 20
232.5886809301596
 30
0.0
 10
195.237313773719
 20
232.6375892752165
 30
0.0
 10
195.243741636427
 20
232.7349346866444
 30
0.0
 10
195.253289990038
 20
232.8797814220039
 30
0.0
 10
195.2627386286312
 20
233.0218198851924
 30
0.0
 10
195.2719792486348
 20
233.1596835666397
 30
0.0
 10
195.2809051215781
 20
233.292046203219
 30
0.0
 10
195.2895111881633
 20
233.4176282705472
 30
0.0
 10
195.2977395187052
 20
233.5352192396313
 30
0.0
 10
195.3054773735309
 20
233.6436886204262
 30
0.0
 10
195.3126939081147
 20
233.7419917936802
 30
0.0
 10
195.3194177879554
 20
233.8291681992038
 30
0.0
 10
195.3254155240031
 20
233.9044128098838
 30
0.0
 10
195.330963558358
 20
233.9669172208645
 30
0.0
 10
195.3353486592001
 20
234.0162934884044
 30
0.0
 10
195.3401167427479
 20
234.0515575709797
 30
0.0
 10
195.3417161279928
 20
234.0735303568083
 30
0.0
 10
195.3454672103258
 20
234.0825897011757
 30
0.0
 10
195.3464390381493
 20
234.0849367898659
 30
0.0
  0
SPLINE
  5
213
330
1F
100
AcDbEntity
  8
0
  6
HIDDEN
 62
     7
370
    18
100
AcDbSpline
210
0.0
220
0.0
230
1.0
 70
     8
 71
     3
 72
    31
 73
    27
 74
     0
 42
0.000000001
 43
0.00000001
 40
0.0
 40
0.0
 40
0.0
 40
0.0
 40
0.0650063402750459
 40
0.1289026062188372
 40
0.1905976286058965
 40
0.249041104226304
 40
0.3032358693381264
 40
0.3522574231304147
 40
0.395274653807047
 40
0.4315614180008323
 40
0.4605083263458392
 40
0.4816549977519841
 40
0.4947240835174673
 40
0.4999966938912707
 40
0.505274519558648
 40
0.518342572284902
 40
0.5394904250759139
 40
0.5684378163904156
 40
0.6047231919549307
 40
0.6477400610526188
 40
0.696762294468864
 40
0.750956447682493
 40
0.8094000287976304
 40
0.8710966499053682
 40
0.9349933944976317
 40
1.0
 40
1.0
 40
1.0
 40
1.0
 10
195.2340842827477
 20
232.5886809301596
 30
0.0
 10
195.2362072444054
 20
232.6103564228501
 30
0.0
 10
195.2404169151762
 20
232.6533372688269
 30
0.0
 10
195.2466926395848
 20
232.7168846242588
 30
0.0
 10
195.2528369240216
 20
232.7782348439367
 30
0.0
 10
195.2588414961757
 20
232.8363344772783
 30
0.0
 10
195.264628086042
 20
232.8901801953938
 30
0.0
 10
195.2701545019533
 20
232.9388792098076
 30
0.0
 10
195.27530739215
 20
232.9815066012685
 30
0.0
 10
195.2803058745053
 20
233.0175953655521
 30
0.0
 10
195.2843823013382
 20
233.0458049222391
 30
0.0
 10
195.2891553938857
 20
233.0675180753613
 30
0.0
 10
195.2910263395758
 20
233.07863301265
 30
0.0
 10
195.2966012747354
 20
233.0884283609958
 30
0.0
 10
195.301192703243
 20
233.0781299892628
 30
0.0
 10
195.301917241221
 20
233.0668764633161
 30
0.0
 10
195.304538379876
 20
233.0448005395926
 30
0.0
 10
195.3057622499548
 20
233.0163225803939
 30
0.0
 10
195.3071390223619
 20
232.9799162806009
 30
0.0
 10
195.3079792889758
 20
232.936986983497
 30
0.0
 10
195.3086798460184
 20
232.8879805566113
 30
0.0
 10
195.3090031309876
 20
232.8338255656872
 30
0.0
 10
195.3092373379787
 20
232.7754166385265
 30
0.0
 10
195.309181422725
 20
232.7137587148306
 30
0.0
 10
195.3091489452022
 20
232.6499014706563
 30
0.0
 10
195.309034988064
 20
232.6067148471213
 30
0.0
 10
195.308977518908
 20
232.5849356164258
 30
0.0
  0
LINE
  5
214
330
1F
100
AcDbEntity
  8
0
  6
HIDDEN
 62
     7
370
    18
100
AcDbLine
 10
195.3089775189
 20
210.0868092419
 30
0.0
 11
163.6760772809
 21
210.0868092419
 31
0.0
  0
LINE
  5
215
330
1F
100
AcDbEntity
  8
0
  6
HIDDEN
 62
     7
370
    18
100
AcDbLine
 10
194.809609805
 20
224.0992856712
 30
0.0
 11
195.2340842827
 21
232.5886809302
 31
0.0
  0
LINE
  5
216
330
1F
100
AcDbEntity
  8
0
  6
HIDDEN
 62
     7
370
    18
100
AcDbLine
 10
164.4494326457
 20
224.1154208348
 30
0.0
 11
194.7347016677
 21
222.6011573837
 31
0.0
  0
LWPOLYLINE
  5
217
330
1F
100
AcDbEntity
  8
0
  6
HIDDEN
 62
     7
370
    18
100
AcDbPolyline
 90
       28
 70
   128
 43
0.0
 10
194.809609805
 20
224.0992856712
 10
194.8052437647
 20
224.0121772082
 10
194.8009075268
 20
223.9253639744
 10
194.7966010913
 20
223.8391384051
 10
194.792324458
 20
223.753793867
 10
194.7881223305
 20
223.6696181388
 10
194.7839798077
 20
223.586896205
 10
194.779941593
 20
223.5059074626
 10
194.7759927853
 20
223.426927583
 10
194.7721482857
 20
223.3502219931
 10
194.7684378966
 20
223.276050532
 10
194.7648765191
 20
223.2046655879
 10
194.761449252
 20
223.1363074423
 10
194.7582007989
 20
223.0712079943
 10
194.7551162585
 20
223.0095870362
 10
194.7522254332
 20
222.9516531841
 10
194.7495134219
 20
222.8976020158
 10
194.747024928
 20
222.8476179333
 10
194.7447301491
 20
222.8018685744
 10
194.7426588877
 20
222.7605094702
 10
194.7408260449
 20
222.723680319
 10
194.7392167195
 20
222.691505918
 10
194.7378458127
 20
222.6640943007
 10
194.7367133244
 20
222.6415395306
 10
194.7358341559
 20
222.6239170448
 10
194.7352083071
 20
222.6112873794
 10
194.7348208769
 20
222.6036924438
 10
194.7347016677
 20
222.6011573837
  0
LINE
  5
218
330
1F
100
AcDbEntity
  8
0
  6
HIDDEN
 62
     7
370
    18
100
AcDbLine
 10
165.543431197
 20
220.7152105437
 30
0.0
 11
194.5678384646
 21
219.2639901803
 31
0.0
  0
LINE
  5
219
330
1F
100
AcDbEntity
  8
0
  6
HIDDEN
 62
     7
370
    18
100
AcDbLine
 10
194.5678384646
 20
219.2639901803
 30
0.0
 11
194.6954073056
 21
221.8153511674
 31
0.0
  0
LINE
  5
21A
330
1F
100
AcDbEntity
  8
0
  6
HIDDEN
 62
     7
370
    18
100
AcDbLine
 10
194.5391984328
 20
218.6911299394
 30
0.0
 11
194.5678384646
 21
219.2639901803
 31
0.0
  0
LINE
  5
21B
330
1F
100
AcDbEntity
  8
0
  6
HIDDEN
 62
     7
370
    18
100
AcDbLine
 10
165.7312305316
 20
220.1315283344
 30
0.0
 11
194.5391984328
 21
218.6911299394
 31
0.0
  0
LWPOLYLINE
  5
21C
330
1F
100
AcDbEntity
  8
0
  6
HIDDEN
 62
     7
370
    18
100
AcDbPolyline
 90
       23
 70
   128
 43
0.0
 10
194.6954073056
 20
221.8153511674
 10
194.6975083693
 20
221.857256958
 10
194.6997137412
 20
221.9015664921
 10
194.7020383223
 20
221.9478420482
 10
194.7044225081
 20
221.9956310035
 10
194.7068662985
 20
222.04446304
 10
194.7093398913
 20
222.0938585267
 10
194.7118134841
 20
222.1433313132
 10
194.7142572745
 20
222.1923961804
 10
194.7166712626
 20
222.2405697719
 10
194.7190107449
 20
222.2873808385
 10
194.7212608203
 20
222.3323674441
 10
194.7233916863
 20
222.3750890733
 10
194.7254033431
 20
222.4151247681
 10
194.7272510871
 20
222.4520815105
 10
194.7289200171
 20
222.4855960847
 10
194.7304101332
 20
222.5153397338
 10
194.7316916331
 20
222.5410190911
 10
194.7327645167
 20
222.5623826996
 10
194.7335989817
 20
222.5792210118
 10
194.7342099293
 20
222.5913682521
 10
194.7345824584
 20
222.5987042801
 10
194.7347016677
 20
222.6011573837
  0
LINE
  5
21D
330
1F
100
AcDbEntity
  8
0
  6
HIDDEN
 62
     7
370
    18
100
AcDbLine
 10
195.2964903458
 20
233.0861844855
 30
0.0
 11
166.3850040778
 21
234.5317583857
 31
0.0
  0
LINE
  5
21E
330
1F
100
AcDbEntity
  8
0
  6
HIDDEN
 62
     7
370
    18
100
AcDbLine
 10
163.9583052739
 20
225.641851084
 30
0.0
 11
194.809609805
 21
224.0992856712
 31
0.0
  0
LINE
  5
21F
330
1F
100
AcDbEntity
  8
0
  6
Continuous
 62
     7
370
    25
100
AcDbLine
 10
155.6886742724
 20
249.052520612
 30
0.0
 11
131.2067518843
 21
250.2766156138
 31
0.0
  0
LINE
  5
220
330
1F
100
AcDbEntity
  8
0
  6
Continuous
 62
     7
370
    25
100
AcDbLine
 10
154.3570245517
 20
209.086809078
 30
0.0
 11
129.9164752377
 21
209.086809078
 31
0.0
  0
LINE
  5
221
330
1F
100
AcDbEntity
  8
0
  6
HIDDEN
 62
     7
370
    18
100
AcDbLine
 10
137.043641032
 20
228.600335078
 30
0.0
 11
136.3365362299
 21
229.3074417428
 31
0.0
  0
LINE
  5
222
330
1F
100
AcDbEntity
  8
0
  6
HIDDEN
 62
     7
370
    18
100
AcDbLine
 10
136.3365362299
 20
229.3074417428
 30
0.0
 11
140.5791724933
 21
233.5500823718
 31
0.0
  0
LINE
  5
223
330
1F
100
AcDbEntity
  8
0
  6
HIDDEN
 62
     7
370
    18
100
AcDbLine
 10
137.043641032
 20
228.600335078
 30
0.0
 11
141.286284746
 21
232.8429755324
 31
0.0
  0
ARC
  5
224
330
1F
100
AcDbEntity
  8
0
  6
HIDDEN
 62
     7
370
    18
100
AcDbCircle
 10
142.3469438118
 20
231.7823184256
 30
0.0
 40
1.499997050654188
100
AcDbArc
 50
44.9999470848
 51
135.0000529152
  0
ARC
  5
225
330
1F
100
AcDbEntity
  8
0
  6
HIDDEN
 62
     7
370
    18
100
AcDbCircle
 10
142.3469419492
 20
231.7823093445
 30
0.0
 40
2.500006065005251
100
AcDbArc
 50
45.0000578756
 51
134.9999421244
  0
LINE
  5
226
330
1F
100
AcDbEntity
  8
0
  6
HIDDEN
 62
     7
370
    18
100
AcDbLine
 10
144.1147114051
 20
233.5500823718
 30
0.0
 11
148.3573513938
 21
229.3074417428
 31
0.0
  0
LINE
  5
227
330
1F
100
AcDbEntity
  8
0
  6
HIDDEN
 62
     7
370
    18
100
AcDbLine
 10
148.3573513938
 20
229.3074417428
 30
0.0
 11
147.6502428663
 21
228.600335078
 31
0.0
  0
LINE
  5
228
330
1F
100
AcDbEntity
  8
0
  6
HIDDEN
 62
     7
370
    18
100
AcDbLine
 10
143.4076028777
 20
232.8429755324
 30
0.0
 11
147.6502428663
 21
228.600335078
 31
0.0
  0
LINE
  5
229
330
1F
100
AcDbEntity
  8
0
  6
HIDDEN
 62
     7
370
    18
100
AcDbLine
 10
154.1484120203
 20
210.0868092419
 30
0.0
 11
129.7143111838
 21
210.0868092419
 31
0.0
  0
LINE
  5
22A
330
1F
100
AcDbEntity
  8
0
  6
HIDDEN
 62
     7
370
    18
100
AcDbLine
 10
128.7005404843
 20
238.8875612558
 30
0.0
 11
153.2306047989
 21
237.6610580866
 31
0.0
  0
LINE
  5
22B
330
1F
100
AcDbEntity
  8
0
  6
HIDDEN
 62
     7
370
    18
100
AcDbLine
 10
129.3837810767
 20
235.5078889557
 30
0.0
 11
153.9358655823
 21
234.2802848905
 31
0.0
  0
LINE
  5
22C
330
1F
100
AcDbEntity
  8
0
  6
HIDDEN
 62
     7
370
    18
100
AcDbLine
 10
129.5010681165
 20
234.9277322099
 30
0.0
 11
154.0569300664
 21
233.6999391298
 31
0.0
  0
LINE
  5
22D
330
1F
100
AcDbEntity
  8
0
  6
HIDDEN
 62
     7
370
    18
100
AcDbLine
 10
155.8997454954
 20
248.0407168658
 30
0.0
 11
131.4112405194
 21
249.2651424871
 31
0.0
  0
LINE
  5
22E
330
1F
100
AcDbEntity
  8
0
  6
HIDDEN
 62
     7
370
    18
100
AcDbLine
 10
141.286284746
 20
232.8429755324
 30
0.0
 11
140.5791724933
 21
233.5500823718
 31
0.0
  0
LINE
  5
22F
330
1F
100
AcDbEntity
  8
0
  6
HIDDEN
 62
     7
370
    18
100
AcDbLine
 10
144.1147114051
 20
233.5500823718
 30
0.0
 11
143.4076028777
 21
232.8429755324
 31
0.0
  0
LINE
  5
230
330
1F
100
AcDbEntity
  8
0
  6
HIDDEN
 62
     7
370
    18
100
AcDbLine
 10
129.3255398882
 20
240.3581852593
 30
0.0
 11
153.4953611804
 21
239.1496941016
 31
0.0
  0
LINE
  5
231
330
1F
100
AcDbEntity
  8
0
  6
HIDDEN
 62
     7
370
    18
100
AcDbLine
 10
129.3255398882
 20
240.3581852593
 30
0.0
 11
153.4953611804
 21
239.1496945673
 31
0.0
  0
LINE
  5
232
330
1F
100
AcDbEntity
  8
0
  6
Continuous
 62
     7
370
    25
100
AcDbLine
 10
121.1338817815
 20
255.2399390877
 30
0.0
 11
44.2339360455
 21
259.084936002
 31
0.0
  0
SPLINE
  5
233
330
1F
100
AcDbEntity
  8
0
  6
Continuous
 62
     7
370
    25
100
AcDbSpline
210
0.0
220
0.0
230
1.0
 70
     8
 71
     3
 72
    39
 73
    35
 74
     0
 42
0.000000001
 43
0.00000001
 40
0.0
 40
0.0
 40
0.0
 40
0.0
 40
0.048984760461784
 40
0.0974973746091982
 40
0.1450706621685376
 40
0.1912483239791415
 40
0.2355839592192411
 40
0.2776512227591987
 40
0.3170464112339978
 40
0.3533885237217174
 40
0.3863294666461807
 40
0.4155508598086411
 40
0.4407729535090956
 40
0.4617535056993379
 40
0.4782922134755846
 40
0.4902325514493636
 40
0.4974702253733518
 40
0.4999995526790268
 40
0.5025303800431501
 40
0.5097670681578769
 40
0.521707864239687
 40
0.5382462337613633
 40
0.5592266310324115
 40
0.5844492142964602
 40
0.6136710147372733
 40
0.6466110220321292
 40
0.6829537494240484
 40
0.7223484936115575
 40
0.7644164453770456
 40
0.8087520018353843
 40
0.8549291710721366
 40
0.9025030736787896
 40
0.9510154439575954
 40
1.0
 40
1.0
 40
1.0
 40
1.0
 10
44.19647452628917
 20
257.5849348248016
 30
0.0
 10
44.19814468899311
 20
257.6339217289254
 30
0.0
 10
44.20146891630927
 20
257.7314233701965
 30
0.0
 10
44.20639338362518
 20
257.8765011310488
 30
0.0
 10
44.2111547895168
 20
258.0187739219502
 30
0.0
 10
44.2157499352756
 20
258.1568704089804
 30
0.0
 10
44.22002227978027
 20
258.2894648788287
 30
0.0
 10
44.22397978398915
 20
258.4152798388927
 30
0.0
 10
44.22756558882182
 20
258.5331018527499
 30
0.0
 10
44.23065845268882
 20
258.6418095550296
 30
0.0
 10
44.23326619173032
 20
258.7403235312307
 30
0.0
 10
44.23530690234433
 20
258.8277938076281
 30
0.0
 10
44.23683437451818
 20
258.9030854522276
 30
0.0
 10
44.23754358155441
 20
258.9663286979365
 30
0.0
 10
44.2380733120665
 20
259.0145980629505
 30
0.0
 10
44.23696233089136
 20
259.0531407506264
 30
0.0
 10
44.23731945274216
 20
259.0698511428529
 30
0.0
 10
44.2341304927374
 20
259.0887898205263
 30
0.0
 10
44.22904675451372
 20
259.0702660805571
 30
0.0
 10
44.22774544677138
 20
259.0536015031352
 30
0.0
 10
44.222782450038
 20
259.0153640075334
 30
0.0
 10
44.21850513415204
 20
258.9672814936821
 30
0.0
 10
44.212921580005
 20
258.9042813260954
 30
0.0
 10
44.20690786430015
 20
258.8292139989381
 30
0.0
 10
44.20021160940718
 20
258.7419765298803
 30
0.0
 10
44.19299313332915
 20
258.6436926923798
 30
0.0
 10
44.18522548926187
 20
258.5352195335403
 30
0.0
 10
44.17703402523149
 20
258.417627076248
 30
0.0
 10
44.16840052026554
 20
258.2920461366514
 30
0.0
 10
44.15945305422683
 20
258.1596848086618
 30
0.0
 10
44.15024091608198
 20
258.021819289485
 30
0.0
 10
44.1407903824517
 20
257.879781013856
 30
0.0
 10
44.13121905809528
 20
257.7349354243646
 30
0.0
 10
44.12479431719594
 20
257.637589362624
 30
0.0
 10
44.12156638896768
 20
257.5886806041968
 30
0.0
  0
SPLINE
  5
234
330
1F
100
AcDbEntity
  8
0
  6
Continuous
 62
     7
370
    25
100
AcDbSpline
210
0.0
220
0.0
230
1.0
 70
     8
 71
     3
 72
    31
 73
    27
 74
     0
 42
0.000000001
 43
0.00000001
 40
0.0
 40
0.0
 40
0.0
 40
0.0
 40
0.0650070269447393
 40
0.128905759465179
 40
0.1906009708556537
 40
0.2490459630890585
 40
0.3032408528108922
 40
0.3522627894673989
 40
0.3952791694568625
 40
0.4315657082840578
 40
0.4605131791491414
 40
0.4816588849539226
 40
0.4947280293538838
 40
0.5000052056317341
 40
0.5052686983456958
 40
0.5183405445618736
 40
0.5394875529784682
 40
0.5684347261098897
 40
0.6047203593501003
 40
0.6477378135204297
 40
0.696758471178659
 40
0.7509548997491532
 40
0.8093990246385029
 40
0.8710952751836084
 40
0.9349907204597164
 40
1.0
 40
1.0
 40
1.0
 40
1.0
 10
44.19647452628917
 20
257.5849348248016
 30
0.0
 10
44.19652101428678
 20
257.6067140997881
 30
0.0
 10
44.19661319771555
 20
257.6499013383788
 30
0.0
 10
44.19671837516534
 20
257.713758537659
 30
0.0
 10
44.19669795147327
 20
257.7754167489374
 30
0.0
 10
44.1965171058123
 20
257.8338258380772
 30
0.0
 10
44.19614592041797
 20
257.8879807102035
 30
0.0
 10
44.195492321963
 20
257.9369877143779
 30
0.0
 10
44.19460502486888
 20
257.9799154607094
 30
0.0
 10
44.19327465229811
 20
258.0163242490765
 30
0.0
 10
44.19200854443446
 20
258.0447979571871
 30
0.0
 10
44.18941625060003
 20
258.0668785664075
 30
0.0
 10
44.18869232493529
 20
258.0781266892584
 30
0.0
 10
44.18409668488252
 20
258.0884277539568
 30
0.0
 10
44.17854719150474
 20
258.078621801582
 30
0.0
 10
44.17663814239847
 20
258.0675261463949
 30
0.0
 10
44.1718864734509
 20
258.0458024463754
 30
0.0
 10
44.16779629525096
 20
258.0175978976385
 30
0.0
 10
44.16282677362571
 20
257.9815045340998
 30
0.0
 10
44.15766395459114
 20
257.9388796977337
 30
0.0
 10
44.15214088434469
 20
257.8901800354892
 30
0.0
 10
44.14635197940282
 20
257.8363344272727
 30
0.0
 10
44.14035420781361
 20
257.7782332016284
 30
0.0
 10
44.13418310698206
 20
257.7168856489795
 30
0.0
 10
44.12791907897679
 20
257.6533363330361
 30
0.0
 10
44.12369611550293
 20
257.6103563071143
 30
0.0
 10
44.12156638896769
 20
257.5886806041967
 30
0.0
  0
LINE
  5
235
330
1F
100
AcDbEntity
  8
0
  6
Continuous
 62
     7
370
    25
100
AcDbLine
 10
44.1964745263
 20
257.5849348248
 30
0.0
 11
44.1964745263
 21
210.5868102551
 31
0.0
  0
LINE
  5
236
330
1F
100
AcDbEntity
  8
0
  6
Continuous
 62
     7
370
    25
100
AcDbLine
 10
44.1964745263
 20
209.086809078
 30
0.0
 11
44.1964745263
 21
210.5868102551
 31
0.0
  0
LINE
  5
237
330
1F
100
AcDbEntity
  8
0
  6
Continuous
 62
     7
370
    25
100
AcDbLine
 10
119.9879526833
 20
209.086809078
 30
0.0
 11
44.1964745263
 21
209.086809078
 31
0.0
  0
LINE
  5
238
330
1F
100
AcDbEntity
  8
0
  6
Continuous
 62
     7
370
    25
100
AcDbLine
 10
44.121566389
 20
257.5886806042
 30
0.0
 11
43.6971068124
 21
249.0992860437
 31
0.0
  0
LINE
  5
239
330
1F
100
AcDbEntity
  8
0
  6
Continuous
 62
     7
370
    25
100
AcDbLine
 10
43.6221837739
 20
247.6011577562
 30
0.0
 11
44.1964745263
 21
247.5724432186
 31
0.0
  0
LWPOLYLINE
  5
23A
330
1F
100
AcDbEntity
  8
0
  6
Continuous
 62
     7
370
    25
100
AcDbPolyline
 90
       28
 70
   128
 43
0.0
 10
43.6221837739
 20
247.6011577562
 10
43.6223327855
 20
247.603691885
 10
43.6226904134
 20
247.6112877519
 10
43.6233460645
 20
247.6239174173
 10
43.6242103318
 20
247.6415399031
 10
43.6253428201
 20
247.6640946732
 10
43.6267137269
 20
247.6915053592
 10
43.6283230523
 20
247.7236806915
 10
43.6301707963
 20
247.7605098427
 10
43.6322271565
 20
247.8018689469
 10
43.6345219353
 20
247.8476183058
 10
43.6370253304
 20
247.8976023884
 10
43.6397075394
 20
247.9516526253
 10
43.642628167
 20
248.0095864774
 10
43.6456978062
 20
248.0712074355
 10
43.6489462594
 20
248.1363078148
 10
43.6523735265
 20
248.2046659605
 10
43.6559498051
 20
248.2760509045
 10
43.6596452931
 20
248.3502214343
 10
43.6634897927
 20
248.4269270242
 10
43.6674236993
 20
248.5059078352
 10
43.6714768151
 20
248.5868956463
 10
43.6756193379
 20
248.66961758
 10
43.6798214654
 20
248.7537942396
 10
43.6840831975
 20
248.8391387777
 10
43.6884045342
 20
248.9253643469
 10
43.6927556733
 20
249.0121775807
 10
43.6971068124
 20
249.0992860437
  0
LINE
  5
23B
330
1F
100
AcDbEntity
  8
0
  6
Continuous
 62
     7
370
    25
100
AcDbLine
 10
43.4553503732
 20
244.2639905528
 30
0.0
 11
44.1964745263
 21
244.2269332276
 31
0.0
  0
LINE
  5
23C
330
1F
100
AcDbEntity
  8
0
  6
Continuous
 62
     7
370
    25
100
AcDbLine
 10
43.582904313
 20
246.8153506086
 30
0.0
 11
43.4553503732
 21
244.2639905528
 31
0.0
  0
LINE
  5
23D
330
1F
100
AcDbEntity
  8
0
  6
Continuous
 62
     7
370
    25
100
AcDbLine
 10
43.426680539
 20
243.6911293806
 30
0.0
 11
44.1964745263
 21
243.6526406125
 31
0.0
  0
LINE
  5
23E
330
1F
100
AcDbEntity
  8
0
  6
Continuous
 62
     7
370
    25
100
AcDbLine
 10
43.426680539
 20
243.6911293806
 30
0.0
 11
43.4553503732
 21
244.2639905528
 31
0.0
  0
LWPOLYLINE
  5
23F
330
1F
100
AcDbEntity
  8
0
  6
Continuous
 62
     7
370
    25
100
AcDbPolyline
 90
       23
 70
   128
 43
0.0
 10
43.6221837739
 20
247.6011577562
 10
43.6220645646
 20
247.5987037213
 10
43.6217069367
 20
247.5913676933
 10
43.6211108903
 20
247.5792213843
 10
43.6202466229
 20
247.5623830722
 10
43.6191737393
 20
247.5410194636
 10
43.6178922395
 20
247.515339175
 10
43.6164319257
 20
247.4855955259
 10
43.6147331933
 20
247.4520809517
 10
43.6128854493
 20
247.4151242093
 10
43.6108886937
 20
247.3750885145
 10
43.6087429265
 20
247.3323678167
 10
43.6065077523
 20
247.287381211
 10
43.6041533688
 20
247.2405701445
 10
43.601769183
 20
247.1923956216
 10
43.5992955903
 20
247.1433316858
 10
43.5968219975
 20
247.093857968
 10
43.5943484048
 20
247.0444634126
 10
43.5919046143
 20
246.995631376
 10
43.5895204285
 20
246.9478424207
 10
43.5872256497
 20
246.9015659333
 10
43.5849904755
 20
246.8572573305
 10
43.582904313
 20
246.8153506086
  0
LINE
  5
240
330
1F
100
AcDbEntity
  8
0
  6
PHANTOM
 62
     8
370
    18
100
AcDbLine
 10
43.6971068124
 20
249.0992860437
 30
0.0
 11
44.1964745263
 21
249.0743172855
 31
0.0
  0
LINE
  5
241
330
1F
100
AcDbEntity
  8
0
  6
HIDDEN
 62
     7
370
    18
100
AcDbLine
 10
101.3931810597
 20
234.8425370326
 30
0.0
 11
100.6860762576
 21
235.5496437556
 31
0.0
  0
LINE
  5
242
330
1F
100
AcDbEntity
  8
0
  6
HIDDEN
 62
     7
370
    18
100
AcDbLine
 10
100.6860762576
 20
235.5496437556
 30
0.0
 11
104.9287050704
 21
239.7922843264
 31
0.0
  0
LINE
  5
243
330
1F
100
AcDbEntity
  8
0
  6
HIDDEN
 62
     7
370
    18
100
AcDbLine
 10
101.3931810597
 20
234.8425370326
 30
0.0
 11
105.6358247737
 21
239.0851776616
 31
0.0
  0
ARC
  5
244
330
1F
100
AcDbEntity
  8
0
  6
HIDDEN
 62
     7
370
    18
100
AcDbCircle
 10
106.6964745263
 20
238.0245110262
 30
0.0
 40
2.500006258010403
100
AcDbArc
 50
45.000062299
 51
134.999937701
  0
ARC
  5
245
330
1F
100
AcDbEntity
  8
0
  6
HIDDEN
 62
     7
370
    18
100
AcDbCircle
 10
106.6964819769
 20
238.0245251887
 30
0.0
 40
1.499992456931326
100
AcDbArc
 50
44.999872235
 51
135.000127765
  0
LINE
  5
246
330
1F
100
AcDbEntity
  8
0
  6
HIDDEN
 62
     7
370
    18
100
AcDbLine
 10
108.4642439822
 20
239.7922843264
 30
0.0
 11
112.7068876962
 21
235.5496437556
 31
0.0
  0
LINE
  5
247
330
1F
100
AcDbEntity
  8
0
  6
HIDDEN
 62
     7
370
    18
100
AcDbLine
 10
112.7068876962
 20
235.5496437556
 30
0.0
 11
111.999782894
 21
234.8425370326
 31
0.0
  0
LINE
  5
248
330
1F
100
AcDbEntity
  8
0
  6
HIDDEN
 62
     7
370
    18
100
AcDbLine
 10
107.7571391801
 20
239.0851776616
 30
0.0
 11
111.999782894
 21
234.8425370326
 31
0.0
  0
LINE
  5
249
330
1F
100
AcDbEntity
  8
0
  6
HIDDEN
 62
     7
370
    18
100
AcDbLine
 10
119.8083191851
 20
210.0868092419
 30
0.0
 11
44.1964745263
 21
210.0868092419
 31
0.0
  0
LINE
  5
24A
330
1F
100
AcDbEntity
  8
0
  6
HIDDEN
 62
     7
370
    18
100
AcDbLine
 10
44.1964745263
 20
247.5724432186
 30
0.0
 11
119.0760612229
 21
243.8284640701
 31
0.0
  0
LINE
  5
24B
330
1F
100
AcDbEntity
  8
0
  6
HIDDEN
 62
     7
370
    18
100
AcDbLine
 10
44.1964745263
 20
244.2269332276
 30
0.0
 11
119.0662562588
 21
240.4834444203
 31
0.0
  0
LINE
  5
24C
330
1F
100
AcDbEntity
  8
0
  6
HIDDEN
 62
     7
370
    18
100
AcDbLine
 10
44.1964745263
 20
243.6526406125
 30
0.0
 11
119.1703557709
 21
239.9039466434
 31
0.0
  0
LINE
  5
24D
330
1F
100
AcDbEntity
  8
0
  6
HIDDEN
 62
     7
370
    18
100
AcDbLine
 10
121.315392826
 20
254.2296142818
 30
0.0
 11
44.1839873532
 21
258.0861838103
 31
0.0
  0
LINE
  5
24E
330
1F
100
AcDbEntity
  8
0
  6
HIDDEN
 62
     7
370
    18
100
AcDbLine
 10
105.6358247737
 20
239.0851776616
 30
0.0
 11
104.9287050704
 21
239.7922843264
 31
0.0
  0
LINE
  5
24F
330
1F
100
AcDbEntity
  8
0
  6
HIDDEN
 62
     7
370
    18
100
AcDbLine
 10
108.4642439822
 20
239.7922843264
 30
0.0
 11
107.7571391801
 21
239.0851776616
 31
0.0
  0
LINE
  5
250
330
1F
100
AcDbEntity
  8
0
  6
HIDDEN
 62
     7
370
    18
100
AcDbLine
 10
44.1964745263
 20
249.0743172855
 30
0.0
 11
120.5064236859
 21
245.2588200138
 31
0.0
  0
LINE
  5
251
330
1F
100
AcDbEntity
  8
0
  6
HIDDEN
 62
     7
370
    18
100
AcDbLine
 10
43.6971068124
 20
249.0992860437
 30
0.0
 11
120.5064236859
 21
245.2588200138
 31
0.0
  0
POINT
  5
252
330
1F
100
AcDbEntity
  8
SLD-0
100
AcDbPoint
 10
-130.2098174598
 20
259.0849367898
 30
0.0
  0
POINT
  5
253
330
1F
100
AcDbEntity
  8
SLD-0
100
AcDbPoint
 10
369.7901825402
 20
234.0849367898
 30
0.0
  0
DIMENSION
  5
254
330
1F
100
AcDbEntity
  8
SLD-0
100
AcDbDimension
  2
_D
 10
205.3838872492
 20
209.0868094505
 30
0.0
 11
205.3838872492
 21
221.5858731202
 31
0.0
 70
   160
  1
<>
 71
     2
 42
-1.0
  3
SLDDIMSTYLE0
100
AcDbAlignedDimension
 13
195.3464340365
 23
234.0849367898
 33
0.0
 14
195.3089808238
 24
209.0868094505
 34
0.0
 50
90.0
100
AcDbRotatedDimension
  0
DIMENSION
  5
260
330
1F
100
AcDbEntity
  8
SLD-0
100
AcDbDimension
  2
_D_1
 10
33.4266938472
 20
209.0868094505
 30
0.0
 11
33.4266938472
 21
234.0858731202
 31
0.0
 70
   160
  1
<>
 71
     2
 42
-1.0
  3
SLDDIMSTYLE0
100
AcDbAlignedDimension
 13
44.2339310439
 23
259.0849367898
 33
0.0
 14
44.1964778312
 24
209.0868094505
 34
0.0
 50
90.0
100
AcDbRotatedDimension
  0
DIMENSION
  5
26A
330
1F
100
AcDbEntity
  8
SLD-0
100
AcDbDimension
  2
_D_2
 10
195.3089808238
 20
199.0868094505
 30
0.0
 11
119.7527293275
 21
199.0868094505
 31
0.0
 70
   160
  1
1000
 71
     2
 42
-1.0
  3
SLDDIMSTYLE0
100
AcDbAlignedDimension
 13
44.1964778312
 23
209.0868094505
 33
0.0
 14
195.3089808238
 24
209.0868094505
 34
0.0
100
AcDbRotatedDimension
  0
DIMENSION
  5
274
330
1F
100
AcDbEntity
  8
SLD-0
100
AcDbDimension
  2
_D_3
 10
106.6964778312
 20
268.7184077068
 30
0.0
 11
75.4464778312
 21
268.7184077068
 31
0.0
 70
   160
  1
<>
 71
     2
 42
-1.0
  3
SLDDIMSTYLE0
100
AcDbAlignedDimension
 13
44.1964778312
 23
257.5849356209
 33
0.0
 14
106.6964778312
 24
238.024517523
 34
0.0
100
AcDbRotatedDimension
  0
DIMENSION
  5
27E
330
1F
100
AcDbEntity
  8
SLD-0
100
AcDbDimension
  2
_D_4
 10
142.3469431669
 20
268.7184077068
 30
0.0
 11
124.521710499
 21
268.7184077068
 31
0.0
 70
   160
  1
250
 71
     2
 42
-1.0
  3
SLDDIMSTYLE1
100
AcDbAlignedDimension
 13
106.6964778312
 23
241.774517523
 33
0.0
 14
142.3469431669
 24
235.532315405
 34
0.0
100
AcDbRotatedDimension
  0
INSERT
  5
294
330
1F
100
AcDbEntity
  8
SLD-0
100
AcDbBlockReference
  2
SW_CENTERMARKSYMBOL_0
 10
142.3469419492
 20
231.7823153024
 30
0.0
  0
INSERT
  5
2A0
330
1F
100
AcDbEntity
  8
SLD-0
100
AcDbBlockReference
  2
SW_CENTERMARKSYMBOL_1
 10
106.6964745263
 20
238.0245176644
 30
0.0
  0
LINE
  5
2A1
330
1F
100
AcDbEntity
  8
0
  6
HIDDEN
 62
     7
370
    18
100
AcDbLine
 10
120.5583367436
 20
258.4437165049
 30
0.0
 11
122.5583367436
 21
247.3107397413
 31
0.0
  0
LINE
  5
2A2
330
1F
100
AcDbEntity
  8
0
  6
HIDDEN
 62
     7
370
    18
100
AcDbLine
 10
122.5583367436
 20
247.3107397413
 30
0.0
 11
118.5583367436
 21
243.3107397413
 31
0.0
  0
LINE
  5
2A3
330
1F
100
AcDbEntity
  8
0
  6
HIDDEN
 62
     7
370
    18
100
AcDbLine
 10
118.5583367436
 20
243.3107397413
 30
0.0
 11
122.5583367436
 21
221.0447862141
 31
0.0
  0
LINE
  5
2A4
330
1F
100
AcDbEntity
  8
0
  6
HIDDEN
 62
     7
370
    18
100
AcDbLine
 10
122.5583367436
 20
221.0447862141
 30
0.0
 11
118.5583367436
 21
217.0447862141
 31
0.0
  0
LINE
  5
2A5
330
1F
100
AcDbEntity
  8
0
  6
HIDDEN
 62
     7
370
    18
100
AcDbLine
 10
118.5583367436
 20
217.0447862141
 30
0.0
 11
120.5583367436
 21
205.9118094505
 31
0.0
  0
LINE
  5
2A6
330
1F
100
AcDbEntity
  8
0
  6
HIDDEN
 62
     7
370
    18
100
AcDbLine
 10
130.5583367436
 20
253.4840376537
 30
0.0
 11
132.5583367436
 21
243.5909806029
 31
0.0
  0
LINE
  5
2A7
330
1F
100
AcDbEntity
  8
0
  6
HIDDEN
 62
     7
370
    18
100
AcDbLine
 10
132.5583367436
 20
243.5909806029
 30
0.0
 11
128.5583367436
 21
239.5909806029
 31
0.0
  0
LINE
  5
2A8
330
1F
100
AcDbEntity
  8
0
  6
HIDDEN
 62
     7
370
    18
100
AcDbLine
 10
128.5583367436
 20
239.5909806029
 30
0.0
 11
132.5583367436
 21
219.8048665013
 31
0.0
  0
LINE
  5
2A9
330
1F
100
AcDbEntity
  8
0
  6
HIDDEN
 62
     7
370
    18
100
AcDbLine
 10
132.5583367436
 20
219.8048665013
 30
0.0
 11
128.5583367436
 21
215.8048665013
 31
0.0
  0
LINE
  5
2AA
330
1F
100
AcDbEntity
  8
0
  6
HIDDEN
 62
     7
370
    18
100
AcDbLine
 10
128.5583367436
 20
215.8048665013
 30
0.0
 11
130.5583367436
 21
205.9118094505
 31
0.0
  0
LINE
  5
2AB
330
1F
100
AcDbEntity
  8
0
  6
HIDDEN
 62
     7
370
    18
100
AcDbLine
 10
155.0193581326
 20
252.2609865842
 30
0.0
 11
157.0193581326
 21
242.6736923008
 31
0.0
  0
LINE
  5
2AC
330
1F
100
AcDbEntity
  8
0
  6
HIDDEN
 62
     7
370
    18
100
AcDbLine
 10
157.0193581326
 20
242.6736923008
 30
0.0
 11
153.0193581326
 21
238.6736923008
 31
0.0
  0
LINE
  5
2AD
330
1F
100
AcDbEntity
  8
0
  6
HIDDEN
 62
     7
370
    18
100
AcDbLine
 10
153.0193581326
 20
238.6736923008
 30
0.0
 11
157.0193581326
 21
219.4991037339
 31
0.0
  0
LINE
  5
2AE
330
1F
100
AcDbEntity
  8
0
  6
HIDDEN
 62
     7
370
    18
100
AcDbLine
 10
157.0193581326
 20
219.4991037339
 30
0.0
 11
153.0193581326
 21
215.4991037339
 31
0.0
  0
LINE
  5
2AF
330
1F
100
AcDbEntity
  8
0
  6
HIDDEN
 62
     7
370
    18
100
AcDbLine
 10
153.0193581326
 20
215.4991037339
 30
0.0
 11
155.0193581326
 21
205.9118094505
 31
0.0
  0
LINE
  5
2B0
330
1F
100
AcDbEntity
  8
0
  6
HIDDEN
 62
     7
370
    18
100
AcDbLine
 10
165.0193581326
 20
238.776290585
 30
0.0
 11
167.0193581326
 21
232.5601703014
 31
0.0
  0
LINE
  5
2B1
330
1F
100
AcDbEntity
  8
0
  6
HIDDEN
 62
     7
370
    18
100
AcDbLine
 10
167.0193581326
 20
232.5601703014
 30
0.0
 11
163.0193581326
 21
228.5601703014
 31
0.0
  0
LINE
  5
2B2
330
1F
100
AcDbEntity
  8
0
  6
HIDDEN
 62
     7
370
    18
100
AcDbLine
 10
163.0193581326
 20
228.5601703014
 30
0.0
 11
167.0193581326
 21
216.1279297341
 31
0.0
  0
LINE
  5
2B3
330
1F
100
AcDbEntity
  8
0
  6
HIDDEN
 62
     7
370
    18
100
AcDbLine
 10
167.0193581326
 20
216.1279297341
 30
0.0
 11
163.0193581326
 21
212.1279297341
 31
0.0
  0
LINE
  5
2B4
330
1F
100
AcDbEntity
  8
0
  6
HIDDEN
 62
     7
370
    18
100
AcDbLine
 10
163.0193581326
 20
212.1279297341
 30
0.0
 11
165.0193581326
 21
205.9118094505
 31
0.0
  0
LINE
  5
2B5
330
1F
100
AcDbEntity
  8
0
  6
Continuous
 62
     7
370
    25
100
AcDbLine
 10
388.810663435
 20
171.2322701784
 30
0.0
 11
255.8106583984
 21
171.2322701784
 31
0.0
  0
LINE
  5
2B6
330
1F
100
AcDbEntity
  8
0
  6
Continuous
 62
     7
370
    25
100
AcDbLine
 10
388.810663435
 20
158.7478656871
 30
0.0
 11
255.8106583984
 21
158.7478656871
 31
0.0
  0
LINE
  5
2B7
330
1F
100
AcDbEntity
  8
0
  6
Continuous
 62
     7
370
    25
100
AcDbLine
 10
272.3106620343
 20
134.3867975371
 30
0.0
 11
272.3106620343
 21
147.3839041861
 31
0.0
  0
LINE
  5
2B8
330
1F
100
AcDbEntity
  8
0
  6
Continuous
 62
     7
370
    25
100
AcDbLine
 10
272.3106620343
 20
158.7478656871
 30
0.0
 11
272.3106620343
 21
159.8683089102
 31
0.0
  0
LINE
  5
2B9
330
1F
100
AcDbEntity
  8
0
  6
Continuous
 62
     7
370
    25
100
AcDbLine
 10
272.3106620343
 20
171.2322701784
 30
0.0
 11
272.3106620343
 21
184.3867982822
 31
0.0
  0
LINE
  5
2BA
330
1F
100
AcDbEntity
  8
0
  6
Continuous
 62
     7
370
    25
100
AcDbLine
 10
372.3106616618
 20
184.3867982822
 30
0.0
 11
372.3106616618
 21
171.2322701784
 31
0.0
  0
LINE
  5
2BB
330
1F
100
AcDbEntity
  8
0
  6
Continuous
 62
     7
370
    25
100
AcDbLine
 10
372.3106616618
 20
159.8683089102
 30
0.0
 11
372.3106616618
 21
158.7478656871
 31
0.0
  0
LINE
  5
2BC
330
1F
100
AcDbEntity
  8
0
  6
Continuous
 62
     7
370
    25
100
AcDbLine
 10
372.3106616618
 20
147.3839041861
 30
0.0
 11
372.3106616618
 21
134.3867975371
 31
0.0
  0
LINE
  5
2BD
330
1F
100
AcDbEntity
  8
0
  6
Continuous
 62
     7
370
    25
100
AcDbLine
 10
255.8106583984
 20
159.8683089102
 30
0.0
 11
388.810663435
 21
159.8683089102
 31
0.0
  0
LINE
  5
2BE
330
1F
100
AcDbEntity
  8
0
  6
Continuous
 62
     7
370
    25
100
AcDbLine
 10
255.8106583984
 20
161.2825222397
 30
0.0
 11
388.810663435
 21
161.2825222397
 31
0.0
  0
LINE
  5
2BF
330
1F
100
AcDbEntity
  8
0
  6
Continuous
 62
     7
370
    25
100
AcDbLine
 10
255.8106583984
 20
147.3839041861
 30
0.0
 11
388.810663435
 21
147.3839041861
 31
0.0
  0
LINE
  5
2C0
330
1F
100
AcDbEntity
  8
0
  6
Continuous
 62
     7
370
    25
100
AcDbLine
 10
255.8106583984
 20
148.7981179813
 30
0.0
 11
388.810663435
 21
148.7981179813
 31
0.0
  0
LINE
  5
2C1
330
1F
100
AcDbEntity
  8
0
  6
Continuous
 62
     7
370
    25
100
AcDbLine
 10
268.1906921299
 20
177.5654937225
 30
0.0
 11
266.5523839624
 21
178.711216067
 31
0.0
  0
LINE
  5
2C2
330
1F
100
AcDbEntity
  8
0
  6
Continuous
 62
     7
370
    25
100
AcDbLine
 10
268.1906921299
 20
127.5654948401
 30
0.0
 11
268.1906921299
 21
147.3839041861
 31
0.0
  0
LINE
  5
2C3
330
1F
100
AcDbEntity
  8
0
  6
Continuous
 62
     7
370
    25
100
AcDbLine
 10
268.1906921299
 20
158.7478656871
 30
0.0
 11
268.1906921299
 21
159.8683089102
 31
0.0
  0
LINE
  5
2C4
330
1F
100
AcDbEntity
  8
0
  6
Continuous
 62
     7
370
    25
100
AcDbLine
 10
268.1906921299
 20
171.2322701784
 30
0.0
 11
268.1906921299
 21
177.5654937225
 31
0.0
  0
LINE
  5
2C5
330
1F
100
AcDbEntity
  8
0
  6
Continuous
 62
     7
370
    25
100
AcDbLine
 10
268.1906921299
 20
127.5654948401
 30
0.0
 11
266.5523839624
 21
128.7112153219
 31
0.0
  0
LINE
  5
2C6
330
1F
100
AcDbEntity
  8
0
  6
Continuous
 62
     7
370
    25
100
AcDbLine
 10
266.5523839624
 20
128.7112153219
 30
0.0
 11
266.5523839624
 21
147.3839041861
 31
0.0
  0
LINE
  5
2C7
330
1F
100
AcDbEntity
  8
0
  6
Continuous
 62
     7
370
    25
100
AcDbLine
 10
266.5523839624
 20
158.7478656871
 30
0.0
 11
266.5523839624
 21
159.8683089102
 31
0.0
  0
LINE
  5
2C8
330
1F
100
AcDbEntity
  8
0
  6
Continuous
 62
     7
370
    25
100
AcDbLine
 10
266.5523839624
 20
171.2322701784
 30
0.0
 11
266.5523839624
 21
178.711216067
 31
0.0
  0
LINE
  5
2C9
330
1F
100
AcDbEntity
  8
0
  6
Continuous
 62
     7
370
    25
100
AcDbLine
 10
268.1906921299
 20
177.5654937225
 30
0.0
 11
271.7681182058
 21
182.6682156967
 31
0.0
  0
LINE
  5
2CA
330
1F
100
AcDbEntity
  8
0
  6
Continuous
 62
     7
370
    25
100
AcDbLine
 10
271.7681182058
 20
132.6682149517
 30
0.0
 11
268.1906921299
 21
127.5654948401
 31
0.0
  0
LINE
  5
2CB
330
1F
100
AcDbEntity
  8
0
  6
Continuous
 62
     7
370
    25
100
AcDbLine
 10
266.5523839624
 20
178.711216067
 30
0.0
 11
270.1298174889
 21
183.8139361786
 31
0.0
  0
LINE
  5
2CC
330
1F
100
AcDbEntity
  8
0
  6
Continuous
 62
     7
370
    25
100
AcDbLine
 10
376.4306334288
 20
127.5654948401
 30
0.0
 11
378.068937871
 21
128.7112153219
 31
0.0
  0
LINE
  5
2CD
330
1F
100
AcDbEntity
  8
0
  6
Continuous
 62
     7
370
    25
100
AcDbLine
 10
376.4306334288
 20
177.5654937225
 30
0.0
 11
376.4306334288
 21
171.2322701784
 31
0.0
  0
LINE
  5
2CE
330
1F
100
AcDbEntity
  8
0
  6
Continuous
 62
     7
370
    25
100
AcDbLine
 10
376.4306334288
 20
159.8683089102
 30
0.0
 11
376.4306334288
 21
158.7478656871
 31
0.0
  0
LINE
  5
2CF
330
1F
100
AcDbEntity
  8
0
  6
Continuous
 62
     7
370
    25
100
AcDbLine
 10
376.4306334288
 20
147.3839041861
 30
0.0
 11
376.4306334288
 21
127.5654948401
 31
0.0
  0
LINE
  5
2D0
330
1F
100
AcDbEntity
  8
0
  6
Continuous
 62
     7
370
    25
100
AcDbLine
 10
376.4306334288
 20
177.5654937225
 30
0.0
 11
378.068937871
 21
178.711216067
 31
0.0
  0
LINE
  5
2D1
330
1F
100
AcDbEntity
  8
0
  6
Continuous
 62
     7
370
    25
100
AcDbLine
 10
378.068937871
 20
178.711216067
 30
0.0
 11
378.068937871
 21
171.2322701784
 31
0.0
  0
LINE
  5
2D2
330
1F
100
AcDbEntity
  8
0
  6
Continuous
 62
     7
370
    25
100
AcDbLine
 10
378.068937871
 20
159.8683089102
 30
0.0
 11
378.068937871
 21
158.7478656871
 31
0.0
  0
LINE
  5
2D3
330
1F
100
AcDbEntity
  8
0
  6
Continuous
 62
     7
370
    25
100
AcDbLine
 10
378.068937871
 20
147.3839041861
 30
0.0
 11
378.068937871
 21
128.7112153219
 31
0.0
  0
LINE
  5
2D4
330
1F
100
AcDbEntity
  8
0
  6
Continuous
 62
     7
370
    25
100
AcDbLine
 10
372.8532054902
 20
182.6682156967
 30
0.0
 11
376.4306334288
 21
177.5654937225
 31
0.0
  0
LINE
  5
2D5
330
1F
100
AcDbEntity
  8
0
  6
Continuous
 62
     7
370
    25
100
AcDbLine
 10
376.4306334288
 20
127.5654948401
 30
0.0
 11
372.8532054902
 21
132.6682149517
 31
0.0
  0
LINE
  5
2D6
330
1F
100
AcDbEntity
  8
0
  6
Continuous
 62
     7
370
    25
100
AcDbLine
 10
374.4915099324
 20
183.8139361786
 30
0.0
 11
378.068937871
 21
178.711216067
 31
0.0
  0
ARC
  5
2D7
330
1F
100
AcDbEntity
  8
0
  6
Continuous
 62
     7
370
    25
100
AcDbCircle
 10
269.3169529721
 20
134.3869595436
 30
0.0
 40
2.993709066610422
100
AcDbArc
 50
324.9620569655
 51
359.9968994016
  0
ARC
  5
2D8
330
1F
100
AcDbEntity
  8
0
  6
Continuous
 62
     7
370
    25
100
AcDbCircle
 10
269.3138918071
 20
184.3868842413
 30
0.0
 40
2.996172355219484
100
AcDbArc
 50
324.9968557989
 51
90.0617367148
  0
ARC
  5
2D9
330
1F
100
AcDbEntity
  8
0
  6
Continuous
 62
     7
370
    25
100
AcDbCircle
 10
269.3117279498
 20
184.3868191492
 30
0.0
 40
0.9987318919569981
100
AcDbArc
 50
324.9976264295
 51
90.0610713715
  0
ARC
  5
2DA
330
1F
100
AcDbEntity
  8
0
  6
Continuous
 62
     7
370
    25
100
AcDbCircle
 10
375.3074300877
 20
184.3868851814
 30
0.0
 40
2.996171419043748
100
AcDbArc
 50
89.9381932009
 51
215.003178686
  0
ARC
  5
2DB
330
1F
100
AcDbEntity
  8
0
  6
Continuous
 62
     7
370
    25
100
AcDbCircle
 10
375.3095900724
 20
184.3868240469
 30
0.0
 40
0.9987270023204287
100
AcDbArc
 50
89.9384959729
 51
215.002913024
  0
ARC
  5
2DC
330
1F
100
AcDbEntity
  8
0
  6
Continuous
 62
     7
370
    25
100
AcDbCircle
 10
375.304289865
 20
134.386934017
 30
0.0
 40
2.993628206375418
100
AcDbArc
 50
180.0026121227
 51
215.0384315101
  0
ARC
  5
2DD
330
1F
100
AcDbEntity
  8
0
  6
Continuous
 62
     7
370
    25
100
AcDbCircle
 10
260.8088606009
 20
188.3837487126
 30
0.0
 40
2.99819877934148
100
AcDbArc
 50
180.037140922
 51
270.0344072893
  0
ARC
  5
2DE
330
1F
100
AcDbEntity
  8
0
  6
Continuous
 62
     7
370
    25
100
AcDbCircle
 10
260.808719977
 20
138.3836071667
 30
0.0
 40
2.998058066305544
100
AcDbArc
 50
180.0344162285
 51
270.0370963645
  0
LINE
  5
2DF
330
1F
100
AcDbEntity
  8
0
  6
Continuous
 62
     7
370
    25
100
AcDbLine
 10
257.8106624515
 20
138.3818063038
 30
0.0
 11
257.8106624515
 21
147.3839041861
 31
0.0
  0
LINE
  5
2E0
330
1F
100
AcDbEntity
  8
0
  6
Continuous
 62
     7
370
    25
100
AcDbLine
 10
257.8106624515
 20
158.7478656871
 30
0.0
 11
257.8106624515
 21
159.8683089102
 31
0.0
  0
LINE
  5
2E1
330
1F
100
AcDbEntity
  8
0
  6
Continuous
 62
     7
370
    25
100
AcDbLine
 10
257.8106624515
 20
171.2322701784
 30
0.0
 11
257.8106624515
 21
188.3818051862
 31
0.0
  0
LINE
  5
2E2
330
1F
100
AcDbEntity
  8
0
  6
Continuous
 62
     7
370
    25
100
AcDbLine
 10
260.8106610806
 20
135.3855497288
 30
0.0
 11
266.5523839624
 21
135.3855497288
 31
0.0
  0
LINE
  5
2E3
330
1F
100
AcDbEntity
  8
0
  6
Continuous
 62
     7
370
    25
100
AcDbLine
 10
269.3106634052
 20
185.3855504738
 30
0.0
 11
260.8106610806
 21
185.3855504738
 31
0.0
  0
LINE
  5
2E4
330
1F
100
AcDbEntity
  8
0
  6
Continuous
 62
     7
370
    25
100
AcDbLine
 10
269.3106634052
 20
187.3830548572
 30
0.0
 11
260.8106610806
 21
187.3830548572
 31
0.0
  0
ARC
  5
2E5
330
1F
100
AcDbEntity
  8
0
  6
Continuous
 62
     7
370
    25
100
AcDbCircle
 10
260.8100412885
 20
188.3824370992
 30
0.0
 40
0.9993824342016455
100
AcDbArc
 50
180.0362283234
 51
270.0355334201
  0
LINE
  5
2E6
330
1F
100
AcDbEntity
  8
0
  6
Continuous
 62
     7
370
    25
100
AcDbLine
 10
383.8106607528
 20
185.3855504738
 30
0.0
 11
375.3106621535
 21
185.3855504738
 31
0.0
  0
LINE
  5
2E7
330
1F
100
AcDbEntity
  8
0
  6
Continuous
 62
     7
370
    25
100
AcDbLine
 10
378.068937871
 20
135.3855497288
 30
0.0
 11
383.8106607528
 21
135.3855497288
 31
0.0
  0
LINE
  5
2E8
330
1F
100
AcDbEntity
  8
0
  6
Continuous
 62
     7
370
    25
100
AcDbLine
 10
383.8106607528
 20
187.3830548572
 30
0.0
 11
375.3106621535
 21
187.3830548572
 31
0.0
  0
ARC
  5
2E9
330
1F
100
AcDbEntity
  8
0
  6
Continuous
 62
     7
370
    25
100
AcDbCircle
 10
383.8124581685
 20
138.3837547618
 30
0.0
 40
2.99820557181244
100
AcDbArc
 50
269.9656513414
 51
359.9627649179
  0
ARC
  5
2EA
330
1F
100
AcDbEntity
  8
0
  6
Continuous
 62
     7
370
    25
100
AcDbCircle
 10
383.8126057965
 20
188.3836076955
 30
0.0
 40
2.998057852575544
100
AcDbArc
 50
269.9628283354
 51
359.9655523055
  0
LINE
  5
2EB
330
1F
100
AcDbEntity
  8
0
  6
Continuous
 62
     7
370
    25
100
AcDbLine
 10
386.8106631072
 20
188.3818051862
 30
0.0
 11
386.8106631072
 21
171.2322701784
 31
0.0
  0
LINE
  5
2EC
330
1F
100
AcDbEntity
  8
0
  6
Continuous
 62
     7
370
    25
100
AcDbLine
 10
386.8106631072
 20
159.8683089102
 30
0.0
 11
386.8106631072
 21
158.7478656871
 31
0.0
  0
LINE
  5
2ED
330
1F
100
AcDbEntity
  8
0
  6
Continuous
 62
     7
370
    25
100
AcDbLine
 10
386.8106631072
 20
147.3839041861
 30
0.0
 11
386.8106631072
 21
138.3818063038
 31
0.0
  0
ARC
  5
2EE
330
1F
100
AcDbEntity
  8
0
  6
Continuous
 62
     7
370
    25
100
AcDbCircle
 10
383.8112826629
 20
188.3824349785
 30
0.0
 40
0.9993803148920196
100
AcDbArc
 50
269.9643450784
 51
359.9638931781
  0
LINE
  5
2EF
330
1F
100
AcDbEntity
  8
0
  6
Continuous
 62
     7
370
    25
100
AcDbLine
 10
384.8106627793
 20
205.3605980324
 30
0.0
 11
384.8106627793
 21
188.3818051862
 31
0.0
  0
LINE
  5
2F0
330
1F
100
AcDbEntity
  8
0
  6
Continuous
 62
     7
370
    25
100
AcDbLine
 10
386.8106631072
 20
205.3605980324
 30
0.0
 11
386.8106631072
 21
188.3818051862
 31
0.0
  0
LINE
  5
2F1
330
1F
100
AcDbEntity
  8
0
  6
Continuous
 62
     7
370
    25
100
AcDbLine
 10
257.8106624515
 20
188.3818051862
 30
0.0
 11
257.8106624515
 21
205.3605980324
 31
0.0
  0
LINE
  5
2F2
330
1F
100
AcDbEntity
  8
0
  6
Continuous
 62
     7
370
    25
100
AcDbLine
 10
259.8106590541
 20
188.3818051862
 30
0.0
 11
259.8106590541
 21
205.3605980324
 31
0.0
  0
SPLINE
  5
2F3
330
1F
100
AcDbEntity
  8
0
  6
Continuous
 62
     7
370
    25
100
AcDbSpline
210
0.0
220
0.0
230
1.0
 70
     8
 71
     3
 72
    39
 73
    35
 74
     0
 42
0.000000001
 43
0.00000001
 40
0.0
 40
0.0
 40
0.0
 40
0.0
 40
0.0312498438587008
 40
0.062499400687151
 40
0.0937499536149986
 40
0.1249997952051606
 40
0.1562499752159806
 40
0.1875001158991904
 40
0.2187497792447119
 40
0.2499999142878921
 40
0.2812497747041705
 40
0.3125000576408449
 40
0.3437496329479207
 40
0.3749998056754832
 40
0.4062499291409675
 40
0.4374998139283832
 40
0.4687500088683753
 40
0.500000000764513
 40
0.5312501216688474
 40
0.5625002199630207
 40
0.5937500530968086
 40
0.6250002222052518
 40
0.6562497395527359
 40
0.687499872625032
 40
0.7187497896371446
 40
0.7500001060111429
 40
0.781250075979836
 40
0.8124999899505629
 40
0.8437498728171013
 40
0.8750000714787556
 40
0.9062500089927015
 40
0.9374998876673254
 40
0.9687500266722825
 40
1.0
 40
1.0
 40
1.0
 40
1.0
 10
259.8106590540559
 20
205.3605980323802
 30
0.0
 10
259.8078732446073
 20
205.4585711737532
 30
0.0
 10
259.8023016512977
 20
205.6545165566145
 30
0.0
 10
259.7574087040554
 20
205.9456121637765
 30
0.0
 10
259.6861880676763
 20
206.2310592024456
 30
0.0
 10
259.5867277681775
 20
206.5081214543443
 30
0.0
 10
259.4606913707093
 20
206.7741248439883
 30
0.0
 10
259.3090793745517
 20
207.0264989724604
 30
0.0
 10
259.1334167750589
 20
207.2628196403598
 30
0.0
 10
258.9353937510138
 20
207.4808018390537
 30
0.0
 10
258.716904201862
 20
207.6783550517641
 30
0.0
 10
258.4800497860542
 20
207.8535568715969
 30
0.0
 10
258.2271281476452
 20
208.0047339189945
 30
0.0
 10
257.9605588543167
 20
208.1304165654439
 30
0.0
 10
257.6829140754772
 20
208.2294001705844
 30
0.0
 10
257.3968735908743
 20
208.3007286404517
 30
0.0
 10
257.105186230514
 20
208.3437094344453
 30
0.0
 10
256.8106594967511
 20
208.3579261815675
 30
0.0
 10
256.5161362041366
 20
208.3432387776103
 30
0.0
 10
256.2244467645139
 20
208.2997953718756
 30
0.0
 10
255.9384066027046
 20
208.2279934596369
 30
0.0
 10
255.660763068419
 20
208.1285501512643
 30
0.0
 10
255.3941990879969
 20
208.0023898810908
 30
0.0
 10
255.1412701086864
 20
207.8507524164619
 30
0.0
 10
254.9044256234135
 20
207.6750714621897
 30
0.0
 10
254.6859266656286
 20
207.4770627059806
 30
0.0
 10
254.4879036961465
 20
207.2586032079394
 30
0.0
 10
254.3122398885878
 20
207.0218196942293
 30
0.0
 10
254.1606411913738
 20
206.7689697338657
 30
0.0
 10
254.0345903760396
 20
206.5025045036199
 30
0.0
 10
253.9351316878893
 20
206.2249756216683
 30
0.0
 10
253.8639231001705
 20
205.9390528136145
 30
0.0
 10
253.8190165346447
 20
205.6474975231948
 30
0.0
 10
253.8134467038731
 20
205.4512366500401
 30
0.0
 10
253.8106617958696
 20
205.35310647359
 30
0.0
  0
SPLINE
  5
2F4
330
1F
100
AcDbEntity
  8
0
  6
Continuous
 62
     7
370
    25
100
AcDbSpline
210
0.0
220
0.0
230
1.0
 70
     8
 71
     3
 72
    31
 73
    27
 74
     0
 42
0.000000001
 43
0.00000001
 40
0.0
 40
0.0
 40
0.0
 40
0.0
 40
0.0416660564580397
 40
0.0833327538322176
 40
0.1250004483697627
 40
0.1666671972818286
 40
0.2083340746590103
 40
0.2500011386976597
 40
0.2916666330140928
 40
0.3333325836802343
 40
0.3750004305010766
 40
0.4166676726361054
 40
0.4583338500084766
 40
0.5000008053243407
 40
0.5416672249289406
 40
0.5833331391115667
 40
0.6250004118452436
 40
0.666667301360841
 40
0.7083325021865395
 40
0.7500002469120544
 40
0.7916669442862322
 40
0.8333339260536731
 40
0.8750001384257211
 40
0.9166666639727601
 40
0.9583331040274412
 40
0.9999999999999999
 40
0.9999999999999999
 40
0.9999999999999999
 40
0.9999999999999999
 10
257.8106624515207
 20
205.3605980323802
 30
0.0
 10
257.8090118526353
 20
205.4040720240061
 30
0.0
 10
257.8057106294748
 20
205.4910206759841
 30
0.0
 10
257.7791493631452
 20
205.6192124275199
 30
0.0
 10
257.7372358656959
 20
205.7429568337776
 30
0.0
 10
257.6791486451383
 20
205.8601545250687
 30
0.0
 10
257.6062860807068
 20
205.9687765016656
 30
0.0
 10
257.5197860989998
 20
206.0669676681462
 30
0.0
 10
257.4211685330537
 20
206.1530442574804
 30
0.0
 10
257.3120867813337
 20
206.2255181953191
 30
0.0
 10
257.1944411044647
 20
206.283152142771
 30
0.0
 10
257.0702197463841
 20
206.3249546768257
 30
0.0
 10
256.941559411826
 20
206.3502033533486
 30
0.0
 10
256.8106614880739
 20
206.3584617077114
 30
0.0
 10
256.6797608272607
 20
206.3495765804185
 30
0.0
 10
256.5511002597361
 20
206.3237064452872
 30
0.0
 10
256.4268823525939
 20
206.2812836892806
 30
0.0
 10
256.3092306871332
 20
206.2230222381985
 30
0.0
 10
256.200160230156
 20
206.1499188811916
 30
0.0
 10
256.1015356183637
 20
206.0632226580183
 30
0.0
 10
256.0150342583917
 20
205.9644071554501
 30
0.0
 10
255.9421734633613
 20
205.8551582110432
 30
0.0
 10
255.8840828301444
 20
205.7373420104239
 30
0.0
 10
255.8421806076286
 20
205.6129655667137
 30
0.0
 10
255.8156188256984
 20
205.4841544926475
 30
0.0
 10
255.8123118802001
 20
205.3967893059346
 30
0.0
 10
255.8106583984048
 20
205.35310647359
 30
0.0
  0
SPLINE
  5
2F5
330
1F
100
AcDbEntity
  8
0
  6
Continuous
 62
     7
370
    25
100
AcDbSpline
210
0.0
220
0.0
230
1.0
 70
     8
 71
     3
 72
    39
 73
    35
 74
     0
 42
0.000000001
 43
0.00000001
 40
0.0
 40
0.0
 40
0.0
 40
0.0
 40
0.0312499542837245
 40
0.0625000936409982
 40
0.0937500687241671
 40
0.1250000065904272
 40
0.1562500365809611
 40
0.1875001230344639
 40
0.2187500373575049
 40
0.2500000076785126
 40
0.2812500314862514
 40
0.3125002663762234
 40
0.3437500607193623
 40
0.3749999357869908
 40
0.4062501052477508
 40
0.4374999387338518
 40
0.4687500373803411
 40
0.5000001586369918
 40
0.5312501508854444
 40
0.5624999551331329
 40
0.5937502237481086
 40
0.6249999753490776
 40
0.6562501484289569
 40
0.6875000631671871
 40
0.7187500289261238
 40
0.7499998896947155
 40
0.7812502905706807
 40
0.8124999542685133
 40
0.8437498920647416
 40
0.8750002414455006
 40
0.9062500833879757
 40
0.9375005406086881
 40
0.9687501557889859
 40
1.0
 40
1.0
 40
1.0
 40
1.0
 10
390.8106600375326
 20
205.35310647359
 30
0.0
 10
390.8078766038615
 20
205.4512366437973
 30
0.0
 10
390.8023097200349
 20
205.6474975653744
 30
0.0
 10
390.7574033153156
 20
205.9390533679267
 30
0.0
 10
390.6861893949436
 20
206.2249752005059
 30
0.0
 10
390.5867305959576
 20
206.5025034059627
 30
0.0
 10
390.4606858626416
 20
206.7689718866639
 30
0.0
 10
390.3090809727536
 20
207.0218183694026
 30
0.0
 10
390.1334186860327
 20
207.2586036434034
 30
0.0
 10
389.9353949442486
 20
207.4770610930713
 30
0.0
 10
389.71689968751
 20
207.6750742133575
 30
0.0
 10
389.4800523542087
 20
207.8507496919499
 30
0.0
 10
389.227125334754
 20
208.0023922747191
 30
0.0
 10
388.9605594101546
 20
208.1285489812525
 30
0.0
 10
388.6829153410879
 20
208.2279936732858
 30
0.0
 10
388.3968750405133
 20
208.299795308213
 30
0.0
 10
388.1051856323746
 20
208.3432388186113
 30
0.0
 10
387.81066235259
 20
208.3579260812268
 30
0.0
 10
387.5161367645326
 20
208.3437098541046
 30
0.0
 10
387.2244497283464
 20
208.3007275420927
 30
0.0
 10
386.9384098218884
 20
208.2294015933077
 30
0.0
 10
386.6607656748856
 20
208.1304157955549
 30
0.0
 10
386.3941969017697
 20
208.0047327971201
 30
0.0
 10
386.1412729761021
 20
207.8535591840171
 30
0.0
 10
385.9044209896055
 20
207.6783537844244
 30
0.0
 10
385.6859317154296
 20
207.4808008448556
 30
0.0
 10
385.487905212394
 20
207.2628207142174
 30
0.0
 10
385.3122417334487
 20
207.0265000689289
 30
0.0
 10
385.1606355889909
 20
206.7741227593298
 30
0.0
 10
385.0345933344832
 20
206.5081225189704
 30
0.0
 10
384.9351325868131
 20
206.231059682943
 30
0.0
 10
384.8639192502073
 20
205.9456112248349
 30
0.0
 10
384.8190186622763
 20
205.6545169884466
 30
0.0
 10
384.8134480804608
 20
205.4585712570849
 30
0.0
 10
384.8106627793462
 20
205.3605980323802
 30
0.0
  0
SPLINE
  5
2F6
330
1F
100
AcDbEntity
  8
0
  6
Continuous
 62
     7
370
    25
100
AcDbSpline
210
0.0
220
0.0
230
1.0
 70
     8
 71
     3
 72
    31
 73
    27
 74
     0
 42
0.000000001
 43
0.00000001
 40
0.0
 40
0.0
 40
0.0
 40
0.0
 40
0.0416668171742019
 40
0.0833332558972814
 40
0.1250001606704245
 40
0.1666663717108783
 40
0.2083333521467001
 40
0.2499992675603553
 40
0.2916670109542269
 40
0.3333331948513893
 40
0.3750000830353707
 40
0.4166673544374194
 40
0.4583332672884606
 40
0.4999996855614596
 40
0.5416666395457055
 40
0.5833328155864835
 40
0.625000056389885
 40
0.6666679018790808
 40
0.708332866771349
 40
0.749999249876255
 40
0.7916663125832827
 40
0.8333331886288489
 40
0.8749999362093033
 40
0.9166672488309817
 40
0.9583339448735496
 40
1.0
 40
1.0
 40
1.0
 40
1.0
 10
388.8106634349973
 20
205.35310647359
 30
0.0
 10
388.809011421715
 20
205.3967892923382
 30
0.0
 10
388.8057074101553
 20
205.4841545330725
 30
0.0
 10
388.7791458184207
 20
205.6129663608212
 30
0.0
 10
388.7372379635009
 20
205.7373411926046
 30
0.0
 10
388.6791488744049
 20
205.8551584861733
 30
0.0
 10
388.6062872291948
 20
205.9644058317977
 30
0.0
 10
388.5197900369727
 20
206.0632237468047
 30
0.0
 10
388.421164730313
 20
206.1499199703049
 30
0.0
 10
388.3120916861537
 20
206.2230211633861
 30
0.0
 10
388.1944395844698
 20
206.281283854259
 30
0.0
 10
388.0702215456816
 20
206.3237064013744
 30
0.0
 10
387.9415610144212
 20
206.3495765910968
 30
0.0
 10
387.8106603401933
 20
206.3584617089108
 30
0.0
 10
387.6797624338358
 20
206.3502033378723
 30
0.0
 10
387.5511020431148
 20
206.3249547375308
 30
0.0
 10
387.4268808922967
 20
206.2831519154189
 30
0.0
 10
387.3092353690599
 20
206.2255194979032
 30
0.0
 10
387.2001564826218
 20
206.153041774171
 30
0.0
 10
387.1015356995338
 20
206.0669691606101
 30
0.0
 10
387.0150358446678
 20
205.9687763169634
 30
0.0
 10
386.9421734712075
 20
205.8601544706312
 30
0.0
 10
386.8840849208114
 20
205.7429575930544
 30
0.0
 10
386.8421773129558
 20
205.6192116356176
 30
0.0
 10
386.8156146296552
 20
205.4910207763821
 30
0.0
 10
386.8123136062035
 20
205.404072057472
 30
0.0
 10
386.8106631071718
 20
205.3605980323802
 30
0.0
  0
LINE
  5
2F7
330
1F
100
AcDbEntity
  8
0
  6
Continuous
 62
     7
370
    25
100
AcDbLine
 10
388.810663435
 20
205.3531064736
 30
0.0
 11
388.810663435
 21
111.356853609
 31
0.0
  0
LINE
  5
2F8
330
1F
100
AcDbEntity
  8
0
  6
Continuous
 62
     7
370
    25
100
AcDbLine
 10
390.8106600375
 20
205.3531064736
 30
0.0
 11
390.8106600375
 21
111.356853609
 31
0.0
  0
ARC
  5
2F9
330
1F
100
AcDbEntity
  8
0
  6
Continuous
 62
     7
370
    25
100
AcDbCircle
 10
256.810661884
 20
111.3568537731
 30
0.0
 40
3.0
100
AcDbArc
 50
180.0
 51
270.0
  0
ARC
  5
2FA
330
1F
100
AcDbEntity
  8
0
  6
Continuous
 62
     7
370
    25
100
AcDbCircle
 10
256.810661884
 20
111.3568537731
 30
0.0
 40
1.0
100
AcDbArc
 50
180.0
 51
270.0
  0
LINE
  5
2FB
330
1F
100
AcDbEntity
  8
0
  6
Continuous
 62
     7
370
    25
100
AcDbLine
 10
255.8106583984
 20
111.356853609
 30
0.0
 11
255.8106583984
 21
205.3531064736
 31
0.0
  0
LINE
  5
2FC
330
1F
100
AcDbEntity
  8
0
  6
Continuous
 62
     7
370
    25
100
AcDbLine
 10
253.8106617959
 20
111.356853609
 30
0.0
 11
253.8106617959
 21
205.3531064736
 31
0.0
  0
LINE
  5
2FD
330
1F
100
AcDbEntity
  8
0
  6
Continuous
 62
     7
370
    25
100
AcDbLine
 10
256.810660425
 20
110.3568553077
 30
0.0
 11
387.8106614084
 21
110.3568553077
 31
0.0
  0
LINE
  5
2FE
330
1F
100
AcDbEntity
  8
0
  6
Continuous
 62
     7
370
    25
100
AcDbLine
 10
256.810660425
 20
108.3568549799
 30
0.0
 11
387.8106614084
 21
108.3568549799
 31
0.0
  0
ARC
  5
2FF
330
1F
100
AcDbEntity
  8
0
  6
Continuous
 62
     7
370
    25
100
AcDbCircle
 10
387.810661884
 20
111.3568537731
 30
0.0
 40
3.000000000000014
100
AcDbArc
 50
270.0
 51
0.0
  0
ARC
  5
300
330
1F
100
AcDbEntity
  8
0
  6
Continuous
 62
     7
370
    25
100
AcDbCircle
 10
387.810661884
 20
111.3568537731
 30
0.0
 40
1.0
100
AcDbArc
 50
270.0
 51
0.0
  0
LINE
  5
301
330
1F
100
AcDbEntity
  8
0
  6
PHANTOM
 62
     8
370
    18
100
AcDbLine
 10
388.810663435
 20
111.356853609
 30
0.0
 11
390.8106600375
 21
111.356853609
 31
0.0
  0
LINE
  5
302
330
1F
100
AcDbEntity
  8
0
  6
PHANTOM
 62
     8
370
    18
100
AcDbLine
 10
256.810660425
 20
110.3568553077
 30
0.0
 11
256.810660425
 21
108.3568549799
 31
0.0
  0
LINE
  5
303
330
1F
100
AcDbEntity
  8
0
  6
PHANTOM
 62
     8
370
    18
100
AcDbLine
 10
255.8106583984
 20
111.356853609
 30
0.0
 11
253.8106617959
 21
111.356853609
 31
0.0
  0
LINE
  5
304
330
1F
100
AcDbEntity
  8
0
  6
PHANTOM
 62
     8
370
    18
100
AcDbLine
 10
387.8106614084
 20
110.3568553077
 30
0.0
 11
387.8106614084
 21
108.3568549799
 31
0.0
  0
LINE
  5
305
330
1F
100
AcDbEntity
  8
0
  6
HIDDEN
 62
     7
370
    18
100
AcDbLine
 10
268.1906921299
 20
147.3839041861
 30
0.0
 11
268.1906921299
 21
158.7478656871
 31
0.0
  0
LINE
  5
306
330
1F
100
AcDbEntity
  8
0
  6
HIDDEN
 62
     7
370
    18
100
AcDbLine
 10
268.1906921299
 20
159.8683089102
 30
0.0
 11
268.1906921299
 21
171.2322701784
 31
0.0
  0
LINE
  5
307
330
1F
100
AcDbEntity
  8
0
  6
HIDDEN
 62
     7
370
    18
100
AcDbLine
 10
266.5523839624
 20
147.3839041861
 30
0.0
 11
266.5523839624
 21
158.7478656871
 31
0.0
  0
LINE
  5
308
330
1F
100
AcDbEntity
  8
0
  6
HIDDEN
 62
     7
370
    18
100
AcDbLine
 10
266.5523839624
 20
159.8683089102
 30
0.0
 11
266.5523839624
 21
171.2322701784
 31
0.0
  0
LINE
  5
309
330
1F
100
AcDbEntity
  8
0
  6
HIDDEN
 62
     7
370
    18
100
AcDbLine
 10
376.4306334288
 20
171.2322701784
 30
0.0
 11
376.4306334288
 21
159.8683089102
 31
0.0
  0
LINE
  5
30A
330
1F
100
AcDbEntity
  8
0
  6
HIDDEN
 62
     7
370
    18
100
AcDbLine
 10
376.4306334288
 20
158.7478656871
 30
0.0
 11
376.4306334288
 21
147.3839041861
 31
0.0
  0
LINE
  5
30B
330
1F
100
AcDbEntity
  8
0
  6
HIDDEN
 62
     7
370
    18
100
AcDbLine
 10
378.068937871
 20
171.2322701784
 30
0.0
 11
378.068937871
 21
159.8683089102
 31
0.0
  0
LINE
  5
30C
330
1F
100
AcDbEntity
  8
0
  6
HIDDEN
 62
     7
370
    18
100
AcDbLine
 10
378.068937871
 20
158.7478656871
 30
0.0
 11
378.068937871
 21
147.3839041861
 31
0.0
  0
ARC
  5
30D
330
1F
100
AcDbEntity
  8
0
  6
HIDDEN
 62
     7
370
    18
100
AcDbCircle
 10
269.3125742018
 20
134.3849663293
 30
0.0
 40
2.998088391730297
100
AcDbArc
 50
0.0349957949
 51
90.0365167981
  0
ARC
  5
30E
330
1F
100
AcDbEntity
  8
0
  6
HIDDEN
 62
     7
370
    18
100
AcDbCircle
 10
375.3087447375
 20
134.3849710932
 30
0.0
 40
2.998083632056224
100
AcDbArc
 50
89.9633566416
 51
179.9650951915
  0
ARC
  5
30F
330
1F
100
AcDbEntity
  8
0
  6
HIDDEN
 62
     7
370
    18
100
AcDbCircle
 10
269.3117288265
 20
134.3868195401
 30
0.0
 40
0.9987307569837082
100
AcDbArc
 50
324.9976317316
 51
90.0611217346
  0
ARC
  5
310
330
1F
100
AcDbEntity
  8
0
  6
HIDDEN
 62
     7
370
    18
100
AcDbCircle
 10
375.3095891957
 20
134.3868244378
 30
0.0
 40
0.9987258673490784
100
AcDbArc
 50
89.9384456091
 51
215.0029077228
  0
LINE
  5
311
330
1F
100
AcDbEntity
  8
0
  6
HIDDEN
 62
     7
370
    18
100
AcDbLine
 10
257.8106624515
 20
147.3839041861
 30
0.0
 11
257.8106624515
 21
158.7478656871
 31
0.0
  0
LINE
  5
312
330
1F
100
AcDbEntity
  8
0
  6
HIDDEN
 62
     7
370
    18
100
AcDbLine
 10
257.8106624515
 20
159.8683089102
 30
0.0
 11
257.8106624515
 21
171.2322701784
 31
0.0
  0
LINE
  5
313
330
1F
100
AcDbEntity
  8
0
  6
HIDDEN
 62
     7
370
    18
100
AcDbLine
 10
266.5523839624
 20
135.3855497288
 30
0.0
 11
269.3106634052
 21
135.3855497288
 31
0.0
  0
LINE
  5
314
330
1F
100
AcDbEntity
  8
0
  6
HIDDEN
 62
     7
370
    18
100
AcDbLine
 10
375.3106621535
 20
135.3855497288
 30
0.0
 11
378.068937871
 21
135.3855497288
 31
0.0
  0
LINE
  5
315
330
1F
100
AcDbEntity
  8
0
  6
HIDDEN
 62
     7
370
    18
100
AcDbLine
 10
386.8106631072
 20
171.2322701784
 30
0.0
 11
386.8106631072
 21
159.8683089102
 31
0.0
  0
LINE
  5
316
330
1F
100
AcDbEntity
  8
0
  6
HIDDEN
 62
     7
370
    18
100
AcDbLine
 10
386.8106631072
 20
158.7478656871
 30
0.0
 11
386.8106631072
 21
147.3839041861
 31
0.0
  0
ARC
  5
317
330
1F
100
AcDbEntity
  8
0
  6
HIDDEN
 62
     7
370
    18
100
AcDbCircle
 10
260.8100412877
 20
138.3824363521
 30
0.0
 40
0.999382432229587
100
AcDbArc
 50
180.0361214227
 51
270.0355334658
  0
LINE
  5
318
330
1F
100
AcDbEntity
  8
0
  6
HIDDEN
 62
     7
370
    18
100
AcDbLine
 10
259.8106590541
 20
138.3818063038
 30
0.0
 11
259.8106590541
 21
188.3818051862
 31
0.0
  0
ARC
  5
319
330
1F
100
AcDbEntity
  8
0
  6
HIDDEN
 62
     7
370
    18
100
AcDbCircle
 10
383.8112826637
 20
138.3824342315
 30
0.0
 40
0.9993803129267252
100
AcDbArc
 50
269.964345033
 51
359.9640000786
  0
LINE
  5
31A
330
1F
100
AcDbEntity
  8
0
  6
HIDDEN
 62
     7
370
    18
100
AcDbLine
 10
384.8106627793
 20
188.3818051862
 30
0.0
 11
384.8106627793
 21
138.3818063038
 31
0.0
  0
SPLINE
  5
31B
330
1F
100
AcDbEntity
  8
0
  6
HIDDEN
 62
     7
370
    18
100
AcDbSpline
210
0.0
220
0.0
230
1.0
 70
     8
 71
     3
 72
    39
 73
    35
 74
     0
 42
0.000000001
 43
0.00000001
 40
0.0
 40
0.0
 40
0.0
 40
0.0
 40
0.0312500464966907
 40
0.0624999544122371
 40
0.0937499659174891
 40
0.1249999175187296
 40
0.1562500547627638
 40
0.1874998401371004
 40
0.2187499387524801
 40
0.2499998053263918
 40
0.2812501913824854
 40
0.3124999752241563
 40
0.3437501455830721
 40
0.3749996515285219
 40
0.4062499084258799
 40
0.4374996685647689
 40
0.4687498131020162
 40
0.4999998855135868
 40
0.5312499361511429
 40
0.5625000369798617
 40
0.5937498022128639
 40
0.6250001358058633
 40
0.6562503498259139
 40
0.6874997688072756
 40
0.7187501804559502
 40
0.7500000929790506
 40
0.7812498192590078
 40
0.8125000487145677
 40
0.843750201782768
 40
0.8749999803702755
 40
0.9062498584771603
 40
0.9375000817066792
 40
0.9687499537956769
 40
0.9999999999999999
 40
0.9999999999999999
 40
0.9999999999999999
 40
0.9999999999999999
 10
253.8106617958696
 20
155.3531060777779
 30
0.0
 10
253.8134466396496
 20
155.4512362014181
 30
0.0
 10
253.8190163148598
 20
155.6474960135315
 30
0.0
 10
253.8639235486336
 20
155.9390555401592
 30
0.0
 10
253.9351314554695
 20
156.2249735309411
 30
0.0
 10
254.0345902969897
 20
156.5025051059305
 30
0.0
 10
254.1606409298388
 20
156.7689708155656
 30
0.0
 10
254.312240994541
 20
157.0218200078969
 30
0.0
 10
254.4879023829042
 20
157.2586042262541
 30
0.0
 10
254.6859276884544
 20
157.4770612450384
 30
0.0
 10
254.9044244555413
 20
157.6750716624228
 30
0.0
 10
255.141271142971
 20
157.8507506520501
 30
0.0
 10
255.3941985916959
 20
158.0023897012867
 30
0.0
 10
255.6607638169722
 20
158.1285480687775
 30
0.0
 10
255.9384055054395
 20
158.227996701507
 30
0.0
 10
256.2244476790065
 20
158.2997931550163
 30
0.0
 10
256.5161354298958
 20
158.3432402788083
 30
0.0
 10
256.8106603137737
 20
158.3579254731669
 30
0.0
 10
257.1051853170416
 20
158.3437084022025
 30
0.0
 10
257.3968733402382
 20
158.3007293292722
 30
0.0
 10
257.6829159730113
 20
158.2294015884067
 30
0.0
 10
257.9605578750435
 20
158.1304185047443
 30
0.0
 10
258.2271271513837
 20
158.0047355764188
 30
0.0
 10
258.4800512065798
 20
157.8535540235519
 30
0.0
 10
258.7169040012712
 20
157.6783538123351
 30
0.0
 10
258.9353914767013
 20
157.48080458343
 30
0.0
 10
259.1334207871168
 20
157.2628171118983
 30
0.0
 10
259.3090771900247
 20
157.0265000280712
 30
0.0
 10
259.460690488626
 20
156.7741246447553
 30
0.0
 10
259.586728884927
 20
156.5081213146127
 30
0.0
 10
259.6861872247181
 20
156.2310581990973
 30
0.0
 10
259.7574095801668
 20
155.9456113896914
 30
0.0
 10
259.8023014533609
 20
155.654518088378
 30
0.0
 10
259.8078731819836
 20
155.458570681583
 30
0.0
 10
259.8106590540559
 20
155.3605967052455
 30
0.0
  0
SPLINE
  5
31C
330
1F
100
AcDbEntity
  8
0
  6
HIDDEN
 62
     7
370
    18
100
AcDbSpline
210
0.0
220
0.0
230
1.0
 70
     8
 71
     3
 72
    31
 73
    27
 74
     0
 42
0.000000001
 43
0.00000001
 40
0.0
 40
0.0
 40
0.0
 40
0.0
 40
0.0416667884801938
 40
0.0833333971165653
 40
0.1249997868157632
 40
0.1666664055838271
 40
0.2083332157780152
 40
0.2500001912009773
 40
0.291667414730607
 40
0.3333327365059106
 40
0.3749993500404666
 40
0.4166664687156053
 40
0.4583328340280158
 40
0.4999996136226079
 40
0.5416665450990418
 40
0.5833326835887432
 40
0.624999855180161
 40
0.6666663355186347
 40
0.7083334053588145
 40
0.7499988623292794
 40
0.7916664168102483
 40
0.8333326507306239
 40
0.8749992378342663
 40
0.9166663848431748
 40
0.958333515194452
 40
1.0
 40
1.0
 40
1.0
 40
1.0
 10
255.8106583984048
 20
155.3531060777779
 30
0.0
 10
255.812311911895
 20
155.3967888289992
 30
0.0
 10
255.8156189317383
 20
155.4841541428965
 30
0.0
 10
255.8421803624505
 20
155.6129652846895
 30
0.0
 10
255.88408336166
 20
155.7373418747237
 30
0.0
 10
255.9421727300019
 20
155.8551591412746
 30
0.0
 10
256.0150350551794
 20
155.9644075051625
 30
0.0
 10
256.1015342808626
 20
156.0632236274578
 30
0.0
 10
256.2001614582387
 20
156.1499180085519
 30
0.0
 10
256.3092298696633
 20
156.2230230742007
 30
0.0
 10
256.4268825496724
 20
156.2812809585276
 30
0.0
 10
256.5511013424372
 20
156.3237064888085
 30
0.0
 10
256.6797606118497
 20
156.3495792515499
 30
0.0
 10
256.8106608255713
 20
156.3584599645169
 30
0.0
 10
256.9415593524205
 20
156.3502036089446
 30
0.0
 10
257.0702201026367
 20
156.3249546401997
 30
0.0
 10
257.1944382113139
 20
156.2831542583415
 30
0.0
 10
257.3120915291436
 20
156.2255173762857
 30
0.0
 10
257.4211659859289
 20
156.1530439870472
 30
0.0
 10
257.5197873995388
 20
156.0669649358346
 30
0.0
 10
257.6062844642701
 20
155.9687794012086
 30
0.0
 10
257.6791493966719
 20
155.8601518114048
 30
0.0
 10
257.7372354017955
 20
155.742958620144
 30
0.0
 10
257.7791499397918
 20
155.6192078485006
 30
0.0
 10
257.8057105363818
 20
155.4910220142703
 30
0.0
 10
257.8090118216655
 20
155.4040715837326
 30
0.0
 10
257.8106624515207
 20
155.3605967052455
 30
0.0
  0
SPLINE
  5
31D
330
1F
100
AcDbEntity
  8
0
  6
HIDDEN
 62
     7
370
    18
100
AcDbSpline
210
0.0
220
0.0
230
1.0
 70
     8
 71
     3
 72
    31
 73
    27
 74
     0
 42
0.000000001
 43
0.00000001
 40
0.0
 40
0.0
 40
0.0
 40
0.0
 40
0.0416664834728778
 40
0.083333612491464
 40
0.1250003775786937
 40
0.1666669633496627
 40
0.208333195937376
 40
0.2500007490856405
 40
0.2916670948437518
 40
0.3333331789360156
 40
0.3749996579418193
 40
0.4166668282005448
 40
0.4583329653575872
 40
0.4999998955013366
 40
0.5416666737632491
 40
0.583333037742993
 40
0.6250001550854413
 40
0.6666667672873229
 40
0.7083330721295442
 40
0.7500002943264801
 40
0.7916664877935425
 40
0.8333332966550501
 40
0.8749999140904395
 40
0.9166666830156807
 40
0.9583332903193781
 40
1.0
 40
1.0
 40
1.0
 40
1.0
 10
386.8106631071718
 20
155.3605967052455
 30
0.0
 10
386.8123136371703
 20
155.4040716172015
 30
0.0
 10
386.8156147227392
 20
155.4910221146773
 30
0.0
 10
386.8421767363349
 20
155.6192070565803
 30
0.0
 10
386.8840853847075
 20
155.7429593794383
 30
0.0
 10
386.942172719672
 20
155.8601517569619
 30
0.0
 10
387.0150374611022
 20
155.9687792165108
 30
0.0
 10
387.1015343989601
 20
156.0669664282708
 30
0.0
 10
387.200159029854
 20
156.1530415037549
 30
0.0
 10
387.3092306212477
 20
156.2255186788164
 30
0.0
 10
387.4268837854596
 20
156.2831540310047
 30
0.0
 10
387.5511016868584
 20
156.3249547009015
 30
0.0
 10
387.6797624932423
 20
156.3502035934692
 30
0.0
 10
387.8106610026956
 20
156.3584599657161
 30
0.0
 10
387.9415612298326
 20
156.3495792622287
 30
0.0
 10
388.0702204629796
 20
156.3237064448945
 30
0.0
 10
388.1944393873925
 20
156.2812811235075
 30
0.0
 10
388.3120925036253
 20
156.2230219994106
 30
0.0
 10
388.4211635022169
 20
156.1499190976486
 30
0.0
 10
388.5197913744564
 20
156.0632247162131
 30
0.0
 10
388.6062864324074
 20
155.9644061815296
 30
0.0
 10
388.679149607768
 20
155.8551594164046
 30
0.0
 10
388.7372374319677
 20
155.7373410568952
 30
0.0
 10
388.7791460636059
 20
155.6129660788019
 30
0.0
 10
388.8057073041227
 20
155.484154183322
 30
0.0
 10
388.8090113900194
 20
155.3967888154027
 30
0.0
 10
388.8106634349973
 20
155.3531060777779
 30
0.0
  0
SPLINE
  5
31E
330
1F
100
AcDbEntity
  8
0
  6
HIDDEN
 62
     7
370
    18
100
AcDbSpline
210
0.0
220
0.0
230
1.0
 70
     8
 71
     3
 72
    39
 73
    35
 74
     0
 42
0.000000001
 43
0.00000001
 40
0.0
 40
0.0
 40
0.0
 40
0.0
 40
0.0312500465562509
 40
0.0624999769961239
 40
0.093750104517108
 40
0.1249999829759188
 40
0.1562499309351353
 40
0.1874998811160581
 40
0.2187501109235479
 40
0.2500001030393565
 40
0.2812500159143832
 40
0.3125001103862588
 40
0.3437498688000636
 40
0.375000083172044
 40
0.4062500449026654
 40
0.4375001939642855
 40
0.4687499040991551
 40
0.4999999550886392
 40
0.5312500278521379
 40
0.5625001727413143
 40
0.5937499332321279
 40
0.6250001904814161
 40
0.656250054146734
 40
0.6874998857765282
 40
0.7187499874970055
 40
0.7500000809871217
 40
0.7812499479129592
 40
0.8125000468802673
 40
0.8437500358418029
 40
0.8750000044140052
 40
0.9062499563671725
 40
0.9375000642801699
 40
0.9687499725476426
 40
1.0
 40
1.0
 40
1.0
 40
1.0
 10
384.8106627793462
 20
155.3605967052455
 30
0.0
 10
384.8134481430831
 20
155.4585707649142
 30
0.0
 10
384.8190188602072
 20
155.6545185202075
 30
0.0
 10
384.8639183740909
 20
155.9456104507502
 30
0.0
 10
384.9351334297646
 20
156.2310586796021
 30
0.0
 10
385.0345922177244
 20
156.508122379264
 30
0.0
 10
385.1606364710575
 20
156.7741225600846
 30
0.0
 10
385.312243917933
 20
157.0265011245446
 30
0.0
 10
385.4879012003225
 20
157.2628181857924
 30
0.0
 10
385.6859339897309
 20
157.4808035892044
 30
0.0
 10
385.9044211902087
 20
157.6783525450161
 30
0.0
 10
386.1412715555834
 20
157.8535563359861
 30
0.0
 10
386.3941978980172
 20
158.0047344545233
 30
0.0
 10
386.6607666541809
 20
158.130417734872
 30
0.0
 10
386.9384079243421
 20
158.2294030111119
 30
0.0
 10
387.2244499789504
 20
158.3007282309323
 30
0.0
 10
387.5161376780141
 20
158.3437088218575
 30
0.0
 10
387.8106615355643
 20
158.357925372828
 30
0.0
 10
388.105186406616
 20
158.3432403198087
 30
0.0
 10
388.3968741260206
 20
158.2997930913542
 30
0.0
 10
388.6829164383522
 20
158.2279969151541
 30
0.0
 10
388.9605586615958
 20
158.1285468987485
 30
0.0
 10
389.227125831057
 20
158.0023920949159
 30
0.0
 10
389.4800513199343
 20
157.8507479275369
 30
0.0
 10
389.7169008553753
 20
157.6750744135934
 30
0.0
 10
389.9353939214273
 20
157.4770596321396
 30
0.0
 10
390.1334199992766
 20
157.2586046617209
 30
0.0
 10
390.309079866788
 20
157.0218186830582
 30
0.0
 10
390.4606861241686
 20
156.7689729683705
 30
0.0
 10
390.586730675004
 20
156.5025040082623
 30
0.0
 10
390.686189627368
 20
156.224973109785
 30
0.0
 10
390.7574028668381
 20
155.9390560944655
 30
0.0
 10
390.8023099398104
 20
155.6474960557128
 30
0.0
 10
390.8078766680866
 20
155.4512361951761
 30
0.0
 10
390.8106600375326
 20
155.3531060777779
 30
0.0
  0
LINE
  5
31F
330
1F
100
AcDbEntity
  8
0
  6
HIDDEN
 62
     7
370
    18
100
AcDbLine
 10
378.068937871
 20
128.7112153219
 30
0.0
 11
374.4915099324
 21
133.8139372962
 31
0.0
  0
LINE
  5
320
330
1F
100
AcDbEntity
  8
0
  6
HIDDEN
 62
     7
370
    18
100
AcDbLine
 10
270.1298174889
 20
133.8139372962
 30
0.0
 11
266.5523839624
 21
128.7112153219
 31
0.0
  0
LINE
  5
321
330
1F
100
AcDbEntity
  8
0
  6
HIDDEN
 62
     7
370
    18
100
AcDbLine
 10
260.8106610806
 20
137.3830541121
 30
0.0
 11
269.3106634052
 21
137.3830541121
 31
0.0
  0
LINE
  5
322
330
1F
100
AcDbEntity
  8
0
  6
HIDDEN
 62
     7
370
    18
100
AcDbLine
 10
375.3106621535
 20
137.3830541121
 30
0.0
 11
383.8106607528
 21
137.3830541121
 31
0.0
  0
LINE
  5
323
330
1F
100
AcDbEntity
  8
0
  6
HIDDEN
 62
     7
370
    18
100
AcDbLine
 10
272.3106620343
 20
147.3839041861
 30
0.0
 11
272.3106620343
 21
158.7478656871
 31
0.0
  0
LINE
  5
324
330
1F
100
AcDbEntity
  8
0
  6
HIDDEN
 62
     7
370
    18
100
AcDbLine
 10
272.3106620343
 20
159.8683089102
 30
0.0
 11
272.3106620343
 21
171.2322701784
 31
0.0
  0
LINE
  5
325
330
1F
100
AcDbEntity
  8
0
  6
HIDDEN
 62
     7
370
    18
100
AcDbLine
 10
372.3106616618
 20
171.2322701784
 30
0.0
 11
372.3106616618
 21
159.8683089102
 31
0.0
  0
LINE
  5
326
330
1F
100
AcDbEntity
  8
0
  6
HIDDEN
 62
     7
370
    18
100
AcDbLine
 10
372.3106616618
 20
158.7478656871
 30
0.0
 11
372.3106616618
 21
147.3839041861
 31
0.0
  0
LINE
  5
327
330
1F
100
AcDbEntity
  8
0
  6
HIDDEN
 62
     7
370
    18
100
AcDbLine
 10
255.8106583984
 20
169.767803614
 30
0.0
 11
388.810663435
 21
169.767803614
 31
0.0
  0
LINE
  5
328
330
1F
100
AcDbEntity
  8
0
  6
HIDDEN
 62
     7
370
    18
100
AcDbLine
 10
256.810660425
 20
110.3568553077
 30
0.0
 11
256.810660425
 21
108.3568549799
 31
0.0
  0
LINE
  5
329
330
1F
100
AcDbEntity
  8
0
  6
HIDDEN
 62
     7
370
    18
100
AcDbLine
 10
255.8106583984
 20
111.356853609
 30
0.0
 11
253.8106617959
 21
111.356853609
 31
0.0
  0
LINE
  5
32A
330
1F
100
AcDbEntity
  8
0
  6
HIDDEN
 62
     7
370
    18
100
AcDbLine
 10
387.8106614084
 20
110.3568553077
 30
0.0
 11
387.8106614084
 21
108.3568549799
 31
0.0
  0
LINE
  5
32B
330
1F
100
AcDbEntity
  8
0
  6
HIDDEN
 62
     7
370
    18
100
AcDbLine
 10
388.810663435
 20
111.356853609
 30
0.0
 11
390.8106600375
 21
111.356853609
 31
0.0
  0
POINT
  5
32C
330
1F
100
AcDbEntity
  8
SLD-0
100
AcDbPoint
 10
256.8130195527
 20
208.3531093887
 30
0.0
  0
POINT
  5
32D
330
1F
100
AcDbEntity
  8
SLD-0
100
AcDbPoint
 10
256.8130195527
 20
158.3531093887
 30
0.0
  0
DIMENSION
  5
32E
330
1F
100
AcDbEntity
  8
SLD-0
100
AcDbDimension
  2
_D_5
 10
288.1942633835
 20
187.3830546567
 30
0.0
 11
288.1942633835
 21
197.8680820227
 31
0.0
 70
   160
  1
<>
 71
     2
 42
-1.0
  3
SLDDIMSTYLE2
100
AcDbAlignedDimension
 13
256.8130195527
 23
208.3531093887
 33
0.0
 14
269.310661884
 24
187.3830546567
 34
0.0
 50
90.0
100
AcDbRotatedDimension
  0
DIMENSION
  5
339
330
1F
100
AcDbEntity
  8
SLD-0
100
AcDbDimension
  2
_D_6
 10
219.810661884
 20
108.3568537731
 30
0.0
 11
219.810661884
 21
158.3549815809
 31
0.0
 70
   160
  1
<>
 71
     2
 42
-1.0
  3
SLDDIMSTYLE3
100
AcDbAlignedDimension
 13
256.8130195527
 23
208.3531093887
 33
0.0
 14
256.810661884
 24
108.3568537731
 34
0.0
 50
90.0
100
AcDbRotatedDimension
  0
DIMENSION
  5
344
330
1F
100
AcDbEntity
  8
SLD-0
100
AcDbDimension
  2
_D_7
 10
237.810661884
 20
208.3531093887
 30
0.0
 11
237.810661884
 21
183.3531093887
 31
0.0
 70
   160
  1
<>
 71
     2
 42
-1.0
  3
SLDDIMSTYLE3
100
AcDbAlignedDimension
 13
256.8130195527
 23
158.3531093887
 33
0.0
 14
256.8130195527
 24
208.3531093887
 34
0.0
 50
90.0
100
AcDbRotatedDimension
  0
DIMENSION
  5
34E
330
1F
100
AcDbEntity
  8
SLD-0
100
AcDbDimension
  2
_D_8
 10
390.810661884
 20
260.3568537731
 30
0.0
 11
322.310661884
 21
260.3568537731
 31
0.0
 70
   160
  1
<>
 71
     2
 42
-1.0
  3
SLDDIMSTYLE3
100
AcDbAlignedDimension
 13
253.810661884
 23
205.3531061139
 33
0.0
 14
390.810661884
 24
205.3531061139
 34
0.0
 50
0.0
100
AcDbRotatedDimension
  0
DIMENSION
  5
358
330
1F
100
AcDbEntity
  8
SLD-0
100
AcDbDimension
  2
_D_9
 10
384.810661884
 20
242.3568537731
 30
0.0
 11
322.310661884
 21
242.3568537731
 31
0.0
 70
   160
  1
<>
 71
     2
 42
-1.0
  3
SLDDIMSTYLE3
100
AcDbAlignedDimension
 13
259.810661884
 23
205.3605967565
 33
0.0
 14
384.810661884
 24
205.3605967565
 34
0.0
 50
0.0
100
AcDbRotatedDimension
  0
DIMENSION
  5
362
330
1F
100
AcDbEntity
  8
SLD-0
100
AcDbDimension
  2
_D_10
 10
372.310661884
 20
224.3568537731
 30
0.0
 11
322.310661884
 21
224.3568537731
 31
0.0
 70
   160
  1
<>
 71
     2
 42
-1.0
  3
SLDDIMSTYLE3
100
AcDbAlignedDimension
 13
272.310661884
 23
184.3867976401
 33
0.0
 14
372.310661884
 24
184.3867976401
 34
0.0
 50
0.0
100
AcDbRotatedDimension
  0
DIMENSION
  5
36C
330
1F
100
AcDbEntity
  8
SLD-0
100
AcDbDimension
  2
_D_11
 10
322.310661884
 20
108.3568537731
 30
0.0
 11
322.310661884
 21
102.2658042146
 31
0.0
 70
   160
  1
<>
 71
     2
 42
-1.0
  3
SLDDIMSTYLE4
100
AcDbAlignedDimension
 13
387.810661884
 23
110.3568537731
 33
0.0
 14
387.810661884
 24
108.3568537731
 34
0.0
 50
90.0
100
AcDbRotatedDimension
  0
ENDSEC
  0
SECTION
  2
OBJECTS
  0
DICTIONARY
  5
C
330
0
100
AcDbDictionary
281
     1
  3
ACAD_GROUP
350
D
  3
ACAD_LAYOUT
350
1A
  3
ACAD_MLINESTYLE
350
17
  3
ACAD_PLOTSETTINGS
350
19
  3
ACAD_PLOTSTYLENAME
350
E
  3
ACAD_SCALELIST
350
47
  0
DICTIONARY
  5
D
102
{ACAD_REACTORS
330
C
102
}
330
C
100
AcDbDictionary
281
     1
  0
DICTIONARY
  5
1A
102
{ACAD_REACTORS
330
C
102
}
330
C
100
AcDbDictionary
281
     1
  3
Layout1
350
1E
  3
Layout2
350
26
  3
Model
350
22
  0
DICTIONARY
  5
17
102
{ACAD_REACTORS
330
C
102
}
330
C
100
AcDbDictionary
281
     1
  3
Standard
350
18
  0
DICTIONARY
  5
19
102
{ACAD_REACTORS
330
C
102
}
330
C
100
AcDbDictionary
281
     1
  0
ACDBDICTIONARYWDFLT
  5
E
102
{ACAD_REACTORS
330
C
102
}
330
C
100
AcDbDictionary
281
     1
  3
Normal
350
F
100
AcDbDictionaryWithDefault
340
F
  0
DICTIONARY
  5
47
102
{ACAD_REACTORS
330
C
102
}
330
C
100
AcDbDictionary
281
     1
  3
A0
350
48
  3
A1
350
49
  3
A2
350
4A
  3
A3
350
4B
  3
A4
350
4C
  3
A5
350
4D
  3
A6
350
4E
  3
A7
350
4F
  3
A8
350
50
  3
A9
350
51
  3
B0
350
52
  3
B1
350
53
  3
B2
350
54
  3
B3
350
55
  3
B4
350
56
  3
B5
350
57
  3
B6
350
58
  3
B7
350
59
  3
B8
350
5A
  3
B9
350
5B
  3
C0
350
5C
  3
C1
350
5D
  3
C2
350
5E
  3
C3
350
5F
  3
C4
350
60
  3
C5
350
61
  3
C6
350
62
  3
C7
350
63
  3
C8
350
64
  3
C9
350
65
  3
D0
350
66
  3
D1
350
67
  3
D2
350
68
  0
LAYOUT
  5
1E
102
{ACAD_REACTORS
330
1A
102
}
330
1A
100
AcDbPlotSettings
  1

  2
none_device
  4

  6

 40
0.0
 41
0.0
 42
0.0
 43
0.0
 44
0.0
 45
0.0
 46
0.0
 47
0.0
 48
0.0
 49
0.0
140
0.0
141
0.0
142
1.0
143
1.0
 70
   688
 72
     1
 73
     0
 74
     5
  7

 75
    16
147
1.0
148
0.0
149
0.0
100
AcDbLayout
  1
Layout1
 70
     1
 71
     1
 10
0.0
 20
0.0
 11
420.0
 21
297.0
 12
0.0
 22
0.0
 32
0.0
 14
1.0000000000E+20
 24
1.0000000000E+20
 34
1.0000000000E+20
 15
-1.0000000000E+20
 25
-1.0000000000E+20
 35
-1.0000000000E+20
146
0.0
 13
0.0
 23
0.0
 33
0.0
 16
1.0
 26
0.0
 36
0.0
 17
0.0
 27
1.0
 37
0.0
 76
     0
330
1B
  0
LAYOUT
  5
26
102
{ACAD_REACTORS
330
1A
102
}
330
1A
100
AcDbPlotSettings
  1

  2
none_device
  4

  6

 40
0.0
 41
0.0
 42
0.0
 43
0.0
 44
0.0
 45
0.0
 46
0.0
 47
0.0
 48
0.0
 49
0.0
140
0.0
141
0.0
142
1.0
143
1.0
 70
   688
 72
     1
 73
     0
 74
     5
  7

 75
    16
147
1.0
148
0.0
149
0.0
100
AcDbLayout
  1
Layout2
 70
     1
 71
     2
 10
0.0
 20
0.0
 11
0.0
 21
0.0
 12
0.0
 22
0.0
 32
0.0
 14
0.0
 24
0.0
 34
0.0
 15
0.0
 25
0.0
 35
0.0
146
0.0
 13
0.0
 23
0.0
 33
0.0
 16
1.0
 26
0.0
 36
0.0
 17
0.0
 27
1.0
 37
0.0
 76
     0
330
23
  0
LAYOUT
  5
22
102
{ACAD_REACTORS
330
1A
102
}
330
1A
100
AcDbPlotSettings
  1

  2
none_device
  4
Letter_(8.50_x_11.00_Inches)
  6

 40
6.35
 41
6.35
 42
6.35000508
 43
6.35000508
 44
215.9
 45
279.4
 46
0.0
 47
0.0
 48
0.0
 49
0.0
140
0.0
141
0.0
142
1.0
143
1.0
 70
  1712
 72
     1
 73
     0
 74
     0
  7

 75
     0
147
1.0
148
0.0
149
0.0
100
AcDbLayout
  1
Model
 70
     1
 71
     0
 10
0.0
 20
0.0
 11
420.0
 21
297.0
 12
0.0
 22
0.0
 32
0.0
 14
0.0
 24
0.0
 34
0.0
 15
420.0
 25
297.0
 35
0.0
146
0.0
 13
0.0
 23
0.0
 33
0.0
 16
1.0
 26
0.0
 36
0.0
 17
0.0
 27
1.0
 37
0.0
 76
     0
330
1F
331
29
  0
MLINESTYLE
  5
18
102
{ACAD_REACTORS
330
17
102
}
330
17
100
AcDbMlineStyle
  2
Standard
 70
     0
  3

 62
   256
 51
90.0
 52
90.0
 71
     2
 49
0.5
 62
   256
  6
BYLAYER
 49
-0.5
 62
   256
  6
BYLAYER
  0
ACDBPLACEHOLDER
  5
F
102
{ACAD_REACTORS
330
E
102
}
330
E
  0
SCALE
  5
48
102
{ACAD_REACTORS
330
47
102
}
330
47
100
AcDbScale
 70
     0
300
1:1
140
1.0
141
1.0
290
     1
  0
SCALE
  5
49
102
{ACAD_REACTORS
330
47
102
}
330
47
100
AcDbScale
 70
     0
300
1:2
140
1.0
141
2.0
290
     0
  0
SCALE
  5
4A
102
{ACAD_REACTORS
330
47
102
}
330
47
100
AcDbScale
 70
     0
300
1:4
140
1.0
141
4.0
290
     0
  0
SCALE
  5
4B
102
{ACAD_REACTORS
330
47
102
}
330
47
100
AcDbScale
 70
     0
300
1:5
140
1.0
141
5.0
290
     0
  0
SCALE
  5
4C
102
{ACAD_REACTORS
330
47
102
}
330
47
100
AcDbScale
 70
     0
300
1:8
140
1.0
141
8.0
290
     0
  0
SCALE
  5
4D
102
{ACAD_REACTORS
330
47
102
}
330
47
100
AcDbScale
 70
     0
300
1:10
140
1.0
141
10.0
290
     0
  0
SCALE
  5
4E
102
{ACAD_REACTORS
330
47
102
}
330
47
100
AcDbScale
 70
     0
300
1:16
140
1.0
141
16.0
290
     0
  0
SCALE
  5
4F
102
{ACAD_REACTORS
330
47
102
}
330
47
100
AcDbScale
 70
     0
300
1:20
140
1.0
141
20.0
290
     0
  0
SCALE
  5
50
102
{ACAD_REACTORS
330
47
102
}
330
47
100
AcDbScale
 70
     0
300
1:30
140
1.0
141
30.0
290
     0
  0
SCALE
  5
51
102
{ACAD_REACTORS
330
47
102
}
330
47
100
AcDbScale
 70
     0
300
1:40
140
1.0
141
40.0
290
     0
  0
SCALE
  5
52
102
{ACAD_REACTORS
330
47
102
}
330
47
100
AcDbScale
 70
     0
300
1:50
140
1.0
141
50.0
290
     0
  0
SCALE
  5
53
102
{ACAD_REACTORS
330
47
102
}
330
47
100
AcDbScale
 70
     0
300
1:100
140
1.0
141
100.0
290
     0
  0
SCALE
  5
54
102
{ACAD_REACTORS
330
47
102
}
330
47
100
AcDbScale
 70
     0
300
2:1
140
2.0
141
1.0
290
     0
  0
SCALE
  5
55
102
{ACAD_REACTORS
330
47
102
}
330
47
100
AcDbScale
 70
     0
300
4:1
140
4.0
141
1.0
290
     0
  0
SCALE
  5
56
102
{ACAD_REACTORS
330
47
102
}
330
47
100
AcDbScale
 70
     0
300
8:1
140
8.0
141
1.0
290
     0
  0
SCALE
  5
57
102
{ACAD_REACTORS
330
47
102
}
330
47
100
AcDbScale
 70
     0
300
10:1
140
10.0
141
1.0
290
     0
  0
SCALE
  5
58
102
{ACAD_REACTORS
330
47
102
}
330
47
100
AcDbScale
 70
     0
300
100:1
140
100.0
141
1.0
290
     0
  0
SCALE
  5
59
102
{ACAD_REACTORS
330
47
102
}
330
47
100
AcDbScale
 70
     0
300
1/128" = 1'-0"
140
0.0078125
141
12.0
290
     0
  0
SCALE
  5
5A
102
{ACAD_REACTORS
330
47
102
}
330
47
100
AcDbScale
 70
     0
300
1/64" = 1'-0"
140
0.015625
141
12.0
290
     0
  0
SCALE
  5
5B
102
{ACAD_REACTORS
330
47
102
}
330
47
100
AcDbScale
 70
     0
300
1/32" = 1'-0"
140
0.03125
141
12.0
290
     0
  0
SCALE
  5
5C
102
{ACAD_REACTORS
330
47
102
}
330
47
100
AcDbScale
 70
     0
300
1/16" = 1'-0"
140
0.0625
141
12.0
290
     0
  0
SCALE
  5
5D
102
{ACAD_REACTORS
330
47
102
}
330
47
100
AcDbScale
 70
     0
300
3/32" = 1'-0"
140
0.09375
141
12.0
290
     0
  0
SCALE
  5
5E
102
{ACAD_REACTORS
330
47
102
}
330
47
100
AcDbScale
 70
     0
300
1/8" = 1'-0"
140
0.125
141
12.0
290
     0
  0
SCALE
  5
5F
102
{ACAD_REACTORS
330
47
102
}
330
47
100
AcDbScale
 70
     0
300
3/16" = 1'-0"
140
0.1875
141
12.0
290
     0
  0
SCALE
  5
60
102
{ACAD_REACTORS
330
47
102
}
330
47
100
AcDbScale
 70
     0
300
1/4" = 1'-0"
140
0.25
141
12.0
290
     0
  0
SCALE
  5
61
102
{ACAD_REACTORS
330
47
102
}
330
47
100
AcDbScale
 70
     0
300
3/8" = 1'-0"
140
0.375
141
12.0
290
     0
  0
SCALE
  5
62
102
{ACAD_REACTORS
330
47
102
}
330
47
100
AcDbScale
 70
     0
300
1/2" = 1'-0"
140
0.5
141
12.0
290
     0
  0
SCALE
  5
63
102
{ACAD_REACTORS
330
47
102
}
330
47
100
AcDbScale
 70
     0
300
3/4" = 1'-0"
140
0.75
141
12.0
290
     0
  0
SCALE
  5
64
102
{ACAD_REACTORS
330
47
102
}
330
47
100
AcDbScale
 70
     0
300
1" = 1'-0"
140
1.0
141
12.0
290
     0
  0
SCALE
  5
65
102
{ACAD_REACTORS
330
47
102
}
330
47
100
AcDbScale
 70
     0
300
1-1/2" = 1'-0"
140
1.5
141
12.0
290
     0
  0
SCALE
  5
66
102
{ACAD_REACTORS
330
47
102
}
330
47
100
AcDbScale
 70
     0
300
3" = 1'-0"
140
3.0
141
12.0
290
     0
  0
SCALE
  5
67
102
{ACAD_REACTORS
330
47
102
}
330
47
100
AcDbScale
 70
     0
300
6" = 1'-0"
140
6.0
141
12.0
290
     0
  0
SCALE
  5
68
102
{ACAD_REACTORS
330
47
102
}
330
47
100
AcDbScale
 70
     0
300
1'-0" = 1'-0"
140
12.0
141
12.0
290
     0
  0
ENDSEC
  0
EOF
