  0
SECTION
  2
HEADER
  9
$ACADVER
  1
AC1015
  9
$ACADMAINTVER
 70
    20
  9
$DWGCODEPAGE
  3
ANSI_1252
  9
$INSBASE
 10
0.0
 20
0.0
 30
0.0
  9
$EXTMIN
 10
1099.205838239177
 20
1075.727423372343
 30
0.0
  9
$EXTMAX
 10
2327.58962307664
 20
2176.691600518338
 30
0.0
  9
$LIMMIN
 10
0.0
 20
0.0
  9
$LIMMAX
 10
420.0
 20
297.0
  9
$ORTHOMODE
 70
     0
  9
$REGENMODE
 70
     1
  9
$FILLMODE
 70
     1
  9
$QTEXTMODE
 70
     0
  9
$MIRRTEXT
 70
     1
  9
$LTSCALE
 40
1.0
  9
$ATTMODE
 70
     1
  9
$TEXTSIZE
 40
2.5
  9
$TRACEWID
 40
1.0
  9
$TEXTSTYLE
  7
STANDARD
  9
$CLAYER
  8
0
  9
$CELTYPE
  6
ByLayer
  9
$CECOLOR
 62
   256
  9
$CELTSCALE
 40
1.0
  9
$DISPSILH
 70
     0
  9
$DIMSCALE
 40
1.0
  9
$DIMASZ
 40
2.5
  9
$DIMEXO
 40
1.0
  9
$DIMDLI
 40
10.0
  9
$DIMRND
 40
0.0
  9
$DIMDLE
 40
0.0
  9
$DIMEXE
 40
1.0
  9
$DIMTP
 40
0.1
  9
$DIMTM
 40
0.1
  9
$DIMTXT
 40
3.5
  9
$DIMCEN
 40
0.0
  9
$DIMTSZ
 40
0.0
  9
$DIMTOL
 70
     0
  9
$DIMLIM
 70
     0
  9
$DIMTIH
 70
     0
  9
$DIMTOH
 70
     0
  9
$DIMSE1
 70
     0
  9
$DIMSE2
 70
     0
  9
$DIMTAD
 70
     1
  9
$DIMZIN
 70
     8
  9
$DIMBLK
  1

  9
$DIMASO
 70
     1
  9
$DIMSHO
 70
     1
  9
$DIMPOST
  1

  9
$DIMAPOST
  1
"
  9
$DIMALT
 70
     0
  9
$DIMALTD
 70
     2
  9
$DIMALTF
 40
0.0393701
  9
$DIMLFAC
 40
1.0
  9
$DIMTOFL
 70
     1
  9
$DIMTVP
 40
0.0
  9
$DIMTIX
 70
     0
  9
$DIMSOXD
 70
     0
  9
$DIMSAH
 70
     0
  9
$DIMBLK1
  1

  9
$DIMBLK2
  1

  9
$DIMSTYLE
  2
AM_DIN
  9
$DIMCLRD
 70
   256
  9
$DIMCLRE
 70
   256
  9
$DIMCLRT
 70
     2
  9
$DIMTFAC
 40
0.71
  9
$DIMGAP
 40
1.5
  9
$DIMJUST
 70
     0
  9
$DIMSD1
 70
     0
  9
$DIMSD2
 70
     0
  9
$DIMTOLJ
 70
     0
  9
$DIMTZIN
 70
     8
  9
$DIMALTZ
 70
     0
  9
$DIMALTTZ
 70
     0
  9
$DIMUPT
 70
     0
  9
$DIMDEC
 70
     2
  9
$DIMTDEC
 70
     3
  9
$DIMALTU
 70
     2
  9
$DIMALTTD
 70
     4
  9
$DIMTXSTY
  7
STANDARD
  9
$DIMAUNIT
 70
     0
  9
$DIMADEC
 70
     0
  9
$DIMALTRND
 40
0.0
  9
$DIMAZIN
 70
     2
  9
$DIMDSEP
 70
    46
  9
$DIMATFIT
 70
     3
  9
$DIMFRAC
 70
     0
  9
$DIMLDRBLK
  1

  9
$DIMLUNIT
 70
     2
  9
$DIMLWD
 70
    -1
  9
$DIMLWE
 70
    -1
  9
$DIMTMOVE
 70
     0
  9
$LUNITS
 70
     2
  9
$LUPREC
 70
     2
  9
$SKETCHINC
 40
1.0
  9
$FILLETRAD
 40
2.5
  9
$AUNITS
 70
     0
  9
$AUPREC
 70
     0
  9
$MENU
  1
.
  9
$ELEVATION
 40
0.0
  9
$PELEVATION
 40
0.0
  9
$THICKNESS
 40
0.0
  9
$LIMCHECK
 70
     0
  9
$CHAMFERA
 40
2.5
  9
$CHAMFERB
 40
2.5
  9
$CHAMFERC
 40
20.0
  9
$CHAMFERD
 40
0.0
  9
$SKPOLY
 70
     0
  9
$TDCREATE
 40
2454053.360596968
  9
$TDUCREATE
 40
2454053.318930301
  9
$TDUPDATE
 40
2454053.360799687
  9
$TDUUPDATE
 40
2454053.319133021
  9
$TDINDWG
 40
0.0002029051
  9
$TDUSRTIMER
 40
0.0002029051
  9
$USRTIMER
 70
     1
  9
$ANGBASE
 50
0.0
  9
$ANGDIR
 70
     0
  9
$PDMODE
 70
     0
  9
$PDSIZE
 40
0.0
  9
$PLINEWID
 40
0.0
  9
$SPLFRAME
 70
     0
  9
$SPLINETYPE
 70
     6
  9
$SPLINESEGS
 70
     8
  9
$HANDSEED
  5
87A
  9
$SURFTAB1
 70
     6
  9
$SURFTAB2
 70
     6
  9
$SURFTYPE
 70
     6
  9
$SURFU
 70
     6
  9
$SURFV
 70
     6
  9
$UCSBASE
  2

  9
$UCSNAME
  2

  9
$UCSORG
 10
0.0
 20
0.0
 30
0.0
  9
$UCSXDIR
 10
1.0
 20
0.0
 30
0.0
  9
$UCSYDIR
 10
0.0
 20
1.0
 30
0.0
  9
$UCSORTHOREF
  2

  9
$UCSORTHOVIEW
 70
     0
  9
$UCSORGTOP
 10
0.0
 20
0.0
 30
0.0
  9
$UCSORGBOTTOM
 10
0.0
 20
0.0
 30
0.0
  9
$UCSORGLEFT
 10
0.0
 20
0.0
 30
0.0
  9
$UCSORGRIGHT
 10
0.0
 20
0.0
 30
0.0
  9
$UCSORGFRONT
 10
0.0
 20
0.0
 30
0.0
  9
$UCSORGBACK
 10
0.0
 20
0.0
 30
0.0
  9
$PUCSBASE
  2

  9
$PUCSNAME
  2

  9
$PUCSORG
 10
0.0
 20
0.0
 30
0.0
  9
$PUCSXDIR
 10
1.0
 20
0.0
 30
0.0
  9
$PUCSYDIR
 10
0.0
 20
1.0
 30
0.0
  9
$PUCSORTHOREF
  2

  9
$PUCSORTHOVIEW
 70
     0
  9
$PUCSORGTOP
 10
0.0
 20
0.0
 30
0.0
  9
$PUCSORGBOTTOM
 10
0.0
 20
0.0
 30
0.0
  9
$PUCSORGLEFT
 10
0.0
 20
0.0
 30
0.0
  9
$PUCSORGRIGHT
 10
0.0
 20
0.0
 30
0.0
  9
$PUCSORGFRONT
 10
0.0
 20
0.0
 30
0.0
  9
$PUCSORGBACK
 10
0.0
 20
0.0
 30
0.0
  9
$USERI1
 70
     0
  9
$USERI2
 70
     0
  9
$USERI3
 70
     0
  9
$USERI4
 70
     0
  9
$USERI5
 70
     0
  9
$USERR1
 40
0.0
  9
$USERR2
 40
0.0
  9
$USERR3
 40
0.0
  9
$USERR4
 40
0.0
  9
$USERR5
 40
0.0
  9
$WORLDVIEW
 70
     1
  9
$SHADEDGE
 70
     3
  9
$SHADEDIF
 70
    70
  9
$TILEMODE
 70
     1
  9
$MAXACTVP
 70
    64
  9
$PINSBASE
 10
0.0
 20
0.0
 30
0.0
  9
$PLIMCHECK
 70
     0
  9
$PEXTMIN
 10
1.000000000000000E+20
 20
1.000000000000000E+20
 30
1.000000000000000E+20
  9
$PEXTMAX
 10
-1.000000000000000E+20
 20
-1.000000000000000E+20
 30
-1.000000000000000E+20
  9
$PLIMMIN
 10
0.0
 20
0.0
  9
$PLIMMAX
 10
420.0
 20
297.0
  9
$UNITMODE
 70
     0
  9
$VISRETAIN
 70
     1
  9
$PLINEGEN
 70
     0
  9
$PSLTSCALE
 70
     1
  9
$TREEDEPTH
 70
  3020
  9
$CMLSTYLE
  2
Standard
  9
$CMLJUST
 70
     0
  9
$CMLSCALE
 40
20.0
  9
$PROXYGRAPHICS
 70
     1
  9
$MEASUREMENT
 70
     1
  9
$CELWEIGHT
370
    -1
  9
$ENDCAPS
280
     0
  9
$JOINSTYLE
280
     0
  9
$LWDISPLAY
290
     0
  9
$INSUNITS
 70
     4
  9
$HYPERLINKBASE
  1

  9
$STYLESHEET
  1

  9
$XEDIT
290
     1
  9
$CEPSNTYPE
380
     0
  9
$PSTYLEMODE
290
     1
  9
$FINGERPRINTGUID
  2
{77C0E68B-D175-40A7-A38F-34D368B63DDE}
  9
$VERSIONGUID
  2
{3279B1CE-9E40-48F2-A6AE-F45ABAEF8353}
  9
$EXTNAMES
290
     1
  9
$PSVPSCALE
 40
0.0
  9
$OLESTARTUP
290
     0
  0
ENDSEC
  0
SECTION
  2
CLASSES
  0
CLASS
  1
ACDBDICTIONARYWDFLT
  2
AcDbDictionaryWithDefault
  3
ObjectDBX Classes
 90
        0
280
     0
281
     0
  0
CLASS
  1
ACDBPLACEHOLDER
  2
AcDbPlaceHolder
  3
ObjectDBX Classes
 90
        0
280
     0
281
     0
  0
CLASS
  1
LAYOUT
  2
AcDbLayout
  3
ObjectDBX Classes
 90
        0
280
     0
281
     0
  0
CLASS
  1
AMGSETTINGSOBJ
  2
AmgSettingsObj
  3
"AcadM|Product Description: AutoCAD Mechanical 2000|Company: Autodesk"
 90
        0
280
     0
281
     0
  0
CLASS
  1
ACME_DOCUMENT
  2
AcMeDbDoc
  3
AcMeServices
 90
        0
280
     0
281
     0
  0
CLASS
  1
ACMESCOPE
  2
AcMeScope
  3
AcMeServices
 90
        0
280
     0
281
     0
  0
CLASS
  1
ACMECOMMANDHISTORY
  2
AcMeCommandHistory
  3
AcMeServices
 90
        0
280
     0
281
     0
  0
CLASS
  1
DICTIONARYVAR
  2
AcDbDictionaryVar
  3
ObjectDBX Classes
 90
        0
280
     0
281
     0
  0
CLASS
  1
ACIMSYSVARMAN
  2
AcImSysVarManager
  3
AcMeServices
 90
        0
280
     0
281
     0
  0
CLASS
  1
ACIMREALSYSVAR
  2
AcImRealSysVar
  3
AcMeServices
 90
        0
280
     0
281
     0
  0
CLASS
  1
ACIMINTSYSVAR
  2
AcImIntSysVar
  3
AcMeServices
 90
        0
280
     0
281
     0
  0
CLASS
  1
ACMEDRAWINGMAN
  2
AcMeDrawingMan
  3
AcMeServices
 90
        0
280
     0
281
     0
  0
CLASS
  1
ACMEVIEW
  2
AcMeView
  3
AcMeServices
 90
        0
280
     0
281
     0
  0
CLASS
  1
ACDBENTITYCACHE
  2
AcMeEntityCache
  3
AcMeServices
 90
        0
280
     0
281
     0
  0
CLASS
  1
GSMANAGER
  2
AcMeGSManager
  3
AcMeServices
 90
        0
280
     0
281
     0
  0
CLASS
  1
AMDTINTERNALREACTOR
  2
AmdtInternalReactor
  3
AcMeServices
 90
        0
280
     0
281
     0
  0
CLASS
  1
ACMESTATEMGR
  2
AcMeStateMgr
  3
AcMeServices
 90
        0
280
     0
281
     0
  0
CLASS
  1
ACGREFMASTER
  2
AcGrefMaster
  3
AcAttribServices
 90
        0
280
     0
281
     0
  0
CLASS
  1
ACME_DATABASE
  2
AcMeDbDatabase
  3
AcMeServices
 90
        0
280
     0
281
     0
  0
CLASS
  1
ACRFINSADJUSTERMGR
  2
AcRfInsAdjusterMgr
  3
AcMeServices
 90
        0
280
     0
281
     0
  0
CLASS
  1
ACGREFACADMASTER
  2
AcGrefacadMaster
  3
AcGrefServices
 90
        0
280
     0
281
     0
  0
CLASS
  1
AMIMASTER
  2
AmiMaster
  3
AmiServices
 90
        0
280
     0
281
     0
  0
CLASS
  1
ACIMSTRSYSVAR
  2
AcImStrSysVar
  3
AcMeServices
 90
        0
280
     0
281
     0
  0
CLASS
  1
ACMSTANDARDDIN
  2
AcmStandardDIN
  3
"Amdt_StdImp|Product Description: AutoCAD Mechanical 2004 DX|Company: Autodesk"
 90
        0
280
     0
281
     0
  0
CLASS
  1
AMGOBJPROPCFG
  2
AmgObjPropCfg
  3
"AmgLay|Product Description: AutoCAD Mechanical 2000|Company: Autodesk"
 90
        1
280
     0
281
     0
  0
CLASS
  1
AMDTEDGESTANDARDDIN
  2
AmdtEdgeStdDIN
  3
"Amdt_StdImp|Product Description: AutoCAD Mechanical 2004 DX|Company: Autodesk"
 90
        0
280
     0
281
     0
  0
CLASS
  1
ACMSURFSTANDARDDIN
  2
AcmSurfTextStdDIN
  3
"Amdt_StdImp|Product Description: AutoCAD Mechanical 2004 DX|Company: Autodesk"
 90
        0
280
     0
281
     0
  0
CLASS
  1
ACMFCFSTANDARDDIN
  2
AcmFCFStdDIN
  3
"Amdt_StdImp|Product Description: AutoCAD Mechanical 2004 DX|Company: Autodesk"
 90
        0
280
     0
281
     0
  0
CLASS
  1
ACMWELDSTANDARDDIN
  2
AcmWeldingStdDIN
  3
"Amdt_StdImp|Product Description: AutoCAD Mechanical 2004 DX|Company: Autodesk"
 90
        0
280
     0
281
     0
  0
CLASS
  1
ACMIDSTANDARDDIN
  2
AcmIdStdDIN
  3
"Amdt_StdImp|Product Description: AutoCAD Mechanical 2004 DX|Company: Autodesk"
 90
        0
280
     0
281
     0
  0
CLASS
  1
ACMDATUMSTANDARDDIN
  2
AcmDatumStdDIN
  3
"Amdt_StdImp|Product Description: AutoCAD Mechanical 2004 DX|Company: Autodesk"
 90
        0
280
     0
281
     0
  0
CLASS
  1
ACMBOMSTANDARDDIN
  2
AcmBOMStdDIN
  3
"Amdt_StdImp|Product Description: AutoCAD Mechanical 2004 DX|Company: Autodesk"
 90
        0
280
     0
281
     0
  0
CLASS
  1
ACMDETAILSTANDARDDIN
  2
AmdtDetailSymStdDIN
  3
"Amdt_StdImp|Product Description: AutoCAD Mechanical 2004 DX|Company: Autodesk"
 90
        0
280
     0
281
     0
  0
CLASS
  1
ACMSECTIONSTANDARDDIN
  2
AmdtSectionSymStdDIN
  3
"Amdt_StdImp|Product Description: AutoCAD Mechanical 2004 DX|Company: Autodesk"
 90
        0
280
     0
281
     0
  0
CLASS
  1
ACMCENTERLINESTANDARDDIN
  2
AmdtCenterLineStdDIN
  3
"Amdt_StdImp|Product Description: AutoCAD Mechanical 2004 DX|Company: Autodesk"
 90
        0
280
     0
281
     0
  0
CLASS
  1
ACMTHREADLINESTANDARDDIN
  2
AmdtThreadLineStdDIN
  3
"Amdt_StdImp|Product Description: AutoCAD Mechanical 2004 DX|Company: Autodesk"
 90
        0
280
     0
281
     0
  0
CLASS
  1
ACAMGLAYSTD
  2
AcAmgLayStd
  3
"AcAmgLayStd|Product Description: AutoCAD Mechanical 2000|Company: Autodesk"
 90
        0
280
     0
281
     0
  0
CLASS
  1
ACAMGDIMSTD
  2
AcAmgDimStd
  3
"AcAmgDimStd|Product Description: AutoCAD Mechanical 2000|Company: Autodesk"
 90
        0
280
     0
281
     0
  0
CLASS
  1
ACAMGTITLESTD
  2
AcAmgTitleStd
  3
"TITLEAPP"
 90
        0
280
     0
281
     0
  0
CLASS
  1
ACMDATADICTIONARY
  2
AcmDataDictionary
  3
"AcmSymBB|Product Description: AutoCAD Mechanical 2004 DX|Company: Autodesk"
 90
        0
280
     0
281
     0
  0
CLASS
  1
ACMDATAENTRYBLOCK
  2
AcmDataEntryBlock
  3
"AcmSymBB|Product Description: AutoCAD Mechanical 2004 DX|Company: Autodesk"
 90
        0
280
     0
281
     0
  0
CLASS
  1
LAYER_INDEX
  2
AcDbLayerIndex
  3
ObjectDBX Classes
 90
    32768
280
     0
281
     0
  0
CLASS
  1
IDBUFFER
  2
AcDbIdBuffer
  3
ObjectDBX Classes
 90
    32768
280
     0
281
     0
  0
CLASS
  1
ACMNOTESTANDARDDIN
  2
AmdtNoteStdDIN
  3
"Amdt_StdImp|Product Description: AutoCAD Mechanical 2004 DX|Company: Autodesk"
 90
        0
280
     0
281
     0
  0
CLASS
  1
ACAMGHOLECHARTSTDDIN
  2
AcAmgHoleChartStdDIN
  3
ACMSYMBB_MODULE_NAME
 90
        0
280
     0
281
     0
  0
CLASS
  1
AM_DRAWING_MGR
  2
AcDmDwgMgr
  3
AcMechDwgViewMgmt
 90
        0
280
     0
281
     0
  0
CLASS
  1
AM_DWG_DOCUMENT
  2
AcDmDwgDocument
  3
AcMechDwgViewMgmt
 90
        0
280
     0
281
     0
  0
CLASS
  1
AM_DWG_SHEET
  2
AcDmSheet
  3
AcMechDwgViewMgmt
 90
        0
280
     0
281
     0
  0
CLASS
  1
AM_VIEWDIMPARMAP
  2
AcDmViewDimParMap
  3
AcMechDwgViewMgmt
 90
        0
280
     0
281
     0
  0
CLASS
  1
AM_DWGMGR_NAME
  2
AcDmDwgMgrName
  3
AcMechDwgViewMgmt
 90
        0
280
     0
281
     0
  0
CLASS
  1
AMDTMENUSTATEMGR
  2
AmdtMenuStateMgr
  3
McadcomServices
 90
        0
280
     0
281
     0
  0
CLASS
  1
AMDTMCOMMENUSTATE
  2
AmdtMcomMenuState
  3
McadcomServices
 90
        0
280
     0
281
     0
  0
CLASS
  1
MAPIAMMOUDLE
  2
MApiAmModule
  3
MApiAmServices
 90
        0
280
     0
281
     0
  0
CLASS
  1
AMDTADMENUSTATE
  2
AmdtAdMenuState
  3
DesignerServices
 90
        0
280
     0
281
     0
  0
CLASS
  1
ADAPPL
  2
AcAdAppl
  3
DesignerServices
 90
        0
280
     0
281
     0
  0
CLASS
  1
DEPMGR
  2
AcAdDepMgr
  3
DesignerServices
 90
        0
280
     0
281
     0
  0
CLASS
  1
PARAMMGR
  2
AcAdParamMgr
  3
DesignerServices
 90
        0
280
     0
281
     0
  0
CLASS
  1
PARAMSCOPE
  2
AcAdParamScope
  3
DesignerServices
 90
        0
280
     0
281
     0
  0
CLASS
  1
NAMEDAPPL
  2
AcAdNamedAppl
  3
DesignerServices
 90
        0
280
     0
281
     0
  0
CLASS
  1
AMDTDMMENUSTATE
  2
AmdtDmMenuState
  3
AcMechDwgViewMgmt
 90
        0
280
     0
281
     0
  0
CLASS
  1
AMDTAMMENUSTATE
  2
AmdtAmMenuState
  3
DesignerAssemblies
 90
        0
280
     0
281
     0
  0
CLASS
  1
ACAMPROJECT
  2
AcAmProject
  3
DesignerAssemblies
 90
        0
280
     0
281
     0
  0
CLASS
  1
ACAMGRCOMPDEF
  2
AcAmGrCompDef
  3
DesignerAssemblies
 90
        0
280
     0
281
     0
  0
CLASS
  1
ACCMCONTEXT
  2
AcCmContext
  3
DesignerAssemblies
 90
        0
280
     0
281
     0
  0
CLASS
  1
ACAMCOMPDEF
  2
AcAmCompDef
  3
DesignerAssemblies
 90
        0
280
     0
281
     0
  0
CLASS
  1
ACAMCOMPDEFMGR
  2
AcAmCompDefMgr
  3
DesignerAssemblies
 90
        0
280
     0
281
     0
  0
CLASS
  1
AMCONTEXTMGR
  2
AcAmContextMgr
  3
DesignerAssemblies
 90
        0
280
     0
281
     0
  0
CLASS
  1
ACAMCONTEXTMODELER
  2
AcAmContextModeler
  3
DesignerAssemblies
 90
        0
280
     0
281
     0
  0
CLASS
  1
CATALOGSTATE
  2
AcAmCatalogState
  3
DesignerAssemblies
 90
        0
280
     0
281
     0
  0
CLASS
  1
ACAMGRCOMPDEFSET
  2
AcAmGrCompDefSet
  3
DesignerAssemblies
 90
        0
280
     0
281
     0
  0
CLASS
  1
AMDTBROWSERDBTAB
  2
AmdtBrowserDbTab
  3
McadcomServices
 90
        0
280
     0
281
     0
  0
CLASS
  1
CBROWSERAPPOBJECT
  2
CBrowserAppObject
  3
McadcomServices
 90
        0
280
     0
281
     0
  0
CLASS
  1
DM_PLACEHOLDER
  2
AcDmSelsetPlaceholder
  3
AcMechDwgViewMgmt
 90
        0
280
     0
281
     0
  0
CLASS
  1
TABLESTYLE
  2
AcDbTableStyle
  3
ObjectDBX Classes
 90
     2047
280
     0
281
     0
  0
CLASS
  1
VAACXREFPANELOBJECT
  2
VaAcXREFPanelObject
  3
VAAC_ADDIN
 90
    32768
280
     0
281
     0
  0
CLASS
  1
VAACIMAGEINVENTORY
  2
VaAcImageInventory
  3
VAAC_ADDIN
 90
    32768
280
     0
281
     0
  0
CLASS
  1
AMDTNOTETEMPLATEDB
  2
AmdtNoteTemplateDB
  3
AMDT_STDIMP_MODULE_NAME
 90
        0
280
     0
281
     0
  0
CLASS
  1
ACAMGFILTERDAT
  2
AcAmgFilterDat
  3
"AcadM|Product Description: AutoCAD Mechanical 2000|Company: Autodesk"
 90
        0
280
     0
281
     0
  0
CLASS
  1
ACMBOM
  2
AcmBom
  3
"AcmSymBB|Product Description: AutoCAD Mechanical 2004 DX|Company: Autodesk"
 90
    32768
280
     0
281
     0
  0
CLASS
  1
AMDTFORMULAUPDATEDISPATCHER
  2
AmdtFormulaUpdateDispatcher
  3
AcMeServices
 90
    32768
280
     0
281
     0
  0
CLASS
  1
DIMASSOC
  2
AcDbDimAssoc
  3
"AcDbDimAssoc|Product Desc:     AcDim ARX App For Dimension|Company:          Autodesk, Inc.|WEB Address:      www.autodesk.com"
 90
        0
280
     0
281
     0
  0
CLASS
  1
SORTENTSTABLE
  2
AcDbSortentsTable
  3
ObjectDBX Classes
 90
        0
280
     0
281
     0
  0
CLASS
  1
ACRFATTGENMGR
  2
AcRfAttGeneralMgr
  3
AcAttribServices
 90
        0
280
     0
281
     0
  0
ENDSEC
  0
SECTION
  2
TABLES
  0
TABLE
  2
VPORT
  5
8
330
0
100
AcDbSymbolTable
 70
     3
  0
VPORT
  5
871
330
8
100
AcDbSymbolTableRecord
100
AcDbViewportTableRecord
  2
*Active
 70
     0
 10
0.0
 20
0.0
 11
1.0
 21
1.0
 12
1713.397730657908
 22
1626.20951194534
 13
0.0
 23
0.0
 14
2.5
 24
2.5
 15
10.0
 25
10.0
 16
0.0
 26
0.0
 36
1.0
 17
0.0
 27
0.0
 37
0.0
 40
1108.403124288874
 41
1.378804960541149
 42
50.0
 43
0.0
 44
0.0
 50
0.0
 51
0.0
 71
     0
 72
   100
 73
     1
 74
     3
 75
     0
 76
     0
 77
     0
 78
     0
281
     0
 65
     1
110
0.0
120
0.0
130
0.0
111
1.0
121
0.0
131
0.0
112
0.0
122
1.0
132
0.0
 79
     0
146
0.0
  0
ENDTAB
  0
TABLE
  2
LTYPE
  5
5
330
0
100
AcDbSymbolTable
 70
    22
  0
LTYPE
  5
14
330
5
100
AcDbSymbolTableRecord
100
AcDbLinetypeTableRecord
  2
ByBlock
 70
     0
  3

 72
    65
 73
     0
 40
0.0
  0
LTYPE
  5
15
330
5
100
AcDbSymbolTableRecord
100
AcDbLinetypeTableRecord
  2
ByLayer
 70
     0
  3

 72
    65
 73
     0
 40
0.0
  0
LTYPE
  5
16
330
5
100
AcDbSymbolTableRecord
100
AcDbLinetypeTableRecord
  2
Continuous
 70
     0
  3
Solid line
 72
    65
 73
     0
 40
0.0
  0
LTYPE
  5
50
330
5
100
AcDbSymbolTableRecord
100
AcDbLinetypeTableRecord
  2
Amconstr
 70
     0
  3
_______________________
 72
    65
 73
     2
 40
9999.0
 49
9999.0
 74
     0
 49
0.0
 74
     0
  0
LTYPE
  5
55
330
5
100
AcDbSymbolTableRecord
100
AcDbLinetypeTableRecord
  2
Amzigzag
 70
     0
  3
/\/-/\/-/\/-/\/-/\/-/\/
 72
    65
 73
     2
 40
11.0001
 49
0.0001
 74
     4
 75
   136
340
285
 46
0.04
 50
0.0
 44
0.0
 45
0.0
 49
-11.0
 74
     0
  0
LTYPE
  5
56
330
5
100
AcDbSymbolTableRecord
100
AcDbLinetypeTableRecord
  2
AM_DIN_F_W050
 70
     0
  3
__ __ __ __ __ __ __ __ __ __ __ __ __ __ __
 72
    65
 73
     2
 40
6.25
 49
4.75
 74
     0
 49
-1.5
 74
     0
  0
LTYPE
  5
57
330
5
100
AcDbSymbolTableRecord
100
AcDbLinetypeTableRecord
  2
AM_DIN_G_W050
 70
     0
  3
____ . ____ . ____ . ____ . ____ . ____ . ____
 72
    65
 73
     4
 40
13.75
 49
9.75
 74
     0
 49
-1.5
 74
     0
 49
1.0
 74
     0
 49
-1.5
 74
     0
  0
LTYPE
  5
58
330
5
100
AcDbSymbolTableRecord
100
AcDbLinetypeTableRecord
  2
AM_DIN_K_W050
 70
     0
  3
_____ . . _____ . . _____ . . ____ .. ____
 72
    65
 73
     6
 40
16.25
 49
9.75
 74
     0
 49
-1.5
 74
     0
 49
1.0
 74
     0
 49
-1.5
 74
     0
 49
1.0
 74
     0
 49
-1.5
 74
     0
  0
LTYPE
  5
59
330
5
100
AcDbSymbolTableRecord
100
AcDbLinetypeTableRecord
  2
AM_DIN_G_W050x2
 70
     0
  3
__ . __ . __ . __ . __ . __
 72
    65
 73
     4
 40
6.875
 49
4.75
 74
     0
 49
-0.875
 74
     0
 49
0.375
 74
     0
 49
-0.875
 74
     0
  0
LTYPE
  5
5A
330
5
100
AcDbSymbolTableRecord
100
AcDbLinetypeTableRecord
  2
AM_DIN_F_W050x2
 70
     0
  3
 _ _ _ _ _ _ _ _ _ _ _ _
 72
    65
 73
     2
 40
3.125
 49
2.25
 74
     0
 49
-0.875
 74
     0
  0
LTYPE
  5
68
330
5
100
AcDbSymbolTableRecord
100
AcDbLinetypeTableRecord
  2
ACDINWELD
 70
     0
  3
_ _ _ _ _
 72
    65
 73
     2
 40
2.0
 49
2.0
 74
     0
 49
-1.0
 74
     0
  0
LTYPE
  5
69
330
5
100
AcDbSymbolTableRecord
100
AcDbLinetypeTableRecord
  2
ACDINTGB
 70
     0
  3
__ . . __ . .
 72
    65
 73
     6
 40
9.0
 49
4.0
 74
     0
 49
-1.0
 74
     0
 49
1.0
 74
     0
 49
-1.0
 74
     0
 49
1.0
 74
     0
 49
-1.0
 74
     0
  0
LTYPE
  5
6A
330
5
100
AcDbSymbolTableRecord
100
AcDbLinetypeTableRecord
  2
ACDINTGL
 70
     0
  3
_ _ _ _ _
 72
    65
 73
     2
 40
3.0
 49
2.0
 74
     0
 49
-1.0
 74
     0
  0
LTYPE
  5
6C
330
5
100
AcDbSymbolTableRecord
100
AcDbLinetypeTableRecord
  2
CENTER
 70
     0
  3
__ . __
 72
    65
 73
     4
 40
7.0
 49
4.0
 74
     0
 49
-1.0
 74
     0
 49
1.0
 74
     0
 49
-1.0
 74
     0
  0
LTYPE
  5
F2
330
5
100
AcDbSymbolTableRecord
100
AcDbLinetypeTableRecord
  2
HIDDEN
 70
     0
  3
Hidden __ __ __ __ __ __ __ __ __ __ __ __ __ _
 72
    65
 73
     2
 40
9.524999999999998
 49
6.349999999999999
 74
     0
 49
-3.174999999999999
 74
     0
  0
LTYPE
  5
F3
330
5
100
AcDbSymbolTableRecord
100
AcDbLinetypeTableRecord
  2
PHANTOM2
 70
     0
  3
Phantom (.5x) ___ _ _ ___ _ _ ___ _ _ ___ _ _
 72
    65
 73
     6
 40
31.75
 49
15.875
 74
     0
 49
-3.174999999999999
 74
     0
 49
3.174999999999999
 74
     0
 49
-3.174999999999999
 74
     0
 49
3.174999999999999
 74
     0
 49
-3.174999999999999
 74
     0
  0
LTYPE
  5
34C
330
5
100
AcDbSymbolTableRecord
100
AcDbLinetypeTableRecord
  2
AUSGEZOGEN
 70
     0
  3
_______________________________________________
 72
    65
 73
     0
 40
0.0
  0
LTYPE
  5
34D
330
5
100
AcDbSymbolTableRecord
100
AcDbLinetypeTableRecord
  2
GEN3A
 70
     0
  3
 - - - - -
 72
    65
 73
     2
 40
3.125
 49
2.5
 74
     0
 49
-0.625
 74
     0
  0
ENDTAB
  0
TABLE
  2
LAYER
  5
2
102
{ACAD_XDICTIONARY
360
C0
102
}
330
0
100
AcDbSymbolTable
 70
    11
  0
LAYER
  5
10
330
2
100
AcDbSymbolTableRecord
100
AcDbLayerTableRecord
  2
0
 70
     0
 62
     7
  6
Continuous
370
    -3
390
F
  0
LAYER
  5
34E
330
2
100
AcDbSymbolTableRecord
100
AcDbLayerTableRecord
  2
AM_7
 70
     0
 62
     4
  6
AM_DIN_G_W050
370
    25
390
F
  0
LAYER
  5
34F
330
2
100
AcDbSymbolTableRecord
100
AcDbLayerTableRecord
  2
DEFPOINTS
 70
     0
 62
     7
  6
Continuous
290
     0
370
    -3
390
F
  0
LAYER
  5
350
330
2
100
AcDbSymbolTableRecord
100
AcDbLayerTableRecord
  2
406
 70
     0
 62
     7
  6
Continuous
370
    -3
390
F
  0
LAYER
  5
351
330
2
100
AcDbSymbolTableRecord
100
AcDbLayerTableRecord
  2
AM_5
 70
     0
 62
     3
  6
Continuous
370
    25
390
F
  0
LAYER
  5
352
330
2
100
AcDbSymbolTableRecord
100
AcDbLayerTableRecord
  2
AM_4
 70
     0
 62
     3
  6
Continuous
370
    25
390
F
  0
LAYER
  5
353
330
2
100
AcDbSymbolTableRecord
100
AcDbLayerTableRecord
  2
AM_6
 70
     0
 62
     2
  6
Continuous
370
    35
390
F
  0
LAYER
  5
354
330
2
100
AcDbSymbolTableRecord
100
AcDbLayerTableRecord
  2
4
 70
     0
 62
     3
  6
Continuous
370
    -3
390
F
  0
LAYER
  5
355
330
2
100
AcDbSymbolTableRecord
100
AcDbLayerTableRecord
  2
AM_3
 70
     0
 62
     6
  6
AM_DIN_F_W050
370
    25
390
F
  0
LAYER
  5
356
330
2
100
AcDbSymbolTableRecord
100
AcDbLayerTableRecord
  2
3A
 70
     0
 62
     6
  6
GEN3A
370
    -3
390
F
  0
ENDTAB
  0
TABLE
  2
STYLE
  5
3
330
0
100
AcDbSymbolTable
 70
     8
  0
STYLE
  5
11
330
3
100
AcDbSymbolTableRecord
100
AcDbTextStyleTableRecord
  2
STANDARD
 70
     0
 40
0.0
 41
1.0
 50
0.0
 71
     0
 42
2.5
  3
ISOCP.SHX
  4
bigfont.shx
  0
STYLE
  5
5B
330
3
100
AcDbSymbolTableRecord
100
AcDbTextStyleTableRecord
  2
ACDINTS
 70
     0
 40
1.0
 41
1.0
 50
0.0
 71
     0
 42
2.5
  3
isocp.shx
  4
bigfont.shx
  0
STYLE
  5
67
330
3
100
AcDbSymbolTableRecord
100
AcDbTextStyleTableRecord
  2
ACDINGDT
 70
     0
 40
0.0
 41
1.0
 50
0.0
 71
     0
 42
2.5
  3
AMGDT
  4
bigfont.shx
  0
STYLE
  5
285
330
3
100
AcDbSymbolTableRecord
100
AcDbTextStyleTableRecord
  2

 70
     1
 40
0.0
 41
1.0
 50
0.0
 71
     0
 42
2.5
  3
genltshp.shx
  4

  0
ENDTAB
  0
TABLE
  2
VIEW
  5
6
330
0
100
AcDbSymbolTable
 70
     0
  0
ENDTAB
  0
TABLE
  2
UCS
  5
7
330
0
100
AcDbSymbolTable
 70
     0
  0
ENDTAB
  0
TABLE
  2
APPID
  5
9
330
0
100
AcDbSymbolTable
 70
    20
  0
APPID
  5
12
330
9
100
AcDbSymbolTableRecord
100
AcDbRegAppTableRecord
  2
ACAD
 70
     0
  0
APPID
  5
30
330
9
100
AcDbSymbolTableRecord
100
AcDbRegAppTableRecord
  2
MCAD_NO_VIS
 70
     0
  0
APPID
  5
31
330
9
100
AcDbSymbolTableRecord
100
AcDbRegAppTableRecord
  2
ACAD_TEMP_GRAPHIC
 70
     0
  0
APPID
  5
44
330
9
100
AcDbSymbolTableRecord
100
AcDbRegAppTableRecord
  2
ACATTRIBSERVICES
 70
     0
  0
APPID
  5
108
330
9
100
AcDbSymbolTableRecord
100
AcDbRegAppTableRecord
  2
AD_DRAW
 70
     0
  0
APPID
  5
126
330
9
100
AcDbSymbolTableRecord
100
AcDbRegAppTableRecord
  2
DESIGNERASSEMBLIES
 70
     0
  0
APPID
  5
12A
330
9
100
AcDbSymbolTableRecord
100
AcDbRegAppTableRecord
  2
ACADM_DIM_EDIT
 70
     0
  0
APPID
  5
12B
330
9
100
AcDbSymbolTableRecord
100
AcDbRegAppTableRecord
  2
AMDT_DM_ADJ
 70
     0
  0
APPID
  5
1A4
330
9
100
AcDbSymbolTableRecord
100
AcDbRegAppTableRecord
  2
ACAD_DSTYLE_DIMARC_LENGTH_SYMBOL
 70
     0
  0
APPID
  5
1A5
330
9
100
AcDbSymbolTableRecord
100
AcDbRegAppTableRecord
  2
ACAD_DSTYLE_DIMJOGGED_JOGANGLE_SYMBOL
 70
     0
  0
APPID
  5
22C
330
9
100
AcDbSymbolTableRecord
100
AcDbRegAppTableRecord
  2
AcAecLayerStandard
 70
     0
  0
APPID
  5
35A
330
9
100
AcDbSymbolTableRecord
100
AcDbRegAppTableRecord
  2
GENIUS_GENOENT_13
 70
     0
  0
APPID
  5
35B
330
9
100
AcDbSymbolTableRecord
100
AcDbRegAppTableRecord
  2
GENIUS_GENODEF_13
 70
     0
  0
APPID
  5
35C
330
9
100
AcDbSymbolTableRecord
100
AcDbRegAppTableRecord
  2
GENIUS_GENOLIS_13
 70
     0
  0
APPID
  5
35D
330
9
100
AcDbSymbolTableRecord
100
AcDbRegAppTableRecord
  2
GENIUS_GENOREF_13
 70
     0
  0
APPID
  5
35E
330
9
100
AcDbSymbolTableRecord
100
AcDbRegAppTableRecord
  2
GENIUS_GENOBJ-N-CEN_13
 70
     0
  0
APPID
  5
35F
330
9
100
AcDbSymbolTableRecord
100
AcDbRegAppTableRecord
  2
ACAD_PSEXT
 70
     0
  0
APPID
  5
360
330
9
100
AcDbSymbolTableRecord
100
AcDbRegAppTableRecord
  2
GENIUS_GENCEN_19
 70
     0
  0
APPID
  5
361
330
9
100
AcDbSymbolTableRecord
100
AcDbRegAppTableRecord
  2
GENIUS_GENOBJ-N-CRS_13
 70
     0
  0
APPID
  5
362
330
9
100
AcDbSymbolTableRecord
100
AcDbRegAppTableRecord
  2
GENIUS_GENOBJ-N-FIL_13
 70
     0
  0
ENDTAB
  0
TABLE
  2
DIMSTYLE
  5
A
330
0
100
AcDbSymbolTable
 70
    11
100
AcDbDimStyleTable
 71
     1
340
6F
  0
DIMSTYLE
105
6F
102
{ACAD_REACTORS
330
4B
102
}
330
A
100
AcDbSymbolTableRecord
100
AcDbDimStyleTableRecord
  2
AM_DIN
 70
     0
  4
"
 41
2.5
 42
1.0
 43
10.0
 44
1.0
 47
0.1
 48
0.1
 73
     0
 74
     0
 77
     1
 78
     8
 79
     2
140
3.5
141
0.0
143
0.0393701
146
0.71
147
1.5
172
     1
176
   256
177
   256
178
     2
271
     2
272
     3
274
     4
283
     0
284
     8
340
11
371
    -1
372
    -1
1001
ACAD_DSTYLE_DIMARC_LENGTH_SYMBOL
1070
   379
1070
     0
1001
ACAD_DSTYLE_DIMJOGGED_JOGANGLE_SYMBOL
1070
   384
1040
1.570796326794896
  0
DIMSTYLE
105
70
330
A
100
AcDbSymbolTableRecord
100
AcDbDimStyleTableRecord
  2
AM_DIN$3
 70
     0
  4
"
 41
2.5
 42
1.0
 43
10.0
 44
1.0
 47
0.1
 48
0.1
 73
     0
 77
     1
 78
     8
 79
     2
140
3.5
141
0.0
143
0.0393701
146
0.71
147
1.5
176
   256
177
   256
178
     2
271
     2
272
     3
274
     4
283
     0
284
     8
288
     1
289
     0
340
11
371
    -1
372
    -1
1001
ACAD_DSTYLE_DIMARC_LENGTH_SYMBOL
1070
   379
1070
     0
1001
ACAD_DSTYLE_DIMJOGGED_JOGANGLE_SYMBOL
1070
   384
1040
1.570796326794896
  0
DIMSTYLE
105
71
330
A
100
AcDbSymbolTableRecord
100
AcDbDimStyleTableRecord
  2
AM_DIN$4
 70
     0
  4
"
 41
2.5
 42
1.0
 43
10.0
 44
1.0
 47
0.1
 48
0.1
 73
     0
 77
     1
 78
     8
 79
     2
140
3.5
141
0.0
143
0.0393701
146
0.71
147
1.5
176
   256
177
   256
178
     2
271
     2
272
     3
274
     4
283
     0
284
     8
288
     1
289
     0
340
11
371
    -1
372
    -1
1001
ACAD_DSTYLE_DIMARC_LENGTH_SYMBOL
1070
   379
1070
     0
1001
ACAD_DSTYLE_DIMJOGGED_JOGANGLE_SYMBOL
1070
   384
1040
1.570796326794896
  0
DIMSTYLE
105
72
330
A
100
AcDbSymbolTableRecord
100
AcDbDimStyleTableRecord
  2
AM_DIN$6
 70
     0
  4
"
 41
2.5
 42
1.0
 43
10.0
 44
1.0
 47
0.1
 48
0.1
 73
     0
 74
     0
 78
     8
 79
     2
140
3.5
141
0.0
143
0.0393701
146
0.71
147
1.5
172
     1
176
   256
177
   256
178
     2
271
     2
272
     3
274
     4
283
     0
284
     8
340
11
371
    -1
372
    -1
1001
ACAD_DSTYLE_DIMARC_LENGTH_SYMBOL
1070
   379
1070
     0
1001
ACAD_DSTYLE_DIMJOGGED_JOGANGLE_SYMBOL
1070
   384
1040
1.570796326794896
  0
DIMSTYLE
105
73
330
A
100
AcDbSymbolTableRecord
100
AcDbDimStyleTableRecord
  2
AM_DIN$7
 70
     0
  4
"
 41
2.5
 42
1.0
 43
10.0
 44
1.0
 47
0.1
 48
0.1
 73
     0
 74
     0
 77
     1
 78
     8
 79
     2
140
5.0
141
0.0
143
0.0393701
146
0.71
147
1.5
172
     1
176
   256
177
   256
178
     2
271
     2
272
     3
274
     4
283
     0
284
     8
340
11
371
    -1
372
    -1
1001
ACAD_DSTYLE_DIMARC_LENGTH_SYMBOL
1070
   379
1070
     0
1001
ACAD_DSTYLE_DIMJOGGED_JOGANGLE_SYMBOL
1070
   384
1040
1.570796326794896
  0
DIMSTYLE
105
74
330
A
100
AcDbSymbolTableRecord
100
AcDbDimStyleTableRecord
  2
AM_DIN$SF
 70
     0
  4
"
 41
2.5
 42
1.0
 43
10.0
 44
1.0
 47
0.1
 48
0.1
 73
     0
 74
     0
 75
     1
 76
     1
 77
     1
 78
     8
 79
     2
140
3.5
141
0.0
143
0.0393701
146
0.71
147
1.5
172
     1
176
   256
177
   256
178
     2
271
     2
272
     3
274
     4
283
     0
284
     8
340
11
371
    -1
372
    -1
1001
ACAD_DSTYLE_DIMARC_LENGTH_SYMBOL
1070
   379
1070
     0
1001
ACAD_DSTYLE_DIMJOGGED_JOGANGLE_SYMBOL
1070
   384
1040
1.570796326794896
  0
DIMSTYLE
105
79
330
A
100
AcDbSymbolTableRecord
100
AcDbDimStyleTableRecord
  2
AM_DIN$SH
 70
     0
  4
"
 41
2.5
 42
1.0
 43
10.0
 44
1.0
 47
0.1
 48
0.1
 73
     0
 74
     0
 75
     1
 76
     1
 77
     1
 78
     8
 79
     2
140
3.5
141
0.0
143
0.0393701
144
2.0
146
0.71
147
1.5
172
     1
173
     1
176
   256
177
   256
178
     2
271
     2
272
     3
274
     4
283
     0
284
     8
340
11
343
75
371
    -1
372
    -1
1001
ACAD_DSTYLE_DIMARC_LENGTH_SYMBOL
1070
   379
1070
     0
1001
ACAD_DSTYLE_DIMJOGGED_JOGANGLE_SYMBOL
1070
   384
1040
1.570796326794896
  0
DIMSTYLE
105
358
330
A
100
AcDbSymbolTableRecord
100
AcDbDimStyleTableRecord
  2
GEN-ISO
 70
     0
  4
"
 40
10.0
 41
2.5
 42
1.0
 43
7.0
 44
1.0
 47
0.1
 48
0.1
 73
     0
 74
     0
 77
     1
 78
     8
140
3.5
141
0.0
143
0.0393701
146
0.71
147
0.6
172
     1
176
     3
177
     3
178
     2
271
     2
272
     2
283
     0
340
11
  0
DIMSTYLE
105
359
102
{ACAD_REACTORS
330
41A
330
3F2
330
3F5
330
3F8
330
413
330
65C
330
65F
330
662
330
67D
330
684
102
}
330
A
100
AcDbSymbolTableRecord
100
AcDbDimStyleTableRecord
  2
GEN-ISO$0
 70
     0
  4
"
 40
10.0
 41
2.5
 42
1.0
 43
7.0
 44
1.0
 47
0.1
 48
0.1
 73
     0
 74
     0
 77
     1
 78
     8
140
3.5
141
0.0
143
0.0393701
146
0.71
147
0.6
172
     1
176
     3
177
     3
178
     2
271
     2
272
     2
283
     0
340
11
  0
ENDTAB
  0
TABLE
  2
BLOCK_RECORD
  5
1
330
0
100
AcDbSymbolTable
 70
    14
  0
BLOCK_RECORD
  5
1F
102
{ACAD_XDICTIONARY
360
83
102
}
330
1
100
AcDbSymbolTableRecord
100
AcDbBlockTableRecord
  2
*Model_Space
340
22
  0
BLOCK_RECORD
  5
1B
330
1
100
AcDbSymbolTableRecord
100
AcDbBlockTableRecord
  2
*Paper_Space
340
1E
  0
BLOCK_RECORD
  5
23
330
1
100
AcDbSymbolTableRecord
100
AcDbBlockTableRecord
  2
*Paper_Space0
340
26
  0
BLOCK_RECORD
  5
75
330
1
100
AcDbSymbolTableRecord
100
AcDbBlockTableRecord
  2
GENAXEH
340
0
  0
BLOCK_RECORD
  5
833
330
1
100
AcDbSymbolTableRecord
100
AcDbBlockTableRecord
  2
*D9
340
0
  0
BLOCK_RECORD
  5
83F
330
1
100
AcDbSymbolTableRecord
100
AcDbBlockTableRecord
  2
*D10
340
0
  0
BLOCK_RECORD
  5
84B
330
1
100
AcDbSymbolTableRecord
100
AcDbBlockTableRecord
  2
*D11
340
0
  0
BLOCK_RECORD
  5
857
330
1
100
AcDbSymbolTableRecord
100
AcDbBlockTableRecord
  2
*D12
340
0
  0
BLOCK_RECORD
  5
863
330
1
100
AcDbSymbolTableRecord
100
AcDbBlockTableRecord
  2
*D13
340
0
  0
ENDTAB
  0
ENDSEC
  0
SECTION
  2
BLOCKS
  0
BLOCK
  5
20
330
1F
100
AcDbEntity
  8
0
100
AcDbBlockBegin
  2
*Model_Space
 70
     0
 10
0.0
 20
0.0
 30
0.0
  3
*Model_Space
  1

  0
ENDBLK
  5
21
330
1F
100
AcDbEntity
  8
0
100
AcDbBlockEnd
  0
BLOCK
  5
1C
330
1B
100
AcDbEntity
 67
     1
  8
0
100
AcDbBlockBegin
  2
*Paper_Space
 70
     0
 10
0.0
 20
0.0
 30
0.0
  3
*Paper_Space
  1

  0
ENDBLK
  5
1D
330
1B
100
AcDbEntity
 67
     1
  8
0
100
AcDbBlockEnd
  0
BLOCK
  5
24
330
23
100
AcDbEntity
 67
     1
  8
0
100
AcDbBlockBegin
  2
*Paper_Space0
 70
     0
 10
0.0
 20
0.0
 30
0.0
  3
*Paper_Space0
  1

  0
ENDBLK
  5
25
330
23
100
AcDbEntity
 67
     1
  8
0
100
AcDbBlockEnd
  0
BLOCK
  5
77
330
75
100
AcDbEntity
  8
0
100
AcDbBlockBegin
  2
GENAXEH
 70
     0
 10
0.0
 20
0.0
 30
0.0
  3
GENAXEH
  1

  0
LINE
  5
76
330
75
100
AcDbEntity
  8
0
100
AcDbLine
 10
-1.0
 20
0.0
 30
0.0
 11
1.0
 21
0.0
 31
0.0
  0
ENDBLK
  5
78
330
75
100
AcDbEntity
  8
0
100
AcDbBlockEnd
  0
BLOCK
  5
83D
330
833
100
AcDbEntity
  8
0
100
AcDbBlockBegin
  2
*D9
 70
     1
 10
0.0
 20
0.0
 30
0.0
  3
*D9
  1

  0
LINE
  5
834
330
833
100
AcDbEntity
  8
AM_5
 62
     3
370
    -2
100
AcDbLine
 10
1369.020830234261
 20
1957.797925542545
 30
0.0
 11
1309.02082923426
 21
1957.797925542545
 31
0.0
  0
LINE
  5
835
330
833
100
AcDbEntity
  8
AM_5
 62
     3
370
    -2
100
AcDbLine
 10
1492.972247712404
 20
1812.792628811956
 30
0.0
 11
1309.02082923426
 21
1812.792628811956
 31
0.0
  0
LINE
  5
836
330
833
100
AcDbEntity
  8
AM_5
 62
     3
370
    -2
100
AcDbLine
 10
1319.02082923426
 20
1932.797925542545
 30
0.0
 11
1319.02082923426
 21
1837.792628811956
 31
0.0
  0
SOLID
  5
837
330
833
100
AcDbEntity
  8
AM_5
 62
     3
100
AcDbTrace
 10
1314.854162567594
 20
1932.797925542545
 30
0.0
 11
1323.187495900927
 21
1932.797925542545
 31
0.0
 12
1319.02082923426
 22
1957.797925542545
 32
0.0
 13
1319.02082923426
 23
1957.797925542545
 33
0.0
  0
SOLID
  5
838
330
833
100
AcDbEntity
  8
AM_5
 62
     3
100
AcDbTrace
 10
1314.854162567594
 20
1837.792628811956
 30
0.0
 11
1323.187495900927
 21
1837.792628811956
 31
0.0
 12
1319.02082923426
 22
1812.792628811956
 32
0.0
 13
1319.02082923426
 23
1812.792628811956
 33
0.0
  0
MTEXT
  5
839
330
833
100
AcDbEntity
  8
AM_5
 62
     2
100
AcDbMText
 10
1295.52082923426
 20
1885.295277177251
 30
0.0
 40
35.0
 41
0.0
 71
     5
 72
     1
  1
145
 11
0.0000000000000001
 21
1.0
 31
0.0
 73
     1
 44
1.0
1001
ACAD
1000
MTEXTBEGIN
1070
    73
1070
     1
1070
    44
1040
1.0
1070
    74
1070
     0
1000
MTEXTEND
  0
POINT
  5
83A
330
833
100
AcDbEntity
  8
DEFPOINTS
 62
     0
100
AcDbPoint
 10
1379.020830234261
 20
1957.797925542545
 30
0.0
  0
POINT
  5
83B
330
833
100
AcDbEntity
  8
DEFPOINTS
 62
     0
100
AcDbPoint
 10
1502.972247712404
 20
1812.792628811956
 30
0.0
  0
POINT
  5
83C
330
833
100
AcDbEntity
  8
DEFPOINTS
 62
     0
100
AcDbPoint
 10
1319.02082923426
 20
1812.792628811956
 30
0.0
  0
ENDBLK
  5
83E
330
833
100
AcDbEntity
  8
0
100
AcDbBlockEnd
  0
BLOCK
  5
849
330
83F
100
AcDbEntity
  8
0
100
AcDbBlockBegin
  2
*D10
 70
     1
 10
0.0
 20
0.0
 30
0.0
  3
*D10
  1

  0
LINE
  5
840
330
83F
100
AcDbEntity
  8
AM_5
 62
     3
370
    -2
100
AcDbLine
 10
1866.972247712404
 20
1812.792628811956
 30
0.0
 11
2070.98683663538
 21
1812.792628811956
 31
0.0
  0
LINE
  5
841
330
83F
100
AcDbEntity
  8
AM_5
 62
     3
370
    -2
100
AcDbLine
 10
1989.020830015647
 20
1887.803047397409
 30
0.0
 11
2070.98683663538
 21
1887.803047397409
 31
0.0
  0
LINE
  5
842
330
83F
100
AcDbEntity
  8
AM_5
 62
     3
370
    -2
100
AcDbLine
 10
2060.98683663538
 20
1837.792628811956
 30
0.0
 11
2060.98683663538
 21
1862.803047397409
 31
0.0
  0
SOLID
  5
843
330
83F
100
AcDbEntity
  8
AM_5
 62
     3
100
AcDbTrace
 10
2056.820169968713
 20
1837.792628811956
 30
0.0
 11
2065.153503302047
 21
1837.792628811956
 31
0.0
 12
2060.98683663538
 22
1812.792628811956
 32
0.0
 13
2060.98683663538
 23
1812.792628811956
 33
0.0
  0
SOLID
  5
844
330
83F
100
AcDbEntity
  8
AM_5
 62
     3
100
AcDbTrace
 10
2056.820169968713
 20
1862.803047397409
 30
0.0
 11
2065.153503302047
 21
1862.803047397409
 31
0.0
 12
2060.98683663538
 22
1887.803047397409
 32
0.0
 13
2060.98683663538
 23
1887.803047397409
 33
0.0
  0
MTEXT
  5
845
330
83F
100
AcDbEntity
  8
AM_5
 62
     2
100
AcDbMText
 10
2037.486836635379
 20
1850.29783810468
 30
0.0
 40
35.0
 41
0.0
 71
     5
 72
     1
  1
75
 11
0.0000000000000001
 21
1.0
 31
0.0
 73
     1
 44
1.0
1001
ACAD
1000
MTEXTBEGIN
1070
    73
1070
     1
1070
    44
1040
1.0
1070
    74
1070
     0
1000
MTEXTEND
  0
POINT
  5
846
330
83F
100
AcDbEntity
  8
DEFPOINTS
 62
     0
100
AcDbPoint
 10
1856.972247712404
 20
1812.792628811956
 30
0.0
  0
POINT
  5
847
330
83F
100
AcDbEntity
  8
DEFPOINTS
 62
     0
100
AcDbPoint
 10
1979.020830015647
 20
1887.803047397409
 30
0.0
  0
POINT
  5
848
330
83F
100
AcDbEntity
  8
DEFPOINTS
 62
     0
100
AcDbPoint
 10
2060.98683663538
 20
1887.803047397409
 30
0.0
  0
ENDBLK
  5
84A
330
83F
100
AcDbEntity
  8
0
100
AcDbBlockEnd
  0
BLOCK
  5
855
330
84B
100
AcDbEntity
  8
0
100
AcDbBlockBegin
  2
*D11
 70
     1
 10
0.0
 20
0.0
 30
0.0
  3
*D11
  1

  0
LINE
  5
84C
330
84B
100
AcDbEntity
  8
AM_5
 62
     3
370
    -2
100
AcDbLine
 10
1866.972247712404
 20
1812.792628811956
 30
0.0
 11
2134.482475027983
 21
1812.792628811956
 31
0.0
  0
LINE
  5
84D
330
84B
100
AcDbEntity
  8
AM_5
 62
     3
370
    -2
100
AcDbLine
 10
1862.958114235388
 20
2052.792628811955
 30
0.0
 11
2134.482475027983
 21
2052.792628811955
 31
0.0
  0
LINE
  5
84E
330
84B
100
AcDbEntity
  8
AM_5
 62
     3
370
    -2
100
AcDbLine
 10
2124.482475027983
 20
1837.792628811956
 30
0.0
 11
2124.482475027983
 21
2027.792628811955
 31
0.0
  0
SOLID
  5
84F
330
84B
100
AcDbEntity
  8
AM_5
 62
     3
100
AcDbTrace
 10
2120.315808361317
 20
1837.792628811956
 30
0.0
 11
2128.64914169465
 21
1837.792628811956
 31
0.0
 12
2124.482475027983
 22
1812.792628811956
 32
0.0
 13
2124.482475027983
 23
1812.792628811956
 33
0.0
  0
SOLID
  5
850
330
84B
100
AcDbEntity
  8
AM_5
 62
     3
100
AcDbTrace
 10
2120.315808361317
 20
2027.792628811955
 30
0.0
 11
2128.64914169465
 21
2027.792628811955
 31
0.0
 12
2124.482475027983
 22
2052.792628811955
 32
0.0
 13
2124.482475027983
 23
2052.792628811955
 33
0.0
  0
MTEXT
  5
851
330
84B
100
AcDbEntity
  8
AM_5
 62
     2
100
AcDbMText
 10
2100.979030146093
 20
1932.792628811956
 30
0.0
 40
35.0
 41
0.0
 71
     5
 72
     1
  1
220
 11
0.0000000000000001
 21
1.0
 31
0.0
 73
     1
 44
1.0
1001
ACAD
1000
MTEXTBEGIN
1070
    73
1070
     1
1070
    44
1040
1.0
1070
    74
1070
     0
1000
MTEXTEND
  0
POINT
  5
852
330
84B
100
AcDbEntity
  8
DEFPOINTS
 62
     0
100
AcDbPoint
 10
1856.972247712404
 20
1812.792628811956
 30
0.0
  0
POINT
  5
853
330
84B
100
AcDbEntity
  8
DEFPOINTS
 62
     0
100
AcDbPoint
 10
1852.958114235388
 20
2052.792628811955
 30
0.0
  0
POINT
  5
854
330
84B
100
AcDbEntity
  8
DEFPOINTS
 62
     0
100
AcDbPoint
 10
2124.482475027983
 20
2052.792628811955
 30
0.0
  0
ENDBLK
  5
856
330
84B
100
AcDbEntity
  8
0
100
AcDbBlockEnd
  0
BLOCK
  5
861
330
857
100
AcDbEntity
  8
0
100
AcDbBlockBegin
  2
*D12
 70
     1
 10
0.0
 20
0.0
 30
0.0
  3
*D12
  1

  0
LINE
  5
858
330
857
100
AcDbEntity
  8
AM_5
 62
     3
370
    -2
100
AcDbLine
 10
1439.020830234261
 20
1892.797925542544
 30
0.0
 11
1439.020830234261
 21
1702.797925542546
 31
0.0
  0
LINE
  5
859
330
857
100
AcDbEntity
  8
AM_5
 62
     3
370
    -2
100
AcDbLine
 10
1919.020830234261
 20
1822.797925542544
 30
0.0
 11
1919.020830234261
 21
1702.797925542546
 31
0.0
  0
LINE
  5
85A
330
857
100
AcDbEntity
  8
AM_5
 62
     3
370
    -2
100
AcDbLine
 10
1464.02083023426
 20
1712.797925542546
 30
0.0
 11
1894.020830234261
 21
1712.797925542546
 31
0.0
  0
SOLID
  5
85B
330
857
100
AcDbEntity
  8
AM_5
 62
     3
100
AcDbTrace
 10
1464.02083023426
 20
1716.964592209213
 30
0.0
 11
1464.02083023426
 21
1708.631258875879
 31
0.0
 12
1439.020830234261
 22
1712.797925542546
 32
0.0
 13
1439.020830234261
 23
1712.797925542546
 33
0.0
  0
SOLID
  5
85C
330
857
100
AcDbEntity
  8
AM_5
 62
     3
100
AcDbTrace
 10
1894.020830234261
 20
1716.964592209213
 30
0.0
 11
1894.020830234261
 21
1708.631258875879
 31
0.0
 12
1919.020830234261
 22
1712.797925542546
 32
0.0
 13
1919.020830234261
 23
1712.797925542546
 33
0.0
  0
MTEXT
  5
85D
330
857
100
AcDbEntity
  8
AM_5
 62
     2
100
AcDbMText
 10
1679.020830234261
 20
1736.297925542546
 30
0.0
 40
35.0
 41
0.0
 71
     5
 72
     1
  1
480
 73
     1
 44
1.0
1001
ACAD
1000
MTEXTBEGIN
1070
    73
1070
     1
1070
    44
1040
1.0
1070
    74
1070
     0
1000
MTEXTEND
  0
POINT
  5
85E
330
857
100
AcDbEntity
  8
DEFPOINTS
 62
     0
100
AcDbPoint
 10
1439.020830234261
 20
1902.797925542544
 30
0.0
  0
POINT
  5
85F
330
857
100
AcDbEntity
  8
DEFPOINTS
 62
     0
100
AcDbPoint
 10
1919.020830234261
 20
1832.797925542544
 30
0.0
  0
POINT
  5
860
330
857
100
AcDbEntity
  8
DEFPOINTS
 62
     0
100
AcDbPoint
 10
1919.020830234261
 20
1712.797925542546
 30
0.0
  0
ENDBLK
  5
862
330
857
100
AcDbEntity
  8
0
100
AcDbBlockEnd
  0
BLOCK
  5
86D
330
863
100
AcDbEntity
  8
0
100
AcDbBlockBegin
  2
*D13
 70
     1
 10
0.0
 20
0.0
 30
0.0
  3
*D13
  1

  0
LINE
  5
864
330
863
100
AcDbEntity
  8
AM_5
 62
     3
370
    -2
100
AcDbLine
 10
1487.958114235403
 20
2052.792628811968
 30
0.0
 11
1487.958114235403
 21
2147.441600518339
 31
0.0
  0
LINE
  5
865
330
863
100
AcDbEntity
  8
AM_5
 62
     3
370
    -2
100
AcDbLine
 10
1871.958114235395
 20
2052.792628811955
 30
0.0
 11
1871.958114235395
 21
2147.441600518339
 31
0.0
  0
LINE
  5
866
330
863
100
AcDbEntity
  8
AM_5
 62
     3
370
    -2
100
AcDbLine
 10
1512.958114235402
 20
2137.441600518338
 30
0.0
 11
1846.958114235395
 21
2137.441600518338
 31
0.0
  0
SOLID
  5
867
330
863
100
AcDbEntity
  8
AM_5
 62
     3
100
AcDbTrace
 10
1512.958114235402
 20
2141.608267185005
 30
0.0
 11
1512.958114235402
 21
2133.274933851672
 31
0.0
 12
1487.958114235403
 22
2137.441600518338
 32
0.0
 13
1487.958114235403
 23
2137.441600518338
 33
0.0
  0
SOLID
  5
868
330
863
100
AcDbEntity
  8
AM_5
 62
     3
100
AcDbTrace
 10
1846.958114235395
 20
2141.608267185005
 30
0.0
 11
1846.958114235395
 21
2133.274933851672
 31
0.0
 12
1871.958114235395
 22
2137.441600518338
 32
0.0
 13
1871.958114235395
 23
2137.441600518338
 33
0.0
  0
MTEXT
  5
869
330
863
100
AcDbEntity
  8
AM_5
 62
     2
100
AcDbMText
 10
1679.958114235399
 20
2160.941600518338
 30
0.0
 40
35.0
 41
0.0
 71
     5
 72
     1
  1
%%c384
 73
     1
 44
1.0
1001
ACAD
1000
MTEXTBEGIN
1070
    73
1070
     1
1070
    44
1040
1.0
1070
    74
1070
     0
1000
MTEXTEND
  0
POINT
  5
86A
330
863
100
AcDbEntity
  8
DEFPOINTS
 62
     0
100
AcDbPoint
 10
1487.958114235403
 20
2042.792628811968
 30
0.0
  0
POINT
  5
86B
330
863
100
AcDbEntity
  8
DEFPOINTS
 62
     0
100
AcDbPoint
 10
1871.958114235395
 20
2042.792628811955
 30
0.0
  0
POINT
  5
86C
330
863
100
AcDbEntity
  8
DEFPOINTS
 62
     0
100
AcDbPoint
 10
1871.958114235395
 20
2137.441600518338
 30
0.0
  0
ENDBLK
  5
86E
330
863
100
AcDbEntity
  8
0
100
AcDbBlockEnd
  0
ENDSEC
  0
SECTION
  2
ENTITIES
  0
LINE
  5
5CF
330
1F
100
AcDbEntity
  8
AM_3
100
AcDbLine
 10
1679.548953079519
 20
1840.545253652286
 30
0.0
 11
1504.645358366334
 21
1848.288790632394
 31
0.0
  0
LINE
  5
5D0
330
1F
100
AcDbEntity
  8
AM_3
100
AcDbLine
 10
1679.546123792194
 20
1838.543419759599
 30
0.0
 11
1504.556898674872
 21
1846.290747869339
 31
0.0
  0
LINE
  5
5D1
330
1F
100
AcDbEntity
  8
AM_3
100
AcDbLine
 10
1854.535348909517
 20
1830.796091649858
 30
0.0
 11
1679.546123792194
 21
1838.543419759599
 31
0.0
  0
LINE
  5
5D2
330
1F
100
AcDbEntity
  8
AM_3
100
AcDbLine
 10
1854.538178196841
 20
1832.797925542545
 30
0.0
 11
1679.548953079519
 21
1840.545253652286
 31
0.0
  0
LINE
  5
5D3
330
1F
100
AcDbEntity
  8
0
100
AcDbLine
 10
1490.958114235403
 20
2032.792628811955
 30
0.0
 11
1852.958114235388
 21
2032.792628811955
 31
0.0
1001
ACAD
1000
ASC_BOUNDS
1002
{
1070
    19
1005
0
1005
0
1005
0
1005
0
1002
}
  0
LINE
  5
5D4
330
1F
100
AcDbEntity
  8
0
100
AcDbLine
 10
1519.274939117432
 20
2042.792628811945
 30
0.0
 11
1487.958114235403
 21
2042.792628811943
 31
0.0
  0
LINE
  5
5D5
330
1F
100
AcDbEntity
  8
0
100
AcDbLine
 10
1506.949528543048
 20
2052.792628811955
 30
0.0
 11
1679.958114235395
 21
2052.792628811958
 31
0.0
1001
ACAD
1000
ASC_BOUNDS
1002
{
1070
    19
1005
0
1005
0
1005
0
1002
}
  0
LINE
  5
5D6
330
1F
100
AcDbEntity
  8
0
100
AcDbLine
 10
1487.958114235403
 20
2042.792628811955
 30
0.0
 11
1862.958114235395
 21
2042.792628811955
 31
0.0
  0
LINE
  5
5D7
330
1F
100
AcDbEntity
  8
0
100
AcDbLine
 10
1487.958114235403
 20
2042.792628811955
 30
0.0
 11
1862.958114235388
 21
2042.792628811955
 31
0.0
  0
LINE
  5
5D8
330
1F
100
AcDbEntity
  8
0
100
AcDbLine
 10
1519.274939117432
 20
2042.792628811966
 30
0.0
 11
1487.958114235403
 21
2042.792628811968
 31
0.0
1001
ACAD
1000
ASC_BOUNDS
1002
{
1070
    19
1002
}
  0
LINE
  5
5D9
330
1F
100
AcDbEntity
  8
0
100
AcDbLine
 10
1506.737641794449
 20
2032.792628811966
 30
0.0
 11
1503.588369147556
 21
2012.797925542546
 31
0.0
1001
ACAD
1000
ASC_BOUNDS
1002
{
1070
    19
1002
}
  0
ARC
  5
5DA
330
1F
100
AcDbEntity
  8
0
100
AcDbCircle
 10
1490.958114235403
 20
2035.792628811966
 30
0.0
 40
3.0
100
AcDbArc
 50
180.0
 51
270.0
1001
ACAD
1000
ASC_BOUNDS
1002
{
1070
    19
1002
}
  0
LINE
  5
5DB
102
{ACAD_REACTORS
330
686
102
}
330
1F
100
AcDbEntity
  8
0
100
AcDbLine
 10
1487.958114235403
 20
2042.792628811968
 30
0.0
 11
1487.958114235403
 21
2035.792628811968
 31
0.0
1001
ACAD
1000
ASC_BOUNDS
1002
{
1070
    19
1002
}
  0
LINE
  5
5DC
330
1F
100
AcDbEntity
  8
0
100
AcDbLine
 10
1501.958114235403
 20
2042.792628811966
 30
0.0
 11
1497.458114235403
 21
2042.792628811966
 31
0.0
  0
ARC
  5
5DD
330
1F
100
AcDbEntity
  8
0
100
AcDbCircle
 10
1490.958114235403
 20
2049.792628811944
 30
0.0
 40
3.0
100
AcDbArc
 50
90.0
 51
180.0
  0
LINE
  5
5DE
330
1F
100
AcDbEntity
  8
0
100
AcDbLine
 10
1487.958114235403
 20
2042.792628811943
 30
0.0
 11
1487.958114235403
 21
2049.792628811943
 31
0.0
  0
LINE
  5
5DF
330
1F
100
AcDbEntity
  8
0
100
AcDbLine
 10
1501.958114235403
 20
2042.792628811945
 30
0.0
 11
1497.458114235403
 21
2042.792628811945
 31
0.0
  0
LINE
  5
5E0
330
1F
100
AcDbEntity
  8
0
100
AcDbLine
 10
1506.958114235402
 20
2052.792628811944
 30
0.0
 11
1490.958114235403
 21
2052.792628811944
 31
0.0
  0
LINE
  5
5E1
330
1F
100
AcDbEntity
  8
0
  6
Continuous
 62
     7
100
AcDbLine
 10
1890.187106616478
 20
2049.575862102305
 30
0.0
 11
1861.928290699662
 21
1968.810248655226
 31
0.0
  0
LINE
  5
5E2
330
1F
100
AcDbEntity
  8
0
  6
Continuous
 62
     7
100
AcDbLine
 10
1892.176164578401
 20
2049.366940049599
 30
0.0
 11
1881.938983995856
 21
1951.903099915319
 31
0.0
  0
LINE
  5
5E3
330
1F
100
AcDbEntity
  8
0
  6
Continuous
 62
     7
100
AcDbLine
 10
1890.187106616478
 20
2049.575862102305
 30
0.0
 11
1879.781939557931
 21
1950.512694212732
 31
0.0
  0
LINE
  5
5E4
330
1F
100
AcDbEntity
  8
0
  6
Continuous
 62
     7
100
AcDbLine
 10
1866.090571810494
 20
1980.706330509659
 30
0.0
 11
1867.318712712916
 21
1992.398937434996
 31
0.0
  0
LINE
  5
5E5
330
1F
100
AcDbEntity
  8
0
  6
Continuous
 62
     7
100
AcDbLine
 10
1881.938983995856
 20
1951.903099915319
 30
0.0
 11
1878.958114235395
 21
1949.981666012177
 31
0.0
  0
CIRCLE
  5
5E6
330
1F
100
AcDbEntity
  8
0
  6
Continuous
 62
     7
100
AcDbCircle
 10
1873.788216573611
 20
1962.086067481524
 30
0.0
 40
2.869338511451267
  0
LINE
  5
5E7
330
1F
100
AcDbEntity
  8
0
  6
Continuous
 62
     7
100
AcDbLine
 10
1878.958114235395
 20
1968.810248655226
 30
0.0
 11
1878.958114235395
 21
1949.411542351217
 31
0.0
  0
LINE
  5
5E8
330
1F
100
AcDbEntity
  8
0
  6
Continuous
 62
     7
100
AcDbLine
 10
1856.958114235395
 20
1968.810248655226
 30
0.0
 11
1856.958114235395
 21
2010.810248655226
 31
0.0
  0
LINE
  5
5E9
330
1F
100
AcDbEntity
  8
0
  6
Continuous
 62
     7
100
AcDbLine
 10
1878.958114235395
 20
1949.411542351217
 30
0.0
 11
1856.958114235395
 21
1949.411542351217
 31
0.0
  0
LINE
  5
5EA
330
1F
100
AcDbEntity
  8
0
  6
Continuous
 62
     7
100
AcDbLine
 10
1878.958114235395
 20
1968.810248655226
 30
0.0
 11
1856.958114235395
 21
1968.810248655226
 31
0.0
  0
LINE
  5
5EB
330
1F
100
AcDbEntity
  8
0
  6
Continuous
 62
     7
100
AcDbLine
 10
1871.460564893622
 20
1996.054135132549
 30
0.0
 11
1874.743440781584
 21
2027.308999510909
 31
0.0
  0
LINE
  5
5EC
330
1F
100
AcDbEntity
  8
0
  6
Continuous
 62
     7
100
AcDbLine
 10
1880.213350176872
 20
2026.73446386597
 30
0.0
 11
1879.363178494847
 21
2018.640341052034
 31
0.0
  0
ARC
  5
5ED
330
1F
100
AcDbEntity
  8
0
  6
Continuous
 62
     7
100
AcDbCircle
 10
1872.435913607466
 20
2048.418282350455
 30
0.0
 40
5.5
100
AcDbArc
 50
354.0038851199492
 51
127.3688441849558
  0
ARC
  5
5EE
330
1F
100
AcDbEntity
  8
0
  6
Continuous
 62
     7
100
AcDbCircle
 10
1872.435913607466
 20
2048.418282350455
 30
0.0
 40
6.5
100
AcDbArc
 50
354.0038851199492
 51
137.7027991340161
  0
LINE
  5
5EF
330
1F
100
AcDbEntity
  8
0
  6
Continuous
 62
     7
100
AcDbLine
 10
1874.743440781584
 20
2027.308999510909
 30
0.0
 11
1875.240705272062
 21
2027.256768997732
 31
0.0
  0
ARC
  5
5F0
330
1F
100
AcDbEntity
  8
0
  6
Continuous
 62
     7
100
AcDbCircle
 10
1875.397396811592
 20
2028.748562469177
 30
0.0
 40
1.5
100
AcDbArc
 50
264.0038851199492
 51
354.0038851199492
  0
ARC
  5
5F1
330
1F
100
AcDbEntity
  8
0
  6
Continuous
 62
     7
100
AcDbCircle
 10
1880.370041716403
 20
2028.226257337413
 30
0.0
 40
1.5
100
AcDbArc
 50
174.0038851199491
 51
264.0038851199492
  0
LINE
  5
5F2
330
1F
100
AcDbEntity
  8
0
  6
Continuous
 62
     7
100
AcDbLine
 10
1875.894661302069
 20
2028.696331955999
 30
0.0
 11
1876.889190283032
 21
2028.591870929647
 31
0.0
  0
LINE
  5
5F3
330
1F
100
AcDbEntity
  8
0
  6
Continuous
 62
     7
100
AcDbLine
 10
1880.810777232483
 20
2046.78173502474
 30
0.0
 11
1879.816248251521
 21
2046.886196051092
 31
0.0
  0
LINE
  5
5F4
330
1F
100
AcDbEntity
  8
0
  6
Continuous
 62
     7
100
AcDbLine
 10
1878.821719270559
 20
2046.990657077445
 30
0.0
 11
1879.816248251521
 21
2046.886196051092
 31
0.0
  0
LINE
  5
5F5
330
1F
100
AcDbEntity
  8
0
  6
Continuous
 62
     7
100
AcDbLine
 10
1878.878248244956
 20
2028.382948876942
 30
0.0
 11
1880.810777232483
 21
2046.78173502474
 31
0.0
  0
LINE
  5
5F6
330
1F
100
AcDbEntity
  8
0
  6
Continuous
 62
     7
100
AcDbLine
 10
1876.889190283032
 20
2028.591870929647
 30
0.0
 11
1878.900351983723
 21
2047.739285679164
 31
0.0
  0
LINE
  5
5F7
330
1F
100
AcDbEntity
  8
0
  6
Continuous
 62
     7
100
AcDbLine
 10
1875.894661302069
 20
2028.696331955999
 30
0.0
 11
1877.905823002761
 21
2047.843746705517
 31
0.0
  0
LINE
  5
5F8
330
1F
100
AcDbEntity
  8
0
100
AcDbLine
 10
1892.176164578401
 20
2049.366940049599
 30
0.0
 11
1890.187106616478
 21
2049.575862102305
 31
0.0
  0
LINE
  5
5F9
330
1F
100
AcDbEntity
  8
0
  6
Continuous
 62
     7
100
AcDbLine
 10
1867.318712712916
 20
1992.398937434996
 30
0.0
 11
1870.080174400074
 21
1992.108885432896
 31
0.0
  0
LINE
  5
5FA
330
1F
100
AcDbEntity
  8
0
100
AcDbLine
 10
1840.641289353358
 20
2042.792628811955
 30
0.0
 11
1871.958114235388
 21
2042.792628811955
 31
0.0
1001
ACAD
1000
ASC_BOUNDS
1002
{
1070
    19
1002
}
  0
LINE
  5
5FB
330
1F
100
AcDbEntity
  8
4
100
AcDbLine
 10
1537.417928018508
 20
2018.646488163776
 30
0.0
 11
1822.499621294602
 21
2018.642963700802
 31
0.0
  0
LINE
  5
5FC
330
1F
100
AcDbEntity
  8
0
100
AcDbLine
 10
1853.178586676341
 20
2032.792628811954
 30
0.0
 11
1856.951751670599
 21
2010.810248655226
 31
0.0
1001
ACAD
1000
ASC_BOUNDS
1002
{
1070
    19
1002
}
  0
LINE
  5
5FD
330
1F
100
AcDbEntity
  8
0
100
AcDbLine
 10
1852.958114235388
 20
2032.792628811955
 30
0.0
 11
1868.958114235388
 21
2032.792628811955
 31
0.0
1001
ACAD
1000
ASC_BOUNDS
1002
{
1070
    19
1005
0
1002
}
  0
LINE
  5
5FE
330
1F
100
AcDbEntity
  8
0
100
AcDbLine
 10
1857.958114235395
 20
2042.792628811955
 30
0.0
 11
1862.458114235395
 21
2042.792628811955
 31
0.0
  0
LINE
  5
5FF
330
1F
100
AcDbEntity
  8
0
100
AcDbLine
 10
1871.958114235388
 20
2042.792628811955
 30
0.0
 11
1871.958114235388
 21
2035.792628811956
 31
0.0
1001
ACAD
1000
ASC_BOUNDS
1002
{
1070
    19
1002
}
  0
ARC
  5
600
330
1F
100
AcDbEntity
  8
0
100
AcDbCircle
 10
1868.958114235388
 20
2035.792628811956
 30
0.0
 40
3.0
100
AcDbArc
 50
270.0
 51
0.0
1001
ACAD
1000
ASC_BOUNDS
1002
{
1070
    19
1002
}
  0
LINE
  5
601
330
1F
100
AcDbEntity
  8
0
100
AcDbLine
 10
1840.641289353358
 20
2042.792628811955
 30
0.0
 11
1871.958114235388
 21
2042.792628811955
 31
0.0
  0
LINE
  5
602
330
1F
100
AcDbEntity
  8
0
100
AcDbLine
 10
1679.972247712404
 20
2052.792628811956
 30
0.0
 11
1852.958114235388
 21
2052.792628811955
 31
0.0
1001
ACAD
1000
ASC_BOUNDS
1002
{
1070
    19
1005
0
1005
0
1005
0
1002
}
  0
ARC
  5
603
330
1F
100
AcDbEntity
  8
0
100
AcDbCircle
 10
1679.958114235403
 20
2073.292628811955
 30
0.0
 40
24.99999999999955
100
AcDbArc
 50
304.9152062476023
 51
235.0847937523977
  0
LINE
  5
604
330
1F
100
AcDbEntity
  8
0
100
AcDbLine
 10
1871.958114235395
 20
2042.792628811955
 30
0.0
 11
1871.958114235395
 21
2049.792628811955
 31
0.0
  0
ARC
  5
605
330
1F
100
AcDbEntity
  8
0
100
AcDbCircle
 10
1868.958114235395
 20
2049.792628811955
 30
0.0
 40
3.0
100
AcDbArc
 50
0.0
 51
90.0
  0
LINE
  5
606
330
1F
100
AcDbEntity
  8
0
100
AcDbLine
 10
1857.958114235395
 20
2042.792628811955
 30
0.0
 11
1862.458114235395
 21
2042.792628811955
 31
0.0
  0
LINE
  5
607
330
1F
100
AcDbEntity
  8
0
100
AcDbLine
 10
1852.958114235395
 20
2052.792628811955
 30
0.0
 11
1868.958114235395
 21
2052.792628811955
 31
0.0
  0
ARC
  5
608
330
1F
100
AcDbEntity
  8
0
100
AcDbCircle
 10
1679.020830234261
 20
1282.741556849344
 30
0.0
 40
186.5
100
AcDbArc
 50
47.99265495467833
 51
131.8453874366748
  0
ARC
  5
609
330
1F
100
AcDbEntity
  8
0
100
AcDbCircle
 10
1679.020830234261
 20
1282.741556849344
 30
0.0
 40
186.5
100
AcDbArc
 50
227.9926549546783
 51
311.8453874366748
  0
POLYLINE
  5
60A
330
1F
100
AcDbEntity
  8
0
100
AcDb2dPolyline
 66
     1
 10
0.0
 20
0.0
 30
0.0
  0
VERTEX
  5
60B
330
60A
100
AcDbEntity
  8
0
100
AcDbVertex
100
AcDb2dVertex
 10
1808.289053076
 20
1439.18316436901
 30
0.0
  0
VERTEX
  5
60C
330
60A
100
AcDbEntity
  8
0
100
AcDbVertex
100
AcDb2dVertex
 10
1796.589565733683
 20
1427.516701239067
 30
0.0
  0
SEQEND
  5
60D
330
60A
100
AcDbEntity
  8
0
  0
POLYLINE
  5
60E
330
1F
100
AcDbEntity
  8
0
100
AcDb2dPolyline
 66
     1
 10
0.0
 20
0.0
 30
0.0
  0
VERTEX
  5
60F
330
60E
100
AcDbEntity
  8
0
100
AcDbVertex
100
AcDb2dVertex
 10
1824.127726573543
 20
1399.900588233103
 30
0.0
  0
VERTEX
  5
610
330
60E
100
AcDbEntity
  8
0
100
AcDbVertex
100
AcDb2dVertex
 10
1835.827213915854
 20
1411.567051363046
 30
0.0
  0
VERTEX
  5
611
330
60E
100
AcDbEntity
  8
0
100
AcDbVertex
100
AcDb2dVertex
 10
1808.289053076
 20
1439.18316436901
 30
0.0
  0
SEQEND
  5
612
330
60E
100
AcDbEntity
  8
0
  0
ARC
  5
613
330
1F
100
AcDbEntity
  8
0
100
AcDbCircle
 10
1679.020830234261
 20
1282.741556849344
 30
0.0
 40
186.5
100
AcDbArc
 50
317.9926549546047
 51
41.84538743678522
  0
POLYLINE
  5
614
330
1F
100
AcDbEntity
  8
0
100
AcDb2dPolyline
 66
     1
 10
0.0
 20
0.0
 30
0.0
 70
     1
  0
VERTEX
  5
615
330
614
100
AcDbEntity
  8
0
100
AcDbVertex
100
AcDb2dVertex
 10
1797.294430071629
 20
1414.803495277906
 30
0.0
  0
VERTEX
  5
616
330
614
100
AcDbEntity
  8
0
100
AcDbVertex
100
AcDb2dVertex
 10
1806.499801073619
 20
1423.982882224524
 30
0.0
  0
VERTEX
  5
617
330
614
100
AcDbEntity
  8
0
100
AcDbVertex
100
AcDb2dVertex
 10
1820.621934837642
 20
1409.820772990696
 30
0.0
  0
VERTEX
  5
618
330
614
100
AcDbEntity
  8
0
100
AcDbVertex
100
AcDb2dVertex
 10
1811.416563835652
 20
1400.641386044078
 30
0.0
  0
SEQEND
  5
619
330
614
100
AcDbEntity
  8
0
  0
POLYLINE
  5
61A
330
1F
100
AcDbEntity
  8
0
100
AcDb2dPolyline
 66
     1
 10
0.0
 20
0.0
 30
0.0
 70
     1
  0
VERTEX
  5
61B
330
61A
100
AcDbEntity
  8
0
100
AcDbVertex
100
AcDb2dVertex
 10
1546.958891805693
 20
1401.015156686714
 30
0.0
  0
VERTEX
  5
61C
330
61A
100
AcDbEntity
  8
0
100
AcDbVertex
100
AcDb2dVertex
 10
1537.779504859081
 20
1410.220527688702
 30
0.0
  0
VERTEX
  5
61D
330
61A
100
AcDbEntity
  8
0
100
AcDbVertex
100
AcDb2dVertex
 10
1551.941614092905
 20
1424.342661452726
 30
0.0
  0
VERTEX
  5
61E
330
61A
100
AcDbEntity
  8
0
100
AcDbVertex
100
AcDb2dVertex
 10
1561.121001039525
 20
1415.137290450742
 30
0.0
  0
SEQEND
  5
61F
330
61A
100
AcDbEntity
  8
0
  0
POLYLINE
  5
620
330
1F
100
AcDbEntity
  8
0
100
AcDb2dPolyline
 66
     1
 10
0.0
 20
0.0
 30
0.0
  0
VERTEX
  5
621
330
620
100
AcDbEntity
  8
0
100
AcDbVertex
100
AcDb2dVertex
 10
1561.861798850502
 20
1427.848453188627
 30
0.0
  0
VERTEX
  5
622
330
620
100
AcDbEntity
  8
0
100
AcDbVertex
100
AcDb2dVertex
 10
1550.195335720559
 20
1439.547940530941
 30
0.0
  0
VERTEX
  5
623
330
620
100
AcDbEntity
  8
0
100
AcDbVertex
100
AcDb2dVertex
 10
1522.579222714589
 20
1412.009779691086
 30
0.0
  0
SEQEND
  5
624
330
620
100
AcDbEntity
  8
0
  0
POLYLINE
  5
625
330
1F
100
AcDbEntity
  8
0
100
AcDb2dPolyline
 66
     1
 10
0.0
 20
0.0
 30
0.0
  0
VERTEX
  5
626
330
625
100
AcDbEntity
  8
0
100
AcDbVertex
100
AcDb2dVertex
 10
1522.579222714589
 20
1412.009779691086
 30
0.0
  0
VERTEX
  5
627
330
625
100
AcDbEntity
  8
0
100
AcDbVertex
100
AcDb2dVertex
 10
1534.245685844532
 20
1400.310292348772
 30
0.0
  0
SEQEND
  5
628
330
625
100
AcDbEntity
  8
0
  0
POLYLINE
  5
629
330
1F
100
AcDbEntity
  8
0
100
AcDb2dPolyline
 66
     1
 10
0.0
 20
0.0
 30
0.0
 70
     1
  0
VERTEX
  5
62A
330
629
100
AcDbEntity
  8
0
100
AcDbVertex
100
AcDb2dVertex
 10
1560.747230396885
 20
1150.679618420782
 30
0.0
  0
VERTEX
  5
62B
330
629
100
AcDbEntity
  8
0
100
AcDbVertex
100
AcDb2dVertex
 10
1551.541859394902
 20
1141.500231474164
 30
0.0
  0
VERTEX
  5
62C
330
629
100
AcDbEntity
  8
0
100
AcDbVertex
100
AcDb2dVertex
 10
1537.419725630879
 20
1155.662340707992
 30
0.0
  0
VERTEX
  5
62D
330
629
100
AcDbEntity
  8
0
100
AcDbVertex
100
AcDb2dVertex
 10
1546.625096632862
 20
1164.841727654611
 30
0.0
  0
SEQEND
  5
62E
330
629
100
AcDbEntity
  8
0
  0
POLYLINE
  5
62F
330
1F
100
AcDbEntity
  8
0
100
AcDb2dPolyline
 66
     1
 10
0.0
 20
0.0
 30
0.0
  0
VERTEX
  5
630
330
62F
100
AcDbEntity
  8
0
100
AcDbVertex
100
AcDb2dVertex
 10
1533.913933894978
 20
1165.582525465585
 30
0.0
  0
VERTEX
  5
631
330
62F
100
AcDbEntity
  8
0
100
AcDbVertex
100
AcDb2dVertex
 10
1522.214446552661
 20
1153.916062335643
 30
0.0
  0
VERTEX
  5
632
330
62F
100
AcDbEntity
  8
0
100
AcDbVertex
100
AcDb2dVertex
 10
1549.752607392514
 20
1126.299949329678
 30
0.0
  0
SEQEND
  5
633
330
62F
100
AcDbEntity
  8
0
  0
POLYLINE
  5
634
330
1F
100
AcDbEntity
  8
0
100
AcDb2dPolyline
 66
     1
 10
0.0
 20
0.0
 30
0.0
  0
VERTEX
  5
635
330
634
100
AcDbEntity
  8
0
100
AcDbVertex
100
AcDb2dVertex
 10
1549.752607392514
 20
1126.299949329678
 30
0.0
  0
VERTEX
  5
636
330
634
100
AcDbEntity
  8
0
100
AcDbVertex
100
AcDb2dVertex
 10
1561.452094734831
 20
1137.966412459621
 30
0.0
  0
SEQEND
  5
637
330
634
100
AcDbEntity
  8
0
  0
POLYLINE
  5
638
330
1F
100
AcDbEntity
  8
0
100
AcDb2dPolyline
 66
     1
 10
0.0
 20
0.0
 30
0.0
  0
VERTEX
  5
639
330
638
100
AcDbEntity
  8
0
100
AcDbVertex
100
AcDb2dVertex
 10
1796.17986161802
 20
1137.634660510062
 30
0.0
  0
VERTEX
  5
63A
330
638
100
AcDbEntity
  8
0
100
AcDbVertex
100
AcDb2dVertex
 10
1807.846324747962
 20
1125.935173167748
 30
0.0
  0
VERTEX
  5
63B
330
638
100
AcDbEntity
  8
0
100
AcDbVertex
100
AcDb2dVertex
 10
1835.462437753925
 20
1153.473334007602
 30
0.0
  0
SEQEND
  5
63C
330
638
100
AcDbEntity
  8
0
  0
POLYLINE
  5
63D
330
1F
100
AcDbEntity
  8
0
100
AcDb2dPolyline
 66
     1
 10
0.0
 20
0.0
 30
0.0
  0
VERTEX
  5
63E
330
63D
100
AcDbEntity
  8
0
100
AcDbVertex
100
AcDb2dVertex
 10
1835.462437753925
 20
1153.473334007602
 30
0.0
  0
VERTEX
  5
63F
330
63D
100
AcDbEntity
  8
0
100
AcDbVertex
100
AcDb2dVertex
 10
1823.795974623982
 20
1165.172821349916
 30
0.0
  0
SEQEND
  5
640
330
63D
100
AcDbEntity
  8
0
  0
POLYLINE
  5
641
330
1F
100
AcDbEntity
  8
0
100
AcDb2dPolyline
 66
     1
 10
0.0
 20
0.0
 30
0.0
  0
VERTEX
  5
642
330
641
100
AcDbEntity
  8
0
100
AcDbVertex
100
AcDb2dVertex
 10
1811.082768662821
 20
1164.467957011974
 30
0.0
  0
VERTEX
  5
643
330
641
100
AcDbEntity
  8
0
100
AcDbVertex
100
AcDb2dVertex
 10
1820.262155609441
 20
1155.262586009982
 30
0.0
  0
SEQEND
  5
644
330
641
100
AcDbEntity
  8
0
  0
POLYLINE
  5
645
330
1F
100
AcDbEntity
  8
0
100
AcDb2dPolyline
 66
     1
 10
0.0
 20
0.0
 30
0.0
  0
VERTEX
  5
646
330
645
100
AcDbEntity
  8
0
100
AcDbVertex
100
AcDb2dVertex
 10
1806.100046375609
 20
1141.140452245962
 30
0.0
  0
VERTEX
  5
647
330
645
100
AcDbEntity
  8
0
100
AcDbVertex
100
AcDb2dVertex
 10
1796.920659428989
 20
1150.345823247947
 30
0.0
  0
VERTEX
  5
648
330
645
100
AcDbEntity
  8
0
100
AcDbVertex
100
AcDb2dVertex
 10
1811.082768662821
 20
1164.467957011974
 30
0.0
  0
SEQEND
  5
649
330
645
100
AcDbEntity
  8
0
  0
ARC
  5
64A
330
1F
100
AcDbEntity
  8
0
100
AcDbCircle
 10
1679.020830234261
 20
1282.741556849344
 30
0.0
 40
186.5
100
AcDbArc
 50
137.9926549546047
 51
221.8453874367852
  0
LINE
  5
64B
330
1F
100
AcDbEntity
  8
0
100
AcDbLine
 10
1806.100046375609
 20
1141.140452245955
 30
0.0
 11
1820.262155609441
 21
1155.262586009982
 31
0.0
  0
LINE
  5
64C
330
1F
100
AcDbEntity
  8
0
100
AcDbLine
 10
1502.972247712404
 20
1812.792628811956
 30
0.0
 11
1856.972247712404
 21
1812.792628811956
 31
0.0
  0
LINE
  5
64D
102
{ACAD_REACTORS
330
661
330
664
102
}
330
1F
100
AcDbEntity
  8
0
100
AcDbLine
 10
1856.972247712404
 20
1812.792628811956
 30
0.0
 11
1856.970539975288
 21
1832.797925542545
 31
0.0
  0
LINE
  5
64E
330
1F
100
AcDbEntity
  8
0
100
AcDbLine
 10
1856.956881695604
 20
1942.797925542545
 30
0.0
 11
1856.951751670592
 21
1972.893634528144
 31
0.0
  0
LINE
  5
64F
102
{ACAD_REACTORS
330
65E
102
}
330
1F
100
AcDbEntity
  8
0
100
AcDbLine
 10
1502.972247712404
 20
1812.792628811956
 30
0.0
 11
1502.972247712404
 21
1902.797925542546
 31
0.0
  0
CIRCLE
  5
650
330
1F
100
AcDbEntity
  8
0
100
AcDbCircle
 10
1679.020830234261
 20
1282.741556849344
 30
0.0
 40
25.0
  0
LINE
  5
651
330
1F
100
AcDbEntity
  8
0
100
AcDbLine
 10
1919.020830234261
 20
1942.797925542545
 30
0.0
 11
1919.020830234261
 21
1832.797925542545
 31
0.0
  0
LINE
  5
652
330
1F
100
AcDbEntity
  8
0
100
AcDbLine
 10
1919.020830234261
 20
1942.797925542545
 30
0.0
 11
1856.956881695604
 21
1942.797925542545
 31
0.0
  0
LINE
  5
653
102
{ACAD_REACTORS
330
67F
102
}
330
1F
100
AcDbEntity
  8
0
100
AcDbLine
 10
1919.020830234261
 20
1832.797925542544
 30
0.0
 11
1856.970539975288
 21
1832.797925542545
 31
0.0
  0
LINE
  5
654
330
1F
100
AcDbEntity
  8
0
100
AcDbLine
 10
1439.020830234261
 20
2012.797925542546
 30
0.0
 11
1439.020830234261
 21
1902.797925542545
 31
0.0
  0
LINE
  5
655
330
1F
100
AcDbEntity
  8
0
100
AcDbLine
 10
1439.020830234261
 20
2012.797925542546
 30
0.0
 11
1503.588369147556
 21
2012.797925542546
 31
0.0
  0
LINE
  5
656
102
{ACAD_REACTORS
330
67F
102
}
330
1F
100
AcDbEntity
  8
0
100
AcDbLine
 10
1439.020830234261
 20
1902.797925542544
 30
0.0
 11
1502.972247712404
 21
1902.797925542544
 31
0.0
  0
LINE
  5
657
102
{ACAD_REACTORS
330
65E
102
}
330
1F
100
AcDbEntity
  8
AM_7
  6
AM_DIN_G_W050x2
100
AcDbLine
 10
1379.020830234261
 20
1957.797925542545
 30
0.0
 11
1562.972247712404
 21
1957.797925542545
 31
0.0
1001
GENIUS_GENODEF_13
1002
{
1000
HIER
1070
     0
1002
}
1002
{
1000
MANEDIT
1070
     0
1002
}
1002
{
1000
NOSEL
1070
     0
1002
}
1002
{
1000
BEHIND
1070
     0
1002
}
1002
{
1000
OTHER
1070
     0
1002
}
1002
{
1000
REACTOR
1002
}
1001
GENIUS_GENOBJ-N-CEN_13
1002
{
1000
OWNER
1000
GEN
1002
}
1001
GENIUS_GENCEN_19
1002
{
1040
60.0
1002
}
  0
LINE
  5
658
102
{ACAD_REACTORS
330
661
102
}
330
1F
100
AcDbEntity
  8
AM_7
  6
AM_DIN_G_W050x2
100
AcDbLine
 10
1979.020830015647
 20
1887.803047397409
 30
0.0
 11
1796.963711506268
 21
1887.787506228386
 31
0.0
1001
GENIUS_GENODEF_13
1002
{
1000
HIER
1070
     0
1002
}
1002
{
1000
MANEDIT
1070
     0
1002
}
1002
{
1000
NOSEL
1070
     0
1002
}
1002
{
1000
BEHIND
1070
     0
1002
}
1002
{
1000
OTHER
1070
     0
1002
}
1002
{
1000
REACTOR
1002
}
1001
GENIUS_GENOBJ-N-CEN_13
1002
{
1000
OWNER
1000
GEN
1002
}
1001
GENIUS_GENCEN_19
1002
{
1040
60.0
1002
}
  0
CIRCLE
  5
659
330
1F
100
AcDbEntity
  8
0
100
AcDbCircle
 10
1679.006696757259
 20
1282.741556849344
 30
0.0
 40
177.0141334770014
  0
ARC
  5
65A
330
1F
100
AcDbEntity
  8
0
100
AcDbCircle
 10
1438.065640316151
 20
1958.163199678113
 30
0.0
 40
85.31225740650427
100
AcDbArc
 50
319.5358532477511
 51
39.82231422967535
  0
ARC
  5
65B
330
1F
100
AcDbEntity
  8
0
100
AcDbCircle
 10
1920.804727071535
 20
1887.805852437628
 30
0.0
 40
84.26550577509845
100
AcDbArc
 50
139.261718648595
 51
220.7525097471763
  0
DIMENSION
  5
65C
102
{ACAD_XDICTIONARY
360
65D
102
}
102
{ACAD_REACTORS
330
65E
102
}
330
1F
100
AcDbEntity
  8
AM_5
100
AcDbDimension
  2
*D9
 10
1319.02082923426
 20
1812.792628811956
 30
0.0
 11
1295.52082923426
 21
1885.295277177251
 31
0.0
 70
    32
 71
     5
 42
145.0052967305891
  3
GEN-ISO$0
100
AcDbAlignedDimension
 13
1379.020830234261
 23
1957.797925542545
 33
0.0
 14
1502.972247712404
 24
1812.792628811956
 34
0.0
 50
90.0
100
AcDbRotatedDimension
1001
ACAD
1000
DSTYLE
1002
{
1070
   271
1070
     0
1002
}
  0
DIMENSION
  5
65F
102
{ACAD_XDICTIONARY
360
660
102
}
102
{ACAD_REACTORS
330
661
102
}
330
1F
100
AcDbEntity
  8
AM_5
100
AcDbDimension
  2
*D10
 10
2060.98683663538
 20
1887.803047397409
 30
0.0
 11
2060.986836635379
 21
1850.29783810468
 31
0.0
 70
   160
 71
     5
 42
75.01041858545341
  3
GEN-ISO$0
100
AcDbAlignedDimension
 13
1856.972247712404
 23
1812.792628811956
 33
0.0
 14
1979.020830015647
 24
1887.803047397409
 34
0.0
 50
90.0
100
AcDbRotatedDimension
1001
ACAD
1000
DSTYLE
1002
{
1070
   271
1070
     0
1002
}
  0
DIMENSION
  5
662
102
{ACAD_XDICTIONARY
360
663
102
}
102
{ACAD_REACTORS
330
664
102
}
330
1F
100
AcDbEntity
  8
AM_5
100
AcDbDimension
  2
*D11
 10
2124.482475027983
 20
2052.792628811955
 30
0.0
 11
2100.979030146093
 21
1932.792628811956
 31
0.0
 70
    32
  1
220
 71
     5
 42
239.9999999999991
  3
GEN-ISO$0
100
AcDbAlignedDimension
 13
1856.972247712404
 23
1812.792628811956
 33
0.0
 14
1852.958114235388
 24
2052.792628811955
 34
0.0
 50
90.0
100
AcDbRotatedDimension
1001
ACAD
1000
DSTYLE
1002
{
1070
   271
1070
     0
1002
}
  0
LINE
  5
665
330
1F
100
AcDbEntity
  8
AM_4
100
AcDbLine
 10
1374.020830234246
 20
2013.915886751264
 30
0.0
 11
1374.020830234246
 21
1901.679964333545
 31
0.0
  0
LINE
  5
666
330
1F
100
AcDbEntity
  8
AM_4
100
AcDbLine
 10
1429.020830234246
 20
1897.797925542543
 30
0.0
 11
1429.020830234275
 21
2017.797925542546
 31
0.0
  0
LINE
  5
667
330
1F
100
AcDbEntity
  8
AM_4
100
AcDbLine
 10
1374.020830234246
 20
1901.679964333545
 30
0.0
 11
1374.020830234246
 21
1897.797925542602
 31
0.0
  0
LINE
  5
668
330
1F
100
AcDbEntity
  8
AM_4
100
AcDbLine
 10
1374.020830234246
 20
1897.797925542609
 30
0.0
 11
1429.020830234246
 21
1897.797925542543
 31
0.0
  0
LINE
  5
669
330
1F
100
AcDbEntity
  8
AM_4
100
AcDbLine
 10
1374.020830234246
 20
2039.054851448597
 30
0.0
 11
1374.020830234246
 21
2013.915886751264
 31
0.0
  0
LWPOLYLINE
  5
66A
330
1F
100
AcDbEntity
  8
AM_4
100
AcDbPolyline
 90
        6
 70
     1
 43
0.0
 10
1387.773606983977
 20
2021.92638849557
 10
1391.526383733707
 20
2028.42638849557
 10
1387.773606983977
 20
2034.92638849557
 10
1380.268053484508
 20
2034.92638849557
 10
1376.515276734778
 20
2028.42638849557
 10
1380.268053484516
 20
2021.92638849557
  0
CIRCLE
  5
66B
330
1F
100
AcDbEntity
  8
AM_4
100
AcDbCircle
 10
1384.020830234246
 20
2028.42638849557
 30
0.0
 40
6.5
  0
LWPOLYLINE
  5
66C
330
1F
100
AcDbEntity
  8
AM_4
100
AcDbPolyline
 90
        6
 70
     1
 43
0.0
 10
1422.773606983976
 20
2021.926388495512
 10
1426.526383733707
 20
2028.426388495512
 10
1422.773606983976
 20
2034.926388495512
 10
1415.268053484508
 20
2034.926388495512
 10
1411.515276734778
 20
2028.426388495512
 10
1415.268053484516
 20
2021.926388495512
  0
CIRCLE
  5
66D
330
1F
100
AcDbEntity
  8
AM_4
100
AcDbCircle
 10
1419.020830234246
 20
2028.426388495512
 30
0.0
 40
6.5
  0
LINE
  5
66E
330
1F
100
AcDbEntity
  8
AM_4
100
AcDbLine
 10
1374.020830234246
 20
2017.797925542485
 30
0.0
 11
1429.020830234246
 21
2017.797925542543
 31
0.0
  0
LINE
  5
66F
330
1F
100
AcDbEntity
  8
AM_4
100
AcDbLine
 10
1429.020830234246
 20
2039.054851448597
 30
0.0
 11
1374.020830234246
 21
2039.054851448597
 31
0.0
  0
LINE
  5
670
330
1F
100
AcDbEntity
  8
AM_4
100
AcDbLine
 10
1429.020830234246
 20
2017.797925542543
 30
0.0
 11
1429.020830234217
 21
2039.054851448597
 31
0.0
  0
LINE
  5
671
330
1F
100
AcDbEntity
  8
AM_4
100
AcDbLine
 10
1929.896069566715
 20
1943.915886751404
 30
0.0
 11
1929.896069566715
 21
1831.679964333686
 31
0.0
  0
LINE
  5
672
330
1F
100
AcDbEntity
  8
AM_4
100
AcDbLine
 10
1984.896069566715
 20
1827.797925542684
 30
0.0
 11
1984.896069566744
 21
1947.797925542686
 31
0.0
  0
LINE
  5
673
330
1F
100
AcDbEntity
  8
AM_4
100
AcDbLine
 10
1929.896069566715
 20
1831.679964333686
 30
0.0
 11
1929.896069566715
 21
1827.797925542742
 31
0.0
  0
LINE
  5
674
330
1F
100
AcDbEntity
  8
AM_4
100
AcDbLine
 10
1929.896069566715
 20
1827.79792554275
 30
0.0
 11
1984.896069566715
 21
1827.797925542684
 31
0.0
  0
LINE
  5
675
330
1F
100
AcDbEntity
  8
AM_4
100
AcDbLine
 10
1929.896069566715
 20
1969.054851448737
 30
0.0
 11
1929.896069566715
 21
1943.915886751404
 31
0.0
  0
LWPOLYLINE
  5
676
330
1F
100
AcDbEntity
  8
AM_4
100
AcDbPolyline
 90
        6
 70
     1
 43
0.0
 10
1943.648846316445
 20
1951.92638849571
 10
1947.401623066175
 20
1958.42638849571
 10
1943.648846316445
 20
1964.92638849571
 10
1936.143292816977
 20
1964.92638849571
 10
1932.390516067247
 20
1958.42638849571
 10
1936.143292816984
 20
1951.92638849571
  0
CIRCLE
  5
677
330
1F
100
AcDbEntity
  8
AM_4
100
AcDbCircle
 10
1939.896069566714
 20
1958.42638849571
 30
0.0
 40
6.5
  0
LWPOLYLINE
  5
678
330
1F
100
AcDbEntity
  8
AM_4
100
AcDbPolyline
 90
        6
 70
     1
 43
0.0
 10
1978.648846316445
 20
1951.926388495652
 10
1982.401623066175
 20
1958.426388495652
 10
1978.648846316445
 20
1964.926388495651
 10
1971.143292816977
 20
1964.926388495651
 10
1967.390516067246
 20
1958.426388495652
 10
1971.143292816984
 20
1951.926388495652
  0
CIRCLE
  5
679
330
1F
100
AcDbEntity
  8
AM_4
100
AcDbCircle
 10
1974.896069566715
 20
1958.426388495652
 30
0.0
 40
6.5
  0
LINE
  5
67A
330
1F
100
AcDbEntity
  8
AM_4
100
AcDbLine
 10
1929.896069566715
 20
1947.797925542624
 30
0.0
 11
1984.896069566715
 21
1947.797925542683
 31
0.0
  0
LINE
  5
67B
330
1F
100
AcDbEntity
  8
AM_4
100
AcDbLine
 10
1984.896069566715
 20
1969.054851448737
 30
0.0
 11
1929.896069566715
 21
1969.054851448737
 31
0.0
  0
LINE
  5
67C
330
1F
100
AcDbEntity
  8
AM_4
100
AcDbLine
 10
1984.896069566715
 20
1947.797925542683
 30
0.0
 11
1984.896069566685
 21
1969.054851448737
 31
0.0
  0
DIMENSION
  5
67D
102
{ACAD_XDICTIONARY
360
67E
102
}
102
{ACAD_REACTORS
330
67F
102
}
330
1F
100
AcDbEntity
  8
AM_5
100
AcDbDimension
  2
*D12
 10
1919.020830234261
 20
1712.797925542546
 30
0.0
 11
1679.020830234261
 21
1736.297925542546
 31
0.0
 70
    32
 71
     5
 42
480.0
  3
GEN-ISO$0
100
AcDbAlignedDimension
 13
1439.020830234261
 23
1902.797925542544
 33
0.0
 14
1919.020830234261
 24
1832.797925542544
 34
0.0
100
AcDbRotatedDimension
1001
ACAD
1000
DSTYLE
1002
{
1070
   271
1070
     0
1002
}
  0
LINE
  5
680
330
1F
100
AcDbEntity
  8
AM_7
100
AcDbLine
 10
1679.006696757259
 20
1282.741556849344
 30
0.0
 11
1886.020830234261
 21
1282.741556849344
 31
0.0
1001
GENIUS_GENOREF_13
1005
832
  0
LINE
  5
681
330
1F
100
AcDbEntity
  8
AM_7
100
AcDbLine
 10
1679.006696757259
 20
1282.741556849344
 30
0.0
 11
1679.006696757259
 21
1489.755690326346
 31
0.0
1001
GENIUS_GENOREF_13
1005
832
  0
LINE
  5
682
330
1F
100
AcDbEntity
  8
AM_7
100
AcDbLine
 10
1679.006696757259
 20
1282.741556849344
 30
0.0
 11
1471.992563280258
 21
1282.741556849344
 31
0.0
1001
GENIUS_GENOREF_13
1005
832
  0
LINE
  5
683
330
1F
100
AcDbEntity
  8
AM_7
100
AcDbLine
 10
1679.006696757259
 20
1282.741556849344
 30
0.0
 11
1679.006696757259
 21
1075.727423372343
 31
0.0
1001
GENIUS_GENOREF_13
1005
832
  0
DIMENSION
  5
684
102
{ACAD_XDICTIONARY
360
685
102
}
102
{ACAD_REACTORS
330
686
102
}
330
1F
100
AcDbEntity
  8
AM_5
100
AcDbDimension
  2
*D13
 10
1871.958114235395
 20
2137.441600518338
 30
0.0
 11
1679.958114235399
 21
2160.941600518338
 31
0.0
 70
    32
  1
%%c<>
 71
     5
 42
383.9999999999927
  3
GEN-ISO$0
100
AcDbAlignedDimension
 13
1487.958114235403
 23
2042.792628811968
 33
0.0
 14
1871.958114235395
 24
2042.792628811955
 34
0.0
100
AcDbRotatedDimension
1001
ACAD
1000
DSTYLE
1002
{
1070
   271
1070
     0
1002
}
  0
LINE
  5
687
330
1F
100
AcDbEntity
  8
0
100
AcDbLine
 10
1439.020830234261
 20
1337.741556849344
 30
0.0
 11
1439.020830234261
 21
1227.741556849344
 31
0.0
  0
LINE
  5
688
330
1F
100
AcDbEntity
  8
AM_4
100
AcDbLine
 10
1374.020830234246
 20
1338.859518058064
 30
0.0
 11
1374.020830234246
 21
1226.623595640344
 31
0.0
  0
LINE
  5
689
330
1F
100
AcDbEntity
  8
AM_4
100
AcDbLine
 10
1429.020830234246
 20
1222.741556849342
 30
0.0
 11
1429.020830234275
 21
1342.741556849346
 31
0.0
  0
LINE
  5
68A
330
1F
100
AcDbEntity
  8
AM_4
100
AcDbLine
 10
1374.020830234246
 20
1226.623595640344
 30
0.0
 11
1374.020830234246
 21
1222.741556849401
 31
0.0
  0
LINE
  5
68B
330
1F
100
AcDbEntity
  8
AM_4
100
AcDbLine
 10
1374.020830234246
 20
1222.741556849408
 30
0.0
 11
1429.020830234246
 21
1222.741556849342
 31
0.0
  0
LINE
  5
68C
330
1F
100
AcDbEntity
  8
AM_4
100
AcDbLine
 10
1374.020830234246
 20
1363.998482755397
 30
0.0
 11
1374.020830234246
 21
1338.859518058064
 31
0.0
  0
LWPOLYLINE
  5
68D
330
1F
100
AcDbEntity
  8
AM_4
100
AcDbPolyline
 90
        6
 70
     1
 43
0.0
 10
1387.773606983977
 20
1346.87001980237
 10
1391.526383733714
 20
1353.37001980237
 10
1387.773606983977
 20
1359.87001980237
 10
1380.268053484516
 20
1359.87001980237
 10
1376.515276734778
 20
1353.37001980237
 10
1380.268053484516
 20
1346.87001980237
  0
CIRCLE
  5
68E
330
1F
100
AcDbEntity
  8
AM_4
100
AcDbCircle
 10
1384.020830234246
 20
1353.37001980237
 30
0.0
 40
6.5
  0
LWPOLYLINE
  5
68F
330
1F
100
AcDbEntity
  8
AM_4
100
AcDbPolyline
 90
        6
 70
     1
 43
0.0
 10
1422.773606983976
 20
1346.870019802312
 10
1426.526383733714
 20
1353.370019802311
 10
1422.773606983976
 20
1359.870019802311
 10
1415.268053484516
 20
1359.870019802311
 10
1411.515276734778
 20
1353.370019802311
 10
1415.268053484516
 20
1346.870019802312
  0
CIRCLE
  5
690
330
1F
100
AcDbEntity
  8
AM_4
100
AcDbCircle
 10
1419.020830234246
 20
1353.370019802311
 30
0.0
 40
6.5
  0
LINE
  5
691
330
1F
100
AcDbEntity
  8
AM_4
100
AcDbLine
 10
1374.020830234246
 20
1342.741556849284
 30
0.0
 11
1429.020830234246
 21
1342.741556849342
 31
0.0
  0
LINE
  5
692
330
1F
100
AcDbEntity
  8
AM_4
100
AcDbLine
 10
1429.020830234246
 20
1363.998482755397
 30
0.0
 11
1374.020830234246
 21
1363.998482755397
 31
0.0
  0
LINE
  5
693
330
1F
100
AcDbEntity
  8
AM_4
100
AcDbLine
 10
1429.020830234246
 20
1342.741556849342
 30
0.0
 11
1429.020830234217
 21
1363.998482755397
 31
0.0
  0
LINE
  5
694
330
1F
100
AcDbEntity
  8
0
100
AcDbLine
 10
1439.020830234261
 20
1337.741556849344
 30
0.0
 11
1500.815190592863
 21
1337.741556849344
 31
0.0
  0
LINE
  5
695
330
1F
100
AcDbEntity
  8
0
100
AcDbLine
 10
1439.020830234261
 20
1227.741556849344
 30
0.0
 11
1500.815190592863
 21
1227.741556849344
 31
0.0
  0
LINE
  5
696
330
1F
100
AcDbEntity
  8
0
100
AcDbLine
 10
1918.99256328025
 20
1337.741556849344
 30
0.0
 11
1918.99256328025
 21
1227.741556849344
 31
0.0
  0
LINE
  5
697
330
1F
100
AcDbEntity
  8
AM_4
100
AcDbLine
 10
1983.992563280265
 20
1338.859518058064
 30
0.0
 11
1983.992563280265
 21
1226.623595640344
 31
0.0
  0
LINE
  5
698
330
1F
100
AcDbEntity
  8
AM_4
100
AcDbLine
 10
1928.992563280265
 20
1222.741556849342
 30
0.0
 11
1928.992563280236
 21
1342.741556849346
 31
0.0
  0
LINE
  5
699
330
1F
100
AcDbEntity
  8
AM_4
100
AcDbLine
 10
1983.992563280265
 20
1226.623595640344
 30
0.0
 11
1983.992563280265
 21
1222.741556849401
 31
0.0
  0
LINE
  5
69A
330
1F
100
AcDbEntity
  8
AM_4
100
AcDbLine
 10
1983.992563280265
 20
1222.741556849408
 30
0.0
 11
1928.992563280265
 21
1222.741556849342
 31
0.0
  0
LINE
  5
69B
330
1F
100
AcDbEntity
  8
AM_4
100
AcDbLine
 10
1983.992563280265
 20
1363.998482755397
 30
0.0
 11
1983.992563280265
 21
1338.859518058064
 31
0.0
  0
LWPOLYLINE
  5
69C
330
1F
100
AcDbEntity
  8
AM_4
100
AcDbPolyline
 90
        6
 70
     1
 43
0.0
 10
1970.239786530535
 20
1346.87001980237
 10
1966.487009780804
 20
1353.37001980237
 10
1970.239786530535
 20
1359.87001980237
 10
1977.745340030003
 20
1359.87001980237
 10
1981.498116779733
 20
1353.37001980237
 10
1977.745340029995
 20
1346.87001980237
  0
CIRCLE
  5
69D
330
1F
100
AcDbEntity
  8
AM_4
100
AcDbCircle
 10
1973.992563280265
 20
1353.37001980237
 30
0.0
 40
6.5
  0
LWPOLYLINE
  5
69E
330
1F
100
AcDbEntity
  8
AM_4
100
AcDbPolyline
 90
        6
 70
     1
 43
0.0
 10
1935.239786530535
 20
1346.870019802312
 10
1931.487009780804
 20
1353.370019802311
 10
1935.239786530535
 20
1359.870019802311
 10
1942.745340030002
 20
1359.870019802311
 10
1946.498116779733
 20
1353.370019802311
 10
1942.745340029995
 20
1346.870019802312
  0
CIRCLE
  5
69F
330
1F
100
AcDbEntity
  8
AM_4
100
AcDbCircle
 10
1938.992563280265
 20
1353.370019802311
 30
0.0
 40
6.5
  0
LINE
  5
6A0
330
1F
100
AcDbEntity
  8
AM_4
100
AcDbLine
 10
1983.992563280265
 20
1342.741556849284
 30
0.0
 11
1928.992563280265
 21
1342.741556849342
 31
0.0
  0
LINE
  5
6A1
330
1F
100
AcDbEntity
  8
AM_4
100
AcDbLine
 10
1928.992563280265
 20
1363.998482755397
 30
0.0
 11
1983.992563280265
 21
1363.998482755397
 31
0.0
  0
LINE
  5
6A2
330
1F
100
AcDbEntity
  8
AM_4
100
AcDbLine
 10
1928.992563280265
 20
1342.741556849342
 30
0.0
 11
1928.992563280294
 21
1363.998482755397
 31
0.0
  0
LINE
  5
6A3
330
1F
100
AcDbEntity
  8
0
100
AcDbLine
 10
1918.99256328025
 20
1337.741556849344
 30
0.0
 11
1857.198202921655
 21
1337.741556849344
 31
0.0
  0
LINE
  5
6A4
330
1F
100
AcDbEntity
  8
0
100
AcDbLine
 10
1918.99256328025
 20
1227.741556849344
 30
0.0
 11
1857.198202921655
 21
1227.741556849344
 31
0.0
  0
TEXT
  5
6A5
330
1F
100
AcDbEntity
  8
AM_6
100
AcDbText
 10
1095.155838239177
 20
2049.44563062254
 30
0.0
 40
27.0
  1
Zulauf
100
AcDbText
  0
TEXT
  5
6A6
330
1F
100
AcDbEntity
  8
AM_6
100
AcDbText
 10
1095.155838239177
 20
2011.94563062254
 30
0.0
 40
27.0
  1
DN 100
100
AcDbText
  0
LINE
  5
6A7
330
1F
100
AcDbEntity
  8
406
  6
AUSGEZOGEN
 62
     7
100
AcDbLine
 10
1252.993663927943
 20
1955.922925542545
 30
0.0
 11
1252.993663927943
 21
1959.673657962543
 31
0.0
  0
LINE
  5
6A8
330
1F
100
AcDbEntity
  8
406
  6
AUSGEZOGEN
 62
     7
100
AcDbLine
 10
1251.743663927943
 20
1954.672925542545
 30
0.0
 11
1251.743663927943
 21
1960.923657962543
 31
0.0
  0
LINE
  5
6A9
330
1F
100
AcDbEntity
  8
406
  6
AUSGEZOGEN
 62
     7
100
AcDbLine
 10
1250.493663927943
 20
1953.422925542545
 30
0.0
 11
1250.493663927943
 21
1962.173657962543
 31
0.0
  0
LINE
  5
6AA
330
1F
100
AcDbEntity
  8
406
  6
AUSGEZOGEN
 62
     7
100
AcDbLine
 10
1249.243663927943
 20
1952.172925542545
 30
0.0
 11
1249.243663927943
 21
1963.423657962543
 31
0.0
  0
LINE
  5
6AB
330
1F
100
AcDbEntity
  8
406
  6
AUSGEZOGEN
 62
     7
100
AcDbLine
 10
1247.993663927943
 20
1950.922925542545
 30
0.0
 11
1247.993663927943
 21
1964.673657962543
 31
0.0
  0
LINE
  5
6AC
330
1F
100
AcDbEntity
  8
406
  6
AUSGEZOGEN
 62
     7
100
AcDbLine
 10
1246.743663927943
 20
1949.672925542545
 30
0.0
 11
1246.743663927943
 21
1965.923657962543
 31
0.0
  0
LINE
  5
6AD
330
1F
100
AcDbEntity
  8
406
  6
AUSGEZOGEN
 62
     7
100
AcDbLine
 10
1245.493663927943
 20
1948.422925542545
 30
0.0
 11
1245.493663927943
 21
1967.173657962543
 31
0.0
  0
LINE
  5
6AE
330
1F
100
AcDbEntity
  8
406
  6
AUSGEZOGEN
 62
     7
100
AcDbLine
 10
1244.243663927943
 20
1947.172925542545
 30
0.0
 11
1244.243663927943
 21
1968.423657962543
 31
0.0
  0
LINE
  5
6AF
330
1F
100
AcDbEntity
  8
406
  6
AUSGEZOGEN
 62
     7
100
AcDbLine
 10
1242.993663927943
 20
1945.922925542545
 30
0.0
 11
1242.993663927943
 21
1969.673657962543
 31
0.0
  0
LINE
  5
6B0
330
1F
100
AcDbEntity
  8
406
  6
AUSGEZOGEN
 62
     7
100
AcDbLine
 10
1241.743663927943
 20
1944.672925542545
 30
0.0
 11
1241.743663927943
 21
1970.923657962543
 31
0.0
  0
LINE
  5
6B1
330
1F
100
AcDbEntity
  8
406
  6
AUSGEZOGEN
 62
     7
100
AcDbLine
 10
1240.493663927943
 20
1943.422925542545
 30
0.0
 11
1240.493663927943
 21
1972.173657962543
 31
0.0
  0
LINE
  5
6B2
330
1F
100
AcDbEntity
  8
406
  6
AUSGEZOGEN
 62
     7
100
AcDbLine
 10
1239.243663927943
 20
1942.17219312254
 30
0.0
 11
1239.243663927943
 21
1973.422681402546
 31
0.0
  0
LINE
  5
6B3
330
1F
100
AcDbEntity
  8
406
  6
AUSGEZOGEN
 62
     7
100
AcDbLine
 10
1237.993663927943
 20
1940.92219312254
 30
0.0
 11
1237.993663927943
 21
1974.672681402546
 31
0.0
  0
LINE
  5
6B4
330
1F
100
AcDbEntity
  8
406
  6
AUSGEZOGEN
 62
     7
100
AcDbLine
 10
1236.743663927943
 20
1939.67219312254
 30
0.0
 11
1236.743663927943
 21
1975.922681402546
 31
0.0
  0
LINE
  5
6B5
330
1F
100
AcDbEntity
  8
406
  6
AUSGEZOGEN
 62
     7
100
AcDbLine
 10
1235.493663927943
 20
1938.42219312254
 30
0.0
 11
1235.493663927943
 21
1977.172681402546
 31
0.0
  0
LINE
  5
6B6
330
1F
100
AcDbEntity
  8
406
  6
AUSGEZOGEN
 62
     7
100
AcDbLine
 10
1234.243663927943
 20
1937.17219312254
 30
0.0
 11
1234.243663927943
 21
1978.422681402546
 31
0.0
  0
LINE
  5
6B7
330
1F
100
AcDbEntity
  8
406
  6
AUSGEZOGEN
 62
     7
100
AcDbLine
 10
1232.993663927943
 20
1935.92219312254
 30
0.0
 11
1232.993663927943
 21
1979.672681402546
 31
0.0
  0
LINE
  5
6B8
330
1F
100
AcDbEntity
  8
406
  6
AUSGEZOGEN
 62
     7
100
AcDbLine
 10
1231.743663927943
 20
1934.67219312254
 30
0.0
 11
1231.743663927943
 21
1980.922681402546
 31
0.0
  0
LINE
  5
6B9
330
1F
100
AcDbEntity
  8
406
  6
AUSGEZOGEN
 62
     7
100
AcDbLine
 10
1230.493663927943
 20
1933.42219312254
 30
0.0
 11
1230.493663927943
 21
1982.173169682544
 31
0.0
  0
LINE
  5
6BA
330
1F
100
AcDbEntity
  8
406
  6
AUSGEZOGEN
 62
     7
100
AcDbLine
 10
1229.243663927943
 20
1932.17219312254
 30
0.0
 11
1229.243663927943
 21
1983.422681402546
 31
0.0
  0
LINE
  5
6BB
330
1F
100
AcDbEntity
  8
406
  6
AUSGEZOGEN
 62
     7
100
AcDbLine
 10
1227.993663927943
 20
1930.92219312254
 30
0.0
 11
1227.993663927943
 21
1984.672681402547
 31
0.0
  0
LINE
  5
6BC
330
1F
100
AcDbEntity
  8
406
  6
AUSGEZOGEN
 62
     7
100
AcDbLine
 10
1226.743663927943
 20
1929.67219312254
 30
0.0
 11
1226.743663927943
 21
1985.922681402545
 31
0.0
  0
LINE
  5
6BD
330
1F
100
AcDbEntity
  8
406
  6
AUSGEZOGEN
 62
     7
100
AcDbLine
 10
1225.49366392795
 20
1928.42219312254
 30
0.0
 11
1225.49366392795
 21
1987.173169682544
 31
0.0
  0
LINE
  5
6BE
330
1F
100
AcDbEntity
  8
406
  6
AUSGEZOGEN
 62
     7
100
AcDbLine
 10
1223.618663927943
 20
1926.547925542545
 30
0.0
 11
1223.618663927943
 21
1989.047925542545
 31
0.0
  0
LINE
  5
6BF
330
1F
100
AcDbEntity
  8
406
  6
AUSGEZOGEN
 62
     7
100
AcDbLine
 10
1224.243663927943
 20
1927.17219312254
 30
0.0
 11
1224.243663927943
 21
1988.423169682544
 31
0.0
  0
LINE
  5
6C0
330
1F
100
AcDbEntity
  8
406
  6
AUSGEZOGEN
 62
     7
100
AcDbLine
 10
1223.618663927943
 20
1989.047925542545
 30
0.0
 11
1254.86866392795
 21
1957.797925542545
 31
0.0
  0
LINE
  5
6C1
330
1F
100
AcDbEntity
  8
406
  6
AUSGEZOGEN
 62
     7
100
AcDbLine
 10
1254.86866392795
 20
1957.797925542545
 30
0.0
 11
1223.618663927943
 21
1926.547925542545
 31
0.0
  0
LINE
  5
6C2
330
1F
100
AcDbEntity
  8
406
  6
AUSGEZOGEN
 62
     7
100
AcDbLine
 10
1223.618663927943
 20
1957.797925542545
 30
0.0
 11
1163.216808457949
 21
1957.797925542545
 31
0.0
  0
TEXT
  5
6C3
330
1F
100
AcDbEntity
  8
AM_6
100
AcDbText
 10
2167.876797387867
 20
1979.44563062254
 30
0.0
 40
27.0
  1
Ablauf
100
AcDbText
  0
TEXT
  5
6C4
330
1F
100
AcDbEntity
  8
AM_6
100
AcDbText
 10
2167.876797387867
 20
1941.94563062254
 30
0.0
 40
27.0
  1
DN 100
100
AcDbText
  0
LINE
  5
6C5
330
1F
100
AcDbEntity
  8
406
  6
AUSGEZOGEN
 62
     7
100
AcDbLine
 10
2325.714623076633
 20
1885.922925542545
 30
0.0
 11
2325.714623076633
 21
1889.673657962543
 31
0.0
  0
LINE
  5
6C6
330
1F
100
AcDbEntity
  8
406
  6
AUSGEZOGEN
 62
     7
100
AcDbLine
 10
2324.464623076633
 20
1884.672925542545
 30
0.0
 11
2324.464623076633
 21
1890.923657962543
 31
0.0
  0
LINE
  5
6C7
330
1F
100
AcDbEntity
  8
406
  6
AUSGEZOGEN
 62
     7
100
AcDbLine
 10
2323.214623076633
 20
1883.422925542545
 30
0.0
 11
2323.214623076633
 21
1892.173657962543
 31
0.0
  0
LINE
  5
6C8
330
1F
100
AcDbEntity
  8
406
  6
AUSGEZOGEN
 62
     7
100
AcDbLine
 10
2321.964623076633
 20
1882.172925542545
 30
0.0
 11
2321.964623076633
 21
1893.423657962543
 31
0.0
  0
LINE
  5
6C9
330
1F
100
AcDbEntity
  8
406
  6
AUSGEZOGEN
 62
     7
100
AcDbLine
 10
2320.714623076633
 20
1880.922925542545
 30
0.0
 11
2320.714623076633
 21
1894.673657962543
 31
0.0
  0
LINE
  5
6CA
330
1F
100
AcDbEntity
  8
406
  6
AUSGEZOGEN
 62
     7
100
AcDbLine
 10
2319.464623076633
 20
1879.672925542545
 30
0.0
 11
2319.464623076633
 21
1895.923657962543
 31
0.0
  0
LINE
  5
6CB
330
1F
100
AcDbEntity
  8
406
  6
AUSGEZOGEN
 62
     7
100
AcDbLine
 10
2318.214623076633
 20
1878.422925542545
 30
0.0
 11
2318.214623076633
 21
1897.173657962543
 31
0.0
  0
LINE
  5
6CC
330
1F
100
AcDbEntity
  8
406
  6
AUSGEZOGEN
 62
     7
100
AcDbLine
 10
2316.964623076633
 20
1877.172925542545
 30
0.0
 11
2316.964623076633
 21
1898.423657962543
 31
0.0
  0
LINE
  5
6CD
330
1F
100
AcDbEntity
  8
406
  6
AUSGEZOGEN
 62
     7
100
AcDbLine
 10
2315.714623076633
 20
1875.922925542545
 30
0.0
 11
2315.714623076633
 21
1899.673657962543
 31
0.0
  0
LINE
  5
6CE
330
1F
100
AcDbEntity
  8
406
  6
AUSGEZOGEN
 62
     7
100
AcDbLine
 10
2314.464623076633
 20
1874.672925542545
 30
0.0
 11
2314.464623076633
 21
1900.923657962543
 31
0.0
  0
LINE
  5
6CF
330
1F
100
AcDbEntity
  8
406
  6
AUSGEZOGEN
 62
     7
100
AcDbLine
 10
2313.214623076633
 20
1873.422925542545
 30
0.0
 11
2313.214623076633
 21
1902.173657962543
 31
0.0
  0
LINE
  5
6D0
330
1F
100
AcDbEntity
  8
406
  6
AUSGEZOGEN
 62
     7
100
AcDbLine
 10
2311.964623076633
 20
1872.17219312254
 30
0.0
 11
2311.964623076633
 21
1903.422681402546
 31
0.0
  0
LINE
  5
6D1
330
1F
100
AcDbEntity
  8
406
  6
AUSGEZOGEN
 62
     7
100
AcDbLine
 10
2310.714623076633
 20
1870.92219312254
 30
0.0
 11
2310.714623076633
 21
1904.672681402546
 31
0.0
  0
LINE
  5
6D2
330
1F
100
AcDbEntity
  8
406
  6
AUSGEZOGEN
 62
     7
100
AcDbLine
 10
2309.464623076633
 20
1869.67219312254
 30
0.0
 11
2309.464623076633
 21
1905.922681402546
 31
0.0
  0
LINE
  5
6D3
330
1F
100
AcDbEntity
  8
406
  6
AUSGEZOGEN
 62
     7
100
AcDbLine
 10
2308.214623076633
 20
1868.42219312254
 30
0.0
 11
2308.214623076633
 21
1907.172681402546
 31
0.0
  0
LINE
  5
6D4
330
1F
100
AcDbEntity
  8
406
  6
AUSGEZOGEN
 62
     7
100
AcDbLine
 10
2306.964623076633
 20
1867.17219312254
 30
0.0
 11
2306.964623076633
 21
1908.422681402546
 31
0.0
  0
LINE
  5
6D5
330
1F
100
AcDbEntity
  8
406
  6
AUSGEZOGEN
 62
     7
100
AcDbLine
 10
2305.714623076633
 20
1865.92219312254
 30
0.0
 11
2305.714623076633
 21
1909.672681402546
 31
0.0
  0
LINE
  5
6D6
330
1F
100
AcDbEntity
  8
406
  6
AUSGEZOGEN
 62
     7
100
AcDbLine
 10
2304.464623076633
 20
1864.67219312254
 30
0.0
 11
2304.464623076633
 21
1910.922681402546
 31
0.0
  0
LINE
  5
6D7
330
1F
100
AcDbEntity
  8
406
  6
AUSGEZOGEN
 62
     7
100
AcDbLine
 10
2303.214623076633
 20
1863.42219312254
 30
0.0
 11
2303.214623076633
 21
1912.173169682544
 31
0.0
  0
LINE
  5
6D8
330
1F
100
AcDbEntity
  8
406
  6
AUSGEZOGEN
 62
     7
100
AcDbLine
 10
2301.964623076633
 20
1862.17219312254
 30
0.0
 11
2301.964623076633
 21
1913.422681402546
 31
0.0
  0
LINE
  5
6D9
330
1F
100
AcDbEntity
  8
406
  6
AUSGEZOGEN
 62
     7
100
AcDbLine
 10
2300.714623076633
 20
1860.92219312254
 30
0.0
 11
2300.714623076633
 21
1914.672681402547
 31
0.0
  0
LINE
  5
6DA
330
1F
100
AcDbEntity
  8
406
  6
AUSGEZOGEN
 62
     7
100
AcDbLine
 10
2299.464623076633
 20
1859.67219312254
 30
0.0
 11
2299.464623076633
 21
1915.922681402545
 31
0.0
  0
LINE
  5
6DB
330
1F
100
AcDbEntity
  8
406
  6
AUSGEZOGEN
 62
     7
100
AcDbLine
 10
2298.21462307664
 20
1858.42219312254
 30
0.0
 11
2298.21462307664
 21
1917.173169682545
 31
0.0
  0
LINE
  5
6DC
330
1F
100
AcDbEntity
  8
406
  6
AUSGEZOGEN
 62
     7
100
AcDbLine
 10
2296.339623076633
 20
1856.547925542545
 30
0.0
 11
2296.339623076633
 21
1919.047925542545
 31
0.0
  0
LINE
  5
6DD
330
1F
100
AcDbEntity
  8
406
  6
AUSGEZOGEN
 62
     7
100
AcDbLine
 10
2296.964623076633
 20
1857.17219312254
 30
0.0
 11
2296.964623076633
 21
1918.423169682544
 31
0.0
  0
LINE
  5
6DE
330
1F
100
AcDbEntity
  8
406
  6
AUSGEZOGEN
 62
     7
100
AcDbLine
 10
2296.339623076633
 20
1919.047925542545
 30
0.0
 11
2327.58962307664
 21
1887.797925542545
 31
0.0
  0
LINE
  5
6DF
330
1F
100
AcDbEntity
  8
406
  6
AUSGEZOGEN
 62
     7
100
AcDbLine
 10
2327.58962307664
 20
1887.797925542545
 30
0.0
 11
2296.339623076633
 21
1856.547925542545
 31
0.0
  0
LINE
  5
6E0
330
1F
100
AcDbEntity
  8
406
  6
AUSGEZOGEN
 62
     7
100
AcDbLine
 10
2296.339623076633
 20
1887.797925542545
 30
0.0
 11
2235.937767606639
 21
1887.797925542545
 31
0.0
  0
LINE
  5
6E1
330
1F
100
AcDbEntity
  8
3A
100
AcDbLine
 10
1718.970587712413
 20
1860.920517521837
 30
0.0
 11
1718.970587712413
 21
1971.14590245591
 31
0.0
  0
LINE
  5
6E2
330
1F
100
AcDbEntity
  8
3A
100
AcDbLine
 10
1718.970587712413
 20
1971.14590245591
 30
0.0
 11
1722.970547712414
 21
1971.14590245591
 31
0.0
  0
LINE
  5
6E3
330
1F
100
AcDbEntity
  8
3A
100
AcDbLine
 10
1722.970547712414
 20
1971.14590245591
 30
0.0
 11
1722.970547712414
 21
1959.146022455909
 31
0.0
  0
LINE
  5
6E4
330
1F
100
AcDbEntity
  8
3A
100
AcDbLine
 10
1552.972247712411
 20
1860.920517521837
 30
0.0
 11
1552.972247712411
 21
1971.14590245591
 31
0.0
  0
LINE
  5
6E5
330
1F
100
AcDbEntity
  8
3A
100
AcDbLine
 10
1552.972247712411
 20
1971.14590245591
 30
0.0
 11
1718.970587712413
 21
1971.14590245591
 31
0.0
  0
LINE
  5
6E6
330
1F
100
AcDbEntity
  8
3A
100
AcDbLine
 10
1718.970587712413
 20
1959.146022455909
 30
0.0
 11
1552.972247712411
 21
1959.146022455909
 31
0.0
  0
LINE
  5
6E7
330
1F
100
AcDbEntity
  8
3A
100
AcDbLine
 10
1718.970587712413
 20
1925.813151290061
 30
0.0
 11
1714.970627712416
 21
1925.813151290061
 31
0.0
  0
LINE
  5
6E8
330
1F
100
AcDbEntity
  8
3A
100
AcDbLine
 10
1714.970627712416
 20
1925.813151290061
 30
0.0
 11
1714.970627712416
 21
1955.812851290061
 31
0.0
  0
LINE
  5
6E9
330
1F
100
AcDbEntity
  8
3A
100
AcDbLine
 10
1722.970547712414
 20
1975.812651290061
 30
0.0
 11
1829.969477712412
 21
1975.812651290063
 31
0.0
  0
LINE
  5
6EA
330
1F
100
AcDbEntity
  8
3A
100
AcDbLine
 10
1830.969467712416
 20
1974.812661290062
 30
0.0
 11
1830.969467712416
 21
1972.812681290062
 31
0.0
  0
LINE
  5
6EB
330
1F
100
AcDbEntity
  8
3A
100
AcDbLine
 10
1829.969477712412
 20
1971.812691290061
 30
0.0
 11
1722.970547712414
 21
1971.812691290061
 31
0.0
  0
LINE
  5
6EC
330
1F
100
AcDbEntity
  8
3A
100
AcDbLine
 10
1714.970627712416
 20
1955.812851290061
 30
0.0
 11
1714.970627712416
 21
1967.812731290062
 31
0.0
  0
ARC
  5
6ED
330
1F
100
AcDbEntity
  8
3A
100
AcDbCircle
 10
1722.970547712414
 20
1967.812731290062
 30
0.0
 40
3.99996
100
AcDbArc
 50
90.0
 51
180.0
1001
GENIUS_GENODEF_13
1002
{
1000
HIER
1070
     0
1002
}
1002
{
1000
MANEDIT
1070
     0
1002
}
1002
{
1000
NOSEL
1070
     0
1002
}
1002
{
1000
BEHIND
1070
     0
1002
}
1002
{
1000
REACTOR
1002
}
1001
GENIUS_GENOBJ-N-FIL_13
1002
{
1000
OWNER
1000
GEN
1002
}
  0
ARC
  5
6EE
330
1F
100
AcDbEntity
  8
3A
100
AcDbCircle
 10
1722.970547712414
 20
1967.812731290062
 30
0.0
 40
7.99992
100
AcDbArc
 50
90.0
 51
180.0
1001
GENIUS_GENODEF_13
1002
{
1000
HIER
1070
     0
1002
}
1002
{
1000
MANEDIT
1070
     0
1002
}
1002
{
1000
NOSEL
1070
     0
1002
}
1002
{
1000
BEHIND
1070
     0
1002
}
1002
{
1000
REACTOR
1002
}
1001
GENIUS_GENOBJ-N-FIL_13
1002
{
1000
OWNER
1000
GEN
1002
}
  0
ARC
  5
6EF
330
1F
100
AcDbEntity
  8
3A
100
AcDbCircle
 10
1829.969477712412
 20
1974.812661290062
 30
0.0
 40
0.99999
100
AcDbArc
 50
0.0
 51
90.0
1001
GENIUS_GENODEF_13
1002
{
1000
HIER
1070
     0
1002
}
1002
{
1000
MANEDIT
1070
     0
1002
}
1002
{
1000
NOSEL
1070
     0
1002
}
1002
{
1000
BEHIND
1070
     0
1002
}
1002
{
1000
REACTOR
1002
}
1001
GENIUS_GENOBJ-N-FIL_13
1002
{
1000
OWNER
1000
GEN
1002
}
  0
ARC
  5
6F0
330
1F
100
AcDbEntity
  8
3A
100
AcDbCircle
 10
1829.969477712412
 20
1972.812681290062
 30
0.0
 40
0.99999
100
AcDbArc
 50
270.0
 51
0.0
1001
GENIUS_GENODEF_13
1002
{
1000
HIER
1070
     0
1002
}
1002
{
1000
MANEDIT
1070
     0
1002
}
1002
{
1000
NOSEL
1070
     0
1002
}
1002
{
1000
BEHIND
1070
     0
1002
}
1002
{
1000
REACTOR
1002
}
1001
GENIUS_GENOBJ-N-FIL_13
1002
{
1000
OWNER
1000
GEN
1002
}
  0
LINE
  5
6F1
330
1F
100
AcDbEntity
  8
3A
100
AcDbLine
 10
1552.972247712433
 20
1848.253977521837
 30
0.0
 11
1552.972247712433
 21
1878.253677521836
 31
0.0
  0
LINE
  5
6F2
330
1F
100
AcDbEntity
  8
3A
100
AcDbLine
 10
1552.972247712433
 20
1881.253647521836
 30
0.0
 11
1562.972147712436
 21
1881.253647521836
 31
0.0
  0
LINE
  5
6F3
330
1F
100
AcDbEntity
  8
3A
100
AcDbLine
 10
1562.972147712436
 20
1881.253647521836
 30
0.0
 11
1562.972147712436
 21
1848.253977521837
 31
0.0
  0
LINE
  5
6F4
330
1F
100
AcDbEntity
  8
3A
100
AcDbLine
 10
1718.97058771246
 20
1841.254047521837
 30
0.0
 11
1718.97058771246
 21
1881.253647521836
 31
0.0
  0
LINE
  5
6F5
330
1F
100
AcDbEntity
  8
3A
100
AcDbLine
 10
1718.97058771246
 20
1881.253647521836
 30
0.0
 11
1708.970687712465
 21
1881.253647521836
 31
0.0
  0
LINE
  5
6F6
330
1F
100
AcDbEntity
  8
3A
100
AcDbLine
 10
1708.970687712465
 20
1881.253647521836
 30
0.0
 11
1708.970687712465
 21
1841.254047521837
 31
0.0
  0
LINE
  5
6F7
330
1F
100
AcDbEntity
  8
3A
100
AcDbLine
 10
1552.972247712411
 20
1860.920517521837
 30
0.0
 11
1562.972147712436
 21
1860.920517521837
 31
0.0
  0
LINE
  5
6F8
330
1F
100
AcDbEntity
  8
3A
100
AcDbLine
 10
1562.972147712436
 20
1860.920517521837
 30
0.0
 11
1708.970687712465
 21
1860.920517521837
 31
0.0
  0
LINE
  5
6F9
330
1F
100
AcDbEntity
  8
3A
100
AcDbLine
 10
1708.970687712465
 20
1860.920517521837
 30
0.0
 11
1718.970587712413
 21
1860.920517521837
 31
0.0
  0
LINE
  5
6FA
330
1F
100
AcDbEntity
  8
3A
100
AcDbLine
 10
1562.972147712436
 20
1862.253837521836
 30
0.0
 11
1708.970687712465
 21
1862.253837521836
 31
0.0
  0
LINE
  5
6FB
330
1F
100
AcDbEntity
  8
3A
100
AcDbLine
 10
1552.972247712411
 20
1862.253837521836
 30
0.0
 11
1562.972147712436
 21
1862.253837521836
 31
0.0
  0
LINE
  5
6FC
330
1F
100
AcDbEntity
  8
3A
100
AcDbLine
 10
1708.970687712465
 20
1862.253837521836
 30
0.0
 11
1718.970587712413
 21
1862.253837521836
 31
0.0
  0
LINE
  5
6FD
330
1F
100
AcDbEntity
  8
3A
100
AcDbLine
 10
1720.303907712415
 20
1860.920517521837
 30
0.0
 11
1720.303907712415
 21
1971.14590245591
 31
0.0
  0
LINE
  5
6FE
330
1F
100
AcDbEntity
  8
3A
100
AcDbLine
 10
1568.014177479653
 20
1925.671816263354
 30
0.0
 11
1558.01427747965
 21
1925.671816263354
 31
0.0
  0
LINE
  5
6FF
330
1F
100
AcDbEntity
  8
3A
100
AcDbLine
 10
1613.013727479653
 20
1920.671866263353
 30
0.0
 11
1613.013727479653
 21
1910.671966263354
 31
0.0
  0
LINE
  5
700
330
1F
100
AcDbEntity
  8
3A
100
AcDbLine
 10
1598.013877479653
 20
1920.671866263353
 30
0.0
 11
1598.013877479653
 21
1910.671966263354
 31
0.0
  0
LINE
  5
701
330
1F
100
AcDbEntity
  8
3A
100
AcDbLine
 10
1603.013827479651
 20
1910.671966263354
 30
0.0
 11
1603.013827479651
 21
1920.671866263353
 31
0.0
  0
LINE
  5
702
330
1F
100
AcDbEntity
  8
3A
100
AcDbLine
 10
1583.014027479653
 20
1920.671866263353
 30
0.0
 11
1583.014027479653
 21
1910.671966263354
 31
0.0
  0
LINE
  5
703
330
1F
100
AcDbEntity
  8
3A
100
AcDbLine
 10
1588.013977479651
 20
1910.671966263354
 30
0.0
 11
1588.013977479651
 21
1920.671866263353
 31
0.0
  0
LINE
  5
704
330
1F
100
AcDbEntity
  8
3A
100
AcDbLine
 10
1568.014177479653
 20
1920.671866263353
 30
0.0
 11
1568.014177479653
 21
1910.671966263354
 31
0.0
  0
LINE
  5
705
330
1F
100
AcDbEntity
  8
3A
100
AcDbLine
 10
1573.01412747965
 20
1910.671966263354
 30
0.0
 11
1573.01412747965
 21
1920.671866263353
 31
0.0
  0
LINE
  5
706
330
1F
100
AcDbEntity
  8
3A
100
AcDbLine
 10
1558.01427747965
 20
1910.671966263354
 30
0.0
 11
1558.01427747965
 21
1920.671866263353
 31
0.0
  0
LINE
  5
707
330
1F
100
AcDbEntity
  8
3A
100
AcDbLine
 10
1598.013877479653
 20
1910.671966263354
 30
0.0
 11
1588.013977479651
 21
1910.671966263354
 31
0.0
  0
LINE
  5
708
330
1F
100
AcDbEntity
  8
3A
100
AcDbLine
 10
1558.01427747965
 20
1905.672016263353
 30
0.0
 11
1568.014177479653
 21
1905.672016263353
 31
0.0
  0
LINE
  5
709
330
1F
100
AcDbEntity
  8
3A
100
AcDbLine
 10
1568.014177479653
 20
1895.672116263354
 30
0.0
 11
1558.01427747965
 21
1895.672116263354
 31
0.0
  0
LINE
  5
70A
330
1F
100
AcDbEntity
  8
3A
100
AcDbLine
 10
1568.014177479653
 20
1910.671966263354
 30
0.0
 11
1558.01427747965
 21
1910.671966263354
 31
0.0
  0
LINE
  5
70B
330
1F
100
AcDbEntity
  8
3A
100
AcDbLine
 10
1558.01427747965
 20
1895.672116263354
 30
0.0
 11
1558.01427747965
 21
1905.672016263353
 31
0.0
  0
LINE
  5
70C
330
1F
100
AcDbEntity
  8
3A
100
AcDbLine
 10
1573.01412747965
 20
1905.672016263353
 30
0.0
 11
1583.014027479653
 21
1905.672016263353
 31
0.0
  0
LINE
  5
70D
330
1F
100
AcDbEntity
  8
3A
100
AcDbLine
 10
1583.014027479653
 20
1895.672116263354
 30
0.0
 11
1573.01412747965
 21
1895.672116263354
 31
0.0
  0
LINE
  5
70E
330
1F
100
AcDbEntity
  8
3A
100
AcDbLine
 10
1583.014027479653
 20
1910.671966263354
 30
0.0
 11
1573.01412747965
 21
1910.671966263354
 31
0.0
  0
LINE
  5
70F
330
1F
100
AcDbEntity
  8
3A
100
AcDbLine
 10
1573.01412747965
 20
1895.672116263354
 30
0.0
 11
1573.01412747965
 21
1905.672016263353
 31
0.0
  0
LINE
  5
710
330
1F
100
AcDbEntity
  8
3A
100
AcDbLine
 10
1568.014177479653
 20
1905.672016263353
 30
0.0
 11
1568.014177479653
 21
1895.672116263354
 31
0.0
  0
LINE
  5
711
330
1F
100
AcDbEntity
  8
3A
100
AcDbLine
 10
1583.014027479653
 20
1905.672016263353
 30
0.0
 11
1583.014027479653
 21
1895.672116263354
 31
0.0
  0
LINE
  5
712
330
1F
100
AcDbEntity
  8
3A
100
AcDbLine
 10
1613.013727479653
 20
1910.671966263354
 30
0.0
 11
1603.013827479651
 21
1910.671966263354
 31
0.0
  0
LINE
  5
713
330
1F
100
AcDbEntity
  8
3A
100
AcDbLine
 10
1588.013977479651
 20
1920.671866263353
 30
0.0
 11
1598.013877479653
 21
1920.671866263353
 31
0.0
  0
LINE
  5
714
330
1F
100
AcDbEntity
  8
3A
100
AcDbLine
 10
1588.013977479651
 20
1935.671716263353
 30
0.0
 11
1598.013877479653
 21
1935.671716263353
 31
0.0
  0
LINE
  5
715
330
1F
100
AcDbEntity
  8
3A
100
AcDbLine
 10
1598.013877479653
 20
1925.671816263354
 30
0.0
 11
1588.013977479651
 21
1925.671816263354
 31
0.0
  0
LINE
  5
716
330
1F
100
AcDbEntity
  8
3A
100
AcDbLine
 10
1598.013877479653
 20
1940.671666263354
 30
0.0
 11
1588.013977479651
 21
1940.671666263354
 31
0.0
  0
LINE
  5
717
330
1F
100
AcDbEntity
  8
3A
100
AcDbLine
 10
1588.013977479651
 20
1950.671566263353
 30
0.0
 11
1598.013877479653
 21
1950.671566263353
 31
0.0
  0
LINE
  5
718
330
1F
100
AcDbEntity
  8
3A
100
AcDbLine
 10
1588.013977479651
 20
1965.671416263353
 30
0.0
 11
1598.013877479653
 21
1965.671416263353
 31
0.0
  0
LINE
  5
719
330
1F
100
AcDbEntity
  8
3A
100
AcDbLine
 10
1598.013877479653
 20
1955.671516263352
 30
0.0
 11
1588.013977479651
 21
1955.671516263352
 31
0.0
  0
LINE
  5
71A
330
1F
100
AcDbEntity
  8
3A
100
AcDbLine
 10
1558.01427747965
 20
1920.671866263353
 30
0.0
 11
1568.014177479653
 21
1920.671866263353
 31
0.0
  0
LINE
  5
71B
330
1F
100
AcDbEntity
  8
3A
100
AcDbLine
 10
1558.01427747965
 20
1935.671716263353
 30
0.0
 11
1568.014177479653
 21
1935.671716263353
 31
0.0
  0
LINE
  5
71C
330
1F
100
AcDbEntity
  8
3A
100
AcDbLine
 10
1558.01427747965
 20
1950.671566263353
 30
0.0
 11
1568.014177479653
 21
1950.671566263353
 31
0.0
  0
LINE
  5
71D
330
1F
100
AcDbEntity
  8
3A
100
AcDbLine
 10
1568.014177479653
 20
1940.671666263354
 30
0.0
 11
1558.01427747965
 21
1940.671666263354
 31
0.0
  0
LINE
  5
71E
330
1F
100
AcDbEntity
  8
3A
100
AcDbLine
 10
1568.014177479653
 20
1955.671516263352
 30
0.0
 11
1558.01427747965
 21
1955.671516263352
 31
0.0
  0
LINE
  5
71F
330
1F
100
AcDbEntity
  8
3A
100
AcDbLine
 10
1558.01427747965
 20
1965.671416263353
 30
0.0
 11
1568.014177479653
 21
1965.671416263353
 31
0.0
  0
LINE
  5
720
330
1F
100
AcDbEntity
  8
3A
100
AcDbLine
 10
1558.01427747965
 20
1925.671816263354
 30
0.0
 11
1558.01427747965
 21
1935.671716263353
 31
0.0
  0
LINE
  5
721
330
1F
100
AcDbEntity
  8
3A
100
AcDbLine
 10
1558.01427747965
 20
1940.671666263354
 30
0.0
 11
1558.01427747965
 21
1950.671566263353
 31
0.0
  0
LINE
  5
722
330
1F
100
AcDbEntity
  8
3A
100
AcDbLine
 10
1558.01427747965
 20
1955.671516263352
 30
0.0
 11
1558.01427747965
 21
1965.671416263353
 31
0.0
  0
LINE
  5
723
330
1F
100
AcDbEntity
  8
3A
100
AcDbLine
 10
1573.01412747965
 20
1920.671866263353
 30
0.0
 11
1583.014027479653
 21
1920.671866263353
 31
0.0
  0
LINE
  5
724
330
1F
100
AcDbEntity
  8
3A
100
AcDbLine
 10
1583.014027479653
 20
1925.671816263354
 30
0.0
 11
1573.01412747965
 21
1925.671816263354
 31
0.0
  0
LINE
  5
725
330
1F
100
AcDbEntity
  8
3A
100
AcDbLine
 10
1573.01412747965
 20
1935.671716263353
 30
0.0
 11
1583.014027479653
 21
1935.671716263353
 31
0.0
  0
LINE
  5
726
330
1F
100
AcDbEntity
  8
3A
100
AcDbLine
 10
1573.01412747965
 20
1950.671566263353
 30
0.0
 11
1583.014027479653
 21
1950.671566263353
 31
0.0
  0
LINE
  5
727
330
1F
100
AcDbEntity
  8
3A
100
AcDbLine
 10
1583.014027479653
 20
1940.671666263354
 30
0.0
 11
1573.01412747965
 21
1940.671666263354
 31
0.0
  0
LINE
  5
728
330
1F
100
AcDbEntity
  8
3A
100
AcDbLine
 10
1573.01412747965
 20
1965.671416263353
 30
0.0
 11
1583.014027479653
 21
1965.671416263353
 31
0.0
  0
LINE
  5
729
330
1F
100
AcDbEntity
  8
3A
100
AcDbLine
 10
1583.014027479653
 20
1955.671516263352
 30
0.0
 11
1573.01412747965
 21
1955.671516263352
 31
0.0
  0
LINE
  5
72A
330
1F
100
AcDbEntity
  8
3A
100
AcDbLine
 10
1573.01412747965
 20
1925.671816263354
 30
0.0
 11
1573.01412747965
 21
1935.671716263353
 31
0.0
  0
LINE
  5
72B
330
1F
100
AcDbEntity
  8
3A
100
AcDbLine
 10
1568.014177479653
 20
1935.671716263353
 30
0.0
 11
1568.014177479653
 21
1925.671816263354
 31
0.0
  0
LINE
  5
72C
330
1F
100
AcDbEntity
  8
3A
100
AcDbLine
 10
1568.014177479653
 20
1950.671566263353
 30
0.0
 11
1568.014177479653
 21
1940.671666263354
 31
0.0
  0
LINE
  5
72D
330
1F
100
AcDbEntity
  8
3A
100
AcDbLine
 10
1573.01412747965
 20
1940.671666263354
 30
0.0
 11
1573.01412747965
 21
1950.671566263353
 31
0.0
  0
LINE
  5
72E
330
1F
100
AcDbEntity
  8
3A
100
AcDbLine
 10
1573.01412747965
 20
1955.671516263352
 30
0.0
 11
1573.01412747965
 21
1965.671416263353
 31
0.0
  0
LINE
  5
72F
330
1F
100
AcDbEntity
  8
3A
100
AcDbLine
 10
1568.014177479653
 20
1965.671416263353
 30
0.0
 11
1568.014177479653
 21
1955.671516263352
 31
0.0
  0
LINE
  5
730
330
1F
100
AcDbEntity
  8
3A
100
AcDbLine
 10
1588.013977479651
 20
1925.671816263354
 30
0.0
 11
1588.013977479651
 21
1935.671716263353
 31
0.0
  0
LINE
  5
731
330
1F
100
AcDbEntity
  8
3A
100
AcDbLine
 10
1583.014027479653
 20
1935.671716263353
 30
0.0
 11
1583.014027479653
 21
1925.671816263354
 31
0.0
  0
LINE
  5
732
330
1F
100
AcDbEntity
  8
3A
100
AcDbLine
 10
1583.014027479653
 20
1950.671566263353
 30
0.0
 11
1583.014027479653
 21
1940.671666263354
 31
0.0
  0
LINE
  5
733
330
1F
100
AcDbEntity
  8
3A
100
AcDbLine
 10
1588.013977479651
 20
1940.671666263354
 30
0.0
 11
1588.013977479651
 21
1950.671566263353
 31
0.0
  0
LINE
  5
734
330
1F
100
AcDbEntity
  8
3A
100
AcDbLine
 10
1588.013977479651
 20
1955.671516263352
 30
0.0
 11
1588.013977479651
 21
1965.671416263353
 31
0.0
  0
LINE
  5
735
330
1F
100
AcDbEntity
  8
3A
100
AcDbLine
 10
1583.014027479653
 20
1965.671416263353
 30
0.0
 11
1583.014027479653
 21
1955.671516263352
 31
0.0
  0
LINE
  5
736
330
1F
100
AcDbEntity
  8
3A
100
AcDbLine
 10
1598.013877479653
 20
1935.671716263353
 30
0.0
 11
1598.013877479653
 21
1925.671816263354
 31
0.0
  0
LINE
  5
737
330
1F
100
AcDbEntity
  8
3A
100
AcDbLine
 10
1598.013877479653
 20
1950.671566263353
 30
0.0
 11
1598.013877479653
 21
1940.671666263354
 31
0.0
  0
LINE
  5
738
330
1F
100
AcDbEntity
  8
3A
100
AcDbLine
 10
1598.013877479653
 20
1965.671416263353
 30
0.0
 11
1598.013877479653
 21
1955.671516263352
 31
0.0
  0
LINE
  5
739
330
1F
100
AcDbEntity
  8
3A
100
AcDbLine
 10
1603.013827479651
 20
1920.671866263353
 30
0.0
 11
1613.013727479653
 21
1920.671866263353
 31
0.0
  0
LINE
  5
73A
330
1F
100
AcDbEntity
  8
3A
100
AcDbLine
 10
1613.013727479653
 20
1935.671716263353
 30
0.0
 11
1613.013727479653
 21
1925.671816263354
 31
0.0
  0
LINE
  5
73B
330
1F
100
AcDbEntity
  8
3A
100
AcDbLine
 10
1603.013827479651
 20
1925.671816263354
 30
0.0
 11
1603.013827479651
 21
1935.671716263353
 31
0.0
  0
LINE
  5
73C
330
1F
100
AcDbEntity
  8
3A
100
AcDbLine
 10
1603.013827479651
 20
1935.671716263353
 30
0.0
 11
1613.013727479653
 21
1935.671716263353
 31
0.0
  0
LINE
  5
73D
330
1F
100
AcDbEntity
  8
3A
100
AcDbLine
 10
1613.013727479653
 20
1925.671816263354
 30
0.0
 11
1603.013827479651
 21
1925.671816263354
 31
0.0
  0
LINE
  5
73E
330
1F
100
AcDbEntity
  8
3A
100
AcDbLine
 10
1613.013727479653
 20
1950.671566263353
 30
0.0
 11
1613.013727479653
 21
1940.671666263354
 31
0.0
  0
LINE
  5
73F
330
1F
100
AcDbEntity
  8
3A
100
AcDbLine
 10
1603.013827479651
 20
1940.671666263354
 30
0.0
 11
1603.013827479651
 21
1950.671566263353
 31
0.0
  0
LINE
  5
740
330
1F
100
AcDbEntity
  8
3A
100
AcDbLine
 10
1613.013727479653
 20
1940.671666263354
 30
0.0
 11
1603.013827479651
 21
1940.671666263354
 31
0.0
  0
LINE
  5
741
330
1F
100
AcDbEntity
  8
3A
100
AcDbLine
 10
1603.013827479651
 20
1950.671566263353
 30
0.0
 11
1613.013727479653
 21
1950.671566263353
 31
0.0
  0
LINE
  5
742
330
1F
100
AcDbEntity
  8
3A
100
AcDbLine
 10
1613.013727479653
 20
1965.671416263353
 30
0.0
 11
1613.013727479653
 21
1955.671516263352
 31
0.0
  0
LINE
  5
743
330
1F
100
AcDbEntity
  8
3A
100
AcDbLine
 10
1603.013827479651
 20
1955.671516263352
 30
0.0
 11
1603.013827479651
 21
1965.671416263353
 31
0.0
  0
LINE
  5
744
330
1F
100
AcDbEntity
  8
3A
100
AcDbLine
 10
1603.013827479651
 20
1965.671416263353
 30
0.0
 11
1613.013727479653
 21
1965.671416263353
 31
0.0
  0
LINE
  5
745
330
1F
100
AcDbEntity
  8
3A
100
AcDbLine
 10
1613.013727479653
 20
1955.671516263352
 30
0.0
 11
1603.013827479651
 21
1955.671516263352
 31
0.0
  0
LINE
  5
746
330
1F
100
AcDbEntity
  8
3A
100
AcDbLine
 10
1628.01357747965
 20
1950.671566263353
 30
0.0
 11
1628.01357747965
 21
1940.671666263354
 31
0.0
  0
LINE
  5
747
330
1F
100
AcDbEntity
  8
3A
100
AcDbLine
 10
1618.013677479651
 20
1940.671666263354
 30
0.0
 11
1618.013677479651
 21
1950.671566263353
 31
0.0
  0
LINE
  5
748
330
1F
100
AcDbEntity
  8
3A
100
AcDbLine
 10
1628.01357747965
 20
1940.671666263354
 30
0.0
 11
1618.013677479651
 21
1940.671666263354
 31
0.0
  0
LINE
  5
749
330
1F
100
AcDbEntity
  8
3A
100
AcDbLine
 10
1618.013677479651
 20
1950.671566263353
 30
0.0
 11
1628.01357747965
 21
1950.671566263353
 31
0.0
  0
LINE
  5
74A
330
1F
100
AcDbEntity
  8
3A
100
AcDbLine
 10
1628.01357747965
 20
1965.671416263353
 30
0.0
 11
1628.01357747965
 21
1955.671516263352
 31
0.0
  0
LINE
  5
74B
330
1F
100
AcDbEntity
  8
3A
100
AcDbLine
 10
1618.013677479651
 20
1955.671516263352
 30
0.0
 11
1618.013677479651
 21
1965.671416263353
 31
0.0
  0
LINE
  5
74C
330
1F
100
AcDbEntity
  8
3A
100
AcDbLine
 10
1618.013677479651
 20
1965.671416263353
 30
0.0
 11
1628.01357747965
 21
1965.671416263353
 31
0.0
  0
LINE
  5
74D
330
1F
100
AcDbEntity
  8
3A
100
AcDbLine
 10
1628.01357747965
 20
1955.671516263352
 30
0.0
 11
1618.013677479651
 21
1955.671516263352
 31
0.0
  0
LINE
  5
74E
330
1F
100
AcDbEntity
  8
3A
100
AcDbLine
 10
1633.013527479651
 20
1950.671566263353
 30
0.0
 11
1643.01342747965
 21
1950.671566263353
 31
0.0
  0
LINE
  5
74F
330
1F
100
AcDbEntity
  8
3A
100
AcDbLine
 10
1643.01342747965
 20
1940.671666263354
 30
0.0
 11
1633.013527479651
 21
1940.671666263354
 31
0.0
  0
LINE
  5
750
330
1F
100
AcDbEntity
  8
3A
100
AcDbLine
 10
1633.013527479651
 20
1940.671666263354
 30
0.0
 11
1633.013527479651
 21
1950.671566263353
 31
0.0
  0
LINE
  5
751
330
1F
100
AcDbEntity
  8
3A
100
AcDbLine
 10
1643.01342747965
 20
1950.671566263353
 30
0.0
 11
1643.01342747965
 21
1940.671666263354
 31
0.0
  0
LINE
  5
752
330
1F
100
AcDbEntity
  8
3A
100
AcDbLine
 10
1643.01342747965
 20
1965.671416263353
 30
0.0
 11
1643.01342747965
 21
1955.671516263352
 31
0.0
  0
LINE
  5
753
330
1F
100
AcDbEntity
  8
3A
100
AcDbLine
 10
1633.013527479651
 20
1955.671516263352
 30
0.0
 11
1633.013527479651
 21
1965.671416263353
 31
0.0
  0
LINE
  5
754
330
1F
100
AcDbEntity
  8
3A
100
AcDbLine
 10
1643.01342747965
 20
1955.671516263352
 30
0.0
 11
1633.013527479651
 21
1955.671516263352
 31
0.0
  0
LINE
  5
755
330
1F
100
AcDbEntity
  8
3A
100
AcDbLine
 10
1633.013527479651
 20
1965.671416263353
 30
0.0
 11
1643.01342747965
 21
1965.671416263353
 31
0.0
  0
LINE
  5
756
330
1F
100
AcDbEntity
  8
3A
100
AcDbLine
 10
1658.01327747965
 20
1965.671416263353
 30
0.0
 11
1658.01327747965
 21
1955.671516263352
 31
0.0
  0
LINE
  5
757
330
1F
100
AcDbEntity
  8
3A
100
AcDbLine
 10
1648.013377479651
 20
1955.671516263352
 30
0.0
 11
1648.013377479651
 21
1965.671416263353
 31
0.0
  0
LINE
  5
758
330
1F
100
AcDbEntity
  8
3A
100
AcDbLine
 10
1648.013377479651
 20
1965.671416263353
 30
0.0
 11
1658.01327747965
 21
1965.671416263353
 31
0.0
  0
LINE
  5
759
330
1F
100
AcDbEntity
  8
3A
100
AcDbLine
 10
1658.01327747965
 20
1955.671516263352
 30
0.0
 11
1648.013377479651
 21
1955.671516263352
 31
0.0
  0
LINE
  5
75A
330
1F
100
AcDbEntity
  8
3A
100
AcDbLine
 10
1648.013377479651
 20
1950.671566263353
 30
0.0
 11
1658.01327747965
 21
1950.671566263353
 31
0.0
  0
LINE
  5
75B
330
1F
100
AcDbEntity
  8
3A
100
AcDbLine
 10
1658.01327747965
 20
1940.671666263354
 30
0.0
 11
1648.013377479651
 21
1940.671666263354
 31
0.0
  0
LINE
  5
75C
330
1F
100
AcDbEntity
  8
3A
100
AcDbLine
 10
1648.013377479651
 20
1940.671666263354
 30
0.0
 11
1648.013377479651
 21
1950.671566263353
 31
0.0
  0
LINE
  5
75D
330
1F
100
AcDbEntity
  8
3A
100
AcDbLine
 10
1658.01327747965
 20
1950.671566263353
 30
0.0
 11
1658.01327747965
 21
1940.671666263354
 31
0.0
  0
LINE
  5
75E
330
1F
100
AcDbEntity
  8
3A
100
AcDbLine
 10
1663.013227479651
 20
1950.671566263353
 30
0.0
 11
1673.01312747965
 21
1950.671566263353
 31
0.0
  0
LINE
  5
75F
330
1F
100
AcDbEntity
  8
3A
100
AcDbLine
 10
1673.01312747965
 20
1940.671666263354
 30
0.0
 11
1663.013227479651
 21
1940.671666263354
 31
0.0
  0
LINE
  5
760
330
1F
100
AcDbEntity
  8
3A
100
AcDbLine
 10
1663.013227479651
 20
1940.671666263354
 30
0.0
 11
1663.013227479651
 21
1950.671566263353
 31
0.0
  0
LINE
  5
761
330
1F
100
AcDbEntity
  8
3A
100
AcDbLine
 10
1673.01312747965
 20
1950.671566263353
 30
0.0
 11
1673.01312747965
 21
1940.671666263354
 31
0.0
  0
LINE
  5
762
330
1F
100
AcDbEntity
  8
3A
100
AcDbLine
 10
1678.013077479652
 20
1950.671566263353
 30
0.0
 11
1688.01297747965
 21
1950.671566263353
 31
0.0
  0
LINE
  5
763
330
1F
100
AcDbEntity
  8
3A
100
AcDbLine
 10
1688.01297747965
 20
1940.671666263354
 30
0.0
 11
1678.013077479652
 21
1940.671666263354
 31
0.0
  0
LINE
  5
764
330
1F
100
AcDbEntity
  8
3A
100
AcDbLine
 10
1678.013077479652
 20
1940.671666263354
 30
0.0
 11
1678.013077479652
 21
1950.671566263353
 31
0.0
  0
LINE
  5
765
330
1F
100
AcDbEntity
  8
3A
100
AcDbLine
 10
1688.01297747965
 20
1950.671566263353
 30
0.0
 11
1688.01297747965
 21
1940.671666263354
 31
0.0
  0
LINE
  5
766
330
1F
100
AcDbEntity
  8
3A
100
AcDbLine
 10
1693.012927479651
 20
1950.671566263353
 30
0.0
 11
1703.012827479651
 21
1950.671566263353
 31
0.0
  0
LINE
  5
767
330
1F
100
AcDbEntity
  8
3A
100
AcDbLine
 10
1703.012827479651
 20
1940.671666263354
 30
0.0
 11
1693.012927479651
 21
1940.671666263354
 31
0.0
  0
LINE
  5
768
330
1F
100
AcDbEntity
  8
3A
100
AcDbLine
 10
1693.012927479651
 20
1940.671666263354
 30
0.0
 11
1693.012927479651
 21
1950.671566263353
 31
0.0
  0
LINE
  5
769
330
1F
100
AcDbEntity
  8
3A
100
AcDbLine
 10
1703.012827479651
 20
1950.671566263353
 30
0.0
 11
1703.012827479651
 21
1940.671666263354
 31
0.0
  0
LINE
  5
76A
330
1F
100
AcDbEntity
  8
3A
100
AcDbLine
 10
1708.012777479652
 20
1950.671566263353
 30
0.0
 11
1718.012677479651
 21
1950.671566263353
 31
0.0
  0
LINE
  5
76B
330
1F
100
AcDbEntity
  8
3A
100
AcDbLine
 10
1718.012677479651
 20
1940.671666263354
 30
0.0
 11
1708.012777479652
 21
1940.671666263354
 31
0.0
  0
LINE
  5
76C
330
1F
100
AcDbEntity
  8
3A
100
AcDbLine
 10
1708.012777479652
 20
1940.671666263354
 30
0.0
 11
1708.012777479652
 21
1950.671566263353
 31
0.0
  0
LINE
  5
76D
330
1F
100
AcDbEntity
  8
3A
100
AcDbLine
 10
1718.012677479651
 20
1950.671566263353
 30
0.0
 11
1718.012677479651
 21
1940.671666263354
 31
0.0
  0
LINE
  5
76E
330
1F
100
AcDbEntity
  8
3A
100
AcDbLine
 10
1673.01312747965
 20
1965.671416263353
 30
0.0
 11
1673.01312747965
 21
1955.671516263352
 31
0.0
  0
LINE
  5
76F
330
1F
100
AcDbEntity
  8
3A
100
AcDbLine
 10
1663.013227479651
 20
1955.671516263352
 30
0.0
 11
1663.013227479651
 21
1965.671416263353
 31
0.0
  0
LINE
  5
770
330
1F
100
AcDbEntity
  8
3A
100
AcDbLine
 10
1663.013227479651
 20
1965.671416263353
 30
0.0
 11
1673.01312747965
 21
1965.671416263353
 31
0.0
  0
LINE
  5
771
330
1F
100
AcDbEntity
  8
3A
100
AcDbLine
 10
1673.01312747965
 20
1955.671516263352
 30
0.0
 11
1663.013227479651
 21
1955.671516263352
 31
0.0
  0
LINE
  5
772
330
1F
100
AcDbEntity
  8
3A
100
AcDbLine
 10
1688.01297747965
 20
1965.671416263353
 30
0.0
 11
1688.01297747965
 21
1955.671516263352
 31
0.0
  0
LINE
  5
773
330
1F
100
AcDbEntity
  8
3A
100
AcDbLine
 10
1678.013077479652
 20
1955.671516263352
 30
0.0
 11
1678.013077479652
 21
1965.671416263353
 31
0.0
  0
LINE
  5
774
330
1F
100
AcDbEntity
  8
3A
100
AcDbLine
 10
1678.013077479652
 20
1965.671416263353
 30
0.0
 11
1688.01297747965
 21
1965.671416263353
 31
0.0
  0
LINE
  5
775
330
1F
100
AcDbEntity
  8
3A
100
AcDbLine
 10
1688.01297747965
 20
1955.671516263352
 30
0.0
 11
1678.013077479652
 21
1955.671516263352
 31
0.0
  0
LINE
  5
776
330
1F
100
AcDbEntity
  8
3A
100
AcDbLine
 10
1703.012827479651
 20
1965.671416263353
 30
0.0
 11
1703.012827479651
 21
1955.671516263352
 31
0.0
  0
LINE
  5
777
330
1F
100
AcDbEntity
  8
3A
100
AcDbLine
 10
1693.012927479651
 20
1955.671516263352
 30
0.0
 11
1693.012927479651
 21
1965.671416263353
 31
0.0
  0
LINE
  5
778
330
1F
100
AcDbEntity
  8
3A
100
AcDbLine
 10
1693.012927479651
 20
1965.671416263353
 30
0.0
 11
1703.012827479651
 21
1965.671416263353
 31
0.0
  0
LINE
  5
779
330
1F
100
AcDbEntity
  8
3A
100
AcDbLine
 10
1703.012827479651
 20
1955.671516263352
 30
0.0
 11
1693.012927479651
 21
1955.671516263352
 31
0.0
  0
LINE
  5
77A
330
1F
100
AcDbEntity
  8
3A
100
AcDbLine
 10
1718.012677479651
 20
1965.671416263353
 30
0.0
 11
1718.012677479651
 21
1955.671516263352
 31
0.0
  0
LINE
  5
77B
330
1F
100
AcDbEntity
  8
3A
100
AcDbLine
 10
1708.012777479652
 20
1955.671516263352
 30
0.0
 11
1708.012777479652
 21
1965.671416263353
 31
0.0
  0
LINE
  5
77C
330
1F
100
AcDbEntity
  8
3A
100
AcDbLine
 10
1708.012777479652
 20
1965.671416263353
 30
0.0
 11
1718.012677479651
 21
1965.671416263353
 31
0.0
  0
LINE
  5
77D
330
1F
100
AcDbEntity
  8
3A
100
AcDbLine
 10
1718.012677479651
 20
1955.671516263352
 30
0.0
 11
1708.012777479652
 21
1955.671516263352
 31
0.0
  0
LINE
  5
77E
330
1F
100
AcDbEntity
  8
3A
100
AcDbLine
 10
1628.013577479654
 20
1935.671716263353
 30
0.0
 11
1628.013577479654
 21
1925.671816263354
 31
0.0
  0
LINE
  5
77F
330
1F
100
AcDbEntity
  8
3A
100
AcDbLine
 10
1628.013577479654
 20
1925.671816263354
 30
0.0
 11
1618.013677479651
 21
1925.671816263354
 31
0.0
  0
LINE
  5
780
330
1F
100
AcDbEntity
  8
3A
100
AcDbLine
 10
1618.013677479651
 20
1935.671716263353
 30
0.0
 11
1628.013577479654
 21
1935.671716263353
 31
0.0
  0
LINE
  5
781
330
1F
100
AcDbEntity
  8
3A
100
AcDbLine
 10
1633.013527479651
 20
1935.671716263353
 30
0.0
 11
1643.013427479653
 21
1935.671716263353
 31
0.0
  0
LINE
  5
782
330
1F
100
AcDbEntity
  8
3A
100
AcDbLine
 10
1643.013427479653
 20
1925.671816263354
 30
0.0
 11
1633.013527479651
 21
1925.671816263354
 31
0.0
  0
LINE
  5
783
330
1F
100
AcDbEntity
  8
3A
100
AcDbLine
 10
1633.013527479651
 20
1925.671816263354
 30
0.0
 11
1633.013527479651
 21
1935.671716263353
 31
0.0
  0
LINE
  5
784
330
1F
100
AcDbEntity
  8
3A
100
AcDbLine
 10
1643.013427479653
 20
1935.671716263353
 30
0.0
 11
1643.013427479653
 21
1925.671816263354
 31
0.0
  0
LINE
  5
785
330
1F
100
AcDbEntity
  8
3A
100
AcDbLine
 10
1648.013377479651
 20
1935.671716263353
 30
0.0
 11
1658.013277479654
 21
1935.671716263353
 31
0.0
  0
LINE
  5
786
330
1F
100
AcDbEntity
  8
3A
100
AcDbLine
 10
1658.013277479654
 20
1925.671816263354
 30
0.0
 11
1648.013377479651
 21
1925.671816263354
 31
0.0
  0
LINE
  5
787
330
1F
100
AcDbEntity
  8
3A
100
AcDbLine
 10
1648.013377479651
 20
1925.671816263354
 30
0.0
 11
1648.013377479651
 21
1935.671716263353
 31
0.0
  0
LINE
  5
788
330
1F
100
AcDbEntity
  8
3A
100
AcDbLine
 10
1658.013277479654
 20
1935.671716263353
 30
0.0
 11
1658.013277479654
 21
1925.671816263354
 31
0.0
  0
LINE
  5
789
330
1F
100
AcDbEntity
  8
3A
100
AcDbLine
 10
1663.013227479651
 20
1935.671716263353
 30
0.0
 11
1673.013127479654
 21
1935.671716263353
 31
0.0
  0
LINE
  5
78A
330
1F
100
AcDbEntity
  8
3A
100
AcDbLine
 10
1673.013127479654
 20
1925.671816263354
 30
0.0
 11
1663.013227479651
 21
1925.671816263354
 31
0.0
  0
LINE
  5
78B
330
1F
100
AcDbEntity
  8
3A
100
AcDbLine
 10
1663.013227479651
 20
1925.671816263354
 30
0.0
 11
1663.013227479651
 21
1935.671716263353
 31
0.0
  0
LINE
  5
78C
330
1F
100
AcDbEntity
  8
3A
100
AcDbLine
 10
1673.013127479654
 20
1935.671716263353
 30
0.0
 11
1673.013127479654
 21
1925.671816263354
 31
0.0
  0
LINE
  5
78D
330
1F
100
AcDbEntity
  8
3A
100
AcDbLine
 10
1678.013077479652
 20
1935.671716263353
 30
0.0
 11
1688.012977479654
 21
1935.671716263353
 31
0.0
  0
LINE
  5
78E
330
1F
100
AcDbEntity
  8
3A
100
AcDbLine
 10
1688.012977479654
 20
1925.671816263354
 30
0.0
 11
1678.013077479652
 21
1925.671816263354
 31
0.0
  0
LINE
  5
78F
330
1F
100
AcDbEntity
  8
3A
100
AcDbLine
 10
1678.013077479652
 20
1925.671816263354
 30
0.0
 11
1678.013077479652
 21
1935.671716263353
 31
0.0
  0
LINE
  5
790
330
1F
100
AcDbEntity
  8
3A
100
AcDbLine
 10
1688.012977479654
 20
1935.671716263353
 30
0.0
 11
1688.012977479654
 21
1925.671816263354
 31
0.0
  0
LINE
  5
791
330
1F
100
AcDbEntity
  8
3A
100
AcDbLine
 10
1693.012927479651
 20
1935.671716263353
 30
0.0
 11
1703.012827479654
 21
1935.671716263353
 31
0.0
  0
LINE
  5
792
330
1F
100
AcDbEntity
  8
3A
100
AcDbLine
 10
1703.012827479654
 20
1925.671816263354
 30
0.0
 11
1693.012927479651
 21
1925.671816263354
 31
0.0
  0
LINE
  5
793
330
1F
100
AcDbEntity
  8
3A
100
AcDbLine
 10
1693.012927479651
 20
1925.671816263354
 30
0.0
 11
1693.012927479651
 21
1935.671716263353
 31
0.0
  0
LINE
  5
794
330
1F
100
AcDbEntity
  8
3A
100
AcDbLine
 10
1703.012827479654
 20
1935.671716263353
 30
0.0
 11
1703.012827479654
 21
1925.671816263354
 31
0.0
  0
LINE
  5
795
330
1F
100
AcDbEntity
  8
3A
100
AcDbLine
 10
1708.012777479652
 20
1935.671716263353
 30
0.0
 11
1718.012677479654
 21
1935.671716263353
 31
0.0
  0
LINE
  5
796
330
1F
100
AcDbEntity
  8
3A
100
AcDbLine
 10
1718.012677479654
 20
1925.671816263354
 30
0.0
 11
1708.012777479652
 21
1925.671816263354
 31
0.0
  0
LINE
  5
797
330
1F
100
AcDbEntity
  8
3A
100
AcDbLine
 10
1708.012777479652
 20
1925.671816263354
 30
0.0
 11
1708.012777479652
 21
1935.671716263353
 31
0.0
  0
LINE
  5
798
330
1F
100
AcDbEntity
  8
3A
100
AcDbLine
 10
1718.012677479654
 20
1935.671716263353
 30
0.0
 11
1718.012677479654
 21
1925.671816263354
 31
0.0
  0
LINE
  5
799
330
1F
100
AcDbEntity
  8
3A
100
AcDbLine
 10
1628.013577479654
 20
1920.671866263353
 30
0.0
 11
1628.013577479654
 21
1910.671966263354
 31
0.0
  0
LINE
  5
79A
330
1F
100
AcDbEntity
  8
3A
100
AcDbLine
 10
1628.013577479654
 20
1910.671966263354
 30
0.0
 11
1618.013677479655
 21
1910.671966263354
 31
0.0
  0
LINE
  5
79B
330
1F
100
AcDbEntity
  8
3A
100
AcDbLine
 10
1618.013677479655
 20
1920.671866263353
 30
0.0
 11
1628.013577479654
 21
1920.671866263353
 31
0.0
  0
LINE
  5
79C
330
1F
100
AcDbEntity
  8
3A
100
AcDbLine
 10
1633.013527479655
 20
1920.671866263353
 30
0.0
 11
1643.013427479653
 21
1920.671866263353
 31
0.0
  0
LINE
  5
79D
330
1F
100
AcDbEntity
  8
3A
100
AcDbLine
 10
1643.013427479653
 20
1910.671966263354
 30
0.0
 11
1633.013527479655
 21
1910.671966263354
 31
0.0
  0
LINE
  5
79E
330
1F
100
AcDbEntity
  8
3A
100
AcDbLine
 10
1633.013527479655
 20
1910.671966263354
 30
0.0
 11
1633.013527479655
 21
1920.671866263353
 31
0.0
  0
LINE
  5
79F
330
1F
100
AcDbEntity
  8
3A
100
AcDbLine
 10
1643.013427479653
 20
1920.671866263353
 30
0.0
 11
1643.013427479653
 21
1910.671966263354
 31
0.0
  0
LINE
  5
7A0
330
1F
100
AcDbEntity
  8
3A
100
AcDbLine
 10
1648.013377479655
 20
1920.671866263353
 30
0.0
 11
1658.013277479654
 21
1920.671866263353
 31
0.0
  0
LINE
  5
7A1
330
1F
100
AcDbEntity
  8
3A
100
AcDbLine
 10
1658.013277479654
 20
1910.671966263354
 30
0.0
 11
1648.013377479655
 21
1910.671966263354
 31
0.0
  0
LINE
  5
7A2
330
1F
100
AcDbEntity
  8
3A
100
AcDbLine
 10
1648.013377479655
 20
1910.671966263354
 30
0.0
 11
1648.013377479655
 21
1920.671866263353
 31
0.0
  0
LINE
  5
7A3
330
1F
100
AcDbEntity
  8
3A
100
AcDbLine
 10
1658.013277479654
 20
1920.671866263353
 30
0.0
 11
1658.013277479654
 21
1910.671966263354
 31
0.0
  0
LINE
  5
7A4
330
1F
100
AcDbEntity
  8
3A
100
AcDbLine
 10
1663.013227479655
 20
1920.671866263353
 30
0.0
 11
1673.013127479654
 21
1920.671866263353
 31
0.0
  0
LINE
  5
7A5
330
1F
100
AcDbEntity
  8
3A
100
AcDbLine
 10
1673.013127479654
 20
1910.671966263354
 30
0.0
 11
1663.013227479655
 21
1910.671966263354
 31
0.0
  0
LINE
  5
7A6
330
1F
100
AcDbEntity
  8
3A
100
AcDbLine
 10
1663.013227479655
 20
1910.671966263354
 30
0.0
 11
1663.013227479655
 21
1920.671866263353
 31
0.0
  0
LINE
  5
7A7
330
1F
100
AcDbEntity
  8
3A
100
AcDbLine
 10
1673.013127479654
 20
1920.671866263353
 30
0.0
 11
1673.013127479654
 21
1910.671966263354
 31
0.0
  0
LINE
  5
7A8
330
1F
100
AcDbEntity
  8
3A
100
AcDbLine
 10
1678.013077479655
 20
1920.671866263353
 30
0.0
 11
1688.012977479654
 21
1920.671866263353
 31
0.0
  0
LINE
  5
7A9
330
1F
100
AcDbEntity
  8
3A
100
AcDbLine
 10
1688.012977479654
 20
1910.671966263354
 30
0.0
 11
1678.013077479655
 21
1910.671966263354
 31
0.0
  0
LINE
  5
7AA
330
1F
100
AcDbEntity
  8
3A
100
AcDbLine
 10
1678.013077479655
 20
1910.671966263354
 30
0.0
 11
1678.013077479655
 21
1920.671866263353
 31
0.0
  0
LINE
  5
7AB
330
1F
100
AcDbEntity
  8
3A
100
AcDbLine
 10
1688.012977479654
 20
1920.671866263353
 30
0.0
 11
1688.012977479654
 21
1910.671966263354
 31
0.0
  0
LINE
  5
7AC
330
1F
100
AcDbEntity
  8
3A
100
AcDbLine
 10
1693.012927479655
 20
1920.671866263353
 30
0.0
 11
1703.012827479654
 21
1920.671866263353
 31
0.0
  0
LINE
  5
7AD
330
1F
100
AcDbEntity
  8
3A
100
AcDbLine
 10
1703.012827479654
 20
1910.671966263354
 30
0.0
 11
1693.012927479655
 21
1910.671966263354
 31
0.0
  0
LINE
  5
7AE
330
1F
100
AcDbEntity
  8
3A
100
AcDbLine
 10
1693.012927479655
 20
1910.671966263354
 30
0.0
 11
1693.012927479655
 21
1920.671866263353
 31
0.0
  0
LINE
  5
7AF
330
1F
100
AcDbEntity
  8
3A
100
AcDbLine
 10
1703.012827479654
 20
1920.671866263353
 30
0.0
 11
1703.012827479654
 21
1910.671966263354
 31
0.0
  0
LINE
  5
7B0
330
1F
100
AcDbEntity
  8
3A
100
AcDbLine
 10
1708.012777479655
 20
1920.671866263353
 30
0.0
 11
1718.012677479654
 21
1920.671866263353
 31
0.0
  0
LINE
  5
7B1
330
1F
100
AcDbEntity
  8
3A
100
AcDbLine
 10
1718.012677479654
 20
1910.671966263354
 30
0.0
 11
1708.012777479655
 21
1910.671966263354
 31
0.0
  0
LINE
  5
7B2
330
1F
100
AcDbEntity
  8
3A
100
AcDbLine
 10
1708.012777479655
 20
1910.671966263354
 30
0.0
 11
1708.012777479655
 21
1920.671866263353
 31
0.0
  0
LINE
  5
7B3
330
1F
100
AcDbEntity
  8
3A
100
AcDbLine
 10
1718.012677479654
 20
1920.671866263353
 30
0.0
 11
1718.012677479654
 21
1910.671966263354
 31
0.0
  0
LINE
  5
7B4
330
1F
100
AcDbEntity
  8
3A
100
AcDbLine
 10
1648.013377479655
 20
1905.672016263353
 30
0.0
 11
1658.013277479654
 21
1905.672016263353
 31
0.0
  0
LINE
  5
7B5
330
1F
100
AcDbEntity
  8
3A
100
AcDbLine
 10
1658.013277479654
 20
1895.672116263354
 30
0.0
 11
1648.013377479655
 21
1895.672116263354
 31
0.0
  0
LINE
  5
7B6
330
1F
100
AcDbEntity
  8
3A
100
AcDbLine
 10
1648.013377479655
 20
1895.672116263354
 30
0.0
 11
1648.013377479655
 21
1905.672016263353
 31
0.0
  0
LINE
  5
7B7
330
1F
100
AcDbEntity
  8
3A
100
AcDbLine
 10
1658.013277479654
 20
1905.672016263353
 30
0.0
 11
1658.013277479654
 21
1895.672116263354
 31
0.0
  0
LINE
  5
7B8
330
1F
100
AcDbEntity
  8
3A
100
AcDbLine
 10
1663.013227479655
 20
1905.672016263353
 30
0.0
 11
1673.013127479654
 21
1905.672016263353
 31
0.0
  0
LINE
  5
7B9
330
1F
100
AcDbEntity
  8
3A
100
AcDbLine
 10
1673.013127479654
 20
1895.672116263354
 30
0.0
 11
1663.013227479655
 21
1895.672116263354
 31
0.0
  0
LINE
  5
7BA
330
1F
100
AcDbEntity
  8
3A
100
AcDbLine
 10
1663.013227479655
 20
1895.672116263354
 30
0.0
 11
1663.013227479655
 21
1905.672016263353
 31
0.0
  0
LINE
  5
7BB
330
1F
100
AcDbEntity
  8
3A
100
AcDbLine
 10
1673.013127479654
 20
1905.672016263353
 30
0.0
 11
1673.013127479654
 21
1895.672116263354
 31
0.0
  0
LINE
  5
7BC
330
1F
100
AcDbEntity
  8
3A
100
AcDbLine
 10
1678.013077479655
 20
1905.672016263353
 30
0.0
 11
1688.012977479654
 21
1905.672016263353
 31
0.0
  0
LINE
  5
7BD
330
1F
100
AcDbEntity
  8
3A
100
AcDbLine
 10
1688.012977479654
 20
1895.672116263354
 30
0.0
 11
1678.013077479655
 21
1895.672116263354
 31
0.0
  0
LINE
  5
7BE
330
1F
100
AcDbEntity
  8
3A
100
AcDbLine
 10
1678.013077479655
 20
1895.672116263354
 30
0.0
 11
1678.013077479655
 21
1905.672016263353
 31
0.0
  0
LINE
  5
7BF
330
1F
100
AcDbEntity
  8
3A
100
AcDbLine
 10
1688.012977479654
 20
1905.672016263353
 30
0.0
 11
1688.012977479654
 21
1895.672116263354
 31
0.0
  0
LINE
  5
7C0
330
1F
100
AcDbEntity
  8
3A
100
AcDbLine
 10
1693.012927479655
 20
1905.672016263353
 30
0.0
 11
1703.012827479654
 21
1905.672016263353
 31
0.0
  0
LINE
  5
7C1
330
1F
100
AcDbEntity
  8
3A
100
AcDbLine
 10
1703.012827479654
 20
1895.672116263354
 30
0.0
 11
1693.012927479655
 21
1895.672116263354
 31
0.0
  0
LINE
  5
7C2
330
1F
100
AcDbEntity
  8
3A
100
AcDbLine
 10
1693.012927479655
 20
1895.672116263354
 30
0.0
 11
1693.012927479655
 21
1905.672016263353
 31
0.0
  0
LINE
  5
7C3
330
1F
100
AcDbEntity
  8
3A
100
AcDbLine
 10
1703.012827479654
 20
1905.672016263353
 30
0.0
 11
1703.012827479654
 21
1895.672116263354
 31
0.0
  0
LINE
  5
7C4
330
1F
100
AcDbEntity
  8
3A
100
AcDbLine
 10
1708.012777479655
 20
1905.672016263353
 30
0.0
 11
1718.012677479654
 21
1905.672016263353
 31
0.0
  0
LINE
  5
7C5
330
1F
100
AcDbEntity
  8
3A
100
AcDbLine
 10
1718.012677479654
 20
1895.672116263354
 30
0.0
 11
1708.012777479655
 21
1895.672116263354
 31
0.0
  0
LINE
  5
7C6
330
1F
100
AcDbEntity
  8
3A
100
AcDbLine
 10
1708.012777479655
 20
1895.672116263354
 30
0.0
 11
1708.012777479655
 21
1905.672016263353
 31
0.0
  0
LINE
  5
7C7
330
1F
100
AcDbEntity
  8
3A
100
AcDbLine
 10
1718.012677479654
 20
1905.672016263353
 30
0.0
 11
1718.012677479654
 21
1895.672116263354
 31
0.0
  0
LINE
  5
7C8
330
1F
100
AcDbEntity
  8
3A
100
AcDbLine
 10
1618.013677479651
 20
1935.671716263353
 30
0.0
 11
1618.013677479651
 21
1925.671816263354
 31
0.0
  0
LINE
  5
7C9
330
1F
100
AcDbEntity
  8
3A
100
AcDbLine
 10
1618.013677479651
 20
1920.671866263353
 30
0.0
 11
1618.013677479651
 21
1910.671966263354
 31
0.0
  0
LINE
  5
7CA
330
1F
100
AcDbEntity
  8
3A
100
AcDbLine
 10
1613.01372747965
 20
1905.672016263353
 30
0.0
 11
1613.01372747965
 21
1895.672116263354
 31
0.0
  0
LINE
  5
7CB
330
1F
100
AcDbEntity
  8
3A
100
AcDbLine
 10
1598.013877479649
 20
1905.672016263353
 30
0.0
 11
1598.013877479649
 21
1895.672116263354
 31
0.0
  0
LINE
  5
7CC
330
1F
100
AcDbEntity
  8
3A
100
AcDbLine
 10
1603.013827479651
 20
1895.672116263354
 30
0.0
 11
1603.013827479651
 21
1905.672016263353
 31
0.0
  0
LINE
  5
7CD
330
1F
100
AcDbEntity
  8
3A
100
AcDbLine
 10
1588.013977479651
 20
1895.672116263354
 30
0.0
 11
1588.013977479651
 21
1905.672016263353
 31
0.0
  0
LINE
  5
7CE
330
1F
100
AcDbEntity
  8
3A
100
AcDbLine
 10
1598.013877479649
 20
1895.672116263354
 30
0.0
 11
1588.013977479651
 21
1895.672116263354
 31
0.0
  0
LINE
  5
7CF
330
1F
100
AcDbEntity
  8
3A
100
AcDbLine
 10
1613.01372747965
 20
1895.672116263354
 30
0.0
 11
1603.013827479651
 21
1895.672116263354
 31
0.0
  0
LINE
  5
7D0
330
1F
100
AcDbEntity
  8
3A
100
AcDbLine
 10
1588.013977479651
 20
1905.672016263353
 30
0.0
 11
1598.013877479649
 21
1905.672016263353
 31
0.0
  0
LINE
  5
7D1
330
1F
100
AcDbEntity
  8
3A
100
AcDbLine
 10
1603.013827479651
 20
1905.672016263353
 30
0.0
 11
1613.01372747965
 21
1905.672016263353
 31
0.0
  0
LINE
  5
7D2
330
1F
100
AcDbEntity
  8
3A
100
AcDbLine
 10
1628.013577479654
 20
1905.672016263353
 30
0.0
 11
1628.013577479654
 21
1895.672116263354
 31
0.0
  0
LINE
  5
7D3
330
1F
100
AcDbEntity
  8
3A
100
AcDbLine
 10
1628.013577479654
 20
1895.672116263354
 30
0.0
 11
1618.013677479651
 21
1895.672116263354
 31
0.0
  0
LINE
  5
7D4
330
1F
100
AcDbEntity
  8
3A
100
AcDbLine
 10
1618.013677479651
 20
1905.672016263353
 30
0.0
 11
1628.013577479654
 21
1905.672016263353
 31
0.0
  0
LINE
  5
7D5
330
1F
100
AcDbEntity
  8
3A
100
AcDbLine
 10
1633.013527479651
 20
1905.672016263353
 30
0.0
 11
1643.013427479653
 21
1905.672016263353
 31
0.0
  0
LINE
  5
7D6
330
1F
100
AcDbEntity
  8
3A
100
AcDbLine
 10
1643.013427479653
 20
1895.672116263354
 30
0.0
 11
1633.013527479651
 21
1895.672116263354
 31
0.0
  0
LINE
  5
7D7
330
1F
100
AcDbEntity
  8
3A
100
AcDbLine
 10
1633.013527479651
 20
1895.672116263354
 30
0.0
 11
1633.013527479651
 21
1905.672016263353
 31
0.0
  0
LINE
  5
7D8
330
1F
100
AcDbEntity
  8
3A
100
AcDbLine
 10
1643.013427479653
 20
1905.672016263353
 30
0.0
 11
1643.013427479653
 21
1895.672116263354
 31
0.0
  0
LINE
  5
7D9
330
1F
100
AcDbEntity
  8
3A
100
AcDbLine
 10
1618.013677479651
 20
1905.672016263353
 30
0.0
 11
1618.013677479651
 21
1895.672116263354
 31
0.0
  0
LINE
  5
7DA
330
1F
100
AcDbEntity
  8
3A
100
AcDbLine
 10
1558.01427747965
 20
1890.672166263352
 30
0.0
 11
1568.014177479649
 21
1890.672166263352
 31
0.0
  0
LINE
  5
7DB
330
1F
100
AcDbEntity
  8
3A
100
AcDbLine
 10
1568.014177479649
 20
1880.672266263354
 30
0.0
 11
1558.01427747965
 21
1880.672266263354
 31
0.0
  0
LINE
  5
7DC
330
1F
100
AcDbEntity
  8
3A
100
AcDbLine
 10
1558.01427747965
 20
1880.672266263354
 30
0.0
 11
1558.01427747965
 21
1890.672166263352
 31
0.0
  0
LINE
  5
7DD
330
1F
100
AcDbEntity
  8
3A
100
AcDbLine
 10
1573.01412747965
 20
1890.672166263352
 30
0.0
 11
1583.014027479649
 21
1890.672166263352
 31
0.0
  0
LINE
  5
7DE
330
1F
100
AcDbEntity
  8
3A
100
AcDbLine
 10
1583.014027479649
 20
1880.672266263354
 30
0.0
 11
1573.01412747965
 21
1880.672266263354
 31
0.0
  0
LINE
  5
7DF
330
1F
100
AcDbEntity
  8
3A
100
AcDbLine
 10
1573.01412747965
 20
1880.672266263354
 30
0.0
 11
1573.01412747965
 21
1890.672166263352
 31
0.0
  0
LINE
  5
7E0
330
1F
100
AcDbEntity
  8
3A
100
AcDbLine
 10
1568.014177479649
 20
1890.672166263352
 30
0.0
 11
1568.014177479649
 21
1880.672266263354
 31
0.0
  0
LINE
  5
7E1
330
1F
100
AcDbEntity
  8
3A
100
AcDbLine
 10
1583.014027479649
 20
1890.672166263352
 30
0.0
 11
1583.014027479649
 21
1880.672266263354
 31
0.0
  0
LINE
  5
7E2
330
1F
100
AcDbEntity
  8
3A
100
AcDbLine
 10
1648.013377479651
 20
1890.672166263352
 30
0.0
 11
1658.013277479654
 21
1890.672166263352
 31
0.0
  0
LINE
  5
7E3
330
1F
100
AcDbEntity
  8
3A
100
AcDbLine
 10
1658.013277479654
 20
1880.672266263354
 30
0.0
 11
1648.013377479651
 21
1880.672266263354
 31
0.0
  0
LINE
  5
7E4
330
1F
100
AcDbEntity
  8
3A
100
AcDbLine
 10
1648.013377479651
 20
1880.672266263354
 30
0.0
 11
1648.013377479651
 21
1890.672166263352
 31
0.0
  0
LINE
  5
7E5
330
1F
100
AcDbEntity
  8
3A
100
AcDbLine
 10
1658.013277479654
 20
1890.672166263352
 30
0.0
 11
1658.013277479654
 21
1880.672266263354
 31
0.0
  0
LINE
  5
7E6
330
1F
100
AcDbEntity
  8
3A
100
AcDbLine
 10
1663.013227479651
 20
1890.672166263352
 30
0.0
 11
1673.013127479654
 21
1890.672166263352
 31
0.0
  0
LINE
  5
7E7
330
1F
100
AcDbEntity
  8
3A
100
AcDbLine
 10
1673.013127479654
 20
1880.672266263354
 30
0.0
 11
1663.013227479651
 21
1880.672266263354
 31
0.0
  0
LINE
  5
7E8
330
1F
100
AcDbEntity
  8
3A
100
AcDbLine
 10
1663.013227479651
 20
1880.672266263354
 30
0.0
 11
1663.013227479651
 21
1890.672166263352
 31
0.0
  0
LINE
  5
7E9
330
1F
100
AcDbEntity
  8
3A
100
AcDbLine
 10
1673.013127479654
 20
1890.672166263352
 30
0.0
 11
1673.013127479654
 21
1880.672266263354
 31
0.0
  0
LINE
  5
7EA
330
1F
100
AcDbEntity
  8
3A
100
AcDbLine
 10
1678.013077479652
 20
1890.672166263352
 30
0.0
 11
1688.012977479654
 21
1890.672166263352
 31
0.0
  0
LINE
  5
7EB
330
1F
100
AcDbEntity
  8
3A
100
AcDbLine
 10
1688.012977479654
 20
1880.672266263354
 30
0.0
 11
1678.013077479652
 21
1880.672266263354
 31
0.0
  0
LINE
  5
7EC
330
1F
100
AcDbEntity
  8
3A
100
AcDbLine
 10
1678.013077479652
 20
1880.672266263354
 30
0.0
 11
1678.013077479652
 21
1890.672166263352
 31
0.0
  0
LINE
  5
7ED
330
1F
100
AcDbEntity
  8
3A
100
AcDbLine
 10
1688.012977479654
 20
1890.672166263352
 30
0.0
 11
1688.012977479654
 21
1880.672266263354
 31
0.0
  0
LINE
  5
7EE
330
1F
100
AcDbEntity
  8
3A
100
AcDbLine
 10
1693.012927479651
 20
1890.672166263352
 30
0.0
 11
1703.012827479654
 21
1890.672166263352
 31
0.0
  0
LINE
  5
7EF
330
1F
100
AcDbEntity
  8
3A
100
AcDbLine
 10
1703.012827479654
 20
1880.672266263354
 30
0.0
 11
1693.012927479651
 21
1880.672266263354
 31
0.0
  0
LINE
  5
7F0
330
1F
100
AcDbEntity
  8
3A
100
AcDbLine
 10
1693.012927479651
 20
1880.672266263354
 30
0.0
 11
1693.012927479651
 21
1890.672166263352
 31
0.0
  0
LINE
  5
7F1
330
1F
100
AcDbEntity
  8
3A
100
AcDbLine
 10
1703.012827479654
 20
1890.672166263352
 30
0.0
 11
1703.012827479654
 21
1880.672266263354
 31
0.0
  0
LINE
  5
7F2
330
1F
100
AcDbEntity
  8
3A
100
AcDbLine
 10
1708.012777479652
 20
1890.672166263352
 30
0.0
 11
1718.012677479654
 21
1890.672166263352
 31
0.0
  0
LINE
  5
7F3
330
1F
100
AcDbEntity
  8
3A
100
AcDbLine
 10
1718.012677479654
 20
1880.672266263354
 30
0.0
 11
1708.012777479652
 21
1880.672266263354
 31
0.0
  0
LINE
  5
7F4
330
1F
100
AcDbEntity
  8
3A
100
AcDbLine
 10
1708.012777479652
 20
1880.672266263354
 30
0.0
 11
1708.012777479652
 21
1890.672166263352
 31
0.0
  0
LINE
  5
7F5
330
1F
100
AcDbEntity
  8
3A
100
AcDbLine
 10
1718.012677479654
 20
1890.672166263352
 30
0.0
 11
1718.012677479654
 21
1880.672266263354
 31
0.0
  0
LINE
  5
7F6
330
1F
100
AcDbEntity
  8
3A
100
AcDbLine
 10
1613.013727479646
 20
1890.672166263352
 30
0.0
 11
1613.013727479646
 21
1880.672266263354
 31
0.0
  0
LINE
  5
7F7
330
1F
100
AcDbEntity
  8
3A
100
AcDbLine
 10
1598.013877479646
 20
1890.672166263352
 30
0.0
 11
1598.013877479646
 21
1880.672266263354
 31
0.0
  0
LINE
  5
7F8
330
1F
100
AcDbEntity
  8
3A
100
AcDbLine
 10
1603.013827479647
 20
1880.672266263354
 30
0.0
 11
1603.013827479647
 21
1890.672166263352
 31
0.0
  0
LINE
  5
7F9
330
1F
100
AcDbEntity
  8
3A
100
AcDbLine
 10
1588.013977479647
 20
1880.672266263354
 30
0.0
 11
1588.013977479647
 21
1890.672166263352
 31
0.0
  0
LINE
  5
7FA
330
1F
100
AcDbEntity
  8
3A
100
AcDbLine
 10
1598.013877479646
 20
1880.672266263354
 30
0.0
 11
1588.013977479647
 21
1880.672266263354
 31
0.0
  0
LINE
  5
7FB
330
1F
100
AcDbEntity
  8
3A
100
AcDbLine
 10
1613.013727479646
 20
1880.672266263354
 30
0.0
 11
1603.013827479647
 21
1880.672266263354
 31
0.0
  0
LINE
  5
7FC
330
1F
100
AcDbEntity
  8
3A
100
AcDbLine
 10
1588.013977479647
 20
1890.672166263352
 30
0.0
 11
1598.013877479646
 21
1890.672166263352
 31
0.0
  0
LINE
  5
7FD
330
1F
100
AcDbEntity
  8
3A
100
AcDbLine
 10
1603.013827479647
 20
1890.672166263352
 30
0.0
 11
1613.013727479646
 21
1890.672166263352
 31
0.0
  0
LINE
  5
7FE
330
1F
100
AcDbEntity
  8
3A
100
AcDbLine
 10
1628.01357747965
 20
1890.672166263352
 30
0.0
 11
1628.01357747965
 21
1880.672266263354
 31
0.0
  0
LINE
  5
7FF
330
1F
100
AcDbEntity
  8
3A
100
AcDbLine
 10
1628.01357747965
 20
1880.672266263354
 30
0.0
 11
1618.013677479651
 21
1880.672266263354
 31
0.0
  0
LINE
  5
800
330
1F
100
AcDbEntity
  8
3A
100
AcDbLine
 10
1618.013677479651
 20
1890.672166263352
 30
0.0
 11
1628.01357747965
 21
1890.672166263352
 31
0.0
  0
LINE
  5
801
330
1F
100
AcDbEntity
  8
3A
100
AcDbLine
 10
1633.013527479651
 20
1890.672166263352
 30
0.0
 11
1643.01342747965
 21
1890.672166263352
 31
0.0
  0
LINE
  5
802
330
1F
100
AcDbEntity
  8
3A
100
AcDbLine
 10
1643.01342747965
 20
1880.672266263354
 30
0.0
 11
1633.013527479651
 21
1880.672266263354
 31
0.0
  0
LINE
  5
803
330
1F
100
AcDbEntity
  8
3A
100
AcDbLine
 10
1633.013527479651
 20
1880.672266263354
 30
0.0
 11
1633.013527479651
 21
1890.672166263352
 31
0.0
  0
LINE
  5
804
330
1F
100
AcDbEntity
  8
3A
100
AcDbLine
 10
1643.01342747965
 20
1890.672166263352
 30
0.0
 11
1643.01342747965
 21
1880.672266263354
 31
0.0
  0
LINE
  5
805
330
1F
100
AcDbEntity
  8
3A
100
AcDbLine
 10
1618.013677479647
 20
1890.672166263352
 30
0.0
 11
1618.013677479647
 21
1880.672266263354
 31
0.0
  0
LINE
  5
806
330
1F
100
AcDbEntity
  8
3A
100
AcDbLine
 10
1558.014277479647
 20
1875.672316263353
 30
0.0
 11
1568.014177479646
 21
1875.672316263353
 31
0.0
  0
LINE
  5
807
330
1F
100
AcDbEntity
  8
3A
100
AcDbLine
 10
1568.014177479646
 20
1865.672416263354
 30
0.0
 11
1558.014277479647
 21
1865.672416263354
 31
0.0
  0
LINE
  5
808
330
1F
100
AcDbEntity
  8
3A
100
AcDbLine
 10
1558.014277479647
 20
1865.672416263354
 30
0.0
 11
1558.014277479647
 21
1875.672316263353
 31
0.0
  0
LINE
  5
809
330
1F
100
AcDbEntity
  8
3A
100
AcDbLine
 10
1573.014127479647
 20
1875.672316263353
 30
0.0
 11
1583.014027479646
 21
1875.672316263353
 31
0.0
  0
LINE
  5
80A
330
1F
100
AcDbEntity
  8
3A
100
AcDbLine
 10
1583.014027479646
 20
1865.672416263354
 30
0.0
 11
1573.014127479647
 21
1865.672416263354
 31
0.0
  0
LINE
  5
80B
330
1F
100
AcDbEntity
  8
3A
100
AcDbLine
 10
1573.014127479647
 20
1865.672416263354
 30
0.0
 11
1573.014127479647
 21
1875.672316263353
 31
0.0
  0
LINE
  5
80C
330
1F
100
AcDbEntity
  8
3A
100
AcDbLine
 10
1568.014177479646
 20
1875.672316263353
 30
0.0
 11
1568.014177479646
 21
1865.672416263354
 31
0.0
  0
LINE
  5
80D
330
1F
100
AcDbEntity
  8
3A
100
AcDbLine
 10
1583.014027479646
 20
1875.672316263353
 30
0.0
 11
1583.014027479646
 21
1865.672416263354
 31
0.0
  0
LINE
  5
80E
330
1F
100
AcDbEntity
  8
3A
100
AcDbLine
 10
1648.013377479651
 20
1875.672316263353
 30
0.0
 11
1658.01327747965
 21
1875.672316263353
 31
0.0
  0
LINE
  5
80F
330
1F
100
AcDbEntity
  8
3A
100
AcDbLine
 10
1658.01327747965
 20
1865.672416263354
 30
0.0
 11
1648.013377479651
 21
1865.672416263354
 31
0.0
  0
LINE
  5
810
330
1F
100
AcDbEntity
  8
3A
100
AcDbLine
 10
1648.013377479651
 20
1865.672416263354
 30
0.0
 11
1648.013377479651
 21
1875.672316263353
 31
0.0
  0
LINE
  5
811
330
1F
100
AcDbEntity
  8
3A
100
AcDbLine
 10
1658.01327747965
 20
1875.672316263353
 30
0.0
 11
1658.01327747965
 21
1865.672416263354
 31
0.0
  0
LINE
  5
812
330
1F
100
AcDbEntity
  8
3A
100
AcDbLine
 10
1663.013227479651
 20
1875.672316263353
 30
0.0
 11
1673.01312747965
 21
1875.672316263353
 31
0.0
  0
LINE
  5
813
330
1F
100
AcDbEntity
  8
3A
100
AcDbLine
 10
1673.01312747965
 20
1865.672416263354
 30
0.0
 11
1663.013227479651
 21
1865.672416263354
 31
0.0
  0
LINE
  5
814
330
1F
100
AcDbEntity
  8
3A
100
AcDbLine
 10
1663.013227479651
 20
1865.672416263354
 30
0.0
 11
1663.013227479651
 21
1875.672316263353
 31
0.0
  0
LINE
  5
815
330
1F
100
AcDbEntity
  8
3A
100
AcDbLine
 10
1673.01312747965
 20
1875.672316263353
 30
0.0
 11
1673.01312747965
 21
1865.672416263354
 31
0.0
  0
LINE
  5
816
330
1F
100
AcDbEntity
  8
3A
100
AcDbLine
 10
1678.013077479652
 20
1875.672316263353
 30
0.0
 11
1688.01297747965
 21
1875.672316263353
 31
0.0
  0
LINE
  5
817
330
1F
100
AcDbEntity
  8
3A
100
AcDbLine
 10
1688.01297747965
 20
1865.672416263354
 30
0.0
 11
1678.013077479652
 21
1865.672416263354
 31
0.0
  0
LINE
  5
818
330
1F
100
AcDbEntity
  8
3A
100
AcDbLine
 10
1678.013077479652
 20
1865.672416263354
 30
0.0
 11
1678.013077479652
 21
1875.672316263353
 31
0.0
  0
LINE
  5
819
330
1F
100
AcDbEntity
  8
3A
100
AcDbLine
 10
1688.01297747965
 20
1875.672316263353
 30
0.0
 11
1688.01297747965
 21
1865.672416263354
 31
0.0
  0
LINE
  5
81A
330
1F
100
AcDbEntity
  8
3A
100
AcDbLine
 10
1693.012927479651
 20
1875.672316263353
 30
0.0
 11
1703.012827479651
 21
1875.672316263353
 31
0.0
  0
LINE
  5
81B
330
1F
100
AcDbEntity
  8
3A
100
AcDbLine
 10
1703.012827479651
 20
1865.672416263354
 30
0.0
 11
1693.012927479651
 21
1865.672416263354
 31
0.0
  0
LINE
  5
81C
330
1F
100
AcDbEntity
  8
3A
100
AcDbLine
 10
1693.012927479651
 20
1865.672416263354
 30
0.0
 11
1693.012927479651
 21
1875.672316263353
 31
0.0
  0
LINE
  5
81D
330
1F
100
AcDbEntity
  8
3A
100
AcDbLine
 10
1703.012827479651
 20
1875.672316263353
 30
0.0
 11
1703.012827479651
 21
1865.672416263354
 31
0.0
  0
LINE
  5
81E
330
1F
100
AcDbEntity
  8
3A
100
AcDbLine
 10
1708.012777479652
 20
1875.672316263353
 30
0.0
 11
1718.012677479651
 21
1875.672316263353
 31
0.0
  0
LINE
  5
81F
330
1F
100
AcDbEntity
  8
3A
100
AcDbLine
 10
1718.012677479651
 20
1865.672416263354
 30
0.0
 11
1708.012777479652
 21
1865.672416263354
 31
0.0
  0
LINE
  5
820
330
1F
100
AcDbEntity
  8
3A
100
AcDbLine
 10
1708.012777479652
 20
1865.672416263354
 30
0.0
 11
1708.012777479652
 21
1875.672316263353
 31
0.0
  0
LINE
  5
821
330
1F
100
AcDbEntity
  8
3A
100
AcDbLine
 10
1718.012677479651
 20
1875.672316263353
 30
0.0
 11
1718.012677479651
 21
1865.672416263354
 31
0.0
  0
LINE
  5
822
330
1F
100
AcDbEntity
  8
3A
100
AcDbLine
 10
1613.013727479646
 20
1875.672316263353
 30
0.0
 11
1613.013727479646
 21
1865.672416263354
 31
0.0
  0
LINE
  5
823
330
1F
100
AcDbEntity
  8
3A
100
AcDbLine
 10
1598.013877479646
 20
1875.672316263353
 30
0.0
 11
1598.013877479646
 21
1865.672416263354
 31
0.0
  0
LINE
  5
824
330
1F
100
AcDbEntity
  8
3A
100
AcDbLine
 10
1603.013827479643
 20
1865.672416263354
 30
0.0
 11
1603.013827479643
 21
1875.672316263353
 31
0.0
  0
LINE
  5
825
330
1F
100
AcDbEntity
  8
3A
100
AcDbLine
 10
1588.013977479643
 20
1865.672416263354
 30
0.0
 11
1588.013977479643
 21
1875.672316263353
 31
0.0
  0
LINE
  5
826
330
1F
100
AcDbEntity
  8
3A
100
AcDbLine
 10
1598.013877479646
 20
1865.672416263354
 30
0.0
 11
1588.013977479643
 21
1865.672416263354
 31
0.0
  0
LINE
  5
827
330
1F
100
AcDbEntity
  8
3A
100
AcDbLine
 10
1613.013727479646
 20
1865.672416263354
 30
0.0
 11
1603.013827479643
 21
1865.672416263354
 31
0.0
  0
LINE
  5
828
330
1F
100
AcDbEntity
  8
3A
100
AcDbLine
 10
1588.013977479643
 20
1875.672316263353
 30
0.0
 11
1598.013877479646
 21
1875.672316263353
 31
0.0
  0
LINE
  5
829
330
1F
100
AcDbEntity
  8
3A
100
AcDbLine
 10
1603.013827479643
 20
1875.672316263353
 30
0.0
 11
1613.013727479646
 21
1875.672316263353
 31
0.0
  0
LINE
  5
82A
330
1F
100
AcDbEntity
  8
3A
100
AcDbLine
 10
1628.013577479646
 20
1875.672316263353
 30
0.0
 11
1628.013577479646
 21
1865.672416263354
 31
0.0
  0
LINE
  5
82B
330
1F
100
AcDbEntity
  8
3A
100
AcDbLine
 10
1628.013577479646
 20
1865.672416263354
 30
0.0
 11
1618.013677479651
 21
1865.672416263354
 31
0.0
  0
LINE
  5
82C
330
1F
100
AcDbEntity
  8
3A
100
AcDbLine
 10
1618.013677479651
 20
1875.672316263353
 30
0.0
 11
1628.013577479646
 21
1875.672316263353
 31
0.0
  0
LINE
  5
82D
330
1F
100
AcDbEntity
  8
3A
100
AcDbLine
 10
1633.013527479651
 20
1875.672316263353
 30
0.0
 11
1643.013427479646
 21
1875.672316263353
 31
0.0
  0
LINE
  5
82E
330
1F
100
AcDbEntity
  8
3A
100
AcDbLine
 10
1643.013427479646
 20
1865.672416263354
 30
0.0
 11
1633.013527479651
 21
1865.672416263354
 31
0.0
  0
LINE
  5
82F
330
1F
100
AcDbEntity
  8
3A
100
AcDbLine
 10
1633.013527479651
 20
1865.672416263354
 30
0.0
 11
1633.013527479651
 21
1875.672316263353
 31
0.0
  0
LINE
  5
830
330
1F
100
AcDbEntity
  8
3A
100
AcDbLine
 10
1643.013427479646
 20
1875.672316263353
 30
0.0
 11
1643.013427479646
 21
1865.672416263354
 31
0.0
  0
LINE
  5
831
330
1F
100
AcDbEntity
  8
3A
100
AcDbLine
 10
1618.013677479644
 20
1875.672316263353
 30
0.0
 11
1618.013677479644
 21
1865.672416263354
 31
0.0
  0
POINT
  5
832
330
1F
100
AcDbEntity
  8
0
 60
     1
100
AcDbPoint
 10
25758.32923796983
 20
3355.029233624656
 30
0.0
1001
GENIUS_GENODEF_13
1002
{
1000
HIER
1070
    10
1002
}
1002
{
1000
MANEDIT
1070
     0
1002
}
1002
{
1000
NOSEL
1070
     0
1002
}
1002
{
1000
BEHIND
1070
     0
1002
}
1002
{
1000
OTHER
1070
     0
1002
}
1002
{
1000
REACTOR
1002
}
1001
GENIUS_GENOLIS_13
1002
{
1000
ENT
1005
683
1005
682
1005
681
1005
680
1002
}
1001
GENIUS_GENOBJ-N-CRS_13
1002
{
1000
OWNER
1000
GEN
1002
}
1001
GENIUS_GENOENT_13
1002
{
1000
MYREF
1005
832
1002
}
1002
{
1000
GRP
1005
0
1002
}
  0
ENDSEC
  0
SECTION
  2
OBJECTS
  0
DICTIONARY
  5
C
330
0
100
AcDbDictionary
281
     1
  3
ACAD_COLOR
350
D7
  3
ACAD_GROUP
350
D
  3
ACAD_LAYOUT
350
1A
  3
ACAD_MATERIAL
350
D6
  3
ACAD_MLINESTYLE
350
17
  3
ACAD_PLOTSETTINGS
350
19
  3
ACAD_PLOTSTYLENAME
350
E
  3
ACAD_TABLESTYLE
350
133
  3
ACDBHEADERROUNDTRIPXREC
350
873
  3
AcDbVariableDictionary
350
34
  3
AcmDictionary
350
49
  3
AMG
350
2B
  3
AMGSNAPSETTINGS
350
2C4
  3
DWGPROPS
350
872
  0
DICTIONARY
  5
C0
330
2
100
AcDbDictionary
280
     1
281
     1
  3
ACAD_LAYERSTATES
360
363
  3
AMLAYER_GROUPCOLORS
360
C1
  0
DICTIONARY
  5
83
330
1F
100
AcDbDictionary
280
     1
281
     1
  0
DICTIONARY
  5
65D
330
65C
100
AcDbDictionary
280
     1
281
     1
  3
ACAD_DIMASSOC
360
65E
  0
DICTIONARY
  5
660
330
65F
100
AcDbDictionary
280
     1
281
     1
  3
ACAD_DIMASSOC
360
661
  0
DICTIONARY
  5
663
330
662
100
AcDbDictionary
280
     1
281
     1
  3
ACAD_DIMASSOC
360
664
  0
DICTIONARY
  5
67E
330
67D
100
AcDbDictionary
280
     1
281
     1
  3
ACAD_DIMASSOC
360
67F
  0
DICTIONARY
  5
685
330
684
100
AcDbDictionary
280
     1
281
     1
  3
ACAD_DIMASSOC
360
686
  0
DICTIONARY
  5
D7
102
{ACAD_REACTORS
330
C
102
}
330
C
100
AcDbDictionary
281
     1
  0
DICTIONARY
  5
D
102
{ACAD_REACTORS
330
C
102
}
330
C
100
AcDbDictionary
281
     1
  0
DICTIONARY
  5
1A
102
{ACAD_REACTORS
330
C
102
}
330
C
100
AcDbDictionary
281
     1
  3
Layout1
350
1E
  3
Layout2
350
26
  3
Model
350
22
  0
DICTIONARY
  5
D6
102
{ACAD_REACTORS
330
C
102
}
330
C
100
AcDbDictionary
281
     1
  0
DICTIONARY
  5
17
102
{ACAD_REACTORS
330
C
102
}
330
C
100
AcDbDictionary
281
     1
  3
Standard
350
18
  0
DICTIONARY
  5
19
102
{ACAD_REACTORS
330
C
102
}
330
C
100
AcDbDictionary
281
     1
  0
ACDBDICTIONARYWDFLT
  5
E
102
{ACAD_REACTORS
330
C
102
}
330
C
100
AcDbDictionary
281
     1
  3
Normal
350
F
100
AcDbDictionaryWithDefault
340
F
  0
DICTIONARY
  5
133
102
{ACAD_REACTORS
330
C
102
}
330
C
100
AcDbDictionary
281
     1
  3
Standard
350
134
  0
DICTIONARY
  5
873
102
{ACAD_REACTORS
330
C
102
}
330
C
100
AcDbDictionary
281
     1
  0
DICTIONARY
  5
34
102
{ACAD_REACTORS
330
C
102
}
330
C
100
AcDbDictionary
281
     1
  3
CTABLESTYLE
350
152
  3
DIMASSOC
350
AD
  3
INDEXCTL
350
35
  3
PROJECTNAME
350
870
  0
DICTIONARY
  5
49
102
{ACAD_REACTORS
330
C
102
}
330
C
100
AcDbDictionary
281
     1
  3
AcmBOM
350
2CB
  3
AcmStdDictionary
350
4A
  3
AMDTSECTSYM_ARROWCOLOR
350
13D
  0
DICTIONARY
  5
2B
102
{ACAD_REACTORS
330
C
102
}
330
C
100
AcDbDictionary
281
     1
  0
DICTIONARY
  5
2C4
102
{ACAD_REACTORS
330
C
102
}
330
C
100
AcDbDictionary
281
     1
  0
XRECORD
  5
872
102
{ACAD_REACTORS
330
C
102
}
330
C
100
AcDbXrecord
280
     1
  1
DWGPROPS COOKIE
  2

  3

  4

  6

  7

  8

  9

300
AmdtFileType=84
301
=
302
=
303
=
304
=
305
=
306
=
307
=
308
=
309
=
 40
0.0002029050925926
 41
2454053.360596968
 42
2454053.360799687
  1

 90
        1
  0
DICTIONARY
  5
363
102
{ACAD_REACTORS
330
C0
102
}
330
C0
100
AcDbDictionary
281
     1
  0
DICTIONARY
  5
C1
102
{ACAD_REACTORS
330
C0
102
}
330
C0
100
AcDbDictionary
280
     1
281
     1
  0
DIMASSOC
  5
65E
102
{ACAD_REACTORS
330
65D
102
}
330
65D
100
AcDbDimAssoc
330
65C
 90
        3
 70
     0
 71
     0
  1
AcDbOsnapPointRef
 72
    13
331
657
 73
     0
 91
        0
 40
0.0
 10
0.0
 20
0.0
 30
2.000000000000000E+50
 75
     0
  1
AcDbOsnapPointRef
 72
    13
331
64F
 73
     0
 91
        0
 40
0.0
 10
0.0
 20
0.0
 30
2.000000000000000E+50
 75
     0
  0
DIMASSOC
  5
661
102
{ACAD_REACTORS
330
660
102
}
330
660
100
AcDbDimAssoc
330
65F
 90
        3
 70
     0
 71
     0
  1
AcDbOsnapPointRef
 72
    13
331
64D
 73
     0
 91
        0
 40
0.0
 10
0.0
 20
0.0
 30
2.000000000000000E+50
 75
     0
  1
AcDbOsnapPointRef
 72
    13
331
658
 73
     0
 91
        0
 40
0.0
 10
0.0
 20
0.0
 30
2.000000000000000E+50
 75
     0
  0
DIMASSOC
  5
664
102
{ACAD_REACTORS
330
663
102
}
330
663
100
AcDbDimAssoc
330
662
 90
        1
 70
     0
 71
     0
  1
AcDbOsnapPointRef
 72
    13
331
64D
 73
     0
 91
        0
 40
0.0
 10
0.0
 20
0.0
 30
2.000000000000000E+50
 75
     0
  0
DIMASSOC
  5
67F
102
{ACAD_REACTORS
330
67E
102
}
330
67E
100
AcDbDimAssoc
330
67D
 90
        3
 70
     0
 71
     0
  1
AcDbOsnapPointRef
 72
    13
331
656
 73
     0
 91
        0
 40
0.0
 10
0.0
 20
0.0
 30
2.000000000000000E+50
 75
     0
  1
AcDbOsnapPointRef
 72
    13
331
653
 73
     0
 91
        0
 40
0.0
 10
0.0
 20
0.0
 30
2.000000000000000E+50
 75
     0
  0
DIMASSOC
  5
686
102
{ACAD_REACTORS
330
685
102
}
330
685
100
AcDbDimAssoc
330
684
 90
        1
 70
     0
 71
     0
  1
AcDbOsnapPointRef
 72
    13
331
5DB
 73
     0
 91
        0
 40
0.0
 10
0.0
 20
0.0
 30
2.000000000000000E+50
 75
     0
  0
LAYOUT
  5
1E
102
{ACAD_XDICTIONARY
360
874
102
}
102
{ACAD_REACTORS
330
1A
102
}
330
1A
100
AcDbPlotSettings
  1

  2
none_device
  4
Letter_(8.50_x_11.00_Inches)
  6

 40
6.349999904632568
 41
6.349999904632568
 42
6.350006103515625
 43
6.350006103515625
 44
215.8999938964844
 45
279.3999938964844
 46
0.0
 47
0.0
 48
0.0
 49
0.0
140
0.0
141
0.0
142
1.0
143
1.0
 70
 15024
 72
     1
 73
     1
 74
     5
  7

 75
    16
147
1.0
148
0.0
149
0.0
100
AcDbLayout
  1
Layout1
 70
     1
 71
     1
 10
0.0
 20
0.0
 11
420.0
 21
297.0
 12
0.0
 22
0.0
 32
0.0
 14
1.000000000000000E+20
 24
1.000000000000000E+20
 34
1.000000000000000E+20
 15
-1.000000000000000E+20
 25
-1.000000000000000E+20
 35
-1.000000000000000E+20
146
0.0
 13
0.0
 23
0.0
 33
0.0
 16
1.0
 26
0.0
 36
0.0
 17
0.0
 27
1.0
 37
0.0
 76
     0
330
1B
  0
LAYOUT
  5
26
102
{ACAD_XDICTIONARY
360
878
102
}
102
{ACAD_REACTORS
330
1A
102
}
330
1A
100
AcDbPlotSettings
  1

  2
none_device
  4
Letter_(8.50_x_11.00_Inches)
  6

 40
6.349999904632568
 41
6.349999904632568
 42
6.350006103515625
 43
6.350006103515625
 44
215.8999938964844
 45
279.3999938964844
 46
0.0
 47
0.0
 48
0.0
 49
0.0
140
0.0
141
0.0
142
1.0
143
1.0
 70
 15024
 72
     1
 73
     1
 74
     5
  7

 75
    16
147
1.0
148
0.0
149
0.0
100
AcDbLayout
  1
Layout2
 70
     1
 71
     2
 10
0.0
 20
0.0
 11
12.0
 21
9.0
 12
0.0
 22
0.0
 32
0.0
 14
0.0
 24
0.0
 34
0.0
 15
0.0
 25
0.0
 35
0.0
146
0.0
 13
0.0
 23
0.0
 33
0.0
 16
1.0
 26
0.0
 36
0.0
 17
0.0
 27
1.0
 37
0.0
 76
     0
330
23
  0
LAYOUT
  5
22
102
{ACAD_XDICTIONARY
360
876
102
}
102
{ACAD_REACTORS
330
1A
102
}
330
1A
100
AcDbPlotSettings
  1

  2
none_device
  4
Letter_(8.50_x_11.00_Inches)
  6

 40
6.349999904632568
 41
6.349999904632568
 42
6.350006103515625
 43
6.350006103515625
 44
215.8999938964844
 45
279.3999938964844
 46
0.0
 47
0.0
 48
0.0
 49
0.0
140
0.0
141
0.0
142
1.0
143
1.0
 70
 11952
 72
     1
 73
     1
 74
     0
  7

 75
     0
147
1.0
148
-131.3052631578947
149
0.0
100
AcDbLayout
  1
Model
 70
     1
 71
     0
 10
0.0
 20
0.0
 11
12.0
 21
9.0
 12
0.0
 22
0.0
 32
0.0
 14
0.0
 24
0.0
 34
0.0
 15
0.0
 25
0.0
 35
0.0
146
0.0
 13
0.0
 23
0.0
 33
0.0
 16
1.0
 26
0.0
 36
0.0
 17
0.0
 27
1.0
 37
0.0
 76
     0
330
1F
  0
MLINESTYLE
  5
18
102
{ACAD_REACTORS
330
17
102
}
330
17
100
AcDbMlineStyle
  2
STANDARD
 70
     0
  3

 62
   256
 51
90.0
 52
90.0
 71
     2
 49
0.5
 62
   256
  6
BYLAYER
 49
-0.5
 62
   256
  6
BYLAYER
  0
ACDBPLACEHOLDER
  5
F
102
{ACAD_REACTORS
330
E
102
}
330
E
  0
TABLESTYLE
  5
134
102
{ACAD_REACTORS
330
133
102
}
330
133
100
AcDbTableStyle
  3
Standard
 70
     0
 71
     0
 40
1.5
 41
1.5
280
     0
281
     0
  7
STANDARD
140
4.5
170
     2
 62
     0
 63
     7
283
     0
274
    -2
284
     1
 64
     0
275
    -2
285
     1
 65
     0
276
    -2
286
     1
 66
     0
277
    -2
287
     1
 67
     0
278
    -2
288
     1
 68
     0
279
    -2
289
     1
 69
     0
  7
STANDARD
140
6.0
170
     5
 62
     0
 63
     7
283
     0
274
    -2
284
     1
 64
     0
275
    -2
285
     1
 65
     0
276
    -2
286
     1
 66
     0
277
    -2
287
     1
 67
     0
278
    -2
288
     1
 68
     0
279
    -2
289
     1
 69
     0
  7
STANDARD
140
4.5
170
     5
 62
     0
 63
     7
283
     0
274
    -2
284
     1
 64
     0
275
    -2
285
     1
 65
     0
276
    -2
286
     1
 66
     0
277
    -2
287
     1
 67
     0
278
    -2
288
     1
 68
     0
279
    -2
289
     1
 69
     0
  0
DICTIONARYVAR
  5
152
102
{ACAD_REACTORS
330
34
102
}
330
34
100
DictionaryVariables
280
     0
  1
STANDARD
  0
DICTIONARYVAR
  5
AD
102
{ACAD_REACTORS
330
34
102
}
330
34
100
DictionaryVariables
280
     0
  1
2
  0
DICTIONARYVAR
  5
35
102
{ACAD_REACTORS
330
34
102
}
330
34
100
DictionaryVariables
280
     0
  1
0
  0
DICTIONARYVAR
  5
870
102
{ACAD_REACTORS
330
34
102
}
330
34
100
DictionaryVariables
280
     0
  1

  0
DICTIONARY
  5
2CB
102
{ACAD_REACTORS
330
49
102
}
330
49
100
AcDbDictionary
281
     1
  0
DICTIONARY
  5
4A
102
{ACAD_REACTORS
330
49
102
}
330
49
100
AcDbDictionary
281
     1
  0
XRECORD
  5
13D
102
{ACAD_REACTORS
330
49
102
}
330
49
100
AcDbXrecord
280
     1
 90
-1023410169
  0
DICTIONARY
  5
874
330
1E
100
AcDbDictionary
280
     1
281
     1
  3
ACAD_XREC_ROUNDTRIP
360
875
  0
DICTIONARY
  5
878
330
26
100
AcDbDictionary
280
     1
281
     1
  3
ACAD_XREC_ROUNDTRIP
360
879
  0
DICTIONARY
  5
876
330
22
100
AcDbDictionary
280
     1
281
     1
  3
ACAD_XREC_ROUNDTRIP
360
877
  0
XRECORD
  5
875
102
{ACAD_REACTORS
330
874
102
}
330
874
100
AcDbXrecord
280
     1
102
SHADEPLOT
 70
     0
102
SHADEPLOTRESLEVEL
 70
     2
102
SHADEPLOTCUSTOMDPI
 70
   300
  0
XRECORD
  5
879
102
{ACAD_REACTORS
330
878
102
}
330
878
100
AcDbXrecord
280
     1
102
SHADEPLOT
 70
     0
102
SHADEPLOTRESLEVEL
 70
     2
102
SHADEPLOTCUSTOMDPI
 70
   300
  0
XRECORD
  5
877
102
{ACAD_REACTORS
330
876
102
}
330
876
100
AcDbXrecord
280
     1
102
SHADEPLOT
 70
     0
102
SHADEPLOTRESLEVEL
 70
     2
102
SHADEPLOTCUSTOMDPI
 70
   300
  0
ENDSEC
  0
EOF
