  0
SECTION
  2
HEADER
  9
$ACADVER
  1
AC1015
  9
$ACADMAINTVER
 70
     6
  9
$DWGCODEPAGE
  3
ANSI_1252
  9
$INSBASE
 10
0.0
 20
0.0
 30
0.0
  9
$EXTMIN
 10
0.0
 20
0.0
 30
0.0
  9
$EXTMAX
 10
420.0
 20
297.0
 30
0.0
  9
$LIMMIN
 10
0.0
 20
0.0
  9
$LIMMAX
 10
420.0
 20
297.0
  9
$ORTHOMODE
 70
     0
  9
$REGENMODE
 70
     1
  9
$FILLMODE
 70
     1
  9
$QTEXTMODE
 70
     0
  9
$MIRRTEXT
 70
     1
  9
$LTSCALE
 40
1.0
  9
$ATTMODE
 70
     1
  9
$TEXTSIZE
 40
3.5
  9
$TRACEWID
 40
1.0
  9
$TEXTSTYLE
  7
Standard
  9
$CLAYER
  8
0
  9
$CELTYPE
  6
ByLayer
  9
$CECOLOR
 62
   256
  9
$CELTSCALE
 40
1.0
  9
$DISPSILH
 70
     0
  9
$DIMSCALE
 40
1.0
  9
$DIMASZ
 40
3.5
  9
$DIMEXO
 40
0.1
  9
$DIMDLI
 40
3.75
  9
$DIMRND
 40
0.0
  9
$DIMDLE
 40
0.0
  9
$DIMEXE
 40
1.0
  9
$DIMTP
 40
0.0
  9
$DIMTM
 40
0.0
  9
$DIMTXT
 40
3.5
  9
$DIMCEN
 40
2.5
  9
$DIMTSZ
 40
0.0
  9
$DIMTOL
 70
     0
  9
$DIMLIM
 70
     0
  9
$DIMTIH
 70
     1
  9
$DIMTOH
 70
     1
  9
$DIMSE1
 70
     0
  9
$DIMSE2
 70
     0
  9
$DIMTAD
 70
     1
  9
$DIMZIN
 70
     0
  9
$DIMBLK
  1

  9
$DIMASO
 70
     1
  9
$DIMSHO
 70
     1
  9
$DIMPOST
  1

  9
$DIMAPOST
  1

  9
$DIMALT
 70
     0
  9
$DIMALTD
 70
     3
  9
$DIMALTF
 40
0.0393700787
  9
$DIMLFAC
 40
1.0
  9
$DIMTOFL
 70
     1
  9
$DIMTVP
 40
0.0
  9
$DIMTIX
 70
     0
  9
$DIMSOXD
 70
     0
  9
$DIMSAH
 70
     0
  9
$DIMBLK1
  1

  9
$DIMBLK2
  1

  9
$DIMSTYLE
  2
ISO-25
  9
$DIMCLRD
 70
     0
  9
$DIMCLRE
 70
     0
  9
$DIMCLRT
 70
     0
  9
$DIMTFAC
 40
1.0
  9
$DIMGAP
 40
2.0
  9
$DIMJUST
 70
     0
  9
$DIMSD1
 70
     0
  9
$DIMSD2
 70
     0
  9
$DIMTOLJ
 70
     0
  9
$DIMTZIN
 70
     0
  9
$DIMALTZ
 70
     0
  9
$DIMALTTZ
 70
     0
  9
$DIMUPT
 70
     0
  9
$DIMDEC
 70
     2
  9
$DIMTDEC
 70
     3
  9
$DIMALTU
 70
     2
  9
$DIMALTTD
 70
     3
  9
$DIMTXSTY
  7
Standard
  9
$DIMAUNIT
 70
     0
  9
$DIMADEC
 70
     2
  9
$DIMALTRND
 40
0.0
  9
$DIMAZIN
 70
     0
  9
$DIMDSEP
 70
    44
  9
$DIMATFIT
 70
     3
  9
$DIMFRAC
 70
     0
  9
$DIMLDRBLK
  1

  9
$DIMLUNIT
 70
     2
  9
$DIMLWD
 70
    -2
  9
$DIMLWE
 70
    -2
  9
$DIMTMOVE
 70
     0
  9
$LUNITS
 70
     2
  9
$LUPREC
 70
     2
  9
$SKETCHINC
 40
1.0
  9
$FILLETRAD
 40
10.0
  9
$AUNITS
 70
     0
  9
$AUPREC
 70
     2
  9
$MENU
  1
.
  9
$ELEVATION
 40
0.0
  9
$PELEVATION
 40
0.0
  9
$THICKNESS
 40
0.0
  9
$LIMCHECK
 70
     0
  9
$CHAMFERA
 40
0.0
  9
$CHAMFERB
 40
0.0
  9
$CHAMFERC
 40
0.0
  9
$CHAMFERD
 40
0.0
  9
$SKPOLY
 70
     0
  9
$TDCREATE
 40
2460206.696091968
  9
$TDUCREATE
 40
2460206.612758634
  9
$TDUPDATE
 40
2460206.696100289
  9
$TDUUPDATE
 40
2460206.612766956
  9
$TDINDWG
 40
0.0000000116
  9
$TDUSRTIMER
 40
0.0000000116
  9
$USRTIMER
 70
     1
  9
$ANGBASE
 50
0.0
  9
$ANGDIR
 70
     0
  9
$PDMODE
 70
     0
  9
$PDSIZE
 40
-1.0
  9
$PLINEWID
 40
0.0
  9
$SPLFRAME
 70
     0
  9
$SPLINETYPE
 70
     6
  9
$SPLINESEGS
 70
     8
  9
$HANDSEED
  5
327
  9
$SURFTAB1
 70
     6
  9
$SURFTAB2
 70
     6
  9
$SURFTYPE
 70
     6
  9
$SURFU
 70
     6
  9
$SURFV
 70
     6
  9
$UCSBASE
  2

  9
$UCSNAME
  2

  9
$UCSORG
 10
0.0
 20
0.0
 30
0.0
  9
$UCSXDIR
 10
1.0
 20
0.0
 30
0.0
  9
$UCSYDIR
 10
0.0
 20
1.0
 30
0.0
  9
$UCSORTHOREF
  2

  9
$UCSORTHOVIEW
 70
     0
  9
$UCSORGTOP
 10
0.0
 20
0.0
 30
0.0
  9
$UCSORGBOTTOM
 10
0.0
 20
0.0
 30
0.0
  9
$UCSORGLEFT
 10
0.0
 20
0.0
 30
0.0
  9
$UCSORGRIGHT
 10
0.0
 20
0.0
 30
0.0
  9
$UCSORGFRONT
 10
0.0
 20
0.0
 30
0.0
  9
$UCSORGBACK
 10
0.0
 20
0.0
 30
0.0
  9
$PUCSBASE
  2

  9
$PUCSNAME
  2

  9
$PUCSORG
 10
0.0
 20
0.0
 30
0.0
  9
$PUCSXDIR
 10
1.0
 20
0.0
 30
0.0
  9
$PUCSYDIR
 10
0.0
 20
1.0
 30
0.0
  9
$PUCSORTHOREF
  2

  9
$PUCSORTHOVIEW
 70
     0
  9
$PUCSORGTOP
 10
0.0
 20
0.0
 30
0.0
  9
$PUCSORGBOTTOM
 10
0.0
 20
0.0
 30
0.0
  9
$PUCSORGLEFT
 10
0.0
 20
0.0
 30
0.0
  9
$PUCSORGRIGHT
 10
0.0
 20
0.0
 30
0.0
  9
$PUCSORGFRONT
 10
0.0
 20
0.0
 30
0.0
  9
$PUCSORGBACK
 10
0.0
 20
0.0
 30
0.0
  9
$USERI1
 70
     0
  9
$USERI2
 70
     0
  9
$USERI3
 70
     0
  9
$USERI4
 70
     0
  9
$USERI5
 70
     0
  9
$USERR1
 40
0.0
  9
$USERR2
 40
0.0
  9
$USERR3
 40
0.0
  9
$USERR4
 40
0.0
  9
$USERR5
 40
0.0
  9
$WORLDVIEW
 70
     1
  9
$SHADEDGE
 70
     3
  9
$SHADEDIF
 70
    70
  9
$TILEMODE
 70
     1
  9
$MAXACTVP
 70
    64
  9
$PINSBASE
 10
0.0
 20
0.0
 30
0.0
  9
$PLIMCHECK
 70
     0
  9
$PEXTMIN
 10
1.0000000000E+20
 20
1.0000000000E+20
 30
1.0000000000E+20
  9
$PEXTMAX
 10
-1.0000000000E+20
 20
-1.0000000000E+20
 30
-1.0000000000E+20
  9
$PLIMMIN
 10
0.0
 20
0.0
  9
$PLIMMAX
 10
420.0
 20
297.0
  9
$UNITMODE
 70
     0
  9
$VISRETAIN
 70
     1
  9
$PLINEGEN
 70
     0
  9
$PSLTSCALE
 70
     1
  9
$TREEDEPTH
 70
  3020
  9
$CMLSTYLE
  2
Standard
  9
$CMLJUST
 70
     0
  9
$CMLSCALE
 40
20.0
  9
$PROXYGRAPHICS
 70
     1
  9
$MEASUREMENT
 70
     1
  9
$CELWEIGHT
370
    -1
  9
$ENDCAPS
280
     0
  9
$JOINSTYLE
280
     0
  9
$LWDISPLAY
290
     1
  9
$INSUNITS
 70
     4
  9
$HYPERLINKBASE
  1

  9
$STYLESHEET
  1

  9
$XEDIT
290
     1
  9
$CEPSNTYPE
380
     0
  9
$PSTYLEMODE
290
     1
  9
$FINGERPRINTGUID
  2
{38394b66-f504-4d90-8ab6-80d71b11c079}
  9
$VERSIONGUID
  2
{FAEB1C32-E019-11D5-929B-00C0DF256EC4}
  9
$EXTNAMES
290
     1
  9
$PSVPSCALE
 40
0.0
  9
$OLESTARTUP
290
     0
  0
ENDSEC
  0
SECTION
  2
CLASSES
  0
CLASS
  1
ACDBDICTIONARYWDFLT
  2
AcDbDictionaryWithDefault
  3
ObjectDBX Classes
 90
        0
280
     0
281
     0
  0
CLASS
  1
VISUALSTYLE
  2
AcDbVisualStyle
  3
ObjectDBX Classes
 90
     4095
280
     0
281
     0
  0
CLASS
  1
MATERIAL
  2
AcDbMaterial
  3
ObjectDBX Classes
 90
     1153
280
     0
281
     0
  0
CLASS
  1
SCALE
  2
AcDbScale
  3
ObjectDBX Classes
 90
     1153
280
     0
281
     0
  0
CLASS
  1
TABLESTYLE
  2
AcDbTableStyle
  3
ObjectDBX Classes
 90
     4095
280
     0
281
     0
  0
CLASS
  1
MLEADERSTYLE
  2
AcDbMLeaderStyle
  3
ACDB_MLEADERSTYLE_CLASS
 90
     4095
280
     0
281
     0
  0
CLASS
  1
SUN
  2
AcDbSun
  3
SCENEOE
 90
     1153
280
     0
281
     0
  0
CLASS
  1
ACDBPLACEHOLDER
  2
AcDbPlaceHolder
  3
ObjectDBX Classes
 90
        0
280
     0
281
     0
  0
CLASS
  1
LAYOUT
  2
AcDbLayout
  3
ObjectDBX Classes
 90
        0
280
     0
281
     0
  0
ENDSEC
  0
SECTION
  2
TABLES
  0
TABLE
  2
VPORT
  5
8
330
0
100
AcDbSymbolTable
 70
     1
  0
VPORT
  5
29
330
8
100
AcDbSymbolTableRecord
100
AcDbViewportTableRecord
  2
*Active
 70
     0
 10
0.0
 20
0.0
 11
1.0
 21
1.0
 12
210.0
 22
148.5
 13
0.0
 23
0.0
 14
10.0
 24
10.0
 15
10.0
 25
10.0
 16
0.0
 26
0.0
 36
1.0
 17
0.0
 27
0.0
 37
0.0
 40
297.0
 41
1.4141414141
 42
50.0
 43
0.0
 44
0.0
 50
0.0
 51
0.0
 71
     0
 72
  2000
 73
     1
 74
     3
 75
     0
 76
     0
 77
     0
 78
     0
281
     0
 65
     1
110
0.0
120
0.0
130
0.0
111
1.0
121
0.0
131
0.0
112
0.0
122
1.0
132
0.0
 79
     0
146
0.0
  0
ENDTAB
  0
TABLE
  2
LTYPE
  5
5
330
0
100
AcDbSymbolTable
 70
     6
  0
LTYPE
  5
14
330
5
100
AcDbSymbolTableRecord
100
AcDbLinetypeTableRecord
  2
ByBlock
 70
     0
  3

 72
    65
 73
     0
 40
0.0
  0
LTYPE
  5
15
330
5
100
AcDbSymbolTableRecord
100
AcDbLinetypeTableRecord
  2
ByLayer
 70
     0
  3

 72
    65
 73
     0
 40
0.0
  0
LTYPE
  5
16
330
5
100
AcDbSymbolTableRecord
100
AcDbLinetypeTableRecord
  2
Continuous
 70
     0
  3
Solid line
 72
    65
 73
     0
 40
0.0
  0
LTYPE
  5
6E
330
5
100
AcDbSymbolTableRecord
100
AcDbLinetypeTableRecord
  2
HIDDEN
 70
     0
  3
Hidden __ __ __ __ __ __ __ __ __ __ __ __ __ __
 72
    65
 73
     2
 40
1.905
 49
1.27
 74
     0
 49
-0.635
 74
     0
  0
LTYPE
  5
6F
330
5
100
AcDbSymbolTableRecord
100
AcDbLinetypeTableRecord
  2
PHANTOM
 70
     0
  3
Phantom ______  __  __  ______  __  __  ______
 72
    65
 73
     6
 40
12.7
 49
6.35
 74
     0
 49
-1.27
 74
     0
 49
1.27
 74
     0
 49
-1.27
 74
     0
 49
1.27
 74
     0
 49
-1.27
 74
     0
  0
LTYPE
  5
70
330
5
100
AcDbSymbolTableRecord
100
AcDbLinetypeTableRecord
  2
CENTER
 70
     0
  3
Center ____ _ ____ _ ____ _ ____ _ ____ _ ____
 72
    65
 73
     4
 40
10.16
 49
6.35
 74
     0
 49
-1.27
 74
     0
 49
1.27
 74
     0
 49
-1.27
 74
     0
  0
LTYPE
  5
71
330
5
100
AcDbSymbolTableRecord
100
AcDbLinetypeTableRecord
  2
CENTERX2
 70
     0
  3
Center (2x) ________  __  ________  __  _____
 72
    65
 73
     4
 40
20.32
 49
12.7
 74
     0
 49
-2.54
 74
     0
 49
2.54
 74
     0
 49
-2.54
 74
     0
  0
LTYPE
  5
72
330
5
100
AcDbSymbolTableRecord
100
AcDbLinetypeTableRecord
  2
DOT2
 70
     0
  3
Dot (.5x) ........................................
 72
    65
 73
     2
 40
0.635
 49
0.0
 74
     0
 49
-0.635
 74
     0
  0
ENDTAB
  0
TABLE
  2
LAYER
  5
2
330
0
100
AcDbSymbolTable
 70
     9
  0
LAYER
  5
10
330
2
100
AcDbSymbolTableRecord
100
AcDbLayerTableRecord
  2
0
 70
     0
 62
     7
  6
Continuous
370
    -3
390
F
  0
LAYER
  5
73
330
2
100
AcDbSymbolTableRecord
100
AcDbLayerTableRecord
  2
VORLAGE_TEXT
 70
     0
 62
     7
  6
Continuous
370
    -3
390
F
  0
LAYER
  5
74
330
2
100
AcDbSymbolTableRecord
100
AcDbLayerTableRecord
  2
VORLAGE_BEMASSUNG
 70
     0
 62
    -5
  6
Continuous
290
     0
370
    -3
390
F
  0
LAYER
  5
75
330
2
100
AcDbSymbolTableRecord
100
AcDbLayerTableRecord
  2
TEXT
 70
     0
 62
     7
  6
Continuous
370
    -3
390
F
  0
LAYER
  5
76
330
2
100
AcDbSymbolTableRecord
100
AcDbLayerTableRecord
  2
LINIEN-DICK
 70
     0
 62
     7
  6
Continuous
370
    35
390
F
  0
LAYER
  5
77
330
2
100
AcDbSymbolTableRecord
100
AcDbLayerTableRecord
  2
LINIEN-NORMAL
 70
     0
 62
     7
  6
Continuous
370
    25
390
F
  0
LAYER
  5
78
330
2
100
AcDbSymbolTableRecord
100
AcDbLayerTableRecord
  2
LINIEN-DÜNN
 70
     0
 62
     7
  6
Continuous
370
    -3
390
F
  0
LAYER
  5
79
330
2
100
AcDbSymbolTableRecord
100
AcDbLayerTableRecord
  2
TEXT-DEUTSCH
 70
     0
 62
     7
  6
Continuous
370
    -3
390
F
  0
LAYER
  5
7A
330
2
100
AcDbSymbolTableRecord
100
AcDbLayerTableRecord
  2
TEXT-ENGLISCH
 70
     0
 62
    -7
  6
Continuous
290
     0
370
    -3
390
F
  0
ENDTAB
  0
TABLE
  2
STYLE
  5
3
330
0
100
AcDbSymbolTable
 70
     3
  0
STYLE
  5
11
330
3
100
AcDbSymbolTableRecord
100
AcDbTextStyleTableRecord
  2
Standard
 70
     0
 40
0.0
 41
1.0
 50
0.0
 71
     0
 42
3.5
  3
txt
  4

  0
STYLE
  5
F1
330
3
100
AcDbSymbolTableRecord
100
AcDbTextStyleTableRecord
  2
SLDTEXTSTYLE0
 70
     0
 40
0.0
 41
0.605
 50
0.0
 71
     0
 42
3.5
  3
TXT
  4

  0
STYLE
  5
19E
330
3
100
AcDbSymbolTableRecord
100
AcDbTextStyleTableRecord
  2
SLDTEXTSTYLE1
 70
     0
 40
0.0
 41
0.563
 50
0.0
 71
     0
 42
3.5
  3
TXT
  4

  0
ENDTAB
  0
TABLE
  2
VIEW
  5
6
330
0
100
AcDbSymbolTable
 70
     0
  0
ENDTAB
  0
TABLE
  2
UCS
  5
7
330
0
100
AcDbSymbolTable
 70
     0
  0
ENDTAB
  0
TABLE
  2
APPID
  5
9
330
0
100
AcDbSymbolTable
 70
     1
  0
APPID
  5
12
330
9
100
AcDbSymbolTableRecord
100
AcDbRegAppTableRecord
  2
ACAD
 70
     0
  0
ENDTAB
  0
TABLE
  2
DIMSTYLE
  5
A
330
0
100
AcDbSymbolTable
 70
     4
100
AcDbDimStyleTable
  0
DIMSTYLE
105
27
330
A
100
AcDbSymbolTableRecord
100
AcDbDimStyleTableRecord
  2
ISO-25
 70
     0
 41
2.5
 42
0.625
 43
3.75
 44
1.25
 73
     0
 74
     0
 77
     1
 78
     8
140
2.5
141
2.5
143
0.0393700787
147
0.625
171
     3
172
     1
178
     0
271
     2
272
     2
274
     3
278
    44
283
     0
284
     8
340
11
  0
DIMSTYLE
105
1B6
102
{ACAD_REACTORS
330
1B5
102
}
330
A
100
AcDbSymbolTableRecord
100
AcDbDimStyleTableRecord
  2
SLDDIMSTYLE0
 70
     0
 41
3.5
 44
0.0
 45
0.000000001
 73
     0
 74
     0
 77
     1
 78
    12
 79
     3
140
3.5
141
0.0
147
0.875
173
     1
178
     0
271
     2
272
     3
276
     2
284
    12
340
F1
  0
DIMSTYLE
105
1BF
102
{ACAD_REACTORS
330
1BE
102
}
330
A
100
AcDbSymbolTableRecord
100
AcDbDimStyleTableRecord
  2
SLDDIMSTYLE1
 70
     0
 41
3.5
 44
0.0
 45
0.000000001
 73
     0
 74
     0
 77
     1
 78
    12
 79
     3
140
3.5
141
0.0
147
0.875
172
     1
173
     1
178
     0
271
     0
272
     3
276
     2
284
    12
340
F1
  0
DIMSTYLE
105
29B
102
{ACAD_REACTORS
330
29A
102
}
330
A
100
AcDbSymbolTableRecord
100
AcDbDimStyleTableRecord
  2
SLDDIMSTYLE2
 70
     0
 41
3.5
 44
0.0
 45
0.000000001
 73
     0
 74
     0
 77
     1
 78
    12
 79
     3
140
3.5
147
0.875
173
     1
178
     0
271
     1
272
     3
276
     2
284
    12
340
F1
  0
ENDTAB
  0
TABLE
  2
BLOCK_RECORD
  5
1
330
0
100
AcDbSymbolTable
 70
    10
  0
BLOCK_RECORD
  5
1F
330
1
100
AcDbSymbolTableRecord
100
AcDbBlockTableRecord
  2
*Model_Space
340
22
  0
BLOCK_RECORD
  5
1B
330
1
100
AcDbSymbolTableRecord
100
AcDbBlockTableRecord
  2
*Paper_Space
340
1E
  0
BLOCK_RECORD
  5
23
330
1
100
AcDbSymbolTableRecord
100
AcDbBlockTableRecord
  2
*Paper_Space0
340
26
  0
BLOCK_RECORD
  5
7B
330
1
100
AcDbSymbolTableRecord
100
AcDbBlockTableRecord
  2
ACO-Logo
340
0
102
{BLKREFS
331
151
102
}
  0
BLOCK_RECORD
  5
EE
330
1
100
AcDbSymbolTableRecord
100
AcDbBlockTableRecord
  2
SW_NOTE_0
340
0
102
{BLKREFS
331
F3
102
}
  0
BLOCK_RECORD
  5
F4
330
1
100
AcDbSymbolTableRecord
100
AcDbBlockTableRecord
  2
SW_NOTE_0_1
340
0
102
{BLKREFS
331
F8
102
}
  0
BLOCK_RECORD
  5
F9
330
1
100
AcDbSymbolTableRecord
100
AcDbBlockTableRecord
  2
SW_NOTE_0_2
340
0
102
{BLKREFS
331
100
102
}
  0
BLOCK_RECORD
  5
178
330
1
100
AcDbSymbolTableRecord
100
AcDbBlockTableRecord
  2
SW_NOTE_0_3
340
0
102
{BLKREFS
331
180
102
}
  0
BLOCK_RECORD
  5
1B7
330
1
100
AcDbSymbolTableRecord
100
AcDbBlockTableRecord
  2
_D
340
0
  0
BLOCK_RECORD
  5
1C0
330
1
100
AcDbSymbolTableRecord
100
AcDbBlockTableRecord
  2
_D_1
340
0
  0
BLOCK_RECORD
  5
1C9
330
1
100
AcDbSymbolTableRecord
100
AcDbBlockTableRecord
  2
SW_CENTERMARKSYMBOL_0
340
0
102
{BLKREFS
331
1D4
102
}
  0
BLOCK_RECORD
  5
29C
330
1
100
AcDbSymbolTableRecord
100
AcDbBlockTableRecord
  2
_D_2
340
0
  0
ENDTAB
  0
ENDSEC
  0
SECTION
  2
BLOCKS
  0
BLOCK
  5
20
330
1F
100
AcDbEntity
  8
0
100
AcDbBlockBegin
  2
*Model_Space
 70
     0
 10
0.0
 20
0.0
 30
0.0
  3
*Model_Space
  1

  0
ENDBLK
  5
21
330
1F
100
AcDbEntity
  8
0
100
AcDbBlockEnd
  0
BLOCK
  5
1C
330
1B
100
AcDbEntity
 67
     1
  8
0
100
AcDbBlockBegin
  2
*Paper_Space
 70
     0
 10
0.0
 20
0.0
 30
0.0
  3
*Paper_Space
  1

  0
ENDBLK
  5
1D
330
1B
100
AcDbEntity
 67
     1
  8
0
100
AcDbBlockEnd
  0
BLOCK
  5
24
330
23
100
AcDbEntity
  8
0
100
AcDbBlockBegin
  2
*Paper_Space0
 70
     0
 10
0.0
 20
0.0
 30
0.0
  3
*Paper_Space0
  1

  0
ENDBLK
  5
25
330
23
100
AcDbEntity
  8
0
100
AcDbBlockEnd
  0
BLOCK
  5
7C
330
7B
100
AcDbEntity
  8
0
100
AcDbBlockBegin
  2
ACO-Logo
 70
     0
 10
0.0
 20
0.0
 30
0.0
  3
ACO-Logo
  1

  0
ARC
  5
7E
330
7B
100
AcDbEntity
  8
0
  6
Continuous
 62
   179
370
    18
100
AcDbCircle
 10
80.3853261169
 20
4.9940995715
 30
0.0
 40
0.3000000000000441
100
AcDbArc
 50
181.9349323096
 51
274.6062978506
  0
ARC
  5
7F
330
7B
100
AcDbEntity
  8
0
  6
Continuous
 62
   179
370
    18
100
AcDbCircle
 10
81.2359083165
 20
2.1946665956
 30
0.0
 40
1.000000000000021
100
AcDbArc
 50
221.4087409628
 51
276.0561297228
  0
ARC
  5
80
330
7B
100
AcDbEntity
  8
0
  6
Continuous
 62
   179
370
    18
100
AcDbCircle
 10
79.1360017163
 20
3.654242048
 30
0.0
 40
0.300000000000004
100
AcDbArc
 50
181.2730300201
 51
274.4996077095
  0
ARC
  5
81
330
7B
100
AcDbEntity
  8
0
  6
Continuous
 62
   179
370
    18
100
AcDbCircle
 10
78.7699033484
 20
3.2873137407
 30
0.0
 40
0.4000000000000358
100
AcDbArc
 50
221.0090869016
 51
274.5606296317
  0
ARC
  5
82
330
7B
100
AcDbEntity
  8
0
  6
Continuous
 62
   179
370
    18
100
AcDbCircle
 10
91.2333953062
 20
4.6062442307
 30
0.0
 40
0.3000000000000493
100
AcDbArc
 50
274.4996077095
 51
3.7249371334
  0
ARC
  5
83
330
7B
100
AcDbEntity
  8
0
  6
Continuous
 62
   179
370
    18
100
AcDbCircle
 10
81.5287571045
 20
9.7648973508
 30
0.0
 40
1.00000000000002
100
AcDbArc
 50
93.1134387481
 51
181.9414863909
  0
ARC
  5
84
330
7B
100
AcDbEntity
  8
0
  6
Continuous
 62
   179
370
    18
100
AcDbCircle
 10
81.6051675115
 20
7.5107903456
 30
0.0
 40
1.0
100
AcDbArc
 50
181.9414863909
 51
274.398705355
  0
ARC
  5
85
330
7B
100
AcDbEntity
  8
0
  6
Continuous
 62
   179
370
    18
100
AcDbCircle
 10
80.1506905656
 20
11.9393118923
 30
0.0
 40
0.300000000000045
100
AcDbArc
 50
93.0418421566
 51
181.9349323096
  0
ARC
  5
86
330
7B
100
AcDbEntity
  8
0
  6
Continuous
 62
   179
370
    18
100
AcDbCircle
 10
78.1879722102
 20
12.3499352608
 30
0.0
 40
0.7999999999953393
100
AcDbArc
 50
92.6995697565
 51
148.2554209065
  0
ARC
  5
87
330
7B
100
AcDbEntity
  8
0
  6
Continuous
 62
   179
370
    18
100
AcDbCircle
 10
78.930862229
 20
12.8855189761
 30
0.0
 40
0.3000000000000031
100
AcDbArc
 50
92.6995697565
 51
181.2730300201
  0
ARC
  5
88
330
7B
100
AcDbEntity
  8
0
  6
Continuous
 62
   179
370
    18
100
AcDbCircle
 10
82.327743407
 20
9.8083568568
 30
0.0
 40
1.000000000000034
100
AcDbArc
 50
1.9414863909
 51
93.1134387481
  0
ARC
  5
89
330
7B
100
AcDbEntity
  8
0
  6
Continuous
 62
   179
370
    18
100
AcDbCircle
 10
81.5287571045
 20
9.7648973508
 30
0.0
 40
0.3625000000000009
100
AcDbArc
 50
93.1134387481
 51
181.9414863909
  0
ARC
  5
8A
330
7B
100
AcDbEntity
  8
0
  6
Continuous
 62
   179
370
    18
100
AcDbCircle
 10
82.327743407
 20
9.8083568568
 30
0.0
 40
0.3625000000000146
100
AcDbArc
 50
1.9414863909
 51
93.1134387481
  0
ARC
  5
8B
330
7B
100
AcDbEntity
  8
0
  6
Continuous
 62
   179
370
    18
100
AcDbCircle
 10
82.4035451983
 20
7.5722040138
 30
0.0
 40
1.000000000000008
100
AcDbArc
 50
274.398705355
 51
1.9414863909
  0
ARC
  5
8C
330
7B
100
AcDbEntity
  8
0
  6
Continuous
 62
   179
370
    18
100
AcDbCircle
 10
82.4035451983
 20
7.5722040138
 30
0.0
 40
0.3625000000000068
100
AcDbArc
 50
274.398705355
 51
1.9414863909
  0
ARC
  5
8D
330
7B
100
AcDbEntity
  8
0
  6
Continuous
 62
   179
370
    18
100
AcDbCircle
 10
81.6051675115
 20
7.5107903456
 30
0.0
 40
0.3625000000000111
100
AcDbArc
 50
181.9414863909
 51
274.398705355
  0
ARC
  5
8E
330
7B
100
AcDbEntity
  8
0
  6
Continuous
 62
   179
370
    18
100
AcDbCircle
 10
88.825822761
 20
8.0662148274
 30
0.0
 40
0.9999999999999997
100
AcDbArc
 50
274.398705355
 51
2.6541955134
  0
ARC
  5
8F
330
7B
100
AcDbEntity
  8
0
  6
Continuous
 62
   179
370
    18
100
AcDbCircle
 10
90.1578295581
 20
5.7814576687
 30
0.0
 40
0.3000000000000043
100
AcDbArc
 50
274.6062978507
 51
2.5147526475
  0
ARC
  5
90
330
7B
100
AcDbEntity
  8
0
  6
Continuous
 62
   179
370
    18
100
AcDbCircle
 10
88.825822761
 20
8.0662148274
 30
0.0
 40
0.3625000000000083
100
AcDbArc
 50
274.398705355
 51
2.6541955134
  0
ARC
  5
91
330
7B
100
AcDbEntity
  8
0
  6
Continuous
 62
   179
370
    18
100
AcDbCircle
 10
88.728529747
 20
10.16496413
 30
0.0
 40
1.000000000000001
100
AcDbArc
 50
2.6541955134
 51
93.1134387481
  0
ARC
  5
92
330
7B
100
AcDbEntity
  8
0
  6
Continuous
 62
   179
370
    18
100
AcDbCircle
 10
88.728529747
 20
10.16496413
 30
0.0
 40
0.3625000000000085
100
AcDbArc
 50
2.6541955134
 51
93.1134387481
  0
ARC
  5
93
330
7B
100
AcDbEntity
  8
0
  6
Continuous
 62
   179
370
    18
100
AcDbCircle
 10
89.8647121341
 20
12.455515937
 30
0.0
 40
0.2999999999999984
100
AcDbArc
 50
2.5147526475
 51
93.0418421566
  0
ARC
  5
94
330
7B
100
AcDbEntity
  8
0
  6
Continuous
 62
   179
370
    18
100
AcDbCircle
 10
90.6583795404
 20
13.4384863935
 30
0.0
 40
0.2999999999999911
100
AcDbArc
 50
3.7249371334
 51
92.6995697565
  0
CIRCLE
  5
95
330
7B
100
AcDbEntity
  8
0
  6
Continuous
 62
   179
370
    18
100
AcDbCircle
 10
15.7233972286
 20
6.4054930194
 30
0.0
 40
1.579500000000014
  0
CIRCLE
  5
96
330
7B
100
AcDbEntity
  8
0
  6
Continuous
 62
   179
370
    18
100
AcDbCircle
 10
15.7233972286
 20
6.4054930194
 30
0.0
 40
2.281499999999994
  0
ARC
  5
97
330
7B
100
AcDbEntity
  8
0
  6
Continuous
 62
   179
370
    18
100
AcDbCircle
 10
89.7681336026
 20
2.3106616691
 30
0.0
 40
0.098384530246548
100
AcDbArc
 50
332.3802627259
 51
4.9765441602
  0
ARC
  5
98
330
7B
100
AcDbEntity
  8
0
  6
Continuous
 62
   179
370
    18
100
AcDbCircle
 10
89.6886560089
 20
2.3522464185
 30
0.0
 40
0.1880839130754018
100
AcDbArc
 50
303.690067526
 51
332.3802627258
  0
ARC
  5
99
330
7B
100
AcDbEntity
  8
0
  6
Continuous
 62
   179
370
    18
100
AcDbCircle
 10
89.4849700869
 20
2.6577753016
 30
0.0
 40
0.5552839311631531
100
AcDbArc
 50
287.108652213
 51
303.690067526
  0
ARC
  5
9A
330
7B
100
AcDbEntity
  8
0
  6
Continuous
 62
   179
370
    18
100
AcDbCircle
 10
88.0513010646
 20
7.3154864882
 30
0.0
 40
5.428648309393203
100
AcDbArc
 50
285.2551187031
 51
287.108652213
  0
ARC
  5
9B
330
7B
100
AcDbEntity
  8
0
  6
Continuous
 62
   179
370
    18
100
AcDbCircle
 10
89.1317168954
 20
3.3539617753
 30
0.0
 40
1.322436378825653
100
AcDbArc
 50
281.4991866428
 51
285.255118703
  0
ARC
  5
9C
330
7B
100
AcDbEntity
  8
0
  6
Continuous
 62
   179
370
    18
100
AcDbCircle
 10
89.3198255509
 20
2.4293110075
 30
0.0
 40
0.3788454141584939
100
AcDbArc
 50
279.1917900003
 51
281.499186643
  0
ARC
  5
9D
330
7B
100
AcDbEntity
  8
0
  6
Continuous
 62
   179
370
    18
100
AcDbCircle
 10
89.0487250788
 20
4.1046569124
 30
0.0
 40
2.07598399629105
100
AcDbArc
 50
277.7634675038
 51
279.1917900002
  0
ARC
  5
9E
330
7B
100
AcDbEntity
  8
0
  6
Continuous
 62
   179
370
    18
100
AcDbCircle
 10
9.2588909915
 20
6.4054930194
 30
0.0
 40
1.579500000000074
100
AcDbArc
 50
31.0558004991
 51
330.0
  0
ARC
  5
9F
330
7B
100
AcDbEntity
  8
0
  6
Continuous
 62
   179
370
    18
100
AcDbCircle
 10
9.2588909915
 20
6.4054930194
 30
0.0
 40
2.281500000000107
100
AcDbArc
 50
30.7309172659
 51
330.0
  0
ARC
  5
A0
330
7B
100
AcDbEntity
  8
0
  6
Continuous
 62
   179
370
    18
100
AcDbCircle
 10
6.1288847544
 20
4.0685261312
 30
0.0
 40
4.914000000000307
100
AcDbArc
 50
172.3058370354
 51
179.7113029221
  0
ARC
  5
A1
330
7B
100
AcDbEntity
  8
0
  6
Continuous
 62
   179
370
    18
100
AcDbCircle
 10
-0.5401152456
 20
4.0685261312
 30
0.0
 40
4.91400000000019
100
AcDbArc
 50
0.2886970779
 51
7.6941629646
  0
ARC
  5
A2
330
7B
100
AcDbEntity
  8
0
  6
Continuous
 62
   179
370
    18
100
AcDbCircle
 10
-0.5401152456
 20
4.0685261312
 30
0.0
 40
5.616000000000127
100
AcDbArc
 50
0.2526096926
 51
53.5764263577
  0
ARC
  5
A3
330
7B
100
AcDbEntity
  8
0
  6
Continuous
 62
   179
370
    18
100
AcDbCircle
 10
6.1288847544
 20
4.0685261312
 30
0.0
 40
5.61600000000074
100
AcDbArc
 50
126.4235736423
 51
179.7473903073
  0
ARC
  5
A4
330
7B
100
AcDbEntity
  8
0
  6
Continuous
 62
   179
370
    18
100
AcDbCircle
 10
-0.5401152456
 20
4.0685261312
 30
0.0
 40
4.914000000000161
100
AcDbArc
 50
16.0658750272
 51
47.2678899574
  0
ARC
  5
A5
330
7B
100
AcDbEntity
  8
0
  6
Continuous
 62
   179
370
    18
100
AcDbCircle
 10
6.1288847544
 20
4.0685261312
 30
0.0
 40
4.914000000000584
100
AcDbArc
 50
132.7321100426
 51
163.9341249728
  0
LINE
  5
A6
330
7B
100
AcDbEntity
  8
0
  6
Continuous
 62
   179
370
    18
100
AcDbLine
 10
78.8017089389
 20
2.8885802402
 30
0.0
 11
90.7982178739
 21
3.8455002136
 31
0.0
  0
LINE
  5
A7
330
7B
100
AcDbEntity
  8
0
  6
Continuous
 62
   179
370
    18
100
AcDbLine
 10
76.6545490427
 20
5.8693097374
 30
0.0
 11
78.0344191726
 21
3.5235305166
 31
0.0
  0
LINE
  5
A8
330
7B
100
AcDbEntity
  8
0
  6
Continuous
 62
   179
370
    18
100
AcDbLine
 10
91.5327615373
 20
4.6257342197
 30
0.0
 11
90.9577457715
 21
13.4579763825
 31
0.0
  0
LINE
  5
A9
330
7B
100
AcDbEntity
  8
0
  6
Continuous
 62
   179
370
    18
100
AcDbLine
 10
78.6309362756
 20
12.8788539549
 30
0.0
 11
78.8360757629
 21
3.6475770268
 31
0.0
  0
LINE
  5
AA
330
7B
100
AcDbEntity
  8
0
  6
Continuous
 62
   179
370
    18
100
AcDbLine
 10
80.4094186633
 20
4.6950685544
 30
0.0
 11
90.1819221045
 21
5.4824266516
 31
0.0
  0
LINE
  5
AB
330
7B
100
AcDbEntity
  8
0
  6
Continuous
 62
   179
370
    18
100
AcDbLine
 10
79.1595373973
 20
3.3551666867
 30
0.0
 11
91.2569309872
 21
4.3071688694
 31
0.0
  0
LINE
  5
AC
330
7B
100
AcDbEntity
  8
0
  6
Continuous
 62
   179
370
    18
100
AcDbLine
 10
79.2585043218
 20
2.925017226
 30
0.0
 11
80.4858981444
 21
1.533240302
 31
0.0
  0
LINE
  5
AD
330
7B
100
AcDbEntity
  8
0
  6
Continuous
 62
   179
370
    18
100
AcDbLine
 10
78.0344191726
 20
3.5235305166
 30
0.0
 11
78.3638740472
 21
3.1446574108
 31
0.0
  0
LINE
  5
AE
330
7B
100
AcDbEntity
  8
0
  6
Continuous
 62
   179
370
    18
100
AcDbLine
 10
78.3638740472
 20
3.1446574108
 30
0.0
 11
78.4680611395
 21
3.0248422547
 31
0.0
  0
LINE
  5
AF
330
7B
100
AcDbEntity
  8
0
  6
Continuous
 62
   179
370
    18
100
AcDbLine
 10
81.3414110113
 20
1.2002475785
 30
0.0
 11
89.3291569519
 21
2.0477010263
 31
0.0
  0
LINE
  5
B0
330
7B
100
AcDbEntity
  8
0
  6
Continuous
 62
   179
370
    18
100
AcDbLine
 10
89.8661472522
 20
2.5197759309
 30
0.0
 11
89.8661472522
 21
2.3090867337
 31
0.0
  0
LINE
  5
B1
330
7B
100
AcDbEntity
  8
0
  6
Continuous
 62
   179
370
    18
100
AcDbLine
 10
88.676842368
 20
3.6762854359
 30
0.0
 11
89.6713239345
 21
2.7875997807
 31
0.0
  0
LINE
  5
B2
330
7B
100
AcDbEntity
  8
0
  6
Continuous
 62
   179
370
    18
100
AcDbLine
 10
89.6713239345
 20
2.7875997807
 30
0.0
 11
89.7459749087
 21
2.7242700694
 31
0.0
  0
LINE
  5
B3
330
7B
100
AcDbEntity
  8
0
  6
Continuous
 62
   179
370
    18
100
AcDbLine
 10
90.7982178739
 20
3.8455002136
 30
0.0
 11
91.3961615969
 21
4.3514525945
 31
0.0
  0
LINE
  5
B4
330
7B
100
AcDbEntity
  8
0
  6
Continuous
 62
   179
370
    18
100
AcDbLine
 10
90.6442498554
 20
13.7381534621
 30
0.0
 11
78.1502930503
 21
13.1490474438
 31
0.0
  0
LINE
  5
B5
330
7B
100
AcDbEntity
  8
0
  6
Continuous
 62
   179
370
    18
100
AcDbLine
 10
80.1347709981
 20
12.2388892068
 30
0.0
 11
89.8487925667
 21
12.7550932515
 31
0.0
  0
LINE
  5
B6
330
7B
100
AcDbEntity
  8
0
  6
Continuous
 62
   179
370
    18
100
AcDbLine
 10
76.4935641943
 20
11.7567556248
 30
0.0
 11
76.6545490427
 21
5.8693097374
 31
0.0
  0
LINE
  5
B7
330
7B
100
AcDbEntity
  8
0
  6
Continuous
 62
   179
370
    18
100
AcDbLine
 10
79.8508616208
 20
11.929182536
 30
0.0
 11
80.0854971721
 21
4.9839702153
 31
0.0
  0
LINE
  5
B8
330
7B
100
AcDbEntity
  8
0
  6
Continuous
 62
   179
370
    18
100
AcDbLine
 10
80.5293311574
 20
9.7310185051
 30
0.0
 11
80.6057415643
 21
7.4769115
 31
0.0
  0
LINE
  5
B9
330
7B
100
AcDbEntity
  8
0
  6
Continuous
 62
   179
370
    18
100
AcDbLine
 10
77.507650604
 20
12.7708420346
 30
0.0
 11
76.4935641943
 21
11.7567556248
 31
0.0
  0
LINE
  5
BA
330
7B
100
AcDbEntity
  8
0
  6
Continuous
 62
   179
370
    18
100
AcDbLine
 10
86.8848195129
 20
11.0661568594
 30
0.0
 11
88.6742167283
 21
11.1634880887
 31
0.0
  0
LINE
  5
BB
330
7B
100
AcDbEntity
  8
0
  6
Continuous
 62
   179
370
    18
100
AcDbLine
 10
87.0766213517
 20
6.9287171941
 30
0.0
 11
88.90708891
 21
7.0695223909
 31
0.0
  0
LINE
  5
BC
330
7B
100
AcDbEntity
  8
0
  6
Continuous
 62
   179
370
    18
100
AcDbLine
 10
87.6830038473
 20
7.6147347768
 30
0.0
 11
88.8536252418
 21
7.7047825764
 31
0.0
  0
LINE
  5
BD
330
7B
100
AcDbEntity
  8
0
  6
Continuous
 62
   179
370
    18
100
AcDbLine
 10
87.5509212094
 20
10.4639459651
 30
0.0
 11
88.7088412777
 21
10.5269290651
 31
0.0
  0
LINE
  5
BE
330
7B
100
AcDbEntity
  8
0
  6
Continuous
 62
   179
370
    18
100
AcDbLine
 10
87.0766218384
 20
6.9287066941
 30
0.0
 11
86.8848195129
 21
11.0661568594
 31
0.0
  0
LINE
  5
BF
330
7B
100
AcDbEntity
  8
0
  6
Continuous
 62
   179
370
    18
100
AcDbLine
 10
83.7004598825
 20
6.6667911093
 30
0.0
 11
84.5054929504
 21
10.9267193262
 31
0.0
  0
LINE
  5
C0
330
7B
100
AcDbEntity
  8
0
  6
Continuous
 62
   179
370
    18
100
AcDbLine
 10
85.3543248406
 20
10.9728900984
 30
0.0
 11
86.4940946704
 21
6.8816860929
 31
0.0
  0
LINE
  5
C1
330
7B
100
AcDbEntity
  8
0
  6
Continuous
 62
   179
370
    18
100
AcDbLine
 10
84.9728575427
 20
9.9667192298
 30
0.0
 11
85.4540299774
 21
8.2395506903
 31
0.0
  0
LINE
  5
C2
330
7B
100
AcDbEntity
  8
0
  6
Continuous
 62
   179
370
    18
100
AcDbLine
 10
84.6363094629
 20
8.1858350416
 30
0.0
 11
84.9728575427
 21
9.9667192298
 31
0.0
  0
LINE
  5
C3
330
7B
100
AcDbEntity
  8
0
  6
Continuous
 62
   179
370
    18
100
AcDbLine
 10
87.6830038473
 20
7.6147347768
 30
0.0
 11
87.5509212094
 21
10.4639459651
 31
0.0
  0
LINE
  5
C4
330
7B
100
AcDbEntity
  8
0
  6
Continuous
 62
   179
370
    18
100
AcDbLine
 10
84.6363094629
 20
8.1858350416
 30
0.0
 11
85.4540299774
 21
8.2395506903
 31
0.0
  0
LINE
  5
C5
330
7B
100
AcDbEntity
  8
0
  6
Continuous
 62
   179
370
    18
100
AcDbLine
 10
84.5140586807
 20
7.5389304886
 30
0.0
 11
85.6288154243
 21
7.6121582976
 31
0.0
  0
LINE
  5
C6
330
7B
100
AcDbEntity
  8
0
  6
Continuous
 62
   179
370
    18
100
AcDbLine
 10
84.3588137958
 20
6.717433718
 30
0.0
 11
84.5140586807
 21
7.5389304886
 31
0.0
  0
LINE
  5
C7
330
7B
100
AcDbEntity
  8
0
  6
Continuous
 62
   179
370
    18
100
AcDbLine
 10
81.6818640104
 20
6.5137358601
 30
0.0
 11
82.4802416972
 21
6.5751495283
 31
0.0
  0
LINE
  5
C8
330
7B
100
AcDbEntity
  8
0
  6
Continuous
 62
   179
370
    18
100
AcDbLine
 10
81.6329699923
 20
7.1493580946
 30
0.0
 11
82.4313476791
 21
7.2107717628
 31
0.0
  0
LINE
  5
C9
330
7B
100
AcDbEntity
  8
0
  6
Continuous
 62
   179
370
    18
100
AcDbLine
 10
83.7004598825
 20
6.6667911093
 30
0.0
 11
84.3588137958
 21
6.717433718
 31
0.0
  0
LINE
  5
CA
330
7B
100
AcDbEntity
  8
0
  6
Continuous
 62
   179
370
    18
100
AcDbLine
 10
82.7059483815
 20
9.3512024135
 30
0.0
 11
83.3423973297
 21
9.3930104243
 31
0.0
  0
LINE
  5
CB
330
7B
100
AcDbEntity
  8
0
  6
Continuous
 62
   179
370
    18
100
AcDbLine
 10
82.7491656358
 20
8.0762934118
 30
0.0
 11
83.385614584
 21
8.1181014226
 31
0.0
  0
LINE
  5
CC
330
7B
100
AcDbEntity
  8
0
  6
Continuous
 62
   179
370
    18
100
AcDbLine
 10
81.1664651987
 20
9.7526162692
 30
0.0
 11
81.2428756056
 21
7.4985092641
 31
0.0
  0
LINE
  5
CD
330
7B
100
AcDbEntity
  8
0
  6
Continuous
 62
   179
370
    18
100
AcDbLine
 10
82.6900353128
 20
9.8206379383
 30
0.0
 11
82.7052632884
 21
9.3714126602
 31
0.0
  0
LINE
  5
CE
330
7B
100
AcDbEntity
  8
0
  6
Continuous
 62
   179
370
    18
100
AcDbLine
 10
82.7491656358
 20
8.0762934118
 30
0.0
 11
82.7658371041
 21
7.5844850954
 31
0.0
  0
LINE
  5
CF
330
7B
100
AcDbEntity
  8
0
  6
Continuous
 62
   179
370
    18
100
AcDbLine
 10
83.3271693541
 20
9.8422357024
 30
0.0
 11
83.3423973297
 21
9.3930104243
 31
0.0
  0
LINE
  5
D0
330
7B
100
AcDbEntity
  8
0
  6
Continuous
 62
   179
370
    18
100
AcDbLine
 10
83.385614584
 20
8.1181014226
 30
0.0
 11
83.4029711454
 21
7.6060828595
 31
0.0
  0
LINE
  5
D1
330
7B
100
AcDbEntity
  8
0
  6
Continuous
 62
   179
370
    18
100
AcDbLine
 10
85.6288154243
 20
7.6121582976
 30
0.0
 11
85.8462022593
 21
6.8318482152
 31
0.0
  0
LINE
  5
D2
330
7B
100
AcDbEntity
  8
0
  6
Continuous
 62
   179
370
    18
100
AcDbLine
 10
85.8462022593
 20
6.8318482152
 30
0.0
 11
86.4940946704
 21
6.8816860929
 31
0.0
  0
LINE
  5
D3
330
7B
100
AcDbEntity
  8
0
  6
Continuous
 62
   179
370
    18
100
AcDbLine
 10
84.5054929504
 20
10.9267193262
 30
0.0
 11
85.3543248406
 21
10.9728900984
 31
0.0
  0
LINE
  5
D4
330
7B
100
AcDbEntity
  8
0
  6
Continuous
 62
   179
370
    18
100
AcDbLine
 10
81.4744440858
 20
10.7634213094
 30
0.0
 11
82.2734303883
 21
10.8068808154
 31
0.0
  0
LINE
  5
D5
330
7B
100
AcDbEntity
  8
0
  6
Continuous
 62
   179
370
    18
100
AcDbLine
 10
81.5090686352
 20
10.1268622858
 30
0.0
 11
82.3080549377
 21
10.1703217918
 31
0.0
  0
LINE
  5
D6
330
7B
100
AcDbEntity
  8
0
  6
Continuous
 62
   179
370
    18
100
AcDbLine
 10
90.4575406452
 20
5.7946206556
 30
0.0
 11
90.1644232213
 21
12.4686789239
 31
0.0
  0
LINE
  5
D7
330
7B
100
AcDbEntity
  8
0
  6
Continuous
 62
   179
370
    18
100
AcDbLine
 10
89.8247499755
 20
8.1125227115
 30
0.0
 11
89.7274569615
 21
10.2112720142
 31
0.0
  0
LINE
  5
D8
330
7B
100
AcDbEntity
  8
0
  6
Continuous
 62
   179
370
    18
100
AcDbLine
 10
89.1879338763
 20
8.0830014354
 30
0.0
 11
89.0906408622
 21
10.181750738
 31
0.0
  0
LINE
  5
D9
330
7B
100
AcDbEntity
  8
0
  6
Continuous
 62
   179
370
    18
100
AcDbLine
 10
89.7459749087
 20
2.7242700694
 30
0.0
 11
89.7974962577
 21
2.6659765769
 31
0.0
  0
LINE
  5
DA
330
7B
100
AcDbEntity
  8
0
  6
Continuous
 62
   179
370
    18
100
AcDbLine
 10
89.7974962577
 20
2.6659765769
 30
0.0
 11
89.8351851379
 21
2.60192886
 31
0.0
  0
LINE
  5
DB
330
7B
100
AcDbEntity
  8
0
  6
Continuous
 62
   179
370
    18
100
AcDbLine
 10
89.8351851379
 20
2.60192886
 30
0.0
 11
89.8661472522
 21
2.5197759309
 31
0.0
  0
LINE
  5
DC
330
7B
100
AcDbEntity
  8
0
  6
Continuous
 62
   179
370
    18
100
AcDbLine
 10
10.6119938288
 20
7.2203138351
 30
0.0
 11
11.2200151261
 21
7.5713550947
 31
0.0
  0
LINE
  5
DD
330
7B
100
AcDbEntity
  8
0
  6
Continuous
 62
   179
370
    18
100
AcDbLine
 10
11.2347279503
 20
5.2647430194
 30
0.0
 11
10.6267781168
 21
5.6157430194
 31
0.0
  0
LINE
  5
DE
330
7B
100
AcDbEntity
  8
0
  6
Continuous
 62
   179
370
    18
100
AcDbLine
 10
6.4645062371
 20
16.1712617198
 30
0.0
 11
6.4645062371
 21
2.9364593988
 31
0.0
  0
LINE
  5
DF
330
7B
100
AcDbEntity
  8
0
  6
Continuous
 62
   179
370
    18
100
AcDbLine
 10
6.4645062371
 20
2.9364593988
 30
0.0
 11
12.0532757459
 21
2.9364593988
 31
0.0
  0
LINE
  5
E0
330
7B
100
AcDbEntity
  8
0
  6
Continuous
 62
   179
370
    18
100
AcDbLine
 10
12.0532757459
 20
2.9364593988
 30
0.0
 11
12.0532757459
 21
16.1712617198
 31
0.0
  0
LINE
  5
E1
330
7B
100
AcDbEntity
  8
0
  6
Continuous
 62
   179
370
    18
100
AcDbLine
 10
12.0532757459
 20
16.1712617198
 30
0.0
 11
6.4645062371
 21
16.1712617198
 31
0.0
  0
LINE
  5
E2
330
7B
100
AcDbEntity
  8
0
  6
Continuous
 62
   179
370
    18
100
AcDbLine
 10
0.0
 20
16.1712617198
 30
0.0
 11
0.0
 21
2.9364593988
 31
0.0
  0
LINE
  5
E3
330
7B
100
AcDbEntity
  8
0
  6
Continuous
 62
   179
370
    18
100
AcDbLine
 10
0.0
 20
2.9364593988
 30
0.0
 11
5.5887695089
 21
2.9364593988
 31
0.0
  0
LINE
  5
E4
330
7B
100
AcDbEntity
  8
0
  6
Continuous
 62
   179
370
    18
100
AcDbLine
 10
5.5887695089
 20
2.9364593988
 30
0.0
 11
5.5887695089
 21
16.1712617198
 31
0.0
  0
LINE
  5
E5
330
7B
100
AcDbEntity
  8
0
  6
Continuous
 62
   179
370
    18
100
AcDbLine
 10
5.5887695089
 20
16.1712617198
 30
0.0
 11
0.0
 21
16.1712617198
 31
0.0
  0
LINE
  5
E6
330
7B
100
AcDbEntity
  8
0
  6
Continuous
 62
   179
370
    18
100
AcDbLine
 10
1.2591262606
 20
4.7264381407
 30
0.0
 11
4.3296432482
 21
4.7264381407
 31
0.0
  0
LINE
  5
E7
330
7B
100
AcDbEntity
  8
0
  6
Continuous
 62
   179
370
    18
100
AcDbLine
 10
4.3738223747
 20
4.0932862697
 30
0.0
 11
5.0758301722
 21
4.0932862697
 31
0.0
  0
LINE
  5
E8
330
7B
100
AcDbEntity
  8
0
  6
Continuous
 62
   179
370
    18
100
AcDbLine
 10
0.5129393366
 20
4.0932862697
 30
0.0
 11
1.2149471342
 21
4.0932862697
 31
0.0
  0
LINE
  5
E9
330
7B
100
AcDbEntity
  8
0
  6
Continuous
 62
   179
370
    18
100
AcDbLine
 10
4.1819643097
 20
5.4284381407
 30
0.0
 11
1.4068051992
 21
5.4284381407
 31
0.0
  0
LINE
  5
EA
330
7B
100
AcDbEntity
  8
0
  6
Continuous
 62
   179
370
    18
100
AcDbLine
 10
18.517781983
 20
16.1712617198
 30
0.0
 11
18.517781983
 21
2.9364593988
 31
0.0
  0
LINE
  5
EB
330
7B
100
AcDbEntity
  8
0
  6
Continuous
 62
   179
370
    18
100
AcDbLine
 10
18.517781983
 20
2.9364593988
 30
0.0
 11
12.9290124742
 21
2.9364593988
 31
0.0
  0
LINE
  5
EC
330
7B
100
AcDbEntity
  8
0
  6
Continuous
 62
   179
370
    18
100
AcDbLine
 10
12.9290124742
 20
2.9364593988
 30
0.0
 11
12.9290124742
 21
16.1712617198
 31
0.0
  0
LINE
  5
ED
330
7B
100
AcDbEntity
  8
0
  6
Continuous
 62
   179
370
    18
100
AcDbLine
 10
12.9290124742
 20
16.1712617198
 30
0.0
 11
18.517781983
 21
16.1712617198
 31
0.0
  0
INSERT
  5
F3
330
7B
100
AcDbEntity
  8
0
  6
Continuous
 62
     7
370
     0
100
AcDbBlockReference
  2
SW_NOTE_0
 10
1.8998941161
 20
-0.3226565443
 30
0.0
  0
INSERT
  5
F8
330
7B
100
AcDbEntity
  8
0
  6
Continuous
 62
     7
370
     0
100
AcDbBlockReference
  2
SW_NOTE_0_1
 10
29.1164837035
 20
12.7459167441
 30
0.0
  0
INSERT
  5
100
330
7B
100
AcDbEntity
  8
0
  6
Continuous
 62
     7
370
     0
100
AcDbBlockReference
  2
SW_NOTE_0_2
 10
28.8863479825
 20
8.6365742194
 30
0.0
  0
ENDBLK
  5
7D
330
7B
100
AcDbEntity
  8
0
100
AcDbBlockEnd
  0
BLOCK
  5
EF
330
EE
100
AcDbEntity
  8
0
100
AcDbBlockBegin
  2
SW_NOTE_0
 70
     0
 10
0.0
 20
0.0
 30
0.0
  3
SW_NOTE_0
  1

  0
MTEXT
  5
F2
330
EE
100
AcDbEntity
  8
0
  6
Continuous
 62
     0
370
     0
100
AcDbMText
 10
7.46875
 20
2.5781354795
 30
0.0
 40
2.0
 41
0.0
 71
     2
 72
     1
  1
www.aco.ch
  7
SLDTEXTSTYLE0
 73
     1
 44
1.0
  0
ENDBLK
  5
F0
330
EE
100
AcDbEntity
  8
0
100
AcDbBlockEnd
  0
BLOCK
  5
F5
330
F4
100
AcDbEntity
  8
0
100
AcDbBlockBegin
  2
SW_NOTE_0_1
 70
     0
 10
0.0
 20
0.0
 30
0.0
  3
SW_NOTE_0_1
  1

  0
MTEXT
  5
F7
330
F4
100
AcDbEntity
  8
0
  6
Continuous
 62
     0
370
     0
100
AcDbMText
 10
0.0
 20
3.8672032193
 30
0.0
 40
3.0
 41
0.0
 71
     1
 72
     1
  1
ACO AG
  7
SLDTEXTSTYLE0
 73
     1
 44
1.0
  0
ENDBLK
  5
F6
330
F4
100
AcDbEntity
  8
0
100
AcDbBlockEnd
  0
BLOCK
  5
FA
330
F9
100
AcDbEntity
  8
0
100
AcDbBlockBegin
  2
SW_NOTE_0_2
 70
     0
 10
0.0
 20
0.0
 30
0.0
  3
SW_NOTE_0_2
  1

  0
MTEXT
  5
FC
330
F9
100
AcDbEntity
  8
0
  6
Continuous
 62
     0
370
     0
100
AcDbMText
 10
0.0
 20
2.5781354795
 30
0.0
 40
2.0
 41
0.0
 71
     1
 72
     1
  1
Industrie Kleinzaun
  7
SLDTEXTSTYLE0
 73
     1
 44
1.0
  0
MTEXT
  5
FD
330
F9
100
AcDbEntity
  8
0
  6
Continuous
 62
     0
370
     0
100
AcDbMText
 10
0.0
 20
-0.4218645465
 30
0.0
 40
2.0
 41
0.0
 71
     1
 72
     1
  1
CH-8754 Netstal
  7
SLDTEXTSTYLE0
 73
     1
 44
1.0
  0
MTEXT
  5
FE
330
F9
100
AcDbEntity
  8
0
  6
Continuous
 62
     0
370
     0
100
AcDbMText
 10
0.0
 20
-3.4218645726
 30
0.0
 40
2.0
 41
0.0
 71
     1
 72
     1
  1
Tel. 055 / 645 53 00
  7
SLDTEXTSTYLE0
 73
     1
 44
1.0
  0
MTEXT
  5
FF
330
F9
100
AcDbEntity
  8
0
  6
Continuous
 62
     0
370
     0
100
AcDbMText
 10
0.0
 20
-6.4218645987
 30
0.0
 40
2.0
 41
0.0
 71
     1
 72
     1
  1
E-Mail: aco@aco.ch
  7
SLDTEXTSTYLE0
 73
     1
 44
1.0
  0
ENDBLK
  5
FB
330
F9
100
AcDbEntity
  8
0
100
AcDbBlockEnd
  0
BLOCK
  5
179
330
178
100
AcDbEntity
  8
0
100
AcDbBlockBegin
  2
SW_NOTE_0_3
 70
     0
 10
0.0
 20
0.0
 30
0.0
  3
SW_NOTE_0_3
  1

  0
MTEXT
  5
17B
330
178
100
AcDbEntity
  8
0
  6
Continuous
 62
     0
370
     0
100
AcDbMText
 10
0.0
 20
1.9336016097
 30
0.0
 40
1.5
 41
0.0
 71
     1
 72
     1
  1
Diese Zeichnung darf weder kopiert
  7
SLDTEXTSTYLE0
 73
     1
 44
1.0
  0
MTEXT
  5
17C
330
178
100
AcDbEntity
  8
0
  6
Continuous
 62
     0
370
     0
100
AcDbMText
 10
0.0
 20
-0.5663983345
 30
0.0
 40
1.5
 41
0.0
 71
     1
 72
     1
  1
noch dritten Personen, insbesondere
  7
SLDTEXTSTYLE0
 73
     1
 44
1.0
  0
MTEXT
  5
17D
330
178
100
AcDbEntity
  8
0
  6
Continuous
 62
     0
370
     0
100
AcDbMText
 10
0.0
 20
-3.0663982786
 30
0.0
 40
1.5
 41
0.0
 71
     1
 72
     1
  1
zum Zweck anderweitiger Benutzung
  7
SLDTEXTSTYLE0
 73
     1
 44
1.0
  0
MTEXT
  5
17E
330
178
100
AcDbEntity
  8
0
  6
Continuous
 62
     0
370
     0
100
AcDbMText
 10
0.0
 20
-5.5663982227
 30
0.0
 40
1.5
 41
0.0
 71
     1
 72
     1
  1
mitgeteilt werden und bleibt unser
  7
SLDTEXTSTYLE0
 73
     1
 44
1.0
  0
MTEXT
  5
17F
330
178
100
AcDbEntity
  8
0
  6
Continuous
 62
     0
370
     0
100
AcDbMText
 10
0.0
 20
-8.0663981668
 30
0.0
 40
1.5
 41
0.0
 71
     1
 72
     1
  1
Eigentum.
  7
SLDTEXTSTYLE0
 73
     1
 44
1.0
  0
ENDBLK
  5
17A
330
178
100
AcDbEntity
  8
0
100
AcDbBlockEnd
  0
BLOCK
  5
1B8
330
1B7
100
AcDbEntity
  8
0
100
AcDbBlockBegin
  2
_D
 70
     0
 10
0.0
 20
0.0
 30
0.0
  3
_D
  1

  0
SOLID
  5
1BA
330
1B7
100
AcDbEntity
  8
0
  6
Continuous
 62
     7
370
    18
100
AcDbTrace
 10
178.1030749261
 20
165.406447771
 30
0.0
 11
180.9586984655
 21
167.5005716999
 31
0.0
 12
180.197198855
 22
168.2620713104
 32
0.0
 13
180.197198855
 23
168.2620713104
 33
0.0
  0
LINE
  5
1BB
330
1B7
100
AcDbEntity
  8
0
  6
Continuous
 62
     7
370
     0
100
AcDbLine
 10
178.1030749261
 20
165.406447771
 30
0.0
 11
195.3783930458
 21
182.6817658906
 31
0.0
  0
MTEXT
  5
1BC
330
1B7
100
AcDbEntity
  8
0
  6
Continuous
 62
     7
370
    18
100
AcDbMText
 10
178.1831642921
 20
171.8645185183
 30
0.0
 40
3.5
 41
0.0
 71
     1
 72
     1
  1
%%c
  7
SLDTEXTSTYLE0
 11
0.7071067811865462
 21
0.7071067811865488
 31
0.0
 73
     1
 44
1.0
  0
MTEXT
  5
1BD
330
1B7
100
AcDbEntity
  8
0
  6
Continuous
 62
     7
370
    18
100
AcDbMText
 10
181.7846212231
 20
175.4797248708
 30
0.0
 40
3.5
 41
0.0
 71
     1
 72
     1
  1
123.53
  7
SLDTEXTSTYLE0
 11
0.7071067811865462
 21
0.7071067811865488
 31
0.0
 73
     1
 44
1.0
  0
ENDBLK
  5
1B9
330
1B7
100
AcDbEntity
  8
0
100
AcDbBlockEnd
  0
BLOCK
  5
1C1
330
1C0
100
AcDbEntity
  8
0
100
AcDbBlockBegin
  2
_D_1
 70
     0
 10
0.0
 20
0.0
 30
0.0
  3
_D_1
  1

  0
SOLID
  5
1C3
330
1C0
100
AcDbEntity
  8
0
  6
Continuous
 62
     7
370
    18
100
AcDbTrace
 10
89.8303487859
 20
95.9830007321
 30
0.0
 11
93.1306684684
 21
97.2666793608
 31
0.0
 12
92.5922069299
 22
98.1993221034
 32
0.0
 13
92.5922069299
 23
98.1993221034
 33
0.0
  0
SOLID
  5
1C4
330
1C0
100
AcDbEntity
  8
0
  6
Continuous
 62
     7
370
    18
100
AcDbTrace
 10
179.0260951796
 20
147.4801889231
 30
0.0
 11
175.7257754971
 21
146.1965102943
 31
0.0
 12
176.2642370356
 22
145.2638675518
 32
0.0
 13
176.2642370356
 23
145.2638675518
 33
0.0
  0
LINE
  5
1C5
330
1C0
100
AcDbEntity
  8
0
  6
Continuous
 62
     7
370
     0
100
AcDbLine
 10
179.0260951796
 20
147.4801889231
 30
0.0
 11
202.5247996265
 21
161.0471722611
 31
0.0
  0
LINE
  5
1C6
330
1C0
100
AcDbEntity
  8
0
  6
Continuous
 62
     7
370
     0
100
AcDbLine
 10
179.0260951796
 20
147.4801889231
 30
0.0
 11
89.8303487859
 21
95.9830007321
 31
0.0
  0
MTEXT
  5
1C7
330
1C0
100
AcDbEntity
  8
0
  6
Continuous
 62
     7
370
    18
100
AcDbMText
 10
188.9044218511
 20
158.3907901579
 30
0.0
 40
3.5
 41
0.0
 71
     1
 72
     1
  1
%%c
  7
SLDTEXTSTYLE0
 11
0.866025403784438
 21
0.500000000000001
 31
0.0
 73
     1
 44
1.0
  0
MTEXT
  5
1C8
330
1C0
100
AcDbEntity
  8
0
  6
Continuous
 62
     7
370
    18
100
AcDbMText
 10
193.318846369
 20
160.9506856973
 30
0.0
 40
3.5
 41
0.0
 71
     1
 72
     1
  1
103
  7
SLDTEXTSTYLE0
 11
0.866025403784438
 21
0.500000000000001
 31
0.0
 73
     1
 44
1.0
  0
ENDBLK
  5
1C2
330
1C0
100
AcDbEntity
  8
0
100
AcDbBlockEnd
  0
BLOCK
  5
1CA
330
1C9
100
AcDbEntity
  8
0
100
AcDbBlockBegin
  2
SW_CENTERMARKSYMBOL_0
 70
     0
 10
0.0
 20
0.0
 30
0.0
  3
SW_CENTERMARKSYMBOL_0
  1

  0
LINE
  5
1CC
330
1C9
100
AcDbEntity
  8
0
  6
Continuous
 62
     0
370
    18
100
AcDbLine
 10
0.0
 20
0.0
 30
0.0
 11
0.0
 21
2.5
 31
0.0
  0
LINE
  5
1CD
330
1C9
100
AcDbEntity
  8
0
  6
Continuous
 62
     0
370
    18
100
AcDbLine
 10
0.0
 20
0.0
 30
0.0
 11
-2.5
 21
0.0
 31
0.0
  0
LINE
  5
1CE
330
1C9
100
AcDbEntity
  8
0
  6
Continuous
 62
     0
370
    18
100
AcDbLine
 10
0.0
 20
0.0
 30
0.0
 11
0.0
 21
-2.5
 31
0.0
  0
LINE
  5
1CF
330
1C9
100
AcDbEntity
  8
0
  6
Continuous
 62
     0
370
    18
100
AcDbLine
 10
0.0
 20
0.0
 30
0.0
 11
2.5
 21
0.0
 31
0.0
  0
LINE
  5
1D0
330
1C9
100
AcDbEntity
  8
0
  6
Continuous
 62
     0
370
    18
100
AcDbLine
 10
0.0
 20
5.0
 30
0.0
 11
0.0
 21
64.2542878381
 31
0.0
  0
LINE
  5
1D1
330
1C9
100
AcDbEntity
  8
0
  6
Continuous
 62
     0
370
    18
100
AcDbLine
 10
-5.0
 20
0.0
 30
0.0
 11
-64.2542878381
 21
0.0
 31
0.0
  0
LINE
  5
1D2
330
1C9
100
AcDbEntity
  8
0
  6
Continuous
 62
     0
370
    18
100
AcDbLine
 10
0.0
 20
-5.0
 30
0.0
 11
0.0
 21
-64.2542878381
 31
0.0
  0
LINE
  5
1D3
330
1C9
100
AcDbEntity
  8
0
  6
Continuous
 62
     0
370
    18
100
AcDbLine
 10
5.0
 20
0.0
 30
0.0
 11
64.2542878381
 21
0.0
 31
0.0
  0
ENDBLK
  5
1CB
330
1C9
100
AcDbEntity
  8
0
100
AcDbBlockEnd
  0
BLOCK
  5
29D
330
29C
100
AcDbEntity
  8
0
100
AcDbBlockBegin
  2
_D_2
 70
     0
 10
0.0
 20
0.0
 30
0.0
  3
_D_2
  1

  0
SOLID
  5
29F
330
29C
100
AcDbEntity
  8
0
  6
Continuous
 62
     7
370
    18
100
AcDbTrace
 10
208.1437913499
 20
233.3518688878
 30
0.0
 11
207.6053298115
 21
229.8518688878
 31
0.0
 12
208.6822528884
 22
229.8518688878
 32
0.0
 13
208.6822528884
 23
229.8518688878
 33
0.0
  0
SOLID
  5
2A0
330
29C
100
AcDbEntity
  8
0
  6
Continuous
 62
     7
370
    18
100
AcDbTrace
 10
208.1437913499
 20
215.8905213834
 30
0.0
 11
208.6822528884
 21
219.3905213834
 31
0.0
 12
207.6053298115
 22
219.3905213834
 32
0.0
 13
207.6053298115
 23
219.3905213834
 33
0.0
  0
LINE
  5
2A1
330
29C
100
AcDbEntity
  8
0
  6
Continuous
 62
     7
370
     0
100
AcDbLine
 10
192.4177040379
 20
233.3518688878
 30
0.0
 11
209.1437913499
 21
233.3518688878
 31
0.0
  0
LINE
  5
2A2
330
29C
100
AcDbEntity
  8
0
  6
Continuous
 62
     7
370
     0
100
AcDbLine
 10
191.6074117777
 20
215.8905213834
 30
0.0
 11
209.1437913499
 21
215.8905213834
 31
0.0
  0
LINE
  5
2A3
330
29C
100
AcDbEntity
  8
0
  6
Continuous
 62
     7
370
     0
100
AcDbLine
 10
208.1437913499
 20
233.3518688878
 30
0.0
 11
208.1437913499
 21
215.8905213834
 31
0.0
  0
MTEXT
  5
2A4
330
29C
100
AcDbEntity
  8
0
  6
Continuous
 62
     7
370
    18
100
AcDbMText
 10
203.6320540279
 20
219.9423758071
 30
0.0
 40
3.5
 41
0.0
 71
     1
 72
     1
  1
17.5
  7
SLDTEXTSTYLE0
 11
-7.044195017643634E-15
 21
1.0
 31
0.0
 73
     1
 44
1.0
  0
ENDBLK
  5
29E
330
29C
100
AcDbEntity
  8
0
100
AcDbBlockEnd
  0
ENDSEC
  0
SECTION
  2
ENTITIES
  0
LINE
  5
101
330
1F
100
AcDbEntity
  8
LINIEN-DÜNN
  6
CENTERX2
100
AcDbLine
 10
352.6174545849
 20
46.9080238789
 30
0.0
 11
352.6174545849
 21
39.4621586124
 31
0.0
  0
LINE
  5
102
330
1F
100
AcDbEntity
  8
LINIEN-DÜNN
100
AcDbLine
 10
357.7661698132
 20
46.3720107039
 30
0.0
 11
357.7661698132
 21
39.9353173413
 31
0.0
  0
LINE
  5
103
330
1F
100
AcDbEntity
  8
LINIEN-DÜNN
100
AcDbLine
 10
364.6059427486
 20
44.7376225767
 30
0.0
 11
364.6059427486
 21
41.5697054685
 31
0.0
  0
LINE
  5
104
330
1F
100
AcDbEntity
  8
LINIEN-DÜNN
100
AcDbLine
 10
364.6059427486
 20
44.7376225767
 30
0.0
 11
357.7661698132
 21
46.3720107039
 31
0.0
  0
LINE
  5
105
330
1F
100
AcDbEntity
  8
LINIEN-DÜNN
100
AcDbLine
 10
15.0
 20
198.5
 30
0.0
 11
20.0
 21
198.5
 31
0.0
  0
LINE
  5
106
330
1F
100
AcDbEntity
  8
LINIEN-DÜNN
100
AcDbLine
 10
12.0
 20
148.5
 30
0.0
 11
0.0
 21
148.5
 31
0.0
  0
LINE
  5
107
330
1F
100
AcDbEntity
  8
LINIEN-DÜNN
100
AcDbLine
 10
357.7661698132
 20
39.9353173413
 30
0.0
 11
364.6059427486
 21
41.5697054685
 31
0.0
  0
LINE
  5
108
330
1F
100
AcDbEntity
  8
LINIEN-DÜNN
  6
CENTERX2
100
AcDbLine
 10
348.6240467841
 20
43.1536640226
 30
0.0
 11
356.6108623857
 21
43.1536640226
 31
0.0
  0
LINE
  5
109
330
1F
100
AcDbEntity
  8
LINIEN-DÜNN
  6
CENTERX2
100
AcDbLine
 10
357.1289238876
 20
43.1536640226
 30
0.0
 11
365.6255362296
 21
43.1536640226
 31
0.0
  0
LINE
  5
10A
330
1F
100
AcDbEntity
  8
LINIEN-DÜNN
100
AcDbLine
 10
0.0
 20
0.0
 30
0.0
 11
420.0
 21
0.0
 31
0.0
  0
LINE
  5
10B
330
1F
100
AcDbEntity
  8
LINIEN-DÜNN
100
AcDbLine
 10
0.0
 20
0.0
 30
0.0
 11
0.0
 21
297.0
 31
0.0
  0
LINE
  5
10C
330
1F
100
AcDbEntity
  8
LINIEN-DÜNN
100
AcDbLine
 10
0.0
 20
297.0
 30
0.0
 11
420.0
 21
297.0
 31
0.0
  0
LINE
  5
10D
330
1F
100
AcDbEntity
  8
LINIEN-DÜNN
100
AcDbLine
 10
420.0
 20
0.0
 30
0.0
 11
420.0
 21
297.0
 31
0.0
  0
LINE
  5
10E
330
1F
100
AcDbEntity
  8
LINIEN-NORMAL
100
AcDbLine
 10
228.0
 20
35.0
 30
0.0
 11
410.0
 21
35.0
 31
0.0
  0
LINE
  5
10F
330
1F
100
AcDbEntity
  8
LINIEN-DÜNN
100
AcDbLine
 10
410.0
 20
198.5
 30
0.0
 11
415.0
 21
198.5
 31
0.0
  0
LINE
  5
110
330
1F
100
AcDbEntity
  8
LINIEN-DÜNN
100
AcDbLine
 10
15.0
 20
148.5
 30
0.0
 11
20.0
 21
148.5
 31
0.0
  0
LINE
  5
111
330
1F
100
AcDbEntity
  8
LINIEN-DÜNN
100
AcDbLine
 10
228.0
 20
40.0
 30
0.0
 11
296.6
 21
40.0
 31
0.0
  0
LINE
  5
112
330
1F
100
AcDbEntity
  8
LINIEN-DÜNN
100
AcDbLine
 10
15.0
 20
248.5
 30
0.0
 11
20.0
 21
248.5
 31
0.0
  0
LINE
  5
113
330
1F
100
AcDbEntity
  8
LINIEN-DICK
100
AcDbLine
 10
20.0
 20
287.0
 30
0.0
 11
20.0
 21
10.0
 31
0.0
  0
LINE
  5
114
330
1F
100
AcDbEntity
  8
LINIEN-DICK
100
AcDbLine
 10
410.0
 20
287.0
 30
0.0
 11
20.0
 21
287.0
 31
0.0
  0
LINE
  5
115
330
1F
100
AcDbEntity
  8
LINIEN-DICK
100
AcDbLine
 10
410.0
 20
5.0
 30
0.0
 11
410.0
 21
287.0
 31
0.0
  0
LINE
  5
116
330
1F
100
AcDbEntity
  8
LINIEN-DICK
100
AcDbLine
 10
20.0
 20
10.0
 30
0.0
 11
415.0
 21
10.0
 31
0.0
  0
LINE
  5
117
330
1F
100
AcDbEntity
  8
LINIEN-DÜNN
100
AcDbLine
 10
410.0
 20
148.5
 30
0.0
 11
415.0
 21
148.5
 31
0.0
  0
LINE
  5
118
330
1F
100
AcDbEntity
  8
LINIEN-DÜNN
100
AcDbLine
 10
228.0
 20
50.0
 30
0.0
 11
296.6
 21
50.0
 31
0.0
  0
LINE
  5
119
330
1F
100
AcDbEntity
  8
LINIEN-DÜNN
100
AcDbLine
 10
15.0
 20
98.5
 30
0.0
 11
20.0
 21
98.5
 31
0.0
  0
LINE
  5
11A
330
1F
100
AcDbEntity
  8
LINIEN-DÜNN
100
AcDbLine
 10
296.6
 20
45.0
 30
0.0
 11
228.0
 21
45.0
 31
0.0
  0
LINE
  5
11B
330
1F
100
AcDbEntity
  8
LINIEN-DÜNN
100
AcDbLine
 10
65.0
 20
292.0
 30
0.0
 11
65.0
 21
287.0
 31
0.0
  0
LINE
  5
11C
330
1F
100
AcDbEntity
  8
LINIEN-DÜNN
100
AcDbLine
 10
230.0
 20
292.0
 30
0.0
 11
230.0
 21
297.0
 31
0.0
  0
LINE
  5
11D
330
1F
100
AcDbEntity
  8
LINIEN-NORMAL
100
AcDbLine
 10
296.6
 20
55.0
 30
0.0
 11
296.6
 21
35.0
 31
0.0
  0
LINE
  5
11E
330
1F
100
AcDbEntity
  8
LINIEN-DÜNN
100
AcDbLine
 10
410.0
 20
98.5
 30
0.0
 11
415.0
 21
98.5
 31
0.0
  0
LINE
  5
11F
330
1F
100
AcDbEntity
  8
VORLAGE_BEMASSUNG
100
AcDbLine
 10
230.0
 20
5.0
 30
0.0
 11
230.0
 21
0.0
 31
0.0
  0
LINE
  5
120
330
1F
100
AcDbEntity
  8
LINIEN-DÜNN
100
AcDbLine
 10
125.0
 20
292.0
 30
0.0
 11
125.0
 21
297.0
 31
0.0
  0
LINE
  5
121
330
1F
100
AcDbEntity
  8
LINIEN-DÜNN
100
AcDbLine
 10
125.0
 20
5.0
 30
0.0
 11
125.0
 21
0.0
 31
0.0
  0
LINE
  5
122
330
1F
100
AcDbEntity
  8
LINIEN-NORMAL
100
AcDbLine
 10
410.0
 20
55.0
 30
0.0
 11
228.0
 21
55.0
 31
0.0
  0
LINE
  5
123
330
1F
100
AcDbEntity
  8
LINIEN-DÜNN
100
AcDbLine
 10
228.0
 20
55.0
 30
0.0
 11
410.0
 21
55.0
 31
0.0
  0
LINE
  5
124
330
1F
100
AcDbEntity
  8
LINIEN-DÜNN
100
AcDbLine
 10
410.0
 20
55.0
 30
0.0
 11
228.0
 21
55.0
 31
0.0
  0
LINE
  5
125
330
1F
100
AcDbEntity
  8
LINIEN-DÜNN
100
AcDbLine
 10
268.0
 20
76.5
 30
0.0
 11
268.0
 21
55.0
 31
0.0
  0
LINE
  5
126
330
1F
100
AcDbEntity
  8
LINIEN-DÜNN
100
AcDbLine
 10
271.6
 20
55.0
 30
0.0
 11
271.6
 21
40.0
 31
0.0
  0
LINE
  5
127
330
1F
100
AcDbEntity
  8
LINIEN-DÜNN
100
AcDbLine
 10
247.0
 20
55.0
 30
0.0
 11
247.0
 21
35.0
 31
0.0
  0
LINE
  5
128
330
1F
100
AcDbEntity
  8
LINIEN-DICK
100
AcDbLine
 10
228.0
 20
76.5
 30
0.0
 11
228.0
 21
10.0
 31
0.0
  0
LINE
  5
129
330
1F
100
AcDbEntity
  8
LINIEN-DÜNN
100
AcDbLine
 10
15.0
 20
292.0
 30
0.0
 11
415.0
 21
292.0
 31
0.0
  0
LINE
  5
12A
330
1F
100
AcDbEntity
  8
LINIEN-DÜNN
100
AcDbLine
 10
228.0
 20
65.75
 30
0.0
 11
310.0
 21
65.75
 31
0.0
  0
LINE
  5
12B
330
1F
100
AcDbEntity
  8
LINIEN-DICK
100
AcDbLine
 10
228.0
 20
76.5
 30
0.0
 11
410.0
 21
76.5
 31
0.0
  0
LINE
  5
12C
330
1F
100
AcDbEntity
  8
LINIEN-DÜNN
100
AcDbLine
 10
15.0
 20
48.5
 30
0.0
 11
20.0
 21
48.5
 31
0.0
  0
LINE
  5
12D
330
1F
100
AcDbEntity
  8
LINIEN-DÜNN
100
AcDbLine
 10
410.0
 20
48.5
 30
0.0
 11
415.0
 21
48.5
 31
0.0
  0
LINE
  5
12E
330
1F
100
AcDbEntity
  8
LINIEN-DÜNN
100
AcDbLine
 10
332.6610845472
 20
20.0
 30
0.0
 11
332.6610845472
 21
10.0
 31
0.0
  0
LINE
  5
12F
330
1F
100
AcDbEntity
  8
LINIEN-DÜNN
100
AcDbLine
 10
410.0
 20
248.5
 30
0.0
 11
415.0
 21
248.5
 31
0.0
  0
LINE
  5
130
330
1F
100
AcDbEntity
  8
LINIEN-DÜNN
100
AcDbLine
 10
65.0
 20
10.0
 30
0.0
 11
65.0
 21
5.0
 31
0.0
  0
LINE
  5
131
330
1F
100
AcDbEntity
  8
LINIEN-DÜNN
100
AcDbLine
 10
115.0
 20
10.0
 30
0.0
 11
115.0
 21
5.0
 31
0.0
  0
LINE
  5
132
330
1F
100
AcDbEntity
  8
LINIEN-DÜNN
100
AcDbLine
 10
115.0
 20
292.0
 30
0.0
 11
115.0
 21
287.0
 31
0.0
  0
LINE
  5
133
330
1F
100
AcDbEntity
  8
LINIEN-DÜNN
100
AcDbLine
 10
165.0
 20
10.0
 30
0.0
 11
165.0
 21
5.0
 31
0.0
  0
LINE
  5
134
330
1F
100
AcDbEntity
  8
LINIEN-DÜNN
100
AcDbLine
 10
165.0
 20
292.0
 30
0.0
 11
165.0
 21
287.0
 31
0.0
  0
LINE
  5
135
330
1F
100
AcDbEntity
  8
LINIEN-DÜNN
100
AcDbLine
 10
215.0
 20
10.0
 30
0.0
 11
215.0
 21
5.0
 31
0.0
  0
LINE
  5
136
330
1F
100
AcDbEntity
  8
LINIEN-DÜNN
100
AcDbLine
 10
215.0
 20
292.0
 30
0.0
 11
215.0
 21
287.0
 31
0.0
  0
LINE
  5
137
330
1F
100
AcDbEntity
  8
LINIEN-DÜNN
100
AcDbLine
 10
265.0
 20
10.0
 30
0.0
 11
265.0
 21
5.0
 31
0.0
  0
LINE
  5
138
330
1F
100
AcDbEntity
  8
LINIEN-DÜNN
100
AcDbLine
 10
265.0
 20
292.0
 30
0.0
 11
265.0
 21
287.0
 31
0.0
  0
LINE
  5
139
330
1F
100
AcDbEntity
  8
LINIEN-DÜNN
100
AcDbLine
 10
347.6610845472
 20
20.0
 30
0.0
 11
347.6610845472
 21
10.0
 31
0.0
  0
LINE
  5
13A
330
1F
100
AcDbEntity
  8
LINIEN-DÜNN
100
AcDbLine
 10
362.6610845472
 20
20.0
 30
0.0
 11
362.6610845472
 21
10.0
 31
0.0
  0
LINE
  5
13B
330
1F
100
AcDbEntity
  8
LINIEN-NORMAL
100
AcDbLine
 10
327.6610845472
 20
10.0
 30
0.0
 11
327.6610845472
 21
55.0
 31
0.0
  0
LINE
  5
13C
330
1F
100
AcDbEntity
  8
LINIEN-DÜNN
100
AcDbLine
 10
20.0
 20
292.0
 30
0.0
 11
20.0
 21
297.0
 31
0.0
  0
LINE
  5
13D
330
1F
100
AcDbEntity
  8
LINIEN-DÜNN
100
AcDbLine
 10
20.0
 20
5.0
 30
0.0
 11
20.0
 21
0.0
 31
0.0
  0
LINE
  5
13E
330
1F
100
AcDbEntity
  8
LINIEN-DÜNN
100
AcDbLine
 10
315.0
 20
10.0
 30
0.0
 11
315.0
 21
5.0
 31
0.0
  0
LINE
  5
13F
330
1F
100
AcDbEntity
  8
LINIEN-DÜNN
100
AcDbLine
 10
315.0
 20
292.0
 30
0.0
 11
315.0
 21
287.0
 31
0.0
  0
LINE
  5
140
330
1F
100
AcDbEntity
  8
LINIEN-DÜNN
100
AcDbLine
 10
365.0
 20
10.0
 30
0.0
 11
365.0
 21
5.0
 31
0.0
  0
LINE
  5
141
330
1F
100
AcDbEntity
  8
LINIEN-DÜNN
100
AcDbLine
 10
365.0
 20
292.0
 30
0.0
 11
365.0
 21
287.0
 31
0.0
  0
LINE
  5
142
330
1F
100
AcDbEntity
  8
LINIEN-DÜNN
100
AcDbLine
 10
15.0
 20
292.0
 30
0.0
 11
15.0
 21
5.0
 31
0.0
  0
LINE
  5
143
330
1F
100
AcDbEntity
  8
LINIEN-DÜNN
100
AcDbLine
 10
15.0
 20
5.0
 30
0.0
 11
415.0
 21
5.0
 31
0.0
  0
LINE
  5
144
330
1F
100
AcDbEntity
  8
LINIEN-DÜNN
100
AcDbLine
 10
415.0
 20
292.0
 30
0.0
 11
415.0
 21
5.0
 31
0.0
  0
LINE
  5
145
330
1F
100
AcDbEntity
  8
LINIEN-DÜNN
100
AcDbLine
 10
347.6610845472
 20
44.213444
 30
0.0
 11
327.6610845472
 21
44.213444
 31
0.0
  0
LINE
  5
146
330
1F
100
AcDbEntity
  8
LINIEN-DÜNN
100
AcDbLine
 10
347.6610845472
 20
35.0
 30
0.0
 11
347.6610845472
 21
55.0
 31
0.0
  0
LINE
  5
147
330
1F
100
AcDbEntity
  8
LINIEN-DÜNN
100
AcDbLine
 10
370.057188
 20
55.012032
 30
0.0
 11
370.057188
 21
35.0
 31
0.0
  0
LINE
  5
148
330
1F
100
AcDbEntity
  8
LINIEN-DÜNN
100
AcDbLine
 10
398.0
 20
35.0
 30
0.0
 11
398.0
 21
20.0
 31
0.0
  0
LINE
  5
149
330
1F
100
AcDbEntity
  8
LINIEN-DÜNN
100
AcDbLine
 10
410.0
 20
15.0
 30
0.0
 11
327.6610845472
 21
15.0
 31
0.0
  0
LINE
  5
14A
330
1F
100
AcDbEntity
  8
LINIEN-DÜNN
100
AcDbLine
 10
327.6610845472
 20
20.0
 30
0.0
 11
410.0
 21
20.0
 31
0.0
  0
LINE
  5
14B
330
1F
100
AcDbEntity
  8
LINIEN-DÜNN
100
AcDbLine
 10
341.485486
 20
20.0
 30
0.0
 11
341.485486
 21
27.564675
 31
0.0
  0
LINE
  5
14C
330
1F
100
AcDbEntity
  8
LINIEN-NORMAL
100
AcDbLine
 10
310.0
 20
76.5
 30
0.0
 11
310.0
 21
55.0
 31
0.0
  0
CIRCLE
  5
14D
330
1F
100
AcDbEntity
  8
LINIEN-DÜNN
100
AcDbCircle
 10
11.0
 20
108.5
 30
0.0
 40
2.750000000000001
  0
CIRCLE
  5
14E
330
1F
100
AcDbEntity
  8
LINIEN-DÜNN
100
AcDbCircle
 10
11.0
 20
188.5
 30
0.0
 40
2.750000000000001
  0
CIRCLE
  5
14F
330
1F
100
AcDbEntity
  8
LINIEN-DÜNN
100
AcDbCircle
 10
352.6174545849
 20
43.1536640226
 30
0.0
 40
3.218346681300138
  0
CIRCLE
  5
150
330
1F
100
AcDbEntity
  8
LINIEN-DÜNN
100
AcDbCircle
 10
352.6174545849
 20
43.1536640226
 30
0.0
 40
1.583958554121555
  0
INSERT
  5
151
330
1F
100
AcDbEntity
  8
0
  6
Continuous
 62
     7
100
AcDbBlockReference
  2
ACO-Logo
 10
314.3510726297
 20
57.6366106772
 30
0.0
  0
POINT
  5
152
330
1F
100
AcDbEntity
  8
VORLAGE_BEMASSUNG
100
AcDbPoint
 10
0.0
 20
0.0
 30
0.0
  0
POINT
  5
153
330
1F
100
AcDbEntity
  8
VORLAGE_BEMASSUNG
100
AcDbPoint
 10
410.0
 20
10.0
 30
0.0
  0
MTEXT
  5
154
330
1F
100
AcDbEntity
  8
VORLAGE_TEXT
100
AcDbMText
 10
17.7359443114
 20
124.8017866468
 30
0.0
 40
2.0
 41
0.0
 71
     2
 72
     1
  1
D
  7
SLDTEXTSTYLE0
 73
     1
 44
1.0
  0
MTEXT
  5
155
330
1F
100
AcDbEntity
  8
VORLAGE_TEXT
100
AcDbMText
 10
17.6274822413
 20
174.7261854936
 30
0.0
 40
2.0
 41
0.0
 71
     2
 72
     1
  1
C
  7
SLDTEXTSTYLE0
 73
     1
 44
1.0
  0
MTEXT
  5
156
330
1F
100
AcDbEntity
  8
VORLAGE_TEXT
100
AcDbMText
 10
17.5516905072
 20
224.4926420442
 30
0.0
 40
2.0
 41
0.0
 71
     2
 72
     1
  1
B
  7
SLDTEXTSTYLE0
 73
     1
 44
1.0
  0
MTEXT
  5
157
330
1F
100
AcDbEntity
  8
VORLAGE_TEXT
100
AcDbMText
 10
290.0344258799
 20
290.5428789914
 30
0.0
 40
2.0
 41
0.0
 71
     2
 72
     1
  1
6
  7
SLDTEXTSTYLE0
 73
     1
 44
1.0
  0
MTEXT
  5
158
330
1F
100
AcDbEntity
  8
VORLAGE_TEXT
100
AcDbMText
 10
240.0417859812
 20
290.6369260235
 30
0.0
 40
2.0
 41
0.0
 71
     2
 72
     1
  1
5
  7
SLDTEXTSTYLE0
 73
     1
 44
1.0
  0
MTEXT
  5
159
330
1F
100
AcDbEntity
  8
VORLAGE_TEXT
100
AcDbMText
 10
190.0300404524
 20
290.6343268032
 30
0.0
 40
2.0
 41
0.0
 71
     2
 72
     1
  1
4
  7
SLDTEXTSTYLE0
 73
     1
 44
1.0
  0
MTEXT
  5
15A
330
1F
100
AcDbEntity
  8
VORLAGE_TEXT
100
AcDbMText
 10
140.0165868337
 20
290.6378887952
 30
0.0
 40
2.0
 41
0.0
 71
     2
 72
     1
  1
3
  7
SLDTEXTSTYLE0
 73
     1
 44
1.0
  0
MTEXT
  5
15B
330
1F
100
AcDbEntity
  8
VORLAGE_TEXT
100
AcDbMText
 10
90.033223
 20
290.5566702875
 30
0.0
 40
2.0
 41
0.0
 71
     2
 72
     1
  1
2
  7
SLDTEXTSTYLE0
 73
     1
 44
1.0
  0
MTEXT
  5
15C
330
1F
100
AcDbEntity
  8
VORLAGE_TEXT
100
AcDbMText
 10
40.0509551097
 20
290.5530165805
 30
0.0
 40
2.0
 41
0.0
 71
     2
 72
     1
  1
1
  7
SLDTEXTSTYLE0
 73
     1
 44
1.0
  0
MTEXT
  5
15D
330
1F
100
AcDbEntity
  8
VORLAGE_TEXT
100
AcDbMText
 10
17.5609786315
 20
271.2966048816
 30
0.0
 40
2.0
 41
0.0
 71
     2
 72
     1
  1
A
  7
SLDTEXTSTYLE0
 73
     1
 44
1.0
  0
MTEXT
  5
15E
330
1F
100
AcDbEntity
  8
VORLAGE_TEXT
100
AcDbMText
 10
89.9333968896
 20
8.5904490253
 30
0.0
 40
2.0
 41
0.0
 71
     2
 72
     1
  1
2
  7
SLDTEXTSTYLE0
 73
     1
 44
1.0
  0
MTEXT
  5
15F
330
1F
100
AcDbEntity
  8
VORLAGE_TEXT
100
AcDbMText
 10
39.9009486579
 20
8.6623118453
 30
0.0
 40
2.0
 41
0.0
 71
     2
 72
     1
  1
1
  7
SLDTEXTSTYLE0
 73
     1
 44
1.0
  0
MTEXT
  5
160
330
1F
100
AcDbEntity
  8
VORLAGE_TEXT
100
AcDbMText
 10
190.0227230239
 20
8.7073169286
 30
0.0
 40
2.0
 41
0.0
 71
     2
 72
     1
  1
4
  7
SLDTEXTSTYLE0
 73
     1
 44
1.0
  0
MTEXT
  5
161
330
1F
100
AcDbEntity
  8
VORLAGE_TEXT
100
AcDbMText
 10
140.0453427777
 20
8.5647154541
 30
0.0
 40
2.0
 41
0.0
 71
     2
 72
     1
  1
3
  7
SLDTEXTSTYLE0
 73
     1
 44
1.0
  0
MTEXT
  5
162
330
1F
100
AcDbEntity
  8
VORLAGE_TEXT
100
AcDbMText
 10
239.8749782531
 20
8.5637526825
 30
0.0
 40
2.0
 41
0.0
 71
     2
 72
     1
  1
5
  7
SLDTEXTSTYLE0
 73
     1
 44
1.0
  0
MTEXT
  5
163
330
1F
100
AcDbEntity
  8
VORLAGE_TEXT
100
AcDbMText
 10
412.6717254925
 20
224.51208263
 30
0.0
 40
2.0
 41
0.0
 71
     2
 72
     1
  1
B
  7
SLDTEXTSTYLE0
 73
     1
 44
1.0
  0
MTEXT
  5
164
330
1F
100
AcDbEntity
  8
VORLAGE_TEXT
100
AcDbMText
 10
412.5951211154
 20
271.2798202564
 30
0.0
 40
2.0
 41
0.0
 71
     2
 72
     1
  1
A
  7
SLDTEXTSTYLE0
 73
     1
 44
1.0
  0
MTEXT
  5
165
330
1F
100
AcDbEntity
  8
VORLAGE_TEXT
100
AcDbMText
 10
412.6491448679
 20
174.7279841048
 30
0.0
 40
2.0
 41
0.0
 71
     2
 72
     1
  1
C
  7
SLDTEXTSTYLE0
 73
     1
 44
1.0
  0
MTEXT
  5
166
330
1F
100
AcDbEntity
  8
VORLAGE_TEXT
100
AcDbMText
 10
340.0216466634
 20
290.5954278102
 30
0.0
 40
2.0
 41
0.0
 71
     2
 72
     1
  1
7
  7
SLDTEXTSTYLE0
 73
     1
 44
1.0
  0
MTEXT
  5
167
330
1F
100
AcDbEntity
  8
VORLAGE_TEXT
100
AcDbMText
 10
390.037657264
 20
290.6215496941
 30
0.0
 40
2.0
 41
0.0
 71
     2
 72
     1
  1
8
  7
SLDTEXTSTYLE0
 73
     1
 44
1.0
  0
MTEXT
  5
168
330
1F
100
AcDbEntity
  8
VORLAGE_TEXT
100
AcDbMText
 10
17.6897935208
 20
74.7267628143
 30
0.0
 40
2.0
 41
0.0
 71
     2
 72
     1
  1
E
  7
SLDTEXTSTYLE0
 73
     1
 44
1.0
  0
MTEXT
  5
169
330
1F
100
AcDbEntity
  8
VORLAGE_TEXT
100
AcDbMText
 10
17.5936930126
 20
27.773321616
 30
0.0
 40
2.0
 41
0.0
 71
     2
 72
     1
  1
F
  7
SLDTEXTSTYLE0
 73
     1
 44
1.0
  0
MTEXT
  5
16A
330
1F
100
AcDbEntity
  8
VORLAGE_TEXT
100
AcDbMText
 10
339.8003474583
 20
8.7205095051
 30
0.0
 40
2.0
 41
0.0
 71
     2
 72
     1
  1
7
  7
SLDTEXTSTYLE0
 73
     1
 44
1.0
  0
MTEXT
  5
16B
330
1F
100
AcDbEntity
  8
VORLAGE_TEXT
100
AcDbMText
 10
289.7886477179
 20
8.6884673623
 30
0.0
 40
2.0
 41
0.0
 71
     2
 72
     1
  1
6
  7
SLDTEXTSTYLE0
 73
     1
 44
1.0
  0
MTEXT
  5
16C
330
1F
100
AcDbEntity
  8
VORLAGE_TEXT
100
AcDbMText
 10
412.5160699095
 20
74.5096307526
 30
0.0
 40
2.0
 41
0.0
 71
     2
 72
     1
  1
E
  7
SLDTEXTSTYLE0
 73
     1
 44
1.0
  0
MTEXT
  5
16D
330
1F
100
AcDbEntity
  8
VORLAGE_TEXT
100
AcDbMText
 10
412.6234021365
 20
124.4517683275
 30
0.0
 40
2.0
 41
0.0
 71
     2
 72
     1
  1
D
  7
SLDTEXTSTYLE0
 73
     1
 44
1.0
  0
MTEXT
  5
16E
330
1F
100
AcDbEntity
  8
TEXT-DEUTSCH
100
AcDbMText
 10
411.7952690469
 20
41.8548502951
 30
0.0
 40
1.8
 41
0.0
 71
     3
 72
     1
  1
Plotdatum: 18.09.2023
  7
SLDTEXTSTYLE0
 11
-3.269436733918102E-15
 21
1.0
 31
0.0
 73
     1
 44
1.0
  0
MTEXT
  5
16F
330
1F
100
AcDbEntity
  8
VORLAGE_TEXT
100
AcDbMText
 10
412.557933251
 20
8.2549718046
 30
0.0
 40
1.8
 41
0.0
 71
     2
 72
     1
  1
A3
  7
SLDTEXTSTYLE0
 73
     1
 44
1.0
  0
MTEXT
  5
170
330
1F
100
AcDbEntity
  8
VORLAGE_TEXT
100
AcDbMText
 10
390.594604279
 20
8.3847467643
 30
0.0
 40
1.8
 41
0.0
 71
     2
 72
     1
  1
CAD-System: SolidWorks
  7
SLDTEXTSTYLE0
 73
     1
 44
1.0
  0
MTEXT
  5
171
330
1F
100
AcDbEntity
  8
TEXT
100
AcDbMText
 10
403.9986368527
 20
28.4394692021
 30
0.0
 40
5.0
 41
0.0
 71
     2
 72
     1
  1
A
  7
SLDTEXTSTYLE0
 73
     1
 44
1.0
  0
MTEXT
  5
172
330
1F
100
AcDbEntity
  8
TEXT
100
AcDbMText
 10
249.556836311
 20
38.5581729516
 30
0.0
 40
2.0
 41
0.0
 71
     1
 72
     1
  1
Freigegeben
  7
SLDTEXTSTYLE0
 73
     1
 44
1.0
  0
MTEXT
  5
173
330
1F
100
AcDbEntity
  8
TEXT
100
AcDbMText
 10
284.1136255556
 20
43.5473338598
 30
0.0
 40
2.0
 41
0.0
 71
     2
 72
     1
  1
bae
  7
SLDTEXTSTYLE0
 73
     1
 44
1.0
  0
MTEXT
  5
174
330
1F
100
AcDbEntity
  8
TEXT
100
AcDbMText
 10
249.5284668163
 20
43.5603133928
 30
0.0
 40
2.0
 41
0.0
 71
     1
 72
     1
  1
18.09.2023
  7
SLDTEXTSTYLE0
 73
     1
 44
1.0
  0
MTEXT
  5
175
330
1F
100
AcDbEntity
  8
TEXT
100
AcDbMText
 10
284.1309088133
 20
48.5138972561
 30
0.0
 40
2.0
 41
0.0
 71
     2
 72
     1
  1
AB
  7
SLDTEXTSTYLE0
 73
     1
 44
1.0
  0
MTEXT
  5
176
330
1F
100
AcDbEntity
  8
TEXT
100
AcDbMText
 10
249.5284668163
 20
48.4989062069
 30
0.0
 40
2.0
 41
0.0
 71
     1
 72
     1
  1
04.02.2021
  7
SLDTEXTSTYLE0
 73
     1
 44
1.0
  0
MTEXT
  5
177
330
1F
100
AcDbEntity
  8
0
  6
Continuous
 62
     7
370
     0
100
AcDbMText
 10
372.2007348103
 20
38.8723054925
 30
0.0
 40
1.5
 41
0.0
 71
     1
 72
     1
  1
Copyright reserved! © ACO AG
  7
SLDTEXTSTYLE0
 73
     1
 44
1.0
  0
INSERT
  5
180
330
1F
100
AcDbEntity
  8
0
  6
Continuous
 62
     7
370
     0
100
AcDbBlockReference
  2
SW_NOTE_0_3
 10
372.2203831445
 20
51.2202922854
 30
0.0
  0
MTEXT
  5
181
330
1F
100
AcDbEntity
  8
TEXT
100
AcDbMText
 10
364.9468572407
 20
13.5417229519
 30
0.0
 40
2.0
 41
0.0
 71
     1
 72
     1
  1
Erstausgabe
  7
SLDTEXTSTYLE0
 73
     1
 44
1.0
  0
MTEXT
  5
182
330
1F
100
AcDbEntity
  8
TEXT
100
AcDbMText
 10
330.2607505021
 20
13.524501801
 30
0.0
 40
2.0
 41
0.0
 71
     2
 72
     1
  1
-
  7
SLDTEXTSTYLE0
 73
     1
 44
1.0
  0
MTEXT
  5
183
330
1F
100
AcDbEntity
  8
TEXT
100
AcDbMText
 10
364.9468572407
 20
18.4594173137
 30
0.0
 40
2.0
 41
0.0
 71
     1
 72
     1
  1
SAP-Nr.
  7
SLDTEXTSTYLE0
 73
     1
 44
1.0
  0
MTEXT
  5
184
330
1F
100
AcDbEntity
  8
TEXT
100
AcDbMText
 10
354.2676663079
 20
18.5245664709
 30
0.0
 40
2.0
 41
0.0
 71
     2
 72
     1
  1
bae
  7
SLDTEXTSTYLE0
 73
     1
 44
1.0
  0
MTEXT
  5
185
330
1F
100
AcDbEntity
  8
TEXT
100
AcDbMText
 10
340.3080766506
 20
18.5245664709
 30
0.0
 40
2.0
 41
0.0
 71
     2
 72
     1
  1
18.09.2023
  7
SLDTEXTSTYLE0
 73
     1
 44
1.0
  0
MTEXT
  5
186
330
1F
100
AcDbEntity
  8
TEXT
100
AcDbMText
 10
330.227417144
 20
18.524501801
 30
0.0
 40
2.0
 41
0.0
 71
     2
 72
     1
  1
A
  7
SLDTEXTSTYLE0
 73
     1
 44
1.0
  0
MTEXT
  5
187
330
1F
100
AcDbEntity
  8
VORLAGE_TEXT
100
AcDbMText
 10
311.764909851
 20
46.3490312465
 30
0.0
 40
5.0
 41
0.0
 71
     2
 72
     1
  1
1:1
  7
SLDTEXTSTYLE0
 73
     1
 44
1.0
  0
MTEXT
  5
188
330
1F
100
AcDbEntity
  8
VORLAGE_TEXT
100
AcDbMText
 10
230.1851195342
 20
38.7793829468
 30
0.0
 40
2.0
 41
0.0
 71
     1
 72
     1
  1
Status:
  7
SLDTEXTSTYLE0
 73
     1
 44
1.0
  0
MTEXT
  5
189
330
1F
100
AcDbEntity
  8
TEXT
100
AcDbMText
 10
344.926838705
 20
28.2772828851
 30
0.0
 40
5.0
 41
0.0
 71
     1
 72
     1
  1
98402
  7
SLDTEXTSTYLE0
 73
     1
 44
1.0
  0
MTEXT
  5
18A
330
1F
100
AcDbEntity
  8
TEXT
100
AcDbMText
 10
231.1132118803
 20
14.9211049657
 30
0.0
 40
2.5
 41
0.0
 71
     1
 72
     1
  1
Art. Nr.: 2021384
  7
SLDTEXTSTYLE0
 73
     1
 44
1.0
  0
MTEXT
  5
18B
330
1F
100
AcDbEntity
  8
TEXT
100
AcDbMText
 10
231.1475981734
 20
21.4529560996
 30
0.0
 40
2.5
 41
0.0
 71
     1
 72
     1
  1
Pipe Dichtung EPDM
  7
SLDTEXTSTYLE0
 73
     1
 44
1.0
  0
MTEXT
  5
18C
330
1F
100
AcDbEntity
  8
TEXT
100
AcDbMText
 10
231.1159560181
 20
33.0904969858
 30
0.0
 40
2.5
 41
0.0
 71
     1
 72
     1
  1
ACO-Standard
  7
SLDTEXTSTYLE0
 73
     1
 44
1.0
  0
MTEXT
  5
18D
330
1F
100
AcDbEntity
  8
TEXT
100
AcDbMText
 10
231.1475981734
 20
28.0307932366
 30
0.0
 40
3.5
 41
0.0
 71
     1
 72
     1
  1
Pipe Dichtung Ø110
  7
SLDTEXTSTYLE0
 73
     1
 44
1.0
  0
MTEXT
  5
18E
330
1F
100
AcDbEntity
  8
VORLAGE_TEXT
100
AcDbMText
 10
348.2746465368
 20
53.819119072
 30
0.0
 40
2.0
 41
0.0
 71
     1
 72
     1
  1
Projektion: ISO-E
  7
SLDTEXTSTYLE0
 73
     1
 44
1.0
  0
MTEXT
  5
18F
330
1F
100
AcDbEntity
  8
TEXT
100
AcDbMText
 10
337.7677091855
 20
49.3670227094
 30
0.0
 40
2.5
 41
0.0
 71
     2
 72
     1
  1
Millimeter
  7
SLDTEXTSTYLE0
 73
     1
 44
1.0
  0
MTEXT
  5
190
330
1F
100
AcDbEntity
  8
VORLAGE_TEXT
100
AcDbMText
 10
337.6323777421
 20
53.855374072
 30
0.0
 40
2.0
 41
0.0
 71
     2
 72
     1
  1
Masseinheit:
  7
SLDTEXTSTYLE0
 73
     1
 44
1.0
  0
MTEXT
  5
191
330
1F
100
AcDbEntity
  8
VORLAGE_TEXT
100
AcDbMText
 10
337.6114490186
 20
43.5452078816
 30
0.0
 40
2.0
 41
0.0
 71
     2
 72
     1
  1
Blatt / Anz.:
  7
SLDTEXTSTYLE0
 73
     1
 44
1.0
  0
MTEXT
  5
192
330
1F
100
AcDbEntity
  8
VORLAGE_TEXT
100
AcDbMText
 10
329.2895578243
 20
28.4139191092
 30
0.0
 40
5.0
 41
0.0
 71
     1
 72
     1
  1
CH
  7
SLDTEXTSTYLE0
 73
     1
 44
1.0
  0
MTEXT
  5
193
330
1F
100
AcDbEntity
  8
VORLAGE_TEXT
100
AcDbMText
 10
330.40704
 20
33.692638072
 30
0.0
 40
2.0
 41
0.0
 71
     1
 72
     1
  1
Zeichnung Nr.:
  7
SLDTEXTSTYLE0
 73
     1
 44
1.0
  0
MTEXT
  5
194
330
1F
100
AcDbEntity
  8
VORLAGE_TEXT
100
AcDbMText
 10
269.897953
 20
75.161075072
 30
0.0
 40
2.0
 41
0.0
 71
     1
 72
     1
  1
Gewicht:
  7
SLDTEXTSTYLE0
 73
     1
 44
1.0
  0
MTEXT
  5
195
330
1F
100
AcDbEntity
  8
VORLAGE_TEXT
100
AcDbMText
 10
230.0
 20
64.542328072
 30
0.0
 40
2.0
 41
0.0
 71
     1
 72
     1
  1
zul. Abweichung:
  7
SLDTEXTSTYLE0
 73
     1
 44
1.0
  0
MTEXT
  5
196
330
1F
100
AcDbEntity
  8
VORLAGE_TEXT
100
AcDbMText
 10
269.612607
 20
64.542328072
 30
0.0
 40
2.0
 41
0.0
 71
     1
 72
     1
  1
Oberfläche:
  7
SLDTEXTSTYLE0
 73
     1
 44
1.0
  0
MTEXT
  5
197
330
1F
100
AcDbEntity
  8
VORLAGE_TEXT
100
AcDbMText
 10
230.261411
 20
43.4433838912
 30
0.0
 40
2.0
 41
0.0
 71
     1
 72
     1
  1
Freigegeben:
  7
SLDTEXTSTYLE0
 73
     1
 44
1.0
  0
MTEXT
  5
198
330
1F
100
AcDbEntity
  8
VORLAGE_TEXT
100
AcDbMText
 10
230.0
 20
75.161075072
 30
0.0
 40
2.0
 41
0.0
 71
     1
 72
     1
  1
Werkstoff:
  7
SLDTEXTSTYLE0
 73
     1
 44
1.0
  0
MTEXT
  5
199
330
1F
100
AcDbEntity
  8
VORLAGE_TEXT
100
AcDbMText
 10
254.035545
 20
53.129475072
 30
0.0
 40
2.0
 41
0.0
 71
     1
 72
     1
  1
Datum:
  7
SLDTEXTSTYLE0
 73
     1
 44
1.0
  0
MTEXT
  5
19A
330
1F
100
AcDbEntity
  8
VORLAGE_TEXT
100
AcDbMText
 10
279.934928
 20
53.136060072
 30
0.0
 40
2.0
 41
0.0
 71
     1
 72
     1
  1
Name:
  7
SLDTEXTSTYLE0
 73
     1
 44
1.0
  0
MTEXT
  5
19B
330
1F
100
AcDbEntity
  8
VORLAGE_TEXT
100
AcDbMText
 10
312.162455406
 20
53.881591072
 30
0.0
 40
2.0
 41
0.0
 71
     2
 72
     1
  1
Massstab:
  7
SLDTEXTSTYLE0
 73
     1
 44
1.0
  0
MTEXT
  5
19C
330
1F
100
AcDbEntity
  8
VORLAGE_TEXT
100
AcDbMText
 10
403.9552944035
 20
33.324874072
 30
0.0
 40
2.0
 41
0.0
 71
     2
 72
     1
  1
Index:
  7
SLDTEXTSTYLE0
 73
     1
 44
1.0
  0
MTEXT
  5
19D
330
1F
100
AcDbEntity
  8
VORLAGE_TEXT
100
AcDbMText
 10
230.261411
 20
48.4499477886
 30
0.0
 40
2.0
 41
0.0
 71
     1
 72
     1
  1
Erstellt:
  7
SLDTEXTSTYLE0
 73
     1
 44
1.0
  0
MTEXT
  5
19F
330
1F
100
AcDbEntity
  8
VORLAGE_TEXT
100
AcDbMText
 10
337.6348165843
 20
39.869706576
 30
0.0
 40
2.5
 41
0.0
 71
     2
 72
     1
  1
1 / 1
  7
SLDTEXTSTYLE1
 73
     1
 44
1.0
  0
MTEXT
  5
1A0
330
1F
100
AcDbEntity
  8
TEXT
100
AcDbMText
 10
269.612607
 20
60.8119428599
 30
0.0
 40
3.0
 41
0.0
 71
     1
 72
     1
  1
DIN ISO 1302
  7
SLDTEXTSTYLE0
 73
     1
 44
1.0
  0
MTEXT
  5
1A1
330
1F
100
AcDbEntity
  8
TEXT
100
AcDbMText
 10
230.0
 20
60.8119428599
 30
0.0
 40
3.0
 41
0.0
 71
     1
 72
     1
  1
Norm
  7
SLDTEXTSTYLE0
 73
     1
 44
1.0
  0
MTEXT
  5
1A2
330
1F
100
AcDbEntity
  8
TEXT
100
AcDbMText
 10
269.612607
 20
71.2121947186
 30
0.0
 40
3.0
 41
0.0
 71
     1
 72
     1
  1
0.04 kg
  7
SLDTEXTSTYLE0
 73
     1
 44
1.0
  0
MTEXT
  5
1A3
330
1F
100
AcDbEntity
  8
TEXT
100
AcDbMText
 10
230.0
 20
71.2121947186
 30
0.0
 40
3.0
 41
0.0
 71
     1
 72
     1
  1
EPDM 60
  7
SLDTEXTSTYLE0
 73
     1
 44
1.0
  0
CIRCLE
  5
1A4
330
1F
100
AcDbEntity
  8
0
  6
Continuous
 62
     7
370
    25
100
AcDbCircle
 10
134.4282219828
 20
121.7315948276
 30
0.0
 40
57.52825037968952
  0
CIRCLE
  5
1A5
330
1F
100
AcDbEntity
  8
0
  6
Continuous
 62
     7
370
    25
100
AcDbCircle
 10
134.4282219828
 20
121.7315948276
 30
0.0
 40
61.49947215714329
  0
CIRCLE
  5
1A6
330
1F
100
AcDbEntity
  8
0
  6
Continuous
 62
     7
370
    25
100
AcDbCircle
 10
134.4282219828
 20
121.7315948276
 30
0.0
 40
57.42847090857413
  0
CIRCLE
  5
1A7
330
1F
100
AcDbEntity
  8
0
  6
Continuous
 62
     7
370
    25
100
AcDbCircle
 10
134.4282219828
 20
121.7315948276
 30
0.0
 40
61.50000001359308
  0
CIRCLE
  5
1A8
330
1F
100
AcDbEntity
  8
0
  6
Continuous
 62
     7
370
    25
100
AcDbCircle
 10
134.4282219828
 20
121.7315948276
 30
0.0
 40
51.49718819096483
  0
CIRCLE
  5
1A9
330
1F
100
AcDbEntity
  8
0
  6
Continuous
 62
     7
370
    25
100
AcDbCircle
 10
134.4282219828
 20
121.7315948276
 30
0.0
 40
61.76556936717969
  0
CIRCLE
  5
1AA
330
1F
100
AcDbEntity
  8
0
  6
Continuous
 62
     7
370
    25
100
AcDbCircle
 10
134.4282219828
 20
121.7315948276
 30
0.0
 40
56.39597945469801
  0
CIRCLE
  5
1AB
330
1F
100
AcDbEntity
  8
0
  6
Continuous
 62
     8
370
    18
100
AcDbCircle
 10
134.4282219828
 20
121.7315948276
 30
0.0
 40
58.01885242447868
  0
CIRCLE
  5
1AC
330
1F
100
AcDbEntity
  8
0
  6
Continuous
 62
     8
370
    18
100
AcDbCircle
 10
134.4282219828
 20
121.7315948276
 30
0.0
 40
58.69584147968378
  0
CIRCLE
  5
1AD
330
1F
100
AcDbEntity
  8
0
  6
Continuous
 62
     8
370
    18
100
AcDbCircle
 10
134.4282219828
 20
121.7315948276
 30
0.0
 40
58.90082330328757
  0
CIRCLE
  5
1AE
330
1F
100
AcDbEntity
  8
0
  6
Continuous
 62
     8
370
    18
100
AcDbCircle
 10
134.4282219828
 20
121.7315948276
 30
0.0
 40
61.34895894865936
  0
CIRCLE
  5
1AF
330
1F
100
AcDbEntity
  8
0
  6
Continuous
 62
     8
370
    18
100
AcDbCircle
 10
134.4282219828
 20
121.7315948276
 30
0.0
 40
57.45266883890805
  0
CIRCLE
  5
1B0
330
1F
100
AcDbEntity
  8
0
  6
Continuous
 62
     8
370
    18
100
AcDbCircle
 10
134.4282219828
 20
121.7315948276
 30
0.0
 40
52.81539809940581
  0
CIRCLE
  5
1B1
330
1F
100
AcDbEntity
  8
0
  6
Continuous
 62
     8
370
    18
100
AcDbCircle
 10
134.4282219828
 20
121.7315948276
 30
0.0
 40
52.53541034440302
  0
CIRCLE
  5
1B2
330
1F
100
AcDbEntity
  8
0
  6
Continuous
 62
     8
370
    18
100
AcDbCircle
 10
134.4282219828
 20
121.7315948276
 30
0.0
 40
55.79858806087366
  0
CIRCLE
  5
1B3
330
1F
100
AcDbEntity
  8
0
  6
Continuous
 62
     8
370
    18
100
AcDbCircle
 10
134.4282219828
 20
121.7315948276
 30
0.0
 40
51.62555293960553
  0
CIRCLE
  5
1B4
330
1F
100
AcDbEntity
  8
0
  6
Continuous
 62
     8
370
    18
100
AcDbCircle
 10
134.4282219828
 20
121.7315948276
 30
0.0
 40
61.75428783814137
  0
DIMENSION
  5
1B5
330
1F
100
AcDbEntity
  8
0
  6
Continuous
 62
     7
370
    18
100
AcDbDimension
  2
_D
 10
90.7533690394
 20
78.0567418842
 30
0.0
 11
188.4108044644
 21
175.7141773092
 31
0.0
 70
   163
  1
<>
 71
     1
 42
-1.0
  3
SLDDIMSTYLE0
100
AcDbDiametricDimension
 15
178.1030749261
 25
165.406447771
 35
0.0
 40
0.0
  0
DIMENSION
  5
1BE
330
1F
100
AcDbEntity
  8
0
  6
Continuous
 62
     7
370
    18
100
AcDbDimension
  2
_D_1
 10
179.0260951796
 20
147.4801889231
 30
0.0
 11
196.8880881158
 21
157.7928195795
 31
0.0
 70
   163
  1
<>
 71
     1
 42
-1.0
  3
SLDDIMSTYLE1
100
AcDbDiametricDimension
 15
89.8303487859
 25
95.9830007321
 35
0.0
 40
0.0
  0
INSERT
  5
1D4
330
1F
100
AcDbEntity
  8
0
  6
Continuous
 62
     7
370
     0
100
AcDbBlockReference
  2
SW_CENTERMARKSYMBOL_0
 10
134.4282219828
 20
121.7315948276
 30
0.0
  0
LINE
  5
1D5
330
1F
100
AcDbEntity
  8
0
  6
CENTER
 62
     7
370
    18
100
AcDbLine
 10
203.4581063123
 20
121.7315948276
 30
0.0
 11
65.4073754153
 21
121.7315948276
 31
0.0
  0
LINE
  5
1D6
330
1F
100
AcDbEntity
  8
0
  6
Continuous
 62
     7
370
    18
100
AcDbLine
 10
201.4581063123
 20
114.1315948276
 30
0.0
 11
201.4581063123
 21
121.7315948276
 31
0.0
  0
SOLID
  5
1D7
330
1F
100
AcDbEntity
  8
0
  6
Continuous
 62
     7
370
    18
100
AcDbTrace
 10
201.4581063123
 20
121.7315948276
 30
0.0
 11
200.6581063123
 21
116.7315948276
 31
0.0
 12
202.2581063123
 22
116.7315948276
 32
0.0
 13
202.2581063123
 23
116.7315948276
 33
0.0
  0
LINE
  5
1D8
330
1F
100
AcDbEntity
  8
0
  6
Continuous
 62
     7
370
    18
100
AcDbLine
 10
67.4073754153
 20
114.1315948276
 30
0.0
 11
67.4073754153
 21
121.7315948276
 31
0.0
  0
SOLID
  5
1D9
330
1F
100
AcDbEntity
  8
0
  6
Continuous
 62
     7
370
    18
100
AcDbTrace
 10
67.4073754153
 20
121.7315948276
 30
0.0
 11
66.6073754153
 21
116.7315948276
 31
0.0
 12
68.2073754153
 22
116.7315948276
 32
0.0
 13
68.2073754153
 23
116.7315948276
 33
0.0
  0
MTEXT
  5
1DA
330
1F
100
AcDbEntity
  8
0
  6
Continuous
 62
     7
100
AcDbMText
 10
199.4322913837
 20
112.5824986933
 30
0.0
 40
5.0
 41
0.0
 71
     1
 72
     1
  1
A
  7
SLDTEXTSTYLE0
 73
     1
 44
1.0
  0
MTEXT
  5
1DB
330
1F
100
AcDbEntity
  8
0
  6
Continuous
 62
     7
100
AcDbMText
 10
65.0203688614
 20
112.4147578295
 30
0.0
 40
5.0
 41
0.0
 71
     1
 72
     1
  1
A
  7
SLDTEXTSTYLE0
 73
     1
 44
1.0
  0
LINE
  5
1DC
330
1F
100
AcDbEntity
  8
0
  6
Continuous
 62
     7
370
    25
100
AcDbLine
 10
77.3490321878
 20
215.8905213834
 30
0.0
 11
191.5074117777
 21
215.8905213834
 31
0.0
  0
LINE
  5
1DD
330
1F
100
AcDbEntity
  8
0
  6
Continuous
 62
     7
370
    25
100
AcDbLine
 10
187.6310894456
 20
221.2127367606
 30
0.0
 11
81.2253545199
 21
221.2127367606
 31
0.0
  0
LINE
  5
1DE
330
1F
100
AcDbEntity
  8
0
  6
Continuous
 62
     7
370
    25
100
AcDbLine
 10
72.7830631741
 20
223.5716225292
 30
0.0
 11
73.4968813228
 21
223.5716225292
 31
0.0
  0
LINE
  5
1DF
330
1F
100
AcDbEntity
  8
0
  6
Continuous
 62
     7
370
    25
100
AcDbLine
 10
195.3595626427
 20
223.5716225292
 30
0.0
 11
196.0733807915
 21
223.5716225292
 31
0.0
  0
LINE
  5
1E0
330
1F
100
AcDbEntity
  8
0
  6
Continuous
 62
     7
370
    25
100
AcDbLine
 10
81.0700602408
 20
225.7029348232
 30
0.0
 11
187.7863837247
 21
225.7029348232
 31
0.0
  0
LINE
  5
1E1
330
1F
100
AcDbEntity
  8
0
  6
Continuous
 62
     7
370
    25
100
AcDbLine
 10
192.3177040379
 20
233.3518688878
 30
0.0
 11
76.5387399276
 21
233.3518688878
 31
0.0
  0
LINE
  5
1E2
330
1F
100
AcDbEntity
  8
0
  6
Continuous
 62
     7
370
    25
100
AcDbLine
 10
192.0475662488
 20
230.290451018
 30
0.0
 11
191.9566786822
 21
232.9784300054
 31
0.0
  0
ARC
  5
1E3
330
1F
100
AcDbEntity
  8
0
  6
Continuous
 62
     7
370
    25
100
AcDbCircle
 10
192.3177040379
 20
232.9906372124
 30
0.0
 40
0.3612316754288597
100
AcDbArc
 50
69.0141832368
 51
181.936581649
  0
LINE
  5
1E4
330
1F
100
AcDbEntity
  8
0
  6
Continuous
 62
     7
370
    25
100
AcDbLine
 10
193.1240634624
 20
233.0682285791
 30
0.0
 11
192.4470744072
 21
233.3279080692
 31
0.0
  0
ARC
  5
1E5
330
1F
100
AcDbEntity
  8
0
  6
Continuous
 62
     7
370
    25
100
AcDbCircle
 10
192.606581985
 20
231.7191451517
 30
0.0
 40
1.444926701802555
100
AcDbArc
 50
60.0000022812
 51
69.0141832368
  0
LINE
  5
1E6
330
1F
100
AcDbEntity
  8
0
  6
Continuous
 62
     7
370
    25
100
AcDbLine
 10
195.7771809314
 20
231.557056767
 30
0.0
 11
193.329045286
 21
232.9704884109
 31
0.0
  0
ARC
  5
1E7
330
1F
100
AcDbEntity
  8
0
  6
Continuous
 62
     7
370
    25
100
AcDbCircle
 10
195.6266677437
 20
231.2963602547
 30
0.0
 40
0.3010263962093592
100
AcDbArc
 50
299.9999970171
 51
60.0000022812
  0
LINE
  5
1E8
330
1F
100
AcDbEntity
  8
0
  6
Continuous
 62
     7
370
    25
100
AcDbLine
 10
195.5100758544
 20
230.8814505728
 30
0.0
 11
195.7771809282
 21
231.0356637405
 31
0.0
  0
ARC
  5
1E9
330
1F
100
AcDbEntity
  8
0
  6
Continuous
 62
     7
370
    25
100
AcDbCircle
 10
195.6605890389
 20
230.6207540586
 30
0.0
 40
0.301026396208897
100
AcDbArc
 50
119.9999970171
 51
180.0
  0
LINE
  5
1EA
330
1F
100
AcDbEntity
  8
0
  6
Continuous
 62
     7
370
    25
100
AcDbLine
 10
195.3595626427
 20
230.1746732455
 30
0.0
 11
195.3595626427
 21
230.6207540586
 31
0.0
  0
ARC
  5
1EB
330
1F
100
AcDbEntity
  8
0
  6
Continuous
 62
     7
370
    25
100
AcDbCircle
 10
195.6605890389
 20
230.1746732455
 30
0.0
 40
0.3010263962093208
100
AcDbArc
 50
180.0000000014
 51
240.0000022812
  0
LINE
  5
1EC
330
1F
100
AcDbEntity
  8
0
  6
Continuous
 62
     7
370
    25
100
AcDbLine
 10
195.7777087878
 20
229.7594587994
 30
0.0
 11
195.5100758512
 21
229.9139767331
 31
0.0
  0
ARC
  5
1ED
330
1F
100
AcDbEntity
  8
0
  6
Continuous
 62
     7
370
    25
100
AcDbCircle
 10
195.6271956001
 20
229.498762287
 30
0.0
 40
0.3010263962093592
100
AcDbArc
 50
299.9999970171
 51
60.0000023035
  0
LINE
  5
1EE
330
1F
100
AcDbEntity
  8
0
  6
Continuous
 62
     7
370
    25
100
AcDbLine
 10
195.5100758544
 20
229.0835478471
 30
0.0
 11
195.7777087847
 21
229.2380657729
 31
0.0
  0
ARC
  5
1EF
330
1F
100
AcDbEntity
  8
0
  6
Continuous
 62
     7
370
    25
100
AcDbCircle
 10
195.6605890389
 20
228.8228513329
 30
0.0
 40
0.3010263962088583
100
AcDbArc
 50
119.9999970171
 51
180.0
  0
LINE
  5
1F0
330
1F
100
AcDbEntity
  8
0
  6
Continuous
 62
     7
370
    25
100
AcDbLine
 10
195.3595626427
 20
227.5461715388
 30
0.0
 11
195.3595626427
 21
228.8228513329
 31
0.0
  0
ARC
  5
1F1
330
1F
100
AcDbEntity
  8
0
  6
Continuous
 62
     7
370
    25
100
AcDbCircle
 10
195.6605890389
 20
227.5461715388
 30
0.0
 40
0.3010263962094127
100
AcDbArc
 50
180.0
 51
240.0000022812
  0
LINE
  5
1F2
330
1F
100
AcDbEntity
  8
0
  6
Continuous
 62
     7
370
    25
100
AcDbLine
 10
195.7777087743
 20
227.1309571006
 30
0.0
 11
195.5100758512
 21
227.2854750265
 31
0.0
  0
ARC
  5
1F3
330
1F
100
AcDbEntity
  8
0
  6
Continuous
 62
     7
370
    25
100
AcDbCircle
 10
195.6271955865
 20
226.8702605882
 30
0.0
 40
0.3010263962094084
100
AcDbArc
 50
299.9999970171
 51
60.0000022841
  0
LINE
  5
1F4
330
1F
100
AcDbEntity
  8
0
  6
Continuous
 62
     7
370
    25
100
AcDbLine
 10
195.5100758544
 20
226.4550461562
 30
0.0
 11
195.7777087711
 21
226.6095640741
 31
0.0
  0
ARC
  5
1F5
330
1F
100
AcDbEntity
  8
0
  6
Continuous
 62
     7
370
    25
100
AcDbCircle
 10
195.6605890389
 20
226.194349642
 30
0.0
 40
0.3010263962088545
100
AcDbArc
 50
119.9999970171
 51
180.0
  0
LINE
  5
1F6
330
1F
100
AcDbEntity
  8
0
  6
Continuous
 62
     7
370
    25
100
AcDbLine
 10
195.3595626427
 20
225.5744728787
 30
0.0
 11
195.3595626427
 21
226.194349642
 31
0.0
  0
ARC
  5
1F7
330
1F
100
AcDbEntity
  8
0
  6
Continuous
 62
     7
370
    25
100
AcDbCircle
 10
195.6605890389
 20
225.5744728787
 30
0.0
 40
0.3010263962101327
100
AcDbArc
 50
180.0
 51
204.9999970141
  0
LINE
  5
1F8
330
1F
100
AcDbEntity
  8
0
  6
Continuous
 62
     7
370
    25
100
AcDbLine
 10
196.1825098209
 20
223.7429207829
 30
0.0
 11
195.3877664653
 21
225.4472536407
 31
0.0
  0
ARC
  5
1F9
330
1F
100
AcDbEntity
  8
0
  6
Continuous
 62
     7
370
    25
100
AcDbCircle
 10
196.0733807915
 20
223.6920330877
 30
0.0
 40
0.1204105584786484
100
AcDbArc
 50
234.999997021
 51
24.9999970166
  0
LINE
  5
1FA
330
1F
100
AcDbEntity
  8
0
  6
Continuous
 62
     7
370
    25
100
AcDbLine
 10
196.0043161273
 20
223.5933985361
 30
0.0
 11
195.5490378654
 21
223.9121878424
 31
0.0
  0
ARC
  5
1FB
330
1F
100
AcDbEntity
  8
0
  6
Continuous
 62
     7
370
    25
100
AcDbCircle
 10
195.4799732012
 20
223.8135532908
 30
0.0
 40
0.1204105584834849
100
AcDbArc
 50
54.9999970237
 51
180.0
  0
LINE
  5
1FC
330
1F
100
AcDbEntity
  8
0
  6
Continuous
 62
     7
370
    25
100
AcDbLine
 10
195.3595626427
 20
222.1530009358
 30
0.0
 11
195.3595626427
 21
223.8135532908
 31
0.0
  0
ARC
  5
1FD
330
1F
100
AcDbEntity
  8
0
  6
Continuous
 62
     7
370
    25
100
AcDbCircle
 10
195.6605890389
 20
222.1530009358
 30
0.0
 40
0.3010263962093634
100
AcDbArc
 50
180.0
 51
240.0000022812
  0
LINE
  5
1FE
330
1F
100
AcDbEntity
  8
0
  6
Continuous
 62
     7
370
    25
100
AcDbLine
 10
195.7777087929
 20
221.7377864867
 30
0.0
 11
195.5100758512
 21
221.8923044234
 31
0.0
  0
ARC
  5
1FF
330
1F
100
AcDbEntity
  8
0
  6
Continuous
 62
     7
370
    25
100
AcDbCircle
 10
195.6271956052
 20
221.4770899744
 30
0.0
 40
0.3010263962093656
100
AcDbArc
 50
299.999997026
 51
60.0000022812
  0
LINE
  5
200
330
1F
100
AcDbEntity
  8
0
  6
Continuous
 62
     7
370
    25
100
AcDbLine
 10
195.5100758544
 20
221.0618755315
 30
0.0
 11
195.7777087898
 21
221.2163934602
 31
0.0
  0
ARC
  5
201
330
1F
100
AcDbEntity
  8
0
  6
Continuous
 62
     7
370
    25
100
AcDbCircle
 10
195.6605890389
 20
220.8011790174
 30
0.0
 40
0.3010263962088583
100
AcDbArc
 50
119.9999970171
 51
180.0
  0
LINE
  5
202
330
1F
100
AcDbEntity
  8
0
  6
Continuous
 62
     7
370
    25
100
AcDbLine
 10
195.3595626427
 20
218.7508498437
 30
0.0
 11
195.3595626427
 21
220.8011790174
 31
0.0
  0
ARC
  5
203
330
1F
100
AcDbEntity
  8
0
  6
Continuous
 62
     7
370
    25
100
AcDbCircle
 10
195.6605890389
 20
218.7508498437
 30
0.0
 40
0.3010263962094099
100
AcDbArc
 50
180.0
 51
240.0000022812
  0
LINE
  5
204
330
1F
100
AcDbEntity
  8
0
  6
Continuous
 62
     7
370
    25
100
AcDbLine
 10
195.7777087743
 20
218.3356354054
 30
0.0
 11
195.5100758512
 21
218.4901533314
 31
0.0
  0
ARC
  5
205
330
1F
100
AcDbEntity
  8
0
  6
Continuous
 62
     7
370
    25
100
AcDbCircle
 10
195.6271955865
 20
218.0749388931
 30
0.0
 40
0.3010263962110617
100
AcDbArc
 50
299.9999970171
 51
60.0000022841
  0
LINE
  5
206
330
1F
100
AcDbEntity
  8
0
  6
Continuous
 62
     7
370
    25
100
AcDbLine
 10
192.8994734585
 20
216.1524926462
 30
0.0
 11
195.7777087711
 21
217.8142423789
 31
0.0
  0
ARC
  5
207
330
1F
100
AcDbEntity
  8
0
  6
Continuous
 62
     7
370
    25
100
AcDbCircle
 10
192.1770101729
 20
217.4038359143
 30
0.0
 40
1.444926701802577
100
AcDbArc
 50
275.999997008
 51
299.9999970127
  0
LINE
  5
208
330
1F
100
AcDbEntity
  8
0
  6
Continuous
 62
     7
370
    25
100
AcDbLine
 10
191.6962066437
 20
215.9004156982
 30
0.0
 11
192.3280460655
 21
215.9668246642
 31
0.0
  0
ARC
  5
209
330
1F
100
AcDbEntity
  8
0
  6
Continuous
 62
     7
370
    25
100
AcDbCircle
 10
191.5074117777
 20
217.6966797607
 30
0.0
 40
1.806158377253175
100
AcDbArc
 50
261.2884996334
 51
275.999997014
  0
LINE
  5
20A
330
1F
100
AcDbEntity
  8
0
  6
Continuous
 62
     7
370
    25
100
AcDbLine
 10
191.2338524261
 20
215.9113581188
 30
0.0
 11
189.6754306026
 21
216.1501503081
 31
0.0
  0
ARC
  5
20B
330
1F
100
AcDbEntity
  8
0
  6
Continuous
 62
     7
370
    25
100
AcDbCircle
 10
189.7314705166
 20
216.5158818053
 30
0.0
 40
0.3700000000036694
100
AcDbArc
 50
180.0000000086
 51
261.2884996316
  0
LINE
  5
20C
330
1F
100
AcDbEntity
  8
0
  6
Continuous
 62
     7
370
    25
100
AcDbLine
 10
189.3614705166
 20
216.5158818053
 30
0.0
 11
189.3614705165
 21
217.4527121151
 31
0.0
  0
ARC
  5
20D
330
1F
100
AcDbEntity
  8
0
  6
Continuous
 62
     7
370
    25
100
AcDbCircle
 10
189.1206493996
 20
217.4527121151
 30
0.0
 40
0.2408211169747469
100
AcDbArc
 50
359.9999999956
 51
27.9999999962
  0
LINE
  5
20E
330
1F
100
AcDbEntity
  8
0
  6
Continuous
 62
     7
370
    25
100
AcDbLine
 10
189.3332818252
 20
217.5657707812
 30
0.0
 11
187.9334099696
 21
220.1985468282
 31
0.0
  0
ARC
  5
20F
330
1F
100
AcDbEntity
  8
0
  6
Continuous
 62
     7
370
    25
100
AcDbCircle
 10
187.4018289057
 20
219.9159001629
 30
0.0
 40
0.6020527924445264
100
AcDbArc
 50
27.9999999952
 51
76.231542414
  0
ARC
  5
210
330
1F
100
AcDbEntity
  8
0
  6
Continuous
 62
     7
370
    25
100
AcDbCircle
 10
187.6310894456
 20
220.8515050852
 30
0.0
 40
0.3612316754288801
100
AcDbArc
 50
79.0000000085
 51
256.2315426254
  0
LINE
  5
211
330
1F
100
AcDbEntity
  8
0
  6
Continuous
 62
     7
370
    25
100
AcDbLine
 10
188.2789982474
 20
221.0935571106
 30
0.0
 11
187.7000156987
 21
221.2060999173
 31
0.0
  0
ARC
  5
212
330
1F
100
AcDbEntity
  8
0
  6
Continuous
 62
     7
370
    25
100
AcDbCircle
 10
188.3938753358
 20
221.6845484976
 30
0.0
 40
0.6020527924445105
100
AcDbArc
 50
259.0000000041
 51
0.0
  0
LINE
  5
213
330
1F
100
AcDbEntity
  8
0
  6
Continuous
 62
     7
370
    25
100
AcDbLine
 10
188.9959281283
 20
221.6845484976
 30
0.0
 11
188.9959281283
 21
223.9686404222
 31
0.0
  0
ARC
  5
214
330
1F
100
AcDbEntity
  8
0
  6
Continuous
 62
     7
370
    25
100
AcDbCircle
 10
188.7551070112
 20
223.9686404222
 30
0.0
 40
0.2408211170383936
100
AcDbArc
 50
359.9999999956
 51
46.0610789643
  0
LINE
  5
215
330
1F
100
AcDbEntity
  8
0
  6
Continuous
 62
     7
370
    25
100
AcDbLine
 10
188.9222106503
 20
224.1420508723
 30
0.0
 11
188.7138630099
 21
224.3428210618
 31
0.0
  0
ARC
  5
216
330
1F
100
AcDbEntity
  8
0
  6
Continuous
 62
     7
370
    25
100
AcDbCircle
 10
188.9227425588
 20
224.5595841244
 30
0.0
 40
0.301026396209245
100
AcDbArc
 50
164.9999999936
 51
226.0610789643
  0
LINE
  5
217
330
1F
100
AcDbEntity
  8
0
  6
Continuous
 62
     7
370
    25
100
AcDbLine
 10
188.6319733883
 20
224.6374954888
 30
0.0
 11
188.6970968135
 21
224.8805394206
 31
0.0
  0
ARC
  5
218
330
1F
100
AcDbEntity
  8
0
  6
Continuous
 62
     7
370
    25
100
AcDbCircle
 10
188.5226353112
 20
224.9272862393
 30
0.0
 40
0.1806158377258821
100
AcDbArc
 50
344.999999998
 51
14.7005665658
  0
LINE
  5
219
330
1F
100
AcDbEntity
  8
0
  6
Continuous
 62
     7
370
    25
100
AcDbLine
 10
188.6973387335
 20
224.9731206705
 30
0.0
 11
188.5096381346
 21
225.6885639751
 31
0.0
  0
ARC
  5
21A
330
1F
100
AcDbEntity
  8
0
  6
Continuous
 62
     7
370
    25
100
AcDbCircle
 10
188.3349347123
 20
225.6427295439
 30
0.0
 40
0.1806158377257537
100
AcDbArc
 50
14.7005665614
 51
103.5831003745
  0
LINE
  5
21B
330
1F
100
AcDbEntity
  8
0
  6
Continuous
 62
     7
370
    25
100
AcDbLine
 10
187.842941869
 20
225.7096705141
 30
0.0
 11
188.2925161041
 21
225.8182936134
 31
0.0
  0
ARC
  5
21C
330
1F
100
AcDbEntity
  8
0
  6
Continuous
 62
     7
370
    25
100
AcDbCircle
 10
187.7863837247
 20
225.9437559401
 30
0.0
 40
0.2408211169747323
100
AcDbArc
 50
165.9023045137
 51
283.5831003745
  0
LINE
  5
21D
330
1F
100
AcDbEntity
  8
0
  6
Continuous
 62
     7
370
    25
100
AcDbLine
 10
187.5528157032
 20
226.002414185
 30
0.0
 11
187.7778423008
 21
226.8984351506
 31
0.0
  0
ARC
  5
21E
330
1F
100
AcDbEntity
  8
0
  6
Continuous
 62
     7
370
    25
100
AcDbCircle
 10
187.4858822739
 20
226.9717579567
 30
0.0
 40
0.3010263962092405
100
AcDbArc
 50
345.9023045137
 51
65.7584099899
  0
LINE
  5
21F
330
1F
100
AcDbEntity
  8
0
  6
Continuous
 62
     7
370
    25
100
AcDbLine
 10
187.6094792021
 20
227.2462405437
 30
0.0
 11
186.4640713172
 21
227.7620069453
 31
0.0
  0
LINE
  5
220
330
1F
100
AcDbEntity
  8
0
  6
Continuous
 62
     7
370
    25
100
AcDbLine
 10
186.4640713172
 20
227.7620069453
 30
0.0
 11
186.1028396417
 21
227.9246661725
 31
0.0
  0
ARC
  5
221
330
1F
100
AcDbEntity
  8
0
  6
Continuous
 62
     7
370
    25
100
AcDbCircle
 10
186.2264365699
 20
228.1991487594
 30
0.0
 40
0.301026396209618
100
AcDbArc
 50
124.9999999961
 51
245.7584099989
  0
LINE
  5
222
330
1F
100
AcDbEntity
  8
0
  6
Continuous
 62
     7
370
    25
100
AcDbLine
 10
186.0537749224
 20
228.4457351473
 30
0.0
 11
186.9636323272
 21
229.0828241608
 31
0.0
  0
ARC
  5
223
330
1F
100
AcDbEntity
  8
0
  6
Continuous
 62
     7
370
    25
100
AcDbCircle
 10
187.2398909633
 20
228.6882859402
 30
0.0
 40
0.4816422339342323
100
AcDbArc
 50
89.5563825309
 51
124.9999999959
  0
LINE
  5
224
330
1F
100
AcDbEntity
  8
0
  6
Continuous
 62
     7
370
    25
100
AcDbLine
 10
190.2268100436
 20
229.1468156728
 30
0.0
 11
187.2436200822
 21
229.1699137375
 31
0.0
  0
ARC
  5
225
330
1F
100
AcDbEntity
  8
0
  6
Continuous
 62
     7
370
    25
100
AcDbCircle
 10
190.222148645
 20
228.5447809261
 30
0.0
 40
0.6020527924521032
100
AcDbArc
 50
0.0
 51
89.5563825309
  0
LINE
  5
226
330
1F
100
AcDbEntity
  8
0
  6
Continuous
 62
     7
370
    25
100
AcDbLine
 10
190.8242014375
 20
228.2682723708
 30
0.0
 11
190.8242014375
 21
228.5447809261
 31
0.0
  0
ARC
  5
227
330
1F
100
AcDbEntity
  8
0
  6
Continuous
 62
     7
370
    25
100
AcDbCircle
 10
191.6670753468
 20
228.2682723708
 30
0.0
 40
0.8428739093848219
100
AcDbArc
 50
180.0
 51
25.7456652543
  0
LINE
  5
228
330
1F
100
AcDbEntity
  8
0
  6
Continuous
 62
     7
370
    25
100
AcDbLine
 10
192.4262780946
 20
228.6343975064
 30
0.0
 11
191.874622426
 21
229.7783192387
 31
0.0
  0
ARC
  5
229
330
1F
100
AcDbEntity
  8
0
  6
Continuous
 62
     7
370
    25
100
AcDbCircle
 10
192.0373087291
 20
229.8567746249
 30
0.0
 40
0.1806158377266655
100
AcDbArc
 50
150.0000022812
 51
205.7456652543
  0
LINE
  5
22A
330
1F
100
AcDbEntity
  8
0
  6
Continuous
 62
     7
370
    25
100
AcDbLine
 10
191.8808908217
 20
229.9470825376
 30
0.0
 11
192.0234714783
 21
230.1940395018
 31
0.0
  0
ARC
  5
22B
330
1F
100
AcDbEntity
  8
0
  6
Continuous
 62
     7
370
    25
100
AcDbCircle
 10
191.8670535709
 20
230.2843474144
 30
0.0
 40
0.1806158377260305
100
AcDbArc
 50
330.0000022812
 51
1.936581649
  0
LINE
  5
22C
330
1F
100
AcDbEntity
  8
0
  6
Continuous
 62
     7
370
    25
100
AcDbLine
 10
76.8329724872
 20
230.1940395018
 30
0.0
 11
76.9755531439
 21
229.9470825376
 31
0.0
  0
ARC
  5
22D
330
1F
100
AcDbEntity
  8
0
  6
Continuous
 62
     7
370
    25
100
AcDbCircle
 10
76.8191352365
 20
229.8567746249
 30
0.0
 40
0.1806158377266655
100
AcDbArc
 50
334.2543347457
 51
29.9999977188
  0
LINE
  5
22E
330
1F
100
AcDbEntity
  8
0
  6
Continuous
 62
     7
370
    25
100
AcDbLine
 10
76.9818215395
 20
229.7783192387
 30
0.0
 11
76.4301658709
 21
228.6343975064
 31
0.0
  0
ARC
  5
22F
330
1F
100
AcDbEntity
  8
0
  6
Continuous
 62
     7
370
    25
100
AcDbCircle
 10
77.1893686187
 20
228.2682723708
 30
0.0
 40
0.842873909384835
100
AcDbArc
 50
154.2543347457
 51
0.0
  0
LINE
  5
230
330
1F
100
AcDbEntity
  8
0
  6
Continuous
 62
     7
370
    25
100
AcDbLine
 10
78.0322425281
 20
228.5447809261
 30
0.0
 11
78.0322425281
 21
228.2682723708
 31
0.0
  0
ARC
  5
231
330
1F
100
AcDbEntity
  8
0
  6
Continuous
 62
     7
370
    25
100
AcDbCircle
 10
78.6342953205
 20
228.5447809261
 30
0.0
 40
0.6020527924521022
100
AcDbArc
 50
90.4436174691
 51
180.0
  0
LINE
  5
232
330
1F
100
AcDbEntity
  8
0
  6
Continuous
 62
     7
370
    25
100
AcDbLine
 10
81.6128238834
 20
229.1699137375
 30
0.0
 11
78.6296339219
 21
229.1468156728
 31
0.0
  0
ARC
  5
233
330
1F
100
AcDbEntity
  8
0
  6
Continuous
 62
     7
370
    25
100
AcDbCircle
 10
81.6165530022
 20
228.6882859402
 30
0.0
 40
0.4816422339342321
100
AcDbArc
 50
55.0000000041
 51
90.4436174691
  0
LINE
  5
234
330
1F
100
AcDbEntity
  8
0
  6
Continuous
 62
     7
370
    25
100
AcDbLine
 10
81.8928116384
 20
229.0828241608
 30
0.0
 11
82.8026690432
 21
228.4457351473
 31
0.0
  0
ARC
  5
235
330
1F
100
AcDbEntity
  8
0
  6
Continuous
 62
     7
370
    25
100
AcDbCircle
 10
82.6300073956
 20
228.1991487594
 30
0.0
 40
0.301026396209618
100
AcDbArc
 50
294.2415900011
 51
55.0000000039
  0
LINE
  5
236
330
1F
100
AcDbEntity
  8
0
  6
Continuous
 62
     7
370
    25
100
AcDbLine
 10
82.7536043238
 20
227.9246661725
 30
0.0
 11
82.3923726483
 21
227.7620069453
 31
0.0
  0
LINE
  5
237
330
1F
100
AcDbEntity
  8
0
  6
Continuous
 62
     7
370
    25
100
AcDbLine
 10
82.3923726483
 20
227.7620069453
 30
0.0
 11
81.2469647634
 21
227.2462405437
 31
0.0
  0
ARC
  5
238
330
1F
100
AcDbEntity
  8
0
  6
Continuous
 62
     7
370
    25
100
AcDbCircle
 10
81.3705616917
 20
226.9717579567
 30
0.0
 40
0.3010263962124959
100
AcDbArc
 50
114.2415900106
 51
194.0976954857
  0
LINE
  5
239
330
1F
100
AcDbEntity
  8
0
  6
Continuous
 62
     7
370
    25
100
AcDbLine
 10
81.0786016647
 20
226.8984351506
 30
0.0
 11
81.3036282624
 21
226.002414185
 31
0.0
  0
ARC
  5
23A
330
1F
100
AcDbEntity
  8
0
  6
Continuous
 62
     7
370
    25
100
AcDbCircle
 10
81.0700602408
 20
225.9437559401
 30
0.0
 40
0.2408211169747323
100
AcDbArc
 50
256.4168996255
 51
14.0976954863
  0
LINE
  5
23B
330
1F
100
AcDbEntity
  8
0
  6
Continuous
 62
     7
370
    25
100
AcDbLine
 10
80.5639278614
 20
225.8182936134
 30
0.0
 11
81.0135020965
 21
225.7096705141
 31
0.0
  0
ARC
  5
23C
330
1F
100
AcDbEntity
  8
0
  6
Continuous
 62
     7
370
    25
100
AcDbCircle
 10
80.5215092532
 20
225.6427295439
 30
0.0
 40
0.1806158377257604
100
AcDbArc
 50
76.4168996255
 51
165.2994334386
  0
LINE
  5
23D
330
1F
100
AcDbEntity
  8
0
  6
Continuous
 62
     7
370
    25
100
AcDbLine
 10
80.346805831
 20
225.6885639751
 30
0.0
 11
80.1591052321
 21
224.9731206705
 31
0.0
  0
LWPOLYLINE
  5
23E
330
1F
100
AcDbEntity
  8
0
  6
Continuous
 62
     7
370
    25
100
AcDbPolyline
 90
        3
 70
   128
 43
0.0
 10
80.1591052321
 20
224.9731206705
 10
80.1537820218
 20
224.9127091188
 10
80.159347152
 20
224.8805394206
  0
LINE
  5
23F
330
1F
100
AcDbEntity
  8
0
  6
Continuous
 62
     7
370
    25
100
AcDbLine
 10
80.159347152
 20
224.8805394206
 30
0.0
 11
80.2244705773
 21
224.6374954888
 31
0.0
  0
ARC
  5
240
330
1F
100
AcDbEntity
  8
0
  6
Continuous
 62
     7
370
    25
100
AcDbCircle
 10
79.9337014068
 20
224.5595841244
 30
0.0
 40
0.3010263962092746
100
AcDbArc
 50
313.9389210357
 51
15.0000000064
  0
LINE
  5
241
330
1F
100
AcDbEntity
  8
0
  6
Continuous
 62
     7
370
    25
100
AcDbLine
 10
80.1425809556
 20
224.3428210618
 30
0.0
 11
79.9342333152
 21
224.1420508723
 31
0.0
  0
ARC
  5
242
330
1F
100
AcDbEntity
  8
0
  6
Continuous
 62
     7
370
    25
100
AcDbCircle
 10
80.1013369543
 20
223.9686404222
 30
0.0
 40
0.2408211170384078
100
AcDbArc
 50
133.9389210357
 51
180.0000000044
  0
LINE
  5
243
330
1F
100
AcDbEntity
  8
0
  6
Continuous
 62
     7
370
    25
100
AcDbLine
 10
79.8605158373
 20
223.9686404222
 30
0.0
 11
79.8605158372
 21
221.6845484976
 31
0.0
  0
ARC
  5
244
330
1F
100
AcDbEntity
  8
0
  6
Continuous
 62
     7
370
    25
100
AcDbCircle
 10
80.4625686297
 20
221.6845484976
 30
0.0
 40
0.6020527924445105
100
AcDbArc
 50
180.0
 51
280.9999999959
  0
LINE
  5
245
330
1F
100
AcDbEntity
  8
0
  6
Continuous
 62
     7
370
    25
100
AcDbLine
 10
81.1564282669
 20
221.2060999173
 30
0.0
 11
80.5774457181
 21
221.0935571106
 31
0.0
  0
ARC
  5
246
330
1F
100
AcDbEntity
  8
0
  6
Continuous
 62
     7
370
    25
100
AcDbCircle
 10
81.2253545199
 20
220.8515050852
 30
0.0
 40
0.3612316754288774
100
AcDbArc
 50
283.7684573747
 51
100.9999999915
  0
ARC
  5
247
330
1F
100
AcDbEntity
  8
0
  6
Continuous
 62
     7
370
    25
100
AcDbCircle
 10
81.4546150598
 20
219.9159001629
 30
0.0
 40
0.6020527924445298
100
AcDbArc
 50
103.768457586
 51
152.0000000048
  0
LINE
  5
248
330
1F
100
AcDbEntity
  8
0
  6
Continuous
 62
     7
370
    25
100
AcDbLine
 10
80.9230339959
 20
220.1985468282
 30
0.0
 11
79.5231621404
 21
217.5657707812
 31
0.0
  0
ARC
  5
249
330
1F
100
AcDbEntity
  8
0
  6
Continuous
 62
     7
370
    25
100
AcDbCircle
 10
79.7357945659
 20
217.4527121151
 30
0.0
 40
0.2408211169747218
100
AcDbArc
 50
152.0000000038
 51
180.0000000044
  0
LINE
  5
24A
330
1F
100
AcDbEntity
  8
0
  6
Continuous
 62
     7
370
    25
100
AcDbLine
 10
79.494973449
 20
217.4527121151
 30
0.0
 11
79.4949734489
 21
216.5158818053
 31
0.0
  0
ARC
  5
24B
330
1F
100
AcDbEntity
  8
0
  6
Continuous
 62
     7
370
    25
100
AcDbCircle
 10
79.1249734489
 20
216.5158818053
 30
0.0
 40
0.3700000000036716
100
AcDbArc
 50
278.7115003684
 51
359.9999999914
  0
LINE
  5
24C
330
1F
100
AcDbEntity
  8
0
  6
Continuous
 62
     7
370
    25
100
AcDbLine
 10
79.1810133629
 20
216.1501503081
 30
0.0
 11
77.6225915394
 21
215.9113581188
 31
0.0
  0
ARC
  5
24D
330
1F
100
AcDbEntity
  8
0
  6
Continuous
 62
     7
370
    25
100
AcDbCircle
 10
77.3490321878
 20
217.6966797607
 30
0.0
 40
1.806158377253177
100
AcDbArc
 50
264.000002986
 51
278.7115003666
  0
LINE
  5
24E
330
1F
100
AcDbEntity
  8
0
  6
Continuous
 62
     7
370
    25
100
AcDbLine
 10
76.5283979
 20
215.9668246642
 30
0.0
 11
77.1602373219
 21
215.9004156982
 31
0.0
  0
ARC
  5
24F
330
1F
100
AcDbEntity
  8
0
  6
Continuous
 62
     7
370
    25
100
AcDbCircle
 10
76.6794337927
 20
217.4038359143
 30
0.0
 40
1.444926701802579
100
AcDbArc
 50
240.0000029873
 51
264.000002992
  0
LINE
  5
250
330
1F
100
AcDbEntity
  8
0
  6
Continuous
 62
     7
370
    25
100
AcDbLine
 10
73.0787351944
 20
217.8142423789
 30
0.0
 11
75.956970507
 21
216.1524926462
 31
0.0
  0
ARC
  5
251
330
1F
100
AcDbEntity
  8
0
  6
Continuous
 62
     7
370
    25
100
AcDbCircle
 10
73.229248379
 20
218.0749388931
 30
0.0
 40
0.301026396216924
100
AcDbArc
 50
119.999997718
 51
240.0000029805
  0
LINE
  5
252
330
1F
100
AcDbEntity
  8
0
  6
Continuous
 62
     7
370
    25
100
AcDbLine
 10
73.3463681143
 20
218.4901533314
 30
0.0
 11
73.0787351913
 21
218.3356354054
 31
0.0
  0
ARC
  5
253
330
1F
100
AcDbEntity
  8
0
  6
Continuous
 62
     7
370
    25
100
AcDbCircle
 10
73.1958549266
 20
218.7508498437
 30
0.0
 40
0.301026396209417
100
AcDbArc
 50
299.9999977188
 51
0.0
  0
LINE
  5
254
330
1F
100
AcDbEntity
  8
0
  6
Continuous
 62
     7
370
    25
100
AcDbLine
 10
73.4968813228
 20
220.8011790174
 30
0.0
 11
73.4968813228
 21
218.7508498437
 31
0.0
  0
ARC
  5
255
330
1F
100
AcDbEntity
  8
0
  6
Continuous
 62
     7
370
    25
100
AcDbCircle
 10
73.1958549266
 20
220.8011790174
 30
0.0
 40
0.3010263962088654
100
AcDbArc
 50
0.0
 51
60.0000029829
  0
LINE
  5
256
330
1F
100
AcDbEntity
  8
0
  6
Continuous
 62
     7
370
    25
100
AcDbLine
 10
73.0787351757
 20
221.2163934602
 30
0.0
 11
73.3463681111
 21
221.0618755315
 31
0.0
  0
ARC
  5
257
330
1F
100
AcDbEntity
  8
0
  6
Continuous
 62
     7
370
    25
100
AcDbCircle
 10
73.2292483603
 20
221.4770899744
 30
0.0
 40
0.3010263962107002
100
AcDbArc
 50
119.9999977193
 51
240.0000029735
  0
LINE
  5
258
330
1F
100
AcDbEntity
  8
0
  6
Continuous
 62
     7
370
    25
100
AcDbLine
 10
73.3463681143
 20
221.8923044234
 30
0.0
 11
73.0787351726
 21
221.7377864867
 31
0.0
  0
ARC
  5
259
330
1F
100
AcDbEntity
  8
0
  6
Continuous
 62
     7
370
    25
100
AcDbCircle
 10
73.1958549266
 20
222.1530009358
 30
0.0
 40
0.3010263962093634
100
AcDbArc
 50
299.9999977188
 51
0.0
  0
LINE
  5
25A
330
1F
100
AcDbEntity
  8
0
  6
Continuous
 62
     7
370
    25
100
AcDbLine
 10
73.4968813228
 20
223.8135532908
 30
0.0
 11
73.4968813228
 21
222.1530009358
 31
0.0
  0
ARC
  5
25B
330
1F
100
AcDbEntity
  8
0
  6
Continuous
 62
     7
370
    25
100
AcDbCircle
 10
73.3764707643
 20
223.8135532908
 30
0.0
 40
0.1204105584834991
100
AcDbArc
 50
0.0
 51
125.0000029763
  0
LINE
  5
25C
330
1F
100
AcDbEntity
  8
0
  6
Continuous
 62
     7
370
    25
100
AcDbLine
 10
73.3074061001
 20
223.9121878424
 30
0.0
 11
72.8521278382
 21
223.5933985361
 31
0.0
  0
ARC
  5
25D
330
1F
100
AcDbEntity
  8
0
  6
Continuous
 62
     7
370
    25
100
AcDbCircle
 10
72.7830631741
 20
223.6920330877
 30
0.0
 40
0.1204105584779551
100
AcDbArc
 50
155.0000029831
 51
305.0000029795
  0
LINE
  5
25E
330
1F
100
AcDbEntity
  8
0
  6
Continuous
 62
     7
370
    25
100
AcDbLine
 10
73.4686775002
 20
225.4472536407
 30
0.0
 11
72.6739341446
 21
223.7429207829
 31
0.0
  0
ARC
  5
25F
330
1F
100
AcDbEntity
  8
0
  6
Continuous
 62
     7
370
    25
100
AcDbCircle
 10
73.1958549266
 20
225.5744728787
 30
0.0
 40
0.3010263962101327
100
AcDbArc
 50
335.0000029859
 51
0.0
  0
LINE
  5
260
330
1F
100
AcDbEntity
  8
0
  6
Continuous
 62
     7
370
    25
100
AcDbLine
 10
73.4968813228
 20
226.194349642
 30
0.0
 11
73.4968813228
 21
225.5744728787
 31
0.0
  0
ARC
  5
261
330
1F
100
AcDbEntity
  8
0
  6
Continuous
 62
     7
370
    25
100
AcDbCircle
 10
73.1958549266
 20
226.194349642
 30
0.0
 40
0.3010263962088545
100
AcDbArc
 50
0.0
 51
60.0000029829
  0
LINE
  5
262
330
1F
100
AcDbEntity
  8
0
  6
Continuous
 62
     7
370
    25
100
AcDbLine
 10
73.0787351944
 20
226.6095640741
 30
0.0
 11
73.3463681111
 21
226.4550461562
 31
0.0
  0
ARC
  5
263
330
1F
100
AcDbEntity
  8
0
  6
Continuous
 62
     7
370
    25
100
AcDbCircle
 10
73.229248379
 20
226.8702605882
 30
0.0
 40
0.3010263962107719
100
AcDbArc
 50
119.9999977164
 51
240.0000029823
  0
LINE
  5
264
330
1F
100
AcDbEntity
  8
0
  6
Continuous
 62
     7
370
    25
100
AcDbLine
 10
73.3463681143
 20
227.2854750265
 30
0.0
 11
73.0787351913
 21
227.1309571006
 31
0.0
  0
ARC
  5
265
330
1F
100
AcDbEntity
  8
0
  6
Continuous
 62
     7
370
    25
100
AcDbCircle
 10
73.1958549266
 20
227.5461715388
 30
0.0
 40
0.3010263962094269
100
AcDbArc
 50
299.9999977188
 51
0.0
  0
LINE
  5
266
330
1F
100
AcDbEntity
  8
0
  6
Continuous
 62
     7
370
    25
100
AcDbLine
 10
73.4968813228
 20
228.8228513329
 30
0.0
 11
73.4968813228
 21
227.5461715388
 31
0.0
  0
ARC
  5
267
330
1F
100
AcDbEntity
  8
0
  6
Continuous
 62
     7
370
    25
100
AcDbCircle
 10
73.1958549266
 20
228.8228513329
 30
0.0
 40
0.3010263962088725
100
AcDbArc
 50
0.0
 51
60.0000029829
  0
LINE
  5
268
330
1F
100
AcDbEntity
  8
0
  6
Continuous
 62
     7
370
    25
100
AcDbLine
 10
73.0787351808
 20
229.2380657729
 30
0.0
 11
73.3463681111
 21
229.0835478471
 31
0.0
  0
ARC
  5
269
330
1F
100
AcDbEntity
  8
0
  6
Continuous
 62
     7
370
    25
100
AcDbCircle
 10
73.2292483654
 20
229.498762287
 30
0.0
 40
0.301026396210708
100
AcDbArc
 50
119.999997697
 51
240.0000029823
  0
LINE
  5
26A
330
1F
100
AcDbEntity
  8
0
  6
Continuous
 62
     7
370
    25
100
AcDbLine
 10
73.3463681143
 20
229.9139767331
 30
0.0
 11
73.0787351778
 21
229.7594587994
 31
0.0
  0
ARC
  5
26B
330
1F
100
AcDbEntity
  8
0
  6
Continuous
 62
     7
370
    25
100
AcDbCircle
 10
73.1958549266
 20
230.1746732455
 30
0.0
 40
0.3010263962093208
100
AcDbArc
 50
299.9999977188
 51
359.9999999986
  0
LINE
  5
26C
330
1F
100
AcDbEntity
  8
0
  6
Continuous
 62
     7
370
    25
100
AcDbLine
 10
73.4968813228
 20
230.6207540586
 30
0.0
 11
73.4968813228
 21
230.1746732455
 31
0.0
  0
ARC
  5
26D
330
1F
100
AcDbEntity
  8
0
  6
Continuous
 62
     7
370
    25
100
AcDbCircle
 10
73.1958549266
 20
230.6207540586
 30
0.0
 40
0.301026396208897
100
AcDbArc
 50
0.0
 51
60.0000029829
  0
LINE
  5
26E
330
1F
100
AcDbEntity
  8
0
  6
Continuous
 62
     7
370
    25
100
AcDbLine
 10
73.0792630373
 20
231.0356637405
 30
0.0
 11
73.3463681111
 21
230.8814505728
 31
0.0
  0
ARC
  5
26F
330
1F
100
AcDbEntity
  8
0
  6
Continuous
 62
     7
370
    25
100
AcDbCircle
 10
73.2297762218
 20
231.2963602547
 30
0.0
 40
0.3010263962105697
100
AcDbArc
 50
119.9999977193
 51
240.0000029824
  0
LINE
  5
270
330
1F
100
AcDbEntity
  8
0
  6
Continuous
 62
     7
370
    25
100
AcDbLine
 10
75.5273986795
 20
232.9704884109
 30
0.0
 11
73.0792630341
 21
231.557056767
 31
0.0
  0
ARC
  5
271
330
1F
100
AcDbEntity
  8
0
  6
Continuous
 62
     7
370
    25
100
AcDbCircle
 10
76.2498619805
 20
231.7191451517
 30
0.0
 40
1.444926701802555
100
AcDbArc
 50
110.9858167632
 51
119.9999977188
  0
LINE
  5
272
330
1F
100
AcDbEntity
  8
0
  6
Continuous
 62
     7
370
    25
100
AcDbLine
 10
76.4093695583
 20
233.3279080692
 30
0.0
 11
75.7323805031
 21
233.0682285791
 31
0.0
  0
ARC
  5
273
330
1F
100
AcDbEntity
  8
0
  6
Continuous
 62
     7
370
    25
100
AcDbCircle
 10
76.5387399276
 20
232.9906372124
 30
0.0
 40
0.3612316754288739
100
AcDbArc
 50
358.063418351
 51
110.9858167632
  0
LINE
  5
274
330
1F
100
AcDbEntity
  8
0
  6
Continuous
 62
     7
370
    25
100
AcDbLine
 10
76.8997652833
 20
232.9784300054
 30
0.0
 11
76.8088777167
 21
230.290451018
 31
0.0
  0
LWPOLYLINE
  5
275
330
1F
100
AcDbEntity
  8
0
  6
Continuous
 62
     7
370
    25
100
AcDbPolyline
 90
        3
 70
   128
 43
0.0
 10
76.8088777167
 20
230.290451018
 10
76.8170331074
 20
230.2303562449
 10
76.8329724872
 20
230.1940395018
  0
LINE
  5
276
330
1F
100
AcDbEntity
  8
0
  6
Continuous
 62
     7
370
    25
100
AcDbLine
 10
187.2361618444
 20
229.1699137375
 30
0.0
 11
81.6202821211
 21
229.1699137375
 31
0.0
  0
LINE
  5
277
330
1F
100
AcDbEntity
  8
0
  6
Continuous
 62
     8
370
    18
100
AcDbLine
 10
191.2338524261
 20
215.9113581188
 30
0.0
 11
77.6225915394
 21
215.9113581188
 31
0.0
  0
LINE
  5
278
330
1F
100
AcDbEntity
  8
0
  6
Continuous
 62
     8
370
    18
100
AcDbLine
 10
79.1810133629
 20
216.1501503081
 30
0.0
 11
189.6754306026
 21
216.1501503081
 31
0.0
  0
LINE
  5
279
330
1F
100
AcDbEntity
  8
0
  6
Continuous
 62
     8
370
    18
100
AcDbLine
 10
189.3614705166
 20
216.5158818053
 30
0.0
 11
79.4949734489
 21
216.5158818053
 31
0.0
  0
LINE
  5
27A
330
1F
100
AcDbEntity
  8
0
  6
Continuous
 62
     8
370
    18
100
AcDbLine
 10
79.494973449
 20
217.4527121151
 30
0.0
 11
189.3614705165
 21
217.4527121151
 31
0.0
  0
LINE
  5
27B
330
1F
100
AcDbEntity
  8
0
  6
Continuous
 62
     8
370
    18
100
AcDbLine
 10
79.5231621404
 20
217.5657707812
 30
0.0
 11
189.3332818252
 21
217.5657707812
 31
0.0
  0
LINE
  5
27C
330
1F
100
AcDbEntity
  8
0
  6
Continuous
 62
     8
370
    18
100
AcDbLine
 10
80.9230339959
 20
220.1985468282
 30
0.0
 11
187.9334099696
 21
220.1985468282
 31
0.0
  0
LINE
  5
27D
330
1F
100
AcDbEntity
  8
0
  6
Continuous
 62
     8
370
    18
100
AcDbLine
 10
81.3113272215
 20
220.5006532392
 30
0.0
 11
187.545116744
 21
220.5006532392
 31
0.0
  0
LINE
  5
27E
330
1F
100
AcDbEntity
  8
0
  6
Continuous
 62
     8
370
    18
100
AcDbLine
 10
79.8605158372
 20
221.6845484976
 30
0.0
 11
188.9959281283
 21
221.6845484976
 31
0.0
  0
LINE
  5
27F
330
1F
100
AcDbEntity
  8
0
  6
Continuous
 62
     8
370
    18
100
AcDbLine
 10
79.8605158373
 20
223.9686404222
 30
0.0
 11
188.9959281283
 21
223.9686404222
 31
0.0
  0
LINE
  5
280
330
1F
100
AcDbEntity
  8
0
  6
Continuous
 62
     8
370
    18
100
AcDbLine
 10
196.0043161273
 20
223.5933985361
 30
0.0
 11
195.3595626427
 21
223.5933985361
 31
0.0
  0
LINE
  5
281
330
1F
100
AcDbEntity
  8
0
  6
Continuous
 62
     8
370
    18
100
AcDbLine
 10
73.4968813228
 20
223.5933985361
 30
0.0
 11
72.8521278382
 21
223.5933985361
 31
0.0
  0
LINE
  5
282
330
1F
100
AcDbEntity
  8
0
  6
Continuous
 62
     8
370
    18
100
AcDbLine
 10
195.5490378654
 20
223.9121878424
 30
0.0
 11
195.4109085371
 21
223.9121878424
 31
0.0
  0
LINE
  5
283
330
1F
100
AcDbEntity
  8
0
  6
Continuous
 62
     8
370
    18
100
AcDbLine
 10
73.4455354285
 20
223.9121878424
 30
0.0
 11
73.3074061001
 21
223.9121878424
 31
0.0
  0
LINE
  5
284
330
1F
100
AcDbEntity
  8
0
  6
Continuous
 62
     8
370
    18
100
AcDbLine
 10
79.9342333152
 20
224.1420508723
 30
0.0
 11
188.9222106503
 21
224.1420508723
 31
0.0
  0
LINE
  5
285
330
1F
100
AcDbEntity
  8
0
  6
Continuous
 62
     8
370
    18
100
AcDbLine
 10
80.1425809556
 20
224.3428210618
 30
0.0
 11
188.7138630099
 21
224.3428210618
 31
0.0
  0
LINE
  5
286
330
1F
100
AcDbEntity
  8
0
  6
Continuous
 62
     8
370
    18
100
AcDbLine
 10
188.6319733883
 20
224.6374954888
 30
0.0
 11
80.2244705773
 21
224.6374954888
 31
0.0
  0
LINE
  5
287
330
1F
100
AcDbEntity
  8
0
  6
Continuous
 62
     8
370
    18
100
AcDbLine
 10
80.159347152
 20
224.8805394206
 30
0.0
 11
188.6970968135
 21
224.8805394206
 31
0.0
  0
LINE
  5
288
330
1F
100
AcDbEntity
  8
0
  6
Continuous
 62
     8
370
    18
100
AcDbLine
 10
80.1591052321
 20
224.9731206705
 30
0.0
 11
188.6973387335
 21
224.9731206705
 31
0.0
  0
LINE
  5
289
330
1F
100
AcDbEntity
  8
0
  6
Continuous
 62
     8
370
    18
100
AcDbLine
 10
80.346805831
 20
225.6885639751
 30
0.0
 11
188.5096381346
 21
225.6885639751
 31
0.0
  0
LINE
  5
28A
330
1F
100
AcDbEntity
  8
0
  6
Continuous
 62
     8
370
    18
100
AcDbLine
 10
187.5528157032
 20
226.002414185
 30
0.0
 11
81.3036282624
 21
226.002414185
 31
0.0
  0
LINE
  5
28B
330
1F
100
AcDbEntity
  8
0
  6
Continuous
 62
     8
370
    18
100
AcDbLine
 10
81.0786016647
 20
226.8984351506
 30
0.0
 11
187.7778423008
 21
226.8984351506
 31
0.0
  0
LINE
  5
28C
330
1F
100
AcDbEntity
  8
0
  6
Continuous
 62
     8
370
    18
100
AcDbLine
 10
81.2469647634
 20
227.2462405437
 30
0.0
 11
187.6094792021
 21
227.2462405437
 31
0.0
  0
LINE
  5
28D
330
1F
100
AcDbEntity
  8
0
  6
Continuous
 62
     8
370
    18
100
AcDbLine
 10
82.3923726483
 20
227.7620069453
 30
0.0
 11
186.4640713172
 21
227.7620069453
 31
0.0
  0
LINE
  5
28E
330
1F
100
AcDbEntity
  8
0
  6
Continuous
 62
     8
370
    18
100
AcDbLine
 10
76.4301658709
 20
228.6343975064
 30
0.0
 11
78.0389496785
 21
228.6343975064
 31
0.0
  0
LINE
  5
28F
330
1F
100
AcDbEntity
  8
0
  6
Continuous
 62
     8
370
    18
100
AcDbLine
 10
190.817494287
 20
228.6343975064
 30
0.0
 11
192.4262780946
 21
228.6343975064
 31
0.0
  0
LINE
  5
290
330
1F
100
AcDbEntity
  8
0
  6
Continuous
 62
     8
370
    18
100
AcDbLine
 10
82.7536043238
 20
227.9246661725
 30
0.0
 11
186.1028396417
 21
227.9246661725
 31
0.0
  0
LINE
  5
291
330
1F
100
AcDbEntity
  8
0
  6
Continuous
 62
     8
370
    18
100
AcDbLine
 10
186.0537749224
 20
228.4457351473
 30
0.0
 11
82.8026690432
 21
228.4457351473
 31
0.0
  0
LINE
  5
292
330
1F
100
AcDbEntity
  8
0
  6
Continuous
 62
     8
370
    18
100
AcDbLine
 10
81.8928116384
 20
229.0828241608
 30
0.0
 11
186.9636323272
 21
229.0828241608
 31
0.0
  0
LINE
  5
293
330
1F
100
AcDbEntity
  8
0
  6
Continuous
 62
     8
370
    18
100
AcDbLine
 10
76.9818215395
 20
229.7783192387
 30
0.0
 11
191.874622426
 21
229.7783192387
 31
0.0
  0
LINE
  5
294
330
1F
100
AcDbEntity
  8
0
  6
Continuous
 62
     8
370
    18
100
AcDbLine
 10
191.8808908217
 20
229.9470825376
 30
0.0
 11
76.9755531439
 21
229.9470825376
 31
0.0
  0
LINE
  5
295
330
1F
100
AcDbEntity
  8
0
  6
Continuous
 62
     8
370
    18
100
AcDbLine
 10
76.8329724872
 20
230.1940395018
 30
0.0
 11
192.0234714783
 21
230.1940395018
 31
0.0
  0
LINE
  5
296
330
1F
100
AcDbEntity
  8
0
  6
Continuous
 62
     8
370
    18
100
AcDbLine
 10
192.0475662488
 20
230.290451018
 30
0.0
 11
76.8088777167
 21
230.290451018
 31
0.0
  0
LINE
  5
297
330
1F
100
AcDbEntity
  8
0
  6
Continuous
 62
     8
370
    18
100
AcDbLine
 10
76.8997652833
 20
232.9784300054
 30
0.0
 11
191.9566786822
 21
232.9784300054
 31
0.0
  0
HATCH
  5
298
330
1F
100
AcDbEntity
  8
0
  6
Continuous
 62
     7
370
    18
100
AcDbHatch
 10
0.0
 20
0.0
 30
0.0
210
0.0
220
0.0
230
1.0
  2
DIN 128 Elastomer-Gummi
 70
     0
 71
     0
 91
        1
 92
        0
 93
       74
 72
     2
 10
191.8670535709386
 20
230.2843474144378
 40
0.180615837725753
 50
358.0634183510005
 51
389.9999977187991
 73
     0
 72
     1
 10
192.0234714783307
 20
230.1940395018025
 11
191.8808908216666
 21
229.9470825375773
 72
     2
 10
192.0373087290585
 20
229.8567746249421
 40
0.180615837725753
 50
150.0000022811923
 51
205.745665254341
 73
     1
 72
     1
 10
191.8746224259706
 20
229.7783192387324
 11
192.4262780945791
 21
228.6343975064081
 72
     2
 10
191.6670753468415
 20
228.2682723707655
 40
0.842873909384826
 50
334.2543347456694
 51
540.0000000000008
 73
     0
 72
     1
 10
190.8242014374567
 20
228.2682723707655
 11
190.8242014374566
 21
228.5447809260616
 72
     2
 10
190.2221486450121
 20
228.5447809260616
 40
0.602052792444518
 50
0.0
 51
89.55638253093343
 73
     1
 72
     1
 10
190.2268100436322
 20
229.146815672785
 11
187.2436200821643
 21
229.1699137375413
 72
     2
 10
187.2398909632685
 20
228.6882859401901
 40
0.481642233934185
 50
89.55638253093251
 51
124.9999999959005
 73
     1
 72
     1
 10
186.9636323271616
 20
229.0828241607515
 11
186.0537749223641
 21
228.44573514729
 72
     2
 10
186.2264365699323
 20
228.1991487594387
 40
0.30102639620887
 50
124.9999999960727
 51
245.7584099989125
 73
     1
 72
     1
 10
186.1028396416932
 20
227.9246661724777
 11
186.4640713171753
 21
227.7620069453188
 72
     1
 10
186.4640713171753
 20
227.7620069453188
 11
187.6094792021375
 21
227.2462405436708
 72
     2
 10
187.4858822738557
 20
226.9717579567299
 40
0.301026396208866
 50
294.2415900100809
 51
374.0976954862936
 73
     0
 72
     1
 10
187.7778423007796
 20
226.8984351506372
 11
187.5528157031668
 21
226.0024141850104
 72
     2
 10
187.7863837247131
 20
225.9437559401345
 40
0.240821116974736
 50
165.9023045137275
 51
283.5831003745222
 73
     1
 72
     1
 10
187.8429418690406
 20
225.7096705140844
 11
188.2925161040786
 21
225.8182936134007
 72
     2
 10
188.3349347123238
 20
225.642729543865
 40
0.180615837725752
 50
256.416899625485
 51
345.2994334386
 73
     0
 72
     1
 10
188.5096381345659
 20
225.6885639751356
 11
188.6973387334545
 21
224.9731206705412
 72
     2
 10
188.5226353112043
 20
224.9272862392541
 40
0.180615837725752
 50
345.2994334341985
 51
375.0000000020354
 73
     0
 72
     1
 10
188.6970968134989
 20
224.8805394205973
 11
188.6319733882662
 21
224.6374954888239
 72
     2
 10
188.9227425587503
 20
224.5595841243739
 40
0.301026396208866
 50
164.9999999935896
 51
226.0610789642629
 73
     1
 72
     1
 10
188.7138630098808
 20
224.3428210618407
 11
188.9222106503147
 21
224.1420508722814
 72
     2
 10
188.755107011214
 20
223.9686404222495
 40
0.240821116974736
 50
313.9389210357366
 51
360.0000000043894
 73
     0
 72
     1
 10
188.9959281282524
 20
223.9686404222311
 11
188.9959281282792
 21
221.6845484975557
 72
     2
 10
188.3938753358347
 20
221.6845484975557
 40
0.602052792444518
 50
0.0
 51
100.9999999958801
 73
     0
 72
     1
 10
188.2789982473925
 20
221.093557110641
 11
187.700015698667
 21
221.2060999173452
 72
     2
 10
187.6310894456329
 20
220.8515050852116
 40
0.361231675428859
 50
79.00000000852326
 51
256.2315426253477
 73
     1
 72
     2
 10
187.4018289056902
 20
219.915900162862
 40
0.602052792444517
 50
283.7684575860166
 51
332.0000000048329
 73
     0
 72
     1
 10
187.9334099695747
 20
220.1985468281646
 11
189.3332818251649
 21
217.5657707812353
 72
     2
 10
189.120649399615
 20
217.4527121151114
 40
0.240821116974736
 50
332.0000000037968
 51
360.0000000043759
 73
     0
 72
     1
 10
189.3614705165341
 20
217.452712115093
 11
189.361470516582
 21
216.5158818052512
 72
     2
 10
189.7314705165821
 20
216.5158818053066
 40
0.369999999999997
 50
180.0000000085788
 51
261.2884996316463
 73
     1
 72
     1
 10
189.6754306025941
 20
216.1501503081083
 11
191.2338524260954
 21
215.9113581188418
 72
     2
 10
191.5074117776863
 20
217.6966797606977
 40
1.8061583772532
 50
261.2884996334016
 51
275.9999970140357
 73
     1
 72
     1
 10
191.6962066436662
 20
215.900415698179
 11
192.3280460654955
 21
215.9668246642399
 72
     2
 10
192.1770101728626
 20
217.4038359142719
 40
1.44492670180256
 50
275.9999970080077
 51
299.9999970127283
 73
     1
 72
     1
 10
192.899473458517
 20
216.1524926462448
 11
195.777708771083
 21
217.8142423789407
 72
     2
 10
195.6271955865497
 20
218.0749388931051
 40
0.301026396208866
 50
299.9999970171083
 51
420.0000022841415
 73
     1
 72
     1
 10
195.7777087742612
 20
218.335635405432
 11
195.5100758512177
 21
218.490153331387
 72
     2
 10
195.660589038943
 20
218.7508498437066
 40
0.301026396208862
 50
119.9999977188173
 51
180.0
 73
     0
 72
     1
 10
195.3595626427341
 20
218.7508498437066
 11
195.359562642734
 21
220.8011790173736
 72
     2
 10
195.6605890389428
 20
220.8011790173736
 40
0.301026396208871
 50
180.0
 51
240.0000029828874
 73
     0
 72
     1
 10
195.5100758544106
 20
221.0618755315361
 11
195.7777087897877
 21
221.2163934602417
 72
     2
 10
195.6271956052148
 20
221.4770899743813
 40
0.301026396208866
 50
299.9999970259929
 51
420.0000022812139
 73
     1
 72
     1
 10
195.7777087929396
 20
221.7377864867005
 11
195.5100758512177
 21
221.8923044234396
 72
     2
 10
195.6605890389428
 20
222.1530009357592
 40
0.301026396208867
 50
119.9999977187864
 51
180.0
 73
     0
 72
     1
 10
195.359562642734
 20
222.1530009357592
 11
195.359562642734
 21
223.813553290841
 72
     2
 10
195.4799732012175
 20
223.813553290841
 40
0.120410558478666
 50
180.0
 51
305.0000029762673
 73
     0
 72
     1
 10
195.5490378653723
 20
223.9121878423852
 11
196.0043161273006
 21
223.5933985361297
 72
     2
 10
196.0733807914596
 20
223.6920330876698
 40
0.120410558478666
 50
234.9999970210187
 51
384.9999970165935
 73
     1
 72
     1
 10
196.1825098208999
 20
223.7429207829069
 11
195.3877664653241
 21
225.447253640661
 72
     2
 10
195.6605890389428
 20
225.5744728787476
 40
0.301026396208869
 50
155.0000029858988
 51
180.0
 73
     0
 72
     1
 10
195.3595626427339
 20
225.5744728787476
 11
195.359562642734
 21
226.1943496419947
 72
     2
 10
195.6605890389428
 20
226.1943496419947
 40
0.301026396208868
 50
180.0
 51
240.0000029828995
 73
     0
 72
     1
 10
195.5100758544106
 20
226.4550461561572
 11
195.7777087710821
 21
226.6095640740632
 72
     2
 10
195.6271955865496
 20
226.8702605882261
 40
0.301026396208866
 50
299.9999970171178
 51
420.0000022841462
 73
     1
 72
     1
 10
195.7777087742611
 20
227.130957100553
 11
195.5100758512176
 21
227.285475026508
 72
     2
 10
195.6605890389428
 20
227.5461715388277
 40
0.301026396208865
 50
119.9999977187857
 51
180.0
 73
     0
 72
     1
 10
195.3595626427339
 20
227.5461715388277
 11
195.359562642734
 21
228.8228513329355
 72
     2
 10
195.6605890389428
 20
228.8228513329355
 40
0.301026396208868
 50
180.0
 51
240.0000029828901
 73
     0
 72
     1
 10
195.5100758544105
 20
229.0835478470979
 11
195.7777087846753
 21
229.2380657728521
 72
     2
 10
195.6271956001428
 20
229.4987622870149
 40
0.301026396208866
 50
299.9999970171279
 51
420.0000023034942
 73
     1
 72
     1
 10
195.7777087877663
 20
229.7594587993927
 11
195.5100758512176
 21
229.9139767331449
 72
     2
 10
195.6605890389426
 20
230.1746732454645
 40
0.301026396208865
 50
119.9999977187724
 51
179.999999998561
 73
     0
 72
     1
 10
195.3595626427338
 20
230.174673245457
 11
195.359562642734
 21
230.620754058603
 72
     2
 10
195.6605890389428
 20
230.620754058603
 40
0.301026396208867
 50
180.0
 51
240.0000029828827
 73
     0
 72
     1
 10
195.5100758544106
 20
230.8814505727655
 11
195.7771809282255
 21
231.0356637404928
 72
     2
 10
195.6266677436929
 20
231.2963602546557
 40
0.301026396208866
 50
299.9999970171326
 51
420.0000022811872
 73
     1
 72
     1
 10
195.7771809314179
 20
231.5570567669748
 11
193.3290452860461
 21
232.970488410878
 72
     2
 10
192.6065819849678
 20
231.7191451517484
 40
1.44492670180256
 50
60.0000022812027
 51
69.01418323681771
 73
     1
 72
     1
 10
193.1240634624423
 20
233.0682285791363
 11
192.4470744072372
 21
233.3279080692312
 72
     2
 10
192.317704037877
 20
232.9906372124059
 40
0.361231675428859
 50
69.01418323682613
 51
181.93658164898
 73
     1
 72
     1
 10
191.9566786822173
 20
232.9784300053566
 11
192.0475662487799
 21
230.2904510179629
 97
        0
 75
     0
 76
     2
 52
0.0
 41
0.125
 77
     0
 78
     3
 53
45.00000209717174
 43
0.8418990000000001
 44
0.8418990000000001
 45
0.5612659459355175
 46
1.683798043244233
 79
     2
 49
0.79375
 49
-1.5875
 53
45.00000209717174
 43
1.96443125
 44
0.8418990000000001
 45
0.5612659459355175
 46
1.683798043244233
 79
     2
 49
0.79375
 49
-1.5875
 53
134.9999719140475
 43
0.0
 44
0.0
 45
-0.5612662826950551
 46
-0.5612657324384541
 79
     0
 98
        1
 10
0.0
 20
0.0
  0
HATCH
  5
299
330
1F
100
AcDbEntity
  8
0
  6
Continuous
 62
     7
370
    18
100
AcDbHatch
 10
0.0
 20
0.0
 30
0.0
210
0.0
220
0.0
230
1.0
  2
DIN 128 Elastomer-Gummi
 70
     0
 71
     0
 91
        1
 92
        0
 93
       74
 72
     4
 94
        3
 73
     1
 74
     0
 95
       11
 96
        7
 40
0.0
 40
0.0
 40
0.0
 40
0.0
 40
0.0000396606814677
 40
0.0000396606814677
 40
0.0000396606814677
 40
0.000100807565044
 40
0.000100807565044
 40
0.000100807565044
 40
0.000100807565044
 10
76.83297248718668
 20
230.1940395018027
 42
1.0
 10
76.82636237406457
 20
230.2054885546267
 42
1.0
 10
76.82098500627221
 20
230.2177405046399
 42
1.0
 10
76.81703310739555
 20
230.2303562448609
 42
1.0
 10
76.8109902110345
 20
230.2496471257897
 42
1.0
 10
76.80819457829422
 20
230.2702473547973
 42
1.0
 10
76.8088777167374
 20
230.2904510179629
 42
1.0
 72
     1
 10
76.80887771673726
 20
230.2904510179629
 11
76.89976528329984
 21
232.9784300053566
 72
     2
 10
76.53873992764015
 20
232.9906372124059
 40
0.361231675428859
 50
358.0634183510217
 51
470.9858167631726
 73
     1
 72
     1
 10
76.40936955827988
 20
233.3279080692312
 11
75.73238050307476
 21
233.0682285791363
 72
     2
 10
76.24986198054935
 20
231.7191451517484
 40
1.44492670180256
 50
110.9858167631828
 51
119.9999977187983
 73
     1
 72
     1
 10
75.52739867947099
 20
232.970488410878
 11
73.0792630340992
 21
231.5570567669748
 72
     4
 94
        3
 73
     1
 74
     0
 95
       26
 96
       22
 40
0.0
 40
0.0
 40
0.0
 40
0.0
 40
0.0001010760460543
 40
0.0001010760460543
 40
0.0001010760460543
 40
0.0002021520921087
 40
0.0002021520921087
 40
0.0002021520921087
 40
0.0003032281381656
 40
0.0003032281381656
 40
0.0003032281381656
 40
0.0004043041842226
 40
0.0004043041842226
 40
0.0004043041842226
 40
0.0005053802302796
 40
0.0005053802302796
 40
0.0005053802302796
 40
0.0006064562763365
 40
0.0006064562763365
 40
0.0006064562763365
 40
0.0006272912914782
 40
0.0006272912914782
 40
0.0006272912914782
 40
0.0006272912914782
 10
73.0792630340992
 20
231.5570567669748
 42
1.0
 10
73.05008489222944
 20
231.5402107604608
 42
1.0
 10
73.02341285350816
 20
231.518094788119
 42
1.0
 10
73.00145564105843
 20
231.4925402832348
 42
1.0
 10
72.97949842860871
 20
231.4669857783505
 42
1.0
 10
72.96165043540095
 20
231.4372879161273
 42
1.0
 10
72.94938966151271
 20
231.4059059894481
 42
1.0
 10
72.93712888762414
 20
231.374524062768
 42
1.0
 10
72.93011716577335
 20
231.3405925193471
 42
1.0
 10
72.9289351396954
 20
231.3069212450491
 42
1.0
 10
72.92775311361743
 20
231.2732499707511
 42
1.0
 10
72.93236818157365
 20
231.2389102702575
 42
1.0
 10
72.94239816778003
 20
231.2067458290965
 42
1.0
 10
72.95242815398639
 20
231.1745813879355
 42
1.0
 10
72.96814969784634
 20
231.143705071107
 42
1.0
 10
72.98826089147734
 20
231.1166737598321
 42
1.0
 10
73.0083720851083
 20
231.0896424485573
 42
1.0
 10
73.03342762006166
 20
231.0657105858961
 42
1.0
 10
73.06135263659404
 20
231.0468599798006
 42
1.0
 10
73.06718816131449
 20
231.0429207456828
 42
1.0
 10
73.07316564539992
 20
231.0391840709201
 42
1.0
 10
73.07926303729184
 20
231.0356637404932
 42
1.0
 72
     1
 10
73.0792630372916
 20
231.0356637404928
 11
73.34636811110656
 21
230.8814505727655
 72
     2
 10
73.19585492657426
 20
230.620754058603
 40
0.301026396208867
 50
299.9999970171212
 51
360.0000000000008
 73
     0
 72
     1
 10
73.49688132278315
 20
230.620754058603
 11
73.49688132278331
 21
230.174673245457
 72
     2
 10
73.19585492657446
 20
230.1746732454645
 40
0.301026396208865
 50
0.0000000014389639
 51
60.00000228122529
 73
     0
 72
     1
 10
73.34636811429951
 20
229.9139767331449
 11
73.07873517775084
 21
229.7594587993927
 72
     4
 94
        3
 73
     1
 74
     0
 95
       26
 96
       22
 40
0.0
 40
0.0
 40
0.0
 40
0.0
 40
0.0001010760460543
 40
0.0001010760460543
 40
0.0001010760460543
 40
0.0002021520921087
 40
0.0002021520921087
 40
0.0002021520921087
 40
0.0003032281381656
 40
0.0003032281381656
 40
0.0003032281381656
 40
0.0004043041842226
 40
0.0004043041842226
 40
0.0004043041842226
 40
0.0005053802302796
 40
0.0005053802302796
 40
0.0005053802302796
 40
0.0006064562763365
 40
0.0006064562763365
 40
0.0006064562763365
 40
0.0006272912915938
 40
0.0006272912915938
 40
0.0006272912915938
 40
0.0006272912915938
 10
73.07873517775084
 20
229.7594587993927
 42
1.0
 10
73.04955703587454
 20
229.74261279289
 42
1.0
 10
73.02288499714466
 20
229.7204968205586
 42
1.0
 10
73.00092778468498
 20
229.6949423156829
 42
1.0
 10
72.9789705722253
 20
229.6693878108072
 42
1.0
 10
72.961122579006
 20
229.639689948591
 42
1.0
 10
72.94886180510554
 20
229.6083080219165
 42
1.0
 10
72.93660103120476
 20
229.5769260952412
 42
1.0
 10
72.92958930934077
 20
229.542994551823
 42
1.0
 10
72.9284072832497
 20
229.5093232775255
 42
1.0
 10
72.92722525715864
 20
229.475652003228
 42
1.0
 10
72.9318403251015
 20
229.4413123027325
 42
1.0
 10
72.94187031129535
 20
229.4091478615676
 42
1.0
 10
72.9519002974892
 20
229.3769834204027
 42
1.0
 10
72.96762184133715
 20
229.3461071035681
 42
1.0
 10
72.9877330349576
 20
229.3190757922854
 42
1.0
 10
73.00784422857807
 20
229.2920444810028
 42
1.0
 10
73.0328997635221
 20
229.2681126183318
 42
1.0
 10
73.06082478004713
 20
229.2492620122254
 42
1.0
 10
73.06666030479842
 20
229.2453227780835
 42
1.0
 10
73.07263778891631
 20
229.2415861032989
 42
1.0
 10
73.07873518084205
 20
229.2380657728525
 42
1.0
 72
     1
 10
73.07873518084179
 20
229.2380657728521
 11
73.34636811110663
 21
229.0835478470979
 72
     2
 10
73.19585492657436
 20
228.8228513329355
 40
0.301026396208868
 50
299.9999970171139
 51
360.0000000000008
 73
     0
 72
     1
 10
73.49688132278315
 20
228.8228513329355
 11
73.49688132278321
 21
227.5461715388277
 72
     2
 10
73.19585492657436
 20
227.5461715388277
 40
0.301026396208865
 50
0.0
 51
60.00000228121196
 73
     0
 72
     1
 10
73.34636811429952
 20
227.285475026508
 11
73.07873519125603
 21
227.130957100553
 72
     4
 94
        3
 73
     1
 74
     0
 95
       26
 96
       22
 40
0.0
 40
0.0
 40
0.0
 40
0.0
 40
0.0001010760460543
 40
0.0001010760460543
 40
0.0001010760460543
 40
0.0002021520921087
 40
0.0002021520921087
 40
0.0002021520921087
 40
0.0003032281381656
 40
0.0003032281381656
 40
0.0003032281381656
 40
0.0004043041842226
 40
0.0004043041842226
 40
0.0004043041842226
 40
0.0005053802302796
 40
0.0005053802302796
 40
0.0005053802302796
 40
0.0006064562763365
 40
0.0006064562763365
 40
0.0006064562763365
 40
0.0006272912914935
 40
0.0006272912914935
 40
0.0006272912914935
 40
0.0006272912914935
 10
73.07873519125603
 20
227.130957100553
 42
1.0
 10
73.0495570493854
 20
227.1141110940405
 42
1.0
 10
73.02288501066297
 20
227.0919951217001
 42
1.0
 10
73.00092779821193
 20
227.066440616817
 42
1.0
 10
72.97897058576089
 20
227.0408861119339
 42
1.0
 10
72.9611225925516
 20
227.0111882497116
 42
1.0
 10
72.94886181866174
 20
226.979806323033
 42
1.0
 10
72.93660104477156
 20
226.9484243963535
 42
1.0
 10
72.92958932291903
 20
226.914492852933
 42
1.0
 10
72.92840729683932
 20
226.8808215786351
 42
1.0
 10
72.92722527075964
 20
226.8471503043372
 42
1.0
 10
72.93184033871408
 20
226.8128106038433
 42
1.0
 10
72.94187032491878
 20
226.7806461626818
 42
1.0
 10
72.9519003111235
 20
226.7484817215202
 42
1.0
 10
72.96762185498186
 20
226.7176054046909
 42
1.0
 10
72.98773304861145
 20
226.6905740934151
 42
1.0
 10
73.00784424224103
 20
226.6635427821392
 42
1.0
 10
73.03289977719314
 20
226.6396109194767
 42
1.0
 10
73.06082479372455
 20
226.6207603133798
 42
1.0
 10
73.06666031844911
 20
226.6168210792587
 42
1.0
 10
73.07263780253885
 20
226.6130844044932
 42
1.0
 10
73.07873519443527
 20
226.6095640740637
 42
1.0
 72
     1
 10
73.078735194435
 20
226.6095640740632
 11
73.34636811110656
 21
226.4550461561572
 72
     2
 10
73.19585492657436
 20
226.1943496419947
 40
0.301026396208868
 50
299.9999970171021
 51
360.0000000000008
 73
     0
 72
     1
 10
73.49688132278315
 20
226.1943496419947
 11
73.49688132278321
 21
225.5744728787476
 72
     2
 10
73.19585492657436
 20
225.5744728787476
 40
0.301026396208869
 50
0.0
 51
24.9999970141023
 73
     0
 72
     1
 10
73.46867750019304
 20
225.447253640661
 11
72.67393414461718
 21
223.7429207829069
 72
     4
 94
        3
 73
     1
 74
     0
 95
       29
 96
       25
 40
0.0
 40
0.0
 40
0.0
 40
0.0
 40
0.0000404304184201
 40
0.0000404304184201
 40
0.0000404304184201
 40
0.0000808608368402
 40
0.0000808608368402
 40
0.0000808608368402
 40
0.0001212912552613
 40
0.0001212912552613
 40
0.0001212912552613
 40
0.0001617216736825
 40
0.0001617216736825
 40
0.0001617216736825
 40
0.0002021520921036
 40
0.0002021520921036
 40
0.0002021520921036
 40
0.0002425825105248
 40
0.0002425825105248
 40
0.0002425825105248
 40
0.0002830129289459
 40
0.0002830129289459
 40
0.0002830129289459
 40
0.0003136171137777
 40
0.0003136171137777
 40
0.0003136171137777
 40
0.0003136171137777
 10
72.67393414461718
 20
223.7429207829069
 42
1.0
 10
72.66823860086846
 20
223.7307066482612
 42
1.0
 10
72.66457330032006
 20
223.7173407291749
 42
1.0
 10
72.66324176810403
 20
223.7039298632188
 42
1.0
 10
72.66191023588799
 20
223.6905189972626
 42
1.0
 10
72.66287574670177
 20
223.6766932961954
 42
1.0
 10
72.66605834617508
 20
223.6635976723337
 42
1.0
 10
72.66924094564847
 20
223.6505020484716
 42
1.0
 10
72.67472841380452
 20
223.6377753083399
 42
1.0
 10
72.6820663310193
 20
223.6264713588224
 42
1.0
 10
72.68940424823408
 20
223.6151674093049
 42
1.0
 10
72.69879500332443
 20
223.6049744735171
 42
1.0
 10
72.70946094377834
 20
223.5967366329033
 42
1.0
 10
72.72012688423222
 20
223.5884987922894
 42
1.0
 10
72.73236218985645
 20
223.5819888370343
 42
1.0
 10
72.74515364967252
 20
223.577745859363
 42
1.0
 10
72.75794510948859
 20
223.5735028816917
 42
1.0
 10
72.77164552775166
 20
223.5714098550414
 42
1.0
 10
72.7851203668686
 20
223.5716401038589
 42
1.0
 10
72.79859520598552
 20
223.5718703526765
 42
1.0
 10
72.81221611865635
 20
223.5744302275085
 42
1.0
 10
72.82485515118059
 20
223.5791077440073
 42
1.0
 10
72.83448048421332
 20
223.5826699354947
 42
1.0
 10
72.84372059874077
 20
223.5875117230206
 42
1.0
 10
72.8521278382171
 20
223.5933985361289
 42
1.0
 72
     1
 10
72.85212783821655
 20
223.5933985361297
 11
73.30740610014477
 21
223.9121878423852
 72
     2
 10
73.37647076429965
 20
223.813553290841
 40
0.120410558478666
 50
234.9999970237289
 51
360.0000000000008
 73
     0
 72
     1
 10
73.49688132278315
 20
223.813553290841
 11
73.49688132278312
 21
222.1530009357592
 72
     2
 10
73.19585492657426
 20
222.1530009357592
 40
0.301026396208867
 50
0.0
 51
60.0000022812089
 73
     0
 72
     1
 10
73.34636811429941
 20
221.8923044234396
 11
73.07873517257745
 21
221.7377864867005
 72
     4
 94
        3
 73
     1
 74
     0
 95
       26
 96
       22
 40
0.0
 40
0.0
 40
0.0
 40
0.0
 40
0.0001010760460543
 40
0.0001010760460543
 40
0.0001010760460543
 40
0.0002021520921087
 40
0.0002021520921087
 40
0.0002021520921087
 40
0.0003032281381656
 40
0.0003032281381656
 40
0.0003032281381656
 40
0.0004043041842226
 40
0.0004043041842226
 40
0.0004043041842226
 40
0.0005053802302796
 40
0.0005053802302796
 40
0.0005053802302796
 40
0.0006064562763365
 40
0.0006064562763365
 40
0.0006064562763365
 40
0.0006272912914323
 40
0.0006272912914323
 40
0.0006272912914323
 40
0.0006272912914323
 10
73.07873517257745
 20
221.7377864867005
 42
1.0
 10
73.0495570307077
 20
221.7209404801865
 42
1.0
 10
73.02288499198642
 20
221.6988245078448
 42
1.0
 10
73.00092777953668
 20
221.6732700029605
 42
1.0
 10
72.97897056708693
 20
221.6477154980763
 42
1.0
 10
72.96112257387918
 20
221.6180176358531
 42
1.0
 10
72.94886179999092
 20
221.5866357091738
 42
1.0
 10
72.93660102610237
 20
221.5552537824937
 42
1.0
 10
72.92958930425156
 20
221.5213222390729
 42
1.0
 10
72.9284072781736
 20
221.4876509647749
 42
1.0
 10
72.92722525209562
 20
221.4539796904769
 42
1.0
 10
72.93184032005183
 20
221.4196399899832
 42
1.0
 10
72.9418703062582
 20
221.3874755488222
 42
1.0
 10
72.95190029246456
 20
221.3553111076612
 42
1.0
 10
72.96762183632451
 20
221.3244347908327
 42
1.0
 10
72.98773302995548
 20
221.2974034795579
 42
1.0
 10
73.00784422358646
 20
221.2703721682831
 42
1.0
 10
73.0328997585398
 20
221.2464403056218
 42
1.0
 10
73.06082477507216
 20
221.2275896995264
 42
1.0
 10
73.0666602997798
 20
221.2236504654172
 42
1.0
 10
73.07263778385176
 20
221.2199137906623
 42
1.0
 10
73.07873517572973
 20
221.2163934602422
 42
1.0
 72
     1
 10
73.07873517572945
 20
221.2163934602417
 11
73.34636811110654
 21
221.0618755315361
 72
     2
 10
73.19585492657426
 20
220.8011790173736
 40
0.301026396208871
 50
299.9999970171189
 51
360.0000000000008
 73
     0
 72
     1
 10
73.49688132278307
 20
220.8011790173736
 11
73.49688132278301
 21
218.7508498437066
 72
     2
 10
73.19585492657416
 20
218.7508498437066
 40
0.301026396208862
 50
0.0
 51
60.00000228118277
 73
     0
 72
     1
 10
73.34636811429945
 20
218.490153331387
 11
73.07873519125587
 21
218.335635405432
 72
     4
 94
        3
 73
     1
 74
     0
 95
       26
 96
       22
 40
0.0
 40
0.0
 40
0.0
 40
0.0
 40
0.0001010760460543
 40
0.0001010760460543
 40
0.0001010760460543
 40
0.0002021520921087
 40
0.0002021520921087
 40
0.0002021520921087
 40
0.0003032281381656
 40
0.0003032281381656
 40
0.0003032281381656
 40
0.0004043041842226
 40
0.0004043041842226
 40
0.0004043041842226
 40
0.0005053802302796
 40
0.0005053802302796
 40
0.0005053802302796
 40
0.0006064562763365
 40
0.0006064562763365
 40
0.0006064562763365
 40
0.0006272912914935
 40
0.0006272912914935
 40
0.0006272912914935
 40
0.0006272912914935
 10
73.07873519125587
 20
218.335635405432
 42
1.0
 10
73.04955704938524
 20
218.3187893989195
 42
1.0
 10
73.02288501066285
 20
218.2966734265791
 42
1.0
 10
73.00092779821179
 20
218.2711189216959
 42
1.0
 10
72.97897058576075
 20
218.2455644168128
 42
1.0
 10
72.96112259255148
 20
218.2158665545906
 42
1.0
 10
72.94886181866161
 20
218.1844846279119
 42
1.0
 10
72.93660104477145
 20
218.1531027012325
 42
1.0
 10
72.9295893229189
 20
218.119171157812
 42
1.0
 10
72.92840729683923
 20
218.085499883514
 42
1.0
 10
72.92722527075954
 20
218.0518286092161
 42
1.0
 10
72.931840338714
 20
218.0174889087222
 42
1.0
 10
72.94187032491872
 20
217.9853244675607
 42
1.0
 10
72.95190031112344
 20
217.9531600263992
 42
1.0
 10
72.9676218549818
 20
217.9222837095699
 42
1.0
 10
72.98773304861139
 20
217.895252398294
 42
1.0
 10
73.00784424224099
 20
217.8682210870182
 42
1.0
 10
73.0328997771931
 20
217.8442892243556
 42
1.0
 10
73.06082479372452
 20
217.8254386182588
 42
1.0
 10
73.06666031844908
 20
217.8214993841378
 42
1.0
 10
73.07263780253878
 20
217.8177627093722
 42
1.0
 10
73.0787351944352
 20
217.8142423789427
 42
1.0
 72
     1
 10
73.07873519443409
 20
217.8142423789407
 11
75.95697050700007
 21
216.1524926462448
 72
     2
 10
76.67943379265455
 20
217.4038359142719
 40
1.44492670180256
 50
240.0000029872728
 51
264.0000029919939
 73
     1
 72
     1
 10
76.52839790002164
 20
215.9668246642399
 11
77.16023732185091
 21
215.900415698179
 72
     2
 10
77.34903218783084
 20
217.6966797606977
 40
1.8061583772532
 50
264.0000029859669
 51
278.7115003665996
 73
     1
 72
     1
 10
77.62259153942173
 20
215.9113581188418
 11
79.18101336292301
 21
216.1501503081083
 72
     2
 10
79.12497344893505
 20
216.5158818053066
 40
0.369999999999997
 50
278.7115003683574
 51
359.9999999914229
 73
     1
 72
     1
 10
79.49497344893506
 20
216.5158818052512
 11
79.49497344898306
 21
217.452712115093
 72
     2
 10
79.73579456590215
 20
217.4527121151114
 40
0.240821116974736
 50
179.999999995625
 51
207.9999999962064
 73
     0
 72
     1
 10
79.52316214035223
 20
217.5657707812353
 11
80.92303399594236
 21
220.1985468281646
 72
     2
 10
81.45461505982696
 20
219.915900162862
 40
0.602052792444517
 50
207.9999999951675
 51
256.2315424139837
 73
     0
 72
     2
 10
81.22535451988416
 20
220.8515050852116
 40
0.361231675428859
 50
283.7684573746561
 51
460.9999999914754
 73
     1
 72
     1
 10
81.15642826685016
 20
221.2060999173452
 11
80.57744571812458
 21
221.093557110641
 72
     2
 10
80.46256862968245
 20
221.6845484975557
 40
0.602052792444518
 50
79.00000000411859
 51
180.0
 73
     0
 72
     1
 10
79.86051583723794
 20
221.6845484975557
 11
79.86051583726476
 21
223.9686404222311
 72
     2
 10
80.10133695430316
 20
223.9686404222495
 40
0.240821116974736
 50
179.9999999956115
 51
226.0610789642626
 73
     0
 72
     1
 10
79.93423331520245
 20
224.1420508722814
 11
80.14258095563632
 21
224.3428210618407
 72
     2
 10
79.93370140676676
 20
224.5595841243739
 40
0.301026396208866
 50
313.9389210357427
 51
375.0000000064105
 73
     1
 72
     1
 10
80.22447057725091
 20
224.6374954888239
 11
80.15934715201826
 21
224.8805394205973
 72
     4
 94
        3
 73
     1
 74
     0
 95
       11
 96
        7
 40
0.0
 40
0.0
 40
0.0
 40
0.0
 40
0.0000326475137821
 40
0.0000326475137821
 40
0.0000326475137821
 40
0.0000939145449222
 40
0.0000939145449222
 40
0.0000939145449222
 40
0.0000939145449222
 10
80.15934715201838
 20
224.8805394205974
 42
1.0
 10
80.15653055257066
 20
224.8910511128394
 42
1.0
 10
80.15466032566869
 20
224.9018621151274
 42
1.0
 10
80.15378202184813
 20
224.9127091187983
 42
1.0
 10
80.15215049526986
 20
224.932858381923
 42
1.0
 10
80.15397526877032
 20
224.9535672012822
 42
1.0
 10
80.15910523206257
 20
224.9731206705412
 42
1.0
 72
     1
 10
80.15910523206257
 20
224.9731206705412
 11
80.34680583095124
 21
225.6885639751356
 72
     2
 10
80.52150925319334
 20
225.642729543865
 40
0.180615837725752
 50
194.7005665614028
 51
283.5831003745209
 73
     0
 72
     1
 10
80.56392786143854
 20
225.8182936134007
 11
81.01350209647649
 21
225.7096705140844
 72
     2
 10
81.07006024080405
 20
225.9437559401345
 40
0.240821116974736
 50
256.4168996254795
 51
374.0976954862724
 73
     1
 72
     1
 10
81.30362826235033
 20
226.0024141850104
 11
81.07860166473758
 21
226.8984351506372
 72
     4
 94
        3
 73
     1
 74
     0
 95
       20
 96
       16
 40
0.0
 40
0.0
 40
0.0
 40
0.0
 40
0.0000133270984498
 40
0.0000133270984498
 40
0.0000133270984498
 40
0.0001158333023729
 40
0.0001158333023729
 40
0.0001158333023729
 40
0.000218339506296
 40
0.000218339506296
 40
0.000218339506296
 40
0.0003208457102165
 40
0.0003208457102165
 40
0.0003208457102165
 40
0.0004233519141369
 40
0.0004233519141369
 40
0.0004233519141369
 40
0.0004233519141369
 10
81.07860166473758
 20
226.8984351506386
 42
1.0
 10
81.07751961095126
 20
226.9027437207742
 42
1.0
 10
81.0765327138181
 20
226.9070773103209
 42
1.0
 10
81.07564242356386
 20
226.9114295511544
 42
1.0
 10
81.06889023972741
 20
226.9444380335785
 42
1.0
 10
81.06774390202156
 20
226.9790674977975
 42
1.0
 10
81.0722983391702
 20
227.0124502628232
 42
1.0
 10
81.07685277631884
 20
227.0458330278488
 42
1.0
 10
81.08723360532181
 20
227.0788898315577
 42
1.0
 10
81.10258118521591
 20
227.108883225662
 42
1.0
 10
81.11792876510961
 20
227.1388766197655
 42
1.0
 10
81.13866640109707
 20
227.1666338591063
 42
1.0
 10
81.16307680052579
 20
227.1898563546262
 42
1.0
 10
81.1874871999545
 20
227.2130788501461
 42
1.0
 10
81.21624363177985
 20
227.232407106944
 42
1.0
 10
81.24696476337957
 20
227.2462405436708
 42
1.0
 72
     1
 10
81.24696476337957
 20
227.2462405436708
 11
82.39237264834182
 21
227.7620069453188
 72
     1
 10
82.39237264834182
 20
227.7620069453188
 11
82.75360432382396
 21
227.9246661724777
 72
     2
 10
82.63000739558485
 20
228.1991487594387
 40
0.30102639620887
 50
294.2415900010866
 51
415.0000000039281
 73
     1
 72
     1
 10
82.80266904315305
 20
228.44573514729
 11
81.89281163835555
 21
229.0828241607515
 72
     2
 10
81.61655300224865
 20
228.6882859401901
 40
0.481642233934185
 50
55.00000000409812
 51
90.4436174690692
 73
     1
 72
     1
 10
81.61282388335276
 20
229.1699137375413
 11
78.62963392188507
 21
229.146815672785
 72
     2
 10
78.63429532050506
 20
228.5447809260616
 40
0.602052792444518
 50
90.44361746905575
 51
180.0
 73
     1
 72
     1
 10
78.03224252806054
 20
228.5447809260616
 11
78.03224252806046
 21
228.2682723707655
 72
     4
 94
        3
 73
     1
 74
     0
 95
       38
 96
       34
 40
0.0
 40
0.0
 40
0.0
 40
0.0
 40
0.0001827535250898
 40
0.0001827535250898
 40
0.0001827535250898
 40
0.0004681491942715
 40
0.0004681491942715
 40
0.0004681491942715
 40
0.0007535448634532
 40
0.0007535448634532
 40
0.0007535448634532
 40
0.0010389405326349
 40
0.0010389405326349
 40
0.0010389405326349
 40
0.0013243362018166
 40
0.0013243362018166
 40
0.0013243362018166
 40
0.0016097318709984
 40
0.0016097318709984
 40
0.0016097318709984
 40
0.0018951275401801
 40
0.0018951275401801
 40
0.0018951275401801
 40
0.0021805232093618
 40
0.0021805232093618
 40
0.0021805232093618
 40
0.0024659188785435
 40
0.0024659188785435
 40
0.0024659188785435
 40
0.0027513145477252
 40
0.0027513145477252
 40
0.0027513145477252
 40
0.003036710216907
 40
0.003036710216907
 40
0.003036710216907
 40
0.003036710216907
 10
78.03224252806048
 20
228.2682723707655
 42
1.0
 10
78.03224252806048
 20
228.2073545290689
 42
1.0
 10
78.02556051919238
 20
228.1460818798554
 42
1.0
 10
78.01243004450815
 20
228.0865959649549
 42
1.0
 10
77.99209613249643
 20
227.9944758102301
 42
1.0
 10
77.95557712343101
 20
227.9045959414407
 42
1.0
 10
77.90589717233063
 20
227.8243993495998
 42
1.0
 10
77.85621722123024
 20
227.7442027577588
 42
1.0
 10
77.7920060937044
 20
227.671477521846
 42
1.0
 10
77.71858114114174
 20
227.612246050267
 42
1.0
 10
77.6451561885791
 20
227.5530145786881
 42
1.0
 10
77.56049226013123
 20
227.5056431943248
 42
1.0
 10
77.47160041252373
 20
227.4740547421126
 42
1.0
 10
77.38270856491621
 20
227.4424662899005
 42
1.0
 10
77.28713705123863
 20
227.4257895213258
 42
1.0
 10
77.19280019009183
 20
227.4254054468449
 42
1.0
 10
77.09846332894504
 20
227.4250213723641
 42
1.0
 10
77.00275919322236
 20
227.4409193987288
 42
1.0
 10
76.91361308401385
 20
227.4717830034635
 42
1.0
 10
76.82446697480536
 20
227.5026466081982
 42
1.0
 10
76.73942013235171
 20
227.5493270476284
 42
1.0
 10
76.66551532265382
 20
227.6079586942687
 42
1.0
 10
76.59161051295594
 20
227.666590340909
 42
1.0
 10
76.52680935011314
 20
227.7387903279653
 42
1.0
 10
76.47647804659516
 20
227.8185797431181
 42
1.0
 10
76.42614674307718
 20
227.8983691582708
 42
1.0
 10
76.38889709938971
 20
227.9879486921046
 42
1.0
 10
76.36781377472215
 20
228.0799002244747
 42
1.0
 10
76.34673045005461
 20
228.1718517568447
 42
1.0
 10
76.34123194028138
 20
228.2687114245449
 42
1.0
 10
76.35177357938748
 20
228.3624582363797
 42
1.0
 10
76.36231521849358
 20
228.4562050482145
 42
1.0
 10
76.38918775790115
 20
228.5494246570021
 42
1.0
 10
76.43016587093804
 20
228.6343975064081
 42
1.0
 72
     1
 10
76.43016587093804
 20
228.6343975064081
 11
76.9818215395465
 21
229.7783192387324
 72
     2
 10
76.81913523645865
 20
229.8567746249421
 40
0.180615837725753
 50
334.2543347456626
 51
389.9999977188107
 73
     1
 72
     1
 10
76.9755531438505
 20
229.9470825375773
 11
76.83297248718642
 21
230.1940395018025
 97
        0
 75
     0
 76
     2
 52
0.0
 41
0.125
 77
     0
 78
     3
 53
45.00000209717174
 43
0.8418990000000001
 44
0.8418990000000001
 45
0.5612659459355175
 46
1.683798043244233
 79
     2
 49
0.79375
 49
-1.5875
 53
45.00000209717174
 43
1.96443125
 44
0.8418990000000001
 45
0.5612659459355175
 46
1.683798043244233
 79
     2
 49
0.79375
 49
-1.5875
 53
134.9999719140475
 43
0.0
 44
0.0
 45
-0.5612662826950551
 46
-0.5612657324384541
 79
     0
 98
        1
 10
0.0
 20
0.0
  0
DIMENSION
  5
29A
330
1F
100
AcDbEntity
  8
0
  6
Continuous
 62
     7
370
    18
100
AcDbDimension
  2
_D_2
 10
208.1437913499
 20
215.8905213834
 30
0.0
 11
208.1437913499
 21
224.6211951356
 31
0.0
 70
   160
  1
<>
 71
     2
 42
-1.0
  3
SLDDIMSTYLE2
100
AcDbAlignedDimension
 13
192.3177040379
 23
233.3518688878
 33
0.0
 14
191.5074117777
 24
215.8905213834
 34
0.0
 50
90.0
100
AcDbRotatedDimension
  0
MTEXT
  5
2A5
330
1F
100
AcDbEntity
  8
0
  6
Continuous
 62
     7
370
     0
100
AcDbMText
 10
134.4025538258
 20
250.795614787
 30
0.0
 40
5.0
 41
0.0
 71
     2
 72
     1
  1
A-A
  7
SLDTEXTSTYLE0
 73
     1
 44
1.0
  0
LINE
  5
2A6
330
1F
100
AcDbEntity
  8
0
  6
Continuous
 62
     7
370
    25
100
AcDbLine
 10
260.6489373265
 20
153.4053573696
 30
0.0
 11
261.3519852972
 21
152.4622621889
 31
0.0
  0
LINE
  5
2A7
330
1F
100
AcDbEntity
  8
0
  6
Continuous
 62
     7
370
    25
100
AcDbLine
 10
369.2043724615
 20
152.4622621889
 30
0.0
 11
369.9074204321
 21
153.4053573696
 31
0.0
  0
LINE
  5
2A8
330
1F
100
AcDbEntity
  8
0
  6
Continuous
 62
     7
370
    25
100
AcDbLine
 10
366.2805627084
 20
185.9867879411
 30
0.0
 11
366.3737247881
 21
185.8594335391
 31
0.0
  0
LINE
  5
2A9
330
1F
100
AcDbEntity
  8
0
  6
Continuous
 62
     7
370
    25
100
AcDbLine
 10
370.1447077971
 20
179.405773117
 30
0.0
 11
370.187825797
 21
179.3048664503
 31
0.0
  0
LWPOLYLINE
  5
2AA
330
1F
100
AcDbEntity
  8
0
  6
Continuous
 62
     7
370
    25
100
AcDbPolyline
 90
      166
 70
   128
 43
0.0
 10
315.2781788793
 20
220.9717194379
 10
312.9425604529
 20
220.9402705489
 10
310.61032845
 20
220.8459694797
 10
308.2848643839
 20
220.6889529578
 10
305.9695399553
 20
220.4694486423
 10
303.6677121631
 20
220.1877747933
 10
301.3827184378
 20
219.844339811
 10
299.1178718017
 20
219.4396416434
 10
296.8764560659
 20
218.974267064
 10
294.6617210689
 20
218.4488908216
 10
292.4768779649
 20
217.8642746614
 10
290.3250945673
 20
217.221266221
 10
288.2094907565
 20
216.5207978011
 10
286.1331339556
 20
215.7638850141
 10
284.0990346836
 20
214.951625311
 10
282.1101421899
 20
214.0851963908
 10
280.1693401785
 20
213.1658544927
 10
278.2794426268
 20
212.1949325743
 10
276.4431897055
 20
211.1738383798
 10
274.6632438059
 20
210.1040523981
 10
272.9421856793
 20
208.9871257166
 10
271.2825106955
 20
207.8246777722
 10
269.6866252245
 20
206.6183940032
 10
268.1568431477
 20
205.3700234059
 10
266.6953825029
 20
204.0813759982
 10
265.3043622683
 20
202.7543201957
 10
263.9857992902
 20
201.3907801025
 10
262.741605359
 20
199.9927327213
 10
261.5735844368
 20
198.5622050871
 10
260.4834300423
 20
197.1012713283
 10
259.4727227952
 20
195.6120496592
 10
258.5429281243
 20
194.0966993088
 10
257.6953941432
 20
192.5574173902
 10
256.9313496949
 20
190.9964357151
 10
256.2519025709
 20
189.4160175577
 10
255.6580379046
 20
187.8184543732
 10
255.150616743
 20
186.2060624755
 10
254.7303747982
 20
184.5811796787
 10
254.3979213809
 20
182.9461619075
 10
254.1537385168
 20
181.3033797813
 10
253.9981802476
 20
179.6552151773
 10
253.9314721181
 20
178.0040577765
 10
253.9537108485
 20
176.3523015994
 10
254.0648641949
 20
174.7023415343
 10
254.2647709956
 20
173.0565698658
 10
254.5531414047
 20
171.4173728053
 10
254.9295573128
 20
169.787127032
 10
255.3934729528
 20
168.1681962462
 10
255.9442156913
 20
166.562927743
 10
256.5809870041
 20
164.9736490082
 10
257.3028636336
 20
163.4026643439
 10
258.1087989277
 20
161.8522515278
 10
258.9976243573
 20
160.3246585102
 10
259.9680512105
 20
158.822100155
 10
261.0186724611
 20
157.3467550282
 10
262.1479648087
 20
155.900762239
 10
263.3542908875
 20
154.4862183389
 10
264.6359016398
 20
153.1051742813
 10
265.9909388527
 20
151.7596324479
 10
267.4174378518
 20
150.4515437459
 10
268.9133303498
 20
149.1828047788
 10
270.4764474456
 20
147.9552550968
 10
272.104522769
 20
146.7706745296
 10
273.7951957662
 20
145.6307806057
 10
275.5460151232
 20
144.5372260625
 10
277.3544423191
 20
143.4915964493
 10
279.2178553076
 20
142.4954078292
 10
281.1335523178
 20
141.5501045805
 10
283.0987557722
 20
140.6570573026
 10
285.1106163138
 20
139.8175608284
 10
287.1662169371
 20
139.0328323478
 10
289.2625772176
 20
138.304009642
 10
291.3966576335
 20
137.6321494342
 10
293.565363972
 20
137.0182258575
 10
295.7655518164
 20
136.4631290424
 10
297.9940311046
 20
135.9676638262
 10
300.2475707547
 20
135.5325485861
 10
302.5229033497
 20
135.1584141976
 10
304.8167298747
 20
134.8458031199
 10
307.1257245007
 20
134.595168609
 10
309.4465394062
 20
134.406874061
 10
311.7758096313
 20
134.2811924852
 10
314.1101579571
 20
134.2183061076
 10
316.4461998015
 20
134.2183061076
 10
318.7805481273
 20
134.2811924852
 10
321.1098183525
 20
134.406874061
 10
323.4306332579
 20
134.595168609
 10
325.7396278839
 20
134.8458031199
 10
328.0334544089
 20
135.1584141976
 10
330.3087870039
 20
135.5325485861
 10
332.562326654
 20
135.9676638262
 10
334.7908059422
 20
136.4631290424
 10
336.9909937866
 20
137.0182258575
 10
339.1597001252
 20
137.6321494342
 10
341.293780541
 20
138.304009642
 10
343.3901408215
 20
139.0328323478
 10
345.4457414448
 20
139.8175608284
 10
347.4576019864
 20
140.6570573026
 10
349.4228054409
 20
141.5501045805
 10
351.3385024511
 20
142.4954078292
 10
353.2019154395
 20
143.4915964493
 10
355.0103426355
 20
144.5372260625
 10
356.7611619924
 20
145.6307806057
 10
358.4518349897
 20
146.7706745296
 10
360.079910313
 20
147.9552550968
 10
361.6430274088
 20
149.1828047788
 10
363.1389199068
 20
150.4515437459
 10
364.5654189059
 20
151.7596324479
 10
365.9204561188
 20
153.1051742813
 10
367.2020668711
 20
154.4862183389
 10
368.4083929499
 20
155.900762239
 10
369.5376852975
 20
157.3467550282
 10
370.5883065481
 20
158.822100155
 10
371.5587334013
 20
160.3246585102
 10
372.4475588309
 20
161.8522515278
 10
373.253494125
 20
163.4026643439
 10
373.9753707545
 20
164.9736490082
 10
374.6121420673
 20
166.562927743
 10
375.1628848058
 20
168.1681962462
 10
375.6268004458
 20
169.787127032
 10
376.0032163539
 20
171.4173728053
 10
376.2915867631
 20
173.0565698658
 10
376.4914935637
 20
174.7023415343
 10
376.6026469101
 20
176.3523015994
 10
376.6248856405
 20
178.0040577766
 10
376.558177511
 20
179.6552151773
 10
376.4026192418
 20
181.3033797813
 10
376.1584363777
 20
182.9461619075
 10
375.8259829604
 20
184.5811796787
 10
375.4057410156
 20
186.2060624755
 10
374.898319854
 20
187.8184543732
 10
374.3044551877
 20
189.4160175577
 10
373.6250080637
 20
190.9964357151
 10
372.8609636155
 20
192.5574173902
 10
372.0134296343
 20
194.0966993088
 10
371.0836349634
 20
195.6120496592
 10
370.0729277163
 20
197.1012713283
 10
368.9827733219
 20
198.5622050871
 10
367.8147523996
 20
199.9927327213
 10
366.5705584684
 20
201.3907801025
 10
365.2519954903
 20
202.7543201957
 10
363.8609752557
 20
204.0813759982
 10
362.3995146109
 20
205.3700234059
 10
360.8697325341
 20
206.6183940032
 10
359.2738470631
 20
207.8246777722
 10
357.6141720793
 20
208.9871257166
 10
355.8931139527
 20
210.1040523981
 10
354.1131680531
 20
211.1738383798
 10
352.2769151319
 20
212.1949325743
 10
350.3870175801
 20
213.1658544927
 10
348.4462155687
 20
214.0851963908
 10
346.4573230751
 20
214.951625311
 10
344.423223803
 20
215.7638850141
 10
342.3468670022
 20
216.5207978011
 10
340.2312631913
 20
217.221266221
 10
338.0794797937
 20
217.8642746614
 10
335.8946366897
 20
218.4488908216
 10
333.6799016927
 20
218.974267064
 10
331.4384859569
 20
219.4396416434
 10
329.1736393208
 20
219.844339811
 10
326.8886455955
 20
220.1877747933
 10
324.5868178034
 20
220.4694486423
 10
322.2714933747
 20
220.6889529578
 10
319.9460293087
 20
220.8459694797
 10
317.6137973057
 20
220.9402705489
 10
315.2781788793
 20
220.9717194379
  0
LWPOLYLINE
  5
2AB
330
1F
100
AcDbEntity
  8
0
  6
Continuous
 62
     7
370
    25
100
AcDbPolyline
 90
       86
 70
   128
 43
0.0
 10
253.9522800051
 20
176.3882394935
 10
253.9314720994
 20
175.5983736765
 10
253.9537108298
 20
173.9466174988
 10
254.0648641763
 20
172.2966574332
 10
254.264770977
 20
170.6508857642
 10
254.5531413862
 20
169.0116887032
 10
254.9295572944
 20
167.3814429294
 10
255.3934729345
 20
165.7625121432
 10
255.9442156733
 20
164.1572436395
 10
256.5809869862
 20
162.5679649041
 10
257.302863616
 20
160.9969802394
 10
258.1087989103
 20
159.4465674228
 10
258.9976243402
 20
157.9189744048
 10
259.9680511937
 20
156.4164160491
 10
261.0186724446
 20
154.9410709218
 10
262.1479647926
 20
153.4950781323
 10
263.3542908717
 20
152.0805342317
 10
264.6359016244
 20
150.6994901736
 10
265.9909388377
 20
149.3539483399
 10
267.4174378372
 20
148.0458596375
 10
268.9133303357
 20
146.77712067
 10
270.476447432
 20
145.5495709876
 10
272.1045227558
 20
144.36499042
 10
273.7951957536
 20
143.2250964958
 10
275.5460151111
 20
142.1315419522
 10
277.3544423076
 20
141.0859123387
 10
279.2178552966
 20
140.0897237184
 10
281.1335523074
 20
139.1444204694
 10
283.0987557624
 20
138.2513731911
 10
285.1106163046
 20
137.4118767167
 10
287.1662169285
 20
136.6271482359
 10
289.2625772097
 20
135.8983255298
 10
291.3966576262
 20
135.2264653218
 10
293.5653639654
 20
134.612541745
 10
295.7655518105
 20
134.0574449297
 10
297.9940310994
 20
133.5619797133
 10
300.2475707502
 20
133.1268644731
 10
302.5229033458
 20
132.7527300845
 10
304.8167298716
 20
132.4401190067
 10
307.1257244982
 20
132.1894844957
 10
309.4465394044
 20
132.0011899477
 10
311.7758096303
 20
131.8755083718
 10
314.1101579567
 20
131.8126219942
 10
316.4461998019
 20
131.8126219942
 10
318.7805481283
 20
131.8755083718
 10
321.1098183542
 20
132.0011899477
 10
323.4306332604
 20
132.1894844957
 10
325.7396278871
 20
132.4401190067
 10
328.0334544128
 20
132.7527300845
 10
330.3087870085
 20
133.1268644731
 10
332.5623266593
 20
133.5619797133
 10
334.7908059481
 20
134.0574449297
 10
336.9909937932
 20
134.612541745
 10
339.1597001324
 20
135.2264653218
 10
341.2937805489
 20
135.8983255298
 10
343.3901408301
 20
136.6271482359
 10
345.445741454
 20
137.4118767167
 10
347.4576019962
 20
138.2513731911
 10
349.4228054513
 20
139.1444204694
 10
351.338502462
 20
140.0897237184
 10
353.201915451
 20
141.0859123387
 10
355.0103426476
 20
142.1315419522
 10
356.761162005
 20
143.2250964958
 10
358.4518350028
 20
144.36499042
 10
360.0799103266
 20
145.5495709876
 10
361.643027423
 20
146.77712067
 10
363.1389199214
 20
148.0458596375
 10
364.5654189209
 20
149.3539483399
 10
365.9204561342
 20
150.6994901736
 10
367.202066887
 20
152.0805342317
 10
368.4083929661
 20
153.4950781323
 10
369.5376853141
 20
154.9410709218
 10
370.588306565
 20
156.4164160491
 10
371.5587334184
 20
157.9189744048
 10
372.4475588483
 20
159.4465674228
 10
373.2534941427
 20
160.9969802394
 10
373.9753707724
 20
162.5679649041
 10
374.6121420854
 20
164.1572436395
 10
375.1628848241
 20
165.7625121432
 10
375.6268004642
 20
167.3814429294
 10
376.0032163724
 20
169.0116887032
 10
376.2915867816
 20
170.6508857642
 10
376.4914935823
 20
172.2966574332
 10
376.6026469288
 20
173.9466174988
 10
376.6248856592
 20
175.5983736765
 10
376.6040777535
 20
176.3882394935
  0
LWPOLYLINE
  5
2AC
330
1F
100
AcDbEntity
  8
0
  6
Continuous
 62
     7
370
    25
100
AcDbPolyline
 90
       79
 70
   128
 43
0.0
 10
370.2114274131
 20
178.8778414161
 10
370.1668764481
 20
177.3137644235
 10
370.033295815
 20
175.7522243696
 10
369.8109021819
 20
174.1957540779
 10
369.5000562722
 20
172.646878149
 10
369.1012622791
 20
171.1081088653
 10
368.6151670479
 20
169.5819421162
 10
368.0425590268
 20
168.0708533498
 10
367.3843669882
 20
166.5772935575
 10
366.6416585219
 20
165.1036852989
 10
365.8156383038
 20
163.6524187718
 10
364.9076461418
 20
162.225847936
 10
363.9191548023
 20
160.8262866944
 10
362.851767622
 20
159.4560051407
 10
361.7072159068
 20
158.1172258764
 10
360.4873561238
 20
156.8121204064
 10
359.1941668899
 20
155.5428056166
 10
357.8297457629
 20
154.3113403402
 10
356.3963058388
 20
153.1197220183
 10
354.8961721624
 20
151.9698834604
 10
353.3317779561
 20
150.8636897086
 10
351.7056606729
 20
149.8029350133
 10
350.020457881
 20
148.7893399226
 10
348.2789029855
 20
147.8245484913
 10
346.4838207948
 20
146.9101256147
 10
344.6381229388
 20
146.04755449
 10
342.7448031462
 20
145.2382342108
 10
340.8069323886
 20
144.4834774974
 10
338.8276538995
 20
143.7845085682
 10
336.8101780757
 20
143.1424611531
 10
334.7577772705
 20
142.5583766555
 10
332.6737804855
 20
142.0332024625
 10
330.5615679711
 20
141.5677904087
 10
328.4245657437
 20
141.1628953941
 10
326.2662400287
 20
140.8191741598
 10
324.0900916383
 20
140.537184223
 10
321.8996502932
 20
140.3173829723
 10
319.6984688973
 20
140.1601269263
 10
317.4901177748
 20
140.0656711547
 10
315.2781788793
 20
140.0341688652
 10
313.0662399838
 20
140.0656711547
 10
310.8578888613
 20
140.1601269263
 10
308.6567074654
 20
140.3173829723
 10
306.4662661203
 20
140.537184223
 10
304.29011773
 20
140.8191741598
 10
302.131792015
 20
141.1628953941
 10
299.9947897875
 20
141.5677904087
 10
297.8825772731
 20
142.0332024625
 10
295.7985804881
 20
142.5583766555
 10
293.7461796829
 20
143.1424611531
 10
291.7287038592
 20
143.7845085682
 10
289.74942537
 20
144.4834774974
 10
287.8115546124
 20
145.2382342108
 10
285.9182348198
 20
146.04755449
 10
284.0725369638
 20
146.9101256147
 10
282.2774547732
 20
147.8245484913
 10
280.5358998777
 20
148.7893399226
 10
278.8506970858
 20
149.8029350133
 10
277.2245798025
 20
150.8636897086
 10
275.6601855962
 20
151.9698834604
 10
274.1600519198
 20
153.1197220183
 10
272.7266119957
 20
154.3113403402
 10
271.3621908687
 20
155.5428056166
 10
270.0690016348
 20
156.8121204064
 10
268.8491418518
 20
158.1172258764
 10
267.7045901366
 20
159.4560051407
 10
266.6372029563
 20
160.8262866944
 10
265.6487116169
 20
162.225847936
 10
264.7407194548
 20
163.6524187718
 10
263.9146992367
 20
165.1036852989
 10
263.1719907704
 20
166.5772935575
 10
262.5137987318
 20
168.0708533498
 10
261.9411907108
 20
169.5819421162
 10
261.4550954796
 20
171.1081088653
 10
261.0563014864
 20
172.646878149
 10
260.7454555768
 20
174.1957540779
 10
260.5230619437
 20
175.7522243696
 10
260.3894813105
 20
177.3137644235
 10
260.3449303455
 20
178.8778414161
  0
ARC
  5
2AD
330
1F
100
AcDbEntity
  8
0
  6
Continuous
 62
     7
370
    25
100
AcDbCircle
 10
314.5864920998
 20
135.7332868882
 30
0.0
 40
81.01678278067278
100
AcDbArc
 50
100.3613256506
 51
103.2458386498
  0
ARC
  5
2AE
330
1F
100
AcDbEntity
  8
0
  6
Continuous
 62
     7
370
    25
100
AcDbCircle
 10
315.9698656587
 20
135.7332868876
 30
0.0
 40
81.01678278127555
100
AcDbArc
 50
76.7541613502
 51
79.6386743494
  0
LWPOLYLINE
  5
2AF
330
1F
100
AcDbEntity
  8
0
  6
Continuous
 62
     7
370
    25
100
AcDbPolyline
 90
       40
 70
   128
 43
0.0
 10
315.2781788793
 20
217.059074902
 10
313.0662399838
 20
217.0275726126
 10
310.8578888613
 20
216.933116841
 10
308.6567074654
 20
216.775860795
 10
306.4662661203
 20
216.5560595443
 10
304.29011773
 20
216.2740696075
 10
302.131792015
 20
215.9303483732
 10
299.9947897876
 20
215.5254533586
 10
297.8825772731
 20
215.0600413047
 10
295.7985804881
 20
214.5348671118
 10
293.7461796829
 20
213.9507826142
 10
291.7287038592
 20
213.3087351991
 10
289.74942537
 20
212.6097662698
 10
287.8115546124
 20
211.8550095565
 10
285.9182348198
 20
211.0456892773
 10
284.0725369639
 20
210.1831181526
 10
282.2774547732
 20
209.268695276
 10
280.5358998777
 20
208.3039038447
 10
278.8506970858
 20
207.2903087539
 10
277.2245798026
 20
206.2295540587
 10
275.6601855962
 20
205.1233603069
 10
274.1600519198
 20
203.9735217489
 10
272.7266119957
 20
202.7819034271
 10
271.3621908687
 20
201.5504381507
 10
270.0690016349
 20
200.2811233609
 10
268.8491418519
 20
198.9760178909
 10
267.7045901367
 20
197.6372386266
 10
266.6372029564
 20
196.2669570729
 10
265.6487116169
 20
194.8673958313
 10
264.7407194548
 20
193.4408249955
 10
263.9146992368
 20
191.9895584684
 10
263.1719907705
 20
190.5159502098
 10
262.5137987319
 20
189.0223904175
 10
261.9411907108
 20
187.5113016511
 10
261.4550954796
 20
185.985134902
 10
261.0563014865
 20
184.4463656183
 10
260.7454555768
 20
182.8974896894
 10
260.5230619437
 20
181.3410193977
 10
260.3894813105
 20
179.7794793438
 10
260.346927467
 20
178.5466218808
  0
LWPOLYLINE
  5
2B0
330
1F
100
AcDbEntity
  8
0
  6
Continuous
 62
     7
370
    25
100
AcDbPolyline
 90
       40
 70
   128
 43
0.0
 10
370.2094302916
 20
178.5466218808
 10
370.1668764481
 20
179.7794793438
 10
370.0332958149
 20
181.3410193977
 10
369.8109021818
 20
182.8974896894
 10
369.5000562721
 20
184.4463656183
 10
369.101262279
 20
185.985134902
 10
368.6151670478
 20
187.5113016511
 10
368.0425590267
 20
189.0223904175
 10
367.3843669881
 20
190.5159502098
 10
366.6416585219
 20
191.9895584684
 10
365.8156383038
 20
193.4408249955
 10
364.9076461417
 20
194.8673958313
 10
363.9191548022
 20
196.2669570729
 10
362.851767622
 20
197.6372386266
 10
361.7072159068
 20
198.9760178909
 10
360.4873561237
 20
200.2811233609
 10
359.1941668899
 20
201.5504381507
 10
357.8297457629
 20
202.7819034271
 10
356.3963058388
 20
203.9735217489
 10
354.8961721624
 20
205.1233603069
 10
353.3317779561
 20
206.2295540587
 10
351.7056606728
 20
207.2903087539
 10
350.0204578809
 20
208.3039038447
 10
348.2789029854
 20
209.268695276
 10
346.4838207948
 20
210.1831181526
 10
344.6381229388
 20
211.0456892773
 10
342.7448031462
 20
211.8550095565
 10
340.8069323886
 20
212.6097662698
 10
338.8276538994
 20
213.3087351991
 10
336.8101780757
 20
213.9507826142
 10
334.7577772705
 20
214.5348671118
 10
332.6737804855
 20
215.0600413047
 10
330.5615679711
 20
215.5254533586
 10
328.4245657436
 20
215.9303483732
 10
326.2662400286
 20
216.2740696075
 10
324.0900916383
 20
216.5560595443
 10
321.8996502932
 20
216.775860795
 10
319.6984688973
 20
216.933116841
 10
317.4901177748
 20
217.0275726126
 10
315.2781788793
 20
217.059074902
  0
ARC
  5
2B1
330
1F
100
AcDbEntity
  8
0
  6
Continuous
 62
     7
370
    25
100
AcDbCircle
 10
286.7089858765
 20
173.8771152994
 30
0.0
 40
33.13938748927668
100
AcDbArc
 50
171.2163973668
 51
218.1517960945
  0
ARC
  5
2B2
330
1F
100
AcDbEntity
  8
0
  6
Continuous
 62
     7
370
    25
100
AcDbCircle
 10
343.8473718821
 20
173.8771152994
 30
0.0
 40
33.13938748927349
100
AcDbArc
 50
321.8482039055
 51
8.7836026332
  0
LINE
  5
2B3
330
1F
100
AcDbEntity
  8
0
  6
Continuous
 62
     7
370
    25
100
AcDbLine
 10
278.2746306658
 20
206.8173598996
 30
0.0
 11
277.2921652881
 21
206.2753788829
 31
0.0
  0
LINE
  5
2B4
330
1F
100
AcDbEntity
  8
0
  6
Continuous
 62
     7
370
    25
100
AcDbLine
 10
353.2641924706
 20
206.2753788829
 30
0.0
 11
352.2817270928
 21
206.8173598996
 31
0.0
  0
LWPOLYLINE
  5
2B5
330
1F
100
AcDbEntity
  8
0
  6
Continuous
 62
     7
370
    25
100
AcDbPolyline
 90
       41
 70
   128
 43
0.0
 10
315.2781788793
 20
216.9591979377
 10
313.067375028
 20
216.9277118135
 10
310.8601571086
 20
216.8333045114
 10
308.6601052367
 20
216.6761291604
 10
306.4707879044
 20
216.4564406995
 10
304.2957561925
 20
216.1745954643
 10
302.1385380104
 20
215.8310506086
 10
300.0026323738
 20
215.4263633636
 10
297.8915037295
 20
214.9611901334
 10
295.8085763358
 20
214.4362854307
 10
293.7572287087
 20
213.8525006528
 10
291.7407881415
 20
213.2107827008
 10
289.7625253081
 20
212.5121724435
 10
287.8256489581
 20
211.7578030294
 10
285.933300712
 20
210.9488980484
 10
284.0885499657
 20
210.0867695473
 10
282.2943889115
 20
209.1728159017
 10
280.5537276852
 20
208.2085195478
 10
278.8693896457
 20
207.1954445777
 10
277.2441067956
 20
206.1352342028
 10
275.6805153494
 20
205.0296080882
 10
274.1811514583
 20
203.8803595635
 10
272.7484470959
 20
202.689352714
 10
271.3847261141
 20
201.4585193572
 10
270.0922004731
 20
200.1898559092
 10
268.8729666543
 20
198.8854201469
 10
267.7290022595
 20
197.5473278697
 10
266.662162803
 20
196.1777494683
 10
265.6741787024
 20
194.7789064039
 10
264.7666524714
 20
193.3530676049
 10
263.941056121
 20
191.9025457872
 10
263.1987287715
 20
190.4296937024
 10
262.5408744805
 20
188.9369003221
 10
261.96856029
 20
187.4265869625
 10
261.4827144959
 20
185.9012033574
 10
261.0841251417
 20
184.3632236846
 10
260.7734387409
 20
182.8151425528
 10
260.5511592278
 20
181.2594709552
 10
260.4176471408
 20
179.6987321968
 10
260.3731190369
 20
178.1354578017
 10
260.3813313171
 20
177.4639952063
  0
LWPOLYLINE
  5
2B6
330
1F
100
AcDbEntity
  8
0
  6
Continuous
 62
     7
370
    25
100
AcDbPolyline
 90
       41
 70
   128
 43
0.0
 10
370.1750264415
 20
177.4639952063
 10
370.1832387217
 20
178.1354578017
 10
370.1387106178
 20
179.6987321968
 10
370.0051985308
 20
181.2594709552
 10
369.7829190178
 20
182.8151425528
 10
369.4722326169
 20
184.3632236846
 10
369.0736432627
 20
185.9012033574
 10
368.5877974686
 20
187.4265869625
 10
368.0154832781
 20
188.9369003221
 10
367.3576289871
 20
190.4296937024
 10
366.6153016376
 20
191.9025457872
 10
365.7897052872
 20
193.3530676049
 10
364.8821790562
 20
194.7789064039
 10
363.8941949556
 20
196.1777494683
 10
362.8273554991
 20
197.5473278697
 10
361.6833911043
 20
198.8854201469
 10
360.4641572855
 20
200.1898559092
 10
359.1716316446
 20
201.4585193572
 10
357.8079106627
 20
202.689352714
 10
356.3752063003
 20
203.8803595635
 10
354.8758424092
 20
205.0296080882
 10
353.312250963
 20
206.1352342028
 10
351.6869681129
 20
207.1954445777
 10
350.0026300734
 20
208.2085195478
 10
348.2619688472
 20
209.1728159017
 10
346.4678077929
 20
210.0867695473
 10
344.6230570466
 20
210.9488980484
 10
342.7307088005
 20
211.7578030294
 10
340.7938324505
 20
212.5121724435
 10
338.8155696171
 20
213.2107827008
 10
336.7991290499
 20
213.8525006528
 10
334.7477814228
 20
214.4362854307
 10
332.6648540292
 20
214.9611901334
 10
330.5537253848
 20
215.4263633636
 10
328.4178197482
 20
215.8310506086
 10
326.2606015661
 20
216.1745954643
 10
324.0855698542
 20
216.4564406995
 10
321.8962525219
 20
216.6761291604
 10
319.69620065
 20
216.8333045114
 10
317.4889827306
 20
216.9277118135
 10
315.2781788793
 20
216.9591979377
  0
LWPOLYLINE
  5
2B7
330
1F
100
AcDbEntity
  8
0
  6
Continuous
 62
     7
370
    25
100
AcDbPolyline
 90
        3
 70
   128
 43
0.0
 10
353.3335858608
 20
206.1207360366
 10
354.045283875
 20
205.7120339083
 10
354.2418077462
 20
205.5969419354
  0
LWPOLYLINE
  5
2B8
330
1F
100
AcDbEntity
  8
0
  6
Continuous
 62
     7
370
    25
100
AcDbPolyline
 90
        3
 70
   128
 43
0.0
 10
276.3145500124
 20
205.5969419354
 10
276.5110738836
 20
205.7120339083
 10
277.2227718978
 20
206.1207360366
  0
LINE
  5
2B9
330
1F
100
AcDbEntity
  8
0
  6
Continuous
 62
     7
370
    25
100
AcDbLine
 10
273.9413741814
 20
203.687700107
 30
0.0
 11
273.2549728485
 21
203.2325159873
 31
0.0
  0
LINE
  5
2BA
330
1F
100
AcDbEntity
  8
0
  6
Continuous
 62
     7
370
    25
100
AcDbLine
 10
357.3013849102
 20
203.2325159873
 30
0.0
 11
356.6149835773
 21
203.687700107
 31
0.0
  0
LINE
  5
2BB
330
1F
100
AcDbEntity
  8
0
  6
Continuous
 62
     7
370
    25
100
AcDbLine
 10
272.4694761113
 20
202.4457494867
 30
0.0
 11
271.9011199016
 21
202.0491237237
 31
0.0
  0
LWPOLYLINE
  5
2BC
330
1F
100
AcDbEntity
  8
0
  6
Continuous
 62
     7
370
    25
100
AcDbPolyline
 90
       80
 70
   128
 43
0.0
 10
254.1903571339
 20
167.3695026314
 10
254.2647709956
 20
166.8373382524
 10
254.5531414047
 20
165.198141192
 10
254.9295573128
 20
163.5678954186
 10
255.3934729528
 20
161.9489646329
 10
255.9442156913
 20
160.3436961297
 10
256.5809870041
 20
158.7544173948
 10
257.3028636336
 20
157.1834327306
 10
258.1087989277
 20
155.6330199145
 10
258.9976243573
 20
154.1054268969
 10
259.9680512105
 20
152.6028685417
 10
261.0186724611
 20
151.1275234148
 10
262.1479648087
 20
149.6815306257
 10
263.3542908875
 20
148.2669867256
 10
264.6359016398
 20
146.8859426679
 10
265.9909388527
 20
145.5404008346
 10
267.4174378518
 20
144.2323121326
 10
268.9133303498
 20
142.9635731655
 10
270.4764474456
 20
141.7360234835
 10
272.104522769
 20
140.5514429162
 10
273.7951957662
 20
139.4115489924
 10
275.5460151232
 20
138.3179944491
 10
277.3544423191
 20
137.272364836
 10
279.2178553076
 20
136.2761762159
 10
281.1335523178
 20
135.3308729672
 10
283.0987557722
 20
134.4378256892
 10
285.1106163138
 20
133.5983292151
 10
287.1662169371
 20
132.8136007345
 10
289.2625772176
 20
132.0847780287
 10
291.3966576335
 20
131.4129178209
 10
293.565363972
 20
130.7989942442
 10
295.7655518164
 20
130.2438974291
 10
297.9940311046
 20
129.7484322129
 10
300.2475707547
 20
129.3133169728
 10
302.5229033497
 20
128.9391825843
 10
304.8167298747
 20
128.6265715065
 10
307.1257245007
 20
128.3759369956
 10
309.4465394062
 20
128.1876424477
 10
311.7758096313
 20
128.0619608718
 10
314.1101579571
 20
127.9990744943
 10
316.4461998015
 20
127.9990744943
 10
318.7805481273
 20
128.0619608718
 10
321.1098183525
 20
128.1876424477
 10
323.4306332579
 20
128.3759369956
 10
325.7396278839
 20
128.6265715065
 10
328.0334544089
 20
128.9391825843
 10
330.3087870039
 20
129.3133169728
 10
332.562326654
 20
129.7484322129
 10
334.7908059422
 20
130.2438974291
 10
336.9909937866
 20
130.7989942442
 10
339.1597001252
 20
131.4129178209
 10
341.293780541
 20
132.0847780287
 10
343.3901408215
 20
132.8136007345
 10
345.4457414448
 20
133.5983292151
 10
347.4576019864
 20
134.4378256892
 10
349.4228054409
 20
135.3308729672
 10
351.3385024511
 20
136.2761762159
 10
353.2019154395
 20
137.272364836
 10
355.0103426355
 20
138.3179944491
 10
356.7611619924
 20
139.4115489924
 10
358.4518349897
 20
140.5514429162
 10
360.079910313
 20
141.7360234835
 10
361.6430274088
 20
142.9635731655
 10
363.1389199068
 20
144.2323121326
 10
364.5654189059
 20
145.5404008346
 10
365.9204561188
 20
146.8859426679
 10
367.2020668711
 20
148.2669867256
 10
368.4083929499
 20
149.6815306257
 10
369.5376852975
 20
151.1275234148
 10
370.5883065481
 20
152.6028685417
 10
371.5587334013
 20
154.1054268969
 10
372.4475588309
 20
155.6330199145
 10
373.253494125
 20
157.1834327306
 10
373.9753707545
 20
158.7544173948
 10
374.6121420673
 20
160.3436961297
 10
375.1628848058
 20
161.9489646329
 10
375.6268004458
 20
163.5678954186
 10
376.0032163539
 20
165.198141192
 10
376.2915867631
 20
166.8373382524
 10
376.3660006247
 20
167.3695026314
  0
LINE
  5
2BD
330
1F
100
AcDbEntity
  8
0
  6
Continuous
 62
     7
370
    25
100
AcDbLine
 10
358.655237857
 20
202.0491237237
 30
0.0
 11
358.0868816473
 21
202.4457494867
 31
0.0
  0
LINE
  5
2BE
330
1F
100
AcDbEntity
  8
0
  6
Continuous
 62
     7
370
    25
100
AcDbLine
 10
266.5896192831
 20
196.0796735932
 30
0.0
 11
266.300142334
 21
195.805367255
 31
0.0
  0
LINE
  5
2BF
330
1F
100
AcDbEntity
  8
0
  6
Continuous
 62
     7
370
    25
100
AcDbLine
 10
364.2562154246
 20
195.805367255
 30
0.0
 11
363.9667384755
 21
196.0796735932
 31
0.0
  0
LWPOLYLINE
  5
2C0
330
1F
100
AcDbEntity
  8
0
  6
Continuous
 62
     7
370
    25
100
AcDbPolyline
 90
       50
 70
   128
 43
0.0
 10
315.2781788793
 20
213.6194989949
 10
313.0974632388
 20
213.5878322427
 10
310.9204247781
 20
213.4928853834
 10
308.7507344767
 20
213.3348185189
 10
306.5920509232
 20
213.1138981857
 10
304.4480141465
 20
212.8304969054
 10
302.3222394775
 20
212.4850925568
 10
300.2183114533
 20
212.0782675696
 10
298.1397777725
 20
211.6107079428
 10
296.0901433131
 20
211.0832020878
 10
294.0728642224
 20
210.4966394988
 10
292.0913420894
 20
209.852009253
 10
290.1489182086
 20
209.1503983427
 10
288.2488679462
 20
208.3929898427
 10
286.3943952167
 20
207.5810609152
 10
284.5886270806
 20
206.7159806559
 10
282.8346084716
 20
205.7992077858
 10
281.1352970618
 20
204.8322881915
 10
279.4935582746
 20
203.816852318
 10
277.9121604532
 20
202.7546124201
 10
276.3937701919
 20
201.6473596744
 10
274.9409478402
 20
200.4969611595
 10
273.5561431853
 20
199.3053567077
 10
272.2416913211
 20
198.0745556336
 10
270.9998087108
 20
196.8066333463
 10
269.8325894495
 20
195.5037278494
 10
268.7420017327
 20
194.1680361366
 10
267.7298845383
 20
192.8018104861
 10
266.7979445247
 20
191.4073546635
 10
265.9477531535
 20
189.9870200368
 10
265.1807440399
 20
188.5432016114
 10
264.4982105347
 20
187.0783339919
 10
263.9013035437
 20
185.5948872764
 10
263.3910295872
 20
184.0953628916
 10
262.9682491025
 20
182.5822893751
 10
262.6336749932
 20
181.0582181109
 10
262.3878714269
 20
179.525719028
 10
262.231252884
 20
177.9873762665
 10
262.1640834588
 20
176.4457838204
 10
262.1864764142
 20
174.9035411633
 10
262.2983939905
 20
173.3632488652
 10
262.4996474694
 20
171.8275042073
 10
262.7898974921
 20
170.2988968025
 10
263.1686546313
 20
168.7800042288
 10
263.6352802168
 20
167.2733876827
 10
264.1889874123
 20
165.7815876604
 10
264.8288425422
 20
164.3071196743
 10
265.553766666
 20
162.8524700109
 10
266.3625373976
 20
161.4200915388
 10
267.2247933543
 20
160.0558604622
  0
LWPOLYLINE
  5
2C1
330
1F
100
AcDbEntity
  8
0
  6
Continuous
 62
     7
370
    25
100
AcDbPolyline
 90
       50
 70
   128
 43
0.0
 10
363.3315644043
 20
160.0558604622
 10
364.193820361
 20
161.4200915388
 10
365.0025910927
 20
162.8524700109
 10
365.7275152165
 20
164.3071196743
 10
366.3673703464
 20
165.7815876604
 10
366.9210775419
 20
167.2733876827
 10
367.3877031273
 20
168.7800042288
 10
367.7664602665
 20
170.2988968025
 10
368.0567102892
 20
171.8275042073
 10
368.2579637681
 20
173.3632488652
 10
368.3698813445
 20
174.9035411633
 10
368.3922742998
 20
176.4457838204
 10
368.3251048746
 20
177.9873762665
 10
368.1684863317
 20
179.525719028
 10
367.9226827654
 20
181.0582181109
 10
367.5881086561
 20
182.5822893751
 10
367.1653281714
 20
184.0953628916
 10
366.6550542149
 20
185.5948872764
 10
366.058147224
 20
187.0783339919
 10
365.3756137187
 20
188.5432016114
 10
364.6086046051
 20
189.9870200368
 10
363.758413234
 20
191.4073546635
 10
362.8264732203
 20
192.8018104861
 10
361.8143560259
 20
194.1680361366
 10
360.7237683092
 20
195.5037278494
 10
359.5565490478
 20
196.8066333463
 10
358.3146664375
 20
198.0745556336
 10
357.0002145733
 20
199.3053567077
 10
355.6154099184
 20
200.4969611595
 10
354.1625875667
 20
201.6473596744
 10
352.6441973054
 20
202.7546124201
 10
351.062799484
 20
203.816852318
 10
349.4210606968
 20
204.8322881915
 10
347.721749287
 20
205.7992077858
 10
345.967730678
 20
206.7159806559
 10
344.1619625419
 20
207.5810609152
 10
342.3074898124
 20
208.3929898427
 10
340.40743955
 20
209.1503983427
 10
338.4650156692
 20
209.852009253
 10
336.4834935362
 20
210.4966394988
 10
334.4662144455
 20
211.0832020878
 10
332.4165799861
 20
211.6107079428
 10
330.3380463053
 20
212.0782675696
 10
328.2341182811
 20
212.4850925568
 10
326.1083436122
 20
212.8304969054
 10
323.9643068354
 20
213.1138981857
 10
321.8056232819
 20
213.3348185189
 10
319.6359329805
 20
213.4928853834
 10
317.4588945199
 20
213.5878322427
 10
315.2781788793
 20
213.6194989949
  0
LINE
  5
2C2
330
1F
100
AcDbEntity
  8
0
  6
Continuous
 62
     7
370
    25
100
AcDbLine
 10
266.2043769777
 20
195.5470568555
 30
0.0
 11
265.9426338783
 21
195.2985196593
 31
0.0
  0
LWPOLYLINE
  5
2C3
330
1F
100
AcDbEntity
  8
0
  6
Continuous
 62
     7
370
    25
100
AcDbPolyline
 90
       84
 70
   128
 43
0.0
 10
253.9391555741
 20
168.7120469232
 10
253.953710835
 20
168.2744386101
 10
254.0648641814
 20
166.6244785447
 10
254.2647709821
 20
164.9787068758
 10
254.5531413913
 20
163.339509815
 10
254.9295572995
 20
161.7092640413
 10
255.3934729396
 20
160.0903332552
 10
255.9442156783
 20
158.4850647516
 10
256.5809869912
 20
156.8957860164
 10
257.3028636209
 20
155.3248013518
 10
258.1087989151
 20
153.7743885354
 10
258.9976243449
 20
152.2467955175
 10
259.9680511983
 20
150.744237162
 10
261.0186724491
 20
149.2688920348
 10
262.147964797
 20
147.8228992453
 10
263.354290876
 20
146.4083553449
 10
264.6359016287
 20
145.0273112869
 10
265.9909388419
 20
143.6817694533
 10
267.4174378412
 20
142.373680751
 10
268.9133303396
 20
141.1049417836
 10
270.4764474358
 20
139.8773921013
 10
272.1045227594
 20
138.6928115339
 10
273.7951957571
 20
137.5529176097
 10
275.5460151144
 20
136.4593630662
 10
277.3544423108
 20
135.4137334528
 10
279.2178552996
 20
134.4175448326
 10
281.1335523102
 20
133.4722415837
 10
283.0987557651
 20
132.5791943055
 10
285.1106163072
 20
131.7396978312
 10
287.1662169309
 20
130.9549693504
 10
289.2625772119
 20
130.2261466444
 10
291.3966576282
 20
129.5542864365
 10
293.5653639672
 20
128.9403628596
 10
295.7655518121
 20
128.3852660444
 10
297.9940311008
 20
127.8898008281
 10
300.2475707514
 20
127.4546855879
 10
302.5229033469
 20
127.0805511994
 10
304.8167298724
 20
126.7679401215
 10
307.1257244989
 20
126.5173056106
 10
309.4465394049
 20
126.3290110626
 10
311.7758096306
 20
126.2033294867
 10
314.1101579568
 20
126.1404431091
 10
316.4461998018
 20
126.1404431091
 10
318.780548128
 20
126.2033294867
 10
321.1098183537
 20
126.3290110626
 10
323.4306332597
 20
126.5173056106
 10
325.7396278862
 20
126.7679401215
 10
328.0334544117
 20
127.0805511994
 10
330.3087870072
 20
127.4546855879
 10
332.5623266578
 20
127.8898008281
 10
334.7908059465
 20
128.3852660444
 10
336.9909937914
 20
128.9403628596
 10
339.1597001304
 20
129.5542864365
 10
341.2937805467
 20
130.2261466444
 10
343.3901408277
 20
130.9549693504
 10
345.4457414514
 20
131.7396978312
 10
347.4576019935
 20
132.5791943055
 10
349.4228054484
 20
133.4722415837
 10
351.338502459
 20
134.4175448326
 10
353.2019154478
 20
135.4137334528
 10
355.0103426442
 20
136.4593630662
 10
356.7611620015
 20
137.5529176097
 10
358.4518349992
 20
138.6928115339
 10
360.0799103229
 20
139.8773921013
 10
361.643027419
 20
141.1049417836
 10
363.1389199174
 20
142.373680751
 10
364.5654189167
 20
143.6817694533
 10
365.9204561299
 20
145.0273112869
 10
367.2020668826
 20
146.4083553449
 10
368.4083929616
 20
147.8228992453
 10
369.5376853095
 20
149.2688920348
 10
370.5883065603
 20
150.744237162
 10
371.5587334137
 20
152.2467955175
 10
372.4475588435
 20
153.7743885354
 10
373.2534941378
 20
155.3248013518
 10
373.9753707674
 20
156.8957860164
 10
374.6121420804
 20
158.4850647516
 10
375.162884819
 20
160.0903332552
 10
375.6268004591
 20
161.7092640413
 10
376.0032163673
 20
163.339509815
 10
376.2915867765
 20
164.9787068758
 10
376.4914935772
 20
166.6244785447
 10
376.6026469236
 20
168.2744386101
 10
376.6172021845
 20
168.7120469232
  0
LINE
  5
2C4
330
1F
100
AcDbEntity
  8
0
  6
Continuous
 62
     7
370
    25
100
AcDbLine
 10
364.6137238804
 20
195.2985196593
 30
0.0
 11
364.3519807809
 21
195.5470568555
 31
0.0
  0
LWPOLYLINE
  5
2C5
330
1F
100
AcDbEntity
  8
0
  6
Continuous
 62
     7
370
    25
100
AcDbPolyline
 90
        3
 70
   128
 43
0.0
 10
264.2271993681
 20
192.4246685435
 10
264.1345181615
 20
192.3237790124
 10
264.039040302
 20
192.2191959859
  0
LWPOLYLINE
  5
2C6
330
1F
100
AcDbEntity
  8
0
  6
Continuous
 62
     7
370
    25
100
AcDbPolyline
 90
        3
 70
   128
 43
0.0
 10
366.5173174567
 20
192.2191959859
 10
366.4218395972
 20
192.3237790124
 10
366.3291583905
 20
192.4246685435
  0
LINE
  5
2C7
330
1F
100
AcDbEntity
  8
0
  6
Continuous
 62
     7
370
    25
100
AcDbLine
 10
357.5224795234
 20
196.9866315876
 30
0.0
 11
358.3235896101
 21
196.3319541603
 31
0.0
  0
LINE
  5
2C8
330
1F
100
AcDbEntity
  8
0
  6
Continuous
 62
     7
370
    25
100
AcDbLine
 10
370.13070762
 20
179.833351652
 30
0.0
 11
370.1704857959
 21
179.7148082077
 31
0.0
  0
LINE
  5
2C9
330
1F
100
AcDbEntity
  8
0
  6
Continuous
 62
     7
370
    25
100
AcDbLine
 10
260.3858719627
 20
179.7148082077
 30
0.0
 11
260.4256501387
 21
179.833351652
 31
0.0
  0
LINE
  5
2CA
330
1F
100
AcDbEntity
  8
0
  6
Continuous
 62
     7
370
    25
100
AcDbLine
 10
272.2327681485
 20
196.3319541603
 30
0.0
 11
273.0338782352
 21
196.9866315876
 31
0.0
  0
LWPOLYLINE
  5
2CB
330
1F
100
AcDbEntity
  8
0
  6
Continuous
 62
     7
370
    25
100
AcDbPolyline
 90
        3
 70
   128
 43
0.0
 10
264.0581640332
 20
192.1189422648
 10
263.9862406031
 20
192.0416186314
 10
263.8825999913
 20
191.9295604595
  0
LWPOLYLINE
  5
2CC
330
1F
100
AcDbEntity
  8
0
  6
Continuous
 62
     7
370
    25
100
AcDbPolyline
 90
       86
 70
   128
 43
0.0
 10
253.9333785584
 20
168.7472175018
 10
253.931999937
 20
168.6550975217
 10
253.9542384761
 20
167.003355556
 10
254.0653908661
 20
165.353409687
 10
254.2652959468
 20
163.7076521784
 10
254.5536638749
 20
162.0684692214
 10
254.9300765443
 20
160.4382374745
 10
255.3939881928
 20
158.8193206178
 10
255.9447261929
 20
157.2140659261
 10
256.581492027
 20
155.6248008652
 10
257.3033624455
 20
154.0538297175
 10
258.1092908055
 20
152.5034302409
 10
258.9981085877
 20
150.9758503666
 10
259.9685270915
 20
149.4733049392
 10
261.0191393027
 20
147.997972506
 10
262.148421934
 20
146.551992158
 10
263.3547376337
 20
145.1374604284
 10
264.6363373593
 20
143.7564282531
 10
265.9913629136
 20
142.4108979966
 10
267.4178496392
 20
141.1028205492
 10
268.9137292668
 20
139.8340924982
 10
270.4768329138
 20
138.6065533778
 10
272.1048942294
 20
137.4219830026
 10
273.7955526803
 20
136.2820988862
 10
275.5463569734
 20
135.1885537518
 10
277.3547686099
 20
134.1429331351
 10
279.2181655658
 20
133.1467530861
 10
281.1338460936
 20
132.2014579707
 10
283.0990326397
 20
131.3084183763
 10
285.1108758715
 20
130.4689291251
 10
287.1664588087
 20
129.6842073962
 10
289.2628010524
 20
128.9553909611
 10
291.3968631069
 20
128.2835365339
 10
293.5655507862
 20
127.6696182393
 10
295.7657197005
 20
127.1145262002
 10
297.9941798151
 20
126.6190652469
 10
300.2477000761
 20
126.1839537505
 10
302.5230130944
 20
125.809822581
 10
304.8168198837
 20
125.4972141929
 10
307.1257946434
 20
125.2465818384
 10
309.4465895808
 20
125.0582889106
 10
311.7758397653
 20
124.932608416
 10
314.1101680066
 20
124.8697225795
 10
316.446189752
 20
124.8697225795
 10
318.7805179934
 20
124.932608416
 10
321.1097681778
 20
125.0582889106
 10
323.4305631153
 20
125.2465818384
 10
325.739537875
 20
125.4972141929
 10
328.0333446642
 20
125.809822581
 10
330.3086576825
 20
126.1839537505
 10
332.5621779435
 20
126.6190652469
 10
334.7906380582
 20
127.1145262002
 10
336.9908069724
 20
127.6696182393
 10
339.1594946517
 20
128.2835365339
 10
341.2935567062
 20
128.9553909611
 10
343.38989895
 20
129.6842073962
 10
345.4454818871
 20
130.4689291251
 10
347.4573251189
 20
131.3084183763
 10
349.422511665
 20
132.2014579707
 10
351.3381921928
 20
133.1467530861
 10
353.2015891487
 20
134.1429331351
 10
355.0100007852
 20
135.1885537518
 10
356.7608050783
 20
136.2820988862
 10
358.4514635293
 20
137.4219830026
 10
360.0795248448
 20
138.6065533778
 10
361.6426284918
 20
139.8340924982
 10
363.1385081194
 20
141.1028205492
 10
364.564994845
 20
142.4108979966
 10
365.9200203994
 20
143.7564282531
 10
367.2016201249
 20
145.1374604284
 10
368.4079358246
 20
146.551992158
 10
369.5372184559
 20
147.997972506
 10
370.5878306671
 20
149.4733049392
 10
371.5582491709
 20
150.9758503666
 10
372.4470669531
 20
152.5034302409
 10
373.2529953131
 20
154.0538297175
 10
373.9748657317
 20
155.6248008652
 10
374.6116315657
 20
157.2140659261
 10
375.1623695658
 20
158.8193206178
 10
375.6262812143
 20
160.4382374745
 10
376.0026938838
 20
162.0684692214
 10
376.2910618118
 20
163.7076521784
 10
376.4909668925
 20
165.353409687
 10
376.6021192825
 20
167.003355556
 10
376.6243578216
 20
168.6550975217
 10
376.6229792002
 20
168.7472175018
  0
LWPOLYLINE
  5
2CD
330
1F
100
AcDbEntity
  8
0
  6
Continuous
 62
     7
370
    25
100
AcDbPolyline
 90
        3
 70
   128
 43
0.0
 10
366.6737577673
 20
191.9295604595
 10
366.5701171555
 20
192.0416186314
 10
366.4981937255
 20
192.1189422648
  0
LWPOLYLINE
  5
2CE
330
1F
100
AcDbEntity
  8
0
  6
Continuous
 62
     7
370
    25
100
AcDbPolyline
 90
       33
 70
   128
 43
0.0
 10
315.2781788793
 20
211.3370246942
 10
313.0789013313
 20
211.3055005944
 10
310.8832371906
 20
211.2109800891
 10
308.6947939275
 20
211.0536184753
 10
306.5171671486
 20
210.8336742976
 10
304.353934689
 20
210.5515089238
 10
302.2086507339
 20
210.2075859508
 10
300.0848399792
 20
209.8024704431
 10
297.9859918405
 20
209.3368280046
 10
295.9155547196
 20
208.8114236844
 10
293.8769303394
 20
208.2271207205
 10
291.8734681543
 20
207.5848791212
 10
289.9084598476
 20
206.8857540877
 10
287.9851339225
 20
206.1308942806
 10
286.1066503987
 20
205.3215399325
 10
284.2760956196
 20
204.4590208106
 10
282.4964771818
 20
203.5447540315
 10
280.7707189939
 20
202.5802417331
 10
279.1016564719
 20
201.5670686066
 10
277.4920318813
 20
200.5068992927
 10
275.9444898309
 20
199.401475647
 10
274.4615729284
 20
198.2526138775
 10
273.0457176023
 20
197.062201561
 10
271.6992500992
 20
195.832194542
 10
270.4243826617
 20
194.5646137186
 10
269.2232098935
 20
193.261541723
 10
268.0977053185
 20
191.9251194988
 10
267.0497181376
 20
190.5575427844
 10
266.0809701911
 20
189.1610585047
 10
265.1930531293
 20
187.7379610797
 10
264.3874257976
 20
186.2905886548
 10
263.6654118395
 20
184.8213192589
 10
263.5188468341
 20
184.4974822982
  0
LWPOLYLINE
  5
2CF
330
1F
100
AcDbEntity
  8
0
  6
Continuous
 62
     7
370
    25
100
AcDbPolyline
 90
       33
 70
   128
 43
0.0
 10
367.0375109245
 20
184.4974822982
 10
366.8909459191
 20
184.8213192589
 10
366.1689319611
 20
186.2905886548
 10
365.3633046293
 20
187.7379610797
 10
364.4753875675
 20
189.1610585047
 10
363.506639621
 20
190.5575427844
 10
362.4586524402
 20
191.9251194988
 10
361.3331478651
 20
193.261541723
 10
360.131975097
 20
194.5646137186
 10
358.8571076594
 20
195.832194542
 10
357.5106401563
 20
197.062201561
 10
356.0947848302
 20
198.2526138775
 10
354.6118679277
 20
199.401475647
 10
353.0643258773
 20
200.5068992927
 10
351.4547012867
 20
201.5670686066
 10
349.7856387648
 20
202.5802417331
 10
348.0598805768
 20
203.5447540315
 10
346.2802621391
 20
204.4590208106
 10
344.4497073599
 20
205.3215399325
 10
342.5712238361
 20
206.1308942806
 10
340.6478979111
 20
206.8857540877
 10
338.6828896043
 20
207.5848791212
 10
336.6794274192
 20
208.2271207205
 10
334.640803039
 20
208.8114236844
 10
332.5703659182
 20
209.3368280046
 10
330.4715177794
 20
209.8024704431
 10
328.3477070247
 20
210.2075859508
 10
326.2024230696
 20
210.5515089238
 10
324.03919061
 20
210.8336742976
 10
321.8615638311
 20
211.0536184753
 10
319.673120568
 20
211.2109800891
 10
317.4774564273
 20
211.3055005944
 10
315.2781788793
 20
211.3370246942
  0
LWPOLYLINE
  5
2D0
330
1F
100
AcDbEntity
  8
0
  6
Continuous
 62
     7
370
    25
100
AcDbPolyline
 90
        3
 70
   128
 43
0.0
 10
273.4128144452
 20
197.3151672003
 10
272.8923128712
 20
196.9181905139
 10
272.812182142
 20
196.856124815
  0
LINE
  5
2D1
330
1F
100
AcDbEntity
  8
0
  6
Continuous
 62
     7
370
    25
100
AcDbLine
 10
260.6577580522
 20
182.0835728563
 30
0.0
 11
260.6006326146
 21
181.9589119972
 31
0.0
  0
LINE
  5
2D2
330
1F
100
AcDbEntity
  8
0
  6
Continuous
 62
     7
370
    25
100
AcDbLine
 10
369.9557251441
 20
181.9589119972
 30
0.0
 11
369.8985997064
 21
182.0835728563
 31
0.0
  0
LWPOLYLINE
  5
2D3
330
1F
100
AcDbEntity
  8
0
  6
Continuous
 62
     7
370
    25
100
AcDbPolyline
 90
        3
 70
   128
 43
0.0
 10
357.7441756166
 20
196.856124815
 10
357.6640448875
 20
196.9181905139
 10
357.1435433134
 20
197.3151672003
  0
LWPOLYLINE
  5
2D4
330
1F
100
AcDbEntity
  8
0
  6
Continuous
 62
     7
370
    25
100
AcDbPolyline
 90
       33
 70
   128
 43
0.0
 10
315.2781788793
 20
211.2717309278
 10
313.0788915274
 20
211.2402066875
 10
310.8832175988
 20
211.1456857609
 10
308.6947645801
 20
210.9883234455
 10
306.5171280938
 20
210.7683782874
 10
304.3538859909
 20
210.4862116557
 10
302.2085924725
 20
210.1422871496
 10
300.0847722503
 20
209.737169836
 10
297.9859147553
 20
209.2715253217
 10
295.9154684048
 20
208.7461186594
 10
293.8768349368
 20
208.1618130908
 10
291.8733638208
 20
207.5195686285
 10
289.9083467543
 20
206.8204404784
 10
287.9850122555
 20
206.0655773063
 10
286.1065203578
 20
205.2562193503
 10
284.2759574184
 20
204.3936963834
 10
282.4963310474
 20
203.4794255287
 10
280.7705651664
 20
202.5149089307
 10
279.1014952041
 20
201.5017312876
 10
277.4918634381
 20
200.4415572478
 10
275.9443144891
 20
199.3361286743
 10
274.4613909761
 20
198.1872617833
 10
273.0455293383
 20
196.9968441603
 10
271.6990558329
 20
195.7668316581
 10
270.4241827123
 20
194.4992451841
 10
269.2230045895
 20
193.1961673796
 10
268.0974949972
 20
191.859739198
 10
267.0495031446
 20
190.4921563872
 10
266.0807508796
 20
189.0956658822
 10
265.1928298597
 20
187.6725621134
 10
264.3871989366
 20
186.2251832363
 10
263.66518176
 20
184.7559072907
 10
263.4426054038
 20
184.260116402
  0
LWPOLYLINE
  5
2D5
330
1F
100
AcDbEntity
  8
0
  6
Continuous
 62
     7
370
    25
100
AcDbPolyline
 90
       33
 70
   128
 43
0.0
 10
367.1137523548
 20
184.260116402
 10
366.8911759986
 20
184.7559072907
 10
366.169158822
 20
186.2251832363
 10
365.363527899
 20
187.6725621134
 10
364.475606879
 20
189.0956658822
 10
363.506854614
 20
190.4921563872
 10
362.4588627614
 20
191.859739198
 10
361.3333531691
 20
193.1961673796
 10
360.1321750464
 20
194.4992451841
 10
358.8573019257
 20
195.7668316581
 10
357.5108284203
 20
196.9968441603
 10
356.0949667826
 20
198.1872617833
 10
354.6120432695
 20
199.3361286743
 10
353.0644943205
 20
200.4415572478
 10
351.4548625545
 20
201.5017312876
 10
349.7857925922
 20
202.5149089307
 10
348.0600267112
 20
203.4794255287
 10
346.2804003403
 20
204.3936963834
 10
344.4498374009
 20
205.2562193503
 10
342.5713455031
 20
206.0655773063
 10
340.6480110043
 20
206.8204404784
 10
338.6829939379
 20
207.5195686285
 10
336.6795228218
 20
208.1618130908
 10
334.6408893538
 20
208.7461186594
 10
332.5704430033
 20
209.2715253217
 10
330.4715855083
 20
209.737169836
 10
328.3477652861
 20
210.1422871496
 10
326.2024717677
 20
210.4862116557
 10
324.0392296649
 20
210.7683782874
 10
321.8615931785
 20
210.9883234455
 10
319.6731401598
 20
211.1456857609
 10
317.4774662312
 20
211.2402066875
 10
315.2781788793
 20
211.2717309278
  0
ARC
  5
2D6
330
1F
100
AcDbEntity
  8
0
  6
Continuous
 62
     7
370
    25
100
AcDbCircle
 10
340.8566910423
 20
172.0518203267
 30
0.0
 40
27.55226003085543
100
AcDbArc
 50
4.4041218422
 51
20.2859305918
  0
ARC
  5
2D7
330
1F
100
AcDbEntity
  8
0
  6
Continuous
 62
     7
370
    25
100
AcDbCircle
 10
289.7540530917
 20
172.0399176084
 30
0.0
 40
27.60740090586087
100
AcDbArc
 50
159.7299765459
 51
175.5799160109
  0
LINE
  5
2D8
330
1F
100
AcDbEntity
  8
0
  6
Continuous
 62
     7
370
    25
100
AcDbLine
 10
272.2126717641
 20
196.2482500054
 30
0.0
 11
271.7113430732
 21
195.8437121359
 31
0.0
  0
LINE
  5
2D9
330
1F
100
AcDbEntity
  8
0
  6
Continuous
 62
     7
370
    25
100
AcDbLine
 10
358.8450146855
 20
195.8437121359
 30
0.0
 11
358.3436859946
 21
196.2482500054
 31
0.0
  0
LINE
  5
2DA
330
1F
100
AcDbEntity
  8
0
  6
Continuous
 62
     7
370
    25
100
AcDbLine
 10
358.1557046041
 20
196.4205829182
 30
0.0
 11
358.6872224752
 21
195.993177733
 31
0.0
  0
LINE
  5
2DB
330
1F
100
AcDbEntity
  8
0
  6
Continuous
 62
     7
370
    25
100
AcDbLine
 10
271.8691352834
 20
195.993177733
 30
0.0
 11
272.4006531545
 21
196.4205829182
 31
0.0
  0
LWPOLYLINE
  5
2DC
330
1F
100
AcDbEntity
  8
0
  6
Continuous
 62
     7
370
    25
100
AcDbPolyline
 90
        3
 70
   128
 43
0.0
 10
358.6724692868
 20
195.9418952607
 10
359.0922719932
 20
195.5982308227
 10
359.1506653818
 20
195.5498095012
  0
LWPOLYLINE
  5
2DD
330
1F
100
AcDbEntity
  8
0
  6
Continuous
 62
     7
370
    25
100
AcDbPolyline
 90
        3
 70
   128
 43
0.0
 10
271.4056923769
 20
195.5498095012
 10
271.4640857655
 20
195.5982308227
 10
271.8838884718
 20
195.9418952607
  0
LWPOLYLINE
  5
2DE
330
1F
100
AcDbEntity
  8
0
  6
Continuous
 62
     7
370
    25
100
AcDbPolyline
 90
       42
 70
   128
 43
0.0
 10
315.2781788793
 20
206.9469397855
 10
317.4257240368
 20
206.9153415449
 10
319.5695513989
 20
206.8206015256
 10
321.7059496064
 20
206.6628837398
 10
323.8312201615
 20
206.4424612261
 10
325.94168383
 20
206.1597155764
 10
328.0336870115
 20
205.8151362753
 10
330.1036080641
 20
205.4093198529
 10
332.1478635738
 20
204.9429688522
 10
334.1629145588
 20
204.4168906122
 10
336.1452725954
 20
203.8319958713
 10
338.0915058574
 20
203.1892971897
 10
339.9982450574
 20
202.4899071968
 10
341.8621892794
 20
201.7350366655
 10
343.6801116934
 20
200.9259924152
 10
345.4488651415
 20
200.0641750502
 10
347.1653875864
 20
199.1510765349
 10
348.8267074123
 20
198.1882776107
 10
350.4299485691
 20
197.1774450592
 10
351.9723355519
 20
196.1203288177
 10
353.4511982052
 20
195.0187589484
 10
354.863976346
 20
193.8746424714
 10
356.2082241956
 20
192.6899600625
 10
357.481614614
 20
191.4667626247
 10
358.6819431283
 20
190.2071677377
 10
359.8071317492
 20
188.9133559917
 10
360.8552325684
 20
187.5875672125
 10
361.8244311308
 20
186.2320965843
 10
362.7130495755
 20
184.8492906759
 10
363.5195495407
 20
183.4415433784
 10
364.2425348266
 20
182.0112917611
 10
364.880753813
 20
180.5610118526
 10
365.4331016253
 20
179.0932143537
 10
365.898622048
 20
177.6104402918
 10
366.2765091798
 20
176.1152566214
 10
366.5661088285
 20
174.6102517801
 10
366.7669196439
 20
173.098031208
 10
366.8785939856
 20
171.5812128368
 10
366.9009385248
 20
170.0624225579
 10
366.833914579
 20
168.5442896764
 10
366.6776381788
 20
167.0294423594
 10
366.5703138567
 20
166.3000237411
  0
LWPOLYLINE
  5
2DF
330
1F
100
AcDbEntity
  8
0
  6
Continuous
 62
     7
370
    25
100
AcDbPolyline
 90
       42
 70
   128
 43
0.0
 10
263.9860439019
 20
166.3000237411
 10
263.8787195798
 20
167.0294423594
 10
263.7224431797
 20
168.5442896764
 10
263.6554192338
 20
170.0624225579
 10
263.677763773
 20
171.5812128368
 10
263.7894381147
 20
173.098031208
 10
263.9902489301
 20
174.6102517801
 10
264.2798485788
 20
176.1152566214
 10
264.6577357106
 20
177.6104402918
 10
265.1232561333
 20
179.0932143537
 10
265.6756039457
 20
180.5610118526
 10
266.313822932
 20
182.0112917611
 10
267.0368082179
 20
183.4415433784
 10
267.8433081831
 20
184.8492906759
 10
268.7319266278
 20
186.2320965843
 10
269.7011251902
 20
187.5875672125
 10
270.7492260094
 20
188.9133559917
 10
271.8744146303
 20
190.2071677377
 10
273.0747431446
 20
191.4667626247
 10
274.348133563
 20
192.6899600625
 10
275.6923814126
 20
193.8746424714
 10
277.1051595534
 20
195.0187589484
 10
278.5840222067
 20
196.1203288177
 10
280.1264091895
 20
197.1774450592
 10
281.7296503464
 20
198.1882776107
 10
283.3909701722
 20
199.1510765349
 10
285.1074926171
 20
200.0641750502
 10
286.8762460652
 20
200.9259924152
 10
288.6941684792
 20
201.7350366655
 10
290.5581127012
 20
202.4899071968
 10
292.4648519012
 20
203.1892971897
 10
294.4110851633
 20
203.8319958713
 10
296.3934431998
 20
204.4168906122
 10
298.4084941848
 20
204.9429688522
 10
300.4527496946
 20
205.4093198529
 10
302.5226707471
 20
205.8151362753
 10
304.6146739286
 20
206.1597155764
 10
306.7251375972
 20
206.4424612261
 10
308.8504081522
 20
206.6628837398
 10
310.9868063597
 20
206.8206015256
 10
313.1306337218
 20
206.9153415449
 10
315.2781788793
 20
206.9469397855
  0
LWPOLYLINE
  5
2E0
330
1F
100
AcDbEntity
  8
0
  6
Continuous
 62
     8
370
    18
100
AcDbPolyline
 90
      162
 70
   128
 43
0.0
 10
315.2781788793
 20
220.4802147776
 10
317.5594984991
 20
220.4487336515
 10
319.8373440455
 20
220.3543382136
 10
322.1082467353
 20
220.1971722128
 10
324.3687483585
 20
219.9774749867
 10
326.6154065438
 20
219.6955810982
 10
328.8448000014
 20
219.3519198251
 10
331.053533733
 20
218.9470145068
 10
333.2382442012
 20
218.4814817473
 10
335.3956044525
 20
217.9560304762
 10
337.5223291831
 20
217.3714608693
 10
339.615179742
 20
216.7286631294
 10
341.6709690629
 20
216.0286161316
 10
343.6865665179
 20
215.272385932
 10
345.6589026846
 20
214.4611241443
 10
347.5849740202
 20
213.5960661866
 10
349.4618474359
 20
212.6785293994
 10
351.2866647631
 20
211.7099110398
 10
353.0566471058
 20
210.6916861539
 10
354.7690990731
 20
209.6254053301
 10
356.421412883
 20
208.5126923384
 10
358.0110723341
 20
207.3552416569
 10
359.5356566374
 20
206.1548158923
 10
360.9928441024
 20
204.913243095
 10
362.3804156729
 20
203.6324139754
 10
363.6962583063
 20
202.3142790251
 10
364.9383681915
 20
200.9608455462
 10
366.1048537998
 20
199.5741745946
 10
367.1939387661
 20
198.1563778414
 10
368.2039645937
 20
196.7096143573
 10
369.1333931799
 20
195.2360873244
 10
369.9808091581
 20
193.7380406812
 10
370.7449220537
 20
192.2177557057
 10
371.4245682488
 20
190.6775475412
 10
372.0187127543
 20
189.1197616707
 10
372.5264507861
 20
187.546770345
 10
372.947009143
 20
185.9609689705
 10
373.2797473839
 20
184.364772461
 10
373.5241588035
 20
182.7606115607
 10
373.6798712033
 20
181.1509291419
 10
373.7466474592
 20
179.5381764854
 10
373.7243858819
 20
177.9248095475
 10
373.6131203722
 20
176.3132852199
 10
373.4130203689
 20
174.7060575884
 10
373.1243905915
 20
173.1055741955
 10
372.7476705755
 20
171.5142723134
 10
372.2834340032
 20
169.9345752324
 10
371.7323878305
 20
168.3688885705
 10
371.0953712098
 20
166.8195966104
 10
370.3733542123
 20
165.2890586681
 10
369.5674363508
 20
163.7796055004
 10
368.6788449052
 20
162.2935357556
 10
367.7089330538
 20
160.8331124726
 10
366.6591778123
 20
159.4005596353
 10
365.5311777848
 20
157.9980587853
 10
364.3266507292
 20
156.6277457001
 10
363.0474309416
 20
155.2917071405
 10
361.6954664628
 20
153.9919776728
 10
360.2728161115
 20
152.7305365707
 10
358.7816463497
 20
151.5093048007
 10
357.2242279829
 20
150.3301420976
 10
355.6029327023
 20
149.1948441315
 10
353.9202294733
 20
148.105139774
 10
352.1786807753
 20
147.0626884651
 10
350.3809386997
 20
146.0690776861
 10
348.5297409111
 20
145.1258205425
 10
346.6279064785
 20
144.2343534592
 10
344.6783315819
 20
143.3960339936
 10
342.6839851023
 20
142.6121387678
 10
340.6479041005
 20
141.8838615252
 10
338.5731891919
 20
141.2123113116
 10
336.4629998252
 20
140.5985107875
 10
334.3205494706
 20
140.0433946696
 10
332.1491007267
 20
139.5478083083
 10
329.9519603517
 20
139.1125063999
 10
327.732474228
 20
138.7381518374
 10
325.4940222668
 20
138.425314701
 10
323.2400132612
 20
138.17447139
 10
320.9738796952
 20
137.9860038975
 10
318.6990725164
 20
137.8601992284
 10
316.4190558808
 20
137.7972489624
 10
314.1373018778
 20
137.7972489624
 10
311.8572852422
 20
137.8601992284
 10
309.5824780634
 20
137.9860038975
 10
307.3163444974
 20
138.17447139
 10
305.0623354918
 20
138.425314701
 10
302.8238835306
 20
138.7381518374
 10
300.6043974069
 20
139.1125063999
 10
298.4072570319
 20
139.5478083083
 10
296.235808288
 20
140.0433946696
 10
294.0933579334
 20
140.5985107875
 10
291.9831685667
 20
141.2123113116
 10
289.9084536581
 20
141.8838615252
 10
287.8723726563
 20
142.6121387678
 10
285.8780261767
 20
143.3960339936
 10
283.9284512801
 20
144.2343534592
 10
282.0266168475
 20
145.1258205425
 10
280.1754190589
 20
146.0690776861
 10
278.3776769833
 20
147.0626884651
 10
276.6361282853
 20
148.105139774
 10
274.9534250563
 20
149.1948441315
 10
273.3321297757
 20
150.3301420976
 10
271.7747114089
 20
151.5093048007
 10
270.2835416471
 20
152.7305365707
 10
268.8608912958
 20
153.9919776728
 10
267.508926817
 20
155.2917071405
 10
266.2297070294
 20
156.6277457001
 10
265.0251799739
 20
157.9980587853
 10
263.8971799463
 20
159.4005596353
 10
262.8474247048
 20
160.8331124726
 10
261.8775128534
 20
162.2935357556
 10
260.9889214079
 20
163.7796055004
 10
260.1830035463
 20
165.2890586681
 10
259.4609865488
 20
166.8195966104
 10
258.8239699281
 20
168.3688885705
 10
258.2729237554
 20
169.9345752324
 10
257.8086871832
 20
171.5142723134
 10
257.4319671671
 20
173.1055741955
 10
257.1433373897
 20
174.7060575884
 10
256.9432373865
 20
176.3132852199
 10
256.8319718767
 20
177.9248095475
 10
256.8097102994
 20
179.5381764854
 10
256.8764865553
 20
181.1509291419
 10
257.0321989552
 20
182.7606115607
 10
257.2766103747
 20
184.364772461
 10
257.6093486156
 20
185.9609689705
 10
258.0299069725
 20
187.546770345
 10
258.5376450043
 20
189.1197616707
 10
259.1317895098
 20
190.6775475412
 10
259.8114357049
 20
192.2177557057
 10
260.5755486005
 20
193.7380406812
 10
261.4229645787
 20
195.2360873244
 10
262.3523931649
 20
196.7096143573
 10
263.3624189925
 20
198.1563778414
 10
264.4515039588
 20
199.5741745946
 10
265.6179895672
 20
200.9608455462
 10
266.8600994523
 20
202.3142790251
 10
268.1759420857
 20
203.6324139754
 10
269.5635136563
 20
204.913243095
 10
271.0207011212
 20
206.1548158923
 10
272.5452854245
 20
207.3552416569
 10
274.1349448756
 20
208.5126923384
 10
275.7872586855
 20
209.6254053301
 10
277.4997106528
 20
210.6916861539
 10
279.2696929956
 20
211.7099110398
 10
281.0945103227
 20
212.6785293994
 10
282.9713837384
 20
213.5960661866
 10
284.897455074
 20
214.4611241443
 10
286.8697912407
 20
215.272385932
 10
288.8853886957
 20
216.0286161316
 10
290.9411780167
 20
216.7286631294
 10
293.0340285755
 20
217.3714608693
 10
295.1607533061
 20
217.9560304762
 10
297.3181135574
 20
218.4814817473
 10
299.5028240256
 20
218.9470145068
 10
301.7115577572
 20
219.3519198251
 10
303.9409512148
 20
219.6955810982
 10
306.1876094002
 20
219.9774749867
 10
308.4481110233
 20
220.1971722128
 10
310.7190137131
 20
220.3543382136
 10
312.9968592595
 20
220.4487336515
 10
315.2781788793
 20
220.4802147776
  0
LWPOLYLINE
  5
2E1
330
1F
100
AcDbEntity
  8
0
  6
Continuous
 62
     8
370
    18
100
AcDbPolyline
 90
      166
 70
   128
 43
0.0
 10
315.2781788793
 20
221.3403999804
 10
312.942560453
 20
221.3089510913
 10
310.6103284502
 20
221.2146500221
 10
308.2848643842
 20
221.0576335003
 10
305.9695399557
 20
220.8381291847
 10
303.6677121637
 20
220.5564553358
 10
301.3827184385
 20
220.2130203535
 10
299.1178718025
 20
219.8083221859
 10
296.8764560668
 20
219.3429476066
 10
294.66172107
 20
218.8175713642
 10
292.4768779661
 20
218.232955204
 10
290.3250945686
 20
217.5899467636
 10
288.2094907579
 20
216.8894783438
 10
286.1331339571
 20
216.1325655568
 10
284.0990346852
 20
215.3203058538
 10
282.1101421916
 20
214.4538769336
 10
280.1693401803
 20
213.5345350355
 10
278.2794426287
 20
212.5636131172
 10
276.4431897075
 20
211.5425189228
 10
274.663243808
 20
210.4727329411
 10
272.9421856815
 20
209.3558062597
 10
271.2825106978
 20
208.1933583153
 10
269.6866252269
 20
206.9870745464
 10
268.1568431502
 20
205.7387039492
 10
266.6953825055
 20
204.4500565416
 10
265.3043622709
 20
203.1230007391
 10
263.9857992929
 20
201.759460646
 10
262.7416053617
 20
200.3614132648
 10
261.5735844395
 20
198.9308856307
 10
260.4834300451
 20
197.469951872
 10
259.4727227981
 20
195.980730203
 10
258.5429281273
 20
194.4653798526
 10
257.6953941462
 20
192.9260979341
 10
256.9313496979
 20
191.3651162591
 10
256.251902574
 20
189.7846981018
 10
255.6580379077
 20
188.1871349174
 10
255.1506167461
 20
186.5747430197
 10
254.7303748013
 20
184.949860223
 10
254.3979213841
 20
183.3148424519
 10
254.15373852
 20
181.6720603259
 10
253.9981802508
 20
180.0238957219
 10
253.9314721213
 20
178.3727383212
 10
253.9537108517
 20
176.7209821441
 10
254.0648641981
 20
175.0710220792
 10
254.2647709987
 20
173.4252504107
 10
254.5531414078
 20
171.7860533503
 10
254.9295573159
 20
170.1558075771
 10
255.3934729559
 20
168.5368767914
 10
255.9442156944
 20
166.9316082883
 10
256.5809870072
 20
165.3423295535
 10
257.3028636366
 20
163.7713448893
 10
258.1087989307
 20
162.2209320733
 10
258.9976243602
 20
160.6933390558
 10
259.9680512134
 20
159.1907807007
 10
261.0186724639
 20
157.7154355739
 10
262.1479648115
 20
156.2694427849
 10
263.3542908902
 20
154.8548988848
 10
264.6359016425
 20
153.4738548272
 10
265.9909388553
 20
152.128312994
 10
267.4174378543
 20
150.820224292
 10
268.9133303522
 20
149.551485325
 10
270.4764474479
 20
148.323935643
 10
272.1045227712
 20
147.1393550759
 10
273.7951957684
 20
145.9994611521
 10
275.5460151252
 20
144.9059066089
 10
277.3544423211
 20
143.8602769958
 10
279.2178553094
 20
142.8640883758
 10
281.1335523195
 20
141.9187851271
 10
283.0987557739
 20
141.0257378492
 10
285.1106163154
 20
140.1862413751
 10
287.1662169385
 20
139.4015128945
 10
289.262577219
 20
138.6726901887
 10
291.3966576347
 20
138.000829981
 10
293.5653639731
 20
137.3869064043
 10
295.7655518174
 20
136.8318095892
 10
297.9940311055
 20
136.3363443731
 10
300.2475707555
 20
135.901229133
 10
302.5229033503
 20
135.5270947445
 10
304.8167298753
 20
135.2144836668
 10
307.1257245011
 20
134.9638491559
 10
309.4465394065
 20
134.775554608
 10
311.7758096315
 20
134.6498730321
 10
314.1101579572
 20
134.5869866545
 10
316.4461998015
 20
134.5869866545
 10
318.7805481271
 20
134.6498730321
 10
321.1098183522
 20
134.775554608
 10
323.4306332575
 20
134.9638491559
 10
325.7396278833
 20
135.2144836668
 10
328.0334544083
 20
135.5270947445
 10
330.3087870031
 20
135.901229133
 10
332.5623266531
 20
136.3363443731
 10
334.7908059412
 20
136.8318095892
 10
336.9909937855
 20
137.3869064043
 10
339.1597001239
 20
138.000829981
 10
341.2937805396
 20
138.6726901887
 10
343.3901408201
 20
139.4015128945
 10
345.4457414432
 20
140.1862413751
 10
347.4576019847
 20
141.0257378492
 10
349.4228054391
 20
141.9187851271
 10
351.3385024492
 20
142.8640883758
 10
353.2019154375
 20
143.8602769958
 10
355.0103426334
 20
144.9059066089
 10
356.7611619903
 20
145.9994611521
 10
358.4518349874
 20
147.1393550759
 10
360.0799103107
 20
148.323935643
 10
361.6430274064
 20
149.551485325
 10
363.1389199044
 20
150.820224292
 10
364.5654189033
 20
152.128312994
 10
365.9204561162
 20
153.4738548272
 10
367.2020668685
 20
154.8548988848
 10
368.4083929471
 20
156.2694427849
 10
369.5376852947
 20
157.7154355739
 10
370.5883065453
 20
159.1907807007
 10
371.5587333984
 20
160.6933390558
 10
372.4475588279
 20
162.2209320733
 10
373.253494122
 20
163.7713448893
 10
373.9753707515
 20
165.3423295535
 10
374.6121420642
 20
166.9316082883
 10
375.1628848027
 20
168.5368767914
 10
375.6268004427
 20
170.1558075771
 10
376.0032163508
 20
171.7860533503
 10
376.2915867599
 20
173.4252504107
 10
376.4914935605
 20
175.0710220792
 10
376.6026469069
 20
176.7209821441
 10
376.6248856374
 20
178.3727383212
 10
376.5581775078
 20
180.0238957219
 10
376.4026192387
 20
181.6720603259
 10
376.1584363745
 20
183.3148424519
 10
375.8259829573
 20
184.949860223
 10
375.4057410125
 20
186.5747430197
 10
374.8983198509
 20
188.1871349174
 10
374.3044551847
 20
189.7846981018
 10
373.6250080607
 20
191.3651162591
 10
372.8609636125
 20
192.9260979341
 10
372.0134296313
 20
194.4653798526
 10
371.0836349605
 20
195.980730203
 10
370.0729277135
 20
197.469951872
 10
368.9827733191
 20
198.9308856307
 10
367.8147523969
 20
200.3614132648
 10
366.5705584657
 20
201.759460646
 10
365.2519954877
 20
203.1230007391
 10
363.8609752532
 20
204.4500565416
 10
362.3995146084
 20
205.7387039492
 10
360.8697325317
 20
206.9870745464
 10
359.2738470609
 20
208.1933583153
 10
357.6141720771
 20
209.3558062597
 10
355.8931139506
 20
210.4727329411
 10
354.1131680511
 20
211.5425189228
 10
352.2769151299
 20
212.5636131172
 10
350.3870175783
 20
213.5345350355
 10
348.446215567
 20
214.4538769336
 10
346.4573230734
 20
215.3203058538
 10
344.4232238015
 20
216.1325655568
 10
342.3468670008
 20
216.8894783438
 10
340.23126319
 20
217.5899467636
 10
338.0794797926
 20
218.232955204
 10
335.8946366886
 20
218.8175713642
 10
333.6799016918
 20
219.3429476066
 10
331.4384859561
 20
219.8083221859
 10
329.1736393201
 20
220.2130203535
 10
326.8886455949
 20
220.5564553358
 10
324.5868178029
 20
220.8381291847
 10
322.2714933744
 20
221.0576335003
 10
319.9460293084
 20
221.2146500221
 10
317.6137973056
 20
221.3089510913
 10
315.2781788793
 20
221.3403999804
  0
LWPOLYLINE
  5
2E2
330
1F
100
AcDbEntity
  8
0
  6
Continuous
 62
     8
370
    18
100
AcDbPolyline
 90
      161
 70
   128
 43
0.0
 10
315.2781788793
 20
220.2074416822
 10
317.5513153053
 20
220.1758773787
 10
319.8209467196
 20
220.0812331382
 10
322.0835735153
 20
219.9236548952
 10
324.3357068856
 20
219.703385624
 10
326.5738742043
 20
219.4207649637
 10
328.7946243795
 20
219.076228695
 10
330.9945331754
 20
218.6703080679
 10
333.1702084922
 20
218.2036289824
 10
335.3182955961
 20
217.676911024
 10
337.4354822926
 20
217.0909663535
 10
339.5185040333
 20
216.4466984551
 10
341.5641489495
 20
215.7451007433
 10
343.5692628051
 20
214.9872550309
 10
345.5307538598
 20
214.1743298611
 10
347.4455976368
 20
213.3075787054
 10
349.3108415855
 20
212.3883380314
 10
351.123609635
 20
211.4180252417
 10
352.8811066285
 20
210.398136488
 10
354.5806226329
 20
209.3302443651
 10
356.2195371177
 20
208.2159954851
 10
357.7953229956
 20
207.0571079391
 10
359.305550519
 20
205.8553686477
 10
360.7478910265
 20
204.6126306057
 10
362.1201205336
 20
203.3308100251
 10
363.4201231618
 20
202.0118833804
 10
364.6458944013
 20
200.6578843609
 10
365.7955442017
 20
199.2709007348
 10
366.8672998864
 20
197.8530711305
 10
367.8595088857
 20
196.4065817383
 10
368.7706412854
 20
194.9336629401
 10
369.5992921852
 20
193.43658587
 10
370.3441838655
 20
191.9176589122
 10
371.0041677575
 20
190.3792241421
 10
371.5782262137
 20
188.8236537145
 10
372.0654740776
 20
187.2533462063
 10
372.4651600483
 20
185.6707229178
 10
372.7766678391
 20
184.0782241395
 10
372.9995171275
 20
182.478305389
 10
373.133364296
 20
180.8734336251
 10
373.178002962
 20
179.2660834438
 10
373.133364296
 20
177.6587332624
 10
372.9995171275
 20
176.0538614985
 10
372.7766678391
 20
174.453942748
 10
372.4651600483
 20
172.8614439697
 10
372.0654740776
 20
171.2788206813
 10
371.5782262137
 20
169.7085131731
 10
371.0041677575
 20
168.1529427455
 10
370.3441838655
 20
166.6145079753
 10
369.5992921852
 20
165.0955810175
 10
368.7706412854
 20
163.5985039474
 10
367.8595088857
 20
162.1255851493
 10
366.8672998864
 20
160.6790957571
 10
365.7955442017
 20
159.2612661528
 10
364.6458944013
 20
157.8742825267
 10
363.4201231618
 20
156.5202835071
 10
362.1201205336
 20
155.2013568624
 10
360.7478910265
 20
153.9195362819
 10
359.305550519
 20
152.6767982399
 10
357.7953229956
 20
151.4750589484
 10
356.2195371177
 20
150.3161714024
 10
354.5806226329
 20
149.2019225224
 10
352.8811066285
 20
148.1340303995
 10
351.123609635
 20
147.1141416459
 10
349.3108415855
 20
146.1438288561
 10
347.4455976368
 20
145.2245881821
 10
345.5307538598
 20
144.3578370265
 10
343.5692628051
 20
143.5449118566
 10
341.5641489495
 20
142.7870661442
 10
339.5185040333
 20
142.0854684324
 10
337.4354822926
 20
141.4412005341
 10
335.3182955961
 20
140.8552558636
 10
333.1702084922
 20
140.3285379052
 10
330.9945331754
 20
139.8618588197
 10
328.7946243795
 20
139.4559381925
 10
326.5738742043
 20
139.1114019238
 10
324.3357068856
 20
138.8287812636
 10
322.0835735153
 20
138.6085119923
 10
319.8209467196
 20
138.4509337493
 10
317.5513153053
 20
138.3562895088
 10
315.2781788793
 20
138.3247252054
 10
313.0050424533
 20
138.3562895088
 10
310.735411039
 20
138.4509337493
 10
308.4727842434
 20
138.6085119923
 10
306.220650873
 20
138.8287812636
 10
303.9824835543
 20
139.1114019238
 10
301.7617333791
 20
139.4559381925
 10
299.5618245832
 20
139.8618588197
 10
297.3861492664
 20
140.3285379052
 10
295.2380621625
 20
140.8552558636
 10
293.120875466
 20
141.4412005341
 10
291.0378537254
 20
142.0854684324
 10
288.9922088092
 20
142.7870661442
 10
286.9870949535
 20
143.5449118566
 10
285.0256038988
 20
144.3578370265
 10
283.1107601219
 20
145.2245881821
 10
281.2455161731
 20
146.1438288561
 10
279.4327481236
 20
147.1141416459
 10
277.6752511301
 20
148.1340303995
 10
275.9757351257
 20
149.2019225224
 10
274.3368206409
 20
150.3161714024
 10
272.761034763
 20
151.4750589484
 10
271.2508072396
 20
152.6767982399
 10
269.8084667321
 20
153.9195362819
 10
268.4362372251
 20
155.2013568624
 10
267.1362345969
 20
156.5202835071
 10
265.9104633573
 20
157.8742825267
 10
264.7608135569
 20
159.2612661528
 10
263.6890578722
 20
160.6790957571
 10
262.6968488729
 20
162.1255851493
 10
261.7857164733
 20
163.5985039474
 10
260.9570655735
 20
165.0955810175
 10
260.2121738931
 20
166.6145079753
 10
259.5521900011
 20
168.1529427455
 10
258.9781315449
 20
169.7085131731
 10
258.490883681
 20
171.2788206813
 10
258.0911977103
 20
172.8614439697
 10
257.7796899195
 20
174.453942748
 10
257.5568406311
 20
176.0538614985
 10
257.4229934626
 20
177.6587332624
 10
257.3783547966
 20
179.2660834438
 10
257.4229934626
 20
180.8734336251
 10
257.5568406311
 20
182.478305389
 10
257.7796899195
 20
184.0782241395
 10
258.0911977103
 20
185.6707229178
 10
258.490883681
 20
187.2533462063
 10
258.9781315449
 20
188.8236537145
 10
259.5521900011
 20
190.3792241421
 10
260.2121738931
 20
191.9176589122
 10
260.9570655735
 20
193.43658587
 10
261.7857164733
 20
194.9336629401
 10
262.6968488729
 20
196.4065817383
 10
263.6890578722
 20
197.8530711305
 10
264.7608135569
 20
199.2709007348
 10
265.9104633573
 20
200.6578843609
 10
267.1362345969
 20
202.0118833804
 10
268.4362372251
 20
203.3308100251
 10
269.8084667321
 20
204.6126306057
 10
271.2508072396
 20
205.8553686477
 10
272.761034763
 20
207.0571079391
 10
274.3368206409
 20
208.2159954851
 10
275.9757351257
 20
209.3302443651
 10
277.6752511301
 20
210.398136488
 10
279.4327481236
 20
211.4180252417
 10
281.2455161731
 20
212.3883380314
 10
283.1107601219
 20
213.3075787054
 10
285.0256038988
 20
214.1743298611
 10
286.9870949535
 20
214.9872550309
 10
288.9922088092
 20
215.7451007433
 10
291.0378537254
 20
216.4466984551
 10
293.120875466
 20
217.0909663535
 10
295.2380621625
 20
217.676911024
 10
297.3861492664
 20
218.2036289824
 10
299.5618245832
 20
218.6703080679
 10
301.7617333791
 20
219.076228695
 10
303.9824835543
 20
219.4207649637
 10
306.220650873
 20
219.703385624
 10
308.4727842434
 20
219.9236548952
 10
310.735411039
 20
220.0812331382
 10
313.0050424533
 20
220.1758773787
 10
315.2781788793
 20
220.2074416822
  0
LWPOLYLINE
  5
2E3
330
1F
100
AcDbEntity
  8
0
  6
Continuous
 62
     8
370
    18
100
AcDbPolyline
 90
       77
 70
   128
 43
0.0
 10
255.0357137755
 20
169.3872734152
 10
255.0609277104
 20
169.2707897573
 10
255.4613748048
 20
167.6446845819
 10
255.949611308
 20
166.0306184315
 10
256.5249206653
 20
164.4309601708
 10
257.186458531
 20
162.848057519
 10
257.9332540071
 20
161.2842336038
 10
258.7642110682
 20
159.7417835526
 10
259.6781101703
 20
158.2229711235
 10
260.6736100404
 20
156.7300253831
 10
261.7492496451
 20
155.2651374353
 10
262.903450335
 20
153.8304572051
 10
264.1345181615
 20
152.4280902836
 10
265.4406463626
 20
151.0600948376
 10
266.8199180153
 20
149.7284785891
 10
268.2703088481
 20
148.4351958686
 10
269.7896902125
 20
147.1821447467
 10
271.3758322068
 20
145.9711642488
 10
273.0264069488
 20
144.8040316559
 10
274.7389919927
 20
143.6824598958
 10
276.5110738836
 20
142.6080950298
 10
278.340051847
 20
141.5825138366
 10
280.2232416055
 20
140.6072214979
 10
282.1578793185
 20
139.6836493897
 10
284.1411256383
 20
138.8131529815
 10
286.1700698775
 20
137.9970098469
 10
288.2417342806
 20
137.2364177882
 10
290.3530783945
 20
136.5324930795
 10
292.5010035305
 20
135.8862688271
 10
294.6823573122
 20
135.2986934543
 10
296.8939383022
 20
134.770629309
 10
299.1325007004
 20
134.3028513981
 10
301.3947591078
 20
133.8960462502
 10
303.6773933482
 20
133.5508109081
 10
305.9770533411
 20
133.267652052
 10
308.2903640183
 20
133.0469852568
 10
310.6139302775
 20
132.8891343814
 10
312.9443419646
 20
132.7943310937
 10
315.2781788793
 20
132.7627145306
 10
317.612015794
 20
132.7943310937
 10
319.9424274812
 20
132.8891343814
 10
322.2659937403
 20
133.0469852568
 10
324.5793044176
 20
133.267652052
 10
326.8789644105
 20
133.5508109081
 10
329.1615986509
 20
133.8960462502
 10
331.4238570582
 20
134.3028513981
 10
333.6624194564
 20
134.770629309
 10
335.8740004464
 20
135.2986934543
 10
338.0553542282
 20
135.8862688271
 10
340.2032793641
 20
136.5324930795
 10
342.314623478
 20
137.2364177882
 10
344.3862878811
 20
137.9970098469
 10
346.4152321203
 20
138.8131529815
 10
348.3984784401
 20
139.6836493897
 10
350.3331161531
 20
140.6072214979
 10
352.2163059117
 20
141.5825138366
 10
354.045283875
 20
142.6080950298
 10
355.8173657659
 20
143.6824598958
 10
357.5299508098
 20
144.8040316559
 10
359.1805255519
 20
145.9711642488
 10
360.7666675462
 20
147.1821447467
 10
362.2860489105
 20
148.4351958686
 10
363.7364397433
 20
149.7284785891
 10
365.115711396
 20
151.0600948376
 10
366.4218395972
 20
152.4280902836
 10
367.6529074236
 20
153.8304572051
 10
368.8071081135
 20
155.2651374353
 10
369.8827477182
 20
156.7300253831
 10
370.8782475883
 20
158.2229711235
 10
371.7921466904
 20
159.7417835526
 10
372.6231037515
 20
161.2842336038
 10
373.3698992276
 20
162.848057519
 10
374.0314370933
 20
164.4309601708
 10
374.6067464507
 20
166.0306184315
 10
375.0949829538
 20
167.6446845819
 10
375.4954300483
 20
169.2707897573
 10
375.5206439831
 20
169.3872734152
  0
LWPOLYLINE
  5
2E4
330
1F
100
AcDbEntity
  8
0
  6
Continuous
 62
     8
370
    18
100
AcDbPolyline
 90
      160
 70
   128
 43
0.0
 10
315.2781788793
 20
219.8076219726
 10
317.5406425113
 20
219.7760082326
 10
319.7995735749
 20
219.6812163734
 10
322.0514450174
 20
219.5233944015
 10
324.2927408089
 20
219.3027887371
 10
326.519961432
 20
219.0197438297
 10
328.7296293462
 20
218.6747016203
 10
330.9182944172
 20
218.2682008515
 10
333.0825393044
 20
217.8008762258
 10
335.2189847963
 20
217.2734574153
 10
337.3242950868
 20
216.6867679218
 10
339.395182984
 20
216.0417237912
 10
341.4284150421
 20
215.3393321835
 10
343.4208166106
 20
214.5806897998
 10
345.3692767911
 20
213.76698117
 10
347.2707532942
 20
212.8994768036
 10
349.1222771901
 20
211.9795312057
 10
350.9209575441
 20
211.0085807622
 10
352.6639859301
 20
209.9881414968
 10
354.3486408165
 20
208.9198067045
 10
355.9722918145
 20
207.805244463
 10
357.5324037858
 20
206.6461950292
 10
359.0265408008
 20
205.444468121
 10
360.4523699419
 20
204.2019400924
 10
361.8076649461
 20
202.9205510035
 10
363.0903096813
 20
201.602301591
 10
364.2983014498
 20
200.2492501452
 10
365.429754116
 20
198.863509295
 10
366.4829010508
 20
197.4472427105
 10
367.4560978903
 20
196.0026617237
 10
368.3478251031
 20
194.5320218764
 10
369.1566903632
 20
193.0376193981
 10
369.8814307233
 20
191.5217876208
 10
370.5209145874
 20
189.9868933361
 10
371.0741434774
 20
188.435333099
 10
371.5402535921
 20
186.8695294868
 10
371.9185171559
 20
185.2919273158
 10
372.208343555
 20
183.7049898247
 10
372.4092802601
 20
182.1111948279
 10
372.5210135321
 20
180.513030847
 10
372.543368913
 20
178.9129932256
 10
372.4763114975
 20
177.3135802323
 10
372.3199459877
 20
175.7172891607
 10
372.0745165298
 20
174.1266124298
 10
371.7404063328
 20
172.5440336925
 10
371.3181370701
 20
170.9720239576
 10
370.8083680651
 20
169.4130377318
 10
370.2118952615
 20
167.8695091869
 10
369.5296499807
 20
166.3438483595
 10
368.7626974679
 20
164.838437388
 10
367.9122352283
 20
163.3556267929
 10
366.9795911577
 20
161.8977318068
 10
365.9662214692
 20
160.4670287597
 10
364.8737084192
 20
159.0657515247
 10
363.7037578372
 20
157.6960880297
 10
362.4581964621
 20
156.3601768418
 10
361.1389690901
 20
155.0601038276
 10
359.7481355383
 20
153.7978988969
 10
358.287867428
 20
152.5755328328
 10
356.7604447946
 20
151.3949142148
 10
355.1682525272
 20
150.2578864388
 10
353.5137766451
 20
149.1662248386
 10
351.7996004159
 20
148.1216339143
 10
350.0284003223
 20
147.1257446705
 10
348.202941883
 20
146.1801120701
 10
346.3260753347
 20
145.2862126062
 10
344.4007311817
 20
144.4454419967
 10
342.4299156203
 20
143.659113005
 10
340.4167058451
 20
142.9284533906
 10
338.3642452442
 20
142.2546039916
 10
336.2757384912
 20
141.638616944
 10
334.1544465413
 20
141.0814540384
 10
332.0036815403
 20
140.5839852186
 10
329.8268016522
 20
140.1469872229
 10
327.6272058168
 20
139.771142372
 10
325.4083284417
 20
139.457037503
 10
323.1736340406
 20
139.2051630532
 10
320.9266118235
 20
139.0159122949
 10
318.6707702488
 20
138.8895807205
 10
316.4096315455
 20
138.8263655818
 10
314.1467262131
 20
138.8263655818
 10
311.8855875098
 20
138.8895807205
 10
309.6297459352
 20
139.0159122949
 10
307.382723718
 20
139.2051630532
 10
305.1480293169
 20
139.457037503
 10
302.9291519418
 20
139.771142372
 10
300.7295561064
 20
140.1469872229
 10
298.5526762184
 20
140.5839852186
 10
296.4019112173
 20
141.0814540384
 10
294.2806192675
 20
141.638616944
 10
292.1921125144
 20
142.2546039916
 10
290.1396519135
 20
142.9284533906
 10
288.1264421383
 20
143.659113005
 10
286.1556265769
 20
144.4454419967
 10
284.2302824239
 20
145.2862126062
 10
282.3534158756
 20
146.1801120701
 10
280.5279574363
 20
147.1257446705
 10
278.7567573427
 20
148.1216339143
 10
277.0425811135
 20
149.1662248386
 10
275.3881052314
 20
150.2578864388
 10
273.795912964
 20
151.3949142148
 10
272.2684903306
 20
152.5755328328
 10
270.8082222203
 20
153.7978988969
 10
269.4173886685
 20
155.0601038276
 10
268.0981612965
 20
156.3601768418
 10
266.8525999214
 20
157.6960880297
 10
265.6826493394
 20
159.0657515247
 10
264.5901362894
 20
160.4670287597
 10
263.5767666009
 20
161.8977318068
 10
262.6441225304
 20
163.3556267929
 10
261.7936602907
 20
164.838437388
 10
261.0267077779
 20
166.3438483595
 10
260.3444624972
 20
167.8695091869
 10
259.7479896935
 20
169.4130377318
 10
259.2382206885
 20
170.9720239576
 10
258.8159514258
 20
172.5440336925
 10
258.4818412288
 20
174.1266124298
 10
258.2364117709
 20
175.7172891607
 10
258.0800462611
 20
177.3135802323
 10
258.0129888456
 20
178.9129932256
 10
258.0353442265
 20
180.513030847
 10
258.1470774986
 20
182.1111948279
 10
258.3480142036
 20
183.7049898247
 10
258.6378406027
 20
185.2919273158
 10
259.0161041665
 20
186.8695294868
 10
259.4822142812
 20
188.435333099
 10
260.0354431712
 20
189.9868933361
 10
260.6749270354
 20
191.5217876208
 10
261.3996673955
 20
193.0376193981
 10
262.2085326555
 20
194.5320218764
 10
263.1002598683
 20
196.0026617237
 10
264.0734567078
 20
197.4472427105
 10
265.1266036426
 20
198.863509295
 10
266.2580563088
 20
200.2492501452
 10
267.4660480773
 20
201.602301591
 10
268.7486928125
 20
202.9205510035
 10
270.1039878167
 20
204.2019400924
 10
271.5298169578
 20
205.444468121
 10
273.0239539728
 20
206.6461950292
 10
274.5840659442
 20
207.805244463
 10
276.2077169421
 20
208.9198067045
 10
277.8923718285
 20
209.9881414968
 10
279.6354002146
 20
211.0085807622
 10
281.4340805685
 20
211.9795312057
 10
283.2856044644
 20
212.8994768036
 10
285.1870809675
 20
213.76698117
 10
287.135541148
 20
214.5806897998
 10
289.1279427165
 20
215.3393321835
 10
291.1611747746
 20
216.0417237912
 10
293.2320626718
 20
216.6867679218
 10
295.3373729624
 20
217.2734574153
 10
297.4738184542
 20
217.8008762258
 10
299.6380633414
 20
218.2682008515
 10
301.8267284125
 20
218.6747016203
 10
304.0363963266
 20
219.0197438297
 10
306.2636169497
 20
219.3027887371
 10
308.5049127412
 20
219.5233944015
 10
310.7567841837
 20
219.6812163734
 10
313.0157152473
 20
219.7760082326
 10
315.2781788793
 20
219.8076219726
  0
LWPOLYLINE
  5
2E5
330
1F
100
AcDbEntity
  8
0
  6
Continuous
 62
     8
370
    18
100
AcDbPolyline
 90
      160
 70
   128
 43
0.0
 10
315.2781788793
 20
219.4729507102
 10
317.522376466
 20
219.4415922043
 10
319.7630700046
 20
219.3475656492
 10
321.996760918
 20
219.1910178561
 10
324.2199615632
 20
218.9721932559
 10
326.4292006761
 20
218.6914335172
 10
328.6210287922
 20
218.349177013
 10
330.7920236321
 20
217.9459581362
 10
332.938795445
 20
217.4824064653
 10
335.0579923016
 20
216.9592457811
 10
337.1463053275
 20
216.3772929369
 10
339.2004738698
 20
215.737456583
 10
341.2172905883
 20
215.0407357479
 10
343.193606463
 20
214.2882182786
 10
345.1263357113
 20
213.4810791417
 10
347.0124606059
 20
212.6205785891
 10
348.8490361867
 20
211.7080601904
 10
350.6331948589
 20
210.7449487347
 10
352.3621508705
 20
209.7327480061
 10
354.033204662
 20
208.673038436
 10
355.6437470812
 20
207.5674746351
 10
357.1912634574
 20
206.41778281
 10
358.6733375273
 20
205.225758068
 10
360.0876552084
 20
203.9932616143
 10
361.4320082114
 20
202.7222178457
 10
362.7042974886
 20
201.4146113462
 10
363.9025365115
 20
200.0724837882
 10
365.024854372
 20
198.6979307445
 10
366.069498704
 20
197.2930984165
 10
367.0348384194
 20
195.8601802832
 10
367.9193662548
 20
194.401413676
 10
368.721701125
 20
192.9190762859
 10
369.4405902793
 20
191.4154826068
 10
370.0749112577
 20
189.8929803217
 10
370.6236736432
 20
188.3539466372
 10
371.0860206086
 20
186.8007845717
 10
371.4612302539
 20
185.2359192034
 10
371.7487167339
 20
183.6617938837
 10
371.9480311724
 20
182.0808664226
 10
372.0588623637
 20
180.4956052506
 10
372.081037258
 20
178.9084855649
 10
372.0145212318
 20
177.3219854643
 10
371.8594181421
 20
175.7385820805
 10
371.6159701638
 20
174.16074771
 10
371.2845574122
 20
172.5909459537
 10
370.8656973488
 20
171.0316278708
 10
370.360043974
 20
169.4852281514
 10
369.7683868054
 20
167.954161315
 10
369.0916496456
 20
166.4408179409
 10
368.3308891392
 20
164.9475609349
 10
367.4872931234
 20
163.4767218407
 10
366.5621787734
 20
162.0305971989
 10
365.5569905453
 20
160.6114449614
 10
364.4732979212
 20
159.2214809661
 10
363.3127929586
 20
157.8628754767
 10
362.0772876481
 20
156.5377497944
 10
360.7687110847
 20
155.2481729457
 10
359.3891064553
 20
153.9961584517
 10
357.9406278488
 20
152.7836611844
 10
356.4255368925
 20
151.6125743144
 10
354.8461992212
 20
150.4847263548
 10
353.2050807831
 20
149.4018783064
 10
351.5047439899
 20
148.3657209077
 10
349.7478437156
 20
147.3778719956
 10
347.9371231515
 20
146.439873979
 10
346.0754095228
 20
145.5531914302
 10
344.1656096742
 20
144.719208799
 10
342.2107055316
 20
143.9392282501
 10
340.2137494458
 20
143.2144676307
 10
338.1778594265
 20
142.5460585683
 10
336.1062142744
 20
141.9350447044
 10
334.0020486175
 20
141.3823800647
 10
331.8686478606
 20
140.8889275693
 10
329.7093430558
 20
140.4554576857
 10
327.5275057013
 20
140.0826472257
 10
325.3265424769
 20
139.7710782885
 10
323.1098899257
 20
139.5212373522
 10
320.8810090873
 20
139.3335145136
 10
318.6433800947
 20
139.2082028797
 10
316.4004967398
 20
139.1454981098
 10
314.1558610188
 20
139.1454981098
 10
311.9129776639
 20
139.2082028797
 10
309.6753486713
 20
139.3335145136
 10
307.4464678329
 20
139.5212373522
 10
305.2298152817
 20
139.7710782885
 10
303.0288520574
 20
140.0826472257
 10
300.8470147028
 20
140.4554576857
 10
298.687709898
 20
140.8889275693
 10
296.5543091412
 20
141.3823800647
 10
294.4501434842
 20
141.9350447044
 10
292.3784983321
 20
142.5460585683
 10
290.3426083128
 20
143.2144676307
 10
288.345652227
 20
143.9392282501
 10
286.3907480844
 20
144.719208799
 10
284.4809482358
 20
145.5531914302
 10
282.6192346071
 20
146.439873979
 10
280.808514043
 20
147.3778719956
 10
279.0516137687
 20
148.3657209077
 10
277.3512769755
 20
149.4018783064
 10
275.7101585374
 20
150.4847263548
 10
274.1308208661
 20
151.6125743144
 10
272.6157299099
 20
152.7836611844
 10
271.1672513033
 20
153.9961584517
 10
269.7876466739
 20
155.2481729457
 10
268.4790701105
 20
156.5377497944
 10
267.2435648
 20
157.8628754767
 10
266.0830598374
 20
159.2214809661
 10
264.9993672133
 20
160.6114449614
 10
263.9941789852
 20
162.0305971989
 10
263.0690646352
 20
163.4767218407
 10
262.2254686194
 20
164.9475609349
 10
261.464708113
 20
166.4408179409
 10
260.7879709532
 20
167.954161315
 10
260.1963137846
 20
169.4852281514
 10
259.6906604098
 20
171.0316278708
 10
259.2718003465
 20
172.5909459537
 10
258.9403875948
 20
174.16074771
 10
258.6969396166
 20
175.7385820805
 10
258.5418365268
 20
177.3219854643
 10
258.4753205007
 20
178.9084855649
 10
258.497495395
 20
180.4956052506
 10
258.6083265862
 20
182.0808664226
 10
258.8076410248
 20
183.6617938837
 10
259.0951275047
 20
185.2359192034
 10
259.47033715
 20
186.8007845717
 10
259.9326841154
 20
188.3539466372
 10
260.4814465009
 20
189.8929803217
 10
261.1157674793
 20
191.4154826068
 10
261.8346566337
 20
192.9190762859
 10
262.6369915039
 20
194.401413676
 10
263.5215193393
 20
195.8601802832
 10
264.4868590546
 20
197.2930984165
 10
265.5315033866
 20
198.6979307445
 10
266.6538212471
 20
200.0724837882
 10
267.85206027
 20
201.4146113462
 10
269.1243495473
 20
202.7222178457
 10
270.4687025502
 20
203.9932616143
 10
271.8830202313
 20
205.225758068
 10
273.3650943013
 20
206.41778281
 10
274.9126106774
 20
207.5674746351
 10
276.5231530967
 20
208.673038436
 10
278.1942068881
 20
209.7327480061
 10
279.9231628998
 20
210.7449487347
 10
281.7073215719
 20
211.7080601904
 10
283.5438971527
 20
212.6205785891
 10
285.4300220473
 20
213.4810791417
 10
287.3627512956
 20
214.2882182786
 10
289.3390671703
 20
215.0407357479
 10
291.3558838888
 20
215.737456583
 10
293.4100524311
 20
216.3772929369
 10
295.4983654571
 20
216.9592457811
 10
297.6175623136
 20
217.4824064653
 10
299.7643341265
 20
217.9459581362
 10
301.9353289664
 20
218.349177013
 10
304.1271570825
 20
218.6914335172
 10
306.3363961954
 20
218.9721932559
 10
308.5595968406
 20
219.1910178561
 10
310.7932877541
 20
219.3475656492
 10
313.0339812926
 20
219.4415922043
 10
315.2781788793
 20
219.4729507102
  0
LWPOLYLINE
  5
2E6
330
1F
100
AcDbEntity
  8
0
  6
Continuous
 62
     8
370
    18
100
AcDbPolyline
 90
      157
 70
   128
 43
0.0
 10
315.2781788793
 20
218.2021284945
 10
313.0535980858
 20
218.17044616
 10
310.8326255705
 20
218.0754505452
 10
308.6188637589
 20
217.9172957334
 10
306.4159033808
 20
217.6962382523
 10
304.2273176459
 20
217.412636658
 10
302.0566564484
 20
217.0669509531
 10
299.9074406086
 20
216.6597418413
 10
297.7831561625
 20
216.1916698172
 10
295.6872487073
 20
215.6634940953
 10
293.6231178124
 20
215.0760713786
 10
291.5941115057
 20
214.4303544689
 10
289.6035208429
 20
213.7273907214
 10
287.6545745694
 20
212.9683203458
 10
285.7504338831
 20
212.154374557
 10
283.8941873071
 20
211.2868735781
 10
282.0888456802
 20
210.367224499
 10
280.3373372731
 20
209.3969189936
 10
278.6425030389
 20
208.3775309012
 10
277.0070920049
 20
207.3107136728
 10
275.4337568138
 20
206.1981976901
 10
273.9250494209
 20
205.0417874579
 10
272.4834169553
 20
203.8433586779
 10
271.1111977499
 20
202.604855206
 10
269.8106175495
 20
201.3282858993
 10
268.5837858999
 20
200.0157213578
 10
267.4326927264
 20
198.6692905662
 10
266.3592051064
 20
197.29117744
 10
265.3650642407
 20
195.8836172838
 10
264.4518826295
 20
194.4488931653
 10
263.6211414567
 20
192.9893322122
 10
262.8741881875
 20
191.5073018379
 10
262.2122343829
 20
190.0052059009
 10
261.6363537343
 20
188.4854808063
 10
261.1474803222
 20
186.9505915539
 10
260.7464071011
 20
185.4030277396
 10
260.4337846133
 20
183.8452995175
 10
260.2101199335
 20
182.2799335286
 10
260.0757758467
 20
180.7094688022
 10
260.0309702595
 20
179.1364526378
 10
260.0757758467
 20
177.5634364735
 10
260.2101199335
 20
175.992971747
 10
260.4337846133
 20
174.4276057581
 10
260.7464071011
 20
172.8698775361
 10
261.1474803222
 20
171.3223137218
 10
261.6363537343
 20
169.7874244693
 10
262.2122343829
 20
168.2676993748
 10
262.8741881875
 20
166.7656034378
 10
263.6211414567
 20
165.2835730634
 10
264.4518826295
 20
163.8240121104
 10
265.3650642407
 20
162.3892879919
 10
266.3592051064
 20
160.9817278357
 10
267.4326927264
 20
159.6036147095
 10
268.5837858999
 20
158.2571839178
 10
269.8106175495
 20
156.9446193764
 10
271.1111977499
 20
155.6680500697
 10
272.4834169553
 20
154.4295465977
 10
273.9250494209
 20
153.2311178178
 10
275.4337568138
 20
152.0747075856
 10
277.0070920049
 20
150.9621916028
 10
278.6425030389
 20
149.8953743745
 10
280.3373372731
 20
148.8759862821
 10
282.0888456802
 20
147.9056807767
 10
283.8941873071
 20
146.9860316975
 10
285.7504338831
 20
146.1185307187
 10
287.6545745694
 20
145.3045849299
 10
289.6035208429
 20
144.5455145543
 10
291.5941115057
 20
143.8425508067
 10
293.6231178124
 20
143.196833897
 10
295.6872487073
 20
142.6094111803
 10
297.7831561625
 20
142.0812354584
 10
299.9074406086
 20
141.6131634343
 10
302.0566564484
 20
141.2059543225
 10
304.2273176459
 20
140.8602686177
 10
306.4159033808
 20
140.5766670233
 10
308.6188637589
 20
140.3556095422
 10
310.8326255705
 20
140.1974547305
 10
313.0535980858
 20
140.1024591157
 10
315.2781788793
 20
140.0707767811
 10
317.5027596728
 20
140.1024591157
 10
319.7237321881
 20
140.1974547305
 10
321.9374939997
 20
140.3556095422
 10
324.1404543778
 20
140.5766670233
 10
326.3290401127
 20
140.8602686177
 10
328.4997013102
 20
141.2059543225
 10
330.64891715
 20
141.6131634343
 10
332.7732015961
 20
142.0812354584
 10
334.8691090514
 20
142.6094111803
 10
336.9332399463
 20
143.196833897
 10
338.9622462529
 20
143.8425508067
 10
340.9528369157
 20
144.5455145543
 10
342.9017831892
 20
145.3045849299
 10
344.8059238756
 20
146.1185307187
 10
346.6621704515
 20
146.9860316975
 10
348.4675120784
 20
147.9056807767
 10
350.2190204855
 20
148.8759862821
 10
351.9138547197
 20
149.8953743745
 10
353.5492657537
 20
150.9621916028
 10
355.1226009449
 20
152.0747075856
 10
356.6313083377
 20
153.2311178178
 10
358.0729408034
 20
154.4295465977
 10
359.4451600087
 20
155.6680500697
 10
360.7457402091
 20
156.9446193764
 10
361.9725718588
 20
158.2571839178
 10
363.1236650323
 20
159.6036147095
 10
364.1971526523
 20
160.9817278357
 10
365.1912935179
 20
162.3892879919
 10
366.1044751291
 20
163.8240121104
 10
366.9352163019
 20
165.2835730634
 10
367.6821695711
 20
166.7656034378
 10
368.3441233757
 20
168.2676993748
 10
368.9200040244
 20
169.7874244693
 10
369.4088774365
 20
171.3223137218
 10
369.8099506575
 20
172.8698775361
 10
370.1225731454
 20
174.4276057581
 10
370.3462378251
 20
175.992971747
 10
370.4805819119
 20
177.5634364735
 10
370.5253874991
 20
179.1364526378
 10
370.4805819119
 20
180.7094688022
 10
370.3462378251
 20
182.2799335286
 10
370.1225731454
 20
183.8452995175
 10
369.8099506575
 20
185.4030277396
 10
369.4088774365
 20
186.9505915539
 10
368.9200040244
 20
188.4854808063
 10
368.3441233757
 20
190.0052059009
 10
367.6821695711
 20
191.5073018379
 10
366.9352163019
 20
192.9893322122
 10
366.1044751291
 20
194.4488931653
 10
365.1912935179
 20
195.8836172838
 10
364.1971526523
 20
197.29117744
 10
363.1236650323
 20
198.6692905662
 10
361.9725718588
 20
200.0157213578
 10
360.7457402091
 20
201.3282858993
 10
359.4451600087
 20
202.604855206
 10
358.0729408034
 20
203.8433586779
 10
356.6313083377
 20
205.0417874579
 10
355.1226009448
 20
206.1981976901
 10
353.5492657537
 20
207.3107136728
 10
351.9138547197
 20
208.3775309012
 10
350.2190204855
 20
209.3969189936
 10
348.4675120784
 20
210.367224499
 10
346.6621704515
 20
211.2868735781
 10
344.8059238756
 20
212.154374557
 10
342.9017831892
 20
212.9683203458
 10
340.9528369157
 20
213.7273907214
 10
338.9622462529
 20
214.4303544689
 10
336.9332399463
 20
215.0760713786
 10
334.8691090514
 20
215.6634940953
 10
332.7732015961
 20
216.1916698172
 10
330.64891715
 20
216.6597418413
 10
328.4997013102
 20
217.0669509531
 10
326.3290401127
 20
217.412636658
 10
324.1404543778
 20
217.6962382523
 10
321.9374939997
 20
217.9172957334
 10
319.7237321881
 20
218.0754505452
 10
317.5027596728
 20
218.17044616
 10
315.2781788793
 20
218.2021284945
  0
LWPOLYLINE
  5
2E7
330
1F
100
AcDbEntity
  8
0
  6
Continuous
 62
     8
370
    18
100
AcDbPolyline
 90
       81
 70
   128
 43
0.0
 10
376.1830560641
 20
172.3778546325
 10
376.1808064476
 20
172.3570695558
 10
375.9570201618
 20
170.7100015189
 10
375.6441793089
 20
169.0702031869
 10
375.2427430259
 20
167.4400811901
 10
374.7533004761
 20
165.8220279573
 10
374.1765699838
 20
164.2184182047
 10
373.5133979806
 20
162.6316054507
 10
372.7647577628
 20
161.063918562
 10
371.9317480631
 20
159.5176583351
 10
371.0155914383
 20
157.9950941202
 10
370.0176324744
 20
156.4984604903
 10
368.9393358139
 20
155.0299539615
 10
367.7822840058
 20
153.5917297698
 10
366.5481751832
 20
152.1858987073
 10
365.238820571
 20
150.8145240252
 10
363.8561418276
 20
149.4796184048
 10
362.4021682248
 20
148.1831410043
 10
360.8790336692
 20
146.9269945829
 10
359.288973571
 20
145.7130227088
 10
357.6343215626
 20
144.5430070531
 10
355.9175060739
 20
143.4186647752
 10
354.1410467684
 20
142.3416460023
 10
352.3075508453
 20
141.3135314081
 10
350.4197092124
 20
140.3358298924
 10
348.4802925379
 20
139.4099763671
 10
346.492147183
 20
138.5373296499
 10
344.4581910253
 20
137.7191704703
 10
342.3814091759
 20
136.9566995895
 10
340.2648495985
 20
136.2510360388
 10
338.1116186362
 20
135.6032154767
 10
335.9248764524
 20
135.0141886693
 10
333.7078323928
 20
134.4848200946
 10
331.4637402752
 20
134.0158866741
 10
329.1958936143
 20
133.608076632
 10
326.9076207878
 20
133.261988486
 10
324.6022801516
 20
132.9781301682
 10
322.283255111
 20
132.7569182796
 10
319.9539491551
 20
132.5986774794
 10
317.6177808614
 20
132.5036400076
 10
315.2781788793
 20
132.4719453449
 10
312.9385768972
 20
132.5036400076
 10
310.6024086036
 20
132.5986774794
 10
308.2731026476
 20
132.7569182796
 10
305.954077607
 20
132.9781301682
 10
303.6487369709
 20
133.261988486
 10
301.3604641443
 20
133.608076632
 10
299.0926174834
 20
134.0158866741
 10
296.8485253659
 20
134.4848200946
 10
294.6314813062
 20
135.0141886693
 10
292.4447391224
 20
135.6032154767
 10
290.2915081601
 20
136.2510360388
 10
288.1749485828
 20
136.9566995895
 10
286.0981667334
 20
137.7191704703
 10
284.0642105756
 20
138.5373296499
 10
282.0760652208
 20
139.4099763671
 10
280.1366485462
 20
140.3358298924
 10
278.2488069134
 20
141.3135314081
 10
276.4153109902
 20
142.3416460023
 10
274.6388516847
 20
143.4186647752
 10
272.9220361961
 20
144.5430070531
 10
271.2673841876
 20
145.7130227088
 10
269.6773240894
 20
146.9269945829
 10
268.1541895339
 20
148.1831410043
 10
266.700215931
 20
149.4796184048
 10
265.3175371876
 20
150.8145240252
 10
264.0081825754
 20
152.1858987073
 10
262.7740737528
 20
153.5917297698
 10
261.6170219447
 20
155.0299539615
 10
260.5387252842
 20
156.4984604903
 10
259.5407663203
 20
157.9950941202
 10
258.6246096955
 20
159.5176583351
 10
257.7915999959
 20
161.063918562
 10
257.0429597781
 20
162.6316054507
 10
256.3797877748
 20
164.2184182047
 10
255.8030572825
 20
165.8220279573
 10
255.3136147327
 20
167.4400811901
 10
254.9121784497
 20
169.0702031869
 10
254.5993375968
 20
170.7100015189
 10
254.375551311
 20
172.3570695558
 10
254.3733016945
 20
172.3778546325
  0
LWPOLYLINE
  5
2E8
330
1F
100
AcDbEntity
  8
0
  6
Continuous
 62
     8
370
    18
100
AcDbPolyline
 90
       86
 70
   128
 43
0.0
 10
253.9456032054
 20
176.5725797614
 10
253.9314721025
 20
175.9670542211
 10
253.953710833
 20
174.3152980435
 10
254.0648641794
 20
172.6653379781
 10
254.2647709801
 20
171.0195663091
 10
254.5531413893
 20
169.3803692482
 10
254.9295572975
 20
167.7501234745
 10
255.3934729376
 20
166.1311926883
 10
255.9442156763
 20
164.5259241847
 10
256.5809869893
 20
162.9366454495
 10
257.3028636189
 20
161.3656607848
 10
258.1087989133
 20
159.8152479683
 10
258.9976243431
 20
158.2876549504
 10
259.9680511965
 20
156.7850965948
 10
261.0186724474
 20
155.3097514675
 10
262.1479647953
 20
153.863758678
 10
263.3542908743
 20
152.4492147776
 10
264.635901627
 20
151.0681707196
 10
265.9909388403
 20
149.7226288859
 10
267.4174378397
 20
148.4145401835
 10
268.913330338
 20
147.1458012161
 10
270.4764474343
 20
145.9182515338
 10
272.104522758
 20
144.7336709663
 10
273.7951957557
 20
143.5937770421
 10
275.5460151131
 20
142.5002224986
 10
277.3544423095
 20
141.4545928852
 10
279.2178552984
 20
140.4584042648
 10
281.1335523091
 20
139.5131010159
 10
283.0987557641
 20
138.6200537377
 10
285.1106163062
 20
137.7805572634
 10
287.16621693
 20
136.9958287825
 10
289.262577211
 20
136.2670060765
 10
291.3966576274
 20
135.5951458686
 10
293.5653639665
 20
134.9812222917
 10
295.7655518115
 20
134.4261254765
 10
297.9940311003
 20
133.9306602602
 10
300.2475707509
 20
133.49554502
 10
302.5229033465
 20
133.1214106314
 10
304.8167298721
 20
132.8087995535
 10
307.1257244987
 20
132.5581650426
 10
309.4465394047
 20
132.3698704946
 10
311.7758096305
 20
132.2441889187
 10
314.1101579568
 20
132.1813025411
 10
316.4461998018
 20
132.1813025411
 10
318.7805481282
 20
132.2441889187
 10
321.1098183539
 20
132.3698704946
 10
323.43063326
 20
132.5581650426
 10
325.7396278865
 20
132.8087995535
 10
328.0334544122
 20
133.1214106314
 10
330.3087870077
 20
133.49554502
 10
332.5623266584
 20
133.9306602602
 10
334.7908059471
 20
134.4261254765
 10
336.9909937921
 20
134.9812222917
 10
339.1597001312
 20
135.5951458686
 10
341.2937805476
 20
136.2670060765
 10
343.3901408287
 20
136.9958287825
 10
345.4457414524
 20
137.7805572634
 10
347.4576019945
 20
138.6200537377
 10
349.4228054495
 20
139.5131010159
 10
351.3385024602
 20
140.4584042648
 10
353.2019154491
 20
141.4545928852
 10
355.0103426455
 20
142.5002224986
 10
356.7611620029
 20
143.5937770421
 10
358.4518350006
 20
144.7336709663
 10
360.0799103243
 20
145.9182515338
 10
361.6430274206
 20
147.1458012161
 10
363.138919919
 20
148.4145401835
 10
364.5654189184
 20
149.7226288859
 10
365.9204561316
 20
151.0681707196
 10
367.2020668843
 20
152.4492147776
 10
368.4083929633
 20
153.863758678
 10
369.5376853113
 20
155.3097514675
 10
370.5883065621
 20
156.7850965948
 10
371.5587334155
 20
158.2876549504
 10
372.4475588454
 20
159.8152479683
 10
373.2534941397
 20
161.3656607848
 10
373.9753707694
 20
162.9366454495
 10
374.6121420823
 20
164.5259241847
 10
375.162884821
 20
166.1311926883
 10
375.6268004611
 20
167.7501234745
 10
376.0032163693
 20
169.3803692482
 10
376.2915867785
 20
171.0195663091
 10
376.4914935792
 20
172.6653379781
 10
376.6026469256
 20
174.3152980435
 10
376.6248856561
 20
175.9670542211
 10
376.6107545532
 20
176.5725797614
  0
LWPOLYLINE
  5
2E9
330
1F
100
AcDbEntity
  8
0
  6
Continuous
 62
     8
370
    18
100
AcDbPolyline
 90
       40
 70
   128
 43
0.0
 10
315.2781788793
 20
217.721513967
 10
317.4901177748
 20
217.6900116775
 10
319.6984688973
 20
217.595555906
 10
321.8996502932
 20
217.4382998599
 10
324.0900916383
 20
217.2184986093
 10
326.2662400287
 20
216.9365086724
 10
328.4245657437
 20
216.5927874382
 10
330.5615679711
 20
216.1878924235
 10
332.6737804855
 20
215.7224803697
 10
334.7577772705
 20
215.1973061767
 10
336.8101780757
 20
214.6132216791
 10
338.8276538995
 20
213.9711742641
 10
340.8069323886
 20
213.2722053348
 10
342.7448031462
 20
212.5174486215
 10
344.6381229388
 20
211.7081283422
 10
346.4838207948
 20
210.8455572175
 10
348.2789029855
 20
209.9311343409
 10
350.020457881
 20
208.9663429096
 10
351.7056606729
 20
207.9527478189
 10
353.3317779561
 20
206.8919931236
 10
354.8961721624
 20
205.7857993719
 10
356.3963058388
 20
204.6359608139
 10
357.8297457629
 20
203.4443424921
 10
359.1941668899
 20
202.2128772156
 10
360.4873561238
 20
200.9435624258
 10
361.7072159068
 20
199.6384569559
 10
362.851767622
 20
198.2996776915
 10
363.9191548023
 20
196.9293961378
 10
364.9076461418
 20
195.5298348962
 10
365.8156383038
 20
194.1032640604
 10
366.6416585219
 20
192.6519975333
 10
367.3843669882
 20
191.1783892747
 10
368.0425590268
 20
189.6848294824
 10
368.6151670479
 20
188.173740716
 10
369.1012622791
 20
186.6475739669
 10
369.5000562722
 20
185.1088046832
 10
369.8109021819
 20
183.5599287543
 10
370.033295815
 20
182.0034584626
 10
370.1668764481
 20
180.4419184087
 10
370.2114274131
 20
178.8778414161
  0
LWPOLYLINE
  5
2EA
330
1F
100
AcDbEntity
  8
0
  6
Continuous
 62
     8
370
    18
100
AcDbPolyline
 90
       40
 70
   128
 43
0.0
 10
260.3449303455
 20
178.8778414161
 10
260.3894813105
 20
180.4419184087
 10
260.5230619437
 20
182.0034584626
 10
260.7454555768
 20
183.5599287543
 10
261.0563014864
 20
185.1088046832
 10
261.4550954796
 20
186.6475739669
 10
261.9411907108
 20
188.173740716
 10
262.5137987318
 20
189.6848294824
 10
263.1719907704
 20
191.1783892747
 10
263.9146992367
 20
192.6519975333
 10
264.7407194548
 20
194.1032640604
 10
265.6487116169
 20
195.5298348962
 10
266.6372029563
 20
196.9293961378
 10
267.7045901366
 20
198.2996776915
 10
268.8491418518
 20
199.6384569559
 10
270.0690016348
 20
200.9435624258
 10
271.3621908687
 20
202.2128772156
 10
272.7266119957
 20
203.4443424921
 10
274.1600519198
 20
204.6359608139
 10
275.6601855962
 20
205.7857993719
 10
277.2245798025
 20
206.8919931236
 10
278.8506970858
 20
207.9527478189
 10
280.5358998777
 20
208.9663429096
 10
282.2774547732
 20
209.9311343409
 10
284.0725369638
 20
210.8455572175
 10
285.9182348198
 20
211.7081283422
 10
287.8115546124
 20
212.5174486215
 10
289.74942537
 20
213.2722053348
 10
291.7287038592
 20
213.9711742641
 10
293.7461796829
 20
214.6132216791
 10
295.7985804881
 20
215.1973061767
 10
297.8825772731
 20
215.7224803697
 10
299.9947897875
 20
216.1878924235
 10
302.131792015
 20
216.5927874382
 10
304.29011773
 20
216.9365086724
 10
306.4662661203
 20
217.2184986093
 10
308.6567074654
 20
217.4382998599
 10
310.8578888613
 20
217.595555906
 10
313.0662399838
 20
217.6900116775
 10
315.2781788793
 20
217.721513967
  0
LWPOLYLINE
  5
2EB
330
1F
100
AcDbEntity
  8
0
  6
Continuous
 62
     8
370
    18
100
AcDbPolyline
 90
       75
 70
   128
 43
0.0
 10
255.3997429114
 20
165.7426105954
 10
255.4613748048
 20
165.5146143056
 10
255.949611308
 20
163.9005481553
 10
256.5249206653
 20
162.3008898946
 10
257.186458531
 20
160.7179872427
 10
257.9332540071
 20
159.1541633276
 10
258.7642110682
 20
157.6117132763
 10
259.6781101703
 20
156.0929008472
 10
260.6736100404
 20
154.5999551069
 10
261.7492496451
 20
153.1350671591
 10
262.903450335
 20
151.7003869289
 10
264.1345181615
 20
150.2980200074
 10
265.4406463626
 20
148.9300245614
 10
266.8199180153
 20
147.5984083129
 10
268.2703088481
 20
146.3051255923
 10
269.7896902125
 20
145.0520744705
 10
271.3758322068
 20
143.8410939726
 10
273.0264069488
 20
142.6739613796
 10
274.7389919927
 20
141.5523896195
 10
276.5110738836
 20
140.4780247536
 10
278.340051847
 20
139.4524435603
 10
280.2232416055
 20
138.4771512216
 10
282.1578793185
 20
137.5535791135
 10
284.1411256383
 20
136.6830827053
 10
286.1700698775
 20
135.8669395706
 10
288.2417342806
 20
135.106347512
 10
290.3530783945
 20
134.4024228032
 10
292.5010035305
 20
133.7561985508
 10
294.6823573122
 20
133.168623178
 10
296.8939383022
 20
132.6405590327
 10
299.1325007004
 20
132.1727811218
 10
301.3947591078
 20
131.765975974
 10
303.6773933482
 20
131.4207406318
 10
305.9770533411
 20
131.1375817758
 10
308.2903640183
 20
130.9169149806
 10
310.6139302775
 20
130.7590641052
 10
312.9443419646
 20
130.6642608175
 10
315.2781788793
 20
130.6326442543
 10
317.612015794
 20
130.6642608175
 10
319.9424274812
 20
130.7590641052
 10
322.2659937403
 20
130.9169149806
 10
324.5793044176
 20
131.1375817758
 10
326.8789644105
 20
131.4207406318
 10
329.1615986509
 20
131.765975974
 10
331.4238570582
 20
132.1727811218
 10
333.6624194564
 20
132.6405590327
 10
335.8740004464
 20
133.168623178
 10
338.0553542282
 20
133.7561985508
 10
340.2032793641
 20
134.4024228032
 10
342.314623478
 20
135.106347512
 10
344.3862878811
 20
135.8669395706
 10
346.4152321203
 20
136.6830827053
 10
348.3984784401
 20
137.5535791135
 10
350.3331161531
 20
138.4771512216
 10
352.2163059117
 20
139.4524435603
 10
354.045283875
 20
140.4780247536
 10
355.8173657659
 20
141.5523896195
 10
357.5299508098
 20
142.6739613796
 10
359.1805255519
 20
143.8410939726
 10
360.7666675462
 20
145.0520744705
 10
362.2860489105
 20
146.3051255923
 10
363.7364397433
 20
147.5984083129
 10
365.115711396
 20
148.9300245614
 10
366.4218395972
 20
150.2980200074
 10
367.6529074236
 20
151.7003869289
 10
368.8071081135
 20
153.1350671591
 10
369.8827477182
 20
154.5999551069
 10
370.8782475883
 20
156.0929008472
 10
371.7921466904
 20
157.6117132763
 10
372.6231037515
 20
159.1541633276
 10
373.3698992276
 20
160.7179872427
 10
374.0314370933
 20
162.3008898946
 10
374.6067464507
 20
163.9005481553
 10
375.0949829538
 20
165.5146143056
 10
375.1566148472
 20
165.7426105954
  0
LWPOLYLINE
  5
2EC
330
1F
100
AcDbEntity
  8
0
  6
Continuous
 62
     8
370
    18
100
AcDbPolyline
 90
       90
 70
   128
 43
0.0
 10
376.6276623655
 20
177.6053214057
 10
376.6283953381
 20
177.5992919802
 10
376.7845281948
 20
175.9450395304
 10
376.851482725
 20
174.2877832292
 10
376.829161851
 20
172.62992594
 10
376.7175979362
 20
170.9738713971
 10
376.5169527373
 20
169.3220207216
 10
376.2275171709
 20
167.6767689388
 10
375.8497108907
 20
166.0405015066
 10
375.3840816798
 20
164.4155908563
 10
374.831304656
 20
162.8043929531
 10
374.1921812932
 20
161.2092438799
 10
373.4676382592
 20
159.6324564503
 10
372.6587260719
 20
158.0763168553
 10
371.7666175769
 20
156.5430813487
 10
370.7926062462
 20
155.0349729752
 10
369.738104303
 20
153.5541783479
 10
368.6046406743
 20
152.1028444775
 10
367.3938587741
 20
150.6830756592
 10
366.1075141204
 20
149.2969304221
 10
364.7474717899
 20
147.9464185444
 10
363.3157037139
 20
146.633498139
 10
361.8142858194
 20
145.3600728152
 10
360.2453950188
 20
144.1279889179
 10
358.6113060536
 20
142.9390328509
 10
356.9143881968
 20
141.7949284868
 10
355.1571018168
 20
140.6973346677
 10
353.3419948111
 20
139.6478427996
 10
351.4716989112
 20
138.6479745454
 10
349.5489258675
 20
137.6991796185
 10
347.5764635168
 20
136.8028336808
 10
345.5571717413
 20
135.9602363482
 10
343.4939783207
 20
135.1726093064
 10
341.3898746885
 20
134.4410945392
 10
339.2479115936
 20
133.7667526731
 10
337.0711946778
 20
133.1505614393
 10
334.8628799725
 20
132.5934142563
 10
332.626169323
 20
132.0961189341
 10
330.3643057458
 20
131.6593965035
 10
328.0805687269
 20
131.2838801703
 10
325.7782694666
 20
130.9701143971
 10
323.4607460788
 20
130.7185541145
 10
321.1313587508
 20
130.5295640606
 10
318.7934848716
 20
130.4034182532
 10
316.4505141348
 20
130.3402995914
 10
314.1058436239
 20
130.3402995914
 10
311.762872887
 20
130.4034182532
 10
309.4249990078
 20
130.5295640606
 10
307.0956116798
 20
130.7185541145
 10
304.778088292
 20
130.9701143971
 10
302.4757890318
 20
131.2838801703
 10
300.1920520129
 20
131.6593965035
 10
297.9301884357
 20
132.0961189341
 10
295.6934777861
 20
132.5934142563
 10
293.4851630808
 20
133.1505614393
 10
291.3084461651
 20
133.7667526731
 10
289.1664830702
 20
134.4410945392
 10
287.0623794379
 20
135.1726093064
 10
284.9991860174
 20
135.9602363482
 10
282.9798942418
 20
136.8028336808
 10
281.0074318912
 20
137.6991796185
 10
279.0846588474
 20
138.6479745454
 10
277.2143629475
 20
139.6478427996
 10
275.3992559418
 20
140.6973346677
 10
273.6419695619
 20
141.7949284868
 10
271.945051705
 20
142.9390328509
 10
270.3109627398
 20
144.1279889179
 10
268.7420719392
 20
145.3600728152
 10
267.2406540447
 20
146.633498139
 10
265.8088859688
 20
147.9464185444
 10
264.4488436383
 20
149.2969304221
 10
263.1624989845
 20
150.6830756592
 10
261.9517170843
 20
152.1028444775
 10
260.8182534557
 20
153.5541783479
 10
259.7637515124
 20
155.0349729752
 10
258.7897401817
 20
156.5430813487
 10
257.8976316867
 20
158.0763168553
 10
257.0887194995
 20
159.6324564503
 10
256.3641764654
 20
161.2092438799
 10
255.7250531026
 20
162.8043929531
 10
255.1722760788
 20
164.4155908563
 10
254.7066468679
 20
166.0405015066
 10
254.3288405878
 20
167.6767689388
 10
254.0394050213
 20
169.3220207216
 10
253.8387598225
 20
170.9738713971
 10
253.7271959076
 20
172.62992594
 10
253.7048750337
 20
174.2877832292
 10
253.7718295639
 20
175.9450395304
 10
253.9279624205
 20
177.5992919802
 10
253.9286953931
 20
177.6053214057
  0
LWPOLYLINE
  5
2ED
330
1F
100
AcDbEntity
  8
0
  6
Continuous
 62
     8
370
    18
100
AcDbPolyline
 90
       60
 70
   128
 43
0.0
 10
260.6489373265
 20
153.4053573696
 10
260.6606530849
 20
153.3896491516
 10
261.7973968189
 20
151.9341152983
 10
263.011682574
 20
150.5102378425
 10
264.301749752
 20
149.1200812704
 10
265.6657278788
 20
147.7656611763
 10
267.1016393166
 20
146.4489413398
 10
268.6074021311
 20
145.1718308786
 10
270.18083311
 20
143.936181481
 10
271.819650929
 20
142.7437847204
 10
273.5214794589
 20
141.5963694581
 10
275.2838512109
 20
140.4955993365
 10
277.1042109145
 20
139.4430703672
 10
278.9799192222
 20
138.4403086164
 10
280.9082565363
 20
137.4887679929
 10
282.886426952
 20
136.5898281396
 10
284.9115623113
 20
135.7447924333
 10
286.9807263615
 20
134.954886095
 10
289.0909190126
 20
134.2212544134
 10
291.239080687
 20
133.5449610843
 10
293.4220967556
 20
132.9269866684
 10
295.6368020539
 20
132.3682271695
 10
297.8799854707
 20
131.8694927355
 10
300.1483946048
 20
131.4315064835
 10
302.4387404796
 20
131.0549034519
 10
304.7477023127
 20
130.7402296789
 10
307.07193233
 20
130.4879414115
 10
309.4080606203
 20
130.2984044436
 10
311.752700021
 20
130.1718935855
 10
314.1024510289
 20
130.1085922661
 10
316.4539067298
 20
130.1085922661
 10
318.8036577377
 20
130.1718935855
 10
321.1482971383
 20
130.2984044436
 10
323.4844254286
 20
130.4879414115
 10
325.8086554459
 20
130.7402296789
 10
328.117617279
 20
131.0549034519
 10
330.4079631538
 20
131.4315064835
 10
332.6763722879
 20
131.8694927355
 10
334.9195557048
 20
132.3682271695
 10
337.134261003
 20
132.9269866684
 10
339.3172770716
 20
133.5449610843
 10
341.465438746
 20
134.2212544134
 10
343.5756313971
 20
134.954886095
 10
345.6447954474
 20
135.7447924333
 10
347.6699308067
 20
136.5898281396
 10
349.6481012223
 20
137.4887679929
 10
351.5764385364
 20
138.4403086164
 10
353.4521468441
 20
139.4430703672
 10
355.2725065477
 20
140.4955993365
 10
357.0348782998
 20
141.5963694581
 10
358.7367068296
 20
142.7437847204
 10
360.3755246486
 20
143.936181481
 10
361.9489556275
 20
145.1718308786
 10
363.454718442
 20
146.4489413398
 10
364.8906298798
 20
147.7656611763
 10
366.2546080066
 20
149.1200812704
 10
367.5446751847
 20
150.5102378425
 10
368.7589609398
 20
151.9341152983
 10
369.8957046737
 20
153.3896491516
 10
369.9074204321
 20
153.4053573696
  0
LWPOLYLINE
  5
2EE
330
1F
100
AcDbEntity
  8
0
  6
Continuous
 62
     8
370
    18
100
AcDbPolyline
 90
       59
 70
   128
 43
0.0
 10
261.3519852972
 20
152.4622621889
 10
261.7244722414
 20
151.9703393424
 10
262.8792071863
 20
150.5349950292
 10
264.1108448479
 20
149.1319789819
 10
265.4175776281
 20
147.7633503199
 10
266.7974877163
 20
146.4311176945
 10
268.2485499041
 20
145.1372363408
 10
269.7686345579
 20
143.8836052082
 10
271.3555107436
 20
142.6720641733
 10
273.0068495016
 20
141.5043913394
 10
274.7202272647
 20
140.3823004276
 10
276.4931294146
 20
139.307438261
 10
278.322953973
 20
138.281382348
 10
280.2070154201
 20
137.3056385672
 10
282.1425486357
 20
136.3816389571
 10
284.1267129581
 20
135.5107396147
 10
286.1565963525
 20
134.6942187047
 10
288.2292196851
 20
133.9332745842
 10
290.3415410952
 20
133.2290240436
 10
292.4904604601
 20
132.5825006677
 10
294.6728239441
 20
131.9946533188
 10
296.8854286279
 20
131.4663447438
 10
299.1250272091
 20
130.9983503085
 10
301.3883327678
 20
130.5913568592
 10
303.6720235911
 20
130.2459617149
 10
305.9727480477
 20
129.9626717907
 10
308.2871295073
 20
129.7419028535
 10
310.6117712959
 20
129.5839789123
 10
312.9432616811
 20
129.4891317421
 10
315.2781788793
 20
129.4575005443
 10
317.6130960775
 20
129.4891317421
 10
319.9445864627
 20
129.5839789123
 10
322.2692282513
 20
129.7419028535
 10
324.5836097109
 20
129.9626717907
 10
326.8843341675
 20
130.2459617149
 10
329.1680249908
 20
130.5913568592
 10
331.4313305495
 20
130.9983503085
 10
333.6709291307
 20
131.4663447438
 10
335.8835338145
 20
131.9946533188
 10
338.0658972985
 20
132.5825006677
 10
340.2148166634
 20
133.2290240436
 10
342.3271380736
 20
133.9332745842
 10
344.3997614061
 20
134.6942187047
 10
346.4296448005
 20
135.5107396147
 10
348.4138091229
 20
136.3816389571
 10
350.3493423386
 20
137.3056385672
 10
352.2334037856
 20
138.281382348
 10
354.063228344
 20
139.307438261
 10
355.8361304939
 20
140.3823004276
 10
357.549508257
 20
141.5043913394
 10
359.2008470151
 20
142.6720641733
 10
360.7877232008
 20
143.8836052082
 10
362.3078078545
 20
145.1372363408
 10
363.7588700424
 20
146.4311176945
 10
365.1387801306
 20
147.7633503199
 10
366.4455129107
 20
149.1319789819
 10
367.6771505723
 20
150.5349950292
 10
368.8318855172
 20
151.9703393424
 10
369.2043724615
 20
152.4622621889
  0
ARC
  5
2EF
330
1F
100
AcDbEntity
  8
0
  6
Continuous
 62
     8
370
    18
100
AcDbCircle
 10
315.6787475349
 20
134.019579922
 30
0.0
 40
82.82240687890143
100
AcDbArc
 50
78.6975372343
 51
82.1631198469
  0
LWPOLYLINE
  5
2F0
330
1F
100
AcDbEntity
  8
0
  6
Continuous
 62
     8
370
    18
100
AcDbPolyline
 90
       80
 70
   128
 43
0.0
 10
376.1641696224
 20
169.8630075582
 10
376.0641685373
 20
169.1302535257
 10
375.7768729852
 20
167.4971663237
 10
375.4018601103
 20
165.8729970443
 10
374.9396736455
 20
164.2601005776
 10
374.390983717
 20
162.6608154693
 10
373.7565858727
 20
161.0774605299
 10
373.0373999289
 20
159.5123314728
 10
372.2344686364
 20
157.9676975853
 10
371.3489561688
 20
156.4457984391
 10
370.3821464345
 20
154.9488406423
 10
369.3354412153
 20
153.4789946407
 10
368.2103581337
 20
152.0383915704
 10
367.0085284525
 20
150.6291201682
 10
365.7316947098
 20
149.2532237428
 10
364.3817081927
 20
147.9126972126
 10
362.9605262523
 20
146.6094842129
 10
361.4702094668
 20
145.3454742779
 10
359.9129186529
 20
144.1225001012
 10
358.2909117334
 20
142.9423348784
 10
356.6065404634
 20
141.8066897363
 10
354.8622470201
 20
140.7172112517
 10
353.0605604623
 20
139.6754790644
 10
351.2040930632
 20
138.6830035864
 10
349.2955365231
 20
137.7412238122
 10
347.3376580665
 20
136.8515052325
 10
345.33329643
 20
136.0151378542
 10
343.2853577463
 20
135.23333433
 10
341.1968113308
 20
134.5072282003
 10
339.0706853761
 20
133.8378722495
 10
336.9100625616
 20
133.2262369798
 10
334.7180755838
 20
132.6732092039
 10
332.4979026142
 20
132.1795907592
 10
330.2527626914
 20
131.7460973452
 10
327.9859110536
 20
131.3733574859
 10
325.7006344191
 20
131.0619116185
 10
323.4002462205
 20
130.8122113098
 10
321.0880818006
 20
130.6246186012
 10
318.767493577
 20
130.4994054844
 10
316.4418461807
 20
130.4367535062
 10
314.114511578
 20
130.4367535062
 10
311.7888641816
 20
130.4994054844
 10
309.468275958
 20
130.6246186012
 10
307.1561115382
 20
130.8122113098
 10
304.8557233395
 20
131.0619116185
 10
302.570446705
 20
131.3733574859
 10
300.3035950673
 20
131.7460973452
 10
298.0584551445
 20
132.1795907592
 10
295.8382821749
 20
132.6732092039
 10
293.646295197
 20
133.2262369798
 10
291.4856723825
 20
133.8378722495
 10
289.3595464278
 20
134.5072282003
 10
287.2710000123
 20
135.23333433
 10
285.2230613286
 20
136.0151378542
 10
283.2186996921
 20
136.8515052325
 10
281.2608212355
 20
137.7412238122
 10
279.3522646954
 20
138.6830035864
 10
277.4957972963
 20
139.6754790644
 10
275.6941107385
 20
140.7172112517
 10
273.9498172952
 20
141.8066897363
 10
272.2654460252
 20
142.9423348784
 10
270.6434391057
 20
144.1225001012
 10
269.0861482918
 20
145.3454742779
 10
267.5958315063
 20
146.6094842129
 10
266.174649566
 20
147.9126972126
 10
264.8246630488
 20
149.2532237428
 10
263.5478293062
 20
150.6291201682
 10
262.3459996249
 20
152.0383915704
 10
261.2209165433
 20
153.4789946407
 10
260.1742113241
 20
154.9488406423
 10
259.2074015898
 20
156.4457984391
 10
258.3218891222
 20
157.9676975853
 10
257.5189578297
 20
159.5123314728
 10
256.7997718859
 20
161.0774605299
 10
256.1653740416
 20
162.6608154693
 10
255.6166841131
 20
164.2601005776
 10
255.1544976483
 20
165.8729970443
 10
254.7794847734
 20
167.4971663237
 10
254.4921892213
 20
169.1302535257
 10
254.3921881362
 20
169.8630075582
  0
ARC
  5
2F1
330
1F
100
AcDbEntity
  8
0
  6
Continuous
 62
     8
370
    18
100
AcDbCircle
 10
314.8776102236
 20
134.0195799232
 30
0.0
 40
82.82240687770147
100
AcDbArc
 50
97.8368801531
 51
101.3024627657
  0
LWPOLYLINE
  5
2F2
330
1F
100
AcDbEntity
  8
0
  6
Continuous
 62
     8
370
    18
100
AcDbPolyline
 90
       49
 70
   128
 43
0.0
 10
315.2781788793
 20
214.1076852597
 10
313.0957779144
 20
214.0761998789
 10
310.9170093405
 20
213.9817961409
 10
308.7454995028
 20
213.8246311714
 10
306.5848626653
 20
213.6049665558
 10
304.4386949947
 20
213.3231679044
 10
302.3105685753
 20
212.9797042432
 10
300.2040254635
 20
212.5751472335
 10
298.1225717924
 20
212.1101702205
 10
296.0696719362
 20
211.5855471126
 10
294.0487427441
 20
211.0021510933
 10
292.0631478534
 20
210.3609531675
 10
290.1161920907
 20
209.6630205459
 10
288.2111159719
 20
208.9095148686
 10
286.351090308
 20
208.1016902713
 10
284.5392109283
 20
207.2408912984
 10
282.7784935271
 20
206.3285506649
 10
281.0718686448
 20
205.3661868716
 10
279.4221767901
 20
204.3554016781
 10
277.8321637123
 20
203.2978774366
 10
276.3044758312
 20
202.1953742919
 10
274.8416558325
 20
201.0497272517
 10
273.4461384358
 20
199.8628431323
 10
272.1202463421
 20
198.6366973852
 10
270.8661863679
 20
197.3733308091
 10
269.6860457722
 20
196.074846153
 10
268.5817887826
 20
194.7434046163
 10
267.5552533259
 20
193.3812222522
 10
266.608147969
 20
191.9905662787
 10
265.7420490754
 20
190.5737513055
 10
264.9583981812
 20
189.1331354812
 10
264.2584995959
 20
187.6711165688
 10
263.6435182318
 20
186.1901279544
 10
263.1144776644
 20
184.6926345974
 10
262.6722584298
 20
183.1811289278
 10
262.3175965581
 20
181.6581266975
 10
262.051082349
 20
180.1261627935
 10
261.8731593892
 20
178.5877870184
 10
261.7841238138
 20
177.045559847
 10
261.7841238138
 20
175.5020481641
 10
261.8731593892
 20
173.9598209927
 10
262.051082349
 20
172.4214452177
 10
262.3175965581
 20
170.8894813136
 10
262.6722584298
 20
169.3664790833
 10
263.1144776644
 20
167.8549734137
 10
263.6435182318
 20
166.3574800567
 10
264.2584995959
 20
164.8764914424
 10
264.9583981812
 20
163.4144725299
 10
265.3303163002
 20
162.7088461125
  0
LWPOLYLINE
  5
2F3
330
1F
100
AcDbEntity
  8
0
  6
Continuous
 62
     8
370
    18
100
AcDbPolyline
 90
       49
 70
   128
 43
0.0
 10
365.2260414584
 20
162.7088461125
 10
365.5979595774
 20
163.4144725299
 10
366.2978581627
 20
164.8764914424
 10
366.9128395269
 20
166.3574800567
 10
367.4418800942
 20
167.8549734137
 10
367.8840993288
 20
169.3664790833
 10
368.2387612005
 20
170.8894813136
 10
368.5052754096
 20
172.4214452177
 10
368.6831983694
 20
173.9598209927
 10
368.7722339448
 20
175.5020481641
 10
368.7722339448
 20
177.045559847
 10
368.6831983694
 20
178.5877870184
 10
368.5052754096
 20
180.1261627935
 10
368.2387612005
 20
181.6581266975
 10
367.8840993288
 20
183.1811289278
 10
367.4418800942
 20
184.6926345974
 10
366.9128395269
 20
186.1901279544
 10
366.2978581627
 20
187.6711165688
 10
365.5979595774
 20
189.1331354812
 10
364.8143086832
 20
190.5737513055
 10
363.9482097896
 20
191.9905662787
 10
363.0011044327
 20
193.3812222522
 10
361.974568976
 20
194.7434046163
 10
360.8703119864
 20
196.074846153
 10
359.6901713908
 20
197.3733308091
 10
358.4361114165
 20
198.6366973852
 10
357.1102193228
 20
199.8628431323
 10
355.7147019261
 20
201.0497272517
 10
354.2518819274
 20
202.1953742919
 10
352.7241940464
 20
203.2978774366
 10
351.1341809685
 20
204.3554016781
 10
349.4844891138
 20
205.3661868716
 10
347.7778642316
 20
206.3285506649
 10
346.0171468304
 20
207.2408912984
 10
344.2052674506
 20
208.1016902713
 10
342.3452417867
 20
208.9095148686
 10
340.4401656679
 20
209.6630205459
 10
338.4932099052
 20
210.3609531675
 10
336.5076150145
 20
211.0021510933
 10
334.4866858224
 20
211.5855471126
 10
332.4337859662
 20
212.1101702205
 10
330.3523322951
 20
212.5751472335
 10
328.2457891833
 20
212.9797042432
 10
326.1176627639
 20
213.3231679044
 10
323.9714950933
 20
213.6049665558
 10
321.8108582558
 20
213.8246311714
 10
319.6393484182
 20
213.9817961409
 10
317.4605798443
 20
214.0761998789
 10
315.2781788793
 20
214.1076852597
  0
LWPOLYLINE
  5
2F4
330
1F
100
AcDbEntity
  8
0
  6
Continuous
 62
     8
370
    18
100
AcDbPolyline
 90
       61
 70
   128
 43
0.0
 10
370.0740537817
 20
153.6304709344
 10
369.8827477182
 20
153.3547969252
 10
368.8071081135
 20
151.8899089774
 10
367.6529074236
 20
150.4552287472
 10
366.4218395972
 20
149.0528618257
 10
365.115711396
 20
147.6848663797
 10
363.7364397433
 20
146.3532501311
 10
362.2860489105
 20
145.0599674106
 10
360.7666675462
 20
143.8069162887
 10
359.1805255519
 20
142.5959357909
 10
357.5299508098
 20
141.4288031979
 10
355.8173657659
 20
140.3072314378
 10
354.045283875
 20
139.2328665718
 10
352.2163059117
 20
138.2072853786
 10
350.3331161531
 20
137.2319930399
 10
348.3984784401
 20
136.3084209317
 10
346.4152321203
 20
135.4379245236
 10
344.3862878811
 20
134.6217813889
 10
342.314623478
 20
133.8611893303
 10
340.2032793641
 20
133.1572646215
 10
338.0553542282
 20
132.5110403691
 10
335.8740004464
 20
131.9234649963
 10
333.6624194564
 20
131.395400851
 10
331.4238570582
 20
130.9276229401
 10
329.1615986509
 20
130.5208177923
 10
326.8789644105
 20
130.1755824501
 10
324.5793044176
 20
129.8924235941
 10
322.2659937403
 20
129.6717567989
 10
319.9424274812
 20
129.5139059234
 10
317.612015794
 20
129.4191026357
 10
315.2781788793
 20
129.3874860726
 10
312.9443419646
 20
129.4191026357
 10
310.6139302775
 20
129.5139059234
 10
308.2903640183
 20
129.6717567989
 10
305.9770533411
 20
129.8924235941
 10
303.6773933482
 20
130.1755824501
 10
301.3947591078
 20
130.5208177923
 10
299.1325007004
 20
130.9276229401
 10
296.8939383022
 20
131.395400851
 10
294.6823573122
 20
131.9234649963
 10
292.5010035305
 20
132.5110403691
 10
290.3530783945
 20
133.1572646215
 10
288.2417342806
 20
133.8611893303
 10
286.1700698775
 20
134.6217813889
 10
284.1411256383
 20
135.4379245236
 10
282.1578793185
 20
136.3084209317
 10
280.2232416055
 20
137.2319930399
 10
278.340051847
 20
138.2072853786
 10
276.5110738836
 20
139.2328665718
 10
274.7389919927
 20
140.3072314378
 10
273.0264069488
 20
141.4288031979
 10
271.3758322068
 20
142.5959357909
 10
269.7896902125
 20
143.8069162887
 10
268.2703088481
 20
145.0599674106
 10
266.8199180153
 20
146.3532501311
 10
265.4406463626
 20
147.6848663797
 10
264.1345181615
 20
149.0528618257
 10
262.903450335
 20
150.4552287472
 10
261.7492496451
 20
151.8899089774
 10
260.6736100404
 20
153.3547969252
 10
260.482303977
 20
153.6304709344
  0
LWPOLYLINE
  5
2F5
330
1F
100
AcDbEntity
  8
0
  6
Continuous
 62
     8
370
    18
100
AcDbPolyline
 90
       67
 70
   128
 43
0.0
 10
257.5067109513
 20
158.3395014256
 10
257.9332540071
 20
157.470686083
 10
258.7642110682
 20
155.9282360318
 10
259.6781101703
 20
154.4094236027
 10
260.6736100404
 20
152.9164778624
 10
261.7492496451
 20
151.4515899146
 10
262.903450335
 20
150.0169096844
 10
264.1345181615
 20
148.6145427629
 10
265.4406463626
 20
147.2465473169
 10
266.8199180153
 20
145.9149310684
 10
268.2703088481
 20
144.6216483478
 10
269.7896902125
 20
143.3685972259
 10
271.3758322068
 20
142.1576167281
 10
273.0264069488
 20
140.9904841351
 10
274.7389919927
 20
139.868912375
 10
276.5110738836
 20
138.794547509
 10
278.340051847
 20
137.7689663158
 10
280.2232416055
 20
136.7936739771
 10
282.1578793185
 20
135.870101869
 10
284.1411256383
 20
134.9996054608
 10
286.1700698775
 20
134.1834623261
 10
288.2417342806
 20
133.4228702675
 10
290.3530783945
 20
132.7189455587
 10
292.5010035305
 20
132.0727213063
 10
294.6823573122
 20
131.4851459335
 10
296.8939383022
 20
130.9570817882
 10
299.1325007004
 20
130.4893038773
 10
301.3947591078
 20
130.0824987295
 10
303.6773933482
 20
129.7372633873
 10
305.9770533411
 20
129.4541045313
 10
308.2903640183
 20
129.2334377361
 10
310.6139302775
 20
129.0755868607
 10
312.9443419646
 20
128.9807835729
 10
315.2781788793
 20
128.9491670098
 10
317.612015794
 20
128.9807835729
 10
319.9424274812
 20
129.0755868607
 10
322.2659937403
 20
129.2334377361
 10
324.5793044176
 20
129.4541045313
 10
326.8789644105
 20
129.7372633873
 10
329.1615986509
 20
130.0824987295
 10
331.4238570582
 20
130.4893038773
 10
333.6624194564
 20
130.9570817882
 10
335.8740004464
 20
131.4851459335
 10
338.0553542282
 20
132.0727213063
 10
340.2032793641
 20
132.7189455587
 10
342.314623478
 20
133.4228702675
 10
344.3862878811
 20
134.1834623261
 10
346.4152321203
 20
134.9996054608
 10
348.3984784401
 20
135.870101869
 10
350.3331161531
 20
136.7936739771
 10
352.2163059117
 20
137.7689663158
 10
354.045283875
 20
138.794547509
 10
355.8173657659
 20
139.868912375
 10
357.5299508098
 20
140.9904841351
 10
359.1805255519
 20
142.1576167281
 10
360.7666675462
 20
143.3685972259
 10
362.2860489105
 20
144.6216483478
 10
363.7364397433
 20
145.9149310684
 10
365.115711396
 20
147.2465473169
 10
366.4218395972
 20
148.6145427629
 10
367.6529074236
 20
150.0169096844
 10
368.8071081135
 20
151.4515899146
 10
369.8827477182
 20
152.9164778624
 10
370.8782475883
 20
154.4094236027
 10
371.7921466904
 20
155.9282360318
 10
372.6231037515
 20
157.470686083
 10
373.0496468073
 20
158.3395014256
  0
LINE
  5
2F6
330
1F
100
AcDbEntity
  8
0
  6
Continuous
 62
     8
370
    18
100
AcDbLine
 10
356.8612701553
 20
203.4871058372
 30
0.0
 11
357.3784020886
 21
203.1432732778
 31
0.0
  0
LWPOLYLINE
  5
2F7
330
1F
100
AcDbEntity
  8
0
  6
Continuous
 62
     8
370
    18
100
AcDbPolyline
 90
       73
 70
   128
 43
0.0
 10
374.7640499595
 20
162.0410189569
 10
374.7533004761
 20
162.0084804365
 10
374.1765699838
 20
160.4048706839
 10
373.5133979806
 20
158.81805793
 10
372.7647577628
 20
157.2503710412
 10
371.9317480631
 20
155.7041108143
 10
371.0155914383
 20
154.1815465995
 10
370.0176324744
 20
152.6849129695
 10
368.9393358139
 20
151.2164064407
 10
367.7822840058
 20
149.778182249
 10
366.5481751832
 20
148.3723511866
 10
365.238820571
 20
147.0009765044
 10
363.8561418276
 20
145.6660708841
 10
362.4021682248
 20
144.3695934835
 10
360.8790336692
 20
143.1134470621
 10
359.288973571
 20
141.899475188
 10
357.6343215626
 20
140.7294595324
 10
355.9175060739
 20
139.6051172544
 10
354.1410467684
 20
138.5280984815
 10
352.3075508453
 20
137.4999838873
 10
350.4197092124
 20
136.5222823716
 10
348.4802925379
 20
135.5964288464
 10
346.492147183
 20
134.7237821292
 10
344.4581910253
 20
133.9056229495
 10
342.3814091759
 20
133.1431520687
 10
340.2648495985
 20
132.437488518
 10
338.1116186362
 20
131.789667956
 10
335.9248764524
 20
131.2006411486
 10
333.7078323928
 20
130.6712725739
 10
331.4637402752
 20
130.2023391533
 10
329.1958936143
 20
129.7945291113
 10
326.9076207878
 20
129.4484409653
 10
324.6022801516
 20
129.1645826474
 10
322.283255111
 20
128.9433707589
 10
319.9539491551
 20
128.7851299586
 10
317.6177808614
 20
128.6900924869
 10
315.2781788793
 20
128.6583978242
 10
312.9385768972
 20
128.6900924869
 10
310.6024086036
 20
128.7851299586
 10
308.2731026476
 20
128.9433707589
 10
305.954077607
 20
129.1645826474
 10
303.6487369709
 20
129.4484409653
 10
301.3604641443
 20
129.7945291113
 10
299.0926174834
 20
130.2023391533
 10
296.8485253659
 20
130.6712725739
 10
294.6314813062
 20
131.2006411486
 10
292.4447391224
 20
131.789667956
 10
290.2915081601
 20
132.437488518
 10
288.1749485828
 20
133.1431520687
 10
286.0981667334
 20
133.9056229495
 10
284.0642105756
 20
134.7237821292
 10
282.0760652208
 20
135.5964288464
 10
280.1366485462
 20
136.5222823716
 10
278.2488069134
 20
137.4999838873
 10
276.4153109902
 20
138.5280984815
 10
274.6388516847
 20
139.6051172544
 10
272.9220361961
 20
140.7294595324
 10
271.2673841876
 20
141.899475188
 10
269.6773240894
 20
143.1134470621
 10
268.1541895339
 20
144.3695934835
 10
266.700215931
 20
145.6660708841
 10
265.3175371876
 20
147.0009765044
 10
264.0081825754
 20
148.3723511866
 10
262.7740737528
 20
149.778182249
 10
261.6170219447
 20
151.2164064407
 10
260.5387252842
 20
152.6849129695
 10
259.5407663203
 20
154.1815465995
 10
258.6246096955
 20
155.7041108143
 10
257.7915999959
 20
157.2503710412
 10
257.0429597781
 20
158.81805793
 10
256.3797877748
 20
160.4048706839
 10
255.8030572825
 20
162.0084804365
 10
255.7923077991
 20
162.0410189569
  0
LINE
  5
2F8
330
1F
100
AcDbEntity
  8
0
  6
Continuous
 62
     8
370
    18
100
AcDbLine
 10
273.0362154088
 20
203.047622516
 30
0.0
 11
273.6950876033
 21
203.4871058372
 31
0.0
  0
LINE
  5
2F9
330
1F
100
AcDbEntity
  8
0
  6
Continuous
 62
     8
370
    18
100
AcDbLine
 10
274.6202068234
 20
204.2265952299
 30
0.0
 11
273.9258817239
 21
203.7853976039
 31
0.0
  0
LWPOLYLINE
  5
2FA
330
1F
100
AcDbEntity
  8
0
  6
Continuous
 62
     8
370
    18
100
AcDbPolyline
 90
       78
 70
   128
 43
0.0
 10
254.3595927965
 20
166.6080162882
 10
254.5531414078
 20
165.566821737
 10
254.9295573159
 20
163.9365759637
 10
255.3934729559
 20
162.3176451781
 10
255.9442156944
 20
160.7123766749
 10
256.5809870072
 20
159.1230979402
 10
257.3028636366
 20
157.552113276
 10
258.1087989307
 20
156.00170046
 10
258.9976243602
 20
154.4741074425
 10
259.9680512134
 20
152.9715490874
 10
261.0186724639
 20
151.4962039606
 10
262.1479648115
 20
150.0502111715
 10
263.3542908902
 20
148.6356672715
 10
264.6359016425
 20
147.2546232139
 10
265.9909388553
 20
145.9090813806
 10
267.4174378543
 20
144.6009926787
 10
268.9133303522
 20
143.3322537116
 10
270.4764474479
 20
142.1047040297
 10
272.1045227712
 20
140.9201234625
 10
273.7951957684
 20
139.7802295387
 10
275.5460151252
 20
138.6866749955
 10
277.3544423211
 20
137.6410453824
 10
279.2178553094
 20
136.6448567624
 10
281.1335523195
 20
135.6995535138
 10
283.0987557739
 20
134.8065062358
 10
285.1106163154
 20
133.9670097617
 10
287.1662169385
 20
133.1822812812
 10
289.262577219
 20
132.4534585754
 10
291.3966576347
 20
131.7815983676
 10
293.5653639731
 20
131.167674791
 10
295.7655518174
 20
130.6125779759
 10
297.9940311055
 20
130.1171127597
 10
300.2475707555
 20
129.6819975197
 10
302.5229033503
 20
129.3078631312
 10
304.8167298753
 20
128.9952520534
 10
307.1257245011
 20
128.7446175426
 10
309.4465394065
 20
128.5563229946
 10
311.7758096315
 20
128.4306414188
 10
314.1101579572
 20
128.3677550412
 10
316.4461998015
 20
128.3677550412
 10
318.7805481271
 20
128.4306414188
 10
321.1098183522
 20
128.5563229946
 10
323.4306332575
 20
128.7446175426
 10
325.7396278833
 20
128.9952520534
 10
328.0334544083
 20
129.3078631312
 10
330.3087870031
 20
129.6819975197
 10
332.5623266531
 20
130.1171127597
 10
334.7908059412
 20
130.6125779759
 10
336.9909937855
 20
131.167674791
 10
339.1597001239
 20
131.7815983676
 10
341.2937805396
 20
132.4534585754
 10
343.3901408201
 20
133.1822812812
 10
345.4457414432
 20
133.9670097617
 10
347.4576019847
 20
134.8065062358
 10
349.4228054391
 20
135.6995535138
 10
351.3385024492
 20
136.6448567624
 10
353.2019154375
 20
137.6410453824
 10
355.0103426334
 20
138.6866749955
 10
356.7611619903
 20
139.7802295387
 10
358.4518349874
 20
140.9201234625
 10
360.0799103107
 20
142.1047040297
 10
361.6430274064
 20
143.3322537116
 10
363.1389199044
 20
144.6009926787
 10
364.5654189033
 20
145.9090813806
 10
365.9204561162
 20
147.2546232139
 10
367.2020668685
 20
148.6356672715
 10
368.4083929471
 20
150.0502111715
 10
369.5376852947
 20
151.4962039606
 10
370.5883065453
 20
152.9715490874
 10
371.5587333984
 20
154.4741074425
 10
372.4475588279
 20
156.00170046
 10
373.253494122
 20
157.552113276
 10
373.9753707515
 20
159.1230979402
 10
374.6121420642
 20
160.7123766749
 10
375.1628848027
 20
162.3176451781
 10
375.6268004427
 20
163.9365759637
 10
376.0032163508
 20
165.566821737
 10
376.1967649621
 20
166.6080162882
  0
LINE
  5
2FB
330
1F
100
AcDbEntity
  8
0
  6
Continuous
 62
     8
370
    18
100
AcDbLine
 10
356.6304760347
 20
203.7853976039
 30
0.0
 11
355.9361509352
 21
204.2265952299
 31
0.0
  0
LWPOLYLINE
  5
2FC
330
1F
100
AcDbEntity
  8
0
  6
Continuous
 62
     8
370
    18
100
AcDbPolyline
 90
       71
 70
   128
 43
0.0
 10
256.0401300694
 20
160.0888292015
 10
256.5249206653
 20
158.75878128
 10
257.186458531
 20
157.1758786282
 10
257.9332540071
 20
155.612054713
 10
258.7642110682
 20
154.0696046618
 10
259.6781101703
 20
152.5507922327
 10
260.6736100404
 20
151.0578464923
 10
261.7492496451
 20
149.5929585445
 10
262.903450335
 20
148.1582783143
 10
264.1345181615
 20
146.7559113928
 10
265.4406463626
 20
145.3879159468
 10
266.8199180153
 20
144.0562996983
 10
268.2703088481
 20
142.7630169778
 10
269.7896902125
 20
141.5099658559
 10
271.3758322068
 20
140.298985358
 10
273.0264069488
 20
139.1318527651
 10
274.7389919927
 20
138.010281005
 10
276.5110738836
 20
136.935916139
 10
278.340051847
 20
135.9103349458
 10
280.2232416055
 20
134.9350426071
 10
282.1578793185
 20
134.0114704989
 10
284.1411256383
 20
133.1409740908
 10
286.1700698775
 20
132.3248309561
 10
288.2417342806
 20
131.5642388975
 10
290.3530783945
 20
130.8603141887
 10
292.5010035305
 20
130.2140899363
 10
294.6823573122
 20
129.6265145635
 10
296.8939383022
 20
129.0984504182
 10
299.1325007004
 20
128.6306725073
 10
301.3947591078
 20
128.2238673594
 10
303.6773933482
 20
127.8786320173
 10
305.9770533411
 20
127.5954731613
 10
308.2903640183
 20
127.3748063661
 10
310.6139302775
 20
127.2169554906
 10
312.9443419646
 20
127.1221522029
 10
315.2781788793
 20
127.0905356398
 10
317.612015794
 20
127.1221522029
 10
319.9424274812
 20
127.2169554906
 10
322.2659937403
 20
127.3748063661
 10
324.5793044176
 20
127.5954731613
 10
326.8789644105
 20
127.8786320173
 10
329.1615986509
 20
128.2238673594
 10
331.4238570582
 20
128.6306725073
 10
333.6624194564
 20
129.0984504182
 10
335.8740004464
 20
129.6265145635
 10
338.0553542282
 20
130.2140899363
 10
340.2032793641
 20
130.8603141887
 10
342.314623478
 20
131.5642388975
 10
344.3862878811
 20
132.3248309561
 10
346.4152321203
 20
133.1409740908
 10
348.3984784401
 20
134.0114704989
 10
350.3331161531
 20
134.9350426071
 10
352.2163059117
 20
135.9103349458
 10
354.045283875
 20
136.935916139
 10
355.8173657659
 20
138.010281005
 10
357.5299508098
 20
139.1318527651
 10
359.1805255519
 20
140.298985358
 10
360.7666675462
 20
141.5099658559
 10
362.2860489105
 20
142.7630169778
 10
363.7364397433
 20
144.0562996983
 10
365.115711396
 20
145.3879159468
 10
366.4218395972
 20
146.7559113928
 10
367.6529074236
 20
148.1582783144
 10
368.8071081135
 20
149.5929585445
 10
369.8827477182
 20
151.0578464923
 10
370.8782475883
 20
152.5507922327
 10
371.7921466904
 20
154.0696046618
 10
372.6231037515
 20
155.612054713
 10
373.3698992276
 20
157.1758786282
 10
374.0314370933
 20
158.75878128
 10
374.5162276892
 20
160.0888292015
  0
LWPOLYLINE
  5
2FD
330
1F
100
AcDbEntity
  8
0
  6
Continuous
 62
     8
370
    18
100
AcDbPolyline
 90
       29
 70
   128
 43
0.0
 10
315.2781788793
 20
212.1931403088
 10
313.0667910194
 20
212.1614426217
 10
310.859036464
 20
212.0664016397
 10
308.6585425479
 20
211.9081735148
 10
306.468924677
 20
211.6870182155
 10
304.2937803876
 20
211.4032990993
 10
302.1366834361
 20
211.057482316
 10
300.001177927
 20
210.6501360417
 10
297.8907724904
 20
210.1819295451
 10
295.8089345169
 20
209.6536320884
 10
293.7590844607
 20
209.0661116629
 10
291.7445902202
 20
208.4203335631
 10
289.768761604
 20
207.7173588007
 10
287.8348448934
 20
206.9583423615
 10
285.9460175085
 20
206.1445313074
 10
284.1053827878
 20
205.2772627278
 10
282.3159648891
 20
204.3579615428
 10
280.5807038215
 20
203.3881381618
 10
278.9024506143
 20
202.369386002
 10
277.2839626331
 20
201.3033788706
 10
275.7278990494
 20
200.1918682145
 10
274.2368164717
 20
199.0366802428
 10
272.8131647446
 20
197.8397129263
 10
271.4592829242
 20
196.6029328792
 10
270.1773954349
 20
195.3283721278
 10
268.9696084143
 20
194.018124772
 10
267.8379062534
 20
192.6743435449
 10
266.7841483358
 20
191.2992362755
 10
266.3991934763
 20
190.7613609537
  0
LWPOLYLINE
  5
2FE
330
1F
100
AcDbEntity
  8
0
  6
Continuous
 62
     8
370
    18
100
AcDbPolyline
 90
       29
 70
   128
 43
0.0
 10
364.1571642823
 20
190.7613609537
 10
363.7722094228
 20
191.2992362755
 10
362.7184515053
 20
192.6743435449
 10
361.5867493443
 20
194.018124772
 10
360.3789623238
 20
195.3283721278
 10
359.0970748344
 20
196.6029328792
 10
357.743193014
 20
197.8397129263
 10
356.319541287
 20
199.0366802428
 10
354.8284587092
 20
200.1918682145
 10
353.2723951255
 20
201.3033788706
 10
351.6539071444
 20
202.369386002
 10
349.9756539371
 20
203.3881381618
 10
348.2403928695
 20
204.3579615428
 10
346.4509749709
 20
205.2772627278
 10
344.6103402501
 20
206.1445313074
 10
342.7215128652
 20
206.9583423615
 10
340.7875961546
 20
207.7173588007
 10
338.8117675384
 20
208.4203335631
 10
336.7972732979
 20
209.0661116629
 10
334.7474232417
 20
209.6536320884
 10
332.6655852682
 20
210.1819295451
 10
330.5551798316
 20
210.6501360417
 10
328.4196743226
 20
211.057482316
 10
326.262577371
 20
211.4032990993
 10
324.0874330816
 20
211.6870182155
 10
321.8978152107
 20
211.9081735148
 10
319.6973212946
 20
212.0664016397
 10
317.4895667392
 20
212.1614426217
 10
315.2781788793
 20
212.1931403088
  0
LWPOLYLINE
  5
2FF
330
1F
100
AcDbEntity
  8
0
  6
Continuous
 62
     8
370
    18
100
AcDbPolyline
 90
       77
 70
   128
 43
0.0
 10
375.9083822579
 20
164.7484831821
 10
375.6441793089
 20
163.3980242961
 10
375.2427430259
 20
161.7679022993
 10
374.7533004761
 20
160.1498490665
 10
374.1765699838
 20
158.5462393139
 10
373.5133979806
 20
156.9594265599
 10
372.7647577628
 20
155.3917396712
 10
371.9317480631
 20
153.8454794443
 10
371.0155914383
 20
152.3229152294
 10
370.0176324744
 20
150.8262815995
 10
368.9393358139
 20
149.3577750707
 10
367.7822840058
 20
147.919550879
 10
366.5481751832
 20
146.5137198165
 10
365.238820571
 20
145.1423451344
 10
363.8561418276
 20
143.807439514
 10
362.4021682248
 20
142.5109621135
 10
360.8790336692
 20
141.2548156921
 10
359.288973571
 20
140.040843818
 10
357.6343215626
 20
138.8708281623
 10
355.9175060739
 20
137.7464858844
 10
354.1410467684
 20
136.6694671115
 10
352.3075508453
 20
135.6413525173
 10
350.4197092124
 20
134.6636510016
 10
348.4802925379
 20
133.7377974763
 10
346.492147183
 20
132.8651507592
 10
344.4581910253
 20
132.0469915795
 10
342.3814091759
 20
131.2845206987
 10
340.2648495985
 20
130.578857148
 10
338.1116186362
 20
129.9310365859
 10
335.9248764524
 20
129.3420097785
 10
333.7078323928
 20
128.8126412038
 10
331.4637402752
 20
128.3437077833
 10
329.1958936143
 20
127.9358977412
 10
326.9076207878
 20
127.5898095953
 10
324.6022801516
 20
127.3059512774
 10
322.283255111
 20
127.0847393888
 10
319.9539491551
 20
126.9264985886
 10
317.6177808614
 20
126.8314611168
 10
315.2781788793
 20
126.7997664541
 10
312.9385768972
 20
126.8314611168
 10
310.6024086036
 20
126.9264985886
 10
308.2731026476
 20
127.0847393888
 10
305.954077607
 20
127.3059512774
 10
303.6487369709
 20
127.5898095953
 10
301.3604641443
 20
127.9358977412
 10
299.0926174834
 20
128.3437077833
 10
296.8485253659
 20
128.8126412038
 10
294.6314813062
 20
129.3420097785
 10
292.4447391224
 20
129.9310365859
 10
290.2915081601
 20
130.578857148
 10
288.1749485828
 20
131.2845206987
 10
286.0981667334
 20
132.0469915795
 10
284.0642105756
 20
132.8651507592
 10
282.0760652208
 20
133.7377974763
 10
280.1366485462
 20
134.6636510016
 10
278.2488069134
 20
135.6413525173
 10
276.4153109902
 20
136.6694671115
 10
274.6388516847
 20
137.7464858844
 10
272.9220361961
 20
138.8708281623
 10
271.2673841876
 20
140.040843818
 10
269.6773240894
 20
141.2548156921
 10
268.1541895339
 20
142.5109621135
 10
266.700215931
 20
143.807439514
 10
265.3175371876
 20
145.1423451344
 10
264.0081825754
 20
146.5137198165
 10
262.7740737528
 20
147.919550879
 10
261.6170219447
 20
149.3577750707
 10
260.5387252842
 20
150.8262815995
 10
259.5407663203
 20
152.3229152294
 10
258.6246096955
 20
153.8454794443
 10
257.7915999959
 20
155.3917396712
 10
257.0429597781
 20
156.9594265599
 10
256.3797877748
 20
158.5462393139
 10
255.8030572825
 20
160.1498490665
 10
255.3136147327
 20
161.7679022993
 10
254.9121784497
 20
163.3980242961
 10
254.6479755007
 20
164.7484831821
  0
LINE
  5
300
330
1F
100
AcDbEntity
  8
0
  6
Continuous
 62
     8
370
    18
100
AcDbLine
 10
267.0583461096
 20
196.7017353494
 30
0.0
 11
266.7597633846
 21
196.4311256742
 31
0.0
  0
LWPOLYLINE
  5
301
330
1F
100
AcDbEntity
  8
0
  6
Continuous
 62
     8
370
    18
100
AcDbPolyline
 90
       82
 70
   128
 43
0.0
 10
253.9547137531
 20
168.6185391003
 10
254.0648641845
 20
166.9931590896
 10
254.2647709852
 20
165.3473874208
 10
254.5531413944
 20
163.70819036
 10
254.9295573025
 20
162.0779445864
 10
255.3934729426
 20
160.4590138004
 10
255.9442156813
 20
158.8537452969
 10
256.5809869942
 20
157.2644665618
 10
257.3028636238
 20
155.6934818973
 10
258.108798918
 20
154.1430690809
 10
258.9976243478
 20
152.6154760631
 10
259.9680512011
 20
151.1129177076
 10
261.0186724519
 20
149.6375725805
 10
262.1479647997
 20
148.1915797911
 10
263.3542908787
 20
146.7770358908
 10
264.6359016312
 20
145.3959918329
 10
265.9909388444
 20
144.0504499993
 10
267.4174378437
 20
142.7423612971
 10
268.9133303419
 20
141.4736223298
 10
270.476447438
 20
140.2460726476
 10
272.1045227616
 20
139.0614920801
 10
273.7951957592
 20
137.9215981561
 10
275.5460151164
 20
136.8280436126
 10
277.3544423127
 20
135.7824139993
 10
279.2178553014
 20
134.7862253791
 10
281.133552312
 20
133.8409221302
 10
283.0987557668
 20
132.9478748521
 10
285.1106163087
 20
132.1083783778
 10
287.1662169323
 20
131.3236498971
 10
289.2625772132
 20
130.5948271911
 10
291.3966576294
 20
129.9229669832
 10
293.5653639683
 20
129.3090434064
 10
295.7655518131
 20
128.7539465912
 10
297.9940311017
 20
128.2584813749
 10
300.2475707522
 20
127.8233661348
 10
302.5229033475
 20
127.4492317462
 10
304.816729873
 20
127.1366206684
 10
307.1257244993
 20
126.8859861575
 10
309.4465394052
 20
126.6976916095
 10
311.7758096307
 20
126.5720100336
 10
314.1101579569
 20
126.509123656
 10
316.4461998017
 20
126.509123656
 10
318.7805481279
 20
126.5720100336
 10
321.1098183534
 20
126.6976916095
 10
323.4306332593
 20
126.8859861575
 10
325.7396278857
 20
127.1366206684
 10
328.0334544111
 20
127.4492317462
 10
330.3087870064
 20
127.8233661348
 10
332.5623266569
 20
128.2584813749
 10
334.7908059455
 20
128.7539465912
 10
336.9909937903
 20
129.3090434064
 10
339.1597001292
 20
129.9229669832
 10
341.2937805454
 20
130.5948271911
 10
343.3901408263
 20
131.3236498971
 10
345.4457414499
 20
132.1083783778
 10
347.4576019919
 20
132.9478748521
 10
349.4228054467
 20
133.8409221302
 10
351.3385024572
 20
134.7862253791
 10
353.2019154459
 20
135.7824139993
 10
355.0103426422
 20
136.8280436126
 10
356.7611619995
 20
137.9215981561
 10
358.451834997
 20
139.0614920801
 10
360.0799103206
 20
140.2460726476
 10
361.6430274167
 20
141.4736223298
 10
363.138919915
 20
142.7423612971
 10
364.5654189142
 20
144.0504499993
 10
365.9204561274
 20
145.3959918329
 10
367.20206688
 20
146.7770358908
 10
368.4083929589
 20
148.1915797911
 10
369.5376853067
 20
149.6375725805
 10
370.5883065575
 20
151.1129177076
 10
371.5587334109
 20
152.6154760631
 10
372.4475588406
 20
154.1430690809
 10
373.2534941348
 20
155.6934818973
 10
373.9753707645
 20
157.2644665618
 10
374.6121420774
 20
158.8537452969
 10
375.162884816
 20
160.4590138004
 10
375.6268004561
 20
162.0779445864
 10
376.0032163642
 20
163.70819036
 10
376.2915867734
 20
165.3473874208
 10
376.4914935741
 20
166.9931590896
 10
376.6016440055
 20
168.6185391003
  0
LINE
  5
302
330
1F
100
AcDbEntity
  8
0
  6
Continuous
 62
     8
370
    18
100
AcDbLine
 10
363.796594374
 20
196.4311256742
 30
0.0
 11
363.498011649
 21
196.7017353494
 31
0.0
  0
LWPOLYLINE
  5
303
330
1F
100
AcDbEntity
  8
0
  6
Continuous
 62
     8
370
    18
100
AcDbPolyline
 90
       57
 70
   128
 43
0.0
 10
261.8278125188
 20
148.2198171418
 10
262.903450335
 20
146.8869691051
 10
264.1345181615
 20
145.4846021836
 10
265.4406463626
 20
144.1166067376
 10
266.8199180153
 20
142.7849904891
 10
268.2703088481
 20
141.4917077685
 10
269.7896902125
 20
140.2386566467
 10
271.3758322068
 20
139.0276761488
 10
273.0264069488
 20
137.8605435558
 10
274.7389919927
 20
136.7389717957
 10
276.5110738836
 20
135.6646069298
 10
278.340051847
 20
134.6390257365
 10
280.2232416055
 20
133.6637333979
 10
282.1578793185
 20
132.7401612897
 10
284.1411256383
 20
131.8696648815
 10
286.1700698775
 20
131.0535217468
 10
288.2417342806
 20
130.2929296882
 10
290.3530783945
 20
129.5890049794
 10
292.5010035305
 20
128.942780727
 10
294.6823573122
 20
128.3552053542
 10
296.8939383022
 20
127.8271412089
 10
299.1325007004
 20
127.3593632981
 10
301.3947591078
 20
126.9525581502
 10
303.6773933482
 20
126.607322808
 10
305.9770533411
 20
126.324163952
 10
308.2903640183
 20
126.1034971568
 10
310.6139302775
 20
125.9456462814
 10
312.9443419646
 20
125.8508429937
 10
315.2781788793
 20
125.8192264305
 10
317.612015794
 20
125.8508429937
 10
319.9424274812
 20
125.9456462814
 10
322.2659937403
 20
126.1034971568
 10
324.5793044176
 20
126.324163952
 10
326.8789644105
 20
126.607322808
 10
329.1615986509
 20
126.9525581502
 10
331.4238570582
 20
127.3593632981
 10
333.6624194564
 20
127.8271412089
 10
335.8740004464
 20
128.3552053542
 10
338.0553542282
 20
128.942780727
 10
340.2032793641
 20
129.5890049794
 10
342.314623478
 20
130.2929296882
 10
344.3862878811
 20
131.0535217468
 10
346.4152321203
 20
131.8696648815
 10
348.3984784401
 20
132.7401612897
 10
350.3331161531
 20
133.6637333979
 10
352.2163059117
 20
134.6390257365
 10
354.045283875
 20
135.6646069298
 10
355.8173657659
 20
136.7389717957
 10
357.5299508098
 20
137.8605435558
 10
359.1805255519
 20
139.0276761488
 10
360.7666675462
 20
140.2386566467
 10
362.2860489105
 20
141.4917077685
 10
363.7364397433
 20
142.7849904891
 10
365.115711396
 20
144.1166067376
 10
366.4218395972
 20
145.4846021836
 10
367.6529074236
 20
146.8869691051
 10
368.7285452398
 20
148.2198171418
  0
ARC
  5
304
330
1F
100
AcDbEntity
  8
0
  6
Continuous
 62
     8
370
    18
100
AcDbCircle
 10
315.2740079233
 20
129.5302505238
 30
0.0
 40
81.7893251407883
100
AcDbArc
 50
89.9970781251
 51
94.5006489728
  0
LINE
  5
305
330
1F
100
AcDbEntity
  8
0
  6
Continuous
 62
     8
370
    18
100
AcDbLine
 10
261.3365463296
 20
185.376516915
 30
0.0
 11
261.2417998339
 21
185.205807709
 31
0.0
  0
LINE
  5
306
330
1F
100
AcDbEntity
  8
0
  6
Continuous
 62
     8
370
    18
100
AcDbLine
 10
369.3145579247
 20
185.205807709
 30
0.0
 11
369.2198114291
 21
185.376516915
 31
0.0
  0
ARC
  5
307
330
1F
100
AcDbEntity
  8
0
  6
Continuous
 62
     8
370
    18
100
AcDbCircle
 10
315.2823498353
 20
129.5302505236
 30
0.0
 40
81.7893251409447
100
AcDbArc
 50
85.4993510272
 51
90.0029218749
  0
LWPOLYLINE
  5
308
330
1F
100
AcDbEntity
  8
0
  6
Continuous
 62
     8
370
    18
100
AcDbPolyline
 90
       30
 70
   128
 43
0.0
 10
315.2781788793
 20
212.0183944751
 10
313.0697784629
 20
211.9867396095
 10
310.8650064425
 20
211.8918270218
 10
308.6674852529
 20
211.733812653
 10
306.4808254155
 20
211.5129561204
 10
304.3086196068
 20
211.2296202905
 10
302.1544367552
 20
210.8842706836
 10
300.0218161774
 20
210.477474708
 10
297.9142617634
 20
210.0099007284
 10
295.8352362197
 20
209.4823169678
 10
293.7881553798
 20
208.8955902447
 10
291.776382592
 20
208.2506845498
 10
289.8032231938
 20
207.5486594614
 10
287.8719190809
 20
206.7906684047
 10
285.9856433809
 20
205.9779567572
 10
284.1474952398
 20
205.111859802
 10
282.3604947302
 20
204.193800534
 10
280.6275778892
 20
203.2252873223
 10
278.9515918946
 20
202.2079114315
 10
277.3352903871
 20
201.1433444075
 10
275.7813289457
 20
200.0333353312
 10
274.2922607251
 20
198.8797079445
 10
272.8705322604
 20
197.6843576542
 10
271.5184794477
 20
196.4492484177
 10
270.2383237062
 20
195.1764095163
 10
269.0321683286
 20
193.8679322209
 10
267.9019950249
 20
192.5259663562
 10
266.8496606668
 20
191.1527167687
 10
265.876894237
 20
189.7504397038
 10
265.4972211395
 20
189.1609602688
  0
LWPOLYLINE
  5
309
330
1F
100
AcDbEntity
  8
0
  6
Continuous
 62
     8
370
    18
100
AcDbPolyline
 90
       30
 70
   128
 43
0.0
 10
365.0591366192
 20
189.1609602688
 10
364.6794635216
 20
189.7504397038
 10
363.7066970918
 20
191.1527167687
 10
362.6543627338
 20
192.5259663562
 10
361.52418943
 20
193.8679322209
 10
360.3180340524
 20
195.1764095163
 10
359.037878311
 20
196.4492484177
 10
357.6858254983
 20
197.6843576542
 10
356.2640970335
 20
198.8797079445
 10
354.7750288129
 20
200.0333353312
 10
353.2210673715
 20
201.1433444075
 10
351.604765864
 20
202.2079114315
 10
349.9287798694
 20
203.2252873223
 10
348.1958630284
 20
204.193800534
 10
346.4088625188
 20
205.111859802
 10
344.5707143777
 20
205.9779567572
 10
342.6844386777
 20
206.7906684047
 10
340.7531345648
 20
207.5486594614
 10
338.7799751666
 20
208.2506845498
 10
336.7682023788
 20
208.8955902447
 10
334.7211215389
 20
209.4823169678
 10
332.6420959952
 20
210.0099007284
 10
330.5345415812
 20
210.477474708
 10
328.4019210035
 20
210.8842706836
 10
326.2477381518
 20
211.2296202905
 10
324.0755323431
 20
211.5129561204
 10
321.8888725057
 20
211.733812653
 10
319.6913513161
 20
211.8918270218
 10
317.4865792958
 20
211.9867396095
 10
315.2781788793
 20
212.0183944751
  0
LWPOLYLINE
  5
30A
330
1F
100
AcDbEntity
  8
0
  6
Continuous
 62
     8
370
    18
100
AcDbPolyline
 90
       71
 70
   128
 43
0.0
 10
374.7243136322
 20
158.7913576061
 10
374.1765699838
 20
157.2749301047
 10
373.5133979806
 20
155.6881173507
 10
372.7647577628
 20
154.120430462
 10
371.9317480631
 20
152.5741702351
 10
371.0155914383
 20
151.0516060202
 10
370.0176324744
 20
149.5549723903
 10
368.9393358139
 20
148.0864658615
 10
367.7822840058
 20
146.6482416697
 10
366.5481751832
 20
145.2424106073
 10
365.238820571
 20
143.8710359252
 10
363.8561418276
 20
142.5361303048
 10
362.4021682248
 20
141.2396529042
 10
360.8790336692
 20
139.9835064829
 10
359.288973571
 20
138.7695346088
 10
357.6343215626
 20
137.5995189531
 10
355.9175060739
 20
136.4751766751
 10
354.1410467684
 20
135.3981579023
 10
352.3075508453
 20
134.370043308
 10
350.4197092124
 20
133.3923417924
 10
348.4802925379
 20
132.4664882671
 10
346.492147183
 20
131.5938415499
 10
344.4581910253
 20
130.7756823702
 10
342.3814091759
 20
130.0132114895
 10
340.2648495985
 20
129.3075479388
 10
338.1116186362
 20
128.6597273767
 10
335.9248764524
 20
128.0707005693
 10
333.7078323928
 20
127.5413319946
 10
331.4637402752
 20
127.072398574
 10
329.1958936143
 20
126.664588532
 10
326.9076207878
 20
126.318500386
 10
324.6022801516
 20
126.0346420681
 10
322.283255111
 20
125.8134301796
 10
319.9539491551
 20
125.6551893794
 10
317.6177808614
 20
125.5601519076
 10
315.2781788793
 20
125.5284572449
 10
312.9385768972
 20
125.5601519076
 10
310.6024086036
 20
125.6551893794
 10
308.2731026476
 20
125.8134301796
 10
305.954077607
 20
126.0346420681
 10
303.6487369709
 20
126.318500386
 10
301.3604641443
 20
126.664588532
 10
299.0926174834
 20
127.072398574
 10
296.8485253659
 20
127.5413319946
 10
294.6314813062
 20
128.0707005693
 10
292.4447391224
 20
128.6597273767
 10
290.2915081601
 20
129.3075479388
 10
288.1749485828
 20
130.0132114895
 10
286.0981667334
 20
130.7756823702
 10
284.0642105756
 20
131.5938415499
 10
282.0760652208
 20
132.4664882671
 10
280.1366485462
 20
133.3923417924
 10
278.2488069134
 20
134.370043308
 10
276.4153109902
 20
135.3981579023
 10
274.6388516847
 20
136.4751766752
 10
272.9220361961
 20
137.5995189531
 10
271.2673841876
 20
138.7695346088
 10
269.6773240894
 20
139.9835064829
 10
268.1541895339
 20
141.2396529042
 10
266.700215931
 20
142.5361303048
 10
265.3175371876
 20
143.8710359252
 10
264.0081825754
 20
145.2424106073
 10
262.7740737528
 20
146.6482416697
 10
261.6170219447
 20
148.0864658615
 10
260.5387252842
 20
149.5549723903
 10
259.5407663203
 20
151.0516060202
 10
258.6246096955
 20
152.5741702351
 10
257.7915999959
 20
154.120430462
 10
257.0429597781
 20
155.6881173507
 10
256.3797877748
 20
157.2749301047
 10
255.8320441264
 20
158.7913576061
  0
LINE
  5
30B
330
1F
100
AcDbEntity
  8
0
  6
Continuous
 62
     8
370
    18
100
AcDbLine
 10
264.577967738
 20
193.0360313901
 30
0.0
 11
264.3823366218
 21
192.8317465482
 31
0.0
  0
LWPOLYLINE
  5
30C
330
1F
100
AcDbEntity
  8
0
  6
Continuous
 62
     8
370
    18
100
AcDbPolyline
 90
       84
 70
   128
 43
0.0
 10
253.929633808
 20
168.77014962
 10
253.9542384793
 20
167.3720361007
 10
254.0653908693
 20
165.7220902318
 10
254.26529595
 20
164.0763327234
 10
254.553663878
 20
162.4371497664
 10
254.9300765475
 20
160.8069180196
 10
255.393988196
 20
159.188001163
 10
255.944726196
 20
157.5827464714
 10
256.58149203
 20
155.9934814105
 10
257.3033624486
 20
154.4225102629
 10
258.1092908085
 20
152.8721107864
 10
258.9981085907
 20
151.3445309122
 10
259.9685270944
 20
149.8419854849
 10
261.0191393055
 20
148.3666530517
 10
262.1484219368
 20
146.9206727038
 10
263.3547376364
 20
145.5061409743
 10
264.6363373619
 20
144.1251087991
 10
265.9913629162
 20
142.7795785427
 10
267.4178496417
 20
141.4715010953
 10
268.9137292692
 20
140.2027730444
 10
270.4768329161
 20
138.9752339241
 10
272.1048942316
 20
137.7906635489
 10
273.7955526824
 20
136.6507794326
 10
275.5463569755
 20
135.5572342982
 10
277.3547686119
 20
134.5116136815
 10
279.2181655677
 20
133.5154336326
 10
281.1338460954
 20
132.5701385172
 10
283.0990326414
 20
131.6770989229
 10
285.1108758731
 20
130.8376096718
 10
287.1664588101
 20
130.0528879429
 10
289.2628010538
 20
129.3240715078
 10
291.3968631081
 20
128.6522170806
 10
293.5655507873
 20
128.0382987861
 10
295.7657197015
 20
127.483206747
 10
297.994179816
 20
126.9877457937
 10
300.2477000769
 20
126.5526342974
 10
302.523013095
 20
126.1785031279
 10
304.8168198842
 20
125.8658947398
 10
307.1257946438
 20
125.6152623854
 10
309.4465895811
 20
125.4269694575
 10
311.7758397654
 20
125.301288963
 10
314.1101680067
 20
125.2384031265
 10
316.446189752
 20
125.2384031265
 10
318.7805179932
 20
125.301288963
 10
321.1097681775
 20
125.4269694575
 10
323.4305631148
 20
125.6152623854
 10
325.7395378744
 20
125.8658947398
 10
328.0333446636
 20
126.1785031279
 10
330.3086576817
 20
126.5526342974
 10
332.5621779426
 20
126.9877457937
 10
334.7906380571
 20
127.483206747
 10
336.9908069713
 20
128.0382987861
 10
339.1594946505
 20
128.6522170806
 10
341.2935567049
 20
129.3240715078
 10
343.3898989485
 20
130.0528879429
 10
345.4454818855
 20
130.8376096718
 10
347.4573251172
 20
131.6770989229
 10
349.4225116632
 20
132.5701385172
 10
351.338192191
 20
133.5154336326
 10
353.2015891467
 20
134.5116136815
 10
355.0100007831
 20
135.5572342982
 10
356.7608050762
 20
136.6507794326
 10
358.451463527
 20
137.7906635489
 10
360.0795248425
 20
138.9752339241
 10
361.6426284894
 20
140.2027730444
 10
363.1385081169
 20
141.4715010953
 10
364.5649948424
 20
142.7795785427
 10
365.9200203967
 20
144.1251087991
 10
367.2016201222
 20
145.5061409743
 10
368.4079358218
 20
146.9206727038
 10
369.5372184531
 20
148.3666530517
 10
370.5878306642
 20
149.8419854849
 10
371.558249168
 20
151.3445309122
 10
372.4470669502
 20
152.8721107864
 10
373.2529953101
 20
154.4225102629
 10
373.9748657286
 20
155.9934814106
 10
374.6116315627
 20
157.5827464714
 10
375.1623695627
 20
159.188001163
 10
375.6262812112
 20
160.8069180196
 10
376.0026938806
 20
162.4371497664
 10
376.2910618086
 20
164.0763327234
 10
376.4909668893
 20
165.7220902318
 10
376.6021192793
 20
167.3720361007
 10
376.6267239507
 20
168.77014962
  0
LINE
  5
30D
330
1F
100
AcDbEntity
  8
0
  6
Continuous
 62
     8
370
    18
100
AcDbLine
 10
366.1740211368
 20
192.8317465482
 30
0.0
 11
365.9783900206
 21
193.0360313901
 31
0.0
  0
LWPOLYLINE
  5
30E
330
1F
100
AcDbEntity
  8
0
  6
Continuous
 62
     8
370
    18
100
AcDbPolyline
 90
       32
 70
   128
 43
0.0
 10
315.2781788793
 20
211.7291044832
 10
313.0782218715
 20
211.6975706441
 10
310.8818793873
 20
211.6030209371
 10
308.6927600117
 20
211.4456107069
 10
306.5144604619
 20
211.2255985781
 10
304.3505596785
 20
210.9433460302
 10
302.2046129447
 20
210.5993168033
 10
300.0801460455
 20
210.1940761365
 10
297.9806494742
 20
209.7282898392
 10
295.9095726984
 20
209.202723197
 10
293.8703184917
 20
208.6182397146
 10
291.8662373434
 20
207.9757996968
 10
289.9006219535
 20
207.2764586708
 10
287.976701823
 20
206.5213656521
 10
286.0976379477
 20
205.7117612566
 10
284.2665176245
 20
204.8489756622
 10
282.4863493793
 20
203.9344264232
 10
280.7600580238
 20
202.9696161418
 10
279.0904798503
 20
201.9561299987
 10
277.4803579713
 20
200.8956331489
 10
275.9323378127
 20
199.7898679861
 10
274.4489627678
 20
198.6406512793
 10
273.0326700177
 20
197.4498711888
 10
271.6857865277
 20
196.219484163
 10
270.4105252239
 20
194.9515117246
 10
269.2089813572
 20
193.648037149
 10
268.0831290611
 20
192.3112020414
 10
267.0348181079
 20
190.9432028186
 10
266.0657708698
 20
189.5462870995
 10
265.1775794889
 20
188.122750013
 10
264.3717032612
 20
186.674930427
 10
264.1544716505
 20
186.2526078446
  0
LWPOLYLINE
  5
30F
330
1F
100
AcDbEntity
  8
0
  6
Continuous
 62
     8
370
    18
100
AcDbPolyline
 90
       32
 70
   128
 43
0.0
 10
366.4018861082
 20
186.2526078446
 10
366.1846544975
 20
186.674930427
 10
365.3787782697
 20
188.122750013
 10
364.4905868888
 20
189.5462870995
 10
363.5215396507
 20
190.9432028186
 10
362.4732286975
 20
192.3112020414
 10
361.3473764014
 20
193.648037149
 10
360.1458325347
 20
194.9515117246
 10
358.8705712309
 20
196.219484163
 10
357.523687741
 20
197.4498711888
 10
356.1073949908
 20
198.6406512793
 10
354.6240199459
 20
199.7898679861
 10
353.0759997873
 20
200.8956331489
 10
351.4658779083
 20
201.9561299987
 10
349.7962997348
 20
202.9696161418
 10
348.0700083794
 20
203.9344264232
 10
346.2898401342
 20
204.8489756622
 10
344.4587198109
 20
205.7117612566
 10
342.5796559356
 20
206.5213656521
 10
340.6557358051
 20
207.2764586708
 10
338.6901204153
 20
207.9757996968
 10
336.6860392669
 20
208.6182397146
 10
334.6467850602
 20
209.202723197
 10
332.5757082844
 20
209.7282898392
 10
330.4762117132
 20
210.1940761365
 10
328.3517448139
 20
210.5993168033
 10
326.2057980801
 20
210.9433460302
 10
324.0418972967
 20
211.2255985781
 10
321.863597747
 20
211.4456107069
 10
319.6744783713
 20
211.6030209371
 10
317.4781358871
 20
211.6975706441
 10
315.2781788793
 20
211.7291044832
  0
LWPOLYLINE
  5
310
330
1F
100
AcDbEntity
  8
0
  6
Continuous
 62
     8
370
    18
100
AcDbPolyline
 90
       33
 70
   128
 43
0.0
 10
315.2781788793
 20
211.4628334909
 10
317.4748172628
 20
211.4313472205
 10
319.6678465752
 20
211.3369401412
 10
321.8536636751
 20
211.1797673635
 10
324.0286772707
 20
210.960087122
 10
326.1893138205
 20
210.6782603506
 10
328.3320234042
 20
210.3347500901
 10
330.4532855556
 20
209.9301207269
 10
332.5496150466
 20
209.4650370659
 10
334.6175676134
 20
208.9402632384
 10
336.6537456152
 20
208.3566614464
 10
338.654803617
 20
207.7151905462
 10
340.6174538857
 20
207.0169044727
 10
342.5384717922
 20
206.2629505081
 10
344.4147011089
 20
205.4545673969
 10
346.2430591962
 20
204.5930833102
 10
348.0205420664
 20
203.6799136643
 10
349.7442293198
 20
202.7165587945
 10
351.4112889429
 20
201.7046014902
 10
353.018981961
 20
200.6457043947
 10
354.5646669388
 20
199.5416072731
 10
356.0458043198
 20
198.3941241541
 10
357.4599605993
 20
197.2051403494
 10
358.8048123222
 20
195.9766093564
 10
360.0781499006
 20
194.7105496481
 10
361.2778812443
 20
193.4090413575
 10
362.4020351977
 20
192.0742228591
 10
363.448764779
 20
190.7082872563
 10
364.4163502141
 20
189.3134787777
 10
365.3032017628
 20
187.89208909
 10
366.1078623302
 20
186.4464535326
 10
366.8290098612
 20
184.978947281
 10
367.0149593994
 20
184.5663582257
  0
LWPOLYLINE
  5
311
330
1F
100
AcDbEntity
  8
0
  6
Continuous
 62
     8
370
    18
100
AcDbPolyline
 90
       33
 70
   128
 43
0.0
 10
263.5413983592
 20
184.5663582257
 10
263.7273478975
 20
184.978947281
 10
264.4484954284
 20
186.4464535326
 10
265.2531559958
 20
187.89208909
 10
266.1400075445
 20
189.3134787777
 10
267.1075929796
 20
190.7082872563
 10
268.1543225609
 20
192.0742228591
 10
269.2784765144
 20
193.4090413575
 10
270.478207858
 20
194.7105496481
 10
271.7515454364
 20
195.9766093564
 10
273.0963971593
 20
197.2051403494
 10
274.5105534388
 20
198.3941241541
 10
275.9916908198
 20
199.5416072731
 10
277.5373757976
 20
200.6457043947
 10
279.1450688157
 20
201.7046014902
 10
280.8121284388
 20
202.7165587945
 10
282.5358156923
 20
203.6799136643
 10
284.3132985624
 20
204.5930833102
 10
286.1416566497
 20
205.4545673969
 10
288.0178859665
 20
206.2629505081
 10
289.9389038729
 20
207.0169044727
 10
291.9015541416
 20
207.7151905462
 10
293.9026121434
 20
208.3566614464
 10
295.9387901453
 20
208.9402632384
 10
298.006742712
 20
209.4650370659
 10
300.103072203
 20
209.9301207269
 10
302.2243343544
 20
210.3347500901
 10
304.3670439381
 20
210.6782603506
 10
306.5276804879
 20
210.960087122
 10
308.7026940835
 20
211.1797673635
 10
310.8885111834
 20
211.3369401412
 10
313.0815404958
 20
211.4313472205
 10
315.2781788793
 20
211.4628334909
  0
LWPOLYLINE
  5
312
330
1F
100
AcDbEntity
  8
0
  6
Continuous
 62
     8
370
    18
100
AcDbPolyline
 90
       34
 70
   128
 43
0.0
 10
315.2781788793
 20
210.6331117492
 10
313.0864982027
 20
210.6016965418
 10
310.8984184518
 20
210.5075025347
 10
308.7175346357
 20
210.3506844885
 10
306.5474299409
 20
210.1315000547
 10
304.3916698437
 20
209.8503093527
 10
302.2537962522
 20
209.5075743783
 10
300.1373216872
 20
209.103858244
 10
298.0457235108
 20
208.6398242545
 10
295.9824382133
 20
208.1162348162
 10
293.950855767
 20
207.5339501854
 10
291.9543140567
 20
206.893927054
 10
289.996093395
 20
206.1972169785
 10
288.0794111333
 20
205.4449646517
 10
286.2074163757
 20
204.6384060221
 10
284.3831848045
 20
203.7788662635
 10
282.6097136274
 20
202.8677575975
 10
280.889916653
 20
201.9065769731
 10
279.2266195031
 20
200.8969036077
 10
277.6225549706
 20
199.8403963919
 10
276.0803585293
 20
198.7387911643
 10
274.602564004
 20
197.5938978594
 10
273.191599407
 20
196.4075975338
 10
271.8497829497
 20
195.181839276
 10
270.5793192328
 20
193.9186370035
 10
269.3822956249
 20
192.6200661543
 10
268.2606788327
 20
191.2882602769
 10
267.2163116696
 20
189.9254075249
 10
266.2509100282
 20
188.5337470618
 10
265.3660600607
 20
187.1155653821
 10
264.5632155734
 20
185.6731925544
 10
263.8436956377
 20
184.2089983937
 10
263.2086824228
 20
182.7253885671
 10
262.6752112261
 20
181.272298358
  0
LWPOLYLINE
  5
313
330
1F
100
AcDbEntity
  8
0
  6
Continuous
 62
     8
370
    18
100
AcDbPolyline
 90
       34
 70
   128
 43
0.0
 10
367.8811465325
 20
181.272298358
 10
367.3476753358
 20
182.7253885671
 10
366.712662121
 20
184.2089983937
 10
365.9931421852
 20
185.6731925544
 10
365.1902976979
 20
187.1155653821
 10
364.3054477304
 20
188.5337470618
 10
363.340046089
 20
189.9254075249
 10
362.2956789259
 20
191.2882602769
 10
361.1740621337
 20
192.6200661543
 10
359.9770385259
 20
193.9186370035
 10
358.706574809
 20
195.181839276
 10
357.3647583516
 20
196.4075975338
 10
355.9537937546
 20
197.5938978594
 10
354.4759992293
 20
198.7387911643
 10
352.933802788
 20
199.8403963919
 10
351.3297382555
 20
200.8969036077
 10
349.6664411056
 20
201.9065769731
 10
347.9466441312
 20
202.8677575975
 10
346.1731729542
 20
203.7788662635
 10
344.348941383
 20
204.6384060221
 10
342.4769466253
 20
205.4449646517
 10
340.5602643637
 20
206.1972169785
 10
338.602043702
 20
206.893927054
 10
336.6055019916
 20
207.5339501854
 10
334.5739195454
 20
208.1162348162
 10
332.5106342479
 20
208.6398242545
 10
330.4190360715
 20
209.103858244
 10
328.3025615064
 20
209.5075743783
 10
326.164687915
 20
209.8503093527
 10
324.0089278177
 20
210.1315000547
 10
321.8388231229
 20
210.3506844885
 10
319.6579393068
 20
210.5075025347
 10
317.4698595559
 20
210.6016965418
 10
315.2781788793
 20
210.6331117492
  0
LWPOLYLINE
  5
314
330
1F
100
AcDbEntity
  8
0
  6
Continuous
 62
     8
370
    18
100
AcDbPolyline
 90
       35
 70
   128
 43
0.0
 10
315.2781788793
 20
210.3878505822
 10
313.0811304829
 20
210.3561538837
 10
310.8877388567
 20
210.2611165443
 10
308.7016546847
 20
210.1028967442
 10
306.5265164881
 20
209.8817578247
 10
304.3659445699
 20
209.5980678498
 10
302.2235349888
 20
209.2522989932
 10
300.1028535741
 20
208.8450267533
 10
298.0074299907
 20
208.3769289944
 10
295.9407518644
 20
207.848784819
 10
293.9062589769
 20
207.2614732711
 10
291.907337541
 20
206.6159718728
 10
289.9473145641
 20
205.9133549973
 10
288.0294523109
 20
205.1547920812
 10
286.1569428739
 20
204.3415456776
 10
284.3329028603
 20
203.4749693548
 10
282.5603682047
 20
202.5565054437
 10
280.842289116
 20
201.5876826367
 10
279.1815251674
 20
200.5701134438
 10
277.5808405366
 20
199.5054915085
 10
276.0428994051
 20
198.395588789
 10
274.5702615242
 20
197.2422526087
 10
273.1653779543
 20
196.047402582
 10
271.8305869855
 20
194.8130274188
 10
270.5681102456
 20
193.5411816147
 10
269.3800490025
 20
192.2339820316
 10
268.268380667
 20
190.8936043741
 10
267.2349555012
 20
189.5222795686
 10
266.2814935394
 20
188.1222900499
 10
265.4095817249
 20
186.6959659624
 10
264.6206712688
 20
185.2456812817
 10
263.9160752349
 20
183.7738498637
 10
263.2969663535
 20
182.2829214263
 10
262.7643750705
 20
180.7753774729
 10
262.3840261797
 20
179.4962499802
  0
LWPOLYLINE
  5
315
330
1F
100
AcDbEntity
  8
0
  6
Continuous
 62
     8
370
    18
100
AcDbPolyline
 90
       35
 70
   128
 43
0.0
 10
368.1723315789
 20
179.4962499802
 10
367.7919826882
 20
180.7753774729
 10
367.2593914051
 20
182.2829214263
 10
366.6402825238
 20
183.7738498637
 10
365.9356864898
 20
185.2456812817
 10
365.1467760338
 20
186.6959659624
 10
364.2748642192
 20
188.1222900499
 10
363.3214022574
 20
189.5222795686
 10
362.2879770917
 20
190.8936043741
 10
361.1763087561
 20
192.2339820316
 10
359.988247513
 20
193.5411816147
 10
358.7257707731
 20
194.8130274188
 10
357.3909798043
 20
196.047402582
 10
355.9860962344
 20
197.2422526087
 10
354.5134583535
 20
198.395588789
 10
352.975517222
 20
199.5054915085
 10
351.3748325912
 20
200.5701134438
 10
349.7140686426
 20
201.5876826367
 10
347.9959895539
 20
202.5565054437
 10
346.2234548983
 20
203.4749693548
 10
344.3994148847
 20
204.3415456776
 10
342.5269054478
 20
205.1547920812
 10
340.6090431946
 20
205.9133549973
 10
338.6490202176
 20
206.6159718728
 10
336.6500987817
 20
207.2614732711
 10
334.6156058942
 20
207.848784819
 10
332.548927768
 20
208.3769289944
 10
330.4535041846
 20
208.8450267533
 10
328.3328227699
 20
209.2522989932
 10
326.1904131887
 20
209.5980678498
 10
324.0298412705
 20
209.8817578247
 10
321.854703074
 20
210.1028967442
 10
319.6686189019
 20
210.2611165443
 10
317.4752272757
 20
210.3561538837
 10
315.2781788793
 20
210.3878505822
  0
LWPOLYLINE
  5
316
330
1F
100
AcDbEntity
  8
0
  6
Continuous
 62
     8
370
    18
100
AcDbPolyline
 90
       37
 70
   128
 43
0.0
 10
315.2781788793
 20
210.1467617221
 10
317.4568897783
 20
210.1153295777
 10
319.6319744281
 20
210.0210854602
 10
321.7998126149
 20
209.8641862297
 10
323.9567961859
 20
209.6448930293
 10
326.0993350548
 20
209.3635708512
 10
328.2238631773
 20
209.0206879281
 10
330.3268444858
 20
208.6168149549
 10
332.4047787756
 20
208.1526241384
 10
334.4542075301
 20
207.6288880782
 10
336.4717196773
 20
207.0464784815
 10
338.4539572675
 20
206.4063647115
 10
340.3976210617
 20
205.7096121744
 10
342.2994760234
 20
204.957380546
 10
344.1563567028
 20
204.1509218416
 10
345.9651725051
 20
203.2915783322
 10
347.722912835
 20
202.3807803103
 10
349.4266521072
 20
201.4200437092
 10
351.0735546158
 20
200.4109675802
 10
352.660879254
 20
199.3552314309
 10
354.1859840768
 20
198.25459243
 10
355.6463306976
 20
197.1108824825
 10
357.0394885136
 20
195.9260051807
 10
358.3631387511
 20
194.7019326359
 10
359.6150783249
 20
193.4407021961
 10
360.7932235052
 20
192.1444130549
 10
361.8956133855
 20
190.8152227576
 10
362.9204131467
 20
189.4553436103
 10
363.8659171108
 20
188.0670389977
 10
364.7305515796
 20
186.6526196157
 10
365.5128774545
 20
185.2144396259
 10
366.2115926313
 20
183.7548927368
 10
366.8255341674
 20
182.2764082203
 10
367.3536802178
 20
180.7814468679
 10
367.7951517355
 20
179.2724968952
 10
368.1492139348
 20
177.7520698006
 10
368.3932432572
 20
176.3719879106
  0
LWPOLYLINE
  5
317
330
1F
100
AcDbEntity
  8
0
  6
Continuous
 62
     8
370
    18
100
AcDbPolyline
 90
       37
 70
   128
 43
0.0
 10
262.1631145015
 20
176.3719879106
 10
262.4071438238
 20
177.7520698006
 10
262.7612060231
 20
179.2724968952
 10
263.2026775408
 20
180.7814468679
 10
263.7308235912
 20
182.2764082203
 10
264.3447651274
 20
183.7548927368
 10
265.0434803041
 20
185.2144396259
 10
265.825806179
 20
186.6526196157
 10
266.6904406478
 20
188.0670389977
 10
267.6359446119
 20
189.4553436103
 10
268.6607443731
 20
190.8152227576
 10
269.7631342534
 20
192.1444130549
 10
270.9412794337
 20
193.4407021961
 10
272.1932190075
 20
194.7019326359
 10
273.516869245
 20
195.9260051807
 10
274.910027061
 20
197.1108824825
 10
276.3703736818
 20
198.25459243
 10
277.8954785046
 20
199.3552314309
 10
279.4828031428
 20
200.4109675802
 10
281.1297056514
 20
201.4200437092
 10
282.8334449236
 20
202.3807803103
 10
284.5911852535
 20
203.2915783322
 10
286.4000010558
 20
204.1509218416
 10
288.2568817352
 20
204.957380546
 10
290.1587366969
 20
205.7096121744
 10
292.1024004911
 20
206.4063647115
 10
294.0846380813
 20
207.0464784815
 10
296.1021502285
 20
207.6288880782
 10
298.151578983
 20
208.1526241384
 10
300.2295132728
 20
208.6168149549
 10
302.3324945813
 20
209.0206879281
 10
304.4570227038
 20
209.3635708512
 10
306.5995615728
 20
209.6448930293
 10
308.7565451438
 20
209.8641862297
 10
310.9243833305
 20
210.0210854602
 10
313.0994679803
 20
210.1153295777
 10
315.2781788793
 20
210.1467617221
  0
LWPOLYLINE
  5
318
330
1F
100
AcDbEntity
  8
0
  6
Continuous
 62
     8
370
    18
100
AcDbPolyline
 90
       34
 70
   128
 43
0.0
 10
315.2781788793
 20
209.7346105079
 10
317.4592106009
 20
209.7029391658
 10
319.6365646095
 20
209.6079785446
 10
321.8065693939
 20
209.4498887693
 10
323.9655658349
 20
209.228936415
 10
326.1099133763
 20
208.9454940575
 10
328.2359961629
 20
208.6000396447
 10
330.3402291382
 20
208.1931556908
 10
332.4190640894
 20
207.7255282942
 10
334.4689956304
 20
207.1979459806
 10
336.4865671129
 20
206.611298373
 10
338.4683764551
 20
205.9665746921
 10
340.411081878
 20
205.2648620877
 10
342.3114075407
 20
204.5073438062
 10
344.1661490644
 20
203.6952971946
 10
345.9721789352
 20
202.8300915474
 10
347.7264517781
 20
201.9131857969
 10
349.4260094924
 20
200.9461260536
 10
351.0679862392
 20
199.9305429992
 10
352.6496132743
 20
198.8681491362
 10
354.1682236168
 20
197.7607359012
 10
355.6212565459
 20
196.6101706434
 10
357.0062619195
 20
195.418393476
 10
358.3209043052
 20
194.187414005
 10
359.5629669185
 20
192.9193079403
 10
360.730355361
 20
191.6162135956
 10
361.8211011515
 20
190.2803282826
 10
362.833365046
 20
188.9139046064
 10
363.7654401384
 20
187.5192466662
 10
364.6157547394
 20
186.0987061709
 10
365.3828750262
 20
184.6546784731
 10
366.0655074604
 20
183.1895985302
 10
366.6625009693
 20
181.7059367985
 10
366.6999973197
 20
181.6043358833
  0
LWPOLYLINE
  5
319
330
1F
100
AcDbEntity
  8
0
  6
Continuous
 62
     8
370
    18
100
AcDbPolyline
 90
       34
 70
   128
 43
0.0
 10
263.8563697087
 20
181.6043611455
 10
263.8938567894
 20
181.7059367985
 10
264.4908502982
 20
183.1895985302
 10
265.1734827324
 20
184.6546784731
 10
265.9406030192
 20
186.0987061709
 10
266.7909176202
 20
187.5192466662
 10
267.7229927126
 20
188.9139046064
 10
268.7352566071
 20
190.2803282826
 10
269.8260023976
 20
191.6162135956
 10
270.9933908401
 20
192.9193079403
 10
272.2354534534
 20
194.187414005
 10
273.5500958391
 20
195.418393476
 10
274.9351012127
 20
196.6101706434
 10
276.3881341419
 20
197.7607359012
 10
277.9067444843
 20
198.8681491362
 10
279.4883715194
 20
199.9305429992
 10
281.1303482662
 20
200.9461260536
 10
282.8299059805
 20
201.9131857969
 10
284.5841788235
 20
202.8300915474
 10
286.3902086942
 20
203.6952971946
 10
288.2449502179
 20
204.5073438062
 10
290.1452758807
 20
205.2648620877
 10
292.0879813035
 20
205.9665746921
 10
294.0697906457
 20
206.611298373
 10
296.0873621282
 20
207.1979459806
 10
298.1372936693
 20
207.7255282942
 10
300.2161286204
 20
208.1931556908
 10
302.3203615957
 20
208.6000396447
 10
304.4464443823
 20
208.9454940575
 10
306.5907919237
 20
209.228936415
 10
308.7497883648
 20
209.4498887693
 10
310.9197931491
 20
209.6079785446
 10
313.0971471578
 20
209.7029391658
 10
315.2781788793
 20
209.7346105079
  0
LWPOLYLINE
  5
31A
330
1F
100
AcDbEntity
  8
0
  6
Continuous
 62
     8
370
    18
100
AcDbPolyline
 90
       34
 70
   128
 43
0.0
 10
315.2781788793
 20
209.2601458402
 10
313.1021232996
 20
209.2287520039
 10
310.9296895497
 20
209.1346227471
 10
308.7644934311
 20
208.9779147386
 10
306.6101386991
 20
208.7588888035
 10
304.4702110645
 20
208.4779094887
 10
302.3482722258
 20
208.1354444566
 10
300.2478539406
 20
207.7320637065
 10
298.1724521479
 20
207.2684386258
 10
296.1255211493
 20
206.7453408727
 10
294.1104678593
 20
206.1636410918
 10
292.1306461352
 20
205.5243074649
 10
290.189351195
 20
204.8284040999
 10
288.2898141325
 20
204.0770892591
 10
286.4351965396
 20
203.271613432
 10
284.6285852444
 20
202.4133172536
 10
282.872987173
 20
201.5036292732
 10
281.1713243451
 20
200.5440635766
 10
279.5264290106
 20
199.5362172663
 10
277.9410389355
 20
198.481767803
 10
276.417792845
 20
197.3824702137
 10
274.959226032
 20
196.2401541708
 10
273.567766137
 20
195.0567209465
 10
272.2457291076
 20
193.8341402489
 10
270.995315344
 20
192.5744469426
 10
269.8186060365
 20
191.279737663
 10
268.7175597017
 20
189.9521673258
 10
267.6940089224
 20
188.5939455408
 10
266.749657298
 20
187.2073329343
 10
265.8860766086
 20
185.7946373859
 10
265.1047041989
 20
184.3582101881
 10
264.4068405862
 20
182.9004421322
 10
263.7936472956
 20
181.4237595291
 10
263.7491029935
 20
181.3070486351
  0
LWPOLYLINE
  5
31B
330
1F
100
AcDbEntity
  8
0
  6
Continuous
 62
     8
370
    18
100
AcDbPolyline
 90
       34
 70
   128
 43
0.0
 10
366.8072547651
 20
181.3070486351
 10
366.762710463
 20
181.4237595291
 10
366.1495171724
 20
182.9004421322
 10
365.4516535598
 20
184.3582101881
 10
364.6702811501
 20
185.7946373859
 10
363.8067004606
 20
187.2073329343
 10
362.8623488362
 20
188.5939455408
 10
361.838798057
 20
189.9521673258
 10
360.7377517221
 20
191.279737663
 10
359.5610424146
 20
192.5744469426
 10
358.3106286511
 20
193.8341402489
 10
356.9885916217
 20
195.0567209465
 10
355.5971317266
 20
196.2401541708
 10
354.1385649136
 20
197.3824702137
 10
352.6153188231
 20
198.481767803
 10
351.029928748
 20
199.5362172663
 10
349.3850334135
 20
200.5440635766
 10
347.6833705857
 20
201.5036292732
 10
345.9277725142
 20
202.4133172536
 10
344.121161219
 20
203.271613432
 10
342.2665436261
 20
204.0770892591
 10
340.3670065636
 20
204.8284040999
 10
338.4257116234
 20
205.5243074649
 10
336.4458898993
 20
206.1636410918
 10
334.4308366093
 20
206.7453408727
 10
332.3839056107
 20
207.2684386258
 10
330.308503818
 20
207.7320637065
 10
328.2080855328
 20
208.1354444566
 10
326.0861466941
 20
208.4779094887
 10
323.9462190595
 20
208.7588888035
 10
321.7918643275
 20
208.9779147386
 10
319.6266682089
 20
209.1346227471
 10
317.454234459
 20
209.2287520039
 10
315.2781788793
 20
209.2601458402
  0
LINE
  5
31C
330
1F
100
AcDbEntity
  8
0
  6
Continuous
 62
     8
370
    18
100
AcDbLine
 10
264.3533806611
 20
186.1604371315
 30
0.0
 11
264.2423844253
 21
186.0103277092
 31
0.0
  0
LINE
  5
31D
330
1F
100
AcDbEntity
  8
0
  6
Continuous
 62
     8
370
    18
100
AcDbLine
 10
260.4047132321
 20
179.4523412756
 30
0.0
 11
260.3693100254
 21
179.3725358039
 31
0.0
  0
LINE
  5
31E
330
1F
100
AcDbEntity
  8
0
  6
Continuous
 62
     8
370
    18
100
AcDbLine
 10
370.1870477332
 20
179.3725358039
 30
0.0
 11
370.1516445265
 21
179.4523412756
 31
0.0
  0
LINE
  5
31F
330
1F
100
AcDbEntity
  8
0
  6
Continuous
 62
     8
370
    18
100
AcDbLine
 10
366.3139733334
 20
186.0103277092
 30
0.0
 11
366.2029770975
 21
186.1604371315
 31
0.0
  0
LWPOLYLINE
  5
320
330
1F
100
AcDbEntity
  8
0
  6
Continuous
 62
     8
370
    18
100
AcDbPolyline
 90
       38
 70
   128
 43
0.0
 10
315.2781788793
 20
208.8951595995
 10
313.0948208362
 20
208.8634544762
 10
310.9151444286
 20
208.7683925685
 10
308.7428250842
 20
208.6101341723
 10
306.5815258247
 20
208.3889461469
 10
304.4348910897
 20
208.1052014655
 10
302.3065405909
 20
207.7593785857
 10
300.2000632087
 20
207.3520606432
 10
298.1190109406
 20
206.8839344681
 10
296.0668929115
 20
206.3557894272
 10
294.0471694565
 20
205.7685160924
 10
292.0632462864
 20
205.1231047393
 10
290.1184687444
 20
204.4206436777
 10
288.2161161654
 20
203.6623174156
 10
286.3593963462
 20
202.8494046628
 10
284.5514401366
 20
201.9832761741
 10
282.7952961595
 20
201.065392438
 10
281.0939256711
 20
200.0973012141
 10
279.450197567
 20
199.0806349233
 10
277.8668835444
 20
198.0171078949
 10
276.3466534292
 20
196.9085134761
 10
274.892070673
 20
195.7567210079
 10
273.5055880316
 20
194.5636726729
 10
272.1895434284
 20
193.3313802205
 10
270.9461560122
 20
192.0619215746
 10
269.7775224155
 20
190.7574373296
 10
268.6856132189
 20
189.4201271411
 10
267.6722696284
 20
188.0522460166
 10
266.7392003705
 20
186.656100513
 10
265.887978811
 20
185.2340448477
 10
265.1200403021
 20
183.788476928
 10
264.4366797618
 20
182.3218343086
 10
263.8390494905
 20
180.8365900807
 10
263.3281572282
 20
179.3352487021
 10
262.9048644547
 20
177.8203417739
 10
262.5698849375
 20
176.294423772
 10
262.3237835276
 20
174.7600677393
 10
262.2386425964
 20
174.0338434538
  0
LWPOLYLINE
  5
321
330
1F
100
AcDbEntity
  8
0
  6
Continuous
 62
     8
370
    18
100
AcDbPolyline
 90
       38
 70
   128
 43
0.0
 10
368.3177151622
 20
174.0338434538
 10
368.232574231
 20
174.7600677393
 10
367.9864728212
 20
176.294423772
 10
367.6514933039
 20
177.8203417739
 10
367.2282005304
 20
179.3352487021
 10
366.7173082681
 20
180.8365900807
 10
366.1196779968
 20
182.3218343086
 10
365.4363174565
 20
183.788476928
 10
364.6683789476
 20
185.2340448477
 10
363.8171573881
 20
186.656100513
 10
362.8840881302
 20
188.0522460166
 10
361.8707445397
 20
189.4201271411
 10
360.7788353431
 20
190.7574373296
 10
359.6102017464
 20
192.0619215746
 10
358.3668143302
 20
193.3313802205
 10
357.050769727
 20
194.5636726729
 10
355.6642870856
 20
195.7567210079
 10
354.2097043295
 20
196.9085134761
 10
352.6894742142
 20
198.0171078949
 10
351.1061601917
 20
199.0806349233
 10
349.4624320875
 20
200.0973012141
 10
347.7610615991
 20
201.065392438
 10
346.0049176221
 20
201.9832761741
 10
344.1969614124
 20
202.8494046628
 10
342.3402415932
 20
203.6623174156
 10
340.4378890142
 20
204.4206436777
 10
338.4931114722
 20
205.1231047393
 10
336.5091883021
 20
205.7685160924
 10
334.4894648472
 20
206.3557894272
 10
332.437346818
 20
206.8839344681
 10
330.3562945499
 20
207.3520606432
 10
328.2498171677
 20
207.7593785857
 10
326.1214666689
 20
208.1052014655
 10
323.9748319339
 20
208.3889461469
 10
321.8135326744
 20
208.6101341723
 10
319.64121333
 20
208.7683925685
 10
317.4615369224
 20
208.8634544762
 10
315.2781788793
 20
208.8951595995
  0
LWPOLYLINE
  5
322
330
1F
100
AcDbEntity
  8
0
  6
Continuous
 62
     8
370
    18
100
AcDbPolyline
 90
       41
 70
   128
 43
0.0
 10
315.2781788793
 20
207.7205319967
 10
313.1277987456
 20
207.6891002603
 10
310.9810925002
 20
207.5948587518
 10
308.8417277548
 20
207.4379684812
 10
306.7133595782
 20
207.2186974929
 10
304.5996242517
 20
206.9374204077
 10
302.5041330567
 20
206.5946177828
 10
300.4304661046
 20
206.1908752908
 10
298.3821662208
 20
205.7268827188
 10
296.3627328912
 20
205.2034327904
 10
294.3756162837
 20
204.6214198111
 10
292.4242113539
 20
203.9818381403
 10
290.5118520441
 20
203.2857804924
 10
288.6418055883
 20
202.5344360704
 10
286.8172669295
 20
201.7290885336
 10
285.0413532613
 20
200.8711138046
 10
283.3170987025
 20
199.9619777191
 10
281.647449113
 20
199.0032335206
 10
280.0352570612
 20
197.9965192077
 10
278.4832769501
 20
196.9435547347
 10
276.9941603118
 20
195.8461390739
 10
275.570451277
 20
194.7061471415
 10
274.2145822287
 20
193.5255265946
 10
272.9288696464
 20
192.3062945035
 10
271.7155101486
 20
191.050533906
 10
270.5765767396
 20
189.7603902478
 10
269.514015268
 20
188.4380677177
 10
268.5296411022
 20
187.0858254818
 10
267.625136029
 20
185.705973823
 10
266.8020453802
 20
184.3008701949
 10
266.0617753923
 20
182.8729151933
 10
265.4055908041
 20
181.4245484556
 10
264.8346126961
 20
179.9582444919
 10
264.3498165748
 20
178.4765084579
 10
263.9520307061
 20
176.9818718749
 10
263.6419347007
 20
175.4768883044
 10
263.4200583522
 20
173.9641289855
 10
263.2867807327
 20
172.4461784422
 10
263.2423295449
 20
170.9256300675
 10
263.2867807327
 20
169.4050816928
 10
263.4118389692
 20
167.958105823
  0
LWPOLYLINE
  5
323
330
1F
100
AcDbEntity
  8
0
  6
Continuous
 62
     8
370
    18
100
AcDbPolyline
 90
       41
 70
   128
 43
0.0
 10
367.1445187894
 20
167.958105823
 10
367.2695770259
 20
169.4050816928
 10
367.3140282137
 20
170.9256300675
 10
367.2695770259
 20
172.4461784422
 10
367.1362994064
 20
173.9641289855
 10
366.9144230579
 20
175.4768883044
 10
366.6043270525
 20
176.9818718749
 10
366.2065411838
 20
178.4765084579
 10
365.7217450625
 20
179.9582444919
 10
365.1507669545
 20
181.4245484556
 10
364.4945823663
 20
182.8729151933
 10
363.7543123784
 20
184.3008701949
 10
362.9312217296
 20
185.705973823
 10
362.0267166564
 20
187.0858254818
 10
361.0423424907
 20
188.4380677177
 10
359.979781019
 20
189.7603902478
 10
358.84084761
 20
191.050533906
 10
357.6274881122
 20
192.3062945035
 10
356.3417755299
 20
193.5255265946
 10
354.9859064816
 20
194.7061471415
 10
353.5621974468
 20
195.8461390739
 10
352.0730808085
 20
196.9435547347
 10
350.5211006974
 20
197.9965192077
 10
348.9089086456
 20
199.0032335206
 10
347.2392590561
 20
199.9619777191
 10
345.5150044973
 20
200.8711138046
 10
343.7390908291
 20
201.7290885336
 10
341.9145521703
 20
202.5344360704
 10
340.0445057145
 20
203.2857804924
 10
338.1321464048
 20
203.9818381403
 10
336.1807414749
 20
204.6214198111
 10
334.1936248674
 20
205.2034327904
 10
332.1741915378
 20
205.7268827188
 10
330.125891654
 20
206.1908752908
 10
328.052224702
 20
206.5946177828
 10
325.9567335069
 20
206.9374204077
 10
323.8429981804
 20
207.2186974929
 10
321.7146300038
 20
207.4379684812
 10
319.5752652584
 20
207.5948587518
 10
317.4285590131
 20
207.6891002603
 10
315.2781788793
 20
207.7205319967
  0
LWPOLYLINE
  5
324
330
1F
100
AcDbEntity
  8
0
  6
Continuous
 62
     8
370
    18
100
AcDbPolyline
 90
       42
 70
   128
 43
0.0
 10
315.2781788793
 20
207.3500851868
 10
313.1285927035
 20
207.3184569154
 10
310.9827278564
 20
207.2236268555
 10
308.8442992245
 20
207.0657591754
 10
306.7170088209
 20
206.845127173
 10
304.6045393761
 20
206.5621128029
 10
302.5105479631
 20
206.2172060151
 10
300.4386596659
 20
205.8110039064
 10
298.3924613038
 20
205.3442096875
 10
296.3754952224
 20
204.8176314649
 10
294.3912531607
 20
204.2321808424
 10
292.4431702064
 20
203.5888713425
 10
290.534618849
 20
202.8888166522
 10
288.6689031419
 20
202.1332286949
 10
286.8492529817
 20
201.3234155321
 10
285.0788185174
 20
200.4607790994
 10
283.3606646964
 20
199.546812779
 10
281.6977659588
 20
198.5830988144
 10
280.093001088
 20
197.5713055718
 10
278.5491482268
 20
196.5131846511
 10
277.0688800683
 20
195.4105678543
 10
275.6547592288
 20
194.2653640135
 10
274.3092338114
 20
193.0795556872
 10
273.0346331679
 20
191.8551957275
 10
271.8331638661
 20
190.5944037265
 10
270.7069058705
 20
189.299362347
 10
269.6578089404
 20
187.9723135435
 10
268.6876892556
 20
186.6155546814
 10
267.7982262714
 20
185.2314345598
 10
266.9909598119
 20
183.8223493449
 10
266.2672874037
 20
182.3907384222
 10
265.6284618566
 20
180.9390801733
 10
265.0755890951
 20
179.4698876856
 10
264.6096262436
 20
177.9857044012
 10
264.2313799694
 20
176.4890997142
 10
263.9415050863
 20
174.9826645223
 10
263.7405034211
 20
173.4690067418
 10
263.6287229445
 20
171.9507467925
 10
263.6063571692
 20
170.4305130613
 10
263.6734448144
 20
168.9109373524
 10
263.8298697389
 20
167.3946503305
 10
264.0098279643
 20
166.2377412812
  0
LWPOLYLINE
  5
325
330
1F
100
AcDbEntity
  8
0
  6
Continuous
 62
     8
370
    18
100
AcDbPolyline
 90
       42
 70
   128
 43
0.0
 10
366.5465297943
 20
166.2377412812
 10
366.7264880197
 20
167.3946503305
 10
366.8829129443
 20
168.9109373524
 10
366.9500005894
 20
170.4305130613
 10
366.9276348141
 20
171.9507467925
 10
366.8158543375
 20
173.4690067418
 10
366.6148526723
 20
174.9826645223
 10
366.3249777893
 20
176.4890997142
 10
365.9467315151
 20
177.9857044012
 10
365.4807686636
 20
179.4698876856
 10
364.9278959021
 20
180.9390801733
 10
364.289070355
 20
182.3907384222
 10
363.5653979467
 20
183.8223493449
 10
362.7581314872
 20
185.2314345598
 10
361.8686685031
 20
186.6155546814
 10
360.8985488182
 20
187.9723135435
 10
359.8494518882
 20
189.299362347
 10
358.7231938925
 20
190.5944037265
 10
357.5217245908
 20
191.8551957275
 10
356.2471239472
 20
193.0795556872
 10
354.9015985298
 20
194.2653640135
 10
353.4874776903
 20
195.4105678543
 10
352.0072095318
 20
196.5131846511
 10
350.4633566706
 20
197.5713055718
 10
348.8585917998
 20
198.5830988144
 10
347.1956930622
 20
199.546812779
 10
345.4775392412
 20
200.4607790994
 10
343.7071047769
 20
201.3234155321
 10
341.8874546168
 20
202.1332286949
 10
340.0217389096
 20
202.8888166522
 10
338.1131875523
 20
203.5888713425
 10
336.1651045979
 20
204.2321808424
 10
334.1808625362
 20
204.8176314649
 10
332.1638964548
 20
205.3442096875
 10
330.1176980928
 20
205.8110039064
 10
328.0458097955
 20
206.2172060151
 10
325.9518183825
 20
206.5621128029
 10
323.8393489377
 20
206.845127173
 10
321.7120585341
 20
207.0657591754
 10
319.5736299022
 20
207.2236268555
 10
317.4277650551
 20
207.3184569154
 10
315.2781788793
 20
207.3500851868
  0
ENDSEC
  0
SECTION
  2
OBJECTS
  0
DICTIONARY
  5
C
330
0
100
AcDbDictionary
281
     1
  3
ACAD_GROUP
350
D
  3
ACAD_LAYOUT
350
1A
  3
ACAD_MLINESTYLE
350
17
  3
ACAD_PLOTSETTINGS
350
19
  3
ACAD_PLOTSTYLENAME
350
E
  3
ACAD_SCALELIST
350
47
  3
DWGPROPS
350
326
  0
DICTIONARY
  5
D
102
{ACAD_REACTORS
330
C
102
}
330
C
100
AcDbDictionary
281
     1
  0
DICTIONARY
  5
1A
102
{ACAD_REACTORS
330
C
102
}
330
C
100
AcDbDictionary
281
     1
  3
Layout1
350
1E
  3
Layout2
350
26
  3
Model
350
22
  0
DICTIONARY
  5
17
102
{ACAD_REACTORS
330
C
102
}
330
C
100
AcDbDictionary
281
     1
  3
Standard
350
18
  0
DICTIONARY
  5
19
102
{ACAD_REACTORS
330
C
102
}
330
C
100
AcDbDictionary
281
     1
  0
ACDBDICTIONARYWDFLT
  5
E
102
{ACAD_REACTORS
330
C
102
}
330
C
100
AcDbDictionary
281
     1
  3
Normal
350
F
100
AcDbDictionaryWithDefault
340
F
  0
DICTIONARY
  5
47
102
{ACAD_REACTORS
330
C
102
}
330
C
100
AcDbDictionary
281
     1
  3
A0
350
48
  3
A1
350
49
  3
A2
350
4A
  3
A3
350
4B
  3
A4
350
4C
  3
A5
350
4D
  3
A6
350
4E
  3
A7
350
4F
  3
A8
350
50
  3
A9
350
51
  3
B0
350
52
  3
B1
350
53
  3
B2
350
54
  3
B3
350
55
  3
B4
350
56
  3
B5
350
57
  3
B6
350
58
  3
B7
350
59
  3
B8
350
5A
  3
B9
350
5B
  3
C0
350
5C
  3
C1
350
5D
  3
C2
350
5E
  3
C3
350
5F
  3
C4
350
60
  3
C5
350
61
  3
C6
350
62
  3
C7
350
63
  3
C8
350
64
  3
C9
350
65
  3
D0
350
66
  3
D1
350
67
  3
D2
350
68
  0
XRECORD
  5
326
102
{ACAD_REACTORS
330
C
102
}
330
C
100
AcDbXrecord
280
     1
  1
DWGPROPS COOKIE
  2

  3

  4

  6

  7

  8
ch-ntl-rs-wscad
  9

300
=
301
=
302
=
303
=
304
=
305
=
306
=
307
=
308
=
309
=
 40
0.0
 41
2460206.612758634
 42
2460206.612766956
  1

 90
        0
  0
LAYOUT
  5
1E
102
{ACAD_REACTORS
330
1A
102
}
330
1A
100
AcDbPlotSettings
  1

  2
none_device
  4

  6

 40
0.0
 41
0.0
 42
0.0
 43
0.0
 44
0.0
 45
0.0
 46
0.0
 47
0.0
 48
0.0
 49
0.0
140
0.0
141
0.0
142
1.0
143
1.0
 70
   688
 72
     1
 73
     0
 74
     5
  7

 75
    16
147
1.0
148
0.0
149
0.0
100
AcDbLayout
  1
Layout1
 70
     1
 71
     1
 10
0.0
 20
0.0
 11
420.0
 21
297.0
 12
0.0
 22
0.0
 32
0.0
 14
1.0000000000E+20
 24
1.0000000000E+20
 34
1.0000000000E+20
 15
-1.0000000000E+20
 25
-1.0000000000E+20
 35
-1.0000000000E+20
146
0.0
 13
0.0
 23
0.0
 33
0.0
 16
1.0
 26
0.0
 36
0.0
 17
0.0
 27
1.0
 37
0.0
 76
     0
330
1B
  0
LAYOUT
  5
26
102
{ACAD_REACTORS
330
1A
102
}
330
1A
100
AcDbPlotSettings
  1

  2
none_device
  4

  6

 40
0.0
 41
0.0
 42
0.0
 43
0.0
 44
0.0
 45
0.0
 46
0.0
 47
0.0
 48
0.0
 49
0.0
140
0.0
141
0.0
142
1.0
143
1.0
 70
   688
 72
     1
 73
     0
 74
     5
  7

 75
    16
147
1.0
148
0.0
149
0.0
100
AcDbLayout
  1
Layout2
 70
     1
 71
     2
 10
0.0
 20
0.0
 11
0.0
 21
0.0
 12
0.0
 22
0.0
 32
0.0
 14
0.0
 24
0.0
 34
0.0
 15
0.0
 25
0.0
 35
0.0
146
0.0
 13
0.0
 23
0.0
 33
0.0
 16
1.0
 26
0.0
 36
0.0
 17
0.0
 27
1.0
 37
0.0
 76
     0
330
23
  0
LAYOUT
  5
22
102
{ACAD_REACTORS
330
1A
102
}
330
1A
100
AcDbPlotSettings
  1

  2
none_device
  4
Letter_(8.50_x_11.00_Inches)
  6

 40
6.35
 41
6.35
 42
6.35000508
 43
6.35000508
 44
215.9
 45
279.4
 46
0.0
 47
0.0
 48
0.0
 49
0.0
140
0.0
141
0.0
142
1.0
143
1.0
 70
  1712
 72
     1
 73
     0
 74
     0
  7

 75
     0
147
1.0
148
0.0
149
0.0
100
AcDbLayout
  1
Model
 70
     1
 71
     0
 10
0.0
 20
0.0
 11
420.0
 21
297.0
 12
0.0
 22
0.0
 32
0.0
 14
0.0
 24
0.0
 34
0.0
 15
420.0
 25
297.0
 35
0.0
146
0.0
 13
0.0
 23
0.0
 33
0.0
 16
1.0
 26
0.0
 36
0.0
 17
0.0
 27
1.0
 37
0.0
 76
     0
330
1F
331
29
  0
MLINESTYLE
  5
18
102
{ACAD_REACTORS
330
17
102
}
330
17
100
AcDbMlineStyle
  2
Standard
 70
     0
  3

 62
   256
 51
90.0
 52
90.0
 71
     2
 49
0.5
 62
   256
  6
BYLAYER
 49
-0.5
 62
   256
  6
BYLAYER
  0
ACDBPLACEHOLDER
  5
F
102
{ACAD_REACTORS
330
E
102
}
330
E
  0
SCALE
  5
48
102
{ACAD_REACTORS
330
47
102
}
330
47
100
AcDbScale
 70
     0
300
1:1
140
1.0
141
1.0
290
     1
  0
SCALE
  5
49
102
{ACAD_REACTORS
330
47
102
}
330
47
100
AcDbScale
 70
     0
300
1:2
140
1.0
141
2.0
290
     0
  0
SCALE
  5
4A
102
{ACAD_REACTORS
330
47
102
}
330
47
100
AcDbScale
 70
     0
300
1:4
140
1.0
141
4.0
290
     0
  0
SCALE
  5
4B
102
{ACAD_REACTORS
330
47
102
}
330
47
100
AcDbScale
 70
     0
300
1:5
140
1.0
141
5.0
290
     0
  0
SCALE
  5
4C
102
{ACAD_REACTORS
330
47
102
}
330
47
100
AcDbScale
 70
     0
300
1:8
140
1.0
141
8.0
290
     0
  0
SCALE
  5
4D
102
{ACAD_REACTORS
330
47
102
}
330
47
100
AcDbScale
 70
     0
300
1:10
140
1.0
141
10.0
290
     0
  0
SCALE
  5
4E
102
{ACAD_REACTORS
330
47
102
}
330
47
100
AcDbScale
 70
     0
300
1:16
140
1.0
141
16.0
290
     0
  0
SCALE
  5
4F
102
{ACAD_REACTORS
330
47
102
}
330
47
100
AcDbScale
 70
     0
300
1:20
140
1.0
141
20.0
290
     0
  0
SCALE
  5
50
102
{ACAD_REACTORS
330
47
102
}
330
47
100
AcDbScale
 70
     0
300
1:30
140
1.0
141
30.0
290
     0
  0
SCALE
  5
51
102
{ACAD_REACTORS
330
47
102
}
330
47
100
AcDbScale
 70
     0
300
1:40
140
1.0
141
40.0
290
     0
  0
SCALE
  5
52
102
{ACAD_REACTORS
330
47
102
}
330
47
100
AcDbScale
 70
     0
300
1:50
140
1.0
141
50.0
290
     0
  0
SCALE
  5
53
102
{ACAD_REACTORS
330
47
102
}
330
47
100
AcDbScale
 70
     0
300
1:100
140
1.0
141
100.0
290
     0
  0
SCALE
  5
54
102
{ACAD_REACTORS
330
47
102
}
330
47
100
AcDbScale
 70
     0
300
2:1
140
2.0
141
1.0
290
     0
  0
SCALE
  5
55
102
{ACAD_REACTORS
330
47
102
}
330
47
100
AcDbScale
 70
     0
300
4:1
140
4.0
141
1.0
290
     0
  0
SCALE
  5
56
102
{ACAD_REACTORS
330
47
102
}
330
47
100
AcDbScale
 70
     0
300
8:1
140
8.0
141
1.0
290
     0
  0
SCALE
  5
57
102
{ACAD_REACTORS
330
47
102
}
330
47
100
AcDbScale
 70
     0
300
10:1
140
10.0
141
1.0
290
     0
  0
SCALE
  5
58
102
{ACAD_REACTORS
330
47
102
}
330
47
100
AcDbScale
 70
     0
300
100:1
140
100.0
141
1.0
290
     0
  0
SCALE
  5
59
102
{ACAD_REACTORS
330
47
102
}
330
47
100
AcDbScale
 70
     0
300
1/128" = 1'-0"
140
0.0078125
141
12.0
290
     0
  0
SCALE
  5
5A
102
{ACAD_REACTORS
330
47
102
}
330
47
100
AcDbScale
 70
     0
300
1/64" = 1'-0"
140
0.015625
141
12.0
290
     0
  0
SCALE
  5
5B
102
{ACAD_REACTORS
330
47
102
}
330
47
100
AcDbScale
 70
     0
300
1/32" = 1'-0"
140
0.03125
141
12.0
290
     0
  0
SCALE
  5
5C
102
{ACAD_REACTORS
330
47
102
}
330
47
100
AcDbScale
 70
     0
300
1/16" = 1'-0"
140
0.0625
141
12.0
290
     0
  0
SCALE
  5
5D
102
{ACAD_REACTORS
330
47
102
}
330
47
100
AcDbScale
 70
     0
300
3/32" = 1'-0"
140
0.09375
141
12.0
290
     0
  0
SCALE
  5
5E
102
{ACAD_REACTORS
330
47
102
}
330
47
100
AcDbScale
 70
     0
300
1/8" = 1'-0"
140
0.125
141
12.0
290
     0
  0
SCALE
  5
5F
102
{ACAD_REACTORS
330
47
102
}
330
47
100
AcDbScale
 70
     0
300
3/16" = 1'-0"
140
0.1875
141
12.0
290
     0
  0
SCALE
  5
60
102
{ACAD_REACTORS
330
47
102
}
330
47
100
AcDbScale
 70
     0
300
1/4" = 1'-0"
140
0.25
141
12.0
290
     0
  0
SCALE
  5
61
102
{ACAD_REACTORS
330
47
102
}
330
47
100
AcDbScale
 70
     0
300
3/8" = 1'-0"
140
0.375
141
12.0
290
     0
  0
SCALE
  5
62
102
{ACAD_REACTORS
330
47
102
}
330
47
100
AcDbScale
 70
     0
300
1/2" = 1'-0"
140
0.5
141
12.0
290
     0
  0
SCALE
  5
63
102
{ACAD_REACTORS
330
47
102
}
330
47
100
AcDbScale
 70
     0
300
3/4" = 1'-0"
140
0.75
141
12.0
290
     0
  0
SCALE
  5
64
102
{ACAD_REACTORS
330
47
102
}
330
47
100
AcDbScale
 70
     0
300
1" = 1'-0"
140
1.0
141
12.0
290
     0
  0
SCALE
  5
65
102
{ACAD_REACTORS
330
47
102
}
330
47
100
AcDbScale
 70
     0
300
1-1/2" = 1'-0"
140
1.5
141
12.0
290
     0
  0
SCALE
  5
66
102
{ACAD_REACTORS
330
47
102
}
330
47
100
AcDbScale
 70
     0
300
3" = 1'-0"
140
3.0
141
12.0
290
     0
  0
SCALE
  5
67
102
{ACAD_REACTORS
330
47
102
}
330
47
100
AcDbScale
 70
     0
300
6" = 1'-0"
140
6.0
141
12.0
290
     0
  0
SCALE
  5
68
102
{ACAD_REACTORS
330
47
102
}
330
47
100
AcDbScale
 70
     0
300
1'-0" = 1'-0"
140
12.0
141
12.0
290
     0
  0
ENDSEC
  0
EOF
