  0
SECTION
  2
HEADER
  9
$ACADVER
  1
AC1015
  9
$ACADMAINTVER
 70
     6
  9
$DWGCODEPAGE
  3
ANSI_1252
  9
$INSBASE
 10
0.0
 20
0.0
 30
0.0
  9
$EXTMIN
 10
0.0
 20
0.0
 30
0.0
  9
$EXTMAX
 10
420.0
 20
297.0
 30
0.0
  9
$LIMMIN
 10
0.0
 20
0.0
  9
$LIMMAX
 10
420.0
 20
297.0
  9
$ORTHOMODE
 70
     0
  9
$REGENMODE
 70
     1
  9
$FILLMODE
 70
     1
  9
$QTEXTMODE
 70
     0
  9
$MIRRTEXT
 70
     1
  9
$LTSCALE
 40
1.0
  9
$ATTMODE
 70
     1
  9
$TEXTSIZE
 40
3.5
  9
$TRACEWID
 40
1.0
  9
$TEXTSTYLE
  7
Standard
  9
$CLAYER
  8
0
  9
$CELTYPE
  6
ByLayer
  9
$CECOLOR
 62
   256
  9
$CELTSCALE
 40
1.0
  9
$DISPSILH
 70
     0
  9
$DIMSCALE
 40
1.0
  9
$DIMASZ
 40
3.5
  9
$DIMEXO
 40
0.1
  9
$DIMDLI
 40
3.75
  9
$DIMRND
 40
0.0
  9
$DIMDLE
 40
0.0
  9
$DIMEXE
 40
1.0
  9
$DIMTP
 40
0.0
  9
$DIMTM
 40
0.0
  9
$DIMTXT
 40
3.5
  9
$DIMCEN
 40
2.5
  9
$DIMTSZ
 40
0.0
  9
$DIMTOL
 70
     0
  9
$DIMLIM
 70
     0
  9
$DIMTIH
 70
     1
  9
$DIMTOH
 70
     1
  9
$DIMSE1
 70
     0
  9
$DIMSE2
 70
     0
  9
$DIMTAD
 70
     1
  9
$DIMZIN
 70
     0
  9
$DIMBLK
  1

  9
$DIMASO
 70
     1
  9
$DIMSHO
 70
     1
  9
$DIMPOST
  1

  9
$DIMAPOST
  1

  9
$DIMALT
 70
     0
  9
$DIMALTD
 70
     3
  9
$DIMALTF
 40
0.0393700787
  9
$DIMLFAC
 40
1.0
  9
$DIMTOFL
 70
     1
  9
$DIMTVP
 40
0.0
  9
$DIMTIX
 70
     0
  9
$DIMSOXD
 70
     0
  9
$DIMSAH
 70
     0
  9
$DIMBLK1
  1

  9
$DIMBLK2
  1

  9
$DIMSTYLE
  2
ISO-25
  9
$DIMCLRD
 70
     0
  9
$DIMCLRE
 70
     0
  9
$DIMCLRT
 70
     0
  9
$DIMTFAC
 40
1.0
  9
$DIMGAP
 40
2.0
  9
$DIMJUST
 70
     0
  9
$DIMSD1
 70
     0
  9
$DIMSD2
 70
     0
  9
$DIMTOLJ
 70
     0
  9
$DIMTZIN
 70
     0
  9
$DIMALTZ
 70
     0
  9
$DIMALTTZ
 70
     0
  9
$DIMUPT
 70
     0
  9
$DIMDEC
 70
     2
  9
$DIMTDEC
 70
     3
  9
$DIMALTU
 70
     2
  9
$DIMALTTD
 70
     3
  9
$DIMTXSTY
  7
Standard
  9
$DIMAUNIT
 70
     0
  9
$DIMADEC
 70
     2
  9
$DIMALTRND
 40
0.0
  9
$DIMAZIN
 70
     0
  9
$DIMDSEP
 70
    44
  9
$DIMATFIT
 70
     3
  9
$DIMFRAC
 70
     0
  9
$DIMLDRBLK
  1

  9
$DIMLUNIT
 70
     2
  9
$DIMLWD
 70
    -2
  9
$DIMLWE
 70
    -2
  9
$DIMTMOVE
 70
     0
  9
$LUNITS
 70
     2
  9
$LUPREC
 70
     2
  9
$SKETCHINC
 40
1.0
  9
$FILLETRAD
 40
10.0
  9
$AUNITS
 70
     0
  9
$AUPREC
 70
     2
  9
$MENU
  1
.
  9
$ELEVATION
 40
0.0
  9
$PELEVATION
 40
0.0
  9
$THICKNESS
 40
0.0
  9
$LIMCHECK
 70
     0
  9
$CHAMFERA
 40
0.0
  9
$CHAMFERB
 40
0.0
  9
$CHAMFERC
 40
0.0
  9
$CHAMFERD
 40
0.0
  9
$SKPOLY
 70
     0
  9
$TDCREATE
 40
2460206.695971863
  9
$TDUCREATE
 40
2460206.61263853
  9
$TDUPDATE
 40
2460206.695979676
  9
$TDUUPDATE
 40
2460206.612646343
  9
$TDINDWG
 40
0.0000000116
  9
$TDUSRTIMER
 40
0.0000000116
  9
$USRTIMER
 70
     1
  9
$ANGBASE
 50
0.0
  9
$ANGDIR
 70
     0
  9
$PDMODE
 70
     0
  9
$PDSIZE
 40
-1.0
  9
$PLINEWID
 40
0.0
  9
$SPLFRAME
 70
     0
  9
$SPLINETYPE
 70
     6
  9
$SPLINESEGS
 70
     8
  9
$HANDSEED
  5
323
  9
$SURFTAB1
 70
     6
  9
$SURFTAB2
 70
     6
  9
$SURFTYPE
 70
     6
  9
$SURFU
 70
     6
  9
$SURFV
 70
     6
  9
$UCSBASE
  2

  9
$UCSNAME
  2

  9
$UCSORG
 10
0.0
 20
0.0
 30
0.0
  9
$UCSXDIR
 10
1.0
 20
0.0
 30
0.0
  9
$UCSYDIR
 10
0.0
 20
1.0
 30
0.0
  9
$UCSORTHOREF
  2

  9
$UCSORTHOVIEW
 70
     0
  9
$UCSORGTOP
 10
0.0
 20
0.0
 30
0.0
  9
$UCSORGBOTTOM
 10
0.0
 20
0.0
 30
0.0
  9
$UCSORGLEFT
 10
0.0
 20
0.0
 30
0.0
  9
$UCSORGRIGHT
 10
0.0
 20
0.0
 30
0.0
  9
$UCSORGFRONT
 10
0.0
 20
0.0
 30
0.0
  9
$UCSORGBACK
 10
0.0
 20
0.0
 30
0.0
  9
$PUCSBASE
  2

  9
$PUCSNAME
  2

  9
$PUCSORG
 10
0.0
 20
0.0
 30
0.0
  9
$PUCSXDIR
 10
1.0
 20
0.0
 30
0.0
  9
$PUCSYDIR
 10
0.0
 20
1.0
 30
0.0
  9
$PUCSORTHOREF
  2

  9
$PUCSORTHOVIEW
 70
     0
  9
$PUCSORGTOP
 10
0.0
 20
0.0
 30
0.0
  9
$PUCSORGBOTTOM
 10
0.0
 20
0.0
 30
0.0
  9
$PUCSORGLEFT
 10
0.0
 20
0.0
 30
0.0
  9
$PUCSORGRIGHT
 10
0.0
 20
0.0
 30
0.0
  9
$PUCSORGFRONT
 10
0.0
 20
0.0
 30
0.0
  9
$PUCSORGBACK
 10
0.0
 20
0.0
 30
0.0
  9
$USERI1
 70
     0
  9
$USERI2
 70
     0
  9
$USERI3
 70
     0
  9
$USERI4
 70
     0
  9
$USERI5
 70
     0
  9
$USERR1
 40
0.0
  9
$USERR2
 40
0.0
  9
$USERR3
 40
0.0
  9
$USERR4
 40
0.0
  9
$USERR5
 40
0.0
  9
$WORLDVIEW
 70
     1
  9
$SHADEDGE
 70
     3
  9
$SHADEDIF
 70
    70
  9
$TILEMODE
 70
     1
  9
$MAXACTVP
 70
    64
  9
$PINSBASE
 10
0.0
 20
0.0
 30
0.0
  9
$PLIMCHECK
 70
     0
  9
$PEXTMIN
 10
1.0000000000E+20
 20
1.0000000000E+20
 30
1.0000000000E+20
  9
$PEXTMAX
 10
-1.0000000000E+20
 20
-1.0000000000E+20
 30
-1.0000000000E+20
  9
$PLIMMIN
 10
0.0
 20
0.0
  9
$PLIMMAX
 10
420.0
 20
297.0
  9
$UNITMODE
 70
     0
  9
$VISRETAIN
 70
     1
  9
$PLINEGEN
 70
     0
  9
$PSLTSCALE
 70
     1
  9
$TREEDEPTH
 70
  3020
  9
$CMLSTYLE
  2
Standard
  9
$CMLJUST
 70
     0
  9
$CMLSCALE
 40
20.0
  9
$PROXYGRAPHICS
 70
     1
  9
$MEASUREMENT
 70
     1
  9
$CELWEIGHT
370
    -1
  9
$ENDCAPS
280
     0
  9
$JOINSTYLE
280
     0
  9
$LWDISPLAY
290
     1
  9
$INSUNITS
 70
     4
  9
$HYPERLINKBASE
  1

  9
$STYLESHEET
  1

  9
$XEDIT
290
     1
  9
$CEPSNTYPE
380
     0
  9
$PSTYLEMODE
290
     1
  9
$FINGERPRINTGUID
  2
{5875fe9c-5046-4841-a741-014e960ff87f}
  9
$VERSIONGUID
  2
{FAEB1C32-E019-11D5-929B-00C0DF256EC4}
  9
$EXTNAMES
290
     1
  9
$PSVPSCALE
 40
0.0
  9
$OLESTARTUP
290
     0
  0
ENDSEC
  0
SECTION
  2
CLASSES
  0
CLASS
  1
ACDBDICTIONARYWDFLT
  2
AcDbDictionaryWithDefault
  3
ObjectDBX Classes
 90
        0
280
     0
281
     0
  0
CLASS
  1
VISUALSTYLE
  2
AcDbVisualStyle
  3
ObjectDBX Classes
 90
     4095
280
     0
281
     0
  0
CLASS
  1
MATERIAL
  2
AcDbMaterial
  3
ObjectDBX Classes
 90
     1153
280
     0
281
     0
  0
CLASS
  1
SCALE
  2
AcDbScale
  3
ObjectDBX Classes
 90
     1153
280
     0
281
     0
  0
CLASS
  1
TABLESTYLE
  2
AcDbTableStyle
  3
ObjectDBX Classes
 90
     4095
280
     0
281
     0
  0
CLASS
  1
MLEADERSTYLE
  2
AcDbMLeaderStyle
  3
ACDB_MLEADERSTYLE_CLASS
 90
     4095
280
     0
281
     0
  0
CLASS
  1
SUN
  2
AcDbSun
  3
SCENEOE
 90
     1153
280
     0
281
     0
  0
CLASS
  1
ACDBPLACEHOLDER
  2
AcDbPlaceHolder
  3
ObjectDBX Classes
 90
        0
280
     0
281
     0
  0
CLASS
  1
LAYOUT
  2
AcDbLayout
  3
ObjectDBX Classes
 90
        0
280
     0
281
     0
  0
ENDSEC
  0
SECTION
  2
TABLES
  0
TABLE
  2
VPORT
  5
8
330
0
100
AcDbSymbolTable
 70
     1
  0
VPORT
  5
29
330
8
100
AcDbSymbolTableRecord
100
AcDbViewportTableRecord
  2
*Active
 70
     0
 10
0.0
 20
0.0
 11
1.0
 21
1.0
 12
210.0
 22
148.5
 13
0.0
 23
0.0
 14
10.0
 24
10.0
 15
10.0
 25
10.0
 16
0.0
 26
0.0
 36
1.0
 17
0.0
 27
0.0
 37
0.0
 40
297.0
 41
1.4141414141
 42
50.0
 43
0.0
 44
0.0
 50
0.0
 51
0.0
 71
     0
 72
  2000
 73
     1
 74
     3
 75
     0
 76
     0
 77
     0
 78
     0
281
     0
 65
     1
110
0.0
120
0.0
130
0.0
111
1.0
121
0.0
131
0.0
112
0.0
122
1.0
132
0.0
 79
     0
146
0.0
  0
ENDTAB
  0
TABLE
  2
LTYPE
  5
5
330
0
100
AcDbSymbolTable
 70
     6
  0
LTYPE
  5
14
330
5
100
AcDbSymbolTableRecord
100
AcDbLinetypeTableRecord
  2
ByBlock
 70
     0
  3

 72
    65
 73
     0
 40
0.0
  0
LTYPE
  5
15
330
5
100
AcDbSymbolTableRecord
100
AcDbLinetypeTableRecord
  2
ByLayer
 70
     0
  3

 72
    65
 73
     0
 40
0.0
  0
LTYPE
  5
16
330
5
100
AcDbSymbolTableRecord
100
AcDbLinetypeTableRecord
  2
Continuous
 70
     0
  3
Solid line
 72
    65
 73
     0
 40
0.0
  0
LTYPE
  5
6E
330
5
100
AcDbSymbolTableRecord
100
AcDbLinetypeTableRecord
  2
HIDDEN
 70
     0
  3
Hidden __ __ __ __ __ __ __ __ __ __ __ __ __ __
 72
    65
 73
     2
 40
1.905
 49
1.27
 74
     0
 49
-0.635
 74
     0
  0
LTYPE
  5
6F
330
5
100
AcDbSymbolTableRecord
100
AcDbLinetypeTableRecord
  2
PHANTOM
 70
     0
  3
Phantom ______  __  __  ______  __  __  ______
 72
    65
 73
     6
 40
12.7
 49
6.35
 74
     0
 49
-1.27
 74
     0
 49
1.27
 74
     0
 49
-1.27
 74
     0
 49
1.27
 74
     0
 49
-1.27
 74
     0
  0
LTYPE
  5
70
330
5
100
AcDbSymbolTableRecord
100
AcDbLinetypeTableRecord
  2
CENTER
 70
     0
  3
Center ____ _ ____ _ ____ _ ____ _ ____ _ ____
 72
    65
 73
     4
 40
10.16
 49
6.35
 74
     0
 49
-1.27
 74
     0
 49
1.27
 74
     0
 49
-1.27
 74
     0
  0
LTYPE
  5
71
330
5
100
AcDbSymbolTableRecord
100
AcDbLinetypeTableRecord
  2
CENTERX2
 70
     0
  3
Center (2x) ________  __  ________  __  _____
 72
    65
 73
     4
 40
20.32
 49
12.7
 74
     0
 49
-2.54
 74
     0
 49
2.54
 74
     0
 49
-2.54
 74
     0
  0
LTYPE
  5
72
330
5
100
AcDbSymbolTableRecord
100
AcDbLinetypeTableRecord
  2
DOT2
 70
     0
  3
Dot (.5x) ........................................
 72
    65
 73
     2
 40
0.635
 49
0.0
 74
     0
 49
-0.635
 74
     0
  0
ENDTAB
  0
TABLE
  2
LAYER
  5
2
330
0
100
AcDbSymbolTable
 70
     9
  0
LAYER
  5
10
330
2
100
AcDbSymbolTableRecord
100
AcDbLayerTableRecord
  2
0
 70
     0
 62
     7
  6
Continuous
370
    -3
390
F
  0
LAYER
  5
73
330
2
100
AcDbSymbolTableRecord
100
AcDbLayerTableRecord
  2
VORLAGE_TEXT
 70
     0
 62
     7
  6
Continuous
370
    -3
390
F
  0
LAYER
  5
74
330
2
100
AcDbSymbolTableRecord
100
AcDbLayerTableRecord
  2
VORLAGE_BEMASSUNG
 70
     0
 62
    -5
  6
Continuous
290
     0
370
    -3
390
F
  0
LAYER
  5
75
330
2
100
AcDbSymbolTableRecord
100
AcDbLayerTableRecord
  2
TEXT
 70
     0
 62
     7
  6
Continuous
370
    -3
390
F
  0
LAYER
  5
76
330
2
100
AcDbSymbolTableRecord
100
AcDbLayerTableRecord
  2
LINIEN-DICK
 70
     0
 62
     7
  6
Continuous
370
    35
390
F
  0
LAYER
  5
77
330
2
100
AcDbSymbolTableRecord
100
AcDbLayerTableRecord
  2
LINIEN-NORMAL
 70
     0
 62
     7
  6
Continuous
370
    25
390
F
  0
LAYER
  5
78
330
2
100
AcDbSymbolTableRecord
100
AcDbLayerTableRecord
  2
LINIEN-DÜNN
 70
     0
 62
     7
  6
Continuous
370
    -3
390
F
  0
LAYER
  5
79
330
2
100
AcDbSymbolTableRecord
100
AcDbLayerTableRecord
  2
TEXT-DEUTSCH
 70
     0
 62
     7
  6
Continuous
370
    -3
390
F
  0
LAYER
  5
7A
330
2
100
AcDbSymbolTableRecord
100
AcDbLayerTableRecord
  2
TEXT-ENGLISCH
 70
     0
 62
    -7
  6
Continuous
290
     0
370
    -3
390
F
  0
ENDTAB
  0
TABLE
  2
STYLE
  5
3
330
0
100
AcDbSymbolTable
 70
     3
  0
STYLE
  5
11
330
3
100
AcDbSymbolTableRecord
100
AcDbTextStyleTableRecord
  2
Standard
 70
     0
 40
0.0
 41
1.0
 50
0.0
 71
     0
 42
3.5
  3
txt
  4

  0
STYLE
  5
F1
330
3
100
AcDbSymbolTableRecord
100
AcDbTextStyleTableRecord
  2
SLDTEXTSTYLE0
 70
     0
 40
0.0
 41
0.605
 50
0.0
 71
     0
 42
3.5
  3
TXT
  4

  0
STYLE
  5
19E
330
3
100
AcDbSymbolTableRecord
100
AcDbTextStyleTableRecord
  2
SLDTEXTSTYLE1
 70
     0
 40
0.0
 41
0.563
 50
0.0
 71
     0
 42
3.5
  3
TXT
  4

  0
ENDTAB
  0
TABLE
  2
VIEW
  5
6
330
0
100
AcDbSymbolTable
 70
     0
  0
ENDTAB
  0
TABLE
  2
UCS
  5
7
330
0
100
AcDbSymbolTable
 70
     0
  0
ENDTAB
  0
TABLE
  2
APPID
  5
9
330
0
100
AcDbSymbolTable
 70
     1
  0
APPID
  5
12
330
9
100
AcDbSymbolTableRecord
100
AcDbRegAppTableRecord
  2
ACAD
 70
     0
  0
ENDTAB
  0
TABLE
  2
DIMSTYLE
  5
A
330
0
100
AcDbSymbolTable
 70
     4
100
AcDbDimStyleTable
  0
DIMSTYLE
105
27
330
A
100
AcDbSymbolTableRecord
100
AcDbDimStyleTableRecord
  2
ISO-25
 70
     0
 41
2.5
 42
0.625
 43
3.75
 44
1.25
 73
     0
 74
     0
 77
     1
 78
     8
140
2.5
141
2.5
143
0.0393700787
147
0.625
171
     3
172
     1
178
     0
271
     2
272
     2
274
     3
278
    44
283
     0
284
     8
340
11
  0
DIMSTYLE
105
1B3
102
{ACAD_REACTORS
330
1B2
102
}
330
A
100
AcDbSymbolTableRecord
100
AcDbDimStyleTableRecord
  2
SLDDIMSTYLE0
 70
     0
 41
3.5
 44
0.0
 45
0.000000001
 73
     0
 74
     0
 77
     1
 78
    12
 79
     3
140
3.5
141
0.0
147
0.875
173
     1
178
     0
271
     1
272
     3
276
     2
284
    12
340
F1
  0
DIMSTYLE
105
1BC
102
{ACAD_REACTORS
330
1BB
102
}
330
A
100
AcDbSymbolTableRecord
100
AcDbDimStyleTableRecord
  2
SLDDIMSTYLE1
 70
     0
 41
3.5
 44
0.0
 45
0.000000001
 73
     0
 74
     0
 77
     1
 78
    12
 79
     3
140
3.5
141
0.0
147
0.875
172
     1
173
     1
178
     0
271
     2
272
     3
276
     2
284
    12
340
F1
  0
DIMSTYLE
105
29C
102
{ACAD_REACTORS
330
29B
102
}
330
A
100
AcDbSymbolTableRecord
100
AcDbDimStyleTableRecord
  2
SLDDIMSTYLE2
 70
     0
 41
3.5
 44
0.0
 45
0.000000001
 73
     0
 74
     0
 77
     1
 78
    12
 79
     3
140
3.5
147
0.875
173
     1
178
     0
271
     2
272
     3
276
     2
284
    12
340
F1
  0
ENDTAB
  0
TABLE
  2
BLOCK_RECORD
  5
1
330
0
100
AcDbSymbolTable
 70
    10
  0
BLOCK_RECORD
  5
1F
330
1
100
AcDbSymbolTableRecord
100
AcDbBlockTableRecord
  2
*Model_Space
340
22
  0
BLOCK_RECORD
  5
1B
330
1
100
AcDbSymbolTableRecord
100
AcDbBlockTableRecord
  2
*Paper_Space
340
1E
  0
BLOCK_RECORD
  5
23
330
1
100
AcDbSymbolTableRecord
100
AcDbBlockTableRecord
  2
*Paper_Space0
340
26
  0
BLOCK_RECORD
  5
7B
330
1
100
AcDbSymbolTableRecord
100
AcDbBlockTableRecord
  2
ACO-Logo
340
0
102
{BLKREFS
331
151
102
}
  0
BLOCK_RECORD
  5
EE
330
1
100
AcDbSymbolTableRecord
100
AcDbBlockTableRecord
  2
SW_NOTE_0
340
0
102
{BLKREFS
331
F3
102
}
  0
BLOCK_RECORD
  5
F4
330
1
100
AcDbSymbolTableRecord
100
AcDbBlockTableRecord
  2
SW_NOTE_0_1
340
0
102
{BLKREFS
331
F8
102
}
  0
BLOCK_RECORD
  5
F9
330
1
100
AcDbSymbolTableRecord
100
AcDbBlockTableRecord
  2
SW_NOTE_0_2
340
0
102
{BLKREFS
331
100
102
}
  0
BLOCK_RECORD
  5
178
330
1
100
AcDbSymbolTableRecord
100
AcDbBlockTableRecord
  2
SW_NOTE_0_3
340
0
102
{BLKREFS
331
180
102
}
  0
BLOCK_RECORD
  5
1B4
330
1
100
AcDbSymbolTableRecord
100
AcDbBlockTableRecord
  2
_D
340
0
  0
BLOCK_RECORD
  5
1BD
330
1
100
AcDbSymbolTableRecord
100
AcDbBlockTableRecord
  2
_D_1
340
0
  0
BLOCK_RECORD
  5
1C6
330
1
100
AcDbSymbolTableRecord
100
AcDbBlockTableRecord
  2
SW_CENTERMARKSYMBOL_0
340
0
102
{BLKREFS
331
1D1
102
}
  0
BLOCK_RECORD
  5
29D
330
1
100
AcDbSymbolTableRecord
100
AcDbBlockTableRecord
  2
_D_2
340
0
  0
ENDTAB
  0
ENDSEC
  0
SECTION
  2
BLOCKS
  0
BLOCK
  5
20
330
1F
100
AcDbEntity
  8
0
100
AcDbBlockBegin
  2
*Model_Space
 70
     0
 10
0.0
 20
0.0
 30
0.0
  3
*Model_Space
  1

  0
ENDBLK
  5
21
330
1F
100
AcDbEntity
  8
0
100
AcDbBlockEnd
  0
BLOCK
  5
1C
330
1B
100
AcDbEntity
 67
     1
  8
0
100
AcDbBlockBegin
  2
*Paper_Space
 70
     0
 10
0.0
 20
0.0
 30
0.0
  3
*Paper_Space
  1

  0
ENDBLK
  5
1D
330
1B
100
AcDbEntity
 67
     1
  8
0
100
AcDbBlockEnd
  0
BLOCK
  5
24
330
23
100
AcDbEntity
  8
0
100
AcDbBlockBegin
  2
*Paper_Space0
 70
     0
 10
0.0
 20
0.0
 30
0.0
  3
*Paper_Space0
  1

  0
ENDBLK
  5
25
330
23
100
AcDbEntity
  8
0
100
AcDbBlockEnd
  0
BLOCK
  5
7C
330
7B
100
AcDbEntity
  8
0
100
AcDbBlockBegin
  2
ACO-Logo
 70
     0
 10
0.0
 20
0.0
 30
0.0
  3
ACO-Logo
  1

  0
ARC
  5
7E
330
7B
100
AcDbEntity
  8
0
  6
Continuous
 62
   179
370
    18
100
AcDbCircle
 10
80.3853261169
 20
4.9940995715
 30
0.0
 40
0.3000000000000441
100
AcDbArc
 50
181.9349323096
 51
274.6062978506
  0
ARC
  5
7F
330
7B
100
AcDbEntity
  8
0
  6
Continuous
 62
   179
370
    18
100
AcDbCircle
 10
81.2359083165
 20
2.1946665956
 30
0.0
 40
1.000000000000021
100
AcDbArc
 50
221.4087409628
 51
276.0561297228
  0
ARC
  5
80
330
7B
100
AcDbEntity
  8
0
  6
Continuous
 62
   179
370
    18
100
AcDbCircle
 10
79.1360017163
 20
3.654242048
 30
0.0
 40
0.300000000000004
100
AcDbArc
 50
181.2730300201
 51
274.4996077095
  0
ARC
  5
81
330
7B
100
AcDbEntity
  8
0
  6
Continuous
 62
   179
370
    18
100
AcDbCircle
 10
78.7699033484
 20
3.2873137407
 30
0.0
 40
0.4000000000000358
100
AcDbArc
 50
221.0090869016
 51
274.5606296317
  0
ARC
  5
82
330
7B
100
AcDbEntity
  8
0
  6
Continuous
 62
   179
370
    18
100
AcDbCircle
 10
91.2333953062
 20
4.6062442307
 30
0.0
 40
0.3000000000000493
100
AcDbArc
 50
274.4996077095
 51
3.7249371334
  0
ARC
  5
83
330
7B
100
AcDbEntity
  8
0
  6
Continuous
 62
   179
370
    18
100
AcDbCircle
 10
81.5287571045
 20
9.7648973508
 30
0.0
 40
1.00000000000002
100
AcDbArc
 50
93.1134387481
 51
181.9414863909
  0
ARC
  5
84
330
7B
100
AcDbEntity
  8
0
  6
Continuous
 62
   179
370
    18
100
AcDbCircle
 10
81.6051675115
 20
7.5107903456
 30
0.0
 40
1.0
100
AcDbArc
 50
181.9414863909
 51
274.398705355
  0
ARC
  5
85
330
7B
100
AcDbEntity
  8
0
  6
Continuous
 62
   179
370
    18
100
AcDbCircle
 10
80.1506905656
 20
11.9393118923
 30
0.0
 40
0.300000000000045
100
AcDbArc
 50
93.0418421566
 51
181.9349323096
  0
ARC
  5
86
330
7B
100
AcDbEntity
  8
0
  6
Continuous
 62
   179
370
    18
100
AcDbCircle
 10
78.1879722102
 20
12.3499352608
 30
0.0
 40
0.7999999999953393
100
AcDbArc
 50
92.6995697565
 51
148.2554209065
  0
ARC
  5
87
330
7B
100
AcDbEntity
  8
0
  6
Continuous
 62
   179
370
    18
100
AcDbCircle
 10
78.930862229
 20
12.8855189761
 30
0.0
 40
0.3000000000000031
100
AcDbArc
 50
92.6995697565
 51
181.2730300201
  0
ARC
  5
88
330
7B
100
AcDbEntity
  8
0
  6
Continuous
 62
   179
370
    18
100
AcDbCircle
 10
82.327743407
 20
9.8083568568
 30
0.0
 40
1.000000000000034
100
AcDbArc
 50
1.9414863909
 51
93.1134387481
  0
ARC
  5
89
330
7B
100
AcDbEntity
  8
0
  6
Continuous
 62
   179
370
    18
100
AcDbCircle
 10
81.5287571045
 20
9.7648973508
 30
0.0
 40
0.3625000000000009
100
AcDbArc
 50
93.1134387481
 51
181.9414863909
  0
ARC
  5
8A
330
7B
100
AcDbEntity
  8
0
  6
Continuous
 62
   179
370
    18
100
AcDbCircle
 10
82.327743407
 20
9.8083568568
 30
0.0
 40
0.3625000000000146
100
AcDbArc
 50
1.9414863909
 51
93.1134387481
  0
ARC
  5
8B
330
7B
100
AcDbEntity
  8
0
  6
Continuous
 62
   179
370
    18
100
AcDbCircle
 10
82.4035451983
 20
7.5722040138
 30
0.0
 40
1.000000000000008
100
AcDbArc
 50
274.398705355
 51
1.9414863909
  0
ARC
  5
8C
330
7B
100
AcDbEntity
  8
0
  6
Continuous
 62
   179
370
    18
100
AcDbCircle
 10
82.4035451983
 20
7.5722040138
 30
0.0
 40
0.3625000000000068
100
AcDbArc
 50
274.398705355
 51
1.9414863909
  0
ARC
  5
8D
330
7B
100
AcDbEntity
  8
0
  6
Continuous
 62
   179
370
    18
100
AcDbCircle
 10
81.6051675115
 20
7.5107903456
 30
0.0
 40
0.3625000000000111
100
AcDbArc
 50
181.9414863909
 51
274.398705355
  0
ARC
  5
8E
330
7B
100
AcDbEntity
  8
0
  6
Continuous
 62
   179
370
    18
100
AcDbCircle
 10
88.825822761
 20
8.0662148274
 30
0.0
 40
0.9999999999999997
100
AcDbArc
 50
274.398705355
 51
2.6541955134
  0
ARC
  5
8F
330
7B
100
AcDbEntity
  8
0
  6
Continuous
 62
   179
370
    18
100
AcDbCircle
 10
90.1578295581
 20
5.7814576687
 30
0.0
 40
0.3000000000000043
100
AcDbArc
 50
274.6062978507
 51
2.5147526475
  0
ARC
  5
90
330
7B
100
AcDbEntity
  8
0
  6
Continuous
 62
   179
370
    18
100
AcDbCircle
 10
88.825822761
 20
8.0662148274
 30
0.0
 40
0.3625000000000083
100
AcDbArc
 50
274.398705355
 51
2.6541955134
  0
ARC
  5
91
330
7B
100
AcDbEntity
  8
0
  6
Continuous
 62
   179
370
    18
100
AcDbCircle
 10
88.728529747
 20
10.16496413
 30
0.0
 40
1.000000000000001
100
AcDbArc
 50
2.6541955134
 51
93.1134387481
  0
ARC
  5
92
330
7B
100
AcDbEntity
  8
0
  6
Continuous
 62
   179
370
    18
100
AcDbCircle
 10
88.728529747
 20
10.16496413
 30
0.0
 40
0.3625000000000085
100
AcDbArc
 50
2.6541955134
 51
93.1134387481
  0
ARC
  5
93
330
7B
100
AcDbEntity
  8
0
  6
Continuous
 62
   179
370
    18
100
AcDbCircle
 10
89.8647121341
 20
12.455515937
 30
0.0
 40
0.2999999999999984
100
AcDbArc
 50
2.5147526475
 51
93.0418421566
  0
ARC
  5
94
330
7B
100
AcDbEntity
  8
0
  6
Continuous
 62
   179
370
    18
100
AcDbCircle
 10
90.6583795404
 20
13.4384863935
 30
0.0
 40
0.2999999999999911
100
AcDbArc
 50
3.7249371334
 51
92.6995697565
  0
CIRCLE
  5
95
330
7B
100
AcDbEntity
  8
0
  6
Continuous
 62
   179
370
    18
100
AcDbCircle
 10
15.7233972286
 20
6.4054930194
 30
0.0
 40
1.579500000000014
  0
CIRCLE
  5
96
330
7B
100
AcDbEntity
  8
0
  6
Continuous
 62
   179
370
    18
100
AcDbCircle
 10
15.7233972286
 20
6.4054930194
 30
0.0
 40
2.281499999999994
  0
ARC
  5
97
330
7B
100
AcDbEntity
  8
0
  6
Continuous
 62
   179
370
    18
100
AcDbCircle
 10
89.7681336026
 20
2.3106616691
 30
0.0
 40
0.098384530246548
100
AcDbArc
 50
332.3802627259
 51
4.9765441602
  0
ARC
  5
98
330
7B
100
AcDbEntity
  8
0
  6
Continuous
 62
   179
370
    18
100
AcDbCircle
 10
89.6886560089
 20
2.3522464185
 30
0.0
 40
0.1880839130754018
100
AcDbArc
 50
303.690067526
 51
332.3802627258
  0
ARC
  5
99
330
7B
100
AcDbEntity
  8
0
  6
Continuous
 62
   179
370
    18
100
AcDbCircle
 10
89.4849700869
 20
2.6577753016
 30
0.0
 40
0.5552839311631531
100
AcDbArc
 50
287.108652213
 51
303.690067526
  0
ARC
  5
9A
330
7B
100
AcDbEntity
  8
0
  6
Continuous
 62
   179
370
    18
100
AcDbCircle
 10
88.0513010646
 20
7.3154864882
 30
0.0
 40
5.428648309393203
100
AcDbArc
 50
285.2551187031
 51
287.108652213
  0
ARC
  5
9B
330
7B
100
AcDbEntity
  8
0
  6
Continuous
 62
   179
370
    18
100
AcDbCircle
 10
89.1317168954
 20
3.3539617753
 30
0.0
 40
1.322436378825653
100
AcDbArc
 50
281.4991866428
 51
285.255118703
  0
ARC
  5
9C
330
7B
100
AcDbEntity
  8
0
  6
Continuous
 62
   179
370
    18
100
AcDbCircle
 10
89.3198255509
 20
2.4293110075
 30
0.0
 40
0.3788454141584939
100
AcDbArc
 50
279.1917900003
 51
281.499186643
  0
ARC
  5
9D
330
7B
100
AcDbEntity
  8
0
  6
Continuous
 62
   179
370
    18
100
AcDbCircle
 10
89.0487250788
 20
4.1046569124
 30
0.0
 40
2.07598399629105
100
AcDbArc
 50
277.7634675038
 51
279.1917900002
  0
ARC
  5
9E
330
7B
100
AcDbEntity
  8
0
  6
Continuous
 62
   179
370
    18
100
AcDbCircle
 10
9.2588909915
 20
6.4054930194
 30
0.0
 40
1.579500000000074
100
AcDbArc
 50
31.0558004991
 51
330.0
  0
ARC
  5
9F
330
7B
100
AcDbEntity
  8
0
  6
Continuous
 62
   179
370
    18
100
AcDbCircle
 10
9.2588909915
 20
6.4054930194
 30
0.0
 40
2.281500000000107
100
AcDbArc
 50
30.7309172659
 51
330.0
  0
ARC
  5
A0
330
7B
100
AcDbEntity
  8
0
  6
Continuous
 62
   179
370
    18
100
AcDbCircle
 10
6.1288847544
 20
4.0685261312
 30
0.0
 40
4.914000000000307
100
AcDbArc
 50
172.3058370354
 51
179.7113029221
  0
ARC
  5
A1
330
7B
100
AcDbEntity
  8
0
  6
Continuous
 62
   179
370
    18
100
AcDbCircle
 10
-0.5401152456
 20
4.0685261312
 30
0.0
 40
4.91400000000019
100
AcDbArc
 50
0.2886970779
 51
7.6941629646
  0
ARC
  5
A2
330
7B
100
AcDbEntity
  8
0
  6
Continuous
 62
   179
370
    18
100
AcDbCircle
 10
-0.5401152456
 20
4.0685261312
 30
0.0
 40
5.616000000000127
100
AcDbArc
 50
0.2526096926
 51
53.5764263577
  0
ARC
  5
A3
330
7B
100
AcDbEntity
  8
0
  6
Continuous
 62
   179
370
    18
100
AcDbCircle
 10
6.1288847544
 20
4.0685261312
 30
0.0
 40
5.61600000000074
100
AcDbArc
 50
126.4235736423
 51
179.7473903073
  0
ARC
  5
A4
330
7B
100
AcDbEntity
  8
0
  6
Continuous
 62
   179
370
    18
100
AcDbCircle
 10
-0.5401152456
 20
4.0685261312
 30
0.0
 40
4.914000000000161
100
AcDbArc
 50
16.0658750272
 51
47.2678899574
  0
ARC
  5
A5
330
7B
100
AcDbEntity
  8
0
  6
Continuous
 62
   179
370
    18
100
AcDbCircle
 10
6.1288847544
 20
4.0685261312
 30
0.0
 40
4.914000000000584
100
AcDbArc
 50
132.7321100426
 51
163.9341249728
  0
LINE
  5
A6
330
7B
100
AcDbEntity
  8
0
  6
Continuous
 62
   179
370
    18
100
AcDbLine
 10
78.8017089389
 20
2.8885802402
 30
0.0
 11
90.7982178739
 21
3.8455002136
 31
0.0
  0
LINE
  5
A7
330
7B
100
AcDbEntity
  8
0
  6
Continuous
 62
   179
370
    18
100
AcDbLine
 10
76.6545490427
 20
5.8693097374
 30
0.0
 11
78.0344191726
 21
3.5235305166
 31
0.0
  0
LINE
  5
A8
330
7B
100
AcDbEntity
  8
0
  6
Continuous
 62
   179
370
    18
100
AcDbLine
 10
91.5327615373
 20
4.6257342197
 30
0.0
 11
90.9577457715
 21
13.4579763825
 31
0.0
  0
LINE
  5
A9
330
7B
100
AcDbEntity
  8
0
  6
Continuous
 62
   179
370
    18
100
AcDbLine
 10
78.6309362756
 20
12.8788539549
 30
0.0
 11
78.8360757629
 21
3.6475770268
 31
0.0
  0
LINE
  5
AA
330
7B
100
AcDbEntity
  8
0
  6
Continuous
 62
   179
370
    18
100
AcDbLine
 10
80.4094186633
 20
4.6950685544
 30
0.0
 11
90.1819221045
 21
5.4824266516
 31
0.0
  0
LINE
  5
AB
330
7B
100
AcDbEntity
  8
0
  6
Continuous
 62
   179
370
    18
100
AcDbLine
 10
79.1595373973
 20
3.3551666867
 30
0.0
 11
91.2569309872
 21
4.3071688694
 31
0.0
  0
LINE
  5
AC
330
7B
100
AcDbEntity
  8
0
  6
Continuous
 62
   179
370
    18
100
AcDbLine
 10
79.2585043218
 20
2.925017226
 30
0.0
 11
80.4858981444
 21
1.533240302
 31
0.0
  0
LINE
  5
AD
330
7B
100
AcDbEntity
  8
0
  6
Continuous
 62
   179
370
    18
100
AcDbLine
 10
78.0344191726
 20
3.5235305166
 30
0.0
 11
78.3638740472
 21
3.1446574108
 31
0.0
  0
LINE
  5
AE
330
7B
100
AcDbEntity
  8
0
  6
Continuous
 62
   179
370
    18
100
AcDbLine
 10
78.3638740472
 20
3.1446574108
 30
0.0
 11
78.4680611395
 21
3.0248422547
 31
0.0
  0
LINE
  5
AF
330
7B
100
AcDbEntity
  8
0
  6
Continuous
 62
   179
370
    18
100
AcDbLine
 10
81.3414110113
 20
1.2002475785
 30
0.0
 11
89.3291569519
 21
2.0477010263
 31
0.0
  0
LINE
  5
B0
330
7B
100
AcDbEntity
  8
0
  6
Continuous
 62
   179
370
    18
100
AcDbLine
 10
89.8661472522
 20
2.5197759309
 30
0.0
 11
89.8661472522
 21
2.3090867337
 31
0.0
  0
LINE
  5
B1
330
7B
100
AcDbEntity
  8
0
  6
Continuous
 62
   179
370
    18
100
AcDbLine
 10
88.676842368
 20
3.6762854359
 30
0.0
 11
89.6713239345
 21
2.7875997807
 31
0.0
  0
LINE
  5
B2
330
7B
100
AcDbEntity
  8
0
  6
Continuous
 62
   179
370
    18
100
AcDbLine
 10
89.6713239345
 20
2.7875997807
 30
0.0
 11
89.7459749087
 21
2.7242700694
 31
0.0
  0
LINE
  5
B3
330
7B
100
AcDbEntity
  8
0
  6
Continuous
 62
   179
370
    18
100
AcDbLine
 10
90.7982178739
 20
3.8455002136
 30
0.0
 11
91.3961615969
 21
4.3514525945
 31
0.0
  0
LINE
  5
B4
330
7B
100
AcDbEntity
  8
0
  6
Continuous
 62
   179
370
    18
100
AcDbLine
 10
90.6442498554
 20
13.7381534621
 30
0.0
 11
78.1502930503
 21
13.1490474438
 31
0.0
  0
LINE
  5
B5
330
7B
100
AcDbEntity
  8
0
  6
Continuous
 62
   179
370
    18
100
AcDbLine
 10
80.1347709981
 20
12.2388892068
 30
0.0
 11
89.8487925667
 21
12.7550932515
 31
0.0
  0
LINE
  5
B6
330
7B
100
AcDbEntity
  8
0
  6
Continuous
 62
   179
370
    18
100
AcDbLine
 10
76.4935641943
 20
11.7567556248
 30
0.0
 11
76.6545490427
 21
5.8693097374
 31
0.0
  0
LINE
  5
B7
330
7B
100
AcDbEntity
  8
0
  6
Continuous
 62
   179
370
    18
100
AcDbLine
 10
79.8508616208
 20
11.929182536
 30
0.0
 11
80.0854971721
 21
4.9839702153
 31
0.0
  0
LINE
  5
B8
330
7B
100
AcDbEntity
  8
0
  6
Continuous
 62
   179
370
    18
100
AcDbLine
 10
80.5293311574
 20
9.7310185051
 30
0.0
 11
80.6057415643
 21
7.4769115
 31
0.0
  0
LINE
  5
B9
330
7B
100
AcDbEntity
  8
0
  6
Continuous
 62
   179
370
    18
100
AcDbLine
 10
77.507650604
 20
12.7708420346
 30
0.0
 11
76.4935641943
 21
11.7567556248
 31
0.0
  0
LINE
  5
BA
330
7B
100
AcDbEntity
  8
0
  6
Continuous
 62
   179
370
    18
100
AcDbLine
 10
86.8848195129
 20
11.0661568594
 30
0.0
 11
88.6742167283
 21
11.1634880887
 31
0.0
  0
LINE
  5
BB
330
7B
100
AcDbEntity
  8
0
  6
Continuous
 62
   179
370
    18
100
AcDbLine
 10
87.0766213517
 20
6.9287171941
 30
0.0
 11
88.90708891
 21
7.0695223909
 31
0.0
  0
LINE
  5
BC
330
7B
100
AcDbEntity
  8
0
  6
Continuous
 62
   179
370
    18
100
AcDbLine
 10
87.6830038473
 20
7.6147347768
 30
0.0
 11
88.8536252418
 21
7.7047825764
 31
0.0
  0
LINE
  5
BD
330
7B
100
AcDbEntity
  8
0
  6
Continuous
 62
   179
370
    18
100
AcDbLine
 10
87.5509212094
 20
10.4639459651
 30
0.0
 11
88.7088412777
 21
10.5269290651
 31
0.0
  0
LINE
  5
BE
330
7B
100
AcDbEntity
  8
0
  6
Continuous
 62
   179
370
    18
100
AcDbLine
 10
87.0766218384
 20
6.9287066941
 30
0.0
 11
86.8848195129
 21
11.0661568594
 31
0.0
  0
LINE
  5
BF
330
7B
100
AcDbEntity
  8
0
  6
Continuous
 62
   179
370
    18
100
AcDbLine
 10
83.7004598825
 20
6.6667911093
 30
0.0
 11
84.5054929504
 21
10.9267193262
 31
0.0
  0
LINE
  5
C0
330
7B
100
AcDbEntity
  8
0
  6
Continuous
 62
   179
370
    18
100
AcDbLine
 10
85.3543248406
 20
10.9728900984
 30
0.0
 11
86.4940946704
 21
6.8816860929
 31
0.0
  0
LINE
  5
C1
330
7B
100
AcDbEntity
  8
0
  6
Continuous
 62
   179
370
    18
100
AcDbLine
 10
84.9728575427
 20
9.9667192298
 30
0.0
 11
85.4540299774
 21
8.2395506903
 31
0.0
  0
LINE
  5
C2
330
7B
100
AcDbEntity
  8
0
  6
Continuous
 62
   179
370
    18
100
AcDbLine
 10
84.6363094629
 20
8.1858350416
 30
0.0
 11
84.9728575427
 21
9.9667192298
 31
0.0
  0
LINE
  5
C3
330
7B
100
AcDbEntity
  8
0
  6
Continuous
 62
   179
370
    18
100
AcDbLine
 10
87.6830038473
 20
7.6147347768
 30
0.0
 11
87.5509212094
 21
10.4639459651
 31
0.0
  0
LINE
  5
C4
330
7B
100
AcDbEntity
  8
0
  6
Continuous
 62
   179
370
    18
100
AcDbLine
 10
84.6363094629
 20
8.1858350416
 30
0.0
 11
85.4540299774
 21
8.2395506903
 31
0.0
  0
LINE
  5
C5
330
7B
100
AcDbEntity
  8
0
  6
Continuous
 62
   179
370
    18
100
AcDbLine
 10
84.5140586807
 20
7.5389304886
 30
0.0
 11
85.6288154243
 21
7.6121582976
 31
0.0
  0
LINE
  5
C6
330
7B
100
AcDbEntity
  8
0
  6
Continuous
 62
   179
370
    18
100
AcDbLine
 10
84.3588137958
 20
6.717433718
 30
0.0
 11
84.5140586807
 21
7.5389304886
 31
0.0
  0
LINE
  5
C7
330
7B
100
AcDbEntity
  8
0
  6
Continuous
 62
   179
370
    18
100
AcDbLine
 10
81.6818640104
 20
6.5137358601
 30
0.0
 11
82.4802416972
 21
6.5751495283
 31
0.0
  0
LINE
  5
C8
330
7B
100
AcDbEntity
  8
0
  6
Continuous
 62
   179
370
    18
100
AcDbLine
 10
81.6329699923
 20
7.1493580946
 30
0.0
 11
82.4313476791
 21
7.2107717628
 31
0.0
  0
LINE
  5
C9
330
7B
100
AcDbEntity
  8
0
  6
Continuous
 62
   179
370
    18
100
AcDbLine
 10
83.7004598825
 20
6.6667911093
 30
0.0
 11
84.3588137958
 21
6.717433718
 31
0.0
  0
LINE
  5
CA
330
7B
100
AcDbEntity
  8
0
  6
Continuous
 62
   179
370
    18
100
AcDbLine
 10
82.7059483815
 20
9.3512024135
 30
0.0
 11
83.3423973297
 21
9.3930104243
 31
0.0
  0
LINE
  5
CB
330
7B
100
AcDbEntity
  8
0
  6
Continuous
 62
   179
370
    18
100
AcDbLine
 10
82.7491656358
 20
8.0762934118
 30
0.0
 11
83.385614584
 21
8.1181014226
 31
0.0
  0
LINE
  5
CC
330
7B
100
AcDbEntity
  8
0
  6
Continuous
 62
   179
370
    18
100
AcDbLine
 10
81.1664651987
 20
9.7526162692
 30
0.0
 11
81.2428756056
 21
7.4985092641
 31
0.0
  0
LINE
  5
CD
330
7B
100
AcDbEntity
  8
0
  6
Continuous
 62
   179
370
    18
100
AcDbLine
 10
82.6900353128
 20
9.8206379383
 30
0.0
 11
82.7052632884
 21
9.3714126602
 31
0.0
  0
LINE
  5
CE
330
7B
100
AcDbEntity
  8
0
  6
Continuous
 62
   179
370
    18
100
AcDbLine
 10
82.7491656358
 20
8.0762934118
 30
0.0
 11
82.7658371041
 21
7.5844850954
 31
0.0
  0
LINE
  5
CF
330
7B
100
AcDbEntity
  8
0
  6
Continuous
 62
   179
370
    18
100
AcDbLine
 10
83.3271693541
 20
9.8422357024
 30
0.0
 11
83.3423973297
 21
9.3930104243
 31
0.0
  0
LINE
  5
D0
330
7B
100
AcDbEntity
  8
0
  6
Continuous
 62
   179
370
    18
100
AcDbLine
 10
83.385614584
 20
8.1181014226
 30
0.0
 11
83.4029711454
 21
7.6060828595
 31
0.0
  0
LINE
  5
D1
330
7B
100
AcDbEntity
  8
0
  6
Continuous
 62
   179
370
    18
100
AcDbLine
 10
85.6288154243
 20
7.6121582976
 30
0.0
 11
85.8462022593
 21
6.8318482152
 31
0.0
  0
LINE
  5
D2
330
7B
100
AcDbEntity
  8
0
  6
Continuous
 62
   179
370
    18
100
AcDbLine
 10
85.8462022593
 20
6.8318482152
 30
0.0
 11
86.4940946704
 21
6.8816860929
 31
0.0
  0
LINE
  5
D3
330
7B
100
AcDbEntity
  8
0
  6
Continuous
 62
   179
370
    18
100
AcDbLine
 10
84.5054929504
 20
10.9267193262
 30
0.0
 11
85.3543248406
 21
10.9728900984
 31
0.0
  0
LINE
  5
D4
330
7B
100
AcDbEntity
  8
0
  6
Continuous
 62
   179
370
    18
100
AcDbLine
 10
81.4744440858
 20
10.7634213094
 30
0.0
 11
82.2734303883
 21
10.8068808154
 31
0.0
  0
LINE
  5
D5
330
7B
100
AcDbEntity
  8
0
  6
Continuous
 62
   179
370
    18
100
AcDbLine
 10
81.5090686352
 20
10.1268622858
 30
0.0
 11
82.3080549377
 21
10.1703217918
 31
0.0
  0
LINE
  5
D6
330
7B
100
AcDbEntity
  8
0
  6
Continuous
 62
   179
370
    18
100
AcDbLine
 10
90.4575406452
 20
5.7946206556
 30
0.0
 11
90.1644232213
 21
12.4686789239
 31
0.0
  0
LINE
  5
D7
330
7B
100
AcDbEntity
  8
0
  6
Continuous
 62
   179
370
    18
100
AcDbLine
 10
89.8247499755
 20
8.1125227115
 30
0.0
 11
89.7274569615
 21
10.2112720142
 31
0.0
  0
LINE
  5
D8
330
7B
100
AcDbEntity
  8
0
  6
Continuous
 62
   179
370
    18
100
AcDbLine
 10
89.1879338763
 20
8.0830014354
 30
0.0
 11
89.0906408622
 21
10.181750738
 31
0.0
  0
LINE
  5
D9
330
7B
100
AcDbEntity
  8
0
  6
Continuous
 62
   179
370
    18
100
AcDbLine
 10
89.7459749087
 20
2.7242700694
 30
0.0
 11
89.7974962577
 21
2.6659765769
 31
0.0
  0
LINE
  5
DA
330
7B
100
AcDbEntity
  8
0
  6
Continuous
 62
   179
370
    18
100
AcDbLine
 10
89.7974962577
 20
2.6659765769
 30
0.0
 11
89.8351851379
 21
2.60192886
 31
0.0
  0
LINE
  5
DB
330
7B
100
AcDbEntity
  8
0
  6
Continuous
 62
   179
370
    18
100
AcDbLine
 10
89.8351851379
 20
2.60192886
 30
0.0
 11
89.8661472522
 21
2.5197759309
 31
0.0
  0
LINE
  5
DC
330
7B
100
AcDbEntity
  8
0
  6
Continuous
 62
   179
370
    18
100
AcDbLine
 10
10.6119938288
 20
7.2203138351
 30
0.0
 11
11.2200151261
 21
7.5713550947
 31
0.0
  0
LINE
  5
DD
330
7B
100
AcDbEntity
  8
0
  6
Continuous
 62
   179
370
    18
100
AcDbLine
 10
11.2347279503
 20
5.2647430194
 30
0.0
 11
10.6267781168
 21
5.6157430194
 31
0.0
  0
LINE
  5
DE
330
7B
100
AcDbEntity
  8
0
  6
Continuous
 62
   179
370
    18
100
AcDbLine
 10
6.4645062371
 20
16.1712617198
 30
0.0
 11
6.4645062371
 21
2.9364593988
 31
0.0
  0
LINE
  5
DF
330
7B
100
AcDbEntity
  8
0
  6
Continuous
 62
   179
370
    18
100
AcDbLine
 10
6.4645062371
 20
2.9364593988
 30
0.0
 11
12.0532757459
 21
2.9364593988
 31
0.0
  0
LINE
  5
E0
330
7B
100
AcDbEntity
  8
0
  6
Continuous
 62
   179
370
    18
100
AcDbLine
 10
12.0532757459
 20
2.9364593988
 30
0.0
 11
12.0532757459
 21
16.1712617198
 31
0.0
  0
LINE
  5
E1
330
7B
100
AcDbEntity
  8
0
  6
Continuous
 62
   179
370
    18
100
AcDbLine
 10
12.0532757459
 20
16.1712617198
 30
0.0
 11
6.4645062371
 21
16.1712617198
 31
0.0
  0
LINE
  5
E2
330
7B
100
AcDbEntity
  8
0
  6
Continuous
 62
   179
370
    18
100
AcDbLine
 10
0.0
 20
16.1712617198
 30
0.0
 11
0.0
 21
2.9364593988
 31
0.0
  0
LINE
  5
E3
330
7B
100
AcDbEntity
  8
0
  6
Continuous
 62
   179
370
    18
100
AcDbLine
 10
0.0
 20
2.9364593988
 30
0.0
 11
5.5887695089
 21
2.9364593988
 31
0.0
  0
LINE
  5
E4
330
7B
100
AcDbEntity
  8
0
  6
Continuous
 62
   179
370
    18
100
AcDbLine
 10
5.5887695089
 20
2.9364593988
 30
0.0
 11
5.5887695089
 21
16.1712617198
 31
0.0
  0
LINE
  5
E5
330
7B
100
AcDbEntity
  8
0
  6
Continuous
 62
   179
370
    18
100
AcDbLine
 10
5.5887695089
 20
16.1712617198
 30
0.0
 11
0.0
 21
16.1712617198
 31
0.0
  0
LINE
  5
E6
330
7B
100
AcDbEntity
  8
0
  6
Continuous
 62
   179
370
    18
100
AcDbLine
 10
1.2591262606
 20
4.7264381407
 30
0.0
 11
4.3296432482
 21
4.7264381407
 31
0.0
  0
LINE
  5
E7
330
7B
100
AcDbEntity
  8
0
  6
Continuous
 62
   179
370
    18
100
AcDbLine
 10
4.3738223747
 20
4.0932862697
 30
0.0
 11
5.0758301722
 21
4.0932862697
 31
0.0
  0
LINE
  5
E8
330
7B
100
AcDbEntity
  8
0
  6
Continuous
 62
   179
370
    18
100
AcDbLine
 10
0.5129393366
 20
4.0932862697
 30
0.0
 11
1.2149471342
 21
4.0932862697
 31
0.0
  0
LINE
  5
E9
330
7B
100
AcDbEntity
  8
0
  6
Continuous
 62
   179
370
    18
100
AcDbLine
 10
4.1819643097
 20
5.4284381407
 30
0.0
 11
1.4068051992
 21
5.4284381407
 31
0.0
  0
LINE
  5
EA
330
7B
100
AcDbEntity
  8
0
  6
Continuous
 62
   179
370
    18
100
AcDbLine
 10
18.517781983
 20
16.1712617198
 30
0.0
 11
18.517781983
 21
2.9364593988
 31
0.0
  0
LINE
  5
EB
330
7B
100
AcDbEntity
  8
0
  6
Continuous
 62
   179
370
    18
100
AcDbLine
 10
18.517781983
 20
2.9364593988
 30
0.0
 11
12.9290124742
 21
2.9364593988
 31
0.0
  0
LINE
  5
EC
330
7B
100
AcDbEntity
  8
0
  6
Continuous
 62
   179
370
    18
100
AcDbLine
 10
12.9290124742
 20
2.9364593988
 30
0.0
 11
12.9290124742
 21
16.1712617198
 31
0.0
  0
LINE
  5
ED
330
7B
100
AcDbEntity
  8
0
  6
Continuous
 62
   179
370
    18
100
AcDbLine
 10
12.9290124742
 20
16.1712617198
 30
0.0
 11
18.517781983
 21
16.1712617198
 31
0.0
  0
INSERT
  5
F3
330
7B
100
AcDbEntity
  8
0
  6
Continuous
 62
     7
370
     0
100
AcDbBlockReference
  2
SW_NOTE_0
 10
1.8998941161
 20
-0.3226565443
 30
0.0
  0
INSERT
  5
F8
330
7B
100
AcDbEntity
  8
0
  6
Continuous
 62
     7
370
     0
100
AcDbBlockReference
  2
SW_NOTE_0_1
 10
29.1164837035
 20
12.7459167441
 30
0.0
  0
INSERT
  5
100
330
7B
100
AcDbEntity
  8
0
  6
Continuous
 62
     7
370
     0
100
AcDbBlockReference
  2
SW_NOTE_0_2
 10
28.8863479825
 20
8.6365742194
 30
0.0
  0
ENDBLK
  5
7D
330
7B
100
AcDbEntity
  8
0
100
AcDbBlockEnd
  0
BLOCK
  5
EF
330
EE
100
AcDbEntity
  8
0
100
AcDbBlockBegin
  2
SW_NOTE_0
 70
     0
 10
0.0
 20
0.0
 30
0.0
  3
SW_NOTE_0
  1

  0
MTEXT
  5
F2
330
EE
100
AcDbEntity
  8
0
  6
Continuous
 62
     0
370
     0
100
AcDbMText
 10
7.46875
 20
2.5781354795
 30
0.0
 40
2.0
 41
0.0
 71
     2
 72
     1
  1
www.aco.ch
  7
SLDTEXTSTYLE0
 73
     1
 44
1.0
  0
ENDBLK
  5
F0
330
EE
100
AcDbEntity
  8
0
100
AcDbBlockEnd
  0
BLOCK
  5
F5
330
F4
100
AcDbEntity
  8
0
100
AcDbBlockBegin
  2
SW_NOTE_0_1
 70
     0
 10
0.0
 20
0.0
 30
0.0
  3
SW_NOTE_0_1
  1

  0
MTEXT
  5
F7
330
F4
100
AcDbEntity
  8
0
  6
Continuous
 62
     0
370
     0
100
AcDbMText
 10
0.0
 20
3.8672032193
 30
0.0
 40
3.0
 41
0.0
 71
     1
 72
     1
  1
ACO AG
  7
SLDTEXTSTYLE0
 73
     1
 44
1.0
  0
ENDBLK
  5
F6
330
F4
100
AcDbEntity
  8
0
100
AcDbBlockEnd
  0
BLOCK
  5
FA
330
F9
100
AcDbEntity
  8
0
100
AcDbBlockBegin
  2
SW_NOTE_0_2
 70
     0
 10
0.0
 20
0.0
 30
0.0
  3
SW_NOTE_0_2
  1

  0
MTEXT
  5
FC
330
F9
100
AcDbEntity
  8
0
  6
Continuous
 62
     0
370
     0
100
AcDbMText
 10
0.0
 20
2.5781354795
 30
0.0
 40
2.0
 41
0.0
 71
     1
 72
     1
  1
Industrie Kleinzaun
  7
SLDTEXTSTYLE0
 73
     1
 44
1.0
  0
MTEXT
  5
FD
330
F9
100
AcDbEntity
  8
0
  6
Continuous
 62
     0
370
     0
100
AcDbMText
 10
0.0
 20
-0.4218645465
 30
0.0
 40
2.0
 41
0.0
 71
     1
 72
     1
  1
CH-8754 Netstal
  7
SLDTEXTSTYLE0
 73
     1
 44
1.0
  0
MTEXT
  5
FE
330
F9
100
AcDbEntity
  8
0
  6
Continuous
 62
     0
370
     0
100
AcDbMText
 10
0.0
 20
-3.4218645726
 30
0.0
 40
2.0
 41
0.0
 71
     1
 72
     1
  1
Tel. 055 / 645 53 00
  7
SLDTEXTSTYLE0
 73
     1
 44
1.0
  0
MTEXT
  5
FF
330
F9
100
AcDbEntity
  8
0
  6
Continuous
 62
     0
370
     0
100
AcDbMText
 10
0.0
 20
-6.4218645987
 30
0.0
 40
2.0
 41
0.0
 71
     1
 72
     1
  1
E-Mail: aco@aco.ch
  7
SLDTEXTSTYLE0
 73
     1
 44
1.0
  0
ENDBLK
  5
FB
330
F9
100
AcDbEntity
  8
0
100
AcDbBlockEnd
  0
BLOCK
  5
179
330
178
100
AcDbEntity
  8
0
100
AcDbBlockBegin
  2
SW_NOTE_0_3
 70
     0
 10
0.0
 20
0.0
 30
0.0
  3
SW_NOTE_0_3
  1

  0
MTEXT
  5
17B
330
178
100
AcDbEntity
  8
0
  6
Continuous
 62
     0
370
     0
100
AcDbMText
 10
0.0
 20
1.9336016097
 30
0.0
 40
1.5
 41
0.0
 71
     1
 72
     1
  1
Diese Zeichnung darf weder kopiert
  7
SLDTEXTSTYLE0
 73
     1
 44
1.0
  0
MTEXT
  5
17C
330
178
100
AcDbEntity
  8
0
  6
Continuous
 62
     0
370
     0
100
AcDbMText
 10
0.0
 20
-0.5663983345
 30
0.0
 40
1.5
 41
0.0
 71
     1
 72
     1
  1
noch dritten Personen, insbesondere
  7
SLDTEXTSTYLE0
 73
     1
 44
1.0
  0
MTEXT
  5
17D
330
178
100
AcDbEntity
  8
0
  6
Continuous
 62
     0
370
     0
100
AcDbMText
 10
0.0
 20
-3.0663982786
 30
0.0
 40
1.5
 41
0.0
 71
     1
 72
     1
  1
zum Zweck anderweitiger Benutzung
  7
SLDTEXTSTYLE0
 73
     1
 44
1.0
  0
MTEXT
  5
17E
330
178
100
AcDbEntity
  8
0
  6
Continuous
 62
     0
370
     0
100
AcDbMText
 10
0.0
 20
-5.5663982227
 30
0.0
 40
1.5
 41
0.0
 71
     1
 72
     1
  1
mitgeteilt werden und bleibt unser
  7
SLDTEXTSTYLE0
 73
     1
 44
1.0
  0
MTEXT
  5
17F
330
178
100
AcDbEntity
  8
0
  6
Continuous
 62
     0
370
     0
100
AcDbMText
 10
0.0
 20
-8.0663981668
 30
0.0
 40
1.5
 41
0.0
 71
     1
 72
     1
  1
Eigentum.
  7
SLDTEXTSTYLE0
 73
     1
 44
1.0
  0
ENDBLK
  5
17A
330
178
100
AcDbEntity
  8
0
100
AcDbBlockEnd
  0
BLOCK
  5
1B5
330
1B4
100
AcDbEntity
  8
0
100
AcDbBlockBegin
  2
_D
 70
     0
 10
0.0
 20
0.0
 30
0.0
  3
_D
  1

  0
SOLID
  5
1B7
330
1B4
100
AcDbEntity
  8
0
  6
Continuous
 62
     7
370
    18
100
AcDbTrace
 10
196.4947346527
 20
183.7981074975
 30
0.0
 11
199.3503581921
 21
185.8922314264
 31
0.0
 12
198.5888585816
 22
186.6537310369
 32
0.0
 13
198.5888585816
 23
186.6537310369
 33
0.0
  0
LINE
  5
1B8
330
1B4
100
AcDbEntity
  8
0
  6
Continuous
 62
     7
370
     0
100
AcDbLine
 10
196.4947346527
 20
183.7981074975
 30
0.0
 11
211.7596956235
 21
199.0630684683
 31
0.0
  0
MTEXT
  5
1B9
330
1B4
100
AcDbEntity
  8
0
  6
Continuous
 62
     7
370
    18
100
AcDbMText
 10
196.4544454772
 20
190.1368994889
 30
0.0
 40
3.5
 41
0.0
 71
     1
 72
     1
  1
%%c
  7
SLDTEXTSTYLE0
 11
0.7071067811865465
 21
0.7071067811865487
 31
0.0
 73
     1
 44
1.0
  0
MTEXT
  5
1BA
330
1B4
100
AcDbEntity
  8
0
  6
Continuous
 62
     7
370
    18
100
AcDbMText
 10
200.0559024082
 20
193.7521058414
 30
0.0
 40
3.5
 41
0.0
 71
     1
 72
     1
  1
175.6
  7
SLDTEXTSTYLE0
 11
0.7071067811865465
 21
0.7071067811865487
 31
0.0
 73
     1
 44
1.0
  0
ENDBLK
  5
1B6
330
1B4
100
AcDbEntity
  8
0
100
AcDbBlockEnd
  0
BLOCK
  5
1BE
330
1BD
100
AcDbEntity
  8
0
100
AcDbBlockBegin
  2
_D_1
 70
     0
 10
0.0
 20
0.0
 30
0.0
  3
_D_1
  1

  0
SOLID
  5
1C0
330
1BD
100
AcDbEntity
  8
0
  6
Continuous
 62
     7
370
    18
100
AcDbTrace
 10
69.3050682469
 20
84.1327244877
 30
0.0
 11
72.6053879294
 21
85.4164031165
 31
0.0
 12
72.0669263909
 22
86.349045859
 32
0.0
 13
72.0669263909
 23
86.349045859
 33
0.0
  0
SOLID
  5
1C1
330
1BD
100
AcDbEntity
  8
0
  6
Continuous
 62
     7
370
    18
100
AcDbTrace
 10
199.5513757186
 20
159.3304651675
 30
0.0
 11
196.2510560361
 21
158.0467865387
 31
0.0
 12
196.7895175746
 22
157.1141437962
 32
0.0
 13
196.7895175746
 23
157.1141437962
 33
0.0
  0
LINE
  5
1C2
330
1BD
100
AcDbEntity
  8
0
  6
Continuous
 62
     7
370
     0
100
AcDbLine
 10
199.5513757186
 20
159.3304651675
 30
0.0
 11
228.9243633398
 21
176.2889674774
 31
0.0
  0
LINE
  5
1C3
330
1BD
100
AcDbEntity
  8
0
  6
Continuous
 62
     7
370
     0
100
AcDbLine
 10
199.5513757186
 20
159.3304651675
 30
0.0
 11
69.3050682469
 21
84.1327244877
 31
0.0
  0
MTEXT
  5
1C4
330
1BD
100
AcDbEntity
  8
0
  6
Continuous
 62
     7
370
    18
100
AcDbMText
 10
211.8303669975
 20
171.6282360836
 30
0.0
 40
3.5
 41
0.0
 71
     1
 72
     1
  1
%%c
  7
SLDTEXTSTYLE0
 11
0.866025403784438
 21
0.500000000000001
 31
0.0
 73
     1
 44
1.0
  0
MTEXT
  5
1C5
330
1BD
100
AcDbEntity
  8
0
  6
Continuous
 62
     7
370
    18
100
AcDbMText
 10
216.2447915153
 20
174.1881316229
 30
0.0
 40
3.5
 41
0.0
 71
     1
 72
     1
  1
150.4
  7
SLDTEXTSTYLE0
 11
0.866025403784438
 21
0.500000000000001
 31
0.0
 73
     1
 44
1.0
  0
ENDBLK
  5
1BF
330
1BD
100
AcDbEntity
  8
0
100
AcDbBlockEnd
  0
BLOCK
  5
1C7
330
1C6
100
AcDbEntity
  8
0
100
AcDbBlockBegin
  2
SW_CENTERMARKSYMBOL_0
 70
     0
 10
0.0
 20
0.0
 30
0.0
  3
SW_CENTERMARKSYMBOL_0
  1

  0
LINE
  5
1C9
330
1C6
100
AcDbEntity
  8
0
  6
Continuous
 62
     0
370
    18
100
AcDbLine
 10
0.0
 20
0.0
 30
0.0
 11
0.0
 21
2.5
 31
0.0
  0
LINE
  5
1CA
330
1C6
100
AcDbEntity
  8
0
  6
Continuous
 62
     0
370
    18
100
AcDbLine
 10
0.0
 20
0.0
 30
0.0
 11
-2.5
 21
0.0
 31
0.0
  0
LINE
  5
1CB
330
1C6
100
AcDbEntity
  8
0
  6
Continuous
 62
     0
370
    18
100
AcDbLine
 10
0.0
 20
0.0
 30
0.0
 11
0.0
 21
-2.5
 31
0.0
  0
LINE
  5
1CC
330
1C6
100
AcDbEntity
  8
0
  6
Continuous
 62
     0
370
    18
100
AcDbLine
 10
0.0
 20
0.0
 30
0.0
 11
2.5
 21
0.0
 31
0.0
  0
LINE
  5
1CD
330
1C6
100
AcDbEntity
  8
0
  6
Continuous
 62
     0
370
    18
100
AcDbLine
 10
0.0
 20
5.0
 30
0.0
 11
0.0
 21
90.2636089287
 31
0.0
  0
LINE
  5
1CE
330
1C6
100
AcDbEntity
  8
0
  6
Continuous
 62
     0
370
    18
100
AcDbLine
 10
-5.0
 20
0.0
 30
0.0
 11
-90.2636089287
 21
0.0
 31
0.0
  0
LINE
  5
1CF
330
1C6
100
AcDbEntity
  8
0
  6
Continuous
 62
     0
370
    18
100
AcDbLine
 10
0.0
 20
-5.0
 30
0.0
 11
0.0
 21
-90.2636089287
 31
0.0
  0
LINE
  5
1D0
330
1C6
100
AcDbEntity
  8
0
  6
Continuous
 62
     0
370
    18
100
AcDbLine
 10
5.0
 20
0.0
 30
0.0
 11
90.2636089287
 21
0.0
 31
0.0
  0
ENDBLK
  5
1C8
330
1C6
100
AcDbEntity
  8
0
100
AcDbBlockEnd
  0
BLOCK
  5
29E
330
29D
100
AcDbEntity
  8
0
100
AcDbBlockBegin
  2
_D_2
 70
     0
 10
0.0
 20
0.0
 30
0.0
  3
_D_2
  1

  0
SOLID
  5
2A0
330
29D
100
AcDbEntity
  8
0
  6
Continuous
 62
     7
370
    18
100
AcDbTrace
 10
237.2035259697
 20
236.2972012212
 30
0.0
 11
237.7419875082
 21
239.7972012212
 31
0.0
 12
236.6650644313
 22
239.7972012212
 32
0.0
 13
236.6650644313
 23
239.7972012212
 33
0.0
  0
SOLID
  5
2A1
330
29D
100
AcDbEntity
  8
0
  6
Continuous
 62
     7
370
    18
100
AcDbTrace
 10
237.2035259697
 20
254.398307643
 30
0.0
 11
236.6650644313
 21
250.898307643
 31
0.0
 12
237.7419875082
 22
250.898307643
 32
0.0
 13
237.7419875082
 23
250.898307643
 33
0.0
  0
LINE
  5
2A2
330
29D
100
AcDbEntity
  8
0
  6
Continuous
 62
     7
370
     0
100
AcDbLine
 10
216.7653660383
 20
236.2972012212
 30
0.0
 11
238.2035259697
 21
236.2972012212
 31
0.0
  0
LINE
  5
2A3
330
29D
100
AcDbEntity
  8
0
  6
Continuous
 62
     7
370
     0
100
AcDbLine
 10
217.6058401997
 20
254.398307643
 30
0.0
 11
238.2035259697
 21
254.398307643
 31
0.0
  0
LINE
  5
2A4
330
29D
100
AcDbEntity
  8
0
  6
Continuous
 62
     7
370
     0
100
AcDbLine
 10
237.2035259697
 20
236.2972012212
 30
0.0
 11
237.2035259697
 21
254.398307643
 31
0.0
  0
MTEXT
  5
2A5
330
29D
100
AcDbEntity
  8
0
  6
Continuous
 62
     7
370
    18
100
AcDbMText
 10
232.6917886477
 20
240.6689351035
 30
0.0
 40
3.5
 41
0.0
 71
     1
 72
     1
  1
18.1
  7
SLDTEXTSTYLE0
 11
6.123233995736766E-17
 21
1.0
 31
0.0
 73
     1
 44
1.0
  0
ENDBLK
  5
29F
330
29D
100
AcDbEntity
  8
0
100
AcDbBlockEnd
  0
ENDSEC
  0
SECTION
  2
ENTITIES
  0
LINE
  5
101
330
1F
100
AcDbEntity
  8
LINIEN-DÜNN
  6
CENTERX2
100
AcDbLine
 10
352.6174545849
 20
46.9080238789
 30
0.0
 11
352.6174545849
 21
39.4621586124
 31
0.0
  0
LINE
  5
102
330
1F
100
AcDbEntity
  8
LINIEN-DÜNN
100
AcDbLine
 10
357.7661698132
 20
46.3720107039
 30
0.0
 11
357.7661698132
 21
39.9353173413
 31
0.0
  0
LINE
  5
103
330
1F
100
AcDbEntity
  8
LINIEN-DÜNN
100
AcDbLine
 10
364.6059427486
 20
44.7376225767
 30
0.0
 11
364.6059427486
 21
41.5697054685
 31
0.0
  0
LINE
  5
104
330
1F
100
AcDbEntity
  8
LINIEN-DÜNN
100
AcDbLine
 10
364.6059427486
 20
44.7376225767
 30
0.0
 11
357.7661698132
 21
46.3720107039
 31
0.0
  0
LINE
  5
105
330
1F
100
AcDbEntity
  8
LINIEN-DÜNN
100
AcDbLine
 10
15.0
 20
198.5
 30
0.0
 11
20.0
 21
198.5
 31
0.0
  0
LINE
  5
106
330
1F
100
AcDbEntity
  8
LINIEN-DÜNN
100
AcDbLine
 10
12.0
 20
148.5
 30
0.0
 11
0.0
 21
148.5
 31
0.0
  0
LINE
  5
107
330
1F
100
AcDbEntity
  8
LINIEN-DÜNN
100
AcDbLine
 10
357.7661698132
 20
39.9353173413
 30
0.0
 11
364.6059427486
 21
41.5697054685
 31
0.0
  0
LINE
  5
108
330
1F
100
AcDbEntity
  8
LINIEN-DÜNN
  6
CENTERX2
100
AcDbLine
 10
348.6240467841
 20
43.1536640226
 30
0.0
 11
356.6108623857
 21
43.1536640226
 31
0.0
  0
LINE
  5
109
330
1F
100
AcDbEntity
  8
LINIEN-DÜNN
  6
CENTERX2
100
AcDbLine
 10
357.1289238876
 20
43.1536640226
 30
0.0
 11
365.6255362296
 21
43.1536640226
 31
0.0
  0
LINE
  5
10A
330
1F
100
AcDbEntity
  8
LINIEN-DÜNN
100
AcDbLine
 10
0.0
 20
0.0
 30
0.0
 11
420.0
 21
0.0
 31
0.0
  0
LINE
  5
10B
330
1F
100
AcDbEntity
  8
LINIEN-DÜNN
100
AcDbLine
 10
0.0
 20
0.0
 30
0.0
 11
0.0
 21
297.0
 31
0.0
  0
LINE
  5
10C
330
1F
100
AcDbEntity
  8
LINIEN-DÜNN
100
AcDbLine
 10
0.0
 20
297.0
 30
0.0
 11
420.0
 21
297.0
 31
0.0
  0
LINE
  5
10D
330
1F
100
AcDbEntity
  8
LINIEN-DÜNN
100
AcDbLine
 10
420.0
 20
0.0
 30
0.0
 11
420.0
 21
297.0
 31
0.0
  0
LINE
  5
10E
330
1F
100
AcDbEntity
  8
LINIEN-NORMAL
100
AcDbLine
 10
228.0
 20
35.0
 30
0.0
 11
410.0
 21
35.0
 31
0.0
  0
LINE
  5
10F
330
1F
100
AcDbEntity
  8
LINIEN-DÜNN
100
AcDbLine
 10
410.0
 20
198.5
 30
0.0
 11
415.0
 21
198.5
 31
0.0
  0
LINE
  5
110
330
1F
100
AcDbEntity
  8
LINIEN-DÜNN
100
AcDbLine
 10
15.0
 20
148.5
 30
0.0
 11
20.0
 21
148.5
 31
0.0
  0
LINE
  5
111
330
1F
100
AcDbEntity
  8
LINIEN-DÜNN
100
AcDbLine
 10
228.0
 20
40.0
 30
0.0
 11
296.6
 21
40.0
 31
0.0
  0
LINE
  5
112
330
1F
100
AcDbEntity
  8
LINIEN-DÜNN
100
AcDbLine
 10
15.0
 20
248.5
 30
0.0
 11
20.0
 21
248.5
 31
0.0
  0
LINE
  5
113
330
1F
100
AcDbEntity
  8
LINIEN-DICK
100
AcDbLine
 10
20.0
 20
287.0
 30
0.0
 11
20.0
 21
10.0
 31
0.0
  0
LINE
  5
114
330
1F
100
AcDbEntity
  8
LINIEN-DICK
100
AcDbLine
 10
410.0
 20
287.0
 30
0.0
 11
20.0
 21
287.0
 31
0.0
  0
LINE
  5
115
330
1F
100
AcDbEntity
  8
LINIEN-DICK
100
AcDbLine
 10
410.0
 20
5.0
 30
0.0
 11
410.0
 21
287.0
 31
0.0
  0
LINE
  5
116
330
1F
100
AcDbEntity
  8
LINIEN-DICK
100
AcDbLine
 10
20.0
 20
10.0
 30
0.0
 11
415.0
 21
10.0
 31
0.0
  0
LINE
  5
117
330
1F
100
AcDbEntity
  8
LINIEN-DÜNN
100
AcDbLine
 10
410.0
 20
148.5
 30
0.0
 11
415.0
 21
148.5
 31
0.0
  0
LINE
  5
118
330
1F
100
AcDbEntity
  8
LINIEN-DÜNN
100
AcDbLine
 10
228.0
 20
50.0
 30
0.0
 11
296.6
 21
50.0
 31
0.0
  0
LINE
  5
119
330
1F
100
AcDbEntity
  8
LINIEN-DÜNN
100
AcDbLine
 10
15.0
 20
98.5
 30
0.0
 11
20.0
 21
98.5
 31
0.0
  0
LINE
  5
11A
330
1F
100
AcDbEntity
  8
LINIEN-DÜNN
100
AcDbLine
 10
296.6
 20
45.0
 30
0.0
 11
228.0
 21
45.0
 31
0.0
  0
LINE
  5
11B
330
1F
100
AcDbEntity
  8
LINIEN-DÜNN
100
AcDbLine
 10
65.0
 20
292.0
 30
0.0
 11
65.0
 21
287.0
 31
0.0
  0
LINE
  5
11C
330
1F
100
AcDbEntity
  8
LINIEN-DÜNN
100
AcDbLine
 10
230.0
 20
292.0
 30
0.0
 11
230.0
 21
297.0
 31
0.0
  0
LINE
  5
11D
330
1F
100
AcDbEntity
  8
LINIEN-NORMAL
100
AcDbLine
 10
296.6
 20
55.0
 30
0.0
 11
296.6
 21
35.0
 31
0.0
  0
LINE
  5
11E
330
1F
100
AcDbEntity
  8
LINIEN-DÜNN
100
AcDbLine
 10
410.0
 20
98.5
 30
0.0
 11
415.0
 21
98.5
 31
0.0
  0
LINE
  5
11F
330
1F
100
AcDbEntity
  8
VORLAGE_BEMASSUNG
100
AcDbLine
 10
230.0
 20
5.0
 30
0.0
 11
230.0
 21
0.0
 31
0.0
  0
LINE
  5
120
330
1F
100
AcDbEntity
  8
LINIEN-DÜNN
100
AcDbLine
 10
125.0
 20
292.0
 30
0.0
 11
125.0
 21
297.0
 31
0.0
  0
LINE
  5
121
330
1F
100
AcDbEntity
  8
LINIEN-DÜNN
100
AcDbLine
 10
125.0
 20
5.0
 30
0.0
 11
125.0
 21
0.0
 31
0.0
  0
LINE
  5
122
330
1F
100
AcDbEntity
  8
LINIEN-NORMAL
100
AcDbLine
 10
410.0
 20
55.0
 30
0.0
 11
228.0
 21
55.0
 31
0.0
  0
LINE
  5
123
330
1F
100
AcDbEntity
  8
LINIEN-DÜNN
100
AcDbLine
 10
228.0
 20
55.0
 30
0.0
 11
410.0
 21
55.0
 31
0.0
  0
LINE
  5
124
330
1F
100
AcDbEntity
  8
LINIEN-DÜNN
100
AcDbLine
 10
410.0
 20
55.0
 30
0.0
 11
228.0
 21
55.0
 31
0.0
  0
LINE
  5
125
330
1F
100
AcDbEntity
  8
LINIEN-DÜNN
100
AcDbLine
 10
268.0
 20
76.5
 30
0.0
 11
268.0
 21
55.0
 31
0.0
  0
LINE
  5
126
330
1F
100
AcDbEntity
  8
LINIEN-DÜNN
100
AcDbLine
 10
271.6
 20
55.0
 30
0.0
 11
271.6
 21
40.0
 31
0.0
  0
LINE
  5
127
330
1F
100
AcDbEntity
  8
LINIEN-DÜNN
100
AcDbLine
 10
247.0
 20
55.0
 30
0.0
 11
247.0
 21
35.0
 31
0.0
  0
LINE
  5
128
330
1F
100
AcDbEntity
  8
LINIEN-DICK
100
AcDbLine
 10
228.0
 20
76.5
 30
0.0
 11
228.0
 21
10.0
 31
0.0
  0
LINE
  5
129
330
1F
100
AcDbEntity
  8
LINIEN-DÜNN
100
AcDbLine
 10
15.0
 20
292.0
 30
0.0
 11
415.0
 21
292.0
 31
0.0
  0
LINE
  5
12A
330
1F
100
AcDbEntity
  8
LINIEN-DÜNN
100
AcDbLine
 10
228.0
 20
65.75
 30
0.0
 11
310.0
 21
65.75
 31
0.0
  0
LINE
  5
12B
330
1F
100
AcDbEntity
  8
LINIEN-DICK
100
AcDbLine
 10
228.0
 20
76.5
 30
0.0
 11
410.0
 21
76.5
 31
0.0
  0
LINE
  5
12C
330
1F
100
AcDbEntity
  8
LINIEN-DÜNN
100
AcDbLine
 10
15.0
 20
48.5
 30
0.0
 11
20.0
 21
48.5
 31
0.0
  0
LINE
  5
12D
330
1F
100
AcDbEntity
  8
LINIEN-DÜNN
100
AcDbLine
 10
410.0
 20
48.5
 30
0.0
 11
415.0
 21
48.5
 31
0.0
  0
LINE
  5
12E
330
1F
100
AcDbEntity
  8
LINIEN-DÜNN
100
AcDbLine
 10
332.6610845472
 20
20.0
 30
0.0
 11
332.6610845472
 21
10.0
 31
0.0
  0
LINE
  5
12F
330
1F
100
AcDbEntity
  8
LINIEN-DÜNN
100
AcDbLine
 10
410.0
 20
248.5
 30
0.0
 11
415.0
 21
248.5
 31
0.0
  0
LINE
  5
130
330
1F
100
AcDbEntity
  8
LINIEN-DÜNN
100
AcDbLine
 10
65.0
 20
10.0
 30
0.0
 11
65.0
 21
5.0
 31
0.0
  0
LINE
  5
131
330
1F
100
AcDbEntity
  8
LINIEN-DÜNN
100
AcDbLine
 10
115.0
 20
10.0
 30
0.0
 11
115.0
 21
5.0
 31
0.0
  0
LINE
  5
132
330
1F
100
AcDbEntity
  8
LINIEN-DÜNN
100
AcDbLine
 10
115.0
 20
292.0
 30
0.0
 11
115.0
 21
287.0
 31
0.0
  0
LINE
  5
133
330
1F
100
AcDbEntity
  8
LINIEN-DÜNN
100
AcDbLine
 10
165.0
 20
10.0
 30
0.0
 11
165.0
 21
5.0
 31
0.0
  0
LINE
  5
134
330
1F
100
AcDbEntity
  8
LINIEN-DÜNN
100
AcDbLine
 10
165.0
 20
292.0
 30
0.0
 11
165.0
 21
287.0
 31
0.0
  0
LINE
  5
135
330
1F
100
AcDbEntity
  8
LINIEN-DÜNN
100
AcDbLine
 10
215.0
 20
10.0
 30
0.0
 11
215.0
 21
5.0
 31
0.0
  0
LINE
  5
136
330
1F
100
AcDbEntity
  8
LINIEN-DÜNN
100
AcDbLine
 10
215.0
 20
292.0
 30
0.0
 11
215.0
 21
287.0
 31
0.0
  0
LINE
  5
137
330
1F
100
AcDbEntity
  8
LINIEN-DÜNN
100
AcDbLine
 10
265.0
 20
10.0
 30
0.0
 11
265.0
 21
5.0
 31
0.0
  0
LINE
  5
138
330
1F
100
AcDbEntity
  8
LINIEN-DÜNN
100
AcDbLine
 10
265.0
 20
292.0
 30
0.0
 11
265.0
 21
287.0
 31
0.0
  0
LINE
  5
139
330
1F
100
AcDbEntity
  8
LINIEN-DÜNN
100
AcDbLine
 10
347.6610845472
 20
20.0
 30
0.0
 11
347.6610845472
 21
10.0
 31
0.0
  0
LINE
  5
13A
330
1F
100
AcDbEntity
  8
LINIEN-DÜNN
100
AcDbLine
 10
362.6610845472
 20
20.0
 30
0.0
 11
362.6610845472
 21
10.0
 31
0.0
  0
LINE
  5
13B
330
1F
100
AcDbEntity
  8
LINIEN-NORMAL
100
AcDbLine
 10
327.6610845472
 20
10.0
 30
0.0
 11
327.6610845472
 21
55.0
 31
0.0
  0
LINE
  5
13C
330
1F
100
AcDbEntity
  8
LINIEN-DÜNN
100
AcDbLine
 10
20.0
 20
292.0
 30
0.0
 11
20.0
 21
297.0
 31
0.0
  0
LINE
  5
13D
330
1F
100
AcDbEntity
  8
LINIEN-DÜNN
100
AcDbLine
 10
20.0
 20
5.0
 30
0.0
 11
20.0
 21
0.0
 31
0.0
  0
LINE
  5
13E
330
1F
100
AcDbEntity
  8
LINIEN-DÜNN
100
AcDbLine
 10
315.0
 20
10.0
 30
0.0
 11
315.0
 21
5.0
 31
0.0
  0
LINE
  5
13F
330
1F
100
AcDbEntity
  8
LINIEN-DÜNN
100
AcDbLine
 10
315.0
 20
292.0
 30
0.0
 11
315.0
 21
287.0
 31
0.0
  0
LINE
  5
140
330
1F
100
AcDbEntity
  8
LINIEN-DÜNN
100
AcDbLine
 10
365.0
 20
10.0
 30
0.0
 11
365.0
 21
5.0
 31
0.0
  0
LINE
  5
141
330
1F
100
AcDbEntity
  8
LINIEN-DÜNN
100
AcDbLine
 10
365.0
 20
292.0
 30
0.0
 11
365.0
 21
287.0
 31
0.0
  0
LINE
  5
142
330
1F
100
AcDbEntity
  8
LINIEN-DÜNN
100
AcDbLine
 10
15.0
 20
292.0
 30
0.0
 11
15.0
 21
5.0
 31
0.0
  0
LINE
  5
143
330
1F
100
AcDbEntity
  8
LINIEN-DÜNN
100
AcDbLine
 10
15.0
 20
5.0
 30
0.0
 11
415.0
 21
5.0
 31
0.0
  0
LINE
  5
144
330
1F
100
AcDbEntity
  8
LINIEN-DÜNN
100
AcDbLine
 10
415.0
 20
292.0
 30
0.0
 11
415.0
 21
5.0
 31
0.0
  0
LINE
  5
145
330
1F
100
AcDbEntity
  8
LINIEN-DÜNN
100
AcDbLine
 10
347.6610845472
 20
44.213444
 30
0.0
 11
327.6610845472
 21
44.213444
 31
0.0
  0
LINE
  5
146
330
1F
100
AcDbEntity
  8
LINIEN-DÜNN
100
AcDbLine
 10
347.6610845472
 20
35.0
 30
0.0
 11
347.6610845472
 21
55.0
 31
0.0
  0
LINE
  5
147
330
1F
100
AcDbEntity
  8
LINIEN-DÜNN
100
AcDbLine
 10
370.057188
 20
55.012032
 30
0.0
 11
370.057188
 21
35.0
 31
0.0
  0
LINE
  5
148
330
1F
100
AcDbEntity
  8
LINIEN-DÜNN
100
AcDbLine
 10
398.0
 20
35.0
 30
0.0
 11
398.0
 21
20.0
 31
0.0
  0
LINE
  5
149
330
1F
100
AcDbEntity
  8
LINIEN-DÜNN
100
AcDbLine
 10
410.0
 20
15.0
 30
0.0
 11
327.6610845472
 21
15.0
 31
0.0
  0
LINE
  5
14A
330
1F
100
AcDbEntity
  8
LINIEN-DÜNN
100
AcDbLine
 10
327.6610845472
 20
20.0
 30
0.0
 11
410.0
 21
20.0
 31
0.0
  0
LINE
  5
14B
330
1F
100
AcDbEntity
  8
LINIEN-DÜNN
100
AcDbLine
 10
341.485486
 20
20.0
 30
0.0
 11
341.485486
 21
27.564675
 31
0.0
  0
LINE
  5
14C
330
1F
100
AcDbEntity
  8
LINIEN-NORMAL
100
AcDbLine
 10
310.0
 20
76.5
 30
0.0
 11
310.0
 21
55.0
 31
0.0
  0
CIRCLE
  5
14D
330
1F
100
AcDbEntity
  8
LINIEN-DÜNN
100
AcDbCircle
 10
11.0
 20
108.5
 30
0.0
 40
2.750000000000001
  0
CIRCLE
  5
14E
330
1F
100
AcDbEntity
  8
LINIEN-DÜNN
100
AcDbCircle
 10
11.0
 20
188.5
 30
0.0
 40
2.750000000000001
  0
CIRCLE
  5
14F
330
1F
100
AcDbEntity
  8
LINIEN-DÜNN
100
AcDbCircle
 10
352.6174545849
 20
43.1536640226
 30
0.0
 40
3.218346681300138
  0
CIRCLE
  5
150
330
1F
100
AcDbEntity
  8
LINIEN-DÜNN
100
AcDbCircle
 10
352.6174545849
 20
43.1536640226
 30
0.0
 40
1.583958554121555
  0
INSERT
  5
151
330
1F
100
AcDbEntity
  8
0
  6
Continuous
 62
     7
100
AcDbBlockReference
  2
ACO-Logo
 10
314.3510726297
 20
57.6366106772
 30
0.0
  0
POINT
  5
152
330
1F
100
AcDbEntity
  8
VORLAGE_BEMASSUNG
100
AcDbPoint
 10
0.0
 20
0.0
 30
0.0
  0
POINT
  5
153
330
1F
100
AcDbEntity
  8
VORLAGE_BEMASSUNG
100
AcDbPoint
 10
410.0
 20
10.0
 30
0.0
  0
MTEXT
  5
154
330
1F
100
AcDbEntity
  8
VORLAGE_TEXT
100
AcDbMText
 10
17.7359443114
 20
124.8017866468
 30
0.0
 40
2.0
 41
0.0
 71
     2
 72
     1
  1
D
  7
SLDTEXTSTYLE0
 73
     1
 44
1.0
  0
MTEXT
  5
155
330
1F
100
AcDbEntity
  8
VORLAGE_TEXT
100
AcDbMText
 10
17.6274822413
 20
174.7261854936
 30
0.0
 40
2.0
 41
0.0
 71
     2
 72
     1
  1
C
  7
SLDTEXTSTYLE0
 73
     1
 44
1.0
  0
MTEXT
  5
156
330
1F
100
AcDbEntity
  8
VORLAGE_TEXT
100
AcDbMText
 10
17.5516905072
 20
224.4926420442
 30
0.0
 40
2.0
 41
0.0
 71
     2
 72
     1
  1
B
  7
SLDTEXTSTYLE0
 73
     1
 44
1.0
  0
MTEXT
  5
157
330
1F
100
AcDbEntity
  8
VORLAGE_TEXT
100
AcDbMText
 10
290.0344258799
 20
290.5428789914
 30
0.0
 40
2.0
 41
0.0
 71
     2
 72
     1
  1
6
  7
SLDTEXTSTYLE0
 73
     1
 44
1.0
  0
MTEXT
  5
158
330
1F
100
AcDbEntity
  8
VORLAGE_TEXT
100
AcDbMText
 10
240.0417859812
 20
290.6369260235
 30
0.0
 40
2.0
 41
0.0
 71
     2
 72
     1
  1
5
  7
SLDTEXTSTYLE0
 73
     1
 44
1.0
  0
MTEXT
  5
159
330
1F
100
AcDbEntity
  8
VORLAGE_TEXT
100
AcDbMText
 10
190.0300404524
 20
290.6343268032
 30
0.0
 40
2.0
 41
0.0
 71
     2
 72
     1
  1
4
  7
SLDTEXTSTYLE0
 73
     1
 44
1.0
  0
MTEXT
  5
15A
330
1F
100
AcDbEntity
  8
VORLAGE_TEXT
100
AcDbMText
 10
140.0165868337
 20
290.6378887952
 30
0.0
 40
2.0
 41
0.0
 71
     2
 72
     1
  1
3
  7
SLDTEXTSTYLE0
 73
     1
 44
1.0
  0
MTEXT
  5
15B
330
1F
100
AcDbEntity
  8
VORLAGE_TEXT
100
AcDbMText
 10
90.033223
 20
290.5566702875
 30
0.0
 40
2.0
 41
0.0
 71
     2
 72
     1
  1
2
  7
SLDTEXTSTYLE0
 73
     1
 44
1.0
  0
MTEXT
  5
15C
330
1F
100
AcDbEntity
  8
VORLAGE_TEXT
100
AcDbMText
 10
40.0509551097
 20
290.5530165805
 30
0.0
 40
2.0
 41
0.0
 71
     2
 72
     1
  1
1
  7
SLDTEXTSTYLE0
 73
     1
 44
1.0
  0
MTEXT
  5
15D
330
1F
100
AcDbEntity
  8
VORLAGE_TEXT
100
AcDbMText
 10
17.5609786315
 20
271.2966048816
 30
0.0
 40
2.0
 41
0.0
 71
     2
 72
     1
  1
A
  7
SLDTEXTSTYLE0
 73
     1
 44
1.0
  0
MTEXT
  5
15E
330
1F
100
AcDbEntity
  8
VORLAGE_TEXT
100
AcDbMText
 10
89.9333968896
 20
8.5904490253
 30
0.0
 40
2.0
 41
0.0
 71
     2
 72
     1
  1
2
  7
SLDTEXTSTYLE0
 73
     1
 44
1.0
  0
MTEXT
  5
15F
330
1F
100
AcDbEntity
  8
VORLAGE_TEXT
100
AcDbMText
 10
39.9009486579
 20
8.6623118453
 30
0.0
 40
2.0
 41
0.0
 71
     2
 72
     1
  1
1
  7
SLDTEXTSTYLE0
 73
     1
 44
1.0
  0
MTEXT
  5
160
330
1F
100
AcDbEntity
  8
VORLAGE_TEXT
100
AcDbMText
 10
190.0227230239
 20
8.7073169286
 30
0.0
 40
2.0
 41
0.0
 71
     2
 72
     1
  1
4
  7
SLDTEXTSTYLE0
 73
     1
 44
1.0
  0
MTEXT
  5
161
330
1F
100
AcDbEntity
  8
VORLAGE_TEXT
100
AcDbMText
 10
140.0453427777
 20
8.5647154541
 30
0.0
 40
2.0
 41
0.0
 71
     2
 72
     1
  1
3
  7
SLDTEXTSTYLE0
 73
     1
 44
1.0
  0
MTEXT
  5
162
330
1F
100
AcDbEntity
  8
VORLAGE_TEXT
100
AcDbMText
 10
239.8749782531
 20
8.5637526825
 30
0.0
 40
2.0
 41
0.0
 71
     2
 72
     1
  1
5
  7
SLDTEXTSTYLE0
 73
     1
 44
1.0
  0
MTEXT
  5
163
330
1F
100
AcDbEntity
  8
VORLAGE_TEXT
100
AcDbMText
 10
412.6717254925
 20
224.51208263
 30
0.0
 40
2.0
 41
0.0
 71
     2
 72
     1
  1
B
  7
SLDTEXTSTYLE0
 73
     1
 44
1.0
  0
MTEXT
  5
164
330
1F
100
AcDbEntity
  8
VORLAGE_TEXT
100
AcDbMText
 10
412.5951211154
 20
271.2798202564
 30
0.0
 40
2.0
 41
0.0
 71
     2
 72
     1
  1
A
  7
SLDTEXTSTYLE0
 73
     1
 44
1.0
  0
MTEXT
  5
165
330
1F
100
AcDbEntity
  8
VORLAGE_TEXT
100
AcDbMText
 10
412.6491448679
 20
174.7279841048
 30
0.0
 40
2.0
 41
0.0
 71
     2
 72
     1
  1
C
  7
SLDTEXTSTYLE0
 73
     1
 44
1.0
  0
MTEXT
  5
166
330
1F
100
AcDbEntity
  8
VORLAGE_TEXT
100
AcDbMText
 10
340.0216466634
 20
290.5954278102
 30
0.0
 40
2.0
 41
0.0
 71
     2
 72
     1
  1
7
  7
SLDTEXTSTYLE0
 73
     1
 44
1.0
  0
MTEXT
  5
167
330
1F
100
AcDbEntity
  8
VORLAGE_TEXT
100
AcDbMText
 10
390.037657264
 20
290.6215496941
 30
0.0
 40
2.0
 41
0.0
 71
     2
 72
     1
  1
8
  7
SLDTEXTSTYLE0
 73
     1
 44
1.0
  0
MTEXT
  5
168
330
1F
100
AcDbEntity
  8
VORLAGE_TEXT
100
AcDbMText
 10
17.6897935208
 20
74.7267628143
 30
0.0
 40
2.0
 41
0.0
 71
     2
 72
     1
  1
E
  7
SLDTEXTSTYLE0
 73
     1
 44
1.0
  0
MTEXT
  5
169
330
1F
100
AcDbEntity
  8
VORLAGE_TEXT
100
AcDbMText
 10
17.5936930126
 20
27.773321616
 30
0.0
 40
2.0
 41
0.0
 71
     2
 72
     1
  1
F
  7
SLDTEXTSTYLE0
 73
     1
 44
1.0
  0
MTEXT
  5
16A
330
1F
100
AcDbEntity
  8
VORLAGE_TEXT
100
AcDbMText
 10
339.8003474583
 20
8.7205095051
 30
0.0
 40
2.0
 41
0.0
 71
     2
 72
     1
  1
7
  7
SLDTEXTSTYLE0
 73
     1
 44
1.0
  0
MTEXT
  5
16B
330
1F
100
AcDbEntity
  8
VORLAGE_TEXT
100
AcDbMText
 10
289.7886477179
 20
8.6884673623
 30
0.0
 40
2.0
 41
0.0
 71
     2
 72
     1
  1
6
  7
SLDTEXTSTYLE0
 73
     1
 44
1.0
  0
MTEXT
  5
16C
330
1F
100
AcDbEntity
  8
VORLAGE_TEXT
100
AcDbMText
 10
412.5160699095
 20
74.5096307526
 30
0.0
 40
2.0
 41
0.0
 71
     2
 72
     1
  1
E
  7
SLDTEXTSTYLE0
 73
     1
 44
1.0
  0
MTEXT
  5
16D
330
1F
100
AcDbEntity
  8
VORLAGE_TEXT
100
AcDbMText
 10
412.6234021365
 20
124.4517683275
 30
0.0
 40
2.0
 41
0.0
 71
     2
 72
     1
  1
D
  7
SLDTEXTSTYLE0
 73
     1
 44
1.0
  0
MTEXT
  5
16E
330
1F
100
AcDbEntity
  8
TEXT-DEUTSCH
100
AcDbMText
 10
411.7952690469
 20
41.8548502951
 30
0.0
 40
1.8
 41
0.0
 71
     3
 72
     1
  1
Plotdatum: 18.09.2023
  7
SLDTEXTSTYLE0
 11
-3.269436733918102E-15
 21
1.0
 31
0.0
 73
     1
 44
1.0
  0
MTEXT
  5
16F
330
1F
100
AcDbEntity
  8
VORLAGE_TEXT
100
AcDbMText
 10
412.557933251
 20
8.2549718046
 30
0.0
 40
1.8
 41
0.0
 71
     2
 72
     1
  1
A3
  7
SLDTEXTSTYLE0
 73
     1
 44
1.0
  0
MTEXT
  5
170
330
1F
100
AcDbEntity
  8
VORLAGE_TEXT
100
AcDbMText
 10
390.594604279
 20
8.3847467643
 30
0.0
 40
1.8
 41
0.0
 71
     2
 72
     1
  1
CAD-System: SolidWorks
  7
SLDTEXTSTYLE0
 73
     1
 44
1.0
  0
MTEXT
  5
171
330
1F
100
AcDbEntity
  8
TEXT
100
AcDbMText
 10
403.9986368527
 20
28.4394692021
 30
0.0
 40
5.0
 41
0.0
 71
     2
 72
     1
  1
A
  7
SLDTEXTSTYLE0
 73
     1
 44
1.0
  0
MTEXT
  5
172
330
1F
100
AcDbEntity
  8
TEXT
100
AcDbMText
 10
249.556836311
 20
38.5581729516
 30
0.0
 40
2.0
 41
0.0
 71
     1
 72
     1
  1
Freigegeben
  7
SLDTEXTSTYLE0
 73
     1
 44
1.0
  0
MTEXT
  5
173
330
1F
100
AcDbEntity
  8
TEXT
100
AcDbMText
 10
284.1136255556
 20
43.5473338598
 30
0.0
 40
2.0
 41
0.0
 71
     2
 72
     1
  1
bae
  7
SLDTEXTSTYLE0
 73
     1
 44
1.0
  0
MTEXT
  5
174
330
1F
100
AcDbEntity
  8
TEXT
100
AcDbMText
 10
249.5284668163
 20
43.5603133928
 30
0.0
 40
2.0
 41
0.0
 71
     1
 72
     1
  1
18.09.2023
  7
SLDTEXTSTYLE0
 73
     1
 44
1.0
  0
MTEXT
  5
175
330
1F
100
AcDbEntity
  8
TEXT
100
AcDbMText
 10
284.1309088133
 20
48.5138972561
 30
0.0
 40
2.0
 41
0.0
 71
     2
 72
     1
  1
AB
  7
SLDTEXTSTYLE0
 73
     1
 44
1.0
  0
MTEXT
  5
176
330
1F
100
AcDbEntity
  8
TEXT
100
AcDbMText
 10
249.5284668163
 20
48.4989062069
 30
0.0
 40
2.0
 41
0.0
 71
     1
 72
     1
  1
01.02.2021
  7
SLDTEXTSTYLE0
 73
     1
 44
1.0
  0
MTEXT
  5
177
330
1F
100
AcDbEntity
  8
0
  6
Continuous
 62
     7
370
     0
100
AcDbMText
 10
372.2007348103
 20
38.8723054925
 30
0.0
 40
1.5
 41
0.0
 71
     1
 72
     1
  1
Copyright reserved! © ACO AG
  7
SLDTEXTSTYLE0
 73
     1
 44
1.0
  0
INSERT
  5
180
330
1F
100
AcDbEntity
  8
0
  6
Continuous
 62
     7
370
     0
100
AcDbBlockReference
  2
SW_NOTE_0_3
 10
372.2203831445
 20
51.2202922854
 30
0.0
  0
MTEXT
  5
181
330
1F
100
AcDbEntity
  8
TEXT
100
AcDbMText
 10
364.9468572407
 20
13.5417229519
 30
0.0
 40
2.0
 41
0.0
 71
     1
 72
     1
  1
Erstausgabe
  7
SLDTEXTSTYLE0
 73
     1
 44
1.0
  0
MTEXT
  5
182
330
1F
100
AcDbEntity
  8
TEXT
100
AcDbMText
 10
330.2607505021
 20
13.524501801
 30
0.0
 40
2.0
 41
0.0
 71
     2
 72
     1
  1
-
  7
SLDTEXTSTYLE0
 73
     1
 44
1.0
  0
MTEXT
  5
183
330
1F
100
AcDbEntity
  8
TEXT
100
AcDbMText
 10
364.9468572407
 20
18.4594173137
 30
0.0
 40
2.0
 41
0.0
 71
     1
 72
     1
  1
SAP-Nr.
  7
SLDTEXTSTYLE0
 73
     1
 44
1.0
  0
MTEXT
  5
184
330
1F
100
AcDbEntity
  8
TEXT
100
AcDbMText
 10
354.2676663079
 20
18.5245664709
 30
0.0
 40
2.0
 41
0.0
 71
     2
 72
     1
  1
bae
  7
SLDTEXTSTYLE0
 73
     1
 44
1.0
  0
MTEXT
  5
185
330
1F
100
AcDbEntity
  8
TEXT
100
AcDbMText
 10
340.3080766506
 20
18.5245664709
 30
0.0
 40
2.0
 41
0.0
 71
     2
 72
     1
  1
18.09.2023
  7
SLDTEXTSTYLE0
 73
     1
 44
1.0
  0
MTEXT
  5
186
330
1F
100
AcDbEntity
  8
TEXT
100
AcDbMText
 10
330.227417144
 20
18.524501801
 30
0.0
 40
2.0
 41
0.0
 71
     2
 72
     1
  1
A
  7
SLDTEXTSTYLE0
 73
     1
 44
1.0
  0
MTEXT
  5
187
330
1F
100
AcDbEntity
  8
VORLAGE_TEXT
100
AcDbMText
 10
311.764909851
 20
46.3490312465
 30
0.0
 40
5.0
 41
0.0
 71
     2
 72
     1
  1
1:1
  7
SLDTEXTSTYLE0
 73
     1
 44
1.0
  0
MTEXT
  5
188
330
1F
100
AcDbEntity
  8
VORLAGE_TEXT
100
AcDbMText
 10
230.1851195342
 20
38.7793829468
 30
0.0
 40
2.0
 41
0.0
 71
     1
 72
     1
  1
Status:
  7
SLDTEXTSTYLE0
 73
     1
 44
1.0
  0
MTEXT
  5
189
330
1F
100
AcDbEntity
  8
TEXT
100
AcDbMText
 10
344.926838705
 20
28.2772828851
 30
0.0
 40
5.0
 41
0.0
 71
     1
 72
     1
  1
98403
  7
SLDTEXTSTYLE0
 73
     1
 44
1.0
  0
MTEXT
  5
18A
330
1F
100
AcDbEntity
  8
TEXT
100
AcDbMText
 10
231.1132118803
 20
14.9211049657
 30
0.0
 40
2.5
 41
0.0
 71
     1
 72
     1
  1
Art. Nr.: 2021385
  7
SLDTEXTSTYLE0
 73
     1
 44
1.0
  0
MTEXT
  5
18B
330
1F
100
AcDbEntity
  8
TEXT
100
AcDbMText
 10
231.1475981734
 20
21.4529560996
 30
0.0
 40
2.5
 41
0.0
 71
     1
 72
     1
  1
Pipe Dichtung EPDM
  7
SLDTEXTSTYLE0
 73
     1
 44
1.0
  0
MTEXT
  5
18C
330
1F
100
AcDbEntity
  8
TEXT
100
AcDbMText
 10
231.1159560181
 20
33.0904969858
 30
0.0
 40
2.5
 41
0.0
 71
     1
 72
     1
  1
ACO-Standard
  7
SLDTEXTSTYLE0
 73
     1
 44
1.0
  0
MTEXT
  5
18D
330
1F
100
AcDbEntity
  8
TEXT
100
AcDbMText
 10
231.1475981734
 20
28.0307932366
 30
0.0
 40
3.5
 41
0.0
 71
     1
 72
     1
  1
Pipe Dichtung Ø160
  7
SLDTEXTSTYLE0
 73
     1
 44
1.0
  0
MTEXT
  5
18E
330
1F
100
AcDbEntity
  8
VORLAGE_TEXT
100
AcDbMText
 10
348.2746465368
 20
53.819119072
 30
0.0
 40
2.0
 41
0.0
 71
     1
 72
     1
  1
Projektion: ISO-E
  7
SLDTEXTSTYLE0
 73
     1
 44
1.0
  0
MTEXT
  5
18F
330
1F
100
AcDbEntity
  8
TEXT
100
AcDbMText
 10
337.7677091855
 20
49.3670227094
 30
0.0
 40
2.5
 41
0.0
 71
     2
 72
     1
  1
Millimeter
  7
SLDTEXTSTYLE0
 73
     1
 44
1.0
  0
MTEXT
  5
190
330
1F
100
AcDbEntity
  8
VORLAGE_TEXT
100
AcDbMText
 10
337.6323777421
 20
53.855374072
 30
0.0
 40
2.0
 41
0.0
 71
     2
 72
     1
  1
Masseinheit:
  7
SLDTEXTSTYLE0
 73
     1
 44
1.0
  0
MTEXT
  5
191
330
1F
100
AcDbEntity
  8
VORLAGE_TEXT
100
AcDbMText
 10
337.6114490186
 20
43.5452078816
 30
0.0
 40
2.0
 41
0.0
 71
     2
 72
     1
  1
Blatt / Anz.:
  7
SLDTEXTSTYLE0
 73
     1
 44
1.0
  0
MTEXT
  5
192
330
1F
100
AcDbEntity
  8
VORLAGE_TEXT
100
AcDbMText
 10
329.2895578243
 20
28.4139191092
 30
0.0
 40
5.0
 41
0.0
 71
     1
 72
     1
  1
CH
  7
SLDTEXTSTYLE0
 73
     1
 44
1.0
  0
MTEXT
  5
193
330
1F
100
AcDbEntity
  8
VORLAGE_TEXT
100
AcDbMText
 10
330.40704
 20
33.692638072
 30
0.0
 40
2.0
 41
0.0
 71
     1
 72
     1
  1
Zeichnung Nr.:
  7
SLDTEXTSTYLE0
 73
     1
 44
1.0
  0
MTEXT
  5
194
330
1F
100
AcDbEntity
  8
VORLAGE_TEXT
100
AcDbMText
 10
269.897953
 20
75.161075072
 30
0.0
 40
2.0
 41
0.0
 71
     1
 72
     1
  1
Gewicht:
  7
SLDTEXTSTYLE0
 73
     1
 44
1.0
  0
MTEXT
  5
195
330
1F
100
AcDbEntity
  8
VORLAGE_TEXT
100
AcDbMText
 10
230.0
 20
64.542328072
 30
0.0
 40
2.0
 41
0.0
 71
     1
 72
     1
  1
zul. Abweichung:
  7
SLDTEXTSTYLE0
 73
     1
 44
1.0
  0
MTEXT
  5
196
330
1F
100
AcDbEntity
  8
VORLAGE_TEXT
100
AcDbMText
 10
269.612607
 20
64.542328072
 30
0.0
 40
2.0
 41
0.0
 71
     1
 72
     1
  1
Oberfläche:
  7
SLDTEXTSTYLE0
 73
     1
 44
1.0
  0
MTEXT
  5
197
330
1F
100
AcDbEntity
  8
VORLAGE_TEXT
100
AcDbMText
 10
230.261411
 20
43.4433838912
 30
0.0
 40
2.0
 41
0.0
 71
     1
 72
     1
  1
Freigegeben:
  7
SLDTEXTSTYLE0
 73
     1
 44
1.0
  0
MTEXT
  5
198
330
1F
100
AcDbEntity
  8
VORLAGE_TEXT
100
AcDbMText
 10
230.0
 20
75.161075072
 30
0.0
 40
2.0
 41
0.0
 71
     1
 72
     1
  1
Werkstoff:
  7
SLDTEXTSTYLE0
 73
     1
 44
1.0
  0
MTEXT
  5
199
330
1F
100
AcDbEntity
  8
VORLAGE_TEXT
100
AcDbMText
 10
254.035545
 20
53.129475072
 30
0.0
 40
2.0
 41
0.0
 71
     1
 72
     1
  1
Datum:
  7
SLDTEXTSTYLE0
 73
     1
 44
1.0
  0
MTEXT
  5
19A
330
1F
100
AcDbEntity
  8
VORLAGE_TEXT
100
AcDbMText
 10
279.934928
 20
53.136060072
 30
0.0
 40
2.0
 41
0.0
 71
     1
 72
     1
  1
Name:
  7
SLDTEXTSTYLE0
 73
     1
 44
1.0
  0
MTEXT
  5
19B
330
1F
100
AcDbEntity
  8
VORLAGE_TEXT
100
AcDbMText
 10
312.162455406
 20
53.881591072
 30
0.0
 40
2.0
 41
0.0
 71
     2
 72
     1
  1
Massstab:
  7
SLDTEXTSTYLE0
 73
     1
 44
1.0
  0
MTEXT
  5
19C
330
1F
100
AcDbEntity
  8
VORLAGE_TEXT
100
AcDbMText
 10
403.9552944035
 20
33.324874072
 30
0.0
 40
2.0
 41
0.0
 71
     2
 72
     1
  1
Index:
  7
SLDTEXTSTYLE0
 73
     1
 44
1.0
  0
MTEXT
  5
19D
330
1F
100
AcDbEntity
  8
VORLAGE_TEXT
100
AcDbMText
 10
230.261411
 20
48.4499477886
 30
0.0
 40
2.0
 41
0.0
 71
     1
 72
     1
  1
Erstellt:
  7
SLDTEXTSTYLE0
 73
     1
 44
1.0
  0
MTEXT
  5
19F
330
1F
100
AcDbEntity
  8
VORLAGE_TEXT
100
AcDbMText
 10
337.6348165843
 20
39.869706576
 30
0.0
 40
2.5
 41
0.0
 71
     2
 72
     1
  1
1 / 1
  7
SLDTEXTSTYLE1
 73
     1
 44
1.0
  0
MTEXT
  5
1A0
330
1F
100
AcDbEntity
  8
TEXT
100
AcDbMText
 10
269.612607
 20
60.8119428599
 30
0.0
 40
3.0
 41
0.0
 71
     1
 72
     1
  1
DIN ISO 1302
  7
SLDTEXTSTYLE0
 73
     1
 44
1.0
  0
MTEXT
  5
1A1
330
1F
100
AcDbEntity
  8
TEXT
100
AcDbMText
 10
230.0
 20
60.8119428599
 30
0.0
 40
3.0
 41
0.0
 71
     1
 72
     1
  1
Norm
  7
SLDTEXTSTYLE0
 73
     1
 44
1.0
  0
MTEXT
  5
1A2
330
1F
100
AcDbEntity
  8
TEXT
100
AcDbMText
 10
269.612607
 20
71.2121947186
 30
0.0
 40
3.0
 41
0.0
 71
     1
 72
     1
  1
0.08
  7
SLDTEXTSTYLE0
 73
     1
 44
1.0
  0
MTEXT
  5
1A3
330
1F
100
AcDbEntity
  8
TEXT
100
AcDbMText
 10
230.0
 20
71.2121947186
 30
0.0
 40
3.0
 41
0.0
 71
     1
 72
     1
  1
EPDM 60
  7
SLDTEXTSTYLE0
 73
     1
 44
1.0
  0
CIRCLE
  5
1A4
330
1F
100
AcDbEntity
  8
0
  6
Continuous
 62
     7
370
    25
100
AcDbCircle
 10
134.4282219828
 20
121.7315948276
 30
0.0
 40
82.70314551792941
  0
CIRCLE
  5
1A5
330
1F
100
AcDbEntity
  8
0
  6
Continuous
 62
     7
370
    25
100
AcDbCircle
 10
134.4282219828
 20
121.7315948276
 30
0.0
 40
87.500000000022
  0
CIRCLE
  5
1A6
330
1F
100
AcDbEntity
  8
0
  6
Continuous
 62
     7
370
    25
100
AcDbCircle
 10
134.4282219828
 20
121.7315948276
 30
0.0
 40
82.599573628734
  0
CIRCLE
  5
1A7
330
1F
100
AcDbEntity
  8
0
  6
Continuous
 62
     7
370
    25
100
AcDbCircle
 10
134.4282219828
 20
121.7315948276
 30
0.0
 40
87.77530398698303
  0
CIRCLE
  5
1A8
330
1F
100
AcDbEntity
  8
0
  6
Continuous
 62
     7
370
    25
100
AcDbCircle
 10
134.4282219828
 20
121.7315948276
 30
0.0
 40
84.12609720876037
  0
CIRCLE
  5
1A9
330
1F
100
AcDbEntity
  8
0
  6
Continuous
 62
     7
370
    25
100
AcDbCircle
 10
134.4282219828
 20
121.7315948276
 30
0.0
 40
86.1993804183797
  0
CIRCLE
  5
1AA
330
1F
100
AcDbEntity
  8
0
  6
Continuous
 62
     8
370
    18
100
AcDbCircle
 10
134.4282219828
 20
121.7315948276
 30
0.0
 40
83.21173069865148
  0
CIRCLE
  5
1AB
330
1F
100
AcDbEntity
  8
0
  6
Continuous
 62
     8
370
    18
100
AcDbCircle
 10
134.4282219828
 20
121.7315948276
 30
0.0
 40
83.91359991158909
  0
CIRCLE
  5
1AC
330
1F
100
AcDbEntity
  8
0
  6
Continuous
 62
     8
370
    18
100
AcDbCircle
 10
134.4282219828
 20
121.7315948276
 30
0.0
 40
87.34396970880202
  0
CIRCLE
  5
1AD
330
1F
100
AcDbEntity
  8
0
  6
Continuous
 62
     8
370
    18
100
AcDbCircle
 10
134.4282219828
 20
121.7315948276
 30
0.0
 40
82.62465854307911
  0
CIRCLE
  5
1AE
330
1F
100
AcDbEntity
  8
0
  6
Continuous
 62
     8
370
    18
100
AcDbCircle
 10
134.4282219828
 20
121.7315948276
 30
0.0
 40
76.56316675575057
  0
CIRCLE
  5
1AF
330
1F
100
AcDbEntity
  8
0
  6
Continuous
 62
     8
370
    18
100
AcDbCircle
 10
134.4282219828
 20
121.7315948276
 30
0.0
 40
80.9085525507026
  0
CIRCLE
  5
1B0
330
1F
100
AcDbEntity
  8
0
  6
Continuous
 62
     8
370
    18
100
AcDbCircle
 10
134.4282219828
 20
121.7315948276
 30
0.0
 40
75.33081066539985
  0
CIRCLE
  5
1B1
330
1F
100
AcDbEntity
  8
0
  6
Continuous
 62
     8
370
    18
100
AcDbCircle
 10
134.4282219828
 20
121.7315948276
 30
0.0
 40
87.76360892870231
  0
DIMENSION
  5
1B2
330
1F
100
AcDbEntity
  8
0
  6
Continuous
 62
     7
370
    18
100
AcDbDimension
  2
_D
 10
72.3617093129
 20
59.6650821577
 30
0.0
 11
205.7287551773
 21
193.0321280221
 31
0.0
 70
   163
  1
<>
 71
     1
 42
-1.0
  3
SLDDIMSTYLE0
100
AcDbDiametricDimension
 15
196.4947346527
 25
183.7981074975
 35
0.0
 40
0.0
  0
DIMENSION
  5
1BB
330
1F
100
AcDbEntity
  8
0
  6
Continuous
 62
     7
370
    18
100
AcDbDimension
  2
_D_1
 10
199.5513757186
 20
159.3304651675
 30
0.0
 11
221.5380789855
 21
172.0244984437
 31
0.0
 70
   163
  1
<>
 71
     1
 42
-1.0
  3
SLDDIMSTYLE1
100
AcDbDiametricDimension
 15
69.3050682469
 25
84.1327244877
 35
0.0
 40
0.0
  0
INSERT
  5
1D1
330
1F
100
AcDbEntity
  8
0
  6
Continuous
 62
     7
370
     0
100
AcDbBlockReference
  2
SW_CENTERMARKSYMBOL_0
 10
134.4282219828
 20
121.7315948276
 30
0.0
  0
LINE
  5
1D2
330
1F
100
AcDbEntity
  8
0
  6
CENTER
 62
     7
370
    18
100
AcDbLine
 10
228.6769302103
 20
121.7315948276
 30
0.0
 11
40.5184913819
 21
121.7315948276
 31
0.0
  0
LINE
  5
1D3
330
1F
100
AcDbEntity
  8
0
  6
Continuous
 62
     7
370
    18
100
AcDbLine
 10
226.6769302103
 20
114.1315948276
 30
0.0
 11
226.6769302103
 21
121.7315948276
 31
0.0
  0
SOLID
  5
1D4
330
1F
100
AcDbEntity
  8
0
  6
Continuous
 62
     7
370
    18
100
AcDbTrace
 10
226.6769302103
 20
121.7315948276
 30
0.0
 11
225.8769302103
 21
116.7315948276
 31
0.0
 12
227.4769302103
 22
116.7315948276
 32
0.0
 13
227.4769302103
 23
116.7315948276
 33
0.0
  0
LINE
  5
1D5
330
1F
100
AcDbEntity
  8
0
  6
Continuous
 62
     7
370
    18
100
AcDbLine
 10
42.5184913819
 20
114.1315948276
 30
0.0
 11
42.5184913819
 21
121.7315948276
 31
0.0
  0
SOLID
  5
1D6
330
1F
100
AcDbEntity
  8
0
  6
Continuous
 62
     7
370
    18
100
AcDbTrace
 10
42.5184913819
 20
121.7315948276
 30
0.0
 11
41.7184913819
 21
116.7315948276
 31
0.0
 12
43.3184913819
 22
116.7315948276
 32
0.0
 13
43.3184913819
 23
116.7315948276
 33
0.0
  0
MTEXT
  5
1D7
330
1F
100
AcDbEntity
  8
0
  6
Continuous
 62
     7
100
AcDbMText
 10
224.6511152817
 20
112.5824986933
 30
0.0
 40
5.0
 41
0.0
 71
     1
 72
     1
  1
A
  7
SLDTEXTSTYLE0
 73
     1
 44
1.0
  0
MTEXT
  5
1D8
330
1F
100
AcDbEntity
  8
0
  6
Continuous
 62
     7
100
AcDbMText
 10
40.1314848281
 20
112.4147578295
 30
0.0
 40
5.0
 41
0.0
 71
     1
 72
     1
  1
A
  7
SLDTEXTSTYLE0
 73
     1
 44
1.0
  0
LINE
  5
1D9
330
1F
100
AcDbEntity
  8
0
  6
Continuous
 62
     7
370
    25
100
AcDbLine
 10
52.1910779272
 20
236.2972012212
 30
0.0
 11
216.6653660383
 21
236.2972012212
 31
0.0
  0
LINE
  5
1DA
330
1F
100
AcDbEntity
  8
0
  6
Continuous
 62
     7
370
    25
100
AcDbLine
 10
211.3943009881
 20
241.8145034152
 30
0.0
 11
57.4621429774
 21
241.8145034152
 31
0.0
  0
LINE
  5
1DB
330
1F
100
AcDbEntity
  8
0
  6
Continuous
 62
     7
370
    25
100
AcDbLine
 10
46.7777422288
 20
244.2598549381
 30
0.0
 11
47.5177256483
 21
244.2598549381
 31
0.0
  0
LINE
  5
1DC
330
1F
100
AcDbEntity
  8
0
  6
Continuous
 62
     7
370
    25
100
AcDbLine
 10
221.3387183172
 20
244.2598549381
 30
0.0
 11
222.0787017367
 21
244.2598549381
 31
0.0
  0
LINE
  5
1DD
330
1F
100
AcDbEntity
  8
0
  6
Continuous
 62
     7
370
    25
100
AcDbLine
 10
57.3012933718
 20
246.4692546928
 30
0.0
 11
211.5551505937
 21
246.4692546928
 31
0.0
  0
LINE
  5
1DE
330
1F
100
AcDbEntity
  8
0
  6
Continuous
 62
     7
370
    25
100
AcDbLine
 10
217.5058401997
 20
254.398307643
 30
0.0
 11
51.3506037658
 21
254.398307643
 31
0.0
  0
ARC
  5
1DF
330
1F
100
AcDbEntity
  8
0
  6
Continuous
 62
     7
370
    25
100
AcDbCircle
 10
47.2402825657
 20
242.0885469075
 30
0.0
 40
0.3120605827632971
100
AcDbArc
 50
120.0000000544
 51
239.9999999459
  0
LINE
  5
1E0
330
1F
100
AcDbEntity
  8
0
  6
Continuous
 62
     7
370
    25
100
AcDbLine
 10
47.084252274
 20
242.3587992995
 30
0.0
 11
47.361695357
 21
242.5189811381
 31
0.0
  0
ARC
  5
1E1
330
1F
100
AcDbEntity
  8
0
  6
Continuous
 62
     7
370
    25
100
AcDbCircle
 10
47.2056650658
 20
242.7892335302
 30
0.0
 40
0.3120605825533929
100
AcDbArc
 50
299.9999999995
 51
359.9999999999
  0
LINE
  5
1E2
330
1F
100
AcDbEntity
  8
0
  6
Continuous
 62
     7
370
    25
100
AcDbLine
 10
47.5177256483
 20
242.7892335302
 30
0.0
 11
47.5177256483
 21
244.5106537674
 31
0.0
  0
ARC
  5
1E3
330
1F
100
AcDbEntity
  8
0
  6
Continuous
 62
     7
370
    25
100
AcDbCircle
 10
47.3929014153
 20
244.5106537674
 30
0.0
 40
0.1248242330213216
100
AcDbArc
 50
0.0
 51
124.9999999936
  0
LINE
  5
1E4
330
1F
100
AcDbEntity
  8
0
  6
Continuous
 62
     7
370
    25
100
AcDbLine
 10
46.8493384675
 20
244.2824291455
 30
0.0
 11
47.3213051765
 21
244.6129037931
 31
0.0
  0
ARC
  5
1E5
330
1F
100
AcDbEntity
  8
0
  6
Continuous
 62
     7
370
    25
100
AcDbCircle
 10
46.7777422288
 20
244.3846791715
 30
0.0
 40
0.1248242332286444
100
AcDbArc
 50
155.0000002227
 51
304.999999885
  0
LINE
  5
1E6
330
1F
100
AcDbEntity
  8
0
  6
Continuous
 62
     7
370
    25
100
AcDbLine
 10
46.6646130541
 20
244.4374321715
 30
0.0
 11
47.4884880023
 21
246.2042376999
 31
0.0
  0
ARC
  5
1E7
330
1F
100
AcDbEntity
  8
0
  6
Continuous
 62
     7
370
    25
100
AcDbCircle
 10
47.2056650663
 20
246.3361202007
 30
0.0
 40
0.3120605825532968
100
AcDbArc
 50
335.0000000206
 51
0.0000000193
  0
LINE
  5
1E8
330
1F
100
AcDbEntity
  8
0
  6
Continuous
 62
     7
370
    25
100
AcDbLine
 10
47.5177256487
 20
246.3361202008
 30
0.0
 11
47.5177256486
 21
246.9787186733
 31
0.0
  0
ARC
  5
1E9
330
1F
100
AcDbEntity
  8
0
  6
Continuous
 62
     7
370
    25
100
AcDbCircle
 10
47.2056650661
 20
246.9787186731
 30
0.0
 40
0.3120605825532863
100
AcDbArc
 50
0.0000000193
 51
60.000000014
  0
LINE
  5
1EA
330
1F
100
AcDbEntity
  8
0
  6
Continuous
 62
     7
370
    25
100
AcDbLine
 10
47.3616953573
 20
247.2489710652
 30
0.0
 11
47.0842522743
 21
247.4091529039
 31
0.0
  0
ARC
  5
1EB
330
1F
100
AcDbEntity
  8
0
  6
Continuous
 62
     7
370
    25
100
AcDbCircle
 10
47.2402825654
 20
247.679405296
 30
0.0
 40
0.3120605825532775
100
AcDbArc
 50
120.0000000247
 51
240.0000000197
  0
LINE
  5
1EC
330
1F
100
AcDbEntity
  8
0
  6
Continuous
 62
     7
370
    25
100
AcDbLine
 10
47.084252274
 20
247.9496576879
 30
0.0
 11
47.3616953571
 21
248.1098395266
 31
0.0
  0
ARC
  5
1ED
330
1F
100
AcDbEntity
  8
0
  6
Continuous
 62
     7
370
    25
100
AcDbCircle
 10
47.2056650657
 20
248.3800919186
 30
0.0
 40
0.3120605825549916
100
AcDbArc
 50
300.0000000201
 51
0.0000000193
  0
LINE
  5
1EE
330
1F
100
AcDbEntity
  8
0
  6
Continuous
 62
     7
370
    25
100
AcDbLine
 10
47.5177256482
 20
248.3800919187
 30
0.0
 11
47.5177256482
 21
249.7035686844
 31
0.0
  0
ARC
  5
1EF
330
1F
100
AcDbEntity
  8
0
  6
Continuous
 62
     7
370
    25
100
AcDbCircle
 10
47.2056650657
 20
249.7035686843
 30
0.0
 40
0.3120605825532863
100
AcDbArc
 50
0.0000000193
 51
60.0000000255
  0
LINE
  5
1F0
330
1F
100
AcDbEntity
  8
0
  6
Continuous
 62
     7
370
    25
100
AcDbLine
 10
47.3616953568
 20
249.9738210764
 30
0.0
 11
47.0842522739
 21
250.134002915
 31
0.0
  0
ARC
  5
1F1
330
1F
100
AcDbEntity
  8
0
  6
Continuous
 62
     7
370
    25
100
AcDbCircle
 10
47.2402825651
 20
250.4042553071
 30
0.0
 40
0.3120605825537586
100
AcDbArc
 50
120.0000000132
 51
240.0000000196
  0
LINE
  5
1F2
330
1F
100
AcDbEntity
  8
0
  6
Continuous
 62
     7
370
    25
100
AcDbLine
 10
47.0842522737
 20
250.6745076991
 30
0.0
 11
47.3616953572
 21
250.8346895381
 31
0.0
  0
ARC
  5
1F3
330
1F
100
AcDbEntity
  8
0
  6
Continuous
 62
     7
370
    25
100
AcDbCircle
 10
47.2056650659
 20
251.1049419301
 30
0.0
 40
0.3120605825532775
100
AcDbArc
 50
300.0000000005
 51
359.9999999998
  0
LINE
  5
1F4
330
1F
100
AcDbEntity
  8
0
  6
Continuous
 62
     7
370
    25
100
AcDbLine
 10
47.5177256484
 20
251.1049419301
 30
0.0
 11
47.5177256483
 21
251.5667411717
 31
0.0
  0
ARC
  5
1F5
330
1F
100
AcDbEntity
  8
0
  6
Continuous
 62
     7
370
    25
100
AcDbCircle
 10
47.2056650657
 20
251.5667411717
 30
0.0
 40
0.3120605825532863
100
AcDbArc
 50
359.9999999998
 51
59.9999999968
  0
LINE
  5
1F6
330
1F
100
AcDbEntity
  8
0
  6
Continuous
 62
     7
370
    25
100
AcDbLine
 10
47.361695357
 20
251.8369935637
 30
0.0
 11
47.084252274
 21
251.9971754024
 31
0.0
  0
ARC
  5
1F7
330
1F
100
AcDbEntity
  8
0
  6
Continuous
 62
     7
370
    25
100
AcDbCircle
 10
47.2402825653
 20
252.2674277944
 30
0.0
 40
0.312060582553569
100
AcDbArc
 50
120.0000000121
 51
239.9999999969
  0
LINE
  5
1F8
330
1F
100
AcDbEntity
  8
0
  6
Continuous
 62
     7
370
    25
100
AcDbLine
 10
47.084252274
 20
252.5376801864
 30
0.0
 11
48.2288415644
 21
253.1985091217
 31
0.0
  0
LINE
  5
1F9
330
1F
100
AcDbEntity
  8
0
  6
Continuous
 62
     7
370
    25
100
AcDbLine
 10
48.2288415644
 20
253.1985091217
 30
0.0
 11
50.302124774
 21
254.0029215585
 31
0.0
  0
ARC
  5
1FA
330
1F
100
AcDbEntity
  8
0
  6
Continuous
 62
     7
370
    25
100
AcDbCircle
 10
51.0510719979
 20
252.705711131
 30
0.0
 40
1.497890796255813
100
AcDbArc
 50
110.98581906
 51
120.0000806426
  0
LINE
  5
1FB
330
1F
100
AcDbEntity
  8
0
  6
Continuous
 62
     7
370
    25
100
AcDbLine
 10
50.5146220712
 20
254.1042454758
 30
0.0
 11
51.2164912841
 21
254.3734685301
 31
0.0
  0
ARC
  5
1FC
330
1F
100
AcDbEntity
  8
0
  6
Continuous
 62
     7
370
    25
100
AcDbCircle
 10
51.3506037658
 20
254.0238349439
 30
0.0
 40
0.3744726990413828
100
AcDbArc
 50
358.0634206337
 51
110.98581906
  0
LINE
  5
1FD
330
1F
100
AcDbEntity
  8
0
  6
Continuous
 62
     7
370
    25
100
AcDbLine
 10
51.6306597346
 20
251.2251493224
 30
0.0
 11
51.7248625829
 21
254.011180294
 31
0.0
  0
LWPOLYLINE
  5
1FE
330
1F
100
AcDbEntity
  8
0
  6
Continuous
 62
     7
370
    25
100
AcDbPolyline
 90
        3
 70
   128
 43
0.0
 10
51.655637708
 20
251.1252038226
 10
51.6337902408
 20
251.1841542238
 10
51.6306597346
 20
251.2251493224
  0
LINE
  5
1FF
330
1F
100
AcDbEntity
  8
0
  6
Continuous
 62
     7
370
    25
100
AcDbLine
 10
51.8035634397
 20
250.8689889397
 30
0.0
 11
51.655637708
 21
251.1252038226
 31
0.0
  0
ARC
  5
200
330
1F
100
AcDbEntity
  8
0
  6
Continuous
 62
     7
370
    25
100
AcDbCircle
 10
51.6414120045
 20
250.7753707649
 30
0.0
 40
0.1872363495324769
100
AcDbArc
 50
334.2543347228
 51
30.000000012
  0
LINE
  5
201
330
1F
100
AcDbEntity
  8
0
  6
Continuous
 62
     7
370
    25
100
AcDbLine
 10
51.2381848841
 20
249.5081871545
 30
0.0
 11
51.8100616085
 21
250.6940395798
 31
0.0
  0
ARC
  5
202
330
1F
100
AcDbEntity
  8
0
  6
Continuous
 62
     7
370
    25
100
AcDbCircle
 10
52.0252163693
 20
249.1286416241
 30
0.0
 40
0.8737696311744785
100
AcDbArc
 50
154.2543347249
 51
359.9999999737
  0
LINE
  5
203
330
1F
100
AcDbEntity
  8
0
  6
Continuous
 62
     7
370
    25
100
AcDbLine
 10
52.8989860005
 20
249.1286416237
 30
0.0
 11
52.8989860005
 21
249.415285659
 31
0.0
  0
ARC
  5
204
330
1F
100
AcDbEntity
  8
0
  6
Continuous
 62
     7
370
    25
100
AcDbCircle
 10
53.5231071657
 20
249.415285659
 30
0.0
 40
0.6241211651343548
100
AcDbArc
 50
90.3155935641
 51
180.0
  0
LINE
  5
205
330
1F
100
AcDbEntity
  8
0
  6
Continuous
 62
     7
370
    25
100
AcDbLine
 10
53.5196694321
 20
250.0393973558
 30
0.0
 11
57.865055227
 21
250.0633326179
 31
0.0
  0
ARC
  5
206
330
1F
100
AcDbEntity
  8
0
  6
Continuous
 62
     7
370
    25
100
AcDbCircle
 10
57.8678054136
 20
249.56404326
 30
0.0
 40
0.4992969320852624
100
AcDbArc
 50
54.9999999992
 51
90.3155935259
  0
LINE
  5
207
330
1F
100
AcDbEntity
  8
0
  6
Continuous
 62
     7
370
    25
100
AcDbLine
 10
59.0974113174
 20
249.312592944
 30
0.0
 11
58.1541903686
 21
249.9730433627
 31
0.0
  0
ARC
  5
208
330
1F
100
AcDbEntity
  8
0
  6
Continuous
 62
     7
370
    25
100
AcDbCircle
 10
58.9184207205
 20
249.05696788
 30
0.0
 40
0.3120605825532744
100
AcDbArc
 50
294.2415900002
 51
54.9999999882
  0
LINE
  5
209
330
1F
100
AcDbEntity
  8
0
  6
Continuous
 62
     7
370
    25
100
AcDbLine
 10
58.6720754212
 20
248.60380254
 30
0.0
 11
59.0465481203
 21
248.7724240756
 31
0.0
  0
LINE
  5
20A
330
1F
100
AcDbEntity
  8
0
  6
Continuous
 62
     7
370
    25
100
AcDbLine
 10
57.4846823673
 20
248.0691306115
 30
0.0
 11
58.6720754212
 21
248.60380254
 31
0.0
  0
ARC
  5
20B
330
1F
100
AcDbEntity
  8
0
  6
Continuous
 62
     7
370
    25
100
AcDbCircle
 10
57.6128097674
 20
247.784586807
 30
0.0
 40
0.312060582823715
100
AcDbArc
 50
114.2415900366
 51
194.0976954374
  0
LINE
  5
20C
330
1F
100
AcDbEntity
  8
0
  6
Continuous
 62
     7
370
    25
100
AcDbLine
 10
57.5434228787
 20
246.7797115341
 30
0.0
 11
57.3101478835
 21
247.7085763381
 31
0.0
  0
ARC
  5
20D
330
1F
100
AcDbEntity
  8
0
  6
Continuous
 62
     7
370
    25
100
AcDbCircle
 10
57.3012933718
 20
246.7189031588
 30
0.0
 40
0.2496484660470622
100
AcDbArc
 50
256.4168996168
 51
14.0976954826
  0
LINE
  5
20E
330
1F
100
AcDbEntity
  8
0
  6
Continuous
 62
     7
370
    25
100
AcDbLine
 10
57.2426620767
 20
246.4762372819
 30
0.0
 11
56.7766086029
 21
246.5888419839
 31
0.0
  0
ARC
  5
20F
330
1F
100
AcDbEntity
  8
0
  6
Continuous
 62
     7
370
    25
100
AcDbCircle
 10
56.7326351315
 20
246.4068425762
 30
0.0
 40
0.1872363495324148
100
AcDbArc
 50
76.4168995966
 51
165.2994334226
  0
LINE
  5
210
330
1F
100
AcDbEntity
  8
0
  6
Continuous
 62
     7
370
    25
100
AcDbLine
 10
56.356884094
 20
245.7124488388
 30
0.0
 11
56.5515279183
 21
246.4543570783
 31
0.0
  0
LWPOLYLINE
  5
211
330
1F
100
AcDbEntity
  8
0
  6
Continuous
 62
     7
370
    25
100
AcDbPolyline
 90
        3
 70
   128
 43
0.0
 10
56.3571348816
 20
245.6164740036
 10
56.3512893354
 20
245.6790702591
 10
56.356884094
 20
245.7124488388
  0
LINE
  5
212
330
1F
100
AcDbEntity
  8
0
  6
Continuous
 62
     7
370
    25
100
AcDbLine
 10
56.424571424
 20
245.3647974008
 30
0.0
 11
56.3571348816
 21
245.6164740036
 31
0.0
  0
ARC
  5
213
330
1F
100
AcDbEntity
  8
0
  6
Continuous
 62
     7
370
    25
100
AcDbCircle
 10
56.123144048
 20
245.2840301787
 30
0.0
 40
0.3120605825561384
100
AcDbArc
 50
313.9389210569
 51
15.0000000175
  0
LINE
  5
214
330
1F
100
AcDbEntity
  8
0
  6
Continuous
 62
     7
370
    25
100
AcDbLine
 10
56.1236954536
 20
244.8511921569
 30
0.0
 11
56.3396801211
 21
245.0593216203
 31
0.0
  0
ARC
  5
215
330
1F
100
AcDbEntity
  8
0
  6
Continuous
 62
     7
370
    25
100
AcDbCircle
 10
56.296924312
 20
244.6714253099
 30
0.0
 40
0.2496484661169281
100
AcDbArc
 50
133.9389210203
 51
180.0
  0
LINE
  5
216
330
1F
100
AcDbEntity
  8
0
  6
Continuous
 62
     7
370
    25
100
AcDbLine
 10
56.0472758459
 20
242.3036095117
 30
0.0
 11
56.047275846
 21
244.6714253099
 31
0.0
  0
ARC
  5
217
330
1F
100
AcDbEntity
  8
0
  6
Continuous
 62
     7
370
    25
100
AcDbCircle
 10
56.671397011
 20
242.3036095117
 30
0.0
 40
0.6241211651343853
100
AcDbArc
 50
180.0
 51
281.0000000003
  0
LINE
  5
218
330
1F
100
AcDbEntity
  8
0
  6
Continuous
 62
     7
370
    25
100
AcDbLine
 10
56.7904849435
 20
241.6909552102
 30
0.0
 11
57.390690218
 21
241.807623297
 31
0.0
  0
ARC
  5
219
330
1F
100
AcDbEntity
  8
0
  6
Continuous
 62
     7
370
    25
100
AcDbCircle
 10
57.4621429774
 20
241.4400307161
 30
0.0
 40
0.3744726990413895
100
AcDbArc
 50
283.7684576818
 51
100.9999999916
  0
ARC
  5
21A
330
1F
100
AcDbEntity
  8
0
  6
Continuous
 62
     7
370
    25
100
AcDbCircle
 10
57.6998071131
 20
240.4701309975
 30
0.0
 40
0.6241211651963166
100
AcDbArc
 50
103.7684575946
 51
152.0000000036
  0
LINE
  5
21B
330
1F
100
AcDbEntity
  8
0
  6
Continuous
 62
     7
370
    25
100
AcDbLine
 10
55.6975563773
 20
238.0338571248
 30
0.0
 11
57.1487408327
 21
240.7631381362
 31
0.0
  0
ARC
  5
21C
330
1F
100
AcDbEntity
  8
0
  6
Continuous
 62
     7
370
    25
100
AcDbCircle
 10
55.9179828895
 20
237.9166542693
 30
0.0
 40
0.2496484660430187
100
AcDbArc
 50
151.9999999989
 51
180.0
  0
LINE
  5
21D
330
1F
100
AcDbEntity
  8
0
  6
Continuous
 62
     7
370
    25
100
AcDbLine
 10
55.6683344234
 20
237.1086132597
 30
0.0
 11
55.6683344234
 21
237.9166542693
 31
0.0
  0
ARC
  5
21E
330
1F
100
AcDbEntity
  8
0
  6
Continuous
 62
     7
370
    25
100
AcDbCircle
 10
55.3183344234
 20
237.1086132597
 30
0.0
 40
0.3500000000001009
100
AcDbArc
 50
278.7114973805
 51
0.0
  0
LINE
  5
21F
330
1F
100
AcDbEntity
  8
0
  6
Continuous
 62
     7
370
    25
100
AcDbLine
 10
52.4746645584
 20
236.3188017168
 30
0.0
 11
55.3713451348
 21
236.7626510299
 31
0.0
  0
ARC
  5
220
330
1F
100
AcDbEntity
  8
0
  6
Continuous
 62
     7
370
    25
100
AcDbCircle
 10
52.1910779272
 20
238.1695647165
 30
0.0
 40
1.872363495319947
100
AcDbArc
 50
263.9999999998
 51
278.711497382
  0
LINE
  5
221
330
1F
100
AcDbEntity
  8
0
  6
Continuous
 62
     7
370
    25
100
AcDbLine
 10
51.9953626484
 20
236.3074582243
 30
0.0
 11
51.3403630221
 21
236.3763014592
 31
0.0
  0
ARC
  5
222
330
1F
100
AcDbEntity
  8
0
  6
Continuous
 62
     7
370
    25
100
AcDbCircle
 10
51.4969352452
 20
237.8659866529
 30
0.0
 40
1.49789079625579
100
AcDbArc
 50
240.0
 51
264.0
  0
LINE
  5
223
330
1F
100
AcDbEntity
  8
0
  6
Continuous
 62
     7
370
    25
100
AcDbLine
 10
50.747989847
 20
236.5687751713
 30
0.0
 11
48.2288415645
 21
237.6306079272
 31
0.0
  0
LINE
  5
224
330
1F
100
AcDbEntity
  8
0
  6
Continuous
 62
     7
370
    25
100
AcDbLine
 10
48.2288415645
 20
237.6306079272
 30
0.0
 11
47.084252274
 21
238.2914368623
 31
0.0
  0
ARC
  5
225
330
1F
100
AcDbEntity
  8
0
  6
Continuous
 62
     7
370
    25
100
AcDbCircle
 10
47.2402825653
 20
238.5616892543
 30
0.0
 40
0.3120605825535473
100
AcDbArc
 50
120.0000000053
 51
240.0000000003
  0
LINE
  5
226
330
1F
100
AcDbEntity
  8
0
  6
Continuous
 62
     7
370
    25
100
AcDbLine
 10
47.084252274
 20
238.8319416463
 30
0.0
 11
47.361695357
 21
238.992123485
 31
0.0
  0
ARC
  5
227
330
1F
100
AcDbEntity
  8
0
  6
Continuous
 62
     7
370
    25
100
AcDbCircle
 10
47.2056650658
 20
239.262375877
 30
0.0
 40
0.3120605825539099
100
AcDbArc
 50
299.9999999994
 51
359.9999999999
  0
LINE
  5
228
330
1F
100
AcDbEntity
  8
0
  6
Continuous
 62
     7
370
    25
100
AcDbLine
 10
47.5177256483
 20
239.262375877
 30
0.0
 11
47.5177256483
 21
241.3878602848
 31
0.0
  0
ARC
  5
229
330
1F
100
AcDbEntity
  8
0
  6
Continuous
 62
     7
370
    25
100
AcDbCircle
 10
47.2056650658
 20
241.3878602848
 30
0.0
 40
0.3120605825532995
100
AcDbArc
 50
359.9999999999
 51
60.0000000062
  0
LINE
  5
22A
330
1F
100
AcDbEntity
  8
0
  6
Continuous
 62
     7
370
    25
100
AcDbLine
 10
47.361695357
 20
241.6581126768
 30
0.0
 11
47.084252274
 21
241.8182945154
 31
0.0
  0
ARC
  5
22B
330
1F
100
AcDbEntity
  8
0
  6
Continuous
 62
     7
370
    25
100
AcDbCircle
 10
221.6507788998
 20
241.3878602848
 30
0.0
 40
0.3120605825532959
100
AcDbArc
 50
119.9999999938
 51
180.0000000001
  0
LINE
  5
22C
330
1F
100
AcDbEntity
  8
0
  6
Continuous
 62
     7
370
    25
100
AcDbLine
 10
221.3387183172
 20
241.3878602848
 30
0.0
 11
221.3387183172
 21
239.262375877
 31
0.0
  0
ARC
  5
22D
330
1F
100
AcDbEntity
  8
0
  6
Continuous
 62
     7
370
    25
100
AcDbCircle
 10
221.6507788998
 20
239.262375877
 30
0.0
 40
0.3120605825538993
100
AcDbArc
 50
180.0000000001
 51
240.0000000006
  0
LINE
  5
22E
330
1F
100
AcDbEntity
  8
0
  6
Continuous
 62
     7
370
    25
100
AcDbLine
 10
221.4947486085
 20
238.992123485
 30
0.0
 11
221.7721916915
 21
238.8319416463
 31
0.0
  0
ARC
  5
22F
330
1F
100
AcDbEntity
  8
0
  6
Continuous
 62
     7
370
    25
100
AcDbCircle
 10
221.6161614002
 20
238.5616892543
 30
0.0
 40
0.3120605825535778
100
AcDbArc
 50
299.9999999997
 51
59.9999999947
  0
LINE
  5
230
330
1F
100
AcDbEntity
  8
0
  6
Continuous
 62
     7
370
    25
100
AcDbLine
 10
221.7721916915
 20
238.2914368623
 30
0.0
 11
220.627602401
 21
237.6306079272
 31
0.0
  0
LINE
  5
231
330
1F
100
AcDbEntity
  8
0
  6
Continuous
 62
     7
370
    25
100
AcDbLine
 10
220.627602401
 20
237.6306079272
 30
0.0
 11
218.1084541185
 21
236.5687751713
 31
0.0
  0
ARC
  5
232
330
1F
100
AcDbEntity
  8
0
  6
Continuous
 62
     7
370
    25
100
AcDbCircle
 10
217.3595087203
 20
237.8659866529
 30
0.0
 40
1.49789079625579
100
AcDbArc
 50
276.0
 51
300.0
  0
LINE
  5
233
330
1F
100
AcDbEntity
  8
0
  6
Continuous
 62
     7
370
    25
100
AcDbLine
 10
217.5160809434
 20
236.3763014592
 30
0.0
 11
216.8610813171
 21
236.3074582243
 31
0.0
  0
ARC
  5
234
330
1F
100
AcDbEntity
  8
0
  6
Continuous
 62
     7
370
    25
100
AcDbCircle
 10
216.6653660383
 20
238.1695647165
 30
0.0
 40
1.872363495319947
100
AcDbArc
 50
261.288502618
 51
276.0000000002
  0
LINE
  5
235
330
1F
100
AcDbEntity
  8
0
  6
Continuous
 62
     7
370
    25
100
AcDbLine
 10
213.4850988307
 20
236.7626510299
 30
0.0
 11
216.3817794071
 21
236.3188017168
 31
0.0
  0
ARC
  5
236
330
1F
100
AcDbEntity
  8
0
  6
Continuous
 62
     7
370
    25
100
AcDbCircle
 10
213.5381095421
 20
237.1086132597
 30
0.0
 40
0.350000000000108
100
AcDbArc
 50
180.0
 51
261.2885026195
  0
LINE
  5
237
330
1F
100
AcDbEntity
  8
0
  6
Continuous
 62
     7
370
    25
100
AcDbLine
 10
213.1881095421
 20
237.9166542693
 30
0.0
 11
213.1881095421
 21
237.1086132597
 31
0.0
  0
ARC
  5
238
330
1F
100
AcDbEntity
  8
0
  6
Continuous
 62
     7
370
    25
100
AcDbCircle
 10
212.938461076
 20
237.9166542693
 30
0.0
 40
0.2496484660430124
100
AcDbArc
 50
0.0
 51
28.0000000011
  0
LINE
  5
239
330
1F
100
AcDbEntity
  8
0
  6
Continuous
 62
     7
370
    25
100
AcDbLine
 10
211.7077031328
 20
240.7631381362
 30
0.0
 11
213.1588875882
 21
238.0338571248
 31
0.0
  0
ARC
  5
23A
330
1F
100
AcDbEntity
  8
0
  6
Continuous
 62
     7
370
    25
100
AcDbCircle
 10
211.1566368524
 20
240.4701309975
 30
0.0
 40
0.6241211651963114
100
AcDbArc
 50
27.9999999964
 51
76.2315424054
  0
ARC
  5
23B
330
1F
100
AcDbEntity
  8
0
  6
Continuous
 62
     7
370
    25
100
AcDbCircle
 10
211.3943009881
 20
241.4400307161
 30
0.0
 40
0.3744726990413912
100
AcDbArc
 50
79.0000000084
 51
256.2315423182
  0
LINE
  5
23C
330
1F
100
AcDbEntity
  8
0
  6
Continuous
 62
     7
370
    25
100
AcDbLine
 10
211.4657537475
 20
241.807623297
 30
0.0
 11
212.065959022
 21
241.6909552102
 31
0.0
  0
ARC
  5
23D
330
1F
100
AcDbEntity
  8
0
  6
Continuous
 62
     7
370
    25
100
AcDbCircle
 10
212.1850469545
 20
242.3036095117
 30
0.0
 40
0.624121165134388
100
AcDbArc
 50
258.9999999997
 51
0.0
  0
LINE
  5
23E
330
1F
100
AcDbEntity
  8
0
  6
Continuous
 62
     7
370
    25
100
AcDbLine
 10
212.8091681195
 20
244.6714253099
 30
0.0
 11
212.8091681196
 21
242.3036095117
 31
0.0
  0
ARC
  5
23F
330
1F
100
AcDbEntity
  8
0
  6
Continuous
 62
     7
370
    25
100
AcDbCircle
 10
212.5595196535
 20
244.6714253099
 30
0.0
 40
0.249648466116933
100
AcDbArc
 50
0.0
 51
46.0610789797
  0
LINE
  5
240
330
1F
100
AcDbEntity
  8
0
  6
Continuous
 62
     7
370
    25
100
AcDbLine
 10
212.5167638444
 20
245.0593216203
 30
0.0
 11
212.7327485119
 21
244.8511921569
 31
0.0
  0
ARC
  5
241
330
1F
100
AcDbEntity
  8
0
  6
Continuous
 62
     7
370
    25
100
AcDbCircle
 10
212.7332999175
 20
245.2840301787
 30
0.0
 40
0.3120605825561178
100
AcDbArc
 50
164.9999999825
 51
226.0610789431
  0
LINE
  5
242
330
1F
100
AcDbEntity
  8
0
  6
Continuous
 62
     7
370
    25
100
AcDbLine
 10
212.499309084
 20
245.6164740036
 30
0.0
 11
212.4318725415
 21
245.3647974008
 31
0.0
  0
ARC
  5
243
330
1F
100
AcDbEntity
  8
0
  6
Continuous
 62
     7
370
    25
100
AcDbCircle
 10
212.3184526583
 20
245.6649343367
 30
0.0
 40
0.1872363495326303
100
AcDbArc
 50
345.000000016
 51
14.7005665796
  0
LINE
  5
244
330
1F
100
AcDbEntity
  8
0
  6
Continuous
 62
     7
370
    25
100
AcDbLine
 10
212.3049160472
 20
246.4543570783
 30
0.0
 11
212.4995598715
 21
245.7124488388
 31
0.0
  0
ARC
  5
245
330
1F
100
AcDbEntity
  8
0
  6
Continuous
 62
     7
370
    25
100
AcDbCircle
 10
212.123808834
 20
246.4068425762
 30
0.0
 40
0.1872363495323942
100
AcDbArc
 50
14.7005665774
 51
103.5831004034
  0
LINE
  5
246
330
1F
100
AcDbEntity
  8
0
  6
Continuous
 62
     7
370
    25
100
AcDbLine
 10
212.0798353626
 20
246.5888419839
 30
0.0
 11
211.6137818888
 21
246.4762372819
 31
0.0
  0
ARC
  5
247
330
1F
100
AcDbEntity
  8
0
  6
Continuous
 62
     7
370
    25
100
AcDbCircle
 10
211.5551505937
 20
246.7189031588
 30
0.0
 40
0.2496484660470656
100
AcDbArc
 50
165.9023045174
 51
283.5831003832
  0
LINE
  5
248
330
1F
100
AcDbEntity
  8
0
  6
Continuous
 62
     7
370
    25
100
AcDbLine
 10
211.546296082
 20
247.7085763381
 30
0.0
 11
211.3130210868
 21
246.7797115341
 31
0.0
  0
ARC
  5
249
330
1F
100
AcDbEntity
  8
0
  6
Continuous
 62
     7
370
    25
100
AcDbCircle
 10
211.2436341984
 20
247.7845868071
 30
0.0
 40
0.3120605825781705
100
AcDbArc
 50
345.9023045257
 51
65.7584100058
  0
LINE
  5
24A
330
1F
100
AcDbEntity
  8
0
  6
Continuous
 62
     7
370
    25
100
AcDbLine
 10
210.1843685443
 20
248.60380254
 30
0.0
 11
211.3717615982
 21
248.0691306115
 31
0.0
  0
LINE
  5
24B
330
1F
100
AcDbEntity
  8
0
  6
Continuous
 62
     7
370
    25
100
AcDbLine
 10
209.8098958452
 20
248.7724240756
 30
0.0
 11
210.1843685443
 21
248.60380254
 31
0.0
  0
ARC
  5
24C
330
1F
100
AcDbEntity
  8
0
  6
Continuous
 62
     7
370
    25
100
AcDbCircle
 10
209.938023245
 20
249.05696788
 30
0.0
 40
0.3120605825532773
100
AcDbArc
 50
125.0000000118
 51
245.7584099998
  0
LINE
  5
24D
330
1F
100
AcDbEntity
  8
0
  6
Continuous
 62
     7
370
    25
100
AcDbLine
 10
210.702253597
 20
249.9730433627
 30
0.0
 11
209.7590326482
 21
249.312592944
 31
0.0
  0
ARC
  5
24E
330
1F
100
AcDbEntity
  8
0
  6
Continuous
 62
     7
370
    25
100
AcDbCircle
 10
210.988638552
 20
249.56404326
 30
0.0
 40
0.4992969320852706
100
AcDbArc
 50
89.6844064741
 51
125.0000000008
  0
LINE
  5
24F
330
1F
100
AcDbEntity
  8
0
  6
Continuous
 62
     7
370
    25
100
AcDbLine
 10
210.9913887385
 20
250.0633326179
 30
0.0
 11
215.3367745335
 21
250.0393973558
 31
0.0
  0
ARC
  5
250
330
1F
100
AcDbEntity
  8
0
  6
Continuous
 62
     7
370
    25
100
AcDbCircle
 10
215.3333367999
 20
249.415285659
 30
0.0
 40
0.6241211651343406
100
AcDbArc
 50
0.0
 51
89.6844064359
  0
LINE
  5
251
330
1F
100
AcDbEntity
  8
0
  6
Continuous
 62
     7
370
    25
100
AcDbLine
 10
215.957457965
 20
249.415285659
 30
0.0
 11
215.957457965
 21
249.1286416237
 31
0.0
  0
ARC
  5
252
330
1F
100
AcDbEntity
  8
0
  6
Continuous
 62
     7
370
    25
100
AcDbCircle
 10
216.8312275962
 20
249.1286416241
 30
0.0
 40
0.8737696312114736
100
AcDbArc
 50
180.0000000251
 51
25.7456652772
  0
LINE
  5
253
330
1F
100
AcDbEntity
  8
0
  6
Continuous
 62
     7
370
    25
100
AcDbLine
 10
217.0463823571
 20
250.6940395798
 30
0.0
 11
217.6182590814
 21
249.5081871545
 31
0.0
  0
ARC
  5
254
330
1F
100
AcDbEntity
  8
0
  6
Continuous
 62
     7
370
    25
100
AcDbCircle
 10
217.215031961
 20
250.7753707649
 30
0.0
 40
0.1872363495324833
100
AcDbArc
 50
149.999999988
 51
205.7456652772
  0
LINE
  5
255
330
1F
100
AcDbEntity
  8
0
  6
Continuous
 62
     7
370
    25
100
AcDbLine
 10
217.2008062575
 20
251.1252038226
 30
0.0
 11
217.0528805258
 21
250.8689889397
 31
0.0
  0
ARC
  5
256
330
1F
100
AcDbEntity
  8
0
  6
Continuous
 62
     7
370
    25
100
AcDbCircle
 10
217.0386548224
 20
251.2188219974
 30
0.0
 40
0.1872363495328636
100
AcDbArc
 50
329.999999988
 51
1.9365793663
  0
LINE
  5
257
330
1F
100
AcDbEntity
  8
0
  6
Continuous
 62
     7
370
    25
100
AcDbLine
 10
217.1315813826
 20
254.011180294
 30
0.0
 11
217.2257842309
 21
251.2251493224
 31
0.0
  0
ARC
  5
258
330
1F
100
AcDbEntity
  8
0
  6
Continuous
 62
     7
370
    25
100
AcDbCircle
 10
217.5058401997
 20
254.0238349439
 30
0.0
 40
0.3744726990413828
100
AcDbArc
 50
69.01418094
 51
181.9365793663
  0
LINE
  5
259
330
1F
100
AcDbEntity
  8
0
  6
Continuous
 62
     7
370
    25
100
AcDbLine
 10
217.6399526814
 20
254.3734685301
 30
0.0
 11
218.3418218943
 21
254.1042454758
 31
0.0
  0
ARC
  5
25A
330
1F
100
AcDbEntity
  8
0
  6
Continuous
 62
     7
370
    25
100
AcDbCircle
 10
217.8053719676
 20
252.705711131
 30
0.0
 40
1.497890796255803
100
AcDbArc
 50
59.9999193574
 51
69.01418094
  0
LINE
  5
25B
330
1F
100
AcDbEntity
  8
0
  6
Continuous
 62
     7
370
    25
100
AcDbLine
 10
218.5543191915
 20
254.0029215585
 30
0.0
 11
220.6276024011
 21
253.1985091217
 31
0.0
  0
LINE
  5
25C
330
1F
100
AcDbEntity
  8
0
  6
Continuous
 62
     7
370
    25
100
AcDbLine
 10
220.6276024011
 20
253.1985091217
 30
0.0
 11
221.7721916916
 21
252.5376801864
 31
0.0
  0
ARC
  5
25D
330
1F
100
AcDbEntity
  8
0
  6
Continuous
 62
     7
370
    25
100
AcDbCircle
 10
221.6161614002
 20
252.2674277944
 30
0.0
 40
0.3120605825533873
100
AcDbArc
 50
300.0000000031
 51
59.999999988
  0
LINE
  5
25E
330
1F
100
AcDbEntity
  8
0
  6
Continuous
 62
     7
370
    25
100
AcDbLine
 10
221.7721916915
 20
251.9971754024
 30
0.0
 11
221.4947486085
 21
251.8369935637
 31
0.0
  0
ARC
  5
25F
330
1F
100
AcDbEntity
  8
0
  6
Continuous
 62
     7
370
    25
100
AcDbCircle
 10
221.6507788998
 20
251.5667411717
 30
0.0
 40
0.3120605825532721
100
AcDbArc
 50
120.0000000031
 51
180.0000000002
  0
LINE
  5
260
330
1F
100
AcDbEntity
  8
0
  6
Continuous
 62
     7
370
    25
100
AcDbLine
 10
221.3387183172
 20
251.5667411717
 30
0.0
 11
221.3387183171
 21
251.1049419301
 31
0.0
  0
ARC
  5
261
330
1F
100
AcDbEntity
  8
0
  6
Continuous
 62
     7
370
    25
100
AcDbCircle
 10
221.6507788996
 20
251.1049419301
 30
0.0
 40
0.3120605825532668
100
AcDbArc
 50
180.0000000002
 51
239.9999999995
  0
LINE
  5
262
330
1F
100
AcDbEntity
  8
0
  6
Continuous
 62
     7
370
    25
100
AcDbLine
 10
221.4947486083
 20
250.8346895381
 30
0.0
 11
221.7721916918
 21
250.6745076991
 31
0.0
  0
ARC
  5
263
330
1F
100
AcDbEntity
  8
0
  6
Continuous
 62
     7
370
    25
100
AcDbCircle
 10
221.6161614005
 20
250.4042553071
 30
0.0
 40
0.3120605825534346
100
AcDbArc
 50
299.9999999803
 51
59.9999999869
  0
LINE
  5
264
330
1F
100
AcDbEntity
  8
0
  6
Continuous
 62
     7
370
    25
100
AcDbLine
 10
221.7721916916
 20
250.134002915
 30
0.0
 11
221.4947486087
 21
249.9738210764
 31
0.0
  0
ARC
  5
265
330
1F
100
AcDbEntity
  8
0
  6
Continuous
 62
     7
370
    25
100
AcDbCircle
 10
221.6507788998
 20
249.7035686843
 30
0.0
 40
0.3120605825532721
100
AcDbArc
 50
119.9999999745
 51
179.9999999807
  0
LINE
  5
266
330
1F
100
AcDbEntity
  8
0
  6
Continuous
 62
     7
370
    25
100
AcDbLine
 10
221.3387183173
 20
249.7035686844
 30
0.0
 11
221.3387183173
 21
248.3800919187
 31
0.0
  0
ARC
  5
267
330
1F
100
AcDbEntity
  8
0
  6
Continuous
 62
     7
370
    25
100
AcDbCircle
 10
221.6507788998
 20
248.3800919186
 30
0.0
 40
0.3120605825550058
100
AcDbArc
 50
179.9999999807
 51
239.9999999799
  0
LINE
  5
268
330
1F
100
AcDbEntity
  8
0
  6
Continuous
 62
     7
370
    25
100
AcDbLine
 10
221.4947486085
 20
248.1098395266
 30
0.0
 11
221.7721916915
 21
247.9496576879
 31
0.0
  0
ARC
  5
269
330
1F
100
AcDbEntity
  8
0
  6
Continuous
 62
     7
370
    25
100
AcDbCircle
 10
221.6161614001
 20
247.679405296
 30
0.0
 40
0.3120605825532988
100
AcDbArc
 50
299.9999999803
 51
59.9999999753
  0
LINE
  5
26A
330
1F
100
AcDbEntity
  8
0
  6
Continuous
 62
     7
370
    25
100
AcDbLine
 10
221.7721916913
 20
247.4091529039
 30
0.0
 11
221.4947486082
 21
247.2489710652
 31
0.0
  0
ARC
  5
26B
330
1F
100
AcDbEntity
  8
0
  6
Continuous
 62
     7
370
    25
100
AcDbCircle
 10
221.6507788994
 20
246.9787186731
 30
0.0
 40
0.3120605825533005
100
AcDbArc
 50
119.999999986
 51
179.9999999807
  0
LINE
  5
26C
330
1F
100
AcDbEntity
  8
0
  6
Continuous
 62
     7
370
    25
100
AcDbLine
 10
221.3387183169
 20
246.9787186733
 30
0.0
 11
221.3387183168
 21
246.3361202008
 31
0.0
  0
ARC
  5
26D
330
1F
100
AcDbEntity
  8
0
  6
Continuous
 62
     7
370
    25
100
AcDbCircle
 10
221.6507788992
 20
246.3361202007
 30
0.0
 40
0.3120605825533097
100
AcDbArc
 50
179.9999999807
 51
204.9999999794
  0
LINE
  5
26E
330
1F
100
AcDbEntity
  8
0
  6
Continuous
 62
     7
370
    25
100
AcDbLine
 10
221.3679559632
 20
246.2042376999
 30
0.0
 11
222.1918309115
 21
244.4374321715
 31
0.0
  0
ARC
  5
26F
330
1F
100
AcDbEntity
  8
0
  6
Continuous
 62
     7
370
    25
100
AcDbCircle
 10
222.0787017367
 20
244.3846791712
 30
0.0
 40
0.124824233304329
100
AcDbArc
 50
235.0000000157
 51
24.999999912
  0
LINE
  5
270
330
1F
100
AcDbEntity
  8
0
  6
Continuous
 62
     7
370
    25
100
AcDbLine
 10
221.535138789
 20
244.6129037931
 30
0.0
 11
222.007105498
 21
244.2824291455
 31
0.0
  0
ARC
  5
271
330
1F
100
AcDbEntity
  8
0
  6
Continuous
 62
     7
370
    25
100
AcDbCircle
 10
221.4635425502
 20
244.5106537674
 30
0.0
 40
0.1248242330213429
100
AcDbArc
 50
55.0000000064
 51
180.0
  0
LINE
  5
272
330
1F
100
AcDbEntity
  8
0
  6
Continuous
 62
     7
370
    25
100
AcDbLine
 10
221.3387183172
 20
244.5106537674
 30
0.0
 11
221.3387183172
 21
242.7892335302
 31
0.0
  0
ARC
  5
273
330
1F
100
AcDbEntity
  8
0
  6
Continuous
 62
     7
370
    25
100
AcDbCircle
 10
221.6507788998
 20
242.7892335302
 30
0.0
 40
0.3120605825534142
100
AcDbArc
 50
180.0000000001
 51
240.0000000005
  0
LINE
  5
274
330
1F
100
AcDbEntity
  8
0
  6
Continuous
 62
     7
370
    25
100
AcDbLine
 10
221.4947486085
 20
242.5189811381
 30
0.0
 11
221.7721916915
 21
242.3587992995
 31
0.0
  0
ARC
  5
275
330
1F
100
AcDbEntity
  8
0
  6
Continuous
 62
     7
370
    25
100
AcDbCircle
 10
221.6161614002
 20
242.0885469075
 30
0.0
 40
0.3120605826116246
100
AcDbArc
 50
299.9999999997
 51
60.0000000062
  0
LINE
  5
276
330
1F
100
AcDbEntity
  8
0
  6
Continuous
 62
     7
370
    25
100
AcDbLine
 10
221.7721916915
 20
241.8182945154
 30
0.0
 11
221.4947486085
 21
241.6581126768
 31
0.0
  0
LINE
  5
277
330
1F
100
AcDbEntity
  8
0
  6
Continuous
 62
     7
370
    25
100
AcDbLine
 10
57.8678054136
 20
250.0633326179
 30
0.0
 11
210.988638552
 21
250.0633326179
 31
0.0
  0
LINE
  5
278
330
1F
100
AcDbEntity
  8
0
  6
Continuous
 62
     8
370
    18
100
AcDbLine
 10
216.3817794071
 20
236.3188017168
 30
0.0
 11
52.4746645584
 21
236.3188017168
 31
0.0
  0
LINE
  5
279
330
1F
100
AcDbEntity
  8
0
  6
Continuous
 62
     8
370
    18
100
AcDbLine
 10
55.3713451348
 20
236.7626510299
 30
0.0
 11
213.4850988307
 21
236.7626510299
 31
0.0
  0
LINE
  5
27A
330
1F
100
AcDbEntity
  8
0
  6
Continuous
 62
     8
370
    18
100
AcDbLine
 10
213.1881095421
 20
237.1086132597
 30
0.0
 11
55.6683344234
 21
237.1086132597
 31
0.0
  0
LINE
  5
27B
330
1F
100
AcDbEntity
  8
0
  6
Continuous
 62
     8
370
    18
100
AcDbLine
 10
213.1881095421
 20
237.9166542693
 30
0.0
 11
55.6683344234
 21
237.9166542693
 31
0.0
  0
LINE
  5
27C
330
1F
100
AcDbEntity
  8
0
  6
Continuous
 62
     8
370
    18
100
AcDbLine
 10
213.1588875882
 20
238.0338571248
 30
0.0
 11
55.6975563773
 21
238.0338571248
 31
0.0
  0
LINE
  5
27D
330
1F
100
AcDbEntity
  8
0
  6
Continuous
 62
     8
370
    18
100
AcDbLine
 10
211.7077031328
 20
240.7631381362
 30
0.0
 11
57.1487408327
 21
240.7631381362
 31
0.0
  0
LINE
  5
27E
330
1F
100
AcDbEntity
  8
0
  6
Continuous
 62
     8
370
    18
100
AcDbLine
 10
57.5512670287
 20
241.0763183218
 30
0.0
 11
211.3051769369
 21
241.0763183218
 31
0.0
  0
LINE
  5
27F
330
1F
100
AcDbEntity
  8
0
  6
Continuous
 62
     8
370
    18
100
AcDbLine
 10
212.8091681196
 20
242.3036095117
 30
0.0
 11
56.0472758459
 21
242.3036095117
 31
0.0
  0
LINE
  5
280
330
1F
100
AcDbEntity
  8
0
  6
Continuous
 62
     8
370
    18
100
AcDbLine
 10
212.8091681195
 20
244.6714253099
 30
0.0
 11
56.047275846
 21
244.6714253099
 31
0.0
  0
LINE
  5
281
330
1F
100
AcDbEntity
  8
0
  6
Continuous
 62
     8
370
    18
100
AcDbLine
 10
222.007105498
 20
244.2824291455
 30
0.0
 11
221.3387183172
 21
244.2824291455
 31
0.0
  0
LINE
  5
282
330
1F
100
AcDbEntity
  8
0
  6
Continuous
 62
     8
370
    18
100
AcDbLine
 10
47.5177256483
 20
244.2824291455
 30
0.0
 11
46.8493384675
 21
244.2824291455
 31
0.0
  0
LINE
  5
283
330
1F
100
AcDbEntity
  8
0
  6
Continuous
 62
     8
370
    18
100
AcDbLine
 10
47.3213051765
 20
244.6129037931
 30
0.0
 11
47.464497654
 21
244.6129037931
 31
0.0
  0
LINE
  5
284
330
1F
100
AcDbEntity
  8
0
  6
Continuous
 62
     8
370
    18
100
AcDbLine
 10
221.3919463115
 20
244.6129037931
 30
0.0
 11
221.535138789
 21
244.6129037931
 31
0.0
  0
LINE
  5
285
330
1F
100
AcDbEntity
  8
0
  6
Continuous
 62
     8
370
    18
100
AcDbLine
 10
212.7327485119
 20
244.8511921569
 30
0.0
 11
56.1236954536
 21
244.8511921569
 31
0.0
  0
LINE
  5
286
330
1F
100
AcDbEntity
  8
0
  6
Continuous
 62
     8
370
    18
100
AcDbLine
 10
56.3396801211
 20
245.0593216203
 30
0.0
 11
212.5167638444
 21
245.0593216203
 31
0.0
  0
LINE
  5
287
330
1F
100
AcDbEntity
  8
0
  6
Continuous
 62
     8
370
    18
100
AcDbLine
 10
212.4318725415
 20
245.3647974008
 30
0.0
 11
56.424571424
 21
245.3647974008
 31
0.0
  0
LINE
  5
288
330
1F
100
AcDbEntity
  8
0
  6
Continuous
 62
     8
370
    18
100
AcDbLine
 10
212.499309084
 20
245.6164740036
 30
0.0
 11
56.3571348816
 21
245.6164740036
 31
0.0
  0
LINE
  5
289
330
1F
100
AcDbEntity
  8
0
  6
Continuous
 62
     8
370
    18
100
AcDbLine
 10
212.4995598715
 20
245.7124488388
 30
0.0
 11
56.356884094
 21
245.7124488388
 31
0.0
  0
LINE
  5
28A
330
1F
100
AcDbEntity
  8
0
  6
Continuous
 62
     8
370
    18
100
AcDbLine
 10
212.3049160472
 20
246.4543570783
 30
0.0
 11
56.5515279183
 21
246.4543570783
 31
0.0
  0
LINE
  5
28B
330
1F
100
AcDbEntity
  8
0
  6
Continuous
 62
     8
370
    18
100
AcDbLine
 10
211.3130210868
 20
246.7797115341
 30
0.0
 11
57.5434228787
 21
246.7797115341
 31
0.0
  0
LINE
  5
28C
330
1F
100
AcDbEntity
  8
0
  6
Continuous
 62
     8
370
    18
100
AcDbLine
 10
211.546296082
 20
247.7085763381
 30
0.0
 11
57.3101478835
 21
247.7085763381
 31
0.0
  0
LINE
  5
28D
330
1F
100
AcDbEntity
  8
0
  6
Continuous
 62
     8
370
    18
100
AcDbLine
 10
211.3717615982
 20
248.0691306115
 30
0.0
 11
57.4846823673
 21
248.0691306115
 31
0.0
  0
LINE
  5
28E
330
1F
100
AcDbEntity
  8
0
  6
Continuous
 62
     8
370
    18
100
AcDbLine
 10
210.1843685443
 20
248.60380254
 30
0.0
 11
58.6720754212
 21
248.60380254
 31
0.0
  0
LINE
  5
28F
330
1F
100
AcDbEntity
  8
0
  6
Continuous
 62
     8
370
    18
100
AcDbLine
 10
51.2381848841
 20
249.5081871545
 30
0.0
 11
52.9059390031
 21
249.5081871545
 31
0.0
  0
LINE
  5
290
330
1F
100
AcDbEntity
  8
0
  6
Continuous
 62
     8
370
    18
100
AcDbLine
 10
215.9505049624
 20
249.5081871545
 30
0.0
 11
217.6182590814
 21
249.5081871545
 31
0.0
  0
LINE
  5
291
330
1F
100
AcDbEntity
  8
0
  6
Continuous
 62
     8
370
    18
100
AcDbLine
 10
59.0465481203
 20
248.7724240756
 30
0.0
 11
209.8098958452
 21
248.7724240756
 31
0.0
  0
LINE
  5
292
330
1F
100
AcDbEntity
  8
0
  6
Continuous
 62
     8
370
    18
100
AcDbLine
 10
209.7590326482
 20
249.312592944
 30
0.0
 11
59.0974113174
 21
249.312592944
 31
0.0
  0
LINE
  5
293
330
1F
100
AcDbEntity
  8
0
  6
Continuous
 62
     8
370
    18
100
AcDbLine
 10
58.1541903686
 20
249.9730433627
 30
0.0
 11
210.702253597
 21
249.9730433627
 31
0.0
  0
LINE
  5
294
330
1F
100
AcDbEntity
  8
0
  6
Continuous
 62
     8
370
    18
100
AcDbLine
 10
51.8100616085
 20
250.6940395798
 30
0.0
 11
217.0463823571
 21
250.6940395798
 31
0.0
  0
LINE
  5
295
330
1F
100
AcDbEntity
  8
0
  6
Continuous
 62
     8
370
    18
100
AcDbLine
 10
217.0528805258
 20
250.8689889397
 30
0.0
 11
51.8035634397
 21
250.8689889397
 31
0.0
  0
LINE
  5
296
330
1F
100
AcDbEntity
  8
0
  6
Continuous
 62
     8
370
    18
100
AcDbLine
 10
51.655637708
 20
251.1252038226
 30
0.0
 11
217.2008062575
 21
251.1252038226
 31
0.0
  0
LINE
  5
297
330
1F
100
AcDbEntity
  8
0
  6
Continuous
 62
     8
370
    18
100
AcDbLine
 10
51.6306597346
 20
251.2251493224
 30
0.0
 11
217.2257842309
 21
251.2251493224
 31
0.0
  0
LINE
  5
298
330
1F
100
AcDbEntity
  8
0
  6
Continuous
 62
     8
370
    18
100
AcDbLine
 10
51.7248625829
 20
254.011180294
 30
0.0
 11
217.1315813826
 21
254.011180294
 31
0.0
  0
HATCH
  5
299
330
1F
100
AcDbEntity
  8
0
  6
Continuous
 62
     7
370
    18
100
AcDbHatch
 10
0.0
 20
0.0
 30
0.0
210
0.0
220
0.0
230
1.0
  2
DIN 128 Elastomer-Gummi
 70
     0
 71
     0
 91
        1
 92
        0
 93
       76
 72
     1
 10
47.08425227403723
 20
241.8182945154437
 11
47.36169535700918
 21
241.6581126767844
 72
     2
 10
47.20566506576156
 20
241.3878602847568
 40
0.3120605825532921
 50
299.9999999938498
 51
360.0000000001104
 73
     0
 72
     1
 10
47.51772564831465
 20
241.3878602847562
 11
47.51772564831425
 21
239.2623758770006
 72
     2
 10
47.20566506576096
 20
239.2623758770013
 40
0.3120605825532921
 50
0.0000000001148039
 51
60.00000000060541
 73
     0
 72
     1
 10
47.36169535703506
 20
238.9921234849882
 11
47.08425227401021
 21
238.831941646299
 72
     4
 94
        3
 73
     1
 74
     0
 95
       26
 96
       22
 40
0.0
 40
0.0
 40
0.0
 40
0.0
 40
0.0000218961866028
 40
0.0000218961866028
 40
0.0000218961866028
 40
0.000128120389125
 40
0.000128120389125
 40
0.000128120389125
 40
0.0002343445916471
 40
0.0002343445916471
 40
0.0002343445916471
 40
0.0003405687941693
 40
0.0003405687941693
 40
0.0003405687941693
 40
0.0004467929966915
 40
0.0004467929966915
 40
0.0004467929966915
 40
0.000553017199211
 40
0.000553017199211
 40
0.000553017199211
 40
0.0006592414017304
 40
0.0006592414017304
 40
0.0006592414017304
 40
0.0006592414017304
 10
47.08425227401021
 20
238.831941646299
 42
1.0
 10
47.07793138939588
 20
238.8282922818646
 42
1.0
 10
47.07173480752484
 20
238.8244186435446
 42
1.0
 10
47.06568538817017
 20
238.8203350215551
 42
1.0
 10
47.03673677346119
 20
238.8007934436509
 42
1.0
 10
47.01076282157694
 20
238.7759843545263
 42
1.0
 10
46.98991444676608
 20
238.7479622056384
 42
1.0
 10
46.96906607195521
 20
238.7199400567504
 42
1.0
 10
46.95276825029927
 20
238.6879319626343
 42
1.0
 10
46.94237061149568
 20
238.6545885274804
 42
1.0
 10
46.93197297269209
 20
238.6212450923265
 42
1.0
 10
46.92718873702483
 20
238.5856466630246
 42
1.0
 10
46.92841408912962
 20
238.5507411609831
 42
1.0
 10
46.92963944123442
 20
238.5158356589415
 42
1.0
 10
46.93690817783526
 20
238.4806603473167
 42
1.0
 10
46.94961837169385
 20
238.448128108958
 42
1.0
 10
46.96232856555213
 20
238.4155958706
 42
1.0
 10
46.98083077950758
 20
238.3848094262072
 42
1.0
 10
47.0035928371781
 20
238.3583182146249
 42
1.0
 10
47.02635489484862
 20
238.3318270030427
 42
1.0
 10
47.0540046018887
 20
238.3089003639474
 42
1.0
 10
47.08425227403673
 20
238.2914368622906
 42
1.0
 72
     1
 10
47.08425227403659
 20
238.2914368622903
 11
48.22884156454656
 21
237.6306079272215
 72
     1
 10
48.22884156454656
 20
237.6306079272215
 11
50.74798984703999
 21
236.5687751712953
 72
     2
 10
51.49693524516816
 20
237.8659866529476
 40
1.4978907962558
 50
239.9999999999891
 51
263.9999999999891
 73
     1
 72
     1
 10
51.34036302209248
 20
236.3763014592006
 11
51.99536264839373
 21
236.3074582243117
 72
     2
 10
52.19107792724326
 20
238.169564716495
 40
1.87236349531975
 50
263.9999999998378
 51
278.7114973819758
 73
     1
 72
     1
 10
52.47466455842847
 20
236.3188017167514
 11
55.3713451348497
 21
236.7626510299028
 72
     2
 10
55.31833442344325
 20
237.1086132597432
 40
0.35
 50
278.7114973805228
 51
360.0000000000008
 73
     1
 72
     1
 10
55.66833442344335
 20
237.1086132597432
 11
55.66833442344323
 21
237.9166542693245
 72
     2
 10
55.91798288948586
 20
237.9166542693245
 40
0.2496484660426339
 50
180.0
 51
208.0000000010665
 73
     0
 72
     1
 10
55.69755637733444
 20
238.0338571248289
 11
57.1487408327029
 21
240.7631381361904
 72
     2
 10
57.69980711312883
 20
240.4701309974614
 40
0.624121165134352
 50
207.9999999964298
 51
256.2315424054285
 73
     0
 72
     2
 10
57.46214297743744
 20
241.4400307161433
 40
0.374472699041373
 50
283.768457681792
 51
460.9999999916303
 73
     1
 72
     1
 10
57.39069021799118
 20
241.8076232969914
 11
56.79048494352505
 21
241.6909552102353
 72
     2
 10
56.67139701100957
 20
242.3036095116956
 40
0.624121165134352
 50
78.99999999972331
 51
180.0
 73
     0
 72
     1
 10
56.04727584590305
 20
242.3036095116956
 11
56.04727584597732
 21
244.6714253099456
 72
     2
 10
56.29692431201996
 20
244.6714253099456
 40
0.2496484660426339
 50
180.0
 51
226.0610789797329
 73
     0
 72
     1
 10
56.12369545361906
 20
244.8511921568658
 11
56.33968012107629
 21
245.0593216202854
 72
     2
 10
56.12314404799385
 20
245.2840301787322
 40
0.312060582556037
 50
313.9389210569494
 51
375.0000000174952
 73
     1
 72
     1
 10
56.42457142402697
 20
245.3647974008156
 11
56.35713488155923
 21
245.616474003555
 72
     4
 94
        3
 73
     1
 74
     0
 95
       11
 96
        7
 40
0.0
 40
0.0
 40
0.0
 40
0.0
 40
0.0000628686059652
 40
0.0000628686059652
 40
0.0000628686059652
 40
0.0000963695548553
 40
0.0000963695548553
 40
0.0000963695548553
 40
0.0000963695548553
 10
56.35713488155923
 20
245.616474003555
 42
1.0
 10
56.35171101737729
 20
245.6367161402781
 42
1.0
 10
56.34970718936037
 20
245.6581738666707
 42
1.0
 10
56.35128933537779
 20
245.6790702590808
 42
1.0
 10
56.35214105603606
 20
245.6903194667411
 42
1.0
 10
56.35402123992585
 20
245.7015367277701
 42
1.0
 10
56.35688409400296
 20
245.7124488388215
 42
1.0
 72
     1
 10
56.35688409400277
 20
245.7124488388215
 11
56.5515279182887
 21
246.4543570783246
 72
     2
 10
56.73263513149386
 20
246.4068425762091
 40
0.187236349532424
 50
194.700566577427
 51
283.5831004034045
 73
     0
 72
     1
 10
56.77660860290225
 20
246.588841983884
 11
57.24266207670306
 21
246.4762372818779
 72
     2
 10
57.30129337183325
 20
246.7189031588178
 40
0.249648466047037
 50
256.4168996168277
 51
374.0976954825845
 73
     1
 72
     1
 10
57.5434228787058
 20
246.7797115340736
 11
57.31014788348994
 21
247.7085763381177
 72
     4
 94
        3
 73
     1
 74
     0
 95
       20
 96
       16
 40
0.0
 40
0.0
 40
0.0
 40
0.0
 40
0.0001047810099418
 40
0.0001047810099418
 40
0.0001047810099418
 40
0.0002095620198836
 40
0.0002095620198836
 40
0.0002095620198836
 40
0.0003143430298281
 40
0.0003143430298281
 40
0.0003143430298281
 40
0.0004191240397726
 40
0.0004191240397726
 40
0.0004191240397726
 40
0.0004327468916964
 40
0.0004327468916964
 40
0.0004327468916964
 40
0.0004327468916964
 10
57.31014788348994
 20
247.7085763381177
 42
1.0
 10
57.30164050366708
 20
247.7424514034171
 42
1.0
 10
57.29886438154322
 20
247.7782624383862
 42
1.0
 10
57.30204940899844
 20
247.8130439156493
 42
1.0
 10
57.30523443645366
 20
247.8478253929124
 42
1.0
 10
57.31446846047766
 20
247.8825366285563
 42
1.0
 10
57.32898680752626
 20
247.9143031700658
 42
1.0
 10
57.3435051545752
 20
247.9460697115759
 42
1.0
 10
57.36370825858619
 20
247.9757677193879
 42
1.0
 10
57.38792309173202
 20
248.0009378885624
 42
1.0
 10
57.41213792487784
 20
248.0261080577369
 42
1.0
 10
57.44103236215437
 20
248.047444612617
 42
1.0
 10
57.47221364264776
 20
248.0631806638162
 42
1.0
 10
57.47632496290384
 20
248.0652554966974
 42
1.0
 10
57.48048324128516
 20
248.0672397845522
 42
1.0
 10
57.48468236728384
 20
248.0691306115089
 42
1.0
 72
     1
 10
57.48468236727496
 20
248.0691306115322
 11
58.67207542119249
 21
248.6038025400243
 72
     1
 10
58.67207542119249
 20
248.6038025400243
 11
59.04654812030732
 21
248.7724240756313
 72
     2
 10
58.91842072047645
 20
249.056967879985
 40
0.312060582553295
 50
294.241590000214
 51
414.9999999881859
 73
     1
 72
     1
 10
59.09741131735868
 20
249.3125929440357
 11
58.15419036855504
 21
249.973043362665
 72
     2
 10
57.86780541356314
 20
249.5640432600439
 40
0.4992969320852679
 50
54.99999999923971
 51
90.31559352591928
 73
     1
 72
     1
 10
57.86505522700799
 20
250.0633326178952
 11
53.51966943205598
 21
250.0393973558077
 72
     2
 10
53.52310716566316
 20
249.4152856589674
 40
0.624121165134352
 50
90.31559356409574
 51
180.0
 73
     1
 72
     1
 10
52.89898600052881
 20
249.4152856589674
 11
52.89898600049356
 21
249.128641623714
 72
     4
 94
        3
 73
     1
 74
     0
 95
       38
 96
       34
 40
0.0000000000000105
 40
0.0000000000000105
 40
0.0000000000000105
 40
0.0000000000000105
 40
0.0002933868278444
 40
0.0002933868278444
 40
0.0002933868278444
 40
0.0005867736556888
 40
0.0005867736556888
 40
0.0005867736556888
 40
0.0008801604835332
 40
0.0008801604835332
 40
0.0008801604835332
 40
0.0011735473113775
 40
0.0011735473113775
 40
0.0011735473113775
 40
0.0014669341392219
 40
0.0014669341392219
 40
0.0014669341392219
 40
0.0017603209670663
 40
0.0017603209670663
 40
0.0017603209670663
 40
0.0020537077949107
 40
0.0020537077949107
 40
0.0020537077949107
 40
0.0023470946227551
 40
0.0023470946227551
 40
0.0023470946227551
 40
0.0026404814505995
 40
0.0026404814505995
 40
0.0026404814505995
 40
0.0029338682784439
 40
0.0029338682784439
 40
0.0029338682784439
 40
0.003121738953384
 40
0.003121738953384
 40
0.003121738953384
 40
0.003121738953384
 10
52.89898600043127
 20
249.128641623714
 42
1.0
 10
52.89898600038852
 20
249.0308460144325
 42
1.0
 10
52.882101444936
 20
248.9317017433331
 42
1.0
 10
52.84973055145193
 20
248.839418990612
 42
1.0
 10
52.81735965796784
 20
248.7471362378909
 42
1.0
 10
52.76860959724207
 20
248.6591697312881
 42
1.0
 10
52.70751738299919
 20
248.582804015462
 42
1.0
 10
52.64642516875629
 20
248.5064382996359
 42
1.0
 10
52.57130580229786
 20
248.4395671138564
 42
1.0
 10
52.48837995102122
 20
248.3877280900927
 42
1.0
 10
52.40545409974458
 20
248.335889066329
 42
1.0
 10
52.31243456628422
 20
248.2976524203008
 42
1.0
 10
52.21702433864969
 20
248.2761845452904
 42
1.0
 10
52.12161411101516
 20
248.2547166702801
 42
1.0
 10
52.02118165732674
 20
248.2494254557888
 42
1.0
 10
51.92404383274108
 20
248.2607490695891
 42
1.0
 10
51.82690600815541
 20
248.2720726833894
 42
1.0
 10
51.73038363153584
 20
248.300323444731
 42
1.0
 10
51.64246976285691
 20
248.3431618957842
 42
1.0
 10
51.55455589417799
 20
248.3860003468374
 42
1.0
 10
51.47282576039562
 20
248.4446080249742
 42
1.0
 10
51.40404746942352
 20
248.5141316028862
 42
1.0
 10
51.33526917845141
 20
248.5836551807983
 42
1.0
 10
51.27754574010504
 20
248.666012204604
 42
1.0
 10
51.23565725741129
 20
248.7543826533544
 42
1.0
 10
51.19376877471754
 20
248.8427531021049
 42
1.0
 10
51.16655991160464
 20
248.9395743418861
 42
1.0
 10
51.156283845857
 20
249.0368285637352
 42
1.0
 10
51.14600778010937
 20
249.1340827855844
 42
1.0
 10
51.152381085146
 20
249.2344523810184
 42
1.0
 10
51.17487598480577
 20
249.3296257001999
 42
1.0
 10
51.18940190142653
 20
249.3910831736655
 42
1.0
 10
51.21075362269596
 20
249.4513052663622
 42
1.0
 10
51.23818488409293
 20
249.5081871544868
 42
1.0
 72
     1
 10
51.23818488409293
 20
249.5081871544868
 11
51.81006160846208
 21
250.6940395797843
 72
     2
 10
51.64141200449256
 20
250.7753707648684
 40
0.187236349531975
 50
334.2543347227353
 51
390.0000000120424
 73
     1
 72
     1
 10
51.80356343967944
 20
250.8689889396685
 11
51.65563770797241
 21
251.1252038226073
 72
     4
 94
        3
 73
     1
 74
     0
 95
       11
 96
        7
 40
0.0000000000000001
 40
0.0000000000000001
 40
0.0000000000000001
 40
0.0000000000000001
 40
0.0000628686059651
 40
0.0000628686059651
 40
0.0000628686059651
 40
0.0001036460194941
 40
0.0001036460194941
 40
0.0001036460194941
 40
0.0001036460194941
 10
51.65563770797321
 20
251.1252038226078
 42
1.0
 10
51.64515960697521
 20
251.1433524258943
 42
1.0
 10
51.63767038947732
 20
251.1635603691328
 42
1.0
 10
51.63379024083674
 20
251.1841542237574
 42
1.0
 10
51.63125272336983
 20
251.1976220752915
 42
1.0
 10
51.6301966042743
 20
251.2114523325382
 42
1.0
 10
51.63065973460802
 20
251.2251493223582
 42
1.0
 72
     1
 10
51.63065973460802
 20
251.2251493223582
 11
51.72486258286914
 21
254.0111802940148
 72
     2
 10
51.35060376578776
 20
254.0238349439145
 40
0.374472699041373
 50
358.0634206337394
 51
470.985819059978
 73
     1
 72
     1
 10
51.2164912841071
 20
254.3734685300941
 11
50.51462207116947
 21
254.1042454757789
 72
     2
 10
51.05107199792375
 20
252.7057111309765
 40
1.4978907962558
 50
110.9858190599551
 51
120.0000806426276
 73
     1
 72
     1
 10
50.30212477399819
 20
254.0029215585025
 11
48.22884156437885
 21
253.1985091216789
 72
     1
 10
48.22884156437885
 20
253.1985091216789
 11
47.08425227395656
 21
252.5376801864221
 72
     4
 94
        3
 73
     1
 74
     0
 95
       26
 96
       22
 40
0.0
 40
0.0
 40
0.0
 40
0.0
 40
0.0000218961865476
 40
0.0000218961865476
 40
0.0000218961865476
 40
0.0001281203890701
 40
0.0001281203890701
 40
0.0001281203890701
 40
0.0002343445915926
 40
0.0002343445915926
 40
0.0002343445915926
 40
0.0003405687941151
 40
0.0003405687941151
 40
0.0003405687941151
 40
0.0004467929966376
 40
0.0004467929966376
 40
0.0004467929966376
 40
0.0005530171991574
 40
0.0005530171991574
 40
0.0005530171991574
 40
0.0006592414016772
 40
0.0006592414016772
 40
0.0006592414016772
 40
0.0006592414016772
 10
47.08425227395659
 20
252.5376801864221
 42
1.0
 10
47.07793138935862
 20
252.5340308219962
 42
1.0
 10
47.07173480750336
 20
252.5301571836858
 42
1.0
 10
47.06568538816369
 20
252.5260735617069
 42
1.0
 10
47.03673677345355
 20
252.5065319838044
 42
1.0
 10
47.01076282156781
 20
252.4817228946814
 42
1.0
 10
46.98991444675528
 20
252.4537007457947
 42
1.0
 10
46.96906607194275
 20
252.425678596908
 42
1.0
 10
46.95276825028491
 20
252.3936705027928
 42
1.0
 10
46.94237061147932
 20
252.3603270676395
 42
1.0
 10
46.93197297267373
 20
252.3269836324862
 42
1.0
 10
46.92718873700436
 20
252.2913852031847
 42
1.0
 10
46.92841408910707
 20
252.2564797011431
 42
1.0
 10
46.92963944120979
 20
252.2215741991015
 42
1.0
 10
46.93690817780852
 20
252.1863988874762
 42
1.0
 10
46.94961837166518
 20
252.1538666491167
 42
1.0
 10
46.96232856552153
 20
252.121334410758
 42
1.0
 10
46.98083077947514
 20
252.0905479663641
 42
1.0
 10
47.00359283714408
 20
252.0640567547804
 42
1.0
 10
47.02635489481301
 20
252.0375655431968
 42
1.0
 10
47.05400460185172
 20
252.0146389040999
 42
1.0
 10
47.08425227399871
 20
251.9971754024413
 42
1.0
 72
     1
 10
47.08425227399871
 20
251.9971754024413
 11
47.36169535703012
 21
251.8369935637482
 72
     2
 10
47.20566506573886
 20
251.5667411717462
 40
0.3120605825532921
 50
300.0000000031478
 51
360.0000000002043
 73
     0
 72
     1
 10
47.51772564829214
 20
251.5667411717451
 11
47.51772564836995
 21
251.1049419300682
 72
     2
 10
47.20566506589456
 20
251.1049419300693
 40
0.3120605825532921
 50
0.000000000203516
 51
59.99999999950195
 73
     0
 72
     1
 10
47.36169535717355
 20
250.8346895380598
 11
47.08425227371356
 21
250.6745076990618
 72
     4
 94
        3
 73
     1
 74
     0
 95
       26
 96
       22
 40
0.0
 40
0.0
 40
0.0
 40
0.0
 40
0.000021896186666
 40
0.000021896186666
 40
0.000021896186666
 40
0.0001281203891878
 40
0.0001281203891878
 40
0.0001281203891878
 40
0.0002343445917096
 40
0.0002343445917096
 40
0.0002343445917096
 40
0.0003405687942314
 40
0.0003405687942314
 40
0.0003405687942314
 40
0.0004467929967532
 40
0.0004467929967532
 40
0.0004467929967532
 40
0.0005530171992723
 40
0.0005530171992723
 40
0.0005530171992723
 40
0.0006592414017913
 40
0.0006592414017913
 40
0.0006592414017913
 40
0.0006592414017913
 10
47.08425227371363
 20
250.6745076990617
 42
1.0
 10
47.07793138908155
 20
250.6708583346159
 42
1.0
 10
47.07173480719351
 20
250.6669846962833
 42
1.0
 10
47.06568538782277
 20
250.6629010742799
 42
1.0
 10
47.03673677312041
 20
250.6433594963659
 42
1.0
 10
47.01076282124455
 20
250.6185504072325
 42
1.0
 10
46.98991444644318
 20
250.5905282583375
 42
1.0
 10
46.96906607164181
 20
250.5625061094425
 42
1.0
 10
46.95276824999672
 20
250.5304980153208
 42
1.0
 10
46.94237061120442
 20
250.4971545801634
 42
1.0
 10
46.93197297241211
 20
250.463811145006
 42
1.0
 10
46.9271887367569
 20
250.4282127157025
 42
1.0
 10
46.92841408887352
 20
250.3933072136614
 42
1.0
 10
46.92963944099014
 20
250.3584017116203
 42
1.0
 10
46.9369081776029
 20
250.3232263999979
 42
1.0
 10
46.94961837147252
 20
250.2906941616434
 42
1.0
 10
46.96232856534181
 20
250.2581619232899
 42
1.0
 10
46.98083077930769
 20
250.2273754789032
 42
1.0
 10
47.00359283698717
 20
250.2008842673287
 42
1.0
 10
47.02635489466665
 20
250.1743930557542
 42
1.0
 10
47.0540046017145
 20
250.1514664166683
 42
1.0
 10
47.08425227386844
 20
250.1340029150217
 42
1.0
 72
     1
 10
47.08425227386844
 20
250.1340029150217
 11
47.36169535684056
 21
249.9738210763628
 72
     2
 10
47.20566506568426
 20
249.703568684283
 40
0.3120605825532921
 50
299.9999999745417
 51
359.9999999806928
 73
     0
 72
     1
 10
47.51772564823754
 20
249.7035686843882
 11
47.51772564823635
 21
248.3800919186925
 72
     2
 10
47.20566506568136
 20
248.3800919185874
 40
0.3120605825532921
 50
359.9999999806928
 51
419.9999999799017
 73
     0
 72
     1
 10
47.3616953570528
 20
248.1098395266312
 11
47.08425227404667
 21
247.9496576878953
 72
     4
 94
        3
 73
     1
 74
     0
 95
       26
 96
       22
 40
0.0
 40
0.0
 40
0.0
 40
0.0
 40
0.0000218961866023
 40
0.0000218961866023
 40
0.0000218961866023
 40
0.0001281203891245
 40
0.0001281203891245
 40
0.0001281203891245
 40
0.0002343445916467
 40
0.0002343445916467
 40
0.0002343445916467
 40
0.0003405687941689
 40
0.0003405687941689
 40
0.0003405687941689
 40
0.0004467929966911
 40
0.0004467929966911
 40
0.0004467929966911
 40
0.0005530171992105
 40
0.0005530171992105
 40
0.0005530171992105
 40
0.0006592414017299
 40
0.0006592414017299
 40
0.0006592414017299
 40
0.0006592414017299
 10
47.08425227404667
 20
247.9496576878953
 42
1.0
 10
47.07793138943371
 20
247.9460083234589
 42
1.0
 10
47.07173480756413
 20
247.9421346851369
 42
1.0
 10
47.06568538821097
 20
247.9380510631453
 42
1.0
 10
47.0367367735086
 20
247.9185094852314
 42
1.0
 10
47.01076282163273
 20
247.893700396098
 42
1.0
 10
46.98991444683133
 20
247.865678247203
 42
1.0
 10
46.96906607202992
 20
247.8376560983081
 42
1.0
 10
46.95276825038481
 20
247.8056480041864
 42
1.0
 10
46.94237061159248
 20
247.772304569029
 42
1.0
 10
46.93197297280015
 20
247.7389611338716
 42
1.0
 10
46.92718873714492
 20
247.7033627045681
 42
1.0
 10
46.92841408926152
 20
247.668457202527
 42
1.0
 10
46.92963944137811
 20
247.6335517004858
 42
1.0
 10
46.93690817799083
 20
247.5983763888634
 42
1.0
 10
46.94961837186042
 20
247.565844150509
 42
1.0
 10
46.96232856572968
 20
247.5333119121554
 42
1.0
 10
46.98083077969553
 20
247.5025254677688
 42
1.0
 10
47.003592837375
 20
247.4760342561943
 42
1.0
 10
47.02635489505447
 20
247.4495430446197
 42
1.0
 10
47.0540046021023
 20
247.4266164055337
 42
1.0
 10
47.08425227425622
 20
247.4091529038872
 42
1.0
 72
     1
 10
47.08425227425622
 20
247.4091529038872
 11
47.36169535728256
 21
247.2489710651969
 72
     2
 10
47.20566506607216
 20
246.9787186731484
 40
0.3120605825532921
 50
299.9999999860157
 51
359.9999999806928
 73
     0
 72
     1
 10
47.51772564862544
 20
246.9787186732535
 11
47.51772564873366
 21
246.3361202008353
 72
     2
 10
47.20566506628876
 20
246.3361202007301
 40
0.3120605825532921
 50
359.9999999806877
 51
384.9999999793822
 73
     0
 72
     1
 10
47.48848800233147
 20
246.2042376998754
 11
46.66461305405625
 21
244.4374321714899
 72
     4
 94
        3
 73
     1
 74
     0
 95
       29
 96
       25
 40
0.0
 40
0.0
 40
0.0
 40
0.0
 40
0.0000319186490728
 40
0.0000319186490728
 40
0.0000319186490728
 40
0.000074085573412
 40
0.000074085573412
 40
0.000074085573412
 40
0.0001162524977512
 40
0.0001162524977512
 40
0.0001162524977512
 40
0.0001584194220904
 40
0.0001584194220904
 40
0.0001584194220904
 40
0.0002005863464295
 40
0.0002005863464295
 40
0.0002005863464295
 40
0.0002427532707687
 40
0.0002427532707687
 40
0.0002427532707687
 40
0.0002849201951068
 40
0.0002849201951068
 40
0.0002849201951068
 40
0.0003270871194449
 40
0.0003270871194449
 40
0.0003270871194449
 40
0.0003270871194449
 10
46.66461305431728
 20
244.4374321713682
 42
1.0
 10
46.660116586336
 20
244.4277894646258
 42
1.0
 10
46.65683691993169
 20
244.4174845892378
 42
1.0
 10
46.65493294535516
 20
244.4070167862956
 42
1.0
 10
46.65243283479504
 20
244.3932715057651
 42
1.0
 10
46.65227138901487
 20
244.3789050215748
 42
1.0
 10
46.65446197740988
 20
244.3651070285266
 42
1.0
 10
46.6566525658049
 20
244.3513090354785
 42
1.0
 10
46.66125560750771
 20
244.3376989678881
 42
1.0
 10
46.66788992263358
 20
244.3254038813702
 42
1.0
 10
46.67452423775946
 20
244.3131087948523
 42
1.0
 10
46.68337280891084
 20
244.30178957574
 42
1.0
 10
46.69370288206346
 20
244.2923835734896
 42
1.0
 10
46.70403295521606
 20
244.2829775712392
 42
1.0
 10
46.71612944654183
 20
244.2752253566952
 42
1.0
 10
46.72899064033466
 20
244.2697688941144
 42
1.0
 10
46.7418518341275
 20
244.2643124315335
 42
1.0
 10
46.75583245799175
 20
244.2610012249411
 42
1.0
 10
46.76977477038662
 20
244.2601094767944
 42
1.0
 10
46.78371708278112
 20
244.2592177286478
 42
1.0
 10
46.79800562989642
 20
244.260720843432
 42
1.0
 10
46.81145717093349
 20
244.2644943475583
 42
1.0
 10
46.82490871197056
 20
244.2682678516845
 42
1.0
 10
46.83789425703959
 20
244.2744158230557
 42
1.0
 10
46.84933846750752
 20
244.2824291454896
 42
1.0
 72
     1
 10
46.84933846750752
 20
244.2824291454896
 11
47.32130517654129
 21
244.6129037930936
 72
     2
 10
47.39290141526915
 20
244.5106537674397
 40
0.124824233021317
 50
235.0000000064172
 51
360.0000000000008
 73
     0
 72
     1
 10
47.51772564829047
 20
244.5106537674397
 11
47.51772564831526
 21
242.7892335301536
 72
     2
 10
47.20566506576186
 20
242.7892335301542
 40
0.3120605825532921
 50
0.0000000001095855
 51
60.00000000045717
 73
     0
 72
     1
 10
47.36169535703635
 20
242.5189811381421
 11
47.08425227403581
 21
242.3587992995338
 72
     4
 94
        3
 73
     1
 74
     0
 95
       26
 96
       22
 40
0.0
 40
0.0
 40
0.0
 40
0.0
 40
0.0000218961866652
 40
0.0000218961866652
 40
0.0000218961866652
 40
0.000128120389187
 40
0.000128120389187
 40
0.000128120389187
 40
0.0002343445917088
 40
0.0002343445917088
 40
0.0002343445917088
 40
0.0003405687942306
 40
0.0003405687942306
 40
0.0003405687942306
 40
0.0004467929967524
 40
0.0004467929967524
 40
0.0004467929967524
 40
0.0005530171992715
 40
0.0005530171992715
 40
0.0005530171992715
 40
0.0006592414017906
 40
0.0006592414017906
 40
0.0006592414017906
 40
0.0006592414017906
 10
47.08425227406499
 20
242.3587992994833
 42
1.0
 10
47.07793138943191
 20
242.3551499350397
 42
1.0
 10
47.07173480754278
 20
242.3512762967094
 42
1.0
 10
47.06568538817087
 20
242.3471926747081
 42
1.0
 10
47.03673677346189
 20
242.3276510968039
 42
1.0
 10
47.01076282157762
 20
242.3028420076794
 42
1.0
 10
46.98991444676674
 20
242.2748198587915
 42
1.0
 10
46.96906607195587
 20
242.2467977099035
 42
1.0
 10
46.95276825029991
 20
242.2147896157873
 42
1.0
 10
46.94237061149631
 20
242.1814461806335
 42
1.0
 10
46.93197297269271
 20
242.1481027454796
 42
1.0
 10
46.92718873702543
 20
242.1125043161777
 42
1.0
 10
46.92841408913022
 20
242.0775988141362
 42
1.0
 10
46.929639441235
 20
242.0426933120947
 42
1.0
 10
46.93690817783582
 20
242.0075180004698
 42
1.0
 10
46.94961837169441
 20
241.974985762111
 42
1.0
 10
46.96232856555269
 20
241.9424535237532
 42
1.0
 10
46.98083077950812
 20
241.9116670793603
 42
1.0
 10
47.00359283717863
 20
241.885175867778
 42
1.0
 10
47.02635489484913
 20
241.8586846561957
 42
1.0
 10
47.0540046018892
 20
241.8357580171004
 42
1.0
 10
47.08425227403723
 20
241.8182945154437
 42
1.0
 97
        0
 75
     0
 76
     2
 52
0.0
 41
0.125
 77
     0
 78
     3
 53
45.00000209717174
 43
0.8418990000000001
 44
0.8418990000000001
 45
0.5612659459355175
 46
1.683798043244233
 79
     2
 49
0.79375
 49
-1.5875
 53
45.00000209717174
 43
1.96443125
 44
0.8418990000000001
 45
0.5612659459355175
 46
1.683798043244233
 79
     2
 49
0.79375
 49
-1.5875
 53
134.9999719140475
 43
0.0
 44
0.0
 45
-0.5612662826950551
 46
-0.5612657324384541
 79
     0
 98
        1
 10
0.0
 20
0.0
  0
HATCH
  5
29A
330
1F
100
AcDbEntity
  8
0
  6
Continuous
 62
     7
370
    18
100
AcDbHatch
 10
0.0
 20
0.0
 30
0.0
210
0.0
220
0.0
230
1.0
  2
DIN 128 Elastomer-Gummi
 70
     0
 71
     0
 91
        1
 92
        0
 93
       76
 72
     1
 10
221.4947486085079
 20
241.6581126767844
 11
221.7721916914799
 21
241.8182945154437
 72
     2
 10
221.6161614002047
 20
242.0885469074555
 40
0.3120605825532921
 50
299.9999999996837
 51
420.0000000062045
 73
     1
 72
     1
 10
221.7721916914813
 20
242.3587992995338
 11
221.4947486084808
 21
242.5189811381421
 72
     2
 10
221.6507788997553
 20
242.7892335301542
 40
0.3120605825532921
 50
119.9999999995451
 51
179.9999999998904
 73
     0
 72
     1
 10
221.3387183172019
 20
242.7892335301536
 11
221.3387183172266
 21
244.5106537674397
 72
     2
 10
221.463542550248
 20
244.5106537674397
 40
0.124824233021317
 50
180.0
 51
304.9999999935737
 73
     0
 72
     1
 10
221.5351387889758
 20
244.6129037930936
 11
222.0071054980096
 21
244.2824291454896
 72
     2
 10
222.0787017367253
 20
244.3846791711614
 40
0.124824233016324
 50
235.000000015717
 51
384.9999999120438
 73
     1
 72
     1
 10
222.1918309114609
 20
244.4374321714899
 11
221.3679559631856
 21
246.2042376998754
 72
     2
 10
221.6507788992284
 20
246.3361202007301
 40
0.3120605825532921
 50
155.0000000206198
 51
180.0000000193139
 73
     0
 72
     1
 10
221.3387183167835
 20
246.3361202008353
 11
221.3387183168917
 21
246.9787186732535
 72
     2
 10
221.650778899445
 20
246.9787186731484
 40
0.3120605825532921
 50
180.0000000193087
 51
240.0000000139837
 73
     0
 72
     1
 10
221.4947486082345
 20
247.2489710651969
 11
221.7721916912609
 21
247.4091529038872
 72
     2
 10
221.6161614000772
 20
247.6794052959517
 40
0.3120605825532921
 50
299.9999999803002
 51
419.9999999752714
 73
     1
 72
     1
 10
221.7721916914705
 20
247.9496576878953
 11
221.4947486084643
 21
248.1098395266312
 72
     2
 10
221.6507788998358
 20
248.3800919185874
 40
0.3120605825532921
 50
120.0000000201003
 51
180.0000000193087
 73
     0
 72
     1
 10
221.3387183172808
 20
248.3800919186925
 11
221.3387183172796
 21
249.7035686843882
 72
     2
 10
221.6507788998329
 20
249.703568684283
 40
0.3120605825532921
 50
180.0000000193087
 51
240.0000000254565
 73
     0
 72
     1
 10
221.4947486086765
 20
249.9738210763628
 11
221.7721916916487
 21
250.1340029150217
 72
     2
 10
221.6161614004651
 20
250.4042553070864
 40
0.3120605825532921
 50
299.9999999802626
 51
419.9999999869182
 73
     1
 72
     1
 10
221.7721916918036
 20
250.6745076990618
 11
221.4947486083436
 21
250.8346895380598
 72
     2
 10
221.6507788996225
 20
251.1049419300693
 40
0.3120605825532921
 50
120.0000000004947
 51
179.9999999997965
 73
     0
 72
     1
 10
221.3387183171472
 20
251.1049419300682
 11
221.338718317225
 21
251.5667411717451
 72
     2
 10
221.6507788997782
 20
251.5667411717462
 40
0.3120605825532921
 50
179.9999999997965
 51
239.9999999968617
 73
     0
 72
     1
 10
221.494748608487
 20
251.8369935637482
 11
221.7721916915184
 21
251.9971754024413
 72
     2
 10
221.6161614002272
 20
252.2674277944438
 40
0.3120605825532921
 50
300.0000000030813
 51
419.9999999879927
 73
     1
 72
     1
 10
221.7721916915606
 20
252.5376801864221
 11
220.6276024011383
 21
253.1985091216789
 72
     1
 10
220.6276024011383
 20
253.1985091216789
 11
218.5543191915189
 21
254.0029215585025
 72
     2
 10
217.8053719675934
 20
252.7057111309765
 40
1.4978907962558
 50
59.99991935737313
 51
69.01418094004514
 73
     1
 72
     1
 10
218.3418218943476
 20
254.1042454757789
 11
217.63995268141
 21
254.3734685300941
 72
     2
 10
217.5058401997294
 20
254.0238349439145
 40
0.374472699041373
 50
69.0141809400228
 51
181.9365793662622
 73
     1
 72
     1
 10
217.131581382648
 20
254.0111802940148
 11
217.2257842309091
 21
251.2251493223582
 72
     2
 10
217.0386548223571
 20
251.2188219974079
 40
0.187236349531975
 50
358.0634206337264
 51
390.0000000120628
 73
     0
 72
     1
 10
217.2008062575447
 20
251.1252038226073
 11
217.0528805258377
 21
250.8689889396685
 72
     2
 10
217.2150319610246
 20
250.7753707648684
 40
0.187236349531975
 50
149.9999999879606
 51
205.7456652772653
 73
     1
 72
     1
 10
217.046382357055
 20
250.6940395797843
 11
217.6182590814242
 21
249.5081871544868
 72
     2
 10
216.831227596235
 20
249.128641624096
 40
0.8737696311492191
 50
334.2543347227717
 51
539.9999999749526
 73
     0
 72
     1
 10
215.9574579650236
 20
249.128641623714
 11
215.9574579649883
 21
249.4152856589674
 72
     2
 10
215.333336799854
 20
249.4152856589674
 40
0.624121165134352
 50
0.0
 51
89.68440643591079
 73
     1
 72
     1
 10
215.3367745334611
 20
250.0393973558077
 11
210.9913887385091
 21
250.0633326178952
 72
     2
 10
210.988638551954
 20
249.5640432600439
 40
0.4992969320852679
 50
89.684406474084
 51
125.0000000007616
 73
     1
 72
     1
 10
210.7022535969621
 20
249.973043362665
 11
209.7590326481584
 21
249.3125929440357
 72
     2
 10
209.9380232450407
 20
249.056967879985
 40
0.312060582553295
 50
125.0000000118128
 51
245.7584099997864
 73
     1
 72
     1
 10
209.8098958452098
 20
248.7724240756313
 11
210.1843685443246
 21
248.6038025400243
 72
     1
 10
210.1843685443246
 20
248.6038025400243
 11
211.3717615982422
 21
248.0691306115322
 72
     2
 10
211.2436341984308
 20
247.7845868071424
 40
0.3120605825532921
 50
294.241589994239
 51
374.0976954743128
 73
     0
 72
     1
 10
211.5462960820272
 20
247.7085763381177
 11
211.3130210868113
 21
246.7797115340736
 72
     2
 10
211.5551505936839
 20
246.7189031588178
 40
0.249648466047037
 50
165.9023045174159
 51
283.5831003831771
 73
     1
 72
     1
 10
211.6137818888141
 20
246.4762372818779
 11
212.0798353626149
 21
246.588841983884
 72
     2
 10
212.1238088340233
 20
246.4068425762091
 40
0.187236349532424
 50
256.4168995966014
 51
345.299433422573
 73
     0
 72
     1
 10
212.3049160472284
 20
246.4543570783246
 11
212.4995598715144
 21
245.7124488388215
 72
     2
 10
212.3184526583108
 20
245.6649343366988
 40
0.187236349532424
 50
345.2994334203524
 51
374.9999999839577
 73
     0
 72
     1
 10
212.4993090839579
 20
245.616474003555
 11
212.4318725414902
 21
245.3647974008156
 72
     2
 10
212.7332999175233
 20
245.2840301787322
 40
0.312060582556037
 50
164.9999999825046
 51
226.0610789430532
 73
     1
 72
     1
 10
212.5167638444408
 20
245.0593216202854
 11
212.7327485118981
 21
244.8511921568658
 72
     2
 10
212.5595196534971
 20
244.6714253099456
 40
0.2496484660426339
 50
313.9389210202698
 51
360.0000000000008
 73
     0
 72
     1
 10
212.8091681195398
 20
244.6714253099456
 11
212.8091681196141
 21
242.3036095116956
 72
     2
 10
212.1850469545076
 20
242.3036095116956
 40
0.624121165134352
 50
0.0
 51
101.000000000278
 73
     0
 72
     1
 10
212.0659590219921
 20
241.6909552102353
 11
211.4657537475259
 21
241.8076232969914
 72
     2
 10
211.3943009880797
 20
241.4400307161433
 40
0.374472699041373
 50
79.00000000837163
 51
256.2315423182086
 73
     1
 72
     2
 10
211.1566368523883
 20
240.4701309974614
 40
0.624121165134352
 50
283.7684575945713
 51
332.0000000035721
 73
     0
 72
     1
 10
211.7077031328142
 20
240.7631381361904
 11
213.1588875881827
 21
238.0338571248289
 72
     2
 10
212.9384610760313
 20
237.9166542693245
 40
0.2496484660426339
 50
331.9999999989343
 51
360.0000000000008
 73
     0
 72
     1
 10
213.1881095420739
 20
237.9166542693245
 11
213.1881095420738
 21
237.1086132597432
 72
     2
 10
213.5381095420739
 20
237.1086132597432
 40
0.35
 50
180.0
 51
261.2885026194765
 73
     1
 72
     1
 10
213.4850988306674
 20
236.7626510299028
 11
216.3817794070886
 21
236.3188017167514
 72
     2
 10
216.6653660382738
 20
238.169564716495
 40
1.87236349531975
 50
261.2885026180258
 51
276.0000000001645
 73
     1
 72
     1
 10
216.8610813171234
 20
236.3074582243117
 11
217.5160809434246
 21
236.3763014592006
 72
     2
 10
217.3595087203489
 20
237.8659866529476
 40
1.4978907962558
 50
276.0000000000122
 51
300.0000000000125
 73
     1
 72
     1
 10
218.1084541184771
 20
236.5687751712953
 11
220.6276024009706
 21
237.6306079272215
 72
     1
 10
220.6276024009706
 20
237.6306079272215
 11
221.7721916914805
 21
238.2914368622903
 72
     2
 10
221.6161614002054
 20
238.5616892543024
 40
0.3120605825532921
 50
299.9999999996577
 51
419.999999994721
 73
     1
 72
     1
 10
221.7721916915069
 20
238.831941646299
 11
221.4947486084821
 21
238.9921234849882
 72
     2
 10
221.6507788997561
 20
239.2623758770013
 40
0.3120605825532921
 50
119.9999999993912
 51
179.9999999998852
 73
     0
 72
     1
 10
221.3387183172029
 20
239.2623758770006
 11
221.3387183172025
 21
241.3878602847562
 72
     2
 10
221.6507788997556
 20
241.3878602847568
 40
0.3120605825532921
 50
179.9999999998904
 51
240.0000000061529
 73
     0
 97
        0
 75
     0
 76
     2
 52
0.0
 41
0.125
 77
     0
 78
     3
 53
45.00000209717174
 43
0.8418990000000001
 44
0.8418990000000001
 45
0.5612659459355175
 46
1.683798043244233
 79
     2
 49
0.79375
 49
-1.5875
 53
45.00000209717174
 43
1.96443125
 44
0.8418990000000001
 45
0.5612659459355175
 46
1.683798043244233
 79
     2
 49
0.79375
 49
-1.5875
 53
134.9999719140475
 43
0.0
 44
0.0
 45
-0.5612662826950551
 46
-0.5612657324384541
 79
     0
 98
        1
 10
0.0
 20
0.0
  0
DIMENSION
  5
29B
330
1F
100
AcDbEntity
  8
0
  6
Continuous
 62
     7
370
    18
100
AcDbDimension
  2
_D_2
 10
237.2035259697
 20
254.398307643
 30
0.0
 11
237.2035259697
 21
245.3477544321
 31
0.0
 70
   160
  1
<>
 71
     2
 42
-1.0
  3
SLDDIMSTYLE2
100
AcDbAlignedDimension
 13
216.6653660383
 23
236.2972012212
 33
0.0
 14
217.5058401997
 24
254.398307643
 34
0.0
 50
90.0
100
AcDbRotatedDimension
  0
MTEXT
  5
2A6
330
1F
100
AcDbEntity
  8
0
  6
Continuous
 62
     7
370
     0
100
AcDbMText
 10
134.4029068383
 20
271.8420535422
 30
0.0
 40
5.0
 41
0.0
 71
     2
 72
     1
  1
A-A
  7
SLDTEXTSTYLE0
 73
     1
 44
1.0
  0
LINE
  5
2A7
330
1F
100
AcDbEntity
  8
0
  6
Continuous
 62
     7
370
    25
100
AcDbLine
 10
285.9970059038
 20
146.3996728498
 30
0.0
 11
286.4828848437
 21
145.747896547
 31
0.0
  0
LINE
  5
2A8
330
1F
100
AcDbEntity
  8
0
  6
Continuous
 62
     7
370
    25
100
AcDbLine
 10
389.02802441
 20
145.747896547
 30
0.0
 11
389.5139033498
 21
146.3996728498
 31
0.0
  0
LWPOLYLINE
  5
2A9
330
1F
100
AcDbEntity
  8
0
  6
Continuous
 62
     7
370
    25
100
AcDbPolyline
 90
      165
 70
   128
 43
0.0
 10
337.7554546268
 20
209.5353741671
 10
335.5543400185
 20
209.5055555973
 10
333.3564558495
 20
209.4161436507
 10
331.1650278178
 20
209.2672695517
 10
328.9832721462
 20
209.0591517936
 10
326.8143908621
 20
208.7920958179
 10
324.6615670978
 20
208.466493566
 10
322.5279604191
 20
208.0828229042
 10
320.4167021879
 20
207.641646922
 10
318.330890967
 20
207.1436131061
 10
316.2735879719
 20
206.5894523897
 10
314.2478125784
 20
205.9799780802
 10
312.2565378912
 20
205.316084665
 10
310.3026863806
 20
204.5987464995
 10
308.3891255932
 20
203.8290163761
 10
306.5186639431
 20
203.0080239801
 10
304.6940465909
 20
202.136974231
 10
302.9179514141
 20
201.2171455143
 10
301.1929850773
 20
200.2498878057
 10
299.5216792064
 20
199.2366206891
 10
297.9064866734
 20
198.1788312739
 10
296.3497779959
 20
197.0780720117
 10
294.8538378587
 20
195.9359584187
 10
293.4208617601
 20
194.7541667039
 10
292.0529527903
 20
193.5344313099
 10
290.7521185442
 20
192.2785423663
 10
289.5202681755
 20
190.9883430635
 10
288.3592095944
 20
189.6657269468
 10
287.2706468146
 20
188.3126351377
 10
286.256177452
 20
186.9310534852
 10
285.3172903804
 20
185.5230096507
 10
284.4553635459
 20
184.0905701328
 10
283.6716619451
 20
182.635837234
 10
282.9673357681
 20
181.1609459754
 10
282.3434187107
 20
179.6680609633
 10
281.8008264573
 20
178.1593732124
 10
281.3403553367
 20
176.63709693
 10
280.9626811539
 20
175.1034662664
 10
280.6683581979
 20
173.5607320361
 10
280.457818428
 20
172.0111584144
 10
280.3313708405
 20
170.4570196142
 10
280.2892010147
 20
168.9005965485
 10
280.3313708405
 20
167.3441734829
 10
280.457818428
 20
165.7900346827
 10
280.6683581979
 20
164.2404610609
 10
280.9626811539
 20
162.6977268307
 10
281.3403553367
 20
161.1640961671
 10
281.8008264573
 20
159.6418198847
 10
282.3434187107
 20
158.1331321337
 10
282.9673357681
 20
156.6402471217
 10
283.6716619451
 20
155.1653558631
 10
284.4553635459
 20
153.7106229643
 10
285.3172903804
 20
152.2781834464
 10
286.256177452
 20
150.8701396119
 10
287.2706468146
 20
149.4885579593
 10
288.3592095944
 20
148.1354661503
 10
289.5202681755
 20
146.8128500336
 10
290.7521185442
 20
145.5226507308
 10
292.0529527903
 20
144.2667617872
 10
293.4208617601
 20
143.0470263931
 10
294.8538378587
 20
141.8652346784
 10
296.3497779959
 20
140.7231210854
 10
297.9064866734
 20
139.6223618232
 10
299.5216792064
 20
138.5645724079
 10
301.1929850773
 20
137.5513052914
 10
302.9179514141
 20
136.5840475827
 10
304.6940465909
 20
135.6642188661
 10
306.5186639431
 20
134.793169117
 10
308.3891255932
 20
133.972176721
 10
310.3026863806
 20
133.2024465976
 10
312.2565378912
 20
132.485108432
 10
314.2478125784
 20
131.8212150169
 10
316.2735879719
 20
131.2117407074
 10
318.330890967
 20
130.657579991
 10
320.4167021879
 20
130.1595461751
 10
322.5279604191
 20
129.7183701929
 10
324.6615670978
 20
129.3346995311
 10
326.8143908621
 20
129.0090972792
 10
328.9832721462
 20
128.7420413035
 10
331.1650278178
 20
128.5339235454
 10
333.3564558495
 20
128.3850494464
 10
335.5543400185
 20
128.2956374998
 10
337.7554546268
 20
128.26581893
 10
339.9565692351
 20
128.2956374998
 10
342.1544534041
 20
128.3850494464
 10
344.3458814359
 20
128.5339235454
 10
346.5276371075
 20
128.7420413035
 10
348.6965183916
 20
129.0090972792
 10
350.8493421559
 20
129.3346995311
 10
352.9829488346
 20
129.7183701929
 10
355.0942070657
 20
130.1595461751
 10
357.1800182866
 20
130.657579991
 10
359.2373212818
 20
131.2117407074
 10
361.2630966753
 20
131.8212150169
 10
363.2543713624
 20
132.485108432
 10
365.208222873
 20
133.2024465976
 10
367.1217836605
 20
133.972176721
 10
368.9922453105
 20
134.793169117
 10
370.8168626627
 20
135.6642188661
 10
372.5929578396
 20
136.5840475827
 10
374.3179241764
 20
137.5513052914
 10
375.9892300472
 20
138.5645724079
 10
377.6044225802
 20
139.6223618232
 10
379.1611312577
 20
140.7231210854
 10
380.6570713949
 20
141.8652346784
 10
382.0900474935
 20
143.0470263931
 10
383.4579564633
 20
144.2667617872
 10
384.7587907095
 20
145.5226507308
 10
385.9906410782
 20
146.8128500336
 10
387.1516996592
 20
148.1354661503
 10
388.240262439
 20
149.4885579593
 10
389.2547318016
 20
150.8701396119
 10
390.1936188733
 20
152.2781834464
 10
391.0555457077
 20
153.7106229643
 10
391.8392473086
 20
155.1653558631
 10
392.5435734855
 20
156.6402471217
 10
393.1674905429
 20
158.1331321338
 10
393.7100827964
 20
159.6418198847
 10
394.1705539169
 20
161.1640961671
 10
394.5482280997
 20
162.6977268307
 10
394.8425510558
 20
164.2404610609
 10
395.0530908256
 20
165.7900346827
 10
395.1795384131
 20
167.3441734829
 10
395.221708239
 20
168.9005965485
 10
395.1795384131
 20
170.4570196142
 10
395.0530908256
 20
172.0111584144
 10
394.8425510558
 20
173.5607320361
 10
394.5482280997
 20
175.1034662664
 10
394.1705539169
 20
176.63709693
 10
393.7100827964
 20
178.1593732124
 10
393.1674905429
 20
179.6680609633
 10
392.5435734855
 20
181.1609459754
 10
391.8392473086
 20
182.635837234
 10
391.0555457077
 20
184.0905701328
 10
390.1936188733
 20
185.5230096507
 10
389.2547318016
 20
186.9310534852
 10
388.240262439
 20
188.3126351377
 10
387.1516996592
 20
189.6657269468
 10
385.9906410782
 20
190.9883430635
 10
384.7587907095
 20
192.2785423663
 10
383.4579564633
 20
193.5344313099
 10
382.0900474935
 20
194.7541667039
 10
380.6570713949
 20
195.9359584187
 10
379.1611312577
 20
197.0780720117
 10
377.6044225802
 20
198.1788312739
 10
375.9892300472
 20
199.2366206891
 10
374.3179241764
 20
200.2498878057
 10
372.5929578396
 20
201.2171455143
 10
370.8168626627
 20
202.136974231
 10
368.9922453105
 20
203.0080239801
 10
367.1217836605
 20
203.8290163761
 10
365.208222873
 20
204.5987464995
 10
363.2543713624
 20
205.316084665
 10
361.2630966753
 20
205.9799780802
 10
359.2373212818
 20
206.5894523897
 10
357.1800182866
 20
207.1436131061
 10
355.0942070657
 20
207.641646922
 10
352.9829488346
 20
208.0828229042
 10
350.8493421559
 20
208.466493566
 10
348.6965183916
 20
208.7920958179
 10
346.5276371075
 20
209.0591517936
 10
344.3458814359
 20
209.2672695517
 10
342.1544534041
 20
209.4161436507
 10
339.9565692351
 20
209.5055555973
 10
337.7554546268
 20
209.5353741671
  0
LWPOLYLINE
  5
2AA
330
1F
100
AcDbEntity
  8
0
  6
Continuous
 62
     7
370
    25
100
AcDbPolyline
 90
      163
 70
   128
 43
0.0
 10
281.968633203
 20
169.40114931
 10
282.0105875424
 20
167.8715679444
 10
282.1363874571
 20
166.3442872145
 10
282.3458437322
 20
164.8216042956
 10
282.6386413255
 20
163.3058094474
 10
283.0143398417
 20
161.7991825693
 10
283.4723741944
 20
160.3039897714
 10
284.0120554566
 20
158.8224799655
 10
284.6325718962
 20
157.3568814832
 10
285.3329901978
 20
155.9093987239
 10
286.1122568655
 20
154.482208839
 10
286.9691998083
 20
153.0774584578
 10
287.9025301026
 20
151.6972604582
 10
288.910843931
 20
150.3436907891
 10
289.9926246937
 20
149.018785348
 10
291.1462452898
 20
147.7245369185
 10
292.3699705641
 20
146.462892173
 10
293.6619599177
 20
145.2357487453
 10
295.0202700758
 20
144.0449523755
 10
296.442858011
 20
142.8922941345
 10
297.9275840159
 20
141.7795077298
 10
299.4722149215
 20
140.7082668979
 10
301.0744274561
 20
139.6801828867
 10
302.73181174
 20
138.6968020322
 10
304.4418749098
 20
137.7596034327
 10
306.202044868
 20
136.8699967239
 10
308.0096741517
 20
136.0293199587
 10
309.8620439149
 20
135.238837595
 10
311.7563680174
 20
134.4997385932
 10
313.6897972159
 20
133.8131346284
 10
315.6594234492
 20
133.1800584183
 10
317.6622842123
 20
132.6014621696
 10
319.6953670124
 20
132.078216146
 10
321.7556138998
 20
131.6111073592
 10
323.8399260675
 20
131.2008383853
 10
325.945168512
 20
130.8480263077
 10
328.0681747487
 20
130.5532017893
 10
330.2057515746
 20
130.3168082743
 10
332.354683871
 20
130.1392013208
 10
334.5117394397
 20
130.0206480666
 10
336.6736738641
 20
129.9613268272
 10
338.8372353895
 20
129.9613268272
 10
340.999169814
 20
130.0206480666
 10
343.1562253826
 20
130.1392013208
 10
345.305157679
 20
130.3168082743
 10
347.4427345049
 20
130.5532017893
 10
349.5657407416
 20
130.8480263077
 10
351.6709831861
 20
131.2008383853
 10
353.7552953538
 20
131.6111073592
 10
355.8155422413
 20
132.078216146
 10
357.8486250413
 20
132.6014621696
 10
359.8514858044
 20
133.1800584183
 10
361.8211120377
 20
133.8131346284
 10
363.7545412362
 20
134.4997385932
 10
365.6488653387
 20
135.238837595
 10
367.5012351019
 20
136.0293199587
 10
369.3088643857
 20
136.8699967239
 10
371.0690343438
 20
137.7596034327
 10
372.7790975136
 20
138.6968020322
 10
374.4364817975
 20
139.6801828867
 10
376.0386943322
 20
140.7082668979
 10
377.5833252378
 20
141.7795077298
 10
379.0680512426
 20
142.8922941345
 10
380.4906391778
 20
144.0449523755
 10
381.848949336
 20
145.2357487453
 10
383.1409386896
 20
146.462892173
 10
384.3646639639
 20
147.7245369185
 10
385.5182845599
 20
149.018785348
 10
386.6000653226
 20
150.3436907891
 10
387.608379151
 20
151.6972604582
 10
388.5417094454
 20
153.0774584578
 10
389.3986523882
 20
154.482208839
 10
390.1779190559
 20
155.9093987239
 10
390.8783373574
 20
157.3568814832
 10
391.4988537971
 20
158.8224799655
 10
392.0385350592
 20
160.3039897714
 10
392.496569412
 20
161.7991825693
 10
392.8722679281
 20
163.3058094474
 10
393.1650655214
 20
164.8216042956
 10
393.3745217965
 20
166.3442872145
 10
393.5003217113
 20
167.8715679444
 10
393.5422760506
 20
169.40114931
 10
393.5003217113
 20
170.9307306756
 10
393.3745217965
 20
172.4580114055
 10
393.1650655214
 20
173.9806943244
 10
392.8722679281
 20
175.4964891726
 10
392.496569412
 20
177.0031160507
 10
392.0385350592
 20
178.4983088486
 10
391.4988537971
 20
179.9798186545
 10
390.8783373574
 20
181.4454171368
 10
390.1779190559
 20
182.8928998961
 10
389.3986523882
 20
184.320089781
 10
388.5417094454
 20
185.7248401622
 10
387.608379151
 20
187.1050381618
 10
386.6000653226
 20
188.4586078309
 10
385.5182845599
 20
189.783513272
 10
384.3646639639
 20
191.0777617015
 10
383.1409386896
 20
192.339406447
 10
381.848949336
 20
193.5665498747
 10
380.4906391778
 20
194.7573462445
 10
379.0680512426
 20
195.9100044855
 10
377.5833252377
 20
197.0227908902
 10
376.0386943322
 20
198.0940317221
 10
374.4364817975
 20
199.1221157333
 10
372.7790975136
 20
200.1054965878
 10
371.0690343438
 20
201.0426951873
 10
369.3088643857
 20
201.9323018961
 10
367.5012351019
 20
202.7729786613
 10
365.6488653387
 20
203.563461025
 10
363.7545412362
 20
204.3025600268
 10
361.8211120377
 20
204.9891639916
 10
359.8514858044
 20
205.6222402017
 10
357.8486250413
 20
206.2008364504
 10
355.8155422413
 20
206.724082474
 10
353.7552953538
 20
207.1911912608
 10
351.6709831861
 20
207.6014602347
 10
349.5657407416
 20
207.9542723123
 10
347.4427345049
 20
208.2490968307
 10
345.305157679
 20
208.4854903457
 10
343.1562253826
 20
208.6630972992
 10
340.999169814
 20
208.7816505534
 10
338.8372353895
 20
208.8409717928
 10
336.6736738641
 20
208.8409717928
 10
334.5117394397
 20
208.7816505534
 10
332.354683871
 20
208.6630972992
 10
330.2057515746
 20
208.4854903457
 10
328.0681747487
 20
208.2490968307
 10
325.945168512
 20
207.9542723123
 10
323.8399260675
 20
207.6014602347
 10
321.7556138998
 20
207.1911912608
 10
319.6953670124
 20
206.724082474
 10
317.6622842123
 20
206.2008364504
 10
315.6594234492
 20
205.6222402017
 10
313.6897972159
 20
204.9891639916
 10
311.7563680174
 20
204.3025600268
 10
309.8620439149
 20
203.563461025
 10
308.0096741517
 20
202.7729786613
 10
306.202044868
 20
201.9323018961
 10
304.4418749098
 20
201.0426951873
 10
302.73181174
 20
200.1054965878
 10
301.0744274561
 20
199.1221157333
 10
299.4722149215
 20
198.0940317221
 10
297.9275840159
 20
197.0227908902
 10
296.442858011
 20
195.9100044855
 10
295.0202700758
 20
194.7573462445
 10
293.6619599177
 20
193.5665498747
 10
292.3699705641
 20
192.339406447
 10
291.1462452898
 20
191.0777617015
 10
289.9926246937
 20
189.783513272
 10
288.910843931
 20
188.4586078309
 10
287.9025301026
 20
187.1050381618
 10
286.9691998083
 20
185.7248401622
 10
286.1122568655
 20
184.320089781
 10
285.3329901978
 20
182.8928998961
 10
284.6325718962
 20
181.4454171368
 10
284.0120554566
 20
179.9798186545
 10
283.4723741944
 20
178.4983088486
 10
283.0143398417
 20
177.0031160507
 10
282.6386413255
 20
175.4964891726
 10
282.3458437322
 20
173.9806943244
 10
282.1363874571
 20
172.4580114055
 10
282.0105875424
 20
170.9307306756
 10
281.968633203
 20
169.40114931
  0
LWPOLYLINE
  5
2AB
330
1F
100
AcDbEntity
  8
0
  6
Continuous
 62
     7
370
    25
100
AcDbPolyline
 90
      166
 70
   128
 43
0.0
 10
279.5261414877
 20
168.3342824024
 10
279.5683549563
 20
166.7667460247
 10
279.6949341567
 20
165.2014824248
 10
279.9056955612
 20
163.6407610855
 10
280.2003335858
 20
162.0868449033
 10
280.5784210336
 20
160.5419869082
 10
281.0394097139
 20
159.0084269967
 10
281.5826312372
 20
157.4883886839
 10
282.2072979843
 20
155.9840758802
 10
282.9125042481
 20
154.4976696952
 10
283.6972275469
 20
153.0313252759
 10
284.5603301069
 20
151.5871686814
 10
285.500560512
 20
150.1672938008
 10
286.5165555179
 20
148.7737593168
 10
287.606842029
 20
147.4085857213
 10
288.7698392342
 20
146.0737523855
 10
290.0038608986
 20
144.7711946901
 10
291.3071178088
 20
143.5028012193
 10
292.6777203669
 20
142.2704110222
 10
294.1136813301
 20
141.0758109469
 10
295.6129186925
 20
139.9207330493
 10
297.1732587031
 20
138.8068520818
 10
298.7924390181
 20
137.7357830655
 10
300.4681119809
 20
136.709078948
 10
302.1978480258
 20
135.7282283521
 10
303.9791392009
 20
134.7946534174
 10
305.8094028043
 20
133.9097077383
 10
307.6859851288
 20
133.0746744014
 10
309.6061653094
 20
132.2907641253
 10
311.5671592684
 20
131.5591135049
 10
313.566123752
 20
130.8807833637
 10
315.6001604529
 20
130.2567572154
 10
317.6663202123
 20
129.6879398385
 10
319.761607296
 20
129.1751559636
 10
321.8829837382
 20
128.7191490784
 10
324.0273737457
 20
128.3205803493
 10
326.1916681581
 20
127.9800276629
 10
328.3727289553
 20
127.6979847879
 10
330.5673938078
 20
127.4748606595
 10
332.7724806612
 20
127.3109787865
 10
334.9847923506
 20
127.2065767819
 10
337.2011212353
 20
127.1618060186
 10
339.4182538505
 20
127.1767314099
 10
341.6329755658
 20
127.2513313154
 10
343.8420752464
 20
127.3854975725
 10
346.042349909
 20
127.5790356528
 10
348.2306093657
 20
127.8316649446
 10
350.4036808494
 20
128.1430191597
 10
352.5584136143
 20
128.5126468642
 10
354.6916835038
 20
128.9400121332
 10
356.8003974806
 20
129.424495328
 10
358.881498111
 20
129.9653939942
 10
360.931967998
 20
130.5619238805
 10
362.9488341563
 20
131.2132200756
 10
364.9291723227
 20
131.9183382622
 10
366.8701111964
 20
132.6762560865
 10
368.7688366014
 20
133.4858746399
 10
370.6225955675
 20
134.3460200531
 10
372.4287003213
 20
135.2554451974
 10
374.1845321837
 20
136.2128314933
 10
375.8875453663
 20
137.2167908221
 10
377.5352706627
 20
138.2658675389
 10
379.1253190289
 20
139.3585405826
 10
380.6553850467
 20
140.4932256819
 10
382.1232502667
 20
141.6682776518
 10
383.5267864246
 20
142.8819927793
 10
384.8639585272
 20
144.1326112935
 10
386.1328278027
 20
145.4183199171
 10
387.3315545121
 20
146.7372544955
 10
388.4584006161
 20
148.0875026996
 10
389.5117322957
 20
149.4671067987
 10
390.4900223207
 20
150.8740664988
 10
391.3918522639
 20
152.3063418427
 10
392.2159145583
 20
153.7618561681
 10
392.9610143923
 20
155.2384991184
 10
393.6260714422
 20
156.7341297025
 10
394.2101214391
 20
158.246579399
 10
394.7123175663
 20
159.7736553005
 10
395.1319316873
 20
161.3131432929
 10
395.4683554018
 20
162.8628112657
 10
395.7211009276
 20
164.4204123487
 10
395.8898018078
 20
165.983688169
 10
395.9742134423
 20
167.5503721263
 10
395.9742134423
 20
169.1181926785
 10
395.8898018078
 20
170.6848766358
 10
395.7211009276
 20
172.2481524561
 10
395.4683554018
 20
173.805753539
 10
395.1319316873
 20
175.3554215119
 10
394.7123175663
 20
176.8949095043
 10
394.2101214391
 20
178.4219854058
 10
393.6260714422
 20
179.9344351023
 10
392.9610143923
 20
181.4300656864
 10
392.2159145583
 20
182.9067086367
 10
391.3918522639
 20
184.3622229621
 10
390.4900223207
 20
185.794498306
 10
389.5117322957
 20
187.201458006
 10
388.4584006161
 20
188.5810621051
 10
387.3315545121
 20
189.9313103093
 10
386.1328278027
 20
191.2502448877
 10
384.8639585272
 20
192.5359535113
 10
383.5267864246
 20
193.7865720255
 10
382.1232502667
 20
195.000287153
 10
380.6553850467
 20
196.1753391229
 10
379.1253190289
 20
197.3100242221
 10
377.5352706627
 20
198.4026972659
 10
375.8875453663
 20
199.4517739827
 10
374.1845321837
 20
200.4557333115
 10
372.4287003213
 20
201.4131196074
 10
370.6225955675
 20
202.3225447516
 10
368.7688366014
 20
203.1826901648
 10
366.8701111964
 20
203.9923087183
 10
364.9291723227
 20
204.7502265426
 10
362.9488341563
 20
205.4553447292
 10
360.931967998
 20
206.1066409243
 10
358.881498111
 20
206.7031708106
 10
356.8003974806
 20
207.2440694768
 10
354.6916835038
 20
207.7285526716
 10
352.5584136143
 20
208.1559179406
 10
350.4036808494
 20
208.525545645
 10
348.2306093657
 20
208.8368998601
 10
346.042349909
 20
209.089529152
 10
343.8420752464
 20
209.2830672323
 10
341.6329755658
 20
209.4172334893
 10
339.4182538505
 20
209.4918333949
 10
337.2011212353
 20
209.5067587862
 10
334.9847923506
 20
209.4619880229
 10
332.7724806612
 20
209.3575860182
 10
330.5673938078
 20
209.1937041452
 10
328.3727289553
 20
208.9705800169
 10
326.1916681581
 20
208.6885371419
 10
324.0273737457
 20
208.3479844554
 10
321.8829837382
 20
207.9494157263
 10
319.761607296
 20
207.4934088412
 10
317.6663202123
 20
206.9806249663
 10
315.6001604529
 20
206.4118075893
 10
313.566123752
 20
205.7877814411
 10
311.5671592684
 20
205.1094512999
 10
309.6061653094
 20
204.3778006795
 10
307.6859851288
 20
203.5938904034
 10
305.8094028043
 20
202.7588570665
 10
303.9791392009
 20
201.8739113874
 10
302.1978480258
 20
200.9403364527
 10
300.4681119809
 20
199.9594858568
 10
298.7924390181
 20
198.9327817393
 10
297.1732587031
 20
197.8617127229
 10
295.6129186925
 20
196.7478317555
 10
294.1136813301
 20
195.5927538579
 10
292.6777203669
 20
194.3981537826
 10
291.3071178088
 20
193.1657635855
 10
290.0038608986
 20
191.8973701146
 10
288.7698392342
 20
190.5948124192
 10
287.606842029
 20
189.2599790834
 10
286.5165555179
 20
187.894805488
 10
285.500560512
 20
186.501271004
 10
284.5603301069
 20
185.0813961234
 10
283.6972275469
 20
183.6372395289
 10
282.9125042481
 20
182.1708951095
 10
282.2072979843
 20
180.6844889246
 10
281.5826312372
 20
179.1801761208
 10
281.0394097139
 20
177.6601378081
 10
280.5784210336
 20
176.1265778965
 10
280.2003335858
 20
174.5817199015
 10
279.9056955612
 20
173.0278037193
 10
279.6949341567
 20
171.4670823799
 10
279.5683549563
 20
169.9018187801
 10
279.5261414877
 20
168.3342824024
  0
LWPOLYLINE
  5
2AC
330
1F
100
AcDbEntity
  8
0
  6
Continuous
 62
     7
370
    25
100
AcDbPolyline
 90
       86
 70
   128
 43
0.0
 10
395.9728989894
 20
167.5029940813
 10
395.9821291253
 20
167.0636786606
 10
395.9610214345
 20
165.4959291536
 10
395.8555212363
 20
163.9298844103
 10
395.665781496
 20
162.3678150459
 10
395.3920773179
 20
160.8119859115
 10
395.0348055472
 20
159.2646528107
 10
394.5944841935
 20
157.7280592285
 10
394.0717516808
 20
156.2044330788
 10
393.4673659213
 20
154.6959834738
 10
392.7822032165
 20
153.2048975212
 10
392.0172569869
 20
151.7333371532
 10
391.1736363313
 20
150.2834359915
 10
390.2525644191
 20
148.8572962542
 10
389.2553767165
 20
147.4569857076
 10
388.1835190502
 20
146.0845346682
 10
387.0385455116
 20
144.7419330587
 10
385.8221162026
 20
143.4311275231
 10
384.5359948296
 20
142.1540186041
 10
383.1820461456
 20
140.9124579876
 10
381.7622332467
 20
139.7082458178
 10
380.2786147258
 20
138.5431280871
 10
378.7333416881
 20
137.418794105
 10
377.1286546317
 20
136.3368740481
 10
375.4668801994
 20
135.2989365972
 10
373.7504278052
 20
134.3064866623
 10
371.9817861411
 20
133.360963201
 10
370.1635195684
 20
132.4637371318
 10
368.2982643997
 20
131.6161093468
 10
366.3887250768
 20
130.8193088253
 10
364.4376702491
 20
130.0744908518
 10
362.4479287596
 20
129.3827353412
 10
360.4223855433
 20
128.7450452728
 10
358.3639774441
 20
128.1623452364
 10
356.275688957
 20
127.6354800911
 10
354.1605479006
 20
127.1652137412
 10
352.0216210274
 20
126.7522280279
 10
349.8620095767
 20
126.3971217409
 10
347.6848447788
 20
126.1004097504
 10
345.4932833144
 20
125.8625222606
 10
343.2905027381
 20
125.6838041853
 10
341.0796968713
 20
125.5645146489
 10
338.864071171
 20
125.5048266098
 10
336.6468380827
 20
125.5048266098
 10
334.4312123823
 20
125.5645146489
 10
332.2204065155
 20
125.6838041853
 10
330.0176259392
 20
125.8625222606
 10
327.8260644748
 20
126.1004097504
 10
325.6488996769
 20
126.3971217409
 10
323.4892882262
 20
126.7522280279
 10
321.350361353
 20
127.1652137412
 10
319.2352202967
 20
127.6354800911
 10
317.1469318096
 20
128.1623452364
 10
315.0885237104
 20
128.7450452728
 10
313.062980494
 20
129.3827353412
 10
311.0732390045
 20
130.0744908518
 10
309.1221841768
 20
130.8193088253
 10
307.2126448539
 20
131.6161093468
 10
305.3473896852
 20
132.4637371318
 10
303.5291231125
 20
133.360963201
 10
301.7604814484
 20
134.3064866623
 10
300.0440290542
 20
135.2989365972
 10
298.3822546219
 20
136.3368740481
 10
296.7775675655
 20
137.418794105
 10
295.2322945278
 20
138.5431280871
 10
293.748676007
 20
139.7082458178
 10
292.3288631081
 20
140.9124579876
 10
290.974914424
 20
142.1540186041
 10
289.688793051
 20
143.4311275231
 10
288.4723637421
 20
144.7419330587
 10
287.3273902034
 20
146.0845346682
 10
286.2555325372
 20
147.4569857076
 10
285.2583448345
 20
148.8572962542
 10
284.3372729223
 20
150.2834359915
 10
283.4936522668
 20
151.7333371532
 10
282.7287060371
 20
153.2048975212
 10
282.0435433324
 20
154.6959834738
 10
281.4391575728
 20
156.2044330788
 10
280.9164250602
 20
157.7280592285
 10
280.4761037065
 20
159.2646528107
 10
280.1188319357
 20
160.8119859115
 10
279.8451277577
 20
162.3678150459
 10
279.6553880173
 20
163.9298844103
 10
279.5498878192
 20
165.4959291536
 10
279.5287801284
 20
167.0636786606
 10
279.5380102642
 20
167.5029940813
  0
ARC
  5
2AD
330
1F
100
AcDbEntity
  8
0
  6
Continuous
 62
     7
370
    25
100
AcDbCircle
 10
364.6842236873
 20
165.8420115729
 30
0.0
 40
31.53597195534469
100
AcDbArc
 50
321.9380552734
 51
7.7650253439
  0
ARC
  5
2AE
330
1F
100
AcDbEntity
  8
0
  6
Continuous
 62
     7
370
    25
100
AcDbCircle
 10
310.7597268344
 20
165.8238839511
 30
0.0
 40
31.47208802723741
100
AcDbArc
 50
172.1858054136
 51
218.1111139691
  0
LWPOLYLINE
  5
2AF
330
1F
100
AcDbEntity
  8
0
  6
Continuous
 62
     7
370
    25
100
AcDbPolyline
 90
       59
 70
   128
 43
0.0
 10
286.4828848437
 20
145.747896547
 10
286.7536937401
 20
145.3889534844
 10
287.8389343075
 20
144.0300980348
 10
288.9965490572
 20
142.7014424274
 10
290.2248595586
 20
141.4049130859
 10
291.5220848789
 20
140.1423898538
 10
292.8863441654
 20
138.9157032691
 10
294.3156593725
 20
137.7266319101
 10
295.8079581299
 20
136.5768998167
 10
297.3610767469
 20
135.4681739903
 10
298.9727633502
 20
134.4020619775
 10
300.6406811481
 20
133.3801095387
 10
302.3624118193
 20
132.4037984074
 10
304.1354590191
 20
131.4745441412
 10
305.9572519983
 20
130.5936940701
 10
307.8251493314
 20
129.7625253425
 10
309.7364427459
 20
128.9822430734
 10
311.6883610489
 20
128.2539785978
 10
313.6780741456
 20
127.5787878293
 10
315.7026971421
 20
126.95764973
 10
317.7592945288
 20
126.3914648909
 10
319.8448844359
 20
125.8810542259
 10
321.9564429575
 20
125.4271577815
 10
324.0909085357
 20
125.0304336642
 10
326.2451863993
 20
124.6914570861
 10
328.4161530515
 20
124.4107195308
 10
330.6006607981
 20
124.188628041
 10
332.7955423118
 20
124.025504628
 10
334.9976152242
 20
123.9215858052
 10
337.20368674
 20
123.877022245
 10
339.4105582665
 20
123.8918785603
 10
341.615030051
 20
123.9661332108
 10
343.8139058201
 20
124.0996785343
 10
346.0039974141
 20
124.292320903
 10
348.1821294097
 20
124.5437810039
 10
350.3451437236
 20
124.8536942437
 10
352.489904192
 20
125.221611278
 10
354.6133011171
 20
125.6469986622
 10
356.7122557764
 20
126.1292396253
 10
358.7837248863
 20
126.6676349639
 10
360.8247050147
 20
127.2614040564
 10
362.8322369354
 20
127.9096859942
 10
364.8034099192
 20
128.6115408307
 10
366.7353659536
 20
129.3659509432
 10
368.6253038871
 20
130.1718225094
 10
370.4704834904
 20
131.0279870924
 10
372.2682294294
 20
131.9332033356
 10
374.0159351443
 20
132.8861587617
 10
375.7110666291
 20
133.8854716767
 10
377.3511661051
 20
134.9296931723
 10
378.9338555848
 20
136.0173092272
 10
380.4568403198
 20
137.146742902
 10
381.9179121278
 20
138.316356626
 10
383.3149525944
 20
139.524454571
 10
384.6459361446
 20
140.7692851105
 10
385.9089329792
 20
142.0490433592
 10
387.1021118738
 20
143.36187379
 10
388.223742833
 20
144.7058729244
 10
389.02802441
 20
145.747896547
  0
LWPOLYLINE
  5
2B0
330
1F
100
AcDbEntity
  8
0
  6
Continuous
 62
     7
370
    25
100
AcDbPolyline
 90
       81
 70
   128
 43
0.0
 10
390.262046333
 20
169.1466671946
 10
390.2515347099
 20
168.4037847968
 10
390.1674669758
 20
166.9192096602
 10
389.9994661344
 20
165.4382015958
 10
389.7478012241
 20
163.9631323044
 10
389.4128752633
 20
162.4963639763
 10
388.9952246058
 20
161.0402455085
 10
388.4955180814
 20
159.5971087434
 10
387.9145559251
 20
158.1692647342
 10
387.2532684952
 20
156.7590000443
 10
386.5127147839
 20
155.3685730852
 10
385.6940807212
 20
154.0002105004
 10
384.7986772756
 20
152.6561035988
 10
383.8279383549
 20
151.3384048464
 10
382.7834185099
 20
150.0492244189
 10
381.6667904448
 20
148.7906268223
 10
380.4798423387
 20
147.564627587
 10
379.2244749819
 20
146.3731900403
 10
377.9026987318
 20
145.2182221618
 10
376.5166302939
 20
144.1015735283
 10
375.0684893315
 20
143.0250323518
 10
373.5605949119
 20
141.9903226158
 10
371.9953617918
 20
140.9991013146
 10
370.3752965507
 20
140.0529557997
 10
368.702993577
 20
139.1534012377
 10
366.9811309129
 20
138.3018781839
 10
365.212465966
 20
137.4997502759
 10
363.3998310936
 20
136.7483020489
 10
361.546129067
 20
136.0487368795
 10
359.6543284224
 20
135.4021750582
 10
357.7274587081
 20
134.8096519954
 10
355.7686056318
 20
134.2721165633
 10
353.7809061199
 20
133.7904295763
 10
351.7675432939
 20
133.3653624127
 10
349.7317413727
 20
132.9975957793
 10
347.6767605091
 20
132.687718621
 10
345.6058915696
 20
132.4362271781
 10
343.5224508639
 20
132.2435241916
 10
341.4297748343
 20
132.1099182578
 10
339.3312147125
 20
132.0356233346
 10
337.2301311531
 20
132.0207583987
 10
335.1298888518
 20
132.0653472548
 10
333.0338511572
 20
132.1693184979
 10
330.9453746844
 20
132.3325056275
 10
328.8678039399
 20
132.5546473141
 10
326.8044659658
 20
132.8353878179
 10
324.7586650117
 20
133.1742775582
 10
322.7336772431
 20
133.5707738338
 10
320.7327454951
 20
134.0242416917
 10
318.7590740794
 20
134.5339549439
 10
316.8158236526
 20
135.0990973308
 10
314.9061061549
 20
135.7187638277
 10
313.0329798264
 20
136.3919620948
 10
311.19944431
 20
137.1176140658
 10
309.4084358471
 20
137.8945576746
 10
307.6628225764
 20
138.721548716
 10
305.9653999398
 20
139.5972628385
 10
304.3188862065
 20
140.5202976651
 10
302.7259181197
 20
141.4891750388
 10
301.1890466739
 20
142.5023433899
 10
299.7107330301
 20
143.5581802207
 10
298.2933445741
 20
144.6549947039
 10
296.9391511256
 20
145.79103039
 10
295.6503213032
 20
146.9644680204
 10
294.4289190516
 20
148.1734284408
 10
293.2769003362
 20
149.41597561
 10
292.1961100109
 20
150.6901197009
 10
291.1882788641
 20
151.9938202868
 10
290.2550208461
 20
153.3249896089
 10
289.3978304857
 20
154.6814959197
 10
288.6180804957
 20
156.0611668966
 10
287.9170195753
 20
157.4617931212
 10
287.2957704105
 20
158.881131617
 10
286.7553278756
 20
160.3169094415
 10
286.2965574405
 20
161.7668273261
 10
285.9201937848
 20
163.2285633581
 10
285.6268396208
 20
164.6997766993
 10
285.4169647287
 20
166.1781113343
 10
285.2909052044
 20
167.6611998435
 10
285.2488629206
 20
169.1466671946
 10
285.2488629206
 20
169.1466671946
  0
LWPOLYLINE
  5
2B1
330
1F
100
AcDbEntity
  8
0
  6
Continuous
 62
     7
370
    25
100
AcDbPolyline
 90
       80
 70
   128
 43
0.0
 10
285.24955377
 20
168.9562101072
 10
285.2909052044
 20
170.2512203608
 10
285.4169647287
 20
171.7343088701
 10
285.6268396208
 20
173.212643505
 10
285.9201937848
 20
174.6838568462
 10
286.2965574405
 20
176.1455928783
 10
286.7553278756
 20
177.5955107628
 10
287.2957704105
 20
179.0312885873
 10
287.9170195753
 20
180.4506270831
 10
288.6180804957
 20
181.8512533077
 10
289.3978304857
 20
183.2309242847
 10
290.2550208461
 20
184.5874305954
 10
291.1882788641
 20
185.9185999175
 10
292.1961100109
 20
187.2223005034
 10
293.2769003362
 20
188.4964445944
 10
294.4289190516
 20
189.7389917636
 10
295.6503213032
 20
190.9479521839
 10
296.9391511256
 20
192.1213898143
 10
298.2933445741
 20
193.2574255005
 10
299.7107330301
 20
194.3542399836
 10
301.1890466739
 20
195.4100768144
 10
302.7259181197
 20
196.4232451655
 10
304.3188862065
 20
197.3921225392
 10
305.9653999398
 20
198.3151573658
 10
307.6628225764
 20
199.1908714884
 10
309.4084358471
 20
200.0178625298
 10
311.19944431
 20
200.7948061385
 10
313.0329798264
 20
201.5204581095
 10
314.9061061549
 20
202.1936563766
 10
316.8158236526
 20
202.8133228736
 10
318.7590740794
 20
203.3784652604
 10
320.7327454951
 20
203.8881785127
 10
322.7336772431
 20
204.3416463705
 10
324.7586650117
 20
204.7381426461
 10
326.8044659658
 20
205.0770323864
 10
328.8678039399
 20
205.3577728902
 10
330.9453746844
 20
205.5799145768
 10
333.0338511572
 20
205.7431017064
 10
335.1298888518
 20
205.8470729496
 10
337.2301311531
 20
205.8916618057
 10
339.3312147125
 20
205.8767968697
 10
341.4297748343
 20
205.8025019465
 10
343.5224508639
 20
205.6688960127
 10
345.6058915696
 20
205.4761930262
 10
347.6767605091
 20
205.2247015834
 10
349.7317413727
 20
204.9148244251
 10
351.7675432939
 20
204.5470577916
 10
353.7809061199
 20
204.121990628
 10
355.7686056318
 20
203.6403036411
 10
357.7274587081
 20
203.1027682089
 10
359.6543284224
 20
202.5102451461
 10
361.546129067
 20
201.8636833248
 10
363.3998310936
 20
201.1641181554
 10
365.212465966
 20
200.4126699285
 10
366.9811309129
 20
199.6105420204
 10
368.702993577
 20
198.7590189667
 10
370.3752965507
 20
197.8594644046
 10
371.9953617918
 20
196.9133188897
 10
373.5605949119
 20
195.9220975885
 10
375.0684893315
 20
194.8873878526
 10
376.5166302939
 20
193.8108466761
 10
377.9026987318
 20
192.6941980425
 10
379.2244749819
 20
191.539230164
 10
380.4798423387
 20
190.3477926173
 10
381.6667904448
 20
189.1217933821
 10
382.7834185099
 20
187.8631957855
 10
383.8279383549
 20
186.5740153579
 10
384.7986772756
 20
185.2563166056
 10
385.6940807212
 20
183.912209704
 10
386.5127147839
 20
182.5438471191
 10
387.2532684952
 20
181.15342016
 10
387.9145559251
 20
179.7431554701
 10
388.4955180814
 20
178.3153114609
 10
388.9952246058
 20
176.8721746958
 10
389.4128752633
 20
175.4160562281
 10
389.7478012241
 20
173.9492878999
 10
389.9994661344
 20
172.4742186085
 10
390.1674669758
 20
170.9932105441
 10
390.2515347099
 20
169.5086354075
 10
390.2613554837
 20
168.9562101072
  0
LWPOLYLINE
  5
2B2
330
1F
100
AcDbEntity
  8
0
  6
Continuous
 62
     7
370
    25
100
AcDbPolyline
 90
       35
 70
   128
 43
0.0
 10
337.7554546268
 20
205.8244947451
 10
339.855443262
 20
205.7947773911
 10
341.9520689549
 20
205.7056729189
 10
344.0419741487
 20
205.5573240213
 10
346.121812049
 20
205.3499682655
 10
348.1882519829
 20
205.0839377132
 10
350.2379847335
 20
204.7596583882
 10
352.2677278388
 20
204.3776495947
 10
354.2742308483
 20
203.9385230852
 10
356.2542805287
 20
203.4429820811
 10
358.204706009
 20
202.8918201468
 10
360.122383859
 20
202.2859199182
 10
362.0042430905
 20
201.62625169
 10
363.847270076
 20
200.9138718612
 10
365.6485133739
 20
200.1499212438
 10
367.4050884559
 20
199.3356232358
 10
369.1141823253
 20
198.472281862
 10
370.7730580227
 20
197.5612796856
 10
372.3790590083
 20
196.6040755944
 10
373.9296134165
 20
195.6022024644
 10
375.4222381744
 20
194.5572647049
 10
376.8545429781
 20
193.4709356895
 10
378.2242341208
 20
192.3449550761
 10
379.5291181657
 20
191.1811260209
 10
380.7671054588
 20
189.9813122912
 10
381.9362134753
 20
188.7474352803
 10
383.034569994
 20
187.4814709309
 10
384.0604160962
 20
186.1854465707
 10
385.012108982
 20
184.8614376656
 10
385.8881246011
 20
183.5115644965
 10
386.6870600936
 20
182.1379887635
 10
387.4076360363
 20
180.7429101239
 10
388.0486984919
 20
179.3285626705
 10
388.6092208568
 20
177.897211353
 10
389.0597571689
 20
176.5452110633
  0
LWPOLYLINE
  5
2B3
330
1F
100
AcDbEntity
  8
0
  6
Continuous
 62
     7
370
    25
100
AcDbPolyline
 90
        3
 70
   128
 43
0.0
 10
390.1815203023
 20
170.4999717341
 10
390.2399380339
 20
169.0818250232
 10
390.2252112456
 20
167.756197315
  0
LWPOLYLINE
  5
2B4
330
1F
100
AcDbEntity
  8
0
  6
Continuous
 62
     7
370
    25
100
AcDbPolyline
 90
       41
 70
   128
 43
0.0
 10
285.285698008
 20
167.756197315
 10
285.2709712197
 20
169.0818250232
 10
285.3340059885
 20
170.5663695877
 10
285.4809889759
 20
172.0479421495
 10
285.7116848019
 20
173.5241701037
 10
286.025724028
 20
174.9926894047
 10
286.4226037487
 20
176.4511483512
 10
286.9016883968
 20
177.897211353
 10
287.4622107617
 20
179.3285626705
 10
288.1032732174
 20
180.7429101239
 10
288.8238491601
 20
182.1379887635
 10
289.6227846525
 20
183.5115644965
 10
290.4988002716
 20
184.8614376656
 10
291.4504931574
 20
186.1854465707
 10
292.4763392596
 20
187.4814709309
 10
293.5746957784
 20
188.7474352803
 10
294.7438037948
 20
189.9813122912
 10
295.9817910879
 20
191.1811260209
 10
297.2866751329
 20
192.3449550761
 10
298.6563662755
 20
193.4709356895
 10
300.0886710793
 20
194.5572647049
 10
301.5812958371
 20
195.6022024644
 10
303.1318502454
 20
196.6040755944
 10
304.737851231
 20
197.5612796856
 10
306.3967269283
 20
198.472281862
 10
308.1058207978
 20
199.3356232358
 10
309.8623958797
 20
200.1499212438
 10
311.6636391777
 20
200.9138718612
 10
313.5066661631
 20
201.62625169
 10
315.3885253947
 20
202.2859199182
 10
317.3062032446
 20
202.8918201468
 10
319.2566287249
 20
203.4429820811
 10
321.2366784053
 20
203.9385230852
 10
323.2431814149
 20
204.3776495947
 10
325.2729245201
 20
204.7596583882
 10
327.3226572707
 20
205.0839377132
 10
329.3890972047
 20
205.3499682655
 10
331.4689351049
 20
205.5573240213
 10
333.5588402987
 20
205.7056729189
 10
335.6554659916
 20
205.7947773911
 10
337.7554546268
 20
205.8244947451
  0
LWPOLYLINE
  5
2B5
330
1F
100
AcDbEntity
  8
0
  6
Continuous
 62
     7
370
    25
100
AcDbPolyline
 90
        3
 70
   128
 43
0.0
 10
361.8566023008
 20
201.7511804998
 10
360.8169468752
 20
202.078755566
 10
360.0649673296
 20
202.3050145213
  0
LWPOLYLINE
  5
2B6
330
1F
100
AcDbEntity
  8
0
  6
Continuous
 62
     7
370
    25
100
AcDbPolyline
 90
        3
 70
   128
 43
0.0
 10
315.445941924
 20
202.3050145213
 10
313.6861713171
 20
201.7614785286
 10
313.6543069529
 20
201.7511804998
  0
LWPOLYLINE
  5
2B7
330
1F
100
AcDbEntity
  8
0
  6
Continuous
 62
     7
370
    25
100
AcDbPolyline
 90
       61
 70
   128
 43
0.0
 10
389.7687260313
 20
146.7454416184
 10
389.2548746281
 20
146.0232377103
 10
388.2067704557
 20
144.6504803534
 10
387.0855166987
 20
143.3069332031
 10
385.8927390676
 20
141.9945442744
 10
384.630166976
 20
140.7152164056
 10
383.2996310328
 20
139.4708045
 10
381.9030603879
 20
138.2631128357
 10
380.4424799352
 20
137.0938924504
 10
378.9200073767
 20
135.9648386016
 10
377.3378501521
 20
134.8775883097
 10
375.6983022381
 20
133.8337179836
 10
374.0037408224
 20
132.8347411354
 10
372.2566228571
 20
131.8821061861
 10
370.4594814962
 20
130.9771943652
 10
368.6149224229
 20
130.1213177085
 10
366.7256200715
 20
129.3157171552
 10
364.7943137498
 20
128.5615607492
 10
362.8238036672
 20
127.859941945
 10
360.8169468752
 20
127.211878023
 10
358.776653124
 20
126.6183086138
 10
356.7058806447
 20
126.0800943363
 10
354.6076318594
 20
125.5980155499
 10
352.4849490281
 20
125.1727712225
 10
350.3409098381
 20
124.804977918
 10
348.1786229413
 20
124.4951689013
 10
346.0012234468
 20
124.243793366
 10
343.8118683759
 20
124.0512157825
 10
341.613732084
 20
123.9177153699
 10
339.4100016587
 20
123.8434856911
 10
337.2038722983
 20
123.828634372
 10
334.9985426796
 20
123.8731829456
 10
332.7972103197
 20
123.9770668207
 10
330.60306694
 20
124.1401353756
 10
328.4192938386
 20
124.3621521766
 10
326.2490572779
 20
124.6427953204
 10
324.0955038933
 20
124.9816579014
 10
321.9617561313
 20
125.3782486012
 10
319.8509077223
 20
125.8319924012
 10
317.7660191946
 20
126.3422314162
 10
315.7101134373
 20
126.9082258486
 10
313.6861713171
 20
127.5291550604
 10
311.6971273567
 20
128.2041187637
 10
309.7458654796
 20
128.9321383256
 10
307.835214829
 20
129.7121581873
 10
305.9679456658
 20
130.5430473947
 10
304.1467653516
 20
131.4236012378
 10
302.3743144239
 20
132.3525429978
 10
300.6531627669
 20
133.3285257978
 10
298.9858058862
 20
134.3501345561
 10
297.3746612897
 20
135.4158880377
 10
295.8220649831
 20
136.524241002
 10
294.3302680827
 20
137.673586443
 10
292.9014335512
 20
138.8622579199
 10
291.5376330622
 20
140.0885319725
 10
290.240843996
 20
141.3506306207
 10
289.0129465727
 20
142.6467239422
 10
287.8557211264
 20
143.9749327255
 10
286.7708455231
 20
145.3333311949
 10
285.7598927289
 20
146.7199498025
 10
285.7421832223
 20
146.7454416184
  0
LWPOLYLINE
  5
2B8
330
1F
100
AcDbEntity
  8
0
  6
Continuous
 62
     7
370
    25
100
AcDbPolyline
 90
        3
 70
   128
 43
0.0
 10
365.1329849345
 20
200.375685769
 10
365.4182116615
 20
200.2675228615
 10
366.3650723759
 20
199.897986666
  0
LWPOLYLINE
  5
2B9
330
1F
100
AcDbEntity
  8
0
  6
Continuous
 62
     7
370
    25
100
AcDbPolyline
 90
       80
 70
   128
 43
0.0
 10
395.6948708868
 20
159.9326786211
 10
395.665781496
 20
159.7322591265
 10
395.3920773179
 20
158.1764299921
 10
395.0348055471
 20
156.6290968913
 10
394.5944841935
 20
155.0925033091
 10
394.0717516808
 20
153.5688771594
 10
393.4673659213
 20
152.0604275544
 10
392.7822032165
 20
150.5693416019
 10
392.0172569869
 20
149.0977812338
 10
391.1736363313
 20
147.6478800721
 10
390.2525644191
 20
146.2217403348
 10
389.2553767165
 20
144.8214297883
 10
388.1835190502
 20
143.4489787488
 10
387.0385455116
 20
142.1063771393
 10
385.8221162026
 20
140.7955716037
 10
384.5359948296
 20
139.5184626848
 10
383.1820461456
 20
138.2769020683
 10
381.7622332467
 20
137.0726898984
 10
380.2786147258
 20
135.9075721678
 10
378.7333416881
 20
134.7832381856
 10
377.1286546317
 20
133.7013181287
 10
375.4668801994
 20
132.6633806778
 10
373.7504278052
 20
131.6709307429
 10
371.9817861411
 20
130.7254072816
 10
370.1635195684
 20
129.8281812124
 10
368.2982643997
 20
128.9805534275
 10
366.3887250768
 20
128.1837529059
 10
364.4376702491
 20
127.4389349324
 10
362.4479287596
 20
126.7471794218
 10
360.4223855433
 20
126.1094893535
 10
358.3639774441
 20
125.526789317
 10
356.275688957
 20
124.9999241718
 10
354.1605479006
 20
124.5296578218
 10
352.0216210274
 20
124.1166721085
 10
349.8620095767
 20
123.7615658215
 10
347.6848447788
 20
123.4648538311
 10
345.4932833144
 20
123.2269663412
 10
343.2905027381
 20
123.048248266
 10
341.0796968713
 20
122.9289587296
 10
338.864071171
 20
122.8692706904
 10
336.6468380827
 20
122.8692706904
 10
334.4312123823
 20
122.9289587296
 10
332.2204065155
 20
123.048248266
 10
330.0176259392
 20
123.2269663412
 10
327.8260644748
 20
123.4648538311
 10
325.6488996769
 20
123.7615658215
 10
323.4892882262
 20
124.1166721085
 10
321.350361353
 20
124.5296578218
 10
319.2352202967
 20
124.9999241718
 10
317.1469318096
 20
125.526789317
 10
315.0885237104
 20
126.1094893535
 10
313.062980494
 20
126.7471794218
 10
311.0732390045
 20
127.4389349324
 10
309.1221841768
 20
128.1837529059
 10
307.2126448539
 20
128.9805534275
 10
305.3473896852
 20
129.8281812124
 10
303.5291231125
 20
130.7254072816
 10
301.7604814484
 20
131.6709307429
 10
300.0440290543
 20
132.6633806778
 10
298.3822546219
 20
133.7013181287
 10
296.7775675655
 20
134.7832381856
 10
295.2322945278
 20
135.9075721678
 10
293.748676007
 20
137.0726898984
 10
292.3288631081
 20
138.2769020683
 10
290.974914424
 20
139.5184626848
 10
289.688793051
 20
140.7955716037
 10
288.4723637421
 20
142.1063771393
 10
287.3273902034
 20
143.4489787488
 10
286.2555325372
 20
144.8214297883
 10
285.2583448345
 20
146.2217403348
 10
284.3372729223
 20
147.6478800721
 10
283.4936522668
 20
149.0977812338
 10
282.7287060371
 20
150.5693416019
 10
282.0435433324
 20
152.0604275544
 10
281.4391575728
 20
153.5688771594
 10
280.9164250602
 20
155.0925033091
 10
280.4761037065
 20
156.6290968913
 10
280.1188319357
 20
158.1764299921
 10
279.8451277577
 20
159.7322591265
 10
279.8160383668
 20
159.9326786211
  0
LWPOLYLINE
  5
2BA
330
1F
100
AcDbEntity
  8
0
  6
Continuous
 62
     7
370
    25
100
AcDbPolyline
 90
        3
 70
   128
 43
0.0
 10
309.1458368778
 20
199.897986666
 10
310.0926975921
 20
200.2675228615
 10
310.3779243191
 20
200.375685769
  0
LWPOLYLINE
  5
2BB
330
1F
100
AcDbEntity
  8
0
  6
Continuous
 62
     7
370
    25
100
AcDbPolyline
 90
        3
 70
   128
 43
0.0
 10
377.5466810622
 20
192.9897129602
 10
377.3378501523
 20
193.1285386657
 10
377.0368544348
 20
193.3262336711
  0
LINE
  5
2BC
330
1F
100
AcDbEntity
  8
0
  6
Continuous
 62
     7
370
    25
100
AcDbLine
 10
298.4740548188
 20
193.3262336711
 30
0.0
 11
297.9642281914
 21
192.9897129602
 31
0.0
  0
LINE
  5
2BD
330
1F
100
AcDbEntity
  8
0
  6
Continuous
 62
     7
370
    25
100
AcDbLine
 10
378.1553576704
 20
192.4037994959
 30
0.0
 11
378.5946600621
 21
192.1013639083
 31
0.0
  0
LWPOLYLINE
  5
2BE
330
1F
100
AcDbEntity
  8
0
  6
Continuous
 62
     7
370
    25
100
AcDbPolyline
 90
       82
 70
   128
 43
0.0
 10
395.9554314396
 20
161.4448135377
 10
395.8555212365
 20
160.0098218772
 10
395.6657814962
 20
158.4477525127
 10
395.3920773182
 20
156.8919233783
 10
395.0348055474
 20
155.3445902775
 10
394.5944841937
 20
153.8079966954
 10
394.071751681
 20
152.2843705456
 10
393.4673659215
 20
150.7759209406
 10
392.7822032167
 20
149.2848349881
 10
392.0172569871
 20
147.81327462
 10
391.1736363315
 20
146.3633734583
 10
390.2525644193
 20
144.937233721
 10
389.2553767167
 20
143.5369231744
 10
388.1835190504
 20
142.164472135
 10
387.0385455118
 20
140.8218705255
 10
385.8221162028
 20
139.5110649899
 10
384.5359948298
 20
138.2339560709
 10
383.1820461458
 20
136.9923954544
 10
381.7622332468
 20
135.7881832846
 10
380.278614726
 20
134.6230655539
 10
378.7333416883
 20
133.4987315718
 10
377.1286546319
 20
132.4168115149
 10
375.4668801995
 20
131.378874064
 10
373.7504278054
 20
130.3864241291
 10
371.9817861413
 20
129.4409006677
 10
370.1635195685
 20
128.5436745986
 10
368.2982643999
 20
127.6960468136
 10
366.3887250769
 20
126.899246292
 10
364.4376702492
 20
126.1544283186
 10
362.4479287597
 20
125.4626728079
 10
360.4223855434
 20
124.8249827396
 10
358.3639774441
 20
124.2422827031
 10
356.275688957
 20
123.7154175579
 10
354.1605479007
 20
123.2451512079
 10
352.0216210274
 20
122.8321654946
 10
349.8620095768
 20
122.4770592076
 10
347.6848447788
 20
122.1803472172
 10
345.4932833144
 20
121.9424597273
 10
343.2905027382
 20
121.7637416521
 10
341.0796968713
 20
121.6444521157
 10
338.864071171
 20
121.5847640765
 10
336.6468380827
 20
121.5847640765
 10
334.4312123823
 20
121.6444521157
 10
332.2204065155
 20
121.7637416521
 10
330.0176259392
 20
121.9424597273
 10
327.8260644748
 20
122.1803472172
 10
325.6488996769
 20
122.4770592076
 10
323.4892882262
 20
122.8321654946
 10
321.3503613529
 20
123.2451512079
 10
319.2352202966
 20
123.7154175579
 10
317.1469318095
 20
124.2422827031
 10
315.0885237103
 20
124.8249827396
 10
313.0629804939
 20
125.4626728079
 10
311.0732390044
 20
126.1544283186
 10
309.1221841767
 20
126.899246292
 10
307.2126448538
 20
127.6960468136
 10
305.3473896851
 20
128.5436745986
 10
303.5291231124
 20
129.4409006677
 10
301.7604814483
 20
130.3864241291
 10
300.0440290541
 20
131.378874064
 10
298.3822546218
 20
132.4168115149
 10
296.7775675654
 20
133.4987315718
 10
295.2322945276
 20
134.6230655539
 10
293.7486760068
 20
135.7881832846
 10
292.3288631079
 20
136.9923954544
 10
290.9749144238
 20
138.2339560709
 10
289.6887930508
 20
139.5110649899
 10
288.4723637419
 20
140.8218705255
 10
287.3273902032
 20
142.164472135
 10
286.255532537
 20
143.5369231744
 10
285.2583448343
 20
144.937233721
 10
284.3372729221
 20
146.3633734583
 10
283.4936522666
 20
147.81327462
 10
282.7287060369
 20
149.2848349881
 10
282.0435433321
 20
150.7759209406
 10
281.4391575726
 20
152.2843705456
 10
280.9164250599
 20
153.8079966954
 10
280.4761037063
 20
155.3445902775
 10
280.1188319355
 20
156.8919233783
 10
279.8451277575
 20
158.4477525127
 10
279.6553880171
 20
160.0098218772
 10
279.5554778141
 20
161.4448135377
  0
LINE
  5
2BF
330
1F
100
AcDbEntity
  8
0
  6
Continuous
 62
     7
370
    25
100
AcDbLine
 10
296.9162491916
 20
192.1013639083
 30
0.0
 11
297.3555515832
 21
192.4037994959
 31
0.0
  0
LWPOLYLINE
  5
2C0
330
1F
100
AcDbEntity
  8
0
  6
Continuous
 62
     7
370
    25
100
AcDbPolyline
 90
       49
 70
   128
 43
0.0
 10
337.7554546268
 20
203.2473733643
 10
335.6741275986
 20
203.2175399488
 10
333.5962201853
 20
203.1280887186
 10
331.5251463832
 20
202.9791666417
 10
329.4643089612
 20
202.7710183968
 10
327.4170938698
 20
202.5039859708
 10
325.3868646779
 20
202.1785080974
 10
323.3769570469
 20
201.7951195358
 10
321.3906732496
 20
201.3544501925
 10
319.4312767452
 20
200.857224086
 10
317.5019868169
 20
200.3042581575
 10
315.605973283
 20
199.6964609286
 10
313.7463512888
 20
199.0348310085
 10
311.9261761884
 20
198.3204554534
 10
310.1484385246
 20
197.5545079806
 10
308.4160591158
 20
196.7382470396
 10
306.7318842567
 20
195.8730137451
 10
305.0986810424
 20
194.9602296731
 10
303.5191328212
 20
194.0013945255
 10
301.9958347869
 20
192.9980836658
 10
300.5312897141
 20
191.9519455312
 10
299.1279038465
 20
190.8646989239
 10
297.7879829434
 20
189.7381301872
 10
296.5137284914
 20
188.5740902705
 10
295.3072340871
 20
187.3744916885
 10
294.1704819977
 20
186.1413053784
 10
293.1053399038
 20
184.8765574621
 10
292.1135578312
 20
183.5823259171
 10
291.1967652752
 20
182.2607371625
 10
290.3564685236
 20
180.913962565
 10
289.5940481816
 20
179.5442148719
 10
288.910756904
 20
178.1537445749
 10
288.3077173365
 20
176.7448362131
 10
287.7859202715
 20
175.3198046193
 10
287.3462230203
 20
173.8809911167
 10
286.9893480042
 20
172.430759672
 10
286.715881568
 20
170.9714930116
 10
286.5262730163
 20
169.505588707
 10
286.4208338755
 20
168.035455235
 10
286.3997373818
 20
166.563508021
 10
286.4630181967
 20
165.0921654704
 10
286.6105723499
 20
163.6238449953
 10
286.8421574105
 20
162.1609590422
 10
287.1573928846
 20
160.705911129
 10
287.5557608414
 20
159.2610918956
 10
288.0366067632
 20
157.8288751761
 10
288.5991406215
 20
156.4116140989
 10
289.2424381747
 20
155.0116372202
 10
289.4592605183
 20
154.5792410796
  0
LWPOLYLINE
  5
2C1
330
1F
100
AcDbEntity
  8
0
  6
Continuous
 62
     7
370
    25
100
AcDbPolyline
 90
       49
 70
   128
 43
0.0
 10
386.0516487354
 20
154.5792410796
 10
386.2684710789
 20
155.0116372202
 10
386.9117686321
 20
156.4116140989
 10
387.4743024904
 20
157.8288751761
 10
387.9551484122
 20
159.2610918956
 10
388.353516369
 20
160.705911129
 10
388.6687518432
 20
162.1609590422
 10
388.9003369037
 20
163.6238449953
 10
389.0478910569
 20
165.0921654704
 10
389.1111718718
 20
166.563508021
 10
389.0900753781
 20
168.035455235
 10
388.9846362373
 20
169.505588707
 10
388.7950276856
 20
170.9714930116
 10
388.5215612494
 20
172.430759672
 10
388.1646862333
 20
173.8809911167
 10
387.7249889821
 20
175.3198046193
 10
387.2031919171
 20
176.7448362131
 10
386.6001523496
 20
178.1537445749
 10
385.916861072
 20
179.5442148719
 10
385.1544407301
 20
180.913962565
 10
384.3141439784
 20
182.2607371625
 10
383.3973514224
 20
183.5823259171
 10
382.4055693498
 20
184.8765574621
 10
381.340427256
 20
186.1413053784
 10
380.2036751666
 20
187.3744916885
 10
378.9971807622
 20
188.5740902705
 10
377.7229263102
 20
189.7381301872
 10
376.3830054071
 20
190.8646989239
 10
374.9796195395
 20
191.9519455312
 10
373.5150744667
 20
192.9980836658
 10
371.9917764324
 20
194.0013945255
 10
370.4122282113
 20
194.9602296731
 10
368.7790249969
 20
195.8730137451
 10
367.0948501379
 20
196.7382470396
 10
365.362470729
 20
197.5545079806
 10
363.5847330653
 20
198.3204554534
 10
361.7645579648
 20
199.0348310085
 10
359.9049359706
 20
199.6964609286
 10
358.0089224368
 20
200.3042581575
 10
356.0796325085
 20
200.857224086
 10
354.120236004
 20
201.3544501925
 10
352.1339522067
 20
201.7951195358
 10
350.1240445757
 20
202.1785080974
 10
348.0938153838
 20
202.5039859708
 10
346.0466002924
 20
202.7710183968
 10
343.9857628704
 20
202.9791666417
 10
341.9146890683
 20
203.1280887186
 10
339.836781655
 20
203.2175399488
 10
337.7554546268
 20
203.2473733643
  0
LINE
  5
2C2
330
1F
100
AcDbEntity
  8
0
  6
Continuous
 62
     7
370
    25
100
AcDbLine
 10
381.9028380394
 20
188.8648911806
 30
0.0
 11
381.5944111128
 21
189.1193571708
 31
0.0
  0
LINE
  5
2C3
330
1F
100
AcDbEntity
  8
0
  6
Continuous
 62
     7
370
    25
100
AcDbLine
 10
293.9164981408
 20
189.1193571708
 30
0.0
 11
293.6080712143
 21
188.8648911806
 31
0.0
  0
LINE
  5
2C4
330
1F
100
AcDbEntity
  8
0
  6
Continuous
 62
     7
370
    25
100
AcDbLine
 10
382.1245650943
 20
188.5382461786
 30
0.0
 11
382.4024199021
 21
188.305336735
 31
0.0
  0
LWPOLYLINE
  5
2C5
330
1F
100
AcDbEntity
  8
0
  6
Continuous
 62
     7
370
    25
100
AcDbPolyline
 90
       84
 70
   128
 43
0.0
 10
395.9838676052
 20
161.6443913187
 10
395.9610214345
 20
160.697558687
 10
395.8555212363
 20
159.1315139437
 10
395.665781496
 20
157.5694445792
 10
395.392077318
 20
156.0136154448
 10
395.0348055472
 20
154.466282344
 10
394.5944841935
 20
152.9296887618
 10
394.0717516809
 20
151.4060626121
 10
393.4673659213
 20
149.8976130071
 10
392.7822032166
 20
148.4065270545
 10
392.0172569869
 20
146.9349666865
 10
391.1736363314
 20
145.4850655248
 10
390.2525644191
 20
144.0589257875
 10
389.2553767165
 20
142.6586152409
 10
388.1835190503
 20
141.2861642015
 10
387.0385455116
 20
139.943562592
 10
385.8221162027
 20
138.6327570564
 10
384.5359948297
 20
137.3556481374
 10
383.1820461456
 20
136.1140875209
 10
381.7622332467
 20
134.9098753511
 10
380.2786147259
 20
133.7447576204
 10
378.7333416882
 20
132.6204236383
 10
377.1286546317
 20
131.5385035814
 10
375.4668801994
 20
130.5005661305
 10
373.7504278053
 20
129.5081161956
 10
371.9817861412
 20
128.5625927343
 10
370.1635195684
 20
127.6653666651
 10
368.2982643998
 20
126.8177388801
 10
366.3887250769
 20
126.0209383586
 10
364.4376702492
 20
125.2761203851
 10
362.4479287597
 20
124.5843648745
 10
360.4223855433
 20
123.9466748061
 10
358.3639774441
 20
123.3639747697
 10
356.275688957
 20
122.8371096244
 10
354.1605479006
 20
122.3668432745
 10
352.0216210274
 20
121.9538575611
 10
349.8620095767
 20
121.5987512742
 10
347.6848447788
 20
121.3020392837
 10
345.4932833144
 20
121.0641517938
 10
343.2905027382
 20
120.8854337186
 10
341.0796968713
 20
120.7661441822
 10
338.864071171
 20
120.7064561431
 10
336.6468380827
 20
120.7064561431
 10
334.4312123823
 20
120.7661441822
 10
332.2204065155
 20
120.8854337186
 10
330.0176259392
 20
121.0641517938
 10
327.8260644748
 20
121.3020392837
 10
325.6488996769
 20
121.5987512742
 10
323.4892882262
 20
121.9538575611
 10
321.350361353
 20
122.3668432745
 10
319.2352202967
 20
122.8371096244
 10
317.1469318095
 20
123.3639747697
 10
315.0885237103
 20
123.9466748061
 10
313.062980494
 20
124.5843648745
 10
311.0732390045
 20
125.2761203851
 10
309.1221841768
 20
126.0209383586
 10
307.2126448539
 20
126.8177388801
 10
305.3473896852
 20
127.6653666651
 10
303.5291231125
 20
128.5625927343
 10
301.7604814484
 20
129.5081161956
 10
300.0440290542
 20
130.5005661305
 10
298.3822546219
 20
131.5385035814
 10
296.7775675655
 20
132.6204236383
 10
295.2322945278
 20
133.7447576204
 10
293.7486760069
 20
134.9098753511
 10
292.328863108
 20
136.1140875209
 10
290.974914424
 20
137.3556481374
 10
289.688793051
 20
138.6327570564
 10
288.472363742
 20
139.943562592
 10
287.3273902034
 20
141.2861642015
 10
286.2555325371
 20
142.6586152409
 10
285.2583448345
 20
144.0589257875
 10
284.3372729223
 20
145.4850655248
 10
283.4936522667
 20
146.9349666865
 10
282.7287060371
 20
148.4065270545
 10
282.0435433323
 20
149.8976130071
 10
281.4391575728
 20
151.4060626121
 10
280.9164250601
 20
152.9296887618
 10
280.4761037064
 20
154.466282344
 10
280.1188319356
 20
156.0136154448
 10
279.8451277576
 20
157.5694445792
 10
279.6553880173
 20
159.1315139437
 10
279.5498878191
 20
160.697558687
 10
279.5270416485
 20
161.6443913187
  0
LINE
  5
2C6
330
1F
100
AcDbEntity
  8
0
  6
Continuous
 62
     7
370
    25
100
AcDbLine
 10
293.1084893516
 20
188.305336735
 30
0.0
 11
293.3863441594
 21
188.5382461786
 31
0.0
  0
ARC
  5
2C7
330
1F
100
AcDbEntity
  8
0
  6
Continuous
 62
     7
370
    25
100
AcDbCircle
 10
337.4268809493
 20
198.6279029156
 30
0.0
 40
74.81257908742207
100
AcDbArc
 50
258.4396188097
 51
262.7548093128
  0
ARC
  5
2C8
330
1F
100
AcDbEntity
  8
0
  6
Continuous
 62
     7
370
    25
100
AcDbCircle
 10
338.0840283044
 20
198.6279029157
 30
0.0
 40
74.81257908744408
100
AcDbArc
 50
277.2451906872
 51
281.5603811903
  0
LINE
  5
2C9
330
1F
100
AcDbEntity
  8
0
  6
Continuous
 62
     7
370
    25
100
AcDbLine
 10
387.5126451431
 20
180.6224845267
 30
0.0
 11
387.3611438069
 21
180.8384121788
 31
0.0
  0
LINE
  5
2CA
330
1F
100
AcDbEntity
  8
0
  6
Continuous
 62
     7
370
    25
100
AcDbLine
 10
288.1497654467
 20
180.8384121788
 30
0.0
 11
287.9982641106
 21
180.6224845267
 31
0.0
  0
LWPOLYLINE
  5
2CB
330
1F
100
AcDbEntity
  8
0
  6
Continuous
 62
     7
370
    25
100
AcDbPolyline
 90
       65
 70
   128
 43
0.0
 10
288.0075315659
 20
175.9544126778
 10
288.3866071749
 20
176.7903754312
 10
289.0902982777
 20
178.1865693184
 10
289.872924442
 20
179.5615951721
 10
290.7332162454
 20
180.9132226952
 10
291.6697782914
 20
182.2392595431
 10
292.681091473
 20
183.537554879
 10
293.7655154364
 20
184.8060028632
 10
294.9212912421
 20
186.0425460684
 10
296.1465442174
 20
187.2451788171
 10
297.4392869976
 20
188.4119504344
 10
298.7974227491
 20
189.5409684126
 10
300.2187485707
 20
190.6304014804
 10
301.7009590668
 20
191.6784825734
 10
303.2416500866
 20
192.6835117002
 10
304.8383226236
 20
193.6438586998
 10
306.488386869
 20
194.557965886
 10
308.1891664127
 20
195.4243505735
 10
309.937902584
 20
196.2416074832
 10
311.7317589264
 20
197.0084110214
 10
313.5678257984
 20
197.72351743
 10
315.4431250929
 20
198.3857668038
 10
317.3546150674
 20
198.9940849718
 10
319.2991952783
 20
199.5474852397
 10
321.2737116093
 20
200.0450699904
 10
323.2749613878
 20
200.4860321394
 10
325.2996985793
 20
200.8696564447
 10
327.3446390526
 20
201.1953206661
 10
329.4064659069
 20
201.4624965751
 10
331.4818348514
 20
201.6707508115
 10
333.5673796301
 20
201.819745586
 10
335.6597174818
 20
201.9092392286
 10
337.7554546268
 20
201.9390865803
 10
339.8511917718
 20
201.9092392286
 10
341.9435296235
 20
201.819745586
 10
344.0290744022
 20
201.6707508115
 10
346.1044433467
 20
201.4624965751
 10
348.166270201
 20
201.1953206661
 10
350.2112106743
 20
200.8696564447
 10
352.2359478658
 20
200.4860321394
 10
354.2371976443
 20
200.0450699904
 10
356.2117139754
 20
199.5474852397
 10
358.1562941863
 20
198.9940849718
 10
360.0677841608
 20
198.3857668038
 10
361.9430834552
 20
197.72351743
 10
363.7791503272
 20
197.0084110214
 10
365.5730066696
 20
196.2416074832
 10
367.3217428409
 20
195.4243505735
 10
369.0225223846
 20
194.557965886
 10
370.6725866301
 20
193.6438586998
 10
372.269259167
 20
192.6835117002
 10
373.8099501868
 20
191.6784825734
 10
375.2921606829
 20
190.6304014804
 10
376.7134865046
 20
189.5409684126
 10
378.0716222561
 20
188.4119504344
 10
379.3643650362
 20
187.2451788171
 10
380.5896180115
 20
186.0425460684
 10
381.7453938172
 20
184.8060028632
 10
382.8298177806
 20
183.537554879
 10
383.8411309622
 20
182.2392595431
 10
384.7776930082
 20
180.9132226952
 10
385.6379848116
 20
179.5615951721
 10
386.420610976
 20
178.1865693184
 10
387.1243020788
 20
176.7903754312
 10
387.5033776878
 20
175.9544126778
  0
LWPOLYLINE
  5
2CC
330
1F
100
AcDbEntity
  8
0
  6
Continuous
 62
     7
370
    25
100
AcDbPolyline
 90
       33
 70
   128
 43
0.0
 10
337.7554546268
 20
201.8939618315
 10
339.8511985039
 20
201.8641143839
 10
341.9435430768
 20
201.7746204538
 10
344.029094555
 20
201.6256252006
 10
346.1044701662
 20
201.4173702953
 10
348.1663036436
 20
201.150193528
 10
350.2112506859
 20
200.8245282605
 10
352.2359943815
 20
200.4409027229
 10
354.2372505886
 20
199.9999391574
 10
356.2117732624
 20
199.5023528083
 10
358.1563597198
 20
198.9489507627
 10
360.0678558346
 20
198.3406306406
 10
361.9431611531
 20
197.6783791395
 10
363.7792339231
 20
196.9632704338
 10
365.5730960279
 20
196.1964644324
 10
367.3218378166
 20
195.3792048974
 10
369.0226228237
 20
194.5128174268
 10
370.6726923697
 20
193.5987073042
 10
372.2693700356
 20
192.6383572197
 10
373.8100660046
 20
191.6333248645
 10
375.292281262
 20
190.5852404047
 10
376.7136116494
 20
189.4958038374
 10
378.0717517636
 20
188.3667822324
 10
379.3644986964
 20
187.200006867
 10
380.5897556076
 20
185.9973702552
 10
381.745535126
 20
184.7608230778
 10
382.8299625729
 20
183.492371019
 10
383.8412790031
 20
182.1940715125
 10
384.7778440576
 20
180.8680304051
 10
385.6381386246
 20
179.5163985401
 10
386.4207673029
 20
178.1413682694
 10
387.1244606662
 20
176.7451698972
 10
387.5976842424
 20
175.6903203471
  0
LWPOLYLINE
  5
2CD
330
1F
100
AcDbEntity
  8
0
  6
Continuous
 62
     7
370
    25
100
AcDbPolyline
 90
       33
 70
   128
 43
0.0
 10
287.9132250112
 20
175.6903203471
 10
288.3864485875
 20
176.7451698972
 10
289.0901419507
 20
178.1413682694
 10
289.8727706291
 20
179.5163985401
 10
290.733065196
 20
180.8680304051
 10
291.6696302505
 20
182.1940715125
 10
292.6809466808
 20
183.492371019
 10
293.7653741277
 20
184.7608230778
 10
294.921153646
 20
185.9973702552
 10
296.1464105572
 20
187.200006867
 10
297.4391574901
 20
188.3667822324
 10
298.7972976043
 20
189.4958038374
 10
300.2186279916
 20
190.5852404047
 10
301.7008432491
 20
191.6333248645
 10
303.241539218
 20
192.6383572197
 10
304.838216884
 20
193.5987073042
 10
306.4882864299
 20
194.5128174268
 10
308.189071437
 20
195.3792048974
 10
309.9378132257
 20
196.1964644324
 10
311.7316753306
 20
196.9632704338
 10
313.5677481006
 20
197.6783791395
 10
315.443053419
 20
198.3406306406
 10
317.3545495338
 20
198.9489507627
 10
319.2991359913
 20
199.5023528083
 10
321.2736586651
 20
199.9999391574
 10
323.2749148722
 20
200.4409027229
 10
325.2996585677
 20
200.8245282605
 10
327.34460561
 20
201.150193528
 10
329.4064390875
 20
201.4173702953
 10
331.4818146987
 20
201.6256252006
 10
333.5673661768
 20
201.7746204538
 10
335.6597107497
 20
201.8641143839
 10
337.7554546268
 20
201.8939618315
  0
LINE
  5
2CE
330
1F
100
AcDbEntity
  8
0
  6
Continuous
 62
     7
370
    25
100
AcDbLine
 10
286.5768120871
 20
177.0630031685
 30
0.0
 11
286.6677521746
 21
177.2235347309
 31
0.0
  0
LINE
  5
2CF
330
1F
100
AcDbEntity
  8
0
  6
Continuous
 62
     7
370
    25
100
AcDbLine
 10
388.8431570791
 20
177.2235347309
 30
0.0
 11
388.9340971665
 21
177.0630031685
 31
0.0
  0
ARC
  5
2D0
330
1F
100
AcDbEntity
  8
0
  6
Continuous
 62
     7
370
    25
100
AcDbCircle
 10
339.0285914979
 20
194.3153758206
 30
0.0
 40
70.48032315673952
100
AcDbArc
 50
284.0591905262
 51
286.6460668823
  0
LWPOLYLINE
  5
2D1
330
1F
100
AcDbEntity
  8
0
  6
Continuous
 62
     7
370
    25
100
AcDbPolyline
 90
        4
 70
   128
 43
0.0
 10
319.3609452095
 20
125.946270558
 10
318.3000450212
 20
126.2207297465
 10
316.3042480326
 20
126.7852216016
 10
316.2926100657
 20
126.78870216
  0
LWPOLYLINE
  5
2D2
330
1F
100
AcDbEntity
  8
0
  6
Continuous
 62
     7
370
    25
100
AcDbPolyline
 90
        3
 70
   128
 43
0.0
 10
307.6788496305
 20
129.8251159668
 10
308.1694283979
 20
129.6022008693
 10
309.291699326
 20
129.1113714811
  0
LWPOLYLINE
  5
2D3
330
1F
100
AcDbEntity
  8
0
  6
Continuous
 62
     7
370
    25
100
AcDbPolyline
 90
        3
 70
   128
 43
0.0
 10
366.2192099276
 20
129.1113714811
 10
367.3414808557
 20
129.6022008693
 10
367.8320596231
 20
129.8251159668
  0
LWPOLYLINE
  5
2D4
330
1F
100
AcDbEntity
  8
0
  6
Continuous
 62
     7
370
    25
100
AcDbPolyline
 90
        3
 70
   128
 43
0.0
 10
305.7934250184
 20
130.6699906622
 10
306.8095887568
 20
130.1716879444
 10
307.1848263315
 20
129.9936277778
  0
LWPOLYLINE
  5
2D5
330
1F
100
AcDbEntity
  8
0
  6
Continuous
 62
     7
370
    25
100
AcDbPolyline
 90
        3
 70
   128
 43
0.0
 10
368.3260829222
 20
129.9936277778
 10
369.5872712052
 20
130.604797796
 10
369.7174842352
 20
130.6699906622
  0
LWPOLYLINE
  5
2D6
330
1F
100
AcDbEntity
  8
0
  6
Continuous
 62
     7
370
    25
100
AcDbPolyline
 90
        3
 70
   128
 43
0.0
 10
293.3480290867
 20
184.2862082082
 10
293.3403147674
 20
184.2787937762
 10
293.1226954704
 20
184.0681091922
  0
LINE
  5
2D7
330
1F
100
AcDbEntity
  8
0
  6
Continuous
 62
     7
370
    25
100
AcDbLine
 10
285.8899862094
 20
174.4056740067
 30
0.0
 11
285.8348161064
 21
174.2970036926
 31
0.0
  0
LINE
  5
2D8
330
1F
100
AcDbEntity
  8
0
  6
Continuous
 62
     7
370
    25
100
AcDbLine
 10
389.6760931472
 20
174.2970036926
 30
0.0
 11
389.6209230442
 21
174.4056740067
 31
0.0
  0
LWPOLYLINE
  5
2D9
330
1F
100
AcDbEntity
  8
0
  6
Continuous
 62
     7
370
    25
100
AcDbPolyline
 90
        3
 70
   128
 43
0.0
 10
382.3882137832
 20
184.0681091922
 10
382.1705944863
 20
184.2787937762
 10
382.162880167
 20
184.2862082082
  0
ARC
  5
2DA
330
1F
100
AcDbEntity
  8
0
  6
Continuous
 62
     7
370
    25
100
AcDbCircle
 10
362.6850891287
 20
164.5353748647
 30
0.0
 40
26.3270626447561
100
AcDbArc
 50
0.2389173601
 51
20.3482036703
  0
ARC
  5
2DB
330
1F
100
AcDbEntity
  8
0
  6
Continuous
 62
     7
370
    25
100
AcDbCircle
 10
312.9577066308
 20
164.5114223364
 30
0.0
 40
26.45905823267336
100
AcDbArc
 50
159.7024730063
 51
179.7104059633
  0
LWPOLYLINE
  5
2DC
330
1F
100
AcDbEntity
  8
0
  6
Continuous
 62
     7
370
    25
100
AcDbPolyline
 90
       44
 70
   128
 43
0.0
 10
337.7554546268
 20
198.9049407023
 10
339.8172603576
 20
198.8750006726
 10
341.8755894176
 20
198.785231069
 10
343.9269709982
 20
198.6357832634
 10
345.9679460061
 20
198.4269092586
 10
347.9950728956
 20
198.1589612635
 10
350.0049334723
 20
197.832391099
 10
351.9941386565
 20
197.4477494362
 10
353.9593341983
 20
197.005684868
 10
355.8972063335
 20
196.5069428154
 10
357.8044873712
 20
195.9523642701
 10
359.6779612041
 20
195.3428843772
 10
361.5144687315
 20
194.6795308575
 10
363.3109131863
 20
193.9634222752
 10
365.0642653567
 20
193.1957661513
 10
366.7715686943
 20
192.3778569278
 10
368.4299442995
 20
191.5110737846
 10
370.0365957757
 20
190.5968783142
 10
371.5888139452
 20
189.6368120569
 10
373.083981417
 20
188.6324939017
 10
374.5195770005
 20
187.5856173562
 10
375.8931799567
 20
186.497947691
 10
377.2024740804
 20
185.3713189633
 10
378.4452516054
 20
184.207630924
 10
379.6194169277
 20
183.0088458143
 10
380.7229901389
 20
181.7769850572
 10
381.754110365
 20
180.5141258485
 10
382.7110389039
 20
179.2223976546
 10
383.5921621578
 20
177.9039786215
 10
384.3959943533
 20
176.5610919018
 10
385.1211800477
 20
175.1960019064
 10
385.7664964138
 20
173.8110104858
 10
386.3308553022
 20
172.4084530489
 10
386.8133050761
 20
170.9906946248
 10
387.2130322161
 20
169.560125875
 10
387.5293626919
 20
168.119159062
 10
387.7617630985
 20
166.6702239817
 10
387.9098415565
 20
165.2157638666
 10
387.973348372
 20
163.7582312655
 10
387.9521764581
 20
162.300083908
 10
387.8463615155
 20
160.8437805604
 10
387.6560819722
 20
159.3917768796
 10
387.3816586824
 20
157.9465212724
 10
387.1541155234
 20
156.995414676
  0
LWPOLYLINE
  5
2DD
330
1F
100
AcDbEntity
  8
0
  6
Continuous
 62
     7
370
    25
100
AcDbPolyline
 90
       44
 70
   128
 43
0.0
 10
288.3567937303
 20
156.995414676
 10
288.1292505712
 20
157.9465212724
 10
287.8548272814
 20
159.3917768796
 10
287.6645477381
 20
160.8437805604
 10
287.5587327955
 20
162.300083908
 10
287.5375608817
 20
163.7582312655
 10
287.6010676972
 20
165.2157638667
 10
287.7491461551
 20
166.6702239817
 10
287.9815465618
 20
168.119159062
 10
288.2978770375
 20
169.560125875
 10
288.6976041775
 20
170.9906946248
 10
289.1800539514
 20
172.4084530489
 10
289.7444128398
 20
173.8110104858
 10
290.3897292059
 20
175.1960019064
 10
291.1149149003
 20
176.5610919018
 10
291.9187470959
 20
177.9039786215
 10
292.7998703497
 20
179.2223976546
 10
293.7567988886
 20
180.5141258485
 10
294.7879191147
 20
181.7769850572
 10
295.8914923259
 20
183.0088458143
 10
297.0656576482
 20
184.207630924
 10
298.3084351732
 20
185.3713189633
 10
299.6177292969
 20
186.497947691
 10
300.9913322531
 20
187.5856173562
 10
302.4269278366
 20
188.6324939017
 10
303.9220953084
 20
189.6368120569
 10
305.4743134779
 20
190.5968783142
 10
307.0809649542
 20
191.5110737846
 10
308.7393405593
 20
192.3778569278
 10
310.4466438969
 20
193.1957661513
 10
312.1999960673
 20
193.9634222752
 10
313.9964405221
 20
194.6795308575
 10
315.8329480496
 20
195.3428843772
 10
317.7064218825
 20
195.9523642701
 10
319.6137029202
 20
196.5069428154
 10
321.5515750553
 20
197.005684868
 10
323.5167705971
 20
197.4477494362
 10
325.5059757814
 20
197.832391099
 10
327.5158363581
 20
198.1589612635
 10
329.5429632476
 20
198.4269092586
 10
331.5839382554
 20
198.6357832634
 10
333.6353198361
 20
198.785231069
 10
335.693648896
 20
198.8750006726
 10
337.7554546268
 20
198.9049407023
  0
LWPOLYLINE
  5
2DE
330
1F
100
AcDbEntity
  8
0
  6
Continuous
 62
     8
370
    18
100
AcDbPolyline
 90
      166
 70
   128
 43
0.0
 10
337.7554546268
 20
209.7634209856
 10
335.5386234219
 20
209.7335715557
 10
333.3250064103
 20
209.6440665447
 10
331.1178131251
 20
209.4950357264
 10
328.9202437855
 20
209.2866951812
 10
326.735484657
 20
209.019346983
 10
324.5667034314
 20
208.6933787611
 10
322.4170446342
 20
208.3092631382
 10
320.289625065
 20
207.8675570454
 10
318.1875292791
 20
207.3689009141
 10
316.1138051141
 20
206.8140177482
 10
314.071459272
 20
206.2037120752
 10
312.0634529589
 20
205.5388687799
 10
310.0926975921
 20
204.8204518215
 10
308.1620505784
 20
204.0495028361
 10
306.2743111714
 20
203.2271396258
 10
304.4322164128
 20
202.3545545388
 10
302.6384371638
 20
201.4330127399
 10
300.895574233
 20
200.4638503768
 10
299.2061546049
 20
199.4484726421
 10
297.5726277765
 20
198.3883517366
 10
295.9973622055
 20
197.2850247341
 10
294.4826418764
 20
196.1400913534
 10
293.0306629888
 20
194.9552116384
 10
291.6435307734
 20
193.7321035514
 10
290.3232564393
 20
192.4725404823
 10
289.0717542579
 20
191.1783486769
 10
287.8908387879
 20
189.8514045898
 10
286.7822222437
 20
188.493632163
 10
285.7475120134
 20
187.1070000367
 10
284.7882083279
 20
185.693518695
 10
283.9057020858
 20
184.2552375506
 10
283.1012728368
 20
182.7942419737
 10
282.3760869264
 20
181.3126502683
 10
281.7311958049
 20
179.8126106006
 10
281.1675345027
 20
178.2962978848
 10
280.6859202748
 20
176.7659106293
 10
280.2870514158
 20
175.2236677494
 10
279.9715062474
 20
173.6718053498
 10
279.7397422799
 20
172.1125734826
 10
279.5920955491
 20
170.548232885
 10
279.5287801284
 20
168.9810517012
 10
279.5498878192
 20
167.4133021943
 10
279.6553880173
 20
165.8472574509
 10
279.8451277577
 20
164.2851880865
 10
280.1188319357
 20
162.7293589521
 10
280.4761037065
 20
161.1820258513
 10
280.9164250602
 20
159.6454322691
 10
281.4391575728
 20
158.1218061194
 10
282.0435433324
 20
156.6133565144
 10
282.7287060371
 20
155.1222705618
 10
283.4936522668
 20
153.6507101938
 10
284.3372729223
 20
152.2008090321
 10
285.2583448345
 20
150.7746692948
 10
286.2555325372
 20
149.3743587482
 10
287.3273902034
 20
148.0019077088
 10
288.4723637421
 20
146.6593060993
 10
289.688793051
 20
145.3485005637
 10
290.974914424
 20
144.0713916448
 10
292.3288631081
 20
142.8298310282
 10
293.748676007
 20
141.6256188584
 10
295.2322945278
 20
140.4605011277
 10
296.7775675655
 20
139.3361671456
 10
298.3822546219
 20
138.2542470887
 10
300.0440290542
 20
137.2163096378
 10
301.7604814484
 20
136.2238597029
 10
303.5291231125
 20
135.2783362416
 10
305.3473896852
 20
134.3811101724
 10
307.2126448539
 20
133.5334823874
 10
309.1221841768
 20
132.7366818659
 10
311.0732390045
 20
131.9918638924
 10
313.062980494
 20
131.3001083818
 10
315.0885237104
 20
130.6624183135
 10
317.1469318096
 20
130.079718277
 10
319.2352202967
 20
129.5528531317
 10
321.350361353
 20
129.0825867818
 10
323.4892882262
 20
128.6696010685
 10
325.6488996769
 20
128.3144947815
 10
327.8260644748
 20
128.017782791
 10
330.0176259392
 20
127.7798953012
 10
332.2204065155
 20
127.601177226
 10
334.4312123823
 20
127.4818876896
 10
336.6468380827
 20
127.4221996504
 10
338.864071171
 20
127.4221996504
 10
341.0796968713
 20
127.4818876896
 10
343.2905027381
 20
127.601177226
 10
345.4932833144
 20
127.7798953012
 10
347.6848447788
 20
128.017782791
 10
349.8620095767
 20
128.3144947815
 10
352.0216210274
 20
128.6696010685
 10
354.1605479006
 20
129.0825867818
 10
356.275688957
 20
129.5528531317
 10
358.3639774441
 20
130.079718277
 10
360.4223855433
 20
130.6624183135
 10
362.4479287597
 20
131.3001083818
 10
364.4376702491
 20
131.9918638924
 10
366.3887250768
 20
132.7366818659
 10
368.2982643997
 20
133.5334823874
 10
370.1635195684
 20
134.3811101724
 10
371.9817861411
 20
135.2783362416
 10
373.7504278052
 20
136.2238597029
 10
375.4668801994
 20
137.2163096378
 10
377.1286546317
 20
138.2542470887
 10
378.7333416881
 20
139.3361671456
 10
380.2786147258
 20
140.4605011277
 10
381.7622332467
 20
141.6256188584
 10
383.1820461456
 20
142.8298310282
 10
384.5359948296
 20
144.0713916448
 10
385.8221162026
 20
145.3485005637
 10
387.0385455116
 20
146.6593060993
 10
388.1835190502
 20
148.0019077088
 10
389.2553767165
 20
149.3743587482
 10
390.2525644191
 20
150.7746692948
 10
391.1736363313
 20
152.2008090321
 10
392.0172569869
 20
153.6507101938
 10
392.7822032165
 20
155.1222705618
 10
393.4673659213
 20
156.6133565144
 10
394.0717516808
 20
158.1218061194
 10
394.5944841935
 20
159.6454322691
 10
395.0348055472
 20
161.1820258513
 10
395.3920773179
 20
162.7293589521
 10
395.665781496
 20
164.2851880865
 10
395.8555212363
 20
165.8472574509
 10
395.9610214345
 20
167.4133021943
 10
395.9821291253
 20
168.9810517012
 10
395.9188137046
 20
170.548232885
 10
395.7711669737
 20
172.1125734826
 10
395.5394030063
 20
173.6718053498
 10
395.2238578379
 20
175.2236677494
 10
394.8249889789
 20
176.7659106293
 10
394.343374751
 20
178.2962978848
 10
393.7797134487
 20
179.8126106006
 10
393.1348223272
 20
181.3126502683
 10
392.4096364168
 20
182.7942419737
 10
391.6052071678
 20
184.2552375506
 10
390.7227009257
 20
185.693518695
 10
389.7633972402
 20
187.1070000367
 10
388.7286870099
 20
188.493632163
 10
387.6200704657
 20
189.8514045898
 10
386.4391549957
 20
191.1783486769
 10
385.1876528144
 20
192.4725404823
 10
383.8673784802
 20
193.7321035514
 10
382.4802462648
 20
194.9552116384
 10
381.0282673773
 20
196.1400913534
 10
379.5135470482
 20
197.2850247341
 10
377.9382814772
 20
198.3883517366
 10
376.3047546487
 20
199.4484726421
 10
374.6153350206
 20
200.4638503768
 10
372.8724720898
 20
201.4330127399
 10
371.0786928409
 20
202.3545545388
 10
369.2365980822
 20
203.2271396258
 10
367.3488586752
 20
204.0495028361
 10
365.4182116615
 20
204.8204518215
 10
363.4474562947
 20
205.5388687799
 10
361.4394499816
 20
206.2037120752
 10
359.3971041395
 20
206.8140177482
 10
357.3233799746
 20
207.3689009141
 10
355.2212841886
 20
207.8675570454
 10
353.0938646195
 20
208.3092631382
 10
350.9442058223
 20
208.6933787611
 10
348.7754245967
 20
209.019346983
 10
346.5906654681
 20
209.2866951812
 10
344.3930961285
 20
209.4950357264
 10
342.1859028433
 20
209.6440665447
 10
339.9722858317
 20
209.7335715557
 10
337.7554546268
 20
209.7634209856
  0
LWPOLYLINE
  5
2DF
330
1F
100
AcDbEntity
  8
0
  6
Continuous
 62
     8
370
    18
100
AcDbPolyline
 90
       76
 70
   128
 43
0.0
 10
280.5182257027
 20
160.7661738624
 10
280.8621809974
 20
159.3757871542
 10
281.3208818687
 20
157.8498380415
 10
281.8614074754
 20
156.3373434223
 10
282.4829741069
 20
154.840496269
 10
283.184680551
 20
153.3614668669
 10
283.9655094005
 20
151.9023996674
 10
284.8243285283
 20
150.4654101782
 10
285.7598927286
 20
149.0525818969
 10
286.7708455229
 20
147.6659632893
 10
287.8557211261
 20
146.3075648199
 10
289.0129465725
 20
144.9793560365
 10
290.2408439957
 20
143.6832627151
 10
291.537633062
 20
142.4211640668
 10
292.901433551
 20
141.1948900142
 10
294.3302680824
 20
140.0062185374
 10
295.8220649829
 20
138.8568730963
 10
297.3746612895
 20
137.7485201321
 10
298.985805886
 20
136.6827666505
 10
300.6531627668
 20
135.6611578921
 10
302.3743144237
 20
134.6851750921
 10
304.1467653514
 20
133.7562333322
 10
305.9679456656
 20
132.8756794891
 10
307.8352148289
 20
132.0447902817
 10
309.7458654795
 20
131.2647704199
 10
311.6971273565
 20
130.536750858
 10
313.686171317
 20
129.8617871547
 10
315.7101134371
 20
129.2408579429
 10
317.7660191945
 20
128.6748635105
 10
319.8509077222
 20
128.1646244955
 10
321.9617561313
 20
127.7108806955
 10
324.0955038932
 20
127.3142899957
 10
326.2490572778
 20
126.9754274147
 10
328.4192938386
 20
126.6947842709
 10
330.6030669399
 20
126.4727674699
 10
332.7972103197
 20
126.309698915
 10
334.9985426796
 20
126.2058150399
 10
337.2038722983
 20
126.1612664663
 10
339.4100016587
 20
126.1761177854
 10
341.613732084
 20
126.2503474642
 10
343.8118683759
 20
126.3838478768
 10
346.0012234469
 20
126.5764254602
 10
348.1786229413
 20
126.8278009956
 10
350.3409098382
 20
127.1376100123
 10
352.4849490282
 20
127.5054033168
 10
354.6076318595
 20
127.9306476442
 10
356.7058806448
 20
128.4127264306
 10
358.7766531241
 20
128.9509407081
 10
360.8169468753
 20
129.5445101173
 10
362.8238036674
 20
130.1925740393
 10
364.7943137499
 20
130.8941928435
 10
366.7256200716
 20
131.6483492495
 10
368.6149224231
 20
132.4539498028
 10
370.4594814964
 20
133.3098264596
 10
372.2566228573
 20
134.2147382804
 10
374.0037408226
 20
135.1673732297
 10
375.6983022382
 20
136.1663500779
 10
377.3378501523
 20
137.2102204041
 10
378.9200073769
 20
138.297470696
 10
380.4424799354
 20
139.4265245447
 10
381.9030603881
 20
140.5957449301
 10
383.299631033
 20
141.8034365943
 10
384.6301669762
 20
143.0478485
 10
385.8927390678
 20
144.3271763687
 10
387.0855166989
 20
145.6395652975
 10
388.206770456
 20
146.9831124478
 10
389.2548746283
 20
148.3558698047
 10
390.228309565
 20
149.7558470013
 10
391.1256638786
 20
151.1810142045
 10
391.9456364909
 20
152.6293050581
 10
392.6870385202
 20
154.0986196787
 10
393.3487950043
 20
155.5868277008
 10
393.9299464597
 20
157.0917713648
 10
394.4296502722
 20
158.6112686465
 10
394.8471819192
 20
160.1431164199
 10
394.992683551
 20
160.7661738624
  0
LWPOLYLINE
  5
2E0
330
1F
100
AcDbEntity
  8
0
  6
Continuous
 62
     8
370
    18
100
AcDbPolyline
 90
      162
 70
   128
 43
0.0
 10
337.7554546268
 20
208.6598746249
 10
335.5942790288
 20
208.6300514292
 10
333.4363945446
 20
208.5406272577
 10
331.2850872766
 20
208.3917382888
 10
329.1436333107
 20
208.1836112558
 10
327.0152937282
 20
207.9165631018
 10
324.9033096391
 20
207.5910004971
 10
322.8108972469
 20
207.2074192199
 10
320.7412429504
 20
206.7664034012
 10
318.6974984918
 20
206.2686246353
 10
316.6827761567
 20
205.7148409572
 10
314.700144035
 20
205.1058956881
 10
312.7526213483
 20
204.4427161511
 10
310.8431738524
 20
203.7263122594
 10
308.974709321
 20
202.9577749778
 10
307.1500731172
 20
202.1382746619
 10
305.3720438611
 20
201.2690592755
 10
303.6433291978
 20
200.3514524902
 10
301.9665616748
 20
199.3868516698
 10
300.3442947323
 20
198.3767257423
 10
298.7789988153
 20
197.3226129628
 10
297.2730576113
 20
196.2261185711
 10
295.8287644203
 20
195.0889123475
 10
294.4483186626
 20
193.9127260694
 10
293.1338225294
 20
192.6993508744
 10
291.8872777816
 20
191.4506345329
 10
290.710582701
 20
190.1684786338
 10
289.6055292003
 20
188.8548356891
 10
288.5738000936
 20
187.5117061603
 10
287.6169665341
 20
186.1411354122
 10
286.7364856217
 20
184.7452105979
 10
285.9336981833
 20
183.3260574806
 10
285.209826732
 20
181.8858371965
 10
284.5659736045
 20
180.4267429635
 10
284.0031192829
 20
178.9509967413
 10
283.5221209015
 20
177.4608458482
 10
283.1237109415
 20
175.958559538
 10
282.8084961156
 20
174.4464255451
 10
282.5769564439
 20
172.9267466
 10
282.4294445232
 20
171.4018369232
 10
282.3661849897
 20
169.8740187005
 10
282.3872741774
 20
168.3456185471
 10
282.4926799708
 20
166.8189639643
 10
282.6822418544
 20
165.2963797952
 10
282.9556711567
 20
163.7801846843
 10
283.3125514898
 20
162.2726875468
 10
283.752339384
 20
160.776184052
 10
284.2743651149
 20
159.292953128
 10
284.8778337233
 20
157.8252534907
 10
285.561826226
 20
156.3753202047
 10
286.3253010155
 20
154.9453612792
 10
287.1670954454
 20
153.5375543056
 10
288.0859276017
 20
152.1540431419
 10
289.0803982547
 20
150.7969346474
 10
290.1489929894
 20
149.4682954743
 10
291.2900845125
 20
148.170148921
 10
292.5019351298
 20
146.9044718506
 10
293.7826993926
 20
145.6731916804
 10
295.1304269083
 20
144.4781834472
 10
296.5430653101
 20
143.3212669512
 10
298.0184633828
 20
142.2042039855
 10
299.5543743386
 20
141.1286956527
 10
301.1484592382
 20
140.0963797746
 10
302.7982905535
 20
139.1088283981
 10
304.5013558635
 20
138.1675454008
 10
306.2550616805
 20
137.2739642017
 10
308.0567374
 20
136.4294455774
 10
309.9036393669
 20
135.6352755905
 10
311.7929550544
 20
134.892663631
 10
313.7218073461
 20
134.2027405742
 10
315.6872589182
 20
133.5665570593
 10
317.6863167122
 20
132.9850818888
 10
319.7159364929
 20
132.4592005535
 10
321.773027484
 20
131.9897138838
 10
323.8544570753
 20
131.5773368306
 10
325.9570555929
 20
131.2226973761
 10
328.0776211261
 20
130.9263355776
 10
330.2129244033
 20
130.6887027454
 10
332.3597137099
 20
130.5101607549
 10
334.5147198399
 20
130.3909814963
 10
336.6746610744
 20
130.3313464598
 10
338.8362481792
 20
130.3313464598
 10
340.9961894137
 20
130.3909814963
 10
343.1511955437
 20
130.5101607549
 10
345.2979848503
 20
130.6887027454
 10
347.4332881275
 20
130.9263355776
 10
349.5538536607
 20
131.2226973761
 10
351.6564521783
 20
131.5773368306
 10
353.7378817697
 20
131.9897138838
 10
355.7949727608
 20
132.4592005535
 10
357.8245925414
 20
132.9850818888
 10
359.8236503354
 20
133.5665570593
 10
361.7891019076
 20
134.2027405742
 10
363.7179541993
 20
134.892663631
 10
365.6072698867
 20
135.6352755905
 10
367.4541718537
 20
136.4294455774
 10
369.2558475731
 20
137.2739642017
 10
371.0095533902
 20
138.1675454008
 10
372.7126187001
 20
139.1088283981
 10
374.3624500154
 20
140.0963797746
 10
375.9565349151
 20
141.1286956527
 10
377.4924458708
 20
142.2042039855
 10
378.9678439435
 20
143.3212669512
 10
380.3804823454
 20
144.4781834472
 10
381.728209861
 20
145.6731916804
 10
383.0089741239
 20
146.9044718506
 10
384.2208247411
 20
148.170148921
 10
385.3619162642
 20
149.4682954743
 10
386.430510999
 20
150.7969346474
 10
387.4249816519
 20
152.1540431419
 10
388.3438138082
 20
153.5375543056
 10
389.1856082382
 20
154.9453612792
 10
389.9490830276
 20
156.3753202047
 10
390.6330755304
 20
157.8252534907
 10
391.2365441388
 20
159.292953128
 10
391.7585698696
 20
160.776184052
 10
392.1983577638
 20
162.2726875468
 10
392.555238097
 20
163.7801846844
 10
392.8286673992
 20
165.2963797952
 10
393.0182292828
 20
166.8189639643
 10
393.1236350762
 20
168.3456185471
 10
393.1447242639
 20
169.8740187005
 10
393.0814647305
 20
171.4018369232
 10
392.9339528098
 20
172.9267466
 10
392.7024131381
 20
174.4464255451
 10
392.3871983121
 20
175.958559538
 10
391.9887883521
 20
177.4608458482
 10
391.5077899707
 20
178.9509967413
 10
390.9449356492
 20
180.4267429635
 10
390.3010825216
 20
181.8858371965
 10
389.5772110703
 20
183.3260574806
 10
388.774423632
 20
184.7452105979
 10
387.8939427195
 20
186.1411354122
 10
386.9371091601
 20
187.5117061604
 10
385.9053800534
 20
188.8548356891
 10
384.8003265526
 20
190.1684786338
 10
383.6236314721
 20
191.4506345329
 10
382.3770867242
 20
192.6993508744
 10
381.062590591
 20
193.9127260694
 10
379.6821448334
 20
195.0889123475
 10
378.2378516424
 20
196.2261185711
 10
376.7319104383
 20
197.3226129628
 10
375.1666145213
 20
198.3767257423
 10
373.5443475788
 20
199.3868516698
 10
371.8675800558
 20
200.3514524902
 10
370.1388653926
 20
201.2690592755
 10
368.3608361364
 20
202.1382746619
 10
366.5361999327
 20
202.9577749778
 10
364.6677354012
 20
203.7263122594
 10
362.7582879054
 20
204.4427161511
 10
360.8107652187
 20
205.1058956881
 10
358.8281330969
 20
205.7148409572
 10
356.8134107619
 20
206.2686246353
 10
354.7696663033
 20
206.7664034012
 10
352.7000120068
 20
207.2074192199
 10
350.6075996145
 20
207.5910004971
 10
348.4956155254
 20
207.9165631018
 10
346.3672759429
 20
208.1836112558
 10
344.225821977
 20
208.3917382888
 10
342.074514709
 20
208.5406272577
 10
339.9166302249
 20
208.6300514292
 10
337.7554546268
 20
208.6598746249
  0
LWPOLYLINE
  5
2E1
330
1F
100
AcDbEntity
  8
0
  6
Continuous
 62
     8
370
    18
100
AcDbPolyline
 90
      161
 70
   128
 43
0.0
 10
282.8002150706
 20
169.5243353002
 10
282.8425835687
 20
167.9987293822
 10
282.9696237337
 20
166.4754758381
 10
283.1811396791
 20
164.9569234142
 10
283.4768052625
 20
163.4454136084
 10
283.856164589
 20
161.9432770592
 10
284.3186327141
 20
160.4528299524
 10
284.8634965453
 20
158.9763704493
 10
285.4899159423
 20
157.5161751434
 10
286.1969250116
 20
156.0744955502
 10
286.9834335966
 20
154.653554635
 10
287.8482289579
 20
153.2555433857
 10
288.7899776439
 20
151.8826174343
 10
289.8072275463
 20
150.5368937332
 10
290.8984101395
 20
149.2204472908
 10
292.061842899
 20
147.935307972
 10
293.2957318959
 20
146.6834573686
 10
294.5981745627
 20
145.4668257434
 10
295.9671626273
 20
144.2872890542
 10
297.4005852092
 20
143.1466660611
 10
298.8962320749
 20
142.046715522
 10
300.4517970451
 20
140.9891334811
 10
302.0648815515
 20
139.9755506531
 10
303.7329983347
 20
139.0075299093
 10
305.4535752795
 20
138.0865638674
 10
307.2239593809
 20
137.2140725905
 10
309.0414208351
 20
136.3914013968
 10
310.9031572481
 20
135.6198187856
 10
312.8062979574
 20
134.9005144815
 10
314.7479084579
 20
134.2345975995
 10
316.724994927
 20
133.6230949351
 10
318.7345088406
 20
133.0669493812
 10
320.773351674
 20
132.567018474
 10
322.8383796792
 20
132.1240730705
 10
324.9264087328
 20
131.7387961606
 10
327.0342192453
 20
131.4117818133
 10
329.1585611257
 20
131.143534261
 10
331.2961587927
 20
130.934467122
 10
333.4437162257
 20
130.7849027627
 10
335.5979220468
 20
130.6950718005
 10
337.7554546268
 20
130.6651127482
 10
339.9129872068
 20
130.6950718005
 10
342.0671930279
 20
130.7849027627
 10
344.2147504609
 20
130.934467122
 10
346.352348128
 20
131.143534261
 10
348.4766900083
 20
131.4117818133
 10
350.5845005208
 20
131.7387961606
 10
352.6725295744
 20
132.1240730705
 10
354.7375575796
 20
132.567018474
 10
356.776400413
 20
133.0669493812
 10
358.7859143266
 20
133.6230949351
 10
360.7630007957
 20
134.2345975995
 10
362.7046112963
 20
134.9005144815
 10
364.6077520056
 20
135.6198187856
 10
366.4694884186
 20
136.3914013968
 10
368.2869498727
 20
137.2140725905
 10
370.0573339742
 20
138.0865638674
 10
371.777910919
 20
139.0075299093
 10
373.4460277021
 20
139.9755506531
 10
375.0591122085
 20
140.9891334811
 10
376.6146771788
 20
142.046715522
 10
378.1103240444
 20
143.1466660611
 10
379.5437466264
 20
144.2872890542
 10
380.9127346909
 20
145.4668257434
 10
382.2151773578
 20
146.6834573686
 10
383.4490663546
 20
147.935307972
 10
384.6124991142
 20
149.2204472908
 10
385.7036817074
 20
150.5368937332
 10
386.7209316098
 20
151.8826174343
 10
387.6626802957
 20
153.2555433857
 10
388.5274756571
 20
154.653554635
 10
389.313984242
 20
156.0744955502
 10
390.0209933113
 20
157.5161751434
 10
390.6474127083
 20
158.9763704493
 10
391.1922765396
 20
160.4528299524
 10
391.6547446646
 20
161.9432770592
 10
392.0341039911
 20
163.4454136084
 10
392.3297695745
 20
164.9569234142
 10
392.5412855199
 20
166.4754758381
 10
392.668325685
 20
167.9987293822
 10
392.7106941831
 20
169.5243353002
 10
392.668325685
 20
171.0499412181
 10
392.5412855199
 20
172.5731947623
 10
392.3297695745
 20
174.0917471862
 10
392.0341039911
 20
175.603256992
 10
391.6547446646
 20
177.1053935411
 10
391.1922765396
 20
178.595840648
 10
390.6474127083
 20
180.0723001511
 10
390.0209933113
 20
181.5324954569
 10
389.313984242
 20
182.9741750502
 10
388.5274756571
 20
184.3951159654
 10
387.6626802957
 20
185.7931272147
 10
386.7209316098
 20
187.166053166
 10
385.7036817074
 20
188.5117768671
 10
384.6124991142
 20
189.8282233095
 10
383.4490663546
 20
191.1133626283
 10
382.2151773578
 20
192.3652132318
 10
380.9127346909
 20
193.581844857
 10
379.5437466264
 20
194.7613815462
 10
378.1103240444
 20
195.9020045393
 10
376.6146771788
 20
197.0019550783
 10
375.0591122085
 20
198.0595371192
 10
373.4460277021
 20
199.0731199473
 10
371.777910919
 20
200.0411406911
 10
370.0573339742
 20
200.9621067329
 10
368.2869498727
 20
201.8345980098
 10
366.4694884186
 20
202.6572692035
 10
364.6077520056
 20
203.4288518147
 10
362.7046112963
 20
204.1481561188
 10
360.7630007957
 20
204.8140730009
 10
358.7859143266
 20
205.4255756652
 10
356.776400413
 20
205.9817212191
 10
354.7375575796
 20
206.4816521264
 10
352.6725295744
 20
206.9245975298
 10
350.5845005208
 20
207.3098744397
 10
348.4766900083
 20
207.636888787
 10
346.352348128
 20
207.9051363393
 10
344.2147504609
 20
208.1142034783
 10
342.0671930279
 20
208.2637678376
 10
339.9129872068
 20
208.3535987998
 10
337.7554546268
 20
208.3835578521
 10
335.5979220468
 20
208.3535987998
 10
333.4437162257
 20
208.2637678376
 10
331.2961587927
 20
208.1142034783
 10
329.1585611257
 20
207.9051363393
 10
327.0342192453
 20
207.636888787
 10
324.9264087328
 20
207.3098744397
 10
322.8383796792
 20
206.9245975298
 10
320.773351674
 20
206.4816521264
 10
318.7345088406
 20
205.9817212191
 10
316.724994927
 20
205.4255756652
 10
314.7479084579
 20
204.8140730009
 10
312.8062979574
 20
204.1481561188
 10
310.9031572481
 20
203.4288518147
 10
309.0414208351
 20
202.6572692035
 10
307.2239593809
 20
201.8345980098
 10
305.4535752795
 20
200.9621067329
 10
303.7329983347
 20
200.0411406911
 10
302.0648815515
 20
199.0731199473
 10
300.4517970451
 20
198.0595371192
 10
298.8962320749
 20
197.0019550783
 10
297.4005852092
 20
195.9020045393
 10
295.9671626273
 20
194.7613815462
 10
294.5981745627
 20
193.581844857
 10
293.2957318959
 20
192.3652132318
 10
292.061842899
 20
191.1133626283
 10
290.8984101395
 20
189.8282233095
 10
289.8072275463
 20
188.5117768671
 10
288.7899776439
 20
187.166053166
 10
287.8482289579
 20
185.7931272147
 10
286.9834335966
 20
184.3951159654
 10
286.1969250116
 20
182.9741750502
 10
285.4899159423
 20
181.5324954569
 10
284.8634965453
 20
180.0723001511
 10
284.3186327141
 20
178.595840648
 10
283.856164589
 20
177.1053935411
 10
283.4768052625
 20
175.603256992
 10
283.1811396791
 20
174.0917471862
 10
282.9696237337
 20
172.5731947623
 10
282.8425835687
 20
171.0499412181
 10
282.8002150706
 20
169.5243353002
  0
LWPOLYLINE
  5
2E2
330
1F
100
AcDbEntity
  8
0
  6
Continuous
 62
     8
370
    18
100
AcDbPolyline
 90
      161
 70
   128
 43
0.0
 10
337.7554546268
 20
208.1522653913
 10
339.900442337
 20
208.1224805345
 10
342.0421226316
 20
208.0331718901
 10
344.1771931949
 20
207.8844771656
 10
346.3023619027
 20
207.6766256374
 10
348.414351899
 20
207.4099377977
 10
350.5099066483
 20
207.0848248596
 10
352.585794957
 20
206.7017881239
 10
354.6388159559
 20
206.2614182052
 10
356.6658040353
 20
205.7643941223
 10
358.6636337266
 20
205.2114822501
 10
360.6292245212
 20
204.6035351386
 10
362.5595456205
 20
203.9414901984
 10
364.4516206093
 20
203.2263682547
 10
366.3025320452
 20
202.4592719736
 10
368.1094259568
 20
201.6413841621
 10
369.8695162448
 20
200.7739659439
 10
371.5800889774
 20
199.858354815
 10
373.2385065755
 20
198.8959625814
 10
374.8422118793
 20
197.8882731822
 10
376.3887320916
 20
196.8368404013
 10
377.8756825902
 20
195.743285472
 10
379.3007706052
 20
194.6092945766
 10
380.6617987543
 20
193.436616247
 10
381.9566684307
 20
192.227058668
 10
383.1833830391
 20
190.9824868899
 10
384.3400510746
 20
189.7048199522
 10
385.4248890389
 20
188.3960279245
 10
386.4362241905
 20
187.0581288693
 10
387.3724971239
 20
185.6931857301
 10
388.232264174
 20
184.3033031503
 10
389.0141996425
 20
182.8906242279
 10
389.7170978415
 20
181.4573272116
 10
390.3398749529
 20
180.0056221413
 10
390.8815706995
 20
178.5377474413
 10
391.3413498258
 20
177.0559664677
 10
391.7185033857
 20
175.5625640195
 10
392.0124498357
 20
174.059842815
 10
392.2227359318
 20
172.5501199414
 10
392.3490374279
 20
171.035723282
 10
392.3911595764
 20
169.5189879266
 10
392.3490374279
 20
168.0022525711
 10
392.2227359318
 20
166.4878559117
 10
392.0124498357
 20
164.9781330381
 10
391.7185033857
 20
163.4754118336
 10
391.3413498258
 20
161.9820093854
 10
390.8815706995
 20
160.5002284119
 10
390.3398749529
 20
159.0323537118
 10
389.7170978415
 20
157.5806486415
 10
389.0141996425
 20
156.1473516252
 10
388.232264174
 20
154.7346727028
 10
387.3724971239
 20
153.344790123
 10
386.4362241905
 20
151.9798469838
 10
385.4248890389
 20
150.6419479286
 10
384.3400510746
 20
149.333155901
 10
383.1833830391
 20
148.0554889632
 10
381.9566684307
 20
146.8109171851
 10
380.6617987543
 20
145.6013596061
 10
379.3007706052
 20
144.4286812765
 10
377.8756825902
 20
143.2946903811
 10
376.3887320916
 20
142.2011354518
 10
374.8422118793
 20
141.1497026709
 10
373.2385065754
 20
140.1420132717
 10
371.5800889774
 20
139.1796210381
 10
369.8695162448
 20
138.2640099092
 10
368.1094259568
 20
137.396591691
 10
366.3025320452
 20
136.5787038795
 10
364.4516206093
 20
135.8116075984
 10
362.5595456205
 20
135.0964856547
 10
360.6292245212
 20
134.4344407145
 10
358.6636337266
 20
133.8264936031
 10
356.6658040353
 20
133.2735817308
 10
354.6388159559
 20
132.7765576479
 10
352.585794957
 20
132.3361877293
 10
350.5099066483
 20
131.9531509935
 10
348.414351899
 20
131.6280380554
 10
346.3023619027
 20
131.3613502157
 10
344.1771931949
 20
131.1534986875
 10
342.0421226316
 20
131.004803963
 10
339.900442337
 20
130.9154953186
 10
337.7554546268
 20
130.8857104618
 10
335.6104669166
 20
130.9154953186
 10
333.468786622
 20
131.004803963
 10
331.3337160588
 20
131.1534986875
 10
329.2085473509
 20
131.3613502157
 10
327.0965573546
 20
131.6280380554
 10
325.0010026053
 20
131.9531509935
 10
322.9251142966
 20
132.3361877293
 10
320.8720932978
 20
132.7765576479
 10
318.8451052183
 20
133.2735817308
 10
316.847275527
 20
133.8264936031
 10
314.8816847325
 20
134.4344407145
 10
312.9513636331
 20
135.0964856547
 10
311.0592886443
 20
135.8116075984
 10
309.2083772084
 20
136.5787038795
 10
307.4014832968
 20
137.396591691
 10
305.6413930089
 20
138.2640099092
 10
303.9308202763
 20
139.1796210381
 10
302.2724026782
 20
140.1420132717
 10
300.6686973743
 20
141.1497026709
 10
299.1221771621
 20
142.2011354518
 10
297.6352266635
 20
143.2946903811
 10
296.2101386484
 20
144.4286812765
 10
294.8491104993
 20
145.6013596061
 10
293.554240823
 20
146.8109171851
 10
292.3275262145
 20
148.0554889632
 10
291.170858179
 20
149.333155901
 10
290.0860202147
 20
150.6419479286
 10
289.0746850631
 20
151.9798469838
 10
288.1384121298
 20
153.344790123
 10
287.2786450796
 20
154.7346727028
 10
286.4967096111
 20
156.1473516252
 10
285.7938114122
 20
157.5806486415
 10
285.1710343008
 20
159.0323537118
 10
284.6293385542
 20
160.5002284119
 10
284.1695594278
 20
161.9820093854
 10
283.7924058679
 20
163.4754118336
 10
283.4984594179
 20
164.9781330381
 10
283.2881733219
 20
166.4878559117
 10
283.1618718257
 20
168.0022525711
 10
283.1197496773
 20
169.5189879266
 10
283.1618718257
 20
171.035723282
 10
283.2881733219
 20
172.5501199414
 10
283.4984594179
 20
174.059842815
 10
283.7924058679
 20
175.5625640195
 10
284.1695594278
 20
177.0559664677
 10
284.6293385542
 20
178.5377474413
 10
285.1710343008
 20
180.0056221413
 10
285.7938114122
 20
181.4573272116
 10
286.4967096111
 20
182.8906242279
 10
287.2786450796
 20
184.3033031503
 10
288.1384121298
 20
185.6931857302
 10
289.0746850631
 20
187.0581288693
 10
290.0860202147
 20
188.3960279245
 10
291.170858179
 20
189.7048199522
 10
292.3275262145
 20
190.9824868899
 10
293.554240823
 20
192.227058668
 10
294.8491104993
 20
193.436616247
 10
296.2101386484
 20
194.6092945766
 10
297.6352266635
 20
195.743285472
 10
299.1221771621
 20
196.8368404013
 10
300.6686973743
 20
197.8882731822
 10
302.2724026782
 20
198.8959625814
 10
303.9308202763
 20
199.858354815
 10
305.6413930089
 20
200.7739659439
 10
307.4014832968
 20
201.6413841621
 10
309.2083772084
 20
202.4592719736
 10
311.0592886443
 20
203.2263682547
 10
312.9513636331
 20
203.9414901984
 10
314.8816847325
 20
204.6035351386
 10
316.847275527
 20
205.2114822501
 10
318.8451052183
 20
205.7643941223
 10
320.8720932978
 20
206.2614182052
 10
322.9251142966
 20
206.7017881239
 10
325.0010026053
 20
207.0848248596
 10
327.0965573546
 20
207.4099377977
 10
329.2085473509
 20
207.6766256374
 10
331.3337160588
 20
207.8844771656
 10
333.468786622
 20
208.0331718901
 10
335.6104669166
 20
208.1224805345
 10
337.7554546268
 20
208.1522653913
  0
LWPOLYLINE
  5
2E3
330
1F
100
AcDbEntity
  8
0
  6
Continuous
 62
     8
370
    18
100
AcDbPolyline
 90
       80
 70
   128
 43
0.0
 10
395.6038741173
 20
163.6325129952
 10
395.5369763947
 20
163.1005747309
 10
395.2850337005
 20
161.547921278
 10
394.9496786166
 20
160.0031757361
 10
394.5313973756
 20
158.4685778385
 10
394.0307964455
 20
156.9463526056
 10
393.4486016498
 20
155.4387071183
 10
392.7856571151
 20
153.9478273185
 10
392.0429240479
 20
152.4758748394
 10
391.2214793398
 20
151.0249838713
 10
390.3225140074
 20
149.5972580674
 10
389.3473314643
 20
148.1947674938
 10
388.297345632
 20
146.8195456275
 10
387.1740788897
 20
145.4735864089
 10
385.9791598666
 20
144.1588413501
 10
384.7143210811
 20
142.8772167058
 10
383.3813964286
 20
141.6305707092
 10
381.9823185224
 20
140.4207108779
 10
380.5191158916
 20
139.2493913928
 10
378.9939100403
 20
138.1183105553
 10
377.408912371
 20
137.0291083245
 10
375.766420979
 20
135.9833639394
 10
374.0688173196
 20
134.9825936295
 10
372.3185627558
 20
134.028248416
 10
370.5181949896
 20
133.1217120082
 10
368.670324382
 20
132.2642987973
 10
366.7776301687
 20
131.4572519505
 10
364.8428565755
 20
130.7017416085
 10
362.868808839
 20
129.9988631891
 10
360.8583491397
 20
129.3496357988
 10
358.8143924521
 20
128.7550007553
 10
356.7399023179
 20
128.2158202225
 10
354.6378865494
 20
127.7328759607
 10
352.5113928687
 20
127.3068681928
 10
350.3635044882
 20
126.9384145894
 10
348.1973356407
 20
126.6280493731
 10
346.016027064
 20
126.3762225436
 10
343.822741447
 20
126.1832992258
 10
341.6206588441
 20
126.0495591402
 10
339.4129720647
 20
125.9751961969
 10
337.2028820434
 20
125.9603182153
 10
334.9935931995
 20
126.0049467668
 10
332.7883087907
 20
126.1090171445
 10
330.5902262684
 20
126.2723784562
 10
328.4025326423
 20
126.4947938436
 10
326.2283998589
 20
126.7759408257
 10
324.070980203
 20
127.1154117662
 10
321.9334017267
 20
127.5127144647
 10
319.8187637144
 20
127.9672728703
 10
317.7301321893
 20
128.4784279167
 10
315.6705354673
 20
129.0454384781
 10
313.6429597666
 20
129.6674824433
 10
311.6503448784
 20
130.3436579079
 10
309.6955799036
 20
131.0729844823
 10
307.7814990646
 20
131.8544047126
 10
305.9108775957
 20
132.6867856143
 10
304.0864277191
 20
133.5689203144
 10
302.3107947127
 20
134.4995298022
 10
300.5865530746
 20
135.4772647828
 10
298.9162027904
 20
136.5007076339
 10
297.3021657083
 20
137.5683744612
 10
295.7467820277
 20
138.67871725
 10
294.2523069064
 20
139.8301261093
 10
292.8209071903
 20
141.0209316063
 10
291.4546582722
 20
142.249407187
 10
290.1555410824
 20
143.5137716792
 10
288.9254392167
 20
144.8121918752
 10
287.7661362051
 20
146.1427851898
 10
286.6793129261
 20
147.5036223901
 10
285.6665451698
 20
148.8927303921
 10
284.7293013524
 20
150.3080951221
 10
283.8689403879
 20
151.7476644364
 10
283.0867097174
 20
153.2093510973
 10
282.3837435007
 20
154.6910357987
 10
281.7610609715
 20
156.1905702396
 10
281.21956496
 20
157.7057802383
 10
280.7600405836
 20
159.2344688852
 10
280.3831541088
 20
160.7744197279
 10
280.0894519849
 20
162.323399985
 10
279.9070351364
 20
163.6325129952
  0
LINE
  5
2E4
330
1F
100
AcDbEntity
  8
0
  6
Continuous
 62
     8
370
    18
100
AcDbLine
 10
279.5261414877
 20
166.9265021592
 30
0.0
 11
279.5346509047
 21
167.6303922802
 31
0.0
  0
LWPOLYLINE
  5
2E5
330
1F
100
AcDbEntity
  8
0
  6
Continuous
 62
     8
370
    18
100
AcDbPolyline
 90
       85
 70
   128
 43
0.0
 10
395.976258349
 20
167.6303922802
 10
395.9742134423
 20
166.1425918831
 10
395.8898018078
 20
164.5759079258
 10
395.7211009276
 20
163.0126321055
 10
395.4683554018
 20
161.4550310225
 10
395.1319316873
 20
159.9053630497
 10
394.7123175663
 20
158.3658750573
 10
394.2101214391
 20
156.8387991558
 10
393.6260714422
 20
155.3263494593
 10
392.9610143922
 20
153.8307188752
 10
392.2159145583
 20
152.3540759249
 10
391.3918522639
 20
150.8985615995
 10
390.4900223207
 20
149.4662862556
 10
389.5117322957
 20
148.0593265556
 10
388.4584006161
 20
146.6797224564
 10
387.3315545121
 20
145.3294742523
 10
386.1328278027
 20
144.0105396739
 10
384.8639585272
 20
142.7248310503
 10
383.5267864246
 20
141.4742125361
 10
382.1232502667
 20
140.2604974086
 10
380.6553850467
 20
139.0854454387
 10
379.1253190289
 20
137.9507603394
 10
377.5352706627
 20
136.8580872957
 10
375.8875453663
 20
135.8090105789
 10
374.1845321837
 20
134.8050512501
 10
372.4287003213
 20
133.8476649542
 10
370.6225955675
 20
132.9382398099
 10
368.7688366014
 20
132.0780943967
 10
366.8701111964
 20
131.2684758433
 10
364.9291723227
 20
130.510558019
 10
362.9488341562
 20
129.8054398324
 10
360.931967998
 20
129.1541436373
 10
358.881498111
 20
128.557613751
 10
356.8003974806
 20
128.0167150848
 10
354.6916835038
 20
127.53223189
 10
352.5584136143
 20
127.104866621
 10
350.4036808494
 20
126.7352389165
 10
348.2306093657
 20
126.4238847015
 10
346.042349909
 20
126.1712554096
 10
343.8420752464
 20
125.9777173293
 10
341.6329755658
 20
125.8435510722
 10
339.4182538505
 20
125.7689511667
 10
337.2011212353
 20
125.7540257754
 10
334.9847923506
 20
125.7987965387
 10
332.7724806612
 20
125.9031985433
 10
330.5673938078
 20
126.0670804164
 10
328.3727289553
 20
126.2902045447
 10
326.1916681581
 20
126.5722474197
 10
324.0273737457
 20
126.9128001062
 10
321.8829837382
 20
127.3113688353
 10
319.761607296
 20
127.7673757204
 10
317.6663202123
 20
128.2801595953
 10
315.6001604529
 20
128.8489769722
 10
313.566123752
 20
129.4730031205
 10
311.5671592684
 20
130.1513332617
 10
309.6061653094
 20
130.8829838821
 10
307.6859851288
 20
131.6668941582
 10
305.8094028043
 20
132.5019274951
 10
303.9791392009
 20
133.3868731742
 10
302.1978480258
 20
134.3204481089
 10
300.4681119809
 20
135.3012987048
 10
298.7924390182
 20
136.3280028223
 10
297.1732587032
 20
137.3990718386
 10
295.6129186925
 20
138.5129528061
 10
294.1136813302
 20
139.6680307037
 10
292.6777203669
 20
140.862630779
 10
291.3071178088
 20
142.0950209761
 10
290.0038608986
 20
143.3634144469
 10
288.7698392342
 20
144.6659721424
 10
287.606842029
 20
146.0008054782
 10
286.5165555179
 20
147.3659790736
 10
285.500560512
 20
148.7595135576
 10
284.5603301069
 20
150.1793884382
 10
283.6972275469
 20
151.6235450327
 10
282.9125042481
 20
153.089889452
 10
282.2072979844
 20
154.576295637
 10
281.5826312373
 20
156.0806084408
 10
281.0394097139
 20
157.6006467535
 10
280.5784210336
 20
159.134206665
 10
280.2003335858
 20
160.6790646601
 10
279.9056955612
 20
162.2329808423
 10
279.6949341567
 20
163.7937021816
 10
279.5683549563
 20
165.3589657815
 10
279.5261414877
 20
166.9265021592
 10
279.5261414877
 20
166.9265021592
  0
LWPOLYLINE
  5
2E6
330
1F
100
AcDbEntity
  8
0
  6
Continuous
 62
     8
370
    18
100
AcDbPolyline
 90
      158
 70
   128
 43
0.0
 10
285.0508700615
 20
169.3097553538
 10
285.0930708792
 20
167.818686574
 10
285.2196057512
 20
166.3300056063
 10
285.4302720435
 20
164.8460964388
 10
285.724732393
 20
163.3693354183
 10
286.102515248
 20
161.9020874441
 10
286.5630156233
 20
160.4467021814
 10
287.1054960693
 20
159.0055102985
 10
287.7290878524
 20
157.580819734
 10
288.4327923466
 20
156.1749120013
 10
289.2154826328
 20
154.7900385346
 10
290.075905303
 20
153.428417084
 10
291.0126824681
 20
152.0922281632
 10
292.0243139639
 20
150.7836115582
 10
293.109179754
 20
149.5046629004
 10
294.2655425236
 20
148.2574303106
 10
295.4915504622
 20
147.0439111192
 10
296.7852402286
 20
145.8660486677
 10
298.1445400956
 20
144.7257291965
 10
299.5672732671
 20
143.6247788244
 10
301.0511613642
 20
142.5649606238
 10
302.5938280742
 20
141.5479717982
 10
304.1928029556
 20
140.5754409632
 10
305.8455253943
 20
139.6489255393
 10
307.5493487046
 20
138.7699092571
 10
309.3015443672
 20
137.9397997821
 10
311.0993063989
 20
137.1599264596
 10
312.9397558462
 20
136.4315381863
 10
314.8199453952
 20
135.7558014103
 10
316.7368640921
 20
135.1337982631
 10
318.6874421648
 20
134.5665248265
 10
320.6685559384
 20
134.0548895378
 10
322.677032838
 20
133.5997117347
 10
324.7096564691
 20
133.2017203434
 10
326.7631717686
 20
132.8615527111
 10
328.8342902169
 20
132.5797535857
 10
330.9196951048
 20
132.3567742429
 10
333.0160468446
 20
132.1929717642
 10
335.1199883182
 20
132.0886084643
 10
337.2281502533
 20
132.0438514717
 10
339.3371566187
 20
132.0587724607
 10
341.4436300311
 20
132.1333475366
 10
343.5441971635
 20
132.2674572741
 10
345.6354941472
 20
132.4608869088
 10
347.7141719588
 20
132.7133266804
 10
349.7769017835
 20
133.0243723294
 10
351.8203803456
 20
133.3935257443
 10
353.8413351986
 20
133.8201957592
 10
355.8365299657
 20
134.3036991007
 10
357.8027695226
 20
134.8432614817
 10
359.7369051141
 20
135.4380188418
 10
361.6358393966
 20
136.0870187308
 10
363.4965313983
 20
136.7892218339
 10
365.3160013889
 20
137.5435036362
 10
367.0913356513
 20
138.3486562235
 10
368.8196911481
 20
139.2033902166
 10
370.4983000738
 20
140.1063368361
 10
372.1244742878
 20
141.0560500947
 10
373.6956096189
 20
142.051009112
 10
375.2091900356
 20
143.0896205513
 10
376.6627916755
 20
144.1702211698
 10
378.0540867268
 20
145.2910804833
 10
379.380847156
 20
146.4504035368
 10
380.6409482761
 20
147.646333779
 10
381.8323721488
 20
148.8769560355
 10
382.9532108163
 20
150.140299576
 10
384.0016693567
 20
151.4343412697
 10
384.9760687583
 20
152.7570088257
 10
385.8748486083
 20
154.1061841113
 10
386.696569592
 20
155.4797065439
 10
387.4399157973
 20
156.8753765515
 10
388.1036968224
 20
158.2909590945
 10
388.686849682
 20
159.7241872451
 10
389.1884405093
 20
161.1727658179
 10
389.6076660518
 20
162.634375045
 10
389.9438549578
 20
164.1066742912
 10
390.1964688511
 20
165.5873058021
 10
390.3651031932
 20
167.07389848
 10
390.4494879315
 20
168.5640716808
 10
390.4494879315
 20
170.0554390268
 10
390.3651031932
 20
171.5456122276
 10
390.1964688511
 20
173.0322049055
 10
389.9438549578
 20
174.5128364164
 10
389.6076660518
 20
175.9851356625
 10
389.1884405093
 20
177.4467448897
 10
388.686849682
 20
178.8953234625
 10
388.1036968224
 20
180.3285516131
 10
387.4399157973
 20
181.744134156
 10
386.696569592
 20
183.1398041636
 10
385.8748486083
 20
184.5133265963
 10
384.9760687583
 20
185.8625018819
 10
384.0016693567
 20
187.1851694379
 10
382.9532108163
 20
188.4792111316
 10
381.8323721488
 20
189.742554672
 10
380.6409482761
 20
190.9731769286
 10
379.380847156
 20
192.1691071708
 10
378.0540867268
 20
193.3284302243
 10
376.6627916755
 20
194.4492895378
 10
375.2091900356
 20
195.5298901563
 10
373.6956096189
 20
196.5685015955
 10
372.1244742878
 20
197.5634606129
 10
370.4983000738
 20
198.5131738714
 10
368.8196911481
 20
199.416120491
 10
367.0913356513
 20
200.2708544841
 10
365.3160013889
 20
201.0760070714
 10
363.4965313983
 20
201.8302888737
 10
361.6358393966
 20
202.5324919768
 10
359.7369051141
 20
203.1814918658
 10
357.8027695226
 20
203.7762492259
 10
355.8365299657
 20
204.3158116069
 10
353.8413351986
 20
204.7993149483
 10
351.8203803456
 20
205.2259849633
 10
349.7769017835
 20
205.5951383782
 10
347.7141719588
 20
205.9061840272
 10
345.6354941472
 20
206.1586237988
 10
343.5441971635
 20
206.3520534334
 10
341.4436300311
 20
206.486163171
 10
339.3371566187
 20
206.5607382469
 10
337.2281502533
 20
206.5756592359
 10
335.1199883182
 20
206.5309022432
 10
333.0160468446
 20
206.4265389434
 10
330.9196951048
 20
206.2627364646
 10
328.8342902169
 20
206.0397571219
 10
326.7631717686
 20
205.7579579965
 10
324.7096564691
 20
205.4177903642
 10
322.677032838
 20
205.0197989729
 10
320.6685559384
 20
204.5646211698
 10
318.6874421648
 20
204.0529858811
 10
316.7368640921
 20
203.4857124445
 10
314.8199453952
 20
202.8637092973
 10
312.9397558462
 20
202.1879725213
 10
311.0993063989
 20
201.459584248
 10
309.3015443672
 20
200.6797109254
 10
307.5493487046
 20
199.8496014504
 10
305.8455253943
 20
198.9705851683
 10
304.1928029556
 20
198.0440697444
 10
302.5938280742
 20
197.0715389094
 10
301.0511613642
 20
196.0545500837
 10
299.5672732671
 20
194.9947318832
 10
298.1445400956
 20
193.893781511
 10
296.7852402286
 20
192.7534620399
 10
295.4915504622
 20
191.5755995884
 10
294.2655425236
 20
190.362080397
 10
293.109179754
 20
189.1148478072
 10
292.0243139639
 20
187.8358991494
 10
291.0126824681
 20
186.5272825444
 10
290.075905303
 20
185.1910936236
 10
289.2154826328
 20
183.8294721729
 10
288.4327923466
 20
182.4445987063
 10
287.7290878524
 20
181.0386909736
 10
287.1054960693
 20
179.6140004091
 10
286.5630156233
 20
178.1728085261
 10
286.102515248
 20
176.7174232635
 10
285.724732393
 20
175.2501752893
 10
285.4302720435
 20
173.7734142687
 10
285.2196057512
 20
172.2895051013
 10
285.0930708792
 20
170.8008241336
 10
285.0508700615
 20
169.3097553538
  0
LWPOLYLINE
  5
2E7
330
1F
100
AcDbEntity
  8
0
  6
Continuous
 62
     8
370
    18
100
AcDbPolyline
 90
       74
 70
   128
 43
0.0
 10
280.8656811323
 20
157.8908578402
 10
281.3208818687
 20
156.3777390763
 10
281.8614074754
 20
154.865244457
 10
282.4829741069
 20
153.3683973038
 10
283.184680551
 20
151.8893679017
 10
283.9655094005
 20
150.4303007021
 10
284.8243285283
 20
148.993311213
 10
285.7598927286
 20
147.5804829316
 10
286.7708455228
 20
146.1938643241
 10
287.8557211261
 20
144.8354658546
 10
289.0129465725
 20
143.5072570713
 10
290.2408439957
 20
142.2111637498
 10
291.5376330619
 20
140.9490651016
 10
292.9014335509
 20
139.722791049
 10
294.3302680824
 20
138.5341195721
 10
295.8220649829
 20
137.3847741311
 10
297.3746612895
 20
136.2764211668
 10
298.985805886
 20
135.2106676852
 10
300.6531627667
 20
134.1890589269
 10
302.3743144237
 20
133.2130761269
 10
304.1467653514
 20
132.2841343669
 10
305.9679456656
 20
131.4035805238
 10
307.8352148289
 20
130.5726913164
 10
309.7458654795
 20
129.7926714546
 10
311.6971273565
 20
129.0646518927
 10
313.686171317
 20
128.3896881895
 10
315.7101134371
 20
127.7687589776
 10
317.7660191945
 20
127.2027645453
 10
319.8509077222
 20
126.6925255302
 10
321.9617561312
 20
126.2387817302
 10
324.0955038932
 20
125.8421910304
 10
326.2490572778
 20
125.5033284494
 10
328.4192938386
 20
125.2226853056
 10
330.6030669399
 20
125.0006685047
 10
332.7972103197
 20
124.8375999497
 10
334.9985426796
 20
124.7337160746
 10
337.2038722983
 20
124.689167501
 10
339.4100016587
 20
124.7040188201
 10
341.613732084
 20
124.7782484989
 10
343.8118683759
 20
124.9117489115
 10
346.0012234469
 20
125.104326495
 10
348.1786229413
 20
125.3557020303
 10
350.3409098382
 20
125.665511047
 10
352.4849490282
 20
126.0333043516
 10
354.6076318595
 20
126.4585486789
 10
356.7058806448
 20
126.9406274654
 10
358.7766531241
 20
127.4788417429
 10
360.8169468753
 20
128.0724111521
 10
362.8238036674
 20
128.7204750741
 10
364.7943137499
 20
129.4220938782
 10
366.7256200716
 20
130.1762502843
 10
368.6149224231
 20
130.9818508376
 10
370.4594814964
 20
131.8377274943
 10
372.2566228573
 20
132.7426393152
 10
374.0037408226
 20
133.6952742645
 10
375.6983022382
 20
134.6942511127
 10
377.3378501523
 20
135.7381214388
 10
378.9200073769
 20
136.8253717308
 10
380.4424799354
 20
137.9544255795
 10
381.9030603881
 20
139.1236459648
 10
383.299631033
 20
140.3313376291
 10
384.6301669763
 20
141.5757495347
 10
385.8927390678
 20
142.8550774035
 10
387.0855166989
 20
144.1674663323
 10
388.206770456
 20
145.5110134826
 10
389.2548746283
 20
146.8837708395
 10
390.2283095651
 20
148.2837480361
 10
391.1256638786
 20
149.7089152393
 10
391.9456364909
 20
151.1572060928
 10
392.6870385202
 20
152.6265207135
 10
393.3487950043
 20
154.1147287355
 10
393.9299464597
 20
155.6196723996
 10
394.4296502722
 20
157.1391696812
 10
394.6452281213
 20
157.8908578402
  0
LWPOLYLINE
  5
2E8
330
1F
100
AcDbEntity
  8
0
  6
Continuous
 62
     8
370
    18
100
AcDbPolyline
 90
        3
 70
   128
 43
0.0
 10
279.3695322833
 20
165.7648979548
 10
279.4118592861
 20
167.336650261
 10
279.5303036484
 20
168.8265740841
  0
LWPOLYLINE
  5
2E9
330
1F
100
AcDbEntity
  8
0
  6
Continuous
 62
     8
370
    18
100
AcDbPolyline
 90
       87
 70
   128
 43
0.0
 10
395.9806056052
 20
168.8265740841
 10
396.0461555988
 20
168.1218141705
 10
396.1307942605
 20
166.5509165773
 10
396.1307942605
 20
164.9788793322
 10
396.0461555988
 20
163.407981739
 10
395.8770009933
 20
161.8405014489
 10
395.6235757021
 20
160.2787111587
 10
395.2862471675
 20
158.7248753148
 10
394.8655044837
 20
157.1812468306
 10
394.3619576875
 20
155.6500638201
 10
393.7763368734
 20
154.133546352
 10
393.1094911357
 20
152.6338932317
 10
392.362387337
 20
151.153278813
 10
391.5361087063
 20
149.6938498452
 10
390.6318532687
 20
148.2577223607
 10
389.6509321081
 20
146.8469786071
 10
388.5947674664
 20
145.463664028
 10
387.4648906814
 20
144.1097842973
 10
386.2629399664
 20
142.7873024111
 10
384.990658035
 20
141.4981358418
 10
383.6498895743
 20
140.2441537576
 10
382.2425785706
 20
139.0271743127
 10
380.7707654901
 20
137.848962011
 10
379.2365843212
 20
136.7112251475
 10
377.6422594799
 20
135.6156133321
 10
375.9901025848
 20
134.5637150971
 10
374.2825091053
 20
133.5570555944
 10
372.5219548889
 20
132.5970943839
 10
370.7109925709
 20
131.6852233178
 10
368.8522478734
 20
130.8227645219
 10
366.9484157986
 20
130.0109684789
 10
365.0022567209
 20
129.2510122156
 10
363.0165923851
 20
128.5439975958
 10
360.9943018144
 20
127.8909497232
 10
358.938317137
 20
127.2928154547
 10
356.8516193341
 20
126.7504620279
 10
354.737233918
 20
126.2646758034
 10
352.5982265453
 20
125.8361611248
 10
350.4376985724
 20
125.4655392973
 10
348.2587825582
 20
125.1533476872
 10
346.0646377226
 20
124.9000389425
 10
343.8584453658
 20
124.7059803366
 10
341.643404256
 20
124.5714532361
 10
339.4227259909
 20
124.4966526922
 10
337.1996303417
 20
124.4816871587
 10
334.9773405846
 20
124.5265783341
 10
332.7590788272
 20
124.6312611305
 10
330.5480613371
 20
124.795583768
 10
328.3474938783
 20
125.0193079943
 10
326.1605670631
 20
125.3021094307
 10
323.9904517264
 20
125.6435780422
 10
321.8402943279
 20
126.0432187319
 10
319.7132123904
 20
126.5004520591
 10
317.6122899793
 20
127.0146150791
 10
315.5405732312
 20
127.5849623047
 10
313.5010659374
 20
128.210666787
 10
311.4967251884
 20
128.8908213142
 10
309.5304570867
 20
129.6244397274
 10
307.6051125332
 20
130.41045835
 10
305.7234830933
 20
131.24773753
 10
303.8882969498
 20
132.1350632928
 10
302.1022149472
 20
133.0711491008
 10
300.3678267337
 20
134.0546377191
 10
298.6876470063
 20
135.0841031832
 10
297.064111865
 20
136.1580528666
 10
295.4995752807
 20
137.274929645
 10
293.9963056816
 20
138.4331141537
 10
292.5564826652
 20
139.630927136
 10
291.182193837
 20
140.8666318775
 10
289.8754317845
 20
142.1384367246
 10
288.6380911877
 20
143.4444976817
 10
287.4719660723
 20
144.7829210854
 10
286.3787472081
 20
146.1517663497
 10
285.3600196581
 20
147.5490487797
 10
284.4172604796
 20
148.9727424496
 10
283.5518365835
 20
150.4207831396
 10
282.7650027517
 20
151.8910713292
 10
282.0578998179
 20
153.3814752411
 10
281.4315530139
 20
154.889833932
 10
280.8868704826
 20
156.4139604261
 10
280.4246419616
 20
157.9516448856
 10
280.0455376381
 20
159.5006578151
 10
279.7501071771
 20
161.058753294
 10
279.5387789245
 20
162.6236722327
 10
279.4118592861
 20
164.1931456485
 10
279.3695322833
 20
165.7648979548
 10
279.3695322833
 20
165.7648979548
  0
LWPOLYLINE
  5
2EA
330
1F
100
AcDbEntity
  8
0
  6
Continuous
 62
     8
370
    18
100
AcDbPolyline
 90
       59
 70
   128
 43
0.0
 10
389.5139033498
 20
146.3996728498
 10
388.7908549032
 20
145.4594352793
 10
387.6715456949
 20
144.1083231897
 10
386.4807321669
 20
142.7881292641
 10
385.2201201483
 20
141.5007446674
 10
383.8915154535
 20
140.2480135658
 10
382.496821296
 20
139.0317304844
 10
381.0380355617
 20
137.8536377372
 10
379.5172479471
 20
136.7154229305
 10
377.9366369659
 20
135.6187165461
 10
376.298466828
 20
134.5650896054
 10
374.6050841965
 20
133.5560514188
 10
372.8589148255
 20
132.5930474238
 10
371.0624600859
 20
131.6774571143
 10
369.2182933819
 20
130.8105920646
 10
367.3290564644
 20
129.9936940506
 10
365.3974556471
 20
129.2279332708
 10
363.4262579297
 20
128.5144066702
 10
361.4182870338
 20
127.8541363686
 10
359.3764193584
 20
127.2480681971
 10
357.3035798593
 20
126.6970703423
 10
355.2027378591
 20
126.2019321034
 10
353.0769027938
 20
125.7633627612
 10
350.9291199015
 20
125.3819905621
 10
348.7624658606
 20
125.0583618179
 10
346.5800443822
 20
124.7929401238
 10
344.3849817639
 20
124.5861056939
 10
342.1804224119
 20
124.4381548163
 10
339.9695243361
 20
124.3492994294
 10
337.7554546268
 20
124.3196668176
 10
335.5413849175
 20
124.3492994294
 10
333.3304868418
 20
124.4381548163
 10
331.1259274897
 20
124.5861056939
 10
328.9308648715
 20
124.7929401238
 10
326.748443393
 20
125.0583618179
 10
324.5817893521
 20
125.3819905621
 10
322.4340064599
 20
125.7633627612
 10
320.3081713945
 20
126.2019321034
 10
318.2073293943
 20
126.6970703423
 10
316.1344898952
 20
127.2480681971
 10
314.0926222198
 20
127.8541363686
 10
312.0846513239
 20
128.5144066702
 10
310.1134536065
 20
129.2279332708
 10
308.1818527892
 20
129.9936940506
 10
306.2926158717
 20
130.8105920646
 10
304.4484491677
 20
131.6774571143
 10
302.6519944281
 20
132.5930474238
 10
300.9058250572
 20
133.5560514188
 10
299.2124424256
 20
134.5650896054
 10
297.5742722877
 20
135.6187165461
 10
295.9936613065
 20
136.7154229305
 10
294.472873692
 20
137.8536377372
 10
293.0140879577
 20
139.0317304844
 10
291.6193938002
 20
140.2480135658
 10
290.2907891054
 20
141.5007446674
 10
289.0301770867
 20
142.7881292641
 10
287.8393635588
 20
144.1083231897
 10
286.7200543505
 20
145.4594352793
 10
285.9970059038
 20
146.3996728498
  0
LWPOLYLINE
  5
2EB
330
1F
100
AcDbEntity
  8
0
  6
Continuous
 62
     8
370
    18
100
AcDbPolyline
 90
       80
 70
   128
 43
0.0
 10
279.9324424742
 20
161.8161844569
 10
280.0022972923
 20
161.3169008241
 10
280.2752586329
 20
159.7652942344
 10
280.6315607625
 20
158.2221606198
 10
281.0706870771
 20
156.6897373767
 10
281.5920008855
 20
155.1702463723
 10
282.1947463326
 20
153.6658907232
 10
282.8780494951
 20
152.1788516012
 10
283.6409196487
 20
150.7112850711
 10
284.4822507046
 20
149.2653189638
 10
285.4008228132
 20
147.8430497922
 10
286.3953041327
 20
146.4465397104
 10
287.4642527605
 20
145.0778135246
 10
288.606118823
 20
143.7388557569
 10
289.8192467237
 20
142.431607768
 10
291.1018775432
 20
141.1579649427
 10
292.4521515893
 20
139.9197739411
 10
293.8681110937
 20
138.718830022
 10
295.3477030507
 20
137.5568744391
 10
296.8887821931
 20
136.435591917
 10
298.4891141037
 20
135.3566082081
 10
300.1463784542
 20
134.3214877357
 10
301.8581723697
 20
133.3317313255
 10
303.6220139126
 20
132.3887740297
 10
305.4353456813
 20
131.4939830461
 10
307.2955385182
 20
130.6486557362
 10
309.1998953215
 20
129.8540177438
 10
311.1456549558
 20
129.111221218
 10
313.1299962557
 20
128.4213431427
 10
315.1500421161
 20
127.7853837751
 10
317.2028636634
 20
127.2042651957
 10
319.2854845029
 20
126.6788299707
 10
321.3948850332
 20
126.209839931
 10
323.5280068254
 20
125.7979750674
 10
325.6817570568
 20
125.4438325444
 10
327.8530129953
 20
125.147925835
 10
330.0386265276
 20
124.9106839755
 10
332.2354287228
 20
124.7324509439
 10
334.4402344279
 20
124.6134851612
 10
336.6498468853
 20
124.5539591163
 10
338.8610623683
 20
124.5539591163
 10
341.0706748257
 20
124.6134851612
 10
343.2754805308
 20
124.7324509439
 10
345.4722827261
 20
124.9106839755
 10
347.6578962583
 20
125.147925835
 10
349.8291521969
 20
125.4438325444
 10
351.9829024282
 20
125.7979750674
 10
354.1160242204
 20
126.209839931
 10
356.2254247508
 20
126.6788299707
 10
358.3080455902
 20
127.2042651957
 10
360.3608671376
 20
127.7853837751
 10
362.3809129979
 20
128.4213431427
 10
364.3652542978
 20
129.111221218
 10
366.3110139321
 20
129.8540177438
 10
368.2153707354
 20
130.6486557362
 10
370.0755635723
 20
131.4939830461
 10
371.8888953411
 20
132.3887740297
 10
373.652736884
 20
133.3317313255
 10
375.3645307994
 20
134.3214877357
 10
377.0217951499
 20
135.3566082081
 10
378.6221270605
 20
136.435591917
 10
380.163206203
 20
137.5568744391
 10
381.6427981599
 20
138.718830022
 10
383.0587576644
 20
139.9197739411
 10
384.4090317104
 20
141.1579649427
 10
385.6916625299
 20
142.431607768
 10
386.9047904306
 20
143.7388557569
 10
388.0466564932
 20
145.0778135246
 10
389.1156051209
 20
146.4465397104
 10
390.1100864405
 20
147.8430497922
 10
391.0286585491
 20
149.2653189638
 10
391.869989605
 20
150.7112850711
 10
392.6328597585
 20
152.1788516012
 10
393.316162921
 20
153.6658907232
 10
393.9189083681
 20
155.1702463723
 10
394.4402221765
 20
156.6897373767
 10
394.8793484912
 20
158.2221606198
 10
395.2356506208
 20
159.7652942344
 10
395.5086119614
 20
161.3169008241
 10
395.5784667794
 20
161.8161844569
  0
LWPOLYLINE
  5
2EC
330
1F
100
AcDbEntity
  8
0
  6
Continuous
 62
     8
370
    18
100
AcDbPolyline
 90
       80
 70
   128
 43
0.0
 10
285.2488629206
 20
169.1466671946
 10
285.2909052044
 20
170.6321345457
 10
285.4169647287
 20
172.115223055
 10
285.6268396208
 20
173.5935576899
 10
285.9201937848
 20
175.0647710311
 10
286.2965574405
 20
176.5265070632
 10
286.7553278756
 20
177.9764249477
 10
287.2957704105
 20
179.4122027722
 10
287.9170195753
 20
180.831541268
 10
288.6180804957
 20
182.2321674926
 10
289.3978304857
 20
183.6118384696
 10
290.2550208461
 20
184.9683447803
 10
291.1882788641
 20
186.2995141024
 10
292.1961100109
 20
187.6032146883
 10
293.2769003362
 20
188.8773587793
 10
294.4289190516
 20
190.1199059485
 10
295.6503213032
 20
191.3288663688
 10
296.9391511256
 20
192.5023039993
 10
298.2933445741
 20
193.6383396854
 10
299.7107330301
 20
194.7351541685
 10
301.1890466739
 20
195.7909909993
 10
302.7259181197
 20
196.8041593504
 10
304.3188862065
 20
197.7730367241
 10
305.9653999398
 20
198.6960715507
 10
307.6628225764
 20
199.5717856733
 10
309.4084358471
 20
200.3987767147
 10
311.19944431
 20
201.1757203234
 10
313.0329798264
 20
201.9013722944
 10
314.9061061549
 20
202.5745705615
 10
316.8158236526
 20
203.1942370585
 10
318.7590740794
 20
203.7593794453
 10
320.7327454951
 20
204.2690926976
 10
322.7336772431
 20
204.7225605554
 10
324.7586650117
 20
205.119056831
 10
326.8044659658
 20
205.4579465713
 10
328.8678039399
 20
205.7386870751
 10
330.9453746844
 20
205.9608287617
 10
333.0338511572
 20
206.1240158913
 10
335.1298888518
 20
206.2279871345
 10
337.2301311531
 20
206.2725759906
 10
339.3312147125
 20
206.2577110546
 10
341.4297748343
 20
206.1834161314
 10
343.5224508639
 20
206.0498101976
 10
345.6058915696
 20
205.8571072111
 10
347.6767605091
 20
205.6056157683
 10
349.7317413727
 20
205.29573861
 10
351.7675432939
 20
204.9279719765
 10
353.7809061199
 20
204.5029048129
 10
355.7686056318
 20
204.021217826
 10
357.7274587081
 20
203.4836823938
 10
359.6543284224
 20
202.891159331
 10
361.546129067
 20
202.2445975097
 10
363.3998310936
 20
201.5450323403
 10
365.212465966
 20
200.7935841134
 10
366.9811309129
 20
199.9914562053
 10
368.702993577
 20
199.1399331516
 10
370.3752965507
 20
198.2403785895
 10
371.9953617918
 20
197.2942330746
 10
373.5605949119
 20
196.3030117734
 10
375.0684893315
 20
195.2683020375
 10
376.5166302939
 20
194.191760861
 10
377.9026987318
 20
193.0751122274
 10
379.2244749819
 20
191.9201443489
 10
380.4798423387
 20
190.7287068022
 10
381.6667904448
 20
189.502707567
 10
382.7834185099
 20
188.2441099704
 10
383.8279383549
 20
186.9549295428
 10
384.7986772756
 20
185.6372307905
 10
385.6940807212
 20
184.2931238889
 10
386.5127147839
 20
182.924761304
 10
387.2532684952
 20
181.5343343449
 10
387.9145559251
 20
180.124069655
 10
388.4955180814
 20
178.6962256458
 10
388.9952246058
 20
177.2530888807
 10
389.4128752633
 20
175.796970413
 10
389.7478012241
 20
174.3302020848
 10
389.9994661344
 20
172.8551327934
 10
390.1674669758
 20
171.374124729
 10
390.2515347099
 20
169.8895495925
 10
390.262046333
 20
169.1466671946
  0
LWPOLYLINE
  5
2ED
330
1F
100
AcDbEntity
  8
0
  6
Continuous
 62
     8
370
    18
100
AcDbPolyline
 90
       89
 70
   128
 43
0.0
 10
286.2358005268
 20
167.4239076465
 10
286.278123855
 20
168.9002502888
 10
286.4050243025
 20
170.3741673039
 10
286.6162933722
 20
171.8432370502
 10
286.9115839495
 20
173.3050458499
 10
287.2904108729
 20
174.757191955
 10
287.7521517306
 20
176.1972894932
 10
288.2960478837
 20
177.6229723881
 10
288.9212057122
 20
179.0318982464
 10
289.6265980834
 20
180.4217522066
 10
290.4110660396
 20
181.7902507423
 10
291.2733207019
 20
183.135145414
 10
292.2119453882
 20
184.4542265634
 10
293.2253979406
 20
185.7453269435
 10
294.3120132592
 20
187.0063252797
 10
295.4700060379
 20
188.2351497553
 10
296.6974736975
 20
189.4297814147
 10
297.9923995121
 20
190.5882574812
 10
299.3526559218
 20
191.7086745818
 10
300.7760080289
 20
192.7891918742
 10
302.2601172697
 20
193.8280340711
 10
303.8025452565
 20
194.8234943576
 10
305.4007577843
 20
195.7739371952
 10
307.0521289941
 20
196.6778010086
 10
308.7539456872
 20
197.533600752
 10
310.5034117834
 20
198.3399303487
 10
312.2976529144
 20
199.0954650013
 10
314.1337211468
 20
199.7989633684
 10
316.0085998253
 20
200.4492696039
 10
317.9192085291
 20
201.0453152564
 10
319.8624081331
 20
201.5861210245
 10
321.8350059656
 20
202.0707983657
 10
323.8337610534
 20
202.4985509564
 10
325.8553894472
 20
202.8686760003
 10
327.8965696168
 20
203.1805653829
 10
329.9539479086
 20
203.4337066706
 10
332.0241440555
 20
203.6276839532
 10
334.1037567306
 20
203.7621785263
 10
336.1893691358
 20
203.8369694158
 10
338.2775546153
 20
203.8519337404
 10
340.3648822858
 20
203.8070469138
 10
342.4479226736
 20
203.7023826849
 10
344.5232533488
 20
203.5381130167
 10
346.5874645483
 20
203.314507804
 10
348.6371647788
 20
203.0319344295
 10
350.6689863881
 20
202.6908571605
 10
352.6795910986
 20
202.291836386
 10
354.665675492
 20
201.8355276961
 10
356.623976437
 20
201.3226808049
 10
358.5512764502
 20
200.7541383184
 10
360.4444089827
 20
200.1308343504
 10
362.3002636229
 20
199.4537929877
 10
364.1157912062
 20
198.7241266075
 10
365.8880088258
 20
197.9430340497
 10
367.6140047327
 20
197.1117986474
 10
369.2909431202
 20
196.2317861181
 10
370.9160687829
 20
195.3044423202
 10
372.4867116437
 20
194.3312908769
 10
374.0002911403
 20
193.3139306737
 10
375.4543204657
 20
192.2540332307
 10
376.8464106535
 20
191.1533399565
 10
378.1742745033
 20
190.0136592873
 10
379.4357303381
 20
188.8368637155
 10
380.6287055893
 20
187.6248867131
 10
381.7512402018
 20
186.3797195551
 10
382.8014898541
 20
185.1034080479
 10
383.7777289888
 20
183.798049168
 10
384.6783536476
 20
182.4657876166
 10
385.5018841065
 20
181.1088122959
 10
386.2469673072
 20
179.7293527128
 10
386.9123790798
 20
178.3296753157
 10
387.4970261547
 20
176.912079771
 10
387.9999479581
 20
175.4788951844
 10
388.4203181909
 20
174.0324762745
 10
388.7574461859
 20
172.5751995036
 10
389.0107780427
 20
171.1094591738
 10
389.1798975377
 20
169.6376634924
 10
389.2645268081
 20
168.1622306161
 10
389.2645268081
 20
166.685584677
 10
389.1798975377
 20
165.2101518006
 10
389.0107780427
 20
163.7383561193
 10
388.7574461859
 20
162.2726157894
 10
388.4203181909
 20
160.8153390185
 10
387.9999479581
 20
159.3689201086
 10
387.4970261547
 20
157.935735522
 10
386.9123790798
 20
156.5181399773
 10
386.2469673072
 20
155.1184625802
 10
385.5018841065
 20
153.7390029971
 10
385.2968347947
 20
153.3866014534
  0
ARC
  5
2EE
330
1F
100
AcDbEntity
  8
0
  6
Continuous
 62
     8
370
    18
100
AcDbCircle
 10
313.8004448005
 20
167.65353799
 30
0.0
 40
27.56560073767525
100
AcDbArc
 50
180.4772978406
 51
211.1689275633
  0
LWPOLYLINE
  5
2EF
330
1F
100
AcDbEntity
  8
0
  6
Continuous
 62
     8
370
    18
100
AcDbPolyline
 90
       67
 70
   128
 43
0.0
 10
282.915420199
 20
151.2716658134
 10
283.1846805512
 20
150.7259109476
 10
283.9655094007
 20
149.266843748
 10
284.8243285285
 20
147.8298542588
 10
285.7598927288
 20
146.4170259775
 10
286.770845523
 20
145.0304073699
 10
287.8557211263
 20
143.6720089005
 10
289.0129465727
 20
142.3438001172
 10
290.2408439959
 20
141.0477067957
 10
291.5376330621
 20
139.7856081475
 10
292.9014335511
 20
138.5593340949
 10
294.3302680826
 20
137.370662618
 10
295.8220649831
 20
136.221317177
 10
297.3746612897
 20
135.1129642127
 10
298.9858058861
 20
134.0472107311
 10
300.6531627669
 20
133.0256019728
 10
302.3743144238
 20
132.0496191728
 10
304.1467653516
 20
131.1206774128
 10
305.9679456657
 20
130.2401235697
 10
307.835214829
 20
129.4092343623
 10
309.7458654796
 20
128.6292145006
 10
311.6971273566
 20
127.9011949387
 10
313.6861713171
 20
127.2262312354
 10
315.7101134372
 20
126.6053020236
 10
317.7660191946
 20
126.0393075912
 10
319.8509077223
 20
125.5290685762
 10
321.9617561313
 20
125.0753247762
 10
324.0955038933
 20
124.6787340764
 10
326.2490572779
 20
124.3398714954
 10
328.4192938386
 20
124.0592283516
 10
330.60306694
 20
123.8372115506
 10
332.7972103197
 20
123.6741429957
 10
334.9985426796
 20
123.5702591206
 10
337.2038722983
 20
123.525710547
 10
339.4100016587
 20
123.5405618661
 10
341.613732084
 20
123.6147915449
 10
343.8118683759
 20
123.7482919575
 10
346.0012234468
 20
123.940869541
 10
348.1786229413
 20
124.1922450763
 10
350.3409098382
 20
124.502054093
 10
352.4849490281
 20
124.8698473975
 10
354.6076318594
 20
125.2950917249
 10
356.7058806448
 20
125.7771705113
 10
358.7766531241
 20
126.3153847888
 10
360.8169468752
 20
126.908954198
 10
362.8238036673
 20
127.55701812
 10
364.7943137498
 20
128.2586369242
 10
366.7256200715
 20
129.0127933302
 10
368.6149224229
 20
129.8183938835
 10
370.4594814963
 20
130.6742705402
 10
372.2566228571
 20
131.5791823611
 10
374.0037408224
 20
132.5318173104
 10
375.6983022381
 20
133.5307941586
 10
377.3378501521
 20
134.5746644847
 10
378.9200073767
 20
135.6619147767
 10
380.4424799352
 20
136.7909686254
 10
381.9030603879
 20
137.9601890107
 10
383.2996310329
 20
139.167880675
 10
384.6301669761
 20
140.4122925806
 10
385.8927390676
 20
141.6916204494
 10
387.0855166987
 20
143.0040093782
 10
388.2067704558
 20
144.3475565285
 10
389.2548746281
 20
145.7203138854
 10
390.2283095649
 20
147.120291082
 10
391.1256638784
 20
148.5454582851
 10
391.9456364907
 20
149.9937491387
 10
392.5954890547
 20
151.2716658134
  0
LWPOLYLINE
  5
2F0
330
1F
100
AcDbEntity
  8
0
  6
Continuous
 62
     8
370
    18
100
AcDbPolyline
 90
        3
 70
   128
 43
0.0
 10
314.1578333587
 20
201.9327127972
 10
315.600160453
 20
202.3684714266
 10
315.9292739621
 20
202.4633888275
  0
LWPOLYLINE
  5
2F1
330
1F
100
AcDbEntity
  8
0
  6
Continuous
 62
     8
370
    18
100
AcDbPolyline
 90
        3
 70
   128
 43
0.0
 10
359.5816352916
 20
202.4633888275
 10
360.9319679979
 20
202.0633047616
 10
361.353075895
 20
201.9327127972
  0
LWPOLYLINE
  5
2F2
330
1F
100
AcDbEntity
  8
0
  6
Continuous
 62
     8
370
    18
100
AcDbPolyline
 90
       78
 70
   128
 43
0.0
 10
395.5314396996
 20
159.1631563891
 10
395.4683554016
 20
158.8194751031
 10
395.1319316871
 20
157.2698071303
 10
394.7123175661
 20
155.7303191379
 10
394.210121439
 20
154.2032432364
 10
393.6260714421
 20
152.6907935399
 10
392.9610143921
 20
151.1951629558
 10
392.2159145582
 20
149.7185200055
 10
391.3918522638
 20
148.2630056801
 10
390.4900223205
 20
146.8307303362
 10
389.5117322956
 20
145.4237706362
 10
388.458400616
 20
144.0441665371
 10
387.3315545119
 20
142.6939183329
 10
386.1328278026
 20
141.3749837545
 10
384.8639585271
 20
140.0892751309
 10
383.5267864245
 20
138.8386566168
 10
382.1232502666
 20
137.6249414893
 10
380.6553850466
 20
136.4498895194
 10
379.1253190288
 20
135.3152044201
 10
377.5352706626
 20
134.2225313763
 10
375.8875453662
 20
133.1734546596
 10
374.1845321836
 20
132.1694953307
 10
372.4287003212
 20
131.2121090349
 10
370.6225955674
 20
130.3026838906
 10
368.7688366013
 20
129.4425384774
 10
366.8701111963
 20
128.632919924
 10
364.9291723227
 20
127.8750020997
 10
362.9488341562
 20
127.1698839131
 10
360.9319679979
 20
126.518587718
 10
358.8814981109
 20
125.9220578317
 10
356.8003974806
 20
125.3811591655
 10
354.6916835038
 20
124.8966759707
 10
352.5584136142
 20
124.4693107017
 10
350.4036808494
 20
124.0996829972
 10
348.2306093656
 20
123.7883287821
 10
346.042349909
 20
123.5356994903
 10
343.8420752464
 20
123.34216141
 10
341.6329755658
 20
123.2079951529
 10
339.4182538505
 20
123.1333952474
 10
337.2011212353
 20
123.1184698561
 10
334.9847923506
 20
123.1632406194
 10
332.7724806612
 20
123.267642624
 10
330.5673938078
 20
123.431524497
 10
328.3727289553
 20
123.6546486254
 10
326.1916681581
 20
123.9366915004
 10
324.0273737457
 20
124.2772441868
 10
321.8829837382
 20
124.6758129159
 10
319.7616072961
 20
125.1318198011
 10
317.6663202124
 20
125.644603676
 10
315.600160453
 20
126.2134210529
 10
313.5661237521
 20
126.8374472012
 10
311.5671592684
 20
127.5157773424
 10
309.6061653094
 20
128.2474279628
 10
307.6859851289
 20
129.0313382389
 10
305.8094028044
 20
129.8663715758
 10
303.979139201
 20
130.7513172549
 10
302.1978480259
 20
131.6848921896
 10
300.468111981
 20
132.6657427855
 10
298.7924390183
 20
133.692446903
 10
297.1732587033
 20
134.7635159193
 10
295.6129186926
 20
135.8773968867
 10
294.1136813303
 20
137.0324747843
 10
292.677720367
 20
138.2270748596
 10
291.3071178089
 20
139.4594650567
 10
290.0038608987
 20
140.7278585276
 10
288.7698392343
 20
142.030416223
 10
287.6068420292
 20
143.3652495588
 10
286.516555518
 20
144.7304231543
 10
285.5005605121
 20
146.1239576382
 10
284.560330107
 20
147.5438325188
 10
283.697227547
 20
148.9879891133
 10
282.9125042482
 20
150.4543335327
 10
282.2072979845
 20
151.9407397176
 10
281.5826312374
 20
153.4450525214
 10
281.0394097141
 20
154.9650908341
 10
280.5784210337
 20
156.4986507457
 10
280.2003335859
 20
158.0435087407
 10
279.979469554
 20
159.1631563891
  0
LWPOLYLINE
  5
2F3
330
1F
100
AcDbEntity
  8
0
  6
Continuous
 62
     8
370
    18
100
AcDbPolyline
 90
        3
 70
   128
 43
0.0
 10
361.2783560853
 20
201.8885821535
 10
361.3642191361
 20
201.8616092432
 10
362.9088170157
 20
201.3560163804
  0
LWPOLYLINE
  5
2F4
330
1F
100
AcDbEntity
  8
0
  6
Continuous
 62
     8
370
    18
100
AcDbPolyline
 90
       72
 70
   128
 43
0.0
 10
394.205254549
 20
154.8122225045
 10
393.8928662106
 20
153.9324326891
 10
393.2904002476
 20
152.4287745873
 10
392.6074139226
 20
150.9424249833
 10
391.8448975006
 20
149.4755389419
 10
391.0039565574
 20
148.0302433076
 10
390.085810377
 20
146.608633621
 10
389.0917901836
 20
145.2127710801
 10
388.0233372114
 20
143.8446795523
 10
386.8820006152
 20
142.5063426394
 10
385.6694352238
 20
141.199700802
 10
384.3873991412
 20
139.9266485458
 10
383.0377511971
 20
138.689031675
 10
381.622448252
 20
137.4886446157
 10
380.1435423598
 20
136.3272278143
 10
378.6031777928
 20
135.2064652143
 10
377.0035879323
 20
134.1279818141
 10
375.3470920306
 20
133.0933413116
 10
373.6360918485
 20
132.1040438367
 10
371.8730681727
 20
131.1615237761
 10
370.0605772189
 20
130.2671476938
 10
368.2012469257
 20
129.4222123496
 10
366.2977731443
 20
128.627942819
 10
364.3529157298
 20
127.8854907169
 10
362.3694945394
 20
127.1959325278
 10
360.3503853443
 20
126.5602680451
 10
358.2985156597
 20
125.9794189217
 10
356.2168605005
 20
125.4542273332
 10
354.1084380678
 20
124.9854547573
 10
351.9763053725
 20
124.5737808692
 10
349.823553803
 20
124.2198025569
 10
347.6533046435
 20
123.924033055
 10
345.4687045478
 20
123.686901201
 10
343.272920977
 20
123.5087508134
 10
341.0691376075
 20
123.3898401934
 10
338.8605497145
 20
123.3303417498
 10
336.6503595392
 20
123.3303417498
 10
334.4417716462
 20
123.3898401934
 10
332.2379882766
 20
123.5087508134
 10
330.0422047059
 20
123.686901201
 10
327.8576046101
 20
123.924033055
 10
325.6873554506
 20
124.2198025569
 10
323.5346038812
 20
124.5737808692
 10
321.4024711858
 20
124.9854547573
 10
319.2940487531
 20
125.4542273332
 10
317.2123935939
 20
125.9794189217
 10
315.1605239094
 20
126.5602680451
 10
313.1414147142
 20
127.1959325278
 10
311.1579935238
 20
127.8854907169
 10
309.2131361093
 20
128.627942819
 10
307.3096623279
 20
129.4222123496
 10
305.4503320348
 20
130.2671476938
 10
303.637841081
 20
131.1615237761
 10
301.8748174051
 20
132.1040438367
 10
300.163817223
 20
133.0933413116
 10
298.5073213214
 20
134.1279818141
 10
296.9077314608
 20
135.2064652143
 10
295.3673668938
 20
136.3272278143
 10
293.8884610017
 20
137.4886446157
 10
292.4731580566
 20
138.689031675
 10
291.1235101125
 20
139.9266485458
 10
289.8414740298
 20
141.199700802
 10
288.6289086384
 20
142.5063426394
 10
287.4875720422
 20
143.8446795523
 10
286.41911907
 20
145.2127710801
 10
285.4250988766
 20
146.608633621
 10
284.5069526962
 20
148.0302433076
 10
283.666011753
 20
149.4755389419
 10
282.903495331
 20
150.9424249833
 10
282.220509006
 20
152.4287745873
 10
281.618043043
 20
153.9324326891
 10
281.3056547046
 20
154.8122225045
  0
LWPOLYLINE
  5
2F5
330
1F
100
AcDbEntity
  8
0
  6
Continuous
 62
     8
370
    18
100
AcDbPolyline
 90
        3
 70
   128
 43
0.0
 10
312.6020922379
 20
201.3560163804
 10
314.1466901175
 20
201.8616092432
 10
314.2325531684
 20
201.8885821535
  0
LWPOLYLINE
  5
2F6
330
1F
100
AcDbEntity
  8
0
  6
Continuous
 62
     8
370
    18
100
AcDbPolyline
 90
       72
 70
   128
 43
0.0
 10
281.4753871907
 20
153.4718960093
 10
281.8614074753
 20
152.4172808891
 10
282.4829741068
 20
150.9204337358
 10
283.184680551
 20
149.4414043338
 10
283.9655094005
 20
147.9823371342
 10
284.8243285282
 20
146.545347645
 10
285.7598927286
 20
145.1325193637
 10
286.7708455228
 20
143.7459007561
 10
287.8557211261
 20
142.3875022867
 10
289.0129465725
 20
141.0592935034
 10
290.2408439957
 20
139.7632001819
 10
291.5376330619
 20
138.5011015336
 10
292.9014335509
 20
137.274827481
 10
294.3302680824
 20
136.0861560042
 10
295.8220649829
 20
134.9368105631
 10
297.3746612895
 20
133.8284575989
 10
298.985805886
 20
132.7627041173
 10
300.6531627667
 20
131.7410953589
 10
302.3743144237
 20
130.7651125589
 10
304.1467653514
 20
129.836170799
 10
305.9679456656
 20
128.9556169559
 10
307.8352148289
 20
128.1247277485
 10
309.7458654794
 20
127.3447078867
 10
311.6971273565
 20
126.6166883248
 10
313.6861713169
 20
125.9417246215
 10
315.7101134371
 20
125.3207954097
 10
317.7660191945
 20
124.7548009773
 10
319.8509077222
 20
124.2445619623
 10
321.9617561312
 20
123.7908181623
 10
324.0955038932
 20
123.3942274625
 10
326.2490572778
 20
123.0553648815
 10
328.4192938386
 20
122.7747217377
 10
330.6030669399
 20
122.5527049367
 10
332.7972103197
 20
122.3896363818
 10
334.9985426796
 20
122.2857525067
 10
337.2038722983
 20
122.2412039331
 10
339.4100016587
 20
122.2560552522
 10
341.6137320841
 20
122.330284931
 10
343.8118683759
 20
122.4637853436
 10
346.0012234469
 20
122.656362927
 10
348.1786229413
 20
122.9077384624
 10
350.3409098382
 20
123.2175474791
 10
352.4849490282
 20
123.5853407836
 10
354.6076318595
 20
124.010585111
 10
356.7058806448
 20
124.4926638974
 10
358.7766531242
 20
125.0308781749
 10
360.8169468753
 20
125.6244475841
 10
362.8238036674
 20
126.2725115061
 10
364.7943137499
 20
126.9741303103
 10
366.7256200717
 20
127.7282867163
 10
368.6149224231
 20
128.5338872696
 10
370.4594814964
 20
129.3897639264
 10
372.2566228573
 20
130.2946757472
 10
374.0037408226
 20
131.2473106965
 10
375.6983022383
 20
132.2462875447
 10
377.3378501523
 20
133.2901578709
 10
378.9200073769
 20
134.3774081628
 10
380.4424799354
 20
135.5064620115
 10
381.9030603881
 20
136.6756823969
 10
383.2996310331
 20
137.8833740611
 10
384.6301669763
 20
139.1277859668
 10
385.8927390678
 20
140.4071138356
 10
387.0855166989
 20
141.7195027643
 10
388.206770456
 20
143.0630499146
 10
389.2548746284
 20
144.4358072716
 10
390.2283095651
 20
145.8357844682
 10
391.1256638786
 20
147.2609516713
 10
391.945636491
 20
148.7092425249
 10
392.6870385202
 20
150.1785571456
 10
393.3487950044
 20
151.6667651676
 10
393.9299464597
 20
153.1717088317
 10
394.0355220629
 20
153.4718960093
  0
LWPOLYLINE
  5
2F7
330
1F
100
AcDbEntity
  8
0
  6
Continuous
 62
     8
370
    18
100
AcDbPolyline
 90
        3
 70
   128
 43
0.0
 10
298.4639392839
 20
193.3941816508
 10
298.7924390181
 20
193.604938963
 10
298.9781177562
 20
193.7226491407
  0
LINE
  5
2F8
330
1F
100
AcDbEntity
  8
0
  6
Continuous
 62
     8
370
    18
100
AcDbLine
 10
376.5327914974
 20
193.7226491407
 30
0.0
 11
377.0469699697
 21
193.3941816508
 31
0.0
  0
LWPOLYLINE
  5
2F9
330
1F
100
AcDbEntity
  8
0
  6
Continuous
 62
     8
370
    18
100
AcDbPolyline
 90
       82
 70
   128
 43
0.0
 10
395.9352490202
 20
161.3087304314
 10
395.8898018079
 20
160.6558453927
 10
395.7211009277
 20
159.0925695723
 10
395.4683554019
 20
157.5349684894
 10
395.1319316874
 20
155.9853005165
 10
394.7123175664
 20
154.4458125241
 10
394.2101214392
 20
152.9187366226
 10
393.6260714423
 20
151.4062869261
 10
392.9610143923
 20
149.910656342
 10
392.2159145584
 20
148.4340133917
 10
391.391852264
 20
146.9784990663
 10
390.4900223208
 20
145.5462237224
 10
389.5117322958
 20
144.1392640224
 10
388.4584006162
 20
142.7596599233
 10
387.3315545122
 20
141.4094117191
 10
386.1328278028
 20
140.0904771407
 10
384.8639585273
 20
138.8047685171
 10
383.5267864247
 20
137.5541500029
 10
382.1232502668
 20
136.3404348754
 10
380.6553850468
 20
135.1653829055
 10
379.125319029
 20
134.0306978062
 10
377.5352706628
 20
132.9380247625
 10
375.8875453663
 20
131.8889480457
 10
374.1845321838
 20
130.8849887169
 10
372.4287003214
 20
129.927602421
 10
370.6225955675
 20
129.0181772767
 10
368.7688366015
 20
128.1580318635
 10
366.8701111964
 20
127.3484133101
 10
364.9291723228
 20
126.5904954858
 10
362.9488341563
 20
125.8853772992
 10
360.931967998
 20
125.2340811041
 10
358.881498111
 20
124.6375512178
 10
356.8003974806
 20
124.0966525516
 10
354.6916835039
 20
123.6121693568
 10
352.5584136143
 20
123.1848040878
 10
350.4036808494
 20
122.8151763833
 10
348.2306093657
 20
122.5038221682
 10
346.042349909
 20
122.2511928764
 10
343.8420752464
 20
122.0576547961
 10
341.6329755658
 20
121.923488539
 10
339.4182538505
 20
121.8488886335
 10
337.2011212353
 20
121.8339632422
 10
334.9847923506
 20
121.8787340055
 10
332.7724806612
 20
121.9831360101
 10
330.5673938077
 20
122.1470178831
 10
328.3727289553
 20
122.3701420115
 10
326.191668158
 20
122.6521848865
 10
324.0273737457
 20
122.9927375729
 10
321.8829837382
 20
123.391306302
 10
319.761607296
 20
123.8473131872
 10
317.6663202123
 20
124.3600970621
 10
315.6001604529
 20
124.928914439
 10
313.566123752
 20
125.5529405873
 10
311.5671592683
 20
126.2312707285
 10
309.6061653093
 20
126.9629213489
 10
307.6859851287
 20
127.746831625
 10
305.8094028042
 20
128.5818649619
 10
303.9791392008
 20
129.466810641
 10
302.1978480257
 20
130.4003855757
 10
300.4681119808
 20
131.3812361716
 10
298.7924390181
 20
132.4079402891
 10
297.1732587031
 20
133.4790093054
 10
295.6129186925
 20
134.5928902729
 10
294.1136813301
 20
135.7479681705
 10
292.6777203668
 20
136.9425682458
 10
291.3071178087
 20
138.1749584429
 10
290.0038608985
 20
139.4433519138
 10
288.7698392341
 20
140.7459096092
 10
287.6068420289
 20
142.080742945
 10
286.5165555178
 20
143.4459165404
 10
285.5005605119
 20
144.8394510244
 10
284.5603301068
 20
146.259325905
 10
283.6972275468
 20
147.7034824995
 10
282.912504248
 20
149.1698269189
 10
282.2072979842
 20
150.6562331038
 10
281.5826312372
 20
152.1605459076
 10
281.0394097138
 20
153.6805842204
 10
280.5784210335
 20
155.2141441319
 10
280.2003335857
 20
156.7590021269
 10
279.9056955611
 20
158.3129183091
 10
279.6949341566
 20
159.8736396485
 10
279.5756602335
 20
161.3087304314
  0
LINE
  5
2FA
330
1F
100
AcDbEntity
  8
0
  6
Continuous
 62
     8
370
    18
100
AcDbLine
 10
377.2204135472
 20
193.1789907056
 30
0.0
 11
377.7141975713
 21
192.8514441447
 31
0.0
  0
LWPOLYLINE
  5
2FB
330
1F
100
AcDbEntity
  8
0
  6
Continuous
 62
     8
370
    18
100
AcDbPolyline
 90
       78
 70
   128
 43
0.0
 10
395.3397115623
 20
157.9244290587
 10
395.2089979098
 20
157.2408432821
 10
394.8528609922
 20
155.6984251957
 10
394.4139382939
 20
154.1667125144
 10
393.8928662109
 20
152.6479260753
 10
393.2904002479
 20
151.1442679735
 10
392.6074139229
 20
149.6579183695
 10
391.8448975009
 20
148.1910323281
 10
391.0039565577
 20
146.7457366938
 10
390.0858103773
 20
145.3241270071
 10
389.0917901839
 20
143.9282644663
 10
388.0233372117
 20
142.5601729384
 10
386.8820006154
 20
141.2218360255
 10
385.6694352241
 20
139.9151941881
 10
384.3873991414
 20
138.642141932
 10
383.0377511973
 20
137.4045250612
 10
381.6224482522
 20
136.2041380018
 10
380.14354236
 20
135.0427212005
 10
378.603177793
 20
133.9219586004
 10
377.0035879325
 20
132.8434752002
 10
375.3470920308
 20
131.8088346977
 10
373.6360918487
 20
130.8195372228
 10
371.8730681728
 20
129.8770171622
 10
370.060577219
 20
128.9826410799
 10
368.2012469258
 20
128.1377057357
 10
366.2977731445
 20
127.3434362051
 10
364.3529157299
 20
126.6009841029
 10
362.3694945395
 20
125.9114259138
 10
360.3503853444
 20
125.2757614312
 10
358.2985156598
 20
124.6949123078
 10
356.2168605006
 20
124.1697207193
 10
354.1084380679
 20
123.7009481433
 10
351.9763053725
 20
123.2892742553
 10
349.8235538031
 20
122.9352959429
 10
347.6533046436
 20
122.639526441
 10
345.4687045478
 20
122.402394587
 10
343.272920977
 20
122.2242441995
 10
341.0691376075
 20
122.1053335794
 10
338.8605497145
 20
122.0458351359
 10
336.6503595392
 20
122.0458351359
 10
334.4417716461
 20
122.1053335794
 10
332.2379882766
 20
122.2242441995
 10
330.0422047058
 20
122.402394587
 10
327.85760461
 20
122.639526441
 10
325.6873554505
 20
122.9352959429
 10
323.5346038811
 20
123.2892742553
 10
321.4024711857
 20
123.7009481433
 10
319.294048753
 20
124.1697207193
 10
317.2123935938
 20
124.6949123078
 10
315.1605239092
 20
125.2757614312
 10
313.1414147141
 20
125.9114259138
 10
311.1579935237
 20
126.6009841029
 10
309.2131361092
 20
127.3434362051
 10
307.3096623278
 20
128.1377057357
 10
305.4503320346
 20
128.9826410799
 10
303.6378410808
 20
129.8770171622
 10
301.8748174049
 20
130.8195372228
 10
300.1638172228
 20
131.8088346977
 10
298.5073213212
 20
132.8434752002
 10
296.9077314606
 20
133.9219586004
 10
295.3673668936
 20
135.0427212005
 10
293.8884610015
 20
136.2041380018
 10
292.4731580563
 20
137.4045250612
 10
291.1235101122
 20
138.642141932
 10
289.8414740296
 20
139.9151941881
 10
288.6289086382
 20
141.2218360255
 10
287.4875720419
 20
142.5601729384
 10
286.4191190698
 20
143.9282644663
 10
285.4250988764
 20
145.3241270071
 10
284.506952696
 20
146.7457366938
 10
283.6660117528
 20
148.1910323281
 10
282.9034953307
 20
149.6579183695
 10
282.2205090058
 20
151.1442679735
 10
281.6180430428
 20
152.6479260753
 10
281.0969709598
 20
154.1667125144
 10
280.6580482615
 20
155.6984251957
 10
280.3019113439
 20
157.2408432821
 10
280.1711976913
 20
157.9244290587
  0
ARC
  5
2FC
330
1F
100
AcDbEntity
  8
0
  6
Continuous
 62
     8
370
    18
100
AcDbCircle
 10
314.6423796214
 20
167.6544560433
 30
0.0
 40
28.14076960667175
100
AcDbArc
 50
180.7700194285
 51
216.787057967
  0
LWPOLYLINE
  5
2FD
330
1F
100
AcDbEntity
  8
0
  6
Continuous
 62
     8
370
    18
100
AcDbPolyline
 90
       92
 70
   128
 43
0.0
 10
383.4055337582
 20
150.8025612216
 10
383.5380124334
 20
150.9874196798
 10
384.433946002
 20
152.3127418708
 10
385.2531869318
 20
153.6626491043
 10
385.9943892121
 20
155.0349234862
 10
386.6563350496
 20
156.4273103734
 10
387.237936869
 20
157.8375220779
 10
387.7382391
 20
159.2632416255
 10
388.1564197473
 20
160.7021265627
 10
388.4917917412
 20
162.1518128055
 10
388.7438040666
 20
163.609918523
 10
388.9120426676
 20
165.0740480515
 10
388.9962311289
 20
166.5417958299
 10
388.9962311289
 20
168.0107503525
 10
388.9120426676
 20
169.4784981309
 10
388.7438040666
 20
170.9426276594
 10
388.4917917412
 20
172.4007333769
 10
388.1564197473
 20
173.8504196197
 10
387.7382391
 20
175.2893045569
 10
387.237936869
 20
176.7150241045
 10
386.6563350496
 20
178.125235809
 10
385.9943892121
 20
179.5176226962
 10
385.2531869318
 20
180.8898970781
 10
384.433946002
 20
182.2398043116
 10
383.5380124334
 20
183.5651265026
 10
382.5668582426
 20
184.8636861502
 10
381.5220790333
 20
186.1333497243
 10
380.405391375
 20
187.3720311711
 10
379.2186299826
 20
188.57769534
 10
377.963744702
 20
189.7483613282
 10
376.6427973064
 20
190.8821057344
 10
375.2579581088
 20
191.9770658195
 10
373.8115023965
 20
193.031442567
 10
372.3058066924
 20
194.0435036388
 10
370.7433448506
 20
195.011586221
 10
369.1266839918
 20
195.9340997565
 10
367.4584802855
 20
196.8095285581
 10
365.741474586
 20
197.6364342986
 10
363.9784879292
 20
198.4134583738
 10
362.1724168976
 20
199.1393241355
 10
360.326228861
 20
199.8128389879
 10
358.4429571017
 20
200.432896348
 10
356.5256958301
 20
200.9984774631
 10
354.5775951015
 20
201.508653085
 10
352.6018556403
 20
201.9625849965
 10
350.6017235812
 20
202.3595273885
 10
348.5804851359
 20
202.6988280859
 10
346.541461194
 20
202.9799296185
 10
344.4880018663
 20
203.2023701371
 10
342.4234809812
 20
203.3657841726
 10
340.351290541
 20
203.4699032361
 10
338.2748351492
 20
203.5145562604
 10
336.1975264167
 20
203.4996698806
 10
334.122777356
 20
203.425268555
 10
332.0539967746
 20
203.2914745247
 10
329.9945836735
 20
203.098507613
 10
327.9479216629
 20
202.8466848641
 10
325.9173734033
 20
202.5364200221
 10
323.90627508
 20
202.1682228512
 10
321.9179309224
 20
201.7426982985
 10
319.9556077746
 20
201.2605454997
 10
318.0225297285
 20
200.7225566305
 10
316.1218728262
 20
200.1296156054
 10
314.2567598419
 20
199.4826966247
 10
312.4302551515
 20
198.7828625747
 10
310.6453596973
 20
198.031263281
 10
308.9050060579
 20
197.2291336191
 10
307.2120536298
 20
196.377791486
 10
305.5692839293
 20
195.4786356346
 10
303.9793960227
 20
194.5331433756
 10
302.4450020917
 20
193.5428681503
 10
300.9686231415
 20
192.5094369783
 10
299.5526848589
 20
191.4345477842
 10
298.1995136267
 20
190.3199666083
 10
296.9113327017
 20
189.1675247045
 10
295.6902585617
 20
187.9791155317
 10
294.5382974284
 20
186.7566916432
 10
293.457341971
 20
185.5022614781
 10
292.4491681963
 20
184.217886062
 10
291.5154325312
 20
182.9056756202
 10
290.6576691011
 20
181.5677861111
 10
289.8772872088
 20
180.2064156837
 10
289.17556902
 20
178.8238010659
 10
288.5536674556
 20
177.42221389
 10
288.0126042983
 20
176.00395696
 10
287.5532685136
 20
174.5713604684
 10
287.1764147888
 20
173.1267781673
 10
286.8826622936
 20
171.6725835017
 10
286.6724936627
 20
170.2111657097
 10
286.5462542025
 20
168.7449258968
 10
286.5041513241
 20
167.2762730912
 10
286.5041513241
 20
167.2762730912
  0
LWPOLYLINE
  5
2FE
330
1F
100
AcDbEntity
  8
0
  6
Continuous
 62
     8
370
    18
100
AcDbPolyline
 90
       55
 70
   128
 43
0.0
 10
292.0109155946
 20
183.440889462
 10
292.5021942754
 20
184.0560895806
 10
293.5909222466
 20
185.3295719519
 10
294.7512852508
 20
186.5710229162
 10
295.981401175
 20
187.7784288355
 10
297.2792747666
 20
188.949831293
 10
298.64280087
 20
190.0833302697
 10
300.0697678408
 20
191.1770872261
 10
301.5578611334
 20
192.2293280843
 10
303.1046670551
 20
193.2383461059
 10
304.7076766808
 20
194.2025046599
 10
306.3642899233
 20
195.1202398777
 10
308.0718197497
 20
195.9900631893
 10
309.8274965404
 20
196.8105637383
 10
311.6284725812
 20
197.5804106695
 10
313.4718266825
 20
198.2983552887
 10
315.3545689171
 20
198.9632330868
 10
317.2736454702
 20
199.5739656298
 10
319.2259435927
 20
200.1295623072
 10
321.2082966499
 20
200.6291219392
 10
323.2174892578
 20
201.0718342381
 10
325.2502624987
 20
201.4569811232
 10
327.3033192069
 20
201.7839378846
 10
329.3733293171
 20
202.0521741973
 10
331.4569352651
 20
202.2612549811
 10
333.5507574346
 20
202.4108411061
 10
335.6513996382
 20
202.5006899431
 10
337.7554546268
 20
202.530655757
 10
339.8595096154
 20
202.5006899431
 10
341.9601518191
 20
202.4108411061
 10
344.0539739886
 20
202.2612549811
 10
346.1375799366
 20
202.0521741973
 10
348.2075900467
 20
201.7839378846
 10
350.260646755
 20
201.4569811232
 10
352.2934199959
 20
201.0718342381
 10
354.3026126037
 20
200.6291219392
 10
356.2849656609
 20
200.1295623072
 10
358.2372637834
 20
199.5739656298
 10
360.1563403365
 20
198.9632330868
 10
362.0390825711
 20
198.2983552887
 10
363.8824366724
 20
197.5804106695
 10
365.6834127133
 20
196.8105637383
 10
367.439089504
 20
195.9900631893
 10
369.1466193304
 20
195.1202398777
 10
370.8032325728
 20
194.2025046599
 10
372.4062421986
 20
193.2383461059
 10
373.9530481202
 20
192.2293280843
 10
375.4411414128
 20
191.1770872261
 10
376.8681083836
 20
190.0833302697
 10
378.231634487
 20
188.949831293
 10
379.5295080787
 20
187.7784288355
 10
380.7596240029
 20
186.5710229162
 10
381.9199870071
 20
185.3295719519
 10
383.0087149782
 20
184.0560895806
 10
383.4999936591
 20
183.440889462
  0
LWPOLYLINE
  5
2FF
330
1F
100
AcDbEntity
  8
0
  6
Continuous
 62
     8
370
    18
100
AcDbPolyline
 90
       58
 70
   128
 43
0.0
 10
286.9868735054
 20
142.587267715
 10
287.8557211261
 20
141.5091943532
 10
289.0129465725
 20
140.1809855698
 10
290.2408439957
 20
138.8848922483
 10
291.5376330619
 20
137.6227936001
 10
292.9014335509
 20
136.3965195475
 10
294.3302680824
 20
135.2078480707
 10
295.8220649829
 20
134.0585026296
 10
297.3746612895
 20
132.9501496654
 10
298.985805886
 20
131.8843961837
 10
300.6531627667
 20
130.8627874254
 10
302.3743144237
 20
129.8868046254
 10
304.1467653514
 20
128.9578628654
 10
305.9679456656
 20
128.0773090223
 10
307.8352148289
 20
127.2464198149
 10
309.7458654795
 20
126.4663999532
 10
311.6971273565
 20
125.7383803913
 10
313.686171317
 20
125.063416688
 10
315.7101134371
 20
124.4424874762
 10
317.7660191945
 20
123.8764930438
 10
319.8509077222
 20
123.3662540287
 10
321.9617561312
 20
122.9125102287
 10
324.0955038932
 20
122.5159195289
 10
326.2490572778
 20
122.177056948
 10
328.4192938386
 20
121.8964138041
 10
330.6030669399
 20
121.6743970032
 10
332.7972103197
 20
121.5113284482
 10
334.9985426796
 20
121.4074445731
 10
337.2038722983
 20
121.3628959995
 10
339.4100016587
 20
121.3777473186
 10
341.613732084
 20
121.4519769975
 10
343.8118683759
 20
121.58547741
 10
346.0012234469
 20
121.7780549935
 10
348.1786229413
 20
122.0294305289
 10
350.3409098382
 20
122.3392395455
 10
352.4849490282
 20
122.7070328501
 10
354.6076318595
 20
123.1322771774
 10
356.7058806448
 20
123.6143559639
 10
358.7766531241
 20
124.1525702414
 10
360.8169468753
 20
124.7461396506
 10
362.8238036674
 20
125.3942035726
 10
364.7943137499
 20
126.0958223767
 10
366.7256200716
 20
126.8499787828
 10
368.6149224231
 20
127.6555793361
 10
370.4594814964
 20
128.5114559928
 10
372.2566228573
 20
129.4163678137
 10
374.0037408226
 20
130.369002763
 10
375.6983022382
 20
131.3679796112
 10
377.3378501523
 20
132.4118499373
 10
378.9200073769
 20
133.4991002293
 10
380.4424799354
 20
134.628154078
 10
381.9030603881
 20
135.7973744634
 10
383.299631033
 20
137.0050661276
 10
384.6301669762
 20
138.2494780332
 10
385.8927390678
 20
139.528805902
 10
387.0855166989
 20
140.8411948308
 10
388.206770456
 20
142.1847419811
 10
388.5240357482
 20
142.587267715
  0
LWPOLYLINE
  5
300
330
1F
100
AcDbEntity
  8
0
  6
Continuous
 62
     8
370
    18
100
AcDbPolyline
 90
        3
 70
   128
 43
0.0
 10
294.0245480896
 20
189.3150837292
 10
294.1136813301
 20
189.386603148
 10
294.338450186
 20
189.5654842802
  0
LINE
  5
301
330
1F
100
AcDbEntity
  8
0
  6
Continuous
 62
     8
370
    18
100
AcDbLine
 10
381.1724590676
 20
189.5654842802
 30
0.0
 11
381.486361164
 21
189.3150837292
 31
0.0
  0
LWPOLYLINE
  5
302
330
1F
100
AcDbEntity
  8
0
  6
Continuous
 62
     8
370
    18
100
AcDbPolyline
 90
       84
 70
   128
 43
0.0
 10
395.9803144603
 20
161.6189136476
 10
395.9742134423
 20
161.3442214164
 10
395.8898018078
 20
159.7775374591
 10
395.7211009276
 20
158.2142616388
 10
395.4683554018
 20
156.6566605558
 10
395.1319316873
 20
155.106992583
 10
394.7123175663
 20
153.5675045906
 10
394.2101214391
 20
152.0404286891
 10
393.6260714423
 20
150.5279789926
 10
392.9610143923
 20
149.0323484085
 10
392.2159145583
 20
147.5557054581
 10
391.3918522639
 20
146.1001911327
 10
390.4900223207
 20
144.6679157889
 10
389.5117322957
 20
143.2609560888
 10
388.4584006161
 20
141.8813519897
 10
387.3315545121
 20
140.5311037855
 10
386.1328278027
 20
139.2121692071
 10
384.8639585272
 20
137.9264605835
 10
383.5267864246
 20
136.6758420694
 10
382.1232502667
 20
135.4621269419
 10
380.6553850467
 20
134.287074972
 10
379.1253190289
 20
133.1523898727
 10
377.5352706627
 20
132.0597168289
 10
375.8875453663
 20
131.0106401122
 10
374.1845321837
 20
130.0066807833
 10
372.4287003213
 20
129.0492944875
 10
370.6225955675
 20
128.1398693432
 10
368.7688366014
 20
127.27972393
 10
366.8701111964
 20
126.4701053765
 10
364.9291723227
 20
125.7121875523
 10
362.9488341563
 20
125.0070693656
 10
360.931967998
 20
124.3557731705
 10
358.881498111
 20
123.7592432842
 10
356.8003974806
 20
123.218344618
 10
354.6916835038
 20
122.7338614233
 10
352.5584136143
 20
122.3064961543
 10
350.4036808494
 20
121.9368684498
 10
348.2306093657
 20
121.6255142347
 10
346.042349909
 20
121.3728849429
 10
343.8420752464
 20
121.1793468626
 10
341.6329755658
 20
121.0451806055
 10
339.4182538505
 20
120.9705807
 10
337.2011212353
 20
120.9556553087
 10
334.9847923506
 20
121.000426072
 10
332.7724806612
 20
121.1048280766
 10
330.5673938078
 20
121.2687099496
 10
328.3727289553
 20
121.4918340779
 10
326.191668158
 20
121.7738769529
 10
324.0273737457
 20
122.1144296394
 10
321.8829837382
 20
122.5129983685
 10
319.761607296
 20
122.9690052537
 10
317.6663202123
 20
123.4817891286
 10
315.6001604529
 20
124.0506065055
 10
313.566123752
 20
124.6746326537
 10
311.5671592684
 20
125.352962795
 10
309.6061653094
 20
126.0846134154
 10
307.6859851288
 20
126.8685236915
 10
305.8094028043
 20
127.7035570283
 10
303.9791392009
 20
128.5885027074
 10
302.1978480258
 20
129.5220776422
 10
300.4681119809
 20
130.5029282381
 10
298.7924390181
 20
131.5296323556
 10
297.1732587031
 20
132.6007013719
 10
295.6129186925
 20
133.7145823393
 10
294.1136813301
 20
134.869660237
 10
292.6777203669
 20
136.0642603123
 10
291.3071178088
 20
137.2966505093
 10
290.0038608986
 20
138.5650439802
 10
288.7698392342
 20
139.8676016756
 10
287.606842029
 20
141.2024350114
 10
286.5165555179
 20
142.5676086069
 10
285.5005605119
 20
143.9611430908
 10
284.5603301069
 20
145.3810179715
 10
283.6972275469
 20
146.825174566
 10
282.9125042481
 20
148.2915189853
 10
282.2072979843
 20
149.7779251703
 10
281.5826312372
 20
151.282237974
 10
281.0394097139
 20
152.8022762868
 10
280.5784210336
 20
154.3358361983
 10
280.2003335858
 20
155.8806941934
 10
279.9056955612
 20
157.4346103755
 10
279.6949341567
 20
158.9953317149
 10
279.5683549563
 20
160.5605953147
 10
279.5305947934
 20
161.6189136476
  0
LINE
  5
303
330
1F
100
AcDbEntity
  8
0
  6
Continuous
 62
     8
370
    18
100
AcDbLine
 10
381.6521959233
 20
189.0571595614
 30
0.0
 11
381.9543937191
 21
188.8081575027
 31
0.0
  0
LWPOLYLINE
  5
304
330
1F
100
AcDbEntity
  8
0
  6
Continuous
 62
     8
370
    18
100
AcDbPolyline
 90
       72
 70
   128
 43
0.0
 10
394.2110119349
 20
152.666432329
 10
393.8928662108
 20
151.7696181418
 10
393.2904002477
 20
150.26596004
 10
392.6074139228
 20
148.7796104359
 10
391.8448975008
 20
147.3127243945
 10
391.0039565575
 20
145.8674287603
 10
390.0858103771
 20
144.4458190736
 10
389.0917901837
 20
143.0499565328
 10
388.0233372116
 20
141.6818650049
 10
386.8820006153
 20
140.343528092
 10
385.669435224
 20
139.0368862546
 10
384.3873991413
 20
137.7638339985
 10
383.0377511972
 20
136.5262171277
 10
381.6224482521
 20
135.3258300683
 10
380.1435423599
 20
134.164413267
 10
378.6031777929
 20
133.0436506669
 10
377.0035879324
 20
131.9651672667
 10
375.3470920307
 20
130.9305267642
 10
373.6360918486
 20
129.9412292893
 10
371.8730681728
 20
128.9987092287
 10
370.060577219
 20
128.1043331464
 10
368.2012469258
 20
127.2593978022
 10
366.2977731444
 20
126.4651282716
 10
364.3529157299
 20
125.7226761695
 10
362.3694945395
 20
125.0331179803
 10
360.3503853443
 20
124.3974534977
 10
358.2985156598
 20
123.8166043743
 10
356.2168605006
 20
123.2914127858
 10
354.1084380679
 20
122.8226402098
 10
351.9763053725
 20
122.4109663218
 10
349.8235538031
 20
122.0569880094
 10
347.6533046436
 20
121.7612185075
 10
345.4687045478
 20
121.5240866535
 10
343.272920977
 20
121.345936266
 10
341.0691376075
 20
121.2270256459
 10
338.8605497145
 20
121.1675272024
 10
336.6503595392
 20
121.1675272024
 10
334.4417716461
 20
121.2270256459
 10
332.2379882766
 20
121.345936266
 10
330.0422047059
 20
121.5240866535
 10
327.8576046101
 20
121.7612185075
 10
325.6873554506
 20
122.0569880094
 10
323.5346038811
 20
122.4109663218
 10
321.4024711858
 20
122.8226402098
 10
319.294048753
 20
123.2914127858
 10
317.2123935939
 20
123.8166043743
 10
315.1605239093
 20
124.3974534977
 10
313.1414147142
 20
125.0331179803
 10
311.1579935238
 20
125.7226761695
 10
309.2131361092
 20
126.4651282716
 10
307.3096623279
 20
127.2593978022
 10
305.4503320347
 20
128.1043331464
 10
303.6378410809
 20
128.9987092287
 10
301.874817405
 20
129.9412292893
 10
300.1638172229
 20
130.9305267642
 10
298.5073213212
 20
131.9651672667
 10
296.9077314607
 20
133.0436506669
 10
295.3673668937
 20
134.164413267
 10
293.8884610016
 20
135.3258300683
 10
292.4731580564
 20
136.5262171277
 10
291.1235101123
 20
137.7638339985
 10
289.8414740297
 20
139.0368862546
 10
288.6289086383
 20
140.343528092
 10
287.487572042
 20
141.6818650049
 10
286.4191190699
 20
143.0499565328
 10
285.4250988765
 20
144.4458190736
 10
284.5069526961
 20
145.8674287603
 10
283.6660117529
 20
147.3127243945
 10
282.9034953308
 20
148.7796104359
 10
282.2205090059
 20
150.26596004
 10
281.6180430429
 20
151.7696181418
 10
281.2998973188
 20
152.666432329
  0
LWPOLYLINE
  5
305
330
1F
100
AcDbEntity
  8
0
  6
Continuous
 62
     8
370
    18
100
AcDbPolyline
 90
       29
 70
   128
 43
0.0
 10
337.7554546268
 20
202.4098883042
 10
339.8574582105
 20
202.3799517062
 10
341.9560523367
 20
202.2901904697
 10
344.047833078
 20
202.1407501877
 10
346.1294075585
 20
201.9318732529
 10
348.1973994567
 20
201.6638984643
 10
350.2484544822
 20
201.3372604782
 10
352.2792458162
 20
200.9524891025
 10
354.2864795079
 20
200.5102084378
 10
356.2668998167
 20
200.0111358649
 10
358.2172944937
 20
199.4560808814
 10
360.1344999916
 20
198.8459437885
 10
362.0154065962
 20
198.1817142308
 10
363.8569634699
 20
197.464469591
 10
365.6561836008
 20
196.6953732427
 10
367.4101486473
 20
195.8756726628
 10
369.1160136716
 20
195.0066974088
 10
370.7710117545
 20
194.0898569616
 10
372.372458483
 20
193.1266384398
 10
373.9177563047
 20
192.1186041874
 10
375.4043987408
 20
191.0673892396
 10
376.8299744518
 20
189.974698671
 10
378.1921711488
 20
188.8423048296
 10
379.4887793438
 20
187.6720444623
 10
380.7176959334
 20
186.4658157358
 10
381.8769276106
 20
185.2255751575
 10
382.9645940972
 20
183.953334402
 10
383.9789311943
 20
182.6511570487
 10
384.8271659877
 20
181.456245483
  0
LWPOLYLINE
  5
306
330
1F
100
AcDbEntity
  8
0
  6
Continuous
 62
     8
370
    18
100
AcDbPolyline
 90
       29
 70
   128
 43
0.0
 10
290.6837432659
 20
181.456245483
 10
291.5319780594
 20
182.6511570487
 10
292.5463151565
 20
183.953334402
 10
293.6339816431
 20
185.2255751575
 10
294.7932133202
 20
186.4658157358
 10
296.0221299098
 20
187.6720444623
 10
297.3187381048
 20
188.8423048296
 10
298.6809348018
 20
189.974698671
 10
300.1065105129
 20
191.0673892396
 10
301.593152949
 20
192.1186041874
 10
303.1384507706
 20
193.1266384398
 10
304.7398974991
 20
194.0898569616
 10
306.394895582
 20
195.0066974088
 10
308.1007606064
 20
195.8756726628
 10
309.8547256529
 20
196.6953732427
 10
311.6539457838
 20
197.464469591
 10
313.4955026575
 20
198.1817142308
 10
315.376409262
 20
198.8459437885
 10
317.2936147599
 20
199.4560808814
 10
319.244009437
 20
200.0111358649
 10
321.2244297458
 20
200.5102084378
 10
323.2316634374
 20
200.9524891025
 10
325.2624547715
 20
201.3372604782
 10
327.313509797
 20
201.6638984643
 10
329.3815016952
 20
201.9318732529
 10
331.4630761756
 20
202.1407501877
 10
333.554856917
 20
202.2901904697
 10
335.6534510431
 20
202.3799517062
 10
337.7554546268
 20
202.4098883042
  0
LWPOLYLINE
  5
307
330
1F
100
AcDbEntity
  8
0
  6
Continuous
 62
     8
370
    18
100
AcDbPolyline
 90
        3
 70
   128
 43
0.0
 10
315.8814347487
 20
198.4859565783
 10
314.8304765159
 20
198.1551219413
 10
313.9308961262
 20
197.856974905
  0
LINE
  5
308
330
1F
100
AcDbEntity
  8
0
  6
Continuous
 62
     8
370
    18
100
AcDbLine
 10
286.7286466887
 20
177.4042257939
 30
0.0
 11
286.6347942944
 21
177.2398387946
 31
0.0
  0
LINE
  5
309
330
1F
100
AcDbEntity
  8
0
  6
Continuous
 62
     8
370
    18
100
AcDbLine
 10
388.8761149592
 20
177.2398387946
 30
0.0
 11
388.782262565
 21
177.4042257939
 31
0.0
  0
LWPOLYLINE
  5
30A
330
1F
100
AcDbEntity
  8
0
  6
Continuous
 62
     8
370
    18
100
AcDbPolyline
 90
        3
 70
   128
 43
0.0
 10
361.5800131274
 20
197.856974905
 10
360.6804327377
 20
198.1551219413
 10
359.6294745049
 20
198.4859565783
  0
LWPOLYLINE
  5
30B
330
1F
100
AcDbEntity
  8
0
  6
Continuous
 62
     8
370
    18
100
AcDbPolyline
 90
       63
 70
   128
 43
0.0
 10
386.6778916931
 20
177.9831327179
 10
386.431491299
 20
178.4521312494
 10
385.6486901588
 20
179.8274645248
 10
384.7882060155
 20
181.1793942383
 10
383.8514345774
 20
182.5057275552
 10
382.8398952913
 20
183.8043131578
 10
381.7552288775
 20
185.0730447355
 10
380.599194669
 20
186.3098644011
 10
379.3736677575
 20
187.5127660287
 10
378.0806359521
 20
188.6797985072
 10
376.7221965551
 20
189.8090689059
 10
375.3005529603
 20
190.8987455439
 10
373.8180110786
 20
191.9470609619
 10
372.2769755985
 20
192.9523147882
 10
370.6799460851
 20
193.9128764977
 10
369.0295129262
 20
194.8271880555
 10
367.3283531303
 20
195.6937664452
 10
365.579225985
 20
196.5112060733
 10
363.7849685807
 20
197.2781810498
 10
361.9484912096
 20
197.9934473385
 10
360.0727726448
 20
198.6558447748
 10
358.1608553084
 20
199.2642989476
 10
356.2158403376
 20
199.8178229422
 10
354.2408825536
 20
200.3155189404
 10
352.2391853453
 20
200.7565796777
 10
350.2139954727
 20
201.1402897518
 10
348.1685978014
 20
201.4660267837
 10
346.1063099737
 20
201.7332624266
 10
344.0304770281
 20
201.9415632235
 10
341.9444659733
 20
202.0905913095
 10
339.8516603267
 20
202.1801049607
 10
337.7554546268
 20
202.2099589855
 10
335.6592489269
 20
202.1801049607
 10
333.5664432804
 20
202.0905913095
 10
331.4804322255
 20
201.9415632235
 10
329.4045992799
 20
201.7332624266
 10
327.3423114523
 20
201.4660267837
 10
325.2969137809
 20
201.1402897518
 10
323.2717239084
 20
200.7565796777
 10
321.2700267
 20
200.3155189404
 10
319.295068916
 20
199.8178229422
 10
317.3500539452
 20
199.2642989476
 10
315.4381366089
 20
198.6558447748
 10
313.562418044
 20
197.9934473385
 10
311.7259406729
 20
197.2781810498
 10
309.9316832687
 20
196.5112060733
 10
308.1825561233
 20
195.6937664452
 10
306.4813963275
 20
194.8271880555
 10
304.8309631685
 20
193.9128764977
 10
303.2339336552
 20
192.9523147882
 10
301.6928981751
 20
191.9470609619
 10
300.2103562934
 20
190.8987455439
 10
298.7887126985
 20
189.8090689059
 10
297.4302733015
 20
188.6797985072
 10
296.1372414961
 20
187.5127660287
 10
294.9117145846
 20
186.3098644011
 10
293.7556803761
 20
185.0730447355
 10
292.6710139624
 20
183.8043131578
 10
291.6594746762
 20
182.5057275552
 10
290.7227032381
 20
181.1793942383
 10
289.8622190948
 20
179.8274645248
 10
289.0794179546
 20
178.4521312494
 10
288.8330175605
 20
177.9831327179
  0
LWPOLYLINE
  5
30C
330
1F
100
AcDbEntity
  8
0
  6
Continuous
 62
     8
370
    18
100
AcDbPolyline
 90
       33
 70
   128
 43
0.0
 10
337.7554546268
 20
202.0259381776
 10
339.849381508
 20
201.9961166076
 10
341.939912032
 20
201.9067002681
 10
344.0236553509
 20
201.7578341929
 10
346.0972316253
 20
201.5497598432
 10
348.1572775069
 20
201.2828147164
 10
350.2004515937
 20
200.9574317984
 10
352.2234398499
 20
200.5741388617
 10
354.2229609812
 20
200.1335576086
 10
356.195771757
 20
199.6364026636
 10
358.138672271
 20
199.0834804138
 10
360.0485111314
 20
198.4756877013
 10
361.9221905726
 20
197.8140103678
 10
363.7566714797
 20
197.0995216566
 10
365.5489783181
 20
196.3333804708
 10
367.2962039593
 20
195.5168294944
 10
368.9955143971
 20
194.651193176
 10
370.6441533438
 20
193.7378755808
 10
372.2394467008
 20
192.7783581134
 10
373.7788068966
 20
191.7741971145
 10
375.2597370833
 20
190.7270213371
 10
376.6798351867
 20
189.6385293039
 10
378.0367978025
 20
188.5104865532
 10
379.3284239323
 20
187.3447227743
 10
380.5526185539
 20
186.1431288404
 10
381.7073960191
 20
184.9076537412
 10
382.7908832747
 20
183.6403014218
 10
383.8013229003
 20
182.3431275324
 10
384.7370759591
 20
181.0182360938
 10
385.5966246564
 20
179.6677760846
 10
386.3785748009
 20
178.293937956
 10
387.0816580667
 20
176.8989500785
 10
387.4801413431
 20
176.0182291846
  0
LWPOLYLINE
  5
30D
330
1F
100
AcDbEntity
  8
0
  6
Continuous
 62
     8
370
    18
100
AcDbPolyline
 90
       33
 70
   128
 43
0.0
 10
288.0307679105
 20
176.0182291846
 10
288.4292511869
 20
176.8989500785
 10
289.1323344527
 20
178.293937956
 10
289.9142845972
 20
179.6677760846
 10
290.7738332945
 20
181.0182360938
 10
291.7095863534
 20
182.3431275324
 10
292.720025979
 20
183.6403014218
 10
293.8035132345
 20
184.9076537412
 10
294.9582906997
 20
186.1431288404
 10
296.1824853213
 20
187.3447227743
 10
297.4741114512
 20
188.5104865532
 10
298.831074067
 20
189.6385293039
 10
300.2511721703
 20
190.7270213371
 10
301.732102357
 20
191.7741971145
 10
303.2714625528
 20
192.7783581134
 10
304.8667559099
 20
193.7378755808
 10
306.5153948565
 20
194.651193176
 10
308.2147052943
 20
195.5168294944
 10
309.9619309356
 20
196.3333804708
 10
311.7542377739
 20
197.0995216566
 10
313.5887186811
 20
197.8140103678
 10
315.4623981223
 20
198.4756877013
 10
317.3722369827
 20
199.0834804138
 10
319.3151374966
 20
199.6364026636
 10
321.2879482724
 20
200.1335576086
 10
323.2874694037
 20
200.5741388617
 10
325.3104576599
 20
200.9574317984
 10
327.3536317468
 20
201.2828147164
 10
329.4136776283
 20
201.5497598432
 10
331.4872539027
 20
201.7578341929
 10
333.5709972216
 20
201.9067002681
 10
335.6615277457
 20
201.9961166076
 10
337.7554546268
 20
202.0259381776
  0
LWPOLYLINE
  5
30E
330
1F
100
AcDbEntity
  8
0
  6
Continuous
 62
     8
370
    18
100
AcDbPolyline
 90
       69
 70
   128
 43
0.0
 10
286.9892596691
 20
172.4303519235
 10
287.3462953801
 20
173.5266605239
 10
287.8874712116
 20
174.9548010484
 10
288.5095330945
 20
176.3663748174
 10
289.2114720422
 20
177.7590922528
 10
289.9921495072
 20
179.1306943621
 10
290.8502992278
 20
180.4789564014
 10
291.7845292819
 20
181.801691485
 10
292.7933243451
 20
183.0967541315
 10
293.875048148
 20
184.3620437447
 10
295.0279461307
 20
185.5955080203
 10
296.2501482884
 20
186.7951462745
 10
297.5396722048
 20
187.9590126899
 10
298.8944262673
 20
189.0852194707
 10
300.3122130599
 20
190.1719399056
 10
301.7907329273
 20
191.2174113299
 10
303.3275877048
 20
192.2199379853
 10
304.9202846083
 20
193.1778937697
 10
306.5662402777
 20
194.0897248755
 10
308.2627849668
 20
194.9539523092
 10
310.007166874
 20
195.7691742908
 10
311.7965566053
 20
196.5340685272
 10
313.6280517642
 20
197.2473943572
 10
315.4986816588
 20
197.9079947637
 10
317.4054121204
 20
198.5147982503
 10
319.3451504255
 20
199.0668205798
 10
321.3147503113
 20
199.5631663697
 10
323.3110170796
 20
200.0030305454
 10
325.3307127784
 20
200.3856996457
 10
327.370561454
 20
200.7105529797
 10
329.4272544643
 20
200.9770636343
 10
331.4974558456
 20
201.1847993282
 10
333.5778077239
 20
201.3334231133
 10
335.6649357607
 20
201.4226939213
 10
337.7554546268
 20
201.4524669546
 10
339.8459734929
 20
201.4226939213
 10
341.9331015297
 20
201.3334231133
 10
344.013453408
 20
201.1847993282
 10
346.0836547894
 20
200.9770636343
 10
348.1403477996
 20
200.7105529797
 10
350.1801964752
 20
200.3856996457
 10
352.199892174
 20
200.0030305454
 10
354.1961589423
 20
199.5631663697
 10
356.1657588281
 20
199.0668205798
 10
358.1054971332
 20
198.5147982503
 10
360.0122275949
 20
197.9079947637
 10
361.8828574894
 20
197.2473943572
 10
363.7143526483
 20
196.5340685272
 10
365.5037423797
 20
195.7691742908
 10
367.2481242868
 20
194.9539523092
 10
368.9446689759
 20
194.0897248755
 10
370.5906246453
 20
193.1778937697
 10
372.1833215488
 20
192.2199379853
 10
373.7201763263
 20
191.2174113299
 10
375.1986961937
 20
190.1719399056
 10
376.6164829863
 20
189.0852194707
 10
377.9712370489
 20
187.9590126899
 10
379.2607609652
 20
186.7951462745
 10
380.4829631229
 20
185.5955080203
 10
381.6358611056
 20
184.3620437447
 10
382.7175849085
 20
183.0967541315
 10
383.7263799717
 20
181.801691485
 10
384.6606100259
 20
180.4789564014
 10
385.5187597464
 20
179.1306943621
 10
386.2994372114
 20
177.7590922528
 10
387.0013761592
 20
176.3663748174
 10
387.6234380421
 20
174.9548010484
 10
388.1646138735
 20
173.5266605239
 10
388.5216495846
 20
172.4303519235
  0
LWPOLYLINE
  5
30F
330
1F
100
AcDbEntity
  8
0
  6
Continuous
 62
     8
370
    18
100
AcDbPolyline
 90
        3
 70
   128
 43
0.0
 10
311.0713521898
 20
196.7342005679
 10
312.4136435267
 20
197.2427713483
 10
312.6281525415
 20
197.3209450009
  0
LWPOLYLINE
  5
310
330
1F
100
AcDbEntity
  8
0
  6
Continuous
 62
     8
370
    18
100
AcDbPolyline
 90
        3
 70
   128
 43
0.0
 10
362.8827567122
 20
197.3209450009
 10
364.0467122436
 20
196.8865493621
 10
364.4395570638
 20
196.7342005679
  0
LWPOLYLINE
  5
311
330
1F
100
AcDbEntity
  8
0
  6
Continuous
 62
     8
370
    18
100
AcDbPolyline
 90
        3
 70
   128
 43
0.0
 10
311.198971601
 20
196.7428067193
 10
310.9452917909
 20
196.6437113684
 10
309.8304376286
 20
196.1934246891
  0
LWPOLYLINE
  5
312
330
1F
100
AcDbEntity
  8
0
  6
Continuous
 62
     8
370
    18
100
AcDbPolyline
 90
        3
 70
   128
 43
0.0
 10
365.680471625
 20
196.1934246891
 10
364.5656174628
 20
196.6437113684
 10
364.3119376527
 20
196.7428067193
  0
LWPOLYLINE
  5
313
330
1F
100
AcDbEntity
  8
0
  6
Continuous
 62
     8
370
    18
100
AcDbPolyline
 90
        3
 70
   128
 43
0.0
 10
366.6069093038
 20
195.7670900433
 10
365.9741450545
 20
196.0373070943
 10
365.342249189
 20
196.2990893662
  0
LINE
  5
314
330
1F
100
AcDbEntity
  8
0
  6
Continuous
 62
     8
370
    18
100
AcDbLine
 10
310.1686600646
 20
196.2990893662
 30
0.0
 11
308.9039999499
 21
195.7670900433
 31
0.0
  0
LWPOLYLINE
  5
315
330
1F
100
AcDbEntity
  8
0
  6
Continuous
 62
     8
370
    18
100
AcDbPolyline
 90
       37
 70
   128
 43
0.0
 10
337.7554546268
 20
201.2829661099
 10
335.6709778177
 20
201.2532791272
 10
333.5898820375
 20
201.1642663313
 10
331.5155428313
 20
201.0160721015
 10
329.4513247849
 20
200.8089368092
 10
327.4005760674
 20
200.5431964287
 10
325.3666230008
 20
200.2192819918
 10
323.3527646644
 20
199.837718889
 10
321.3622675439
 20
199.399126017
 10
319.3983602327
 20
198.904214775
 10
317.4642281957
 20
198.3537879109
 10
315.5630086022
 20
197.7487382191
 10
313.6977852374
 20
197.0900470923
 10
311.8715835002
 20
196.37878293
 10
310.0873654967
 20
195.6160994053
 10
308.3480252349
 20
194.8032335936
 10
306.6563839311
 20
193.9415039663
 10
305.0151854337
 20
193.0323082519
 10
303.4270917727
 20
192.0771211693
 10
301.8946788418
 20
191.0774920353
 10
300.4204322203
 20
190.0350422521
 10
299.0067431417
 20
188.9514626771
 10
297.6559046148
 20
187.8285108802
 10
296.3701077047
 20
186.6680082934
 10
295.1514379787
 20
185.4718372562
 10
294.0018721234
 20
184.2419379623
 10
292.923274739
 20
182.9803053129
 10
291.9173953142
 20
181.6889856808
 10
290.9858653893
 20
180.370073591
 10
290.1301959092
 20
179.025708324
 10
289.3517747729
 20
177.6580704449
 10
288.6518645823
 20
176.2693782675
 10
288.0316005943
 20
174.8618842556
 10
287.4919888794
 20
173.4378713696
 10
287.0339046898
 20
171.9996493637
 10
286.6580910396
 20
170.549551039
 10
286.6438951038
 20
170.4874474868
  0
LWPOLYLINE
  5
316
330
1F
100
AcDbEntity
  8
0
  6
Continuous
 62
     8
370
    18
100
AcDbPolyline
 90
       37
 70
   128
 43
0.0
 10
388.8670141498
 20
170.4874474868
 10
388.852818214
 20
170.549551039
 10
388.4770045639
 20
171.9996493637
 10
388.0189203742
 20
173.4378713696
 10
387.4793086593
 20
174.8618842556
 10
386.8590446713
 20
176.2693782675
 10
386.1591344807
 20
177.6580704449
 10
385.3807133444
 20
179.025708324
 10
384.5250438643
 20
180.370073591
 10
383.5935139394
 20
181.6889856808
 10
382.5876345147
 20
182.9803053129
 10
381.5090371302
 20
184.2419379623
 10
380.359471275
 20
185.4718372562
 10
379.1408015489
 20
186.6680082934
 10
377.8550046388
 20
187.8285108802
 10
376.5041661119
 20
188.9514626771
 10
375.0904770333
 20
190.0350422521
 10
373.6162304118
 20
191.0774920353
 10
372.0838174809
 20
192.0771211693
 10
370.4957238199
 20
193.0323082519
 10
368.8545253225
 20
193.9415039663
 10
367.1628840187
 20
194.8032335936
 10
365.423543757
 20
195.6160994053
 10
363.6393257534
 20
196.37878293
 10
361.8131240163
 20
197.0900470923
 10
359.9479006514
 20
197.7487382191
 10
358.0466810579
 20
198.3537879109
 10
356.112549021
 20
198.904214775
 10
354.1486417098
 20
199.399126017
 10
352.1581445892
 20
199.837718889
 10
350.1442862528
 20
200.2192819918
 10
348.1103331862
 20
200.5431964287
 10
346.0595844688
 20
200.8089368092
 10
343.9953664223
 20
201.0160721015
 10
341.9210272161
 20
201.1642663313
 10
339.839931436
 20
201.2532791272
 10
337.7554546268
 20
201.2829661099
  0
LWPOLYLINE
  5
317
330
1F
100
AcDbEntity
  8
0
  6
Continuous
 62
     8
370
    18
100
AcDbPolyline
 90
       76
 70
   128
 43
0.0
 10
389.1137561363
 20
166.9837054847
 10
388.9484851331
 20
168.4117991915
 10
388.6954611619
 20
169.875758141
 10
388.3587428938
 20
171.3312638175
 10
387.9388835559
 20
172.7759248293
 10
387.436572976
 20
174.2073676019
 10
386.8526364492
 20
175.6232402787
 10
386.1880333816
 20
177.0212165846
 10
385.4438557142
 20
178.3989996482
 10
384.621326129
 20
179.7543257755
 10
383.7217960401
 20
181.0849681693
 10
382.7467433729
 20
182.3887405875
 10
381.6977701364
 20
183.6635009357
 10
380.5765997909
 20
184.9071547858
 10
379.3850744164
 20
186.1176588178
 10
378.1251516858
 20
187.2930241768
 10
376.798901649
 20
188.4313197406
 10
375.4085033313
 20
189.5306752925
 10
373.9562411534
 20
190.5892845943
 10
372.4445011783
 20
191.6054083537
 10
370.8757671908
 20
192.5773770821
 10
369.2526166167
 20
193.5035938372
 10
367.5777162881
 20
194.3825368475
 10
365.853818062
 20
195.2127620119
 10
364.0837542985
 20
195.9929052726
 10
362.2704332078
 20
196.7216848563
 10
360.4168340717
 20
197.39790338
 10
358.5260023486
 20
198.0204498186
 10
356.6010446702
 20
198.5883013297
 10
354.6451237368
 20
199.100524935
 10
352.6614531214
 20
199.5562790523
 10
350.6532919897
 20
199.9548148788
 10
348.623939745
 20
200.2954776212
 10
346.5767306078
 20
200.5777075715
 10
344.5150281373
 20
200.8010410267
 10
342.4422197053
 20
200.9651110505
 10
340.3617109305
 20
201.0696480763
 10
338.2769200836
 20
201.1144803499
 10
336.1912724702
 20
201.0995342121
 10
334.108194804
 20
201.0248342193
 10
332.0311095761
 20
200.8905031036
 10
329.9634294321
 20
200.6967615704
 10
327.9085515651
 20
200.4439279366
 10
325.8698521339
 20
200.1324176074
 10
323.8506807164
 20
199.7627423932
 10
321.8543548059
 20
199.3355096695
 10
319.8841543607
 20
198.8514213785
 10
317.9433164149
 20
198.3112728761
 10
316.0350297602
 20
197.7159516248
 10
314.1624297064
 20
197.0664357358
 10
312.3285929307
 20
196.3637923621
 10
310.536532422
 20
195.6091759449
 10
308.789192531
 20
194.803826317
 10
307.0894441325
 20
193.9490666656
 10
305.4400799088
 20
193.0463013587
 10
303.8438097609
 20
192.0970136373
 10
302.3032563564
 20
191.1027631786
 10
300.8209508206
 20
190.0651835335
 10
299.3993285776
 20
188.9859794427
 10
298.040725349
 20
187.8669240356
 10
296.7473733163
 20
186.7098559173
 10
295.5213974535
 20
185.5166761477
 10
294.3648120357
 20
184.2893451181
 10
293.2795173298
 20
183.02987933
 10
292.2672964721
 20
181.7403480826
 10
291.3298125388
 20
180.4228700721
 10
290.4686058135
 20
179.0796099116
 10
289.6850912567
 20
177.712774574
 10
288.9805561807
 20
176.3246097661
 10
288.3561581347
 20
174.917396239
 10
287.8129230032
 20
173.493446041
 10
287.3517433199
 20
172.0550987184
 10
286.9733768021
 20
170.604717472
 10
286.6784451047
 20
169.1446852746
 10
286.4674327998
 20
167.6774009551
 10
286.3971531173
 20
166.9837054847
  0
LWPOLYLINE
  5
318
330
1F
100
AcDbEntity
  8
0
  6
Continuous
 62
     8
370
    18
100
AcDbPolyline
 90
       34
 70
   128
 43
0.0
 10
337.7554546268
 20
200.8315096248
 10
339.8326552687
 20
200.8017353563
 10
341.9064430754
 20
200.7124614698
 10
343.973410819
 20
200.5638346421
 10
346.0301624769
 20
200.3560990666
 10
348.0733188115
 20
200.0895960524
 10
350.0995229223
 20
199.7647634632
 10
352.1054457613
 20
199.3821349981
 10
354.0877916026
 20
198.9423393146
 10
356.0433034572
 20
198.446098996
 10
357.9687684241
 20
197.8942293638
 10
359.8610229695
 20
197.2876371383
 10
361.7169581242
 20
196.6273189489
 10
363.5335245915
 20
195.9143596967
 10
365.3077377576
 20
195.1499307719
 10
367.0366825949
 20
194.3352881292
 10
368.7175184515
 20
193.4717702244
 10
370.3474837185
 20
192.560795815
 10
371.9239003673
 20
191.6038616296
 10
373.4441783495
 20
190.6025399087
 10
374.9058198523
 20
189.5584758211
 10
376.3064234026
 20
188.4733847614
 10
377.6436878124
 20
187.3490495313
 10
378.9154159598
 20
186.1873174108
 10
380.1195183988
 20
184.9900971225
 10
381.2540167923
 20
183.7593556964
 10
382.3170471624
 20
182.4971152373
 10
383.306862953
 20
181.205449603
 10
384.2218378993
 20
179.8864809968
 10
385.0604686998
 20
178.5423764805
 10
385.8213774865
 20
177.1753444145
 10
386.5033140881
 20
175.7876308287
 10
387.1051580846
 20
174.3815157331
 10
387.3692567468
 20
173.6899418399
  0
LWPOLYLINE
  5
319
330
1F
100
AcDbEntity
  8
0
  6
Continuous
 62
     8
370
    18
100
AcDbPolyline
 90
       34
 70
   128
 43
0.0
 10
288.1416525068
 20
173.6899418399
 10
288.405751169
 20
174.3815157331
 10
289.0075951655
 20
175.7876308287
 10
289.6895317671
 20
177.1753444145
 10
290.4504405538
 20
178.5423764805
 10
291.2890713544
 20
179.8864809968
 10
292.2040463007
 20
181.205449603
 10
293.1938620912
 20
182.4971152373
 10
294.2568924613
 20
183.7593556964
 10
295.3913908548
 20
184.9900971225
 10
296.5954932938
 20
186.1873174108
 10
297.8672214413
 20
187.3490495313
 10
299.2044858511
 20
188.4733847614
 10
300.6050894014
 20
189.5584758211
 10
302.0667309042
 20
190.6025399087
 10
303.5870088863
 20
191.6038616296
 10
305.1634255351
 20
192.560795815
 10
306.7933908022
 20
193.4717702244
 10
308.4742266588
 20
194.3352881292
 10
310.203171496
 20
195.1499307719
 10
311.9773846621
 20
195.9143596967
 10
313.7939511295
 20
196.6273189489
 10
315.6498862841
 20
197.2876371383
 10
317.5421408296
 20
197.8942293638
 10
319.4676057965
 20
198.446098996
 10
321.423117651
 20
198.9423393146
 10
323.4054634923
 20
199.3821349981
 10
325.4113863313
 20
199.7647634632
 10
327.4375904422
 20
200.0895960524
 10
329.4807467768
 20
200.3560990666
 10
331.5374984347
 20
200.5638346421
 10
333.6044661782
 20
200.7124614698
 10
335.6782539849
 20
200.8017353563
 10
337.7554546268
 20
200.8315096248
  0
LWPOLYLINE
  5
31A
330
1F
100
AcDbEntity
  8
0
  6
Continuous
 62
     8
370
    18
100
AcDbPolyline
 90
       67
 70
   128
 43
0.0
 10
288.0672900867
 20
173.484814839
 10
288.3993495216
 20
174.3275595055
 10
289.0232016363
 20
175.7335426607
 10
289.7271207148
 20
177.1204937517
 10
290.5099502197
 20
178.4861340214
 10
291.3704039644
 20
179.8282197266
 10
292.3070682255
 20
181.1445458238
 10
293.3184040661
 20
182.4329495928
 10
294.4027498641
 20
183.6913141896
 10
295.5583240422
 20
184.9175721244
 10
296.783227995
 20
186.1097086587
 10
298.0754492086
 20
187.2657651152
 10
299.4328645669
 20
188.3838420964
 10
300.8532438401
 20
189.4621026045
 10
302.3342533487
 20
190.4987750605
 10
303.8734597979
 20
191.4921562142
 10
305.4683342758
 20
192.4406139429
 10
307.1162564075
 20
193.3425899332
 10
308.8145186615
 20
194.1966022408
 10
310.5603307973
 20
195.0012477258
 10
312.3508244502
 20
195.7552043577
 10
314.1830578437
 20
196.4572333878
 10
316.0540206232
 20
197.1061813842
 10
317.9606388018
 20
197.7009821271
 10
319.8997798109
 20
198.2406583604
 10
321.8682576467
 20
198.7243233974
 10
323.8628381055
 20
199.1511825779
 10
325.8802440968
 20
199.5205345732
 10
327.9171610278
 20
199.831772539
 10
329.9702422493
 20
200.0843851122
 10
332.0361145543
 20
200.277957251
 10
334.1113837201
 20
200.4121709168
 10
336.1926400847
 20
200.4868055969
 10
338.2764641496
 20
200.5017386668
 10
340.3594321972
 20
200.4569455915
 10
342.4381219165
 20
200.3524999658
 10
344.5091180257
 20
200.1885733937
 10
346.5690178837
 20
199.9654352061
 10
348.6144370804
 20
199.6834520185
 10
350.6420149974
 20
199.3430871284
 10
352.6484203296
 20
198.9448997545
 10
354.6303565582
 20
198.4895441176
 10
356.5845673673
 20
197.9777683659
 10
358.5078419936
 20
197.4104133455
 10
360.397020502
 20
196.7884112192
 10
362.248998977
 20
196.112783935
 10
364.060734623
 20
195.3846415466
 10
365.8292507631
 20
194.6051803902
 10
367.5516417298
 20
193.7756811182
 10
369.2250776393
 20
192.897506596
 10
370.8468090409
 20
191.9720996618
 10
372.414171434
 20
191.0009807568
 10
373.9245896464
 20
189.985745427
 10
375.375582065
 20
188.9280617012
 10
376.764764713
 20
187.829667351
 10
378.0898551669
 20
186.6923670355
 10
379.3486763067
 20
185.518029336
 10
380.5391598924
 20
184.3085836865
 10
381.6593499628
 20
183.0660172028
 10
382.7074060483
 20
181.7923714184
 10
383.6816061958
 20
180.4897389301
 10
384.5803497968
 20
179.1602599596
 10
385.402160218
 20
177.8061188373
 10
386.145687227
 20
176.4295404136
 10
386.8097092109
 20
175.0327864031
 10
387.3931351833
 20
173.6181516692
 10
387.443619167
 20
173.484814839
  0
LWPOLYLINE
  5
31B
330
1F
100
AcDbEntity
  8
0
  6
Continuous
 62
     8
370
    18
100
AcDbPolyline
 90
       39
 70
   128
 43
0.0
 10
337.7554546268
 20
200.2513621852
 10
339.8342422642
 20
200.2215651689
 10
341.9096144589
 20
200.1322230765
 10
343.97816138
 20
199.9834826969
 10
346.0364844101
 20
199.77558841
 10
348.0812017301
 20
199.5088817857
 10
350.1089538748
 20
199.1838010221
 10
352.1164092525
 20
198.8008802263
 10
354.1002696196
 20
198.3607485359
 10
356.0572754985
 20
197.8641290863
 10
357.9842115338
 20
197.3118378219
 10
359.8779117746
 20
196.7047821558
 10
361.7352648765
 20
196.0439594788
 10
363.553219213
 20
195.3304555209
 10
365.32878789
 20
194.5654425672
 10
367.059053653
 20
193.750177532
 10
368.7411736796
 20
192.8859998936
 10
370.3723842512
 20
191.9743294935
 10
371.9500052931
 20
191.0166642039
 10
373.471444778
 20
190.0145774663
 10
374.9342029849
 20
188.9697157066
 10
376.3358766059
 20
187.8837956299
 10
377.6741626949
 20
186.7586014001
 10
378.9468624513
 20
185.5959817083
 10
380.1518848328
 20
184.3978467355
 10
381.2872499908
 20
183.1661650146
 10
382.3510925234
 20
181.9029601952
 10
383.3416645399
 20
180.6103077195
 10
384.2573385333
 20
179.2903314122
 10
385.0966100536
 20
177.945199991
 10
385.8581001797
 20
176.5771235031
 10
386.5405577856
 20
175.1883496947
 10
387.142861595
 20
173.7811603175
 10
387.6640220245
 20
172.3578673799
 10
388.1031828088
 20
170.9208093485
 10
388.4596224079
 20
169.4723473059
 10
388.7327551924
 20
168.0148610714
 10
388.922132406
 20
166.550745291
 10
388.9765329372
 20
165.9354965272
  0
LWPOLYLINE
  5
31C
330
1F
100
AcDbEntity
  8
0
  6
Continuous
 62
     8
370
    18
100
AcDbPolyline
 90
       39
 70
   128
 43
0.0
 10
286.5343763164
 20
165.9354965272
 10
286.5887768476
 20
166.550745291
 10
286.7781540612
 20
168.0148610714
 10
287.0512868458
 20
169.4723473059
 10
287.4077264449
 20
170.9208093485
 10
287.8468872291
 20
172.3578673799
 10
288.3680476586
 20
173.7811603175
 10
288.9703514681
 20
175.1883496947
 10
289.6528090739
 20
176.5771235031
 10
290.4142992001
 20
177.945199991
 10
291.2535707203
 20
179.2903314123
 10
292.1692447137
 20
180.6103077195
 10
293.1598167303
 20
181.9029601952
 10
294.2236592628
 20
183.1661650146
 10
295.3590244208
 20
184.3978467355
 10
296.5640468024
 20
185.5959817083
 10
297.8367465588
 20
186.7586014001
 10
299.1750326477
 20
187.8837956299
 10
300.5767062687
 20
188.9697157066
 10
302.0394644756
 20
190.0145774663
 10
303.5609039605
 20
191.0166642039
 10
305.1385250024
 20
191.9743294935
 10
306.769735574
 20
192.8859998936
 10
308.4518556007
 20
193.750177532
 10
310.1821213636
 20
194.5654425672
 10
311.9576900406
 20
195.3304555209
 10
313.7756443772
 20
196.0439594788
 10
315.632997479
 20
196.7047821558
 10
317.5266977198
 20
197.3118378219
 10
319.4536337551
 20
197.8641290863
 10
321.410639634
 20
198.3607485359
 10
323.3945000011
 20
198.8008802263
 10
325.4019553789
 20
199.1838010221
 10
327.4297075235
 20
199.5088817857
 10
329.4744248435
 20
199.77558841
 10
331.5327478737
 20
199.9834826969
 10
333.6012947947
 20
200.1322230765
 10
335.6766669895
 20
200.2215651689
 10
337.7554546268
 20
200.2513621852
  0
LWPOLYLINE
  5
31D
330
1F
100
AcDbEntity
  8
0
  6
Continuous
 62
     8
370
    18
100
AcDbPolyline
 90
       44
 70
   128
 43
0.0
 10
337.7554546268
 20
199.4395729674
 10
339.8154453626
 20
199.4098535924
 10
341.8720074472
 20
199.3207449323
 10
343.9217179358
 20
199.1723952997
 10
345.9611652877
 20
198.9650516079
 10
347.986955044
 20
198.6990589601
 10
349.9957154776
 20
198.3748600748
 10
351.984103205
 20
197.9929945489
 10
353.948808751
 20
197.55409796
 10
355.8865620573
 20
197.0589008082
 10
357.7941379245
 20
196.5082273002
 10
359.668361381
 20
195.9029939777
 10
361.5061129668
 20
195.2442081919
 10
363.3043339257
 20
194.5329664267
 10
365.0600312964
 20
193.7704524739
 10
366.7702828939
 20
192.9579354625
 10
368.4322421732
 20
192.0967677471
 10
370.0431429671
 20
191.1883826563
 10
371.6003040902
 20
190.2342921075
 10
373.1011338015
 20
189.2360840901
 10
374.543134118
 20
188.195420023
 10
375.9239049726
 20
187.1140319887
 10
377.2411482083
 20
185.993719851
 10
378.492671404
 20
184.8363482588
 10
379.6763915226
 20
183.6438435429
 10
380.7903383789
 20
182.4181905097
 10
381.8326579183
 20
181.1614291377
 10
382.8016153027
 20
179.8756511823
 10
383.6955977983
 20
178.5629966939
 10
384.5131174593
 20
177.2256504564
 10
385.252813605
 20
175.8658383506
 10
385.9134550842
 20
174.4858236496
 10
386.4939423243
 20
173.0879032516
 10
386.9933091616
 20
171.6744038572
 10
387.4107244493
 20
170.2476780966
 10
387.7454934408
 20
168.8101006141
 10
387.9970589461
 20
167.3640641155
 10
388.1650022594
 20
165.9119753858
 10
388.2490438555
 20
164.4562512835
 10
388.2490438555
 20
162.9993147176
 10
388.1650022594
 20
161.5435906152
 10
387.9970589461
 20
160.0915018856
 10
387.7454934408
 20
158.645465387
 10
387.7237043362
 20
158.5394351781
  0
LWPOLYLINE
  5
31E
330
1F
100
AcDbEntity
  8
0
  6
Continuous
 62
     8
370
    18
100
AcDbPolyline
 90
       44
 70
   128
 43
0.0
 10
287.7872049175
 20
158.5394351781
 10
287.7654158129
 20
158.645465387
 10
287.5138503075
 20
160.0915018856
 10
287.3459069943
 20
161.5435906152
 10
287.2618653982
 20
162.9993147176
 10
287.2618653982
 20
164.4562512835
 10
287.3459069943
 20
165.9119753858
 10
287.5138503075
 20
167.3640641155
 10
287.7654158129
 20
168.8101006141
 10
288.1001848044
 20
170.2476780966
 10
288.517600092
 20
171.6744038572
 10
289.0169669293
 20
173.0879032516
 10
289.5974541694
 20
174.4858236496
 10
290.2580956486
 20
175.8658383506
 10
290.9977917943
 20
177.2256504564
 10
291.8153114554
 20
178.5629966939
 10
292.7092939509
 20
179.8756511823
 10
293.6782513354
 20
181.1614291377
 10
294.7205708747
 20
182.4181905097
 10
295.834517731
 20
183.6438435429
 10
297.0182378497
 20
184.8363482588
 10
298.2697610453
 20
185.993719851
 10
299.5870042811
 20
187.1140319887
 10
300.9677751356
 20
188.195420023
 10
302.4097754522
 20
189.2360840901
 10
303.9106051635
 20
190.2342921075
 10
305.4677662866
 20
191.1883826563
 10
307.0786670805
 20
192.0967677471
 10
308.7406263598
 20
192.9579354625
 10
310.4508779573
 20
193.7704524739
 10
312.206575328
 20
194.5329664267
 10
314.0047962869
 20
195.2442081919
 10
315.8425478726
 20
195.9029939777
 10
317.7167713291
 20
196.5082273002
 10
319.6243471964
 20
197.0589008082
 10
321.5621005026
 20
197.55409796
 10
323.5268060487
 20
197.9929945489
 10
325.5151937761
 20
198.3748600748
 10
327.5239542097
 20
198.6990589601
 10
329.549743966
 20
198.9650516079
 10
331.5891913179
 20
199.1723952997
 10
333.6389018065
 20
199.3207449323
 10
335.695463891
 20
199.4098535924
 10
337.7554546268
 20
199.4395729674
  0
ARC
  5
31F
330
1F
100
AcDbEntity
  8
0
  6
Continuous
 62
     8
370
    18
100
AcDbCircle
 10
313.0912318538
 20
163.6793308643
 30
0.0
 40
25.59024528995099
100
AcDbArc
 50
180.0694905069
 51
195.713639601
  0
LWPOLYLINE
  5
320
330
1F
100
AcDbEntity
  8
0
  6
Continuous
 62
     8
370
    18
100
AcDbPolyline
 90
       84
 70
   128
 43
0.0
 10
387.0535461579
 20
156.748734641
 10
387.1542263708
 20
157.1187068171
 10
387.4916892301
 20
158.5582726285
 10
387.7452855463
 20
160.0064213674
 10
387.9145876987
 20
161.4607111276
 10
387.9993102056
 20
162.9186896474
 10
387.9993102056
 20
164.3778984453
 10
387.9145876987
 20
165.8358769651
 10
387.7452855463
 20
167.2901667253
 10
387.4916892301
 20
168.7383154642
 10
387.1542263708
 20
170.1778812756
 10
386.7334660071
 20
171.6064367257
 10
386.2301176363
 20
173.021572947
 10
385.6450300175
 20
174.4209036995
 10
384.9791897408
 20
175.8020693952
 10
384.2337195636
 20
177.1627410762
 10
383.4098765173
 20
178.5006243421
 10
382.5090497875
 20
179.8134632193
 10
381.5327583719
 20
181.0990439642
 10
380.4826485187
 20
182.3551987971
 10
379.3604909507
 20
183.5798095565
 10
378.1681778795
 20
184.7708112719
 10
376.9077198145
 20
185.9261956448
 10
375.5812421732
 20
187.0440144357
 10
374.190981697
 20
188.1223827495
 10
372.7392826796
 20
189.1594822131
 10
371.2285930139
 20
190.1535640421
 10
369.6614600645
 20
191.1029519899
 10
368.040526372
 20
192.0060451734
 10
366.3685251973
 20
192.8613207734
 10
364.6482759127
 20
193.6673366016
 10
362.8826792476
 20
194.422733533
 10
361.0747123975
 20
195.1262377975
 10
359.2274240033
 20
195.7766631279
 10
357.3439290113
 20
196.3729127597
 10
355.4274034201
 20
196.9139812813
 10
353.4810789255
 20
197.3989563287
 10
351.5082374707
 20
197.8270201243
 10
349.5122057129
 20
198.1974508557
 10
347.4963494131
 20
198.5096238929
 10
345.464067761
 20
198.7630128415
 10
343.4187876433
 20
198.9571904304
 10
341.363957865
 20
199.0918292323
 10
339.3030433339
 20
199.1667022157
 10
337.2395192182
 20
199.1816831278
 10
335.1768650862
 20
199.1367467075
 10
333.1185590396
 20
199.0319687276
 10
331.0680718479
 20
198.8675258675
 10
329.0288610964
 20
198.6436954152
 10
327.0043653557
 20
198.3608547994
 10
324.9979983837
 20
198.0194809533
 10
323.013143369
 20
197.6201495105
 10
321.0531472262
 20
197.1635338342
 10
319.121314952
 20
196.6504038816
 10
317.2209040529
 20
196.081624906
 10
315.3551190514
 20
195.4581559974
 10
313.5271060832
 20
194.7810484654
 10
311.7399475917
 20
194.0514440664
 10
309.9966571303
 20
193.2705730786
 10
308.3001742813
 20
192.4397522271
 10
306.6533596983
 20
191.5603824637
 10
305.0589902835
 20
190.633946605
 10
303.5197545043
 20
189.6620068312
 10
302.0382478604
 20
188.6462020527
 10
300.6169685072
 20
187.5882451462
 10
299.2583130433
 20
186.4899200664
 10
297.964572469
 20
185.3530788377
 10
296.7379283236
 20
184.1796384318
 10
295.5804490068
 20
182.9715775346
 10
294.4940862904
 20
181.73093321
 10
293.4806720278
 20
180.459797465
 10
292.5419150647
 20
179.1603137221
 10
291.6793983577
 20
177.8346732049
 10
290.894576305
 20
176.4851112431
 10
290.1887722942
 20
175.1139035035
 10
289.5631764706
 20
173.7233621526
 10
289.0188437302
 20
172.3158319576
 10
288.5566919411
 20
170.8936863329
 10
288.1775003958
 20
169.4593233378
 10
287.8819084972
 20
168.0151616326
 10
287.6704146798
 20
166.5636364008
 10
287.5433755703
 20
165.1071952423
 10
287.5010053852
 20
163.6482940464
 10
287.5010053852
 20
163.6482940464
  0
MTEXT
  5
321
330
1F
100
AcDbEntity
  8
0
  6
Continuous
 62
     7
370
     0
100
AcDbMText
 10
385.1433504632
 20
208.7919733182
 30
0.0
 40
3.5
 41
0.0
 71
     2
 72
     1
  1
(1:1.5)
  7
SLDTEXTSTYLE0
 73
     1
 44
1.0
  0
ENDSEC
  0
SECTION
  2
OBJECTS
  0
DICTIONARY
  5
C
330
0
100
AcDbDictionary
281
     1
  3
ACAD_GROUP
350
D
  3
ACAD_LAYOUT
350
1A
  3
ACAD_MLINESTYLE
350
17
  3
ACAD_PLOTSETTINGS
350
19
  3
ACAD_PLOTSTYLENAME
350
E
  3
ACAD_SCALELIST
350
47
  3
DWGPROPS
350
322
  0
DICTIONARY
  5
D
102
{ACAD_REACTORS
330
C
102
}
330
C
100
AcDbDictionary
281
     1
  0
DICTIONARY
  5
1A
102
{ACAD_REACTORS
330
C
102
}
330
C
100
AcDbDictionary
281
     1
  3
Layout1
350
1E
  3
Layout2
350
26
  3
Model
350
22
  0
DICTIONARY
  5
17
102
{ACAD_REACTORS
330
C
102
}
330
C
100
AcDbDictionary
281
     1
  3
Standard
350
18
  0
DICTIONARY
  5
19
102
{ACAD_REACTORS
330
C
102
}
330
C
100
AcDbDictionary
281
     1
  0
ACDBDICTIONARYWDFLT
  5
E
102
{ACAD_REACTORS
330
C
102
}
330
C
100
AcDbDictionary
281
     1
  3
Normal
350
F
100
AcDbDictionaryWithDefault
340
F
  0
DICTIONARY
  5
47
102
{ACAD_REACTORS
330
C
102
}
330
C
100
AcDbDictionary
281
     1
  3
A0
350
48
  3
A1
350
49
  3
A2
350
4A
  3
A3
350
4B
  3
A4
350
4C
  3
A5
350
4D
  3
A6
350
4E
  3
A7
350
4F
  3
A8
350
50
  3
A9
350
51
  3
B0
350
52
  3
B1
350
53
  3
B2
350
54
  3
B3
350
55
  3
B4
350
56
  3
B5
350
57
  3
B6
350
58
  3
B7
350
59
  3
B8
350
5A
  3
B9
350
5B
  3
C0
350
5C
  3
C1
350
5D
  3
C2
350
5E
  3
C3
350
5F
  3
C4
350
60
  3
C5
350
61
  3
C6
350
62
  3
C7
350
63
  3
C8
350
64
  3
C9
350
65
  3
D0
350
66
  3
D1
350
67
  3
D2
350
68
  0
XRECORD
  5
322
102
{ACAD_REACTORS
330
C
102
}
330
C
100
AcDbXrecord
280
     1
  1
DWGPROPS COOKIE
  2

  3

  4

  6

  7

  8
ch-ntl-rs-wscad
  9

300
=
301
=
302
=
303
=
304
=
305
=
306
=
307
=
308
=
309
=
 40
0.0
 41
2460206.61263853
 42
2460206.612646343
  1

 90
        0
  0
LAYOUT
  5
1E
102
{ACAD_REACTORS
330
1A
102
}
330
1A
100
AcDbPlotSettings
  1

  2
none_device
  4

  6

 40
0.0
 41
0.0
 42
0.0
 43
0.0
 44
0.0
 45
0.0
 46
0.0
 47
0.0
 48
0.0
 49
0.0
140
0.0
141
0.0
142
1.0
143
1.0
 70
   688
 72
     1
 73
     0
 74
     5
  7

 75
    16
147
1.0
148
0.0
149
0.0
100
AcDbLayout
  1
Layout1
 70
     1
 71
     1
 10
0.0
 20
0.0
 11
420.0
 21
297.0
 12
0.0
 22
0.0
 32
0.0
 14
1.0000000000E+20
 24
1.0000000000E+20
 34
1.0000000000E+20
 15
-1.0000000000E+20
 25
-1.0000000000E+20
 35
-1.0000000000E+20
146
0.0
 13
0.0
 23
0.0
 33
0.0
 16
1.0
 26
0.0
 36
0.0
 17
0.0
 27
1.0
 37
0.0
 76
     0
330
1B
  0
LAYOUT
  5
26
102
{ACAD_REACTORS
330
1A
102
}
330
1A
100
AcDbPlotSettings
  1

  2
none_device
  4

  6

 40
0.0
 41
0.0
 42
0.0
 43
0.0
 44
0.0
 45
0.0
 46
0.0
 47
0.0
 48
0.0
 49
0.0
140
0.0
141
0.0
142
1.0
143
1.0
 70
   688
 72
     1
 73
     0
 74
     5
  7

 75
    16
147
1.0
148
0.0
149
0.0
100
AcDbLayout
  1
Layout2
 70
     1
 71
     2
 10
0.0
 20
0.0
 11
0.0
 21
0.0
 12
0.0
 22
0.0
 32
0.0
 14
0.0
 24
0.0
 34
0.0
 15
0.0
 25
0.0
 35
0.0
146
0.0
 13
0.0
 23
0.0
 33
0.0
 16
1.0
 26
0.0
 36
0.0
 17
0.0
 27
1.0
 37
0.0
 76
     0
330
23
  0
LAYOUT
  5
22
102
{ACAD_REACTORS
330
1A
102
}
330
1A
100
AcDbPlotSettings
  1

  2
none_device
  4
Letter_(8.50_x_11.00_Inches)
  6

 40
6.35
 41
6.35
 42
6.35000508
 43
6.35000508
 44
215.9
 45
279.4
 46
0.0
 47
0.0
 48
0.0
 49
0.0
140
0.0
141
0.0
142
1.0
143
1.0
 70
  1712
 72
     1
 73
     0
 74
     0
  7

 75
     0
147
1.0
148
0.0
149
0.0
100
AcDbLayout
  1
Model
 70
     1
 71
     0
 10
0.0
 20
0.0
 11
420.0
 21
297.0
 12
0.0
 22
0.0
 32
0.0
 14
0.0
 24
0.0
 34
0.0
 15
420.0
 25
297.0
 35
0.0
146
0.0
 13
0.0
 23
0.0
 33
0.0
 16
1.0
 26
0.0
 36
0.0
 17
0.0
 27
1.0
 37
0.0
 76
     0
330
1F
331
29
  0
MLINESTYLE
  5
18
102
{ACAD_REACTORS
330
17
102
}
330
17
100
AcDbMlineStyle
  2
Standard
 70
     0
  3

 62
   256
 51
90.0
 52
90.0
 71
     2
 49
0.5
 62
   256
  6
BYLAYER
 49
-0.5
 62
   256
  6
BYLAYER
  0
ACDBPLACEHOLDER
  5
F
102
{ACAD_REACTORS
330
E
102
}
330
E
  0
SCALE
  5
48
102
{ACAD_REACTORS
330
47
102
}
330
47
100
AcDbScale
 70
     0
300
1:1
140
1.0
141
1.0
290
     1
  0
SCALE
  5
49
102
{ACAD_REACTORS
330
47
102
}
330
47
100
AcDbScale
 70
     0
300
1:2
140
1.0
141
2.0
290
     0
  0
SCALE
  5
4A
102
{ACAD_REACTORS
330
47
102
}
330
47
100
AcDbScale
 70
     0
300
1:4
140
1.0
141
4.0
290
     0
  0
SCALE
  5
4B
102
{ACAD_REACTORS
330
47
102
}
330
47
100
AcDbScale
 70
     0
300
1:5
140
1.0
141
5.0
290
     0
  0
SCALE
  5
4C
102
{ACAD_REACTORS
330
47
102
}
330
47
100
AcDbScale
 70
     0
300
1:8
140
1.0
141
8.0
290
     0
  0
SCALE
  5
4D
102
{ACAD_REACTORS
330
47
102
}
330
47
100
AcDbScale
 70
     0
300
1:10
140
1.0
141
10.0
290
     0
  0
SCALE
  5
4E
102
{ACAD_REACTORS
330
47
102
}
330
47
100
AcDbScale
 70
     0
300
1:16
140
1.0
141
16.0
290
     0
  0
SCALE
  5
4F
102
{ACAD_REACTORS
330
47
102
}
330
47
100
AcDbScale
 70
     0
300
1:20
140
1.0
141
20.0
290
     0
  0
SCALE
  5
50
102
{ACAD_REACTORS
330
47
102
}
330
47
100
AcDbScale
 70
     0
300
1:30
140
1.0
141
30.0
290
     0
  0
SCALE
  5
51
102
{ACAD_REACTORS
330
47
102
}
330
47
100
AcDbScale
 70
     0
300
1:40
140
1.0
141
40.0
290
     0
  0
SCALE
  5
52
102
{ACAD_REACTORS
330
47
102
}
330
47
100
AcDbScale
 70
     0
300
1:50
140
1.0
141
50.0
290
     0
  0
SCALE
  5
53
102
{ACAD_REACTORS
330
47
102
}
330
47
100
AcDbScale
 70
     0
300
1:100
140
1.0
141
100.0
290
     0
  0
SCALE
  5
54
102
{ACAD_REACTORS
330
47
102
}
330
47
100
AcDbScale
 70
     0
300
2:1
140
2.0
141
1.0
290
     0
  0
SCALE
  5
55
102
{ACAD_REACTORS
330
47
102
}
330
47
100
AcDbScale
 70
     0
300
4:1
140
4.0
141
1.0
290
     0
  0
SCALE
  5
56
102
{ACAD_REACTORS
330
47
102
}
330
47
100
AcDbScale
 70
     0
300
8:1
140
8.0
141
1.0
290
     0
  0
SCALE
  5
57
102
{ACAD_REACTORS
330
47
102
}
330
47
100
AcDbScale
 70
     0
300
10:1
140
10.0
141
1.0
290
     0
  0
SCALE
  5
58
102
{ACAD_REACTORS
330
47
102
}
330
47
100
AcDbScale
 70
     0
300
100:1
140
100.0
141
1.0
290
     0
  0
SCALE
  5
59
102
{ACAD_REACTORS
330
47
102
}
330
47
100
AcDbScale
 70
     0
300
1/128" = 1'-0"
140
0.0078125
141
12.0
290
     0
  0
SCALE
  5
5A
102
{ACAD_REACTORS
330
47
102
}
330
47
100
AcDbScale
 70
     0
300
1/64" = 1'-0"
140
0.015625
141
12.0
290
     0
  0
SCALE
  5
5B
102
{ACAD_REACTORS
330
47
102
}
330
47
100
AcDbScale
 70
     0
300
1/32" = 1'-0"
140
0.03125
141
12.0
290
     0
  0
SCALE
  5
5C
102
{ACAD_REACTORS
330
47
102
}
330
47
100
AcDbScale
 70
     0
300
1/16" = 1'-0"
140
0.0625
141
12.0
290
     0
  0
SCALE
  5
5D
102
{ACAD_REACTORS
330
47
102
}
330
47
100
AcDbScale
 70
     0
300
3/32" = 1'-0"
140
0.09375
141
12.0
290
     0
  0
SCALE
  5
5E
102
{ACAD_REACTORS
330
47
102
}
330
47
100
AcDbScale
 70
     0
300
1/8" = 1'-0"
140
0.125
141
12.0
290
     0
  0
SCALE
  5
5F
102
{ACAD_REACTORS
330
47
102
}
330
47
100
AcDbScale
 70
     0
300
3/16" = 1'-0"
140
0.1875
141
12.0
290
     0
  0
SCALE
  5
60
102
{ACAD_REACTORS
330
47
102
}
330
47
100
AcDbScale
 70
     0
300
1/4" = 1'-0"
140
0.25
141
12.0
290
     0
  0
SCALE
  5
61
102
{ACAD_REACTORS
330
47
102
}
330
47
100
AcDbScale
 70
     0
300
3/8" = 1'-0"
140
0.375
141
12.0
290
     0
  0
SCALE
  5
62
102
{ACAD_REACTORS
330
47
102
}
330
47
100
AcDbScale
 70
     0
300
1/2" = 1'-0"
140
0.5
141
12.0
290
     0
  0
SCALE
  5
63
102
{ACAD_REACTORS
330
47
102
}
330
47
100
AcDbScale
 70
     0
300
3/4" = 1'-0"
140
0.75
141
12.0
290
     0
  0
SCALE
  5
64
102
{ACAD_REACTORS
330
47
102
}
330
47
100
AcDbScale
 70
     0
300
1" = 1'-0"
140
1.0
141
12.0
290
     0
  0
SCALE
  5
65
102
{ACAD_REACTORS
330
47
102
}
330
47
100
AcDbScale
 70
     0
300
1-1/2" = 1'-0"
140
1.5
141
12.0
290
     0
  0
SCALE
  5
66
102
{ACAD_REACTORS
330
47
102
}
330
47
100
AcDbScale
 70
     0
300
3" = 1'-0"
140
3.0
141
12.0
290
     0
  0
SCALE
  5
67
102
{ACAD_REACTORS
330
47
102
}
330
47
100
AcDbScale
 70
     0
300
6" = 1'-0"
140
6.0
141
12.0
290
     0
  0
SCALE
  5
68
102
{ACAD_REACTORS
330
47
102
}
330
47
100
AcDbScale
 70
     0
300
1'-0" = 1'-0"
140
12.0
141
12.0
290
     0
  0
ENDSEC
  0
EOF
