  0
SECTION
  2
HEADER
  9
$ACADVER
  1
AC1015
  9
$ACADMAINTVER
 70
     6
  9
$DWGCODEPAGE
  3
ANSI_1252
  9
$INSBASE
 10
0.0
 20
0.0
 30
0.0
  9
$EXTMIN
 10
0.0
 20
0.0
 30
0.0
  9
$EXTMAX
 10
420.0
 20
297.0
 30
0.0
  9
$LIMMIN
 10
0.0
 20
0.0
  9
$LIMMAX
 10
420.0
 20
297.0
  9
$ORTHOMODE
 70
     0
  9
$REGENMODE
 70
     1
  9
$FILLMODE
 70
     1
  9
$QTEXTMODE
 70
     0
  9
$MIRRTEXT
 70
     1
  9
$LTSCALE
 40
1.0
  9
$ATTMODE
 70
     1
  9
$TEXTSIZE
 40
3.5
  9
$TRACEWID
 40
1.0
  9
$TEXTSTYLE
  7
Standard
  9
$CLAYER
  8
0
  9
$CELTYPE
  6
ByLayer
  9
$CECOLOR
 62
   256
  9
$CELTSCALE
 40
1.0
  9
$DISPSILH
 70
     0
  9
$DIMSCALE
 40
1.0
  9
$DIMASZ
 40
3.5
  9
$DIMEXO
 40
0.1
  9
$DIMDLI
 40
3.75
  9
$DIMRND
 40
0.0
  9
$DIMDLE
 40
0.0
  9
$DIMEXE
 40
1.0
  9
$DIMTP
 40
0.0
  9
$DIMTM
 40
0.0
  9
$DIMTXT
 40
3.5
  9
$DIMCEN
 40
2.5
  9
$DIMTSZ
 40
0.0
  9
$DIMTOL
 70
     0
  9
$DIMLIM
 70
     0
  9
$DIMTIH
 70
     1
  9
$DIMTOH
 70
     1
  9
$DIMSE1
 70
     0
  9
$DIMSE2
 70
     0
  9
$DIMTAD
 70
     1
  9
$DIMZIN
 70
     0
  9
$DIMBLK
  1

  9
$DIMASO
 70
     1
  9
$DIMSHO
 70
     1
  9
$DIMPOST
  1

  9
$DIMAPOST
  1

  9
$DIMALT
 70
     0
  9
$DIMALTD
 70
     3
  9
$DIMALTF
 40
0.0393700787
  9
$DIMLFAC
 40
1.0
  9
$DIMTOFL
 70
     1
  9
$DIMTVP
 40
0.0
  9
$DIMTIX
 70
     0
  9
$DIMSOXD
 70
     0
  9
$DIMSAH
 70
     0
  9
$DIMBLK1
  1

  9
$DIMBLK2
  1

  9
$DIMSTYLE
  2
ISO-25
  9
$DIMCLRD
 70
     0
  9
$DIMCLRE
 70
     0
  9
$DIMCLRT
 70
     0
  9
$DIMTFAC
 40
1.0
  9
$DIMGAP
 40
2.0
  9
$DIMJUST
 70
     0
  9
$DIMSD1
 70
     0
  9
$DIMSD2
 70
     0
  9
$DIMTOLJ
 70
     0
  9
$DIMTZIN
 70
     0
  9
$DIMALTZ
 70
     0
  9
$DIMALTTZ
 70
     0
  9
$DIMUPT
 70
     0
  9
$DIMDEC
 70
     2
  9
$DIMTDEC
 70
     3
  9
$DIMALTU
 70
     2
  9
$DIMALTTD
 70
     3
  9
$DIMTXSTY
  7
Standard
  9
$DIMAUNIT
 70
     0
  9
$DIMADEC
 70
     2
  9
$DIMALTRND
 40
0.0
  9
$DIMAZIN
 70
     0
  9
$DIMDSEP
 70
    44
  9
$DIMATFIT
 70
     3
  9
$DIMFRAC
 70
     0
  9
$DIMLDRBLK
  1

  9
$DIMLUNIT
 70
     2
  9
$DIMLWD
 70
    -2
  9
$DIMLWE
 70
    -2
  9
$DIMTMOVE
 70
     0
  9
$LUNITS
 70
     2
  9
$LUPREC
 70
     2
  9
$SKETCHINC
 40
1.0
  9
$FILLETRAD
 40
10.0
  9
$AUNITS
 70
     0
  9
$AUPREC
 70
     2
  9
$MENU
  1
.
  9
$ELEVATION
 40
0.0
  9
$PELEVATION
 40
0.0
  9
$THICKNESS
 40
0.0
  9
$LIMCHECK
 70
     0
  9
$CHAMFERA
 40
0.0
  9
$CHAMFERB
 40
0.0
  9
$CHAMFERC
 40
0.0
  9
$CHAMFERD
 40
0.0
  9
$SKPOLY
 70
     0
  9
$TDCREATE
 40
2460206.696151667
  9
$TDUCREATE
 40
2460206.612818333
  9
$TDUPDATE
 40
2460206.696159803
  9
$TDUUPDATE
 40
2460206.61282647
  9
$TDINDWG
 40
0.0000000116
  9
$TDUSRTIMER
 40
0.0000000116
  9
$USRTIMER
 70
     1
  9
$ANGBASE
 50
0.0
  9
$ANGDIR
 70
     0
  9
$PDMODE
 70
     0
  9
$PDSIZE
 40
-1.0
  9
$PLINEWID
 40
0.0
  9
$SPLFRAME
 70
     0
  9
$SPLINETYPE
 70
     6
  9
$SPLINESEGS
 70
     8
  9
$HANDSEED
  5
329
  9
$SURFTAB1
 70
     6
  9
$SURFTAB2
 70
     6
  9
$SURFTYPE
 70
     6
  9
$SURFU
 70
     6
  9
$SURFV
 70
     6
  9
$UCSBASE
  2

  9
$UCSNAME
  2

  9
$UCSORG
 10
0.0
 20
0.0
 30
0.0
  9
$UCSXDIR
 10
1.0
 20
0.0
 30
0.0
  9
$UCSYDIR
 10
0.0
 20
1.0
 30
0.0
  9
$UCSORTHOREF
  2

  9
$UCSORTHOVIEW
 70
     0
  9
$UCSORGTOP
 10
0.0
 20
0.0
 30
0.0
  9
$UCSORGBOTTOM
 10
0.0
 20
0.0
 30
0.0
  9
$UCSORGLEFT
 10
0.0
 20
0.0
 30
0.0
  9
$UCSORGRIGHT
 10
0.0
 20
0.0
 30
0.0
  9
$UCSORGFRONT
 10
0.0
 20
0.0
 30
0.0
  9
$UCSORGBACK
 10
0.0
 20
0.0
 30
0.0
  9
$PUCSBASE
  2

  9
$PUCSNAME
  2

  9
$PUCSORG
 10
0.0
 20
0.0
 30
0.0
  9
$PUCSXDIR
 10
1.0
 20
0.0
 30
0.0
  9
$PUCSYDIR
 10
0.0
 20
1.0
 30
0.0
  9
$PUCSORTHOREF
  2

  9
$PUCSORTHOVIEW
 70
     0
  9
$PUCSORGTOP
 10
0.0
 20
0.0
 30
0.0
  9
$PUCSORGBOTTOM
 10
0.0
 20
0.0
 30
0.0
  9
$PUCSORGLEFT
 10
0.0
 20
0.0
 30
0.0
  9
$PUCSORGRIGHT
 10
0.0
 20
0.0
 30
0.0
  9
$PUCSORGFRONT
 10
0.0
 20
0.0
 30
0.0
  9
$PUCSORGBACK
 10
0.0
 20
0.0
 30
0.0
  9
$USERI1
 70
     0
  9
$USERI2
 70
     0
  9
$USERI3
 70
     0
  9
$USERI4
 70
     0
  9
$USERI5
 70
     0
  9
$USERR1
 40
0.0
  9
$USERR2
 40
0.0
  9
$USERR3
 40
0.0
  9
$USERR4
 40
0.0
  9
$USERR5
 40
0.0
  9
$WORLDVIEW
 70
     1
  9
$SHADEDGE
 70
     3
  9
$SHADEDIF
 70
    70
  9
$TILEMODE
 70
     1
  9
$MAXACTVP
 70
    64
  9
$PINSBASE
 10
0.0
 20
0.0
 30
0.0
  9
$PLIMCHECK
 70
     0
  9
$PEXTMIN
 10
1.0000000000E+20
 20
1.0000000000E+20
 30
1.0000000000E+20
  9
$PEXTMAX
 10
-1.0000000000E+20
 20
-1.0000000000E+20
 30
-1.0000000000E+20
  9
$PLIMMIN
 10
0.0
 20
0.0
  9
$PLIMMAX
 10
420.0
 20
297.0
  9
$UNITMODE
 70
     0
  9
$VISRETAIN
 70
     1
  9
$PLINEGEN
 70
     0
  9
$PSLTSCALE
 70
     1
  9
$TREEDEPTH
 70
  3020
  9
$CMLSTYLE
  2
Standard
  9
$CMLJUST
 70
     0
  9
$CMLSCALE
 40
20.0
  9
$PROXYGRAPHICS
 70
     1
  9
$MEASUREMENT
 70
     1
  9
$CELWEIGHT
370
    -1
  9
$ENDCAPS
280
     0
  9
$JOINSTYLE
280
     0
  9
$LWDISPLAY
290
     1
  9
$INSUNITS
 70
     4
  9
$HYPERLINKBASE
  1

  9
$STYLESHEET
  1

  9
$XEDIT
290
     1
  9
$CEPSNTYPE
380
     0
  9
$PSTYLEMODE
290
     1
  9
$FINGERPRINTGUID
  2
{e118bce8-1a4e-46bc-8b01-68d83c79aa64}
  9
$VERSIONGUID
  2
{FAEB1C32-E019-11D5-929B-00C0DF256EC4}
  9
$EXTNAMES
290
     1
  9
$PSVPSCALE
 40
0.0
  9
$OLESTARTUP
290
     0
  0
ENDSEC
  0
SECTION
  2
CLASSES
  0
CLASS
  1
ACDBDICTIONARYWDFLT
  2
AcDbDictionaryWithDefault
  3
ObjectDBX Classes
 90
        0
280
     0
281
     0
  0
CLASS
  1
VISUALSTYLE
  2
AcDbVisualStyle
  3
ObjectDBX Classes
 90
     4095
280
     0
281
     0
  0
CLASS
  1
MATERIAL
  2
AcDbMaterial
  3
ObjectDBX Classes
 90
     1153
280
     0
281
     0
  0
CLASS
  1
SCALE
  2
AcDbScale
  3
ObjectDBX Classes
 90
     1153
280
     0
281
     0
  0
CLASS
  1
TABLESTYLE
  2
AcDbTableStyle
  3
ObjectDBX Classes
 90
     4095
280
     0
281
     0
  0
CLASS
  1
MLEADERSTYLE
  2
AcDbMLeaderStyle
  3
ACDB_MLEADERSTYLE_CLASS
 90
     4095
280
     0
281
     0
  0
CLASS
  1
SUN
  2
AcDbSun
  3
SCENEOE
 90
     1153
280
     0
281
     0
  0
CLASS
  1
ACDBPLACEHOLDER
  2
AcDbPlaceHolder
  3
ObjectDBX Classes
 90
        0
280
     0
281
     0
  0
CLASS
  1
LAYOUT
  2
AcDbLayout
  3
ObjectDBX Classes
 90
        0
280
     0
281
     0
  0
ENDSEC
  0
SECTION
  2
TABLES
  0
TABLE
  2
VPORT
  5
8
330
0
100
AcDbSymbolTable
 70
     1
  0
VPORT
  5
29
330
8
100
AcDbSymbolTableRecord
100
AcDbViewportTableRecord
  2
*Active
 70
     0
 10
0.0
 20
0.0
 11
1.0
 21
1.0
 12
210.0
 22
148.5
 13
0.0
 23
0.0
 14
10.0
 24
10.0
 15
10.0
 25
10.0
 16
0.0
 26
0.0
 36
1.0
 17
0.0
 27
0.0
 37
0.0
 40
297.0
 41
1.4141414141
 42
50.0
 43
0.0
 44
0.0
 50
0.0
 51
0.0
 71
     0
 72
  2000
 73
     1
 74
     3
 75
     0
 76
     0
 77
     0
 78
     0
281
     0
 65
     1
110
0.0
120
0.0
130
0.0
111
1.0
121
0.0
131
0.0
112
0.0
122
1.0
132
0.0
 79
     0
146
0.0
  0
ENDTAB
  0
TABLE
  2
LTYPE
  5
5
330
0
100
AcDbSymbolTable
 70
     6
  0
LTYPE
  5
14
330
5
100
AcDbSymbolTableRecord
100
AcDbLinetypeTableRecord
  2
ByBlock
 70
     0
  3

 72
    65
 73
     0
 40
0.0
  0
LTYPE
  5
15
330
5
100
AcDbSymbolTableRecord
100
AcDbLinetypeTableRecord
  2
ByLayer
 70
     0
  3

 72
    65
 73
     0
 40
0.0
  0
LTYPE
  5
16
330
5
100
AcDbSymbolTableRecord
100
AcDbLinetypeTableRecord
  2
Continuous
 70
     0
  3
Solid line
 72
    65
 73
     0
 40
0.0
  0
LTYPE
  5
6E
330
5
100
AcDbSymbolTableRecord
100
AcDbLinetypeTableRecord
  2
HIDDEN
 70
     0
  3
Hidden __ __ __ __ __ __ __ __ __ __ __ __ __ __
 72
    65
 73
     2
 40
1.905
 49
1.27
 74
     0
 49
-0.635
 74
     0
  0
LTYPE
  5
6F
330
5
100
AcDbSymbolTableRecord
100
AcDbLinetypeTableRecord
  2
PHANTOM
 70
     0
  3
Phantom ______  __  __  ______  __  __  ______
 72
    65
 73
     6
 40
12.7
 49
6.35
 74
     0
 49
-1.27
 74
     0
 49
1.27
 74
     0
 49
-1.27
 74
     0
 49
1.27
 74
     0
 49
-1.27
 74
     0
  0
LTYPE
  5
70
330
5
100
AcDbSymbolTableRecord
100
AcDbLinetypeTableRecord
  2
CENTER
 70
     0
  3
Center ____ _ ____ _ ____ _ ____ _ ____ _ ____
 72
    65
 73
     4
 40
10.16
 49
6.35
 74
     0
 49
-1.27
 74
     0
 49
1.27
 74
     0
 49
-1.27
 74
     0
  0
LTYPE
  5
71
330
5
100
AcDbSymbolTableRecord
100
AcDbLinetypeTableRecord
  2
CENTERX2
 70
     0
  3
Center (2x) ________  __  ________  __  _____
 72
    65
 73
     4
 40
20.32
 49
12.7
 74
     0
 49
-2.54
 74
     0
 49
2.54
 74
     0
 49
-2.54
 74
     0
  0
LTYPE
  5
72
330
5
100
AcDbSymbolTableRecord
100
AcDbLinetypeTableRecord
  2
DOT2
 70
     0
  3
Dot (.5x) ........................................
 72
    65
 73
     2
 40
0.635
 49
0.0
 74
     0
 49
-0.635
 74
     0
  0
ENDTAB
  0
TABLE
  2
LAYER
  5
2
330
0
100
AcDbSymbolTable
 70
     9
  0
LAYER
  5
10
330
2
100
AcDbSymbolTableRecord
100
AcDbLayerTableRecord
  2
0
 70
     0
 62
     7
  6
Continuous
370
    -3
390
F
  0
LAYER
  5
73
330
2
100
AcDbSymbolTableRecord
100
AcDbLayerTableRecord
  2
VORLAGE_TEXT
 70
     0
 62
     7
  6
Continuous
370
    -3
390
F
  0
LAYER
  5
74
330
2
100
AcDbSymbolTableRecord
100
AcDbLayerTableRecord
  2
VORLAGE_BEMASSUNG
 70
     0
 62
    -5
  6
Continuous
290
     0
370
    -3
390
F
  0
LAYER
  5
75
330
2
100
AcDbSymbolTableRecord
100
AcDbLayerTableRecord
  2
TEXT
 70
     0
 62
     7
  6
Continuous
370
    -3
390
F
  0
LAYER
  5
76
330
2
100
AcDbSymbolTableRecord
100
AcDbLayerTableRecord
  2
LINIEN-DICK
 70
     0
 62
     7
  6
Continuous
370
    35
390
F
  0
LAYER
  5
77
330
2
100
AcDbSymbolTableRecord
100
AcDbLayerTableRecord
  2
LINIEN-NORMAL
 70
     0
 62
     7
  6
Continuous
370
    25
390
F
  0
LAYER
  5
78
330
2
100
AcDbSymbolTableRecord
100
AcDbLayerTableRecord
  2
LINIEN-DÜNN
 70
     0
 62
     7
  6
Continuous
370
    -3
390
F
  0
LAYER
  5
79
330
2
100
AcDbSymbolTableRecord
100
AcDbLayerTableRecord
  2
TEXT-DEUTSCH
 70
     0
 62
     7
  6
Continuous
370
    -3
390
F
  0
LAYER
  5
7A
330
2
100
AcDbSymbolTableRecord
100
AcDbLayerTableRecord
  2
TEXT-ENGLISCH
 70
     0
 62
    -7
  6
Continuous
290
     0
370
    -3
390
F
  0
ENDTAB
  0
TABLE
  2
STYLE
  5
3
330
0
100
AcDbSymbolTable
 70
     3
  0
STYLE
  5
11
330
3
100
AcDbSymbolTableRecord
100
AcDbTextStyleTableRecord
  2
Standard
 70
     0
 40
0.0
 41
1.0
 50
0.0
 71
     0
 42
3.5
  3
txt
  4

  0
STYLE
  5
F1
330
3
100
AcDbSymbolTableRecord
100
AcDbTextStyleTableRecord
  2
SLDTEXTSTYLE0
 70
     0
 40
0.0
 41
0.605
 50
0.0
 71
     0
 42
3.5
  3
TXT
  4

  0
STYLE
  5
19E
330
3
100
AcDbSymbolTableRecord
100
AcDbTextStyleTableRecord
  2
SLDTEXTSTYLE1
 70
     0
 40
0.0
 41
0.563
 50
0.0
 71
     0
 42
3.5
  3
TXT
  4

  0
ENDTAB
  0
TABLE
  2
VIEW
  5
6
330
0
100
AcDbSymbolTable
 70
     0
  0
ENDTAB
  0
TABLE
  2
UCS
  5
7
330
0
100
AcDbSymbolTable
 70
     0
  0
ENDTAB
  0
TABLE
  2
APPID
  5
9
330
0
100
AcDbSymbolTable
 70
     1
  0
APPID
  5
12
330
9
100
AcDbSymbolTableRecord
100
AcDbRegAppTableRecord
  2
ACAD
 70
     0
  0
ENDTAB
  0
TABLE
  2
DIMSTYLE
  5
A
330
0
100
AcDbSymbolTable
 70
     4
100
AcDbDimStyleTable
  0
DIMSTYLE
105
27
330
A
100
AcDbSymbolTableRecord
100
AcDbDimStyleTableRecord
  2
ISO-25
 70
     0
 41
2.5
 42
0.625
 43
3.75
 44
1.25
 73
     0
 74
     0
 77
     1
 78
     8
140
2.5
141
2.5
143
0.0393700787
147
0.625
171
     3
172
     1
178
     0
271
     2
272
     2
274
     3
278
    44
283
     0
284
     8
340
11
  0
DIMSTYLE
105
1B6
102
{ACAD_REACTORS
330
1B5
102
}
330
A
100
AcDbSymbolTableRecord
100
AcDbDimStyleTableRecord
  2
SLDDIMSTYLE0
 70
     0
 41
3.5
 44
0.0
 45
0.000000001
 73
     0
 74
     0
 77
     1
 78
    12
 79
     3
140
3.5
141
0.0
147
0.875
173
     1
178
     0
271
     2
272
     3
276
     2
284
    12
340
F1
  0
DIMSTYLE
105
1BF
102
{ACAD_REACTORS
330
1BE
102
}
330
A
100
AcDbSymbolTableRecord
100
AcDbDimStyleTableRecord
  2
SLDDIMSTYLE1
 70
     0
 41
3.5
 44
0.0
 45
0.000000001
 73
     0
 74
     0
 77
     1
 78
    12
 79
     3
140
3.5
141
0.0
147
0.875
172
     1
173
     1
178
     0
271
     1
272
     3
276
     2
284
    12
340
F1
  0
DIMSTYLE
105
29D
102
{ACAD_REACTORS
330
29C
102
}
330
A
100
AcDbSymbolTableRecord
100
AcDbDimStyleTableRecord
  2
SLDDIMSTYLE2
 70
     0
 41
3.5
 44
0.0
 45
0.000000001
 73
     0
 74
     0
 77
     1
 78
    12
 79
     3
140
3.5
147
0.875
173
     1
178
     0
271
     2
272
     3
276
     2
284
    12
340
F1
  0
ENDTAB
  0
TABLE
  2
BLOCK_RECORD
  5
1
330
0
100
AcDbSymbolTable
 70
    10
  0
BLOCK_RECORD
  5
1F
330
1
100
AcDbSymbolTableRecord
100
AcDbBlockTableRecord
  2
*Model_Space
340
22
  0
BLOCK_RECORD
  5
1B
330
1
100
AcDbSymbolTableRecord
100
AcDbBlockTableRecord
  2
*Paper_Space
340
1E
  0
BLOCK_RECORD
  5
23
330
1
100
AcDbSymbolTableRecord
100
AcDbBlockTableRecord
  2
*Paper_Space0
340
26
  0
BLOCK_RECORD
  5
7B
330
1
100
AcDbSymbolTableRecord
100
AcDbBlockTableRecord
  2
ACO-Logo
340
0
102
{BLKREFS
331
151
102
}
  0
BLOCK_RECORD
  5
EE
330
1
100
AcDbSymbolTableRecord
100
AcDbBlockTableRecord
  2
SW_NOTE_0
340
0
102
{BLKREFS
331
F3
102
}
  0
BLOCK_RECORD
  5
F4
330
1
100
AcDbSymbolTableRecord
100
AcDbBlockTableRecord
  2
SW_NOTE_0_1
340
0
102
{BLKREFS
331
F8
102
}
  0
BLOCK_RECORD
  5
F9
330
1
100
AcDbSymbolTableRecord
100
AcDbBlockTableRecord
  2
SW_NOTE_0_2
340
0
102
{BLKREFS
331
100
102
}
  0
BLOCK_RECORD
  5
178
330
1
100
AcDbSymbolTableRecord
100
AcDbBlockTableRecord
  2
SW_NOTE_0_3
340
0
102
{BLKREFS
331
180
102
}
  0
BLOCK_RECORD
  5
1B7
330
1
100
AcDbSymbolTableRecord
100
AcDbBlockTableRecord
  2
_D
340
0
  0
BLOCK_RECORD
  5
1C0
330
1
100
AcDbSymbolTableRecord
100
AcDbBlockTableRecord
  2
_D_1
340
0
  0
BLOCK_RECORD
  5
1C9
330
1
100
AcDbSymbolTableRecord
100
AcDbBlockTableRecord
  2
SW_CENTERMARKSYMBOL_0
340
0
102
{BLKREFS
331
1D4
102
}
  0
BLOCK_RECORD
  5
29E
330
1
100
AcDbSymbolTableRecord
100
AcDbBlockTableRecord
  2
_D_2
340
0
  0
ENDTAB
  0
ENDSEC
  0
SECTION
  2
BLOCKS
  0
BLOCK
  5
20
330
1F
100
AcDbEntity
  8
0
100
AcDbBlockBegin
  2
*Model_Space
 70
     0
 10
0.0
 20
0.0
 30
0.0
  3
*Model_Space
  1

  0
ENDBLK
  5
21
330
1F
100
AcDbEntity
  8
0
100
AcDbBlockEnd
  0
BLOCK
  5
1C
330
1B
100
AcDbEntity
 67
     1
  8
0
100
AcDbBlockBegin
  2
*Paper_Space
 70
     0
 10
0.0
 20
0.0
 30
0.0
  3
*Paper_Space
  1

  0
ENDBLK
  5
1D
330
1B
100
AcDbEntity
 67
     1
  8
0
100
AcDbBlockEnd
  0
BLOCK
  5
24
330
23
100
AcDbEntity
  8
0
100
AcDbBlockBegin
  2
*Paper_Space0
 70
     0
 10
0.0
 20
0.0
 30
0.0
  3
*Paper_Space0
  1

  0
ENDBLK
  5
25
330
23
100
AcDbEntity
  8
0
100
AcDbBlockEnd
  0
BLOCK
  5
7C
330
7B
100
AcDbEntity
  8
0
100
AcDbBlockBegin
  2
ACO-Logo
 70
     0
 10
0.0
 20
0.0
 30
0.0
  3
ACO-Logo
  1

  0
ARC
  5
7E
330
7B
100
AcDbEntity
  8
0
  6
Continuous
 62
   179
370
    18
100
AcDbCircle
 10
80.3853261169
 20
4.9940995715
 30
0.0
 40
0.3000000000000441
100
AcDbArc
 50
181.9349323096
 51
274.6062978506
  0
ARC
  5
7F
330
7B
100
AcDbEntity
  8
0
  6
Continuous
 62
   179
370
    18
100
AcDbCircle
 10
81.2359083165
 20
2.1946665956
 30
0.0
 40
1.000000000000021
100
AcDbArc
 50
221.4087409628
 51
276.0561297228
  0
ARC
  5
80
330
7B
100
AcDbEntity
  8
0
  6
Continuous
 62
   179
370
    18
100
AcDbCircle
 10
79.1360017163
 20
3.654242048
 30
0.0
 40
0.300000000000004
100
AcDbArc
 50
181.2730300201
 51
274.4996077095
  0
ARC
  5
81
330
7B
100
AcDbEntity
  8
0
  6
Continuous
 62
   179
370
    18
100
AcDbCircle
 10
78.7699033484
 20
3.2873137407
 30
0.0
 40
0.4000000000000358
100
AcDbArc
 50
221.0090869016
 51
274.5606296317
  0
ARC
  5
82
330
7B
100
AcDbEntity
  8
0
  6
Continuous
 62
   179
370
    18
100
AcDbCircle
 10
91.2333953062
 20
4.6062442307
 30
0.0
 40
0.3000000000000493
100
AcDbArc
 50
274.4996077095
 51
3.7249371334
  0
ARC
  5
83
330
7B
100
AcDbEntity
  8
0
  6
Continuous
 62
   179
370
    18
100
AcDbCircle
 10
81.5287571045
 20
9.7648973508
 30
0.0
 40
1.00000000000002
100
AcDbArc
 50
93.1134387481
 51
181.9414863909
  0
ARC
  5
84
330
7B
100
AcDbEntity
  8
0
  6
Continuous
 62
   179
370
    18
100
AcDbCircle
 10
81.6051675115
 20
7.5107903456
 30
0.0
 40
1.0
100
AcDbArc
 50
181.9414863909
 51
274.398705355
  0
ARC
  5
85
330
7B
100
AcDbEntity
  8
0
  6
Continuous
 62
   179
370
    18
100
AcDbCircle
 10
80.1506905656
 20
11.9393118923
 30
0.0
 40
0.300000000000045
100
AcDbArc
 50
93.0418421566
 51
181.9349323096
  0
ARC
  5
86
330
7B
100
AcDbEntity
  8
0
  6
Continuous
 62
   179
370
    18
100
AcDbCircle
 10
78.1879722102
 20
12.3499352608
 30
0.0
 40
0.7999999999953393
100
AcDbArc
 50
92.6995697565
 51
148.2554209065
  0
ARC
  5
87
330
7B
100
AcDbEntity
  8
0
  6
Continuous
 62
   179
370
    18
100
AcDbCircle
 10
78.930862229
 20
12.8855189761
 30
0.0
 40
0.3000000000000031
100
AcDbArc
 50
92.6995697565
 51
181.2730300201
  0
ARC
  5
88
330
7B
100
AcDbEntity
  8
0
  6
Continuous
 62
   179
370
    18
100
AcDbCircle
 10
82.327743407
 20
9.8083568568
 30
0.0
 40
1.000000000000034
100
AcDbArc
 50
1.9414863909
 51
93.1134387481
  0
ARC
  5
89
330
7B
100
AcDbEntity
  8
0
  6
Continuous
 62
   179
370
    18
100
AcDbCircle
 10
81.5287571045
 20
9.7648973508
 30
0.0
 40
0.3625000000000009
100
AcDbArc
 50
93.1134387481
 51
181.9414863909
  0
ARC
  5
8A
330
7B
100
AcDbEntity
  8
0
  6
Continuous
 62
   179
370
    18
100
AcDbCircle
 10
82.327743407
 20
9.8083568568
 30
0.0
 40
0.3625000000000146
100
AcDbArc
 50
1.9414863909
 51
93.1134387481
  0
ARC
  5
8B
330
7B
100
AcDbEntity
  8
0
  6
Continuous
 62
   179
370
    18
100
AcDbCircle
 10
82.4035451983
 20
7.5722040138
 30
0.0
 40
1.000000000000008
100
AcDbArc
 50
274.398705355
 51
1.9414863909
  0
ARC
  5
8C
330
7B
100
AcDbEntity
  8
0
  6
Continuous
 62
   179
370
    18
100
AcDbCircle
 10
82.4035451983
 20
7.5722040138
 30
0.0
 40
0.3625000000000068
100
AcDbArc
 50
274.398705355
 51
1.9414863909
  0
ARC
  5
8D
330
7B
100
AcDbEntity
  8
0
  6
Continuous
 62
   179
370
    18
100
AcDbCircle
 10
81.6051675115
 20
7.5107903456
 30
0.0
 40
0.3625000000000111
100
AcDbArc
 50
181.9414863909
 51
274.398705355
  0
ARC
  5
8E
330
7B
100
AcDbEntity
  8
0
  6
Continuous
 62
   179
370
    18
100
AcDbCircle
 10
88.825822761
 20
8.0662148274
 30
0.0
 40
0.9999999999999997
100
AcDbArc
 50
274.398705355
 51
2.6541955134
  0
ARC
  5
8F
330
7B
100
AcDbEntity
  8
0
  6
Continuous
 62
   179
370
    18
100
AcDbCircle
 10
90.1578295581
 20
5.7814576687
 30
0.0
 40
0.3000000000000043
100
AcDbArc
 50
274.6062978507
 51
2.5147526475
  0
ARC
  5
90
330
7B
100
AcDbEntity
  8
0
  6
Continuous
 62
   179
370
    18
100
AcDbCircle
 10
88.825822761
 20
8.0662148274
 30
0.0
 40
0.3625000000000083
100
AcDbArc
 50
274.398705355
 51
2.6541955134
  0
ARC
  5
91
330
7B
100
AcDbEntity
  8
0
  6
Continuous
 62
   179
370
    18
100
AcDbCircle
 10
88.728529747
 20
10.16496413
 30
0.0
 40
1.000000000000001
100
AcDbArc
 50
2.6541955134
 51
93.1134387481
  0
ARC
  5
92
330
7B
100
AcDbEntity
  8
0
  6
Continuous
 62
   179
370
    18
100
AcDbCircle
 10
88.728529747
 20
10.16496413
 30
0.0
 40
0.3625000000000085
100
AcDbArc
 50
2.6541955134
 51
93.1134387481
  0
ARC
  5
93
330
7B
100
AcDbEntity
  8
0
  6
Continuous
 62
   179
370
    18
100
AcDbCircle
 10
89.8647121341
 20
12.455515937
 30
0.0
 40
0.2999999999999984
100
AcDbArc
 50
2.5147526475
 51
93.0418421566
  0
ARC
  5
94
330
7B
100
AcDbEntity
  8
0
  6
Continuous
 62
   179
370
    18
100
AcDbCircle
 10
90.6583795404
 20
13.4384863935
 30
0.0
 40
0.2999999999999911
100
AcDbArc
 50
3.7249371334
 51
92.6995697565
  0
CIRCLE
  5
95
330
7B
100
AcDbEntity
  8
0
  6
Continuous
 62
   179
370
    18
100
AcDbCircle
 10
15.7233972286
 20
6.4054930194
 30
0.0
 40
1.579500000000014
  0
CIRCLE
  5
96
330
7B
100
AcDbEntity
  8
0
  6
Continuous
 62
   179
370
    18
100
AcDbCircle
 10
15.7233972286
 20
6.4054930194
 30
0.0
 40
2.281499999999994
  0
ARC
  5
97
330
7B
100
AcDbEntity
  8
0
  6
Continuous
 62
   179
370
    18
100
AcDbCircle
 10
89.7681336026
 20
2.3106616691
 30
0.0
 40
0.098384530246548
100
AcDbArc
 50
332.3802627259
 51
4.9765441602
  0
ARC
  5
98
330
7B
100
AcDbEntity
  8
0
  6
Continuous
 62
   179
370
    18
100
AcDbCircle
 10
89.6886560089
 20
2.3522464185
 30
0.0
 40
0.1880839130754018
100
AcDbArc
 50
303.690067526
 51
332.3802627258
  0
ARC
  5
99
330
7B
100
AcDbEntity
  8
0
  6
Continuous
 62
   179
370
    18
100
AcDbCircle
 10
89.4849700869
 20
2.6577753016
 30
0.0
 40
0.5552839311631531
100
AcDbArc
 50
287.108652213
 51
303.690067526
  0
ARC
  5
9A
330
7B
100
AcDbEntity
  8
0
  6
Continuous
 62
   179
370
    18
100
AcDbCircle
 10
88.0513010646
 20
7.3154864882
 30
0.0
 40
5.428648309393203
100
AcDbArc
 50
285.2551187031
 51
287.108652213
  0
ARC
  5
9B
330
7B
100
AcDbEntity
  8
0
  6
Continuous
 62
   179
370
    18
100
AcDbCircle
 10
89.1317168954
 20
3.3539617753
 30
0.0
 40
1.322436378825653
100
AcDbArc
 50
281.4991866428
 51
285.255118703
  0
ARC
  5
9C
330
7B
100
AcDbEntity
  8
0
  6
Continuous
 62
   179
370
    18
100
AcDbCircle
 10
89.3198255509
 20
2.4293110075
 30
0.0
 40
0.3788454141584939
100
AcDbArc
 50
279.1917900003
 51
281.499186643
  0
ARC
  5
9D
330
7B
100
AcDbEntity
  8
0
  6
Continuous
 62
   179
370
    18
100
AcDbCircle
 10
89.0487250788
 20
4.1046569124
 30
0.0
 40
2.07598399629105
100
AcDbArc
 50
277.7634675038
 51
279.1917900002
  0
ARC
  5
9E
330
7B
100
AcDbEntity
  8
0
  6
Continuous
 62
   179
370
    18
100
AcDbCircle
 10
9.2588909915
 20
6.4054930194
 30
0.0
 40
1.579500000000074
100
AcDbArc
 50
31.0558004991
 51
330.0
  0
ARC
  5
9F
330
7B
100
AcDbEntity
  8
0
  6
Continuous
 62
   179
370
    18
100
AcDbCircle
 10
9.2588909915
 20
6.4054930194
 30
0.0
 40
2.281500000000107
100
AcDbArc
 50
30.7309172659
 51
330.0
  0
ARC
  5
A0
330
7B
100
AcDbEntity
  8
0
  6
Continuous
 62
   179
370
    18
100
AcDbCircle
 10
6.1288847544
 20
4.0685261312
 30
0.0
 40
4.914000000000307
100
AcDbArc
 50
172.3058370354
 51
179.7113029221
  0
ARC
  5
A1
330
7B
100
AcDbEntity
  8
0
  6
Continuous
 62
   179
370
    18
100
AcDbCircle
 10
-0.5401152456
 20
4.0685261312
 30
0.0
 40
4.91400000000019
100
AcDbArc
 50
0.2886970779
 51
7.6941629646
  0
ARC
  5
A2
330
7B
100
AcDbEntity
  8
0
  6
Continuous
 62
   179
370
    18
100
AcDbCircle
 10
-0.5401152456
 20
4.0685261312
 30
0.0
 40
5.616000000000127
100
AcDbArc
 50
0.2526096926
 51
53.5764263577
  0
ARC
  5
A3
330
7B
100
AcDbEntity
  8
0
  6
Continuous
 62
   179
370
    18
100
AcDbCircle
 10
6.1288847544
 20
4.0685261312
 30
0.0
 40
5.61600000000074
100
AcDbArc
 50
126.4235736423
 51
179.7473903073
  0
ARC
  5
A4
330
7B
100
AcDbEntity
  8
0
  6
Continuous
 62
   179
370
    18
100
AcDbCircle
 10
-0.5401152456
 20
4.0685261312
 30
0.0
 40
4.914000000000161
100
AcDbArc
 50
16.0658750272
 51
47.2678899574
  0
ARC
  5
A5
330
7B
100
AcDbEntity
  8
0
  6
Continuous
 62
   179
370
    18
100
AcDbCircle
 10
6.1288847544
 20
4.0685261312
 30
0.0
 40
4.914000000000584
100
AcDbArc
 50
132.7321100426
 51
163.9341249728
  0
LINE
  5
A6
330
7B
100
AcDbEntity
  8
0
  6
Continuous
 62
   179
370
    18
100
AcDbLine
 10
78.8017089389
 20
2.8885802402
 30
0.0
 11
90.7982178739
 21
3.8455002136
 31
0.0
  0
LINE
  5
A7
330
7B
100
AcDbEntity
  8
0
  6
Continuous
 62
   179
370
    18
100
AcDbLine
 10
76.6545490427
 20
5.8693097374
 30
0.0
 11
78.0344191726
 21
3.5235305166
 31
0.0
  0
LINE
  5
A8
330
7B
100
AcDbEntity
  8
0
  6
Continuous
 62
   179
370
    18
100
AcDbLine
 10
91.5327615373
 20
4.6257342197
 30
0.0
 11
90.9577457715
 21
13.4579763825
 31
0.0
  0
LINE
  5
A9
330
7B
100
AcDbEntity
  8
0
  6
Continuous
 62
   179
370
    18
100
AcDbLine
 10
78.6309362756
 20
12.8788539549
 30
0.0
 11
78.8360757629
 21
3.6475770268
 31
0.0
  0
LINE
  5
AA
330
7B
100
AcDbEntity
  8
0
  6
Continuous
 62
   179
370
    18
100
AcDbLine
 10
80.4094186633
 20
4.6950685544
 30
0.0
 11
90.1819221045
 21
5.4824266516
 31
0.0
  0
LINE
  5
AB
330
7B
100
AcDbEntity
  8
0
  6
Continuous
 62
   179
370
    18
100
AcDbLine
 10
79.1595373973
 20
3.3551666867
 30
0.0
 11
91.2569309872
 21
4.3071688694
 31
0.0
  0
LINE
  5
AC
330
7B
100
AcDbEntity
  8
0
  6
Continuous
 62
   179
370
    18
100
AcDbLine
 10
79.2585043218
 20
2.925017226
 30
0.0
 11
80.4858981444
 21
1.533240302
 31
0.0
  0
LINE
  5
AD
330
7B
100
AcDbEntity
  8
0
  6
Continuous
 62
   179
370
    18
100
AcDbLine
 10
78.0344191726
 20
3.5235305166
 30
0.0
 11
78.3638740472
 21
3.1446574108
 31
0.0
  0
LINE
  5
AE
330
7B
100
AcDbEntity
  8
0
  6
Continuous
 62
   179
370
    18
100
AcDbLine
 10
78.3638740472
 20
3.1446574108
 30
0.0
 11
78.4680611395
 21
3.0248422547
 31
0.0
  0
LINE
  5
AF
330
7B
100
AcDbEntity
  8
0
  6
Continuous
 62
   179
370
    18
100
AcDbLine
 10
81.3414110113
 20
1.2002475785
 30
0.0
 11
89.3291569519
 21
2.0477010263
 31
0.0
  0
LINE
  5
B0
330
7B
100
AcDbEntity
  8
0
  6
Continuous
 62
   179
370
    18
100
AcDbLine
 10
89.8661472522
 20
2.5197759309
 30
0.0
 11
89.8661472522
 21
2.3090867337
 31
0.0
  0
LINE
  5
B1
330
7B
100
AcDbEntity
  8
0
  6
Continuous
 62
   179
370
    18
100
AcDbLine
 10
88.676842368
 20
3.6762854359
 30
0.0
 11
89.6713239345
 21
2.7875997807
 31
0.0
  0
LINE
  5
B2
330
7B
100
AcDbEntity
  8
0
  6
Continuous
 62
   179
370
    18
100
AcDbLine
 10
89.6713239345
 20
2.7875997807
 30
0.0
 11
89.7459749087
 21
2.7242700694
 31
0.0
  0
LINE
  5
B3
330
7B
100
AcDbEntity
  8
0
  6
Continuous
 62
   179
370
    18
100
AcDbLine
 10
90.7982178739
 20
3.8455002136
 30
0.0
 11
91.3961615969
 21
4.3514525945
 31
0.0
  0
LINE
  5
B4
330
7B
100
AcDbEntity
  8
0
  6
Continuous
 62
   179
370
    18
100
AcDbLine
 10
90.6442498554
 20
13.7381534621
 30
0.0
 11
78.1502930503
 21
13.1490474438
 31
0.0
  0
LINE
  5
B5
330
7B
100
AcDbEntity
  8
0
  6
Continuous
 62
   179
370
    18
100
AcDbLine
 10
80.1347709981
 20
12.2388892068
 30
0.0
 11
89.8487925667
 21
12.7550932515
 31
0.0
  0
LINE
  5
B6
330
7B
100
AcDbEntity
  8
0
  6
Continuous
 62
   179
370
    18
100
AcDbLine
 10
76.4935641943
 20
11.7567556248
 30
0.0
 11
76.6545490427
 21
5.8693097374
 31
0.0
  0
LINE
  5
B7
330
7B
100
AcDbEntity
  8
0
  6
Continuous
 62
   179
370
    18
100
AcDbLine
 10
79.8508616208
 20
11.929182536
 30
0.0
 11
80.0854971721
 21
4.9839702153
 31
0.0
  0
LINE
  5
B8
330
7B
100
AcDbEntity
  8
0
  6
Continuous
 62
   179
370
    18
100
AcDbLine
 10
80.5293311574
 20
9.7310185051
 30
0.0
 11
80.6057415643
 21
7.4769115
 31
0.0
  0
LINE
  5
B9
330
7B
100
AcDbEntity
  8
0
  6
Continuous
 62
   179
370
    18
100
AcDbLine
 10
77.507650604
 20
12.7708420346
 30
0.0
 11
76.4935641943
 21
11.7567556248
 31
0.0
  0
LINE
  5
BA
330
7B
100
AcDbEntity
  8
0
  6
Continuous
 62
   179
370
    18
100
AcDbLine
 10
86.8848195129
 20
11.0661568594
 30
0.0
 11
88.6742167283
 21
11.1634880887
 31
0.0
  0
LINE
  5
BB
330
7B
100
AcDbEntity
  8
0
  6
Continuous
 62
   179
370
    18
100
AcDbLine
 10
87.0766213517
 20
6.9287171941
 30
0.0
 11
88.90708891
 21
7.0695223909
 31
0.0
  0
LINE
  5
BC
330
7B
100
AcDbEntity
  8
0
  6
Continuous
 62
   179
370
    18
100
AcDbLine
 10
87.6830038473
 20
7.6147347768
 30
0.0
 11
88.8536252418
 21
7.7047825764
 31
0.0
  0
LINE
  5
BD
330
7B
100
AcDbEntity
  8
0
  6
Continuous
 62
   179
370
    18
100
AcDbLine
 10
87.5509212094
 20
10.4639459651
 30
0.0
 11
88.7088412777
 21
10.5269290651
 31
0.0
  0
LINE
  5
BE
330
7B
100
AcDbEntity
  8
0
  6
Continuous
 62
   179
370
    18
100
AcDbLine
 10
87.0766218384
 20
6.9287066941
 30
0.0
 11
86.8848195129
 21
11.0661568594
 31
0.0
  0
LINE
  5
BF
330
7B
100
AcDbEntity
  8
0
  6
Continuous
 62
   179
370
    18
100
AcDbLine
 10
83.7004598825
 20
6.6667911093
 30
0.0
 11
84.5054929504
 21
10.9267193262
 31
0.0
  0
LINE
  5
C0
330
7B
100
AcDbEntity
  8
0
  6
Continuous
 62
   179
370
    18
100
AcDbLine
 10
85.3543248406
 20
10.9728900984
 30
0.0
 11
86.4940946704
 21
6.8816860929
 31
0.0
  0
LINE
  5
C1
330
7B
100
AcDbEntity
  8
0
  6
Continuous
 62
   179
370
    18
100
AcDbLine
 10
84.9728575427
 20
9.9667192298
 30
0.0
 11
85.4540299774
 21
8.2395506903
 31
0.0
  0
LINE
  5
C2
330
7B
100
AcDbEntity
  8
0
  6
Continuous
 62
   179
370
    18
100
AcDbLine
 10
84.6363094629
 20
8.1858350416
 30
0.0
 11
84.9728575427
 21
9.9667192298
 31
0.0
  0
LINE
  5
C3
330
7B
100
AcDbEntity
  8
0
  6
Continuous
 62
   179
370
    18
100
AcDbLine
 10
87.6830038473
 20
7.6147347768
 30
0.0
 11
87.5509212094
 21
10.4639459651
 31
0.0
  0
LINE
  5
C4
330
7B
100
AcDbEntity
  8
0
  6
Continuous
 62
   179
370
    18
100
AcDbLine
 10
84.6363094629
 20
8.1858350416
 30
0.0
 11
85.4540299774
 21
8.2395506903
 31
0.0
  0
LINE
  5
C5
330
7B
100
AcDbEntity
  8
0
  6
Continuous
 62
   179
370
    18
100
AcDbLine
 10
84.5140586807
 20
7.5389304886
 30
0.0
 11
85.6288154243
 21
7.6121582976
 31
0.0
  0
LINE
  5
C6
330
7B
100
AcDbEntity
  8
0
  6
Continuous
 62
   179
370
    18
100
AcDbLine
 10
84.3588137958
 20
6.717433718
 30
0.0
 11
84.5140586807
 21
7.5389304886
 31
0.0
  0
LINE
  5
C7
330
7B
100
AcDbEntity
  8
0
  6
Continuous
 62
   179
370
    18
100
AcDbLine
 10
81.6818640104
 20
6.5137358601
 30
0.0
 11
82.4802416972
 21
6.5751495283
 31
0.0
  0
LINE
  5
C8
330
7B
100
AcDbEntity
  8
0
  6
Continuous
 62
   179
370
    18
100
AcDbLine
 10
81.6329699923
 20
7.1493580946
 30
0.0
 11
82.4313476791
 21
7.2107717628
 31
0.0
  0
LINE
  5
C9
330
7B
100
AcDbEntity
  8
0
  6
Continuous
 62
   179
370
    18
100
AcDbLine
 10
83.7004598825
 20
6.6667911093
 30
0.0
 11
84.3588137958
 21
6.717433718
 31
0.0
  0
LINE
  5
CA
330
7B
100
AcDbEntity
  8
0
  6
Continuous
 62
   179
370
    18
100
AcDbLine
 10
82.7059483815
 20
9.3512024135
 30
0.0
 11
83.3423973297
 21
9.3930104243
 31
0.0
  0
LINE
  5
CB
330
7B
100
AcDbEntity
  8
0
  6
Continuous
 62
   179
370
    18
100
AcDbLine
 10
82.7491656358
 20
8.0762934118
 30
0.0
 11
83.385614584
 21
8.1181014226
 31
0.0
  0
LINE
  5
CC
330
7B
100
AcDbEntity
  8
0
  6
Continuous
 62
   179
370
    18
100
AcDbLine
 10
81.1664651987
 20
9.7526162692
 30
0.0
 11
81.2428756056
 21
7.4985092641
 31
0.0
  0
LINE
  5
CD
330
7B
100
AcDbEntity
  8
0
  6
Continuous
 62
   179
370
    18
100
AcDbLine
 10
82.6900353128
 20
9.8206379383
 30
0.0
 11
82.7052632884
 21
9.3714126602
 31
0.0
  0
LINE
  5
CE
330
7B
100
AcDbEntity
  8
0
  6
Continuous
 62
   179
370
    18
100
AcDbLine
 10
82.7491656358
 20
8.0762934118
 30
0.0
 11
82.7658371041
 21
7.5844850954
 31
0.0
  0
LINE
  5
CF
330
7B
100
AcDbEntity
  8
0
  6
Continuous
 62
   179
370
    18
100
AcDbLine
 10
83.3271693541
 20
9.8422357024
 30
0.0
 11
83.3423973297
 21
9.3930104243
 31
0.0
  0
LINE
  5
D0
330
7B
100
AcDbEntity
  8
0
  6
Continuous
 62
   179
370
    18
100
AcDbLine
 10
83.385614584
 20
8.1181014226
 30
0.0
 11
83.4029711454
 21
7.6060828595
 31
0.0
  0
LINE
  5
D1
330
7B
100
AcDbEntity
  8
0
  6
Continuous
 62
   179
370
    18
100
AcDbLine
 10
85.6288154243
 20
7.6121582976
 30
0.0
 11
85.8462022593
 21
6.8318482152
 31
0.0
  0
LINE
  5
D2
330
7B
100
AcDbEntity
  8
0
  6
Continuous
 62
   179
370
    18
100
AcDbLine
 10
85.8462022593
 20
6.8318482152
 30
0.0
 11
86.4940946704
 21
6.8816860929
 31
0.0
  0
LINE
  5
D3
330
7B
100
AcDbEntity
  8
0
  6
Continuous
 62
   179
370
    18
100
AcDbLine
 10
84.5054929504
 20
10.9267193262
 30
0.0
 11
85.3543248406
 21
10.9728900984
 31
0.0
  0
LINE
  5
D4
330
7B
100
AcDbEntity
  8
0
  6
Continuous
 62
   179
370
    18
100
AcDbLine
 10
81.4744440858
 20
10.7634213094
 30
0.0
 11
82.2734303883
 21
10.8068808154
 31
0.0
  0
LINE
  5
D5
330
7B
100
AcDbEntity
  8
0
  6
Continuous
 62
   179
370
    18
100
AcDbLine
 10
81.5090686352
 20
10.1268622858
 30
0.0
 11
82.3080549377
 21
10.1703217918
 31
0.0
  0
LINE
  5
D6
330
7B
100
AcDbEntity
  8
0
  6
Continuous
 62
   179
370
    18
100
AcDbLine
 10
90.4575406452
 20
5.7946206556
 30
0.0
 11
90.1644232213
 21
12.4686789239
 31
0.0
  0
LINE
  5
D7
330
7B
100
AcDbEntity
  8
0
  6
Continuous
 62
   179
370
    18
100
AcDbLine
 10
89.8247499755
 20
8.1125227115
 30
0.0
 11
89.7274569615
 21
10.2112720142
 31
0.0
  0
LINE
  5
D8
330
7B
100
AcDbEntity
  8
0
  6
Continuous
 62
   179
370
    18
100
AcDbLine
 10
89.1879338763
 20
8.0830014354
 30
0.0
 11
89.0906408622
 21
10.181750738
 31
0.0
  0
LINE
  5
D9
330
7B
100
AcDbEntity
  8
0
  6
Continuous
 62
   179
370
    18
100
AcDbLine
 10
89.7459749087
 20
2.7242700694
 30
0.0
 11
89.7974962577
 21
2.6659765769
 31
0.0
  0
LINE
  5
DA
330
7B
100
AcDbEntity
  8
0
  6
Continuous
 62
   179
370
    18
100
AcDbLine
 10
89.7974962577
 20
2.6659765769
 30
0.0
 11
89.8351851379
 21
2.60192886
 31
0.0
  0
LINE
  5
DB
330
7B
100
AcDbEntity
  8
0
  6
Continuous
 62
   179
370
    18
100
AcDbLine
 10
89.8351851379
 20
2.60192886
 30
0.0
 11
89.8661472522
 21
2.5197759309
 31
0.0
  0
LINE
  5
DC
330
7B
100
AcDbEntity
  8
0
  6
Continuous
 62
   179
370
    18
100
AcDbLine
 10
10.6119938288
 20
7.2203138351
 30
0.0
 11
11.2200151261
 21
7.5713550947
 31
0.0
  0
LINE
  5
DD
330
7B
100
AcDbEntity
  8
0
  6
Continuous
 62
   179
370
    18
100
AcDbLine
 10
11.2347279503
 20
5.2647430194
 30
0.0
 11
10.6267781168
 21
5.6157430194
 31
0.0
  0
LINE
  5
DE
330
7B
100
AcDbEntity
  8
0
  6
Continuous
 62
   179
370
    18
100
AcDbLine
 10
6.4645062371
 20
16.1712617198
 30
0.0
 11
6.4645062371
 21
2.9364593988
 31
0.0
  0
LINE
  5
DF
330
7B
100
AcDbEntity
  8
0
  6
Continuous
 62
   179
370
    18
100
AcDbLine
 10
6.4645062371
 20
2.9364593988
 30
0.0
 11
12.0532757459
 21
2.9364593988
 31
0.0
  0
LINE
  5
E0
330
7B
100
AcDbEntity
  8
0
  6
Continuous
 62
   179
370
    18
100
AcDbLine
 10
12.0532757459
 20
2.9364593988
 30
0.0
 11
12.0532757459
 21
16.1712617198
 31
0.0
  0
LINE
  5
E1
330
7B
100
AcDbEntity
  8
0
  6
Continuous
 62
   179
370
    18
100
AcDbLine
 10
12.0532757459
 20
16.1712617198
 30
0.0
 11
6.4645062371
 21
16.1712617198
 31
0.0
  0
LINE
  5
E2
330
7B
100
AcDbEntity
  8
0
  6
Continuous
 62
   179
370
    18
100
AcDbLine
 10
0.0
 20
16.1712617198
 30
0.0
 11
0.0
 21
2.9364593988
 31
0.0
  0
LINE
  5
E3
330
7B
100
AcDbEntity
  8
0
  6
Continuous
 62
   179
370
    18
100
AcDbLine
 10
0.0
 20
2.9364593988
 30
0.0
 11
5.5887695089
 21
2.9364593988
 31
0.0
  0
LINE
  5
E4
330
7B
100
AcDbEntity
  8
0
  6
Continuous
 62
   179
370
    18
100
AcDbLine
 10
5.5887695089
 20
2.9364593988
 30
0.0
 11
5.5887695089
 21
16.1712617198
 31
0.0
  0
LINE
  5
E5
330
7B
100
AcDbEntity
  8
0
  6
Continuous
 62
   179
370
    18
100
AcDbLine
 10
5.5887695089
 20
16.1712617198
 30
0.0
 11
0.0
 21
16.1712617198
 31
0.0
  0
LINE
  5
E6
330
7B
100
AcDbEntity
  8
0
  6
Continuous
 62
   179
370
    18
100
AcDbLine
 10
1.2591262606
 20
4.7264381407
 30
0.0
 11
4.3296432482
 21
4.7264381407
 31
0.0
  0
LINE
  5
E7
330
7B
100
AcDbEntity
  8
0
  6
Continuous
 62
   179
370
    18
100
AcDbLine
 10
4.3738223747
 20
4.0932862697
 30
0.0
 11
5.0758301722
 21
4.0932862697
 31
0.0
  0
LINE
  5
E8
330
7B
100
AcDbEntity
  8
0
  6
Continuous
 62
   179
370
    18
100
AcDbLine
 10
0.5129393366
 20
4.0932862697
 30
0.0
 11
1.2149471342
 21
4.0932862697
 31
0.0
  0
LINE
  5
E9
330
7B
100
AcDbEntity
  8
0
  6
Continuous
 62
   179
370
    18
100
AcDbLine
 10
4.1819643097
 20
5.4284381407
 30
0.0
 11
1.4068051992
 21
5.4284381407
 31
0.0
  0
LINE
  5
EA
330
7B
100
AcDbEntity
  8
0
  6
Continuous
 62
   179
370
    18
100
AcDbLine
 10
18.517781983
 20
16.1712617198
 30
0.0
 11
18.517781983
 21
2.9364593988
 31
0.0
  0
LINE
  5
EB
330
7B
100
AcDbEntity
  8
0
  6
Continuous
 62
   179
370
    18
100
AcDbLine
 10
18.517781983
 20
2.9364593988
 30
0.0
 11
12.9290124742
 21
2.9364593988
 31
0.0
  0
LINE
  5
EC
330
7B
100
AcDbEntity
  8
0
  6
Continuous
 62
   179
370
    18
100
AcDbLine
 10
12.9290124742
 20
2.9364593988
 30
0.0
 11
12.9290124742
 21
16.1712617198
 31
0.0
  0
LINE
  5
ED
330
7B
100
AcDbEntity
  8
0
  6
Continuous
 62
   179
370
    18
100
AcDbLine
 10
12.9290124742
 20
16.1712617198
 30
0.0
 11
18.517781983
 21
16.1712617198
 31
0.0
  0
INSERT
  5
F3
330
7B
100
AcDbEntity
  8
0
  6
Continuous
 62
     7
370
     0
100
AcDbBlockReference
  2
SW_NOTE_0
 10
1.8998941161
 20
-0.3226565443
 30
0.0
  0
INSERT
  5
F8
330
7B
100
AcDbEntity
  8
0
  6
Continuous
 62
     7
370
     0
100
AcDbBlockReference
  2
SW_NOTE_0_1
 10
29.1164837035
 20
12.7459167441
 30
0.0
  0
INSERT
  5
100
330
7B
100
AcDbEntity
  8
0
  6
Continuous
 62
     7
370
     0
100
AcDbBlockReference
  2
SW_NOTE_0_2
 10
28.8863479825
 20
8.6365742194
 30
0.0
  0
ENDBLK
  5
7D
330
7B
100
AcDbEntity
  8
0
100
AcDbBlockEnd
  0
BLOCK
  5
EF
330
EE
100
AcDbEntity
  8
0
100
AcDbBlockBegin
  2
SW_NOTE_0
 70
     0
 10
0.0
 20
0.0
 30
0.0
  3
SW_NOTE_0
  1

  0
MTEXT
  5
F2
330
EE
100
AcDbEntity
  8
0
  6
Continuous
 62
     0
370
     0
100
AcDbMText
 10
7.46875
 20
2.5781354795
 30
0.0
 40
2.0
 41
0.0
 71
     2
 72
     1
  1
www.aco.ch
  7
SLDTEXTSTYLE0
 73
     1
 44
1.0
  0
ENDBLK
  5
F0
330
EE
100
AcDbEntity
  8
0
100
AcDbBlockEnd
  0
BLOCK
  5
F5
330
F4
100
AcDbEntity
  8
0
100
AcDbBlockBegin
  2
SW_NOTE_0_1
 70
     0
 10
0.0
 20
0.0
 30
0.0
  3
SW_NOTE_0_1
  1

  0
MTEXT
  5
F7
330
F4
100
AcDbEntity
  8
0
  6
Continuous
 62
     0
370
     0
100
AcDbMText
 10
0.0
 20
3.8672032193
 30
0.0
 40
3.0
 41
0.0
 71
     1
 72
     1
  1
ACO AG
  7
SLDTEXTSTYLE0
 73
     1
 44
1.0
  0
ENDBLK
  5
F6
330
F4
100
AcDbEntity
  8
0
100
AcDbBlockEnd
  0
BLOCK
  5
FA
330
F9
100
AcDbEntity
  8
0
100
AcDbBlockBegin
  2
SW_NOTE_0_2
 70
     0
 10
0.0
 20
0.0
 30
0.0
  3
SW_NOTE_0_2
  1

  0
MTEXT
  5
FC
330
F9
100
AcDbEntity
  8
0
  6
Continuous
 62
     0
370
     0
100
AcDbMText
 10
0.0
 20
2.5781354795
 30
0.0
 40
2.0
 41
0.0
 71
     1
 72
     1
  1
Industrie Kleinzaun
  7
SLDTEXTSTYLE0
 73
     1
 44
1.0
  0
MTEXT
  5
FD
330
F9
100
AcDbEntity
  8
0
  6
Continuous
 62
     0
370
     0
100
AcDbMText
 10
0.0
 20
-0.4218645465
 30
0.0
 40
2.0
 41
0.0
 71
     1
 72
     1
  1
CH-8754 Netstal
  7
SLDTEXTSTYLE0
 73
     1
 44
1.0
  0
MTEXT
  5
FE
330
F9
100
AcDbEntity
  8
0
  6
Continuous
 62
     0
370
     0
100
AcDbMText
 10
0.0
 20
-3.4218645726
 30
0.0
 40
2.0
 41
0.0
 71
     1
 72
     1
  1
Tel. 055 / 645 53 00
  7
SLDTEXTSTYLE0
 73
     1
 44
1.0
  0
MTEXT
  5
FF
330
F9
100
AcDbEntity
  8
0
  6
Continuous
 62
     0
370
     0
100
AcDbMText
 10
0.0
 20
-6.4218645987
 30
0.0
 40
2.0
 41
0.0
 71
     1
 72
     1
  1
E-Mail: aco@aco.ch
  7
SLDTEXTSTYLE0
 73
     1
 44
1.0
  0
ENDBLK
  5
FB
330
F9
100
AcDbEntity
  8
0
100
AcDbBlockEnd
  0
BLOCK
  5
179
330
178
100
AcDbEntity
  8
0
100
AcDbBlockBegin
  2
SW_NOTE_0_3
 70
     0
 10
0.0
 20
0.0
 30
0.0
  3
SW_NOTE_0_3
  1

  0
MTEXT
  5
17B
330
178
100
AcDbEntity
  8
0
  6
Continuous
 62
     0
370
     0
100
AcDbMText
 10
0.0
 20
1.9336016097
 30
0.0
 40
1.5
 41
0.0
 71
     1
 72
     1
  1
Diese Zeichnung darf weder kopiert
  7
SLDTEXTSTYLE0
 73
     1
 44
1.0
  0
MTEXT
  5
17C
330
178
100
AcDbEntity
  8
0
  6
Continuous
 62
     0
370
     0
100
AcDbMText
 10
0.0
 20
-0.5663983345
 30
0.0
 40
1.5
 41
0.0
 71
     1
 72
     1
  1
noch dritten Personen, insbesondere
  7
SLDTEXTSTYLE0
 73
     1
 44
1.0
  0
MTEXT
  5
17D
330
178
100
AcDbEntity
  8
0
  6
Continuous
 62
     0
370
     0
100
AcDbMText
 10
0.0
 20
-3.0663982786
 30
0.0
 40
1.5
 41
0.0
 71
     1
 72
     1
  1
zum Zweck anderweitiger Benutzung
  7
SLDTEXTSTYLE0
 73
     1
 44
1.0
  0
MTEXT
  5
17E
330
178
100
AcDbEntity
  8
0
  6
Continuous
 62
     0
370
     0
100
AcDbMText
 10
0.0
 20
-5.5663982227
 30
0.0
 40
1.5
 41
0.0
 71
     1
 72
     1
  1
mitgeteilt werden und bleibt unser
  7
SLDTEXTSTYLE0
 73
     1
 44
1.0
  0
MTEXT
  5
17F
330
178
100
AcDbEntity
  8
0
  6
Continuous
 62
     0
370
     0
100
AcDbMText
 10
0.0
 20
-8.0663981668
 30
0.0
 40
1.5
 41
0.0
 71
     1
 72
     1
  1
Eigentum.
  7
SLDTEXTSTYLE0
 73
     1
 44
1.0
  0
ENDBLK
  5
17A
330
178
100
AcDbEntity
  8
0
100
AcDbBlockEnd
  0
BLOCK
  5
1B8
330
1B7
100
AcDbEntity
  8
0
100
AcDbBlockBegin
  2
_D
 70
     0
 10
0.0
 20
0.0
 30
0.0
  3
_D
  1

  0
SOLID
  5
1BA
330
1B7
100
AcDbEntity
  8
0
  6
Continuous
 62
     7
370
    18
100
AcDbTrace
 10
165.6487461779
 20
152.9521190227
 30
0.0
 11
168.5043697173
 21
155.0462429516
 31
0.0
 12
167.7428701068
 22
155.8077425621
 32
0.0
 13
167.7428701068
 23
155.8077425621
 33
0.0
  0
LINE
  5
1BB
330
1B7
100
AcDbEntity
  8
0
  6
Continuous
 62
     7
370
     0
100
AcDbLine
 10
165.6487461779
 20
152.9521190227
 30
0.0
 11
178.7246985254
 21
166.0280713702
 31
0.0
  0
MTEXT
  5
1BC
330
1B7
100
AcDbEntity
  8
0
  6
Continuous
 62
     7
370
    18
100
AcDbMText
 10
165.311676214
 20
158.990731556
 30
0.0
 40
3.5
 41
0.0
 71
     1
 72
     1
  1
%%c
  7
SLDTEXTSTYLE0
 11
0.7071067811865462
 21
0.7071067811865488
 31
0.0
 73
     1
 44
1.0
  0
MTEXT
  5
1BD
330
1B7
100
AcDbEntity
  8
0
  6
Continuous
 62
     7
370
    18
100
AcDbMText
 10
168.913133145
 20
162.6059379085
 30
0.0
 40
3.5
 41
0.0
 71
     1
 72
     1
  1
88.3
  7
SLDTEXTSTYLE0
 11
0.7071067811865462
 21
0.7071067811865488
 31
0.0
 73
     1
 44
1.0
  0
ENDBLK
  5
1B9
330
1B7
100
AcDbEntity
  8
0
100
AcDbBlockEnd
  0
BLOCK
  5
1C1
330
1C0
100
AcDbEntity
  8
0
100
AcDbBlockBegin
  2
_D_1
 70
     0
 10
0.0
 20
0.0
 30
0.0
  3
_D_1
  1

  0
SOLID
  5
1C3
330
1C0
100
AcDbEntity
  8
0
  6
Continuous
 62
     7
370
    18
100
AcDbTrace
 10
103.1699799739
 20
103.6846403894
 30
0.0
 11
106.4702996564
 21
104.9683190181
 31
0.0
 12
105.9318381179
 22
105.9009617606
 32
0.0
 13
105.9318381179
 23
105.9009617606
 33
0.0
  0
SOLID
  5
1C4
330
1C0
100
AcDbEntity
  8
0
  6
Continuous
 62
     7
370
    18
100
AcDbTrace
 10
165.6864639916
 20
139.7785492658
 30
0.0
 11
162.3861443092
 21
138.4948706371
 31
0.0
 12
162.9246058476
 22
137.5622278945
 32
0.0
 13
162.9246058476
 23
137.5622278945
 33
0.0
  0
LINE
  5
1C5
330
1C0
100
AcDbEntity
  8
0
  6
Continuous
 62
     7
370
     0
100
AcDbLine
 10
165.6864639916
 20
139.7785492658
 30
0.0
 11
188.2448183886
 21
152.8026212493
 31
0.0
  0
LINE
  5
1C6
330
1C0
100
AcDbEntity
  8
0
  6
Continuous
 62
     7
370
     0
100
AcDbLine
 10
165.6864639916
 20
139.7785492658
 30
0.0
 11
103.1699799739
 21
103.6846403894
 31
0.0
  0
MTEXT
  5
1C7
330
1C0
100
AcDbEntity
  8
0
  6
Continuous
 62
     7
370
    18
100
AcDbMText
 10
173.4674677305
 20
149.476563917
 30
0.0
 40
3.5
 41
0.0
 71
     1
 72
     1
  1
%%c
  7
SLDTEXTSTYLE0
 11
0.8660254037844378
 21
0.5000000000000014
 31
0.0
 73
     1
 44
1.0
  0
MTEXT
  5
1C8
330
1C0
100
AcDbEntity
  8
0
  6
Continuous
 62
     7
370
    18
100
AcDbMText
 10
177.8818922484
 20
152.0364594564
 30
0.0
 40
3.5
 41
0.0
 71
     1
 72
     1
  1
72.2
  7
SLDTEXTSTYLE0
 11
0.8660254037844378
 21
0.5000000000000014
 31
0.0
 73
     1
 44
1.0
  0
ENDBLK
  5
1C2
330
1C0
100
AcDbEntity
  8
0
100
AcDbBlockEnd
  0
BLOCK
  5
1CA
330
1C9
100
AcDbEntity
  8
0
100
AcDbBlockBegin
  2
SW_CENTERMARKSYMBOL_0
 70
     0
 10
0.0
 20
0.0
 30
0.0
  3
SW_CENTERMARKSYMBOL_0
  1

  0
LINE
  5
1CC
330
1C9
100
AcDbEntity
  8
0
  6
Continuous
 62
     0
370
    18
100
AcDbLine
 10
0.0
 20
0.0
 30
0.0
 11
0.0
 21
2.5
 31
0.0
  0
LINE
  5
1CD
330
1C9
100
AcDbEntity
  8
0
  6
Continuous
 62
     0
370
    18
100
AcDbLine
 10
0.0
 20
0.0
 30
0.0
 11
-2.5
 21
0.0
 31
0.0
  0
LINE
  5
1CE
330
1C9
100
AcDbEntity
  8
0
  6
Continuous
 62
     0
370
    18
100
AcDbLine
 10
0.0
 20
0.0
 30
0.0
 11
0.0
 21
-2.5
 31
0.0
  0
LINE
  5
1CF
330
1C9
100
AcDbEntity
  8
0
  6
Continuous
 62
     0
370
    18
100
AcDbLine
 10
0.0
 20
0.0
 30
0.0
 11
2.5
 21
0.0
 31
0.0
  0
LINE
  5
1D0
330
1C9
100
AcDbEntity
  8
0
  6
Continuous
 62
     0
370
    18
100
AcDbLine
 10
0.0
 20
5.0
 30
0.0
 11
0.0
 21
46.6524887412
 31
0.0
  0
LINE
  5
1D1
330
1C9
100
AcDbEntity
  8
0
  6
Continuous
 62
     0
370
    18
100
AcDbLine
 10
-5.0
 20
0.0
 30
0.0
 11
-46.6524887412
 21
0.0
 31
0.0
  0
LINE
  5
1D2
330
1C9
100
AcDbEntity
  8
0
  6
Continuous
 62
     0
370
    18
100
AcDbLine
 10
0.0
 20
-5.0
 30
0.0
 11
0.0
 21
-46.6524887412
 31
0.0
  0
LINE
  5
1D3
330
1C9
100
AcDbEntity
  8
0
  6
Continuous
 62
     0
370
    18
100
AcDbLine
 10
5.0
 20
0.0
 30
0.0
 11
46.6524887412
 21
0.0
 31
0.0
  0
ENDBLK
  5
1CB
330
1C9
100
AcDbEntity
  8
0
100
AcDbBlockEnd
  0
BLOCK
  5
29F
330
29E
100
AcDbEntity
  8
0
100
AcDbBlockBegin
  2
_D_2
 70
     0
 10
0.0
 20
0.0
 30
0.0
  3
_D_2
  1

  0
SOLID
  5
2A1
330
29E
100
AcDbEntity
  8
0
  6
Continuous
 62
     7
370
    18
100
AcDbTrace
 10
188.5807107239
 20
233.3518688878
 30
0.0
 11
188.0422491854
 21
229.8518688878
 31
0.0
 12
189.1191722624
 22
229.8518688878
 32
0.0
 13
189.1191722624
 23
229.8518688878
 33
0.0
  0
SOLID
  5
2A2
330
29E
100
AcDbEntity
  8
0
  6
Continuous
 62
     7
370
    18
100
AcDbTrace
 10
188.5807107239
 20
216.7503509398
 30
0.0
 11
189.1191722624
 21
220.2503509398
 31
0.0
 12
188.0422491854
 22
220.2503509398
 32
0.0
 13
188.0422491854
 23
220.2503509398
 33
0.0
  0
LINE
  5
2A3
330
29E
100
AcDbEntity
  8
0
  6
Continuous
 62
     7
370
     0
100
AcDbLine
 10
176.1746695896
 20
233.3518688878
 30
0.0
 11
189.5807107239
 21
233.3518688878
 31
0.0
  0
LINE
  5
2A4
330
29E
100
AcDbEntity
  8
0
  6
Continuous
 62
     7
370
     0
100
AcDbLine
 10
175.4051607295
 20
216.7503509398
 30
0.0
 11
189.5807107239
 21
216.7503509398
 31
0.0
  0
LINE
  5
2A5
330
29E
100
AcDbEntity
  8
0
  6
Continuous
 62
     7
370
     0
100
AcDbLine
 10
188.5807107239
 20
233.3518688878
 30
0.0
 11
188.5807107239
 21
216.7503509398
 31
0.0
  0
MTEXT
  5
2A6
330
29E
100
AcDbEntity
  8
0
  6
Continuous
 62
     7
370
    18
100
AcDbMText
 10
184.0689734019
 20
220.3722905852
 30
0.0
 40
3.5
 41
0.0
 71
     1
 72
     1
  1
16.6
  7
SLDTEXTSTYLE0
 11
-7.044195017643634E-15
 21
1.0
 31
0.0
 73
     1
 44
1.0
  0
ENDBLK
  5
2A0
330
29E
100
AcDbEntity
  8
0
100
AcDbBlockEnd
  0
ENDSEC
  0
SECTION
  2
ENTITIES
  0
LINE
  5
101
330
1F
100
AcDbEntity
  8
LINIEN-DÜNN
  6
CENTERX2
100
AcDbLine
 10
352.6174545849
 20
46.9080238789
 30
0.0
 11
352.6174545849
 21
39.4621586124
 31
0.0
  0
LINE
  5
102
330
1F
100
AcDbEntity
  8
LINIEN-DÜNN
100
AcDbLine
 10
357.7661698132
 20
46.3720107039
 30
0.0
 11
357.7661698132
 21
39.9353173413
 31
0.0
  0
LINE
  5
103
330
1F
100
AcDbEntity
  8
LINIEN-DÜNN
100
AcDbLine
 10
364.6059427486
 20
44.7376225767
 30
0.0
 11
364.6059427486
 21
41.5697054685
 31
0.0
  0
LINE
  5
104
330
1F
100
AcDbEntity
  8
LINIEN-DÜNN
100
AcDbLine
 10
364.6059427486
 20
44.7376225767
 30
0.0
 11
357.7661698132
 21
46.3720107039
 31
0.0
  0
LINE
  5
105
330
1F
100
AcDbEntity
  8
LINIEN-DÜNN
100
AcDbLine
 10
15.0
 20
198.5
 30
0.0
 11
20.0
 21
198.5
 31
0.0
  0
LINE
  5
106
330
1F
100
AcDbEntity
  8
LINIEN-DÜNN
100
AcDbLine
 10
12.0
 20
148.5
 30
0.0
 11
0.0
 21
148.5
 31
0.0
  0
LINE
  5
107
330
1F
100
AcDbEntity
  8
LINIEN-DÜNN
100
AcDbLine
 10
357.7661698132
 20
39.9353173413
 30
0.0
 11
364.6059427486
 21
41.5697054685
 31
0.0
  0
LINE
  5
108
330
1F
100
AcDbEntity
  8
LINIEN-DÜNN
  6
CENTERX2
100
AcDbLine
 10
348.6240467841
 20
43.1536640226
 30
0.0
 11
356.6108623857
 21
43.1536640226
 31
0.0
  0
LINE
  5
109
330
1F
100
AcDbEntity
  8
LINIEN-DÜNN
  6
CENTERX2
100
AcDbLine
 10
357.1289238876
 20
43.1536640226
 30
0.0
 11
365.6255362296
 21
43.1536640226
 31
0.0
  0
LINE
  5
10A
330
1F
100
AcDbEntity
  8
LINIEN-DÜNN
100
AcDbLine
 10
0.0
 20
0.0
 30
0.0
 11
420.0
 21
0.0
 31
0.0
  0
LINE
  5
10B
330
1F
100
AcDbEntity
  8
LINIEN-DÜNN
100
AcDbLine
 10
0.0
 20
0.0
 30
0.0
 11
0.0
 21
297.0
 31
0.0
  0
LINE
  5
10C
330
1F
100
AcDbEntity
  8
LINIEN-DÜNN
100
AcDbLine
 10
0.0
 20
297.0
 30
0.0
 11
420.0
 21
297.0
 31
0.0
  0
LINE
  5
10D
330
1F
100
AcDbEntity
  8
LINIEN-DÜNN
100
AcDbLine
 10
420.0
 20
0.0
 30
0.0
 11
420.0
 21
297.0
 31
0.0
  0
LINE
  5
10E
330
1F
100
AcDbEntity
  8
LINIEN-NORMAL
100
AcDbLine
 10
228.0
 20
35.0
 30
0.0
 11
410.0
 21
35.0
 31
0.0
  0
LINE
  5
10F
330
1F
100
AcDbEntity
  8
LINIEN-DÜNN
100
AcDbLine
 10
410.0
 20
198.5
 30
0.0
 11
415.0
 21
198.5
 31
0.0
  0
LINE
  5
110
330
1F
100
AcDbEntity
  8
LINIEN-DÜNN
100
AcDbLine
 10
15.0
 20
148.5
 30
0.0
 11
20.0
 21
148.5
 31
0.0
  0
LINE
  5
111
330
1F
100
AcDbEntity
  8
LINIEN-DÜNN
100
AcDbLine
 10
228.0
 20
40.0
 30
0.0
 11
296.6
 21
40.0
 31
0.0
  0
LINE
  5
112
330
1F
100
AcDbEntity
  8
LINIEN-DÜNN
100
AcDbLine
 10
15.0
 20
248.5
 30
0.0
 11
20.0
 21
248.5
 31
0.0
  0
LINE
  5
113
330
1F
100
AcDbEntity
  8
LINIEN-DICK
100
AcDbLine
 10
20.0
 20
287.0
 30
0.0
 11
20.0
 21
10.0
 31
0.0
  0
LINE
  5
114
330
1F
100
AcDbEntity
  8
LINIEN-DICK
100
AcDbLine
 10
410.0
 20
287.0
 30
0.0
 11
20.0
 21
287.0
 31
0.0
  0
LINE
  5
115
330
1F
100
AcDbEntity
  8
LINIEN-DICK
100
AcDbLine
 10
410.0
 20
5.0
 30
0.0
 11
410.0
 21
287.0
 31
0.0
  0
LINE
  5
116
330
1F
100
AcDbEntity
  8
LINIEN-DICK
100
AcDbLine
 10
20.0
 20
10.0
 30
0.0
 11
415.0
 21
10.0
 31
0.0
  0
LINE
  5
117
330
1F
100
AcDbEntity
  8
LINIEN-DÜNN
100
AcDbLine
 10
410.0
 20
148.5
 30
0.0
 11
415.0
 21
148.5
 31
0.0
  0
LINE
  5
118
330
1F
100
AcDbEntity
  8
LINIEN-DÜNN
100
AcDbLine
 10
228.0
 20
50.0
 30
0.0
 11
296.6
 21
50.0
 31
0.0
  0
LINE
  5
119
330
1F
100
AcDbEntity
  8
LINIEN-DÜNN
100
AcDbLine
 10
15.0
 20
98.5
 30
0.0
 11
20.0
 21
98.5
 31
0.0
  0
LINE
  5
11A
330
1F
100
AcDbEntity
  8
LINIEN-DÜNN
100
AcDbLine
 10
296.6
 20
45.0
 30
0.0
 11
228.0
 21
45.0
 31
0.0
  0
LINE
  5
11B
330
1F
100
AcDbEntity
  8
LINIEN-DÜNN
100
AcDbLine
 10
65.0
 20
292.0
 30
0.0
 11
65.0
 21
287.0
 31
0.0
  0
LINE
  5
11C
330
1F
100
AcDbEntity
  8
LINIEN-DÜNN
100
AcDbLine
 10
230.0
 20
292.0
 30
0.0
 11
230.0
 21
297.0
 31
0.0
  0
LINE
  5
11D
330
1F
100
AcDbEntity
  8
LINIEN-NORMAL
100
AcDbLine
 10
296.6
 20
55.0
 30
0.0
 11
296.6
 21
35.0
 31
0.0
  0
LINE
  5
11E
330
1F
100
AcDbEntity
  8
LINIEN-DÜNN
100
AcDbLine
 10
410.0
 20
98.5
 30
0.0
 11
415.0
 21
98.5
 31
0.0
  0
LINE
  5
11F
330
1F
100
AcDbEntity
  8
VORLAGE_BEMASSUNG
100
AcDbLine
 10
230.0
 20
5.0
 30
0.0
 11
230.0
 21
0.0
 31
0.0
  0
LINE
  5
120
330
1F
100
AcDbEntity
  8
LINIEN-DÜNN
100
AcDbLine
 10
125.0
 20
292.0
 30
0.0
 11
125.0
 21
297.0
 31
0.0
  0
LINE
  5
121
330
1F
100
AcDbEntity
  8
LINIEN-DÜNN
100
AcDbLine
 10
125.0
 20
5.0
 30
0.0
 11
125.0
 21
0.0
 31
0.0
  0
LINE
  5
122
330
1F
100
AcDbEntity
  8
LINIEN-NORMAL
100
AcDbLine
 10
410.0
 20
55.0
 30
0.0
 11
228.0
 21
55.0
 31
0.0
  0
LINE
  5
123
330
1F
100
AcDbEntity
  8
LINIEN-DÜNN
100
AcDbLine
 10
228.0
 20
55.0
 30
0.0
 11
410.0
 21
55.0
 31
0.0
  0
LINE
  5
124
330
1F
100
AcDbEntity
  8
LINIEN-DÜNN
100
AcDbLine
 10
410.0
 20
55.0
 30
0.0
 11
228.0
 21
55.0
 31
0.0
  0
LINE
  5
125
330
1F
100
AcDbEntity
  8
LINIEN-DÜNN
100
AcDbLine
 10
268.0
 20
76.5
 30
0.0
 11
268.0
 21
55.0
 31
0.0
  0
LINE
  5
126
330
1F
100
AcDbEntity
  8
LINIEN-DÜNN
100
AcDbLine
 10
271.6
 20
55.0
 30
0.0
 11
271.6
 21
40.0
 31
0.0
  0
LINE
  5
127
330
1F
100
AcDbEntity
  8
LINIEN-DÜNN
100
AcDbLine
 10
247.0
 20
55.0
 30
0.0
 11
247.0
 21
35.0
 31
0.0
  0
LINE
  5
128
330
1F
100
AcDbEntity
  8
LINIEN-DICK
100
AcDbLine
 10
228.0
 20
76.5
 30
0.0
 11
228.0
 21
10.0
 31
0.0
  0
LINE
  5
129
330
1F
100
AcDbEntity
  8
LINIEN-DÜNN
100
AcDbLine
 10
15.0
 20
292.0
 30
0.0
 11
415.0
 21
292.0
 31
0.0
  0
LINE
  5
12A
330
1F
100
AcDbEntity
  8
LINIEN-DÜNN
100
AcDbLine
 10
228.0
 20
65.75
 30
0.0
 11
310.0
 21
65.75
 31
0.0
  0
LINE
  5
12B
330
1F
100
AcDbEntity
  8
LINIEN-DICK
100
AcDbLine
 10
228.0
 20
76.5
 30
0.0
 11
410.0
 21
76.5
 31
0.0
  0
LINE
  5
12C
330
1F
100
AcDbEntity
  8
LINIEN-DÜNN
100
AcDbLine
 10
15.0
 20
48.5
 30
0.0
 11
20.0
 21
48.5
 31
0.0
  0
LINE
  5
12D
330
1F
100
AcDbEntity
  8
LINIEN-DÜNN
100
AcDbLine
 10
410.0
 20
48.5
 30
0.0
 11
415.0
 21
48.5
 31
0.0
  0
LINE
  5
12E
330
1F
100
AcDbEntity
  8
LINIEN-DÜNN
100
AcDbLine
 10
332.6610845472
 20
20.0
 30
0.0
 11
332.6610845472
 21
10.0
 31
0.0
  0
LINE
  5
12F
330
1F
100
AcDbEntity
  8
LINIEN-DÜNN
100
AcDbLine
 10
410.0
 20
248.5
 30
0.0
 11
415.0
 21
248.5
 31
0.0
  0
LINE
  5
130
330
1F
100
AcDbEntity
  8
LINIEN-DÜNN
100
AcDbLine
 10
65.0
 20
10.0
 30
0.0
 11
65.0
 21
5.0
 31
0.0
  0
LINE
  5
131
330
1F
100
AcDbEntity
  8
LINIEN-DÜNN
100
AcDbLine
 10
115.0
 20
10.0
 30
0.0
 11
115.0
 21
5.0
 31
0.0
  0
LINE
  5
132
330
1F
100
AcDbEntity
  8
LINIEN-DÜNN
100
AcDbLine
 10
115.0
 20
292.0
 30
0.0
 11
115.0
 21
287.0
 31
0.0
  0
LINE
  5
133
330
1F
100
AcDbEntity
  8
LINIEN-DÜNN
100
AcDbLine
 10
165.0
 20
10.0
 30
0.0
 11
165.0
 21
5.0
 31
0.0
  0
LINE
  5
134
330
1F
100
AcDbEntity
  8
LINIEN-DÜNN
100
AcDbLine
 10
165.0
 20
292.0
 30
0.0
 11
165.0
 21
287.0
 31
0.0
  0
LINE
  5
135
330
1F
100
AcDbEntity
  8
LINIEN-DÜNN
100
AcDbLine
 10
215.0
 20
10.0
 30
0.0
 11
215.0
 21
5.0
 31
0.0
  0
LINE
  5
136
330
1F
100
AcDbEntity
  8
LINIEN-DÜNN
100
AcDbLine
 10
215.0
 20
292.0
 30
0.0
 11
215.0
 21
287.0
 31
0.0
  0
LINE
  5
137
330
1F
100
AcDbEntity
  8
LINIEN-DÜNN
100
AcDbLine
 10
265.0
 20
10.0
 30
0.0
 11
265.0
 21
5.0
 31
0.0
  0
LINE
  5
138
330
1F
100
AcDbEntity
  8
LINIEN-DÜNN
100
AcDbLine
 10
265.0
 20
292.0
 30
0.0
 11
265.0
 21
287.0
 31
0.0
  0
LINE
  5
139
330
1F
100
AcDbEntity
  8
LINIEN-DÜNN
100
AcDbLine
 10
347.6610845472
 20
20.0
 30
0.0
 11
347.6610845472
 21
10.0
 31
0.0
  0
LINE
  5
13A
330
1F
100
AcDbEntity
  8
LINIEN-DÜNN
100
AcDbLine
 10
362.6610845472
 20
20.0
 30
0.0
 11
362.6610845472
 21
10.0
 31
0.0
  0
LINE
  5
13B
330
1F
100
AcDbEntity
  8
LINIEN-NORMAL
100
AcDbLine
 10
327.6610845472
 20
10.0
 30
0.0
 11
327.6610845472
 21
55.0
 31
0.0
  0
LINE
  5
13C
330
1F
100
AcDbEntity
  8
LINIEN-DÜNN
100
AcDbLine
 10
20.0
 20
292.0
 30
0.0
 11
20.0
 21
297.0
 31
0.0
  0
LINE
  5
13D
330
1F
100
AcDbEntity
  8
LINIEN-DÜNN
100
AcDbLine
 10
20.0
 20
5.0
 30
0.0
 11
20.0
 21
0.0
 31
0.0
  0
LINE
  5
13E
330
1F
100
AcDbEntity
  8
LINIEN-DÜNN
100
AcDbLine
 10
315.0
 20
10.0
 30
0.0
 11
315.0
 21
5.0
 31
0.0
  0
LINE
  5
13F
330
1F
100
AcDbEntity
  8
LINIEN-DÜNN
100
AcDbLine
 10
315.0
 20
292.0
 30
0.0
 11
315.0
 21
287.0
 31
0.0
  0
LINE
  5
140
330
1F
100
AcDbEntity
  8
LINIEN-DÜNN
100
AcDbLine
 10
365.0
 20
10.0
 30
0.0
 11
365.0
 21
5.0
 31
0.0
  0
LINE
  5
141
330
1F
100
AcDbEntity
  8
LINIEN-DÜNN
100
AcDbLine
 10
365.0
 20
292.0
 30
0.0
 11
365.0
 21
287.0
 31
0.0
  0
LINE
  5
142
330
1F
100
AcDbEntity
  8
LINIEN-DÜNN
100
AcDbLine
 10
15.0
 20
292.0
 30
0.0
 11
15.0
 21
5.0
 31
0.0
  0
LINE
  5
143
330
1F
100
AcDbEntity
  8
LINIEN-DÜNN
100
AcDbLine
 10
15.0
 20
5.0
 30
0.0
 11
415.0
 21
5.0
 31
0.0
  0
LINE
  5
144
330
1F
100
AcDbEntity
  8
LINIEN-DÜNN
100
AcDbLine
 10
415.0
 20
292.0
 30
0.0
 11
415.0
 21
5.0
 31
0.0
  0
LINE
  5
145
330
1F
100
AcDbEntity
  8
LINIEN-DÜNN
100
AcDbLine
 10
347.6610845472
 20
44.213444
 30
0.0
 11
327.6610845472
 21
44.213444
 31
0.0
  0
LINE
  5
146
330
1F
100
AcDbEntity
  8
LINIEN-DÜNN
100
AcDbLine
 10
347.6610845472
 20
35.0
 30
0.0
 11
347.6610845472
 21
55.0
 31
0.0
  0
LINE
  5
147
330
1F
100
AcDbEntity
  8
LINIEN-DÜNN
100
AcDbLine
 10
370.057188
 20
55.012032
 30
0.0
 11
370.057188
 21
35.0
 31
0.0
  0
LINE
  5
148
330
1F
100
AcDbEntity
  8
LINIEN-DÜNN
100
AcDbLine
 10
398.0
 20
35.0
 30
0.0
 11
398.0
 21
20.0
 31
0.0
  0
LINE
  5
149
330
1F
100
AcDbEntity
  8
LINIEN-DÜNN
100
AcDbLine
 10
410.0
 20
15.0
 30
0.0
 11
327.6610845472
 21
15.0
 31
0.0
  0
LINE
  5
14A
330
1F
100
AcDbEntity
  8
LINIEN-DÜNN
100
AcDbLine
 10
327.6610845472
 20
20.0
 30
0.0
 11
410.0
 21
20.0
 31
0.0
  0
LINE
  5
14B
330
1F
100
AcDbEntity
  8
LINIEN-DÜNN
100
AcDbLine
 10
341.485486
 20
20.0
 30
0.0
 11
341.485486
 21
27.564675
 31
0.0
  0
LINE
  5
14C
330
1F
100
AcDbEntity
  8
LINIEN-NORMAL
100
AcDbLine
 10
310.0
 20
76.5
 30
0.0
 11
310.0
 21
55.0
 31
0.0
  0
CIRCLE
  5
14D
330
1F
100
AcDbEntity
  8
LINIEN-DÜNN
100
AcDbCircle
 10
11.0
 20
108.5
 30
0.0
 40
2.750000000000001
  0
CIRCLE
  5
14E
330
1F
100
AcDbEntity
  8
LINIEN-DÜNN
100
AcDbCircle
 10
11.0
 20
188.5
 30
0.0
 40
2.750000000000001
  0
CIRCLE
  5
14F
330
1F
100
AcDbEntity
  8
LINIEN-DÜNN
100
AcDbCircle
 10
352.6174545849
 20
43.1536640226
 30
0.0
 40
3.218346681300138
  0
CIRCLE
  5
150
330
1F
100
AcDbEntity
  8
LINIEN-DÜNN
100
AcDbCircle
 10
352.6174545849
 20
43.1536640226
 30
0.0
 40
1.583958554121555
  0
INSERT
  5
151
330
1F
100
AcDbEntity
  8
0
  6
Continuous
 62
     7
100
AcDbBlockReference
  2
ACO-Logo
 10
314.3510726297
 20
57.6366106772
 30
0.0
  0
POINT
  5
152
330
1F
100
AcDbEntity
  8
VORLAGE_BEMASSUNG
100
AcDbPoint
 10
0.0
 20
0.0
 30
0.0
  0
POINT
  5
153
330
1F
100
AcDbEntity
  8
VORLAGE_BEMASSUNG
100
AcDbPoint
 10
410.0
 20
10.0
 30
0.0
  0
MTEXT
  5
154
330
1F
100
AcDbEntity
  8
VORLAGE_TEXT
100
AcDbMText
 10
17.7359443114
 20
124.8017866468
 30
0.0
 40
2.0
 41
0.0
 71
     2
 72
     1
  1
D
  7
SLDTEXTSTYLE0
 73
     1
 44
1.0
  0
MTEXT
  5
155
330
1F
100
AcDbEntity
  8
VORLAGE_TEXT
100
AcDbMText
 10
17.6274822413
 20
174.7261854936
 30
0.0
 40
2.0
 41
0.0
 71
     2
 72
     1
  1
C
  7
SLDTEXTSTYLE0
 73
     1
 44
1.0
  0
MTEXT
  5
156
330
1F
100
AcDbEntity
  8
VORLAGE_TEXT
100
AcDbMText
 10
17.5516905072
 20
224.4926420442
 30
0.0
 40
2.0
 41
0.0
 71
     2
 72
     1
  1
B
  7
SLDTEXTSTYLE0
 73
     1
 44
1.0
  0
MTEXT
  5
157
330
1F
100
AcDbEntity
  8
VORLAGE_TEXT
100
AcDbMText
 10
290.0344258799
 20
290.5428789914
 30
0.0
 40
2.0
 41
0.0
 71
     2
 72
     1
  1
6
  7
SLDTEXTSTYLE0
 73
     1
 44
1.0
  0
MTEXT
  5
158
330
1F
100
AcDbEntity
  8
VORLAGE_TEXT
100
AcDbMText
 10
240.0417859812
 20
290.6369260235
 30
0.0
 40
2.0
 41
0.0
 71
     2
 72
     1
  1
5
  7
SLDTEXTSTYLE0
 73
     1
 44
1.0
  0
MTEXT
  5
159
330
1F
100
AcDbEntity
  8
VORLAGE_TEXT
100
AcDbMText
 10
190.0300404524
 20
290.6343268032
 30
0.0
 40
2.0
 41
0.0
 71
     2
 72
     1
  1
4
  7
SLDTEXTSTYLE0
 73
     1
 44
1.0
  0
MTEXT
  5
15A
330
1F
100
AcDbEntity
  8
VORLAGE_TEXT
100
AcDbMText
 10
140.0165868337
 20
290.6378887952
 30
0.0
 40
2.0
 41
0.0
 71
     2
 72
     1
  1
3
  7
SLDTEXTSTYLE0
 73
     1
 44
1.0
  0
MTEXT
  5
15B
330
1F
100
AcDbEntity
  8
VORLAGE_TEXT
100
AcDbMText
 10
90.033223
 20
290.5566702875
 30
0.0
 40
2.0
 41
0.0
 71
     2
 72
     1
  1
2
  7
SLDTEXTSTYLE0
 73
     1
 44
1.0
  0
MTEXT
  5
15C
330
1F
100
AcDbEntity
  8
VORLAGE_TEXT
100
AcDbMText
 10
40.0509551097
 20
290.5530165805
 30
0.0
 40
2.0
 41
0.0
 71
     2
 72
     1
  1
1
  7
SLDTEXTSTYLE0
 73
     1
 44
1.0
  0
MTEXT
  5
15D
330
1F
100
AcDbEntity
  8
VORLAGE_TEXT
100
AcDbMText
 10
17.5609786315
 20
271.2966048816
 30
0.0
 40
2.0
 41
0.0
 71
     2
 72
     1
  1
A
  7
SLDTEXTSTYLE0
 73
     1
 44
1.0
  0
MTEXT
  5
15E
330
1F
100
AcDbEntity
  8
VORLAGE_TEXT
100
AcDbMText
 10
89.9333968896
 20
8.5904490253
 30
0.0
 40
2.0
 41
0.0
 71
     2
 72
     1
  1
2
  7
SLDTEXTSTYLE0
 73
     1
 44
1.0
  0
MTEXT
  5
15F
330
1F
100
AcDbEntity
  8
VORLAGE_TEXT
100
AcDbMText
 10
39.9009486579
 20
8.6623118453
 30
0.0
 40
2.0
 41
0.0
 71
     2
 72
     1
  1
1
  7
SLDTEXTSTYLE0
 73
     1
 44
1.0
  0
MTEXT
  5
160
330
1F
100
AcDbEntity
  8
VORLAGE_TEXT
100
AcDbMText
 10
190.0227230239
 20
8.7073169286
 30
0.0
 40
2.0
 41
0.0
 71
     2
 72
     1
  1
4
  7
SLDTEXTSTYLE0
 73
     1
 44
1.0
  0
MTEXT
  5
161
330
1F
100
AcDbEntity
  8
VORLAGE_TEXT
100
AcDbMText
 10
140.0453427777
 20
8.5647154541
 30
0.0
 40
2.0
 41
0.0
 71
     2
 72
     1
  1
3
  7
SLDTEXTSTYLE0
 73
     1
 44
1.0
  0
MTEXT
  5
162
330
1F
100
AcDbEntity
  8
VORLAGE_TEXT
100
AcDbMText
 10
239.8749782531
 20
8.5637526825
 30
0.0
 40
2.0
 41
0.0
 71
     2
 72
     1
  1
5
  7
SLDTEXTSTYLE0
 73
     1
 44
1.0
  0
MTEXT
  5
163
330
1F
100
AcDbEntity
  8
VORLAGE_TEXT
100
AcDbMText
 10
412.6717254925
 20
224.51208263
 30
0.0
 40
2.0
 41
0.0
 71
     2
 72
     1
  1
B
  7
SLDTEXTSTYLE0
 73
     1
 44
1.0
  0
MTEXT
  5
164
330
1F
100
AcDbEntity
  8
VORLAGE_TEXT
100
AcDbMText
 10
412.5951211154
 20
271.2798202564
 30
0.0
 40
2.0
 41
0.0
 71
     2
 72
     1
  1
A
  7
SLDTEXTSTYLE0
 73
     1
 44
1.0
  0
MTEXT
  5
165
330
1F
100
AcDbEntity
  8
VORLAGE_TEXT
100
AcDbMText
 10
412.6491448679
 20
174.7279841048
 30
0.0
 40
2.0
 41
0.0
 71
     2
 72
     1
  1
C
  7
SLDTEXTSTYLE0
 73
     1
 44
1.0
  0
MTEXT
  5
166
330
1F
100
AcDbEntity
  8
VORLAGE_TEXT
100
AcDbMText
 10
340.0216466634
 20
290.5954278102
 30
0.0
 40
2.0
 41
0.0
 71
     2
 72
     1
  1
7
  7
SLDTEXTSTYLE0
 73
     1
 44
1.0
  0
MTEXT
  5
167
330
1F
100
AcDbEntity
  8
VORLAGE_TEXT
100
AcDbMText
 10
390.037657264
 20
290.6215496941
 30
0.0
 40
2.0
 41
0.0
 71
     2
 72
     1
  1
8
  7
SLDTEXTSTYLE0
 73
     1
 44
1.0
  0
MTEXT
  5
168
330
1F
100
AcDbEntity
  8
VORLAGE_TEXT
100
AcDbMText
 10
17.6897935208
 20
74.7267628143
 30
0.0
 40
2.0
 41
0.0
 71
     2
 72
     1
  1
E
  7
SLDTEXTSTYLE0
 73
     1
 44
1.0
  0
MTEXT
  5
169
330
1F
100
AcDbEntity
  8
VORLAGE_TEXT
100
AcDbMText
 10
17.5936930126
 20
27.773321616
 30
0.0
 40
2.0
 41
0.0
 71
     2
 72
     1
  1
F
  7
SLDTEXTSTYLE0
 73
     1
 44
1.0
  0
MTEXT
  5
16A
330
1F
100
AcDbEntity
  8
VORLAGE_TEXT
100
AcDbMText
 10
339.8003474583
 20
8.7205095051
 30
0.0
 40
2.0
 41
0.0
 71
     2
 72
     1
  1
7
  7
SLDTEXTSTYLE0
 73
     1
 44
1.0
  0
MTEXT
  5
16B
330
1F
100
AcDbEntity
  8
VORLAGE_TEXT
100
AcDbMText
 10
289.7886477179
 20
8.6884673623
 30
0.0
 40
2.0
 41
0.0
 71
     2
 72
     1
  1
6
  7
SLDTEXTSTYLE0
 73
     1
 44
1.0
  0
MTEXT
  5
16C
330
1F
100
AcDbEntity
  8
VORLAGE_TEXT
100
AcDbMText
 10
412.5160699095
 20
74.5096307526
 30
0.0
 40
2.0
 41
0.0
 71
     2
 72
     1
  1
E
  7
SLDTEXTSTYLE0
 73
     1
 44
1.0
  0
MTEXT
  5
16D
330
1F
100
AcDbEntity
  8
VORLAGE_TEXT
100
AcDbMText
 10
412.6234021365
 20
124.4517683275
 30
0.0
 40
2.0
 41
0.0
 71
     2
 72
     1
  1
D
  7
SLDTEXTSTYLE0
 73
     1
 44
1.0
  0
MTEXT
  5
16E
330
1F
100
AcDbEntity
  8
TEXT-DEUTSCH
100
AcDbMText
 10
411.7952690469
 20
41.8548502951
 30
0.0
 40
1.8
 41
0.0
 71
     3
 72
     1
  1
Plotdatum: 18.09.2023
  7
SLDTEXTSTYLE0
 11
-3.269436733918102E-15
 21
1.0
 31
0.0
 73
     1
 44
1.0
  0
MTEXT
  5
16F
330
1F
100
AcDbEntity
  8
VORLAGE_TEXT
100
AcDbMText
 10
412.557933251
 20
8.2549718046
 30
0.0
 40
1.8
 41
0.0
 71
     2
 72
     1
  1
A3
  7
SLDTEXTSTYLE0
 73
     1
 44
1.0
  0
MTEXT
  5
170
330
1F
100
AcDbEntity
  8
VORLAGE_TEXT
100
AcDbMText
 10
390.594604279
 20
8.3847467643
 30
0.0
 40
1.8
 41
0.0
 71
     2
 72
     1
  1
CAD-System: SolidWorks
  7
SLDTEXTSTYLE0
 73
     1
 44
1.0
  0
MTEXT
  5
171
330
1F
100
AcDbEntity
  8
TEXT
100
AcDbMText
 10
403.9986368527
 20
28.4394692021
 30
0.0
 40
5.0
 41
0.0
 71
     2
 72
     1
  1
A
  7
SLDTEXTSTYLE0
 73
     1
 44
1.0
  0
MTEXT
  5
172
330
1F
100
AcDbEntity
  8
TEXT
100
AcDbMText
 10
249.556836311
 20
38.5581729516
 30
0.0
 40
2.0
 41
0.0
 71
     1
 72
     1
  1
Freigegeben
  7
SLDTEXTSTYLE0
 73
     1
 44
1.0
  0
MTEXT
  5
173
330
1F
100
AcDbEntity
  8
TEXT
100
AcDbMText
 10
284.1136255556
 20
43.5473338598
 30
0.0
 40
2.0
 41
0.0
 71
     2
 72
     1
  1
bae
  7
SLDTEXTSTYLE0
 73
     1
 44
1.0
  0
MTEXT
  5
174
330
1F
100
AcDbEntity
  8
TEXT
100
AcDbMText
 10
249.5284668163
 20
43.5603133928
 30
0.0
 40
2.0
 41
0.0
 71
     1
 72
     1
  1
18.09.2023
  7
SLDTEXTSTYLE0
 73
     1
 44
1.0
  0
MTEXT
  5
175
330
1F
100
AcDbEntity
  8
TEXT
100
AcDbMText
 10
284.1309088133
 20
48.5138972561
 30
0.0
 40
2.0
 41
0.0
 71
     2
 72
     1
  1
AB
  7
SLDTEXTSTYLE0
 73
     1
 44
1.0
  0
MTEXT
  5
176
330
1F
100
AcDbEntity
  8
TEXT
100
AcDbMText
 10
249.5284668163
 20
48.4989062069
 30
0.0
 40
2.0
 41
0.0
 71
     1
 72
     1
  1
04.02.2021
  7
SLDTEXTSTYLE0
 73
     1
 44
1.0
  0
MTEXT
  5
177
330
1F
100
AcDbEntity
  8
0
  6
Continuous
 62
     7
370
     0
100
AcDbMText
 10
372.2007348103
 20
38.8723054925
 30
0.0
 40
1.5
 41
0.0
 71
     1
 72
     1
  1
Copyright reserved! © ACO AG
  7
SLDTEXTSTYLE0
 73
     1
 44
1.0
  0
INSERT
  5
180
330
1F
100
AcDbEntity
  8
0
  6
Continuous
 62
     7
370
     0
100
AcDbBlockReference
  2
SW_NOTE_0_3
 10
372.2203831445
 20
51.2202922854
 30
0.0
  0
MTEXT
  5
181
330
1F
100
AcDbEntity
  8
TEXT
100
AcDbMText
 10
364.9468572407
 20
13.5417229519
 30
0.0
 40
2.0
 41
0.0
 71
     1
 72
     1
  1
Erstausgabe
  7
SLDTEXTSTYLE0
 73
     1
 44
1.0
  0
MTEXT
  5
182
330
1F
100
AcDbEntity
  8
TEXT
100
AcDbMText
 10
330.2607505021
 20
13.524501801
 30
0.0
 40
2.0
 41
0.0
 71
     2
 72
     1
  1
-
  7
SLDTEXTSTYLE0
 73
     1
 44
1.0
  0
MTEXT
  5
183
330
1F
100
AcDbEntity
  8
TEXT
100
AcDbMText
 10
364.9468572407
 20
18.4594173137
 30
0.0
 40
2.0
 41
0.0
 71
     1
 72
     1
  1
SAP-Nr.
  7
SLDTEXTSTYLE0
 73
     1
 44
1.0
  0
MTEXT
  5
184
330
1F
100
AcDbEntity
  8
TEXT
100
AcDbMText
 10
354.2676663079
 20
18.5245664709
 30
0.0
 40
2.0
 41
0.0
 71
     2
 72
     1
  1
bae
  7
SLDTEXTSTYLE0
 73
     1
 44
1.0
  0
MTEXT
  5
185
330
1F
100
AcDbEntity
  8
TEXT
100
AcDbMText
 10
340.3080766506
 20
18.5245664709
 30
0.0
 40
2.0
 41
0.0
 71
     2
 72
     1
  1
18.09.2023
  7
SLDTEXTSTYLE0
 73
     1
 44
1.0
  0
MTEXT
  5
186
330
1F
100
AcDbEntity
  8
TEXT
100
AcDbMText
 10
330.227417144
 20
18.524501801
 30
0.0
 40
2.0
 41
0.0
 71
     2
 72
     1
  1
A
  7
SLDTEXTSTYLE0
 73
     1
 44
1.0
  0
MTEXT
  5
187
330
1F
100
AcDbEntity
  8
VORLAGE_TEXT
100
AcDbMText
 10
311.764909851
 20
46.3490312465
 30
0.0
 40
5.0
 41
0.0
 71
     2
 72
     1
  1
1:1
  7
SLDTEXTSTYLE0
 73
     1
 44
1.0
  0
MTEXT
  5
188
330
1F
100
AcDbEntity
  8
VORLAGE_TEXT
100
AcDbMText
 10
230.1851195342
 20
38.7793829468
 30
0.0
 40
2.0
 41
0.0
 71
     1
 72
     1
  1
Status:
  7
SLDTEXTSTYLE0
 73
     1
 44
1.0
  0
MTEXT
  5
189
330
1F
100
AcDbEntity
  8
TEXT
100
AcDbMText
 10
344.926838705
 20
28.2772828851
 30
0.0
 40
5.0
 41
0.0
 71
     1
 72
     1
  1
98405
  7
SLDTEXTSTYLE0
 73
     1
 44
1.0
  0
MTEXT
  5
18A
330
1F
100
AcDbEntity
  8
TEXT
100
AcDbMText
 10
231.1132118803
 20
14.9211049657
 30
0.0
 40
2.5
 41
0.0
 71
     1
 72
     1
  1
Art. Nr.: 2021387
  7
SLDTEXTSTYLE0
 73
     1
 44
1.0
  0
MTEXT
  5
18B
330
1F
100
AcDbEntity
  8
TEXT
100
AcDbMText
 10
231.1475981734
 20
21.4529560996
 30
0.0
 40
2.5
 41
0.0
 71
     1
 72
     1
  1
Pipe Dichtung FPM (Viton)
  7
SLDTEXTSTYLE0
 73
     1
 44
1.0
  0
MTEXT
  5
18C
330
1F
100
AcDbEntity
  8
TEXT
100
AcDbMText
 10
231.1159560181
 20
33.0904969858
 30
0.0
 40
2.5
 41
0.0
 71
     1
 72
     1
  1
ACO-Standard
  7
SLDTEXTSTYLE0
 73
     1
 44
1.0
  0
MTEXT
  5
18D
330
1F
100
AcDbEntity
  8
TEXT
100
AcDbMText
 10
231.1475981734
 20
28.0307932366
 30
0.0
 40
3.5
 41
0.0
 71
     1
 72
     1
  1
Pipe Dichtung Ø75 Viton
  7
SLDTEXTSTYLE0
 73
     1
 44
1.0
  0
MTEXT
  5
18E
330
1F
100
AcDbEntity
  8
VORLAGE_TEXT
100
AcDbMText
 10
348.2746465368
 20
53.819119072
 30
0.0
 40
2.0
 41
0.0
 71
     1
 72
     1
  1
Projektion: ISO-E
  7
SLDTEXTSTYLE0
 73
     1
 44
1.0
  0
MTEXT
  5
18F
330
1F
100
AcDbEntity
  8
TEXT
100
AcDbMText
 10
337.7677091855
 20
49.3670227094
 30
0.0
 40
2.5
 41
0.0
 71
     2
 72
     1
  1
Millimeter
  7
SLDTEXTSTYLE0
 73
     1
 44
1.0
  0
MTEXT
  5
190
330
1F
100
AcDbEntity
  8
VORLAGE_TEXT
100
AcDbMText
 10
337.6323777421
 20
53.855374072
 30
0.0
 40
2.0
 41
0.0
 71
     2
 72
     1
  1
Masseinheit:
  7
SLDTEXTSTYLE0
 73
     1
 44
1.0
  0
MTEXT
  5
191
330
1F
100
AcDbEntity
  8
VORLAGE_TEXT
100
AcDbMText
 10
337.6114490186
 20
43.5452078816
 30
0.0
 40
2.0
 41
0.0
 71
     2
 72
     1
  1
Blatt / Anz.:
  7
SLDTEXTSTYLE0
 73
     1
 44
1.0
  0
MTEXT
  5
192
330
1F
100
AcDbEntity
  8
VORLAGE_TEXT
100
AcDbMText
 10
329.2895578243
 20
28.4139191092
 30
0.0
 40
5.0
 41
0.0
 71
     1
 72
     1
  1
CH
  7
SLDTEXTSTYLE0
 73
     1
 44
1.0
  0
MTEXT
  5
193
330
1F
100
AcDbEntity
  8
VORLAGE_TEXT
100
AcDbMText
 10
330.40704
 20
33.692638072
 30
0.0
 40
2.0
 41
0.0
 71
     1
 72
     1
  1
Zeichnung Nr.:
  7
SLDTEXTSTYLE0
 73
     1
 44
1.0
  0
MTEXT
  5
194
330
1F
100
AcDbEntity
  8
VORLAGE_TEXT
100
AcDbMText
 10
269.897953
 20
75.161075072
 30
0.0
 40
2.0
 41
0.0
 71
     1
 72
     1
  1
Gewicht:
  7
SLDTEXTSTYLE0
 73
     1
 44
1.0
  0
MTEXT
  5
195
330
1F
100
AcDbEntity
  8
VORLAGE_TEXT
100
AcDbMText
 10
230.0
 20
64.542328072
 30
0.0
 40
2.0
 41
0.0
 71
     1
 72
     1
  1
zul. Abweichung:
  7
SLDTEXTSTYLE0
 73
     1
 44
1.0
  0
MTEXT
  5
196
330
1F
100
AcDbEntity
  8
VORLAGE_TEXT
100
AcDbMText
 10
269.612607
 20
64.542328072
 30
0.0
 40
2.0
 41
0.0
 71
     1
 72
     1
  1
Oberfläche:
  7
SLDTEXTSTYLE0
 73
     1
 44
1.0
  0
MTEXT
  5
197
330
1F
100
AcDbEntity
  8
VORLAGE_TEXT
100
AcDbMText
 10
230.261411
 20
43.4433838912
 30
0.0
 40
2.0
 41
0.0
 71
     1
 72
     1
  1
Freigegeben:
  7
SLDTEXTSTYLE0
 73
     1
 44
1.0
  0
MTEXT
  5
198
330
1F
100
AcDbEntity
  8
VORLAGE_TEXT
100
AcDbMText
 10
230.0
 20
75.161075072
 30
0.0
 40
2.0
 41
0.0
 71
     1
 72
     1
  1
Werkstoff:
  7
SLDTEXTSTYLE0
 73
     1
 44
1.0
  0
MTEXT
  5
199
330
1F
100
AcDbEntity
  8
VORLAGE_TEXT
100
AcDbMText
 10
254.035545
 20
53.129475072
 30
0.0
 40
2.0
 41
0.0
 71
     1
 72
     1
  1
Datum:
  7
SLDTEXTSTYLE0
 73
     1
 44
1.0
  0
MTEXT
  5
19A
330
1F
100
AcDbEntity
  8
VORLAGE_TEXT
100
AcDbMText
 10
279.934928
 20
53.136060072
 30
0.0
 40
2.0
 41
0.0
 71
     1
 72
     1
  1
Name:
  7
SLDTEXTSTYLE0
 73
     1
 44
1.0
  0
MTEXT
  5
19B
330
1F
100
AcDbEntity
  8
VORLAGE_TEXT
100
AcDbMText
 10
312.162455406
 20
53.881591072
 30
0.0
 40
2.0
 41
0.0
 71
     2
 72
     1
  1
Massstab:
  7
SLDTEXTSTYLE0
 73
     1
 44
1.0
  0
MTEXT
  5
19C
330
1F
100
AcDbEntity
  8
VORLAGE_TEXT
100
AcDbMText
 10
403.9552944035
 20
33.324874072
 30
0.0
 40
2.0
 41
0.0
 71
     2
 72
     1
  1
Index:
  7
SLDTEXTSTYLE0
 73
     1
 44
1.0
  0
MTEXT
  5
19D
330
1F
100
AcDbEntity
  8
VORLAGE_TEXT
100
AcDbMText
 10
230.261411
 20
48.4499477886
 30
0.0
 40
2.0
 41
0.0
 71
     1
 72
     1
  1
Erstellt:
  7
SLDTEXTSTYLE0
 73
     1
 44
1.0
  0
MTEXT
  5
19F
330
1F
100
AcDbEntity
  8
VORLAGE_TEXT
100
AcDbMText
 10
337.6348165843
 20
39.869706576
 30
0.0
 40
2.5
 41
0.0
 71
     2
 72
     1
  1
1 / 1
  7
SLDTEXTSTYLE1
 73
     1
 44
1.0
  0
MTEXT
  5
1A0
330
1F
100
AcDbEntity
  8
TEXT
100
AcDbMText
 10
269.612607
 20
60.8119428599
 30
0.0
 40
3.0
 41
0.0
 71
     1
 72
     1
  1
DIN ISO 1302
  7
SLDTEXTSTYLE0
 73
     1
 44
1.0
  0
MTEXT
  5
1A1
330
1F
100
AcDbEntity
  8
TEXT
100
AcDbMText
 10
230.0
 20
60.8119428599
 30
0.0
 40
3.0
 41
0.0
 71
     1
 72
     1
  1
Norm
  7
SLDTEXTSTYLE0
 73
     1
 44
1.0
  0
MTEXT
  5
1A2
330
1F
100
AcDbEntity
  8
TEXT
100
AcDbMText
 10
269.612607
 20
71.2121947186
 30
0.0
 40
3.0
 41
0.0
 71
     1
 72
     1
  1
0.03 kg
  7
SLDTEXTSTYLE0
 73
     1
 44
1.0
  0
MTEXT
  5
1A3
330
1F
100
AcDbEntity
  8
TEXT
100
AcDbMText
 10
230.0
 20
71.2121947186
 30
0.0
 40
3.0
 41
0.0
 71
     1
 72
     1
  1
VITON
  7
SLDTEXTSTYLE0
 73
     1
 44
1.0
  0
CIRCLE
  5
1A4
330
1F
100
AcDbEntity
  8
0
  6
Continuous
 62
     7
370
    25
100
AcDbCircle
 10
134.4282219828
 20
121.7315948276
 30
0.0
 40
41.30300855687736
  0
CIRCLE
  5
1A5
330
1F
100
AcDbEntity
  8
0
  6
Continuous
 62
     7
370
    25
100
AcDbCircle
 10
134.4282219828
 20
121.7315948276
 30
0.0
 40
43.89318015278238
  0
CIRCLE
  5
1A6
330
1F
100
AcDbEntity
  8
0
  6
Continuous
 62
     7
370
    25
100
AcDbCircle
 10
134.4282219828
 20
121.7315948276
 30
0.0
 40
41.2080384694242
  0
CIRCLE
  5
1A7
330
1F
100
AcDbEntity
  8
0
  6
Continuous
 62
     7
370
    25
100
AcDbCircle
 10
134.4282219828
 20
121.7315948276
 30
0.0
 40
43.89999999984806
  0
CIRCLE
  5
1A8
330
1F
100
AcDbEntity
  8
0
  6
Continuous
 62
     7
370
    25
100
AcDbCircle
 10
134.4282219828
 20
121.7315948276
 30
0.0
 40
36.09390887643603
  0
CIRCLE
  5
1A9
330
1F
100
AcDbEntity
  8
0
  6
Continuous
 62
     7
370
    25
100
AcDbCircle
 10
134.4282219828
 20
121.7315948276
 30
0.0
 40
44.15248874115187
  0
CIRCLE
  5
1AA
330
1F
100
AcDbEntity
  8
0
  6
Continuous
 62
     7
370
    25
100
AcDbCircle
 10
134.4282219828
 20
121.7315948276
 30
0.0
 40
40.22640283746888
  0
CIRCLE
  5
1AB
330
1F
100
AcDbEntity
  8
0
  6
Continuous
 62
     8
370
    18
100
AcDbCircle
 10
134.4282219828
 20
121.7315948276
 30
0.0
 40
41.76944579386075
  0
CIRCLE
  5
1AC
330
1F
100
AcDbEntity
  8
0
  6
Continuous
 62
     8
370
    18
100
AcDbCircle
 10
134.4282219828
 20
121.7315948276
 30
0.0
 40
42.41446346968256
  0
CIRCLE
  5
1AD
330
1F
100
AcDbEntity
  8
0
  6
Continuous
 62
     8
370
    18
100
AcDbCircle
 10
134.4282219828
 20
121.7315948276
 30
0.0
 40
42.60934882036203
  0
CIRCLE
  5
1AE
330
1F
100
AcDbEntity
  8
0
  6
Continuous
 62
     8
370
    18
100
AcDbCircle
 10
134.4282219828
 20
121.7315948276
 30
0.0
 40
43.75008054857598
  0
CIRCLE
  5
1AF
330
1F
100
AcDbEntity
  8
0
  6
Continuous
 62
     8
370
    18
100
AcDbCircle
 10
134.4282219828
 20
121.7315948276
 30
0.0
 40
41.23104452341123
  0
CIRCLE
  5
1B0
330
1F
100
AcDbEntity
  8
0
  6
Continuous
 62
     8
370
    18
100
AcDbCircle
 10
134.4282219828
 20
121.7315948276
 30
0.0
 40
39.61962470814343
  0
CIRCLE
  5
1B1
330
1F
100
AcDbEntity
  8
0
  6
Continuous
 62
     8
370
    18
100
AcDbCircle
 10
134.4282219828
 20
121.7315948276
 30
0.0
 40
37.31612974649487
  0
CIRCLE
  5
1B2
330
1F
100
AcDbEntity
  8
0
  6
Continuous
 62
     8
370
    18
100
AcDbCircle
 10
134.4282219828
 20
121.7315948276
 30
0.0
 40
37.08098212141677
  0
CIRCLE
  5
1B3
330
1F
100
AcDbEntity
  8
0
  6
Continuous
 62
     8
370
    18
100
AcDbCircle
 10
134.4282219828
 20
121.7315948276
 30
0.0
 40
36.21595096278377
  0
CIRCLE
  5
1B4
330
1F
100
AcDbEntity
  8
0
  6
Continuous
 62
     8
370
    18
100
AcDbCircle
 10
134.4282219828
 20
121.7315948276
 30
0.0
 40
44.14176288628674
  0
DIMENSION
  5
1B5
330
1F
100
AcDbEntity
  8
0
  6
Continuous
 62
     7
370
    18
100
AcDbDimension
  2
_D
 10
103.2076977876
 20
90.5110706325
 30
0.0
 11
173.6609496036
 21
160.9643224485
 31
0.0
 70
   163
  1
<>
 71
     1
 42
-1.0
  3
SLDDIMSTYLE0
100
AcDbDiametricDimension
 15
165.6487461779
 25
152.9521190227
 35
0.0
 40
0.0
  0
DIMENSION
  5
1BE
330
1F
100
AcDbEntity
  8
0
  6
Continuous
 62
     7
370
    18
100
AcDbDimension
  2
_D_1
 10
165.6864639916
 20
139.7785492658
 30
0.0
 11
182.0435596021
 21
149.2223270462
 31
0.0
 70
   163
  1
<>
 71
     1
 42
-1.0
  3
SLDDIMSTYLE1
100
AcDbDiametricDimension
 15
103.1699799739
 25
103.6846403894
 35
0.0
 40
0.0
  0
INSERT
  5
1D4
330
1F
100
AcDbEntity
  8
0
  6
Continuous
 62
     7
370
     0
100
AcDbBlockReference
  2
SW_CENTERMARKSYMBOL_0
 10
134.4282219828
 20
121.7315948276
 30
0.0
  0
LINE
  5
1D5
330
1F
100
AcDbEntity
  8
0
  6
CENTER
 62
     7
370
    18
100
AcDbLine
 10
184.3356478405
 20
121.7315948276
 30
0.0
 11
84.6975747508
 21
121.7315948276
 31
0.0
  0
LINE
  5
1D6
330
1F
100
AcDbEntity
  8
0
  6
Continuous
 62
     7
370
    18
100
AcDbLine
 10
182.3356478405
 20
114.1315948276
 30
0.0
 11
182.3356478405
 21
121.7315948276
 31
0.0
  0
SOLID
  5
1D7
330
1F
100
AcDbEntity
  8
0
  6
Continuous
 62
     7
370
    18
100
AcDbTrace
 10
182.3356478405
 20
121.7315948276
 30
0.0
 11
181.5356478405
 21
116.7315948276
 31
0.0
 12
183.1356478405
 22
116.7315948276
 32
0.0
 13
183.1356478405
 23
116.7315948276
 33
0.0
  0
LINE
  5
1D8
330
1F
100
AcDbEntity
  8
0
  6
Continuous
 62
     7
370
    18
100
AcDbLine
 10
86.6975747508
 20
114.1315948276
 30
0.0
 11
86.6975747508
 21
121.7315948276
 31
0.0
  0
SOLID
  5
1D9
330
1F
100
AcDbEntity
  8
0
  6
Continuous
 62
     7
370
    18
100
AcDbTrace
 10
86.6975747508
 20
121.7315948276
 30
0.0
 11
85.8975747508
 21
116.7315948276
 31
0.0
 12
87.4975747508
 22
116.7315948276
 32
0.0
 13
87.4975747508
 23
116.7315948276
 33
0.0
  0
MTEXT
  5
1DA
330
1F
100
AcDbEntity
  8
0
  6
Continuous
 62
     7
100
AcDbMText
 10
180.3098329119
 20
112.5824986933
 30
0.0
 40
5.0
 41
0.0
 71
     1
 72
     1
  1
A
  7
SLDTEXTSTYLE0
 73
     1
 44
1.0
  0
MTEXT
  5
1DB
330
1F
100
AcDbEntity
  8
0
  6
Continuous
 62
     7
100
AcDbMText
 10
84.310568197
 20
112.4147578295
 30
0.0
 40
5.0
 41
0.0
 71
     1
 72
     1
  1
A
  7
SLDTEXTSTYLE0
 73
     1
 44
1.0
  0
LINE
  5
1DC
330
1F
100
AcDbEntity
  8
0
  6
Continuous
 62
     7
370
    25
100
AcDbLine
 10
93.551283236
 20
216.7503509398
 30
0.0
 11
175.3051607295
 21
216.7503509398
 31
0.0
  0
LINE
  5
1DD
330
1F
100
AcDbEntity
  8
0
  6
Continuous
 62
     7
370
    25
100
AcDbLine
 10
172.1439218092
 20
221.6496293513
 30
0.0
 11
96.7125221564
 21
221.6496293513
 31
0.0
  0
LINE
  5
1DE
330
1F
100
AcDbEntity
  8
0
  6
Continuous
 62
     7
370
    25
100
AcDbLine
 10
90.390212925
 20
223.3718429085
 30
0.0
 11
91.0688717535
 21
223.3718429085
 31
0.0
  0
LINE
  5
1DF
330
1F
100
AcDbEntity
  8
0
  6
Continuous
 62
     7
370
    25
100
AcDbLine
 10
177.787572212
 20
223.3718429085
 30
0.0
 11
178.4662310406
 21
223.3718429085
 31
0.0
  0
LINE
  5
1E0
330
1F
100
AcDbEntity
  8
0
  6
Continuous
 62
     7
370
    25
100
AcDbLine
 10
96.5650026279
 20
225.9186277605
 30
0.0
 11
172.2914413376
 21
225.9186277605
 31
0.0
  0
LINE
  5
1E1
330
1F
100
AcDbEntity
  8
0
  6
Continuous
 62
     7
370
    25
100
AcDbLine
 10
174.0822264036
 20
229.3536559618
 30
0.0
 11
94.7742175619
 21
229.3536559618
 31
0.0
  0
LINE
  5
1E2
330
1F
100
AcDbEntity
  8
0
  6
Continuous
 62
     7
370
    25
100
AcDbLine
 10
176.0746695896
 20
233.3518688878
 30
0.0
 11
92.7817743759
 21
233.3518688878
 31
0.0
  0
ARC
  5
1E3
330
1F
100
AcDbEntity
  8
0
  6
Continuous
 62
     7
370
    25
100
AcDbCircle
 10
178.0737714205
 20
218.7885195716
 30
0.0
 40
0.2861992083607679
100
AcDbArc
 50
179.9999999945
 51
239.9999999949
  0
LINE
  5
1E4
330
1F
100
AcDbEntity
  8
0
  6
Continuous
 62
     7
370
    25
100
AcDbLine
 10
177.9306718163
 20
218.5406637867
 30
0.0
 11
178.1851223786
 21
218.3937566861
 31
0.0
  0
ARC
  5
1E5
330
1F
100
AcDbEntity
  8
0
  6
Continuous
 62
     7
370
    25
100
AcDbCircle
 10
178.0420227744
 20
218.1459009011
 30
0.0
 40
0.286199208344722
100
AcDbArc
 50
300.0000000007
 51
60.0000000004
  0
LINE
  5
1E6
330
1F
100
AcDbEntity
  8
0
  6
Continuous
 62
     7
370
    25
100
AcDbLine
 10
178.1851223786
 20
217.8980451161
 30
0.0
 11
176.6286558752
 21
216.9994187614
 31
0.0
  0
ARC
  5
1E7
330
1F
100
AcDbEntity
  8
0
  6
Continuous
 62
     7
370
    25
100
AcDbCircle
 10
175.9417777752
 20
218.1891265291
 30
0.0
 40
1.373756199883114
100
AcDbArc
 50
276.0000000009
 51
300.0000000009
  0
LINE
  5
1E8
330
1F
100
AcDbEntity
  8
0
  6
Continuous
 62
     7
370
    25
100
AcDbLine
 10
176.0853743997
 20
216.8228959094
 30
0.0
 11
175.4846565104
 21
216.759757915
 31
0.0
  0
ARC
  5
1E9
330
1F
100
AcDbEntity
  8
0
  6
Continuous
 62
     7
370
    25
100
AcDbCircle
 10
175.3051607295
 20
218.4675461896
 30
0.0
 40
1.71719524983916
100
AcDbArc
 50
261.2885026267
 51
276.0000000087
  0
LINE
  5
1EA
330
1F
100
AcDbEntity
  8
0
  6
Continuous
 62
     7
370
    25
100
AcDbLine
 10
174.0835206566
 20
216.9174974217
 30
0.0
 11
175.0450757531
 21
216.770161339
 31
0.0
  0
ARC
  5
1EB
330
1F
100
AcDbEntity
  8
0
  6
Continuous
 62
     7
370
    25
100
AcDbCircle
 10
174.1360778462
 20
217.2604998456
 30
0.0
 40
0.3470056497243093
100
AcDbArc
 50
180.0000000009
 51
261.2885026204
  0
LINE
  5
1EC
330
1F
100
AcDbEntity
  8
0
  6
Continuous
 62
     7
370
    25
100
AcDbLine
 10
173.7890721965
 20
218.0748063777
 30
0.0
 11
173.7890721965
 21
217.2604998456
 31
0.0
  0
ARC
  5
1ED
330
1F
100
AcDbEntity
  8
0
  6
Continuous
 62
     7
370
    25
100
AcDbCircle
 10
173.5601128298
 20
218.0748063777
 30
0.0
 40
0.2289593666487524
100
AcDbArc
 50
0.0
 51
28.000000002
  0
LINE
  5
1EE
330
1F
100
AcDbEntity
  8
0
  6
Continuous
 62
     7
370
    25
100
AcDbLine
 10
172.4313514012
 20
220.6853937915
 30
0.0
 11
173.7622719515
 21
218.1822962893
 31
0.0
  0
ARC
  5
1EF
330
1F
100
AcDbEntity
  8
0
  6
Continuous
 62
     7
370
    25
100
AcDbCircle
 10
171.9259535971
 20
220.4166690123
 30
0.0
 40
0.5723984166424717
100
AcDbArc
 50
27.9999999974
 51
76.231542418
  0
ARC
  5
1F0
330
1F
100
AcDbEntity
  8
0
  6
Continuous
 62
     7
370
    25
100
AcDbCircle
 10
172.1439218092
 20
221.3061903014
 30
0.0
 40
0.3434390499494434
100
AcDbArc
 50
79.0000000018
 51
256.2315424214
  0
LINE
  5
1F1
330
1F
100
AcDbEntity
  8
0
  6
Continuous
 62
     7
370
    25
100
AcDbLine
 10
172.2094530692
 20
221.6433194087
 30
0.0
 11
172.7599175758
 21
221.5363199478
 31
0.0
  0
ARC
  5
1F2
330
1F
100
AcDbEntity
  8
0
  6
Continuous
 62
     7
370
    25
100
AcDbCircle
 10
172.8691363426
 20
222.0982017933
 30
0.0
 40
0.5723984166424417
100
AcDbArc
 50
259.0000000006
 51
0.0000000009
  0
LINE
  5
1F3
330
1F
100
AcDbEntity
  8
0
  6
Continuous
 62
     7
370
    25
100
AcDbLine
 10
173.4415347591
 20
224.269789763
 30
0.0
 11
173.4415347592
 21
222.0982017933
 31
0.0
  0
ARC
  5
1F4
330
1F
100
AcDbEntity
  8
0
  6
Continuous
 62
     7
370
    25
100
AcDbCircle
 10
173.2125753925
 20
224.269789763
 30
0.0
 40
0.2289593667154878
100
AcDbArc
 50
0.0
 51
46.0610789805
  0
LINE
  5
1F5
330
1F
100
AcDbEntity
  8
0
  6
Continuous
 62
     7
370
    25
100
AcDbLine
 10
173.1733628825
 20
224.6255399702
 30
0.0
 11
173.3714482681
 21
224.4346588049
 31
0.0
  0
ARC
  5
1F6
330
1F
100
AcDbEntity
  8
0
  6
Continuous
 62
     7
370
    25
100
AcDbCircle
 10
173.3719539772
 20
224.8316262725
 30
0.0
 40
0.2861992083435552
100
AcDbArc
 50
164.9999999834
 51
226.0610789439
  0
LINE
  5
1F7
330
1F
100
AcDbEntity
  8
0
  6
Continuous
 62
     7
370
    25
100
AcDbLine
 10
173.1573546491
 20
225.1365195041
 30
0.0
 11
173.0955067704
 21
224.9057000784
 31
0.0
  0
ARC
  5
1F8
330
1F
100
AcDbEntity
  8
0
  6
Continuous
 62
     7
370
    25
100
AcDbCircle
 10
172.9914863251
 20
225.1809637875
 30
0.0
 40
0.1717195249853208
100
AcDbArc
 50
345.0000000171
 51
14.7005665806
  0
LINE
  5
1F9
330
1F
100
AcDbEntity
  8
0
  6
Continuous
 62
     7
370
    25
100
AcDbLine
 10
172.9790715326
 20
225.904964755
 30
0.0
 11
173.1575846532
 21
225.2245406237
 31
0.0
  0
ARC
  5
1FA
330
1F
100
AcDbEntity
  8
0
  6
Continuous
 62
     7
370
    25
100
AcDbCircle
 10
172.8129732044
 20
225.8613879188
 30
0.0
 40
0.1717195249849418
100
AcDbArc
 50
14.7005665781
 51
103.5831004042
  0
LINE
  5
1FB
330
1F
100
AcDbEntity
  8
0
  6
Continuous
 62
     7
370
    25
100
AcDbLine
 10
172.7726439434
 20
226.0283045026
 30
0.0
 11
172.3452136856
 21
225.925031682
 31
0.0
  0
ARC
  5
1FC
330
1F
100
AcDbEntity
  8
0
  6
Continuous
 62
     7
370
    25
100
AcDbCircle
 10
172.2914413376
 20
226.1475871271
 30
0.0
 40
0.228959366652081
100
AcDbArc
 50
165.9023045184
 51
283.5831003839
  0
LINE
  5
1FD
330
1F
100
AcDbEntity
  8
0
  6
Continuous
 62
     7
370
    25
100
AcDbLine
 10
172.2833206253
 20
227.0552431921
 30
0.0
 11
172.069377812
 21
226.2033561343
 31
0.0
  0
ARC
  5
1FE
330
1F
100
AcDbEntity
  8
0
  6
Continuous
 62
     7
370
    25
100
AcDbCircle
 10
172.0057412182
 20
227.124954451
 30
0.0
 40
0.286199208343567
100
AcDbArc
 50
345.9023045271
 51
65.7584100066
  0
LINE
  5
1FF
330
1F
100
AcDbEntity
  8
0
  6
Continuous
 62
     7
370
    25
100
AcDbLine
 10
171.0342600105
 20
227.8762793773
 30
0.0
 11
172.1232503252
 21
227.3859172771
 31
0.0
  0
LINE
  5
200
330
1F
100
AcDbEntity
  8
0
  6
Continuous
 62
     7
370
    25
100
AcDbLine
 10
170.6908209605
 20
228.0309267524
 30
0.0
 11
171.0342600105
 21
227.8762793773
 31
0.0
  0
ARC
  5
201
330
1F
100
AcDbEntity
  8
0
  6
Continuous
 62
     7
370
    25
100
AcDbCircle
 10
170.8083300675
 20
228.2918895786
 30
0.0
 40
0.2861992083435518
100
AcDbArc
 50
125.0000000016
 51
245.7584100007
  0
LINE
  5
202
330
1F
100
AcDbEntity
  8
0
  6
Continuous
 62
     7
370
    25
100
AcDbLine
 10
171.5092041042
 20
229.1320315834
 30
0.0
 11
170.6441729455
 21
228.5263302451
 31
0.0
  0
ARC
  5
203
330
1F
100
AcDbEntity
  8
0
  6
Continuous
 62
     7
370
    25
100
AcDbCircle
 10
171.7718554994
 20
228.7569265168
 30
0.0
 40
0.4579187334185257
100
AcDbArc
 50
93.4434035112
 51
124.9999999972
  0
LINE
  5
204
330
1F
100
AcDbEntity
  8
0
  6
Continuous
 62
     7
370
    25
100
AcDbLine
 10
174.0478466909
 20
229.3526225622
 30
0.0
 11
171.7443517293
 21
229.2140185305
 31
0.0
  0
ARC
  5
205
330
1F
100
AcDbEntity
  8
0
  6
Continuous
 62
     7
370
    25
100
AcDbCircle
 10
174.0822264036
 20
228.7812575452
 30
0.0
 40
0.5723984166424647
100
AcDbArc
 50
0.0000000001
 51
93.4434035112
  0
LINE
  5
206
330
1F
100
AcDbEntity
  8
0
  6
Continuous
 62
     7
370
    25
100
AcDbLine
 10
174.6546248202
 20
228.7812575452
 30
0.0
 11
174.6546248202
 21
228.5183685408
 31
0.0
  0
ARC
  5
207
330
1F
100
AcDbEntity
  8
0
  6
Continuous
 62
     7
370
    25
100
AcDbCircle
 10
175.4559826035
 20
228.5183685408
 30
0.0
 40
0.8013577832639385
100
AcDbArc
 50
180.0
 51
25.7456652522
  0
LINE
  5
208
330
1F
100
AcDbEntity
  8
0
  6
Continuous
 62
     7
370
    25
100
AcDbLine
 10
175.6533068597
 20
229.9540373845
 30
0.0
 11
176.1777904851
 21
228.8664600214
 31
0.0
  0
ARC
  5
209
330
1F
100
AcDbEntity
  8
0
  6
Continuous
 62
     7
370
    25
100
AcDbCircle
 10
175.8079799772
 20
230.0286284161
 30
0.0
 40
0.1717195249854232
100
AcDbArc
 50
150.0000000235
 51
205.745665252
  0
LINE
  5
20A
330
1F
100
AcDbEntity
  8
0
  6
Continuous
 62
     7
370
    25
100
AcDbLine
 10
175.7949331993
 20
230.3494697841
 30
0.0
 11
175.6592665062
 21
230.1144881785
 31
0.0
  0
ARC
  5
20B
330
1F
100
AcDbEntity
  8
0
  6
Continuous
 62
     7
370
    25
100
AcDbCircle
 10
175.6462197283
 20
230.4353295465
 30
0.0
 40
0.1717195249851113
100
AcDbArc
 50
330.0000000236
 51
1.9365794019
  0
LINE
  5
20C
330
1F
100
AcDbEntity
  8
0
  6
Continuous
 62
     7
370
    25
100
AcDbLine
 10
175.731426696
 20
232.9968239152
 30
0.0
 11
175.8178411748
 21
230.4411325076
 31
0.0
  0
ARC
  5
20D
330
1F
100
AcDbEntity
  8
0
  6
Continuous
 62
     7
370
    25
100
AcDbCircle
 10
176.0746695896
 20
233.0084298379
 30
0.0
 40
0.3434390505500163
100
AcDbArc
 50
69.0141810445
 51
181.9365794701
  0
LINE
  5
20E
330
1F
100
AcDbEntity
  8
0
  6
Continuous
 62
     7
370
    25
100
AcDbLine
 10
176.1976677766
 20
233.3290882652
 30
0.0
 11
176.8426854524
 21
233.0816723283
 31
0.0
  0
ARC
  5
20F
330
1F
100
AcDbEntity
  8
0
  6
Continuous
 62
     7
370
    25
100
AcDbCircle
 10
176.3506927034
 20
231.7990386198
 30
0.0
 40
1.373756199881694
100
AcDbArc
 50
60.0000000083
 51
69.0141809952
  0
LINE
  5
210
330
1F
100
AcDbEntity
  8
0
  6
Continuous
 62
     7
370
    25
100
AcDbLine
 10
177.0375708031
 20
232.9887463876
 30
0.0
 11
178.1783025313
 21
232.3301446175
 31
0.0
  0
ARC
  5
211
330
1F
100
AcDbEntity
  8
0
  6
Continuous
 62
     7
370
    25
100
AcDbCircle
 10
178.0352029272
 20
232.0822888325
 30
0.0
 40
0.2861992083455446
100
AcDbArc
 50
299.9999999998
 51
60.0000000082
  0
LINE
  5
212
330
1F
100
AcDbEntity
  8
0
  6
Continuous
 62
     7
370
    25
100
AcDbLine
 10
178.1783025314
 20
231.8344330475
 30
0.0
 11
177.923851969
 21
231.6875259469
 31
0.0
  0
ARC
  5
213
330
1F
100
AcDbEntity
  8
0
  6
Continuous
 62
     7
370
    25
100
AcDbCircle
 10
178.0669515732
 20
231.4396701619
 30
0.0
 40
0.2861992083448614
100
AcDbArc
 50
119.9999999997
 51
180.3156413843
  0
LINE
  5
214
330
1F
100
AcDbEntity
  8
0
  6
Continuous
 62
     7
370
    25
100
AcDbLine
 10
177.7807567078
 20
231.4380935038
 30
0.0
 11
177.787576555
 21
230.2001553624
 31
0.0
  0
ARC
  5
215
330
1F
100
AcDbEntity
  8
0
  6
Continuous
 62
     7
370
    25
100
AcDbCircle
 10
178.0737714203
 20
230.2017320203
 30
0.0
 40
0.2861992083435395
100
AcDbArc
 50
180.3156413437
 51
239.9999999944
  0
LINE
  5
216
330
1F
100
AcDbEntity
  8
0
  6
Continuous
 62
     7
370
    25
100
AcDbLine
 10
177.9306718161
 20
229.9538762354
 30
0.0
 11
178.1851223784
 21
229.8069691347
 31
0.0
  0
ARC
  5
217
330
1F
100
AcDbEntity
  8
0
  6
Continuous
 62
     7
370
    25
100
AcDbCircle
 10
178.0420227743
 20
229.5591133498
 30
0.0
 40
0.2861992083435686
100
AcDbArc
 50
300.0000000007
 51
60.0000000015
  0
LINE
  5
218
330
1F
100
AcDbEntity
  8
0
  6
Continuous
 62
     7
370
    25
100
AcDbLine
 10
178.1851223784
 20
229.3112575649
 30
0.0
 11
177.9306718161
 21
229.1643504642
 31
0.0
  0
ARC
  5
219
330
1F
100
AcDbEntity
  8
0
  6
Continuous
 62
     7
370
    25
100
AcDbCircle
 10
178.0737714203
 20
228.9164946793
 30
0.0
 40
0.2861992083435325
100
AcDbArc
 50
120.0000000024
 51
180.000000001
  0
LINE
  5
21A
330
1F
100
AcDbEntity
  8
0
  6
Continuous
 62
     7
370
    25
100
AcDbLine
 10
177.7875722119
 20
228.9164946792
 30
0.0
 11
177.787572212
 21
227.7026983085
 31
0.0
  0
ARC
  5
21B
330
1F
100
AcDbEntity
  8
0
  6
Continuous
 62
     7
370
    25
100
AcDbCircle
 10
178.0737714203
 20
227.7026983085
 30
0.0
 40
0.2861992083746827
100
AcDbArc
 50
179.9999999951
 51
239.9999999944
  0
LINE
  5
21C
330
1F
100
AcDbEntity
  8
0
  6
Continuous
 62
     7
370
    25
100
AcDbLine
 10
177.9306718161
 20
227.4548425235
 30
0.0
 11
178.1851223784
 21
227.3079354229
 31
0.0
  0
ARC
  5
21D
330
1F
100
AcDbEntity
  8
0
  6
Continuous
 62
     7
370
    25
100
AcDbCircle
 10
178.0420227743
 20
227.0600796379
 30
0.0
 40
0.2861992083436218
100
AcDbArc
 50
300.0000000008
 51
60.0000000004
  0
LINE
  5
21E
330
1F
100
AcDbEntity
  8
0
  6
Continuous
 62
     7
370
    25
100
AcDbLine
 10
178.1851223784
 20
226.812223853
 30
0.0
 11
177.9306718161
 21
226.6653167524
 31
0.0
  0
ARC
  5
21F
330
1F
100
AcDbEntity
  8
0
  6
Continuous
 62
     7
370
    25
100
AcDbCircle
 10
178.0737714203
 20
226.4174609674
 30
0.0
 40
0.2861992083435609
100
AcDbArc
 50
120.0000000023
 51
180.000000001
  0
LINE
  5
220
330
1F
100
AcDbEntity
  8
0
  6
Continuous
 62
     7
370
    25
100
AcDbLine
 10
177.787572212
 20
226.4174609674
 30
0.0
 11
177.787572212
 21
225.2760419909
 31
0.0
  0
ARC
  5
221
330
1F
100
AcDbEntity
  8
0
  6
Continuous
 62
     7
370
    25
100
AcDbCircle
 10
178.0737714203
 20
225.2760419911
 30
0.0
 40
0.2861992083435731
100
AcDbArc
 50
180.0000000363
 51
205.0000000351
  0
LINE
  5
222
330
1F
100
AcDbEntity
  8
0
  6
Continuous
 62
     7
370
    25
100
AcDbLine
 10
177.8143868492
 20
225.155088979
 30
0.0
 11
178.569984869
 21
223.5347037966
 31
0.0
  0
ARC
  5
223
330
1F
100
AcDbEntity
  8
0
  6
Continuous
 62
     7
370
    25
100
AcDbCircle
 10
178.4662310406
 20
223.4863225918
 30
0.0
 40
0.1144796833467196
100
AcDbArc
 50
234.9999999797
 51
24.9999999837
  0
LINE
  5
224
330
1F
100
AcDbEntity
  8
0
  6
Continuous
 62
     7
370
    25
100
AcDbLine
 10
177.9677147442
 20
223.6956335721
 30
0.0
 11
178.4005681917
 21
223.3925463252
 31
0.0
  0
ARC
  5
225
330
1F
100
AcDbEntity
  8
0
  6
Continuous
 62
     7
370
    25
100
AcDbCircle
 10
177.9020518954
 20
223.6018573054
 30
0.0
 40
0.1144796833467296
100
AcDbArc
 50
54.9999999991
 51
180.0000000011
  0
LINE
  5
226
330
1F
100
AcDbEntity
  8
0
  6
Continuous
 62
     7
370
    25
100
AcDbLine
 10
177.787572212
 20
223.6018573054
 30
0.0
 11
177.787572212
 21
222.0230962038
 31
0.0
  0
ARC
  5
227
330
1F
100
AcDbEntity
  8
0
  6
Continuous
 62
     7
370
    25
100
AcDbCircle
 10
178.0737714204
 20
222.0230962038
 30
0.0
 40
0.2861992083730343
100
AcDbArc
 50
179.9999999945
 51
239.9999999949
  0
LINE
  5
228
330
1F
100
AcDbEntity
  8
0
  6
Continuous
 62
     7
370
    25
100
AcDbLine
 10
177.9306718162
 20
221.7752404189
 30
0.0
 11
178.1851223785
 21
221.6283333182
 31
0.0
  0
ARC
  5
229
330
1F
100
AcDbEntity
  8
0
  6
Continuous
 62
     7
370
    25
100
AcDbCircle
 10
178.0420227744
 20
221.3804775333
 30
0.0
 40
0.2861992083435828
100
AcDbArc
 50
300.0000000007
 51
60.0000000015
  0
LINE
  5
22A
330
1F
100
AcDbEntity
  8
0
  6
Continuous
 62
     7
370
    25
100
AcDbLine
 10
178.1851223786
 20
221.1326217484
 30
0.0
 11
177.9306718162
 21
220.9857146477
 31
0.0
  0
ARC
  5
22B
330
1F
100
AcDbEntity
  8
0
  6
Continuous
 62
     7
370
    25
100
AcDbCircle
 10
178.0737714204
 20
220.7378588628
 30
0.0
 40
0.2861992083435325
100
AcDbArc
 50
120.0000000036
 51
180.0000000009
  0
LINE
  5
22C
330
1F
100
AcDbEntity
  8
0
  6
Continuous
 62
     7
370
    25
100
AcDbLine
 10
177.787572212
 20
220.7378588628
 30
0.0
 11
177.7875722121
 21
218.7885195717
 31
0.0
  0
ARC
  5
22D
330
1F
100
AcDbEntity
  8
0
  6
Continuous
 62
     7
370
    25
100
AcDbCircle
 10
90.7826725451
 20
220.7378588628
 30
0.0
 40
0.2861992083435609
100
AcDbArc
 50
359.9999999991
 51
59.9999999964
  0
LINE
  5
22E
330
1F
100
AcDbEntity
  8
0
  6
Continuous
 62
     7
370
    25
100
AcDbLine
 10
90.9257721493
 20
220.9857146477
 30
0.0
 11
90.6713215869
 21
221.1326217484
 31
0.0
  0
ARC
  5
22F
330
1F
100
AcDbEntity
  8
0
  6
Continuous
 62
     7
370
    25
100
AcDbCircle
 10
90.8144211907
 20
221.3804775333
 30
0.0
 40
0.2861992081078053
100
AcDbArc
 50
119.9999999243
 51
240.0000000659
  0
LINE
  5
230
330
1F
100
AcDbEntity
  8
0
  6
Continuous
 62
     7
370
    25
100
AcDbLine
 10
90.671321587
 20
221.6283333182
 30
0.0
 11
90.9257721493
 21
221.7752404189
 31
0.0
  0
ARC
  5
231
330
1F
100
AcDbEntity
  8
0
  6
Continuous
 62
     7
370
    25
100
AcDbCircle
 10
90.7826725451
 20
222.0230962038
 30
0.0
 40
0.2861992083730058
100
AcDbArc
 50
300.0000000051
 51
0.0000000055
  0
LINE
  5
232
330
1F
100
AcDbEntity
  8
0
  6
Continuous
 62
     7
370
    25
100
AcDbLine
 10
91.0688717535
 20
222.0230962038
 30
0.0
 11
91.0688717535
 21
223.6018573054
 31
0.0
  0
ARC
  5
233
330
1F
100
AcDbEntity
  8
0
  6
Continuous
 62
     7
370
    25
100
AcDbCircle
 10
90.9543920702
 20
223.6018573054
 30
0.0
 40
0.1144796833467581
100
AcDbArc
 50
359.9999999989
 51
125.0000000009
  0
LINE
  5
234
330
1F
100
AcDbEntity
  8
0
  6
Continuous
 62
     7
370
    25
100
AcDbLine
 10
90.4558757738
 20
223.3925463252
 30
0.0
 11
90.8887292214
 21
223.6956335721
 31
0.0
  0
ARC
  5
235
330
1F
100
AcDbEntity
  8
0
  6
Continuous
 62
     7
370
    25
100
AcDbCircle
 10
90.390212925
 20
223.4863225918
 30
0.0
 40
0.114479683341258
100
AcDbArc
 50
155.0000000125
 51
305.0000000231
  0
LINE
  5
236
330
1F
100
AcDbEntity
  8
0
  6
Continuous
 62
     7
370
    25
100
AcDbLine
 10
90.2864590965
 20
223.5347037966
 30
0.0
 11
91.0420571163
 21
225.155088979
 31
0.0
  0
ARC
  5
237
330
1F
100
AcDbEntity
  8
0
  6
Continuous
 62
     7
370
    25
100
AcDbCircle
 10
90.7826725452
 20
225.2760419911
 30
0.0
 40
0.2861992083435731
100
AcDbArc
 50
334.9999999649
 51
359.9999999637
  0
LINE
  5
238
330
1F
100
AcDbEntity
  8
0
  6
Continuous
 62
     7
370
    25
100
AcDbLine
 10
91.0688717535
 20
225.2760419909
 30
0.0
 11
91.0688717536
 21
226.4174609674
 31
0.0
  0
ARC
  5
239
330
1F
100
AcDbEntity
  8
0
  6
Continuous
 62
     7
370
    25
100
AcDbCircle
 10
90.7826725452
 20
226.4174609674
 30
0.0
 40
0.2861992083435609
100
AcDbArc
 50
359.999999999
 51
59.9999999977
  0
LINE
  5
23A
330
1F
100
AcDbEntity
  8
0
  6
Continuous
 62
     7
370
    25
100
AcDbLine
 10
90.9257721494
 20
226.6653167524
 30
0.0
 11
90.6713215871
 21
226.812223853
 31
0.0
  0
ARC
  5
23B
330
1F
100
AcDbEntity
  8
0
  6
Continuous
 62
     7
370
    25
100
AcDbCircle
 10
90.8144211912
 20
227.0600796379
 30
0.0
 40
0.286199208343736
100
AcDbArc
 50
119.9999999997
 51
239.9999999992
  0
LINE
  5
23C
330
1F
100
AcDbEntity
  8
0
  6
Continuous
 62
     7
370
    25
100
AcDbLine
 10
90.6713215871
 20
227.3079354229
 30
0.0
 11
90.9257721494
 21
227.4548425235
 31
0.0
  0
ARC
  5
23D
330
1F
100
AcDbEntity
  8
0
  6
Continuous
 62
     7
370
    25
100
AcDbCircle
 10
90.7826725452
 20
227.7026983085
 30
0.0
 40
0.2861992083746969
100
AcDbArc
 50
300.0000000056
 51
0.0000000049
  0
LINE
  5
23E
330
1F
100
AcDbEntity
  8
0
  6
Continuous
 62
     7
370
    25
100
AcDbLine
 10
91.0688717536
 20
227.7026983085
 30
0.0
 11
91.0688717536
 21
228.9164946792
 31
0.0
  0
ARC
  5
23F
330
1F
100
AcDbEntity
  8
0
  6
Continuous
 62
     7
370
    25
100
AcDbCircle
 10
90.7826725453
 20
228.9164946793
 30
0.0
 40
0.2861992083435609
100
AcDbArc
 50
359.999999999
 51
59.9999999976
  0
LINE
  5
240
330
1F
100
AcDbEntity
  8
0
  6
Continuous
 62
     7
370
    25
100
AcDbLine
 10
90.9257721494
 20
229.1643504642
 30
0.0
 11
90.6713215871
 21
229.3112575649
 31
0.0
  0
ARC
  5
241
330
1F
100
AcDbEntity
  8
0
  6
Continuous
 62
     7
370
    25
100
AcDbCircle
 10
90.8144211908
 20
229.5591133498
 30
0.0
 40
0.2861992081055346
100
AcDbArc
 50
119.9999999236
 51
240.0000000665
  0
LINE
  5
242
330
1F
100
AcDbEntity
  8
0
  6
Continuous
 62
     7
370
    25
100
AcDbLine
 10
90.6713215871
 20
229.8069691347
 30
0.0
 11
90.9257721494
 21
229.9538762354
 31
0.0
  0
ARC
  5
243
330
1F
100
AcDbEntity
  8
0
  6
Continuous
 62
     7
370
    25
100
AcDbCircle
 10
90.7826725452
 20
230.2017320203
 30
0.0
 40
0.2861992083435395
100
AcDbArc
 50
300.0000000056
 51
359.6843586563
  0
LINE
  5
244
330
1F
100
AcDbEntity
  8
0
  6
Continuous
 62
     7
370
    25
100
AcDbLine
 10
91.0688674106
 20
230.2001553624
 30
0.0
 11
91.0756872578
 21
231.4380935038
 31
0.0
  0
ARC
  5
245
330
1F
100
AcDbEntity
  8
0
  6
Continuous
 62
     7
370
    25
100
AcDbCircle
 10
90.7894923923
 20
231.4396701619
 30
0.0
 40
0.2861992083448472
100
AcDbArc
 50
359.6843586157
 51
60.0000000003
  0
LINE
  5
246
330
1F
100
AcDbEntity
  8
0
  6
Continuous
 62
     7
370
    25
100
AcDbLine
 10
90.9325919965
 20
231.6875259469
 30
0.0
 11
90.6781414341
 21
231.8344330475
 31
0.0
  0
ARC
  5
247
330
1F
100
AcDbEntity
  8
0
  6
Continuous
 62
     7
370
    25
100
AcDbCircle
 10
90.8212410383
 20
232.0822888325
 30
0.0
 40
0.2861992083507698
100
AcDbArc
 50
119.999999994
 51
239.9999999982
  0
LINE
  5
248
330
1F
100
AcDbEntity
  8
0
  6
Continuous
 62
     7
370
    25
100
AcDbLine
 10
90.6781414342
 20
232.3301446175
 30
0.0
 11
91.8188731624
 21
232.9887463876
 31
0.0
  0
ARC
  5
249
330
1F
100
AcDbEntity
  8
0
  6
Continuous
 62
     7
370
    25
100
AcDbCircle
 10
92.5057512622
 20
231.7990386198
 30
0.0
 40
1.37375619988168
100
AcDbArc
 50
110.9858190048
 51
119.9999999917
  0
LINE
  5
24A
330
1F
100
AcDbEntity
  8
0
  6
Continuous
 62
     7
370
    25
100
AcDbLine
 10
92.0137585131
 20
233.0816723283
 30
0.0
 11
92.6587761889
 21
233.3290882652
 31
0.0
  0
ARC
  5
24B
330
1F
100
AcDbEntity
  8
0
  6
Continuous
 62
     7
370
    25
100
AcDbCircle
 10
92.7817743759
 20
233.0084298379
 30
0.0
 40
0.3434390505500163
100
AcDbArc
 50
358.0634205299
 51
110.9858189555
  0
LINE
  5
24C
330
1F
100
AcDbEntity
  8
0
  6
Continuous
 62
     7
370
    25
100
AcDbLine
 10
93.0386027907
 20
230.4411325076
 30
0.0
 11
93.1250172695
 21
232.9968239152
 31
0.0
  0
LWPOLYLINE
  5
24D
330
1F
100
AcDbEntity
  8
0
  6
Continuous
 62
     7
370
    25
100
AcDbPolyline
 90
        3
 70
   128
 43
0.0
 10
93.0615107663
 20
230.3494697841
 10
93.0414738627
 20
230.4035347929
 10
93.0386027907
 20
230.4411325076
  0
LINE
  5
24E
330
1F
100
AcDbEntity
  8
0
  6
Continuous
 62
     7
370
    25
100
AcDbLine
 10
93.1971774593
 20
230.1144881785
 30
0.0
 11
93.0615107663
 21
230.3494697841
 31
0.0
  0
ARC
  5
24F
330
1F
100
AcDbEntity
  8
0
  6
Continuous
 62
     7
370
    25
100
AcDbCircle
 10
93.0484639883
 20
230.0286284161
 30
0.0
 40
0.171719524985436
100
AcDbArc
 50
334.254334748
 51
29.9999999765
  0
LINE
  5
250
330
1F
100
AcDbEntity
  8
0
  6
Continuous
 62
     7
370
    25
100
AcDbLine
 10
92.6786534804
 20
228.8664600214
 30
0.0
 11
93.2031371058
 21
229.9540373845
 31
0.0
  0
ARC
  5
251
330
1F
100
AcDbEntity
  8
0
  6
Continuous
 62
     7
370
    25
100
AcDbCircle
 10
93.400461362
 20
228.5183685408
 30
0.0
 40
0.8013577832639385
100
AcDbArc
 50
154.2543347478
 51
0.0
  0
LINE
  5
252
330
1F
100
AcDbEntity
  8
0
  6
Continuous
 62
     7
370
    25
100
AcDbLine
 10
94.2018191453
 20
228.5183685408
 30
0.0
 11
94.2018191453
 21
228.7812575452
 31
0.0
  0
ARC
  5
253
330
1F
100
AcDbEntity
  8
0
  6
Continuous
 62
     7
370
    25
100
AcDbCircle
 10
94.7742175619
 20
228.7812575452
 30
0.0
 40
0.5723984166424674
100
AcDbArc
 50
86.5565964888
 51
179.9999999999
  0
LINE
  5
254
330
1F
100
AcDbEntity
  8
0
  6
Continuous
 62
     7
370
    25
100
AcDbLine
 10
97.1120922363
 20
229.2140185305
 30
0.0
 11
94.8085972746
 21
229.3526225622
 31
0.0
  0
ARC
  5
255
330
1F
100
AcDbEntity
  8
0
  6
Continuous
 62
     7
370
    25
100
AcDbCircle
 10
97.0845884661
 20
228.7569265168
 30
0.0
 40
0.4579187334185257
100
AcDbArc
 50
55.0000000028
 51
86.5565964888
  0
LINE
  5
256
330
1F
100
AcDbEntity
  8
0
  6
Continuous
 62
     7
370
    25
100
AcDbLine
 10
98.21227102
 20
228.5263302451
 30
0.0
 11
97.3472398613
 21
229.1320315834
 31
0.0
  0
ARC
  5
257
330
1F
100
AcDbEntity
  8
0
  6
Continuous
 62
     7
370
    25
100
AcDbCircle
 10
98.048113898
 20
228.2918895786
 30
0.0
 40
0.2861992083435634
100
AcDbArc
 50
294.2415899993
 51
54.9999999984
  0
LINE
  5
258
330
1F
100
AcDbEntity
  8
0
  6
Continuous
 62
     7
370
    25
100
AcDbLine
 10
97.822183955
 20
227.8762793773
 30
0.0
 11
98.165623005
 21
228.0309267524
 31
0.0
  0
LINE
  5
259
330
1F
100
AcDbEntity
  8
0
  6
Continuous
 62
     7
370
    25
100
AcDbLine
 10
96.7331936403
 20
227.3859172771
 30
0.0
 11
97.822183955
 21
227.8762793773
 31
0.0
  0
ARC
  5
25A
330
1F
100
AcDbEntity
  8
0
  6
Continuous
 62
     7
370
    25
100
AcDbCircle
 10
96.8507027472
 20
227.1249544511
 30
0.0
 40
0.2861992082379257
100
AcDbArc
 50
114.2415899753
 51
194.0976954887
  0
LINE
  5
25B
330
1F
100
AcDbEntity
  8
0
  6
Continuous
 62
     7
370
    25
100
AcDbLine
 10
96.7870661536
 20
226.2033561343
 30
0.0
 11
96.5731233402
 21
227.0552431921
 31
0.0
  0
ARC
  5
25C
330
1F
100
AcDbEntity
  8
0
  6
Continuous
 62
     7
370
    25
100
AcDbCircle
 10
96.5650026279
 20
226.1475871271
 30
0.0
 40
0.2289593666520534
100
AcDbArc
 50
256.4168996161
 51
14.0976954816
  0
LINE
  5
25D
330
1F
100
AcDbEntity
  8
0
  6
Continuous
 62
     7
370
    25
100
AcDbLine
 10
96.5112302799
 20
225.925031682
 30
0.0
 11
96.0838000222
 21
226.0283045026
 31
0.0
  0
ARC
  5
25E
330
1F
100
AcDbEntity
  8
0
  6
Continuous
 62
     7
370
    25
100
AcDbCircle
 10
96.0434707611
 20
225.8613879188
 30
0.0
 40
0.1717195249849006
100
AcDbArc
 50
76.4168995958
 51
165.2994334219
  0
LINE
  5
25F
330
1F
100
AcDbEntity
  8
0
  6
Continuous
 62
     7
370
    25
100
AcDbLine
 10
95.6988593123
 20
225.2245406237
 30
0.0
 11
95.877372433
 21
225.904964755
 31
0.0
  0
LWPOLYLINE
  5
260
330
1F
100
AcDbEntity
  8
0
  6
Continuous
 62
     7
370
    25
100
AcDbPolyline
 90
        3
 70
   128
 43
0.0
 10
95.6990893164
 20
225.1365195041
 10
95.6937282077
 20
225.1939282246
 10
95.6988593123
 20
225.2245406237
  0
LINE
  5
261
330
1F
100
AcDbEntity
  8
0
  6
Continuous
 62
     7
370
    25
100
AcDbLine
 10
95.7609371951
 20
224.9057000784
 30
0.0
 11
95.6990893164
 21
225.1365195041
 31
0.0
  0
ARC
  5
262
330
1F
100
AcDbEntity
  8
0
  6
Continuous
 62
     7
370
    25
100
AcDbCircle
 10
95.4844899884
 20
224.8316262725
 30
0.0
 40
0.2861992083435454
100
AcDbArc
 50
313.9389210561
 51
15.0000000166
  0
LINE
  5
263
330
1F
100
AcDbEntity
  8
0
  6
Continuous
 62
     7
370
    25
100
AcDbLine
 10
95.4849956974
 20
224.4346588049
 30
0.0
 11
95.683081083
 21
224.6255399702
 31
0.0
  0
ARC
  5
264
330
1F
100
AcDbEntity
  8
0
  6
Continuous
 62
     7
370
    25
100
AcDbCircle
 10
95.643868573
 20
224.269789763
 30
0.0
 40
0.2289593667154878
100
AcDbArc
 50
133.9389210195
 51
180.0
  0
LINE
  5
265
330
1F
100
AcDbEntity
  8
0
  6
Continuous
 62
     7
370
    25
100
AcDbLine
 10
95.4149092063
 20
222.0982017933
 30
0.0
 11
95.4149092064
 21
224.269789763
 31
0.0
  0
ARC
  5
266
330
1F
100
AcDbEntity
  8
0
  6
Continuous
 62
     7
370
    25
100
AcDbCircle
 10
95.9873076229
 20
222.0982017933
 30
0.0
 40
0.5723984166424444
100
AcDbArc
 50
179.9999999991
 51
280.9999999994
  0
LINE
  5
267
330
1F
100
AcDbEntity
  8
0
  6
Continuous
 62
     7
370
    25
100
AcDbLine
 10
96.0965263897
 20
221.5363199478
 30
0.0
 11
96.6469908963
 21
221.6433194087
 31
0.0
  0
ARC
  5
268
330
1F
100
AcDbEntity
  8
0
  6
Continuous
 62
     7
370
    25
100
AcDbCircle
 10
96.7125221564
 20
221.3061903014
 30
0.0
 40
0.3434390499494434
100
AcDbArc
 50
283.7684575786
 51
100.9999999982
  0
ARC
  5
269
330
1F
100
AcDbEntity
  8
0
  6
Continuous
 62
     7
370
    25
100
AcDbCircle
 10
96.9304903685
 20
220.4166690123
 30
0.0
 40
0.5723984166424467
100
AcDbArc
 50
103.768457582
 51
152.0000000026
  0
LINE
  5
26A
330
1F
100
AcDbEntity
  8
0
  6
Continuous
 62
     7
370
    25
100
AcDbLine
 10
95.0941720141
 20
218.1822962893
 30
0.0
 11
96.4250925643
 21
220.6853937915
 31
0.0
  0
ARC
  5
26B
330
1F
100
AcDbEntity
  8
0
  6
Continuous
 62
     7
370
    25
100
AcDbCircle
 10
95.2963311357
 20
218.0748063777
 30
0.0
 40
0.2289593666487398
100
AcDbArc
 50
151.999999998
 51
180.0
  0
LINE
  5
26C
330
1F
100
AcDbEntity
  8
0
  6
Continuous
 62
     7
370
    25
100
AcDbLine
 10
95.067371769
 20
217.2604998456
 30
0.0
 11
95.067371769
 21
218.0748063777
 31
0.0
  0
ARC
  5
26D
330
1F
100
AcDbEntity
  8
0
  6
Continuous
 62
     7
370
    25
100
AcDbCircle
 10
94.7203661193
 20
217.2604998456
 30
0.0
 40
0.347005649724295
100
AcDbArc
 50
278.7114973796
 51
359.9999999991
  0
LINE
  5
26E
330
1F
100
AcDbEntity
  8
0
  6
Continuous
 62
     7
370
    25
100
AcDbLine
 10
93.8113682124
 20
216.770161339
 30
0.0
 11
94.7729233089
 21
216.9174974217
 31
0.0
  0
ARC
  5
26F
330
1F
100
AcDbEntity
  8
0
  6
Continuous
 62
     7
370
    25
100
AcDbCircle
 10
93.551283236
 20
218.4675461896
 30
0.0
 40
1.717195249839157
100
AcDbArc
 50
263.9999999913
 51
278.7114973733
  0
LINE
  5
270
330
1F
100
AcDbEntity
  8
0
  6
Continuous
 62
     7
370
    25
100
AcDbLine
 10
93.3717874551
 20
216.759757915
 30
0.0
 11
92.7710695658
 21
216.8228959094
 31
0.0
  0
ARC
  5
271
330
1F
100
AcDbEntity
  8
0
  6
Continuous
 62
     7
370
    25
100
AcDbCircle
 10
92.9146661903
 20
218.1891265291
 30
0.0
 40
1.373756199883114
100
AcDbArc
 50
239.9999999991
 51
263.9999999991
  0
LINE
  5
272
330
1F
100
AcDbEntity
  8
0
  6
Continuous
 62
     7
370
    25
100
AcDbLine
 10
92.2277880903
 20
216.9994187614
 30
0.0
 11
90.6713215869
 21
217.8980451161
 31
0.0
  0
ARC
  5
273
330
1F
100
AcDbEntity
  8
0
  6
Continuous
 62
     7
370
    25
100
AcDbCircle
 10
90.8144211911
 20
218.1459009011
 30
0.0
 40
0.2861992083447449
100
AcDbArc
 50
119.9999999997
 51
239.999999999
  0
LINE
  5
274
330
1F
100
AcDbEntity
  8
0
  6
Continuous
 62
     7
370
    25
100
AcDbLine
 10
90.6713215869
 20
218.3937566861
 30
0.0
 11
90.9257721493
 21
218.5406637867
 31
0.0
  0
ARC
  5
275
330
1F
100
AcDbEntity
  8
0
  6
Continuous
 62
     7
370
    25
100
AcDbCircle
 10
90.782672545
 20
218.7885195716
 30
0.0
 40
0.286199208360775
100
AcDbArc
 50
300.0000000051
 51
0.0000000055
  0
LINE
  5
276
330
1F
100
AcDbEntity
  8
0
  6
Continuous
 62
     7
370
    25
100
AcDbLine
 10
91.0688717534
 20
218.7885195717
 30
0.0
 11
91.0688717535
 21
220.7378588628
 31
0.0
  0
LINE
  5
277
330
1F
100
AcDbEntity
  8
0
  6
Continuous
 62
     8
370
    18
100
AcDbLine
 10
175.0450757531
 20
216.770161339
 30
0.0
 11
93.8113682124
 21
216.770161339
 31
0.0
  0
LINE
  5
278
330
1F
100
AcDbEntity
  8
0
  6
Continuous
 62
     8
370
    18
100
AcDbLine
 10
94.7729233089
 20
216.9174974217
 30
0.0
 11
174.0835206566
 21
216.9174974217
 31
0.0
  0
LINE
  5
279
330
1F
100
AcDbEntity
  8
0
  6
Continuous
 62
     8
370
    18
100
AcDbLine
 10
173.7890721965
 20
217.2604998456
 30
0.0
 11
95.067371769
 21
217.2604998456
 31
0.0
  0
LINE
  5
27A
330
1F
100
AcDbEntity
  8
0
  6
Continuous
 62
     8
370
    18
100
AcDbLine
 10
173.7890721965
 20
218.0748063777
 30
0.0
 11
95.067371769
 21
218.0748063777
 31
0.0
  0
LINE
  5
27B
330
1F
100
AcDbEntity
  8
0
  6
Continuous
 62
     8
370
    18
100
AcDbLine
 10
173.7622719515
 20
218.1822962893
 30
0.0
 11
95.0941720141
 21
218.1822962893
 31
0.0
  0
LINE
  5
27C
330
1F
100
AcDbEntity
  8
0
  6
Continuous
 62
     8
370
    18
100
AcDbLine
 10
172.4313514012
 20
220.6853937915
 30
0.0
 11
96.4250925643
 21
220.6853937915
 31
0.0
  0
LINE
  5
27D
330
1F
100
AcDbEntity
  8
0
  6
Continuous
 62
     8
370
    18
100
AcDbLine
 10
96.7942602359
 20
220.972619818
 30
0.0
 11
172.0621837296
 21
220.972619818
 31
0.0
  0
LINE
  5
27E
330
1F
100
AcDbEntity
  8
0
  6
Continuous
 62
     8
370
    18
100
AcDbLine
 10
173.4415347592
 20
222.0982017933
 30
0.0
 11
95.4149092063
 21
222.0982017933
 31
0.0
  0
LINE
  5
27F
330
1F
100
AcDbEntity
  8
0
  6
Continuous
 62
     8
370
    18
100
AcDbLine
 10
173.4415347591
 20
224.269789763
 30
0.0
 11
95.4149092064
 21
224.269789763
 31
0.0
  0
LINE
  5
280
330
1F
100
AcDbEntity
  8
0
  6
Continuous
 62
     8
370
    18
100
AcDbLine
 10
178.4005681917
 20
223.3925463252
 30
0.0
 11
177.787572212
 21
223.3925463252
 31
0.0
  0
LINE
  5
281
330
1F
100
AcDbEntity
  8
0
  6
Continuous
 62
     8
370
    18
100
AcDbLine
 10
91.0688717535
 20
223.3925463252
 30
0.0
 11
90.4558757738
 21
223.3925463252
 31
0.0
  0
LINE
  5
282
330
1F
100
AcDbEntity
  8
0
  6
Continuous
 62
     8
370
    18
100
AcDbLine
 10
90.8887292214
 20
223.6956335721
 30
0.0
 11
91.020054919
 21
223.6956335721
 31
0.0
  0
LINE
  5
283
330
1F
100
AcDbEntity
  8
0
  6
Continuous
 62
     8
370
    18
100
AcDbLine
 10
177.8363890465
 20
223.6956335721
 30
0.0
 11
177.9677147442
 21
223.6956335721
 31
0.0
  0
LINE
  5
284
330
1F
100
AcDbEntity
  8
0
  6
Continuous
 62
     8
370
    18
100
AcDbLine
 10
173.3714482681
 20
224.4346588049
 30
0.0
 11
95.4849956974
 21
224.4346588049
 31
0.0
  0
LINE
  5
285
330
1F
100
AcDbEntity
  8
0
  6
Continuous
 62
     8
370
    18
100
AcDbLine
 10
95.683081083
 20
224.6255399702
 30
0.0
 11
173.1733628825
 21
224.6255399702
 31
0.0
  0
LINE
  5
286
330
1F
100
AcDbEntity
  8
0
  6
Continuous
 62
     8
370
    18
100
AcDbLine
 10
173.0955067704
 20
224.9057000784
 30
0.0
 11
95.7609371951
 21
224.9057000784
 31
0.0
  0
LINE
  5
287
330
1F
100
AcDbEntity
  8
0
  6
Continuous
 62
     8
370
    18
100
AcDbLine
 10
173.1573546491
 20
225.1365195041
 30
0.0
 11
95.6990893164
 21
225.1365195041
 31
0.0
  0
LINE
  5
288
330
1F
100
AcDbEntity
  8
0
  6
Continuous
 62
     8
370
    18
100
AcDbLine
 10
173.1575846532
 20
225.2245406237
 30
0.0
 11
95.6988593123
 21
225.2245406237
 31
0.0
  0
LINE
  5
289
330
1F
100
AcDbEntity
  8
0
  6
Continuous
 62
     8
370
    18
100
AcDbLine
 10
172.9790715326
 20
225.904964755
 30
0.0
 11
95.877372433
 21
225.904964755
 31
0.0
  0
LINE
  5
28A
330
1F
100
AcDbEntity
  8
0
  6
Continuous
 62
     8
370
    18
100
AcDbLine
 10
172.069377812
 20
226.2033561343
 30
0.0
 11
96.7870661536
 21
226.2033561343
 31
0.0
  0
LINE
  5
28B
330
1F
100
AcDbEntity
  8
0
  6
Continuous
 62
     8
370
    18
100
AcDbLine
 10
172.2833206253
 20
227.0552431921
 30
0.0
 11
96.5731233402
 21
227.0552431921
 31
0.0
  0
LINE
  5
28C
330
1F
100
AcDbEntity
  8
0
  6
Continuous
 62
     8
370
    18
100
AcDbLine
 10
172.1232503252
 20
227.3859172771
 30
0.0
 11
96.7331936403
 21
227.3859172771
 31
0.0
  0
LINE
  5
28D
330
1F
100
AcDbEntity
  8
0
  6
Continuous
 62
     8
370
    18
100
AcDbLine
 10
171.0342600105
 20
227.8762793773
 30
0.0
 11
97.822183955
 21
227.8762793773
 31
0.0
  0
LINE
  5
28E
330
1F
100
AcDbEntity
  8
0
  6
Continuous
 62
     8
370
    18
100
AcDbLine
 10
92.6786534804
 20
228.8664600214
 30
0.0
 11
94.2081959321
 21
228.8664600214
 31
0.0
  0
LINE
  5
28F
330
1F
100
AcDbEntity
  8
0
  6
Continuous
 62
     8
370
    18
100
AcDbLine
 10
174.6482480334
 20
228.8664600214
 30
0.0
 11
176.1777904851
 21
228.8664600214
 31
0.0
  0
LINE
  5
290
330
1F
100
AcDbEntity
  8
0
  6
Continuous
 62
     8
370
    18
100
AcDbLine
 10
98.165623005
 20
228.0309267524
 30
0.0
 11
170.6908209605
 21
228.0309267524
 31
0.0
  0
LINE
  5
291
330
1F
100
AcDbEntity
  8
0
  6
Continuous
 62
     8
370
    18
100
AcDbLine
 10
170.6441729455
 20
228.5263302451
 30
0.0
 11
98.21227102
 21
228.5263302451
 31
0.0
  0
LINE
  5
292
330
1F
100
AcDbEntity
  8
0
  6
Continuous
 62
     8
370
    18
100
AcDbLine
 10
97.3472398613
 20
229.1320315834
 30
0.0
 11
171.5092041042
 21
229.1320315834
 31
0.0
  0
LINE
  5
293
330
1F
100
AcDbEntity
  8
0
  6
Continuous
 62
     8
370
    18
100
AcDbLine
 10
94.8085972746
 20
229.3526225622
 30
0.0
 11
174.0478466909
 21
229.3526225622
 31
0.0
  0
LINE
  5
294
330
1F
100
AcDbEntity
  8
0
  6
Continuous
 62
     8
370
    18
100
AcDbLine
 10
93.2031371058
 20
229.9540373845
 30
0.0
 11
175.6533068597
 21
229.9540373845
 31
0.0
  0
LINE
  5
295
330
1F
100
AcDbEntity
  8
0
  6
Continuous
 62
     8
370
    18
100
AcDbLine
 10
171.7443517293
 20
229.2140185305
 30
0.0
 11
97.1120922363
 21
229.2140185305
 31
0.0
  0
LINE
  5
296
330
1F
100
AcDbEntity
  8
0
  6
Continuous
 62
     8
370
    18
100
AcDbLine
 10
175.6592665062
 20
230.1144881785
 30
0.0
 11
93.1971774593
 21
230.1144881785
 31
0.0
  0
LINE
  5
297
330
1F
100
AcDbEntity
  8
0
  6
Continuous
 62
     8
370
    18
100
AcDbLine
 10
93.0615107663
 20
230.3494697841
 30
0.0
 11
175.7949331993
 21
230.3494697841
 31
0.0
  0
LINE
  5
298
330
1F
100
AcDbEntity
  8
0
  6
Continuous
 62
     8
370
    18
100
AcDbLine
 10
93.0386027907
 20
230.4411325076
 30
0.0
 11
175.8178411748
 21
230.4411325076
 31
0.0
  0
LINE
  5
299
330
1F
100
AcDbEntity
  8
0
  6
Continuous
 62
     8
370
    18
100
AcDbLine
 10
93.1250172695
 20
232.9968239152
 30
0.0
 11
175.731426696
 21
232.9968239152
 31
0.0
  0
HATCH
  5
29A
330
1F
100
AcDbEntity
  8
0
  6
Continuous
 62
     7
370
    18
100
AcDbHatch
 10
0.0
 20
0.0
 30
0.0
210
0.0
220
0.0
230
1.0
  2
DIN 128 Elastomer-Gummi
 70
     0
 71
     0
 91
        1
 92
        0
 93
       74
 72
     1
 10
177.7875722121258
 20
218.7885195716648
 11
177.7875722120426
 21
220.7378588627556
 72
     2
 10
178.0737714203862
 20
220.7378588627602
 40
0.286199208343561
 50
179.9999999990839
 51
239.9999999963778
 73
     0
 72
     1
 10
177.9306718162159
 20
220.9857146476899
 11
178.1851223785699
 21
221.132621748361
 72
     2
 10
178.042022774395
 20
221.3804775333277
 40
0.286199208343561
 50
300.0000000007243
 51
420.0000000015339
 73
     1
 72
     1
 10
178.1851223785274
 20
221.6283333182434
 11
177.9306718162231
 21
221.7752404188555
 72
     2
 10
178.073771420417
 20
222.0230962038112
 40
0.286199208343561
 50
120.000000005119
 51
180.0000000054631
 73
     0
 72
     1
 10
177.787572212044
 20
222.0230962038385
 11
177.787572212008
 21
223.6018573054371
 72
     2
 10
177.9020518953548
 20
223.6018573054394
 40
0.114479683346748
 50
179.999999998862
 51
305.0000000009447
 73
     0
 72
     1
 10
177.967714744151
 20
223.6956335720615
 11
178.4005681917219
 21
223.3925463251894
 72
     2
 10
178.4662310405636
 20
223.4863225918092
 40
0.114479683346748
 50
234.9999999797687
 51
384.9999999836815
 73
     1
 72
     1
 10
178.5699848690453
 20
223.5347037965572
 11
177.8143868491771
 21
225.1550889790173
 72
     2
 10
178.0737714202685
 20
225.276041991118
 40
0.286199208343561
 50
154.9999999648816
 51
179.9999999636985
 73
     0
 72
     1
 10
177.7875722119949
 20
225.2760419909366
 11
177.7875722119505
 21
226.4174609674165
 72
     2
 10
178.0737714202941
 20
226.4174609674216
 40
0.286199208343561
 50
179.9999999989759
 51
239.9999999976539
 73
     0
 72
     1
 10
177.9306718161293
 20
226.6653167523545
 11
178.1851223784455
 21
226.8122238529651
 72
     2
 10
178.0420227742704
 20
227.0600796379318
 40
0.286199208343561
 50
300.0000000007525
 51
420.0000000003762
 73
     1
 72
     1
 10
178.1851223784406
 20
227.3079354229012
 11
177.9306718161337
 21
227.4548425235204
 72
     2
 10
178.0737714203298
 20
227.7026983084749
 40
0.286199208343561
 50
120.0000000056355
 51
180.0000000048884
 73
     0
 72
     1
 10
177.7875722119552
 20
227.7026983084993
 11
177.7875722119101
 21
228.9164946792476
 72
     2
 10
178.0737714202536
 20
228.9164946792527
 40
0.286199208343561
 50
179.9999999989759
 51
239.9999999976174
 73
     0
 72
     1
 10
177.930671816089
 20
229.1643504641851
 11
178.1851223784379
 21
229.311257564853
 72
     2
 10
178.0420227742631
 20
229.5591133498197
 40
0.286199208343561
 50
300.0000000007145
 51
420.0000000014697
 73
     1
 72
     1
 10
178.1851223783954
 20
229.8069691347346
 11
177.9306718160932
 21
229.9538762353508
 72
     2
 10
178.0737714202891
 20
230.2017320203054
 40
0.286199208343561
 50
120.0000000055875
 51
179.6843586562908
 73
     0
 72
     1
 10
177.7875765549639
 20
230.200155362365
 11
177.7807567077649
 21
231.4380935037535
 72
     2
 10
178.0669515732073
 20
231.4396701618971
 40
0.286199208343561
 50
179.6843586157436
 51
240.0000000002792
 73
     0
 72
     1
 10
177.923851969036
 20
231.6875259468675
 11
178.1783025313681
 21
231.8344330475229
 72
     2
 10
178.0352029271974
 20
232.082288832492
 40
0.286199208343561
 50
299.9999999997609
 51
420.0000000082309
 73
     1
 72
     1
 10
178.1783025313345
 20
232.3301446174828
 11
177.0375708031206
 21
232.9887463876466
 72
     2
 10
176.3506927033512
 20
231.7990386198436
 40
1.37375619988166
 50
60.00000000825776
 51
69.01418099522849
 73
     1
 72
     1
 10
176.8426854524411
 20
233.0816723283445
 11
176.1976677766193
 21
233.3290882652133
 72
     2
 10
176.0746695895853
 20
233.0084298378852
 40
0.343439049949432
 50
69.01418104449507
 51
181.9365794700841
 73
     1
 72
     1
 10
175.7314266959923
 20
232.9968239152354
 11
175.8178411747781
 21
230.4411325076074
 72
     2
 10
175.6462197282646
 20
230.4353295464965
 40
0.171719524984892
 50
358.0634205981081
 51
389.9999999764078
 73
     0
 72
     1
 10
175.7949331992628
 20
230.3494697840652
 11
175.6592665061698
 21
230.1144881785105
 72
     2
 10
175.8079799771677
 20
230.028628416079
 40
0.171719524984892
 50
150.0000000234704
 51
205.7456652520253
 73
     1
 72
     1
 10
175.6533068596823
 20
229.9540373845231
 11
176.1777904850875
 21
228.8664600214191
 72
     2
 10
175.4559826034915
 20
228.518368540823
 40
0.801357783263938
 50
334.2543347477578
 51
540.0000000000422
 73
     0
 72
     1
 10
174.6546248202276
 20
228.5183685408236
 11
174.6546248202274
 21
228.7812575451584
 72
     2
 10
174.0822264035851
 20
228.7812575451578
 40
0.57239841664246
 50
0.000000000056899
 51
93.44340351120827
 73
     1
 72
     1
 10
174.047846690902
 20
229.3526225622272
 11
171.7443517292534
 21
229.2140185305151
 72
     2
 10
171.7718554994063
 20
228.7569265167553
 40
0.457918733412644
 50
93.44340351121845
 51
124.9999999972089
 73
     1
 72
     1
 10
171.5092041041753
 20
229.1320315833613
 11
170.6441729455423
 21
228.5263302451183
 72
     2
 10
170.8083300675382
 20
228.2918895785615
 40
0.286199208343561
 50
125.000000001619
 51
245.7584100007441
 73
     1
 72
     1
 10
170.6908209605009
 20
228.0309267524353
 11
171.0342600105347
 21
227.8762793772762
 72
     1
 10
171.0342600105347
 20
227.8762793772762
 11
172.1232503251859
 21
227.385917277131
 72
     2
 10
172.0057412181795
 20
227.1249544510015
 40
0.286199208343561
 50
294.2415899933747
 51
374.0976954729495
 73
     0
 72
     1
 10
172.2833206252704
 20
227.055243192115
 11
172.0693778119571
 21
226.2033561342651
 72
     2
 10
172.2914413375993
 20
226.1475871271278
 40
0.228959366651219
 50
165.9023045183764
 51
283.5831003839293
 73
     1
 72
     1
 10
172.3452136856222
 20
225.9250316819789
 11
172.772643943361
 21
226.0283045026104
 72
     2
 10
172.8129732044337
 20
225.8613879187776
 40
0.171719524984892
 50
256.4168995957858
 51
345.2994334219486
 73
     0
 72
     1
 10
172.9790715325656
 20
225.9049647549737
 11
173.1575846531928
 21
225.2245406237199
 72
     2
 10
172.9914863250626
 20
225.1809637875163
 40
0.171719524984892
 50
345.2994334193647
 51
374.9999999829496
 73
     0
 72
     1
 10
173.1573546491368
 20
225.1365195040836
 11
173.0955067704136
 21
224.9057000783648
 72
     2
 10
173.3719539771634
 20
224.8316262724807
 40
0.286199208343561
 50
164.9999999834443
 51
226.0610789439038
 73
     1
 72
     1
 10
173.1733628824937
 20
224.6255399702324
 11
173.371448268143
 21
224.4346588049133
 72
     2
 10
173.2125753924842
 20
224.2697897629841
 40
0.22895936664645
 50
313.9389210195375
 51
360.0000000000008
 73
     0
 72
     1
 10
173.4415347591307
 20
224.2697897629841
 11
173.4415347592175
 21
222.0982017933214
 72
     2
 10
172.8691363426177
 20
222.0982017933123
 40
0.57239841664246
 50
359.9999999990904
 51
460.9999999993824
 73
     0
 72
     1
 10
172.7599175757891
 20
221.5363199477725
 11
172.2094530692446
 21
221.6433194086543
 72
     2
 10
172.1439218091616
 20
221.3061903013653
 40
0.343439049949432
 50
79.0000000018167
 51
256.231542421448
 73
     1
 72
     2
 10
171.9259535970546
 20
220.4166690122865
 40
0.57239841664246
 50
283.7684575819579
 51
332.0000000025913
 73
     0
 72
     1
 10
172.4313514011974
 20
220.685393791461
 11
173.7622719514667
 21
218.1822962893498
 72
     2
 10
173.5601128298254
 20
218.0748063776677
 40
0.22895936664645
 50
331.9999999980185
 51
360.0000000000008
 73
     0
 72
     1
 10
173.7890721964719
 20
218.0748063776677
 11
173.7890721964785
 21
217.2604998455801
 72
     2
 10
174.1360778462028
 20
217.2604998455857
 40
0.347005649717682
 50
180.0000000009394
 51
261.2885026203707
 73
     1
 72
     1
 10
174.0835206566264
 20
216.9174974217462
 11
175.0450757531415
 21
216.7701613389726
 72
     2
 10
175.3051607295479
 20
218.4675461895908
 40
1.71719524983917
 50
261.2885026267497
 51
276.0000000087446
 73
     1
 72
     1
 10
175.4846565104047
 20
216.7597579150308
 11
176.0853743997247
 21
216.8228959094075
 72
     2
 10
175.941777775224
 20
218.1891265290868
 40
1.37375619988166
 50
276.0000000009472
 51
300.0000000009419
 73
     1
 72
     1
 10
176.6286558751843
 20
216.9994187613942
 11
178.1851223785899
 21
217.8980451161296
 72
     2
 10
178.0420227744142
 20
218.1459009010972
 40
0.286199208343561
 50
300.0000000007515
 51
420.0000000004143
 73
     1
 72
     1
 10
178.1851223785843
 20
218.3937566860668
 11
177.9306718162668
 21
218.5406637866669
 72
     2
 10
178.0737714204693
 20
218.7885195716375
 40
0.286199208343561
 50
120.0000000051184
 51
180.0000000054688
 73
     0
 97
        0
 75
     0
 76
     2
 52
0.0
 41
0.125
 77
     0
 78
     3
 53
45.00000209717174
 43
0.8418990000000001
 44
0.8418990000000001
 45
0.5612659459355175
 46
1.683798043244233
 79
     2
 49
0.79375
 49
-1.5875
 53
45.00000209717174
 43
1.96443125
 44
0.8418990000000001
 45
0.5612659459355175
 46
1.683798043244233
 79
     2
 49
0.79375
 49
-1.5875
 53
134.9999719140475
 43
0.0
 44
0.0
 45
-0.5612662826950551
 46
-0.5612657324384541
 79
     0
 98
        1
 10
0.0
 20
0.0
  0
HATCH
  5
29B
330
1F
100
AcDbEntity
  8
0
  6
Continuous
 62
     7
370
    18
100
AcDbHatch
 10
0.0
 20
0.0
 30
0.0
210
0.0
220
0.0
230
1.0
  2
DIN 128 Elastomer-Gummi
 70
     0
 71
     0
 91
        1
 92
        0
 93
       74
 72
     1
 10
91.06887175347451
 20
220.7378588627556
 11
91.06887175339132
 21
218.7885195716648
 72
     2
 10
90.78267254504776
 20
218.7885195716375
 40
0.286199208343561
 50
359.9999999945328
 51
419.9999999948775
 73
     0
 72
     1
 10
90.9257721492503
 20
218.5406637866669
 11
90.67132158693286
 21
218.3937566860668
 72
     4
 94
        3
 73
     1
 74
     0
 95
       26
 96
       22
 40
0.0
 40
0.0
 40
0.0
 40
0.0
 40
0.0000200815855285
 40
0.0000200815855285
 40
0.0000200815855285
 40
0.0001175026773563
 40
0.0001175026773563
 40
0.0001175026773563
 40
0.000214923769184
 40
0.000214923769184
 40
0.000214923769184
 40
0.0003123448610117
 40
0.0003123448610117
 40
0.0003123448610117
 40
0.0004097659528394
 40
0.0004097659528394
 40
0.0004097659528394
 40
0.0005071870446646
 40
0.0005071870446646
 40
0.0005071870446646
 40
0.0006046081364898
 40
0.0006046081364898
 40
0.0006046081364898
 40
0.0006046081364898
 10
90.67132158693286
 20
218.3937566860668
 42
1.0
 10
90.6655245325275
 20
218.3904097551454
 42
1.0
 10
90.65984147953337
 20
218.3868571365715
 42
1.0
 10
90.65429339326731
 20
218.3831119362891
 42
1.0
 10
90.62774383502234
 20
218.3651898261654
 42
1.0
 10
90.60392242058371
 20
218.3424367388997
 42
1.0
 10
90.5848018116383
 20
218.3167368675411
 42
1.0
 10
90.56568120269293
 20
218.2910369961825
 42
1.0
 10
90.55073402923813
 20
218.2616815065478
 42
1.0
 10
90.54119807320657
 20
218.231101339497
 42
1.0
 10
90.531662117175
 20
218.2005211724462
 42
1.0
 10
90.52727436512542
 20
218.1678728892152
 42
1.0
 10
90.52839816871277
 20
218.1358601083334
 42
1.0
 10
90.52952197230013
 20
218.1038473274516
 42
1.0
 10
90.53618832741492
 20
218.0715870968966
 42
1.0
 10
90.54784519029161
 20
218.0417509003869
 42
1.0
 10
90.55950205316803
 20
218.0119147038779
 42
1.0
 10
90.57647093447676
 20
217.9836796222763
 42
1.0
 10
90.5973466337789
 20
217.9593838149655
 42
1.0
 10
90.61822233308104
 20
217.9350880076546
 42
1.0
 10
90.64358062793818
 20
217.9140613662713
 42
1.0
 10
90.67132158692785
 20
217.8980451161306
 42
1.0
 72
     1
 10
90.67132158692726
 20
217.8980451161296
 11
92.22778809033278
 21
216.9994187613942
 72
     2
 10
92.91466619029315
 20
218.1891265290868
 40
1.37375619988166
 50
239.9999999990602
 51
263.999999999055
 73
     1
 72
     1
 10
92.7710695657924
 20
216.8228959094075
 11
93.37178745511244
 21
216.7597579150308
 72
     2
 10
93.55128323596925
 20
218.4675461895908
 40
1.71719524983917
 50
263.9999999912575
 51
278.7114973732519
 73
     1
 72
     1
 10
93.81136821237563
 20
216.7701613389726
 11
94.7729233088907
 21
216.9174974217462
 72
     2
 10
94.72036611931435
 20
217.2604998455857
 40
0.347005649717682
 50
278.7114973796286
 51
359.9999999990623
 73
     1
 72
     1
 10
95.06737176903864
 20
217.2604998455801
 11
95.0673717690452
 21
218.0748063776677
 72
     2
 10
95.29633113569166
 20
218.0748063776677
 40
0.22895936664645
 50
180.0
 51
208.0000000019848
 73
     0
 72
     1
 10
95.09417201405037
 20
218.1822962893498
 11
96.42509256431968
 21
220.685393791461
 72
     2
 10
96.93049036846254
 20
220.4166690122865
 40
0.57239841664246
 50
207.9999999974103
 51
256.2315424180451
 73
     0
 72
     2
 10
96.71252215635556
 20
221.3061903013653
 40
0.343439049949432
 50
283.7684575785536
 51
460.9999999981841
 73
     1
 72
     1
 10
96.64699089627248
 20
221.6433194086543
 11
96.09652638972798
 21
221.5363199477725
 72
     2
 10
95.98730762289937
 20
222.0982017933123
 40
0.57239841664246
 50
79.00000000061704
 51
180.0000000009112
 73
     0
 72
     1
 10
95.41490920629965
 20
222.0982017933214
 11
95.4149092063864
 21
224.2697897629841
 72
     2
 10
95.64386857303285
 20
224.2697897629841
 40
0.22895936664645
 50
180.0
 51
226.0610789804642
 73
     0
 72
     1
 10
95.4849956973741
 20
224.4346588049133
 11
95.68308108302341
 21
224.6255399702324
 72
     2
 10
95.48448998835376
 20
224.8316262724807
 40
0.286199208343561
 50
313.9389210560917
 51
375.0000000165572
 73
     1
 72
     1
 10
95.76093719510357
 20
224.9057000783648
 11
95.69908931638032
 21
225.1365195040836
 72
     4
 94
        3
 73
     1
 74
     0
 95
       11
 96
        7
 40
0.0
 40
0.0
 40
0.0
 40
0.0
 40
0.0000576585004983
 40
0.0000576585004983
 40
0.0000576585004983
 40
0.0000883831276569
 40
0.0000883831276569
 40
0.0000883831276569
 40
0.0000883831276569
 10
95.69908931638032
 20
225.1365195040836
 42
1.0
 10
95.69411494370551
 20
225.1550841156639
 42
1.0
 10
95.69227717878427
 20
225.1747635774383
 42
1.0
 10
95.69372820772875
 20
225.1939282246209
 42
1.0
 10
95.69450934380225
 20
225.2042451775027
 42
1.0
 10
95.69623371134776
 20
225.2145328312639
 42
1.0
 10
95.6988593123247
 20
225.2245406237198
 42
1.0
 72
     1
 10
95.69885931232429
 20
225.2245406237199
 11
95.87737243295155
 21
225.9049647549737
 72
     2
 10
96.04347076108336
 20
225.8613879187776
 40
0.171719524984892
 50
194.7005665780542
 51
283.5831004042204
 73
     0
 72
     1
 10
96.08380002215614
 20
226.0283045026104
 11
96.51123027989486
 21
225.9250316819789
 72
     2
 10
96.56500262791785
 20
226.1475871271278
 40
0.228959366651219
 50
256.4168996160654
 51
374.0976954816254
 73
     1
 72
     1
 10
96.78706615356003
 20
226.2033561342651
 11
96.57312334024675
 21
227.055243192115
 72
     4
 94
        3
 73
     1
 74
     0
 95
       20
 96
       16
 40
0.0
 40
0.0
 40
0.0
 40
0.0
 40
0.0000960975008423
 40
0.0000960975008423
 40
0.0000960975008423
 40
0.0001921950016847
 40
0.0001921950016847
 40
0.0001921950016847
 40
0.0002882925025295
 40
0.0002882925025295
 40
0.0002882925025295
 40
0.0003843900033743
 40
0.0003843900033743
 40
0.0003843900033743
 40
0.0003968838896682
 40
0.0003968838896682
 40
0.0003968838896682
 40
0.0003968838896682
 10
96.57312334024675
 20
227.055243192115
 42
1.0
 10
96.5653209919007
 20
227.0863109315649
 42
1.0
 10
96.5627749351467
 20
227.1191542012092
 42
1.0
 10
96.56569601005151
 20
227.151053235609
 42
1.0
 10
96.56861708495632
 20
227.1829522700087
 42
1.0
 10
96.5770858583724
 20
227.214786883918
 42
1.0
 10
96.5904010274911
 20
227.2439208391177
 42
1.0
 10
96.60371619661015
 20
227.2730547943181
 42
1.0
 10
96.62224501023638
 20
227.3002916412646
 42
1.0
 10
96.64445308925737
 20
227.3233758848191
 42
1.0
 10
96.66666116827837
 20
227.3464601283738
 42
1.0
 10
96.69316103893345
 20
227.3660284604755
 42
1.0
 10
96.7217582354119
 20
227.380460419035
 42
1.0
 10
96.72552883851945
 20
227.3823633044396
 42
1.0
 10
96.7293425081949
 20
227.3841831485494
 42
1.0
 10
96.73319364032604
 20
227.3859172771393
 42
1.0
 72
     1
 10
96.73319364033122
 20
227.385917277131
 11
97.82218395498236
 21
227.8762793772762
 72
     1
 10
97.82218395498236
 20
227.8762793772762
 11
98.16562300501617
 21
228.0309267524353
 72
     2
 10
98.04811389797896
 20
228.2918895785615
 40
0.286199208343561
 50
294.2415899992548
 51
414.9999999983818
 73
     1
 72
     1
 10
98.21227101997479
 20
228.5263302451183
 11
97.34723986134178
 21
229.1320315833613
 72
     2
 10
97.08458846611086
 20
228.7569265167553
 40
0.457918733412644
 50
55.00000000279256
 51
86.55659648878155
 73
     1
 72
     1
 10
97.11209223626369
 20
229.2140185305151
 11
94.80859727461514
 21
229.3526225622272
 72
     2
 10
94.77421756193205
 20
228.7812575451578
 40
0.57239841664246
 50
86.55659648879173
 51
179.9999999999431
 73
     1
 72
     1
 10
94.20181914528966
 20
228.7812575451584
 11
94.20181914528949
 21
228.5183685408236
 72
     4
 94
        3
 73
     1
 74
     0
 95
       38
 96
       34
 40
0.0
 40
0.0
 40
0.0
 40
0.0
 40
0.0002690730023324
 40
0.0002690730023324
 40
0.0002690730023324
 40
0.0005381460046649
 40
0.0005381460046649
 40
0.0005381460046649
 40
0.0008072190069973
 40
0.0008072190069973
 40
0.0008072190069973
 40
0.0010762920093297
 40
0.0010762920093297
 40
0.0010762920093297
 40
0.0013453650116622
 40
0.0013453650116622
 40
0.0013453650116622
 40
0.0016144380139946
 40
0.0016144380139946
 40
0.0016144380139946
 40
0.001883511016327
 40
0.001883511016327
 40
0.001883511016327
 40
0.0021525840186594
 40
0.0021525840186594
 40
0.0021525840186594
 40
0.0024216570209919
 40
0.0024216570209919
 40
0.0024216570209919
 40
0.0026907300233243
 40
0.0026907300233243
 40
0.0026907300233243
 40
0.002863031305315
 40
0.002863031305315
 40
0.002863031305315
 40
0.002863031305315
 10
94.20181914528949
 20
228.5183685408236
 42
1.0
 10
94.20181914528955
 20
228.4286775400461
 42
1.0
 10
94.18633386242817
 20
228.3377496449978
 42
1.0
 10
94.15664563971188
 20
228.253114634202
 42
1.0
 10
94.1269574169956
 20
228.1684796234061
 42
1.0
 10
94.08224741658627
 20
228.0878031587674
 42
1.0
 10
94.02621809305717
 20
228.0177660933996
 42
1.0
 10
93.97018876952806
 20
227.9477290280317
 42
1.0
 10
93.90129476495768
 20
227.8863996531983
 42
1.0
 10
93.82524122181869
 20
227.8388566810944
 42
1.0
 10
93.7491876786797
 20
227.7913137089905
 42
1.0
 10
93.6638769463502
 20
227.7562458457449
 42
1.0
 10
93.57637364366639
 20
227.7365570763601
 42
1.0
 10
93.48887034098254
 20
227.7168683069753
 42
1.0
 10
93.39676101881739
 20
227.7120155908821
 42
1.0
 10
93.30767329018732
 20
227.7224007836103
 42
1.0
 10
93.21858556155726
 20
227.7327859763384
 42
1.0
 10
93.1300622769114
 20
227.7586955143257
 42
1.0
 10
93.04943408794003
 20
227.7979838174662
 42
1.0
 10
92.96880589896868
 20
227.8372721206068
 42
1.0
 10
92.8938489806696
 20
227.8910228088099
 42
1.0
 10
92.83077054803742
 20
227.9547847642154
 42
1.0
 10
92.76769211540525
 20
228.018546719621
 42
1.0
 10
92.71475238738601
 20
228.0940785756848
 42
1.0
 10
92.67633532587449
 20
228.1751255065662
 42
1.0
 10
92.63791826436297
 20
228.2561724374475
 42
1.0
 10
92.61296427936969
 20
228.3449698175674
 42
1.0
 10
92.60353982124164
 20
228.4341642972703
 42
1.0
 10
92.5941153631136
 20
228.5233587769731
 42
1.0
 10
92.59996049365937
 20
228.6154104501361
 42
1.0
 10
92.62059117507707
 20
228.7026964776818
 42
1.0
 10
92.63391328642845
 20
228.7590607903692
 42
1.0
 10
92.65349552801071
 20
228.8142921019123
 42
1.0
 10
92.67865348042959
 20
228.8664600214191
 42
1.0
 72
     1
 10
92.67865348042959
 20
228.8664600214191
 11
93.20313710583486
 21
229.9540373845231
 72
     2
 10
93.04846398834945
 20
230.028628416079
 40
0.171719524984892
 50
334.2543347479764
 51
389.9999999765328
 73
     1
 72
     1
 10
93.19717745934734
 20
230.1144881785105
 11
93.06151076625433
 21
230.3494697840652
 72
     4
 94
        3
 73
     1
 74
     0
 95
       11
 96
        7
 40
0.0
 40
0.0
 40
0.0
 40
0.0
 40
0.0000576585004983
 40
0.0000576585004983
 40
0.0000576585004983
 40
0.0000950565703646
 40
0.0000950565703646
 40
0.0000950565703646
 40
0.0000950565703646
 10
93.0615107662545
 20
230.3494697840653
 42
1.0
 10
93.0519010161783
 20
230.3661143594611
 42
1.0
 10
93.04503245207576
 20
230.3846476112753
 42
1.0
 10
93.04147386272655
 20
230.403534792867
 42
1.0
 10
93.0391466367701
 20
230.4158865241095
 42
1.0
 10
93.03817804136442
 20
230.4285706274412
 42
1.0
 10
93.03860279073906
 20
230.4411325076074
 42
1.0
 72
     1
 10
93.03860279073906
 20
230.4411325076074
 11
93.12501726952483
 21
232.9968239152354
 72
     2
 10
92.78177437593176
 20
233.0084298378852
 40
0.343439049949432
 50
358.0634205299177
 51
470.9858189554991
 73
     1
 72
     1
 10
92.6587761888978
 20
233.3290882652133
 11
92.013758513076
 21
233.0816723283445
 72
     2
 10
92.50575126216586
 20
231.7990386198436
 40
1.37375619988166
 50
110.9858190047704
 51
119.9999999917402
 73
     1
 72
     1
 10
91.81887316239653
 20
232.9887463876466
 11
90.67814143418256
 21
232.3301446174828
 72
     4
 94
        3
 73
     1
 74
     0
 95
       26
 96
       22
 40
0.0
 40
0.0
 40
0.0
 40
0.0
 40
0.0000200815855725
 40
0.0000200815855725
 40
0.0000200815855725
 40
0.0001175026774
 40
0.0001175026774
 40
0.0001175026774
 40
0.0002149237692274
 40
0.0002149237692274
 40
0.0002149237692274
 40
0.0003123448610549
 40
0.0003123448610549
 40
0.0003123448610549
 40
0.0004097659528823
 40
0.0004097659528823
 40
0.0004097659528823
 40
0.0005071870447072
 40
0.0005071870447072
 40
0.0005071870447072
 40
0.0006046081365321
 40
0.0006046081365321
 40
0.0006046081365321
 40
0.0006046081365321
 10
90.67814143418357
 20
232.3301446174811
 42
1.0
 10
90.67234437976506
 20
232.3267976865531
 42
1.0
 10
90.66666132675827
 20
232.3232450679718
 42
1.0
 10
90.66111324048009
 20
232.3194998676811
 42
1.0
 10
90.63456368223544
 20
232.3015777575569
 42
1.0
 10
90.6107422677972
 20
232.2788246702907
 42
1.0
 10
90.59162165885226
 20
232.2531247989319
 42
1.0
 10
90.57250104990732
 20
232.2274249275729
 42
1.0
 10
90.55755387645303
 20
232.198069437938
 42
1.0
 10
90.548017920422
 20
232.167489270887
 42
1.0
 10
90.53848196439095
 20
232.1369091038361
 42
1.0
 10
90.53409421234193
 20
232.104260820605
 42
1.0
 10
90.53521801592984
 20
232.0722480397232
 42
1.0
 10
90.53634181951776
 20
232.0402352588414
 42
1.0
 10
90.54300817463309
 20
232.0079750282865
 42
1.0
 10
90.5546650375103
 20
231.978138831777
 42
1.0
 10
90.56632190038724
 20
231.9483026352683
 42
1.0
 10
90.58329078169646
 20
231.9200675536669
 42
1.0
 10
90.60416648099901
 20
231.8957717463564
 42
1.0
 10
90.62504218030156
 20
231.871475939046
 42
1.0
 10
90.65040047515907
 20
231.8504492976631
 42
1.0
 10
90.67814143414903
 20
231.8344330475229
 42
1.0
 72
     1
 10
90.67814143414903
 20
231.8344330475229
 11
90.93259199648107
 21
231.6875259468675
 72
     2
 10
90.78949239230985
 20
231.4396701618971
 40
0.286199208343561
 50
299.9999999997199
 51
360.3156413842572
 73
     0
 72
     1
 10
91.07568725775224
 20
231.4380935037535
 11
91.06886741055317
 21
230.200155362365
 72
     2
 10
90.78267254522795
 20
230.2017320203054
 40
0.286199208343561
 50
0.315641343709184
 51
59.99999999441248
 73
     0
 72
     1
 10
90.9257721494239
 20
229.9538762353508
 11
90.67132158712168
 21
229.8069691347346
 72
     4
 94
        3
 73
     1
 74
     0
 95
       26
 96
       22
 40
0.0
 40
0.0
 40
0.0
 40
0.0
 40
0.0000200815855339
 40
0.0000200815855339
 40
0.0000200815855339
 40
0.0001175026773616
 40
0.0001175026773616
 40
0.0001175026773616
 40
0.0002149237691893
 40
0.0002149237691893
 40
0.0002149237691893
 40
0.000312344861017
 40
0.000312344861017
 40
0.000312344861017
 40
0.0004097659528447
 40
0.0004097659528447
 40
0.0004097659528447
 40
0.0005071870446698
 40
0.0005071870446698
 40
0.0005071870446698
 40
0.000604608136495
 40
0.000604608136495
 40
0.000604608136495
 40
0.000604608136495
 10
90.67132158708863
 20
229.8069691347919
 42
1.0
 10
90.66552453268166
 20
229.8036222038697
 42
1.0
 10
90.65984147968598
 20
229.8000695852949
 42
1.0
 10
90.6542933934184
 20
229.7963243850115
 42
1.0
 10
90.62774383517345
 20
229.7784022748878
 42
1.0
 10
90.60392242073482
 20
229.755649187622
 42
1.0
 10
90.58480181178943
 20
229.7299493162634
 42
1.0
 10
90.56568120284406
 20
229.7042494449048
 42
1.0
 10
90.55073402938929
 20
229.6748939552701
 42
1.0
 10
90.54119807335772
 20
229.6443137882193
 42
1.0
 10
90.53166211732619
 20
229.6137336211685
 42
1.0
 10
90.52727436527661
 20
229.5810853379375
 42
1.0
 10
90.52839816886399
 20
229.5490725570557
 42
1.0
 10
90.52952197245135
 20
229.5170597761739
 42
1.0
 10
90.53618832756615
 20
229.4847995456189
 42
1.0
 10
90.54784519044286
 20
229.4549633491092
 42
1.0
 10
90.55950205331928
 20
229.4251271526003
 42
1.0
 10
90.57647093462803
 20
229.3968920709986
 42
1.0
 10
90.59734663393019
 20
229.3725962636878
 42
1.0
 10
90.6182223332323
 20
229.348300456377
 42
1.0
 10
90.64358062808947
 20
229.3272738149937
 42
1.0
 10
90.67132158707915
 20
229.311257564853
 42
1.0
 72
     1
 10
90.67132158707915
 20
229.311257564853
 11
90.92577214942814
 21
229.1643504641851
 72
     2
 10
90.78267254526345
 20
228.9164946792527
 40
0.286199208343561
 50
300.0000000023842
 51
360.000000001025
 73
     0
 72
     1
 10
91.068871753607
 20
228.9164946792476
 11
91.06887175356196
 21
227.7026983084993
 72
     2
 10
90.78267254518727
 20
227.7026983084749
 40
0.286199208343561
 50
359.9999999951132
 51
419.9999999943678
 73
     0
 72
     1
 10
90.92577214938343
 20
227.4548425235204
 11
90.67132158707649
 21
227.3079354229012
 72
     4
 94
        3
 73
     1
 74
     0
 95
       26
 96
       22
 40
0.0
 40
0.0
 40
0.0
 40
0.0
 40
0.0000200815855283
 40
0.0000200815855283
 40
0.0000200815855283
 40
0.0001175026773561
 40
0.0001175026773561
 40
0.0001175026773561
 40
0.0002149237691838
 40
0.0002149237691838
 40
0.0002149237691838
 40
0.0003123448610115
 40
0.0003123448610115
 40
0.0003123448610115
 40
0.0004097659528392
 40
0.0004097659528392
 40
0.0004097659528392
 40
0.0005071870446644
 40
0.0005071870446644
 40
0.0005071870446644
 40
0.0006046081364896
 40
0.0006046081364896
 40
0.0006046081364896
 40
0.0006046081364896
 10
90.6713215870765
 20
227.3079354229012
 42
1.0
 10
90.66552453267121
 20
227.3045884919798
 42
1.0
 10
90.65984147967716
 20
227.301035873406
 42
1.0
 10
90.65429339341114
 20
227.2972906731237
 42
1.0
 10
90.62774383516616
 20
227.2793685629999
 42
1.0
 10
90.60392242072751
 20
227.2566154757342
 42
1.0
 10
90.58480181178213
 20
227.2309156043756
 42
1.0
 10
90.56568120283673
 20
227.205215733017
 42
1.0
 10
90.55073402938193
 20
227.1758602433823
 42
1.0
 10
90.54119807335037
 20
227.1452800763315
 42
1.0
 10
90.5316621173188
 20
227.1146999092808
 42
1.0
 10
90.52727436526922
 20
227.0820516260497
 42
1.0
 10
90.52839816885658
 20
227.0500388451679
 42
1.0
 10
90.52952197244393
 20
227.0180260642861
 42
1.0
 10
90.53618832755872
 20
226.9857658337311
 42
1.0
 10
90.54784519043541
 20
226.9559296372214
 42
1.0
 10
90.55950205331182
 20
226.9260934407125
 42
1.0
 10
90.57647093462057
 20
226.8978583591108
 42
1.0
 10
90.59734663392268
 20
226.8735625518
 42
1.0
 10
90.61822233322481
 20
226.8492667444892
 42
1.0
 10
90.64358062808195
 20
226.8282401031059
 42
1.0
 10
90.67132158707163
 20
226.8122238529651
 42
1.0
 72
     1
 10
90.67132158707163
 20
226.8122238529651
 11
90.92577214938783
 21
226.6653167523545
 72
     2
 10
90.78267254522305
 20
226.4174609674216
 40
0.286199208343561
 50
300.0000000023477
 51
360.000000001025
 73
     0
 72
     1
 10
91.06887175356663
 20
226.4174609674165
 11
91.06887175352226
 21
225.2760419909366
 72
     2
 10
90.78267254524866
 20
225.276041991118
 40
0.286199208343561
 50
0.0000000363015424
 51
25.00000003511718
 73
     0
 72
     1
 10
91.04205711634002
 20
225.1550889790173
 11
90.28645909647182
 21
223.5347037965572
 72
     4
 94
        3
 73
     1
 74
     0
 95
       29
 96
       25
 40
0.0
 40
0.0
 40
0.0
 40
0.0
 40
0.0000292734573811
 40
0.0000292734573811
 40
0.0000292734573811
 40
0.0000679458852328
 40
0.0000679458852328
 40
0.0000679458852328
 40
0.0001066183130845
 40
0.0001066183130845
 40
0.0001066183130845
 40
0.0001452907409363
 40
0.0001452907409363
 40
0.0001452907409363
 40
0.000183963168788
 40
0.000183963168788
 40
0.000183963168788
 40
0.0002226355966397
 40
0.0002226355966397
 40
0.0002226355966397
 40
0.0002613080244904
 40
0.0002613080244904
 40
0.0002613080244904
 40
0.0002999804523412
 40
0.0002999804523412
 40
0.0002999804523412
 40
0.0002999804523412
 10
90.28645909646502
 20
223.5347037965603
 42
1.0
 10
90.2823352639097
 20
223.5258602090998
 42
1.0
 10
90.27932739303748
 20
223.5164093288373
 42
1.0
 10
90.27758120640216
 20
223.506809023303
 42
1.0
 10
90.27528828733227
 20
223.4942028544143
 42
1.0
 10
90.27514022104488
 20
223.4810269628331
 42
1.0
 10
90.27714926897359
 20
223.46837244987
 42
1.0
 10
90.27915831690231
 20
223.4557179369069
 42
1.0
 10
90.28337989106956
 20
223.44323577547
 42
1.0
 10
90.28946440108307
 20
223.4319596187751
 42
1.0
 10
90.29554891109657
 20
223.4206834620801
 42
1.0
 10
90.30366417525495
 20
223.410302299803
 42
1.0
 10
90.31313816500486
 20
223.4016758005054
 42
1.0
 10
90.32261215475476
 20
223.3930493012078
 42
1.0
 10
90.33370617443087
 20
223.385939535388
 42
1.0
 10
90.34550152344026
 20
223.380935265845
 42
1.0
 10
90.35729687244967
 20
223.3759309963019
 42
1.0
 10
90.37011888108157
 20
223.3728941991028
 42
1.0
 10
90.38290575322634
 20
223.3720763527441
 42
1.0
 10
90.39569262537078
 20
223.3712585063855
 42
1.0
 10
90.40879703874958
 20
223.3726370536547
 42
1.0
 10
90.42113381119327
 20
223.3760978364531
 42
1.0
 10
90.43347058363693
 20
223.3795586192516
 42
1.0
 10
90.44537997856149
 20
223.3851970902417
 42
1.0
 10
90.45587577379521
 20
223.3925463251894
 42
1.0
 72
     1
 10
90.45587577379521
 20
223.3925463251894
 11
90.88872922136609
 21
223.6956335720615
 72
     2
 10
90.95439207016234
 20
223.6018573054394
 40
0.114479683346748
 50
234.9999999990569
 51
360.0000000011387
 73
     0
 72
     1
 10
91.0688717535091
 20
223.6018573054371
 11
91.06887175347306
 21
222.0230962038385
 72
     2
 10
90.78267254510006
 20
222.0230962038112
 40
0.286199208343561
 50
359.9999999945385
 51
419.9999999948769
 73
     0
 72
     1
 10
90.92577214929399
 20
221.7752404188555
 11
90.67132158698976
 21
221.6283333182434
 72
     4
 94
        3
 73
     1
 74
     0
 95
       26
 96
       22
 40
0.0
 40
0.0
 40
0.0
 40
0.0
 40
0.0000200815855343
 40
0.0000200815855343
 40
0.0000200815855343
 40
0.000117502677362
 40
0.000117502677362
 40
0.000117502677362
 40
0.0002149237691896
 40
0.0002149237691896
 40
0.0002149237691896
 40
0.0003123448610173
 40
0.0003123448610173
 40
0.0003123448610173
 40
0.000409765952845
 40
0.000409765952845
 40
0.000409765952845
 40
0.0005071870446701
 40
0.0005071870446701
 40
0.0005071870446701
 40
0.0006046081364953
 40
0.0006046081364953
 40
0.0006046081364953
 40
0.0006046081364953
 10
90.671321586957
 20
221.6283333183001
 42
1.0
 10
90.66552453254995
 20
221.6249863873779
 42
1.0
 10
90.65984147955415
 20
221.6214337688031
 42
1.0
 10
90.65429339328648
 20
221.6176885685196
 42
1.0
 10
90.62774383504153
 20
221.5997664583958
 42
1.0
 10
90.60392242060291
 20
221.5770133711301
 42
1.0
 10
90.58480181165754
 20
221.5513134997715
 42
1.0
 10
90.56568120271216
 20
221.5256136284129
 42
1.0
 10
90.55073402925737
 20
221.4962581387782
 42
1.0
 10
90.54119807322583
 20
221.4656779717274
 42
1.0
 10
90.53166211719427
 20
221.4350978046766
 42
1.0
 10
90.5272743651447
 20
221.4024495214456
 42
1.0
 10
90.52839816873208
 20
221.3704367405638
 42
1.0
 10
90.52952197231944
 20
221.338423959682
 42
1.0
 10
90.53618832743423
 20
221.3061637291269
 42
1.0
 10
90.54784519031097
 20
221.2763275326172
 42
1.0
 10
90.55950205318739
 20
221.2464913361084
 42
1.0
 10
90.57647093449614
 20
221.2182562545067
 42
1.0
 10
90.59734663379828
 20
221.1939604471958
 42
1.0
 10
90.6182223331004
 20
221.169664639885
 42
1.0
 10
90.64358062795758
 20
221.1486379985018
 42
1.0
 10
90.67132158694726
 20
221.132621748361
 42
1.0
 72
     1
 10
90.67132158694726
 20
221.132621748361
 11
90.92577214930121
 21
220.9857146476899
 72
     2
 10
90.78267254513095
 20
220.7378588627602
 40
0.286199208343561
 50
300.0000000036288
 51
360.0000000009169
 73
     0
 97
        0
 75
     0
 76
     2
 52
0.0
 41
0.125
 77
     0
 78
     3
 53
45.00000209717174
 43
0.8418990000000001
 44
0.8418990000000001
 45
0.5612659459355175
 46
1.683798043244233
 79
     2
 49
0.79375
 49
-1.5875
 53
45.00000209717174
 43
1.96443125
 44
0.8418990000000001
 45
0.5612659459355175
 46
1.683798043244233
 79
     2
 49
0.79375
 49
-1.5875
 53
134.9999719140475
 43
0.0
 44
0.0
 45
-0.5612662826950551
 46
-0.5612657324384541
 79
     0
 98
        1
 10
0.0
 20
0.0
  0
DIMENSION
  5
29C
330
1F
100
AcDbEntity
  8
0
  6
Continuous
 62
     7
370
    18
100
AcDbDimension
  2
_D_2
 10
188.5807107239
 20
216.7503509398
 30
0.0
 11
188.5807107239
 21
225.0511099138
 31
0.0
 70
   160
  1
<>
 71
     2
 42
-1.0
  3
SLDDIMSTYLE2
100
AcDbAlignedDimension
 13
176.0746695896
 23
233.3518688878
 33
0.0
 14
175.3051607295
 24
216.7503509398
 34
0.0
 50
90.0
100
AcDbRotatedDimension
  0
MTEXT
  5
2A7
330
1F
100
AcDbEntity
  8
0
  6
Continuous
 62
     7
370
     0
100
AcDbMText
 10
134.4031344285
 20
250.795614787
 30
0.0
 40
5.0
 41
0.0
 71
     2
 72
     1
  1
A-A
  7
SLDTEXTSTYLE0
 73
     1
 44
1.0
  0
LINE
  5
2A8
330
1F
100
AcDbEntity
  8
0
  6
Continuous
 62
     7
370
    25
100
AcDbLine
 10
276.2293772401
 20
159.6639475492
 30
0.0
 11
276.897796335
 21
158.7673050101
 31
0.0
  0
LINE
  5
2A9
330
1F
100
AcDbEntity
  8
0
  6
Continuous
 62
     7
370
    25
100
AcDbLine
 10
353.6585614236
 20
158.7673050101
 30
0.0
 11
354.3269805185
 21
159.6639475492
 31
0.0
  0
LINE
  5
2AA
330
1F
100
AcDbEntity
  8
0
  6
Continuous
 62
     7
370
    25
100
AcDbLine
 10
352.7342158414
 20
174.8228824623
 30
0.0
 11
352.7943698083
 21
174.2334013376
 31
0.0
  0
LWPOLYLINE
  5
2AB
330
1F
100
AcDbEntity
  8
0
  6
Continuous
 62
     7
370
    25
100
AcDbPolyline
 90
        3
 70
   128
 43
0.0
 10
282.8265065494
 20
185.4985967321
 10
283.8426954545
 20
186.3920683543
 10
284.6683298212
 20
187.0436978144
  0
LWPOLYLINE
  5
2AC
330
1F
100
AcDbEntity
  8
0
  6
Continuous
 62
     7
370
    25
100
AcDbPolyline
 90
        3
 70
   128
 43
0.0
 10
345.707143303
 20
187.1898453291
 10
346.5998997672
 20
186.4857842175
 10
347.5534841703
 20
185.6741867872
  0
LWPOLYLINE
  5
2AD
330
1F
100
AcDbEntity
  8
0
  6
Continuous
 62
     7
370
    25
100
AcDbPolyline
 90
      165
 70
   128
 43
0.0
 10
315.2781788793
 20
208.7947800022
 10
313.6021699763
 20
208.7720750562
 10
311.9286208476
 20
208.7039935406
 10
310.2599876571
 20
208.5906353745
 10
308.5987193543
 20
208.4321669267
 10
306.9472540793
 20
208.2288207714
 10
305.3080155854
 20
207.9808953472
 10
303.683409681
 20
207.6887545188
 10
302.0758206992
 20
207.3528270432
 10
300.4876079987
 20
206.9736059403
 10
298.9211025005
 20
206.5516477693
 10
297.3786032675
 20
206.087571812
 10
295.8623741301
 20
205.5820591639
 10
294.3746403636
 20
205.0358517345
 10
292.9175854223
 20
204.4497511586
 10
291.4933477355
 20
203.8246176195
 10
290.1040175683
 20
203.1613685869
 10
288.7516339542
 20
202.4609774703
 10
287.4381817028
 20
201.7244721902
 10
286.1655884864
 20
200.9529336697
 10
284.9357220109
 20
200.1474942478
 10
283.7503872751
 20
199.3093360181
 10
282.6113239211
 20
198.4396890934
 10
281.5202036814
 20
197.5398298003
 10
280.4786279255
 20
196.6110788066
 10
279.4881253094
 20
195.6547991824
 10
278.5501495324
 20
194.6723943998
 10
277.6660772031
 20
193.6653062734
 10
276.8372058197
 20
192.6350128439
 10
276.0647518652
 20
191.583026209
 10
275.3498490223
 20
190.5108903041
 10
274.6935465096
 20
189.4201786365
 10
274.0968075413
 20
188.3124919759
 10
273.5605079144
 20
187.1894560054
 10
273.0854347224
 20
186.0527189351
 10
272.6722852008
 20
184.9039490833
 10
272.3216657035
 20
183.7448324282
 10
272.0340908128
 20
182.5770701335
 10
271.8099825847
 20
181.4023760511
 10
271.6496699288
 20
180.2224742069
 10
271.5533881262
 20
179.0390962692
 10
271.5212784835
 20
177.8539790086
 10
271.5533881262
 20
176.668861748
 10
271.6496699288
 20
175.4854838104
 10
271.8099825847
 20
174.3055819661
 10
272.0340908128
 20
173.1308878838
 10
272.3216657035
 20
171.963125589
 10
272.6722852008
 20
170.804008934
 10
273.0854347224
 20
169.6552390822
 10
273.5605079144
 20
168.5185020118
 10
274.0968075413
 20
167.3954660413
 10
274.6935465096
 20
166.2877793808
 10
275.3498490223
 20
165.1970677132
 10
276.0647518652
 20
164.1249318083
 10
276.8372058197
 20
163.0729451733
 10
277.6660772031
 20
162.0426517438
 10
278.5501495324
 20
161.0355636175
 10
279.4881253094
 20
160.0531588349
 10
280.4786279255
 20
159.0968792107
 10
281.5202036814
 20
158.1681282169
 10
282.6113239211
 20
157.2682689239
 10
283.7503872751
 20
156.3986219991
 10
284.9357220109
 20
155.5604637694
 10
286.1655884864
 20
154.7550243476
 10
287.4381817028
 20
153.9834858271
 10
288.7516339542
 20
153.2469805469
 10
290.1040175683
 20
152.5465894303
 10
291.4933477355
 20
151.8833403978
 10
292.9175854223
 20
151.2582068587
 10
294.3746403636
 20
150.6721062828
 10
295.8623741301
 20
150.1258988534
 10
297.3786032675
 20
149.6203862053
 10
298.9211025005
 20
149.156310248
 10
300.4876079987
 20
148.734352077
 10
302.0758206992
 20
148.3551309741
 10
303.683409681
 20
148.0192034984
 10
305.3080155854
 20
147.7270626701
 10
306.9472540793
 20
147.4791372459
 10
308.5987193543
 20
147.2757910906
 10
310.2599876571
 20
147.1173226428
 10
311.9286208476
 20
147.0039644767
 10
313.6021699763
 20
146.9358829611
 10
315.2781788793
 20
146.913178015
 10
316.9541877823
 20
146.9358829611
 10
318.6277369111
 20
147.0039644767
 10
320.2963701015
 20
147.1173226428
 10
321.9576384044
 20
147.2757910906
 10
323.6091036793
 20
147.4791372459
 10
325.2483421732
 20
147.7270626701
 10
326.8729480777
 20
148.0192034984
 10
328.4805370594
 20
148.3551309741
 10
330.0687497599
 20
148.734352077
 10
331.6352552581
 20
149.156310248
 10
333.1777544911
 20
149.6203862053
 10
334.6939836285
 20
150.1258988534
 10
336.1817173951
 20
150.6721062828
 10
337.6387723363
 20
151.2582068587
 10
339.0630100231
 20
151.8833403978
 10
340.4523401904
 20
152.5465894303
 10
341.8047238044
 20
153.2469805469
 10
343.1181760558
 20
153.9834858271
 10
344.3907692722
 20
154.7550243476
 10
345.6206357477
 20
155.5604637694
 10
346.8059704835
 20
156.3986219991
 10
347.9450338376
 20
157.2682689239
 10
349.0361540772
 20
158.1681282169
 10
350.0777298331
 20
159.0968792107
 10
351.0682324492
 20
160.0531588349
 10
352.0062082263
 20
161.0355636175
 10
352.8902805555
 20
162.0426517438
 10
353.7191519389
 20
163.0729451733
 10
354.4916058934
 20
164.1249318083
 10
355.2065087363
 20
165.1970677132
 10
355.8628112491
 20
166.2877793808
 10
356.4595502173
 20
167.3954660413
 10
356.9958498442
 20
168.5185020118
 10
357.4709230362
 20
169.6552390822
 10
357.8840725578
 20
170.804008934
 10
358.2346920552
 20
171.963125589
 10
358.5222669458
 20
173.1308878838
 10
358.7463751739
 20
174.3055819661
 10
358.9066878298
 20
175.4854838104
 10
359.0029696325
 20
176.668861748
 10
359.0350792751
 20
177.8539790086
 10
359.0029696325
 20
179.0390962692
 10
358.9066878298
 20
180.2224742069
 10
358.7463751739
 20
181.4023760511
 10
358.5222669458
 20
182.5770701335
 10
358.2346920552
 20
183.7448324282
 10
357.8840725578
 20
184.9039490833
 10
357.4709230362
 20
186.0527189351
 10
356.9958498442
 20
187.1894560054
 10
356.4595502173
 20
188.3124919759
 10
355.8628112491
 20
189.4201786365
 10
355.2065087363
 20
190.5108903041
 10
354.4916058934
 20
191.583026209
 10
353.7191519389
 20
192.6350128439
 10
352.8902805555
 20
193.6653062734
 10
352.0062082263
 20
194.6723943998
 10
351.0682324492
 20
195.6547991824
 10
350.0777298331
 20
196.6110788066
 10
349.0361540772
 20
197.5398298003
 10
347.9450338376
 20
198.4396890934
 10
346.8059704835
 20
199.3093360181
 10
345.6206357477
 20
200.1474942478
 10
344.3907692722
 20
200.9529336697
 10
343.1181760558
 20
201.7244721902
 10
341.8047238044
 20
202.4609774703
 10
340.4523401904
 20
203.1613685869
 10
339.0630100231
 20
203.8246176195
 10
337.6387723363
 20
204.4497511586
 10
336.1817173951
 20
205.0358517345
 10
334.6939836285
 20
205.5820591639
 10
333.1777544911
 20
206.087571812
 10
331.6352552581
 20
206.5516477693
 10
330.0687497599
 20
206.9736059403
 10
328.4805370594
 20
207.3528270432
 10
326.8729480777
 20
207.6887545188
 10
325.2483421732
 20
207.9808953472
 10
323.6091036793
 20
208.2288207714
 10
321.9576384044
 20
208.4321669267
 10
320.2963701015
 20
208.5906353745
 10
318.6277369111
 20
208.7039935406
 10
316.9541877823
 20
208.7720750562
 10
315.2781788793
 20
208.7947800022
  0
LWPOLYLINE
  5
2AE
330
1F
100
AcDbEntity
  8
0
  6
Continuous
 62
     7
370
    25
100
AcDbPolyline
 90
       85
 70
   128
 43
0.0
 10
359.0051809576
 20
176.7103834726
 10
359.0350792751
 20
175.5667879378
 10
359.0029696324
 20
174.3816706771
 10
358.9066878297
 20
173.1982927395
 10
358.7463751739
 20
172.0183908952
 10
358.5222669458
 20
170.8436968129
 10
358.2346920551
 20
169.6759345181
 10
357.8840725577
 20
168.5168178631
 10
357.4709230361
 20
167.3680480113
 10
356.9958498441
 20
166.231310941
 10
356.4595502172
 20
165.1082749705
 10
355.862811249
 20
164.0005883099
 10
355.2065087363
 20
162.9098766423
 10
354.4916058934
 20
161.8377407374
 10
353.7191519389
 20
160.7857541025
 10
352.8902805555
 20
159.755460673
 10
352.0062082262
 20
158.7483725466
 10
351.0682324492
 20
157.765967764
 10
350.0777298331
 20
156.8096881398
 10
349.0361540772
 20
155.8809371461
 10
347.9450338375
 20
154.981077853
 10
346.8059704835
 20
154.1114309283
 10
345.6206357477
 20
153.2732726986
 10
344.3907692722
 20
152.4678332768
 10
343.1181760558
 20
151.6962947562
 10
341.8047238044
 20
150.9597894761
 10
340.4523401903
 20
150.2593983595
 10
339.0630100231
 20
149.5961493269
 10
337.6387723363
 20
148.9710157879
 10
336.181717395
 20
148.3849152119
 10
334.6939836285
 20
147.8387077825
 10
333.177754491
 20
147.3331951345
 10
331.6352552581
 20
146.8691191772
 10
330.0687497599
 20
146.4471610062
 10
328.4805370594
 20
146.0679399032
 10
326.8729480777
 20
145.7320124276
 10
325.2483421732
 20
145.4398715992
 10
323.6091036793
 20
145.191946175
 10
321.9576384044
 20
144.9886000197
 10
320.2963701015
 20
144.8301315719
 10
318.627736911
 20
144.7167734058
 10
316.9541877823
 20
144.6486918903
 10
315.2781788793
 20
144.6259869442
 10
313.6021699763
 20
144.6486918903
 10
311.9286208476
 20
144.7167734058
 10
310.2599876571
 20
144.8301315719
 10
308.5987193543
 20
144.9886000197
 10
306.9472540794
 20
145.191946175
 10
305.3080155854
 20
145.4398715992
 10
303.683409681
 20
145.7320124276
 10
302.0758206992
 20
146.0679399032
 10
300.4876079987
 20
146.4471610062
 10
298.9211025005
 20
146.8691191772
 10
297.3786032676
 20
147.3331951345
 10
295.8623741301
 20
147.8387077825
 10
294.3746403636
 20
148.3849152119
 10
292.9175854224
 20
148.9710157879
 10
291.4933477355
 20
149.5961493269
 10
290.1040175683
 20
150.2593983595
 10
288.7516339543
 20
150.9597894761
 10
287.4381817029
 20
151.6962947562
 10
286.1655884864
 20
152.4678332768
 10
284.935722011
 20
153.2732726986
 10
283.7503872751
 20
154.1114309283
 10
282.6113239211
 20
154.981077853
 10
281.5202036814
 20
155.8809371461
 10
280.4786279255
 20
156.8096881398
 10
279.4881253095
 20
157.7659677641
 10
278.5501495324
 20
158.7483725466
 10
277.6660772031
 20
159.755460673
 10
276.8372058197
 20
160.7857541025
 10
276.0647518652
 20
161.8377407374
 10
275.3498490224
 20
162.9098766423
 10
274.6935465096
 20
164.0005883099
 10
274.0968075414
 20
165.1082749705
 10
273.5605079145
 20
166.231310941
 10
273.0854347225
 20
167.3680480113
 10
272.6722852009
 20
168.5168178631
 10
272.3216657035
 20
169.6759345181
 10
272.0340908129
 20
170.8436968129
 10
271.8099825847
 20
172.0183908952
 10
271.6496699289
 20
173.1982927395
 10
271.5533881262
 20
174.3816706771
 10
271.5212784835
 20
175.5667879378
 10
271.5511768011
 20
176.7103834726
  0
LWPOLYLINE
  5
2AF
330
1F
100
AcDbEntity
  8
0
  6
Continuous
 62
     7
370
    25
100
AcDbPolyline
 90
       79
 70
   128
 43
0.0
 10
354.639029093
 20
178.6553126054
 10
354.6071073715
 20
177.5346179101
 10
354.5113939842
 20
176.4157409857
 10
354.3520441785
 20
175.3004966546
 10
354.1293164204
 20
174.1906938473
 10
353.8435719751
 20
173.088132668
 10
353.4952743213
 20
171.9946014749
 10
353.0849883988
 20
170.9118739795
 10
352.613379693
 20
169.84170637
 10
352.081213155
 20
168.785834462
 10
351.4893519609
 20
167.7459708836
 10
350.8387561115
 20
166.7238022974
 10
350.1304808759
 20
165.7209866645
 10
349.3656750789
 20
164.7391505557
 10
348.5455792385
 20
163.7798865125
 10
347.6715235531
 20
162.8447504649
 10
346.7449257441
 20
161.9352592069
 10
345.7672887566
 20
161.0528879366
 10
344.7401983214
 20
160.1990678636
 10
343.665320383
 20
159.3751838869
 10
342.5443983972
 20
158.5825723496
 10
341.3792505036
 20
157.8225188704
 10
340.1717665765
 20
157.0962562588
 10
338.923905159
 20
156.4049625154
 10
337.6376902871
 20
155.7497589212
 10
336.3152082059
 20
155.1317082189
 10
334.9586039862
 20
154.5518128889
 10
333.570078045
 20
154.0110135236
 10
332.1518825764
 20
153.5101873016
 10
330.7063178988
 20
153.0501465647
 10
329.2357287232
 20
152.6316375008
 10
327.7425003508
 20
152.255338933
 10
326.2290548034
 20
151.9218612191
 10
324.6978468951
 20
151.6317452611
 10
323.1513602509
 20
151.3854616282
 10
321.5921032777
 20
151.1834097932
 10
320.0226050961
 20
151.0259174851
 10
318.4454114378
 20
150.9132401569
 10
316.8630805167
 20
150.8455605717
 10
315.2781788793
 20
150.822988506
 10
313.6932772419
 20
150.8455605717
 10
312.1109463208
 20
150.9132401569
 10
310.5337526625
 20
151.0259174851
 10
308.9642544809
 20
151.1834097932
 10
307.4049975077
 20
151.3854616282
 10
305.8585108635
 20
151.6317452611
 10
304.3273029553
 20
151.9218612191
 10
302.8138574078
 20
152.255338933
 10
301.3206290354
 20
152.6316375008
 10
299.8500398598
 20
153.0501465647
 10
298.4044751822
 20
153.5101873016
 10
296.9862797137
 20
154.0110135236
 10
295.5977537725
 20
154.5518128889
 10
294.2411495527
 20
155.1317082189
 10
292.9186674715
 20
155.7497589212
 10
291.6324525996
 20
156.4049625154
 10
290.3845911821
 20
157.0962562588
 10
289.177107255
 20
157.8225188704
 10
288.0119593614
 20
158.5825723496
 10
286.8910373756
 20
159.3751838869
 10
285.8161594372
 20
160.1990678636
 10
284.789069002
 20
161.0528879366
 10
283.8114320145
 20
161.9352592069
 10
282.8848342056
 20
162.8447504649
 10
282.0107785201
 20
163.7798865125
 10
281.1906826797
 20
164.7391505557
 10
280.4258768827
 20
165.7209866645
 10
279.7176016471
 20
166.7238022974
 10
279.0670057978
 20
167.7459708836
 10
278.4751446036
 20
168.785834462
 10
277.9429780656
 20
169.84170637
 10
277.4713693598
 20
170.9118739795
 10
277.0610834374
 20
171.9946014749
 10
276.7127857835
 20
173.088132668
 10
276.4270413382
 20
174.1906938473
 10
276.2043135801
 20
175.3004966546
 10
276.0449637744
 20
176.4157409857
 10
275.9492503871
 20
177.5346179101
 10
275.9173286656
 20
178.6553126054
  0
LWPOLYLINE
  5
2B0
330
1F
100
AcDbEntity
  8
0
  6
Continuous
 62
     7
370
    25
100
AcDbPolyline
 90
       40
 70
   128
 43
0.0
 10
315.2781788793
 20
205.9118350339
 10
316.8630805167
 20
205.8892629682
 10
318.4454114378
 20
205.821583383
 10
320.0226050961
 20
205.7089060548
 10
321.5921032777
 20
205.5514137467
 10
323.1513602509
 20
205.3493619117
 10
324.6978468951
 20
205.1030782788
 10
326.2290548034
 20
204.8129623208
 10
327.7425003508
 20
204.4794846069
 10
329.2357287232
 20
204.1031860392
 10
330.7063178988
 20
203.6846769752
 10
332.1518825764
 20
203.2246362384
 10
333.570078045
 20
202.7238100163
 10
334.9586039862
 20
202.183010651
 10
336.3152082059
 20
201.603115321
 10
337.6376902871
 20
200.9850646187
 10
338.923905159
 20
200.3298610245
 10
340.1717665765
 20
199.6385672811
 10
341.3792505036
 20
198.9123046695
 10
342.5443983972
 20
198.1522511903
 10
343.665320383
 20
197.359639653
 10
344.7401983214
 20
196.5357556764
 10
345.7672887566
 20
195.6819356033
 10
346.7449257441
 20
194.799564333
 10
347.6715235531
 20
193.890073075
 10
348.5455792385
 20
192.9549370274
 10
349.3656750789
 20
191.9956729843
 10
350.1304808759
 20
191.0138368754
 10
350.8387561115
 20
190.0110212425
 10
351.4893519609
 20
188.9888526563
 10
352.081213155
 20
187.948989078
 10
352.613379693
 20
186.8931171699
 10
353.0849883988
 20
185.8229495604
 10
353.4952743212
 20
184.7402220651
 10
353.8435719751
 20
183.6466908719
 10
354.1293164204
 20
182.5441296926
 10
354.3520441785
 20
181.4343268853
 10
354.5113939842
 20
180.3190825543
 10
354.6071073715
 20
179.2002056299
 10
354.6371593189
 20
178.3507933529
  0
LWPOLYLINE
  5
2B1
330
1F
100
AcDbEntity
  8
0
  6
Continuous
 62
     7
370
    25
100
AcDbPolyline
 90
       40
 70
   128
 43
0.0
 10
275.9191984397
 20
178.3507933529
 10
275.9492503871
 20
179.2002056299
 10
276.0449637744
 20
180.3190825543
 10
276.2043135801
 20
181.4343268853
 10
276.4270413382
 20
182.5441296926
 10
276.7127857835
 20
183.6466908719
 10
277.0610834374
 20
184.7402220651
 10
277.4713693598
 20
185.8229495604
 10
277.9429780656
 20
186.8931171699
 10
278.4751446036
 20
187.948989078
 10
279.0670057978
 20
188.9888526563
 10
279.7176016471
 20
190.0110212425
 10
280.4258768827
 20
191.0138368754
 10
281.1906826797
 20
191.9956729843
 10
282.0107785201
 20
192.9549370274
 10
282.8848342056
 20
193.890073075
 10
283.8114320145
 20
194.799564333
 10
284.789069002
 20
195.6819356033
 10
285.8161594372
 20
196.5357556764
 10
286.8910373756
 20
197.359639653
 10
288.0119593614
 20
198.1522511903
 10
289.177107255
 20
198.9123046695
 10
290.3845911821
 20
199.6385672811
 10
291.6324525996
 20
200.3298610245
 10
292.9186674715
 20
200.9850646187
 10
294.2411495527
 20
201.603115321
 10
295.5977537725
 20
202.183010651
 10
296.9862797137
 20
202.7238100163
 10
298.4044751822
 20
203.2246362384
 10
299.8500398598
 20
203.6846769752
 10
301.3206290354
 20
204.1031860392
 10
302.8138574078
 20
204.4794846069
 10
304.3273029553
 20
204.8129623208
 10
305.8585108635
 20
205.1030782788
 10
307.4049975077
 20
205.3493619117
 10
308.9642544809
 20
205.5514137467
 10
310.5337526625
 20
205.7089060548
 10
312.1109463208
 20
205.821583383
 10
313.6932772419
 20
205.8892629682
 10
315.2781788793
 20
205.9118350339
  0
LINE
  5
2B2
330
1F
100
AcDbEntity
  8
0
  6
Continuous
 62
     7
370
    25
100
AcDbLine
 10
287.6525717742
 20
197.802409602
 30
0.0
 11
286.7875839345
 21
197.2831893483
 31
0.0
  0
LINE
  5
2B3
330
1F
100
AcDbEntity
  8
0
  6
Continuous
 62
     7
370
    25
100
AcDbLine
 10
343.7687738241
 20
197.2831893483
 30
0.0
 11
342.9037859844
 21
197.802409602
 31
0.0
  0
LWPOLYLINE
  5
2B4
330
1F
100
AcDbEntity
  8
0
  6
Continuous
 62
     7
370
    25
100
AcDbPolyline
 90
       41
 70
   128
 43
0.0
 10
315.2781788793
 20
205.8168775535
 10
316.8620013796
 20
205.7943208568
 10
318.443254914
 20
205.7266873536
 10
320.0193746835
 20
205.6140867458
 10
321.5878042161
 20
205.456701672
 10
323.1459995133
 20
205.2547874113
 10
324.6914331767
 20
205.0086714694
 10
326.2215985072
 20
204.7187530472
 10
327.734013571
 20
204.3855023936
 10
329.2262252254
 20
204.0094600422
 10
330.6958130976
 20
203.5912359352
 10
332.1403935108
 20
203.1315084335
 10
333.5576233501
 20
202.6310232169
 10
334.9452038637
 20
202.0905920742
 10
336.3008843908
 20
201.5110915867
 10
337.6224660127
 20
200.8934617064
 10
338.9078051192
 20
200.2387042311
 10
340.1548168855
 20
199.5478811798
 10
341.3614786539
 20
198.8221130701
 10
342.5258332148
 20
198.0625771005
 10
343.6459919807
 20
197.2705052412
 10
344.72013805
 20
196.4471822355
 10
345.7465291538
 20
195.5939435164
 10
346.7235004821
 20
194.7121730402
 10
347.6494673838
 20
193.8033010419
 10
348.5229279371
 20
192.8688017152
 10
349.3424653859
 20
191.9101908213
 10
350.1067504374
 20
190.9290232307
 10
350.8145434185
 20
189.9268904008
 10
351.4646962864
 20
188.9054177947
 10
352.0561544907
 20
187.8662622447
 10
352.587958684
 20
186.8111092649
 10
353.0592462781
 20
185.7416703173
 10
353.4692528427
 20
184.6596800358
 10
353.8173133456
 20
183.5668934126
 10
354.1028632315
 20
182.4650829515
 10
354.3254393375
 20
181.3560357932
 10
354.4846806441
 20
180.2415508162
 10
354.5803288616
 20
179.1234357193
 10
354.612228848
 20
178.0035040891
 10
354.606297057
 20
177.5204887977
  0
LWPOLYLINE
  5
2B5
330
1F
100
AcDbEntity
  8
0
  6
Continuous
 62
     7
370
    25
100
AcDbPolyline
 90
       41
 70
   128
 43
0.0
 10
275.9500607016
 20
177.5204887977
 10
275.9441289106
 20
178.0035040891
 10
275.976028897
 20
179.1234357193
 10
276.0716771145
 20
180.2415508162
 10
276.2309184212
 20
181.3560357932
 10
276.4534945271
 20
182.4650829515
 10
276.739044413
 20
183.5668934126
 10
277.087104916
 20
184.6596800358
 10
277.4971114806
 20
185.7416703173
 10
277.9683990746
 20
186.8111092649
 10
278.500203268
 20
187.8662622447
 10
279.0916614723
 20
188.9054177947
 10
279.7418143401
 20
189.9268904008
 10
280.4496073212
 20
190.9290232307
 10
281.2138923727
 20
191.9101908213
 10
282.0334298215
 20
192.8688017152
 10
282.9068903748
 20
193.8033010419
 10
283.8328572765
 20
194.7121730402
 10
284.8098286048
 20
195.5939435164
 10
285.8362197086
 20
196.4471822355
 10
286.9103657779
 20
197.2705052412
 10
288.0305245438
 20
198.0625771005
 10
289.1948791047
 20
198.8221130701
 10
290.4015408732
 20
199.5478811798
 10
291.6485526395
 20
200.2387042311
 10
292.9338917459
 20
200.8934617064
 10
294.2554733678
 20
201.5110915867
 10
295.611153895
 20
202.0905920742
 10
296.9987344085
 20
202.6310232169
 10
298.4159642479
 20
203.1315084335
 10
299.860544661
 20
203.5912359352
 10
301.3301325332
 20
204.0094600422
 10
302.8223441876
 20
204.3855023936
 10
304.3347592515
 20
204.7187530472
 10
305.8649245819
 20
205.0086714694
 10
307.4103582453
 20
205.2547874113
 10
308.9685535425
 20
205.456701672
 10
310.5369830751
 20
205.6140867458
 10
312.1131028446
 20
205.7266873536
 10
313.694356379
 20
205.7943208568
 10
315.2781788793
 20
205.8168775535
  0
LWPOLYLINE
  5
2B6
330
1F
100
AcDbEntity
  8
0
  6
Continuous
 62
     7
370
    25
100
AcDbPolyline
 90
        3
 70
   128
 43
0.0
 10
333.5849965084
 20
202.6208548324
 10
334.7544561108
 20
202.2292236396
 10
335.3993098535
 20
202.0003869414
  0
ARC
  5
2B7
330
1F
100
AcDbEntity
  8
0
  6
Continuous
 62
     7
370
    25
100
AcDbCircle
 10
335.7555213748
 20
174.2747580868
 30
0.0
 40
23.62995724261526
100
AcDbArc
 50
321.8066438799
 51
9.9625898021
  0
ARC
  5
2B8
330
1F
100
AcDbEntity
  8
0
  6
Continuous
 62
     7
370
    25
100
AcDbCircle
 10
294.755131158
 20
174.2632646812
 30
0.0
 40
23.58693746435729
100
AcDbArc
 50
169.9907044644
 51
218.2400618536
  0
LWPOLYLINE
  5
2B9
330
1F
100
AcDbEntity
  8
0
  6
Continuous
 62
     7
370
    25
100
AcDbPolyline
 90
        3
 70
   128
 43
0.0
 10
295.1570479051
 20
202.0003869414
 10
295.8019016478
 20
202.2292236396
 10
296.9713612502
 20
202.6208548324
  0
LINE
  5
2BA
330
1F
100
AcDbEntity
  8
0
  6
Continuous
 62
     7
370
    25
100
AcDbLine
 10
281.7387412534
 20
192.5340514064
 30
0.0
 11
281.3664166639
 21
192.2087167331
 31
0.0
  0
LINE
  5
2BB
330
1F
100
AcDbEntity
  8
0
  6
Continuous
 62
     7
370
    25
100
AcDbLine
 10
349.1899410947
 20
192.2087167331
 30
0.0
 11
348.8176165052
 21
192.5340514064
 31
0.0
  0
LINE
  5
2BC
330
1F
100
AcDbEntity
  8
0
  6
Continuous
 62
     7
370
    25
100
AcDbLine
 10
349.1980616679
 20
192.0855678326
 30
0.0
 11
349.546043614
 21
191.7723918599
 31
0.0
  0
LINE
  5
2BD
330
1F
100
AcDbEntity
  8
0
  6
Continuous
 62
     7
370
    25
100
AcDbLine
 10
281.0103141446
 20
191.7723918599
 30
0.0
 11
281.3582960907
 21
192.0855678326
 31
0.0
  0
LINE
  5
2BE
330
1F
100
AcDbEntity
  8
0
  6
Continuous
 62
     7
370
    25
100
AcDbLine
 10
279.386664821
 20
189.3825793051
 30
0.0
 11
279.1631616582
 21
189.1470775294
 31
0.0
  0
LINE
  5
2BF
330
1F
100
AcDbEntity
  8
0
  6
Continuous
 62
     7
370
    25
100
AcDbLine
 10
351.3931961004
 20
189.1470775294
 30
0.0
 11
351.1696929376
 21
189.3825793051
 31
0.0
  0
LWPOLYLINE
  5
2C0
330
1F
100
AcDbEntity
  8
0
  6
Continuous
 62
     7
370
    25
100
AcDbPolyline
 90
       50
 70
   128
 43
0.0
 10
315.2781788793
 20
202.6416769544
 10
313.7229563792
 20
202.6189445348
 10
312.1703909507
 20
202.5507861138
 10
310.6231351257
 20
202.437318139
 10
309.0838323649
 20
202.2787344685
 10
307.5551125412
 20
202.0753060398
 10
306.0395874468
 20
201.8273804071
 10
304.5398463309
 20
201.535381147
 10
303.058451476
 20
201.1998071355
 10
301.5979338204
 20
200.821231695
 10
300.160788634
 20
200.4003016155
 10
298.7494712553
 20
199.9377360488
 10
297.3663928962
 20
199.4343252805
 10
296.0139165231
 20
198.8909293794
 10
294.694352819
 20
198.3084767284
 10
293.4099562365
 20
197.6879624379
 10
292.1629211455
 20
197.0304466463
 10
290.9553780846
 20
196.3370527083
 10
289.7893901209
 20
195.6089652757
 10
288.6669493252
 20
194.8474282737
 10
287.5899733688
 20
194.0537427756
 10
286.560302247
 20
193.2292647797
 10
285.5796951358
 20
192.3754028928
 10
284.6498273858
 20
191.4936159235
 10
283.7722876606
 20
190.5854103903
 10
282.948575222
 20
189.652337947
 10
282.180097369
 20
188.6959927321
 10
281.468167033
 20
187.7180086455
 10
280.8140005352
 20
186.7200565566
 10
280.2187155079
 20
185.7038414497
 10
279.6833289856
 20
184.6710995114
 10
279.2087556673
 20
183.6235951639
 10
278.7958063535
 20
182.5631180508
 10
278.4451865612
 20
181.4914799795
 10
278.1574953184
 20
180.4105118256
 10
277.9332241408
 20
179.3220604052
 10
277.772756192
 20
178.2279853191
 10
277.6763656286
 20
177.1301557764
 10
277.6442171324
 20
176.0304474003
 10
277.6763656286
 20
174.9307390242
 10
277.772756192
 20
173.8329094815
 10
277.9332241408
 20
172.7388343954
 10
278.1574953184
 20
171.650382975
 10
278.4451865612
 20
170.5694148211
 10
278.7958063535
 20
169.4977767498
 10
279.2087556673
 20
168.4372996367
 10
279.6833289856
 20
167.3897952892
 10
280.2187155079
 20
166.3570533509
 10
280.8140005352
 20
165.340838244
 10
281.23974479
 20
164.6792342159
  0
LWPOLYLINE
  5
2C1
330
1F
100
AcDbEntity
  8
0
  6
Continuous
 62
     7
370
    25
100
AcDbPolyline
 90
       50
 70
   128
 43
0.0
 10
349.3166129686
 20
164.6792342159
 10
349.7423572235
 20
165.340838244
 10
350.3376422508
 20
166.3570533509
 10
350.873028773
 20
167.3897952892
 10
351.3476020913
 20
168.4372996367
 10
351.7605514051
 20
169.4977767498
 10
352.1111711974
 20
170.5694148211
 10
352.3988624402
 20
171.650382975
 10
352.6231336178
 20
172.7388343954
 10
352.7836015667
 20
173.8329094815
 10
352.87999213
 20
174.9307390243
 10
352.9121406262
 20
176.0304474003
 10
352.87999213
 20
177.1301557764
 10
352.7836015667
 20
178.2279853191
 10
352.6231336178
 20
179.3220604052
 10
352.3988624402
 20
180.4105118256
 10
352.1111711974
 20
181.4914799795
 10
351.7605514051
 20
182.5631180508
 10
351.3476020913
 20
183.6235951639
 10
350.873028773
 20
184.6710995114
 10
350.3376422508
 20
185.7038414497
 10
349.7423572235
 20
186.7200565566
 10
349.0881907256
 20
187.7180086455
 10
348.3762603896
 20
188.6959927321
 10
347.6077825366
 20
189.652337947
 10
346.784070098
 20
190.5854103903
 10
345.9065303728
 20
191.4936159236
 10
344.9766626228
 20
192.3754028928
 10
343.9960555116
 20
193.2292647797
 10
342.9663843898
 20
194.0537427756
 10
341.8894084334
 20
194.8474282737
 10
340.7669676377
 20
195.6089652757
 10
339.600979674
 20
196.3370527083
 10
338.3934366131
 20
197.0304466463
 10
337.1464015221
 20
197.6879624379
 10
335.8620049396
 20
198.3084767284
 10
334.5424412355
 20
198.8909293794
 10
333.1899648624
 20
199.4343252805
 10
331.8068865034
 20
199.9377360488
 10
330.3955691246
 20
200.4003016155
 10
328.9584239382
 20
200.821231695
 10
327.4979062826
 20
201.1998071355
 10
326.0165114277
 20
201.535381147
 10
324.5167703118
 20
201.8273804071
 10
323.0012452174
 20
202.0753060398
 10
321.4725253937
 20
202.2787344685
 10
319.9332226329
 20
202.437318139
 10
318.3859668079
 20
202.5507861138
 10
316.8334013794
 20
202.6189445348
 10
315.2781788793
 20
202.6416769544
  0
LINE
  5
2C2
330
1F
100
AcDbEntity
  8
0
  6
Continuous
 62
     7
370
    25
100
AcDbLine
 10
351.3982386189
 20
189.0150610033
 30
0.0
 11
351.5981152623
 21
188.8065503835
 31
0.0
  0
LWPOLYLINE
  5
2C3
330
1F
100
AcDbEntity
  8
0
  6
Continuous
 62
     7
370
    25
100
AcDbPolyline
 90
       81
 70
   128
 43
0.0
 10
358.9595108615
 20
169.7330712808
 10
358.9066878296
 20
169.1822075769
 10
358.7463751738
 20
168.0023057326
 10
358.5222669457
 20
166.8276116503
 10
358.234692055
 20
165.6598493555
 10
357.8840725577
 20
164.5007327005
 10
357.470923036
 20
163.3519628487
 10
356.9958498441
 20
162.2152257783
 10
356.4595502171
 20
161.0921898078
 10
355.8628112489
 20
159.9845031473
 10
355.2065087362
 20
158.8937914797
 10
354.4916058933
 20
157.8216555748
 10
353.7191519388
 20
156.7696689399
 10
352.8902805554
 20
155.7393755104
 10
352.0062082261
 20
154.732287384
 10
351.0682324491
 20
153.7498826014
 10
350.077729833
 20
152.7936029772
 10
349.0361540771
 20
151.8648519835
 10
347.9450338375
 20
150.9649926904
 10
346.8059704834
 20
150.0953457657
 10
345.6206357476
 20
149.257187536
 10
344.3907692721
 20
148.4517481142
 10
343.1181760557
 20
147.6802095936
 10
341.8047238043
 20
146.9437043135
 10
340.4523401903
 20
146.2433131969
 10
339.063010023
 20
145.5800641643
 10
337.6387723362
 20
144.9549306253
 10
336.181717395
 20
144.3688300493
 10
334.6939836284
 20
143.82262262
 10
333.177754491
 20
143.3171099719
 10
331.6352552581
 20
142.8530340146
 10
330.0687497599
 20
142.4310758436
 10
328.4805370594
 20
142.0518547406
 10
326.8729480776
 20
141.715927265
 10
325.2483421732
 20
141.4237864366
 10
323.6091036793
 20
141.1758610124
 10
321.9576384043
 20
140.9725148572
 10
320.2963701015
 20
140.8140464093
 10
318.627736911
 20
140.7006882433
 10
316.9541877823
 20
140.6326067277
 10
315.2781788793
 20
140.6099017816
 10
313.6021699764
 20
140.6326067277
 10
311.9286208476
 20
140.7006882433
 10
310.2599876571
 20
140.8140464093
 10
308.5987193543
 20
140.9725148572
 10
306.9472540794
 20
141.1758610124
 10
305.3080155854
 20
141.4237864366
 10
303.683409681
 20
141.715927265
 10
302.0758206993
 20
142.0518547406
 10
300.4876079987
 20
142.4310758436
 10
298.9211025006
 20
142.8530340146
 10
297.3786032676
 20
143.3171099719
 10
295.8623741302
 20
143.82262262
 10
294.3746403636
 20
144.3688300493
 10
292.9175854224
 20
144.9549306253
 10
291.4933477356
 20
145.5800641643
 10
290.1040175683
 20
146.2433131969
 10
288.7516339543
 20
146.9437043135
 10
287.4381817029
 20
147.6802095936
 10
286.1655884865
 20
148.4517481142
 10
284.935722011
 20
149.257187536
 10
283.7503872752
 20
150.0953457657
 10
282.6113239212
 20
150.9649926904
 10
281.5202036815
 20
151.8648519835
 10
280.4786279256
 20
152.7936029772
 10
279.4881253095
 20
153.7498826014
 10
278.5501495325
 20
154.732287384
 10
277.6660772032
 20
155.7393755104
 10
276.8372058198
 20
156.7696689399
 10
276.0647518653
 20
157.8216555748
 10
275.3498490224
 20
158.8937914797
 10
274.6935465097
 20
159.9845031473
 10
274.0968075415
 20
161.0921898078
 10
273.5605079146
 20
162.2152257783
 10
273.0854347226
 20
163.3519628487
 10
272.672285201
 20
164.5007327005
 10
272.3216657036
 20
165.6598493555
 10
272.034090813
 20
166.8276116503
 10
271.8099825848
 20
168.0023057326
 10
271.649669929
 20
169.1822075769
 10
271.5968468971
 20
169.7330712808
  0
LINE
  5
2C4
330
1F
100
AcDbEntity
  8
0
  6
Continuous
 62
     7
370
    25
100
AcDbLine
 10
278.9582424963
 20
188.8065503835
 30
0.0
 11
279.1581191397
 21
189.0150610033
 31
0.0
  0
LWPOLYLINE
  5
2C5
330
1F
100
AcDbEntity
  8
0
  6
Continuous
 62
     7
370
    25
100
AcDbPolyline
 90
        3
 70
   128
 43
0.0
 10
277.2730202163
 20
185.1720256223
 10
277.1864585115
 20
185.0600214341
 10
277.1653603055
 20
185.0325530711
  0
LWPOLYLINE
  5
2C6
330
1F
100
AcDbEntity
  8
0
  6
Continuous
 62
     7
370
    25
100
AcDbPolyline
 90
        3
 70
   128
 43
0.0
 10
353.3909974531
 20
185.0325530711
 10
353.3698992472
 20
185.0600214341
 10
353.2833375423
 20
185.1720256223
  0
LINE
  5
2C7
330
1F
100
AcDbEntity
  8
0
  6
Continuous
 62
     7
370
    25
100
AcDbLine
 10
353.3212761437
 20
185.0706901442
 30
0.0
 11
353.423544546
 21
184.9427320332
 31
0.0
  0
LWPOLYLINE
  5
2C8
330
1F
100
AcDbEntity
  8
0
  6
Continuous
 62
     7
370
    25
100
AcDbPolyline
 90
       85
 70
   128
 43
0.0
 10
359.0328727481
 20
170.0943413826
 10
359.0350792749
 20
169.7836190911
 10
359.0029696323
 20
168.5985018304
 10
358.9066878296
 20
167.4151238928
 10
358.7463751737
 20
166.2352220486
 10
358.5222669456
 20
165.0605279662
 10
358.234692055
 20
163.8927656715
 10
357.8840725576
 20
162.7336490164
 10
357.470923036
 20
161.5848791646
 10
356.995849844
 20
160.4481420943
 10
356.4595502171
 20
159.3251061238
 10
355.8628112489
 20
158.2174194633
 10
355.2065087361
 20
157.1267077957
 10
354.4916058933
 20
156.0545718908
 10
353.7191519388
 20
155.0025852558
 10
352.8902805554
 20
153.9722918263
 10
352.0062082261
 20
152.9652037
 10
351.068232449
 20
151.9827989174
 10
350.077729833
 20
151.0265192932
 10
349.0361540771
 20
150.0977682994
 10
347.9450338374
 20
149.1979090064
 10
346.8059704834
 20
148.3282620816
 10
345.6206357476
 20
147.490103852
 10
344.3907692721
 20
146.6846644301
 10
343.1181760557
 20
145.9131259096
 10
341.8047238043
 20
145.1766206295
 10
340.4523401902
 20
144.4762295129
 10
339.063010023
 20
143.8129804803
 10
337.6387723362
 20
143.1878469412
 10
336.181717395
 20
142.6017463653
 10
334.6939836284
 20
142.0555389359
 10
333.177754491
 20
141.5500262878
 10
331.635255258
 20
141.0859503306
 10
330.0687497599
 20
140.6639921595
 10
328.4805370594
 20
140.2847710566
 10
326.8729480776
 20
139.948843581
 10
325.2483421732
 20
139.6567027526
 10
323.6091036792
 20
139.4087773284
 10
321.9576384043
 20
139.2054311731
 10
320.2963701015
 20
139.0469627253
 10
318.627736911
 20
138.9336045592
 10
316.9541877823
 20
138.8655230437
 10
315.2781788793
 20
138.8428180976
 10
313.6021699764
 20
138.8655230437
 10
311.9286208476
 20
138.9336045592
 10
310.2599876571
 20
139.0469627253
 10
308.5987193543
 20
139.2054311731
 10
306.9472540794
 20
139.4087773284
 10
305.3080155854
 20
139.6567027526
 10
303.683409681
 20
139.948843581
 10
302.0758206993
 20
140.2847710566
 10
300.4876079987
 20
140.6639921595
 10
298.9211025006
 20
141.0859503306
 10
297.3786032676
 20
141.5500262878
 10
295.8623741302
 20
142.0555389359
 10
294.3746403636
 20
142.6017463653
 10
292.9175854224
 20
143.1878469412
 10
291.4933477356
 20
143.8129804803
 10
290.1040175684
 20
144.4762295129
 10
288.7516339543
 20
145.1766206295
 10
287.438181703
 20
145.9131259096
 10
286.1655884865
 20
146.6846644301
 10
284.935722011
 20
147.490103852
 10
283.7503872752
 20
148.3282620816
 10
282.6113239212
 20
149.1979090064
 10
281.5202036815
 20
150.0977682994
 10
280.4786279256
 20
151.0265192932
 10
279.4881253096
 20
151.9827989174
 10
278.5501495325
 20
152.9652037
 10
277.6660772033
 20
153.9722918263
 10
276.8372058199
 20
155.0025852558
 10
276.0647518654
 20
156.0545718908
 10
275.3498490225
 20
157.1267077957
 10
274.6935465097
 20
158.2174194633
 10
274.0968075415
 20
159.3251061238
 10
273.5605079146
 20
160.4481420943
 10
273.0854347226
 20
161.5848791646
 10
272.672285201
 20
162.7336490164
 10
272.3216657036
 20
163.8927656715
 10
272.034090813
 20
165.0605279662
 10
271.8099825849
 20
166.2352220486
 10
271.649669929
 20
167.4151238928
 10
271.5533881263
 20
168.5985018304
 10
271.5212784837
 20
169.7836190911
 10
271.5234850106
 20
170.0943413826
  0
LINE
  5
2C9
330
1F
100
AcDbEntity
  8
0
  6
Continuous
 62
     7
370
    25
100
AcDbLine
 10
277.1328132126
 20
184.9427320332
 30
0.0
 11
277.2350816149
 21
185.0706901442
 31
0.0
  0
LWPOLYLINE
  5
2CA
330
1F
100
AcDbEntity
  8
0
  6
Continuous
 62
     7
370
    25
100
AcDbPolyline
 90
        3
 70
   128
 43
0.0
 10
350.4123896988
 20
184.5467053968
 10
350.6361889895
 20
184.2589892552
 10
350.6434911722
 20
184.2494675685
  0
LWPOLYLINE
  5
2CB
330
1F
100
AcDbEntity
  8
0
  6
Continuous
 62
     7
370
    25
100
AcDbPolyline
 90
        3
 70
   128
 43
0.0
 10
279.9128665865
 20
184.2494675685
 10
279.9201687691
 20
184.2589892552
 10
280.1439680598
 20
184.5467053968
  0
LWPOLYLINE
  5
2CC
330
1F
100
AcDbEntity
  8
0
  6
Continuous
 62
     7
370
    25
100
AcDbPolyline
 90
       32
 70
   128
 43
0.0
 10
315.2781788793
 20
200.4717580339
 10
316.8476993861
 20
200.4492607729
 10
318.4146411748
 20
200.3818059528
 10
319.9764297641
 20
200.2695044018
 10
321.5304991396
 20
200.1125406308
 10
323.0742959694
 20
199.9111725312
 10
324.6052837992
 20
199.66573095
 10
326.1209472201
 20
199.3766191471
 10
327.6187960012
 20
199.0443121326
 10
329.0963691806
 20
198.6693558859
 10
330.5512391098
 20
198.2523664591
 10
331.981015441
 20
197.7940289649
 10
333.3833490557
 20
197.2950964505
 10
334.7559359232
 20
196.7563886607
 10
336.0965208871
 20
196.178790691
 10
337.4029013698
 20
195.5632515333
 10
338.6729309915
 20
194.910782517
 10
339.9045230969
 20
194.2224556467
 10
341.0956541834
 20
193.4994018419
 10
342.2443672258
 20
192.742809078
 10
343.3487748915
 20
191.9539204348
 10
344.4070626417
 20
191.1340320545
 10
345.4174917124
 20
190.2844910114
 10
346.3784019712
 20
189.4066930993
 10
347.2882146452
 20
188.5020805377
 10
348.1454349144
 20
187.5721396029
 10
348.9486543682
 20
186.6183981852
 10
349.6965533193
 20
185.6424232793
 10
350.3879029715
 20
184.6458184095
 10
351.0215674392
 20
183.630220995
 10
351.5965056134
 20
182.5972996595
 10
352.0606091193
 20
181.6592973009
  0
LWPOLYLINE
  5
2CD
330
1F
100
AcDbEntity
  8
0
  6
Continuous
 62
     7
370
    25
100
AcDbPolyline
 90
       32
 70
   128
 43
0.0
 10
278.4957486393
 20
181.6592973009
 10
278.9598521452
 20
182.5972996595
 10
279.5347903194
 20
183.630220995
 10
280.1684547871
 20
184.6458184095
 10
280.8598044393
 20
185.6424232793
 10
281.6077033904
 20
186.6183981852
 10
282.4109228442
 20
187.5721396029
 10
283.2681431135
 20
188.5020805377
 10
284.1779557874
 20
189.4066930993
 10
285.1388660462
 20
190.2844910114
 10
286.1492951169
 20
191.1340320545
 10
287.2075828671
 20
191.9539204348
 10
288.3119905328
 20
192.742809078
 10
289.4607035752
 20
193.4994018419
 10
290.6518346617
 20
194.2224556467
 10
291.8834267671
 20
194.910782517
 10
293.1534563888
 20
195.5632515333
 10
294.4598368715
 20
196.178790691
 10
295.8004218354
 20
196.7563886607
 10
297.173008703
 20
197.2950964505
 10
298.5753423176
 20
197.7940289649
 10
300.0051186489
 20
198.2523664591
 10
301.459988578
 20
198.6693558859
 10
302.9375617575
 20
199.0443121326
 10
304.4354105385
 20
199.3766191471
 10
305.9510739594
 20
199.66573095
 10
307.4820617893
 20
199.9111725312
 10
309.025858619
 20
200.1125406308
 10
310.5799279945
 20
200.2695044018
 10
312.1417165839
 20
200.3818059528
 10
313.7086583726
 20
200.4492607729
 10
315.2781788793
 20
200.4717580339
  0
LWPOLYLINE
  5
2CE
330
1F
100
AcDbEntity
  8
0
  6
Continuous
 62
     7
370
    25
100
AcDbPolyline
 90
       33
 70
   128
 43
0.0
 10
315.2781788793
 20
200.4096803408
 10
316.8477087071
 20
200.3871829462
 10
318.4146598015
 20
200.3197277255
 10
319.976457666
 20
200.2074255075
 10
321.5305362708
 20
200.0504608044
 10
323.0743422688
 20
199.8490915088
 10
324.6053391909
 20
199.60364847
 10
326.121011613
 20
199.3145349502
 10
327.6188692894
 20
198.9822259621
 10
329.0964512439
 20
198.6072674886
 10
330.5513298132
 20
198.1902755855
 10
331.9811146356
 20
197.7319353693
 10
333.3834565784
 20
197.2329998918
 10
334.7560515975
 20
196.6942889027
 10
336.0966445228
 20
196.1166875028
 10
337.4030327638
 20
195.5011446896
 10
338.6730699279
 20
194.8486717984
 10
339.9046693475
 20
194.1603408403
 10
341.0958075079
 20
193.4372827414
 10
342.2445273722
 20
192.6806854842
 10
343.3489415968
 20
191.8917921561
 10
344.407235632
 20
191.0718989066
 10
345.4176707033
 20
190.2223528182
 10
346.3785866688
 20
189.344549693
 10
347.2884047459
 20
188.4399317592
 10
348.145630106
 20
187.5099853016
 10
348.94885433
 20
186.5562382199
 10
349.6967577227
 20
185.5802575179
 10
350.3881114807
 20
184.5836467295
 10
351.0217797116
 20
183.5680432835
 10
351.5967213002
 20
182.5351158137
 10
352.111991619
 20
181.4865614173
 10
352.113785264
 20
181.4826570001
  0
LWPOLYLINE
  5
2CF
330
1F
100
AcDbEntity
  8
0
  6
Continuous
 62
     7
370
    25
100
AcDbPolyline
 90
       33
 70
   128
 43
0.0
 10
278.4425724946
 20
181.4826570001
 10
278.4443661396
 20
181.4865614173
 10
278.9596364584
 20
182.5351158137
 10
279.534578047
 20
183.5680432835
 10
280.1682462779
 20
184.5836467295
 10
280.8596000359
 20
185.5802575179
 10
281.6075034286
 20
186.5562382199
 10
282.4107276526
 20
187.5099853016
 10
283.2679530127
 20
188.4399317592
 10
284.1777710898
 20
189.344549693
 10
285.1386870553
 20
190.2223528182
 10
286.1491221267
 20
191.0718989066
 10
287.2074161618
 20
191.8917921561
 10
288.3118303864
 20
192.6806854842
 10
289.4605502507
 20
193.4372827414
 10
290.6516884111
 20
194.1603408403
 10
291.8832878307
 20
194.8486717984
 10
293.1533249948
 20
195.5011446896
 10
294.4597132358
 20
196.1166875028
 10
295.8003061611
 20
196.6942889027
 10
297.1729011802
 20
197.2329998918
 10
298.575243123
 20
197.7319353693
 10
300.0050279454
 20
198.1902755855
 10
301.4599065147
 20
198.6072674886
 10
302.9374884692
 20
198.9822259621
 10
304.4353461456
 20
199.3145349502
 10
305.9510185677
 20
199.60364847
 10
307.4820154898
 20
199.8490915088
 10
309.0258214878
 20
200.0504608044
 10
310.5799000926
 20
200.2074255075
 10
312.1416979571
 20
200.3197277255
 10
313.7086490515
 20
200.3871829462
 10
315.2781788793
 20
200.4096803408
  0
LINE
  5
2D0
330
1F
100
AcDbEntity
  8
0
  6
Continuous
 62
     7
370
    25
100
AcDbLine
 10
276.3899409184
 20
182.1791738098
 30
0.0
 11
276.3281211454
 21
182.0900926925
 31
0.0
  0
LINE
  5
2D1
330
1F
100
AcDbEntity
  8
0
  6
Continuous
 62
     7
370
    25
100
AcDbLine
 10
354.2282366132
 20
182.0900926925
 30
0.0
 11
354.1664168403
 21
182.1791738098
 31
0.0
  0
LINE
  5
2D2
330
1F
100
AcDbEntity
  8
0
  6
Continuous
 62
     7
370
    25
100
AcDbLine
 10
281.3795803561
 20
186.26866832
 30
0.0
 11
281.1470623987
 21
186.0285482837
 31
0.0
  0
LINE
  5
2D3
330
1F
100
AcDbEntity
  8
0
  6
Continuous
 62
     7
370
    25
100
AcDbLine
 10
275.9484751646
 20
178.4169606484
 30
0.0
 11
275.9191984397
 21
178.3507933529
 31
0.0
  0
LINE
  5
2D4
330
1F
100
AcDbEntity
  8
0
  6
Continuous
 62
     7
370
    25
100
AcDbLine
 10
354.6366895461
 20
178.3518594454
 30
0.0
 11
354.607882594
 21
178.4169606484
 31
0.0
  0
LINE
  5
2D5
330
1F
100
AcDbEntity
  8
0
  6
Continuous
 62
     7
370
    25
100
AcDbLine
 10
349.4092953599
 20
186.0285482837
 30
0.0
 11
349.1767774025
 21
186.26866832
 31
0.0
  0
LINE
  5
2D6
330
1F
100
AcDbEntity
  8
0
  6
Continuous
 62
     7
370
    25
100
AcDbLine
 10
354.168313557
 20
182.170332121
 30
0.0
 11
354.2288954635
 21
182.0868920695
 31
0.0
  0
LWPOLYLINE
  5
2D7
330
1F
100
AcDbEntity
  8
0
  6
Continuous
 62
     7
370
    25
100
AcDbPolyline
 90
       85
 70
   128
 43
0.0
 10
359.0133175087
 20
168.8079190092
 10
359.0282594279
 20
167.9994645971
 10
358.9961547898
 20
166.814532046
 10
358.8998879933
 20
165.6313385469
 10
358.7396003234
 20
164.4516205994
 10
358.5155270243
 20
163.2771096021
 10
358.2279969544
 20
162.109529312
 10
357.8774321037
 20
160.9505933141
 10
357.4643469746
 20
159.8020025069
 10
356.9893478264
 20
158.6654426057
 10
356.4531317859
 20
157.5425816689
 10
355.856485824
 20
156.4350676498
 10
355.200285601
 20
155.344525978
 10
354.4854941812
 20
154.2725571736
 10
353.7131606196
 20
153.2207344989
 10
352.8844184221
 20
152.1906016485
 10
352.0004838823
 20
151.1836704845
 10
351.0626542959
 20
150.2014188172
 10
350.0723060572
 20
149.2452882364
 10
349.0308926389
 20
148.3166819956
 10
347.9399424586
 20
147.4169629525
 10
346.8010566363
 20
146.5474515689
 10
345.615906644
 20
145.7094239726
 10
344.3862318526
 20
144.9041100846
 10
343.1138369795
 20
144.1326918142
 10
341.8005894397
 20
143.3963013241
 10
340.448416605
 20
142.6960193688
 10
339.0593029755
 20
142.0328737087
 10
337.6352872669
 20
141.4078376014
 10
336.1784594189
 20
140.8218283738
 10
334.690957527
 20
140.275706075
 10
333.1749647055
 20
139.7702722149
 10
331.6327058828
 20
139.3062685874
 10
330.0664445365
 20
138.8843761818
 10
328.478479371
 20
138.5052141834
 10
326.8711409443
 20
138.1693390646
 10
325.2467882471
 20
137.8772437686
 10
323.607805241
 20
137.6293569855
 10
321.9565973596
 20
137.4260425232
 10
320.2955879781
 20
137.2675987739
 10
318.6272148568
 20
137.1542582756
 10
316.9539265635
 20
137.0861873711
 10
315.2781788793
 20
137.0634859637
 10
313.6024311951
 20
137.0861873711
 10
311.9291429018
 20
137.1542582756
 10
310.2607697805
 20
137.2675987739
 10
308.5997603991
 20
137.4260425232
 10
306.9485525176
 20
137.6293569855
 10
305.3095695115
 20
137.8772437686
 10
303.6852168143
 20
138.1693390646
 10
302.0778783876
 20
138.5052141834
 10
300.4899132222
 20
138.8843761818
 10
298.9236518758
 20
139.3062685874
 10
297.3813930532
 20
139.7702722149
 10
295.8654002316
 20
140.275706075
 10
294.3778983397
 20
140.8218283738
 10
292.9210704917
 20
141.4078376014
 10
291.4970547832
 20
142.0328737087
 10
290.1079411536
 20
142.6960193688
 10
288.7557683189
 20
143.3963013241
 10
287.4425207791
 20
144.1326918142
 10
286.170125906
 20
144.9041100846
 10
284.9404511146
 20
145.7094239726
 10
283.7553011223
 20
146.5474515689
 10
282.6164153
 20
147.4169629525
 10
281.5254651197
 20
148.3166819956
 10
280.4840517014
 20
149.2452882364
 10
279.4937034627
 20
150.2014188172
 10
278.5558738763
 20
151.1836704845
 10
277.6719393365
 20
152.1906016485
 10
276.843197139
 20
153.2207344989
 10
276.0708635774
 20
154.2725571736
 10
275.3560721576
 20
155.344525978
 10
274.6998719346
 20
156.4350676498
 10
274.1032259727
 20
157.5425816689
 10
273.5670099322
 20
158.6654426057
 10
273.092010784
 20
159.8020025069
 10
272.6789256549
 20
160.9505933141
 10
272.3283608042
 20
162.109529312
 10
272.0408307343
 20
163.2771096021
 10
271.8167574352
 20
164.4516205994
 10
271.6564697653
 20
165.6313385469
 10
271.5602029689
 20
166.814532046
 10
271.5280983307
 20
167.9994645971
 10
271.5430402499
 20
168.8079190092
  0
LINE
  5
2D8
330
1F
100
AcDbEntity
  8
0
  6
Continuous
 62
     7
370
    25
100
AcDbLine
 10
276.3274622951
 20
182.0868920695
 30
0.0
 11
276.3880442017
 21
182.170332121
 31
0.0
  0
ARC
  5
2D9
330
1F
100
AcDbEntity
  8
0
  6
Continuous
 62
     7
370
    25
100
AcDbCircle
 10
333.2010520904
 20
172.1945921169
 30
0.0
 40
19.72885079217319
100
AcDbArc
 50
7.5402465803
 51
20.3610029039
  0
ARC
  5
2DA
330
1F
100
AcDbEntity
  8
0
  6
Continuous
 62
     7
370
    25
100
AcDbCircle
 10
297.2583494796
 20
172.2215903945
 30
0.0
 40
19.62847639703185
100
AcDbArc
 50
159.7467995856
 51
174.1632221606
  0
LWPOLYLINE
  5
2DB
330
1F
100
AcDbEntity
  8
0
  6
Continuous
 62
     7
370
    25
100
AcDbPolyline
 90
       33
 70
   128
 43
0.0
 10
315.2781788793
 20
198.4969801177
 10
316.8323210417
 20
198.4744120057
 10
318.3838425689
 20
198.4067457247
 10
319.9301272444
 20
198.2940953754
 10
321.4685676827
 20
198.1366509118
 10
322.996569725
 20
197.9346778208
 10
324.5115568143
 20
197.6885166747
 10
326.0109743395
 20
197.398582557
 10
327.4922939436
 20
197.0653643621
 10
328.9530177866
 20
196.6894239712
 10
330.3906827576
 20
196.2713953051
 10
331.8028646283
 20
195.8119832545
 10
333.1871821405
 20
195.311962492
 10
334.5413010217
 20
194.7721761659
 10
335.8629379213
 20
194.193534478
 10
337.1498642603
 20
193.577013149
 10
338.3999099899
 20
192.9236517734
 10
339.6109672502
 20
192.2345520662
 10
340.7809939246
 20
191.5108760056
 10
341.9080170835
 20
190.753843873
 10
342.9901363108
 20
189.9647321958
 10
344.0255269089
 20
189.1448715949
 10
345.0124429748
 20
188.2956445407
 10
345.9492203449
 20
187.4184830222
 10
346.8342794005
 20
186.514866132
 10
347.6661277319
 20
185.5863175727
 10
348.4433626546
 20
184.6344030873
 10
349.1646735747
 20
183.6607278188
 10
349.8288441988
 20
182.6669336041
 10
350.434754585
 20
181.654696205
 10
350.9813830313
 20
180.6257224828
 10
351.4678077985
 20
179.5817475199
 10
351.8141828287
 20
178.7339855321
  0
LWPOLYLINE
  5
2DC
330
1F
100
AcDbEntity
  8
0
  6
Continuous
 62
     7
370
    25
100
AcDbPolyline
 90
       33
 70
   128
 43
0.0
 10
278.7421749299
 20
178.7339855321
 10
279.0885499601
 20
179.5817475199
 10
279.5749747273
 20
180.6257224828
 10
280.1216031736
 20
181.654696205
 10
280.7275135598
 20
182.6669336041
 10
281.3916841839
 20
183.6607278188
 10
282.112995104
 20
184.6344030873
 10
282.8902300267
 20
185.5863175727
 10
283.7220783581
 20
186.514866132
 10
284.6071374138
 20
187.4184830222
 10
285.5439147838
 20
188.2956445407
 10
286.5308308497
 20
189.1448715949
 10
287.5662214478
 20
189.9647321958
 10
288.6483406751
 20
190.753843873
 10
289.775363834
 20
191.5108760056
 10
290.9453905084
 20
192.2345520662
 10
292.1564477687
 20
192.9236517734
 10
293.4064934983
 20
193.577013149
 10
294.6934198373
 20
194.193534478
 10
296.0150567369
 20
194.7721761659
 10
297.3691756181
 20
195.311962492
 10
298.7534931304
 20
195.8119832545
 10
300.165675001
 20
196.2713953051
 10
301.603339972
 20
196.6894239712
 10
303.064063815
 20
197.0653643621
 10
304.5453834191
 20
197.398582557
 10
306.0448009443
 20
197.6885166747
 10
307.5597880336
 20
197.9346778208
 10
309.0877900759
 20
198.1366509118
 10
310.6262305142
 20
198.2940953754
 10
312.1725151898
 20
198.4067457247
 10
313.7240367169
 20
198.4744120057
 10
315.2781788793
 20
198.4969801177
  0
LWPOLYLINE
  5
2DD
330
1F
100
AcDbEntity
  8
0
  6
Continuous
 62
     7
370
    25
100
AcDbPolyline
 90
        3
 70
   128
 43
0.0
 10
280.8922156387
 20
185.6248588372
 10
280.8639682564
 20
185.5950054341
 10
280.6975256582
 20
185.4174707138
  0
LWPOLYLINE
  5
2DE
330
1F
100
AcDbEntity
  8
0
  6
Continuous
 62
     7
370
    25
100
AcDbPolyline
 90
        3
 70
   128
 43
0.0
 10
349.8588321004
 20
185.4174707138
 10
349.6923895022
 20
185.5950054341
 10
349.66414212
 20
185.6248588372
  0
LWPOLYLINE
  5
2DF
330
1F
100
AcDbEntity
  8
0
  6
Continuous
 62
     7
370
    25
100
AcDbPolyline
 90
       37
 70
   128
 43
0.0
 10
315.2781788793
 20
198.1499714351
 10
316.8359249549
 20
198.1272021288
 10
318.3910096474
 20
198.0589331108
 10
319.9407761208
 20
197.9452810177
 10
321.482576625
 20
197.786440022
 10
323.0137770197
 20
197.582681501
 10
324.5317612747
 20
197.3343535727
 10
326.0339359395
 20
197.0418805013
 10
327.5177345738
 20
196.7057619719
 10
328.9806221324
 20
196.3265722376
 10
330.4200992966
 20
195.9049591375
 10
331.8337067438
 20
195.4416429907
 10
333.2190293493
 20
194.937415365
 10
334.5737003128
 20
194.3931377248
 10
335.8954052016
 20
193.8097399593
 10
337.181885905
 20
193.1882187938
 10
338.4309444924
 20
192.5296360869
 10
339.6404469682
 20
191.835117016
 10
340.8083269175
 20
191.1058481553
 10
341.9325890373
 20
190.3430754484
 10
343.0113125443
 20
189.5481020797
 10
344.0426544578
 20
188.7222862479
 10
345.0248527472
 20
187.8670388454
 10
345.9562293433
 20
186.9838210482
 10
346.8351930047
 20
186.0741418189
 10
347.660242037
 20
185.1395553293
 10
348.4299668575
 20
184.1816583048
 10
349.1430524043
 20
183.2020872963
 10
349.7982803828
 20
182.2025158844
 10
350.394531347
 20
181.1846518203
 10
350.930786612
 20
180.1502341074
 10
351.4061299947
 20
179.1010300312
 10
351.819749379
 20
178.0388321392
 10
352.1709381031
 20
176.9654551788
 10
352.4590961669
 20
175.8827329963
 10
352.6837312573
 20
174.7925154045
 10
352.8042218767
 20
174.0165986323
  0
LWPOLYLINE
  5
2E0
330
1F
100
AcDbEntity
  8
0
  6
Continuous
 62
     7
370
    25
100
AcDbPolyline
 90
       37
 70
   128
 43
0.0
 10
277.7521358819
 20
174.0165986323
 10
277.8726265013
 20
174.7925154045
 10
278.0972615917
 20
175.8827329963
 10
278.3854196555
 20
176.9654551788
 10
278.7366083796
 20
178.0388321392
 10
279.1502277639
 20
179.1010300312
 10
279.6255711466
 20
180.1502341074
 10
280.1618264117
 20
181.1846518203
 10
280.7580773758
 20
182.2025158844
 10
281.4133053543
 20
183.2020872963
 10
282.1263909012
 20
184.1816583048
 10
282.8961157217
 20
185.1395553293
 10
283.7211647539
 20
186.0741418189
 10
284.6001284154
 20
186.9838210482
 10
285.5315050115
 20
187.8670388454
 10
286.5137033009
 20
188.7222862479
 10
287.5450452143
 20
189.5481020797
 10
288.6237687214
 20
190.3430754484
 10
289.7480308411
 20
191.1058481553
 10
290.9159107905
 20
191.835117016
 10
292.1254132662
 20
192.5296360869
 10
293.3744718536
 20
193.1882187938
 10
294.660952557
 20
193.8097399593
 10
295.9826574458
 20
194.3931377248
 10
297.3373284093
 20
194.937415365
 10
298.7226510148
 20
195.4416429907
 10
300.136258462
 20
195.9049591375
 10
301.5757356262
 20
196.3265722376
 10
303.0386231849
 20
196.7057619719
 10
304.5224218191
 20
197.0418805013
 10
306.0245964839
 20
197.3343535727
 10
307.5425807389
 20
197.582681501
 10
309.0737811337
 20
197.786440022
 10
310.6155816379
 20
197.9452810177
 10
312.1653481112
 20
198.0589331108
 10
313.7204328038
 20
198.1272021288
 10
315.2781788793
 20
198.1499714351
  0
LWPOLYLINE
  5
2E1
330
1F
100
AcDbEntity
  8
0
  6
Continuous
 62
     7
370
    25
100
AcDbPolyline
 90
       41
 70
   128
 43
0.0
 10
315.2781788793
 20
196.2977120471
 10
316.8049177871
 20
196.2749465183
 10
318.3289422088
 20
196.2066904081
 10
319.8475424846
 20
196.0930650735
 10
321.3580185987
 20
195.9342725362
 10
322.8576849797
 20
195.7305951234
 10
324.3438752754
 20
195.4823949662
 10
325.8139470937
 20
195.1901133554
 10
327.2652867007
 20
194.854269957
 10
328.6953136674
 20
194.4754618884
 10
330.101485458
 20
194.0543626565
 10
331.4813019505
 20
193.5917209603
 10
332.8323098815
 20
193.0883593599
 10
334.1521072082
 20
192.5451728139
 10
335.4383473791
 20
191.963127088
 10
336.688743506
 20
191.3432570385
 10
337.9010724305
 20
190.6866647715
 10
339.0731786757
 20
189.9945176841
 10
340.2029782797
 20
189.2680463888
 10
341.2884624999
 20
188.5085425248
 10
342.327701385
 20
187.7173564624
 10
343.3188472063
 20
186.8958949015
 10
344.2601377425
 20
186.0456183707
 10
345.1498994135
 20
185.1680386308
 10
345.9865502555
 20
184.2647159864
 10
346.7686027339
 20
183.3372565123
 10
347.4946663878
 20
182.3873091976
 10
348.1634503026
 20
181.4165630138
 10
348.7737654049
 20
180.4267439124
 10
349.3245265767
 20
179.4196117556
 10
349.8147545848
 20
178.3969571875
 10
350.2435778216
 20
177.3605984507
 10
350.610233855
 20
176.3123781532
 10
350.9140707841
 20
175.2541599924
 10
351.1545483979
 20
174.1878254416
 10
351.3312391358
 20
173.1152704047
 10
351.4438288484
 20
172.0384018455
 10
351.4921173551
 20
170.9591343969
 10
351.4760188007
 20
169.8793869571
 10
351.3955618079
 20
168.8010792775
 10
351.3564564924
 20
168.4583617814
  0
LWPOLYLINE
  5
2E2
330
1F
100
AcDbEntity
  8
0
  6
Continuous
 62
     7
370
    25
100
AcDbPolyline
 90
       41
 70
   128
 43
0.0
 10
279.1999012662
 20
168.4583617814
 10
279.1607959507
 20
168.8010792775
 10
279.0803389579
 20
169.8793869571
 10
279.0642404036
 20
170.9591343969
 10
279.1125289102
 20
172.0384018455
 10
279.2251186228
 20
173.1152704047
 10
279.4018093608
 20
174.1878254416
 10
279.6422869745
 20
175.2541599924
 10
279.9461239036
 20
176.3123781532
 10
280.3127799371
 20
177.3605984507
 10
280.7416031739
 20
178.3969571875
 10
281.2318311819
 20
179.4196117556
 10
281.7825923537
 20
180.4267439124
 10
282.392907456
 20
181.4165630138
 10
283.0616913708
 20
182.3873091976
 10
283.7877550247
 20
183.3372565123
 10
284.5698075031
 20
184.2647159864
 10
285.4064583451
 20
185.1680386308
 10
286.2962200161
 20
186.0456183707
 10
287.2375105524
 20
186.8958949015
 10
288.2286563736
 20
187.7173564624
 10
289.2678952587
 20
188.5085425248
 10
290.3533794789
 20
189.2680463888
 10
291.4831790829
 20
189.9945176841
 10
292.6552853282
 20
190.6866647715
 10
293.8676142526
 20
191.3432570385
 10
295.1180103796
 20
191.963127088
 10
296.4042505504
 20
192.5451728139
 10
297.7240478771
 20
193.0883593599
 10
299.0750558081
 20
193.5917209603
 10
300.4548723006
 20
194.0543626565
 10
301.8610440913
 20
194.4754618884
 10
303.2910710579
 20
194.854269957
 10
304.7424106649
 20
195.1901133554
 10
306.2124824832
 20
195.4823949662
 10
307.6986727789
 20
195.7305951234
 10
309.1983391599
 20
195.9342725362
 10
310.708815274
 20
196.0930650735
 10
312.2274155498
 20
196.2066904081
 10
313.7514399715
 20
196.2749465183
 10
315.2781788793
 20
196.2977120471
  0
LWPOLYLINE
  5
2E3
330
1F
100
AcDbEntity
  8
0
  6
Continuous
 62
     8
370
    18
100
AcDbPolyline
 90
      162
 70
   128
 43
0.0
 10
315.2781788793
 20
208.6801377848
 10
313.6316829454
 20
208.6574169237
 10
311.9876943533
 20
208.5892889406
 10
310.3487166263
 20
208.475857583
 10
308.7172456571
 20
208.3172955884
 10
307.0957659071
 20
208.1138444204
 10
305.4867466223
 20
207.8658139016
 10
303.8926380737
 20
207.5735817416
 10
302.3158678257
 20
207.2375929617
 10
300.7588370393
 20
206.8583592175
 10
299.2239168155
 20
206.4364580193
 10
297.7134445847
 20
205.9725318532
 10
296.2297205469
 20
205.467287202
 10
294.7750041691
 20
204.9214934702
 10
293.3515107443
 20
204.3359818115
 10
291.9614080182
 20
203.7116438636
 10
290.6068128881
 20
203.0494303902
 10
289.2897881787
 20
202.3503498332
 10
288.0123395016
 20
201.615466777
 10
286.7764122003
 20
200.8459003272
 10
285.5838883883
 20
200.0428224066
 10
284.4365840826
 20
199.2074559704
 10
283.3362464384
 20
198.3410731439
 10
282.2845510884
 20
197.4449932852
 10
281.2830995912
 20
196.5205809762
 10
280.3334169922
 20
195.5692439443
 10
279.4369495015
 20
194.5924309189
 10
278.5950622909
 20
193.591629425
 10
277.8090374161
 20
192.5683635184
 10
277.080071863
 20
191.5241914641
 10
276.4092757262
 20
190.460703364
 10
275.7976705174
 20
189.379518735
 10
275.2461876104
 20
188.282284043
 10
274.7556668228
 20
187.1706701954
 10
274.3268551368
 20
186.0463699968
 10
273.9604055619
 20
184.9110955708
 10
273.6568761404
 20
183.7665757533
 10
273.4167290974
 20
182.614553459
 10
273.2403301374
 20
181.4567830279
 10
273.1279478868
 20
180.2950275534
 10
273.0797534852
 20
179.1310561974
 10
273.0958203249
 20
177.9666414964
 10
273.1761239385
 20
176.8035566617
 10
273.3205420371
 20
175.6435728799
 10
273.5288546956
 20
174.4884566149
 10
273.8007446883
 20
173.3399669181
 10
274.1357979714
 20
172.1998527499
 10
274.5335043142
 20
171.0698503162
 10
274.9932580754
 20
169.9516804243
 10
275.514359126
 20
168.8470458625
 10
276.096013915
 20
167.7576288069
 10
276.7373366781
 20
166.6850882602
 10
277.4373507864
 20
165.6310575245
 10
278.1949902341
 20
164.5971417149
 10
279.0091012611
 20
163.5849153146
 10
279.8784441108
 20
162.5959197774
 10
280.8016949172
 20
161.6316611804
 10
281.7774477218
 20
160.6936079304
 10
282.8042166139
 20
159.7831885277
 10
283.880437994
 20
158.901789391
 10
285.0044729543
 20
158.0507527457
 10
286.1746097751
 20
157.2313745802
 10
287.3890665309
 20
156.4449026724
 10
288.6459938045
 20
155.6925346892
 10
289.9434775029
 20
154.975416363
 10
291.2795417726
 20
154.2946397466
 10
292.6521520079
 20
153.6512415506
 10
294.05921795
 20
153.0462015644
 10
295.4985968695
 20
152.4804411639
 10
296.9680968297
 20
151.954821909
 10
298.4654800246
 20
151.470144231
 10
299.9884661866
 20
151.0271462142
 10
301.5347360589
 20
150.6265024715
 10
303.1019349277
 20
150.2688231171
 10
304.6876762075
 20
149.9546528378
 10
306.289545076
 20
149.684470063
 10
307.905102151
 20
149.4586862366
 10
309.5318872058
 20
149.27764519
 10
311.1674229149
 20
149.141622619
 10
312.8092186272
 20
149.0508256634
 10
314.4547741588
 20
149.0053925921
 10
316.1015835999
 20
149.0053925921
 10
317.7471391314
 20
149.0508256634
 10
319.3889348438
 20
149.141622619
 10
321.0244705528
 20
149.27764519
 10
322.6512556076
 20
149.4586862366
 10
324.2668126826
 20
149.684470063
 10
325.8686815511
 20
149.9546528378
 10
327.4544228309
 20
150.2688231171
 10
329.0216216997
 20
150.6265024715
 10
330.5678915721
 20
151.0271462142
 10
332.090877734
 20
151.470144231
 10
333.5882609289
 20
151.954821909
 10
335.0577608892
 20
152.4804411639
 10
336.4971398086
 20
153.0462015644
 10
337.9042057507
 20
153.6512415506
 10
339.2768159861
 20
154.2946397466
 10
340.6128802557
 20
154.975416363
 10
341.9103639541
 20
155.6925346892
 10
343.1672912277
 20
156.4449026724
 10
344.3817479836
 20
157.2313745802
 10
345.5518848043
 20
158.0507527457
 10
346.6759197646
 20
158.901789391
 10
347.7521411447
 20
159.7831885277
 10
348.7789100368
 20
160.6936079304
 10
349.7546628414
 20
161.6316611804
 10
350.6779136478
 20
162.5959197774
 10
351.5472564975
 20
163.5849153146
 10
352.3613675245
 20
164.5971417149
 10
353.1190069722
 20
165.6310575245
 10
353.8190210806
 20
166.6850882602
 10
354.4603438436
 20
167.7576288069
 10
355.0419986326
 20
168.8470458625
 10
355.5630996832
 20
169.9516804243
 10
356.0228534444
 20
171.0698503162
 10
356.4205597872
 20
172.1998527499
 10
356.7556130704
 20
173.3399669181
 10
357.027503063
 20
174.4884566149
 10
357.2358157215
 20
175.6435728799
 10
357.3802338201
 20
176.8035566617
 10
357.4605374338
 20
177.9666414964
 10
357.4766042734
 20
179.1310561974
 10
357.4284098718
 20
180.2950275534
 10
357.3160276212
 20
181.4567830279
 10
357.1396286612
 20
182.614553459
 10
356.8994816182
 20
183.7665757533
 10
356.5959521967
 20
184.9110955708
 10
356.2295026218
 20
186.0463699968
 10
355.8006909358
 20
187.1706701954
 10
355.3101701482
 20
188.282284043
 10
354.7586872413
 20
189.379518735
 10
354.1470820324
 20
190.460703364
 10
353.4762858956
 20
191.5241914641
 10
352.7473203426
 20
192.5683635184
 10
351.9612954677
 20
193.591629425
 10
351.1194082572
 20
194.5924309189
 10
350.2229407664
 20
195.5692439443
 10
349.2732581674
 20
196.5205809762
 10
348.2718066702
 20
197.4449932852
 10
347.2201113202
 20
198.3410731439
 10
346.119773676
 20
199.2074559704
 10
344.9724693703
 20
200.0428224066
 10
343.7799455583
 20
200.8459003272
 10
342.544018257
 20
201.615466777
 10
341.2665695799
 20
202.3503498332
 10
339.9495448706
 20
203.0494303902
 10
338.5949497404
 20
203.7116438636
 10
337.2048470143
 20
204.3359818115
 10
335.7813535896
 20
204.9214934702
 10
334.3266372117
 20
205.467287202
 10
332.8429131739
 20
205.9725318532
 10
331.3324409431
 20
206.4364580193
 10
329.7975207193
 20
206.8583592175
 10
328.2404899329
 20
207.2375929617
 10
326.6637196849
 20
207.5735817416
 10
325.0696111363
 20
207.8658139016
 10
323.4605918515
 20
208.1138444204
 10
321.8391121015
 20
208.3172955884
 10
320.2076411324
 20
208.475857583
 10
318.5686634054
 20
208.5892889406
 10
316.9246748132
 20
208.6574169237
 10
315.2781788793
 20
208.6801377848
  0
LWPOLYLINE
  5
2E4
330
1F
100
AcDbEntity
  8
0
  6
Continuous
 62
     8
370
    18
100
AcDbPolyline
 90
      165
 70
   128
 43
0.0
 10
315.2781788793
 20
209.1453010148
 10
313.6021699763
 20
209.1225960688
 10
311.9286208476
 20
209.0545145532
 10
310.2599876571
 20
208.9411563871
 10
308.5987193543
 20
208.7826879393
 10
306.9472540793
 20
208.579341784
 10
305.3080155854
 20
208.3314163598
 10
303.683409681
 20
208.0392755314
 10
302.0758206992
 20
207.7033480558
 10
300.4876079987
 20
207.3241269529
 10
298.9211025005
 20
206.9021687819
 10
297.3786032675
 20
206.4380928246
 10
295.8623741301
 20
205.9325801765
 10
294.3746403636
 20
205.3863727471
 10
292.9175854223
 20
204.8002721712
 10
291.4933477355
 20
204.1751386321
 10
290.1040175683
 20
203.5118895995
 10
288.7516339542
 20
202.8114984829
 10
287.4381817028
 20
202.0749932028
 10
286.1655884864
 20
201.3034546823
 10
284.9357220109
 20
200.4980152604
 10
283.7503872751
 20
199.6598570308
 10
282.611323921
 20
198.790210106
 10
281.5202036814
 20
197.890350813
 10
280.4786279255
 20
196.9615998192
 10
279.4881253094
 20
196.005320195
 10
278.5501495324
 20
195.0229154124
 10
277.6660772031
 20
194.015827286
 10
276.8372058197
 20
192.9855338565
 10
276.0647518652
 20
191.9335472216
 10
275.3498490223
 20
190.8614113167
 10
274.6935465095
 20
189.7706996491
 10
274.0968075413
 20
188.6630129886
 10
273.5605079144
 20
187.539977018
 10
273.0854347224
 20
186.4032399477
 10
272.6722852008
 20
185.2544700959
 10
272.3216657034
 20
184.0953534409
 10
272.0340908128
 20
182.9275911461
 10
271.8099825847
 20
181.7528970638
 10
271.6496699288
 20
180.5729952195
 10
271.5533881261
 20
179.3896172819
 10
271.5212784835
 20
178.2045000212
 10
271.5533881261
 20
177.0193827606
 10
271.6496699288
 20
175.836004823
 10
271.8099825847
 20
174.6561029787
 10
272.0340908128
 20
173.4814088964
 10
272.3216657034
 20
172.3136466016
 10
272.6722852008
 20
171.1545299466
 10
273.0854347224
 20
170.0057600948
 10
273.5605079144
 20
168.8690230244
 10
274.0968075413
 20
167.7459870539
 10
274.6935465095
 20
166.6383003934
 10
275.3498490223
 20
165.5475887258
 10
276.0647518652
 20
164.4754528209
 10
276.8372058197
 20
163.423466186
 10
277.6660772031
 20
162.3931727565
 10
278.5501495324
 20
161.3860846301
 10
279.4881253094
 20
160.4036798475
 10
280.4786279255
 20
159.4474002233
 10
281.5202036814
 20
158.5186492295
 10
282.611323921
 20
157.6187899365
 10
283.7503872751
 20
156.7491430117
 10
284.9357220109
 20
155.9109847821
 10
286.1655884864
 20
155.1055453602
 10
287.4381817028
 20
154.3340068397
 10
288.7516339542
 20
153.5975015595
 10
290.1040175683
 20
152.8971104429
 10
291.4933477355
 20
152.2338614104
 10
292.9175854223
 20
151.6087278713
 10
294.3746403636
 20
151.0226272954
 10
295.8623741301
 20
150.476419866
 10
297.3786032675
 20
149.9709072179
 10
298.9211025005
 20
149.5068312606
 10
300.4876079987
 20
149.0848730896
 10
302.0758206992
 20
148.7056519867
 10
303.683409681
 20
148.3697245111
 10
305.3080155854
 20
148.0775836827
 10
306.9472540793
 20
147.8296582585
 10
308.5987193543
 20
147.6263121032
 10
310.2599876571
 20
147.4678436554
 10
311.9286208476
 20
147.3544854893
 10
313.6021699763
 20
147.2864039737
 10
315.2781788793
 20
147.2636990276
 10
316.9541877823
 20
147.2864039737
 10
318.6277369111
 20
147.3544854893
 10
320.2963701015
 20
147.4678436554
 10
321.9576384044
 20
147.6263121032
 10
323.6091036793
 20
147.8296582585
 10
325.2483421732
 20
148.0775836827
 10
326.8729480777
 20
148.3697245111
 10
328.4805370594
 20
148.7056519867
 10
330.0687497599
 20
149.0848730896
 10
331.6352552581
 20
149.5068312606
 10
333.1777544911
 20
149.9709072179
 10
334.6939836285
 20
150.476419866
 10
336.1817173951
 20
151.0226272954
 10
337.6387723363
 20
151.6087278713
 10
339.0630100231
 20
152.2338614104
 10
340.4523401904
 20
152.8971104429
 10
341.8047238044
 20
153.5975015595
 10
343.1181760558
 20
154.3340068397
 10
344.3907692722
 20
155.1055453602
 10
345.6206357477
 20
155.9109847821
 10
346.8059704835
 20
156.7491430117
 10
347.9450338376
 20
157.6187899365
 10
349.0361540772
 20
158.5186492295
 10
350.0777298331
 20
159.4474002233
 10
351.0682324492
 20
160.4036798475
 10
352.0062082263
 20
161.3860846301
 10
352.8902805555
 20
162.3931727565
 10
353.7191519389
 20
163.423466186
 10
354.4916058934
 20
164.4754528209
 10
355.2065087363
 20
165.5475887258
 10
355.8628112491
 20
166.6383003934
 10
356.4595502173
 20
167.7459870539
 10
356.9958498442
 20
168.8690230244
 10
357.4709230362
 20
170.0057600948
 10
357.8840725578
 20
171.1545299466
 10
358.2346920552
 20
172.3136466016
 10
358.5222669458
 20
173.4814088964
 10
358.7463751739
 20
174.6561029787
 10
358.9066878298
 20
175.836004823
 10
359.0029696325
 20
177.0193827606
 10
359.0350792751
 20
178.2045000212
 10
359.0029696325
 20
179.3896172819
 10
358.9066878298
 20
180.5729952195
 10
358.7463751739
 20
181.7528970638
 10
358.5222669458
 20
182.9275911461
 10
358.2346920552
 20
184.0953534409
 10
357.8840725578
 20
185.2544700959
 10
357.4709230362
 20
186.4032399477
 10
356.9958498442
 20
187.539977018
 10
356.4595502173
 20
188.6630129886
 10
355.8628112491
 20
189.7706996491
 10
355.2065087363
 20
190.8614113167
 10
354.4916058934
 20
191.9335472216
 10
353.7191519389
 20
192.9855338565
 10
352.8902805555
 20
194.015827286
 10
352.0062082263
 20
195.0229154124
 10
351.0682324492
 20
196.005320195
 10
350.0777298331
 20
196.9615998192
 10
349.0361540772
 20
197.890350813
 10
347.9450338376
 20
198.790210106
 10
346.8059704835
 20
199.6598570308
 10
345.6206357477
 20
200.4980152604
 10
344.3907692722
 20
201.3034546823
 10
343.1181760558
 20
202.0749932028
 10
341.8047238044
 20
202.8114984829
 10
340.4523401904
 20
203.5118895995
 10
339.0630100231
 20
204.1751386321
 10
337.6387723363
 20
204.8002721712
 10
336.1817173951
 20
205.3863727471
 10
334.6939836285
 20
205.9325801765
 10
333.1777544911
 20
206.4380928246
 10
331.6352552581
 20
206.9021687819
 10
330.0687497599
 20
207.3241269529
 10
328.4805370594
 20
207.7033480558
 10
326.8729480777
 20
208.0392755314
 10
325.2483421732
 20
208.3314163598
 10
323.6091036793
 20
208.579341784
 10
321.9576384044
 20
208.7826879393
 10
320.2963701015
 20
208.9411563871
 10
318.6277369111
 20
209.0545145532
 10
316.9541877823
 20
209.1225960688
 10
315.2781788793
 20
209.1453010148
  0
LWPOLYLINE
  5
2E5
330
1F
100
AcDbEntity
  8
0
  6
Continuous
 62
     8
370
    18
100
AcDbPolyline
 90
      161
 70
   128
 43
0.0
 10
315.2781788793
 20
208.4208002751
 10
313.6427267504
 20
208.3980907242
 10
312.0097963701
 20
208.3299970881
 10
310.3819055987
 20
208.2166243622
 10
308.7615645259
 20
208.058147359
 10
307.1512716
 20
207.8548104386
 10
305.5535097761
 20
207.6069271318
 10
303.9707426872
 20
207.3148796566
 10
302.4054108452
 20
206.9791183292
 10
300.8599278785
 20
206.6001608691
 10
299.3366768098
 20
206.1785916012
 10
297.8380063819
 20
205.7150605549
 10
296.3662274358
 20
205.2102824614
 10
294.9236093481
 20
204.6650356519
 10
293.5123765313
 20
204.0801608575
 10
292.1347050041
 20
203.4565599128
 10
290.7927190361
 20
202.7951943651
 10
289.4884878725
 20
202.0970839923
 10
288.2240225431
 20
201.3633052299
 10
287.0012727619
 20
200.5949895116
 10
285.8221239204
 20
199.7933215246
 10
284.6883941805
 20
198.9595373827
 10
283.6018316715
 20
198.0949227207
 10
282.564111794
 20
197.2008107117
 10
281.5768346367
 20
196.2785800117
 10
280.6415225095
 20
195.3296526335
 10
279.759617596
 20
194.3554917544
 10
278.9324797295
 20
193.3575994598
 10
278.1613842967
 20
192.3375144273
 10
277.4475202709
 20
191.2968095541
 10
276.7919883786
 20
190.2370895317
 10
276.1957994025
 20
189.1599883716
 10
275.6598726229
 20
188.0671668857
 10
275.1850343999
 20
186.9603101254
 10
274.7720168996
 20
185.8411247838
 10
274.4214569652
 20
184.7113365634
 10
274.1338951347
 20
183.5726875158
 10
273.9097748075
 20
182.4269333554
 10
273.7494415609
 20
181.2758407519
 10
273.6531426172
 20
180.1211846068
 10
273.6210264623
 20
178.9647453161
 10
273.6531426172
 20
177.8083060254
 10
273.7494415609
 20
176.6536498803
 10
273.9097748075
 20
175.5025572769
 10
274.1338951347
 20
174.3568031164
 10
274.4214569652
 20
173.2181540688
 10
274.7720168996
 20
172.0883658485
 10
275.1850343999
 20
170.9691805068
 10
275.6598726229
 20
169.8623237465
 10
276.1957994025
 20
168.7695022606
 10
276.7919883786
 20
167.6924011005
 10
277.4475202709
 20
166.6326810781
 10
278.1613842967
 20
165.5919762049
 10
278.9324797295
 20
164.5718911725
 10
279.759617596
 20
163.5739988779
 10
280.6415225095
 20
162.5998379987
 10
281.5768346367
 20
161.6509106205
 10
282.564111794
 20
160.7286799205
 10
283.6018316715
 20
159.8345679115
 10
284.6883941805
 20
158.9699532495
 10
285.8221239204
 20
158.1361691076
 10
287.0012727619
 20
157.3345011206
 10
288.2240225431
 20
156.5661854023
 10
289.4884878725
 20
155.8324066399
 10
290.7927190361
 20
155.1342962671
 10
292.1347050041
 20
154.4729307194
 10
293.5123765313
 20
153.8493297747
 10
294.9236093481
 20
153.2644549803
 10
296.3662274358
 20
152.7192081708
 10
297.8380063819
 20
152.2144300773
 10
299.3366768098
 20
151.750899031
 10
300.8599278785
 20
151.3293297632
 10
302.4054108452
 20
150.950372303
 10
303.9707426872
 20
150.6146109756
 10
305.5535097761
 20
150.3225635004
 10
307.1512716
 20
150.0746801936
 10
308.7615645259
 20
149.8713432732
 10
310.3819055987
 20
149.71286627
 10
312.0097963701
 20
149.5994935441
 10
313.6427267504
 20
149.531399908
 10
315.2781788793
 20
149.5086903571
 10
316.9136310082
 20
149.531399908
 10
318.5465613885
 20
149.5994935441
 10
320.1744521599
 20
149.71286627
 10
321.7947932328
 20
149.8713432732
 10
323.4050861586
 20
150.0746801936
 10
325.0028479825
 20
150.3225635004
 10
326.5856150715
 20
150.6146109756
 10
328.1509469134
 20
150.950372303
 10
329.6964298801
 20
151.3293297632
 10
331.2196809488
 20
151.750899031
 10
332.7183513768
 20
152.2144300773
 10
334.1901303228
 20
152.7192081708
 10
335.6327484105
 20
153.2644549803
 10
337.0439812273
 20
153.8493297747
 10
338.4216527545
 20
154.4729307194
 10
339.7636387225
 20
155.1342962671
 10
341.0678698861
 20
155.8324066399
 10
342.3323352155
 20
156.5661854023
 10
343.5550849967
 20
157.3345011206
 10
344.7342338383
 20
158.1361691076
 10
345.8679635781
 20
158.9699532495
 10
346.9545260871
 20
159.8345679115
 10
347.9922459646
 20
160.7286799205
 10
348.9795231219
 20
161.6509106205
 10
349.9148352491
 20
162.5998379987
 10
350.7967401626
 20
163.5739988779
 10
351.6238780291
 20
164.5718911725
 10
352.3949734619
 20
165.5919762049
 10
353.1088374878
 20
166.6326810781
 10
353.76436938
 20
167.6924011005
 10
354.3605583561
 20
168.7695022606
 10
354.8964851358
 20
169.8623237465
 10
355.3713233588
 20
170.9691805068
 10
355.784340859
 20
172.0883658485
 10
356.1349007934
 20
173.2181540688
 10
356.4224626239
 20
174.3568031164
 10
356.6465829512
 20
175.5025572769
 10
356.8069161977
 20
176.6536498803
 10
356.9032151414
 20
177.8083060254
 10
356.9353312963
 20
178.9647453161
 10
356.9032151414
 20
180.1211846068
 10
356.8069161977
 20
181.2758407519
 10
356.6465829512
 20
182.4269333554
 10
356.4224626239
 20
183.5726875158
 10
356.1349007934
 20
184.7113365634
 10
355.784340859
 20
185.8411247838
 10
355.3713233588
 20
186.9603101254
 10
354.8964851358
 20
188.0671668857
 10
354.3605583561
 20
189.1599883716
 10
353.76436938
 20
190.2370895317
 10
353.1088374878
 20
191.2968095541
 10
352.3949734619
 20
192.3375144273
 10
351.6238780291
 20
193.3575994598
 10
350.7967401626
 20
194.3554917544
 10
349.9148352491
 20
195.3296526335
 10
348.9795231219
 20
196.2785800117
 10
347.9922459646
 20
197.2008107117
 10
346.9545260871
 20
198.0949227207
 10
345.8679635781
 20
198.9595373827
 10
344.7342338383
 20
199.7933215246
 10
343.5550849967
 20
200.5949895116
 10
342.3323352155
 20
201.3633052299
 10
341.0678698861
 20
202.0970839923
 10
339.7636387225
 20
202.7951943651
 10
338.4216527545
 20
203.4565599128
 10
337.0439812273
 20
204.0801608575
 10
335.6327484105
 20
204.6650356519
 10
334.1901303228
 20
205.2102824614
 10
332.7183513768
 20
205.7150605549
 10
331.2196809488
 20
206.1785916012
 10
329.6964298801
 20
206.6001608691
 10
328.1509469134
 20
206.9791183292
 10
326.5856150715
 20
207.3148796566
 10
325.0028479825
 20
207.6069271318
 10
323.4050861586
 20
207.8548104386
 10
321.7947932328
 20
208.058147359
 10
320.1744521599
 20
208.2166243622
 10
318.5465613885
 20
208.3299970881
 10
316.9136310082
 20
208.3980907242
 10
315.2781788793
 20
208.4208002751
  0
LWPOLYLINE
  5
2E6
330
1F
100
AcDbEntity
  8
0
  6
Continuous
 62
     8
370
    18
100
AcDbPolyline
 90
      160
 70
   128
 43
0.0
 10
315.2781788793
 20
208.0406738859
 10
313.65617855
 20
208.0180094346
 10
312.0367107817
 20
207.9500514686
 10
310.422304181
 20
207.8369060961
 10
308.8154794522
 20
207.6787499802
 10
307.2187454615
 20
207.4758300629
 10
305.6345953192
 20
207.2284631796
 10
304.065502488
 20
206.9370355644
 10
302.5139169199
 20
206.6020022467
 10
300.9822612317
 20
206.2238863414
 10
299.4729269218
 20
205.8032782317
 10
297.9882706367
 20
205.340834647
 10
296.5306104908
 20
204.8372776382
 10
295.1022224476
 20
204.2933934498
 10
293.7053367652
 20
203.7100312924
 10
292.342134515
 20
203.0881020167
 10
291.0147441754
 20
202.4285766915
 10
289.7252383088
 20
201.7324850872
 10
288.4756303256
 20
201.0009140683
 10
287.2678713403
 20
200.2350058961
 10
286.1038471253
 20
199.4359564453
 10
284.985375166
 20
198.6050133368
 10
283.9142018238
 20
197.7434739895
 10
282.8919996086
 20
196.8526835949
 10
281.9203645679
 20
195.9340330164
 10
281.0008137944
 20
194.9889566179
 10
280.1347830575
 20
194.018930024
 10
279.3236245615
 20
193.0254678161
 10
278.5686048339
 20
192.0101211674
 10
277.8709027485
 20
190.9744754213
 10
277.2316076843
 20
189.9201476156
 10
276.6517178246
 20
188.848783958
 10
276.1321385987
 20
187.7620572557
 10
275.6736812677
 20
186.6616643035
 10
275.2770616583
 20
185.5493232343
 10
274.9428990451
 20
184.4267708366
 10
274.6717151833
 20
183.2957598429
 10
274.4639334943
 20
182.1580561924
 10
274.3198784045
 20
181.0154362744
 10
274.2397748388
 20
179.8696841542
 10
274.2237478695
 20
178.7225887878
 10
274.2718225207
 20
177.5759412284
 10
274.3839237297
 20
176.4315318301
 10
274.5598764636
 20
175.2911474523
 10
274.7994059933
 20
174.1565686698
 10
275.1021383216
 20
173.0295669927
 10
275.4676007681
 20
171.9119021004
 10
275.8952227065
 20
170.8053190938
 10
276.384336456
 20
169.7115457711
 10
276.9341783234
 20
168.6322899294
 10
277.543889796
 20
167.5692366985
 10
278.2125188816
 20
166.52404591
 10
278.9390215954
 20
165.4983495052
 10
279.7222635896
 20
164.4937489872
 10
280.5610219247
 20
163.5118129205
 10
281.4539869793
 20
162.5540744817
 10
282.3997644943
 20
161.6220290656
 10
283.3968777505
 20
160.7171319507
 10
284.4437698738
 20
159.8407960262
 10
285.5388062666
 20
158.9943895868
 10
286.6802771594
 20
158.1792341955
 10
287.866400281
 20
157.3966026208
 10
289.0953236409
 20
156.647716849
 10
290.3651284211
 20
155.9337461763
 10
291.6738319723
 20
155.2558053831
 10
293.0193909092
 20
154.6149529936
 10
294.3997043012
 20
154.0121896226
 10
295.8126169529
 20
153.4484564137
 10
297.2559227688
 20
152.9246335692
 10
298.7273681982
 20
152.4415389764
 10
300.2246557538
 20
151.9999269302
 10
301.7454475988
 20
151.6004869553
 10
303.2873691973
 20
151.2438427298
 10
304.8480130217
 20
150.9305511114
 10
306.424942312
 20
150.6611012678
 10
308.0156948802
 20
150.4359139128
 10
309.617786955
 20
150.2553406498
 10
311.22871706
 20
150.1196634225
 10
312.8459699188
 20
150.0290940749
 10
314.4670203832
 20
149.9837740201
 10
316.0893373754
 20
149.9837740201
 10
317.7103878398
 20
150.0290940749
 10
319.3276406987
 20
150.1196634225
 10
320.9385708036
 20
150.2553406498
 10
322.5406628785
 20
150.4359139128
 10
324.1314154467
 20
150.6611012678
 10
325.7083447369
 20
150.9305511114
 10
327.2689885613
 20
151.2438427298
 10
328.8109101598
 20
151.6004869553
 10
330.3317020048
 20
151.9999269302
 10
331.8289895604
 20
152.4415389764
 10
333.3004349899
 20
152.9246335692
 10
334.7437408058
 20
153.4484564137
 10
336.1566534574
 20
154.0121896226
 10
337.5369668494
 20
154.6149529936
 10
338.8825257863
 20
155.2558053831
 10
340.1912293375
 20
155.9337461763
 10
341.4610341177
 20
156.647716849
 10
342.6899574776
 20
157.3966026208
 10
343.8760805992
 20
158.1792341955
 10
345.017551492
 20
158.9943895868
 10
346.1125878848
 20
159.8407960262
 10
347.1594800081
 20
160.7171319507
 10
348.1565932643
 20
161.6220290656
 10
349.1023707794
 20
162.5540744817
 10
349.9953358339
 20
163.5118129205
 10
350.8340941691
 20
164.4937489872
 10
351.6173361632
 20
165.4983495052
 10
352.343838877
 20
166.52404591
 10
353.0124679626
 20
167.5692366985
 10
353.6221794352
 20
168.6322899294
 10
354.1720213026
 20
169.7115457711
 10
354.6611350521
 20
170.8053190938
 10
355.0887569905
 20
171.9119021004
 10
355.454219437
 20
173.0295669927
 10
355.7569517654
 20
174.1565686698
 10
355.996481295
 20
175.2911474523
 10
356.1724340289
 20
176.4315318301
 10
356.2845352379
 20
177.5759412284
 10
356.3326098891
 20
178.7225887878
 10
356.3165829198
 20
179.8696841542
 10
356.2364793542
 20
181.0154362744
 10
356.0924242644
 20
182.1580561924
 10
355.8846425753
 20
183.2957598429
 10
355.6134587135
 20
184.4267708366
 10
355.2792961003
 20
185.5493232343
 10
354.882676491
 20
186.6616643035
 10
354.42421916
 20
187.7620572557
 10
353.904639934
 20
188.848783958
 10
353.3247500743
 20
189.9201476156
 10
352.6854550101
 20
190.9744754213
 10
351.9877529247
 20
192.0101211674
 10
351.2327331971
 20
193.0254678161
 10
350.4215747011
 20
194.018930024
 10
349.5555439642
 20
194.9889566179
 10
348.6359931907
 20
195.9340330164
 10
347.66435815
 20
196.8526835949
 10
346.6421559348
 20
197.7434739895
 10
345.5709825926
 20
198.6050133368
 10
344.4525106334
 20
199.4359564453
 10
343.2884864183
 20
200.2350058962
 10
342.080727433
 20
201.0009140683
 10
340.8311194498
 20
201.7324850872
 10
339.5416135832
 20
202.4285766915
 10
338.2142232436
 20
203.0881020167
 10
336.8510209934
 20
203.7100312924
 10
335.454135311
 20
204.2933934498
 10
334.0257472678
 20
204.8372776382
 10
332.5680871219
 20
205.340834647
 10
331.0834308368
 20
205.8032782317
 10
329.5740965269
 20
206.2238863414
 10
328.0424408387
 20
206.6020022467
 10
326.4908552706
 20
206.9370355644
 10
324.9217624394
 20
207.2284631796
 10
323.3376122972
 20
207.4758300629
 10
321.7408783064
 20
207.6787499802
 10
320.1340535776
 20
207.8369060961
 10
318.5196469769
 20
207.9500514686
 10
316.9001792086
 20
208.0180094346
 10
315.2781788793
 20
208.0406738859
  0
LWPOLYLINE
  5
2E7
330
1F
100
AcDbEntity
  8
0
  6
Continuous
 62
     8
370
    18
100
AcDbPolyline
 90
       77
 70
   128
 43
0.0
 10
272.3665932945
 20
171.8016176989
 10
272.4269818599
 20
171.5162686431
 10
272.7119440096
 20
170.3591159685
 10
273.0593779787
 20
169.2105303843
 10
273.4687738601
 20
168.0721975983
 10
273.9395308089
 20
166.9457882707
 10
274.4709579242
 20
165.8329555626
 10
275.0622752635
 20
164.7353327094
 10
275.712614987
 20
163.6545306241
 10
276.4210226316
 20
162.5921355327
 10
277.1864585113
 20
161.5497066466
 10
278.0077992435
 20
160.5287738738
 10
278.8838393973
 20
159.5308355741
 10
279.813293263
 20
158.5573563594
 10
280.7947967389
 20
157.6097649448
 10
281.8269093333
 20
156.6894520513
 10
282.9081162786
 20
155.797768365
 10
284.0368307546
 20
154.9360225548
 10
285.2113962171
 20
154.1054793513
 10
286.4300888293
 20
153.3073576913
 10
287.6911199917
 20
152.5428289284
 10
288.9926389673
 20
151.813015114
 10
290.3327355974
 20
151.1189873504
 10
291.7094431055
 20
150.4617642192
 10
293.1207409835
 20
149.8423102858
 10
294.564557957
 20
149.2615346845
 10
296.0387750256
 20
148.7202897833
 10
297.5412285724
 20
148.219369934
 10
299.0697135397
 20
147.7595103054
 10
300.621986665
 20
147.3413858049
 10
302.1957697734
 20
146.965610088
 10
303.7887531213
 20
146.6327346573
 10
305.3985987858
 20
146.3432480533
 10
307.0229440965
 20
146.0975751377
 10
308.6594051026
 20
145.8960764693
 10
310.305580072
 20
145.7390477751
 10
311.9590530158
 20
145.6267195165
 10
313.6173972345
 20
145.5592565507
 10
315.2781788793
 20
145.5367578887
 10
316.9389605241
 20
145.5592565507
 10
318.5973047428
 20
145.6267195165
 10
320.2507776867
 20
145.7390477751
 10
321.896952656
 20
145.8960764693
 10
323.5334136621
 20
146.0975751377
 10
325.1577589728
 20
146.3432480533
 10
326.7676046373
 20
146.6327346573
 10
328.3605879852
 20
146.965610088
 10
329.9343710936
 20
147.3413858049
 10
331.4866442189
 20
147.7595103054
 10
333.0151291862
 20
148.219369934
 10
334.5175827331
 20
148.7202897833
 10
335.9917998017
 20
149.2615346845
 10
337.4356167752
 20
149.8423102858
 10
338.8469146531
 20
150.4617642192
 10
340.2236221612
 20
151.1189873504
 10
341.5637187913
 20
151.813015114
 10
342.8652377669
 20
152.5428289284
 10
344.1262689293
 20
153.3073576913
 10
345.3449615415
 20
154.1054793513
 10
346.519527004
 20
154.9360225548
 10
347.64824148
 20
155.797768365
 10
348.7294484253
 20
156.6894520513
 10
349.7615610197
 20
157.6097649448
 10
350.7430644956
 20
158.5573563594
 10
351.6725183613
 20
159.5308355741
 10
352.5485585151
 20
160.5287738738
 10
353.3698992473
 20
161.5497066466
 10
354.135335127
 20
162.5921355327
 10
354.8437427716
 20
163.6545306241
 10
355.4940824952
 20
164.7353327094
 10
356.0853998345
 20
165.8329555626
 10
356.6168269498
 20
166.9457882707
 10
357.0875838985
 20
168.0721975983
 10
357.4969797799
 20
169.2105303843
 10
357.8444137491
 20
170.3591159685
 10
358.1293758987
 20
171.5162686431
 10
358.1897644641
 20
171.8016176989
  0
LWPOLYLINE
  5
2E8
330
1F
100
AcDbEntity
  8
0
  6
Continuous
 62
     8
370
    18
100
AcDbPolyline
 90
      159
 70
   128
 43
0.0
 10
315.2781788793
 20
207.72248702
 10
316.8929634394
 20
207.6997805504
 10
318.5051946932
 20
207.6316970453
 10
320.1123233717
 20
207.5183441587
 10
321.7118082742
 20
207.3599011248
 10
323.3011202861
 20
207.1566184746
 10
324.8777463786
 20
206.9088176397
 10
326.4391935818
 20
206.6168904443
 10
327.9829929266
 20
206.2812984852
 10
329.506703349
 20
205.9025724022
 10
331.0079155496
 20
205.4813110392
 10
332.4842558033
 20
205.018180497
 10
333.9333897128
 20
204.5139130801
 10
335.3530258995
 20
203.969306139
 10
336.7409196267
 20
203.3852208092
 10
338.0948763493
 20
202.7625806497
 10
339.4127551833
 20
202.1023701825
 10
340.6924722914
 20
201.4056333361
 10
341.9320041778
 20
200.6734717946
 10
343.1293908878
 20
199.9070432559
 10
344.282739107
 20
199.1075596012
 10
345.3902251547
 20
198.2762849783
 10
346.4500978679
 20
197.4145338034
 10
347.4606813699
 20
196.5236686821
 10
348.4203777205
 20
195.6050982554
 10
349.3276694424
 20
194.6602749718
 10
350.1811219211
 20
193.6906927913
 10
350.9793856727
 20
192.6978848224
 10
351.7211984782
 20
191.6834208988
 10
352.405387379
 20
190.6489050963
 10
353.0308705318
 20
189.5959731971
 10
353.5966589192
 20
188.526290103
 10
354.1018579134
 20
187.4415472027
 10
354.5456686911
 20
186.3434596979
 10
354.9273894962
 20
185.2337638904
 10
355.2464167495
 20
184.1142144376
 10
355.5022460035
 20
182.9865815771
 10
355.6944727395
 20
181.8526483284
 10
355.8227930075
 20
180.714207673
 10
355.8870039069
 20
179.5730597195
 10
355.8870039069
 20
178.4310088574
 10
355.8227930075
 20
177.2898609039
 10
355.6944727395
 20
176.1514202485
 10
355.5022460035
 20
175.0174869998
 10
355.2464167495
 20
173.8898541394
 10
354.9273894962
 20
172.7703046865
 10
354.5456686911
 20
171.6606088791
 10
354.1018579134
 20
170.5625213742
 10
353.5966589192
 20
169.477778474
 10
353.0308705318
 20
168.4080953798
 10
352.405387379
 20
167.3551634806
 10
351.7211984782
 20
166.3206476781
 10
350.9793856727
 20
165.3061837545
 10
350.1811219211
 20
164.3133757857
 10
349.3276694424
 20
163.3437936051
 10
348.4203777205
 20
162.3989703215
 10
347.4606813699
 20
161.4803998948
 10
346.4500978679
 20
160.5895347735
 10
345.3902251547
 20
159.7277835986
 10
344.282739107
 20
158.8965089757
 10
343.1293908878
 20
158.097025321
 10
341.9320041778
 20
157.3305967823
 10
340.6924722914
 20
156.5984352409
 10
339.4127551833
 20
155.9016983944
 10
338.0948763493
 20
155.2414879272
 10
336.7409196267
 20
154.6188477677
 10
335.3530258995
 20
154.0347624379
 10
333.9333897128
 20
153.4901554968
 10
332.4842558033
 20
152.9858880799
 10
331.0079155496
 20
152.5227575377
 10
329.506703349
 20
152.1014961747
 10
327.9829929266
 20
151.7227700917
 10
326.4391935818
 20
151.3871781326
 10
324.8777463786
 20
151.0952509372
 10
323.3011202861
 20
150.8474501023
 10
321.7118082742
 20
150.6441674521
 10
320.1123233717
 20
150.4857244182
 10
318.5051946932
 20
150.3723715316
 10
316.8929634394
 20
150.3042880265
 10
315.2781788793
 20
150.281581557
 10
313.6633943192
 20
150.3042880265
 10
312.0511630654
 20
150.3723715316
 10
310.4440343869
 20
150.4857244182
 10
308.8445494844
 20
150.6441674521
 10
307.2552374725
 20
150.8474501023
 10
305.67861138
 20
151.0952509372
 10
304.1171641768
 20
151.3871781326
 10
302.573364832
 20
151.7227700917
 10
301.0496544096
 20
152.1014961747
 10
299.548442209
 20
152.5227575377
 10
298.0721019553
 20
152.9858880799
 10
296.6229680458
 20
153.4901554968
 10
295.2033318591
 20
154.0347624379
 10
293.8154381319
 20
154.6188477677
 10
292.4614814093
 20
155.2414879272
 10
291.1436025754
 20
155.9016983944
 10
289.8638854673
 20
156.5984352409
 10
288.6243535808
 20
157.3305967823
 10
287.4269668708
 20
158.097025321
 10
286.2736186516
 20
158.8965089757
 10
285.1661326039
 20
159.7277835986
 10
284.1062598907
 20
160.5895347735
 10
283.0956763888
 20
161.4803998948
 10
282.1359800382
 20
162.3989703215
 10
281.2286883162
 20
163.3437936051
 10
280.3752358375
 20
164.3133757857
 10
279.5769720859
 20
165.3061837545
 10
278.8351592804
 20
166.3206476781
 10
278.1509703797
 20
167.3551634806
 10
277.5254872269
 20
168.4080953798
 10
276.9596988395
 20
169.477778474
 10
276.4544998452
 20
170.5625213742
 10
276.0106890675
 20
171.6606088791
 10
275.6289682624
 20
172.7703046865
 10
275.3099410091
 20
173.8898541394
 10
275.0541117551
 20
175.0174869998
 10
274.8618850191
 20
176.1514202485
 10
274.7335647511
 20
177.2898609039
 10
274.6693538518
 20
178.4310088574
 10
274.6693538518
 20
179.5730597195
 10
274.7335647511
 20
180.714207673
 10
274.8618850191
 20
181.8526483284
 10
275.0541117551
 20
182.9865815771
 10
275.3099410091
 20
184.1142144376
 10
275.6289682624
 20
185.2337638904
 10
276.0106890675
 20
186.3434596979
 10
276.4544998452
 20
187.4415472027
 10
276.9596988395
 20
188.526290103
 10
277.5254872269
 20
189.5959731971
 10
278.1509703797
 20
190.6489050963
 10
278.8351592804
 20
191.6834208988
 10
279.5769720859
 20
192.6978848224
 10
280.3752358375
 20
193.6906927913
 10
281.2286883162
 20
194.6602749718
 10
282.1359800382
 20
195.6050982554
 10
283.0956763888
 20
196.5236686821
 10
284.1062598907
 20
197.4145338034
 10
285.1661326039
 20
198.2762849783
 10
286.2736186516
 20
199.1075596012
 10
287.4269668708
 20
199.9070432559
 10
288.6243535808
 20
200.6734717946
 10
289.8638854673
 20
201.4056333361
 10
291.1436025754
 20
202.1023701825
 10
292.4614814093
 20
202.7625806497
 10
293.8154381319
 20
203.3852208092
 10
295.2033318591
 20
203.969306139
 10
296.6229680458
 20
204.5139130801
 10
298.0721019553
 20
205.018180497
 10
299.548442209
 20
205.4813110392
 10
301.0496544096
 20
205.9025724022
 10
302.573364832
 20
206.2812984852
 10
304.1171641768
 20
206.6168904443
 10
305.67861138
 20
206.9088176397
 10
307.2552374725
 20
207.1566184746
 10
308.8445494844
 20
207.3599011248
 10
310.4440343869
 20
207.5183441587
 10
312.0511630654
 20
207.6316970453
 10
313.6633943192
 20
207.6997805504
 10
315.2781788793
 20
207.72248702
  0
LWPOLYLINE
  5
2E9
330
1F
100
AcDbEntity
  8
0
  6
Continuous
 62
     8
370
    18
100
AcDbPolyline
 90
      157
 70
   128
 43
0.0
 10
315.2781788793
 20
206.9383825475
 10
313.6814209979
 20
206.9156416259
 10
312.0872530636
 20
206.847455747
 10
310.4982608226
 20
206.7339355085
 10
308.9170216262
 20
206.5752650407
 10
307.3461002502
 20
206.3717017076
 10
305.7880447347
 20
206.1235756898
 10
304.2453822514
 20
205.8312894485
 10
302.7206150047
 20
205.495317073
 10
301.2162161724
 20
205.1162035119
 10
299.7346258951
 20
204.6945636886
 10
298.2782473176
 20
204.2310815045
 10
296.8494426912
 20
203.7265087295
 10
295.4505295424
 20
203.1816637824
 10
294.0837769132
 20
202.5974304036
 10
292.7514016816
 20
201.974756222
 10
291.4555649649
 20
201.3146512172
 10
290.1983686152
 20
200.618186082
 10
288.9818518094
 20
199.8864904854
 10
287.8079877422
 20
199.1207512404
 10
286.6786804256
 20
198.3222103787
 10
285.5957616
 20
197.4921631367
 10
284.5609877638
 20
196.6319558539
 10
283.5760373239
 20
195.7429837897
 10
282.6425078735
 20
194.82668886
 10
281.7619136009
 20
193.8845572986
 10
280.9356828331
 20
192.9181172464
 10
280.1651557195
 20
191.9289362725
 10
279.4515820578
 20
190.9186188322
 10
278.7961192672
 20
189.8888036641
 10
278.1998305107
 20
188.8411611321
 10
277.6636829708
 20
187.7773905162
 10
277.1885462809
 20
186.6992172563
 10
276.7751911143
 20
185.6083901533
 10
276.4242879347
 20
184.5066785328
 10
276.1364059083
 20
183.3958693751
 10
275.9120119808
 20
182.2777644166
 10
275.7514701199
 20
181.1541772278
 10
275.6550407252
 20
180.0269302711
 10
275.6228802054
 20
178.8978519452
 10
275.6550407252
 20
177.7687736194
 10
275.7514701199
 20
176.6415266627
 10
275.9120119808
 20
175.5179394738
 10
276.1364059083
 20
174.3998345154
 10
276.4242879347
 20
173.2890253577
 10
276.7751911143
 20
172.1873137372
 10
277.1885462809
 20
171.0964866342
 10
277.6636829708
 20
170.0183133743
 10
278.1998305107
 20
168.9545427584
 10
278.7961192672
 20
167.9069002264
 10
279.4515820578
 20
166.8770850582
 10
280.1651557195
 20
165.8667676179
 10
280.9356828331
 20
164.8775866441
 10
281.7619136009
 20
163.9111465918
 10
282.6425078735
 20
162.9690150304
 10
283.5760373239
 20
162.0527201008
 10
284.5609877638
 20
161.1637480366
 10
285.5957616
 20
160.3035407538
 10
286.6786804256
 20
159.4734935117
 10
287.8079877422
 20
158.67495265
 10
288.9818518094
 20
157.909213405
 10
290.1983686152
 20
157.1775178084
 10
291.4555649649
 20
156.4810526732
 10
292.7514016816
 20
155.8209476685
 10
294.0837769132
 20
155.1982734868
 10
295.4505295424
 20
154.6140401081
 10
296.8494426912
 20
154.0691951609
 10
298.2782473176
 20
153.5646223859
 10
299.7346258951
 20
153.1011402018
 10
301.2162161724
 20
152.6795003786
 10
302.7206150047
 20
152.3003868174
 10
304.2453822514
 20
151.964414442
 10
305.7880447347
 20
151.6721282007
 10
307.3461002502
 20
151.4240021828
 10
308.9170216262
 20
151.2204388497
 10
310.4982608226
 20
151.0617683819
 10
312.0872530636
 20
150.9482481434
 10
313.6814209979
 20
150.8800622645
 10
315.2781788793
 20
150.857321343
 10
316.8749367607
 20
150.8800622645
 10
318.469104695
 20
150.9482481434
 10
320.058096936
 20
151.0617683819
 10
321.6393361324
 20
151.2204388497
 10
323.2102575084
 20
151.4240021828
 10
324.768313024
 20
151.6721282007
 10
326.3109755072
 20
151.964414442
 10
327.835742754
 20
152.3003868174
 10
329.3401415862
 20
152.6795003786
 10
330.8217318635
 20
153.1011402018
 10
332.278110441
 20
153.5646223859
 10
333.7069150674
 20
154.0691951609
 10
335.1058282162
 20
154.6140401081
 10
336.4725808454
 20
155.1982734868
 10
337.804956077
 20
155.8209476685
 10
339.1007927937
 20
156.4810526732
 10
340.3579891435
 20
157.1775178084
 10
341.5745059493
 20
157.909213405
 10
342.7483700164
 20
158.67495265
 10
343.8776773331
 20
159.4734935117
 10
344.9605961586
 20
160.3035407538
 10
345.9953699948
 20
161.1637480366
 10
346.9803204347
 20
162.0527201008
 10
347.9138498851
 20
162.9690150304
 10
348.7944441577
 20
163.9111465918
 10
349.6206749255
 20
164.8775866441
 10
350.3912020392
 20
165.8667676179
 10
351.1047757008
 20
166.8770850582
 10
351.7602384914
 20
167.9069002264
 10
352.3565272479
 20
168.9545427584
 10
352.8926747878
 20
170.0183133743
 10
353.3678114777
 20
171.0964866342
 10
353.7811666443
 20
172.1873137372
 10
354.1320698239
 20
173.2890253577
 10
354.4199518503
 20
174.3998345154
 10
354.6443457779
 20
175.5179394738
 10
354.8048876387
 20
176.6415266627
 10
354.9013170334
 20
177.7687736194
 10
354.9334775532
 20
178.8978519452
 10
354.9013170334
 20
180.0269302711
 10
354.8048876387
 20
181.1541772278
 10
354.6443457779
 20
182.2777644166
 10
354.4199518503
 20
183.3958693751
 10
354.1320698239
 20
184.5066785328
 10
353.7811666443
 20
185.6083901533
 10
353.3678114777
 20
186.6992172563
 10
352.8926747878
 20
187.7773905162
 10
352.3565272479
 20
188.8411611321
 10
351.7602384914
 20
189.8888036641
 10
351.1047757008
 20
190.9186188322
 10
350.3912020392
 20
191.9289362725
 10
349.6206749255
 20
192.9181172464
 10
348.7944441577
 20
193.8845572986
 10
347.9138498851
 20
194.82668886
 10
346.9803204347
 20
195.7429837897
 10
345.9953699948
 20
196.6319558539
 10
344.9605961586
 20
197.4921631367
 10
343.8776773331
 20
198.3222103787
 10
342.7483700164
 20
199.1207512404
 10
341.5745059493
 20
199.8864904854
 10
340.3579891435
 20
200.618186082
 10
339.1007927937
 20
201.3146512172
 10
337.804956077
 20
201.974756222
 10
336.4725808454
 20
202.5974304036
 10
335.1058282162
 20
203.1816637824
 10
333.7069150674
 20
203.7265087295
 10
332.278110441
 20
204.2310815045
 10
330.8217318635
 20
204.6945636886
 10
329.3401415862
 20
205.1162035119
 10
327.835742754
 20
205.495317073
 10
326.3109755072
 20
205.8312894485
 10
324.768313024
 20
206.1235756898
 10
323.2102575084
 20
206.3717017076
 10
321.6393361324
 20
206.5752650407
 10
320.058096936
 20
206.7339355085
 10
318.469104695
 20
206.847455747
 10
316.8749367607
 20
206.9156416259
 10
315.2781788793
 20
206.9383825475
  0
LWPOLYLINE
  5
2EA
330
1F
100
AcDbEntity
  8
0
  6
Continuous
 62
     8
370
    18
100
AcDbPolyline
 90
       81
 70
   128
 43
0.0
 10
358.6779518639
 20
173.9089798237
 10
358.652983876
 20
173.6664657854
 10
358.4936034535
 20
172.4934251832
 10
358.2707984362
 20
171.3255620594
 10
357.9848958211
 20
170.1645904141
 10
357.6363152096
 20
169.0122141333
 10
357.225568192
 20
167.8701244881
 10
356.7532575961
 20
166.7399976526
 10
356.2200766028
 20
165.6234922437
 10
355.6268077288
 20
164.522246887
 10
354.9743216779
 20
163.4378778121
 10
354.2635760635
 20
162.3719764801
 10
353.4956140026
 20
161.3261072481
 10
352.6715625856
 20
160.3018050735
 10
351.7926312216
 20
159.3005732609
 10
350.8601098634
 20
158.3238812561
 10
349.8753671148
 20
157.3731624894
 10
348.8398482216
 20
156.4498122716
 10
347.7550729505
 20
155.5551857464
 10
346.6226333589
 20
154.6905959017
 10
345.4441914579
 20
153.8573116423
 10
344.2214767737
 20
153.0565559278
 10
342.9562838085
 20
152.2895039776
 10
341.6504694077
 20
151.5572815461
 10
340.3059500337
 20
150.8609632709
 10
338.9246989543
 20
150.2015710949
 10
337.5087433459
 20
149.5800727672
 10
336.0601613186
 20
148.9973804222
 10
334.5810788662
 20
148.4543492412
 10
333.0736667463
 20
147.9517761976
 10
331.540137294
 20
147.4903988864
 10
329.9827411751
 20
147.0708944425
 10
328.4037640834
 20
146.6938785465
 10
326.8055233854
 20
146.3599045213
 10
325.1903647197
 20
146.0694625198
 10
323.5606585545
 20
145.8229788057
 10
321.9187967082
 20
145.6208151278
 10
320.2671888394
 20
145.4632681891
 10
318.6082589106
 20
145.3505692116
 10
316.9444416301
 20
145.2828835966
 10
315.2781788793
 20
145.260310682
 10
313.6119161285
 20
145.2828835966
 10
311.948098848
 20
145.3505692116
 10
310.2891689192
 20
145.4632681891
 10
308.6375610505
 20
145.6208151278
 10
306.9956992041
 20
145.8229788057
 10
305.3659930389
 20
146.0694625198
 10
303.7508343732
 20
146.3599045213
 10
302.1525936752
 20
146.6938785465
 10
300.5736165835
 20
147.0708944425
 10
299.0162204647
 20
147.4903988864
 10
297.4826910123
 20
147.9517761976
 10
295.9752788924
 20
148.4543492412
 10
294.49619644
 20
148.9973804222
 10
293.0476144127
 20
149.5800727672
 10
291.6316588043
 20
150.2015710949
 10
290.2504077249
 20
150.8609632709
 10
288.905888351
 20
151.5572815461
 10
287.6000739501
 20
152.2895039776
 10
286.3348809849
 20
153.0565559278
 10
285.1121663007
 20
153.8573116423
 10
283.9337243998
 20
154.6905959017
 10
282.8012848081
 20
155.5551857464
 10
281.7165095371
 20
156.4498122716
 10
280.6809906438
 20
157.3731624894
 10
279.6962478952
 20
158.3238812561
 10
278.7637265371
 20
159.3005732609
 10
277.884795173
 20
160.3018050735
 10
277.060743756
 20
161.3261072481
 10
276.2927816951
 20
162.3719764801
 10
275.5820360807
 20
163.4378778121
 10
274.9295500298
 20
164.522246887
 10
274.3362811558
 20
165.6234922437
 10
273.8031001625
 20
166.7399976526
 10
273.3307895666
 20
167.8701244881
 10
272.920042549
 20
169.0122141333
 10
272.5714619376
 20
170.1645904141
 10
272.2855593224
 20
171.3255620594
 10
272.0627543051
 20
172.4934251832
 10
271.9033738827
 20
173.6664657854
 10
271.8784058947
 20
173.9089798237
  0
LWPOLYLINE
  5
2EB
330
1F
100
AcDbEntity
  8
0
  6
Continuous
 62
     8
370
    18
100
AcDbPolyline
 90
       85
 70
   128
 43
0.0
 10
359.0136448857
 20
176.8856439793
 10
359.0350792751
 20
175.9173089503
 10
359.0029696325
 20
174.7321916897
 10
358.9066878298
 20
173.5488137521
 10
358.7463751739
 20
172.3689119078
 10
358.5222669458
 20
171.1942178255
 10
358.2346920552
 20
170.0264555307
 10
357.8840725578
 20
168.8673388757
 10
357.4709230362
 20
167.7185690239
 10
356.9958498442
 20
166.5818319535
 10
356.4595502173
 20
165.458795983
 10
355.8628112491
 20
164.3511093225
 10
355.2065087363
 20
163.2603976549
 10
354.4916058934
 20
162.18826175
 10
353.7191519389
 20
161.136275115
 10
352.8902805555
 20
160.1059816856
 10
352.0062082263
 20
159.0988935592
 10
351.0682324492
 20
158.1164887766
 10
350.0777298331
 20
157.1602091524
 10
349.0361540772
 20
156.2314581586
 10
347.9450338376
 20
155.3315988656
 10
346.8059704835
 20
154.4619519408
 10
345.6206357477
 20
153.6237937111
 10
344.3907692722
 20
152.8183542893
 10
343.1181760558
 20
152.0468157688
 10
341.8047238044
 20
151.3103104886
 10
340.4523401903
 20
150.609919372
 10
339.0630100231
 20
149.9466703395
 10
337.6387723363
 20
149.3215368004
 10
336.1817173951
 20
148.7354362245
 10
334.6939836285
 20
148.1892287951
 10
333.1777544911
 20
147.683716147
 10
331.6352552581
 20
147.2196401897
 10
330.0687497599
 20
146.7976820187
 10
328.4805370594
 20
146.4184609158
 10
326.8729480777
 20
146.0825334401
 10
325.2483421732
 20
145.7903926118
 10
323.6091036793
 20
145.5424671876
 10
321.9576384044
 20
145.3391210323
 10
320.2963701015
 20
145.1806525845
 10
318.6277369111
 20
145.0672944184
 10
316.9541877823
 20
144.9992129028
 10
315.2781788793
 20
144.9765079567
 10
313.6021699763
 20
144.9992129028
 10
311.9286208476
 20
145.0672944184
 10
310.2599876571
 20
145.1806525845
 10
308.5987193543
 20
145.3391210323
 10
306.9472540793
 20
145.5424671876
 10
305.3080155854
 20
145.7903926118
 10
303.683409681
 20
146.0825334401
 10
302.0758206992
 20
146.4184609158
 10
300.4876079987
 20
146.7976820187
 10
298.9211025005
 20
147.2196401897
 10
297.3786032676
 20
147.683716147
 10
295.8623741301
 20
148.1892287951
 10
294.3746403636
 20
148.7354362245
 10
292.9175854223
 20
149.3215368004
 10
291.4933477355
 20
149.9466703395
 10
290.1040175683
 20
150.609919372
 10
288.7516339542
 20
151.3103104886
 10
287.4381817028
 20
152.0468157688
 10
286.1655884864
 20
152.8183542893
 10
284.9357220109
 20
153.6237937111
 10
283.7503872751
 20
154.4619519408
 10
282.6113239211
 20
155.3315988656
 10
281.5202036814
 20
156.2314581586
 10
280.4786279255
 20
157.1602091524
 10
279.4881253094
 20
158.1164887766
 10
278.5501495324
 20
159.0988935592
 10
277.6660772031
 20
160.1059816856
 10
276.8372058197
 20
161.1362751151
 10
276.0647518652
 20
162.18826175
 10
275.3498490223
 20
163.2603976549
 10
274.6935465096
 20
164.3511093225
 10
274.0968075414
 20
165.458795983
 10
273.5605079144
 20
166.5818319535
 10
273.0854347225
 20
167.7185690239
 10
272.6722852008
 20
168.8673388757
 10
272.3216657035
 20
170.0264555307
 10
272.0340908128
 20
171.1942178255
 10
271.8099825847
 20
172.3689119078
 10
271.6496699288
 20
173.5488137521
 10
271.5533881262
 20
174.7321916897
 10
271.5212784835
 20
175.9173089503
 10
271.542712873
 20
176.8856439793
  0
LWPOLYLINE
  5
2EC
330
1F
100
AcDbEntity
  8
0
  6
Continuous
 62
     8
370
    18
100
AcDbPolyline
 90
       40
 70
   128
 43
0.0
 10
315.2781788793
 20
206.4876367048
 10
316.8630805167
 20
206.465064639
 10
318.4454114378
 20
206.3973850538
 10
320.0226050961
 20
206.2847077256
 10
321.5921032777
 20
206.1272154175
 10
323.1513602509
 20
205.9251635826
 10
324.6978468951
 20
205.6788799496
 10
326.2290548034
 20
205.3887639916
 10
327.7425003508
 20
205.0552862777
 10
329.2357287232
 20
204.67898771
 10
330.7063178988
 20
204.2604786461
 10
332.1518825764
 20
203.8004379092
 10
333.570078045
 20
203.2996116871
 10
334.9586039862
 20
202.7588123218
 10
336.3152082059
 20
202.1789169918
 10
337.6376902871
 20
201.5608662895
 10
338.923905159
 20
200.9056626953
 10
340.1717665765
 20
200.2143689519
 10
341.3792505037
 20
199.4881063403
 10
342.5443983972
 20
198.7280528611
 10
343.665320383
 20
197.9354413238
 10
344.7401983214
 20
197.1115573472
 10
345.7672887566
 20
196.2577372741
 10
346.7449257441
 20
195.3753660038
 10
347.6715235531
 20
194.4658747458
 10
348.5455792385
 20
193.5307386982
 10
349.3656750789
 20
192.5714746551
 10
350.1304808759
 20
191.5896385462
 10
350.8387561115
 20
190.5868229133
 10
351.4893519609
 20
189.5646543271
 10
352.081213155
 20
188.5247907488
 10
352.613379693
 20
187.4689188408
 10
353.0849883988
 20
186.3987512312
 10
353.4952743213
 20
185.3160237359
 10
353.8435719751
 20
184.2224925427
 10
354.1293164204
 20
183.1199313634
 10
354.3520441785
 20
182.0101285561
 10
354.5113939842
 20
180.8948842251
 10
354.6071073715
 20
179.7760073007
 10
354.639029093
 20
178.6553126054
  0
LWPOLYLINE
  5
2ED
330
1F
100
AcDbEntity
  8
0
  6
Continuous
 62
     8
370
    18
100
AcDbPolyline
 90
       40
 70
   128
 43
0.0
 10
275.9173286656
 20
178.6553126054
 10
275.9492503871
 20
179.7760073007
 10
276.0449637744
 20
180.8948842251
 10
276.2043135801
 20
182.0101285561
 10
276.4270413382
 20
183.1199313634
 10
276.7127857835
 20
184.2224925427
 10
277.0610834374
 20
185.3160237359
 10
277.4713693598
 20
186.3987512312
 10
277.9429780656
 20
187.4689188408
 10
278.4751446036
 20
188.5247907488
 10
279.0670057978
 20
189.5646543271
 10
279.7176016471
 20
190.5868229133
 10
280.4258768827
 20
191.5896385462
 10
281.1906826797
 20
192.5714746551
 10
282.0107785201
 20
193.5307386982
 10
282.8848342056
 20
194.4658747458
 10
283.8114320145
 20
195.3753660038
 10
284.789069002
 20
196.2577372741
 10
285.8161594372
 20
197.1115573472
 10
286.8910373756
 20
197.9354413238
 10
288.0119593614
 20
198.7280528611
 10
289.177107255
 20
199.4881063403
 10
290.3845911821
 20
200.2143689519
 10
291.6324525996
 20
200.9056626953
 10
292.9186674715
 20
201.5608662895
 10
294.2411495527
 20
202.1789169918
 10
295.5977537725
 20
202.7588123218
 10
296.9862797137
 20
203.2996116871
 10
298.4044751822
 20
203.8004379092
 10
299.8500398598
 20
204.2604786461
 10
301.3206290354
 20
204.67898771
 10
302.8138574078
 20
205.0552862777
 10
304.3273029553
 20
205.3887639916
 10
305.8585108635
 20
205.6788799496
 10
307.4049975077
 20
205.9251635826
 10
308.9642544809
 20
206.1272154175
 10
310.5337526625
 20
206.2847077256
 10
312.1109463208
 20
206.3973850538
 10
313.6932772419
 20
206.465064639
 10
315.2781788793
 20
206.4876367048
  0
LWPOLYLINE
  5
2EE
330
1F
100
AcDbEntity
  8
0
  6
Continuous
 62
     8
370
    18
100
AcDbPolyline
 90
       75
 70
   128
 43
0.0
 10
272.6239230153
 20
168.6645857916
 10
272.7119440096
 20
168.3339632484
 10
273.0593779788
 20
167.1853776642
 10
273.4687738602
 20
166.0470448781
 10
273.9395308089
 20
164.9206355506
 10
274.4709579242
 20
163.8078028425
 10
275.0622752635
 20
162.7101799893
 10
275.712614987
 20
161.629377904
 10
276.4210226316
 20
160.5669828126
 10
277.1864585114
 20
159.5245539265
 10
278.0077992435
 20
158.5036211537
 10
278.8838393973
 20
157.505682854
 10
279.813293263
 20
156.5322036393
 10
280.7947967389
 20
155.5846122247
 10
281.8269093333
 20
154.6642993312
 10
282.9081162787
 20
153.7726156449
 10
284.0368307546
 20
152.9108698347
 10
285.2113962171
 20
152.0803266312
 10
286.4300888293
 20
151.2822049712
 10
287.6911199918
 20
150.5176762083
 10
288.9926389673
 20
149.7878623939
 10
290.3327355975
 20
149.0938346303
 10
291.7094431056
 20
148.4366114991
 10
293.1207409835
 20
147.8171575657
 10
294.564557957
 20
147.2363819643
 10
296.0387750256
 20
146.6951370632
 10
297.5412285724
 20
146.1942172139
 10
299.0697135397
 20
145.7343575853
 10
300.621986665
 20
145.3162330848
 10
302.1957697734
 20
144.9404573679
 10
303.7887531213
 20
144.6075819372
 10
305.3985987858
 20
144.3180953332
 10
307.0229440965
 20
144.0724224176
 10
308.6594051026
 20
143.8709237492
 10
310.305580072
 20
143.713895055
 10
311.9590530158
 20
143.6015667964
 10
313.6173972345
 20
143.5341038305
 10
315.2781788793
 20
143.5116051686
 10
316.9389605241
 20
143.5341038305
 10
318.5973047428
 20
143.6015667964
 10
320.2507776866
 20
143.713895055
 10
321.896952656
 20
143.8709237492
 10
323.5334136621
 20
144.0724224176
 10
325.1577589728
 20
144.3180953332
 10
326.7676046373
 20
144.6075819372
 10
328.3605879852
 20
144.9404573679
 10
329.9343710936
 20
145.3162330848
 10
331.4866442189
 20
145.7343575853
 10
333.0151291862
 20
146.1942172139
 10
334.517582733
 20
146.6951370632
 10
335.9917998016
 20
147.2363819643
 10
337.4356167751
 20
147.8171575657
 10
338.8469146531
 20
148.4366114991
 10
340.2236221612
 20
149.0938346303
 10
341.5637187913
 20
149.7878623939
 10
342.8652377669
 20
150.5176762083
 10
344.1262689293
 20
151.2822049712
 10
345.3449615415
 20
152.0803266312
 10
346.519527004
 20
152.9108698347
 10
347.64824148
 20
153.7726156449
 10
348.7294484253
 20
154.6642993312
 10
349.7615610197
 20
155.5846122247
 10
350.7430644956
 20
156.5322036393
 10
351.6725183613
 20
157.505682854
 10
352.5485585151
 20
158.5036211537
 10
353.3698992472
 20
159.5245539265
 10
354.135335127
 20
160.5669828126
 10
354.8437427716
 20
161.629377904
 10
355.4940824951
 20
162.7101799893
 10
356.0853998344
 20
163.8078028425
 10
356.6168269497
 20
164.9206355506
 10
357.0875838984
 20
166.0470448781
 10
357.4969797798
 20
167.1853776642
 10
357.844413749
 20
168.3339632484
 10
357.9324347433
 20
168.6645857916
  0
LWPOLYLINE
  5
2EF
330
1F
100
AcDbEntity
  8
0
  6
Continuous
 62
     8
370
    18
100
AcDbPolyline
 90
       49
 70
   128
 43
0.0
 10
315.2781788793
 20
203.1058173895
 10
316.8383984495
 20
203.0831610259
 10
318.3959871365
 20
203.0152301387
 10
319.9483184935
 20
202.902139275
 10
321.4927749385
 20
202.7440791314
 10
323.0267521688
 20
202.541316233
 10
324.5476635515
 20
202.2941924841
 10
326.0529444861
 20
202.0031245912
 10
327.5400567284
 20
201.6686033605
 10
329.0064926708
 20
201.2911928705
 10
330.4497795703
 20
200.8715295208
 10
331.867483719
 20
200.4103209586
 10
333.2572145468
 20
199.908344886
 10
334.6166286531
 20
199.3664477481
 10
335.9434337584
 20
198.785543306
 10
337.2353925689
 20
198.1666110963
 10
338.4903265499
 20
197.5106947784
 10
339.7061195988
 20
196.8189003758
 10
340.8807216134
 20
196.0923944102
 10
342.0121519491
 20
195.3324019352
 10
343.0985027584
 20
194.5402044699
 10
344.1379422079
 20
193.7171378385
 10
345.1287175678
 20
192.8645899175
 10
346.0691581664
 20
191.9839982956
 10
346.9576782084
 20
191.0768478495
 10
347.7927794478
 20
190.14466824
 10
348.5730537151
 20
189.1890313329
 10
349.2971852913
 20
188.2115485481
 10
349.9639531268
 20
187.2138681428
 10
350.5722329002
 20
186.1976724318
 10
351.1209989141
 20
185.164674951
 10
351.6093258249
 20
184.1166175678
 10
352.0363902031
 20
183.0552675441
 10
352.4014719213
 20
181.9824145561
 10
352.7039553693
 20
180.8998676766
 10
352.9433304916
 20
179.8094523247
 10
353.1191936474
 20
178.7130071871
 10
353.2312482918
 20
177.6123811186
 10
353.2793054753
 20
176.5094300236
 10
353.2632841626
 20
175.4060137272
 10
353.1832113693
 20
174.3039928389
 10
353.0392221161
 20
173.2052256152
 10
352.8315592016
 20
172.1115648263
 10
352.5605727925
 20
171.0248546315
 10
352.226719833
 20
169.9469274702
 10
351.8305632748
 20
168.8796009714
 10
351.3727711275
 20
167.824674889
 10
350.8541153322
 20
166.783928067
 10
350.7559900386
 20
166.6012376741
  0
LWPOLYLINE
  5
2F0
330
1F
100
AcDbEntity
  8
0
  6
Continuous
 62
     8
370
    18
100
AcDbPolyline
 90
       49
 70
   128
 43
0.0
 10
279.8003677201
 20
166.6012376741
 10
279.7022424264
 20
166.783928067
 10
279.1835866311
 20
167.824674889
 10
278.7257944838
 20
168.8796009714
 10
278.3296379257
 20
169.9469274702
 10
277.9957849662
 20
171.0248546315
 10
277.724798557
 20
172.1115648263
 10
277.5171356425
 20
173.2052256152
 10
277.3731463893
 20
174.3039928389
 10
277.293073596
 20
175.4060137272
 10
277.2770522833
 20
176.5094300236
 10
277.3251094668
 20
177.6123811186
 10
277.4371641112
 20
178.7130071871
 10
277.6130272671
 20
179.8094523247
 10
277.8524023893
 20
180.8998676766
 10
278.1548858373
 20
181.9824145561
 10
278.5199675556
 20
183.0552675441
 10
278.9470319337
 20
184.1166175678
 10
279.4353588445
 20
185.164674951
 10
279.9841248585
 20
186.1976724318
 10
280.5924046318
 20
187.2138681428
 10
281.2591724673
 20
188.2115485481
 10
281.9833040435
 20
189.1890313329
 10
282.7635783108
 20
190.14466824
 10
283.5986795502
 20
191.0768478495
 10
284.4871995922
 20
191.9839982956
 10
285.4276401909
 20
192.8645899175
 10
286.4184155507
 20
193.7171378385
 10
287.4578550002
 20
194.5402044699
 10
288.5442058095
 20
195.3324019352
 10
289.6756361452
 20
196.0923944102
 10
290.8502381598
 20
196.8189003758
 10
292.0660312087
 20
197.5106947784
 10
293.3209651897
 20
198.1666110963
 10
294.6129240002
 20
198.785543306
 10
295.9397291055
 20
199.3664477481
 10
297.2991432118
 20
199.908344886
 10
298.6888740396
 20
200.4103209586
 10
300.1065781883
 20
200.8715295208
 10
301.5498650879
 20
201.2911928705
 10
303.0163010302
 20
201.6686033605
 10
304.5034132725
 20
202.0031245912
 10
306.0086942071
 20
202.2941924841
 10
307.5296055899
 20
202.541316233
 10
309.0635828201
 20
202.7440791314
 10
310.6080392652
 20
202.902139275
 10
312.1603706221
 20
203.0152301387
 10
313.7179593091
 20
203.0831610259
 10
315.2781788793
 20
203.1058173895
  0
LWPOLYLINE
  5
2F1
330
1F
100
AcDbEntity
  8
0
  6
Continuous
 62
     8
370
    18
100
AcDbPolyline
 90
        3
 70
   128
 43
0.0
 10
334.2149205229
 20
202.3814377881
 10
334.6797058979
 20
202.2222396954
 10
335.9848452387
 20
201.7492225702
  0
LWPOLYLINE
  5
2F2
330
1F
100
AcDbEntity
  8
0
  6
Continuous
 62
     8
370
    18
100
AcDbPolyline
 90
       90
 70
   128
 43
0.0
 10
359.0308432237
 20
177.4234589657
 10
359.0892226878
 20
176.9800970347
 10
359.2007193347
 20
175.7987723266
 10
359.248532497
 20
174.6153025264
 10
359.2325928501
 20
173.4314035523
 10
359.1529235051
 20
172.2487919445
 10
359.0096399748
 20
171.0691823768
 10
358.8029500068
 20
169.8942851704
 10
358.5331532815
 20
168.7258038138
 10
358.2006409787
 20
167.5654324934
 10
357.8058952092
 20
166.4148536365
 10
357.3494883167
 20
165.2757354726
 10
356.8320820476
 20
164.149729614
 10
356.2544265915
 20
163.0384686617
 10
355.6173594936
 20
161.9435638378
 10
354.9218044402
 20
160.8666026495
 10
354.1687699198
 20
159.8091465877
 10
353.3593477603
 20
158.7727288626
 10
352.4947115465
 20
157.7588521807
 10
351.5761149183
 20
156.7689865663
 10
350.604889753
 20
155.80456723
 10
349.5824442342
 20
154.8669924876
 10
348.5102608101
 20
153.9576217328
 10
347.3898940442
 20
153.0777734663
 10
346.2229683613
 20
152.2287233839
 10
345.011175692
 20
151.4117025271
 10
343.7562730198
 20
150.6278954981
 10
342.4600798336
 20
149.878438742
 10
341.1244754896
 20
149.1644188996
 10
339.7513964865
 20
148.4868712313
 10
338.3428336576
 20
147.8467781166
 10
336.9008292842
 20
147.2450676292
 10
335.4274741348
 20
146.6826121917
 10
333.9249044337
 20
146.1602273109
 10
332.3952987631
 20
145.6786703948
 10
330.8408749051
 20
145.238639655
 10
329.2638866257
 20
144.840773094
 10
327.6666204071
 20
144.4856475801
 10
326.0513921326
 20
144.1737780115
 10
324.4205437288
 20
143.9056165693
 10
322.7764397701
 20
143.6815520618
 10
321.1214640498
 20
143.5019093613
 10
319.4580161247
 20
143.3669489324
 10
317.7885078352
 20
143.2768664548
 10
316.1153598087
 20
143.2317925396
 10
314.4409979499
 20
143.2317925396
 10
312.7678499234
 20
143.2768664548
 10
311.0983416339
 20
143.3669489324
 10
309.4348937088
 20
143.5019093613
 10
307.7799179886
 20
143.6815520618
 10
306.1358140298
 20
143.9056165693
 10
304.504965626
 20
144.1737780115
 10
302.8897373515
 20
144.4856475801
 10
301.2924711329
 20
144.840773094
 10
299.7154828535
 20
145.238639655
 10
298.1610589955
 20
145.6786703948
 10
296.6314533249
 20
146.1602273109
 10
295.1288836238
 20
146.6826121917
 10
293.6555284744
 20
147.2450676292
 10
292.2135241011
 20
147.8467781166
 10
290.8049612721
 20
148.4868712313
 10
289.431882269
 20
149.1644188996
 10
288.096277925
 20
149.878438742
 10
286.8000847389
 20
150.6278954981
 10
285.5451820666
 20
151.4117025271
 10
284.3333893973
 20
152.2287233839
 10
283.1664637144
 20
153.0777734663
 10
282.0460969485
 20
153.9576217328
 10
280.9739135245
 20
154.8669924876
 10
279.9514680056
 20
155.80456723
 10
278.9802428403
 20
156.7689865663
 10
278.0616462121
 20
157.7588521807
 10
277.1970099983
 20
158.7727288626
 10
276.3875878389
 20
159.8091465877
 10
275.6345533184
 20
160.8666026495
 10
274.9389982651
 20
161.9435638378
 10
274.3019311671
 20
163.0384686617
 10
273.724275711
 20
164.149729614
 10
273.2068694419
 20
165.2757354726
 10
272.7504625494
 20
166.4148536365
 10
272.35571678
 20
167.5654324934
 10
272.0232044771
 20
168.7258038138
 10
271.7534077519
 20
169.8942851704
 10
271.5467177838
 20
171.0691823768
 10
271.4034342535
 20
172.2487919445
 10
271.3237649085
 20
173.4314035523
 10
271.3078252616
 20
174.6153025264
 10
271.3556384239
 20
175.7987723266
 10
271.4671350708
 20
176.9800970347
 10
271.5255145349
 20
177.4234589657
  0
LWPOLYLINE
  5
2F3
330
1F
100
AcDbEntity
  8
0
  6
Continuous
 62
     8
370
    18
100
AcDbPolyline
 90
        3
 70
   128
 43
0.0
 10
294.5715125199
 20
201.7492225702
 10
295.8766518607
 20
202.2222396954
 10
296.3414372358
 20
202.3814377881
  0
LWPOLYLINE
  5
2F4
330
1F
100
AcDbEntity
  8
0
  6
Continuous
 62
     8
370
    18
100
AcDbPolyline
 90
       60
 70
   128
 43
0.0
 10
354.3269805185
 20
159.6639475492
 10
354.3186076082
 20
159.6527213457
 10
353.5060669067
 20
158.6123105099
 10
352.6380994221
 20
157.5945275634
 10
351.7159636243
 20
156.6008481943
 10
350.7409965222
 20
155.6327131427
 10
349.7146117248
 20
154.6915261119
 10
348.6382973919
 20
153.7786517329
 10
347.5136140764
 20
152.8954135866
 10
346.3421924616
 20
152.0430922836
 10
345.1257309969
 20
151.2229236085
 10
343.865993435
 20
150.4360967273
 10
342.5648062751
 20
149.6837524639
 10
341.2240561141
 20
148.9669816455
 10
339.8456869115
 20
148.2868235213
 10
338.431697171
 20
147.6442642554
 10
336.9841370424
 20
147.0402354975
 10
335.5051053496
 20
146.4756130315
 10
333.9967465472
 20
145.951215506
 10
332.4612476111
 20
145.4678032472
 10
330.9008348681
 20
145.0260771567
 10
329.3177707674
 20
144.6266776952
 10
327.7143506008
 20
144.2701839536
 10
326.092899174
 20
143.9571128138
 10
324.4557674367
 20
143.687918199
 10
322.8053290733
 20
143.4629904157
 10
321.1439770618
 20
143.2826555876
 10
319.4741202038
 20
143.1471751831
 10
317.7981796319
 20
143.0567456357
 10
316.1185852998
 20
143.0114980597
 10
314.4377724588
 20
143.0114980597
 10
312.7581781267
 20
143.0567456357
 10
311.0822375549
 20
143.1471751831
 10
309.4123806968
 20
143.2826555876
 10
307.7510286853
 20
143.4629904157
 10
306.1005903219
 20
143.687918199
 10
304.4634585846
 20
143.9571128138
 10
302.8420071579
 20
144.2701839536
 10
301.2385869912
 20
144.6266776952
 10
299.6555228905
 20
145.0260771567
 10
298.0951101475
 20
145.4678032472
 10
296.5596112115
 20
145.951215506
 10
295.051252409
 20
146.4756130315
 10
293.5722207162
 20
147.0402354975
 10
292.1246605877
 20
147.6442642554
 10
290.7106708471
 20
148.2868235213
 10
289.3323016446
 20
148.9669816455
 10
287.9915514835
 20
149.6837524639
 10
286.6903643236
 20
150.4360967273
 10
285.4306267618
 20
151.2229236085
 10
284.214165297
 20
152.0430922836
 10
283.0427436822
 20
152.8954135866
 10
281.9180603668
 20
153.7786517329
 10
280.8417460338
 20
154.6915261119
 10
279.8153612364
 20
155.6327131427
 10
278.8403941343
 20
156.6008481943
 10
277.9182583365
 20
157.5945275634
 10
277.050290852
 20
158.6123105099
 10
276.2377501504
 20
159.6527213457
 10
276.2293772401
 20
159.6639475492
  0
LWPOLYLINE
  5
2F5
330
1F
100
AcDbEntity
  8
0
  6
Continuous
 62
     8
370
    18
100
AcDbPolyline
 90
       59
 70
   128
 43
0.0
 10
276.897796335
 20
158.7673050101
 10
277.1629015241
 20
158.4171953218
 10
277.9847501964
 20
157.3956311756
 10
278.861332118
 20
156.3970757228
 10
279.791360784
 20
155.4229944813
 10
280.7734712492
 20
154.4748170496
 10
281.8062221309
 20
153.5539350089
 10
282.8880977249
 20
152.6616998804
 10
284.0175102295
 20
151.7994211424
 10
285.1928020762
 20
150.9683643077
 10
286.4122483621
 20
150.169749067
 10
287.6740593815
 20
149.404747498
 10
288.9763832529
 20
148.6744823463
 10
290.3173086363
 20
147.9800253765
 10
291.6948675389
 20
147.3223958001
 10
293.107038203
 20
146.702558779
 10
294.5517480734
 20
146.1214240098
 10
296.0268768391
 20
145.5798443876
 10
297.5302595453
 20
145.0786147554
 10
299.0596897705
 20
144.6184707367
 10
300.612922865
 20
144.2000876564
 10
302.1876792451
 20
143.8240795492
 10
303.7816477385
 20
143.490998259
 10
305.3924889766
 20
143.2013326284
 10
307.017838828
 20
142.9555077818
 10
308.6553118674
 20
142.753884501
 10
310.3025048775
 20
142.5967586959
 10
311.9570003753
 20
142.4843609703
 10
313.6163701606
 20
142.4168562834
 10
315.2781788793
 20
142.3943437077
 10
316.939987598
 20
142.4168562834
 10
318.5993573833
 20
142.4843609703
 10
320.2538528811
 20
142.5967586959
 10
321.9010458912
 20
142.753884501
 10
323.5385189306
 20
142.9555077818
 10
325.163868782
 20
143.2013326284
 10
326.7747100202
 20
143.490998259
 10
328.3686785136
 20
143.8240795492
 10
329.9434348936
 20
144.2000876564
 10
331.4966679881
 20
144.6184707367
 10
333.0260982133
 20
145.0786147554
 10
334.5294809195
 20
145.5798443876
 10
336.0046096852
 20
146.1214240098
 10
337.4493195556
 20
146.702558779
 10
338.8614902197
 20
147.3223958001
 10
340.2390491223
 20
147.9800253765
 10
341.5799745057
 20
148.6744823463
 10
342.8822983771
 20
149.404747498
 10
344.1441093966
 20
150.169749067
 10
345.3635556824
 20
150.9683643077
 10
346.5388475291
 20
151.7994211424
 10
347.6682600337
 20
152.6616998804
 10
348.7501356277
 20
153.5539350089
 10
349.7828865095
 20
154.4748170496
 10
350.7649969746
 20
155.4229944813
 10
351.6950256406
 20
156.3970757228
 10
352.5716075622
 20
157.3956311756
 10
353.3934562345
 20
158.4171953218
 10
353.6585614236
 20
158.7673050101
  0
LINE
  5
2F6
330
1F
100
AcDbEntity
  8
0
  6
Continuous
 62
     8
370
    18
100
AcDbLine
 10
288.541935599
 20
198.4037587713
 30
0.0
 11
287.6191287148
 21
197.881701136
 31
0.0
  0
LWPOLYLINE
  5
2F7
330
1F
100
AcDbEntity
  8
0
  6
Continuous
 62
     8
370
    18
100
AcDbPolyline
 90
       79
 70
   128
 43
0.0
 10
271.8841938445
 20
171.590081069
 10
272.0259557831
 20
170.5742191973
 10
272.2489505219
 20
169.4053616221
 10
272.535096587
 20
168.2434013937
 10
272.8839740196
 20
167.0900438488
 10
273.2950707939
 20
165.9469816987
 10
273.7677835687
 20
164.8158925448
 10
274.3014185728
 20
163.6984364164
 10
274.8951926234
 20
162.5962533344
 10
275.548234275
 20
161.5109609045
 10
276.259585099
 20
160.4441519429
 10
277.02820109
 20
159.397392139
 10
277.852954198
 20
158.3722177572
 10
278.7326339841
 20
157.3701333821
 10
279.6659493969
 20
156.3926097108
 10
280.6515306673
 20
155.4410813941
 10
281.687931319
 20
154.516944931
 10
282.7736302909
 20
153.6215566192
 10
283.9070341703
 20
152.7562305645
 10
285.0864795306
 20
151.9222367522
 10
286.310235373
 20
151.1207991833
 10
287.5765056671
 20
150.3530940779
 10
288.8834319868
 20
149.6202481491
 10
290.2290962372
 20
148.9233369493
 10
291.6115234707
 20
148.2633832919
 10
293.0286847846
 20
147.6413557499
 10
294.4785002992
 20
147.0581672345
 10
295.9588422104
 20
146.5146736551
 10
297.4675379123
 20
146.0116726636
 10
299.0023731858
 20
145.5499024834
 10
300.5610954486
 20
145.1300408258
 10
302.1414170608
 20
144.7527038957
 10
303.7410186825
 20
144.418445487
 10
305.3575526778
 20
144.1277561702
 10
306.98864656
 20
143.8810625718
 10
308.631906474
 20
143.6787267488
 10
310.2849207093
 20
143.5210456568
 10
311.9452632395
 20
143.4082507146
 10
313.6104972831
 20
143.3405074643
 10
315.2781788793
 20
143.3179153285
 10
316.9458604755
 20
143.3405074643
 10
318.6110945191
 20
143.4082507146
 10
320.2714370493
 20
143.5210456568
 10
321.9244512846
 20
143.6787267488
 10
323.5677111986
 20
143.8810625718
 10
325.1988050809
 20
144.1277561702
 10
326.8153390761
 20
144.418445487
 10
328.4149406978
 20
144.7527038957
 10
329.99526231
 20
145.1300408258
 10
331.5539845728
 20
145.5499024834
 10
333.0888198463
 20
146.0116726636
 10
334.5975155482
 20
146.5146736551
 10
336.0778574594
 20
147.0581672345
 10
337.527672974
 20
147.6413557499
 10
338.9448342879
 20
148.263383292
 10
340.3272615214
 20
148.9233369493
 10
341.6729257719
 20
149.6202481491
 10
342.9798520915
 20
150.3530940779
 10
344.2461223856
 20
151.1207991833
 10
345.4698782281
 20
151.9222367522
 10
346.6493235883
 20
152.7562305645
 10
347.7827274677
 20
153.6215566192
 10
348.8684264397
 20
154.516944931
 10
349.9048270913
 20
155.4410813941
 10
350.8904083617
 20
156.3926097108
 10
351.8237237745
 20
157.3701333821
 10
352.7034035606
 20
158.3722177572
 10
353.5281566686
 20
159.397392139
 10
354.2967726596
 20
160.4441519429
 10
355.0081234836
 20
161.5109609045
 10
355.6611651352
 20
162.5962533344
 10
356.2549391858
 20
163.6984364164
 10
356.7885741899
 20
164.8158925448
 10
357.2612869647
 20
165.9469816987
 10
357.672383739
 20
167.0900438488
 10
358.0212611716
 20
168.2434013937
 10
358.3074072367
 20
169.4053616221
 10
358.5304019756
 20
170.5742191973
 10
358.6721639142
 20
171.590081069
  0
LINE
  5
2F8
330
1F
100
AcDbEntity
  8
0
  6
Continuous
 62
     8
370
    18
100
AcDbLine
 10
342.9372290438
 20
197.881701136
 30
0.0
 11
342.0144221597
 21
198.4037587713
 31
0.0
  0
LWPOLYLINE
  5
2F9
330
1F
100
AcDbEntity
  8
0
  6
Continuous
 62
     8
370
    18
100
AcDbPolyline
 90
       61
 70
   128
 43
0.0
 10
354.3559803052
 20
159.7029155651
 10
354.135335127
 20
159.3831554685
 10
353.3698992472
 20
158.3407265824
 10
352.5485585151
 20
157.3197938096
 10
351.6725183613
 20
156.3218555099
 10
350.7430644956
 20
155.3483762952
 10
349.7615610197
 20
154.4007848806
 10
348.7294484253
 20
153.4804719871
 10
347.6482414799
 20
152.5887883009
 10
346.519527004
 20
151.7270424906
 10
345.3449615415
 20
150.8964992871
 10
344.1262689293
 20
150.0983776272
 10
342.8652377669
 20
149.3338488642
 10
341.5637187913
 20
148.6040350498
 10
340.2236221611
 20
147.9100072862
 10
338.8469146531
 20
147.252784155
 10
337.4356167751
 20
146.6333302217
 10
335.9917998016
 20
146.0525546203
 10
334.517582733
 20
145.5113097192
 10
333.0151291862
 20
145.0103898698
 10
331.4866442189
 20
144.5505302412
 10
329.9343710936
 20
144.1324057408
 10
328.3605879852
 20
143.7566300238
 10
326.7676046373
 20
143.4237545931
 10
325.1577589728
 20
143.1342679892
 10
323.5334136621
 20
142.8885950736
 10
321.896952656
 20
142.6870964051
 10
320.2507776866
 20
142.530067711
 10
318.5973047428
 20
142.4177394524
 10
316.9389605241
 20
142.3502764865
 10
315.2781788793
 20
142.3277778246
 10
313.6173972345
 20
142.3502764865
 10
311.9590530158
 20
142.4177394524
 10
310.305580072
 20
142.530067711
 10
308.6594051026
 20
142.6870964051
 10
307.0229440965
 20
142.8885950736
 10
305.3985987858
 20
143.1342679892
 10
303.7887531213
 20
143.4237545931
 10
302.1957697734
 20
143.7566300238
 10
300.621986665
 20
144.1324057408
 10
299.0697135397
 20
144.5505302412
 10
297.5412285724
 20
145.0103898698
 10
296.0387750256
 20
145.5113097192
 10
294.564557957
 20
146.0525546203
 10
293.1207409835
 20
146.6333302217
 10
291.7094431056
 20
147.252784155
 10
290.3327355975
 20
147.9100072862
 10
288.9926389673
 20
148.6040350498
 10
287.6911199918
 20
149.3338488642
 10
286.4300888293
 20
150.0983776272
 10
285.2113962171
 20
150.8964992871
 10
284.0368307546
 20
151.7270424906
 10
282.9081162787
 20
152.5887883009
 10
281.8269093333
 20
153.4804719871
 10
280.794796739
 20
154.4007848806
 10
279.8132932631
 20
155.3483762952
 10
278.8838393973
 20
156.3218555099
 10
278.0077992435
 20
157.3197938096
 10
277.1864585114
 20
158.3407265824
 10
276.4210226317
 20
159.3831554685
 10
276.2003774534
 20
159.7029155651
  0
LWPOLYLINE
  5
2FA
330
1F
100
AcDbEntity
  8
0
  6
Continuous
 62
     8
370
    18
100
AcDbPolyline
 90
       71
 70
   128
 43
0.0
 10
273.1927243892
 20
164.8031086403
 10
273.4687738602
 20
164.0561124356
 10
273.939530809
 20
162.929703108
 10
274.4709579242
 20
161.8168704
 10
275.0622752635
 20
160.7192475468
 10
275.7126149871
 20
159.6384454615
 10
276.4210226317
 20
158.5760503701
 10
277.1864585114
 20
157.533621484
 10
278.0077992436
 20
156.5126887112
 10
278.8838393974
 20
155.5147504115
 10
279.8132932631
 20
154.5412711968
 10
280.794796739
 20
153.5936797822
 10
281.8269093334
 20
152.6733668887
 10
282.9081162787
 20
151.7816832024
 10
284.0368307547
 20
150.9199373922
 10
285.2113962172
 20
150.0893941887
 10
286.4300888293
 20
149.2912725287
 10
287.6911199918
 20
148.5267437658
 10
288.9926389674
 20
147.7969299514
 10
290.3327355975
 20
147.1029021878
 10
291.7094431056
 20
146.4456790566
 10
293.1207409835
 20
145.8262251232
 10
294.564557957
 20
145.2454495219
 10
296.0387750256
 20
144.7042046207
 10
297.5412285724
 20
144.2032847714
 10
299.0697135397
 20
143.7434251428
 10
300.621986665
 20
143.3253006423
 10
302.1957697735
 20
142.9495249254
 10
303.7887531213
 20
142.6166494947
 10
305.3985987858
 20
142.3271628908
 10
307.0229440965
 20
142.0814899751
 10
308.6594051026
 20
141.8799913067
 10
310.305580072
 20
141.7229626126
 10
311.9590530158
 20
141.6106343539
 10
313.6173972345
 20
141.5431713881
 10
315.2781788793
 20
141.5206727261
 10
316.9389605241
 20
141.5431713881
 10
318.5973047428
 20
141.6106343539
 10
320.2507776866
 20
141.7229626126
 10
321.896952656
 20
141.8799913067
 10
323.5334136621
 20
142.0814899751
 10
325.1577589728
 20
142.3271628908
 10
326.7676046373
 20
142.6166494947
 10
328.3605879852
 20
142.9495249254
 10
329.9343710936
 20
143.3253006423
 10
331.4866442189
 20
143.7434251428
 10
333.0151291862
 20
144.2032847714
 10
334.517582733
 20
144.7042046207
 10
335.9917998016
 20
145.2454495219
 10
337.4356167751
 20
145.8262251232
 10
338.846914653
 20
146.4456790566
 10
340.2236221611
 20
147.1029021878
 10
341.5637187912
 20
147.7969299514
 10
342.8652377668
 20
148.5267437658
 10
344.1262689293
 20
149.2912725287
 10
345.3449615415
 20
150.0893941887
 10
346.5195270039
 20
150.9199373922
 10
347.6482414799
 20
151.7816832024
 10
348.7294484252
 20
152.6733668887
 10
349.7615610196
 20
153.5936797822
 10
350.7430644955
 20
154.5412711968
 10
351.6725183612
 20
155.5147504115
 10
352.548558515
 20
156.5126887112
 10
353.3698992472
 20
157.533621484
 10
354.1353351269
 20
158.5760503701
 10
354.8437427715
 20
159.6384454615
 10
355.4940824951
 20
160.7192475468
 10
356.0853998344
 20
161.8168704
 10
356.6168269497
 20
162.9297031081
 10
357.0875838984
 20
164.0561124356
 10
357.3636333694
 20
164.8031086403
  0
LINE
  5
2FB
330
1F
100
AcDbEntity
  8
0
  6
Continuous
 62
     8
370
    18
100
AcDbLine
 10
351.1615219288
 20
189.3954569185
 30
0.0
 11
351.3812250053
 21
189.1665887725
 31
0.0
  0
LWPOLYLINE
  5
2FC
330
1F
100
AcDbEntity
  8
0
  6
Continuous
 62
     8
370
    18
100
AcDbPolyline
 90
       75
 70
   128
 43
0.0
 10
358.1494200406
 20
166.7840002871
 10
357.984895821
 20
166.1485052514
 10
357.6363152095
 20
164.9961289706
 10
357.2255681919
 20
163.8540393254
 10
356.753257596
 20
162.7239124899
 10
356.2200766027
 20
161.607407081
 10
355.6268077287
 20
160.5061617244
 10
354.9743216779
 20
159.4217926495
 10
354.2635760634
 20
158.3558913175
 10
353.4956140026
 20
157.3100220855
 10
352.6715625856
 20
156.2857199109
 10
351.7926312215
 20
155.2844880983
 10
350.8601098633
 20
154.3077960935
 10
349.8753671147
 20
153.3570773268
 10
348.8398482215
 20
152.433727109
 10
347.7550729504
 20
151.5391005838
 10
346.6226333588
 20
150.6745107391
 10
345.4441914579
 20
149.8412264797
 10
344.2214767736
 20
149.0404707652
 10
342.9562838085
 20
148.273418815
 10
341.6504694076
 20
147.5411963835
 10
340.3059500337
 20
146.8448781083
 10
338.9246989543
 20
146.1854859323
 10
337.5087433459
 20
145.5639876046
 10
336.0601613185
 20
144.9812952596
 10
334.5810788662
 20
144.4382640786
 10
333.0736667463
 20
143.935691035
 10
331.5401372939
 20
143.4743137238
 10
329.9827411751
 20
143.0548092799
 10
328.4037640834
 20
142.677793384
 10
326.8055233854
 20
142.3438193588
 10
325.1903647197
 20
142.0533773572
 10
323.5606585545
 20
141.8068936431
 10
321.9187967081
 20
141.6047299652
 10
320.2671888394
 20
141.4471830265
 10
318.6082589106
 20
141.3344840491
 10
316.9444416301
 20
141.266798434
 10
315.2781788793
 20
141.2442255194
 10
313.6119161285
 20
141.266798434
 10
311.948098848
 20
141.3344840491
 10
310.2891689192
 20
141.4471830265
 10
308.6375610505
 20
141.6047299652
 10
306.9956992042
 20
141.8068936431
 10
305.3659930389
 20
142.0533773572
 10
303.7508343732
 20
142.3438193588
 10
302.1525936752
 20
142.677793384
 10
300.5736165835
 20
143.0548092799
 10
299.0162204647
 20
143.4743137238
 10
297.4826910124
 20
143.935691035
 10
295.9752788924
 20
144.4382640786
 10
294.4961964401
 20
144.9812952596
 10
293.0476144127
 20
145.5639876046
 10
291.6316588043
 20
146.1854859323
 10
290.2504077249
 20
146.8448781083
 10
288.905888351
 20
147.5411963835
 10
287.6000739501
 20
148.273418815
 10
286.334880985
 20
149.0404707652
 10
285.1121663008
 20
149.8412264797
 10
283.9337243998
 20
150.6745107391
 10
282.8012848082
 20
151.5391005838
 10
281.7165095371
 20
152.433727109
 10
280.6809906439
 20
153.3570773268
 10
279.6962478953
 20
154.3077960935
 10
278.7637265371
 20
155.2844880983
 10
277.8847951731
 20
156.2857199109
 10
277.0607437561
 20
157.3100220855
 10
276.2927816952
 20
158.3558913175
 10
275.5820360808
 20
159.4217926495
 10
274.9295500299
 20
160.5061617244
 10
274.3362811559
 20
161.607407081
 10
273.8031001626
 20
162.7239124899
 10
273.3307895667
 20
163.8540393254
 10
272.9200425491
 20
164.9961289706
 10
272.5714619376
 20
166.1485052514
 10
272.406937718
 20
166.7840002871
  0
LINE
  5
2FD
330
1F
100
AcDbEntity
  8
0
  6
Continuous
 62
     8
370
    18
100
AcDbLine
 10
350.759776563
 20
190.0081638668
 30
0.0
 11
350.9948310701
 21
189.7756061339
 31
0.0
  0
LWPOLYLINE
  5
2FE
330
1F
100
AcDbEntity
  8
0
  6
Continuous
 62
     8
370
    18
100
AcDbPolyline
 90
       79
 70
   128
 43
0.0
 10
358.8931068916
 20
169.4108034697
 10
358.7463751738
 20
168.3528267452
 10
358.5222669457
 20
167.1781326629
 10
358.234692055
 20
166.0103703681
 10
357.8840725577
 20
164.8512537131
 10
357.470923036
 20
163.7024838613
 10
356.9958498441
 20
162.5657467909
 10
356.4595502171
 20
161.4427108204
 10
355.8628112489
 20
160.3350241599
 10
355.2065087362
 20
159.2443124923
 10
354.4916058933
 20
158.1721765874
 10
353.7191519388
 20
157.1201899525
 10
352.8902805554
 20
156.089896523
 10
352.0062082261
 20
155.0828083966
 10
351.0682324491
 20
154.1004036141
 10
350.077729833
 20
153.1441239898
 10
349.0361540771
 20
152.2153729961
 10
347.9450338375
 20
151.315513703
 10
346.8059704834
 20
150.4458667783
 10
345.6206357476
 20
149.6077085486
 10
344.3907692721
 20
148.8022691268
 10
343.1181760557
 20
148.0307306062
 10
341.8047238043
 20
147.2942253261
 10
340.4523401903
 20
146.5938342095
 10
339.063010023
 20
145.930585177
 10
337.6387723362
 20
145.3054516379
 10
336.181717395
 20
144.7193510619
 10
334.6939836284
 20
144.1731436326
 10
333.177754491
 20
143.6676309845
 10
331.6352552581
 20
143.2035550272
 10
330.0687497599
 20
142.7815968562
 10
328.4805370594
 20
142.4023757532
 10
326.8729480776
 20
142.0664482776
 10
325.2483421732
 20
141.7743074492
 10
323.6091036793
 20
141.526382025
 10
321.9576384043
 20
141.3230358698
 10
320.2963701015
 20
141.1645674219
 10
318.627736911
 20
141.0512092559
 10
316.9541877823
 20
140.9831277403
 10
315.2781788793
 20
140.9604227942
 10
313.6021699764
 20
140.9831277403
 10
311.9286208476
 20
141.0512092559
 10
310.2599876571
 20
141.1645674219
 10
308.5987193543
 20
141.3230358698
 10
306.9472540794
 20
141.526382025
 10
305.3080155854
 20
141.7743074492
 10
303.683409681
 20
142.0664482776
 10
302.0758206993
 20
142.4023757532
 10
300.4876079987
 20
142.7815968562
 10
298.9211025006
 20
143.2035550272
 10
297.3786032676
 20
143.6676309845
 10
295.8623741302
 20
144.1731436326
 10
294.3746403636
 20
144.7193510619
 10
292.9175854224
 20
145.3054516379
 10
291.4933477356
 20
145.930585177
 10
290.1040175683
 20
146.5938342095
 10
288.7516339543
 20
147.2942253261
 10
287.4381817029
 20
148.0307306062
 10
286.1655884865
 20
148.8022691268
 10
284.935722011
 20
149.6077085486
 10
283.7503872752
 20
150.4458667783
 10
282.6113239212
 20
151.315513703
 10
281.5202036815
 20
152.2153729961
 10
280.4786279256
 20
153.1441239898
 10
279.4881253095
 20
154.1004036141
 10
278.5501495325
 20
155.0828083966
 10
277.6660772032
 20
156.089896523
 10
276.8372058198
 20
157.1201899525
 10
276.0647518653
 20
158.1721765874
 10
275.3498490224
 20
159.2443124923
 10
274.6935465097
 20
160.3350241599
 10
274.0968075415
 20
161.4427108204
 10
273.5605079146
 20
162.5657467909
 10
273.0854347226
 20
163.7024838613
 10
272.672285201
 20
164.8512537131
 10
272.3216657036
 20
166.0103703681
 10
272.0340908129
 20
167.1781326629
 10
271.8099825848
 20
168.3528267452
 10
271.663250867
 20
169.4108034697
  0
LINE
  5
2FF
330
1F
100
AcDbEntity
  8
0
  6
Continuous
 62
     8
370
    18
100
AcDbLine
 10
279.5615266885
 20
189.7756061339
 30
0.0
 11
279.7965811956
 21
190.0081638668
 31
0.0
  0
LWPOLYLINE
  5
300
330
1F
100
AcDbEntity
  8
0
  6
Continuous
 62
     8
370
    18
100
AcDbPolyline
 90
       29
 70
   128
 43
0.0
 10
315.2781788793
 20
201.2855741942
 10
316.8592159494
 20
201.2629118566
 10
318.4376553798
 20
201.1949620778
 10
320.0109037986
 20
201.0818364994
 10
321.5763763627
 20
200.9237209861
 10
323.131501005
 20
200.7208753215
 10
324.6737226595
 20
200.4736327803
 10
326.2005074604
 20
200.1823995816
 10
327.709346904
 20
199.8476542206
 10
329.1977619713
 20
199.469946683
 10
330.6633072
 20
199.0498975415
 10
332.1035747034
 20
198.5881969356
 10
333.5161981255
 20
198.0856034381
 10
334.89885653
 20
197.542942809
 10
336.2492782126
 20
196.9611066381
 10
337.565244434
 20
196.3410508809
 10
338.8445930653
 20
195.6837942872
 10
340.0852221399
 20
194.9904167279
 10
341.2850933076
 20
194.2620574206
 10
342.4422351831
 20
193.4999130577
 10
343.5547465855
 20
192.7052358402
 10
344.6207996614
 20
191.879331421
 10
345.6386428884
 20
191.0235567586
 10
346.6066039528
 20
190.1393178887
 10
347.523092497
 20
189.2280676134
 10
348.3866027328
 20
188.2913031145
 10
349.1957159152
 20
187.3305634936
 10
349.9491026733
 20
186.3474272434
 10
350.0548835473
 20
186.2013836699
  0
LWPOLYLINE
  5
301
330
1F
100
AcDbEntity
  8
0
  6
Continuous
 62
     8
370
    18
100
AcDbPolyline
 90
       29
 70
   128
 43
0.0
 10
280.5014742113
 20
186.2013836699
 10
280.6072550854
 20
186.3474272434
 10
281.3606418434
 20
187.3305634936
 10
282.1697550258
 20
188.2913031145
 10
283.0332652616
 20
189.2280676134
 10
283.9497538058
 20
190.1393178887
 10
284.9177148702
 20
191.0235567586
 10
285.9355580972
 20
191.879331421
 10
287.0016111731
 20
192.7052358402
 10
288.1141225755
 20
193.4999130577
 10
289.271264451
 20
194.2620574206
 10
290.4711356187
 20
194.9904167279
 10
291.7117646934
 20
195.6837942872
 10
292.9911133246
 20
196.3410508809
 10
294.3070795461
 20
196.9611066381
 10
295.6575012286
 20
197.542942809
 10
297.0401596331
 20
198.0856034381
 10
298.4527830552
 20
198.5881969356
 10
299.8930505586
 20
199.0498975415
 10
301.3585957873
 20
199.469946683
 10
302.8470108546
 20
199.8476542206
 10
304.3558502982
 20
200.1823995816
 10
305.8826350991
 20
200.4736327803
 10
307.4248567537
 20
200.7208753215
 10
308.9799813959
 20
200.9237209861
 10
310.5454539601
 20
201.0818364994
 10
312.1187023788
 20
201.1949620778
 10
313.6971418092
 20
201.2629118566
 10
315.2781788793
 20
201.2855741942
  0
LWPOLYLINE
  5
302
330
1F
100
AcDbEntity
  8
0
  6
Continuous
 62
     8
370
    18
100
AcDbPolyline
 90
       71
 70
   128
 43
0.0
 10
273.0785064483
 20
163.3698110465
 10
273.4687738603
 20
162.2890287516
 10
273.939530809
 20
161.162619424
 10
274.4709579243
 20
160.0497867159
 10
275.0622752636
 20
158.9521638628
 10
275.7126149871
 20
157.8713617774
 10
276.4210226317
 20
156.8089666861
 10
277.1864585115
 20
155.7665377999
 10
278.0077992436
 20
154.7456050272
 10
278.8838393974
 20
153.7476667274
 10
279.8132932631
 20
152.7741875127
 10
280.794796739
 20
151.8265960981
 10
281.8269093334
 20
150.9062832047
 10
282.9081162787
 20
150.0145995184
 10
284.0368307547
 20
149.1528537082
 10
285.2113962172
 20
148.3223105047
 10
286.4300888294
 20
147.5241888447
 10
287.6911199918
 20
146.7596600818
 10
288.9926389674
 20
146.0298462674
 10
290.3327355975
 20
145.3358185038
 10
291.7094431056
 20
144.6785953725
 10
293.1207409835
 20
144.0591414392
 10
294.564557957
 20
143.4783658378
 10
296.0387750256
 20
142.9371209367
 10
297.5412285724
 20
142.4362010874
 10
299.0697135397
 20
141.9763414588
 10
300.621986665
 20
141.5582169583
 10
302.1957697735
 20
141.1824412414
 10
303.7887531213
 20
140.8495658107
 10
305.3985987858
 20
140.5600792067
 10
307.0229440965
 20
140.3144062911
 10
308.6594051026
 20
140.1129076227
 10
310.305580072
 20
139.9558789285
 10
311.9590530158
 20
139.8435506699
 10
313.6173972345
 20
139.776087704
 10
315.2781788793
 20
139.7535890421
 10
316.9389605241
 20
139.776087704
 10
318.5973047428
 20
139.8435506699
 10
320.2507776866
 20
139.9558789285
 10
321.896952656
 20
140.1129076227
 10
323.5334136621
 20
140.3144062911
 10
325.1577589728
 20
140.5600792067
 10
326.7676046373
 20
140.8495658107
 10
328.3605879851
 20
141.1824412414
 10
329.9343710936
 20
141.5582169583
 10
331.4866442189
 20
141.9763414588
 10
333.0151291862
 20
142.4362010874
 10
334.517582733
 20
142.9371209367
 10
335.9917998016
 20
143.4783658378
 10
337.4356167751
 20
144.0591414392
 10
338.846914653
 20
144.6785953725
 10
340.2236221611
 20
145.3358185038
 10
341.5637187912
 20
146.0298462674
 10
342.8652377668
 20
146.7596600818
 10
344.1262689292
 20
147.5241888447
 10
345.3449615414
 20
148.3223105047
 10
346.5195270039
 20
149.1528537082
 10
347.6482414799
 20
150.0145995184
 10
348.7294484252
 20
150.9062832047
 10
349.7615610196
 20
151.8265960981
 10
350.7430644955
 20
152.7741875127
 10
351.6725183612
 20
153.7476667274
 10
352.548558515
 20
154.7456050272
 10
353.3698992472
 20
155.7665377999
 10
354.1353351269
 20
156.8089666861
 10
354.8437427715
 20
157.8713617774
 10
355.494082495
 20
158.9521638628
 10
356.0853998343
 20
160.0497867159
 10
356.6168269496
 20
161.162619424
 10
357.0875838983
 20
162.2890287516
 10
357.4778513103
 20
163.3698110465
  0
LWPOLYLINE
  5
303
330
1F
100
AcDbEntity
  8
0
  6
Continuous
 62
     8
370
    18
100
AcDbPolyline
 90
       30
 70
   128
 43
0.0
 10
315.2781788793
 20
201.1194355436
 10
316.8563756538
 20
201.0968139183
 10
318.4319794552
 20
201.0289862098
 10
320.0024015705
 20
200.9160638587
 10
321.5650618003
 20
200.7582323962
 10
323.117392698
 20
200.555751139
 10
324.656843788
 20
200.3089527632
 10
326.1808857562
 20
200.018242758
 10
327.6870146056
 20
199.6840987591
 10
329.1727557704
 20
199.3070697642
 10
330.635668182
 20
198.887775231
 10
332.0733482789
 20
198.4269040592
 10
333.4834339566
 20
197.9252134591
 10
334.863608448
 20
197.3835277069
 10
336.2116041301
 20
196.8027367909
 10
337.5252062494
 20
196.1837949491
 10
338.8022565612
 20
195.5277191013
 10
340.0406568751
 20
194.8355871784
 10
341.2383725027
 20
194.1085363513
 10
342.3934356003
 20
193.3477611626
 10
343.5039484024
 20
192.554511564
 10
344.5680863392
 20
191.7300908624
 10
345.584101035
 20
190.8758535789
 10
346.5503231803
 20
189.9932032232
 10
347.4651652746
 20
189.0835899874
 10
348.3271242347
 20
188.1485083637
 10
349.1347838644
 20
187.1894946887
 10
349.8868171811
 20
186.2081246195
 10
350.5819885958
 20
185.2060105443
 10
350.6869590255
 20
185.0452509291
  0
LWPOLYLINE
  5
304
330
1F
100
AcDbEntity
  8
0
  6
Continuous
 62
     8
370
    18
100
AcDbPolyline
 90
       30
 70
   128
 43
0.0
 10
279.8693987331
 20
185.0452509291
 10
279.9743691628
 20
185.2060105443
 10
280.6695405776
 20
186.2081246195
 10
281.4215738942
 20
187.1894946887
 10
282.2292335239
 20
188.1485083637
 10
283.0911924841
 20
189.0835899874
 10
284.0060345783
 20
189.9932032232
 10
284.9722567236
 20
190.8758535789
 10
285.9882714194
 20
191.7300908624
 10
287.0524093562
 20
192.554511564
 10
288.1629221583
 20
193.3477611626
 10
289.3179852559
 20
194.1085363513
 10
290.5157008835
 20
194.8355871784
 10
291.7541011974
 20
195.5277191013
 10
293.0311515092
 20
196.1837949491
 10
294.3447536286
 20
196.8027367909
 10
295.6927493106
 20
197.3835277069
 10
297.072923802
 20
197.9252134591
 10
298.4830094797
 20
198.4269040592
 10
299.9206895767
 20
198.887775231
 10
301.3836019882
 20
199.3070697642
 10
302.8693431531
 20
199.6840987591
 10
304.3754720025
 20
200.018242758
 10
305.8995139706
 20
200.3089527632
 10
307.4389650606
 20
200.555751139
 10
308.9912959583
 20
200.7582323962
 10
310.5539561881
 20
200.9160638587
 10
312.1243783034
 20
201.0289862098
 10
313.6999821048
 20
201.0968139183
 10
315.2781788793
 20
201.1194355436
  0
LINE
  5
305
330
1F
100
AcDbEntity
  8
0
  6
Continuous
 62
     8
370
    18
100
AcDbLine
 10
353.2586619018
 20
185.2371199317
 30
0.0
 11
353.3662116672
 21
185.1001336954
 31
0.0
  0
LWPOLYLINE
  5
306
330
1F
100
AcDbEntity
  8
0
  6
Continuous
 62
     8
370
    18
100
AcDbPolyline
 90
       77
 70
   128
 43
0.0
 10
358.4862945965
 20
166.6657734814
 10
358.2707984361
 20
165.5423932127
 10
357.9848958209
 20
164.3814215674
 10
357.6363152095
 20
163.2290452866
 10
357.2255681919
 20
162.0869556414
 10
356.753257596
 20
160.9568288059
 10
356.2200766027
 20
159.840323397
 10
355.6268077287
 20
158.7390780404
 10
354.9743216778
 20
157.6547089655
 10
354.2635760634
 20
156.5888076334
 10
353.4956140025
 20
155.5429384014
 10
352.6715625855
 20
154.5186362268
 10
351.7926312214
 20
153.5174044143
 10
350.8601098633
 20
152.5407124095
 10
349.8753671147
 20
151.5899936428
 10
348.8398482215
 20
150.6666434249
 10
347.7550729504
 20
149.7720168998
 10
346.6226333588
 20
148.9074270551
 10
345.4441914578
 20
148.0741427957
 10
344.2214767736
 20
147.2733870812
 10
342.9562838085
 20
146.5063351309
 10
341.6504694076
 20
145.7741126995
 10
340.3059500336
 20
145.0777944242
 10
338.9246989543
 20
144.4184022483
 10
337.5087433459
 20
143.7969039205
 10
336.0601613185
 20
143.2142115755
 10
334.5810788662
 20
142.6711803946
 10
333.0736667462
 20
142.1686073509
 10
331.5401372939
 20
141.7072300398
 10
329.9827411751
 20
141.2877255959
 10
328.4037640834
 20
140.9107096999
 10
326.8055233854
 20
140.5767356747
 10
325.1903647197
 20
140.2862936732
 10
323.5606585545
 20
140.0398099591
 10
321.9187967081
 20
139.8376462812
 10
320.2671888394
 20
139.6800993425
 10
318.6082589106
 20
139.567400365
 10
316.9444416301
 20
139.49971475
 10
315.2781788793
 20
139.4771418353
 10
313.6119161285
 20
139.49971475
 10
311.948098848
 20
139.567400365
 10
310.2891689192
 20
139.6800993425
 10
308.6375610505
 20
139.8376462812
 10
306.9956992042
 20
140.0398099591
 10
305.3659930389
 20
140.2862936732
 10
303.7508343732
 20
140.5767356747
 10
302.1525936752
 20
140.9107096999
 10
300.5736165835
 20
141.2877255959
 10
299.0162204647
 20
141.7072300398
 10
297.4826910124
 20
142.1686073509
 10
295.9752788924
 20
142.6711803946
 10
294.4961964401
 20
143.2142115755
 10
293.0476144128
 20
143.7969039205
 10
291.6316588044
 20
144.4184022483
 10
290.250407725
 20
145.0777944242
 10
288.905888351
 20
145.7741126995
 10
287.6000739502
 20
146.5063351309
 10
286.334880985
 20
147.2733870812
 10
285.1121663008
 20
148.0741427957
 10
283.9337243999
 20
148.9074270551
 10
282.8012848082
 20
149.7720168998
 10
281.7165095371
 20
150.6666434249
 10
280.6809906439
 20
151.5899936428
 10
279.6962478953
 20
152.5407124095
 10
278.7637265372
 20
153.5174044143
 10
277.8847951731
 20
154.5186362268
 10
277.0607437561
 20
155.5429384014
 10
276.2927816953
 20
156.5888076334
 10
275.5820360808
 20
157.6547089655
 10
274.92955003
 20
158.7390780404
 10
274.3362811559
 20
159.840323397
 10
273.8031001627
 20
160.9568288059
 10
273.3307895667
 20
162.0869556414
 10
272.9200425491
 20
163.2290452866
 10
272.5714619377
 20
164.3814215674
 10
272.2855593225
 20
165.5423932127
 10
272.0700631621
 20
166.6657734814
  0
LINE
  5
307
330
1F
100
AcDbEntity
  8
0
  6
Continuous
 62
     8
370
    18
100
AcDbLine
 10
277.1901460915
 20
185.1001336954
 30
0.0
 11
277.2976958568
 21
185.2371199317
 31
0.0
  0
LINE
  5
308
330
1F
100
AcDbEntity
  8
0
  6
Continuous
 62
     8
370
    18
100
AcDbLine
 10
353.0583706024
 20
185.7438077107
 30
0.0
 11
353.1733991506
 21
185.6037653872
 31
0.0
  0
LWPOLYLINE
  5
309
330
1F
100
AcDbEntity
  8
0
  6
Continuous
 62
     8
370
    18
100
AcDbPolyline
 90
       83
 70
   128
 43
0.0
 10
359.0350611342
 20
170.1059659564
 10
359.0029696323
 20
168.949022843
 10
358.9066878296
 20
167.7656449054
 10
358.7463751738
 20
166.5857430611
 10
358.5222669457
 20
165.4110489788
 10
358.234692055
 20
164.243286684
 10
357.8840725577
 20
163.084170029
 10
357.470923036
 20
161.9354001772
 10
356.9958498441
 20
160.7986631069
 10
356.4595502171
 20
159.6756271364
 10
355.8628112489
 20
158.5679404758
 10
355.2065087362
 20
157.4772288082
 10
354.4916058933
 20
156.4050929033
 10
353.7191519388
 20
155.3531062684
 10
352.8902805554
 20
154.3228128389
 10
352.0062082261
 20
153.3157247125
 10
351.0682324491
 20
152.33331993
 10
350.077729833
 20
151.3770403057
 10
349.0361540771
 20
150.448289312
 10
347.9450338375
 20
149.548430019
 10
346.8059704834
 20
148.6787830942
 10
345.6206357476
 20
147.8406248645
 10
344.3907692721
 20
147.0351854427
 10
343.1181760557
 20
146.2636469221
 10
341.8047238043
 20
145.527141642
 10
340.4523401903
 20
144.8267505254
 10
339.063010023
 20
144.1635014929
 10
337.6387723362
 20
143.5383679538
 10
336.181717395
 20
142.9522673779
 10
334.6939836284
 20
142.4060599485
 10
333.177754491
 20
141.9005473004
 10
331.6352552581
 20
141.4364713431
 10
330.0687497599
 20
141.0145131721
 10
328.4805370594
 20
140.6352920691
 10
326.8729480776
 20
140.2993645935
 10
325.2483421732
 20
140.0072237652
 10
323.6091036793
 20
139.759298341
 10
321.9576384043
 20
139.5559521857
 10
320.2963701015
 20
139.3974837379
 10
318.627736911
 20
139.2841255718
 10
316.9541877823
 20
139.2160440562
 10
315.2781788793
 20
139.1933391101
 10
313.6021699764
 20
139.2160440562
 10
311.9286208476
 20
139.2841255718
 10
310.2599876571
 20
139.3974837379
 10
308.5987193543
 20
139.5559521857
 10
306.9472540794
 20
139.759298341
 10
305.3080155854
 20
140.0072237652
 10
303.683409681
 20
140.2993645935
 10
302.0758206993
 20
140.6352920691
 10
300.4876079987
 20
141.0145131721
 10
298.9211025006
 20
141.4364713431
 10
297.3786032676
 20
141.9005473004
 10
295.8623741302
 20
142.4060599485
 10
294.3746403636
 20
142.9522673779
 10
292.9175854224
 20
143.5383679538
 10
291.4933477356
 20
144.1635014929
 10
290.1040175683
 20
144.8267505254
 10
288.7516339543
 20
145.527141642
 10
287.4381817029
 20
146.2636469221
 10
286.1655884865
 20
147.0351854427
 10
284.935722011
 20
147.8406248645
 10
283.7503872752
 20
148.6787830942
 10
282.6113239212
 20
149.548430019
 10
281.5202036815
 20
150.448289312
 10
280.4786279256
 20
151.3770403057
 10
279.4881253095
 20
152.33331993
 10
278.5501495325
 20
153.3157247125
 10
277.6660772032
 20
154.3228128389
 10
276.8372058198
 20
155.3531062684
 10
276.0647518653
 20
156.4050929033
 10
275.3498490224
 20
157.4772288082
 10
274.6935465097
 20
158.5679404758
 10
274.0968075415
 20
159.6756271364
 10
273.5605079146
 20
160.7986631069
 10
273.0854347226
 20
161.9354001772
 10
272.672285201
 20
163.084170029
 10
272.3216657036
 20
164.243286684
 10
272.034090813
 20
165.4110489788
 10
271.8099825848
 20
166.5857430611
 10
271.649669929
 20
167.7656449054
 10
271.5533881263
 20
168.949022843
 10
271.5212966244
 20
170.1059659564
  0
LINE
  5
30A
330
1F
100
AcDbEntity
  8
0
  6
Continuous
 62
     8
370
    18
100
AcDbLine
 10
277.382958608
 20
185.6037653872
 30
0.0
 11
277.4979871562
 21
185.7438077107
 31
0.0
  0
LWPOLYLINE
  5
30B
330
1F
100
AcDbEntity
  8
0
  6
Continuous
 62
     8
370
    18
100
AcDbPolyline
 90
       32
 70
   128
 43
0.0
 10
315.2781788793
 20
200.8443946577
 10
313.7080096296
 20
200.8218880978
 10
312.1404201639
 20
200.754405396
 10
310.5779860275
 20
200.6420574264
 10
309.0232742956
 20
200.4850287763
 10
307.4788393556
 20
200.2835774435
 10
305.9472187099
 20
200.0380344119
 10
304.4309288072
 20
199.7488031081
 10
302.9324609079
 20
199.4163587383
 10
301.4542769909
 20
199.0412475078
 10
299.9988057083
 20
198.6240857234
 10
298.5684383958
 20
198.1655587807
 10
297.1655251429
 20
197.6664200384
 10
295.7923709326
 20
197.1274895801
 10
294.4512318536
 20
196.549652867
 10
293.1443113939
 20
195.9338592835
 10
291.8737568204
 20
195.2811205767
 10
290.6416556508
 20
194.5925091946
 10
289.4500322242
 20
193.8691565239
 10
288.3008443747
 20
193.1122510312
 10
287.195980215
 20
192.3230363102
 10
286.137255034
 20
191.5028090386
 10
285.1264083143
 20
190.6529168477
 10
284.1651008745
 20
189.7747561081
 10
283.2549121401
 20
188.8697696355
 10
282.3973375489
 20
187.9394443205
 10
281.5937860937
 20
186.9853086849
 10
280.8455780074
 20
186.0089303713
 10
280.1539425939
 20
185.0119135666
 10
279.5200162084
 20
183.9958963667
 10
278.9448403902
 20
182.9625480853
 10
278.939999233
 20
182.953300019
  0
LWPOLYLINE
  5
30C
330
1F
100
AcDbEntity
  8
0
  6
Continuous
 62
     8
370
    18
100
AcDbPolyline
 90
       32
 70
   128
 43
0.0
 10
351.6163585256
 20
182.953300019
 10
351.6115173684
 20
182.9625480853
 10
351.0363415502
 20
183.9958963667
 10
350.4024151647
 20
185.0119135666
 10
349.7107797512
 20
186.0089303713
 10
348.9625716649
 20
186.9853086849
 10
348.1590202097
 20
187.9394443205
 10
347.3014456185
 20
188.8697696355
 10
346.3912568842
 20
189.7747561081
 10
345.4299494443
 20
190.6529168477
 10
344.4191027247
 20
191.5028090386
 10
343.3603775436
 20
192.3230363102
 10
342.2555133839
 20
193.1122510312
 10
341.1063255344
 20
193.8691565239
 10
339.9147021078
 20
194.5925091946
 10
338.6826009383
 20
195.2811205767
 10
337.4120463647
 20
195.9338592835
 10
336.105125905
 20
196.549652867
 10
334.763986826
 20
197.1274895801
 10
333.3908326157
 20
197.6664200384
 10
331.9879193629
 20
198.1655587807
 10
330.5575520503
 20
198.6240857234
 10
329.1020807678
 20
199.0412475078
 10
327.6238968507
 20
199.4163587383
 10
326.1254289514
 20
199.7488031081
 10
324.6091390488
 20
200.0380344119
 10
323.0775184031
 20
200.2835774435
 10
321.533083463
 20
200.4850287763
 10
319.9783717311
 20
200.6420574264
 10
318.4159375947
 20
200.754405396
 10
316.848348129
 20
200.8218880978
 10
315.2781788793
 20
200.8443946577
  0
LWPOLYLINE
  5
30D
330
1F
100
AcDbEntity
  8
0
  6
Continuous
 62
     8
370
    18
100
AcDbPolyline
 90
       32
 70
   128
 43
0.0
 10
315.2781788793
 20
200.5912389607
 10
316.8553627526
 20
200.5684850142
 10
318.4299215591
 20
200.5002610463
 10
319.9992346008
 20
200.3866806093
 10
321.5606899113
 20
200.2279327464
 10
323.1116886021
 20
200.0242816778
 10
324.6496491891
 20
199.7760663607
 10
326.1720118887
 20
199.483699925
 10
327.6762428782
 20
199.1476689856
 10
329.1598385139
 20
198.768532833
 10
330.620329497
 20
198.3469225018
 10
332.0552849845
 20
197.8835397209
 10
333.4623166346
 20
197.3791557452
 10
334.839082582
 20
196.8346100719
 10
336.1832913357
 20
196.2508090437
 10
337.4927055928
 20
195.6287243398
 10
338.7651459625
 20
194.9693913586
 10
339.9984945934
 20
194.273907495
 10
341.1906986984
 20
193.5434303131
 10
342.3397739714
 20
192.7791756202
 10
343.4438078901
 20
191.9824154428
 10
344.500962899
 20
191.1544759094
 10
345.5094794679
 20
190.2967350439
 10
346.4676790204
 20
189.4106204712
 10
347.373966728
 20
188.4976070415
 10
348.2268341642
 20
187.5592143756
 10
349.0248618154
 20
186.5970043356
 10
349.7667214432
 20
185.612578425
 10
350.4511782956
 20
184.6075751236
 10
351.0770931617
 20
183.5836671602
 10
351.6434242679
 20
182.5425587286
 10
352.03965123
 20
181.7273424921
  0
LWPOLYLINE
  5
30E
330
1F
100
AcDbEntity
  8
0
  6
Continuous
 62
     8
370
    18
100
AcDbPolyline
 90
       32
 70
   128
 43
0.0
 10
278.5167065286
 20
181.7273424921
 10
278.9129334907
 20
182.5425587286
 10
279.4792645969
 20
183.5836671602
 10
280.105179463
 20
184.6075751236
 10
280.7896363154
 20
185.612578425
 10
281.5314959433
 20
186.5970043356
 10
282.3295235944
 20
187.5592143756
 10
283.1823910307
 20
188.4976070415
 10
284.0886787383
 20
189.4106204712
 10
285.0468782908
 20
190.2967350439
 10
286.0553948596
 20
191.1544759094
 10
287.1125498685
 20
191.9824154428
 10
288.2165837872
 20
192.7791756202
 10
289.3656590603
 20
193.5434303131
 10
290.5578631653
 20
194.273907495
 10
291.7912117962
 20
194.9693913586
 10
293.0636521658
 20
195.6287243398
 10
294.3730664229
 20
196.2508090437
 10
295.7172751766
 20
196.8346100719
 10
297.094041124
 20
197.3791557452
 10
298.5010727741
 20
197.8835397209
 10
299.9360282616
 20
198.3469225018
 10
301.3965192448
 20
198.768532833
 10
302.8801148804
 20
199.1476689856
 10
304.38434587
 20
199.483699925
 10
305.9067085695
 20
199.7760663607
 10
307.4446691565
 20
200.0242816778
 10
308.9956678473
 20
200.2279327464
 10
310.5571231578
 20
200.3866806093
 10
312.1264361996
 20
200.5002610463
 10
313.700995006
 20
200.5684850142
 10
315.2781788793
 20
200.5912389607
  0
LWPOLYLINE
  5
30F
330
1F
100
AcDbEntity
  8
0
  6
Continuous
 62
     8
370
    18
100
AcDbPolyline
 90
        3
 70
   128
 43
0.0
 10
292.8146333902
 20
195.3325457569
 10
292.083361378
 20
194.9948089696
 10
291.6938381303
 20
194.8085172371
  0
LWPOLYLINE
  5
310
330
1F
100
AcDbEntity
  8
0
  6
Continuous
 62
     8
370
    18
100
AcDbPolyline
 90
        3
 70
   128
 43
0.0
 10
276.1304299172
 20
180.7073197391
 10
276.1090954319
 20
180.6665205899
 10
276.080565949
 20
180.6116710907
  0
LWPOLYLINE
  5
311
330
1F
100
AcDbEntity
  8
0
  6
Continuous
 62
     8
370
    18
100
AcDbPolyline
 90
        3
 70
   128
 43
0.0
 10
354.4757918096
 20
180.6116710907
 10
354.4472623267
 20
180.6665205899
 10
354.4259278414
 20
180.7073197391
  0
LWPOLYLINE
  5
312
330
1F
100
AcDbEntity
  8
0
  6
Continuous
 62
     8
370
    18
100
AcDbPolyline
 90
        3
 70
   128
 43
0.0
 10
338.8625196283
 20
194.8085172371
 10
338.4729963806
 20
194.9948089696
 10
337.7417243684
 20
195.3325457569
  0
LWPOLYLINE
  5
313
330
1F
100
AcDbEntity
  8
0
  6
Continuous
 62
     8
370
    18
100
AcDbPolyline
 90
       34
 70
   128
 43
0.0
 10
315.2781788793
 20
199.8023199854
 10
316.8506135239
 20
199.7796345557
 10
318.4204310062
 20
199.7116160245
 10
319.98501852
 20
199.5983776017
 10
321.5417719637
 20
199.4401077617
 10
323.0881002749
 20
199.2370699289
 10
324.6214297426
 20
198.9896020397
 10
326.1392082914
 20
198.6981159801
 10
327.6389097286
 20
198.3630968998
 10
329.1180379491
 20
197.985102405
 10
330.5741310901
 20
197.5647616303
 10
332.0047656281
 20
197.1027741913
 10
333.4075604133
 20
196.5999090206
 10
334.780180632
 20
196.0570030877
 10
336.1203416935
 20
195.4749600058
 10
337.4258130319
 20
194.8547485283
 10
338.6944218189
 20
194.1974009359
 10
339.9240565806
 20
193.5040113189
 10
341.112670711
 20
192.7757337557
 10
342.2582858794
 20
192.0137803927
 10
343.3589953223
 20
191.2194194258
 10
344.4129670176
 20
190.3939729907
 10
345.4184467332
 20
189.5388149613
 10
346.3737609476
 20
188.6553686639
 10
347.2773196344
 20
187.7451045076
 10
348.1276189093
 20
186.8095375372
 10
348.9232435333
 20
185.8502249117
 10
349.6628692675
 20
184.8687633123
 10
350.3452650779
 20
183.8667862849
 10
350.9692951841
 20
182.8459615214
 10
351.5339209496
 20
181.8079880839
 10
352.0382026104
 20
180.7545935767
 10
352.4813008396
 20
179.687531271
 10
352.6281113597
 20
179.2936988827
  0
LWPOLYLINE
  5
314
330
1F
100
AcDbEntity
  8
0
  6
Continuous
 62
     8
370
    18
100
AcDbPolyline
 90
       34
 70
   128
 43
0.0
 10
277.9282463989
 20
179.2936988827
 10
278.0750569191
 20
179.687531271
 10
278.5181551482
 20
180.7545935767
 10
279.022436809
 20
181.8079880839
 10
279.5870625745
 20
182.8459615214
 10
280.2110926807
 20
183.8667862849
 10
280.8934884912
 20
184.8687633123
 10
281.6331142254
 20
185.8502249117
 10
282.4287388493
 20
186.8095375372
 10
283.2790381243
 20
187.7451045076
 10
284.182596811
 20
188.6553686639
 10
285.1379110254
 20
189.5388149613
 10
286.143390741
 20
190.3939729907
 10
287.1973624363
 20
191.2194194258
 10
288.2980718792
 20
192.0137803927
 10
289.4436870476
 20
192.7757337557
 10
290.6323011781
 20
193.5040113189
 10
291.8619359397
 20
194.1974009359
 10
293.1305447267
 20
194.8547485283
 10
294.4360160651
 20
195.4749600058
 10
295.7761771266
 20
196.0570030877
 10
297.1487973453
 20
196.5999090206
 10
298.5515921305
 20
197.1027741913
 10
299.9822266685
 20
197.5647616303
 10
301.4383198095
 20
197.985102405
 10
302.9174480301
 20
198.3630968998
 10
304.4171494672
 20
198.6981159801
 10
305.934928016
 20
198.9896020397
 10
307.4682574838
 20
199.2370699289
 10
309.0145857949
 20
199.4401077617
 10
310.5713392386
 20
199.5983776017
 10
312.1359267524
 20
199.7116160245
 10
313.7057442347
 20
199.7796345557
 10
315.2781788793
 20
199.8023199854
  0
LWPOLYLINE
  5
315
330
1F
100
AcDbEntity
  8
0
  6
Continuous
 62
     8
370
    18
100
AcDbPolyline
 90
       71
 70
   128
 43
0.0
 10
273.0904604536
 20
161.5719582887
 10
273.475345734
 20
160.5072661458
 10
273.9460286861
 20
159.3810338746
 10
274.4773722682
 20
158.2683760888
 10
275.0685966604
 20
157.1709257671
 10
275.7188341593
 20
156.0902935693
 10
276.4271304518
 20
155.0280654721
 10
277.1924460154
 20
153.9858004417
 10
278.0136576438
 20
152.9650281457
 10
278.889560096
 20
151.9672467084
 10
279.8188678641
 20
150.9939205115
 10
280.8002170609
 20
150.0464780455
 10
281.8321674211
 20
149.1263098128
 10
282.9132044153
 20
148.2347662871
 10
284.0417414726
 20
147.3731559317
 10
285.2161223093
 20
146.5427432784
 10
286.4346233594
 20
145.7447470723
 10
287.6954563048
 20
144.980338483
 10
288.9967706992
 20
144.2506393855
 10
290.3366566842
 20
143.5567207137
 10
291.7131477925
 20
142.899600889
 10
293.1242238335
 20
142.2802443255
 10
294.5678138584
 20
141.6995600142
 10
296.0417992
 20
141.1584001895
 10
297.5440165814
 20
140.657559078
 10
299.0722612915
 20
140.1977717331
 10
300.6242904205
 20
139.7797129562
 10
302.1978261515
 20
139.4039963061
 10
303.7905591038
 20
139.0711731989
 10
305.4001517224
 20
138.7817320983
 10
307.0242417079
 20
138.5360977992
 10
308.6604454845
 20
138.3346308036
 10
310.3063616973
 20
138.1776267923
 10
311.9595747375
 20
138.0653161901
 10
313.617658287
 20
137.9978638285
 10
315.2781788793
 20
137.9753687031
 10
316.9386994717
 20
137.9978638285
 10
318.5967830211
 20
138.0653161901
 10
320.2499960613
 20
138.1776267923
 10
321.8959122742
 20
138.3346308036
 10
323.5321160507
 20
138.5360977992
 10
325.1562060362
 20
138.7817320983
 10
326.7657986548
 20
139.0711731989
 10
328.3585316072
 20
139.4039963061
 10
329.9320673382
 20
139.7797129562
 10
331.4840964671
 20
140.1977717331
 10
333.0123411772
 20
140.657559078
 10
334.5145585586
 20
141.1584001895
 10
335.9885439002
 20
141.6995600142
 10
337.4321339252
 20
142.2802443255
 10
338.8432099661
 20
142.899600889
 10
340.2197010744
 20
143.5567207137
 10
341.5595870594
 20
144.2506393855
 10
342.8609014538
 20
144.980338483
 10
344.1217343992
 20
145.7447470723
 10
345.3402354494
 20
146.5427432784
 10
346.514616286
 20
147.3731559317
 10
347.6431533433
 20
148.2347662871
 10
348.7241903375
 20
149.1263098128
 10
349.7561406977
 20
150.0464780455
 10
350.7374898946
 20
150.9939205115
 10
351.6667976627
 20
151.9672467084
 10
352.5427001148
 20
152.9650281457
 10
353.3639117433
 20
153.9858004417
 10
354.1292273068
 20
155.0280654721
 10
354.8375235993
 20
156.0902935693
 10
355.4877610982
 20
157.1709257671
 10
356.0789854904
 20
158.2683760888
 10
356.6103290726
 20
159.3810338746
 10
357.0810120247
 20
160.5072661458
 10
357.465897305
 20
161.5719582887
  0
LWPOLYLINE
  5
316
330
1F
100
AcDbEntity
  8
0
  6
Continuous
 62
     8
370
    18
100
AcDbPolyline
 90
       35
 70
   128
 43
0.0
 10
315.2781788793
 20
199.5691392653
 10
313.7141641242
 20
199.5465753089
 10
312.1527525173
 20
199.4789209954
 10
310.5965428741
 20
199.3662889285
 10
309.048125352
 20
199.2088665733
 10
307.5100771392
 20
199.0069159438
 10
305.9849581651
 20
198.7607731668
 10
304.4753068397
 20
198.4708479227
 10
302.9836358288
 20
198.1376227635
 10
301.5124278714
 20
197.7616523095
 10
300.064131648
 20
197.3435623265
 10
298.6411577047
 20
196.8840486839
 10
297.2458744414
 20
196.3838761969
 10
295.8806041691
 20
195.8438773533
 10
294.5476192457
 20
195.2649509278
 10
293.2491382928
 20
194.6480604863
 10
291.987322504
 20
193.9942327821
 10
290.7642720471
 20
193.3045560468
 10
289.5820225689
 20
192.5801781794
 10
288.4425418068
 20
191.8223048353
 10
287.3477263144
 20
191.0321974198
 10
286.2993983037
 20
190.2111709889
 10
285.2993026135
 20
189.3605920599
 10
284.3491038042
 20
188.4818763376
 10
283.450383388
 20
187.5764863575
 10
282.6046371963
 20
186.645929052
 10
281.8132728903
 20
185.6917532418
 10
281.0776076176
 20
184.7155470583
 10
280.3988658206
 20
183.7189353006
 10
279.7781771979
 20
182.7035767303
 10
279.2165748246
 20
181.6711613118
 10
278.7149934324
 20
180.6234073986
 10
278.2742678539
 20
179.5620588736
 10
277.8951316334
 20
178.4888822468
 10
277.7493201234
 20
178.0178876191
  0
LWPOLYLINE
  5
317
330
1F
100
AcDbEntity
  8
0
  6
Continuous
 62
     8
370
    18
100
AcDbPolyline
 90
       35
 70
   128
 43
0.0
 10
352.8070376352
 20
178.0178876191
 10
352.6612261252
 20
178.4888822468
 10
352.2820899047
 20
179.5620588736
 10
351.8413643263
 20
180.6234073986
 10
351.339782934
 20
181.6711613118
 10
350.7781805607
 20
182.7035767303
 10
350.157491938
 20
183.7189353006
 10
349.478750141
 20
184.7155470583
 10
348.7430848684
 20
185.6917532418
 10
347.9517205623
 20
186.645929052
 10
347.1059743706
 20
187.5764863575
 10
346.2072539544
 20
188.4818763376
 10
345.2570551451
 20
189.3605920599
 10
344.2569594549
 20
190.2111709889
 10
343.2086314443
 20
191.0321974198
 10
342.1138159518
 20
191.8223048353
 10
340.9743351898
 20
192.5801781794
 10
339.7920857115
 20
193.3045560468
 10
338.5690352546
 20
193.9942327821
 10
337.3072194658
 20
194.6480604863
 10
336.008738513
 20
195.2649509278
 10
334.6757535895
 20
195.8438773533
 10
333.3104833173
 20
196.3838761969
 10
331.9152000539
 20
196.8840486839
 10
330.4922261106
 20
197.3435623265
 10
329.0439298873
 20
197.7616523095
 10
327.5727219299
 20
198.1376227635
 10
326.0810509189
 20
198.4708479227
 10
324.5713995935
 20
198.7607731668
 10
323.0462806194
 20
199.0069159438
 10
321.5082324066
 20
199.2088665733
 10
319.9598148845
 20
199.3662889285
 10
318.4036052413
 20
199.4789209954
 10
316.8421936344
 20
199.5465753089
 10
315.2781788793
 20
199.5691392653
  0
LWPOLYLINE
  5
318
330
1F
100
AcDbEntity
  8
0
  6
Continuous
 62
     8
370
    18
100
AcDbPolyline
 90
       37
 70
   128
 43
0.0
 10
315.2781788793
 20
199.3399253433
 10
313.7214956955
 20
199.3173203325
 10
312.1674374318
 20
199.2495434172
 10
310.6186245818
 20
199.1367088847
 10
309.0776687945
 20
198.9790069995
 10
307.5471684699
 20
198.7767036826
 10
306.0297043777
 20
198.5301400632
 10
304.5278353059
 20
198.2397319034
 10
303.0440937452
 20
197.9059688969
 10
301.5809816198
 20
197.5294138439
 10
300.1409660675
 20
197.1107017011
 10
298.7264752805
 20
196.6505385121
 10
297.3398944101
 20
196.1497002161
 10
295.9835615454
 20
195.6090313397
 10
294.6597637704
 20
195.029443573
 10
293.3707333077
 20
194.411914232
 10
292.1186437542
 20
193.757484611
 10
290.9056064161
 20
193.0672582263
 10
289.7336667489
 20
192.3423989558
 10
288.6048009079
 20
191.5841290762
 10
287.5209124164
 20
190.793727202
 10
286.4838289554
 20
189.9725261296
 10
285.4952992824
 20
189.1219105897
 10
284.556990282
 20
188.2433149127
 10
283.6704841554
 20
187.3382206095
 10
282.8372757525
 20
186.408153874
 10
282.0587700513
 20
185.454683009
 10
281.3362797883
 20
184.4794157821
 10
280.6710232457
 20
183.4839967146
 10
280.0641221964
 20
182.470104308
 10
279.5166000129
 20
181.4394482145
 10
279.0293799416
 20
180.3937663533
 10
278.6032835456
 20
179.3348219805
 10
278.2390293199
 20
178.2644007161
 10
277.9372314794
 20
177.1843075323
 10
277.6983989237
 20
176.0963637107
 10
277.6455551086
 20
175.806053886
  0
LWPOLYLINE
  5
319
330
1F
100
AcDbEntity
  8
0
  6
Continuous
 62
     8
370
    18
100
AcDbPolyline
 90
       37
 70
   128
 43
0.0
 10
352.91080265
 20
175.806053886
 10
352.8579588349
 20
176.0963637107
 10
352.6191262792
 20
177.1843075323
 10
352.3173284388
 20
178.2644007161
 10
351.953074213
 20
179.3348219805
 10
351.526977817
 20
180.3937663533
 10
351.0397577457
 20
181.4394482145
 10
350.4922355622
 20
182.470104308
 10
349.885334513
 20
183.4839967146
 10
349.2200779703
 20
184.4794157821
 10
348.4975877074
 20
185.454683009
 10
347.7190820061
 20
186.408153874
 10
346.8858736032
 20
187.3382206095
 10
345.9993674767
 20
188.2433149127
 10
345.0610584762
 20
189.1219105897
 10
344.0725288032
 20
189.9725261296
 10
343.0354453423
 20
190.793727202
 10
341.9515568507
 20
191.5841290762
 10
340.8226910097
 20
192.3423989558
 10
339.6507513425
 20
193.0672582263
 10
338.4377140045
 20
193.757484611
 10
337.1856244509
 20
194.411914232
 10
335.8965939882
 20
195.029443573
 10
334.5727962132
 20
195.6090313397
 10
333.2164633485
 20
196.1497002161
 10
331.8298824782
 20
196.6505385121
 10
330.4153916911
 20
197.1107017011
 10
328.9753761389
 20
197.5294138439
 10
327.5122640134
 20
197.9059688969
 10
326.0285224528
 20
198.2397319034
 10
324.5266533809
 20
198.5301400632
 10
323.0091892888
 20
198.7767036826
 10
321.4786889641
 20
198.9790069995
 10
319.9377331768
 20
199.1367088847
 10
318.3889203269
 20
199.2495434172
 10
316.8348620631
 20
199.3173203325
 10
315.2781788793
 20
199.3399253433
  0
LINE
  5
31A
330
1F
100
AcDbEntity
  8
0
  6
Continuous
 62
     8
370
    18
100
AcDbLine
 10
354.1504963336
 20
182.252646513
 30
0.0
 11
354.2127437038
 21
182.1646175106
 31
0.0
  0
LWPOLYLINE
  5
31B
330
1F
100
AcDbEntity
  8
0
  6
Continuous
 62
     8
370
    18
100
AcDbPolyline
 90
       77
 70
   128
 43
0.0
 10
358.4713144869
 20
164.8328934564
 10
358.2640585147
 20
163.7589748486
 10
357.9782007203
 20
162.5981852079
 10
357.6296747556
 20
161.4459895843
 10
357.2189921305
 20
160.3040789837
 10
356.7467555784
 20
159.1741293173
 10
356.2136581715
 20
158.0577989422
 10
355.6204823038
 20
156.956726227
 10
354.9680985427
 20
155.8725271478
 10
354.2574643513
 20
154.8067929164
 10
353.4896226833
 20
153.7610876445
 10
352.6657004523
 20
152.736946049
 10
351.7869068776
 20
151.7358711988
 10
350.8545317101
 20
150.7593323093
 10
349.8699433389
 20
149.8087625861
 10
348.8345867833
 20
148.8855571212
 10
347.7499815716
 20
147.991070846
 10
346.6177195117
 20
147.1266165424
 10
345.4394623542
 20
146.2934629164
 10
344.2169393541
 20
145.4928327357
 10
342.9519447323
 20
144.7259010356
 10
341.646335043
 20
143.9937933942
 10
340.3020264484
 20
143.2975842802
 10
338.9209919067
 20
142.6382954767
 10
337.5052582766
 20
142.0168945808
 10
336.0569033424
 20
141.434293584
 10
334.5780527647
 20
140.8913475337
 10
333.0708769607
 20
140.388853278
 10
331.5375879186
 20
139.9275482966
 10
329.9804359517
 20
139.5081096182
 10
328.401706395
 20
139.1311528267
 10
326.8037162521
 20
138.7972311584
 10
325.1888107936
 20
138.5068346893
 10
323.5593601162
 20
138.2603896162
 10
321.9177556634
 20
138.0582576313
 10
320.266406716
 20
137.9007353912
 10
318.6077368564
 20
137.7880540814
 10
316.9441804114
 20
137.7203790774
 10
315.2781788793
 20
137.6978097015
 10
313.6121773473
 20
137.7203790774
 10
311.9486209022
 20
137.7880540814
 10
310.2899510426
 20
137.9007353912
 10
308.6386020953
 20
138.0582576313
 10
306.9969976424
 20
138.2603896162
 10
305.367546965
 20
138.5068346893
 10
303.7526415066
 20
138.7972311584
 10
302.1546513636
 20
139.1311528267
 10
300.5759218069
 20
139.5081096182
 10
299.01876984
 20
139.9275482966
 10
297.4854807979
 20
140.388853278
 10
295.9783049939
 20
140.8913475337
 10
294.4994544162
 20
141.434293584
 10
293.051099482
 20
142.0168945808
 10
291.6353658519
 20
142.6382954767
 10
290.2543313102
 20
143.2975842802
 10
288.9100227156
 20
143.9937933942
 10
287.6044130263
 20
144.7259010356
 10
286.3394184045
 20
145.4928327357
 10
285.1168954044
 20
146.2934629164
 10
283.9386382469
 20
147.1266165424
 10
282.806376187
 20
147.991070846
 10
281.7217709754
 20
148.8855571212
 10
280.6864144197
 20
149.8087625861
 10
279.7018260485
 20
150.7593323093
 10
278.769450881
 20
151.7358711988
 10
277.8906573063
 20
152.736946049
 10
277.0667350753
 20
153.7610876445
 10
276.2988934073
 20
154.8067929164
 10
275.5882592159
 20
155.8725271478
 10
274.9358754548
 20
156.956726227
 10
274.3426995871
 20
158.0577989422
 10
273.8096021802
 20
159.1741293173
 10
273.3373656281
 20
160.3040789837
 10
272.926683003
 20
161.4459895843
 10
272.5781570383
 20
162.5981852079
 10
272.2922992439
 20
163.7589748486
 10
272.0850432717
 20
164.8328934564
  0
LINE
  5
31C
330
1F
100
AcDbEntity
  8
0
  6
Continuous
 62
     8
370
    18
100
AcDbLine
 10
276.3436140548
 20
182.1646175106
 30
0.0
 11
276.4058614251
 21
182.252646513
 31
0.0
  0
LINE
  5
31D
330
1F
100
AcDbEntity
  8
0
  6
Continuous
 62
     8
370
    18
100
AcDbLine
 10
354.0526038259
 20
182.6785151587
 30
0.0
 11
354.1191597422
 21
182.5880991367
 31
0.0
  0
LWPOLYLINE
  5
31E
330
1F
100
AcDbEntity
  8
0
  6
Continuous
 62
     8
370
    18
100
AcDbPolyline
 90
       85
 70
   128
 43
0.0
 10
359.0196766491
 20
168.9627338712
 10
359.0282594279
 20
168.3499856097
 10
358.9961547898
 20
167.1650530587
 10
358.8998879934
 20
165.9818595596
 10
358.7396003235
 20
164.802141612
 10
358.5155270243
 20
163.6276306147
 10
358.2279969544
 20
162.4600503246
 10
357.8774321038
 20
161.3011143267
 10
357.4643469747
 20
160.1525235195
 10
356.9893478265
 20
159.0159636183
 10
356.4531317859
 20
157.8931026815
 10
355.8564858241
 20
156.7855886625
 10
355.2002856011
 20
155.6950469906
 10
354.4854941812
 20
154.6230781863
 10
353.7131606196
 20
153.5712555115
 10
352.8844184221
 20
152.5411226611
 10
352.0004838823
 20
151.5341914971
 10
351.0626542959
 20
150.5519398298
 10
350.0723060573
 20
149.595809249
 10
349.0308926389
 20
148.6672030082
 10
347.9399424587
 20
147.7674839652
 10
346.8010566364
 20
146.8979725815
 10
345.615906644
 20
146.0599449852
 10
344.3862318526
 20
145.2546310972
 10
343.1138369795
 20
144.4832128269
 10
341.8005894397
 20
143.7468223367
 10
340.448416605
 20
143.0465403814
 10
339.0593029755
 20
142.3833947213
 10
337.635287267
 20
141.7583586141
 10
336.1784594189
 20
141.1723493864
 10
334.690957527
 20
140.6262270876
 10
333.1749647055
 20
140.1207932275
 10
331.6327058828
 20
139.6567896
 10
330.0664445365
 20
139.2348971944
 10
328.478479371
 20
138.855735196
 10
326.8711409443
 20
138.5198600772
 10
325.2467882471
 20
138.2277647812
 10
323.607805241
 20
137.9798779981
 10
321.9565973596
 20
137.7765635359
 10
320.2955879781
 20
137.6181197866
 10
318.6272148568
 20
137.5047792882
 10
316.9539265635
 20
137.4367083837
 10
315.2781788793
 20
137.4140069763
 10
313.6024311951
 20
137.4367083837
 10
311.9291429018
 20
137.5047792882
 10
310.2607697805
 20
137.6181197866
 10
308.599760399
 20
137.7765635359
 10
306.9485525176
 20
137.9798779981
 10
305.3095695115
 20
138.2277647812
 10
303.6852168143
 20
138.5198600772
 10
302.0778783876
 20
138.855735196
 10
300.4899132221
 20
139.2348971944
 10
298.9236518758
 20
139.6567896
 10
297.3813930532
 20
140.1207932275
 10
295.8654002316
 20
140.6262270876
 10
294.3778983397
 20
141.1723493864
 10
292.9210704917
 20
141.7583586141
 10
291.4970547831
 20
142.3833947213
 10
290.1079411536
 20
143.0465403814
 10
288.7557683189
 20
143.7468223367
 10
287.4425207791
 20
144.4832128269
 10
286.170125906
 20
145.2546310972
 10
284.9404511146
 20
146.0599449852
 10
283.7553011223
 20
146.8979725815
 10
282.6164153
 20
147.7674839652
 10
281.5254651197
 20
148.6672030082
 10
280.4840517014
 20
149.595809249
 10
279.4937034627
 20
150.5519398298
 10
278.5558738763
 20
151.5341914971
 10
277.6719393365
 20
152.5411226611
 10
276.843197139
 20
153.5712555115
 10
276.0708635774
 20
154.6230781863
 10
275.3560721576
 20
155.6950469906
 10
274.6998719346
 20
156.7855886625
 10
274.1032259727
 20
157.8931026815
 10
273.5670099322
 20
159.0159636183
 10
273.092010784
 20
160.1525235195
 10
272.6789256548
 20
161.3011143267
 10
272.3283608042
 20
162.4600503246
 10
272.0408307343
 20
163.6276306147
 10
271.8167574352
 20
164.802141612
 10
271.6564697653
 20
165.9818595596
 10
271.5602029688
 20
167.1650530587
 10
271.5280983307
 20
168.3499856097
 10
271.5366811095
 20
168.9627338712
  0
LINE
  5
31F
330
1F
100
AcDbEntity
  8
0
  6
Continuous
 62
     8
370
    18
100
AcDbLine
 10
276.4371980164
 20
182.5880991367
 30
0.0
 11
276.5037539327
 21
182.6785151587
 31
0.0
  0
LWPOLYLINE
  5
320
330
1F
100
AcDbEntity
  8
0
  6
Continuous
 62
     8
370
    18
100
AcDbPolyline
 90
       33
 70
   128
 43
0.0
 10
315.2781788793
 20
198.948074819
 10
316.8336986746
 20
198.9253380538
 10
318.3865608905
 20
198.8571666037
 10
319.9341124878
 20
198.7436769384
 10
321.4737095007
 20
198.5850629532
 10
323.0027215534
 20
198.3815956373
 10
324.5185363546
 20
198.1336226112
 10
326.01856416
 20
197.8415675328
 10
327.5002421973
 20
197.5059293732
 10
328.9610390445
 20
197.1272815645
 10
330.3984589545
 20
196.7062710202
 10
331.8100461198
 20
196.2436170299
 10
333.1933888671
 20
195.7401100299
 10
334.5461237787
 20
195.1966102536
 10
335.8659397297
 20
194.6140462613
 10
337.1505818366
 20
193.9934133538
 10
338.3978553099
 20
193.3357718719
 10
339.6056292039
 20
192.6422453852
 10
340.7718400571
 20
191.9140187719
 10
341.8944954178
 20
191.1523361951
 10
342.9716772482
 20
190.3584989766
 10
344.0015452012
 20
189.533863374
 10
344.9823397646
 20
188.6798382634
 10
345.9123852675
 20
187.7978827324
 10
346.7900927426
 20
186.8895035872
 10
347.6139626414
 20
185.9562527784
 10
348.3825873962
 20
184.9997247492
 10
349.0946538243
 20
184.0215537119
 10
349.7489453722
 20
183.0234108551
 10
350.3443441937
 20
182.0070014893
 10
350.8798330601
 20
180.9740621327
 10
351.3544970975
 20
179.926357545
 10
351.6972249543
 20
179.0589306117
  0
LWPOLYLINE
  5
321
330
1F
100
AcDbEntity
  8
0
  6
Continuous
 62
     8
370
    18
100
AcDbPolyline
 90
       33
 70
   128
 43
0.0
 10
278.843462499
 20
179.016369505
 10
279.2018606611
 20
179.926357545
 10
279.6765246985
 20
180.9740621327
 10
280.2120135649
 20
182.0070014893
 10
280.8074123865
 20
183.0234108551
 10
281.4617039344
 20
184.0215537119
 10
282.1737703625
 20
184.9997247492
 10
282.9423951172
 20
185.9562527784
 10
283.766265016
 20
186.8895035872
 10
284.6439724911
 20
187.7978827324
 10
285.574017994
 20
188.6798382634
 10
286.5548125574
 20
189.533863374
 10
287.5846805104
 20
190.3584989766
 10
288.6618623408
 20
191.1523361951
 10
289.7845177015
 20
191.9140187719
 10
290.9507285547
 20
192.6422453852
 10
292.1585024487
 20
193.3357718719
 10
293.405775922
 20
193.9934133538
 10
294.6904180289
 20
194.6140462613
 10
296.0102339799
 20
195.1966102536
 10
297.3629688915
 20
195.7401100299
 10
298.7463116389
 20
196.2436170299
 10
300.1578988041
 20
196.7062710202
 10
301.5953187142
 20
197.1272815645
 10
303.0561155613
 20
197.5059293732
 10
304.5377935986
 20
197.8415675328
 10
306.037821404
 20
198.1336226112
 10
307.5536362052
 20
198.3815956373
 10
309.0826482579
 20
198.5850629532
 10
310.6222452708
 20
198.7436769384
 10
312.1697968681
 20
198.8571666037
 10
313.722659084
 20
198.9253380538
 10
315.2781788793
 20
198.948074819
  0
ARC
  5
322
330
1F
100
AcDbEntity
  8
0
  6
Continuous
 62
     8
370
    18
100
AcDbCircle
 10
306.4870046165
 20
159.1875294247
 30
0.0
 40
35.45715423073894
100
AcDbArc
 50
127.086391193
 51
131.1893409469
  0
ARC
  5
323
330
1F
100
AcDbEntity
  8
0
  6
Continuous
 62
     8
370
    18
100
AcDbCircle
 10
324.069353142
 20
159.1875294246
 30
0.0
 40
35.45715423085946
100
AcDbArc
 50
48.8106590531
 51
52.9136088069
  0
LWPOLYLINE
  5
324
330
1F
100
AcDbEntity
  8
0
  6
Continuous
 62
     8
370
    18
100
AcDbPolyline
 90
       40
 70
   128
 43
0.0
 10
315.2781788793
 20
197.0332006327
 10
316.8110806522
 20
197.0104956357
 10
318.3412931944
 20
196.9424204768
 10
319.8661319933
 20
196.8290945831
 10
321.3829219634
 20
196.6707167667
 10
322.8890021398
 20
196.467564876
 10
324.381730346
 20
196.2199953086
 10
325.8584878295
 20
195.9284423855
 10
327.3166838559
 20
195.5934175897
 10
328.7537602538
 20
195.2155086685
 10
330.167195903
 20
194.7953786026
 10
331.554511157
 20
194.3337644428
 10
332.9132721935
 20
193.8314760173
 10
334.2410952838
 20
193.2893945107
 10
335.5356509752
 20
192.708470918
 10
336.7946681769
 20
192.0897243767
 10
338.015938145
 20
191.4342403785
 10
339.1973183571
 20
190.743168865
 10
340.3367362707
 20
190.0177222104
 10
341.4321929598
 20
189.2591730949
 10
342.4817666209
 20
188.4688522711
 10
343.4836159453
 20
187.6481462305
 10
344.4359833488
 20
186.7984947703
 10
345.3371980553
 20
185.9213884678
 10
346.1856790282
 20
185.0183660656
 10
346.9799377433
 20
184.0910117718
 10
347.718580801
 20
183.140952481
 10
348.4003123704
 20
182.1698549199
 10
349.0239364628
 20
181.1794227237
 10
349.5883590294
 20
180.1713934471
 10
350.0925898814
 20
179.1475355158
 10
350.5357444264
 20
178.1096451246
 10
350.9170452209
 20
177.059543086
 10
351.2358233337
 20
175.9990716357
 10
351.4915195196
 20
174.930091201
 10
351.6836852006
 20
173.8544771368
 10
351.8119832529
 20
172.7741164358
 10
351.876188598
 20
171.6909044176
 10
351.876188598
 20
170.6067414043
 10
351.8253495971
 20
169.6814557759
  0
LWPOLYLINE
  5
325
330
1F
100
AcDbEntity
  8
0
  6
Continuous
 62
     8
370
    18
100
AcDbPolyline
 90
       40
 70
   128
 43
0.0
 10
278.7310081615
 20
169.6814557759
 10
278.6801691606
 20
170.6067414043
 10
278.6801691606
 20
171.6909044176
 10
278.7443745057
 20
172.7741164358
 10
278.872672558
 20
173.8544771368
 10
279.064838239
 20
174.930091201
 10
279.3205344249
 20
175.9990716357
 10
279.6393125377
 20
177.059543086
 10
280.0206133322
 20
178.1096451246
 10
280.4637678772
 20
179.1475355158
 10
280.9679987292
 20
180.1713934471
 10
281.5324212959
 20
181.1794227237
 10
282.1560453882
 20
182.1698549199
 10
282.8377769576
 20
183.140952481
 10
283.5764200154
 20
184.0910117718
 10
284.3706787305
 20
185.0183660656
 10
285.2191597033
 20
185.9213884678
 10
286.1203744099
 20
186.7984947703
 10
287.0727418134
 20
187.6481462305
 10
288.0745911377
 20
188.4688522711
 10
289.1241647989
 20
189.2591730949
 10
290.2196214879
 20
190.0177222104
 10
291.3590394015
 20
190.743168865
 10
292.5404196136
 20
191.4342403785
 10
293.7616895817
 20
192.0897243767
 10
295.0207067835
 20
192.708470918
 10
296.3152624748
 20
193.2893945107
 10
297.6430855651
 20
193.8314760173
 10
299.0018466016
 20
194.3337644428
 10
300.3891618556
 20
194.7953786026
 10
301.8025975048
 20
195.2155086685
 10
303.2396739027
 20
195.5934175897
 10
304.6978699291
 20
195.9284423855
 10
306.1746274126
 20
196.2199953086
 10
307.6673556188
 20
196.467564876
 10
309.1734357952
 20
196.6707167667
 10
310.6902257653
 20
196.8290945831
 10
312.2150645642
 20
196.9424204768
 10
313.7452771065
 20
197.0104956357
 10
315.2781788793
 20
197.0332006327
  0
LWPOLYLINE
  5
326
330
1F
100
AcDbEntity
  8
0
  6
Continuous
 62
     8
370
    18
100
AcDbPolyline
 90
       41
 70
   128
 43
0.0
 10
315.2781788793
 20
196.6810003439
 10
313.7596588412
 20
196.6585083658
 10
312.2438028032
 20
196.5910718904
 10
310.733270092
 20
196.4788092239
 10
309.2307106951
 20
196.3219173133
 10
307.7387606124
 20
196.1206714004
 10
306.2600372312
 20
195.8754245387
 10
304.7971347349
 20
195.5866069748
 10
303.3526195515
 20
195.2547253926
 10
301.9290258514
 20
194.8803620253
 10
300.5288511019
 20
194.4641736334
 10
299.1545516851
 20
194.0068903529
 10
297.8085385893
 20
193.5093144139
 10
296.4931731788
 20
192.9723187337
 10
295.2107630514
 20
192.3968453852
 10
293.9635579904
 20
191.7839039443
 10
292.7537460172
 20
191.1345697184
 10
291.583449553
 20
190.4499818605
 10
290.4547216956
 20
189.7313413704
 10
289.3695426172
 20
188.9799089875
 10
288.3298160906
 20
188.1970029796
 10
287.3373661495
 20
187.38399683
 10
286.3939338882
 20
186.5423168277
 10
285.5011744076
 20
185.6734395653
 10
284.6606539111
 20
184.7788893489
 10
283.8738469573
 20
183.8602355236
 10
283.142133873
 20
182.9190897202
 10
282.4667983315
 20
181.9571030283
 10
281.8490251009
 20
180.9759630995
 10
281.2898979653
 20
179.9773911865
 10
280.7903978237
 20
178.963139124
 10
280.3514009692
 20
177.9349862545
 10
279.9736775512
 20
176.8947363077
 10
279.6578902252
 20
175.8442142353
 10
279.4045929893
 20
174.7852630101
 10
279.214230213
 20
173.7197403924
 10
279.0871358572
 20
172.6495156709
 10
279.0235328888
 20
171.5764663834
 10
279.0235328888
 20
170.5024750231
 10
279.0871358572
 20
169.4294257356
 10
279.199696848
 20
168.4588487884
  0
LWPOLYLINE
  5
327
330
1F
100
AcDbEntity
  8
0
  6
Continuous
 62
     8
370
    18
100
AcDbPolyline
 90
       41
 70
   128
 43
0.0
 10
351.3566609106
 20
168.4588487884
 10
351.4692219014
 20
169.4294257356
 10
351.5328248699
 20
170.5024750231
 10
351.5328248699
 20
171.5764663834
 10
351.4692219014
 20
172.6495156709
 10
351.3421275456
 20
173.7197403924
 10
351.1517647693
 20
174.7852630101
 10
350.8984675334
 20
175.8442142353
 10
350.5826802074
 20
176.8947363077
 10
350.2049567895
 20
177.9349862545
 10
349.7659599349
 20
178.963139124
 10
349.2664597933
 20
179.9773911865
 10
348.7073326577
 20
180.9759630995
 10
348.0895594271
 20
181.9571030283
 10
347.4142238856
 20
182.9190897202
 10
346.6825108013
 20
183.8602355236
 10
345.8957038475
 20
184.7788893489
 10
345.055183351
 20
185.6734395653
 10
344.1624238704
 20
186.5423168277
 10
343.2189916091
 20
187.38399683
 10
342.226541668
 20
188.1970029796
 10
341.1868151414
 20
188.9799089875
 10
340.101636063
 20
189.7313413704
 10
338.9729082056
 20
190.4499818605
 10
337.8026117415
 20
191.1345697184
 10
336.5927997682
 20
191.7839039443
 10
335.3455947072
 20
192.3968453852
 10
334.0631845798
 20
192.9723187337
 10
332.7478191693
 20
193.5093144139
 10
331.4018060735
 20
194.0068903529
 10
330.0275066567
 20
194.4641736334
 10
328.6273319072
 20
194.8803620253
 10
327.2037382071
 20
195.2547253926
 10
325.7592230237
 20
195.5866069748
 10
324.2963205274
 20
195.8754245387
 10
322.8175971462
 20
196.1206714004
 10
321.3256470635
 20
196.3219173133
 10
319.8230876666
 20
196.4788092239
 10
318.3125549554
 20
196.5910718904
 10
316.7966989174
 20
196.6585083658
 10
315.2781788793
 20
196.6810003439
  0
ENDSEC
  0
SECTION
  2
OBJECTS
  0
DICTIONARY
  5
C
330
0
100
AcDbDictionary
281
     1
  3
ACAD_GROUP
350
D
  3
ACAD_LAYOUT
350
1A
  3
ACAD_MLINESTYLE
350
17
  3
ACAD_PLOTSETTINGS
350
19
  3
ACAD_PLOTSTYLENAME
350
E
  3
ACAD_SCALELIST
350
47
  3
DWGPROPS
350
328
  0
DICTIONARY
  5
D
102
{ACAD_REACTORS
330
C
102
}
330
C
100
AcDbDictionary
281
     1
  0
DICTIONARY
  5
1A
102
{ACAD_REACTORS
330
C
102
}
330
C
100
AcDbDictionary
281
     1
  3
Layout1
350
1E
  3
Layout2
350
26
  3
Model
350
22
  0
DICTIONARY
  5
17
102
{ACAD_REACTORS
330
C
102
}
330
C
100
AcDbDictionary
281
     1
  3
Standard
350
18
  0
DICTIONARY
  5
19
102
{ACAD_REACTORS
330
C
102
}
330
C
100
AcDbDictionary
281
     1
  0
ACDBDICTIONARYWDFLT
  5
E
102
{ACAD_REACTORS
330
C
102
}
330
C
100
AcDbDictionary
281
     1
  3
Normal
350
F
100
AcDbDictionaryWithDefault
340
F
  0
DICTIONARY
  5
47
102
{ACAD_REACTORS
330
C
102
}
330
C
100
AcDbDictionary
281
     1
  3
A0
350
48
  3
A1
350
49
  3
A2
350
4A
  3
A3
350
4B
  3
A4
350
4C
  3
A5
350
4D
  3
A6
350
4E
  3
A7
350
4F
  3
A8
350
50
  3
A9
350
51
  3
B0
350
52
  3
B1
350
53
  3
B2
350
54
  3
B3
350
55
  3
B4
350
56
  3
B5
350
57
  3
B6
350
58
  3
B7
350
59
  3
B8
350
5A
  3
B9
350
5B
  3
C0
350
5C
  3
C1
350
5D
  3
C2
350
5E
  3
C3
350
5F
  3
C4
350
60
  3
C5
350
61
  3
C6
350
62
  3
C7
350
63
  3
C8
350
64
  3
C9
350
65
  3
D0
350
66
  3
D1
350
67
  3
D2
350
68
  0
XRECORD
  5
328
102
{ACAD_REACTORS
330
C
102
}
330
C
100
AcDbXrecord
280
     1
  1
DWGPROPS COOKIE
  2

  3

  4

  6

  7

  8
ch-ntl-rs-wscad
  9

300
=
301
=
302
=
303
=
304
=
305
=
306
=
307
=
308
=
309
=
 40
0.0
 41
2460206.612818333
 42
2460206.61282647
  1

 90
        0
  0
LAYOUT
  5
1E
102
{ACAD_REACTORS
330
1A
102
}
330
1A
100
AcDbPlotSettings
  1

  2
none_device
  4

  6

 40
0.0
 41
0.0
 42
0.0
 43
0.0
 44
0.0
 45
0.0
 46
0.0
 47
0.0
 48
0.0
 49
0.0
140
0.0
141
0.0
142
1.0
143
1.0
 70
   688
 72
     1
 73
     0
 74
     5
  7

 75
    16
147
1.0
148
0.0
149
0.0
100
AcDbLayout
  1
Layout1
 70
     1
 71
     1
 10
0.0
 20
0.0
 11
420.0
 21
297.0
 12
0.0
 22
0.0
 32
0.0
 14
1.0000000000E+20
 24
1.0000000000E+20
 34
1.0000000000E+20
 15
-1.0000000000E+20
 25
-1.0000000000E+20
 35
-1.0000000000E+20
146
0.0
 13
0.0
 23
0.0
 33
0.0
 16
1.0
 26
0.0
 36
0.0
 17
0.0
 27
1.0
 37
0.0
 76
     0
330
1B
  0
LAYOUT
  5
26
102
{ACAD_REACTORS
330
1A
102
}
330
1A
100
AcDbPlotSettings
  1

  2
none_device
  4

  6

 40
0.0
 41
0.0
 42
0.0
 43
0.0
 44
0.0
 45
0.0
 46
0.0
 47
0.0
 48
0.0
 49
0.0
140
0.0
141
0.0
142
1.0
143
1.0
 70
   688
 72
     1
 73
     0
 74
     5
  7

 75
    16
147
1.0
148
0.0
149
0.0
100
AcDbLayout
  1
Layout2
 70
     1
 71
     2
 10
0.0
 20
0.0
 11
0.0
 21
0.0
 12
0.0
 22
0.0
 32
0.0
 14
0.0
 24
0.0
 34
0.0
 15
0.0
 25
0.0
 35
0.0
146
0.0
 13
0.0
 23
0.0
 33
0.0
 16
1.0
 26
0.0
 36
0.0
 17
0.0
 27
1.0
 37
0.0
 76
     0
330
23
  0
LAYOUT
  5
22
102
{ACAD_REACTORS
330
1A
102
}
330
1A
100
AcDbPlotSettings
  1

  2
none_device
  4
Letter_(8.50_x_11.00_Inches)
  6

 40
6.35
 41
6.35
 42
6.35000508
 43
6.35000508
 44
215.9
 45
279.4
 46
0.0
 47
0.0
 48
0.0
 49
0.0
140
0.0
141
0.0
142
1.0
143
1.0
 70
  1712
 72
     1
 73
     0
 74
     0
  7

 75
     0
147
1.0
148
0.0
149
0.0
100
AcDbLayout
  1
Model
 70
     1
 71
     0
 10
0.0
 20
0.0
 11
420.0
 21
297.0
 12
0.0
 22
0.0
 32
0.0
 14
0.0
 24
0.0
 34
0.0
 15
420.0
 25
297.0
 35
0.0
146
0.0
 13
0.0
 23
0.0
 33
0.0
 16
1.0
 26
0.0
 36
0.0
 17
0.0
 27
1.0
 37
0.0
 76
     0
330
1F
331
29
  0
MLINESTYLE
  5
18
102
{ACAD_REACTORS
330
17
102
}
330
17
100
AcDbMlineStyle
  2
Standard
 70
     0
  3

 62
   256
 51
90.0
 52
90.0
 71
     2
 49
0.5
 62
   256
  6
BYLAYER
 49
-0.5
 62
   256
  6
BYLAYER
  0
ACDBPLACEHOLDER
  5
F
102
{ACAD_REACTORS
330
E
102
}
330
E
  0
SCALE
  5
48
102
{ACAD_REACTORS
330
47
102
}
330
47
100
AcDbScale
 70
     0
300
1:1
140
1.0
141
1.0
290
     1
  0
SCALE
  5
49
102
{ACAD_REACTORS
330
47
102
}
330
47
100
AcDbScale
 70
     0
300
1:2
140
1.0
141
2.0
290
     0
  0
SCALE
  5
4A
102
{ACAD_REACTORS
330
47
102
}
330
47
100
AcDbScale
 70
     0
300
1:4
140
1.0
141
4.0
290
     0
  0
SCALE
  5
4B
102
{ACAD_REACTORS
330
47
102
}
330
47
100
AcDbScale
 70
     0
300
1:5
140
1.0
141
5.0
290
     0
  0
SCALE
  5
4C
102
{ACAD_REACTORS
330
47
102
}
330
47
100
AcDbScale
 70
     0
300
1:8
140
1.0
141
8.0
290
     0
  0
SCALE
  5
4D
102
{ACAD_REACTORS
330
47
102
}
330
47
100
AcDbScale
 70
     0
300
1:10
140
1.0
141
10.0
290
     0
  0
SCALE
  5
4E
102
{ACAD_REACTORS
330
47
102
}
330
47
100
AcDbScale
 70
     0
300
1:16
140
1.0
141
16.0
290
     0
  0
SCALE
  5
4F
102
{ACAD_REACTORS
330
47
102
}
330
47
100
AcDbScale
 70
     0
300
1:20
140
1.0
141
20.0
290
     0
  0
SCALE
  5
50
102
{ACAD_REACTORS
330
47
102
}
330
47
100
AcDbScale
 70
     0
300
1:30
140
1.0
141
30.0
290
     0
  0
SCALE
  5
51
102
{ACAD_REACTORS
330
47
102
}
330
47
100
AcDbScale
 70
     0
300
1:40
140
1.0
141
40.0
290
     0
  0
SCALE
  5
52
102
{ACAD_REACTORS
330
47
102
}
330
47
100
AcDbScale
 70
     0
300
1:50
140
1.0
141
50.0
290
     0
  0
SCALE
  5
53
102
{ACAD_REACTORS
330
47
102
}
330
47
100
AcDbScale
 70
     0
300
1:100
140
1.0
141
100.0
290
     0
  0
SCALE
  5
54
102
{ACAD_REACTORS
330
47
102
}
330
47
100
AcDbScale
 70
     0
300
2:1
140
2.0
141
1.0
290
     0
  0
SCALE
  5
55
102
{ACAD_REACTORS
330
47
102
}
330
47
100
AcDbScale
 70
     0
300
4:1
140
4.0
141
1.0
290
     0
  0
SCALE
  5
56
102
{ACAD_REACTORS
330
47
102
}
330
47
100
AcDbScale
 70
     0
300
8:1
140
8.0
141
1.0
290
     0
  0
SCALE
  5
57
102
{ACAD_REACTORS
330
47
102
}
330
47
100
AcDbScale
 70
     0
300
10:1
140
10.0
141
1.0
290
     0
  0
SCALE
  5
58
102
{ACAD_REACTORS
330
47
102
}
330
47
100
AcDbScale
 70
     0
300
100:1
140
100.0
141
1.0
290
     0
  0
SCALE
  5
59
102
{ACAD_REACTORS
330
47
102
}
330
47
100
AcDbScale
 70
     0
300
1/128" = 1'-0"
140
0.0078125
141
12.0
290
     0
  0
SCALE
  5
5A
102
{ACAD_REACTORS
330
47
102
}
330
47
100
AcDbScale
 70
     0
300
1/64" = 1'-0"
140
0.015625
141
12.0
290
     0
  0
SCALE
  5
5B
102
{ACAD_REACTORS
330
47
102
}
330
47
100
AcDbScale
 70
     0
300
1/32" = 1'-0"
140
0.03125
141
12.0
290
     0
  0
SCALE
  5
5C
102
{ACAD_REACTORS
330
47
102
}
330
47
100
AcDbScale
 70
     0
300
1/16" = 1'-0"
140
0.0625
141
12.0
290
     0
  0
SCALE
  5
5D
102
{ACAD_REACTORS
330
47
102
}
330
47
100
AcDbScale
 70
     0
300
3/32" = 1'-0"
140
0.09375
141
12.0
290
     0
  0
SCALE
  5
5E
102
{ACAD_REACTORS
330
47
102
}
330
47
100
AcDbScale
 70
     0
300
1/8" = 1'-0"
140
0.125
141
12.0
290
     0
  0
SCALE
  5
5F
102
{ACAD_REACTORS
330
47
102
}
330
47
100
AcDbScale
 70
     0
300
3/16" = 1'-0"
140
0.1875
141
12.0
290
     0
  0
SCALE
  5
60
102
{ACAD_REACTORS
330
47
102
}
330
47
100
AcDbScale
 70
     0
300
1/4" = 1'-0"
140
0.25
141
12.0
290
     0
  0
SCALE
  5
61
102
{ACAD_REACTORS
330
47
102
}
330
47
100
AcDbScale
 70
     0
300
3/8" = 1'-0"
140
0.375
141
12.0
290
     0
  0
SCALE
  5
62
102
{ACAD_REACTORS
330
47
102
}
330
47
100
AcDbScale
 70
     0
300
1/2" = 1'-0"
140
0.5
141
12.0
290
     0
  0
SCALE
  5
63
102
{ACAD_REACTORS
330
47
102
}
330
47
100
AcDbScale
 70
     0
300
3/4" = 1'-0"
140
0.75
141
12.0
290
     0
  0
SCALE
  5
64
102
{ACAD_REACTORS
330
47
102
}
330
47
100
AcDbScale
 70
     0
300
1" = 1'-0"
140
1.0
141
12.0
290
     0
  0
SCALE
  5
65
102
{ACAD_REACTORS
330
47
102
}
330
47
100
AcDbScale
 70
     0
300
1-1/2" = 1'-0"
140
1.5
141
12.0
290
     0
  0
SCALE
  5
66
102
{ACAD_REACTORS
330
47
102
}
330
47
100
AcDbScale
 70
     0
300
3" = 1'-0"
140
3.0
141
12.0
290
     0
  0
SCALE
  5
67
102
{ACAD_REACTORS
330
47
102
}
330
47
100
AcDbScale
 70
     0
300
6" = 1'-0"
140
6.0
141
12.0
290
     0
  0
SCALE
  5
68
102
{ACAD_REACTORS
330
47
102
}
330
47
100
AcDbScale
 70
     0
300
1'-0" = 1'-0"
140
12.0
141
12.0
290
     0
  0
ENDSEC
  0
EOF
