  0
SECTION
  2
HEADER
  9
$ACADVER
  1
AC1015
  9
$ACADMAINTVER
 70
     6
  9
$DWGCODEPAGE
  3
ANSI_1252
  9
$INSBASE
 10
0.0
 20
0.0
 30
0.0
  9
$EXTMIN
 10
0.0
 20
0.0
 30
0.0
  9
$EXTMAX
 10
420.0
 20
297.0
 30
0.0
  9
$LIMMIN
 10
0.0
 20
0.0
  9
$LIMMAX
 10
420.0
 20
297.0
  9
$ORTHOMODE
 70
     0
  9
$REGENMODE
 70
     1
  9
$FILLMODE
 70
     1
  9
$QTEXTMODE
 70
     0
  9
$MIRRTEXT
 70
     1
  9
$LTSCALE
 40
1.0
  9
$ATTMODE
 70
     1
  9
$TEXTSIZE
 40
3.5
  9
$TRACEWID
 40
1.0
  9
$TEXTSTYLE
  7
Standard
  9
$CLAYER
  8
0
  9
$CELTYPE
  6
ByLayer
  9
$CECOLOR
 62
   256
  9
$CELTSCALE
 40
1.0
  9
$DISPSILH
 70
     0
  9
$DIMSCALE
 40
1.0
  9
$DIMASZ
 40
3.5
  9
$DIMEXO
 40
0.1
  9
$DIMDLI
 40
3.75
  9
$DIMRND
 40
0.0
  9
$DIMDLE
 40
0.0
  9
$DIMEXE
 40
1.0
  9
$DIMTP
 40
0.0
  9
$DIMTM
 40
0.0
  9
$DIMTXT
 40
3.5
  9
$DIMCEN
 40
2.5
  9
$DIMTSZ
 40
0.0
  9
$DIMTOL
 70
     0
  9
$DIMLIM
 70
     0
  9
$DIMTIH
 70
     1
  9
$DIMTOH
 70
     1
  9
$DIMSE1
 70
     0
  9
$DIMSE2
 70
     0
  9
$DIMTAD
 70
     1
  9
$DIMZIN
 70
     0
  9
$DIMBLK
  1

  9
$DIMASO
 70
     1
  9
$DIMSHO
 70
     1
  9
$DIMPOST
  1

  9
$DIMAPOST
  1

  9
$DIMALT
 70
     0
  9
$DIMALTD
 70
     3
  9
$DIMALTF
 40
0.0393700787
  9
$DIMLFAC
 40
1.0
  9
$DIMTOFL
 70
     1
  9
$DIMTVP
 40
0.0
  9
$DIMTIX
 70
     0
  9
$DIMSOXD
 70
     0
  9
$DIMSAH
 70
     0
  9
$DIMBLK1
  1

  9
$DIMBLK2
  1

  9
$DIMSTYLE
  2
ISO-25
  9
$DIMCLRD
 70
     0
  9
$DIMCLRE
 70
     0
  9
$DIMCLRT
 70
     0
  9
$DIMTFAC
 40
1.0
  9
$DIMGAP
 40
2.0
  9
$DIMJUST
 70
     0
  9
$DIMSD1
 70
     0
  9
$DIMSD2
 70
     0
  9
$DIMTOLJ
 70
     0
  9
$DIMTZIN
 70
     0
  9
$DIMALTZ
 70
     0
  9
$DIMALTTZ
 70
     0
  9
$DIMUPT
 70
     0
  9
$DIMDEC
 70
     2
  9
$DIMTDEC
 70
     3
  9
$DIMALTU
 70
     2
  9
$DIMALTTD
 70
     3
  9
$DIMTXSTY
  7
Standard
  9
$DIMAUNIT
 70
     0
  9
$DIMADEC
 70
     2
  9
$DIMALTRND
 40
0.0
  9
$DIMAZIN
 70
     0
  9
$DIMDSEP
 70
    44
  9
$DIMATFIT
 70
     3
  9
$DIMFRAC
 70
     0
  9
$DIMLDRBLK
  1

  9
$DIMLUNIT
 70
     2
  9
$DIMLWD
 70
    -2
  9
$DIMLWE
 70
    -2
  9
$DIMTMOVE
 70
     0
  9
$LUNITS
 70
     2
  9
$LUPREC
 70
     2
  9
$SKETCHINC
 40
1.0
  9
$FILLETRAD
 40
10.0
  9
$AUNITS
 70
     0
  9
$AUPREC
 70
     2
  9
$MENU
  1
.
  9
$ELEVATION
 40
0.0
  9
$PELEVATION
 40
0.0
  9
$THICKNESS
 40
0.0
  9
$LIMCHECK
 70
     0
  9
$CHAMFERA
 40
0.0
  9
$CHAMFERB
 40
0.0
  9
$CHAMFERC
 40
0.0
  9
$CHAMFERD
 40
0.0
  9
$SKPOLY
 70
     0
  9
$TDCREATE
 40
2460206.696211771
  9
$TDUCREATE
 40
2460206.612878438
  9
$TDUPDATE
 40
2460206.696220104
  9
$TDUUPDATE
 40
2460206.612886771
  9
$TDINDWG
 40
0.0000000116
  9
$TDUSRTIMER
 40
0.0000000116
  9
$USRTIMER
 70
     1
  9
$ANGBASE
 50
0.0
  9
$ANGDIR
 70
     0
  9
$PDMODE
 70
     0
  9
$PDSIZE
 40
-1.0
  9
$PLINEWID
 40
0.0
  9
$SPLFRAME
 70
     0
  9
$SPLINETYPE
 70
     6
  9
$SPLINESEGS
 70
     8
  9
$HANDSEED
  5
325
  9
$SURFTAB1
 70
     6
  9
$SURFTAB2
 70
     6
  9
$SURFTYPE
 70
     6
  9
$SURFU
 70
     6
  9
$SURFV
 70
     6
  9
$UCSBASE
  2

  9
$UCSNAME
  2

  9
$UCSORG
 10
0.0
 20
0.0
 30
0.0
  9
$UCSXDIR
 10
1.0
 20
0.0
 30
0.0
  9
$UCSYDIR
 10
0.0
 20
1.0
 30
0.0
  9
$UCSORTHOREF
  2

  9
$UCSORTHOVIEW
 70
     0
  9
$UCSORGTOP
 10
0.0
 20
0.0
 30
0.0
  9
$UCSORGBOTTOM
 10
0.0
 20
0.0
 30
0.0
  9
$UCSORGLEFT
 10
0.0
 20
0.0
 30
0.0
  9
$UCSORGRIGHT
 10
0.0
 20
0.0
 30
0.0
  9
$UCSORGFRONT
 10
0.0
 20
0.0
 30
0.0
  9
$UCSORGBACK
 10
0.0
 20
0.0
 30
0.0
  9
$PUCSBASE
  2

  9
$PUCSNAME
  2

  9
$PUCSORG
 10
0.0
 20
0.0
 30
0.0
  9
$PUCSXDIR
 10
1.0
 20
0.0
 30
0.0
  9
$PUCSYDIR
 10
0.0
 20
1.0
 30
0.0
  9
$PUCSORTHOREF
  2

  9
$PUCSORTHOVIEW
 70
     0
  9
$PUCSORGTOP
 10
0.0
 20
0.0
 30
0.0
  9
$PUCSORGBOTTOM
 10
0.0
 20
0.0
 30
0.0
  9
$PUCSORGLEFT
 10
0.0
 20
0.0
 30
0.0
  9
$PUCSORGRIGHT
 10
0.0
 20
0.0
 30
0.0
  9
$PUCSORGFRONT
 10
0.0
 20
0.0
 30
0.0
  9
$PUCSORGBACK
 10
0.0
 20
0.0
 30
0.0
  9
$USERI1
 70
     0
  9
$USERI2
 70
     0
  9
$USERI3
 70
     0
  9
$USERI4
 70
     0
  9
$USERI5
 70
     0
  9
$USERR1
 40
0.0
  9
$USERR2
 40
0.0
  9
$USERR3
 40
0.0
  9
$USERR4
 40
0.0
  9
$USERR5
 40
0.0
  9
$WORLDVIEW
 70
     1
  9
$SHADEDGE
 70
     3
  9
$SHADEDIF
 70
    70
  9
$TILEMODE
 70
     1
  9
$MAXACTVP
 70
    64
  9
$PINSBASE
 10
0.0
 20
0.0
 30
0.0
  9
$PLIMCHECK
 70
     0
  9
$PEXTMIN
 10
1.0000000000E+20
 20
1.0000000000E+20
 30
1.0000000000E+20
  9
$PEXTMAX
 10
-1.0000000000E+20
 20
-1.0000000000E+20
 30
-1.0000000000E+20
  9
$PLIMMIN
 10
0.0
 20
0.0
  9
$PLIMMAX
 10
420.0
 20
297.0
  9
$UNITMODE
 70
     0
  9
$VISRETAIN
 70
     1
  9
$PLINEGEN
 70
     0
  9
$PSLTSCALE
 70
     1
  9
$TREEDEPTH
 70
  3020
  9
$CMLSTYLE
  2
Standard
  9
$CMLJUST
 70
     0
  9
$CMLSCALE
 40
20.0
  9
$PROXYGRAPHICS
 70
     1
  9
$MEASUREMENT
 70
     1
  9
$CELWEIGHT
370
    -1
  9
$ENDCAPS
280
     0
  9
$JOINSTYLE
280
     0
  9
$LWDISPLAY
290
     1
  9
$INSUNITS
 70
     4
  9
$HYPERLINKBASE
  1

  9
$STYLESHEET
  1

  9
$XEDIT
290
     1
  9
$CEPSNTYPE
380
     0
  9
$PSTYLEMODE
290
     1
  9
$FINGERPRINTGUID
  2
{8a59550d-50d3-4590-8820-f6175132aca0}
  9
$VERSIONGUID
  2
{FAEB1C32-E019-11D5-929B-00C0DF256EC4}
  9
$EXTNAMES
290
     1
  9
$PSVPSCALE
 40
0.0
  9
$OLESTARTUP
290
     0
  0
ENDSEC
  0
SECTION
  2
CLASSES
  0
CLASS
  1
ACDBDICTIONARYWDFLT
  2
AcDbDictionaryWithDefault
  3
ObjectDBX Classes
 90
        0
280
     0
281
     0
  0
CLASS
  1
VISUALSTYLE
  2
AcDbVisualStyle
  3
ObjectDBX Classes
 90
     4095
280
     0
281
     0
  0
CLASS
  1
MATERIAL
  2
AcDbMaterial
  3
ObjectDBX Classes
 90
     1153
280
     0
281
     0
  0
CLASS
  1
SCALE
  2
AcDbScale
  3
ObjectDBX Classes
 90
     1153
280
     0
281
     0
  0
CLASS
  1
TABLESTYLE
  2
AcDbTableStyle
  3
ObjectDBX Classes
 90
     4095
280
     0
281
     0
  0
CLASS
  1
MLEADERSTYLE
  2
AcDbMLeaderStyle
  3
ACDB_MLEADERSTYLE_CLASS
 90
     4095
280
     0
281
     0
  0
CLASS
  1
SUN
  2
AcDbSun
  3
SCENEOE
 90
     1153
280
     0
281
     0
  0
CLASS
  1
ACDBPLACEHOLDER
  2
AcDbPlaceHolder
  3
ObjectDBX Classes
 90
        0
280
     0
281
     0
  0
CLASS
  1
LAYOUT
  2
AcDbLayout
  3
ObjectDBX Classes
 90
        0
280
     0
281
     0
  0
ENDSEC
  0
SECTION
  2
TABLES
  0
TABLE
  2
VPORT
  5
8
330
0
100
AcDbSymbolTable
 70
     1
  0
VPORT
  5
29
330
8
100
AcDbSymbolTableRecord
100
AcDbViewportTableRecord
  2
*Active
 70
     0
 10
0.0
 20
0.0
 11
1.0
 21
1.0
 12
210.0
 22
148.5
 13
0.0
 23
0.0
 14
10.0
 24
10.0
 15
10.0
 25
10.0
 16
0.0
 26
0.0
 36
1.0
 17
0.0
 27
0.0
 37
0.0
 40
297.0
 41
1.4141414141
 42
50.0
 43
0.0
 44
0.0
 50
0.0
 51
0.0
 71
     0
 72
  2000
 73
     1
 74
     3
 75
     0
 76
     0
 77
     0
 78
     0
281
     0
 65
     1
110
0.0
120
0.0
130
0.0
111
1.0
121
0.0
131
0.0
112
0.0
122
1.0
132
0.0
 79
     0
146
0.0
  0
ENDTAB
  0
TABLE
  2
LTYPE
  5
5
330
0
100
AcDbSymbolTable
 70
     6
  0
LTYPE
  5
14
330
5
100
AcDbSymbolTableRecord
100
AcDbLinetypeTableRecord
  2
ByBlock
 70
     0
  3

 72
    65
 73
     0
 40
0.0
  0
LTYPE
  5
15
330
5
100
AcDbSymbolTableRecord
100
AcDbLinetypeTableRecord
  2
ByLayer
 70
     0
  3

 72
    65
 73
     0
 40
0.0
  0
LTYPE
  5
16
330
5
100
AcDbSymbolTableRecord
100
AcDbLinetypeTableRecord
  2
Continuous
 70
     0
  3
Solid line
 72
    65
 73
     0
 40
0.0
  0
LTYPE
  5
6E
330
5
100
AcDbSymbolTableRecord
100
AcDbLinetypeTableRecord
  2
HIDDEN
 70
     0
  3
Hidden __ __ __ __ __ __ __ __ __ __ __ __ __ __
 72
    65
 73
     2
 40
1.905
 49
1.27
 74
     0
 49
-0.635
 74
     0
  0
LTYPE
  5
6F
330
5
100
AcDbSymbolTableRecord
100
AcDbLinetypeTableRecord
  2
PHANTOM
 70
     0
  3
Phantom ______  __  __  ______  __  __  ______
 72
    65
 73
     6
 40
12.7
 49
6.35
 74
     0
 49
-1.27
 74
     0
 49
1.27
 74
     0
 49
-1.27
 74
     0
 49
1.27
 74
     0
 49
-1.27
 74
     0
  0
LTYPE
  5
70
330
5
100
AcDbSymbolTableRecord
100
AcDbLinetypeTableRecord
  2
CENTER
 70
     0
  3
Center ____ _ ____ _ ____ _ ____ _ ____ _ ____
 72
    65
 73
     4
 40
10.16
 49
6.35
 74
     0
 49
-1.27
 74
     0
 49
1.27
 74
     0
 49
-1.27
 74
     0
  0
LTYPE
  5
71
330
5
100
AcDbSymbolTableRecord
100
AcDbLinetypeTableRecord
  2
CENTERX2
 70
     0
  3
Center (2x) ________  __  ________  __  _____
 72
    65
 73
     4
 40
20.32
 49
12.7
 74
     0
 49
-2.54
 74
     0
 49
2.54
 74
     0
 49
-2.54
 74
     0
  0
LTYPE
  5
72
330
5
100
AcDbSymbolTableRecord
100
AcDbLinetypeTableRecord
  2
DOT2
 70
     0
  3
Dot (.5x) ........................................
 72
    65
 73
     2
 40
0.635
 49
0.0
 74
     0
 49
-0.635
 74
     0
  0
ENDTAB
  0
TABLE
  2
LAYER
  5
2
330
0
100
AcDbSymbolTable
 70
     9
  0
LAYER
  5
10
330
2
100
AcDbSymbolTableRecord
100
AcDbLayerTableRecord
  2
0
 70
     0
 62
     7
  6
Continuous
370
    -3
390
F
  0
LAYER
  5
73
330
2
100
AcDbSymbolTableRecord
100
AcDbLayerTableRecord
  2
VORLAGE_TEXT
 70
     0
 62
     7
  6
Continuous
370
    -3
390
F
  0
LAYER
  5
74
330
2
100
AcDbSymbolTableRecord
100
AcDbLayerTableRecord
  2
VORLAGE_BEMASSUNG
 70
     0
 62
    -5
  6
Continuous
290
     0
370
    -3
390
F
  0
LAYER
  5
75
330
2
100
AcDbSymbolTableRecord
100
AcDbLayerTableRecord
  2
TEXT
 70
     0
 62
     7
  6
Continuous
370
    -3
390
F
  0
LAYER
  5
76
330
2
100
AcDbSymbolTableRecord
100
AcDbLayerTableRecord
  2
LINIEN-DICK
 70
     0
 62
     7
  6
Continuous
370
    35
390
F
  0
LAYER
  5
77
330
2
100
AcDbSymbolTableRecord
100
AcDbLayerTableRecord
  2
LINIEN-NORMAL
 70
     0
 62
     7
  6
Continuous
370
    25
390
F
  0
LAYER
  5
78
330
2
100
AcDbSymbolTableRecord
100
AcDbLayerTableRecord
  2
LINIEN-DÜNN
 70
     0
 62
     7
  6
Continuous
370
    -3
390
F
  0
LAYER
  5
79
330
2
100
AcDbSymbolTableRecord
100
AcDbLayerTableRecord
  2
TEXT-DEUTSCH
 70
     0
 62
     7
  6
Continuous
370
    -3
390
F
  0
LAYER
  5
7A
330
2
100
AcDbSymbolTableRecord
100
AcDbLayerTableRecord
  2
TEXT-ENGLISCH
 70
     0
 62
    -7
  6
Continuous
290
     0
370
    -3
390
F
  0
ENDTAB
  0
TABLE
  2
STYLE
  5
3
330
0
100
AcDbSymbolTable
 70
     3
  0
STYLE
  5
11
330
3
100
AcDbSymbolTableRecord
100
AcDbTextStyleTableRecord
  2
Standard
 70
     0
 40
0.0
 41
1.0
 50
0.0
 71
     0
 42
3.5
  3
txt
  4

  0
STYLE
  5
F1
330
3
100
AcDbSymbolTableRecord
100
AcDbTextStyleTableRecord
  2
SLDTEXTSTYLE0
 70
     0
 40
0.0
 41
0.605
 50
0.0
 71
     0
 42
3.5
  3
TXT
  4

  0
STYLE
  5
19E
330
3
100
AcDbSymbolTableRecord
100
AcDbTextStyleTableRecord
  2
SLDTEXTSTYLE1
 70
     0
 40
0.0
 41
0.563
 50
0.0
 71
     0
 42
3.5
  3
TXT
  4

  0
ENDTAB
  0
TABLE
  2
VIEW
  5
6
330
0
100
AcDbSymbolTable
 70
     0
  0
ENDTAB
  0
TABLE
  2
UCS
  5
7
330
0
100
AcDbSymbolTable
 70
     0
  0
ENDTAB
  0
TABLE
  2
APPID
  5
9
330
0
100
AcDbSymbolTable
 70
     1
  0
APPID
  5
12
330
9
100
AcDbSymbolTableRecord
100
AcDbRegAppTableRecord
  2
ACAD
 70
     0
  0
ENDTAB
  0
TABLE
  2
DIMSTYLE
  5
A
330
0
100
AcDbSymbolTable
 70
     4
100
AcDbDimStyleTable
  0
DIMSTYLE
105
27
330
A
100
AcDbSymbolTableRecord
100
AcDbDimStyleTableRecord
  2
ISO-25
 70
     0
 41
2.5
 42
0.625
 43
3.75
 44
1.25
 73
     0
 74
     0
 77
     1
 78
     8
140
2.5
141
2.5
143
0.0393700787
147
0.625
171
     3
172
     1
178
     0
271
     2
272
     2
274
     3
278
    44
283
     0
284
     8
340
11
  0
DIMSTYLE
105
1B6
102
{ACAD_REACTORS
330
1B5
102
}
330
A
100
AcDbSymbolTableRecord
100
AcDbDimStyleTableRecord
  2
SLDDIMSTYLE0
 70
     0
 41
3.5
 44
0.0
 45
0.000000001
 73
     0
 74
     0
 77
     1
 78
    12
 79
     3
140
3.5
141
0.0
147
0.875
173
     1
178
     0
271
     1
272
     3
276
     2
284
    12
340
F1
  0
DIMSTYLE
105
1BF
102
{ACAD_REACTORS
330
1BE
102
}
330
A
100
AcDbSymbolTableRecord
100
AcDbDimStyleTableRecord
  2
SLDDIMSTYLE1
 70
     0
 41
3.5
 44
0.0
 45
0.000000001
 73
     0
 74
     0
 77
     1
 78
    12
 79
     3
140
3.5
141
0.0
147
0.875
172
     1
173
     1
178
     0
271
     1
272
     3
276
     2
284
    12
340
F1
  0
DIMSTYLE
105
29B
102
{ACAD_REACTORS
330
29A
102
}
330
A
100
AcDbSymbolTableRecord
100
AcDbDimStyleTableRecord
  2
SLDDIMSTYLE2
 70
     0
 41
3.5
 44
0.0
 45
0.000000001
 73
     0
 74
     0
 77
     1
 78
    12
 79
     3
140
3.5
147
0.875
173
     1
178
     0
271
     1
272
     3
276
     2
284
    12
340
F1
  0
ENDTAB
  0
TABLE
  2
BLOCK_RECORD
  5
1
330
0
100
AcDbSymbolTable
 70
    10
  0
BLOCK_RECORD
  5
1F
330
1
100
AcDbSymbolTableRecord
100
AcDbBlockTableRecord
  2
*Model_Space
340
22
  0
BLOCK_RECORD
  5
1B
330
1
100
AcDbSymbolTableRecord
100
AcDbBlockTableRecord
  2
*Paper_Space
340
1E
  0
BLOCK_RECORD
  5
23
330
1
100
AcDbSymbolTableRecord
100
AcDbBlockTableRecord
  2
*Paper_Space0
340
26
  0
BLOCK_RECORD
  5
7B
330
1
100
AcDbSymbolTableRecord
100
AcDbBlockTableRecord
  2
ACO-Logo
340
0
102
{BLKREFS
331
151
102
}
  0
BLOCK_RECORD
  5
EE
330
1
100
AcDbSymbolTableRecord
100
AcDbBlockTableRecord
  2
SW_NOTE_0
340
0
102
{BLKREFS
331
F3
102
}
  0
BLOCK_RECORD
  5
F4
330
1
100
AcDbSymbolTableRecord
100
AcDbBlockTableRecord
  2
SW_NOTE_0_1
340
0
102
{BLKREFS
331
F8
102
}
  0
BLOCK_RECORD
  5
F9
330
1
100
AcDbSymbolTableRecord
100
AcDbBlockTableRecord
  2
SW_NOTE_0_2
340
0
102
{BLKREFS
331
100
102
}
  0
BLOCK_RECORD
  5
178
330
1
100
AcDbSymbolTableRecord
100
AcDbBlockTableRecord
  2
SW_NOTE_0_3
340
0
102
{BLKREFS
331
180
102
}
  0
BLOCK_RECORD
  5
1B7
330
1
100
AcDbSymbolTableRecord
100
AcDbBlockTableRecord
  2
_D
340
0
  0
BLOCK_RECORD
  5
1C0
330
1
100
AcDbSymbolTableRecord
100
AcDbBlockTableRecord
  2
_D_1
340
0
  0
BLOCK_RECORD
  5
1C9
330
1
100
AcDbSymbolTableRecord
100
AcDbBlockTableRecord
  2
SW_CENTERMARKSYMBOL_0
340
0
102
{BLKREFS
331
1D4
102
}
  0
BLOCK_RECORD
  5
29C
330
1
100
AcDbSymbolTableRecord
100
AcDbBlockTableRecord
  2
_D_2
340
0
  0
ENDTAB
  0
ENDSEC
  0
SECTION
  2
BLOCKS
  0
BLOCK
  5
20
330
1F
100
AcDbEntity
  8
0
100
AcDbBlockBegin
  2
*Model_Space
 70
     0
 10
0.0
 20
0.0
 30
0.0
  3
*Model_Space
  1

  0
ENDBLK
  5
21
330
1F
100
AcDbEntity
  8
0
100
AcDbBlockEnd
  0
BLOCK
  5
1C
330
1B
100
AcDbEntity
 67
     1
  8
0
100
AcDbBlockBegin
  2
*Paper_Space
 70
     0
 10
0.0
 20
0.0
 30
0.0
  3
*Paper_Space
  1

  0
ENDBLK
  5
1D
330
1B
100
AcDbEntity
 67
     1
  8
0
100
AcDbBlockEnd
  0
BLOCK
  5
24
330
23
100
AcDbEntity
  8
0
100
AcDbBlockBegin
  2
*Paper_Space0
 70
     0
 10
0.0
 20
0.0
 30
0.0
  3
*Paper_Space0
  1

  0
ENDBLK
  5
25
330
23
100
AcDbEntity
  8
0
100
AcDbBlockEnd
  0
BLOCK
  5
7C
330
7B
100
AcDbEntity
  8
0
100
AcDbBlockBegin
  2
ACO-Logo
 70
     0
 10
0.0
 20
0.0
 30
0.0
  3
ACO-Logo
  1

  0
ARC
  5
7E
330
7B
100
AcDbEntity
  8
0
  6
Continuous
 62
   179
370
    18
100
AcDbCircle
 10
80.3853261169
 20
4.9940995715
 30
0.0
 40
0.3000000000000441
100
AcDbArc
 50
181.9349323096
 51
274.6062978506
  0
ARC
  5
7F
330
7B
100
AcDbEntity
  8
0
  6
Continuous
 62
   179
370
    18
100
AcDbCircle
 10
81.2359083165
 20
2.1946665956
 30
0.0
 40
1.000000000000021
100
AcDbArc
 50
221.4087409628
 51
276.0561297228
  0
ARC
  5
80
330
7B
100
AcDbEntity
  8
0
  6
Continuous
 62
   179
370
    18
100
AcDbCircle
 10
79.1360017163
 20
3.654242048
 30
0.0
 40
0.300000000000004
100
AcDbArc
 50
181.2730300201
 51
274.4996077095
  0
ARC
  5
81
330
7B
100
AcDbEntity
  8
0
  6
Continuous
 62
   179
370
    18
100
AcDbCircle
 10
78.7699033484
 20
3.2873137407
 30
0.0
 40
0.4000000000000358
100
AcDbArc
 50
221.0090869016
 51
274.5606296317
  0
ARC
  5
82
330
7B
100
AcDbEntity
  8
0
  6
Continuous
 62
   179
370
    18
100
AcDbCircle
 10
91.2333953062
 20
4.6062442307
 30
0.0
 40
0.3000000000000493
100
AcDbArc
 50
274.4996077095
 51
3.7249371334
  0
ARC
  5
83
330
7B
100
AcDbEntity
  8
0
  6
Continuous
 62
   179
370
    18
100
AcDbCircle
 10
81.5287571045
 20
9.7648973508
 30
0.0
 40
1.00000000000002
100
AcDbArc
 50
93.1134387481
 51
181.9414863909
  0
ARC
  5
84
330
7B
100
AcDbEntity
  8
0
  6
Continuous
 62
   179
370
    18
100
AcDbCircle
 10
81.6051675115
 20
7.5107903456
 30
0.0
 40
1.0
100
AcDbArc
 50
181.9414863909
 51
274.398705355
  0
ARC
  5
85
330
7B
100
AcDbEntity
  8
0
  6
Continuous
 62
   179
370
    18
100
AcDbCircle
 10
80.1506905656
 20
11.9393118923
 30
0.0
 40
0.300000000000045
100
AcDbArc
 50
93.0418421566
 51
181.9349323096
  0
ARC
  5
86
330
7B
100
AcDbEntity
  8
0
  6
Continuous
 62
   179
370
    18
100
AcDbCircle
 10
78.1879722102
 20
12.3499352608
 30
0.0
 40
0.7999999999953393
100
AcDbArc
 50
92.6995697565
 51
148.2554209065
  0
ARC
  5
87
330
7B
100
AcDbEntity
  8
0
  6
Continuous
 62
   179
370
    18
100
AcDbCircle
 10
78.930862229
 20
12.8855189761
 30
0.0
 40
0.3000000000000031
100
AcDbArc
 50
92.6995697565
 51
181.2730300201
  0
ARC
  5
88
330
7B
100
AcDbEntity
  8
0
  6
Continuous
 62
   179
370
    18
100
AcDbCircle
 10
82.327743407
 20
9.8083568568
 30
0.0
 40
1.000000000000034
100
AcDbArc
 50
1.9414863909
 51
93.1134387481
  0
ARC
  5
89
330
7B
100
AcDbEntity
  8
0
  6
Continuous
 62
   179
370
    18
100
AcDbCircle
 10
81.5287571045
 20
9.7648973508
 30
0.0
 40
0.3625000000000009
100
AcDbArc
 50
93.1134387481
 51
181.9414863909
  0
ARC
  5
8A
330
7B
100
AcDbEntity
  8
0
  6
Continuous
 62
   179
370
    18
100
AcDbCircle
 10
82.327743407
 20
9.8083568568
 30
0.0
 40
0.3625000000000146
100
AcDbArc
 50
1.9414863909
 51
93.1134387481
  0
ARC
  5
8B
330
7B
100
AcDbEntity
  8
0
  6
Continuous
 62
   179
370
    18
100
AcDbCircle
 10
82.4035451983
 20
7.5722040138
 30
0.0
 40
1.000000000000008
100
AcDbArc
 50
274.398705355
 51
1.9414863909
  0
ARC
  5
8C
330
7B
100
AcDbEntity
  8
0
  6
Continuous
 62
   179
370
    18
100
AcDbCircle
 10
82.4035451983
 20
7.5722040138
 30
0.0
 40
0.3625000000000068
100
AcDbArc
 50
274.398705355
 51
1.9414863909
  0
ARC
  5
8D
330
7B
100
AcDbEntity
  8
0
  6
Continuous
 62
   179
370
    18
100
AcDbCircle
 10
81.6051675115
 20
7.5107903456
 30
0.0
 40
0.3625000000000111
100
AcDbArc
 50
181.9414863909
 51
274.398705355
  0
ARC
  5
8E
330
7B
100
AcDbEntity
  8
0
  6
Continuous
 62
   179
370
    18
100
AcDbCircle
 10
88.825822761
 20
8.0662148274
 30
0.0
 40
0.9999999999999997
100
AcDbArc
 50
274.398705355
 51
2.6541955134
  0
ARC
  5
8F
330
7B
100
AcDbEntity
  8
0
  6
Continuous
 62
   179
370
    18
100
AcDbCircle
 10
90.1578295581
 20
5.7814576687
 30
0.0
 40
0.3000000000000043
100
AcDbArc
 50
274.6062978507
 51
2.5147526475
  0
ARC
  5
90
330
7B
100
AcDbEntity
  8
0
  6
Continuous
 62
   179
370
    18
100
AcDbCircle
 10
88.825822761
 20
8.0662148274
 30
0.0
 40
0.3625000000000083
100
AcDbArc
 50
274.398705355
 51
2.6541955134
  0
ARC
  5
91
330
7B
100
AcDbEntity
  8
0
  6
Continuous
 62
   179
370
    18
100
AcDbCircle
 10
88.728529747
 20
10.16496413
 30
0.0
 40
1.000000000000001
100
AcDbArc
 50
2.6541955134
 51
93.1134387481
  0
ARC
  5
92
330
7B
100
AcDbEntity
  8
0
  6
Continuous
 62
   179
370
    18
100
AcDbCircle
 10
88.728529747
 20
10.16496413
 30
0.0
 40
0.3625000000000085
100
AcDbArc
 50
2.6541955134
 51
93.1134387481
  0
ARC
  5
93
330
7B
100
AcDbEntity
  8
0
  6
Continuous
 62
   179
370
    18
100
AcDbCircle
 10
89.8647121341
 20
12.455515937
 30
0.0
 40
0.2999999999999984
100
AcDbArc
 50
2.5147526475
 51
93.0418421566
  0
ARC
  5
94
330
7B
100
AcDbEntity
  8
0
  6
Continuous
 62
   179
370
    18
100
AcDbCircle
 10
90.6583795404
 20
13.4384863935
 30
0.0
 40
0.2999999999999911
100
AcDbArc
 50
3.7249371334
 51
92.6995697565
  0
CIRCLE
  5
95
330
7B
100
AcDbEntity
  8
0
  6
Continuous
 62
   179
370
    18
100
AcDbCircle
 10
15.7233972286
 20
6.4054930194
 30
0.0
 40
1.579500000000014
  0
CIRCLE
  5
96
330
7B
100
AcDbEntity
  8
0
  6
Continuous
 62
   179
370
    18
100
AcDbCircle
 10
15.7233972286
 20
6.4054930194
 30
0.0
 40
2.281499999999994
  0
ARC
  5
97
330
7B
100
AcDbEntity
  8
0
  6
Continuous
 62
   179
370
    18
100
AcDbCircle
 10
89.7681336026
 20
2.3106616691
 30
0.0
 40
0.098384530246548
100
AcDbArc
 50
332.3802627259
 51
4.9765441602
  0
ARC
  5
98
330
7B
100
AcDbEntity
  8
0
  6
Continuous
 62
   179
370
    18
100
AcDbCircle
 10
89.6886560089
 20
2.3522464185
 30
0.0
 40
0.1880839130754018
100
AcDbArc
 50
303.690067526
 51
332.3802627258
  0
ARC
  5
99
330
7B
100
AcDbEntity
  8
0
  6
Continuous
 62
   179
370
    18
100
AcDbCircle
 10
89.4849700869
 20
2.6577753016
 30
0.0
 40
0.5552839311631531
100
AcDbArc
 50
287.108652213
 51
303.690067526
  0
ARC
  5
9A
330
7B
100
AcDbEntity
  8
0
  6
Continuous
 62
   179
370
    18
100
AcDbCircle
 10
88.0513010646
 20
7.3154864882
 30
0.0
 40
5.428648309393203
100
AcDbArc
 50
285.2551187031
 51
287.108652213
  0
ARC
  5
9B
330
7B
100
AcDbEntity
  8
0
  6
Continuous
 62
   179
370
    18
100
AcDbCircle
 10
89.1317168954
 20
3.3539617753
 30
0.0
 40
1.322436378825653
100
AcDbArc
 50
281.4991866428
 51
285.255118703
  0
ARC
  5
9C
330
7B
100
AcDbEntity
  8
0
  6
Continuous
 62
   179
370
    18
100
AcDbCircle
 10
89.3198255509
 20
2.4293110075
 30
0.0
 40
0.3788454141584939
100
AcDbArc
 50
279.1917900003
 51
281.499186643
  0
ARC
  5
9D
330
7B
100
AcDbEntity
  8
0
  6
Continuous
 62
   179
370
    18
100
AcDbCircle
 10
89.0487250788
 20
4.1046569124
 30
0.0
 40
2.07598399629105
100
AcDbArc
 50
277.7634675038
 51
279.1917900002
  0
ARC
  5
9E
330
7B
100
AcDbEntity
  8
0
  6
Continuous
 62
   179
370
    18
100
AcDbCircle
 10
9.2588909915
 20
6.4054930194
 30
0.0
 40
1.579500000000074
100
AcDbArc
 50
31.0558004991
 51
330.0
  0
ARC
  5
9F
330
7B
100
AcDbEntity
  8
0
  6
Continuous
 62
   179
370
    18
100
AcDbCircle
 10
9.2588909915
 20
6.4054930194
 30
0.0
 40
2.281500000000107
100
AcDbArc
 50
30.7309172659
 51
330.0
  0
ARC
  5
A0
330
7B
100
AcDbEntity
  8
0
  6
Continuous
 62
   179
370
    18
100
AcDbCircle
 10
6.1288847544
 20
4.0685261312
 30
0.0
 40
4.914000000000307
100
AcDbArc
 50
172.3058370354
 51
179.7113029221
  0
ARC
  5
A1
330
7B
100
AcDbEntity
  8
0
  6
Continuous
 62
   179
370
    18
100
AcDbCircle
 10
-0.5401152456
 20
4.0685261312
 30
0.0
 40
4.91400000000019
100
AcDbArc
 50
0.2886970779
 51
7.6941629646
  0
ARC
  5
A2
330
7B
100
AcDbEntity
  8
0
  6
Continuous
 62
   179
370
    18
100
AcDbCircle
 10
-0.5401152456
 20
4.0685261312
 30
0.0
 40
5.616000000000127
100
AcDbArc
 50
0.2526096926
 51
53.5764263577
  0
ARC
  5
A3
330
7B
100
AcDbEntity
  8
0
  6
Continuous
 62
   179
370
    18
100
AcDbCircle
 10
6.1288847544
 20
4.0685261312
 30
0.0
 40
5.61600000000074
100
AcDbArc
 50
126.4235736423
 51
179.7473903073
  0
ARC
  5
A4
330
7B
100
AcDbEntity
  8
0
  6
Continuous
 62
   179
370
    18
100
AcDbCircle
 10
-0.5401152456
 20
4.0685261312
 30
0.0
 40
4.914000000000161
100
AcDbArc
 50
16.0658750272
 51
47.2678899574
  0
ARC
  5
A5
330
7B
100
AcDbEntity
  8
0
  6
Continuous
 62
   179
370
    18
100
AcDbCircle
 10
6.1288847544
 20
4.0685261312
 30
0.0
 40
4.914000000000584
100
AcDbArc
 50
132.7321100426
 51
163.9341249728
  0
LINE
  5
A6
330
7B
100
AcDbEntity
  8
0
  6
Continuous
 62
   179
370
    18
100
AcDbLine
 10
78.8017089389
 20
2.8885802402
 30
0.0
 11
90.7982178739
 21
3.8455002136
 31
0.0
  0
LINE
  5
A7
330
7B
100
AcDbEntity
  8
0
  6
Continuous
 62
   179
370
    18
100
AcDbLine
 10
76.6545490427
 20
5.8693097374
 30
0.0
 11
78.0344191726
 21
3.5235305166
 31
0.0
  0
LINE
  5
A8
330
7B
100
AcDbEntity
  8
0
  6
Continuous
 62
   179
370
    18
100
AcDbLine
 10
91.5327615373
 20
4.6257342197
 30
0.0
 11
90.9577457715
 21
13.4579763825
 31
0.0
  0
LINE
  5
A9
330
7B
100
AcDbEntity
  8
0
  6
Continuous
 62
   179
370
    18
100
AcDbLine
 10
78.6309362756
 20
12.8788539549
 30
0.0
 11
78.8360757629
 21
3.6475770268
 31
0.0
  0
LINE
  5
AA
330
7B
100
AcDbEntity
  8
0
  6
Continuous
 62
   179
370
    18
100
AcDbLine
 10
80.4094186633
 20
4.6950685544
 30
0.0
 11
90.1819221045
 21
5.4824266516
 31
0.0
  0
LINE
  5
AB
330
7B
100
AcDbEntity
  8
0
  6
Continuous
 62
   179
370
    18
100
AcDbLine
 10
79.1595373973
 20
3.3551666867
 30
0.0
 11
91.2569309872
 21
4.3071688694
 31
0.0
  0
LINE
  5
AC
330
7B
100
AcDbEntity
  8
0
  6
Continuous
 62
   179
370
    18
100
AcDbLine
 10
79.2585043218
 20
2.925017226
 30
0.0
 11
80.4858981444
 21
1.533240302
 31
0.0
  0
LINE
  5
AD
330
7B
100
AcDbEntity
  8
0
  6
Continuous
 62
   179
370
    18
100
AcDbLine
 10
78.0344191726
 20
3.5235305166
 30
0.0
 11
78.3638740472
 21
3.1446574108
 31
0.0
  0
LINE
  5
AE
330
7B
100
AcDbEntity
  8
0
  6
Continuous
 62
   179
370
    18
100
AcDbLine
 10
78.3638740472
 20
3.1446574108
 30
0.0
 11
78.4680611395
 21
3.0248422547
 31
0.0
  0
LINE
  5
AF
330
7B
100
AcDbEntity
  8
0
  6
Continuous
 62
   179
370
    18
100
AcDbLine
 10
81.3414110113
 20
1.2002475785
 30
0.0
 11
89.3291569519
 21
2.0477010263
 31
0.0
  0
LINE
  5
B0
330
7B
100
AcDbEntity
  8
0
  6
Continuous
 62
   179
370
    18
100
AcDbLine
 10
89.8661472522
 20
2.5197759309
 30
0.0
 11
89.8661472522
 21
2.3090867337
 31
0.0
  0
LINE
  5
B1
330
7B
100
AcDbEntity
  8
0
  6
Continuous
 62
   179
370
    18
100
AcDbLine
 10
88.676842368
 20
3.6762854359
 30
0.0
 11
89.6713239345
 21
2.7875997807
 31
0.0
  0
LINE
  5
B2
330
7B
100
AcDbEntity
  8
0
  6
Continuous
 62
   179
370
    18
100
AcDbLine
 10
89.6713239345
 20
2.7875997807
 30
0.0
 11
89.7459749087
 21
2.7242700694
 31
0.0
  0
LINE
  5
B3
330
7B
100
AcDbEntity
  8
0
  6
Continuous
 62
   179
370
    18
100
AcDbLine
 10
90.7982178739
 20
3.8455002136
 30
0.0
 11
91.3961615969
 21
4.3514525945
 31
0.0
  0
LINE
  5
B4
330
7B
100
AcDbEntity
  8
0
  6
Continuous
 62
   179
370
    18
100
AcDbLine
 10
90.6442498554
 20
13.7381534621
 30
0.0
 11
78.1502930503
 21
13.1490474438
 31
0.0
  0
LINE
  5
B5
330
7B
100
AcDbEntity
  8
0
  6
Continuous
 62
   179
370
    18
100
AcDbLine
 10
80.1347709981
 20
12.2388892068
 30
0.0
 11
89.8487925667
 21
12.7550932515
 31
0.0
  0
LINE
  5
B6
330
7B
100
AcDbEntity
  8
0
  6
Continuous
 62
   179
370
    18
100
AcDbLine
 10
76.4935641943
 20
11.7567556248
 30
0.0
 11
76.6545490427
 21
5.8693097374
 31
0.0
  0
LINE
  5
B7
330
7B
100
AcDbEntity
  8
0
  6
Continuous
 62
   179
370
    18
100
AcDbLine
 10
79.8508616208
 20
11.929182536
 30
0.0
 11
80.0854971721
 21
4.9839702153
 31
0.0
  0
LINE
  5
B8
330
7B
100
AcDbEntity
  8
0
  6
Continuous
 62
   179
370
    18
100
AcDbLine
 10
80.5293311574
 20
9.7310185051
 30
0.0
 11
80.6057415643
 21
7.4769115
 31
0.0
  0
LINE
  5
B9
330
7B
100
AcDbEntity
  8
0
  6
Continuous
 62
   179
370
    18
100
AcDbLine
 10
77.507650604
 20
12.7708420346
 30
0.0
 11
76.4935641943
 21
11.7567556248
 31
0.0
  0
LINE
  5
BA
330
7B
100
AcDbEntity
  8
0
  6
Continuous
 62
   179
370
    18
100
AcDbLine
 10
86.8848195129
 20
11.0661568594
 30
0.0
 11
88.6742167283
 21
11.1634880887
 31
0.0
  0
LINE
  5
BB
330
7B
100
AcDbEntity
  8
0
  6
Continuous
 62
   179
370
    18
100
AcDbLine
 10
87.0766213517
 20
6.9287171941
 30
0.0
 11
88.90708891
 21
7.0695223909
 31
0.0
  0
LINE
  5
BC
330
7B
100
AcDbEntity
  8
0
  6
Continuous
 62
   179
370
    18
100
AcDbLine
 10
87.6830038473
 20
7.6147347768
 30
0.0
 11
88.8536252418
 21
7.7047825764
 31
0.0
  0
LINE
  5
BD
330
7B
100
AcDbEntity
  8
0
  6
Continuous
 62
   179
370
    18
100
AcDbLine
 10
87.5509212094
 20
10.4639459651
 30
0.0
 11
88.7088412777
 21
10.5269290651
 31
0.0
  0
LINE
  5
BE
330
7B
100
AcDbEntity
  8
0
  6
Continuous
 62
   179
370
    18
100
AcDbLine
 10
87.0766218384
 20
6.9287066941
 30
0.0
 11
86.8848195129
 21
11.0661568594
 31
0.0
  0
LINE
  5
BF
330
7B
100
AcDbEntity
  8
0
  6
Continuous
 62
   179
370
    18
100
AcDbLine
 10
83.7004598825
 20
6.6667911093
 30
0.0
 11
84.5054929504
 21
10.9267193262
 31
0.0
  0
LINE
  5
C0
330
7B
100
AcDbEntity
  8
0
  6
Continuous
 62
   179
370
    18
100
AcDbLine
 10
85.3543248406
 20
10.9728900984
 30
0.0
 11
86.4940946704
 21
6.8816860929
 31
0.0
  0
LINE
  5
C1
330
7B
100
AcDbEntity
  8
0
  6
Continuous
 62
   179
370
    18
100
AcDbLine
 10
84.9728575427
 20
9.9667192298
 30
0.0
 11
85.4540299774
 21
8.2395506903
 31
0.0
  0
LINE
  5
C2
330
7B
100
AcDbEntity
  8
0
  6
Continuous
 62
   179
370
    18
100
AcDbLine
 10
84.6363094629
 20
8.1858350416
 30
0.0
 11
84.9728575427
 21
9.9667192298
 31
0.0
  0
LINE
  5
C3
330
7B
100
AcDbEntity
  8
0
  6
Continuous
 62
   179
370
    18
100
AcDbLine
 10
87.6830038473
 20
7.6147347768
 30
0.0
 11
87.5509212094
 21
10.4639459651
 31
0.0
  0
LINE
  5
C4
330
7B
100
AcDbEntity
  8
0
  6
Continuous
 62
   179
370
    18
100
AcDbLine
 10
84.6363094629
 20
8.1858350416
 30
0.0
 11
85.4540299774
 21
8.2395506903
 31
0.0
  0
LINE
  5
C5
330
7B
100
AcDbEntity
  8
0
  6
Continuous
 62
   179
370
    18
100
AcDbLine
 10
84.5140586807
 20
7.5389304886
 30
0.0
 11
85.6288154243
 21
7.6121582976
 31
0.0
  0
LINE
  5
C6
330
7B
100
AcDbEntity
  8
0
  6
Continuous
 62
   179
370
    18
100
AcDbLine
 10
84.3588137958
 20
6.717433718
 30
0.0
 11
84.5140586807
 21
7.5389304886
 31
0.0
  0
LINE
  5
C7
330
7B
100
AcDbEntity
  8
0
  6
Continuous
 62
   179
370
    18
100
AcDbLine
 10
81.6818640104
 20
6.5137358601
 30
0.0
 11
82.4802416972
 21
6.5751495283
 31
0.0
  0
LINE
  5
C8
330
7B
100
AcDbEntity
  8
0
  6
Continuous
 62
   179
370
    18
100
AcDbLine
 10
81.6329699923
 20
7.1493580946
 30
0.0
 11
82.4313476791
 21
7.2107717628
 31
0.0
  0
LINE
  5
C9
330
7B
100
AcDbEntity
  8
0
  6
Continuous
 62
   179
370
    18
100
AcDbLine
 10
83.7004598825
 20
6.6667911093
 30
0.0
 11
84.3588137958
 21
6.717433718
 31
0.0
  0
LINE
  5
CA
330
7B
100
AcDbEntity
  8
0
  6
Continuous
 62
   179
370
    18
100
AcDbLine
 10
82.7059483815
 20
9.3512024135
 30
0.0
 11
83.3423973297
 21
9.3930104243
 31
0.0
  0
LINE
  5
CB
330
7B
100
AcDbEntity
  8
0
  6
Continuous
 62
   179
370
    18
100
AcDbLine
 10
82.7491656358
 20
8.0762934118
 30
0.0
 11
83.385614584
 21
8.1181014226
 31
0.0
  0
LINE
  5
CC
330
7B
100
AcDbEntity
  8
0
  6
Continuous
 62
   179
370
    18
100
AcDbLine
 10
81.1664651987
 20
9.7526162692
 30
0.0
 11
81.2428756056
 21
7.4985092641
 31
0.0
  0
LINE
  5
CD
330
7B
100
AcDbEntity
  8
0
  6
Continuous
 62
   179
370
    18
100
AcDbLine
 10
82.6900353128
 20
9.8206379383
 30
0.0
 11
82.7052632884
 21
9.3714126602
 31
0.0
  0
LINE
  5
CE
330
7B
100
AcDbEntity
  8
0
  6
Continuous
 62
   179
370
    18
100
AcDbLine
 10
82.7491656358
 20
8.0762934118
 30
0.0
 11
82.7658371041
 21
7.5844850954
 31
0.0
  0
LINE
  5
CF
330
7B
100
AcDbEntity
  8
0
  6
Continuous
 62
   179
370
    18
100
AcDbLine
 10
83.3271693541
 20
9.8422357024
 30
0.0
 11
83.3423973297
 21
9.3930104243
 31
0.0
  0
LINE
  5
D0
330
7B
100
AcDbEntity
  8
0
  6
Continuous
 62
   179
370
    18
100
AcDbLine
 10
83.385614584
 20
8.1181014226
 30
0.0
 11
83.4029711454
 21
7.6060828595
 31
0.0
  0
LINE
  5
D1
330
7B
100
AcDbEntity
  8
0
  6
Continuous
 62
   179
370
    18
100
AcDbLine
 10
85.6288154243
 20
7.6121582976
 30
0.0
 11
85.8462022593
 21
6.8318482152
 31
0.0
  0
LINE
  5
D2
330
7B
100
AcDbEntity
  8
0
  6
Continuous
 62
   179
370
    18
100
AcDbLine
 10
85.8462022593
 20
6.8318482152
 30
0.0
 11
86.4940946704
 21
6.8816860929
 31
0.0
  0
LINE
  5
D3
330
7B
100
AcDbEntity
  8
0
  6
Continuous
 62
   179
370
    18
100
AcDbLine
 10
84.5054929504
 20
10.9267193262
 30
0.0
 11
85.3543248406
 21
10.9728900984
 31
0.0
  0
LINE
  5
D4
330
7B
100
AcDbEntity
  8
0
  6
Continuous
 62
   179
370
    18
100
AcDbLine
 10
81.4744440858
 20
10.7634213094
 30
0.0
 11
82.2734303883
 21
10.8068808154
 31
0.0
  0
LINE
  5
D5
330
7B
100
AcDbEntity
  8
0
  6
Continuous
 62
   179
370
    18
100
AcDbLine
 10
81.5090686352
 20
10.1268622858
 30
0.0
 11
82.3080549377
 21
10.1703217918
 31
0.0
  0
LINE
  5
D6
330
7B
100
AcDbEntity
  8
0
  6
Continuous
 62
   179
370
    18
100
AcDbLine
 10
90.4575406452
 20
5.7946206556
 30
0.0
 11
90.1644232213
 21
12.4686789239
 31
0.0
  0
LINE
  5
D7
330
7B
100
AcDbEntity
  8
0
  6
Continuous
 62
   179
370
    18
100
AcDbLine
 10
89.8247499755
 20
8.1125227115
 30
0.0
 11
89.7274569615
 21
10.2112720142
 31
0.0
  0
LINE
  5
D8
330
7B
100
AcDbEntity
  8
0
  6
Continuous
 62
   179
370
    18
100
AcDbLine
 10
89.1879338763
 20
8.0830014354
 30
0.0
 11
89.0906408622
 21
10.181750738
 31
0.0
  0
LINE
  5
D9
330
7B
100
AcDbEntity
  8
0
  6
Continuous
 62
   179
370
    18
100
AcDbLine
 10
89.7459749087
 20
2.7242700694
 30
0.0
 11
89.7974962577
 21
2.6659765769
 31
0.0
  0
LINE
  5
DA
330
7B
100
AcDbEntity
  8
0
  6
Continuous
 62
   179
370
    18
100
AcDbLine
 10
89.7974962577
 20
2.6659765769
 30
0.0
 11
89.8351851379
 21
2.60192886
 31
0.0
  0
LINE
  5
DB
330
7B
100
AcDbEntity
  8
0
  6
Continuous
 62
   179
370
    18
100
AcDbLine
 10
89.8351851379
 20
2.60192886
 30
0.0
 11
89.8661472522
 21
2.5197759309
 31
0.0
  0
LINE
  5
DC
330
7B
100
AcDbEntity
  8
0
  6
Continuous
 62
   179
370
    18
100
AcDbLine
 10
10.6119938288
 20
7.2203138351
 30
0.0
 11
11.2200151261
 21
7.5713550947
 31
0.0
  0
LINE
  5
DD
330
7B
100
AcDbEntity
  8
0
  6
Continuous
 62
   179
370
    18
100
AcDbLine
 10
11.2347279503
 20
5.2647430194
 30
0.0
 11
10.6267781168
 21
5.6157430194
 31
0.0
  0
LINE
  5
DE
330
7B
100
AcDbEntity
  8
0
  6
Continuous
 62
   179
370
    18
100
AcDbLine
 10
6.4645062371
 20
16.1712617198
 30
0.0
 11
6.4645062371
 21
2.9364593988
 31
0.0
  0
LINE
  5
DF
330
7B
100
AcDbEntity
  8
0
  6
Continuous
 62
   179
370
    18
100
AcDbLine
 10
6.4645062371
 20
2.9364593988
 30
0.0
 11
12.0532757459
 21
2.9364593988
 31
0.0
  0
LINE
  5
E0
330
7B
100
AcDbEntity
  8
0
  6
Continuous
 62
   179
370
    18
100
AcDbLine
 10
12.0532757459
 20
2.9364593988
 30
0.0
 11
12.0532757459
 21
16.1712617198
 31
0.0
  0
LINE
  5
E1
330
7B
100
AcDbEntity
  8
0
  6
Continuous
 62
   179
370
    18
100
AcDbLine
 10
12.0532757459
 20
16.1712617198
 30
0.0
 11
6.4645062371
 21
16.1712617198
 31
0.0
  0
LINE
  5
E2
330
7B
100
AcDbEntity
  8
0
  6
Continuous
 62
   179
370
    18
100
AcDbLine
 10
0.0
 20
16.1712617198
 30
0.0
 11
0.0
 21
2.9364593988
 31
0.0
  0
LINE
  5
E3
330
7B
100
AcDbEntity
  8
0
  6
Continuous
 62
   179
370
    18
100
AcDbLine
 10
0.0
 20
2.9364593988
 30
0.0
 11
5.5887695089
 21
2.9364593988
 31
0.0
  0
LINE
  5
E4
330
7B
100
AcDbEntity
  8
0
  6
Continuous
 62
   179
370
    18
100
AcDbLine
 10
5.5887695089
 20
2.9364593988
 30
0.0
 11
5.5887695089
 21
16.1712617198
 31
0.0
  0
LINE
  5
E5
330
7B
100
AcDbEntity
  8
0
  6
Continuous
 62
   179
370
    18
100
AcDbLine
 10
5.5887695089
 20
16.1712617198
 30
0.0
 11
0.0
 21
16.1712617198
 31
0.0
  0
LINE
  5
E6
330
7B
100
AcDbEntity
  8
0
  6
Continuous
 62
   179
370
    18
100
AcDbLine
 10
1.2591262606
 20
4.7264381407
 30
0.0
 11
4.3296432482
 21
4.7264381407
 31
0.0
  0
LINE
  5
E7
330
7B
100
AcDbEntity
  8
0
  6
Continuous
 62
   179
370
    18
100
AcDbLine
 10
4.3738223747
 20
4.0932862697
 30
0.0
 11
5.0758301722
 21
4.0932862697
 31
0.0
  0
LINE
  5
E8
330
7B
100
AcDbEntity
  8
0
  6
Continuous
 62
   179
370
    18
100
AcDbLine
 10
0.5129393366
 20
4.0932862697
 30
0.0
 11
1.2149471342
 21
4.0932862697
 31
0.0
  0
LINE
  5
E9
330
7B
100
AcDbEntity
  8
0
  6
Continuous
 62
   179
370
    18
100
AcDbLine
 10
4.1819643097
 20
5.4284381407
 30
0.0
 11
1.4068051992
 21
5.4284381407
 31
0.0
  0
LINE
  5
EA
330
7B
100
AcDbEntity
  8
0
  6
Continuous
 62
   179
370
    18
100
AcDbLine
 10
18.517781983
 20
16.1712617198
 30
0.0
 11
18.517781983
 21
2.9364593988
 31
0.0
  0
LINE
  5
EB
330
7B
100
AcDbEntity
  8
0
  6
Continuous
 62
   179
370
    18
100
AcDbLine
 10
18.517781983
 20
2.9364593988
 30
0.0
 11
12.9290124742
 21
2.9364593988
 31
0.0
  0
LINE
  5
EC
330
7B
100
AcDbEntity
  8
0
  6
Continuous
 62
   179
370
    18
100
AcDbLine
 10
12.9290124742
 20
2.9364593988
 30
0.0
 11
12.9290124742
 21
16.1712617198
 31
0.0
  0
LINE
  5
ED
330
7B
100
AcDbEntity
  8
0
  6
Continuous
 62
   179
370
    18
100
AcDbLine
 10
12.9290124742
 20
16.1712617198
 30
0.0
 11
18.517781983
 21
16.1712617198
 31
0.0
  0
INSERT
  5
F3
330
7B
100
AcDbEntity
  8
0
  6
Continuous
 62
     7
370
     0
100
AcDbBlockReference
  2
SW_NOTE_0
 10
1.8998941161
 20
-0.3226565443
 30
0.0
  0
INSERT
  5
F8
330
7B
100
AcDbEntity
  8
0
  6
Continuous
 62
     7
370
     0
100
AcDbBlockReference
  2
SW_NOTE_0_1
 10
29.1164837035
 20
12.7459167441
 30
0.0
  0
INSERT
  5
100
330
7B
100
AcDbEntity
  8
0
  6
Continuous
 62
     7
370
     0
100
AcDbBlockReference
  2
SW_NOTE_0_2
 10
28.8863479825
 20
8.6365742194
 30
0.0
  0
ENDBLK
  5
7D
330
7B
100
AcDbEntity
  8
0
100
AcDbBlockEnd
  0
BLOCK
  5
EF
330
EE
100
AcDbEntity
  8
0
100
AcDbBlockBegin
  2
SW_NOTE_0
 70
     0
 10
0.0
 20
0.0
 30
0.0
  3
SW_NOTE_0
  1

  0
MTEXT
  5
F2
330
EE
100
AcDbEntity
  8
0
  6
Continuous
 62
     0
370
     0
100
AcDbMText
 10
7.46875
 20
2.5781354795
 30
0.0
 40
2.0
 41
0.0
 71
     2
 72
     1
  1
www.aco.ch
  7
SLDTEXTSTYLE0
 73
     1
 44
1.0
  0
ENDBLK
  5
F0
330
EE
100
AcDbEntity
  8
0
100
AcDbBlockEnd
  0
BLOCK
  5
F5
330
F4
100
AcDbEntity
  8
0
100
AcDbBlockBegin
  2
SW_NOTE_0_1
 70
     0
 10
0.0
 20
0.0
 30
0.0
  3
SW_NOTE_0_1
  1

  0
MTEXT
  5
F7
330
F4
100
AcDbEntity
  8
0
  6
Continuous
 62
     0
370
     0
100
AcDbMText
 10
0.0
 20
3.8672032193
 30
0.0
 40
3.0
 41
0.0
 71
     1
 72
     1
  1
ACO AG
  7
SLDTEXTSTYLE0
 73
     1
 44
1.0
  0
ENDBLK
  5
F6
330
F4
100
AcDbEntity
  8
0
100
AcDbBlockEnd
  0
BLOCK
  5
FA
330
F9
100
AcDbEntity
  8
0
100
AcDbBlockBegin
  2
SW_NOTE_0_2
 70
     0
 10
0.0
 20
0.0
 30
0.0
  3
SW_NOTE_0_2
  1

  0
MTEXT
  5
FC
330
F9
100
AcDbEntity
  8
0
  6
Continuous
 62
     0
370
     0
100
AcDbMText
 10
0.0
 20
2.5781354795
 30
0.0
 40
2.0
 41
0.0
 71
     1
 72
     1
  1
Industrie Kleinzaun
  7
SLDTEXTSTYLE0
 73
     1
 44
1.0
  0
MTEXT
  5
FD
330
F9
100
AcDbEntity
  8
0
  6
Continuous
 62
     0
370
     0
100
AcDbMText
 10
0.0
 20
-0.4218645465
 30
0.0
 40
2.0
 41
0.0
 71
     1
 72
     1
  1
CH-8754 Netstal
  7
SLDTEXTSTYLE0
 73
     1
 44
1.0
  0
MTEXT
  5
FE
330
F9
100
AcDbEntity
  8
0
  6
Continuous
 62
     0
370
     0
100
AcDbMText
 10
0.0
 20
-3.4218645726
 30
0.0
 40
2.0
 41
0.0
 71
     1
 72
     1
  1
Tel. 055 / 645 53 00
  7
SLDTEXTSTYLE0
 73
     1
 44
1.0
  0
MTEXT
  5
FF
330
F9
100
AcDbEntity
  8
0
  6
Continuous
 62
     0
370
     0
100
AcDbMText
 10
0.0
 20
-6.4218645987
 30
0.0
 40
2.0
 41
0.0
 71
     1
 72
     1
  1
E-Mail: aco@aco.ch
  7
SLDTEXTSTYLE0
 73
     1
 44
1.0
  0
ENDBLK
  5
FB
330
F9
100
AcDbEntity
  8
0
100
AcDbBlockEnd
  0
BLOCK
  5
179
330
178
100
AcDbEntity
  8
0
100
AcDbBlockBegin
  2
SW_NOTE_0_3
 70
     0
 10
0.0
 20
0.0
 30
0.0
  3
SW_NOTE_0_3
  1

  0
MTEXT
  5
17B
330
178
100
AcDbEntity
  8
0
  6
Continuous
 62
     0
370
     0
100
AcDbMText
 10
0.0
 20
1.9336016097
 30
0.0
 40
1.5
 41
0.0
 71
     1
 72
     1
  1
Diese Zeichnung darf weder kopiert
  7
SLDTEXTSTYLE0
 73
     1
 44
1.0
  0
MTEXT
  5
17C
330
178
100
AcDbEntity
  8
0
  6
Continuous
 62
     0
370
     0
100
AcDbMText
 10
0.0
 20
-0.5663983345
 30
0.0
 40
1.5
 41
0.0
 71
     1
 72
     1
  1
noch dritten Personen, insbesondere
  7
SLDTEXTSTYLE0
 73
     1
 44
1.0
  0
MTEXT
  5
17D
330
178
100
AcDbEntity
  8
0
  6
Continuous
 62
     0
370
     0
100
AcDbMText
 10
0.0
 20
-3.0663982786
 30
0.0
 40
1.5
 41
0.0
 71
     1
 72
     1
  1
zum Zweck anderweitiger Benutzung
  7
SLDTEXTSTYLE0
 73
     1
 44
1.0
  0
MTEXT
  5
17E
330
178
100
AcDbEntity
  8
0
  6
Continuous
 62
     0
370
     0
100
AcDbMText
 10
0.0
 20
-5.5663982227
 30
0.0
 40
1.5
 41
0.0
 71
     1
 72
     1
  1
mitgeteilt werden und bleibt unser
  7
SLDTEXTSTYLE0
 73
     1
 44
1.0
  0
MTEXT
  5
17F
330
178
100
AcDbEntity
  8
0
  6
Continuous
 62
     0
370
     0
100
AcDbMText
 10
0.0
 20
-8.0663981668
 30
0.0
 40
1.5
 41
0.0
 71
     1
 72
     1
  1
Eigentum.
  7
SLDTEXTSTYLE0
 73
     1
 44
1.0
  0
ENDBLK
  5
17A
330
178
100
AcDbEntity
  8
0
100
AcDbBlockEnd
  0
BLOCK
  5
1B8
330
1B7
100
AcDbEntity
  8
0
100
AcDbBlockBegin
  2
_D
 70
     0
 10
0.0
 20
0.0
 30
0.0
  3
_D
  1

  0
SOLID
  5
1BA
330
1B7
100
AcDbEntity
  8
0
  6
Continuous
 62
     7
370
    18
100
AcDbTrace
 10
179.4819331495
 20
166.7853059943
 30
0.0
 11
182.3375566889
 21
168.8794299232
 31
0.0
 12
181.5760570784
 22
169.6409295337
 32
0.0
 13
181.5760570784
 23
169.6409295337
 33
0.0
  0
LINE
  5
1BB
330
1B7
100
AcDbEntity
  8
0
  6
Continuous
 62
     7
370
     0
100
AcDbLine
 10
179.4819331495
 20
166.7853059943
 30
0.0
 11
194.3653474335
 21
181.6687202783
 31
0.0
  0
MTEXT
  5
1BC
330
1B7
100
AcDbEntity
  8
0
  6
Continuous
 62
     7
370
    18
100
AcDbMText
 10
179.0606504182
 20
172.7419981679
 30
0.0
 40
3.5
 41
0.0
 71
     1
 72
     1
  1
%%c
  7
SLDTEXTSTYLE0
 11
0.7071067811865462
 21
0.7071067811865488
 31
0.0
 73
     1
 44
1.0
  0
MTEXT
  5
1BD
330
1B7
100
AcDbEntity
  8
0
  6
Continuous
 62
     7
370
    18
100
AcDbMText
 10
182.6621073491
 20
176.3572045203
 30
0.0
 40
3.5
 41
0.0
 71
     1
 72
     1
  1
127.4
  7
SLDTEXTSTYLE0
 11
0.7071067811865462
 21
0.7071067811865488
 31
0.0
 73
     1
 44
1.0
  0
ENDBLK
  5
1B9
330
1B7
100
AcDbEntity
  8
0
100
AcDbBlockEnd
  0
BLOCK
  5
1C1
330
1C0
100
AcDbEntity
  8
0
100
AcDbBlockBegin
  2
_D_1
 70
     0
 10
0.0
 20
0.0
 30
0.0
  3
_D_1
  1

  0
SOLID
  5
1C3
330
1C0
100
AcDbEntity
  8
0
  6
Continuous
 62
     7
370
    18
100
AcDbTrace
 10
88.1415992485
 20
95.0080007321
 30
0.0
 11
91.441918931
 21
96.2916793608
 31
0.0
 12
90.9034573926
 22
97.2243221034
 32
0.0
 13
90.9034573926
 23
97.2243221034
 33
0.0
  0
SOLID
  5
1C4
330
1C0
100
AcDbEntity
  8
0
  6
Continuous
 62
     7
370
    18
100
AcDbTrace
 10
180.714844717
 20
148.4551889231
 30
0.0
 11
177.4145250345
 21
147.1715102943
 31
0.0
 12
177.952986573
 22
146.2388675518
 32
0.0
 13
177.952986573
 23
146.2388675518
 33
0.0
  0
LINE
  5
1C5
330
1C0
100
AcDbEntity
  8
0
  6
Continuous
 62
     7
370
     0
100
AcDbLine
 10
180.714844717
 20
148.4551889231
 30
0.0
 11
207.0106962971
 21
163.6371059114
 31
0.0
  0
LINE
  5
1C6
330
1C0
100
AcDbEntity
  8
0
  6
Continuous
 62
     7
370
     0
100
AcDbLine
 10
180.714844717
 20
148.4551889231
 30
0.0
 11
88.1415992485
 21
95.0080007321
 31
0.0
  0
MTEXT
  5
1C7
330
1C0
100
AcDbEntity
  8
0
  6
Continuous
 62
     7
370
    18
100
AcDbMText
 10
189.9171117321
 20
158.9756612982
 30
0.0
 40
3.5
 41
0.0
 71
     1
 72
     1
  1
%%c
  7
SLDTEXTSTYLE0
 11
0.8660254037844383
 21
0.5000000000000007
 31
0.0
 73
     1
 44
1.0
  0
MTEXT
  5
1C8
330
1C0
100
AcDbEntity
  8
0
  6
Continuous
 62
     7
370
    18
100
AcDbMText
 10
194.33153625
 20
161.5355568376
 30
0.0
 40
3.5
 41
0.0
 71
     1
 72
     1
  1
106.9
  7
SLDTEXTSTYLE0
 11
0.8660254037844383
 21
0.5000000000000007
 31
0.0
 73
     1
 44
1.0
  0
ENDBLK
  5
1C2
330
1C0
100
AcDbEntity
  8
0
100
AcDbBlockEnd
  0
BLOCK
  5
1CA
330
1C9
100
AcDbEntity
  8
0
100
AcDbBlockBegin
  2
SW_CENTERMARKSYMBOL_0
 70
     0
 10
0.0
 20
0.0
 30
0.0
  3
SW_CENTERMARKSYMBOL_0
  1

  0
LINE
  5
1CC
330
1C9
100
AcDbEntity
  8
0
  6
Continuous
 62
     0
370
    18
100
AcDbLine
 10
0.0
 20
0.0
 30
0.0
 11
0.0
 21
2.5
 31
0.0
  0
LINE
  5
1CD
330
1C9
100
AcDbEntity
  8
0
  6
Continuous
 62
     0
370
    18
100
AcDbLine
 10
0.0
 20
0.0
 30
0.0
 11
-2.5
 21
0.0
 31
0.0
  0
LINE
  5
1CE
330
1C9
100
AcDbEntity
  8
0
  6
Continuous
 62
     0
370
    18
100
AcDbLine
 10
0.0
 20
0.0
 30
0.0
 11
0.0
 21
-2.5
 31
0.0
  0
LINE
  5
1CF
330
1C9
100
AcDbEntity
  8
0
  6
Continuous
 62
     0
370
    18
100
AcDbLine
 10
0.0
 20
0.0
 30
0.0
 11
2.5
 21
0.0
 31
0.0
  0
LINE
  5
1D0
330
1C9
100
AcDbEntity
  8
0
  6
Continuous
 62
     0
370
    18
100
AcDbLine
 10
0.0
 20
5.0
 30
0.0
 11
0.0
 21
66.2042878381
 31
0.0
  0
LINE
  5
1D1
330
1C9
100
AcDbEntity
  8
0
  6
Continuous
 62
     0
370
    18
100
AcDbLine
 10
-5.0
 20
0.0
 30
0.0
 11
-66.2042878381
 21
0.0
 31
0.0
  0
LINE
  5
1D2
330
1C9
100
AcDbEntity
  8
0
  6
Continuous
 62
     0
370
    18
100
AcDbLine
 10
0.0
 20
-5.0
 30
0.0
 11
0.0
 21
-66.2042878381
 31
0.0
  0
LINE
  5
1D3
330
1C9
100
AcDbEntity
  8
0
  6
Continuous
 62
     0
370
    18
100
AcDbLine
 10
5.0
 20
0.0
 30
0.0
 11
66.2042878381
 21
0.0
 31
0.0
  0
ENDBLK
  5
1CB
330
1C9
100
AcDbEntity
  8
0
100
AcDbBlockEnd
  0
BLOCK
  5
29D
330
29C
100
AcDbEntity
  8
0
100
AcDbBlockBegin
  2
_D_2
 70
     0
 10
0.0
 20
0.0
 30
0.0
  3
_D_2
  1

  0
SOLID
  5
29F
330
29C
100
AcDbEntity
  8
0
  6
Continuous
 62
     7
370
    18
100
AcDbTrace
 10
208.1437913499
 20
233.3518688878
 30
0.0
 11
207.6053298115
 21
229.8518688878
 31
0.0
 12
208.6822528884
 22
229.8518688878
 32
0.0
 13
208.6822528884
 23
229.8518688878
 33
0.0
  0
SOLID
  5
2A0
330
29C
100
AcDbEntity
  8
0
  6
Continuous
 62
     7
370
    18
100
AcDbTrace
 10
208.1437913499
 20
215.8905213834
 30
0.0
 11
208.6822528884
 21
219.3905213834
 31
0.0
 12
207.6053298115
 22
219.3905213834
 32
0.0
 13
207.6053298115
 23
219.3905213834
 33
0.0
  0
LINE
  5
2A1
330
29C
100
AcDbEntity
  8
0
  6
Continuous
 62
     7
370
     0
100
AcDbLine
 10
194.3677040379
 20
233.3518688878
 30
0.0
 11
209.1437913499
 21
233.3518688878
 31
0.0
  0
LINE
  5
2A2
330
29C
100
AcDbEntity
  8
0
  6
Continuous
 62
     7
370
     0
100
AcDbLine
 10
193.5574117777
 20
215.8905213834
 30
0.0
 11
209.1437913499
 21
215.8905213834
 31
0.0
  0
LINE
  5
2A3
330
29C
100
AcDbEntity
  8
0
  6
Continuous
 62
     7
370
     0
100
AcDbLine
 10
208.1437913499
 20
233.3518688878
 30
0.0
 11
208.1437913499
 21
215.8905213834
 31
0.0
  0
MTEXT
  5
2A4
330
29C
100
AcDbEntity
  8
0
  6
Continuous
 62
     7
370
    18
100
AcDbMText
 10
203.6320540279
 20
219.9423758071
 30
0.0
 40
3.5
 41
0.0
 71
     1
 72
     1
  1
17.5
  7
SLDTEXTSTYLE0
 11
-7.044195017643634E-15
 21
1.0
 31
0.0
 73
     1
 44
1.0
  0
ENDBLK
  5
29E
330
29C
100
AcDbEntity
  8
0
100
AcDbBlockEnd
  0
ENDSEC
  0
SECTION
  2
ENTITIES
  0
LINE
  5
101
330
1F
100
AcDbEntity
  8
LINIEN-DÜNN
  6
CENTERX2
100
AcDbLine
 10
352.6174545849
 20
46.9080238789
 30
0.0
 11
352.6174545849
 21
39.4621586124
 31
0.0
  0
LINE
  5
102
330
1F
100
AcDbEntity
  8
LINIEN-DÜNN
100
AcDbLine
 10
357.7661698132
 20
46.3720107039
 30
0.0
 11
357.7661698132
 21
39.9353173413
 31
0.0
  0
LINE
  5
103
330
1F
100
AcDbEntity
  8
LINIEN-DÜNN
100
AcDbLine
 10
364.6059427486
 20
44.7376225767
 30
0.0
 11
364.6059427486
 21
41.5697054685
 31
0.0
  0
LINE
  5
104
330
1F
100
AcDbEntity
  8
LINIEN-DÜNN
100
AcDbLine
 10
364.6059427486
 20
44.7376225767
 30
0.0
 11
357.7661698132
 21
46.3720107039
 31
0.0
  0
LINE
  5
105
330
1F
100
AcDbEntity
  8
LINIEN-DÜNN
100
AcDbLine
 10
15.0
 20
198.5
 30
0.0
 11
20.0
 21
198.5
 31
0.0
  0
LINE
  5
106
330
1F
100
AcDbEntity
  8
LINIEN-DÜNN
100
AcDbLine
 10
12.0
 20
148.5
 30
0.0
 11
0.0
 21
148.5
 31
0.0
  0
LINE
  5
107
330
1F
100
AcDbEntity
  8
LINIEN-DÜNN
100
AcDbLine
 10
357.7661698132
 20
39.9353173413
 30
0.0
 11
364.6059427486
 21
41.5697054685
 31
0.0
  0
LINE
  5
108
330
1F
100
AcDbEntity
  8
LINIEN-DÜNN
  6
CENTERX2
100
AcDbLine
 10
348.6240467841
 20
43.1536640226
 30
0.0
 11
356.6108623857
 21
43.1536640226
 31
0.0
  0
LINE
  5
109
330
1F
100
AcDbEntity
  8
LINIEN-DÜNN
  6
CENTERX2
100
AcDbLine
 10
357.1289238876
 20
43.1536640226
 30
0.0
 11
365.6255362296
 21
43.1536640226
 31
0.0
  0
LINE
  5
10A
330
1F
100
AcDbEntity
  8
LINIEN-DÜNN
100
AcDbLine
 10
0.0
 20
0.0
 30
0.0
 11
420.0
 21
0.0
 31
0.0
  0
LINE
  5
10B
330
1F
100
AcDbEntity
  8
LINIEN-DÜNN
100
AcDbLine
 10
0.0
 20
0.0
 30
0.0
 11
0.0
 21
297.0
 31
0.0
  0
LINE
  5
10C
330
1F
100
AcDbEntity
  8
LINIEN-DÜNN
100
AcDbLine
 10
0.0
 20
297.0
 30
0.0
 11
420.0
 21
297.0
 31
0.0
  0
LINE
  5
10D
330
1F
100
AcDbEntity
  8
LINIEN-DÜNN
100
AcDbLine
 10
420.0
 20
0.0
 30
0.0
 11
420.0
 21
297.0
 31
0.0
  0
LINE
  5
10E
330
1F
100
AcDbEntity
  8
LINIEN-NORMAL
100
AcDbLine
 10
228.0
 20
35.0
 30
0.0
 11
410.0
 21
35.0
 31
0.0
  0
LINE
  5
10F
330
1F
100
AcDbEntity
  8
LINIEN-DÜNN
100
AcDbLine
 10
410.0
 20
198.5
 30
0.0
 11
415.0
 21
198.5
 31
0.0
  0
LINE
  5
110
330
1F
100
AcDbEntity
  8
LINIEN-DÜNN
100
AcDbLine
 10
15.0
 20
148.5
 30
0.0
 11
20.0
 21
148.5
 31
0.0
  0
LINE
  5
111
330
1F
100
AcDbEntity
  8
LINIEN-DÜNN
100
AcDbLine
 10
228.0
 20
40.0
 30
0.0
 11
296.6
 21
40.0
 31
0.0
  0
LINE
  5
112
330
1F
100
AcDbEntity
  8
LINIEN-DÜNN
100
AcDbLine
 10
15.0
 20
248.5
 30
0.0
 11
20.0
 21
248.5
 31
0.0
  0
LINE
  5
113
330
1F
100
AcDbEntity
  8
LINIEN-DICK
100
AcDbLine
 10
20.0
 20
287.0
 30
0.0
 11
20.0
 21
10.0
 31
0.0
  0
LINE
  5
114
330
1F
100
AcDbEntity
  8
LINIEN-DICK
100
AcDbLine
 10
410.0
 20
287.0
 30
0.0
 11
20.0
 21
287.0
 31
0.0
  0
LINE
  5
115
330
1F
100
AcDbEntity
  8
LINIEN-DICK
100
AcDbLine
 10
410.0
 20
5.0
 30
0.0
 11
410.0
 21
287.0
 31
0.0
  0
LINE
  5
116
330
1F
100
AcDbEntity
  8
LINIEN-DICK
100
AcDbLine
 10
20.0
 20
10.0
 30
0.0
 11
415.0
 21
10.0
 31
0.0
  0
LINE
  5
117
330
1F
100
AcDbEntity
  8
LINIEN-DÜNN
100
AcDbLine
 10
410.0
 20
148.5
 30
0.0
 11
415.0
 21
148.5
 31
0.0
  0
LINE
  5
118
330
1F
100
AcDbEntity
  8
LINIEN-DÜNN
100
AcDbLine
 10
228.0
 20
50.0
 30
0.0
 11
296.6
 21
50.0
 31
0.0
  0
LINE
  5
119
330
1F
100
AcDbEntity
  8
LINIEN-DÜNN
100
AcDbLine
 10
15.0
 20
98.5
 30
0.0
 11
20.0
 21
98.5
 31
0.0
  0
LINE
  5
11A
330
1F
100
AcDbEntity
  8
LINIEN-DÜNN
100
AcDbLine
 10
296.6
 20
45.0
 30
0.0
 11
228.0
 21
45.0
 31
0.0
  0
LINE
  5
11B
330
1F
100
AcDbEntity
  8
LINIEN-DÜNN
100
AcDbLine
 10
65.0
 20
292.0
 30
0.0
 11
65.0
 21
287.0
 31
0.0
  0
LINE
  5
11C
330
1F
100
AcDbEntity
  8
LINIEN-DÜNN
100
AcDbLine
 10
230.0
 20
292.0
 30
0.0
 11
230.0
 21
297.0
 31
0.0
  0
LINE
  5
11D
330
1F
100
AcDbEntity
  8
LINIEN-NORMAL
100
AcDbLine
 10
296.6
 20
55.0
 30
0.0
 11
296.6
 21
35.0
 31
0.0
  0
LINE
  5
11E
330
1F
100
AcDbEntity
  8
LINIEN-DÜNN
100
AcDbLine
 10
410.0
 20
98.5
 30
0.0
 11
415.0
 21
98.5
 31
0.0
  0
LINE
  5
11F
330
1F
100
AcDbEntity
  8
VORLAGE_BEMASSUNG
100
AcDbLine
 10
230.0
 20
5.0
 30
0.0
 11
230.0
 21
0.0
 31
0.0
  0
LINE
  5
120
330
1F
100
AcDbEntity
  8
LINIEN-DÜNN
100
AcDbLine
 10
125.0
 20
292.0
 30
0.0
 11
125.0
 21
297.0
 31
0.0
  0
LINE
  5
121
330
1F
100
AcDbEntity
  8
LINIEN-DÜNN
100
AcDbLine
 10
125.0
 20
5.0
 30
0.0
 11
125.0
 21
0.0
 31
0.0
  0
LINE
  5
122
330
1F
100
AcDbEntity
  8
LINIEN-NORMAL
100
AcDbLine
 10
410.0
 20
55.0
 30
0.0
 11
228.0
 21
55.0
 31
0.0
  0
LINE
  5
123
330
1F
100
AcDbEntity
  8
LINIEN-DÜNN
100
AcDbLine
 10
228.0
 20
55.0
 30
0.0
 11
410.0
 21
55.0
 31
0.0
  0
LINE
  5
124
330
1F
100
AcDbEntity
  8
LINIEN-DÜNN
100
AcDbLine
 10
410.0
 20
55.0
 30
0.0
 11
228.0
 21
55.0
 31
0.0
  0
LINE
  5
125
330
1F
100
AcDbEntity
  8
LINIEN-DÜNN
100
AcDbLine
 10
268.0
 20
76.5
 30
0.0
 11
268.0
 21
55.0
 31
0.0
  0
LINE
  5
126
330
1F
100
AcDbEntity
  8
LINIEN-DÜNN
100
AcDbLine
 10
271.6
 20
55.0
 30
0.0
 11
271.6
 21
40.0
 31
0.0
  0
LINE
  5
127
330
1F
100
AcDbEntity
  8
LINIEN-DÜNN
100
AcDbLine
 10
247.0
 20
55.0
 30
0.0
 11
247.0
 21
35.0
 31
0.0
  0
LINE
  5
128
330
1F
100
AcDbEntity
  8
LINIEN-DICK
100
AcDbLine
 10
228.0
 20
76.5
 30
0.0
 11
228.0
 21
10.0
 31
0.0
  0
LINE
  5
129
330
1F
100
AcDbEntity
  8
LINIEN-DÜNN
100
AcDbLine
 10
15.0
 20
292.0
 30
0.0
 11
415.0
 21
292.0
 31
0.0
  0
LINE
  5
12A
330
1F
100
AcDbEntity
  8
LINIEN-DÜNN
100
AcDbLine
 10
228.0
 20
65.75
 30
0.0
 11
310.0
 21
65.75
 31
0.0
  0
LINE
  5
12B
330
1F
100
AcDbEntity
  8
LINIEN-DICK
100
AcDbLine
 10
228.0
 20
76.5
 30
0.0
 11
410.0
 21
76.5
 31
0.0
  0
LINE
  5
12C
330
1F
100
AcDbEntity
  8
LINIEN-DÜNN
100
AcDbLine
 10
15.0
 20
48.5
 30
0.0
 11
20.0
 21
48.5
 31
0.0
  0
LINE
  5
12D
330
1F
100
AcDbEntity
  8
LINIEN-DÜNN
100
AcDbLine
 10
410.0
 20
48.5
 30
0.0
 11
415.0
 21
48.5
 31
0.0
  0
LINE
  5
12E
330
1F
100
AcDbEntity
  8
LINIEN-DÜNN
100
AcDbLine
 10
332.6610845472
 20
20.0
 30
0.0
 11
332.6610845472
 21
10.0
 31
0.0
  0
LINE
  5
12F
330
1F
100
AcDbEntity
  8
LINIEN-DÜNN
100
AcDbLine
 10
410.0
 20
248.5
 30
0.0
 11
415.0
 21
248.5
 31
0.0
  0
LINE
  5
130
330
1F
100
AcDbEntity
  8
LINIEN-DÜNN
100
AcDbLine
 10
65.0
 20
10.0
 30
0.0
 11
65.0
 21
5.0
 31
0.0
  0
LINE
  5
131
330
1F
100
AcDbEntity
  8
LINIEN-DÜNN
100
AcDbLine
 10
115.0
 20
10.0
 30
0.0
 11
115.0
 21
5.0
 31
0.0
  0
LINE
  5
132
330
1F
100
AcDbEntity
  8
LINIEN-DÜNN
100
AcDbLine
 10
115.0
 20
292.0
 30
0.0
 11
115.0
 21
287.0
 31
0.0
  0
LINE
  5
133
330
1F
100
AcDbEntity
  8
LINIEN-DÜNN
100
AcDbLine
 10
165.0
 20
10.0
 30
0.0
 11
165.0
 21
5.0
 31
0.0
  0
LINE
  5
134
330
1F
100
AcDbEntity
  8
LINIEN-DÜNN
100
AcDbLine
 10
165.0
 20
292.0
 30
0.0
 11
165.0
 21
287.0
 31
0.0
  0
LINE
  5
135
330
1F
100
AcDbEntity
  8
LINIEN-DÜNN
100
AcDbLine
 10
215.0
 20
10.0
 30
0.0
 11
215.0
 21
5.0
 31
0.0
  0
LINE
  5
136
330
1F
100
AcDbEntity
  8
LINIEN-DÜNN
100
AcDbLine
 10
215.0
 20
292.0
 30
0.0
 11
215.0
 21
287.0
 31
0.0
  0
LINE
  5
137
330
1F
100
AcDbEntity
  8
LINIEN-DÜNN
100
AcDbLine
 10
265.0
 20
10.0
 30
0.0
 11
265.0
 21
5.0
 31
0.0
  0
LINE
  5
138
330
1F
100
AcDbEntity
  8
LINIEN-DÜNN
100
AcDbLine
 10
265.0
 20
292.0
 30
0.0
 11
265.0
 21
287.0
 31
0.0
  0
LINE
  5
139
330
1F
100
AcDbEntity
  8
LINIEN-DÜNN
100
AcDbLine
 10
347.6610845472
 20
20.0
 30
0.0
 11
347.6610845472
 21
10.0
 31
0.0
  0
LINE
  5
13A
330
1F
100
AcDbEntity
  8
LINIEN-DÜNN
100
AcDbLine
 10
362.6610845472
 20
20.0
 30
0.0
 11
362.6610845472
 21
10.0
 31
0.0
  0
LINE
  5
13B
330
1F
100
AcDbEntity
  8
LINIEN-NORMAL
100
AcDbLine
 10
327.6610845472
 20
10.0
 30
0.0
 11
327.6610845472
 21
55.0
 31
0.0
  0
LINE
  5
13C
330
1F
100
AcDbEntity
  8
LINIEN-DÜNN
100
AcDbLine
 10
20.0
 20
292.0
 30
0.0
 11
20.0
 21
297.0
 31
0.0
  0
LINE
  5
13D
330
1F
100
AcDbEntity
  8
LINIEN-DÜNN
100
AcDbLine
 10
20.0
 20
5.0
 30
0.0
 11
20.0
 21
0.0
 31
0.0
  0
LINE
  5
13E
330
1F
100
AcDbEntity
  8
LINIEN-DÜNN
100
AcDbLine
 10
315.0
 20
10.0
 30
0.0
 11
315.0
 21
5.0
 31
0.0
  0
LINE
  5
13F
330
1F
100
AcDbEntity
  8
LINIEN-DÜNN
100
AcDbLine
 10
315.0
 20
292.0
 30
0.0
 11
315.0
 21
287.0
 31
0.0
  0
LINE
  5
140
330
1F
100
AcDbEntity
  8
LINIEN-DÜNN
100
AcDbLine
 10
365.0
 20
10.0
 30
0.0
 11
365.0
 21
5.0
 31
0.0
  0
LINE
  5
141
330
1F
100
AcDbEntity
  8
LINIEN-DÜNN
100
AcDbLine
 10
365.0
 20
292.0
 30
0.0
 11
365.0
 21
287.0
 31
0.0
  0
LINE
  5
142
330
1F
100
AcDbEntity
  8
LINIEN-DÜNN
100
AcDbLine
 10
15.0
 20
292.0
 30
0.0
 11
15.0
 21
5.0
 31
0.0
  0
LINE
  5
143
330
1F
100
AcDbEntity
  8
LINIEN-DÜNN
100
AcDbLine
 10
15.0
 20
5.0
 30
0.0
 11
415.0
 21
5.0
 31
0.0
  0
LINE
  5
144
330
1F
100
AcDbEntity
  8
LINIEN-DÜNN
100
AcDbLine
 10
415.0
 20
292.0
 30
0.0
 11
415.0
 21
5.0
 31
0.0
  0
LINE
  5
145
330
1F
100
AcDbEntity
  8
LINIEN-DÜNN
100
AcDbLine
 10
347.6610845472
 20
44.213444
 30
0.0
 11
327.6610845472
 21
44.213444
 31
0.0
  0
LINE
  5
146
330
1F
100
AcDbEntity
  8
LINIEN-DÜNN
100
AcDbLine
 10
347.6610845472
 20
35.0
 30
0.0
 11
347.6610845472
 21
55.0
 31
0.0
  0
LINE
  5
147
330
1F
100
AcDbEntity
  8
LINIEN-DÜNN
100
AcDbLine
 10
370.057188
 20
55.012032
 30
0.0
 11
370.057188
 21
35.0
 31
0.0
  0
LINE
  5
148
330
1F
100
AcDbEntity
  8
LINIEN-DÜNN
100
AcDbLine
 10
398.0
 20
35.0
 30
0.0
 11
398.0
 21
20.0
 31
0.0
  0
LINE
  5
149
330
1F
100
AcDbEntity
  8
LINIEN-DÜNN
100
AcDbLine
 10
410.0
 20
15.0
 30
0.0
 11
327.6610845472
 21
15.0
 31
0.0
  0
LINE
  5
14A
330
1F
100
AcDbEntity
  8
LINIEN-DÜNN
100
AcDbLine
 10
327.6610845472
 20
20.0
 30
0.0
 11
410.0
 21
20.0
 31
0.0
  0
LINE
  5
14B
330
1F
100
AcDbEntity
  8
LINIEN-DÜNN
100
AcDbLine
 10
341.485486
 20
20.0
 30
0.0
 11
341.485486
 21
27.564675
 31
0.0
  0
LINE
  5
14C
330
1F
100
AcDbEntity
  8
LINIEN-NORMAL
100
AcDbLine
 10
310.0
 20
76.5
 30
0.0
 11
310.0
 21
55.0
 31
0.0
  0
CIRCLE
  5
14D
330
1F
100
AcDbEntity
  8
LINIEN-DÜNN
100
AcDbCircle
 10
11.0
 20
108.5
 30
0.0
 40
2.750000000000001
  0
CIRCLE
  5
14E
330
1F
100
AcDbEntity
  8
LINIEN-DÜNN
100
AcDbCircle
 10
11.0
 20
188.5
 30
0.0
 40
2.750000000000001
  0
CIRCLE
  5
14F
330
1F
100
AcDbEntity
  8
LINIEN-DÜNN
100
AcDbCircle
 10
352.6174545849
 20
43.1536640226
 30
0.0
 40
3.218346681300138
  0
CIRCLE
  5
150
330
1F
100
AcDbEntity
  8
LINIEN-DÜNN
100
AcDbCircle
 10
352.6174545849
 20
43.1536640226
 30
0.0
 40
1.583958554121555
  0
INSERT
  5
151
330
1F
100
AcDbEntity
  8
0
  6
Continuous
 62
     7
100
AcDbBlockReference
  2
ACO-Logo
 10
314.3510726297
 20
57.6366106772
 30
0.0
  0
POINT
  5
152
330
1F
100
AcDbEntity
  8
VORLAGE_BEMASSUNG
100
AcDbPoint
 10
0.0
 20
0.0
 30
0.0
  0
POINT
  5
153
330
1F
100
AcDbEntity
  8
VORLAGE_BEMASSUNG
100
AcDbPoint
 10
410.0
 20
10.0
 30
0.0
  0
MTEXT
  5
154
330
1F
100
AcDbEntity
  8
VORLAGE_TEXT
100
AcDbMText
 10
17.7359443114
 20
124.8017866468
 30
0.0
 40
2.0
 41
0.0
 71
     2
 72
     1
  1
D
  7
SLDTEXTSTYLE0
 73
     1
 44
1.0
  0
MTEXT
  5
155
330
1F
100
AcDbEntity
  8
VORLAGE_TEXT
100
AcDbMText
 10
17.6274822413
 20
174.7261854936
 30
0.0
 40
2.0
 41
0.0
 71
     2
 72
     1
  1
C
  7
SLDTEXTSTYLE0
 73
     1
 44
1.0
  0
MTEXT
  5
156
330
1F
100
AcDbEntity
  8
VORLAGE_TEXT
100
AcDbMText
 10
17.5516905072
 20
224.4926420442
 30
0.0
 40
2.0
 41
0.0
 71
     2
 72
     1
  1
B
  7
SLDTEXTSTYLE0
 73
     1
 44
1.0
  0
MTEXT
  5
157
330
1F
100
AcDbEntity
  8
VORLAGE_TEXT
100
AcDbMText
 10
290.0344258799
 20
290.5428789914
 30
0.0
 40
2.0
 41
0.0
 71
     2
 72
     1
  1
6
  7
SLDTEXTSTYLE0
 73
     1
 44
1.0
  0
MTEXT
  5
158
330
1F
100
AcDbEntity
  8
VORLAGE_TEXT
100
AcDbMText
 10
240.0417859812
 20
290.6369260235
 30
0.0
 40
2.0
 41
0.0
 71
     2
 72
     1
  1
5
  7
SLDTEXTSTYLE0
 73
     1
 44
1.0
  0
MTEXT
  5
159
330
1F
100
AcDbEntity
  8
VORLAGE_TEXT
100
AcDbMText
 10
190.0300404524
 20
290.6343268032
 30
0.0
 40
2.0
 41
0.0
 71
     2
 72
     1
  1
4
  7
SLDTEXTSTYLE0
 73
     1
 44
1.0
  0
MTEXT
  5
15A
330
1F
100
AcDbEntity
  8
VORLAGE_TEXT
100
AcDbMText
 10
140.0165868337
 20
290.6378887952
 30
0.0
 40
2.0
 41
0.0
 71
     2
 72
     1
  1
3
  7
SLDTEXTSTYLE0
 73
     1
 44
1.0
  0
MTEXT
  5
15B
330
1F
100
AcDbEntity
  8
VORLAGE_TEXT
100
AcDbMText
 10
90.033223
 20
290.5566702875
 30
0.0
 40
2.0
 41
0.0
 71
     2
 72
     1
  1
2
  7
SLDTEXTSTYLE0
 73
     1
 44
1.0
  0
MTEXT
  5
15C
330
1F
100
AcDbEntity
  8
VORLAGE_TEXT
100
AcDbMText
 10
40.0509551097
 20
290.5530165805
 30
0.0
 40
2.0
 41
0.0
 71
     2
 72
     1
  1
1
  7
SLDTEXTSTYLE0
 73
     1
 44
1.0
  0
MTEXT
  5
15D
330
1F
100
AcDbEntity
  8
VORLAGE_TEXT
100
AcDbMText
 10
17.5609786315
 20
271.2966048816
 30
0.0
 40
2.0
 41
0.0
 71
     2
 72
     1
  1
A
  7
SLDTEXTSTYLE0
 73
     1
 44
1.0
  0
MTEXT
  5
15E
330
1F
100
AcDbEntity
  8
VORLAGE_TEXT
100
AcDbMText
 10
89.9333968896
 20
8.5904490253
 30
0.0
 40
2.0
 41
0.0
 71
     2
 72
     1
  1
2
  7
SLDTEXTSTYLE0
 73
     1
 44
1.0
  0
MTEXT
  5
15F
330
1F
100
AcDbEntity
  8
VORLAGE_TEXT
100
AcDbMText
 10
39.9009486579
 20
8.6623118453
 30
0.0
 40
2.0
 41
0.0
 71
     2
 72
     1
  1
1
  7
SLDTEXTSTYLE0
 73
     1
 44
1.0
  0
MTEXT
  5
160
330
1F
100
AcDbEntity
  8
VORLAGE_TEXT
100
AcDbMText
 10
190.0227230239
 20
8.7073169286
 30
0.0
 40
2.0
 41
0.0
 71
     2
 72
     1
  1
4
  7
SLDTEXTSTYLE0
 73
     1
 44
1.0
  0
MTEXT
  5
161
330
1F
100
AcDbEntity
  8
VORLAGE_TEXT
100
AcDbMText
 10
140.0453427777
 20
8.5647154541
 30
0.0
 40
2.0
 41
0.0
 71
     2
 72
     1
  1
3
  7
SLDTEXTSTYLE0
 73
     1
 44
1.0
  0
MTEXT
  5
162
330
1F
100
AcDbEntity
  8
VORLAGE_TEXT
100
AcDbMText
 10
239.8749782531
 20
8.5637526825
 30
0.0
 40
2.0
 41
0.0
 71
     2
 72
     1
  1
5
  7
SLDTEXTSTYLE0
 73
     1
 44
1.0
  0
MTEXT
  5
163
330
1F
100
AcDbEntity
  8
VORLAGE_TEXT
100
AcDbMText
 10
412.6717254925
 20
224.51208263
 30
0.0
 40
2.0
 41
0.0
 71
     2
 72
     1
  1
B
  7
SLDTEXTSTYLE0
 73
     1
 44
1.0
  0
MTEXT
  5
164
330
1F
100
AcDbEntity
  8
VORLAGE_TEXT
100
AcDbMText
 10
412.5951211154
 20
271.2798202564
 30
0.0
 40
2.0
 41
0.0
 71
     2
 72
     1
  1
A
  7
SLDTEXTSTYLE0
 73
     1
 44
1.0
  0
MTEXT
  5
165
330
1F
100
AcDbEntity
  8
VORLAGE_TEXT
100
AcDbMText
 10
412.6491448679
 20
174.7279841048
 30
0.0
 40
2.0
 41
0.0
 71
     2
 72
     1
  1
C
  7
SLDTEXTSTYLE0
 73
     1
 44
1.0
  0
MTEXT
  5
166
330
1F
100
AcDbEntity
  8
VORLAGE_TEXT
100
AcDbMText
 10
340.0216466634
 20
290.5954278102
 30
0.0
 40
2.0
 41
0.0
 71
     2
 72
     1
  1
7
  7
SLDTEXTSTYLE0
 73
     1
 44
1.0
  0
MTEXT
  5
167
330
1F
100
AcDbEntity
  8
VORLAGE_TEXT
100
AcDbMText
 10
390.037657264
 20
290.6215496941
 30
0.0
 40
2.0
 41
0.0
 71
     2
 72
     1
  1
8
  7
SLDTEXTSTYLE0
 73
     1
 44
1.0
  0
MTEXT
  5
168
330
1F
100
AcDbEntity
  8
VORLAGE_TEXT
100
AcDbMText
 10
17.6897935208
 20
74.7267628143
 30
0.0
 40
2.0
 41
0.0
 71
     2
 72
     1
  1
E
  7
SLDTEXTSTYLE0
 73
     1
 44
1.0
  0
MTEXT
  5
169
330
1F
100
AcDbEntity
  8
VORLAGE_TEXT
100
AcDbMText
 10
17.5936930126
 20
27.773321616
 30
0.0
 40
2.0
 41
0.0
 71
     2
 72
     1
  1
F
  7
SLDTEXTSTYLE0
 73
     1
 44
1.0
  0
MTEXT
  5
16A
330
1F
100
AcDbEntity
  8
VORLAGE_TEXT
100
AcDbMText
 10
339.8003474583
 20
8.7205095051
 30
0.0
 40
2.0
 41
0.0
 71
     2
 72
     1
  1
7
  7
SLDTEXTSTYLE0
 73
     1
 44
1.0
  0
MTEXT
  5
16B
330
1F
100
AcDbEntity
  8
VORLAGE_TEXT
100
AcDbMText
 10
289.7886477179
 20
8.6884673623
 30
0.0
 40
2.0
 41
0.0
 71
     2
 72
     1
  1
6
  7
SLDTEXTSTYLE0
 73
     1
 44
1.0
  0
MTEXT
  5
16C
330
1F
100
AcDbEntity
  8
VORLAGE_TEXT
100
AcDbMText
 10
412.5160699095
 20
74.5096307526
 30
0.0
 40
2.0
 41
0.0
 71
     2
 72
     1
  1
E
  7
SLDTEXTSTYLE0
 73
     1
 44
1.0
  0
MTEXT
  5
16D
330
1F
100
AcDbEntity
  8
VORLAGE_TEXT
100
AcDbMText
 10
412.6234021365
 20
124.4517683275
 30
0.0
 40
2.0
 41
0.0
 71
     2
 72
     1
  1
D
  7
SLDTEXTSTYLE0
 73
     1
 44
1.0
  0
MTEXT
  5
16E
330
1F
100
AcDbEntity
  8
TEXT-DEUTSCH
100
AcDbMText
 10
411.7952690469
 20
41.8548502951
 30
0.0
 40
1.8
 41
0.0
 71
     3
 72
     1
  1
Plotdatum: 18.09.2023
  7
SLDTEXTSTYLE0
 11
-3.269436733918102E-15
 21
1.0
 31
0.0
 73
     1
 44
1.0
  0
MTEXT
  5
16F
330
1F
100
AcDbEntity
  8
VORLAGE_TEXT
100
AcDbMText
 10
412.557933251
 20
8.2549718046
 30
0.0
 40
1.8
 41
0.0
 71
     2
 72
     1
  1
A3
  7
SLDTEXTSTYLE0
 73
     1
 44
1.0
  0
MTEXT
  5
170
330
1F
100
AcDbEntity
  8
VORLAGE_TEXT
100
AcDbMText
 10
390.594604279
 20
8.3847467643
 30
0.0
 40
1.8
 41
0.0
 71
     2
 72
     1
  1
CAD-System: SolidWorks
  7
SLDTEXTSTYLE0
 73
     1
 44
1.0
  0
MTEXT
  5
171
330
1F
100
AcDbEntity
  8
TEXT
100
AcDbMText
 10
403.9986368527
 20
28.4394692021
 30
0.0
 40
5.0
 41
0.0
 71
     2
 72
     1
  1
A
  7
SLDTEXTSTYLE0
 73
     1
 44
1.0
  0
MTEXT
  5
172
330
1F
100
AcDbEntity
  8
TEXT
100
AcDbMText
 10
249.556836311
 20
38.5581729516
 30
0.0
 40
2.0
 41
0.0
 71
     1
 72
     1
  1
Freigegeben
  7
SLDTEXTSTYLE0
 73
     1
 44
1.0
  0
MTEXT
  5
173
330
1F
100
AcDbEntity
  8
TEXT
100
AcDbMText
 10
284.1136255556
 20
43.5473338598
 30
0.0
 40
2.0
 41
0.0
 71
     2
 72
     1
  1
bae
  7
SLDTEXTSTYLE0
 73
     1
 44
1.0
  0
MTEXT
  5
174
330
1F
100
AcDbEntity
  8
TEXT
100
AcDbMText
 10
249.5284668163
 20
43.5603133928
 30
0.0
 40
2.0
 41
0.0
 71
     1
 72
     1
  1
18.09.2023
  7
SLDTEXTSTYLE0
 73
     1
 44
1.0
  0
MTEXT
  5
175
330
1F
100
AcDbEntity
  8
TEXT
100
AcDbMText
 10
284.1309088133
 20
48.5138972561
 30
0.0
 40
2.0
 41
0.0
 71
     2
 72
     1
  1
AB
  7
SLDTEXTSTYLE0
 73
     1
 44
1.0
  0
MTEXT
  5
176
330
1F
100
AcDbEntity
  8
TEXT
100
AcDbMText
 10
249.5284668163
 20
48.4989062069
 30
0.0
 40
2.0
 41
0.0
 71
     1
 72
     1
  1
04.02.2021
  7
SLDTEXTSTYLE0
 73
     1
 44
1.0
  0
MTEXT
  5
177
330
1F
100
AcDbEntity
  8
0
  6
Continuous
 62
     7
370
     0
100
AcDbMText
 10
372.2007348103
 20
38.8723054925
 30
0.0
 40
1.5
 41
0.0
 71
     1
 72
     1
  1
Copyright reserved! © ACO AG
  7
SLDTEXTSTYLE0
 73
     1
 44
1.0
  0
INSERT
  5
180
330
1F
100
AcDbEntity
  8
0
  6
Continuous
 62
     7
370
     0
100
AcDbBlockReference
  2
SW_NOTE_0_3
 10
372.2203831445
 20
51.2202922854
 30
0.0
  0
MTEXT
  5
181
330
1F
100
AcDbEntity
  8
TEXT
100
AcDbMText
 10
364.9468572407
 20
13.5417229519
 30
0.0
 40
2.0
 41
0.0
 71
     1
 72
     1
  1
Erstausgabe
  7
SLDTEXTSTYLE0
 73
     1
 44
1.0
  0
MTEXT
  5
182
330
1F
100
AcDbEntity
  8
TEXT
100
AcDbMText
 10
330.2607505021
 20
13.524501801
 30
0.0
 40
2.0
 41
0.0
 71
     2
 72
     1
  1
-
  7
SLDTEXTSTYLE0
 73
     1
 44
1.0
  0
MTEXT
  5
183
330
1F
100
AcDbEntity
  8
TEXT
100
AcDbMText
 10
364.9468572407
 20
18.4594173137
 30
0.0
 40
2.0
 41
0.0
 71
     1
 72
     1
  1
SAP-Nr.
  7
SLDTEXTSTYLE0
 73
     1
 44
1.0
  0
MTEXT
  5
184
330
1F
100
AcDbEntity
  8
TEXT
100
AcDbMText
 10
354.2676663079
 20
18.5245664709
 30
0.0
 40
2.0
 41
0.0
 71
     2
 72
     1
  1
bae
  7
SLDTEXTSTYLE0
 73
     1
 44
1.0
  0
MTEXT
  5
185
330
1F
100
AcDbEntity
  8
TEXT
100
AcDbMText
 10
340.3080766506
 20
18.5245664709
 30
0.0
 40
2.0
 41
0.0
 71
     2
 72
     1
  1
18.09.2023
  7
SLDTEXTSTYLE0
 73
     1
 44
1.0
  0
MTEXT
  5
186
330
1F
100
AcDbEntity
  8
TEXT
100
AcDbMText
 10
330.227417144
 20
18.524501801
 30
0.0
 40
2.0
 41
0.0
 71
     2
 72
     1
  1
A
  7
SLDTEXTSTYLE0
 73
     1
 44
1.0
  0
MTEXT
  5
187
330
1F
100
AcDbEntity
  8
VORLAGE_TEXT
100
AcDbMText
 10
311.764909851
 20
46.3490312465
 30
0.0
 40
5.0
 41
0.0
 71
     2
 72
     1
  1
1:1
  7
SLDTEXTSTYLE0
 73
     1
 44
1.0
  0
MTEXT
  5
188
330
1F
100
AcDbEntity
  8
VORLAGE_TEXT
100
AcDbMText
 10
230.1851195342
 20
38.7793829468
 30
0.0
 40
2.0
 41
0.0
 71
     1
 72
     1
  1
Status:
  7
SLDTEXTSTYLE0
 73
     1
 44
1.0
  0
MTEXT
  5
189
330
1F
100
AcDbEntity
  8
TEXT
100
AcDbMText
 10
344.926838705
 20
28.2772828851
 30
0.0
 40
5.0
 41
0.0
 71
     1
 72
     1
  1
98406
  7
SLDTEXTSTYLE0
 73
     1
 44
1.0
  0
MTEXT
  5
18A
330
1F
100
AcDbEntity
  8
TEXT
100
AcDbMText
 10
231.1132118803
 20
14.9211049657
 30
0.0
 40
2.5
 41
0.0
 71
     1
 72
     1
  1
Art. Nr.: 2031149
  7
SLDTEXTSTYLE0
 73
     1
 44
1.0
  0
MTEXT
  5
18B
330
1F
100
AcDbEntity
  8
TEXT
100
AcDbMText
 10
231.1475981734
 20
21.4529560996
 30
0.0
 40
2.5
 41
0.0
 71
     1
 72
     1
  1
Pipe Dichtung FPM (Viton)
  7
SLDTEXTSTYLE0
 73
     1
 44
1.0
  0
MTEXT
  5
18C
330
1F
100
AcDbEntity
  8
TEXT
100
AcDbMText
 10
231.1159560181
 20
33.0904969858
 30
0.0
 40
2.5
 41
0.0
 71
     1
 72
     1
  1
ACO-Standard
  7
SLDTEXTSTYLE0
 73
     1
 44
1.0
  0
MTEXT
  5
18D
330
1F
100
AcDbEntity
  8
TEXT
100
AcDbMText
 10
231.1475981734
 20
28.0307932366
 30
0.0
 40
3.5
 41
0.0
 71
     1
 72
     1
  1
Pipe Dichtung Ø110 Viton
  7
SLDTEXTSTYLE0
 73
     1
 44
1.0
  0
MTEXT
  5
18E
330
1F
100
AcDbEntity
  8
VORLAGE_TEXT
100
AcDbMText
 10
348.2746465368
 20
53.819119072
 30
0.0
 40
2.0
 41
0.0
 71
     1
 72
     1
  1
Projektion: ISO-E
  7
SLDTEXTSTYLE0
 73
     1
 44
1.0
  0
MTEXT
  5
18F
330
1F
100
AcDbEntity
  8
TEXT
100
AcDbMText
 10
337.7677091855
 20
49.3670227094
 30
0.0
 40
2.5
 41
0.0
 71
     2
 72
     1
  1
Millimeter
  7
SLDTEXTSTYLE0
 73
     1
 44
1.0
  0
MTEXT
  5
190
330
1F
100
AcDbEntity
  8
VORLAGE_TEXT
100
AcDbMText
 10
337.6323777421
 20
53.855374072
 30
0.0
 40
2.0
 41
0.0
 71
     2
 72
     1
  1
Masseinheit:
  7
SLDTEXTSTYLE0
 73
     1
 44
1.0
  0
MTEXT
  5
191
330
1F
100
AcDbEntity
  8
VORLAGE_TEXT
100
AcDbMText
 10
337.6114490186
 20
43.5452078816
 30
0.0
 40
2.0
 41
0.0
 71
     2
 72
     1
  1
Blatt / Anz.:
  7
SLDTEXTSTYLE0
 73
     1
 44
1.0
  0
MTEXT
  5
192
330
1F
100
AcDbEntity
  8
VORLAGE_TEXT
100
AcDbMText
 10
329.2895578243
 20
28.4139191092
 30
0.0
 40
5.0
 41
0.0
 71
     1
 72
     1
  1
CH
  7
SLDTEXTSTYLE0
 73
     1
 44
1.0
  0
MTEXT
  5
193
330
1F
100
AcDbEntity
  8
VORLAGE_TEXT
100
AcDbMText
 10
330.40704
 20
33.692638072
 30
0.0
 40
2.0
 41
0.0
 71
     1
 72
     1
  1
Zeichnung Nr.:
  7
SLDTEXTSTYLE0
 73
     1
 44
1.0
  0
MTEXT
  5
194
330
1F
100
AcDbEntity
  8
VORLAGE_TEXT
100
AcDbMText
 10
269.897953
 20
75.161075072
 30
0.0
 40
2.0
 41
0.0
 71
     1
 72
     1
  1
Gewicht:
  7
SLDTEXTSTYLE0
 73
     1
 44
1.0
  0
MTEXT
  5
195
330
1F
100
AcDbEntity
  8
VORLAGE_TEXT
100
AcDbMText
 10
230.0
 20
64.542328072
 30
0.0
 40
2.0
 41
0.0
 71
     1
 72
     1
  1
zul. Abweichung:
  7
SLDTEXTSTYLE0
 73
     1
 44
1.0
  0
MTEXT
  5
196
330
1F
100
AcDbEntity
  8
VORLAGE_TEXT
100
AcDbMText
 10
269.612607
 20
64.542328072
 30
0.0
 40
2.0
 41
0.0
 71
     1
 72
     1
  1
Oberfläche:
  7
SLDTEXTSTYLE0
 73
     1
 44
1.0
  0
MTEXT
  5
197
330
1F
100
AcDbEntity
  8
VORLAGE_TEXT
100
AcDbMText
 10
230.261411
 20
43.4433838912
 30
0.0
 40
2.0
 41
0.0
 71
     1
 72
     1
  1
Freigegeben:
  7
SLDTEXTSTYLE0
 73
     1
 44
1.0
  0
MTEXT
  5
198
330
1F
100
AcDbEntity
  8
VORLAGE_TEXT
100
AcDbMText
 10
230.0
 20
75.161075072
 30
0.0
 40
2.0
 41
0.0
 71
     1
 72
     1
  1
Werkstoff:
  7
SLDTEXTSTYLE0
 73
     1
 44
1.0
  0
MTEXT
  5
199
330
1F
100
AcDbEntity
  8
VORLAGE_TEXT
100
AcDbMText
 10
254.035545
 20
53.129475072
 30
0.0
 40
2.0
 41
0.0
 71
     1
 72
     1
  1
Datum:
  7
SLDTEXTSTYLE0
 73
     1
 44
1.0
  0
MTEXT
  5
19A
330
1F
100
AcDbEntity
  8
VORLAGE_TEXT
100
AcDbMText
 10
279.934928
 20
53.136060072
 30
0.0
 40
2.0
 41
0.0
 71
     1
 72
     1
  1
Name:
  7
SLDTEXTSTYLE0
 73
     1
 44
1.0
  0
MTEXT
  5
19B
330
1F
100
AcDbEntity
  8
VORLAGE_TEXT
100
AcDbMText
 10
312.162455406
 20
53.881591072
 30
0.0
 40
2.0
 41
0.0
 71
     2
 72
     1
  1
Massstab:
  7
SLDTEXTSTYLE0
 73
     1
 44
1.0
  0
MTEXT
  5
19C
330
1F
100
AcDbEntity
  8
VORLAGE_TEXT
100
AcDbMText
 10
403.9552944035
 20
33.324874072
 30
0.0
 40
2.0
 41
0.0
 71
     2
 72
     1
  1
Index:
  7
SLDTEXTSTYLE0
 73
     1
 44
1.0
  0
MTEXT
  5
19D
330
1F
100
AcDbEntity
  8
VORLAGE_TEXT
100
AcDbMText
 10
230.261411
 20
48.4499477886
 30
0.0
 40
2.0
 41
0.0
 71
     1
 72
     1
  1
Erstellt:
  7
SLDTEXTSTYLE0
 73
     1
 44
1.0
  0
MTEXT
  5
19F
330
1F
100
AcDbEntity
  8
VORLAGE_TEXT
100
AcDbMText
 10
337.6348165843
 20
39.869706576
 30
0.0
 40
2.5
 41
0.0
 71
     2
 72
     1
  1
1 / 1
  7
SLDTEXTSTYLE1
 73
     1
 44
1.0
  0
MTEXT
  5
1A0
330
1F
100
AcDbEntity
  8
TEXT
100
AcDbMText
 10
269.612607
 20
60.8119428599
 30
0.0
 40
3.0
 41
0.0
 71
     1
 72
     1
  1
DIN ISO 1302
  7
SLDTEXTSTYLE0
 73
     1
 44
1.0
  0
MTEXT
  5
1A1
330
1F
100
AcDbEntity
  8
TEXT
100
AcDbMText
 10
230.0
 20
60.8119428599
 30
0.0
 40
3.0
 41
0.0
 71
     1
 72
     1
  1
Norm
  7
SLDTEXTSTYLE0
 73
     1
 44
1.0
  0
MTEXT
  5
1A2
330
1F
100
AcDbEntity
  8
TEXT
100
AcDbMText
 10
269.612607
 20
71.2121947186
 30
0.0
 40
3.0
 41
0.0
 71
     1
 72
     1
  1
0.07 kg
  7
SLDTEXTSTYLE0
 73
     1
 44
1.0
  0
MTEXT
  5
1A3
330
1F
100
AcDbEntity
  8
TEXT
100
AcDbMText
 10
230.0
 20
71.2121947186
 30
0.0
 40
3.0
 41
0.0
 71
     1
 72
     1
  1
VITON
  7
SLDTEXTSTYLE0
 73
     1
 44
1.0
  0
CIRCLE
  5
1A4
330
1F
100
AcDbEntity
  8
0
  6
Continuous
 62
     7
370
    25
100
AcDbCircle
 10
134.4282219828
 20
121.7315948276
 30
0.0
 40
59.47825037968953
  0
CIRCLE
  5
1A5
330
1F
100
AcDbEntity
  8
0
  6
Continuous
 62
     7
370
    25
100
AcDbCircle
 10
134.4282219828
 20
121.7315948276
 30
0.0
 40
63.44947215714325
  0
CIRCLE
  5
1A6
330
1F
100
AcDbEntity
  8
0
  6
Continuous
 62
     7
370
    25
100
AcDbCircle
 10
134.4282219828
 20
121.7315948276
 30
0.0
 40
59.37847090857423
  0
CIRCLE
  5
1A7
330
1F
100
AcDbEntity
  8
0
  6
Continuous
 62
     7
370
    25
100
AcDbCircle
 10
134.4282219828
 20
121.7315948276
 30
0.0
 40
63.4500000135931
  0
CIRCLE
  5
1A8
330
1F
100
AcDbEntity
  8
0
  6
Continuous
 62
     7
370
    25
100
AcDbCircle
 10
134.4282219828
 20
121.7315948276
 30
0.0
 40
53.44718819096492
  0
CIRCLE
  5
1A9
330
1F
100
AcDbEntity
  8
0
  6
Continuous
 62
     7
370
    25
100
AcDbCircle
 10
134.4282219828
 20
121.7315948276
 30
0.0
 40
63.71556936717977
  0
CIRCLE
  5
1AA
330
1F
100
AcDbEntity
  8
0
  6
Continuous
 62
     7
370
    25
100
AcDbCircle
 10
134.4282219828
 20
121.7315948276
 30
0.0
 40
58.34597945469814
  0
CIRCLE
  5
1AB
330
1F
100
AcDbEntity
  8
0
  6
Continuous
 62
     8
370
    18
100
AcDbCircle
 10
134.4282219828
 20
121.7315948276
 30
0.0
 40
59.9688524244787
  0
CIRCLE
  5
1AC
330
1F
100
AcDbEntity
  8
0
  6
Continuous
 62
     8
370
    18
100
AcDbCircle
 10
134.4282219828
 20
121.7315948276
 30
0.0
 40
60.6458414796838
  0
CIRCLE
  5
1AD
330
1F
100
AcDbEntity
  8
0
  6
Continuous
 62
     8
370
    18
100
AcDbCircle
 10
134.4282219828
 20
121.7315948276
 30
0.0
 40
60.85082330328758
  0
CIRCLE
  5
1AE
330
1F
100
AcDbEntity
  8
0
  6
Continuous
 62
     8
370
    18
100
AcDbCircle
 10
134.4282219828
 20
121.7315948276
 30
0.0
 40
63.29895894865935
  0
CIRCLE
  5
1AF
330
1F
100
AcDbEntity
  8
0
  6
Continuous
 62
     8
370
    18
100
AcDbCircle
 10
134.4282219828
 20
121.7315948276
 30
0.0
 40
59.40266883890813
  0
CIRCLE
  5
1B0
330
1F
100
AcDbEntity
  8
0
  6
Continuous
 62
     8
370
    18
100
AcDbCircle
 10
134.4282219828
 20
121.7315948276
 30
0.0
 40
54.76539809940591
  0
CIRCLE
  5
1B1
330
1F
100
AcDbEntity
  8
0
  6
Continuous
 62
     8
370
    18
100
AcDbCircle
 10
134.4282219828
 20
121.7315948276
 30
0.0
 40
54.48541034440306
  0
CIRCLE
  5
1B2
330
1F
100
AcDbEntity
  8
0
  6
Continuous
 62
     8
370
    18
100
AcDbCircle
 10
134.4282219828
 20
121.7315948276
 30
0.0
 40
57.74858806087376
  0
CIRCLE
  5
1B3
330
1F
100
AcDbEntity
  8
0
  6
Continuous
 62
     8
370
    18
100
AcDbCircle
 10
134.4282219828
 20
121.7315948276
 30
0.0
 40
53.5755529396056
  0
CIRCLE
  5
1B4
330
1F
100
AcDbEntity
  8
0
  6
Continuous
 62
     8
370
    18
100
AcDbCircle
 10
134.4282219828
 20
121.7315948276
 30
0.0
 40
63.70428783814147
  0
DIMENSION
  5
1B5
330
1F
100
AcDbEntity
  8
0
  6
Continuous
 62
     7
370
    18
100
AcDbDimension
  2
_D
 10
89.3745108161
 20
76.6778836609
 30
0.0
 11
188.3430676406
 21
175.6464404854
 31
0.0
 70
   163
  1
<>
 71
     1
 42
-1.0
  3
SLDDIMSTYLE0
100
AcDbDiametricDimension
 15
179.4819331495
 25
166.7853059943
 35
0.0
 40
0.0
  0
DIMENSION
  5
1BE
330
1F
100
AcDbEntity
  8
0
  6
Continuous
 62
     7
370
    18
100
AcDbDimension
  2
_D_1
 10
180.714844717
 20
148.4551889231
 30
0.0
 11
199.6354875182
 21
159.3790313641
 31
0.0
 70
   163
  1
<>
 71
     1
 42
-1.0
  3
SLDDIMSTYLE1
100
AcDbDiametricDimension
 15
88.1415992485
 25
95.0080007321
 35
0.0
 40
0.0
  0
INSERT
  5
1D4
330
1F
100
AcDbEntity
  8
0
  6
Continuous
 62
     7
370
     0
100
AcDbBlockReference
  2
SW_CENTERMARKSYMBOL_0
 10
134.4282219828
 20
121.7315948276
 30
0.0
  0
LINE
  5
1D5
330
1F
100
AcDbEntity
  8
0
  6
CENTER
 62
     7
370
    18
100
AcDbLine
 10
203.4581063123
 20
121.7315948276
 30
0.0
 11
65.2396345515
 21
121.7315948276
 31
0.0
  0
LINE
  5
1D6
330
1F
100
AcDbEntity
  8
0
  6
Continuous
 62
     7
370
    18
100
AcDbLine
 10
201.4581063123
 20
114.1315948276
 30
0.0
 11
201.4581063123
 21
121.7315948276
 31
0.0
  0
SOLID
  5
1D7
330
1F
100
AcDbEntity
  8
0
  6
Continuous
 62
     7
370
    18
100
AcDbTrace
 10
201.4581063123
 20
121.7315948276
 30
0.0
 11
200.6581063123
 21
116.7315948276
 31
0.0
 12
202.2581063123
 22
116.7315948276
 32
0.0
 13
202.2581063123
 23
116.7315948276
 33
0.0
  0
LINE
  5
1D8
330
1F
100
AcDbEntity
  8
0
  6
Continuous
 62
     7
370
    18
100
AcDbLine
 10
67.2396345515
 20
114.1315948276
 30
0.0
 11
67.2396345515
 21
121.7315948276
 31
0.0
  0
SOLID
  5
1D9
330
1F
100
AcDbEntity
  8
0
  6
Continuous
 62
     7
370
    18
100
AcDbTrace
 10
67.2396345515
 20
121.7315948276
 30
0.0
 11
66.4396345515
 21
116.7315948276
 31
0.0
 12
68.0396345515
 22
116.7315948276
 32
0.0
 13
68.0396345515
 23
116.7315948276
 33
0.0
  0
MTEXT
  5
1DA
330
1F
100
AcDbEntity
  8
0
  6
Continuous
 62
     7
100
AcDbMText
 10
199.4322913837
 20
112.5824986933
 30
0.0
 40
5.0
 41
0.0
 71
     1
 72
     1
  1
A
  7
SLDTEXTSTYLE0
 73
     1
 44
1.0
  0
MTEXT
  5
1DB
330
1F
100
AcDbEntity
  8
0
  6
Continuous
 62
     7
100
AcDbMText
 10
64.8526279976
 20
112.4147578295
 30
0.0
 40
5.0
 41
0.0
 71
     1
 72
     1
  1
A
  7
SLDTEXTSTYLE0
 73
     1
 44
1.0
  0
LINE
  5
1DC
330
1F
100
AcDbEntity
  8
0
  6
Continuous
 62
     7
370
    25
100
AcDbLine
 10
75.3990321878
 20
215.8905213834
 30
0.0
 11
193.4574117777
 21
215.8905213834
 31
0.0
  0
LINE
  5
1DD
330
1F
100
AcDbEntity
  8
0
  6
Continuous
 62
     7
370
    25
100
AcDbLine
 10
189.5810894456
 20
221.2127367606
 30
0.0
 11
79.2753545199
 21
221.2127367606
 31
0.0
  0
LINE
  5
1DE
330
1F
100
AcDbEntity
  8
0
  6
Continuous
 62
     7
370
    25
100
AcDbLine
 10
70.8330631741
 20
223.5716225292
 30
0.0
 11
71.5468813228
 21
223.5716225292
 31
0.0
  0
LINE
  5
1DF
330
1F
100
AcDbEntity
  8
0
  6
Continuous
 62
     7
370
    25
100
AcDbLine
 10
197.3095626427
 20
223.5716225292
 30
0.0
 11
198.0233807915
 21
223.5716225292
 31
0.0
  0
LINE
  5
1E0
330
1F
100
AcDbEntity
  8
0
  6
Continuous
 62
     7
370
    25
100
AcDbLine
 10
79.1200602408
 20
225.7029348232
 30
0.0
 11
189.7363837247
 21
225.7029348232
 31
0.0
  0
LINE
  5
1E1
330
1F
100
AcDbEntity
  8
0
  6
Continuous
 62
     7
370
    25
100
AcDbLine
 10
194.2677040379
 20
233.3518688878
 30
0.0
 11
74.5887399276
 21
233.3518688878
 31
0.0
  0
LINE
  5
1E2
330
1F
100
AcDbEntity
  8
0
  6
Continuous
 62
     7
370
    25
100
AcDbLine
 10
193.9975662488
 20
230.290451018
 30
0.0
 11
193.9066786822
 21
232.9784300054
 31
0.0
  0
ARC
  5
1E3
330
1F
100
AcDbEntity
  8
0
  6
Continuous
 62
     7
370
    25
100
AcDbCircle
 10
194.2677040379
 20
232.9906372124
 30
0.0
 40
0.3612316754288597
100
AcDbArc
 50
69.0141832368
 51
181.936581649
  0
LINE
  5
1E4
330
1F
100
AcDbEntity
  8
0
  6
Continuous
 62
     7
370
    25
100
AcDbLine
 10
195.0740634624
 20
233.0682285791
 30
0.0
 11
194.3970744072
 21
233.3279080692
 31
0.0
  0
ARC
  5
1E5
330
1F
100
AcDbEntity
  8
0
  6
Continuous
 62
     7
370
    25
100
AcDbCircle
 10
194.556581985
 20
231.7191451517
 30
0.0
 40
1.444926701802578
100
AcDbArc
 50
60.0000022812
 51
69.0141832368
  0
LINE
  5
1E6
330
1F
100
AcDbEntity
  8
0
  6
Continuous
 62
     7
370
    25
100
AcDbLine
 10
197.7271809314
 20
231.557056767
 30
0.0
 11
195.279045286
 21
232.9704884109
 31
0.0
  0
ARC
  5
1E7
330
1F
100
AcDbEntity
  8
0
  6
Continuous
 62
     7
370
    25
100
AcDbCircle
 10
197.5766677437
 20
231.2963602547
 30
0.0
 40
0.3010263962094227
100
AcDbArc
 50
299.9999970171
 51
60.0000022812
  0
LINE
  5
1E8
330
1F
100
AcDbEntity
  8
0
  6
Continuous
 62
     7
370
    25
100
AcDbLine
 10
197.4600758544
 20
230.8814505728
 30
0.0
 11
197.7271809282
 21
231.0356637405
 31
0.0
  0
ARC
  5
1E9
330
1F
100
AcDbEntity
  8
0
  6
Continuous
 62
     7
370
    25
100
AcDbCircle
 10
197.6105890389
 20
230.6207540586
 30
0.0
 40
0.3010263962090107
100
AcDbArc
 50
119.9999970171
 51
180.0
  0
LINE
  5
1EA
330
1F
100
AcDbEntity
  8
0
  6
Continuous
 62
     7
370
    25
100
AcDbLine
 10
197.3095626427
 20
230.1746732455
 30
0.0
 11
197.3095626427
 21
230.6207540586
 31
0.0
  0
ARC
  5
1EB
330
1F
100
AcDbEntity
  8
0
  6
Continuous
 62
     7
370
    25
100
AcDbCircle
 10
197.6105890389
 20
230.1746732455
 30
0.0
 40
0.3010263962093777
100
AcDbArc
 50
180.0000000014
 51
240.0000022812
  0
LINE
  5
1EC
330
1F
100
AcDbEntity
  8
0
  6
Continuous
 62
     7
370
    25
100
AcDbLine
 10
197.7277087878
 20
229.7594587994
 30
0.0
 11
197.4600758512
 21
229.9139767331
 31
0.0
  0
ARC
  5
1ED
330
1F
100
AcDbEntity
  8
0
  6
Continuous
 62
     7
370
    25
100
AcDbCircle
 10
197.5771956001
 20
229.498762287
 30
0.0
 40
0.301026396209398
100
AcDbArc
 50
299.9999970171
 51
60.0000023035
  0
LINE
  5
1EE
330
1F
100
AcDbEntity
  8
0
  6
Continuous
 62
     7
370
    25
100
AcDbLine
 10
197.4600758544
 20
229.0835478471
 30
0.0
 11
197.7277087847
 21
229.2380657729
 31
0.0
  0
ARC
  5
1EF
330
1F
100
AcDbEntity
  8
0
  6
Continuous
 62
     7
370
    25
100
AcDbCircle
 10
197.6105890389
 20
228.8228513329
 30
0.0
 40
0.3010263962088933
100
AcDbArc
 50
119.9999970171
 51
180.0
  0
LINE
  5
1F0
330
1F
100
AcDbEntity
  8
0
  6
Continuous
 62
     7
370
    25
100
AcDbLine
 10
197.3095626427
 20
227.5461715388
 30
0.0
 11
197.3095626427
 21
228.8228513329
 31
0.0
  0
ARC
  5
1F1
330
1F
100
AcDbEntity
  8
0
  6
Continuous
 62
     7
370
    25
100
AcDbCircle
 10
197.6105890389
 20
227.5461715388
 30
0.0
 40
0.3010263962094022
100
AcDbArc
 50
180.0
 51
240.0000022812
  0
LINE
  5
1F2
330
1F
100
AcDbEntity
  8
0
  6
Continuous
 62
     7
370
    25
100
AcDbLine
 10
197.7277087743
 20
227.1309571006
 30
0.0
 11
197.4600758512
 21
227.2854750265
 31
0.0
  0
ARC
  5
1F3
330
1F
100
AcDbEntity
  8
0
  6
Continuous
 62
     7
370
    25
100
AcDbCircle
 10
197.5771955865
 20
226.8702605882
 30
0.0
 40
0.3010263962094435
100
AcDbArc
 50
299.9999970171
 51
60.0000022841
  0
LINE
  5
1F4
330
1F
100
AcDbEntity
  8
0
  6
Continuous
 62
     7
370
    25
100
AcDbLine
 10
197.4600758544
 20
226.4550461562
 30
0.0
 11
197.7277087711
 21
226.6095640741
 31
0.0
  0
ARC
  5
1F5
330
1F
100
AcDbEntity
  8
0
  6
Continuous
 62
     7
370
    25
100
AcDbCircle
 10
197.6105890389
 20
226.194349642
 30
0.0
 40
0.3010263962088791
100
AcDbArc
 50
119.9999970171
 51
180.0
  0
LINE
  5
1F6
330
1F
100
AcDbEntity
  8
0
  6
Continuous
 62
     7
370
    25
100
AcDbLine
 10
197.3095626427
 20
225.5744728787
 30
0.0
 11
197.3095626427
 21
226.194349642
 31
0.0
  0
ARC
  5
1F7
330
1F
100
AcDbEntity
  8
0
  6
Continuous
 62
     7
370
    25
100
AcDbCircle
 10
197.6105890389
 20
225.5744728787
 30
0.0
 40
0.301026396210246
100
AcDbArc
 50
180.0
 51
204.9999970141
  0
LINE
  5
1F8
330
1F
100
AcDbEntity
  8
0
  6
Continuous
 62
     7
370
    25
100
AcDbLine
 10
198.1325098209
 20
223.7429207829
 30
0.0
 11
197.3377664653
 21
225.4472536407
 31
0.0
  0
ARC
  5
1F9
330
1F
100
AcDbEntity
  8
0
  6
Continuous
 62
     7
370
    25
100
AcDbCircle
 10
198.0233807915
 20
223.6920330877
 30
0.0
 40
0.1204105584786467
100
AcDbArc
 50
234.999997021
 51
24.9999970166
  0
LINE
  5
1FA
330
1F
100
AcDbEntity
  8
0
  6
Continuous
 62
     7
370
    25
100
AcDbLine
 10
197.9543161273
 20
223.5933985361
 30
0.0
 11
197.4990378654
 21
223.9121878424
 31
0.0
  0
ARC
  5
1FB
330
1F
100
AcDbEntity
  8
0
  6
Continuous
 62
     7
370
    25
100
AcDbCircle
 10
197.4299732012
 20
223.8135532908
 30
0.0
 40
0.1204105584835133
100
AcDbArc
 50
54.9999970237
 51
180.0
  0
LINE
  5
1FC
330
1F
100
AcDbEntity
  8
0
  6
Continuous
 62
     7
370
    25
100
AcDbLine
 10
197.3095626427
 20
222.1530009358
 30
0.0
 11
197.3095626427
 21
223.8135532908
 31
0.0
  0
ARC
  5
1FD
330
1F
100
AcDbEntity
  8
0
  6
Continuous
 62
     7
370
    25
100
AcDbCircle
 10
197.6105890389
 20
222.1530009358
 30
0.0
 40
0.3010263962094099
100
AcDbArc
 50
180.0
 51
240.0000022812
  0
LINE
  5
1FE
330
1F
100
AcDbEntity
  8
0
  6
Continuous
 62
     7
370
    25
100
AcDbLine
 10
197.7277087929
 20
221.7377864867
 30
0.0
 11
197.4600758512
 21
221.8923044234
 31
0.0
  0
ARC
  5
1FF
330
1F
100
AcDbEntity
  8
0
  6
Continuous
 62
     7
370
    25
100
AcDbCircle
 10
197.5771956052
 20
221.4770899744
 30
0.0
 40
0.3010263962093618
100
AcDbArc
 50
299.999997026
 51
60.0000022812
  0
LINE
  5
200
330
1F
100
AcDbEntity
  8
0
  6
Continuous
 62
     7
370
    25
100
AcDbLine
 10
197.4600758544
 20
221.0618755315
 30
0.0
 11
197.7277087898
 21
221.2163934602
 31
0.0
  0
ARC
  5
201
330
1F
100
AcDbEntity
  8
0
  6
Continuous
 62
     7
370
    25
100
AcDbCircle
 10
197.6105890389
 20
220.8011790174
 30
0.0
 40
0.3010263962089255
100
AcDbArc
 50
119.9999970171
 51
180.0
  0
LINE
  5
202
330
1F
100
AcDbEntity
  8
0
  6
Continuous
 62
     7
370
    25
100
AcDbLine
 10
197.3095626427
 20
218.7508498437
 30
0.0
 11
197.3095626427
 21
220.8011790174
 31
0.0
  0
ARC
  5
203
330
1F
100
AcDbEntity
  8
0
  6
Continuous
 62
     7
370
    25
100
AcDbCircle
 10
197.6105890389
 20
218.7508498437
 30
0.0
 40
0.3010263962093038
100
AcDbArc
 50
180.0
 51
240.0000022812
  0
LINE
  5
204
330
1F
100
AcDbEntity
  8
0
  6
Continuous
 62
     7
370
    25
100
AcDbLine
 10
197.7277087743
 20
218.3356354054
 30
0.0
 11
197.4600758512
 21
218.4901533314
 31
0.0
  0
ARC
  5
205
330
1F
100
AcDbEntity
  8
0
  6
Continuous
 62
     7
370
    25
100
AcDbCircle
 10
197.5771955865
 20
218.0749388931
 30
0.0
 40
0.3010263962110617
100
AcDbArc
 50
299.9999970171
 51
60.0000022841
  0
LINE
  5
206
330
1F
100
AcDbEntity
  8
0
  6
Continuous
 62
     7
370
    25
100
AcDbLine
 10
194.8494734585
 20
216.1524926462
 30
0.0
 11
197.7277087711
 21
217.8142423789
 31
0.0
  0
ARC
  5
207
330
1F
100
AcDbEntity
  8
0
  6
Continuous
 62
     7
370
    25
100
AcDbCircle
 10
194.1270101729
 20
217.4038359143
 30
0.0
 40
1.444926701802577
100
AcDbArc
 50
275.999997008
 51
299.9999970127
  0
LINE
  5
208
330
1F
100
AcDbEntity
  8
0
  6
Continuous
 62
     7
370
    25
100
AcDbLine
 10
193.6462066437
 20
215.9004156982
 30
0.0
 11
194.2780460655
 21
215.9668246642
 31
0.0
  0
ARC
  5
209
330
1F
100
AcDbEntity
  8
0
  6
Continuous
 62
     7
370
    25
100
AcDbCircle
 10
193.4574117777
 20
217.6966797607
 30
0.0
 40
1.806158377253211
100
AcDbArc
 50
261.2884996334
 51
275.999997014
  0
LINE
  5
20A
330
1F
100
AcDbEntity
  8
0
  6
Continuous
 62
     7
370
    25
100
AcDbLine
 10
193.1838524261
 20
215.9113581188
 30
0.0
 11
191.6254306026
 21
216.1501503081
 31
0.0
  0
ARC
  5
20B
330
1F
100
AcDbEntity
  8
0
  6
Continuous
 62
     7
370
    25
100
AcDbCircle
 10
191.6814705166
 20
216.5158818053
 30
0.0
 40
0.3700000000036694
100
AcDbArc
 50
180.0000000086
 51
261.2884996316
  0
LINE
  5
20C
330
1F
100
AcDbEntity
  8
0
  6
Continuous
 62
     7
370
    25
100
AcDbLine
 10
191.3114705166
 20
216.5158818053
 30
0.0
 11
191.3114705165
 21
217.4527121151
 31
0.0
  0
ARC
  5
20D
330
1F
100
AcDbEntity
  8
0
  6
Continuous
 62
     7
370
    25
100
AcDbCircle
 10
191.0706493996
 20
217.4527121151
 30
0.0
 40
0.2408211169747335
100
AcDbArc
 50
359.9999999956
 51
27.9999999962
  0
LINE
  5
20E
330
1F
100
AcDbEntity
  8
0
  6
Continuous
 62
     7
370
    25
100
AcDbLine
 10
191.2832818252
 20
217.5657707812
 30
0.0
 11
189.8834099696
 21
220.1985468282
 31
0.0
  0
ARC
  5
20F
330
1F
100
AcDbEntity
  8
0
  6
Continuous
 62
     7
370
    25
100
AcDbCircle
 10
189.3518289057
 20
219.9159001629
 30
0.0
 40
0.6020527924445332
100
AcDbArc
 50
27.9999999952
 51
76.231542414
  0
ARC
  5
210
330
1F
100
AcDbEntity
  8
0
  6
Continuous
 62
     7
370
    25
100
AcDbCircle
 10
189.5810894456
 20
220.8515050852
 30
0.0
 40
0.3612316754288189
100
AcDbArc
 50
79.0000000085
 51
256.2315426253
  0
LINE
  5
211
330
1F
100
AcDbEntity
  8
0
  6
Continuous
 62
     7
370
    25
100
AcDbLine
 10
190.2289982474
 20
221.0935571106
 30
0.0
 11
189.6500156987
 21
221.2060999173
 31
0.0
  0
ARC
  5
212
330
1F
100
AcDbEntity
  8
0
  6
Continuous
 62
     7
370
    25
100
AcDbCircle
 10
190.3438753358
 20
221.6845484976
 30
0.0
 40
0.6020527924445105
100
AcDbArc
 50
259.0000000041
 51
0.0
  0
LINE
  5
213
330
1F
100
AcDbEntity
  8
0
  6
Continuous
 62
     7
370
    25
100
AcDbLine
 10
190.9459281283
 20
221.6845484976
 30
0.0
 11
190.9459281283
 21
223.9686404222
 31
0.0
  0
ARC
  5
214
330
1F
100
AcDbEntity
  8
0
  6
Continuous
 62
     7
370
    25
100
AcDbCircle
 10
190.7051070112
 20
223.9686404222
 30
0.0
 40
0.2408211170383936
100
AcDbArc
 50
359.9999999956
 51
46.0610789643
  0
LINE
  5
215
330
1F
100
AcDbEntity
  8
0
  6
Continuous
 62
     7
370
    25
100
AcDbLine
 10
190.8722106503
 20
224.1420508723
 30
0.0
 11
190.6638630099
 21
224.3428210618
 31
0.0
  0
ARC
  5
216
330
1F
100
AcDbEntity
  8
0
  6
Continuous
 62
     7
370
    25
100
AcDbCircle
 10
190.8727425588
 20
224.5595841244
 30
0.0
 40
0.3010263962092055
100
AcDbArc
 50
164.9999999936
 51
226.0610789643
  0
LINE
  5
217
330
1F
100
AcDbEntity
  8
0
  6
Continuous
 62
     7
370
    25
100
AcDbLine
 10
190.5819733883
 20
224.6374954888
 30
0.0
 11
190.6470968135
 21
224.8805394206
 31
0.0
  0
ARC
  5
218
330
1F
100
AcDbEntity
  8
0
  6
Continuous
 62
     7
370
    25
100
AcDbCircle
 10
190.4726353112
 20
224.9272862393
 30
0.0
 40
0.1806158377259096
100
AcDbArc
 50
344.999999998
 51
14.7005665658
  0
LINE
  5
219
330
1F
100
AcDbEntity
  8
0
  6
Continuous
 62
     7
370
    25
100
AcDbLine
 10
190.6473387335
 20
224.9731206705
 30
0.0
 11
190.4596381346
 21
225.6885639751
 31
0.0
  0
ARC
  5
21A
330
1F
100
AcDbEntity
  8
0
  6
Continuous
 62
     7
370
    25
100
AcDbCircle
 10
190.2849347123
 20
225.6427295439
 30
0.0
 40
0.180615837725788
100
AcDbArc
 50
14.7005665614
 51
103.5831003745
  0
LINE
  5
21B
330
1F
100
AcDbEntity
  8
0
  6
Continuous
 62
     7
370
    25
100
AcDbLine
 10
189.792941869
 20
225.7096705141
 30
0.0
 11
190.2425161041
 21
225.8182936134
 31
0.0
  0
ARC
  5
21C
330
1F
100
AcDbEntity
  8
0
  6
Continuous
 62
     7
370
    25
100
AcDbCircle
 10
189.7363837247
 20
225.9437559401
 30
0.0
 40
0.2408211169747392
100
AcDbArc
 50
165.9023045137
 51
283.5831003745
  0
LINE
  5
21D
330
1F
100
AcDbEntity
  8
0
  6
Continuous
 62
     7
370
    25
100
AcDbLine
 10
189.5028157032
 20
226.002414185
 30
0.0
 11
189.7278423008
 21
226.8984351506
 31
0.0
  0
ARC
  5
21E
330
1F
100
AcDbEntity
  8
0
  6
Continuous
 62
     7
370
    25
100
AcDbCircle
 10
189.4358822739
 20
226.9717579567
 30
0.0
 40
0.3010263962092061
100
AcDbArc
 50
345.9023045137
 51
65.7584099899
  0
LINE
  5
21F
330
1F
100
AcDbEntity
  8
0
  6
Continuous
 62
     7
370
    25
100
AcDbLine
 10
189.5594792021
 20
227.2462405437
 30
0.0
 11
188.4140713172
 21
227.7620069453
 31
0.0
  0
LINE
  5
220
330
1F
100
AcDbEntity
  8
0
  6
Continuous
 62
     7
370
    25
100
AcDbLine
 10
188.4140713172
 20
227.7620069453
 30
0.0
 11
188.0528396417
 21
227.9246661725
 31
0.0
  0
ARC
  5
221
330
1F
100
AcDbEntity
  8
0
  6
Continuous
 62
     7
370
    25
100
AcDbCircle
 10
188.1764365699
 20
228.1991487594
 30
0.0
 40
0.3010263962095894
100
AcDbArc
 50
124.9999999961
 51
245.7584099989
  0
LINE
  5
222
330
1F
100
AcDbEntity
  8
0
  6
Continuous
 62
     7
370
    25
100
AcDbLine
 10
188.0037749224
 20
228.4457351473
 30
0.0
 11
188.9136323272
 21
229.0828241608
 31
0.0
  0
ARC
  5
223
330
1F
100
AcDbEntity
  8
0
  6
Continuous
 62
     7
370
    25
100
AcDbCircle
 10
189.1898909633
 20
228.6882859402
 30
0.0
 40
0.4816422339341753
100
AcDbArc
 50
89.5563825309
 51
124.9999999959
  0
LINE
  5
224
330
1F
100
AcDbEntity
  8
0
  6
Continuous
 62
     7
370
    25
100
AcDbLine
 10
192.1768100436
 20
229.1468156728
 30
0.0
 11
189.1936200822
 21
229.1699137375
 31
0.0
  0
ARC
  5
225
330
1F
100
AcDbEntity
  8
0
  6
Continuous
 62
     7
370
    25
100
AcDbCircle
 10
192.172148645
 20
228.5447809261
 30
0.0
 40
0.602052792452103
100
AcDbArc
 50
0.0
 51
89.5563825309
  0
LINE
  5
226
330
1F
100
AcDbEntity
  8
0
  6
Continuous
 62
     7
370
    25
100
AcDbLine
 10
192.7742014375
 20
228.2682723708
 30
0.0
 11
192.7742014375
 21
228.5447809261
 31
0.0
  0
ARC
  5
227
330
1F
100
AcDbEntity
  8
0
  6
Continuous
 62
     7
370
    25
100
AcDbCircle
 10
193.6170753468
 20
228.2682723708
 30
0.0
 40
0.842873909384906
100
AcDbArc
 50
180.0
 51
25.7456652543
  0
LINE
  5
228
330
1F
100
AcDbEntity
  8
0
  6
Continuous
 62
     7
370
    25
100
AcDbLine
 10
194.3762780946
 20
228.6343975064
 30
0.0
 11
193.824622426
 21
229.7783192387
 31
0.0
  0
ARC
  5
229
330
1F
100
AcDbEntity
  8
0
  6
Continuous
 62
     7
370
    25
100
AcDbCircle
 10
193.9873087291
 20
229.8567746249
 30
0.0
 40
0.1806158377266275
100
AcDbArc
 50
150.0000022812
 51
205.7456652543
  0
LINE
  5
22A
330
1F
100
AcDbEntity
  8
0
  6
Continuous
 62
     7
370
    25
100
AcDbLine
 10
193.8308908217
 20
229.9470825376
 30
0.0
 11
193.9734714783
 21
230.1940395018
 31
0.0
  0
ARC
  5
22B
330
1F
100
AcDbEntity
  8
0
  6
Continuous
 62
     7
370
    25
100
AcDbCircle
 10
193.8170535709
 20
230.2843474144
 30
0.0
 40
0.1806158377259283
100
AcDbArc
 50
330.0000022812
 51
1.936581649
  0
LINE
  5
22C
330
1F
100
AcDbEntity
  8
0
  6
Continuous
 62
     7
370
    25
100
AcDbLine
 10
74.8829724872
 20
230.1940395018
 30
0.0
 11
75.0255531439
 21
229.9470825376
 31
0.0
  0
ARC
  5
22D
330
1F
100
AcDbEntity
  8
0
  6
Continuous
 62
     7
370
    25
100
AcDbCircle
 10
74.8691352365
 20
229.8567746249
 30
0.0
 40
0.1806158377266531
100
AcDbArc
 50
334.2543347457
 51
29.9999977188
  0
LINE
  5
22E
330
1F
100
AcDbEntity
  8
0
  6
Continuous
 62
     7
370
    25
100
AcDbLine
 10
75.0318215395
 20
229.7783192387
 30
0.0
 11
74.4801658709
 21
228.6343975064
 31
0.0
  0
ARC
  5
22F
330
1F
100
AcDbEntity
  8
0
  6
Continuous
 62
     7
370
    25
100
AcDbCircle
 10
75.2393686187
 20
228.2682723708
 30
0.0
 40
0.8428739093848492
100
AcDbArc
 50
154.2543347457
 51
360.0
  0
LINE
  5
230
330
1F
100
AcDbEntity
  8
0
  6
Continuous
 62
     7
370
    25
100
AcDbLine
 10
76.0822425281
 20
228.5447809261
 30
0.0
 11
76.0822425281
 21
228.2682723708
 31
0.0
  0
ARC
  5
231
330
1F
100
AcDbEntity
  8
0
  6
Continuous
 62
     7
370
    25
100
AcDbCircle
 10
76.6842953205
 20
228.5447809261
 30
0.0
 40
0.602052792452103
100
AcDbArc
 50
90.4436174691
 51
180.0
  0
LINE
  5
232
330
1F
100
AcDbEntity
  8
0
  6
Continuous
 62
     7
370
    25
100
AcDbLine
 10
79.6628238834
 20
229.1699137375
 30
0.0
 11
76.6796339219
 21
229.1468156728
 31
0.0
  0
ARC
  5
233
330
1F
100
AcDbEntity
  8
0
  6
Continuous
 62
     7
370
    25
100
AcDbCircle
 10
79.6665530022
 20
228.6882859402
 30
0.0
 40
0.4816422339341754
100
AcDbArc
 50
55.0000000041
 51
90.4436174691
  0
LINE
  5
234
330
1F
100
AcDbEntity
  8
0
  6
Continuous
 62
     7
370
    25
100
AcDbLine
 10
79.9428116384
 20
229.0828241608
 30
0.0
 11
80.8526690432
 21
228.4457351473
 31
0.0
  0
ARC
  5
235
330
1F
100
AcDbEntity
  8
0
  6
Continuous
 62
     7
370
    25
100
AcDbCircle
 10
80.6800073956
 20
228.1991487594
 30
0.0
 40
0.3010263962095953
100
AcDbArc
 50
294.2415900011
 51
55.0000000039
  0
LINE
  5
236
330
1F
100
AcDbEntity
  8
0
  6
Continuous
 62
     7
370
    25
100
AcDbLine
 10
80.8036043238
 20
227.9246661725
 30
0.0
 11
80.4423726483
 21
227.7620069453
 31
0.0
  0
LINE
  5
237
330
1F
100
AcDbEntity
  8
0
  6
Continuous
 62
     7
370
    25
100
AcDbLine
 10
80.4423726483
 20
227.7620069453
 30
0.0
 11
79.2969647634
 21
227.2462405437
 31
0.0
  0
ARC
  5
238
330
1F
100
AcDbEntity
  8
0
  6
Continuous
 62
     7
370
    25
100
AcDbCircle
 10
79.4205616917
 20
226.9717579567
 30
0.0
 40
0.3010263962128008
100
AcDbArc
 50
114.2415900106
 51
194.0976954856
  0
LINE
  5
239
330
1F
100
AcDbEntity
  8
0
  6
Continuous
 62
     7
370
    25
100
AcDbLine
 10
79.1286016647
 20
226.8984351506
 30
0.0
 11
79.3536282624
 21
226.002414185
 31
0.0
  0
ARC
  5
23A
330
1F
100
AcDbEntity
  8
0
  6
Continuous
 62
     7
370
    25
100
AcDbCircle
 10
79.1200602408
 20
225.9437559401
 30
0.0
 40
0.240821116974753
100
AcDbArc
 50
256.4168996255
 51
14.0976954863
  0
LINE
  5
23B
330
1F
100
AcDbEntity
  8
0
  6
Continuous
 62
     7
370
    25
100
AcDbLine
 10
78.6139278614
 20
225.8182936134
 30
0.0
 11
79.0635020965
 21
225.7096705141
 31
0.0
  0
ARC
  5
23C
330
1F
100
AcDbEntity
  8
0
  6
Continuous
 62
     7
370
    25
100
AcDbCircle
 10
78.5715092532
 20
225.6427295439
 30
0.0
 40
0.1806158377257847
100
AcDbArc
 50
76.4168996255
 51
165.2994334386
  0
LINE
  5
23D
330
1F
100
AcDbEntity
  8
0
  6
Continuous
 62
     7
370
    25
100
AcDbLine
 10
78.396805831
 20
225.6885639751
 30
0.0
 11
78.2091052321
 21
224.9731206705
 31
0.0
  0
LWPOLYLINE
  5
23E
330
1F
100
AcDbEntity
  8
0
  6
Continuous
 62
     7
370
    25
100
AcDbPolyline
 90
        3
 70
   128
 43
0.0
 10
78.2091052321
 20
224.9731206705
 10
78.2037820218
 20
224.9127091188
 10
78.209347152
 20
224.8805394206
  0
LINE
  5
23F
330
1F
100
AcDbEntity
  8
0
  6
Continuous
 62
     7
370
    25
100
AcDbLine
 10
78.209347152
 20
224.8805394206
 30
0.0
 11
78.2744705773
 21
224.6374954888
 31
0.0
  0
ARC
  5
240
330
1F
100
AcDbEntity
  8
0
  6
Continuous
 62
     7
370
    25
100
AcDbCircle
 10
77.9837014068
 20
224.5595841244
 30
0.0
 40
0.3010263962091957
100
AcDbArc
 50
313.9389210357
 51
15.0000000064
  0
LINE
  5
241
330
1F
100
AcDbEntity
  8
0
  6
Continuous
 62
     7
370
    25
100
AcDbLine
 10
78.1925809556
 20
224.3428210618
 30
0.0
 11
77.9842333152
 21
224.1420508723
 31
0.0
  0
ARC
  5
242
330
1F
100
AcDbEntity
  8
0
  6
Continuous
 62
     7
370
    25
100
AcDbCircle
 10
78.1513369543
 20
223.9686404222
 30
0.0
 40
0.2408211170384078
100
AcDbArc
 50
133.9389210357
 51
180.0000000044
  0
LINE
  5
243
330
1F
100
AcDbEntity
  8
0
  6
Continuous
 62
     7
370
    25
100
AcDbLine
 10
77.9105158373
 20
223.9686404222
 30
0.0
 11
77.9105158372
 21
221.6845484976
 31
0.0
  0
ARC
  5
244
330
1F
100
AcDbEntity
  8
0
  6
Continuous
 62
     7
370
    25
100
AcDbCircle
 10
78.5125686297
 20
221.6845484976
 30
0.0
 40
0.6020527924445105
100
AcDbArc
 50
180.0
 51
280.9999999959
  0
LINE
  5
245
330
1F
100
AcDbEntity
  8
0
  6
Continuous
 62
     7
370
    25
100
AcDbLine
 10
79.2064282669
 20
221.2060999173
 30
0.0
 11
78.6274457181
 21
221.0935571106
 31
0.0
  0
ARC
  5
246
330
1F
100
AcDbEntity
  8
0
  6
Continuous
 62
     7
370
    25
100
AcDbCircle
 10
79.2753545199
 20
220.8515050852
 30
0.0
 40
0.3612316754288243
100
AcDbArc
 50
283.7684573747
 51
100.9999999915
  0
ARC
  5
247
330
1F
100
AcDbEntity
  8
0
  6
Continuous
 62
     7
370
    25
100
AcDbCircle
 10
79.5046150598
 20
219.9159001629
 30
0.0
 40
0.6020527924445298
100
AcDbArc
 50
103.768457586
 51
152.0000000048
  0
LINE
  5
248
330
1F
100
AcDbEntity
  8
0
  6
Continuous
 62
     7
370
    25
100
AcDbLine
 10
78.9730339959
 20
220.1985468282
 30
0.0
 11
77.5731621404
 21
217.5657707812
 31
0.0
  0
ARC
  5
249
330
1F
100
AcDbEntity
  8
0
  6
Continuous
 62
     7
370
    25
100
AcDbCircle
 10
77.7857945659
 20
217.4527121151
 30
0.0
 40
0.2408211169747335
100
AcDbArc
 50
152.0000000038
 51
180.0000000044
  0
LINE
  5
24A
330
1F
100
AcDbEntity
  8
0
  6
Continuous
 62
     7
370
    25
100
AcDbLine
 10
77.544973449
 20
217.4527121151
 30
0.0
 11
77.5449734489
 21
216.5158818053
 31
0.0
  0
ARC
  5
24B
330
1F
100
AcDbEntity
  8
0
  6
Continuous
 62
     7
370
    25
100
AcDbCircle
 10
77.1749734489
 20
216.5158818053
 30
0.0
 40
0.3700000000036694
100
AcDbArc
 50
278.7115003684
 51
359.9999999914
  0
LINE
  5
24C
330
1F
100
AcDbEntity
  8
0
  6
Continuous
 62
     7
370
    25
100
AcDbLine
 10
77.2310133629
 20
216.1501503081
 30
0.0
 11
75.6725915394
 21
215.9113581188
 31
0.0
  0
ARC
  5
24D
330
1F
100
AcDbEntity
  8
0
  6
Continuous
 62
     7
370
    25
100
AcDbCircle
 10
75.3990321878
 20
217.6966797607
 30
0.0
 40
1.806158377253207
100
AcDbArc
 50
264.000002986
 51
278.7115003666
  0
LINE
  5
24E
330
1F
100
AcDbEntity
  8
0
  6
Continuous
 62
     7
370
    25
100
AcDbLine
 10
74.5783979
 20
215.9668246642
 30
0.0
 11
75.2102373219
 21
215.9004156982
 31
0.0
  0
ARC
  5
24F
330
1F
100
AcDbEntity
  8
0
  6
Continuous
 62
     7
370
    25
100
AcDbCircle
 10
74.7294337927
 20
217.4038359143
 30
0.0
 40
1.444926701802574
100
AcDbArc
 50
240.0000029873
 51
264.000002992
  0
LINE
  5
250
330
1F
100
AcDbEntity
  8
0
  6
Continuous
 62
     7
370
    25
100
AcDbLine
 10
71.1287351944
 20
217.8142423789
 30
0.0
 11
74.006970507
 21
216.1524926462
 31
0.0
  0
ARC
  5
251
330
1F
100
AcDbEntity
  8
0
  6
Continuous
 62
     7
370
    25
100
AcDbCircle
 10
71.279248379
 20
218.0749388931
 30
0.0
 40
0.3010263962168458
100
AcDbArc
 50
119.999997718
 51
240.0000029805
  0
LINE
  5
252
330
1F
100
AcDbEntity
  8
0
  6
Continuous
 62
     7
370
    25
100
AcDbLine
 10
71.3963681143
 20
218.4901533314
 30
0.0
 11
71.1287351913
 21
218.3356354054
 31
0.0
  0
ARC
  5
253
330
1F
100
AcDbEntity
  8
0
  6
Continuous
 62
     7
370
    25
100
AcDbCircle
 10
71.2458549266
 20
218.7508498437
 30
0.0
 40
0.3010263962092896
100
AcDbArc
 50
299.9999977188
 51
0.0
  0
LINE
  5
254
330
1F
100
AcDbEntity
  8
0
  6
Continuous
 62
     7
370
    25
100
AcDbLine
 10
71.5468813228
 20
220.8011790174
 30
0.0
 11
71.5468813228
 21
218.7508498437
 31
0.0
  0
ARC
  5
255
330
1F
100
AcDbEntity
  8
0
  6
Continuous
 62
     7
370
    25
100
AcDbCircle
 10
71.2458549266
 20
220.8011790174
 30
0.0
 40
0.3010263962088725
100
AcDbArc
 50
360.0
 51
60.0000029829
  0
LINE
  5
256
330
1F
100
AcDbEntity
  8
0
  6
Continuous
 62
     7
370
    25
100
AcDbLine
 10
71.1287351757
 20
221.2163934602
 30
0.0
 11
71.3963681111
 21
221.0618755315
 31
0.0
  0
ARC
  5
257
330
1F
100
AcDbEntity
  8
0
  6
Continuous
 62
     7
370
    25
100
AcDbCircle
 10
71.2792483603
 20
221.4770899744
 30
0.0
 40
0.3010263962106788
100
AcDbArc
 50
119.9999977193
 51
240.0000029735
  0
LINE
  5
258
330
1F
100
AcDbEntity
  8
0
  6
Continuous
 62
     7
370
    25
100
AcDbLine
 10
71.3963681143
 20
221.8923044234
 30
0.0
 11
71.1287351726
 21
221.7377864867
 31
0.0
  0
ARC
  5
259
330
1F
100
AcDbEntity
  8
0
  6
Continuous
 62
     7
370
    25
100
AcDbCircle
 10
71.2458549266
 20
222.1530009358
 30
0.0
 40
0.3010263962093815
100
AcDbArc
 50
299.9999977188
 51
0.0
  0
LINE
  5
25A
330
1F
100
AcDbEntity
  8
0
  6
Continuous
 62
     7
370
    25
100
AcDbLine
 10
71.5468813228
 20
223.8135532908
 30
0.0
 11
71.5468813228
 21
222.1530009358
 31
0.0
  0
ARC
  5
25B
330
1F
100
AcDbEntity
  8
0
  6
Continuous
 62
     7
370
    25
100
AcDbCircle
 10
71.4264707643
 20
223.8135532908
 30
0.0
 40
0.1204105584834849
100
AcDbArc
 50
0.0
 51
125.0000029763
  0
LINE
  5
25C
330
1F
100
AcDbEntity
  8
0
  6
Continuous
 62
     7
370
    25
100
AcDbLine
 10
71.3574061001
 20
223.9121878424
 30
0.0
 11
70.9021278382
 21
223.5933985361
 31
0.0
  0
ARC
  5
25D
330
1F
100
AcDbEntity
  8
0
  6
Continuous
 62
     7
370
    25
100
AcDbCircle
 10
70.8330631741
 20
223.6920330877
 30
0.0
 40
0.1204105584779551
100
AcDbArc
 50
155.000002983
 51
305.0000029795
  0
LINE
  5
25E
330
1F
100
AcDbEntity
  8
0
  6
Continuous
 62
     7
370
    25
100
AcDbLine
 10
71.5186775002
 20
225.4472536407
 30
0.0
 11
70.7239341446
 21
223.7429207829
 31
0.0
  0
ARC
  5
25F
330
1F
100
AcDbEntity
  8
0
  6
Continuous
 62
     7
370
    25
100
AcDbCircle
 10
71.2458549266
 20
225.5744728787
 30
0.0
 40
0.301026396210246
100
AcDbArc
 50
335.0000029859
 51
0.0
  0
LINE
  5
260
330
1F
100
AcDbEntity
  8
0
  6
Continuous
 62
     7
370
    25
100
AcDbLine
 10
71.5468813228
 20
226.194349642
 30
0.0
 11
71.5468813228
 21
225.5744728787
 31
0.0
  0
ARC
  5
261
330
1F
100
AcDbEntity
  8
0
  6
Continuous
 62
     7
370
    25
100
AcDbCircle
 10
71.2458549266
 20
226.194349642
 30
0.0
 40
0.301026396208872
100
AcDbArc
 50
0.0
 51
60.0000029829
  0
LINE
  5
262
330
1F
100
AcDbEntity
  8
0
  6
Continuous
 62
     7
370
    25
100
AcDbLine
 10
71.1287351944
 20
226.6095640741
 30
0.0
 11
71.3963681111
 21
226.4550461562
 31
0.0
  0
ARC
  5
263
330
1F
100
AcDbEntity
  8
0
  6
Continuous
 62
     7
370
    25
100
AcDbCircle
 10
71.279248379
 20
226.8702605882
 30
0.0
 40
0.3010263962109775
100
AcDbArc
 50
119.9999977164
 51
240.0000029823
  0
LINE
  5
264
330
1F
100
AcDbEntity
  8
0
  6
Continuous
 62
     7
370
    25
100
AcDbLine
 10
71.3963681143
 20
227.2854750265
 30
0.0
 11
71.1287351913
 21
227.1309571006
 31
0.0
  0
ARC
  5
265
330
1F
100
AcDbEntity
  8
0
  6
Continuous
 62
     7
370
    25
100
AcDbCircle
 10
71.2458549266
 20
227.5461715388
 30
0.0
 40
0.3010263962093951
100
AcDbArc
 50
299.9999977188
 51
0.0
  0
LINE
  5
266
330
1F
100
AcDbEntity
  8
0
  6
Continuous
 62
     7
370
    25
100
AcDbLine
 10
71.5468813228
 20
228.8228513329
 30
0.0
 11
71.5468813228
 21
227.5461715388
 31
0.0
  0
ARC
  5
267
330
1F
100
AcDbEntity
  8
0
  6
Continuous
 62
     7
370
    25
100
AcDbCircle
 10
71.2458549266
 20
228.8228513329
 30
0.0
 40
0.301026396208872
100
AcDbArc
 50
0.0
 51
60.0000029829
  0
LINE
  5
268
330
1F
100
AcDbEntity
  8
0
  6
Continuous
 62
     7
370
    25
100
AcDbLine
 10
71.1287351808
 20
229.2380657729
 30
0.0
 11
71.3963681111
 21
229.0835478471
 31
0.0
  0
ARC
  5
269
330
1F
100
AcDbEntity
  8
0
  6
Continuous
 62
     7
370
    25
100
AcDbCircle
 10
71.2792483654
 20
229.498762287
 30
0.0
 40
0.301026396210726
100
AcDbArc
 50
119.999997697
 51
240.0000029823
  0
LINE
  5
26A
330
1F
100
AcDbEntity
  8
0
  6
Continuous
 62
     7
370
    25
100
AcDbLine
 10
71.3963681143
 20
229.9139767331
 30
0.0
 11
71.1287351778
 21
229.7594587994
 31
0.0
  0
ARC
  5
26B
330
1F
100
AcDbEntity
  8
0
  6
Continuous
 62
     7
370
    25
100
AcDbCircle
 10
71.2458549266
 20
230.1746732455
 30
0.0
 40
0.3010263962093706
100
AcDbArc
 50
299.9999977188
 51
359.9999999986
  0
LINE
  5
26C
330
1F
100
AcDbEntity
  8
0
  6
Continuous
 62
     7
370
    25
100
AcDbLine
 10
71.5468813228
 20
230.6207540586
 30
0.0
 11
71.5468813228
 21
230.1746732455
 31
0.0
  0
ARC
  5
26D
330
1F
100
AcDbEntity
  8
0
  6
Continuous
 62
     7
370
    25
100
AcDbCircle
 10
71.2458549266
 20
230.6207540586
 30
0.0
 40
0.3010263962089823
100
AcDbArc
 50
360.0
 51
60.0000029829
  0
LINE
  5
26E
330
1F
100
AcDbEntity
  8
0
  6
Continuous
 62
     7
370
    25
100
AcDbLine
 10
71.1292630373
 20
231.0356637405
 30
0.0
 11
71.3963681111
 21
230.8814505728
 31
0.0
  0
ARC
  5
26F
330
1F
100
AcDbEntity
  8
0
  6
Continuous
 62
     7
370
    25
100
AcDbCircle
 10
71.2797762218
 20
231.2963602547
 30
0.0
 40
0.3010263962108856
100
AcDbArc
 50
119.9999977194
 51
240.0000029823
  0
LINE
  5
270
330
1F
100
AcDbEntity
  8
0
  6
Continuous
 62
     7
370
    25
100
AcDbLine
 10
73.5773986795
 20
232.9704884109
 30
0.0
 11
71.1292630341
 21
231.557056767
 31
0.0
  0
ARC
  5
271
330
1F
100
AcDbEntity
  8
0
  6
Continuous
 62
     7
370
    25
100
AcDbCircle
 10
74.2998619805
 20
231.7191451517
 30
0.0
 40
1.444926701802572
100
AcDbArc
 50
110.9858167632
 51
119.9999977188
  0
LINE
  5
272
330
1F
100
AcDbEntity
  8
0
  6
Continuous
 62
     7
370
    25
100
AcDbLine
 10
74.4593695583
 20
233.3279080692
 30
0.0
 11
73.7823805031
 21
233.0682285791
 31
0.0
  0
ARC
  5
273
330
1F
100
AcDbEntity
  8
0
  6
Continuous
 62
     7
370
    25
100
AcDbCircle
 10
74.5887399276
 20
232.9906372124
 30
0.0
 40
0.3612316754288455
100
AcDbArc
 50
358.063418351
 51
110.9858167632
  0
LINE
  5
274
330
1F
100
AcDbEntity
  8
0
  6
Continuous
 62
     7
370
    25
100
AcDbLine
 10
74.9497652833
 20
232.9784300054
 30
0.0
 11
74.8588777167
 21
230.290451018
 31
0.0
  0
LWPOLYLINE
  5
275
330
1F
100
AcDbEntity
  8
0
  6
Continuous
 62
     7
370
    25
100
AcDbPolyline
 90
        3
 70
   128
 43
0.0
 10
74.8588777167
 20
230.290451018
 10
74.8670331074
 20
230.2303562449
 10
74.8829724872
 20
230.1940395018
  0
LINE
  5
276
330
1F
100
AcDbEntity
  8
0
  6
Continuous
 62
     7
370
    25
100
AcDbLine
 10
189.1861618444
 20
229.1699137375
 30
0.0
 11
79.6702821211
 21
229.1699137375
 31
0.0
  0
LINE
  5
277
330
1F
100
AcDbEntity
  8
0
  6
Continuous
 62
     8
370
    18
100
AcDbLine
 10
193.1838524261
 20
215.9113581188
 30
0.0
 11
75.6725915394
 21
215.9113581188
 31
0.0
  0
LINE
  5
278
330
1F
100
AcDbEntity
  8
0
  6
Continuous
 62
     8
370
    18
100
AcDbLine
 10
77.2310133629
 20
216.1501503081
 30
0.0
 11
191.6254306026
 21
216.1501503081
 31
0.0
  0
LINE
  5
279
330
1F
100
AcDbEntity
  8
0
  6
Continuous
 62
     8
370
    18
100
AcDbLine
 10
191.3114705166
 20
216.5158818053
 30
0.0
 11
77.5449734489
 21
216.5158818053
 31
0.0
  0
LINE
  5
27A
330
1F
100
AcDbEntity
  8
0
  6
Continuous
 62
     8
370
    18
100
AcDbLine
 10
77.544973449
 20
217.4527121151
 30
0.0
 11
191.3114705165
 21
217.4527121151
 31
0.0
  0
LINE
  5
27B
330
1F
100
AcDbEntity
  8
0
  6
Continuous
 62
     8
370
    18
100
AcDbLine
 10
77.5731621404
 20
217.5657707812
 30
0.0
 11
191.2832818252
 21
217.5657707812
 31
0.0
  0
LINE
  5
27C
330
1F
100
AcDbEntity
  8
0
  6
Continuous
 62
     8
370
    18
100
AcDbLine
 10
78.9730339959
 20
220.1985468282
 30
0.0
 11
189.8834099696
 21
220.1985468282
 31
0.0
  0
LINE
  5
27D
330
1F
100
AcDbEntity
  8
0
  6
Continuous
 62
     8
370
    18
100
AcDbLine
 10
79.3613272215
 20
220.5006532392
 30
0.0
 11
189.495116744
 21
220.5006532392
 31
0.0
  0
LINE
  5
27E
330
1F
100
AcDbEntity
  8
0
  6
Continuous
 62
     8
370
    18
100
AcDbLine
 10
77.9105158372
 20
221.6845484976
 30
0.0
 11
190.9459281283
 21
221.6845484976
 31
0.0
  0
LINE
  5
27F
330
1F
100
AcDbEntity
  8
0
  6
Continuous
 62
     8
370
    18
100
AcDbLine
 10
77.9105158373
 20
223.9686404222
 30
0.0
 11
190.9459281283
 21
223.9686404222
 31
0.0
  0
LINE
  5
280
330
1F
100
AcDbEntity
  8
0
  6
Continuous
 62
     8
370
    18
100
AcDbLine
 10
197.9543161273
 20
223.5933985361
 30
0.0
 11
197.3095626427
 21
223.5933985361
 31
0.0
  0
LINE
  5
281
330
1F
100
AcDbEntity
  8
0
  6
Continuous
 62
     8
370
    18
100
AcDbLine
 10
71.5468813228
 20
223.5933985361
 30
0.0
 11
70.9021278382
 21
223.5933985361
 31
0.0
  0
LINE
  5
282
330
1F
100
AcDbEntity
  8
0
  6
Continuous
 62
     8
370
    18
100
AcDbLine
 10
197.4990378654
 20
223.9121878424
 30
0.0
 11
197.3609085371
 21
223.9121878424
 31
0.0
  0
LINE
  5
283
330
1F
100
AcDbEntity
  8
0
  6
Continuous
 62
     8
370
    18
100
AcDbLine
 10
71.4955354285
 20
223.9121878424
 30
0.0
 11
71.3574061001
 21
223.9121878424
 31
0.0
  0
LINE
  5
284
330
1F
100
AcDbEntity
  8
0
  6
Continuous
 62
     8
370
    18
100
AcDbLine
 10
77.9842333152
 20
224.1420508723
 30
0.0
 11
190.8722106503
 21
224.1420508723
 31
0.0
  0
LINE
  5
285
330
1F
100
AcDbEntity
  8
0
  6
Continuous
 62
     8
370
    18
100
AcDbLine
 10
78.1925809556
 20
224.3428210618
 30
0.0
 11
190.6638630099
 21
224.3428210618
 31
0.0
  0
LINE
  5
286
330
1F
100
AcDbEntity
  8
0
  6
Continuous
 62
     8
370
    18
100
AcDbLine
 10
190.5819733883
 20
224.6374954888
 30
0.0
 11
78.2744705773
 21
224.6374954888
 31
0.0
  0
LINE
  5
287
330
1F
100
AcDbEntity
  8
0
  6
Continuous
 62
     8
370
    18
100
AcDbLine
 10
78.209347152
 20
224.8805394206
 30
0.0
 11
190.6470968135
 21
224.8805394206
 31
0.0
  0
LINE
  5
288
330
1F
100
AcDbEntity
  8
0
  6
Continuous
 62
     8
370
    18
100
AcDbLine
 10
78.2091052321
 20
224.9731206705
 30
0.0
 11
190.6473387335
 21
224.9731206705
 31
0.0
  0
LINE
  5
289
330
1F
100
AcDbEntity
  8
0
  6
Continuous
 62
     8
370
    18
100
AcDbLine
 10
78.396805831
 20
225.6885639751
 30
0.0
 11
190.4596381346
 21
225.6885639751
 31
0.0
  0
LINE
  5
28A
330
1F
100
AcDbEntity
  8
0
  6
Continuous
 62
     8
370
    18
100
AcDbLine
 10
189.5028157032
 20
226.002414185
 30
0.0
 11
79.3536282624
 21
226.002414185
 31
0.0
  0
LINE
  5
28B
330
1F
100
AcDbEntity
  8
0
  6
Continuous
 62
     8
370
    18
100
AcDbLine
 10
79.1286016647
 20
226.8984351506
 30
0.0
 11
189.7278423008
 21
226.8984351506
 31
0.0
  0
LINE
  5
28C
330
1F
100
AcDbEntity
  8
0
  6
Continuous
 62
     8
370
    18
100
AcDbLine
 10
79.2969647634
 20
227.2462405437
 30
0.0
 11
189.5594792021
 21
227.2462405437
 31
0.0
  0
LINE
  5
28D
330
1F
100
AcDbEntity
  8
0
  6
Continuous
 62
     8
370
    18
100
AcDbLine
 10
80.4423726483
 20
227.7620069453
 30
0.0
 11
188.4140713172
 21
227.7620069453
 31
0.0
  0
LINE
  5
28E
330
1F
100
AcDbEntity
  8
0
  6
Continuous
 62
     8
370
    18
100
AcDbLine
 10
74.4801658709
 20
228.6343975064
 30
0.0
 11
76.0889496785
 21
228.6343975064
 31
0.0
  0
LINE
  5
28F
330
1F
100
AcDbEntity
  8
0
  6
Continuous
 62
     8
370
    18
100
AcDbLine
 10
192.767494287
 20
228.6343975064
 30
0.0
 11
194.3762780946
 21
228.6343975064
 31
0.0
  0
LINE
  5
290
330
1F
100
AcDbEntity
  8
0
  6
Continuous
 62
     8
370
    18
100
AcDbLine
 10
80.8036043238
 20
227.9246661725
 30
0.0
 11
188.0528396417
 21
227.9246661725
 31
0.0
  0
LINE
  5
291
330
1F
100
AcDbEntity
  8
0
  6
Continuous
 62
     8
370
    18
100
AcDbLine
 10
188.0037749224
 20
228.4457351473
 30
0.0
 11
80.8526690432
 21
228.4457351473
 31
0.0
  0
LINE
  5
292
330
1F
100
AcDbEntity
  8
0
  6
Continuous
 62
     8
370
    18
100
AcDbLine
 10
79.9428116384
 20
229.0828241608
 30
0.0
 11
188.9136323272
 21
229.0828241608
 31
0.0
  0
LINE
  5
293
330
1F
100
AcDbEntity
  8
0
  6
Continuous
 62
     8
370
    18
100
AcDbLine
 10
75.0318215395
 20
229.7783192387
 30
0.0
 11
193.824622426
 21
229.7783192387
 31
0.0
  0
LINE
  5
294
330
1F
100
AcDbEntity
  8
0
  6
Continuous
 62
     8
370
    18
100
AcDbLine
 10
193.8308908217
 20
229.9470825376
 30
0.0
 11
75.0255531439
 21
229.9470825376
 31
0.0
  0
LINE
  5
295
330
1F
100
AcDbEntity
  8
0
  6
Continuous
 62
     8
370
    18
100
AcDbLine
 10
74.8829724872
 20
230.1940395018
 30
0.0
 11
193.9734714783
 21
230.1940395018
 31
0.0
  0
LINE
  5
296
330
1F
100
AcDbEntity
  8
0
  6
Continuous
 62
     8
370
    18
100
AcDbLine
 10
193.9975662488
 20
230.290451018
 30
0.0
 11
74.8588777167
 21
230.290451018
 31
0.0
  0
LINE
  5
297
330
1F
100
AcDbEntity
  8
0
  6
Continuous
 62
     8
370
    18
100
AcDbLine
 10
74.9497652833
 20
232.9784300054
 30
0.0
 11
193.9066786822
 21
232.9784300054
 31
0.0
  0
HATCH
  5
298
330
1F
100
AcDbEntity
  8
0
  6
Continuous
 62
     7
370
    18
100
AcDbHatch
 10
0.0
 20
0.0
 30
0.0
210
0.0
220
0.0
230
1.0
  2
DIN 128 Elastomer-Gummi
 70
     0
 71
     0
 91
        1
 92
        0
 93
       74
 72
     2
 10
193.8170535709386
 20
230.2843474144382
 40
0.180615837725753
 50
358.0634183510368
 51
389.9999977187926
 73
     0
 72
     1
 10
193.9734714783307
 20
230.1940395018029
 11
193.8308908216667
 21
229.9470825375776
 72
     2
 10
193.9873087290586
 20
229.8567746249424
 40
0.180615837725753
 50
150.0000022812047
 51
205.7456652543329
 73
     1
 72
     1
 10
193.8246224259707
 20
229.7783192387327
 11
194.3762780945792
 21
228.6343975064084
 72
     2
 10
193.6170753468415
 20
228.2682723707658
 40
0.842873909384826
 50
334.254334745672
 51
540.0000000000008
 73
     0
 72
     1
 10
192.7742014374567
 20
228.2682723707658
 11
192.7742014374567
 21
228.5447809260619
 72
     2
 10
192.1721486450121
 20
228.5447809260619
 40
0.602052792444518
 50
0.0
 51
89.55638253093343
 73
     1
 72
     1
 10
192.1768100436322
 20
229.1468156727852
 11
189.1936200821644
 21
229.1699137375416
 72
     2
 10
189.1898909632685
 20
228.6882859401904
 40
0.481642233934185
 50
89.5563825309291
 51
124.9999999958975
 73
     1
 72
     1
 10
188.9136323271616
 20
229.0828241607519
 11
188.0037749223642
 21
228.4457351472903
 72
     2
 10
188.1764365699323
 20
228.199148759439
 40
0.30102639620887
 50
124.9999999960758
 51
245.7584099989004
 73
     1
 72
     1
 10
188.0528396416932
 20
227.9246661724781
 11
188.4140713171754
 21
227.7620069453191
 72
     1
 10
188.4140713171754
 20
227.7620069453191
 11
189.5594792021376
 21
227.2462405436711
 72
     2
 10
189.4358822738557
 20
226.9717579567302
 40
0.301026396208866
 50
294.2415900100809
 51
374.0976954862896
 73
     0
 72
     1
 10
189.7278423007795
 20
226.8984351506375
 11
189.5028157031669
 21
226.0024141850107
 72
     2
 10
189.7363837247132
 20
225.9437559401348
 40
0.240821116974736
 50
165.902304513721
 51
283.5831003745254
 73
     1
 72
     1
 10
189.7929418690407
 20
225.7096705140847
 11
190.2425161040787
 21
225.818293613401
 72
     2
 10
190.2849347123239
 20
225.6427295438653
 40
0.180615837725752
 50
256.4168996254959
 51
345.2994334385803
 73
     0
 72
     1
 10
190.4596381345659
 20
225.688563975136
 11
190.6473387334546
 21
224.9731206705415
 72
     2
 10
190.4726353112043
 20
224.9272862392544
 40
0.180615837725752
 50
345.2994334342008
 51
375.0000000020331
 73
     0
 72
     1
 10
190.647096813499
 20
224.8805394205976
 11
190.5819733882662
 21
224.6374954888242
 72
     2
 10
190.8727425587504
 20
224.5595841243742
 40
0.301026396208866
 50
164.9999999935844
 51
226.0610789642707
 73
     1
 72
     1
 10
190.6638630098809
 20
224.342821061841
 11
190.8722106503148
 21
224.1420508722817
 72
     2
 10
190.7051070112141
 20
223.9686404222498
 40
0.240821116974736
 50
313.9389210357414
 51
360.0000000043894
 73
     0
 72
     1
 10
190.9459281282525
 20
223.9686404222314
 11
190.9459281282793
 21
221.684548497556
 72
     2
 10
190.3438753358348
 20
221.684548497556
 40
0.602052792444518
 50
0.0
 51
100.9999999958822
 73
     0
 72
     1
 10
190.2289982473926
 20
221.0935571106413
 11
189.6500156986671
 21
221.2060999173455
 72
     2
 10
189.5810894456331
 20
220.851505085212
 40
0.361231675428859
 50
79.00000000852597
 51
256.2315426253433
 73
     1
 72
     2
 10
189.3518289056902
 20
219.9159001628623
 40
0.602052792444518
 50
283.7684575860187
 51
332.0000000048318
 73
     0
 72
     1
 10
189.8834099695748
 20
220.1985468281649
 11
191.283281825165
 21
217.5657707812356
 72
     2
 10
191.070649399615
 20
217.4527121151118
 40
0.240821116974736
 50
332.000000003806
 51
360.0000000043826
 73
     0
 72
     1
 10
191.3114705165342
 20
217.4527121150933
 11
191.3114705165821
 21
216.5158818052516
 72
     2
 10
191.6814705165822
 20
216.5158818053069
 40
0.369999999999997
 50
180.0000000085788
 51
261.2884996316463
 73
     1
 72
     1
 10
191.6254306025942
 20
216.1501503081086
 11
193.1838524260955
 21
215.9113581188421
 72
     2
 10
193.4574117776864
 20
217.696679760698
 40
1.8061583772532
 50
261.2884996334017
 51
275.9999970140348
 73
     1
 72
     1
 10
193.6462066436663
 20
215.9004156981793
 11
194.2780460654955
 21
215.9668246642403
 72
     2
 10
194.1270101728627
 20
217.4038359142723
 40
1.44492670180256
 50
275.9999970080065
 51
299.9999970127287
 73
     1
 72
     1
 10
194.8494734585172
 20
216.1524926462452
 11
197.7277087710831
 21
217.8142423789411
 72
     2
 10
197.5771955865497
 20
218.0749388931054
 40
0.301026396208866
 50
299.9999970171204
 51
420.0000022841388
 73
     1
 72
     1
 10
197.7277087742613
 20
218.3356354054323
 11
197.4600758512178
 21
218.4901533313874
 72
     2
 10
197.610589038943
 20
218.7508498437069
 40
0.301026396208862
 50
119.9999977188059
 51
180.0
 73
     0
 72
     1
 10
197.3095626427341
 20
218.7508498437069
 11
197.3095626427341
 21
220.801179017374
 72
     2
 10
197.610589038943
 20
220.801179017374
 40
0.301026396208871
 50
179.9999999999838
 51
240.0000029828733
 73
     0
 72
     1
 10
197.4600758544106
 20
221.0618755315365
 11
197.7277087897877
 21
221.2163934602421
 72
     2
 10
197.5771956052149
 20
221.4770899743817
 40
0.301026396208866
 50
299.9999970259789
 51
420.0000022811993
 73
     1
 72
     1
 10
197.7277087929398
 20
221.7377864867009
 11
197.4600758512177
 21
221.89230442344
 72
     2
 10
197.610589038943
 20
222.1530009357595
 40
0.301026396208867
 50
119.9999977188173
 51
180.0
 73
     0
 72
     1
 10
197.3095626427341
 20
222.1530009357595
 11
197.3095626427341
 21
223.8135532908413
 72
     2
 10
197.4299732012176
 20
223.8135532908413
 40
0.120410558478666
 50
180.0
 51
305.0000029762673
 73
     0
 72
     1
 10
197.4990378653724
 20
223.9121878423855
 11
197.9543161273007
 21
223.59339853613
 72
     2
 10
198.0233807914597
 20
223.6920330876701
 40
0.120410558478666
 50
234.9999970210221
 51
384.999997016618
 73
     1
 72
     1
 10
198.1325098209
 20
223.7429207829072
 11
197.3377664653241
 21
225.4472536406613
 72
     2
 10
197.6105890389429
 20
225.574472878748
 40
0.301026396208869
 50
155.000002985891
 51
180.0
 73
     0
 72
     1
 10
197.309562642734
 20
225.574472878748
 11
197.3095626427341
 21
226.194349641995
 72
     2
 10
197.6105890389429
 20
226.194349641995
 40
0.301026396208868
 50
180.0
 51
240.0000029829049
 73
     0
 72
     1
 10
197.4600758544107
 20
226.4550461561576
 11
197.7277087710821
 21
226.6095640740635
 72
     2
 10
197.5771955865496
 20
226.8702605882265
 40
0.301026396208866
 50
299.9999970171124
 51
420.0000022841388
 73
     1
 72
     1
 10
197.7277087742611
 20
227.1309571005533
 11
197.4600758512177
 21
227.2854750265084
 72
     2
 10
197.6105890389429
 20
227.546171538828
 40
0.301026396208865
 50
119.9999977187931
 51
180.0
 73
     0
 72
     1
 10
197.309562642734
 20
227.546171538828
 11
197.3095626427341
 21
228.8228513329358
 72
     2
 10
197.6105890389427
 20
228.8228513329358
 40
0.301026396208868
 50
180.0
 51
240.0000029829022
 73
     0
 72
     1
 10
197.4600758544105
 20
229.0835478470983
 11
197.7277087846753
 21
229.2380657728524
 72
     2
 10
197.5771956001427
 20
229.4987622870153
 40
0.301026396208866
 50
299.9999970171252
 51
420.0000023034989
 73
     1
 72
     1
 10
197.7277087877662
 20
229.759458799393
 11
197.4600758512176
 21
229.9139767331453
 72
     2
 10
197.6105890389427
 20
230.1746732454649
 40
0.301026396208865
 50
119.9999977187911
 51
179.999999998561
 73
     0
 72
     1
 10
197.3095626427339
 20
230.1746732454573
 11
197.309562642734
 21
230.6207540586034
 72
     2
 10
197.610589038943
 20
230.6207540586034
 40
0.301026396208867
 50
179.9999999999946
 51
240.000002982878
 73
     0
 72
     1
 10
197.4600758544107
 20
230.8814505727658
 11
197.7271809282256
 21
231.0356637404931
 72
     2
 10
197.576667743693
 20
231.296360254656
 40
0.301026396208866
 50
299.9999970171272
 51
420.0000022811965
 73
     1
 72
     1
 10
197.7271809314179
 20
231.5570567669751
 11
195.2790452860461
 21
232.9704884108784
 72
     2
 10
194.5565819849679
 20
231.7191451517487
 40
1.44492670180256
 50
60.00000228120633
 51
69.01418323682063
 73
     1
 72
     1
 10
195.0740634624424
 20
233.0682285791366
 11
194.3970744072373
 21
233.3279080692315
 72
     2
 10
194.267704037877
 20
232.9906372124062
 40
0.361231675428859
 50
69.01418323682613
 51
181.93658164898
 73
     1
 72
     1
 10
193.9066786822173
 20
232.9784300053569
 11
193.99756624878
 21
230.2904510179632
 97
        0
 75
     0
 76
     2
 52
0.0
 41
0.125
 77
     0
 78
     3
 53
45.00000209717174
 43
0.8418990000000001
 44
0.8418990000000001
 45
0.5612659459355175
 46
1.683798043244233
 79
     2
 49
0.79375
 49
-1.5875
 53
45.00000209717174
 43
1.96443125
 44
0.8418990000000001
 45
0.5612659459355175
 46
1.683798043244233
 79
     2
 49
0.79375
 49
-1.5875
 53
134.9999719140475
 43
0.0
 44
0.0
 45
-0.5612662826950551
 46
-0.5612657324384541
 79
     0
 98
        1
 10
0.0
 20
0.0
  0
HATCH
  5
299
330
1F
100
AcDbEntity
  8
0
  6
Continuous
 62
     7
370
    18
100
AcDbHatch
 10
0.0
 20
0.0
 30
0.0
210
0.0
220
0.0
230
1.0
  2
DIN 128 Elastomer-Gummi
 70
     0
 71
     0
 91
        1
 92
        0
 93
       74
 72
     4
 94
        3
 73
     1
 74
     0
 95
       11
 96
        7
 40
0.0
 40
0.0
 40
0.0
 40
0.0
 40
0.0000396606814677
 40
0.0000396606814677
 40
0.0000396606814677
 40
0.000100807565044
 40
0.000100807565044
 40
0.000100807565044
 40
0.000100807565044
 10
74.88297248718658
 20
230.194039501803
 42
1.0
 10
74.87636237406446
 20
230.205488554627
 42
1.0
 10
74.87098500627212
 20
230.2177405046403
 42
1.0
 10
74.86703310739543
 20
230.2303562448612
 42
1.0
 10
74.86099021103439
 20
230.2496471257901
 42
1.0
 10
74.85819457829409
 20
230.2702473547977
 42
1.0
 10
74.8588777167373
 20
230.2904510179632
 42
1.0
 72
     1
 10
74.85887771673715
 20
230.2904510179632
 11
74.94976528329983
 21
232.9784300053569
 72
     2
 10
74.58873992764015
 20
232.9906372124062
 40
0.361231675428859
 50
358.0634183510217
 51
470.9858167631747
 73
     1
 72
     1
 10
74.45936955827986
 20
233.3279080692315
 11
73.78238050307475
 21
233.0682285791366
 72
     2
 10
74.29986198054925
 20
231.7191451517487
 40
1.44492670180256
 50
110.9858167631789
 51
119.9999977187937
 73
     1
 72
     1
 10
73.57739867947097
 20
232.9704884108784
 11
71.1292630340992
 21
231.5570567669751
 72
     4
 94
        3
 73
     1
 74
     0
 95
       26
 96
       22
 40
0.0
 40
0.0
 40
0.0
 40
0.0
 40
0.0001010760460543
 40
0.0001010760460543
 40
0.0001010760460543
 40
0.0002021520921087
 40
0.0002021520921087
 40
0.0002021520921087
 40
0.0003032281381657
 40
0.0003032281381657
 40
0.0003032281381657
 40
0.0004043041842226
 40
0.0004043041842226
 40
0.0004043041842226
 40
0.0005053802302796
 40
0.0005053802302796
 40
0.0005053802302796
 40
0.0006064562763365
 40
0.0006064562763365
 40
0.0006064562763365
 40
0.0006272912914782
 40
0.0006272912914782
 40
0.0006272912914782
 40
0.0006272912914782
 10
71.1292630340992
 20
231.5570567669751
 42
1.0
 10
71.10008489222943
 20
231.5402107604611
 42
1.0
 10
71.07341285350816
 20
231.5180947881194
 42
1.0
 10
71.05145564105842
 20
231.4925402832351
 42
1.0
 10
71.0294984286087
 20
231.4669857783508
 42
1.0
 10
71.01165043540094
 20
231.4372879161277
 42
1.0
 10
70.9993896615127
 20
231.4059059894484
 42
1.0
 10
70.98712888762414
 20
231.3745240627683
 42
1.0
 10
70.98011716577335
 20
231.3405925193474
 42
1.0
 10
70.97893513969538
 20
231.3069212450494
 42
1.0
 10
70.97775311361742
 20
231.2732499707515
 42
1.0
 10
70.98236818157366
 20
231.2389102702578
 42
1.0
 10
70.99239816778002
 20
231.2067458290968
 42
1.0
 10
71.0024281539864
 20
231.1745813879358
 42
1.0
 10
71.01814969784635
 20
231.1437050711073
 42
1.0
 10
71.03826089147734
 20
231.1166737598325
 42
1.0
 10
71.05837208510833
 20
231.0896424485576
 42
1.0
 10
71.08342762006167
 20
231.0657105858964
 42
1.0
 10
71.11135263659406
 20
231.046859979801
 42
1.0
 10
71.11718816131453
 20
231.0429207456831
 42
1.0
 10
71.12316564539995
 20
231.0391840709205
 42
1.0
 10
71.12926303729188
 20
231.0356637404936
 42
1.0
 72
     1
 10
71.12926303729157
 20
231.0356637404931
 11
71.39636811110644
 21
230.8814505727658
 72
     2
 10
71.24585492657417
 20
230.6207540586034
 40
0.301026396208867
 50
299.9999970171165
 51
360.0000000000063
 73
     0
 72
     1
 10
71.54688132278315
 20
230.6207540586034
 11
71.54688132278322
 21
230.1746732454573
 72
     2
 10
71.24585492657435
 20
230.1746732454649
 40
0.301026396208865
 50
0.0000000014389639
 51
60.00000228120656
 73
     0
 72
     1
 10
71.39636811429952
 20
229.9139767331453
 11
71.12873517775085
 21
229.759458799393
 72
     4
 94
        3
 73
     1
 74
     0
 95
       26
 96
       22
 40
0.0
 40
0.0
 40
0.0
 40
0.0
 40
0.0001010760460543
 40
0.0001010760460543
 40
0.0001010760460543
 40
0.0002021520921087
 40
0.0002021520921087
 40
0.0002021520921087
 40
0.0003032281381656
 40
0.0003032281381656
 40
0.0003032281381656
 40
0.0004043041842226
 40
0.0004043041842226
 40
0.0004043041842226
 40
0.0005053802302795
 40
0.0005053802302795
 40
0.0005053802302795
 40
0.0006064562763365
 40
0.0006064562763365
 40
0.0006064562763365
 40
0.0006272912915938
 40
0.0006272912915938
 40
0.0006272912915938
 40
0.0006272912915938
 10
71.12873517775085
 20
229.759458799393
 42
1.0
 10
71.09955703587454
 20
229.7426127928904
 42
1.0
 10
71.07288499714466
 20
229.720496820559
 42
1.0
 10
71.05092778468499
 20
229.6949423156832
 42
1.0
 10
71.0289705722253
 20
229.6693878108075
 42
1.0
 10
71.01112257900598
 20
229.6396899485913
 42
1.0
 10
70.99886180510553
 20
229.6083080219168
 42
1.0
 10
70.98660103120476
 20
229.5769260952415
 42
1.0
 10
70.97958930934077
 20
229.5429945518234
 42
1.0
 10
70.97840728324971
 20
229.5093232775259
 42
1.0
 10
70.97722525715865
 20
229.4756520032283
 42
1.0
 10
70.98184032510149
 20
229.4413123027329
 42
1.0
 10
70.99187031129533
 20
229.409147861568
 42
1.0
 10
71.00190029748917
 20
229.3769834204031
 42
1.0
 10
71.01762184133713
 20
229.3461071035684
 42
1.0
 10
71.03773303495758
 20
229.3190757922858
 42
1.0
 10
71.05784422857805
 20
229.2920444810031
 42
1.0
 10
71.08289976352206
 20
229.2681126183321
 42
1.0
 10
71.11082478004712
 20
229.2492620122258
 42
1.0
 10
71.1166603047984
 20
229.2453227780839
 42
1.0
 10
71.12263778891632
 20
229.2415861032993
 42
1.0
 10
71.12873518084204
 20
229.2380657728528
 42
1.0
 72
     1
 10
71.12873518084177
 20
229.2380657728524
 11
71.39636811110655
 21
229.0835478470983
 72
     2
 10
71.24585492657435
 20
228.8228513329358
 40
0.301026396208868
 50
299.9999970170995
 51
360.0000000000008
 73
     0
 72
     1
 10
71.54688132278305
 20
228.8228513329358
 11
71.54688132278312
 21
227.546171538828
 72
     2
 10
71.24585492657425
 20
227.546171538828
 40
0.301026396208865
 50
0.0
 51
60.00000228120926
 73
     0
 72
     1
 10
71.39636811429942
 20
227.2854750265084
 11
71.12873519125597
 21
227.1309571005533
 72
     4
 94
        3
 73
     1
 74
     0
 95
       26
 96
       22
 40
0.0
 40
0.0
 40
0.0
 40
0.0
 40
0.0001010760460543
 40
0.0001010760460543
 40
0.0001010760460543
 40
0.0002021520921087
 40
0.0002021520921087
 40
0.0002021520921087
 40
0.0003032281381656
 40
0.0003032281381656
 40
0.0003032281381656
 40
0.0004043041842226
 40
0.0004043041842226
 40
0.0004043041842226
 40
0.0005053802302796
 40
0.0005053802302796
 40
0.0005053802302796
 40
0.0006064562763365
 40
0.0006064562763365
 40
0.0006064562763365
 40
0.0006272912914934
 40
0.0006272912914934
 40
0.0006272912914934
 40
0.0006272912914934
 10
71.12873519125597
 20
227.1309571005533
 42
1.0
 10
71.09955704938534
 20
227.1141110940408
 42
1.0
 10
71.07288501066294
 20
227.0919951217004
 42
1.0
 10
71.0509277982119
 20
227.0664406168173
 42
1.0
 10
71.02897058576086
 20
227.0408861119342
 42
1.0
 10
71.01112259255157
 20
227.0111882497119
 42
1.0
 10
70.99886181866172
 20
226.9798063230332
 42
1.0
 10
70.98660104477155
 20
226.9484243963538
 42
1.0
 10
70.97958932291903
 20
226.9144928529333
 42
1.0
 10
70.97840729683934
 20
226.8808215786354
 42
1.0
 10
70.97722527075966
 20
226.8471503043374
 42
1.0
 10
70.98184033871412
 20
226.8128106038435
 42
1.0
 10
70.99187032491882
 20
226.780646162682
 42
1.0
 10
71.00190031112353
 20
226.7484817215205
 42
1.0
 10
71.01762185498191
 20
226.7176054046912
 42
1.0
 10
71.03773304861151
 20
226.6905740934153
 42
1.0
 10
71.05784424224112
 20
226.6635427821395
 42
1.0
 10
71.08289977719322
 20
226.639610919477
 42
1.0
 10
71.11082479372463
 20
226.6207603133801
 42
1.0
 10
71.11666031844916
 20
226.6168210792591
 42
1.0
 10
71.12263780253888
 20
226.6130844044935
 42
1.0
 10
71.12873519443527
 20
226.609564074064
 42
1.0
 72
     1
 10
71.128735194435
 20
226.6095640740635
 11
71.39636811110644
 21
226.4550461561576
 72
     2
 10
71.24585492657425
 20
226.194349641995
 40
0.301026396208868
 50
299.9999970170944
 51
360.0000000000008
 73
     0
 72
     1
 10
71.54688132278305
 20
226.194349641995
 11
71.54688132278312
 21
225.574472878748
 72
     2
 10
71.24585492657425
 20
225.574472878748
 40
0.301026396208869
 50
0.0
 51
24.99999701410901
 73
     0
 72
     1
 10
71.51867750019304
 20
225.4472536406613
 11
70.72393414461709
 21
223.7429207829072
 72
     4
 94
        3
 73
     1
 74
     0
 95
       29
 96
       25
 40
0.0
 40
0.0
 40
0.0
 40
0.0
 40
0.0000404304184201
 40
0.0000404304184201
 40
0.0000404304184201
 40
0.0000808608368402
 40
0.0000808608368402
 40
0.0000808608368402
 40
0.0001212912552613
 40
0.0001212912552613
 40
0.0001212912552613
 40
0.0001617216736825
 40
0.0001617216736825
 40
0.0001617216736825
 40
0.0002021520921036
 40
0.0002021520921036
 40
0.0002021520921036
 40
0.0002425825105248
 40
0.0002425825105248
 40
0.0002425825105248
 40
0.0002830129289459
 40
0.0002830129289459
 40
0.0002830129289459
 40
0.0003136171137777
 40
0.0003136171137777
 40
0.0003136171137777
 40
0.0003136171137777
 10
70.72393414461709
 20
223.7429207829072
 42
1.0
 10
70.71823860086836
 20
223.7307066482616
 42
1.0
 10
70.71457330031997
 20
223.7173407291752
 42
1.0
 10
70.71324176810393
 20
223.7039298632191
 42
1.0
 10
70.71191023588788
 20
223.690518997263
 42
1.0
 10
70.71287574670166
 20
223.6766932961958
 42
1.0
 10
70.71605834617498
 20
223.663597672334
 42
1.0
 10
70.71924094564837
 20
223.6505020484719
 42
1.0
 10
70.72472841380441
 20
223.6377753083403
 42
1.0
 10
70.7320663310192
 20
223.6264713588228
 42
1.0
 10
70.73940424823398
 20
223.6151674093053
 42
1.0
 10
70.74879500332433
 20
223.6049744735175
 42
1.0
 10
70.75946094377822
 20
223.5967366329036
 42
1.0
 10
70.77012688423211
 20
223.5884987922897
 42
1.0
 10
70.78236218985634
 20
223.5819888370346
 42
1.0
 10
70.79515364967241
 20
223.5777458593633
 42
1.0
 10
70.80794510948849
 20
223.5735028816921
 42
1.0
 10
70.82164552775156
 20
223.5714098550417
 42
1.0
 10
70.8351203668685
 20
223.5716401038592
 42
1.0
 10
70.84859520598542
 20
223.5718703526768
 42
1.0
 10
70.86221611865626
 20
223.5744302275088
 42
1.0
 10
70.8748551511805
 20
223.5791077440076
 42
1.0
 10
70.88448048421323
 20
223.582669935495
 42
1.0
 10
70.8937205987407
 20
223.5875117230209
 42
1.0
 10
70.902127838217
 20
223.5933985361292
 42
1.0
 72
     1
 10
70.90212783821643
 20
223.59339853613
 11
71.35740610014467
 21
223.9121878423855
 72
     2
 10
71.42647076429957
 20
223.8135532908413
 40
0.120410558478666
 50
234.9999970237233
 51
360.0000000000008
 73
     0
 72
     1
 10
71.54688132278305
 20
223.8135532908413
 11
71.54688132278302
 21
222.1530009357595
 72
     2
 10
71.24585492657417
 20
222.1530009357595
 40
0.301026396208867
 50
0.0
 51
60.0000022811898
 73
     0
 72
     1
 10
71.39636811429942
 20
221.89230442344
 11
71.12873517257731
 21
221.7377864867009
 72
     4
 94
        3
 73
     1
 74
     0
 95
       26
 96
       22
 40
0.0
 40
0.0
 40
0.0
 40
0.0
 40
0.0001010760460543
 40
0.0001010760460543
 40
0.0001010760460543
 40
0.0002021520921087
 40
0.0002021520921087
 40
0.0002021520921087
 40
0.0003032281381656
 40
0.0003032281381656
 40
0.0003032281381656
 40
0.0004043041842226
 40
0.0004043041842226
 40
0.0004043041842226
 40
0.0005053802302796
 40
0.0005053802302796
 40
0.0005053802302796
 40
0.0006064562763365
 40
0.0006064562763365
 40
0.0006064562763365
 40
0.0006272912914323
 40
0.0006272912914323
 40
0.0006272912914323
 40
0.0006272912914323
 10
71.12873517257731
 20
221.7377864867009
 42
1.0
 10
71.09955703070756
 20
221.7209404801869
 42
1.0
 10
71.07288499198627
 20
221.6988245078451
 42
1.0
 10
71.05092777953655
 20
221.6732700029609
 42
1.0
 10
71.02897056708682
 20
221.6477154980766
 42
1.0
 10
71.01112257387905
 20
221.6180176358534
 42
1.0
 10
70.9988617999908
 20
221.5866357091742
 42
1.0
 10
70.98660102610224
 20
221.5552537824941
 42
1.0
 10
70.97958930425145
 20
221.5213222390732
 42
1.0
 10
70.97840727817349
 20
221.4876509647752
 42
1.0
 10
70.97722525209554
 20
221.4539796904772
 42
1.0
 10
70.98184032005175
 20
221.4196399899836
 42
1.0
 10
70.99187030625811
 20
221.3874755488226
 42
1.0
 10
71.00190029246446
 20
221.3553111076616
 42
1.0
 10
71.01762183632442
 20
221.3244347908331
 42
1.0
 10
71.0377330299554
 20
221.2974034795583
 42
1.0
 10
71.05784422358639
 20
221.2703721682834
 42
1.0
 10
71.08289975853972
 20
221.2464403056222
 42
1.0
 10
71.1108247750721
 20
221.2275896995267
 42
1.0
 10
71.11666029977974
 20
221.2236504654176
 42
1.0
 10
71.1226377838517
 20
221.2199137906627
 42
1.0
 10
71.12873517572966
 20
221.2163934602426
 42
1.0
 72
     1
 10
71.1287351757294
 20
221.2163934602421
 11
71.39636811110647
 21
221.0618755315365
 72
     2
 10
71.24585492657417
 20
220.801179017374
 40
0.301026396208871
 50
299.9999970171212
 51
360.0000000000171
 73
     0
 72
     1
 10
71.54688132278305
 20
220.801179017374
 11
71.54688132278302
 21
218.7508498437069
 72
     2
 10
71.24585492657417
 20
218.7508498437069
 40
0.301026396208862
 50
0.0
 51
60.00000228120349
 73
     0
 72
     1
 10
71.39636811429932
 20
218.4901533313874
 11
71.12873519125577
 21
218.3356354054323
 72
     4
 94
        3
 73
     1
 74
     0
 95
       26
 96
       22
 40
0.0
 40
0.0
 40
0.0
 40
0.0
 40
0.0001010760460543
 40
0.0001010760460543
 40
0.0001010760460543
 40
0.0002021520921087
 40
0.0002021520921087
 40
0.0002021520921087
 40
0.0003032281381656
 40
0.0003032281381656
 40
0.0003032281381656
 40
0.0004043041842226
 40
0.0004043041842226
 40
0.0004043041842226
 40
0.0005053802302796
 40
0.0005053802302796
 40
0.0005053802302796
 40
0.0006064562763365
 40
0.0006064562763365
 40
0.0006064562763365
 40
0.0006272912914935
 40
0.0006272912914935
 40
0.0006272912914935
 40
0.0006272912914935
 10
71.12873519125577
 20
218.3356354054323
 42
1.0
 10
71.09955704938514
 20
218.3187893989198
 42
1.0
 10
71.07288501066274
 20
218.2966734265794
 42
1.0
 10
71.0509277982117
 20
218.2711189216963
 42
1.0
 10
71.02897058576066
 20
218.2455644168132
 42
1.0
 10
71.01112259255137
 20
218.2158665545909
 42
1.0
 10
70.99886181866152
 20
218.1844846279122
 42
1.0
 10
70.98660104477135
 20
218.1531027012328
 42
1.0
 10
70.97958932291883
 20
218.1191711578123
 42
1.0
 10
70.97840729683914
 20
218.0854998835143
 42
1.0
 10
70.97722527075946
 20
218.0518286092164
 42
1.0
 10
70.98184033871391
 20
218.0174889087225
 42
1.0
 10
70.99187032491862
 20
217.985324467561
 42
1.0
 10
71.00190031112332
 20
217.9531600263995
 42
1.0
 10
71.0176218549817
 20
217.9222837095702
 42
1.0
 10
71.0377330486113
 20
217.8952523982943
 42
1.0
 10
71.0578442422409
 20
217.8682210870185
 42
1.0
 10
71.08289977719302
 20
217.8442892243559
 42
1.0
 10
71.11082479372443
 20
217.8254386182591
 42
1.0
 10
71.11666031844898
 20
217.821499384138
 42
1.0
 10
71.12263780253869
 20
217.8177627093725
 42
1.0
 10
71.1287351944351
 20
217.814242378943
 42
1.0
 72
     1
 10
71.12873519443399
 20
217.8142423789411
 11
74.00697050699992
 21
216.1524926462452
 72
     2
 10
74.72943379265445
 20
217.4038359142723
 40
1.44492670180256
 50
240.000002987273
 51
264.0000029919946
 73
     1
 72
     1
 10
74.57839790002156
 20
215.9668246642403
 11
75.21023732185081
 21
215.9004156981793
 72
     2
 10
75.39903218783076
 20
217.696679760698
 40
1.8061583772532
 50
264.0000029859664
 51
278.7115003665999
 73
     1
 72
     1
 10
75.67259153942166
 20
215.9113581188421
 11
77.2310133629229
 21
216.1501503081086
 72
     2
 10
77.17497344893495
 20
216.5158818053069
 40
0.369999999999997
 50
278.7115003683553
 51
359.9999999914229
 73
     1
 72
     1
 10
77.54497344893495
 20
216.5158818052516
 11
77.54497344898296
 21
217.4527121150933
 72
     2
 10
77.78579456590205
 20
217.4527121151118
 40
0.240821116974736
 50
179.9999999956182
 51
207.9999999962005
 73
     0
 72
     1
 10
77.57316214035212
 20
217.5657707812356
 11
78.97303399594227
 21
220.1985468281649
 72
     2
 10
79.50461505982686
 20
219.9159001628623
 40
0.602052792444518
 50
207.9999999951704
 51
256.231542413983
 73
     0
 72
     2
 10
79.27535451988406
 20
220.851505085212
 40
0.361231675428859
 50
283.768457374654
 51
460.9999999914793
 73
     1
 72
     1
 10
79.20642826685004
 20
221.2060999173455
 11
78.62744571812449
 21
221.0935571106413
 72
     2
 10
78.51256862968235
 20
221.684548497556
 40
0.602052792444518
 50
79.0000000041178
 51
180.0
 73
     0
 72
     1
 10
77.91051583723784
 20
221.684548497556
 11
77.91051583726465
 21
223.9686404222314
 72
     2
 10
78.15133695430305
 20
223.9686404222498
 40
0.240821116974736
 50
179.9999999956115
 51
226.0610789642626
 73
     0
 72
     1
 10
77.98423331520233
 20
224.1420508722817
 11
78.19258095563622
 21
224.342821061841
 72
     2
 10
77.98370140676674
 20
224.5595841243742
 40
0.301026396208866
 50
313.938921035731
 51
375.0000000064157
 73
     1
 72
     1
 10
78.2744705772509
 20
224.6374954888242
 11
78.20934715201814
 21
224.8805394205976
 72
     4
 94
        3
 73
     1
 74
     0
 95
       11
 96
        7
 40
0.0
 40
0.0
 40
0.0
 40
0.0
 40
0.0000326475137821
 40
0.0000326475137821
 40
0.0000326475137821
 40
0.0000939145449222
 40
0.0000939145449222
 40
0.0000939145449222
 40
0.0000939145449222
 10
78.20934715201827
 20
224.8805394205977
 42
1.0
 10
78.20653055257056
 20
224.8910511128397
 42
1.0
 10
78.20466032566858
 20
224.9018621151277
 42
1.0
 10
78.20378202184803
 20
224.9127091187986
 42
1.0
 10
78.20215049526973
 20
224.9328583819233
 42
1.0
 10
78.20397526877021
 20
224.9535672012825
 42
1.0
 10
78.20910523206246
 20
224.9731206705415
 42
1.0
 72
     1
 10
78.20910523206246
 20
224.9731206705415
 11
78.39680583095115
 21
225.688563975136
 72
     2
 10
78.57150925319326
 20
225.6427295438653
 40
0.180615837725752
 50
194.7005665614202
 51
283.5831003745101
 73
     0
 72
     1
 10
78.61392786143843
 20
225.818293613401
 11
79.06350209647638
 21
225.7096705140847
 72
     2
 10
79.12006024080395
 20
225.9437559401348
 40
0.240821116974736
 50
256.4168996254763
 51
374.0976954862799
 73
     1
 72
     1
 10
79.35362826235021
 20
226.0024141850107
 11
79.12860166473756
 21
226.8984351506375
 72
     4
 94
        3
 73
     1
 74
     0
 95
       20
 96
       16
 40
0.0
 40
0.0
 40
0.0
 40
0.0
 40
0.0000133270984497
 40
0.0000133270984497
 40
0.0000133270984497
 40
0.0001158333023728
 40
0.0001158333023728
 40
0.0001158333023728
 40
0.000218339506296
 40
0.000218339506296
 40
0.000218339506296
 40
0.0003208457102164
 40
0.0003208457102164
 40
0.0003208457102164
 40
0.0004233519141369
 40
0.0004233519141369
 40
0.0004233519141369
 40
0.0004233519141369
 10
79.12860166473756
 20
226.898435150639
 42
1.0
 10
79.12751961095125
 20
226.9027437207746
 42
1.0
 10
79.1265327138181
 20
226.9070773103212
 42
1.0
 10
79.12564242356387
 20
226.9114295511547
 42
1.0
 10
79.1188902397274
 20
226.9444380335788
 42
1.0
 10
79.11774390202159
 20
226.9790674977978
 42
1.0
 10
79.12229833917021
 20
227.0124502628235
 42
1.0
 10
79.12685277631884
 20
227.0458330278491
 42
1.0
 10
79.13723360532181
 20
227.078889831558
 42
1.0
 10
79.1525811852159
 20
227.1088832256623
 42
1.0
 10
79.1679287651096
 20
227.1388766197658
 42
1.0
 10
79.18866640109707
 20
227.1666338591066
 42
1.0
 10
79.21307680052578
 20
227.1898563546265
 42
1.0
 10
79.23748719995449
 20
227.2130788501464
 42
1.0
 10
79.26624363177984
 20
227.2324071069443
 42
1.0
 10
79.29696476337955
 20
227.2462405436711
 42
1.0
 72
     1
 10
79.29696476337955
 20
227.2462405436711
 11
80.44237264834172
 21
227.7620069453191
 72
     1
 10
80.44237264834172
 20
227.7620069453191
 11
80.80360432382395
 21
227.9246661724781
 72
     2
 10
80.68000739558475
 20
228.199148759439
 40
0.30102639620887
 50
294.2415900011036
 51
415.000000003925
 73
     1
 72
     1
 10
80.85266904315294
 20
228.4457351472903
 11
79.94281163835548
 21
229.0828241607519
 72
     2
 10
79.66655300224855
 20
228.6882859401904
 40
0.481642233934185
 50
55.00000000410117
 51
90.44361746906922
 73
     1
 72
     1
 10
79.66282388335266
 20
229.1699137375416
 11
76.67963392188489
 21
229.1468156727852
 72
     2
 10
76.68429532050496
 20
228.5447809260619
 40
0.602052792444518
 50
90.44361746906387
 51
180.0
 73
     1
 72
     1
 10
76.08224252806043
 20
228.5447809260619
 11
76.08224252806045
 21
228.2682723707658
 72
     4
 94
        3
 73
     1
 74
     0
 95
       38
 96
       34
 40
0.0
 40
0.0
 40
0.0
 40
0.0
 40
0.0001827535250898
 40
0.0001827535250898
 40
0.0001827535250898
 40
0.0004681491942715
 40
0.0004681491942715
 40
0.0004681491942715
 40
0.0007535448634532
 40
0.0007535448634532
 40
0.0007535448634532
 40
0.0010389405326349
 40
0.0010389405326349
 40
0.0010389405326349
 40
0.0013243362018166
 40
0.0013243362018166
 40
0.0013243362018166
 40
0.0016097318709984
 40
0.0016097318709984
 40
0.0016097318709984
 40
0.0018951275401801
 40
0.0018951275401801
 40
0.0018951275401801
 40
0.0021805232093618
 40
0.0021805232093618
 40
0.0021805232093618
 40
0.0024659188785435
 40
0.0024659188785435
 40
0.0024659188785435
 40
0.0027513145477252
 40
0.0027513145477252
 40
0.0027513145477252
 40
0.0030367102169069
 40
0.0030367102169069
 40
0.0030367102169069
 40
0.0030367102169069
 10
76.08224252806036
 20
228.2682723707658
 42
1.0
 10
76.08224252806036
 20
228.2073545290692
 42
1.0
 10
76.07556051919228
 20
228.1460818798557
 42
1.0
 10
76.06243004450805
 20
228.0865959649553
 42
1.0
 10
76.04209613249633
 20
227.9944758102304
 42
1.0
 10
76.00557712343092
 20
227.904595941441
 42
1.0
 10
75.95589717233054
 20
227.8243993496001
 42
1.0
 10
75.90621722123014
 20
227.7442027577592
 42
1.0
 10
75.84200609370431
 20
227.6714775218463
 42
1.0
 10
75.76858114114165
 20
227.6122460502674
 42
1.0
 10
75.695156188579
 20
227.5530145786884
 42
1.0
 10
75.61049226013114
 20
227.5056431943251
 42
1.0
 10
75.52160041252363
 20
227.474054742113
 42
1.0
 10
75.43270856491613
 20
227.4424662899008
 42
1.0
 10
75.33713705123853
 20
227.4257895213261
 42
1.0
 10
75.24280019009174
 20
227.4254054468452
 42
1.0
 10
75.14846332894496
 20
227.4250213723645
 42
1.0
 10
75.05275919322224
 20
227.4409193987292
 42
1.0
 10
74.96361308401376
 20
227.4717830034639
 42
1.0
 10
74.87446697480523
 20
227.5026466081986
 42
1.0
 10
74.78942013235162
 20
227.5493270476287
 42
1.0
 10
74.71551532265372
 20
227.607958694269
 42
1.0
 10
74.64161051295581
 20
227.6665903409093
 42
1.0
 10
74.57680935011301
 20
227.7387903279657
 42
1.0
 10
74.52647804659506
 20
227.8185797431184
 42
1.0
 10
74.47614674307708
 20
227.8983691582712
 42
1.0
 10
74.4388970993896
 20
227.987948692105
 42
1.0
 10
74.41781377472206
 20
228.079900224475
 42
1.0
 10
74.3967304500545
 20
228.171851756845
 42
1.0
 10
74.39123194028127
 20
228.2687114245452
 42
1.0
 10
74.40177357938738
 20
228.36245823638
 42
1.0
 10
74.41231521849348
 20
228.4562050482149
 42
1.0
 10
74.43918775790107
 20
228.5494246570024
 42
1.0
 10
74.48016587093795
 20
228.6343975064084
 42
1.0
 72
     1
 10
74.48016587093795
 20
228.6343975064084
 11
75.03182153954639
 21
229.7783192387327
 72
     2
 10
74.86913523645855
 20
229.8567746249424
 40
0.180615837725753
 50
334.2543347456688
 51
389.9999977187962
 73
     1
 72
     1
 10
75.02555314385044
 20
229.9470825375776
 11
74.8829724871864
 21
230.1940395018029
 97
        0
 75
     0
 76
     2
 52
0.0
 41
0.125
 77
     0
 78
     3
 53
45.00000209717174
 43
0.8418990000000001
 44
0.8418990000000001
 45
0.5612659459355175
 46
1.683798043244233
 79
     2
 49
0.79375
 49
-1.5875
 53
45.00000209717174
 43
1.96443125
 44
0.8418990000000001
 45
0.5612659459355175
 46
1.683798043244233
 79
     2
 49
0.79375
 49
-1.5875
 53
134.9999719140475
 43
0.0
 44
0.0
 45
-0.5612662826950551
 46
-0.5612657324384541
 79
     0
 98
        1
 10
0.0
 20
0.0
  0
DIMENSION
  5
29A
330
1F
100
AcDbEntity
  8
0
  6
Continuous
 62
     7
370
    18
100
AcDbDimension
  2
_D_2
 10
208.1437913499
 20
215.8905213834
 30
0.0
 11
208.1437913499
 21
224.6211951356
 31
0.0
 70
   160
  1
<>
 71
     2
 42
-1.0
  3
SLDDIMSTYLE2
100
AcDbAlignedDimension
 13
194.2677040379
 23
233.3518688878
 33
0.0
 14
193.4574117777
 24
215.8905213834
 34
0.0
 50
90.0
100
AcDbRotatedDimension
  0
MTEXT
  5
2A5
330
1F
100
AcDbEntity
  8
0
  6
Continuous
 62
     7
370
     0
100
AcDbMText
 10
134.4025538258
 20
250.795614787
 30
0.0
 40
5.0
 41
0.0
 71
     2
 72
     1
  1
A-A
  7
SLDTEXTSTYLE0
 73
     1
 44
1.0
  0
LINE
  5
2A6
330
1F
100
AcDbEntity
  8
0
  6
Continuous
 62
     7
370
    25
100
AcDbLine
 10
258.9239231654
 20
152.762385308
 30
0.0
 11
259.6269711361
 21
151.8192901273
 31
0.0
  0
LINE
  5
2A7
330
1F
100
AcDbEntity
  8
0
  6
Continuous
 62
     7
370
    25
100
AcDbLine
 10
370.9293866225
 20
151.8192901273
 30
0.0
 11
371.6324345932
 21
152.762385308
 31
0.0
  0
LINE
  5
2A8
330
1F
100
AcDbEntity
  8
0
  6
Continuous
 62
     7
370
    25
100
AcDbLine
 10
368.1010815193
 20
186.4991357768
 30
0.0
 11
368.1634170867
 21
186.4139209014
 31
0.0
  0
LWPOLYLINE
  5
2A9
330
1F
100
AcDbEntity
  8
0
  6
Continuous
 62
     7
370
    25
100
AcDbPolyline
 90
      166
 70
   128
 43
0.0
 10
315.2781788793
 20
222.3505776612
 10
312.8683225714
 20
222.3181291659
 10
310.4619603248
 20
222.2208307271
 10
308.0625811346
 20
222.0588234183
 10
305.6736638713
 20
221.8323421346
 10
303.2986722366
 20
221.5417152522
 10
300.9410497413
 20
221.1873641523
 10
298.6042147126
 20
220.7698026101
 10
296.2915553379
 20
220.28963605
 10
294.0064247522
 20
219.7475606675
 10
291.7521361763
 20
219.1443624201
 10
289.5319581133
 20
218.4809158876
 10
287.349109609
 20
217.7581830041
 10
285.2067555851
 20
216.9772116632
 10
283.1080022502
 20
216.1391341986
 10
281.0558925958
 20
215.2451657425
 10
279.0534019849
 20
214.2966024637
 10
277.1034338374
 20
213.2948196884
 10
275.2088154206
 20
212.2412699057
 10
273.3722937501
 20
211.1374806621
 10
271.5965316069
 20
209.9850523465
 10
269.8841036762
 20
208.7856558699
 10
268.2374928148
 20
207.5410302423
 10
266.6590864511
 20
206.252980052
 10
265.1511731234
 20
204.9233728486
 10
263.7159391618
 20
203.5541364355
 10
262.3554655184
 20
202.1472560745
 10
261.07172475
 20
200.7047716078
 10
259.8665781578
 20
199.2287744997
 10
258.7417730893
 20
197.7214048052
 10
257.6989404042
 20
196.184848066
 10
256.7395921103
 20
194.6213321426
 10
255.8651191709
 20
193.0331239836
 10
255.0767894881
 20
191.422526339
 10
254.3757460646
 20
189.7918744214
 10
253.7630053464
 20
188.1435325201
 10
253.2394557489
 20
186.4798905735
 10
252.8058563689
 20
184.8033607032
 10
252.4628358842
 20
183.1163737172
 10
252.2108916416
 20
181.4213755855
 10
252.0503889362
 20
179.7208238933
 10
251.9815604816
 20
178.0171842779
 10
252.0045060725
 20
176.3129268539
 10
252.1191924399
 20
174.6105226317
 10
252.3254532996
 20
172.9124399346
 10
252.622989593
 20
171.2211408203
 10
253.011369921
 20
169.5390775106
 10
253.4900311693
 20
167.8686888367
 10
254.0582793247
 20
166.2123967024
 10
254.7152904817
 20
164.572602573
 10
255.4601120371
 20
162.9516839931
 10
256.2916640708
 20
161.3519911398
 10
257.2087409117
 20
159.7758434148
 10
258.2100128862
 20
158.2255260815
 10
259.2940282456
 20
156.703286952
 10
260.4592152714
 20
155.2113331274
 10
261.7038845535
 20
153.7518277981
 10
263.0262314408
 20
152.3268871074
 10
264.4243386564
 20
150.9385770829
 10
265.8961790787
 20
149.5889106416
 10
267.4396186798
 20
148.2798446707
 10
269.0524196197
 20
147.0132771907
 10
270.7322434914
 20
145.7910446035
 10
272.4766547107
 20
144.6149190293
 10
274.2831240482
 20
143.4866057379
 10
276.149032296
 20
142.4077406757
 10
278.0716740656
 20
141.3798880937
 10
280.0482617102
 20
140.4045382802
 10
282.0759293667
 20
139.4831053989
 10
284.1517371108
 20
138.6169254396
 10
286.2726752197
 20
137.8072542803
 10
288.435668536
 20
137.0552658668
 10
290.6375809261
 20
136.3620505104
 10
292.8752198276
 20
135.7286133072
 10
295.145340878
 20
135.1558726804
 10
297.4446526188
 20
134.6446590493
 10
299.7698212677
 20
134.1957136248
 10
302.1174755526
 20
133.8096873348
 10
304.4842115991
 20
133.4871398804
 10
306.8665978663
 20
133.2285389248
 10
309.2611801217
 20
133.0342594145
 10
311.6644864502
 20
132.9045830363
 10
314.0730322871
 20
132.8396978085
 10
316.4833254715
 20
132.8396978085
 10
318.8918713085
 20
132.9045830363
 10
321.2951776369
 20
133.0342594145
 10
323.6897598924
 20
133.2285389248
 10
326.0721461595
 20
133.4871398804
 10
328.438882206
 20
133.8096873348
 10
330.7865364909
 20
134.1957136248
 10
333.1117051398
 20
134.6446590493
 10
335.4110168806
 20
135.1558726804
 10
337.681137931
 20
135.7286133072
 10
339.9187768325
 20
136.3620505104
 10
342.1206892226
 20
137.0552658668
 10
344.2836825389
 20
137.8072542803
 10
346.4046206479
 20
138.6169254396
 10
348.480428392
 20
139.4831053989
 10
350.5080960484
 20
140.4045382802
 10
352.484683693
 20
141.3798880937
 10
354.4073254626
 20
142.4077406757
 10
356.2732337105
 20
143.4866057379
 10
358.079703048
 20
144.6149190293
 10
359.8241142673
 20
145.7910446035
 10
361.5039381389
 20
147.0132771907
 10
363.1167390788
 20
148.2798446707
 10
364.6601786799
 20
149.5889106416
 10
366.1320191022
 20
150.9385770829
 10
367.5301263179
 20
152.3268871074
 10
368.8524732051
 20
153.7518277981
 10
370.0971424873
 20
155.2113331274
 10
371.262329513
 20
156.703286952
 10
372.3463448724
 20
158.2255260815
 10
373.3476168469
 20
159.7758434148
 10
374.2646936879
 20
161.3519911398
 10
375.0962457215
 20
162.9516839931
 10
375.8410672769
 20
164.572602573
 10
376.498078434
 20
166.2123967024
 10
377.0663265894
 20
167.8686888367
 10
377.5449878376
 20
169.5390775106
 10
377.9333681656
 20
171.2211408203
 10
378.230904459
 20
172.9124399346
 10
378.4371653187
 20
174.6105226317
 10
378.5518516861
 20
176.3129268539
 10
378.574797277
 20
178.0171842779
 10
378.5059688224
 20
179.7208238933
 10
378.345466117
 20
181.4213755855
 10
378.0935218744
 20
183.1163737172
 10
377.7505013897
 20
184.8033607032
 10
377.3169020098
 20
186.4798905735
 10
376.7933524122
 20
188.1435325201
 10
376.180611694
 20
189.7918744214
 10
375.4795682705
 20
191.422526339
 10
374.6912385877
 20
193.0331239836
 10
373.8167656483
 20
194.6213321426
 10
372.8574173544
 20
196.184848066
 10
371.8145846693
 20
197.7214048052
 10
370.6897796008
 20
199.2287744997
 10
369.4846330086
 20
200.7047716078
 10
368.2008922402
 20
202.1472560745
 10
366.8404185968
 20
203.5541364355
 10
365.4051846352
 20
204.9233728486
 10
363.8972713075
 20
206.252980052
 10
362.3188649438
 20
207.5410302423
 10
360.6722540824
 20
208.7856558699
 10
358.9598261517
 20
209.9850523465
 10
357.1840640085
 20
211.1374806621
 10
355.347542338
 20
212.2412699057
 10
353.4529239213
 20
213.2948196884
 10
351.5029557737
 20
214.2966024637
 10
349.5004651628
 20
215.2451657425
 10
347.4483555084
 20
216.1391341986
 10
345.3496021735
 20
216.9772116632
 10
343.2072481496
 20
217.7581830041
 10
341.0243996453
 20
218.4809158876
 10
338.8042215823
 20
219.1443624201
 10
336.5499330064
 20
219.7475606675
 10
334.2648024207
 20
220.28963605
 10
331.952143046
 20
220.7698026101
 10
329.6153080173
 20
221.1873641523
 10
327.257685522
 20
221.5417152522
 10
324.8826938873
 20
221.8323421346
 10
322.493776624
 20
222.0588234183
 10
320.0943974339
 20
222.2208307271
 10
317.6880351872
 20
222.3181291659
 10
315.2781788793
 20
222.3505776612
  0
LWPOLYLINE
  5
2AA
330
1F
100
AcDbEntity
  8
0
  6
Continuous
 62
     7
370
    25
100
AcDbPolyline
 90
       86
 70
   128
 43
0.0
 10
252.0015530902
 20
176.388239501
 10
251.981560463
 20
175.6115001778
 10
252.0045060538
 20
173.9072427533
 10
252.1191924213
 20
172.2048385306
 10
252.325453281
 20
170.5067558331
 10
252.6229895745
 20
168.8154567182
 10
253.0113699027
 20
167.1333934081
 10
253.490031151
 20
165.4630047336
 10
254.0582793066
 20
163.8067125989
 10
254.7152904639
 20
162.1669184689
 10
255.4601120195
 20
160.5459998886
 10
256.2916640534
 20
158.9463070348
 10
257.2087408946
 20
157.3701593093
 10
258.2100128694
 20
155.8198419756
 10
259.2940282291
 20
154.2976028456
 10
260.4592152552
 20
152.8056490206
 10
261.7038845377
 20
151.3461436909
 10
263.0262314253
 20
149.9212029997
 10
264.4243386414
 20
148.5328929749
 10
265.8961790642
 20
147.1832265331
 10
267.4396186657
 20
145.8741605619
 10
269.0524196061
 20
144.6075930815
 10
270.7322434782
 20
143.3853604939
 10
272.476654698
 20
142.2092349194
 10
274.2831240361
 20
141.0809216277
 10
276.1490322844
 20
140.0020565651
 10
278.0716740546
 20
138.9742039829
 10
280.0482616998
 20
137.998854169
 10
282.0759293569
 20
137.0774212875
 10
284.1517371016
 20
136.2112413279
 10
286.2726752112
 20
135.4015701683
 10
288.4356685281
 20
134.6495817546
 10
290.6375809189
 20
133.9563663981
 10
292.875219821
 20
133.3229291946
 10
295.1453408721
 20
132.7501885677
 10
297.4446526135
 20
132.2389749365
 10
299.7698212632
 20
131.7900295118
 10
302.1174755487
 20
131.4040032217
 10
304.4842115959
 20
131.0814557672
 10
306.8665978638
 20
130.8228548115
 10
309.2611801199
 20
130.6285753012
 10
311.6644864491
 20
130.4988989229
 10
314.0730322868
 20
130.4340136951
 10
316.4833254718
 20
130.4340136951
 10
318.8918713095
 20
130.4988989229
 10
321.2951776387
 20
130.6285753012
 10
323.6897598948
 20
130.8228548115
 10
326.0721461627
 20
131.0814557672
 10
328.4388822099
 20
131.4040032217
 10
330.7865364955
 20
131.7900295118
 10
333.1117051451
 20
132.2389749365
 10
335.4110168865
 20
132.7501885677
 10
337.6811379376
 20
133.3229291946
 10
339.9187768397
 20
133.9563663981
 10
342.1206892305
 20
134.6495817546
 10
344.2836825475
 20
135.4015701683
 10
346.404620657
 20
136.2112413279
 10
348.4804284018
 20
137.0774212875
 10
350.5080960588
 20
137.998854169
 10
352.484683704
 20
138.9742039829
 10
354.4073254742
 20
140.0020565651
 10
356.2732337226
 20
141.0809216277
 10
358.0797030606
 20
142.2092349194
 10
359.8241142804
 20
143.3853604939
 10
361.5039381525
 20
144.6075930815
 10
363.1167390929
 20
145.8741605619
 10
364.6601786945
 20
147.1832265331
 10
366.1320191172
 20
148.5328929749
 10
367.5301263333
 20
149.9212029997
 10
368.8524732209
 20
151.3461436909
 10
370.0971425034
 20
152.8056490206
 10
371.2623295295
 20
154.2976028456
 10
372.3463448892
 20
155.8198419756
 10
373.347616864
 20
157.3701593093
 10
374.2646937053
 20
158.9463070348
 10
375.0962457392
 20
160.5459998886
 10
375.8410672948
 20
162.1669184689
 10
376.498078452
 20
163.8067125989
 10
377.0663266076
 20
165.4630047336
 10
377.544987856
 20
167.1333934081
 10
377.9333681841
 20
168.8154567182
 10
378.2309044776
 20
170.5067558331
 10
378.4371653374
 20
172.2048385306
 10
378.5518517048
 20
173.9072427533
 10
378.5747972957
 20
175.6115001778
 10
378.5548046684
 20
176.388239501
  0
LWPOLYLINE
  5
2AB
330
1F
100
AcDbEntity
  8
0
  6
Continuous
 62
     7
370
    25
100
AcDbPolyline
 90
       79
 70
   128
 43
0.0
 10
372.1614274131
 20
178.8778414161
 10
372.1152949946
 20
177.2582434009
 10
371.9769725658
 20
175.6412723796
 10
371.7466844864
 20
174.0295510851
 10
371.4248042843
 20
172.4256937353
 10
371.0118540505
 20
170.8323017926
 10
370.5085035918
 20
169.2519597446
 10
369.9155693445
 20
167.6872309118
 10
369.23401305
 20
166.1406532902
 10
368.4649401951
 20
164.6147354344
 10
367.609598219
 20
163.1119523886
 10
366.6693744892
 20
161.6347416724
 10
365.6457940523
 20
160.1854993271
 10
364.5405171594
 20
158.766576029
 10
363.3553365736
 20
157.3802732769
 10
362.0921746623
 20
156.028839659
 10
360.7530802786
 20
154.7144672054
 10
359.3402254385
 20
153.4392878332
 10
357.8559017978
 20
152.205369888
 10
356.3025169348
 20
151.014714789
 10
354.6825904454
 20
149.8692537834
 10
352.9987498564
 20
148.770844813
 10
351.2537263634
 20
147.7212695012
 10
349.4503504007
 20
146.7222302629
 10
347.5915470509
 20
145.7753475435
 10
345.6803312998
 20
144.8821571903
 10
343.7198031462
 20
144.0441079612
 10
341.7131425741
 20
143.2625591751
 10
339.6636043942
 20
142.538778507
 10
337.5745129649
 20
141.8739399319
 10
335.4492568003
 20
141.2691218203
 10
333.2912830734
 20
140.7253051895
 10
331.1040920257
 20
140.2433721119
 10
328.891231289
 20
139.8241042847
 10
326.6562901315
 20
139.4681817621
 10
324.402893636
 20
139.1761818515
 10
322.1346968197
 20
138.9485781779
 10
319.8553787063
 20
138.7857399153
 10
317.568636358
 20
138.6879311879
 10
315.2781788793
 20
138.6553106419
 10
312.9877214006
 20
138.6879311879
 10
310.7009790523
 20
138.7857399153
 10
308.4216609389
 20
138.9485781779
 10
306.1534641226
 20
139.1761818515
 10
303.9000676271
 20
139.4681817621
 10
301.6651264696
 20
139.8241042847
 10
299.4522657329
 20
140.2433721119
 10
297.2650746852
 20
140.7253051895
 10
295.1071009584
 20
141.2691218203
 10
292.9818447937
 20
141.8739399319
 10
290.8927533644
 20
142.538778507
 10
288.8432151845
 20
143.2625591751
 10
286.8365546124
 20
144.0441079612
 10
284.8760264588
 20
144.8821571903
 10
282.9648107077
 20
145.7753475435
 10
281.1060073579
 20
146.7222302629
 10
279.3026313953
 20
147.7212695012
 10
277.5576079022
 20
148.770844813
 10
275.8737673132
 20
149.8692537834
 10
274.2538408239
 20
151.014714789
 10
272.7004559609
 20
152.205369888
 10
271.2161323201
 20
153.4392878332
 10
269.8032774801
 20
154.7144672054
 10
268.4641830964
 20
156.028839659
 10
267.201021185
 20
157.3802732769
 10
266.0158405992
 20
158.766576029
 10
264.9105637063
 20
160.1854993271
 10
263.8869832694
 20
161.6347416724
 10
262.9467595397
 20
163.1119523886
 10
262.0914175635
 20
164.6147354344
 10
261.3223447086
 20
166.1406532902
 10
260.6407884141
 20
167.6872309118
 10
260.0478541668
 20
169.2519597446
 10
259.5445037081
 20
170.8323017926
 10
259.1315534743
 20
172.4256937353
 10
258.8096732723
 20
174.0295510851
 10
258.5793851928
 20
175.6412723796
 10
258.4410627641
 20
177.2582434009
 10
258.3949303455
 20
178.8778414161
  0
ARC
  5
2AC
330
1F
100
AcDbEntity
  8
0
  6
Continuous
 62
     7
370
    25
100
AcDbCircle
 10
314.5619233982
 20
134.5294054396
 30
0.0
 40
83.59759285178474
100
AcDbArc
 50
100.3798667532
 51
103.2698799046
  0
ARC
  5
2AD
330
1F
100
AcDbEntity
  8
0
  6
Continuous
 62
     7
370
    25
100
AcDbCircle
 10
315.9944343603
 20
134.529405439
 30
0.0
 40
83.59759285237224
100
AcDbArc
 50
76.7301200954
 51
79.6201332468
  0
LWPOLYLINE
  5
2AE
330
1F
100
AcDbEntity
  8
0
  6
Continuous
 62
     7
370
    25
100
AcDbPolyline
 90
       40
 70
   128
 43
0.0
 10
315.2781788793
 20
218.4379331254
 10
312.9877214006
 20
218.4053125794
 10
310.7009790523
 20
218.307503852
 10
308.4216609389
 20
218.1446655894
 10
306.1534641227
 20
217.9170619158
 10
303.9000676271
 20
217.6250620052
 10
301.6651264696
 20
217.2691394825
 10
299.4522657329
 20
216.8498716554
 10
297.2650746852
 20
216.3679385778
 10
295.1071009584
 20
215.8241219469
 10
292.9818447937
 20
215.2193038354
 10
290.8927533644
 20
214.5544652602
 10
288.8432151845
 20
213.8306845922
 10
286.8365546124
 20
213.0491358061
 10
284.8760264589
 20
212.211086577
 10
282.9648107077
 20
211.3178962237
 10
281.1060073579
 20
210.3710135044
 10
279.3026313953
 20
209.3719742661
 10
277.5576079022
 20
208.3223989543
 10
275.8737673132
 20
207.2239899839
 10
274.2538408239
 20
206.0785289782
 10
272.7004559609
 20
204.8878738793
 10
271.2161323202
 20
203.6539559341
 10
269.8032774801
 20
202.3787765618
 10
268.4641830964
 20
201.0644041083
 10
267.201021185
 20
199.7129704904
 10
266.0158405993
 20
198.3266677383
 10
264.9105637063
 20
196.9077444402
 10
263.8869832694
 20
195.4585020949
 10
262.9467595397
 20
193.9812913787
 10
262.0914175635
 20
192.4785083329
 10
261.3223447087
 20
190.9525904771
 10
260.6407884142
 20
189.4060128555
 10
260.0478541668
 20
187.8412840227
 10
259.5445037081
 20
186.2609419747
 10
259.1315534743
 20
184.667550032
 10
258.8096732723
 20
183.0636926822
 10
258.5793851929
 20
181.4519713877
 10
258.4410627641
 20
179.8350003664
 10
258.3968590019
 20
178.5466218842
  0
LWPOLYLINE
  5
2AF
330
1F
100
AcDbEntity
  8
0
  6
Continuous
 62
     7
370
    25
100
AcDbPolyline
 90
       40
 70
   128
 43
0.0
 10
372.1594987567
 20
178.5466218842
 10
372.1152949945
 20
179.8350003664
 10
371.9769725658
 20
181.4519713877
 10
371.7466844863
 20
183.0636926822
 10
371.4248042843
 20
184.667550032
 10
371.0118540505
 20
186.2609419747
 10
370.5085035918
 20
187.8412840227
 10
369.9155693444
 20
189.4060128555
 10
369.2340130499
 20
190.9525904771
 10
368.4649401951
 20
192.4785083329
 10
367.6095982189
 20
193.9812913787
 10
366.6693744892
 20
195.4585020949
 10
365.6457940523
 20
196.9077444402
 10
364.5405171593
 20
198.3266677383
 10
363.3553365736
 20
199.7129704904
 10
362.0921746622
 20
201.0644041083
 10
360.7530802785
 20
202.3787765618
 10
359.3402254384
 20
203.6539559341
 10
357.8559017977
 20
204.8878738793
 10
356.3025169347
 20
206.0785289782
 10
354.6825904454
 20
207.2239899839
 10
352.9987498564
 20
208.3223989543
 10
351.2537263633
 20
209.3719742661
 10
349.4503504007
 20
210.3710135044
 10
347.5915470509
 20
211.3178962237
 10
345.6803312997
 20
212.211086577
 10
343.7198031462
 20
213.0491358061
 10
341.7131425741
 20
213.8306845922
 10
339.6636043942
 20
214.5544652602
 10
337.5745129649
 20
215.2193038354
 10
335.4492568002
 20
215.8241219469
 10
333.2912830734
 20
216.3679385778
 10
331.1040920257
 20
216.8498716554
 10
328.891231289
 20
217.2691394825
 10
326.6562901315
 20
217.6250620052
 10
324.402893636
 20
217.9170619158
 10
322.1346968197
 20
218.1446655894
 10
319.8553787063
 20
218.307503852
 10
317.568636358
 20
218.4053125794
 10
315.2781788793
 20
218.4379331254
  0
ARC
  5
2B0
330
1F
100
AcDbEntity
  8
0
  6
Continuous
 62
     7
370
    25
100
AcDbCircle
 10
285.8111295318
 20
173.882782212
 30
0.0
 40
34.19054008886504
100
AcDbArc
 50
171.3231356894
 51
218.1502886027
  0
ARC
  5
2B1
330
1F
100
AcDbEntity
  8
0
  6
Continuous
 62
     7
370
    25
100
AcDbCircle
 10
344.7452282268
 20
173.882782212
 30
0.0
 40
34.19054008886181
100
AcDbArc
 50
321.8497113973
 51
8.6768643106
  0
LINE
  5
2B2
330
1F
100
AcDbEntity
  8
0
  6
Continuous
 62
     7
370
    25
100
AcDbLine
 10
277.0233966601
 20
207.8765864542
 30
0.0
 11
276.0078559439
 21
207.3147640307
 31
0.0
  0
LINE
  5
2B3
330
1F
100
AcDbEntity
  8
0
  6
Continuous
 62
     7
370
    25
100
AcDbLine
 10
354.5485018147
 20
207.3147640307
 30
0.0
 11
353.5329610985
 21
207.8765864542
 31
0.0
  0
LWPOLYLINE
  5
2B4
330
1F
100
AcDbEntity
  8
0
  6
Continuous
 62
     7
370
    25
100
AcDbPolyline
 90
       41
 70
   128
 43
0.0
 10
315.2781788793
 20
218.338056161
 10
312.9888564448
 20
218.3054517803
 10
310.7032472996
 20
218.2076915223
 10
308.4250587102
 20
218.0449339548
 10
306.1579859067
 20
217.817443071
 10
303.9057060897
 20
217.525587862
 10
301.671872465
 20
217.169841718
 10
299.4601083191
 20
216.7507816605
 10
297.2740011416
 20
216.2690874065
 10
295.1170968061
 20
215.7255402658
 10
292.9928938195
 20
215.121021874
 10
290.9048376467
 20
214.4565127619
 10
288.8563151226
 20
213.7330907659
 10
286.8506489581
 20
212.951929279
 10
284.8910923511
 20
212.1142953481
 10
282.9808237095
 20
211.2215476184
 10
281.1229414962
 20
210.2751341301
 10
279.3204592028
 20
209.2765899692
 10
277.5763004622
 20
208.2275347781
 10
275.8932943062
 20
207.129670128
 10
274.2741705771
 20
205.9847767596
 10
272.7215554994
 20
204.7947116939
 10
271.2379674204
 20
203.561405221
 10
269.8258127254
 20
202.2868577683
 10
268.4873819346
 20
200.9731366566
 10
267.2248459875
 20
199.6223727463
 10
266.0402527221
 20
198.2367569814
 10
264.935523553
 20
196.8185368357
 10
263.9124503549
 20
195.3700126674
 10
262.9726925563
 20
193.8935339882
 10
262.1177744478
 20
192.3914956517
 10
261.3490827097
 20
190.8663339698
 10
260.6678641628
 20
189.3205227601
 10
260.0752237461
 20
187.7565693341
 10
259.5721227244
 20
186.1770104301
 10
259.1593771296
 20
184.5844080983
 10
258.8376564364
 20
182.9813455456
 10
258.607482477
 20
181.3704229452
 10
258.4692285944
 20
179.7542532195
 10
258.4231190369
 20
178.1354578017
 10
258.4319483012
 20
177.4269739469
  0
LWPOLYLINE
  5
2B5
330
1F
100
AcDbEntity
  8
0
  6
Continuous
 62
     7
370
    25
100
AcDbPolyline
 90
       41
 70
   128
 43
0.0
 10
372.1244094574
 20
177.4269739469
 10
372.1332387217
 20
178.1354578017
 10
372.0871291642
 20
179.7542532195
 10
371.9488752816
 20
181.3704229452
 10
371.7187013222
 20
182.9813455456
 10
371.3969806291
 20
184.5844080983
 10
370.9842350342
 20
186.1770104301
 10
370.4811340126
 20
187.7565693341
 10
369.8884935958
 20
189.3205227601
 10
369.2072750489
 20
190.8663339698
 10
368.4385833108
 20
192.3914956517
 10
367.5836652023
 20
193.8935339882
 10
366.6439074037
 20
195.3700126674
 10
365.6208342056
 20
196.8185368357
 10
364.5161050365
 20
198.2367569814
 10
363.3315117711
 20
199.6223727463
 10
362.068975824
 20
200.9731366566
 10
360.7305450332
 20
202.2868577683
 10
359.3183903382
 20
203.561405221
 10
357.8348022593
 20
204.7947116939
 10
356.2821871815
 20
205.9847767596
 10
354.6630634524
 20
207.129670128
 10
352.9800572964
 20
208.2275347781
 10
351.2358985558
 20
209.2765899692
 10
349.4334162624
 20
210.2751341301
 10
347.5755340491
 20
211.2215476184
 10
345.6652654075
 20
212.1142953481
 10
343.7057088005
 20
212.951929279
 10
341.700042636
 20
213.7330907659
 10
339.6515201119
 20
214.4565127619
 10
337.5634639391
 20
215.121021874
 10
335.4392609525
 20
215.7255402658
 10
333.2823566171
 20
216.2690874065
 10
331.0962494395
 20
216.7507816605
 10
328.8844852936
 20
217.169841718
 10
326.650651669
 20
217.525587862
 10
324.3983718519
 20
217.817443071
 10
322.1312990484
 20
218.0449339548
 10
319.853110459
 20
218.2076915223
 10
317.5675013138
 20
218.3054517803
 10
315.2781788793
 20
218.338056161
  0
LWPOLYLINE
  5
2B6
330
1F
100
AcDbEntity
  8
0
  6
Continuous
 62
     7
370
    25
100
AcDbPolyline
 90
        3
 70
   128
 43
0.0
 10
354.6208951174
 20
207.1582807923
 10
355.2859566376
 20
206.775808108
 10
355.5596929185
 20
206.6152579007
  0
LWPOLYLINE
  5
2B7
330
1F
100
AcDbEntity
  8
0
  6
Continuous
 62
     7
370
    25
100
AcDbPolyline
 90
        3
 70
   128
 43
0.0
 10
274.9966648401
 20
206.6152579007
 10
275.270401121
 20
206.775808108
 10
275.9354626412
 20
207.1582807923
  0
LINE
  5
2B8
330
1F
100
AcDbEntity
  8
0
  6
Continuous
 62
     7
370
    25
100
AcDbLine
 10
272.5420012712
 20
204.6507076886
 30
0.0
 11
271.8325072755
 21
204.1786223234
 31
0.0
  0
LINE
  5
2B9
330
1F
100
AcDbEntity
  8
0
  6
Continuous
 62
     7
370
    25
100
AcDbLine
 10
358.7238504831
 20
204.1786223234
 30
0.0
 11
358.0143564874
 21
204.6507076886
 31
0.0
  0
LINE
  5
2BA
330
1F
100
AcDbEntity
  8
0
  6
Continuous
 62
     7
370
    25
100
AcDbLine
 10
271.0237410286
 20
203.3747383006
 30
0.0
 11
270.4363167245
 21
202.9632443
 31
0.0
  0
LWPOLYLINE
  5
2BB
330
1F
100
AcDbEntity
  8
0
  6
Continuous
 62
     7
370
    25
100
AcDbPolyline
 90
       80
 70
   128
 43
0.0
 10
252.2536145441
 20
167.2047572747
 10
252.3254532996
 20
166.6932083213
 10
252.622989593
 20
165.0019092069
 10
253.011369921
 20
163.3198458973
 10
253.4900311693
 20
161.6494572234
 10
254.0582793247
 20
159.9931650891
 10
254.7152904817
 20
158.3533709596
 10
255.4601120371
 20
156.7324523798
 10
256.2916640708
 20
155.1327595265
 10
257.2087409117
 20
153.5566118014
 10
258.2100128862
 20
152.0062944682
 10
259.2940282456
 20
150.4840553387
 10
260.4592152714
 20
148.992101514
 10
261.7038845535
 20
147.5325961848
 10
263.0262314408
 20
146.107655494
 10
264.4243386564
 20
144.7193454696
 10
265.8961790787
 20
143.3696790282
 10
267.4396186798
 20
142.0606130574
 10
269.0524196197
 20
140.7940455774
 10
270.7322434914
 20
139.5718129901
 10
272.4766547107
 20
138.395687416
 10
274.2831240482
 20
137.2673741246
 10
276.149032296
 20
136.1885090623
 10
278.0716740656
 20
135.1606564804
 10
280.0482617102
 20
134.1853066668
 10
282.0759293667
 20
133.2638737856
 10
284.1517371108
 20
132.3976938262
 10
286.2726752197
 20
131.5880226669
 10
288.435668536
 20
130.8360342534
 10
290.6375809261
 20
130.1428188971
 10
292.8752198276
 20
129.5093816938
 10
295.145340878
 20
128.9366410671
 10
297.4446526188
 20
128.425427436
 10
299.7698212677
 20
127.9764820115
 10
302.1174755526
 20
127.5904557214
 10
304.4842115991
 20
127.2679082671
 10
306.8665978663
 20
127.0093073115
 10
309.2611801217
 20
126.8150278012
 10
311.6644864502
 20
126.685351423
 10
314.0730322871
 20
126.6204661952
 10
316.4833254715
 20
126.6204661952
 10
318.8918713085
 20
126.685351423
 10
321.2951776369
 20
126.8150278012
 10
323.6897598924
 20
127.0093073115
 10
326.0721461595
 20
127.2679082671
 10
328.438882206
 20
127.5904557214
 10
330.7865364909
 20
127.9764820115
 10
333.1117051398
 20
128.425427436
 10
335.4110168806
 20
128.9366410671
 10
337.681137931
 20
129.5093816938
 10
339.9187768325
 20
130.1428188971
 10
342.1206892226
 20
130.8360342534
 10
344.2836825389
 20
131.5880226669
 10
346.4046206479
 20
132.3976938262
 10
348.480428392
 20
133.2638737856
 10
350.5080960484
 20
134.1853066668
 10
352.484683693
 20
135.1606564804
 10
354.4073254626
 20
136.1885090623
 10
356.2732337105
 20
137.2673741246
 10
358.079703048
 20
138.395687416
 10
359.8241142673
 20
139.5718129901
 10
361.5039381389
 20
140.7940455774
 10
363.1167390788
 20
142.0606130574
 10
364.6601786799
 20
143.3696790282
 10
366.1320191022
 20
144.7193454696
 10
367.5301263179
 20
146.107655494
 10
368.8524732051
 20
147.5325961848
 10
370.0971424873
 20
148.992101514
 10
371.262329513
 20
150.4840553387
 10
372.3463448724
 20
152.0062944682
 10
373.3476168469
 20
153.5566118014
 10
374.2646936879
 20
155.1327595265
 10
375.0962457215
 20
156.7324523798
 10
375.8410672769
 20
158.3533709596
 10
376.498078434
 20
159.9931650891
 10
377.0663265894
 20
161.6494572234
 10
377.5449878376
 20
163.3198458973
 10
377.9333681656
 20
165.0019092069
 10
378.230904459
 20
166.6932083213
 10
378.3027432145
 20
167.2047572747
  0
LINE
  5
2BC
330
1F
100
AcDbEntity
  8
0
  6
Continuous
 62
     7
370
    25
100
AcDbLine
 10
360.1200410341
 20
202.9632443
 30
0.0
 11
359.53261673
 21
203.3747383006
 31
0.0
  0
LINE
  5
2BD
330
1F
100
AcDbEntity
  8
0
  6
Continuous
 62
     7
370
    25
100
AcDbLine
 10
264.9349923813
 20
196.8178211816
 30
0.0
 11
264.6357754316
 21
196.532756647
 31
0.0
  0
LINE
  5
2BE
330
1F
100
AcDbEntity
  8
0
  6
Continuous
 62
     7
370
    25
100
AcDbLine
 10
365.920582327
 20
196.532756647
 30
0.0
 11
365.6213653773
 21
196.8178211816
 31
0.0
  0
LWPOLYLINE
  5
2BF
330
1F
100
AcDbEntity
  8
0
  6
Continuous
 62
     7
370
    25
100
AcDbPolyline
 90
       51
 70
   128
 43
0.0
 10
315.2781788793
 20
214.9983572182
 10
313.0320781032
 20
214.9659528437
 10
310.7897157402
 20
214.8687936541
 10
308.5548239811
 20
214.7070413612
 10
306.3311225827
 20
214.4809651858
 10
304.1223126765
 20
214.1909414093
 10
301.9320706087
 20
213.8374527477
 10
299.7640418209
 20
213.4210875481
 10
297.6218347832
 20
212.9425388091
 10
295.5090149878
 20
212.402603028
 10
293.4290990147
 20
211.8021788745
 10
291.3855486787
 20
211.1422656954
 10
289.3817652678
 20
210.4239618511
 10
287.4210838816
 20
209.6484628874
 10
285.5067678809
 20
208.8170595459
 10
283.6420034556
 20
207.9311356153
 10
281.8298943222
 20
206.9921656285
 10
280.0734565575
 20
206.0017124085
 10
278.3756135787
 20
204.9614244669
 10
276.739191278
 20
203.8730332603
 10
275.1669133188
 20
202.7383503085
 10
273.6613966025
 20
201.5592641792
 10
272.2251469132
 20
200.337737345
 10
270.8605547468
 20
199.0758029166
 10
269.5698913322
 20
197.7755612596
 10
268.3553048513
 20
196.4391764976
 10
267.2188168635
 20
195.0688729114
 10
266.1623189407
 20
193.6669312359
 10
265.1875695197
 20
192.2356848648
 10
264.2961909745
 20
190.7775159664
 10
263.4896669168
 20
189.2948515189
 10
262.7693397264
 20
187.790159271
 10
262.1364083166
 20
186.2659436343
 10
261.5919261394
 20
184.7247415155
 10
261.1367994317
 20
183.1691180933
 10
260.7717857069
 20
181.6016625494
 10
260.4974924943
 20
180.0249837589
 10
260.3143763279
 20
178.441705948
 10
260.2227419866
 20
176.8544643264
 10
260.2227419866
 20
175.265900701
 10
260.3143763279
 20
173.6786590794
 10
260.4974924943
 20
172.0953812685
 10
260.7717857069
 20
170.518702478
 10
261.1367994317
 20
168.9512469341
 10
261.5919261394
 20
167.3956235119
 10
262.1364083166
 20
165.854421393
 10
262.7693397264
 20
164.3302057564
 10
263.4896669168
 20
162.8255135085
 10
264.2961909745
 20
161.3428490609
 10
265.1875695197
 20
159.8846801625
 10
265.4880165336
 20
159.4273440272
  0
LWPOLYLINE
  5
2C0
330
1F
100
AcDbEntity
  8
0
  6
Continuous
 62
     7
370
    25
100
AcDbPolyline
 90
       51
 70
   128
 43
0.0
 10
365.068341225
 20
159.4273440272
 10
365.3687882389
 20
159.8846801625
 10
366.2601667841
 20
161.3428490609
 10
367.0666908418
 20
162.8255135085
 10
367.7870180323
 20
164.3302057564
 10
368.419949442
 20
165.854421393
 10
368.9644316192
 20
167.3956235119
 10
369.4195583269
 20
168.9512469341
 10
369.7845720518
 20
170.518702478
 10
370.0588652643
 20
172.0953812685
 10
370.2419814307
 20
173.6786590794
 10
370.333615772
 20
175.265900701
 10
370.333615772
 20
176.8544643264
 10
370.2419814307
 20
178.441705948
 10
370.0588652643
 20
180.0249837589
 10
369.7845720518
 20
181.6016625494
 10
369.4195583269
 20
183.1691180933
 10
368.9644316192
 20
184.7247415155
 10
368.419949442
 20
186.2659436343
 10
367.7870180323
 20
187.790159271
 10
367.0666908418
 20
189.2948515189
 10
366.2601667841
 20
190.7775159664
 10
365.3687882389
 20
192.2356848648
 10
364.3940388179
 20
193.6669312359
 10
363.3375408952
 20
195.0688729114
 10
362.2010529073
 20
196.4391764976
 10
360.9864664264
 20
197.7755612596
 10
359.6958030118
 20
199.0758029166
 10
358.3312108454
 20
200.337737345
 10
356.8949611561
 20
201.5592641792
 10
355.3894444399
 20
202.7383503085
 10
353.8171664806
 20
203.8730332603
 10
352.1807441799
 20
204.9614244669
 10
350.4829012012
 20
206.0017124085
 10
348.7264634364
 20
206.9921656285
 10
346.914354303
 20
207.9311356153
 10
345.0495898778
 20
208.8170595459
 10
343.135273877
 20
209.6484628874
 10
341.1745924908
 20
210.4239618511
 10
339.1708090799
 20
211.1422656954
 10
337.1272587439
 20
211.8021788745
 10
335.0473427708
 20
212.402603028
 10
332.9345229754
 20
212.9425388091
 10
330.7923159377
 20
213.4210875481
 10
328.62428715
 20
213.8374527477
 10
326.4340450821
 20
214.1909414093
 10
324.225235176
 20
214.4809651858
 10
322.0015337776
 20
214.7070413612
 10
319.7666420185
 20
214.8687936541
 10
317.5242796554
 20
214.9659528437
 10
315.2781788793
 20
214.9983572182
  0
LINE
  5
2C1
330
1F
100
AcDbEntity
  8
0
  6
Continuous
 62
     7
370
    25
100
AcDbLine
 10
264.5400818862
 20
196.275790533
 30
0.0
 11
264.2695355308
 21
196.0174003781
 31
0.0
  0
LWPOLYLINE
  5
2C2
330
1F
100
AcDbEntity
  8
0
  6
Continuous
 62
     7
370
    25
100
AcDbPolyline
 90
       84
 70
   128
 43
0.0
 10
251.9913179839
 20
168.619275427
 10
252.004506059
 20
168.2350638647
 10
252.1191924264
 20
166.5326596421
 10
252.3254532862
 20
164.8345769447
 10
252.6229895797
 20
163.1432778299
 10
253.0113699077
 20
161.4612145199
 10
253.4900311561
 20
159.7908258457
 10
254.0582793116
 20
158.134533711
 10
254.7152904688
 20
156.4947395812
 10
255.4601120244
 20
154.873821001
 10
256.2916640582
 20
153.2741281474
 10
257.2087408993
 20
151.697980422
 10
258.210012874
 20
150.1476630885
 10
259.2940282337
 20
148.6254239586
 10
260.4592152597
 20
147.1334701337
 10
261.7038845421
 20
145.6739648041
 10
263.0262314296
 20
144.249024113
 10
264.4243386456
 20
142.8607140883
 10
265.8961790682
 20
141.5110476467
 10
267.4396186696
 20
140.2019816755
 10
269.0524196099
 20
138.9354141953
 10
270.7322434819
 20
137.7131816077
 10
272.4766547015
 20
136.5370560333
 10
274.2831240394
 20
135.4087427417
 10
276.1490322876
 20
134.3298776792
 10
278.0716740576
 20
133.3020250971
 10
280.0482617027
 20
132.3266752833
 10
282.0759293596
 20
131.4052424018
 10
284.1517371041
 20
130.5390624423
 10
286.2726752135
 20
129.7293912828
 10
288.4356685303
 20
128.9774028692
 10
290.6375809209
 20
128.2841875127
 10
292.8752198229
 20
127.6507503093
 10
295.1453408737
 20
127.0780096824
 10
297.444652615
 20
126.5667960512
 10
299.7698212644
 20
126.1178506266
 10
302.1174755498
 20
125.7318243365
 10
304.4842115968
 20
125.4092768821
 10
306.8665978645
 20
125.1506759264
 10
309.2611801204
 20
124.9563964161
 10
311.6644864494
 20
124.8267200378
 10
314.0730322869
 20
124.76183481
 10
316.4833254717
 20
124.76183481
 10
318.8918713092
 20
124.8267200378
 10
321.2951776382
 20
124.9563964161
 10
323.6897598942
 20
125.1506759264
 10
326.0721461618
 20
125.4092768821
 10
328.4388822088
 20
125.7318243365
 10
330.7865364942
 20
126.1178506266
 10
333.1117051436
 20
126.5667960512
 10
335.4110168849
 20
127.0780096824
 10
337.6811379358
 20
127.6507503093
 10
339.9187768377
 20
128.2841875127
 10
342.1206892283
 20
128.9774028692
 10
344.2836825451
 20
129.7293912828
 10
346.4046206545
 20
130.5390624423
 10
348.480428399
 20
131.4052424018
 10
350.508096056
 20
132.3266752833
 10
352.484683701
 20
133.3020250971
 10
354.407325471
 20
134.3298776792
 10
356.2732337192
 20
135.4087427417
 10
358.0797030571
 20
136.5370560333
 10
359.8241142768
 20
137.7131816077
 10
361.5039381488
 20
138.9354141953
 10
363.116739089
 20
140.2019816755
 10
364.6601786904
 20
141.5110476467
 10
366.132019113
 20
142.8607140883
 10
367.530126329
 20
144.249024113
 10
368.8524732165
 20
145.6739648041
 10
370.097142499
 20
147.1334701337
 10
371.2623295249
 20
148.6254239586
 10
372.3463448846
 20
150.1476630885
 10
373.3476168593
 20
151.697980422
 10
374.2646937004
 20
153.2741281474
 10
375.0962457343
 20
154.873821001
 10
375.8410672898
 20
156.4947395812
 10
376.498078447
 20
158.134533711
 10
377.0663266025
 20
159.7908258457
 10
377.5449878509
 20
161.46121452
 10
377.933368179
 20
163.1432778299
 10
378.2309044725
 20
164.8345769447
 10
378.4371653322
 20
166.5326596421
 10
378.5518516996
 20
168.2350638647
 10
378.5650397747
 20
168.619275427
  0
LINE
  5
2C3
330
1F
100
AcDbEntity
  8
0
  6
Continuous
 62
     7
370
    25
100
AcDbLine
 10
366.2868222278
 20
196.0174003781
 30
0.0
 11
366.0162758724
 21
196.275790533
 31
0.0
  0
LINE
  5
2C4
330
1F
100
AcDbEntity
  8
0
  6
Continuous
 62
     7
370
    25
100
AcDbLine
 10
262.4866582495
 20
193.061160118
 30
0.0
 11
262.2921354233
 21
192.8472710397
 31
0.0
  0
LINE
  5
2C5
330
1F
100
AcDbEntity
  8
0
  6
Continuous
 62
     7
370
    25
100
AcDbLine
 10
368.2642223353
 20
192.8472710397
 30
0.0
 11
368.0696995092
 21
193.061160118
 31
0.0
  0
LINE
  5
2C6
330
1F
100
AcDbEntity
  8
0
  6
Continuous
 62
     7
370
    25
100
AcDbLine
 10
359.0125291199
 20
197.8766185733
 30
0.0
 11
359.8419749198
 21
197.1977177094
 31
0.0
  0
LINE
  5
2C7
330
1F
100
AcDbEntity
  8
0
  6
Continuous
 62
     7
370
    25
100
AcDbLine
 10
372.07037734
 20
180.0254344796
 30
0.0
 11
372.1114396821
 21
179.9012893988
 31
0.0
  0
LINE
  5
2C8
330
1F
100
AcDbEntity
  8
0
  6
Continuous
 62
     7
370
    25
100
AcDbLine
 10
258.4449180765
 20
179.9012893988
 30
0.0
 11
258.4859804186
 21
180.0254344796
 31
0.0
  0
LINE
  5
2C9
330
1F
100
AcDbEntity
  8
0
  6
Continuous
 62
     7
370
    25
100
AcDbLine
 10
270.7143828388
 20
197.1977177094
 30
0.0
 11
271.5438286387
 21
197.8766185733
 31
0.0
  0
LINE
  5
2CA
330
1F
100
AcDbEntity
  8
0
  6
Continuous
 62
     7
370
    25
100
AcDbLine
 10
262.3150361165
 20
192.7539963464
 30
0.0
 11
262.1335233514
 21
192.5567682655
 31
0.0
  0
LWPOLYLINE
  5
2CB
330
1F
100
AcDbEntity
  8
0
  6
Continuous
 62
     7
370
    25
100
AcDbPolyline
 90
       86
 70
   128
 43
0.0
 10
251.9821897614
 20
168.6756944219
 10
251.9820883006
 20
168.668224023
 10
252.0050337001
 20
166.9639808105
 10
252.1197191111
 20
165.2615907844
 10
252.3259782509
 20
163.5635222473
 10
252.6235120632
 20
161.8722372363
 10
253.0118891526
 20
160.1901879531
 10
253.4905464093
 20
158.5198132083
 10
254.0587898262
 20
156.8635348855
 10
254.7157955046
 20
155.22375443
 10
255.460610849
 20
153.6028493667
 10
256.2921559485
 20
152.0031698529
 10
257.2092251421
 20
150.4270352711
 10
258.2104887672
 20
148.8767308657
 10
259.2944950872
 20
147.3545044298
 10
260.4596723967
 20
145.8625630463
 10
261.7043312998
 20
144.4030698876
 10
263.0266671602
 20
142.9781410792
 10
264.4247627173
 20
141.5898426316
 10
265.8965908662
 20
140.2401874449
 10
267.4400175968
 20
138.9311323901
 10
269.0528050879
 20
137.6645754718
 10
270.7326149518
 20
136.4423530765
 10
272.4770116248
 20
135.2662373098
 10
274.2834658984
 20
134.1379334272
 10
276.1493585868
 20
133.0590773614
 10
278.0719843238
 20
132.0312333506
 10
280.048555486
 20
131.0558916703
 10
282.0762062341
 20
130.1344664727
 10
284.1519966685
 20
129.2682937363
 10
286.2729170913
 20
128.4586293287
 10
288.4358923708
 20
127.7066471859
 10
290.6377863996
 20
127.0134376101
 10
292.8754066418
 20
126.3800056889
 10
295.1455087621
 20
125.8072698382
 10
297.4448013293
 20
125.29606047
 10
299.7699505891
 20
124.8471187892
 10
302.1175852973
 20
124.4610957181
 10
304.484301608
 20
124.1385509535
 10
306.8666680089
 20
123.8799521543
 10
309.2612302964
 20
123.685674264
 10
311.6645165841
 20
123.5559989672
 10
314.0730423366
 20
123.4911142804
 10
316.483315422
 20
123.4911142804
 10
318.8918411745
 20
123.5559989672
 10
321.2951274622
 20
123.685674264
 10
323.6896897497
 20
123.8799521543
 10
326.0720561506
 20
124.1385509535
 10
328.4387724613
 20
124.4610957181
 10
330.7864071695
 20
124.8471187892
 10
333.1115564293
 20
125.29606047
 10
335.4108489965
 20
125.8072698382
 10
337.6809511168
 20
126.3800056889
 10
339.918571359
 20
127.0134376101
 10
342.1204653878
 20
127.7066471859
 10
344.2834406673
 20
128.4586293287
 10
346.4043610902
 20
129.2682937363
 10
348.4801515245
 20
130.1344664727
 10
350.5078022726
 20
131.0558916703
 10
352.4843734348
 20
132.0312333506
 10
354.4069991718
 20
133.0590773614
 10
356.2728918602
 20
134.1379334272
 10
358.0793461339
 20
135.2662373098
 10
359.8237428069
 20
136.4423530765
 10
361.5035526707
 20
137.6645754718
 10
363.1163401618
 20
138.9311323901
 10
364.6597668924
 20
140.2401874449
 10
366.1315950413
 20
141.5898426316
 10
367.5296905984
 20
142.9781410792
 10
368.8520264588
 20
144.4030698876
 10
370.096685362
 20
145.8625630463
 10
371.2618626714
 20
147.3545044298
 10
372.3458689914
 20
148.8767308657
 10
373.3471326165
 20
150.4270352711
 10
374.2642018101
 20
152.0031698529
 10
375.0957469096
 20
153.6028493667
 10
375.840562254
 20
155.22375443
 10
376.4975679324
 20
156.8635348855
 10
377.0658113493
 20
158.5198132083
 10
377.5444686061
 20
160.1901879531
 10
377.9328456954
 20
161.8722372363
 10
378.2303795078
 20
163.5635222473
 10
378.4366386475
 20
165.2615907844
 10
378.5513240585
 20
166.9639808105
 10
378.5742694581
 20
168.668224023
 10
378.5741679972
 20
168.6756944219
  0
LINE
  5
2CC
330
1F
100
AcDbEntity
  8
0
  6
Continuous
 62
     7
370
    25
100
AcDbLine
 10
368.4228344072
 20
192.5567682655
 30
0.0
 11
368.2413216421
 21
192.7539963464
 31
0.0
  0
LWPOLYLINE
  5
2CD
330
1F
100
AcDbEntity
  8
0
  6
Continuous
 62
     7
370
    25
100
AcDbPolyline
 90
       33
 70
   128
 43
0.0
 10
315.2781788793
 20
212.7158829175
 10
312.9998764532
 20
212.6832260875
 10
310.7253172721
 20
212.5853092526
 10
308.4582384305
 20
212.42229329
 10
306.2023647333
 20
212.1944460344
 10
303.9614025748
 20
211.9021418383
 10
301.7390338501
 20
211.5458609566
 10
299.5389099052
 20
211.126188758
 10
297.3646455378
 20
210.6438147628
 10
295.2198130587
 20
210.0995315101
 10
293.1079364219
 20
209.494233256
 10
291.0324854353
 20
208.8289145038
 10
288.9968700594
 20
208.1046683706
 10
287.0044348048
 20
207.3226847908
 10
285.0584532375
 20
206.4842485614
 10
283.1621226001
 20
205.5907372309
 10
281.3185585588
 20
204.6436188361
 10
279.5307900846
 20
203.64444949
 10
277.8017544763
 20
202.5948708253
 10
276.1342925348
 20
201.4966072969
 10
274.5311438959
 20
200.3514633489
 10
272.9949425284
 20
199.1613204499
 10
271.5282124072
 20
197.9281340014
 10
270.1333633661
 20
196.6539301256
 10
268.8126871383
 20
195.3408023361
 10
267.5683535914
 20
193.9909080984
 10
266.4024071622
 20
192.6064652852
 10
265.3167634976
 20
191.1897485325
 10
264.3132063073
 20
189.743085502
 10
263.393384433
 20
188.2688530574
 10
262.5588091399
 20
186.7694733587
 10
261.8108516328
 20
185.2474098828
 10
261.6359916328
 20
184.8601440493
  0
LWPOLYLINE
  5
2CE
330
1F
100
AcDbEntity
  8
0
  6
Continuous
 62
     7
370
    25
100
AcDbPolyline
 90
       33
 70
   128
 43
0.0
 10
368.9203661258
 20
184.8601440493
 10
368.7455061259
 20
185.2474098828
 10
367.9975486187
 20
186.7694733587
 10
367.1629733256
 20
188.2688530574
 10
366.2431514514
 20
189.743085502
 10
365.239594261
 20
191.1897485325
 10
364.1539505964
 20
192.6064652852
 10
362.9880041672
 20
193.9909080984
 10
361.7436706204
 20
195.3408023361
 10
360.4229943926
 20
196.6539301256
 10
359.0281453514
 20
197.9281340014
 10
357.5614152302
 20
199.1613204499
 10
356.0252138628
 20
200.3514633489
 10
354.4220652238
 20
201.4966072969
 10
352.7546032824
 20
202.5948708253
 10
351.025567674
 20
203.64444949
 10
349.2377991998
 20
204.6436188361
 10
347.3942351585
 20
205.5907372309
 10
345.4979045211
 20
206.4842485614
 10
343.5519229538
 20
207.3226847908
 10
341.5594876992
 20
208.1046683706
 10
339.5238723233
 20
208.8289145038
 10
337.4484213367
 20
209.494233256
 10
335.3365446999
 20
210.0995315101
 10
333.1917122208
 20
210.6438147628
 10
331.0174478534
 20
211.126188758
 10
328.8173239085
 20
211.5458609566
 10
326.5949551838
 20
211.9021418383
 10
324.3539930253
 20
212.1944460344
 10
322.0981193281
 20
212.42229329
 10
319.8310404866
 20
212.5853092526
 10
317.5564813054
 20
212.6832260875
 10
315.2781788793
 20
212.7158829175
  0
LWPOLYLINE
  5
2CF
330
1F
100
AcDbEntity
  8
0
  6
Continuous
 62
     7
370
    25
100
AcDbPolyline
 90
        3
 70
   128
 43
0.0
 10
271.9486271317
 20
198.2268930499
 10
271.6620650544
 20
198.0092400883
 10
271.3268799595
 20
197.7506846938
  0
LINE
  5
2D0
330
1F
100
AcDbEntity
  8
0
  6
Continuous
 62
     7
370
    25
100
AcDbLine
 10
258.7394610491
 20
182.3705030084
 30
0.0
 11
258.6928272096
 21
182.2676218271
 31
0.0
  0
LINE
  5
2D1
330
1F
100
AcDbEntity
  8
0
  6
Continuous
 62
     7
370
    25
100
AcDbLine
 10
371.8759551356
 20
182.2400567832
 30
0.0
 11
371.8168967095
 21
182.3705030084
 31
0.0
  0
LWPOLYLINE
  5
2D2
330
1F
100
AcDbEntity
  8
0
  6
Continuous
 62
     7
370
    25
100
AcDbPolyline
 90
        3
 70
   128
 43
0.0
 10
359.2294777991
 20
197.7506846938
 10
358.8942927042
 20
198.0092400883
 10
358.6077306269
 20
198.2268930499
  0
LWPOLYLINE
  5
2D3
330
1F
100
AcDbEntity
  8
0
  6
Continuous
 62
     7
370
    25
100
AcDbPolyline
 90
       33
 70
   128
 43
0.0
 10
315.2781788793
 20
212.6505891511
 10
312.9998666493
 20
212.6179321806
 10
310.7252976803
 20
212.5200149244
 10
308.4582090831
 20
212.3569982602
 10
306.2023256784
 20
212.1291500242
 10
303.9613538767
 20
211.8368445702
 10
301.7389755888
 20
211.4805621554
 10
299.5388421763
 20
211.0608881509
 10
297.3645684526
 20
210.5785120799
 10
295.2197267439
 20
210.0342264851
 10
293.1078410194
 20
209.4289256262
 10
291.0323811017
 20
208.7636040111
 10
288.9967569662
 20
208.0393547613
 10
287.0043131378
 20
207.2573678165
 10
285.0583231966
 20
206.4189279791
 10
283.1619843989
 20
205.5254128037
 10
281.3184124245
 20
204.5782903333
 10
279.5306362571
 20
203.5791166876
 10
277.8015932084
 20
202.5295335064
 10
276.1341240916
 20
201.431265252
 10
274.530968554
 20
200.2861163762
 10
272.994760576
 20
199.0959683558
 10
271.5280241432
 20
197.8627766007
 10
270.1331690998
 20
196.5885672417
 10
268.8124871889
 20
195.2754338016
 10
267.5681482874
 20
193.9255337551
 10
266.4021968409
 20
192.5410849844
 10
265.3165485046
 20
191.1243621352
 10
264.3129869958
 20
189.6776928795
 10
263.3931611634
 20
188.203454091
 10
262.5585822789
 20
186.7040679402
 10
261.8106215532
 20
185.1819979146
 10
261.5568491329
 20
184.6153455433
  0
LWPOLYLINE
  5
2D4
330
1F
100
AcDbEntity
  8
0
  6
Continuous
 62
     7
370
    25
100
AcDbPolyline
 90
       33
 70
   128
 43
0.0
 10
368.9995086257
 20
184.6153455433
 10
368.7457362054
 20
185.1819979146
 10
367.9977754797
 20
186.7040679402
 10
367.1631965952
 20
188.203454091
 10
366.2433707628
 20
189.6776928795
 10
365.239809254
 20
191.1243621352
 10
364.1541609177
 20
192.5410849844
 10
362.9882094712
 20
193.9255337551
 10
361.7438705698
 20
195.2754338016
 10
360.4231886588
 20
196.5885672417
 10
359.0283336154
 20
197.8627766007
 10
357.5615971826
 20
199.0959683558
 10
356.0253892046
 20
200.2861163762
 10
354.422233667
 20
201.431265252
 10
352.7547645502
 20
202.5295335064
 10
351.0257215015
 20
203.5791166876
 10
349.2379453341
 20
204.5782903333
 10
347.3943733597
 20
205.5254128037
 10
345.498034562
 20
206.4189279791
 10
343.5520446208
 20
207.2573678165
 10
341.5596007925
 20
208.0393547613
 10
339.5239766569
 20
208.7636040111
 10
337.4485167392
 20
209.4289256262
 10
335.3366310147
 20
210.0342264851
 10
333.191789306
 20
210.5785120799
 10
331.0175155824
 20
211.0608881509
 10
328.8173821699
 20
211.4805621554
 10
326.5950038819
 20
211.8368445702
 10
324.3540320802
 20
212.1291500242
 10
322.0981486755
 20
212.3569982602
 10
319.8310600784
 20
212.5200149244
 10
317.5564911093
 20
212.6179321806
 10
315.2781788793
 20
212.6505891511
  0
ARC
  5
2D5
330
1F
100
AcDbEntity
  8
0
  6
Continuous
 62
     7
370
    25
100
AcDbCircle
 10
341.8072808786
 20
172.0504890458
 30
0.0
 40
28.55158229849675
100
AcDbArc
 50
4.256248181
 51
20.2884612085
  0
ARC
  5
2D6
330
1F
100
AcDbEntity
  8
0
  6
Continuous
 62
     7
370
    25
100
AcDbCircle
 10
288.7490654332
 20
172.050490672
 30
0.0
 40
28.5515707624797
100
AcDbArc
 50
159.7117299374
 51
175.7437533684
  0
LINE
  5
2D7
330
1F
100
AcDbEntity
  8
0
  6
Continuous
 62
     7
370
    25
100
AcDbLine
 10
270.7080287379
 20
197.1266903021
 30
0.0
 11
270.1890641864
 21
196.7069094616
 31
0.0
  0
LINE
  5
2D8
330
1F
100
AcDbEntity
  8
0
  6
Continuous
 62
     7
370
    25
100
AcDbLine
 10
360.3672935722
 20
196.7069094616
 30
0.0
 11
359.8483290208
 21
197.1266903021
 31
0.0
  0
LINE
  5
2D9
330
1F
100
AcDbEntity
  8
0
  6
Continuous
 62
     7
370
    25
100
AcDbLine
 10
359.6554018204
 20
197.3031121963
 30
0.0
 11
360.2056249121
 21
196.8596463385
 31
0.0
  0
LINE
  5
2DA
330
1F
100
AcDbEntity
  8
0
  6
Continuous
 62
     7
370
    25
100
AcDbLine
 10
270.3507328465
 20
196.8596463385
 30
0.0
 11
270.9009559382
 21
197.3031121963
 31
0.0
  0
LWPOLYLINE
  5
2DB
330
1F
100
AcDbEntity
  8
0
  6
Continuous
 62
     7
370
    25
100
AcDbPolyline
 90
        3
 70
   128
 43
0.0
 10
360.1883928322
 20
196.8106561722
 10
360.5750636261
 20
196.4937276047
 10
360.6834172322
 20
196.4037647368
  0
LWPOLYLINE
  5
2DC
330
1F
100
AcDbEntity
  8
0
  6
Continuous
 62
     7
370
    25
100
AcDbPolyline
 90
        3
 70
   128
 43
0.0
 10
269.8729405264
 20
196.4037647368
 10
269.9812941325
 20
196.4937276047
 10
270.3679649264
 20
196.8106561722
  0
LWPOLYLINE
  5
2DD
330
1F
100
AcDbEntity
  8
0
  6
Continuous
 62
     7
370
    25
100
AcDbPolyline
 90
       42
 70
   128
 43
0.0
 10
315.2781788793
 20
208.3257980088
 10
317.4921872249
 20
208.2934362298
 10
319.7024129744
 20
208.1964061824
 10
321.9050799941
 20
208.0348736408
 10
324.0964250645
 20
207.8091145806
 10
326.2727043091
 20
207.5195147075
 10
328.4301995915
 20
207.1665687978
 10
330.5652248672
 20
206.7508798538
 10
332.6741324811
 20
206.2731580731
 10
334.7533194002
 20
205.7342196354
 10
336.7992333684
 20
205.1349853078
 10
338.808378976
 20
204.4764788723
 10
340.7773236314
 20
203.7598253759
 10
342.7027034258
 20
202.9862492093
 10
344.58122888
 20
202.1570720142
 10
346.4096905649
 20
201.273710426
 10
348.1849645842
 20
200.3376736532
 10
349.9040179122
 20
199.3505608989
 10
351.563913575
 20
198.3140586286
 10
353.1618156687
 20
197.2299376892
 10
354.6949942045
 20
196.100050283
 10
356.1608297725
 20
194.9263268038
 10
357.5568180173
 20
193.7107725384
 10
358.8805739162
 20
192.4554642408
 10
360.1298358547
 20
191.1625465843
 10
361.3024694896
 20
189.834228497
 10
362.3964713961
 20
188.4727793881
 10
363.4099724901
 20
187.0805252704
 10
364.3412412222
 20
185.6598447869
 10
365.1886865353
 20
184.2131651463
 10
365.9508605832
 20
182.7429579765
 10
366.6264612045
 20
181.2517351017
 10
367.2143341468
 20
179.7420442513
 10
367.713475039
 20
178.2164647067
 10
368.1230311073
 20
176.6776028951
 10
368.4423026321
 20
175.1280879359
 10
368.6707441432
 20
173.5705671496
 10
368.8079653522
 20
172.0077015342
 10
368.8537318189
 20
170.4421612194
 10
368.8079653522
 20
168.8766209046
 10
368.6707441432
 20
167.3137552892
 10
368.4909876104
 20
166.0412033842
  0
LWPOLYLINE
  5
2DE
330
1F
100
AcDbEntity
  8
0
  6
Continuous
 62
     7
370
    25
100
AcDbPolyline
 90
       42
 70
   128
 43
0.0
 10
262.0653701482
 20
166.0412033842
 10
261.8856136154
 20
167.3137552892
 10
261.7483924064
 20
168.8766209046
 10
261.7026259397
 20
170.4421612194
 10
261.7483924064
 20
172.0077015342
 10
261.8856136154
 20
173.5705671496
 10
262.1140551265
 20
175.1280879359
 10
262.4333266513
 20
176.6776028951
 10
262.8428827196
 20
178.2164647067
 10
263.3420236118
 20
179.7420442513
 10
263.9298965541
 20
181.2517351017
 10
264.6054971754
 20
182.7429579765
 10
265.3676712234
 20
184.2131651463
 10
266.2151165364
 20
185.6598447869
 10
267.1463852685
 20
187.0805252704
 10
268.1598863626
 20
188.4727793881
 10
269.253888269
 20
189.834228497
 10
270.4265219039
 20
191.1625465843
 10
271.6757838424
 20
192.4554642408
 10
272.9995397414
 20
193.7107725384
 10
274.3955279861
 20
194.9263268038
 10
275.8613635541
 20
196.100050283
 10
277.3945420899
 20
197.2299376892
 10
278.9924441837
 20
198.3140586286
 10
280.6523398465
 20
199.3505608989
 10
282.3713931744
 20
200.3376736532
 10
284.1466671938
 20
201.273710426
 10
285.9751288786
 20
202.1570720142
 10
287.8536543328
 20
202.9862492093
 10
289.7790341272
 20
203.7598253759
 10
291.7479787826
 20
204.4764788723
 10
293.7571243902
 20
205.1349853078
 10
295.8030383584
 20
205.7342196354
 10
297.8822252775
 20
206.2731580731
 10
299.9911328915
 20
206.7508798538
 10
302.1261581671
 20
207.1665687978
 10
304.2836534495
 20
207.5195147075
 10
306.4599326942
 20
207.8091145806
 10
308.6512777645
 20
208.0348736408
 10
310.8539447842
 20
208.1964061824
 10
313.0641705337
 20
208.2934362298
 10
315.2781788793
 20
208.3257980088
  0
LWPOLYLINE
  5
2DF
330
1F
100
AcDbEntity
  8
0
  6
Continuous
 62
     8
370
    18
100
AcDbPolyline
 90
      162
 70
   128
 43
0.0
 10
315.2781788793
 20
221.8590730009
 10
317.635579875
 20
221.826541988
 10
319.9893909378
 20
221.7289984885
 10
322.3360276017
 20
221.5665910451
 10
324.6719163263
 20
221.3395669776
 10
326.9934999382
 20
221.0482720062
 10
329.2972430486
 20
220.693149725
 10
331.5796374367
 20
220.2747409268
 10
333.8372073924
 20
219.7936827791
 10
336.0665150091
 20
219.250707854
 10
338.2641654188
 20
218.646643013
 10
340.4268119627
 20
217.982408147
 10
342.5511612866
 20
217.2590147762
 10
344.633978357
 20
216.4775645094
 10
346.6720913872
 20
215.6392473665
 10
348.662396667
 20
214.7453399661
 10
350.6018632899
 20
213.7972035818
 10
352.4875377682
 20
212.7962820689
 10
354.3165485306
 20
211.7440996657
 10
356.0861102954
 20
210.6422586726
 10
357.7935283121
 20
209.4924370115
 10
359.4362024645
 20
208.2963856713
 10
361.0116312309
 20
207.0559260408
 10
362.5174154932
 20
205.7729471354
 10
363.9512621903
 20
204.4494027204
 10
365.3109878102
 20
203.0873083355
 10
366.594521715
 20
201.6887382259
 10
367.7999092945
 20
200.2558221831
 10
368.925314942
 20
198.790742302
 10
369.9690248505
 20
197.2957296574
 10
370.9294496219
 20
195.7730609071
 10
371.8051266877
 20
194.2250548243
 10
372.5947225362
 20
192.6540687671
 10
373.2970347431
 20
191.062495088
 10
373.9109938029
 20
189.4527574913
 10
374.4356647571
 20
187.8273073417
 10
374.8702486184
 20
186.1886199317
 10
375.2140835873
 20
184.5391907119
 10
375.4666460598
 20
182.881531491
 10
375.6275514249
 20
181.2181666105
 10
375.6965546504
 20
179.5516291007
 10
375.6735506557
 20
177.8844568235
 10
375.5585744721
 20
176.2191886071
 10
375.3518011893
 20
174.5583603803
 10
375.0535456889
 20
172.9045013107
 10
374.664262165
 20
171.2601299527
 10
374.184543432
 20
169.6277504127
 10
373.6151200225
 20
168.0098485355
 10
372.9568590743
 20
166.4088881187
 10
372.2107630104
 20
164.8273071611
 10
371.377968012
 20
163.2675141494
 10
370.4597422885
 20
161.7318843912
 10
369.4574841461
 20
160.2227563973
 10
368.3727198588
 20
158.7424283206
 10
367.2071013436
 20
157.2931544568
 10
365.9624036453
 20
155.8771418107
 10
364.640522233
 20
154.4965467361
 10
363.2434701142
 20
153.1534716516
 10
361.7733747688
 20
151.849961839
 10
360.2324749095
 20
150.5880023286
 10
358.6231170726
 20
149.3695148768
 10
356.9477520447
 20
148.1963550388
 10
355.2089311302
 20
147.0703093435
 10
353.4093022668
 20
145.993092573
 10
351.5516059921
 20
144.9663451505
 10
349.6386712714
 20
143.991630643
 10
347.6734111885
 20
143.07043338
 10
345.6588185105
 20
142.204156193
 10
343.5979611296
 20
141.3941182792
 10
341.4939773918
 20
140.6415531927
 10
339.3500713171
 20
139.947606966
 10
337.169507721
 20
139.3133363648
 10
334.955607242
 20
138.7397072786
 10
332.7117412855
 20
138.2275932498
 10
330.4413268891
 20
137.7777741436
 10
328.1478215195
 20
137.3909349604
 10
325.8347178069
 20
137.0676647923
 10
323.505538227
 20
136.8084559266
 10
321.1638297358
 20
136.6137030956
 10
318.8131583693
 20
136.4837028757
 10
316.457103812
 20
136.4186532358
 10
314.0992539466
 20
136.4186532358
 10
311.7431993894
 20
136.4837028757
 10
309.3925280228
 20
136.6137030956
 10
307.0508195317
 20
136.8084559266
 10
304.7216399517
 20
137.0676647923
 10
302.4085362392
 20
137.3909349604
 10
300.1150308695
 20
137.7777741436
 10
297.8446164731
 20
138.2275932498
 10
295.6007505166
 20
138.7397072786
 10
293.3868500376
 20
139.3133363648
 10
291.2062864415
 20
139.947606966
 10
289.0623803668
 20
140.6415531927
 10
286.958396629
 20
141.3941182792
 10
284.8975392481
 20
142.204156193
 10
282.8829465701
 20
143.07043338
 10
280.9176864872
 20
143.991630643
 10
279.0047517665
 20
144.9663451505
 10
277.1470554919
 20
145.993092573
 10
275.3474266284
 20
147.0703093435
 10
273.608605714
 20
148.1963550388
 10
271.933240686
 20
149.3695148768
 10
270.3238828491
 20
150.5880023286
 10
268.7829829898
 20
151.849961839
 10
267.3128876444
 20
153.1534716516
 10
265.9158355256
 20
154.4965467361
 10
264.5939541133
 20
155.8771418107
 10
263.349256415
 20
157.2931544568
 10
262.1836378998
 20
158.7424283206
 10
261.0988736125
 20
160.2227563973
 10
260.0966154701
 20
161.7318843912
 10
259.1783897466
 20
163.2675141494
 10
258.3455947482
 20
164.8273071611
 10
257.5994986843
 20
166.4088881187
 10
256.9412377362
 20
168.0098485355
 10
256.3718143266
 20
169.6277504127
 10
255.8920955936
 20
171.2601299527
 10
255.5028120697
 20
172.9045013107
 10
255.2045565693
 20
174.5583603803
 10
254.9977832865
 20
176.2191886071
 10
254.8828071029
 20
177.8844568235
 10
254.8598031082
 20
179.5516291007
 10
254.9288063337
 20
181.2181666105
 10
255.0897116988
 20
182.881531491
 10
255.3422741714
 20
184.5391907119
 10
255.6861091402
 20
186.1886199317
 10
256.1206930015
 20
187.8273073417
 10
256.6453639557
 20
189.4527574913
 10
257.2593230155
 20
191.062495088
 10
257.9616352224
 20
192.6540687671
 10
258.7512310709
 20
194.2250548243
 10
259.6269081367
 20
195.7730609071
 10
260.5873329081
 20
197.2957296574
 10
261.6310428166
 20
198.790742302
 10
262.7564484642
 20
200.2558221831
 10
263.9618360436
 20
201.6887382259
 10
265.2453699485
 20
203.0873083355
 10
266.6050955684
 20
204.4494027204
 10
268.0389422654
 20
205.7729471354
 10
269.5447265277
 20
207.0559260408
 10
271.1201552941
 20
208.2963856713
 10
272.7628294465
 20
209.4924370116
 10
274.4702474632
 20
210.6422586726
 10
276.239809228
 20
211.7440996657
 10
278.0688199904
 20
212.7962820689
 10
279.9544944687
 20
213.7972035818
 10
281.8939610916
 20
214.7453399661
 10
283.8842663715
 20
215.6392473665
 10
285.9223794016
 20
216.4775645094
 10
288.005196472
 20
217.2590147762
 10
290.129545796
 20
217.982408147
 10
292.2921923398
 20
218.646643013
 10
294.4898427496
 20
219.250707854
 10
296.7191503662
 20
219.7936827791
 10
298.9767203219
 20
220.2747409268
 10
301.25911471
 20
220.693149725
 10
303.5628578204
 20
221.0482720062
 10
305.8844414324
 20
221.3395669776
 10
308.2203301569
 20
221.5665910451
 10
310.5669668209
 20
221.7289984885
 10
312.9207778837
 20
221.826541988
 10
315.2781788793
 20
221.8590730009
  0
LWPOLYLINE
  5
2E0
330
1F
100
AcDbEntity
  8
0
  6
Continuous
 62
     8
370
    18
100
AcDbPolyline
 90
      166
 70
   128
 43
0.0
 10
315.2781788793
 20
222.7192582037
 10
312.8683225715
 20
222.6868097084
 10
310.461960325
 20
222.5895112696
 10
308.062581135
 20
222.4275039608
 10
305.6736638718
 20
222.2010226771
 10
303.2986722372
 20
221.9103957947
 10
300.941049742
 20
221.5560446948
 10
298.6042147135
 20
221.1384831527
 10
296.2915553389
 20
220.6583165925
 10
294.0064247532
 20
220.1162412101
 10
291.7521361775
 20
219.5130429627
 10
289.5319581146
 20
218.8495964303
 10
287.3491096104
 20
218.1268635468
 10
285.2067555867
 20
217.3458922059
 10
283.1080022518
 20
216.5078147413
 10
281.0558925976
 20
215.6138462853
 10
279.0534019867
 20
214.6652830066
 10
277.1034338393
 20
213.6635002313
 10
275.2088154226
 20
212.6099504486
 10
273.3722937522
 20
211.5061612051
 10
271.5965316091
 20
210.3537328896
 10
269.8841036785
 20
209.154336413
 10
268.2374928172
 20
207.9097107855
 10
266.6590864536
 20
206.6216605952
 10
265.1511731259
 20
205.2920533919
 10
263.7159391644
 20
203.9228169789
 10
262.3554655211
 20
202.515936618
 10
261.0717247527
 20
201.0734521513
 10
259.8665781606
 20
199.5974550433
 10
258.7417730921
 20
198.0900853488
 10
257.6989404071
 20
196.5535286097
 10
256.7395921133
 20
194.9900126864
 10
255.8651191739
 20
193.4018045275
 10
255.0767894911
 20
191.791206883
 10
254.3757460677
 20
190.1605549654
 10
253.7630053495
 20
188.5122130643
 10
253.239455752
 20
186.8485711177
 10
252.8058563721
 20
185.1720412475
 10
252.4628358873
 20
183.4850542616
 10
252.2108916448
 20
181.79005613
 10
252.0503889394
 20
180.0895044378
 10
251.9815604848
 20
178.3858648225
 10
252.0045060757
 20
176.6816073987
 10
252.1191924431
 20
174.9792031765
 10
252.3254533027
 20
173.2811204795
 10
252.6229895962
 20
171.5898213653
 10
253.0113699242
 20
169.9077580557
 10
253.4900311724
 20
168.2373693819
 10
254.0582793277
 20
166.5810772477
 10
254.7152904848
 20
164.9412831183
 10
255.4601120401
 20
163.3203645385
 10
256.2916640737
 20
161.7206716853
 10
257.2087409146
 20
160.1445239604
 10
258.2100128891
 20
158.5942066272
 10
259.2940282485
 20
157.0719674977
 10
260.4592152741
 20
155.5800136732
 10
261.7038845562
 20
154.120508344
 10
263.0262314434
 20
152.6955676533
 10
264.424338659
 20
151.3072576289
 10
265.8961790812
 20
149.9575911877
 10
267.4396186822
 20
148.6485252169
 10
269.052419622
 20
147.381957737
 10
270.7322434936
 20
146.1597251498
 10
272.4766547128
 20
144.9835995757
 10
274.2831240502
 20
143.8552862843
 10
276.149032298
 20
142.7764212221
 10
278.0716740675
 20
141.7485686403
 10
280.0482617119
 20
140.7732188267
 10
282.0759293683
 20
139.8517859455
 10
284.1517371123
 20
138.9856059862
 10
286.2726752212
 20
138.175934827
 10
288.4356685374
 20
137.4239464135
 10
290.6375809274
 20
136.7307310572
 10
292.8752198288
 20
136.097293854
 10
295.145340879
 20
135.5245532272
 10
297.4446526197
 20
135.0133395962
 10
299.7698212685
 20
134.5643941717
 10
302.1174755533
 20
134.1783678817
 10
304.4842115996
 20
133.8558204273
 10
306.8665978667
 20
133.5972194717
 10
309.261180122
 20
133.4029399615
 10
311.6644864503
 20
133.2732635832
 10
314.0730322872
 20
133.2083783555
 10
316.4833254714
 20
133.2083783555
 10
318.8918713083
 20
133.2732635832
 10
321.2951776366
 20
133.4029399615
 10
323.6897598919
 20
133.5972194717
 10
326.072146159
 20
133.8558204273
 10
328.4388822054
 20
134.1783678817
 10
330.7865364901
 20
134.5643941717
 10
333.1117051389
 20
135.0133395962
 10
335.4110168796
 20
135.5245532272
 10
337.6811379299
 20
136.097293854
 10
339.9187768312
 20
136.7307310572
 10
342.1206892213
 20
137.4239464135
 10
344.2836825375
 20
138.175934827
 10
346.4046206463
 20
138.9856059862
 10
348.4804283903
 20
139.8517859455
 10
350.5080960467
 20
140.7732188267
 10
352.4846836912
 20
141.7485686403
 10
354.4073254607
 20
142.7764212221
 10
356.2732337084
 20
143.8552862843
 10
358.0797030458
 20
144.9835995757
 10
359.824114265
 20
146.1597251498
 10
361.5039381366
 20
147.381957737
 10
363.1167390764
 20
148.6485252169
 10
364.6601786774
 20
149.9575911877
 10
366.1320190996
 20
151.3072576289
 10
367.5301263152
 20
152.6955676533
 10
368.8524732024
 20
154.120508344
 10
370.0971424845
 20
155.5800136732
 10
371.2623295102
 20
157.0719674977
 10
372.3463448695
 20
158.5942066272
 10
373.347616844
 20
160.1445239604
 10
374.2646936849
 20
161.7206716853
 10
375.0962457185
 20
163.3203645385
 10
375.8410672738
 20
164.9412831183
 10
376.4980784309
 20
166.5810772477
 10
377.0663265863
 20
168.2373693819
 10
377.5449878345
 20
169.9077580557
 10
377.9333681625
 20
171.5898213653
 10
378.2309044559
 20
173.2811204795
 10
378.4371653155
 20
174.9792031765
 10
378.551851683
 20
176.6816073987
 10
378.5747972738
 20
178.3858648225
 10
378.5059688192
 20
180.0895044378
 10
378.3454661138
 20
181.79005613
 10
378.0935218713
 20
183.4850542616
 10
377.7505013866
 20
185.1720412475
 10
377.3169020066
 20
186.8485711177
 10
376.7933524091
 20
188.5122130643
 10
376.1806116909
 20
190.1605549654
 10
375.4795682675
 20
191.791206883
 10
374.6912385847
 20
193.4018045275
 10
373.8167656453
 20
194.9900126864
 10
372.8574173515
 20
196.5535286097
 10
371.8145846665
 20
198.0900853488
 10
370.689779598
 20
199.5974550433
 10
369.4846330059
 20
201.0734521513
 10
368.2008922375
 20
202.515936618
 10
366.8404185942
 20
203.9228169789
 10
365.4051846327
 20
205.2920533919
 10
363.8972713051
 20
206.6216605952
 10
362.3188649414
 20
207.9097107855
 10
360.6722540801
 20
209.154336413
 10
358.9598261495
 20
210.3537328896
 10
357.1840640064
 20
211.5061612051
 10
355.347542336
 20
212.6099504486
 10
353.4529239193
 20
213.6635002313
 10
351.5029557719
 20
214.6652830066
 10
349.5004651611
 20
215.6138462853
 10
347.4483555068
 20
216.5078147413
 10
345.349602172
 20
217.3458922059
 10
343.2072481482
 20
218.1268635468
 10
341.024399644
 20
218.8495964303
 10
338.8042215811
 20
219.5130429627
 10
336.5499330054
 20
220.1162412101
 10
334.2648024198
 20
220.6583165925
 10
331.9521430452
 20
221.1384831527
 10
329.6153080166
 20
221.5560446948
 10
327.2576855214
 20
221.9103957947
 10
324.8826938868
 20
222.2010226771
 10
322.4937766237
 20
222.4275039608
 10
320.0943974336
 20
222.5895112696
 10
317.6880351871
 20
222.6868097084
 10
315.2781788793
 20
222.7192582037
  0
LWPOLYLINE
  5
2E1
330
1F
100
AcDbEntity
  8
0
  6
Continuous
 62
     8
370
    18
100
AcDbPolyline
 90
      161
 70
   128
 43
0.0
 10
315.2781788793
 20
221.5862999055
 10
317.627871946
 20
221.5536725523
 10
319.9739419563
 20
221.4558408018
 10
322.3127714403
 20
221.2929555034
 10
324.6407540924
 20
221.0652678145
 10
326.9543003322
 20
220.7731288129
 10
329.249842839
 20
220.4169889559
 10
331.5238420527
 20
219.9973973852
 10
333.7727916312
 20
219.5150010807
 10
335.9932238574
 20
218.9705438625
 10
338.1817149857
 20
218.3648652442
 10
340.3348905215
 20
217.6988991383
 10
342.449430424
 20
216.9736724162
 10
344.522074226
 20
216.1903033251
 10
346.549626061
 20
215.3499997632
 10
348.5289595911
 20
214.4540574178
 10
350.4570228274
 20
213.5038577669
 10
352.3308428362
 20
212.5008659497
 10
354.1475303227
 20
211.4466285068
 10
355.9042840867
 20
210.3427709958
 10
357.598395341
 20
209.1909954851
 10
359.227251889
 20
207.9930779291
 10
360.7883421519
 20
206.7508654298
 10
362.2792590417
 20
205.4662733887
 10
363.6977036726
 20
204.1412825538
 10
365.0414889058
 20
202.7779359649
 10
366.3085427218
 20
201.3783358035
 10
367.4969114155
 20
199.9446401517
 10
368.6047626086
 20
198.4790596643
 10
369.6303880747
 20
196.9838541602
 10
370.5722063738
 20
195.4613291378
 10
371.4287652902
 20
193.9138322204
 10
372.1987440723
 20
192.3437495361
 10
372.8809554686
 20
190.7535020385
 10
373.4743475585
 20
189.1455417741
 10
373.9780053744
 20
187.5223481011
 10
374.3911523125
 20
185.8864238664
 10
374.7131513302
 20
184.2402915465
 10
374.9435059283
 20
182.5864893584
 10
375.0818609167
 20
180.927567345
 10
375.128002962
 20
179.2660834438
 10
375.0818609167
 20
177.6045995426
 10
374.9435059283
 20
175.9456775292
 10
374.7131513302
 20
174.291875341
 10
374.3911523125
 20
172.6457430212
 10
373.9780053744
 20
171.0098187865
 10
373.4743475585
 20
169.3866251134
 10
372.8809554686
 20
167.778664849
 10
372.1987440723
 20
166.1884173515
 10
371.4287652902
 20
164.6183346672
 10
370.5722063738
 20
163.0708377498
 10
369.6303880747
 20
161.5483127274
 10
368.6047626086
 20
160.0531072232
 10
367.4969114155
 20
158.5875267358
 10
366.3085427218
 20
157.1538310841
 10
365.0414889058
 20
155.7542309227
 10
363.6977036726
 20
154.3908843338
 10
362.2792590417
 20
153.0658934988
 10
360.7883421519
 20
151.7813014578
 10
359.227251889
 20
150.5390889584
 10
357.598395341
 20
149.3411714024
 10
355.9042840867
 20
148.1893958917
 10
354.1475303227
 20
147.0855383808
 10
352.3308428362
 20
146.0313009378
 10
350.4570228274
 20
145.0283091206
 10
348.5289595911
 20
144.0781094698
 10
346.549626061
 20
143.1821671244
 10
344.522074226
 20
142.3418635625
 10
342.449430424
 20
141.5584944713
 10
340.3348905214
 20
140.8332677493
 10
338.1817149857
 20
140.1673016433
 10
335.9932238574
 20
139.561623025
 10
333.7727916312
 20
139.0171658068
 10
331.5238420527
 20
138.5347695023
 10
329.249842839
 20
138.1151779317
 10
326.9543003322
 20
137.7590380746
 10
324.6407540924
 20
137.4668990731
 10
322.3127714403
 20
137.2392113841
 10
319.9739419563
 20
137.0763260857
 10
317.627871946
 20
136.9784943352
 10
315.2781788793
 20
136.9458669821
 10
312.9284858126
 20
136.9784943352
 10
310.5824158023
 20
137.0763260857
 10
308.2435863183
 20
137.2392113841
 10
305.9156036662
 20
137.4668990731
 10
303.6020574264
 20
137.7590380746
 10
301.3065149196
 20
138.1151779317
 10
299.0325157059
 20
138.5347695023
 10
296.7835661274
 20
139.0171658068
 10
294.5631339012
 20
139.561623025
 10
292.3746427729
 20
140.1673016433
 10
290.2214672372
 20
140.8332677493
 10
288.1069273347
 20
141.5584944713
 10
286.0342835326
 20
142.3418635625
 10
284.0067316976
 20
143.1821671244
 10
282.0273981675
 20
144.0781094698
 10
280.0993349312
 20
145.0283091206
 10
278.2255149224
 20
146.0313009378
 10
276.4088274359
 20
147.0855383808
 10
274.6520736719
 20
148.1893958917
 10
272.9579624176
 20
149.3411714024
 10
271.3291058696
 20
150.5390889584
 10
269.7680156067
 20
151.7813014578
 10
268.2770987169
 20
153.0658934988
 10
266.858654086
 20
154.3908843338
 10
265.5148688529
 20
155.7542309227
 10
264.2478150368
 20
157.1538310841
 10
263.0594463431
 20
158.5875267358
 10
261.9515951501
 20
160.0531072232
 10
260.9259696839
 20
161.5483127274
 10
259.9841513849
 20
163.0708377498
 10
259.1275924684
 20
164.6183346672
 10
258.3576136863
 20
166.1884173515
 10
257.6754022901
 20
167.778664849
 10
257.0820102002
 20
169.3866251134
 10
256.5783523842
 20
171.0098187865
 10
256.1652054461
 20
172.6457430212
 10
255.8432064284
 20
174.291875341
 10
255.6128518304
 20
175.9456775292
 10
255.4744968419
 20
177.6045995426
 10
255.4283547966
 20
179.2660834438
 10
255.4744968419
 20
180.927567345
 10
255.6128518304
 20
182.5864893584
 10
255.8432064284
 20
184.2402915465
 10
256.1652054461
 20
185.8864238664
 10
256.5783523842
 20
187.5223481011
 10
257.0820102002
 20
189.1455417741
 10
257.6754022901
 20
190.7535020385
 10
258.3576136863
 20
192.3437495361
 10
259.1275924684
 20
193.9138322204
 10
259.9841513849
 20
195.4613291378
 10
260.9259696839
 20
196.9838541602
 10
261.9515951501
 20
198.4790596643
 10
263.0594463431
 20
199.9446401517
 10
264.2478150368
 20
201.3783358035
 10
265.5148688529
 20
202.7779359649
 10
266.858654086
 20
204.1412825538
 10
268.2770987169
 20
205.4662733887
 10
269.7680156067
 20
206.7508654298
 10
271.3291058696
 20
207.9930779291
 10
272.9579624176
 20
209.1909954851
 10
274.6520736719
 20
210.3427709958
 10
276.4088274359
 20
211.4466285068
 10
278.2255149224
 20
212.5008659497
 10
280.0993349312
 20
213.5038577669
 10
282.0273981675
 20
214.4540574178
 10
284.0067316976
 20
215.3499997632
 10
286.0342835326
 20
216.1903033251
 10
288.1069273347
 20
216.9736724162
 10
290.2214672372
 20
217.6988991383
 10
292.3746427729
 20
218.3648652442
 10
294.5631339012
 20
218.9705438625
 10
296.7835661274
 20
219.5150010807
 10
299.0325157059
 20
219.9973973852
 10
301.3065149196
 20
220.4169889559
 10
303.6020574264
 20
220.7731288129
 10
305.9156036662
 20
221.0652678145
 10
308.2435863183
 20
221.2929555034
 10
310.5824158023
 20
221.4558408018
 10
312.9284858126
 20
221.5536725523
 10
315.2781788793
 20
221.5862999055
  0
LWPOLYLINE
  5
2E2
330
1F
100
AcDbEntity
  8
0
  6
Continuous
 62
     8
370
    18
100
AcDbPolyline
 90
       77
 70
   128
 43
0.0
 10
253.113583411
 20
169.1534246895
 10
253.133780884
 20
169.0603080364
 10
253.5470435809
 20
167.3821622353
 10
254.0509052314
 20
165.716440747
 10
254.6446263491
 20
164.0655882475
 10
255.3273355665
 20
162.4320275904
 10
256.0980309136
 20
160.8181562514
 10
256.9555812886
 20
159.2263428091
 10
257.8987281182
 20
157.6589234692
 10
258.9260872043
 20
156.1181986358
 10
260.0361507558
 20
154.6064295351
 10
261.2272896014
 20
153.1258348967
 10
262.4977555805
 20
151.6785876974
 10
263.8456841091
 20
150.266811972
 10
265.2690969163
 20
148.892579696
 10
266.7659049474
 20
147.5579077449
 10
268.3339114303
 20
146.2647549338
 10
269.9708150992
 20
145.0150191428
 10
271.6742135723
 20
143.8105345314
 10
273.4416068774
 20
142.653068847
 10
275.270401121
 20
141.54432083
 10
277.1579122956
 20
140.4859177211
 10
279.1013702181
 20
139.4794128727
 10
281.097922596
 20
138.5262834695
 10
283.1446392134
 20
137.6279283604
 10
285.2385162314
 20
136.7856660054
 10
287.3764805968
 20
136.0007325406
 10
289.555394552
 20
135.2742799641
 10
291.7720602404
 20
134.6073744452
 10
294.0232243993
 20
134.0009947598
 10
296.3055831349
 20
133.4560308537
 10
298.6157867711
 20
132.9732825365
 10
300.9504447654
 20
132.553458308
 10
303.3061306853
 20
132.1971743181
 10
305.6793872368
 20
131.9049534628
 10
308.0667313388
 20
131.6772246163
 10
310.4646592344
 20
131.5143220023
 10
312.8696516339
 20
131.4164847027
 10
315.2781788793
 20
131.3838563072
 10
317.6867061247
 20
131.4164847027
 10
320.0916985242
 20
131.5143220023
 10
322.4896264198
 20
131.6772246163
 10
324.8769705218
 20
131.9049534628
 10
327.2502270733
 20
132.1971743181
 10
329.6059129932
 20
132.553458308
 10
331.9405709875
 20
132.9732825365
 10
334.2507746237
 20
133.4560308537
 10
336.5331333593
 20
134.0009947598
 10
338.7842975182
 20
134.6073744452
 10
341.0009632066
 20
135.2742799641
 10
343.1798771618
 20
136.0007325406
 10
345.3178415272
 20
136.7856660054
 10
347.4117185452
 20
137.6279283604
 10
349.4584351626
 20
138.5262834695
 10
351.4549875406
 20
139.4794128727
 10
353.398445463
 20
140.4859177211
 10
355.2859566376
 20
141.54432083
 10
357.1147508813
 20
142.653068847
 10
358.8821441863
 20
143.8105345314
 10
360.5855426594
 20
145.0150191428
 10
362.2224463283
 20
146.2647549338
 10
363.7904528112
 20
147.5579077449
 10
365.2872608423
 20
148.892579696
 10
366.7106736495
 20
150.266811972
 10
368.0586021781
 20
151.6785876974
 10
369.3290681572
 20
153.1258348967
 10
370.5202070028
 20
154.6064295351
 10
371.6302705543
 20
156.1181986358
 10
372.6576296404
 20
157.6589234692
 10
373.60077647
 20
159.2263428091
 10
374.4583268451
 20
160.8181562514
 10
375.2290221921
 20
162.4320275904
 10
375.9117314095
 20
164.0655882475
 10
376.5054525272
 20
165.716440747
 10
377.0093141778
 20
167.3821622353
 10
377.4225768746
 20
169.0603080364
 10
377.4427743476
 20
169.1534246895
  0
LWPOLYLINE
  5
2E3
330
1F
100
AcDbEntity
  8
0
  6
Continuous
 62
     8
370
    18
100
AcDbPolyline
 90
      160
 70
   128
 43
0.0
 10
315.2781788793
 20
221.1864801959
 10
317.6176803905
 20
221.1537899942
 10
319.9535290477
 20
221.0557704307
 10
322.2820777007
 20
220.8925745514
 10
324.5996905971
 20
220.6644571673
 10
326.9027490595
 20
220.3717744566
 10
329.1876571354
 20
220.0149834087
 10
331.4508472122
 20
219.5946411103
 10
333.6887855873
 20
219.1114038761
 10
335.8979779854
 20
218.5660262238
 10
338.0749750149
 20
217.9593596956
 10
340.2163775534
 20
217.2923515295
 10
342.318842055
 20
216.5660431794
 10
344.379085771
 20
215.7815686897
 10
346.3938918754
 20
214.9401529241
 10
348.3601144875
 20
214.0431096534
 10
350.2746835843
 20
213.0918395044
 10
352.1346097933
 20
212.0878277723
 10
353.9369890606
 20
211.0326421023
 10
355.6790071849
 20
209.9279300416
 10
357.3579442116
 20
208.775416467
 10
358.9711786799
 20
207.5769008914
 10
360.5161917157
 20
206.3342546549
 10
361.9905709646
 20
205.0494180018
 10
363.3920143582
 20
203.7243970523
 10
364.7183337093
 20
202.3612606691
 10
365.9674581275
 20
200.9621372279
 10
367.1374372533
 20
199.5292112939
 10
368.2264443032
 20
198.0647202109
 10
369.232778922
 20
196.5709506078
 10
370.1548698376
 20
195.0502348285
 10
370.9912773146
 20
193.5049472903
 10
371.7406954019
 20
191.9375007761
 10
372.4019539721
 20
190.3503426676
 10
372.9740205486
 20
188.7459511238
 10
373.4560019171
 20
187.1268312117
 10
373.8471455212
 20
185.4955109947
 10
374.1468406363
 20
183.8545375859
 10
374.3546193243
 20
182.2064731702
 10
374.4701571633
 20
180.5538910048
 10
374.4932737548
 20
178.8993714004
 10
374.4239330048
 20
177.2454976931
 10
374.2622431808
 20
175.5948522102
 10
374.0084567422
 20
173.9500122388
 10
373.6629699465
 20
172.3135460013
 10
373.2263222301
 20
170.6880086453
 10
372.6991953668
 20
169.0759382546
 10
372.0824124026
 20
167.4798518856
 10
371.3769363707
 20
165.9022416379
 10
370.5838687884
 20
164.3455707624
 10
369.7044479364
 20
162.812269816
 10
368.7400469261
 20
161.3047328661
 10
367.6921715552
 20
159.8253137526
 10
366.5624579566
 20
158.376322413
 10
365.352670044
 20
156.9600212752
 10
364.0646967577
 20
155.5786217253
 10
362.700549115
 20
154.2342806547
 10
361.2623570706
 20
152.9290970924
 10
359.7523661906
 20
151.6651089276
 10
358.1729341464
 20
150.4442897277
 10
356.5265270339
 20
149.2685456571
 10
354.8157155222
 20
148.1397125006
 10
353.0431708404
 20
147.059552797
 10
351.2116606066
 20
146.0297530876
 10
349.3240445067
 20
145.0519212824
 10
347.3832698291
 20
144.1275841496
 10
345.3923668631
 20
143.258184932
 10
343.3544441673
 20
142.4450810932
 10
341.2726837161
 20
141.6895421984
 10
339.1503359313
 20
140.9927479318
 10
336.9907146071
 20
140.355786255
 10
334.7971917358
 20
139.779651708
 10
332.573192243
 20
139.2652438566
 10
330.3221886398
 20
138.8133658875
 10
328.0476956013
 20
138.4247233546
 10
325.7532644782
 20
138.0999230769
 10
323.4424777524
 20
137.8394721917
 10
321.1189434431
 20
137.643777362
 10
318.7862894732
 20
137.5131441421
 10
316.4481580051
 20
137.4477765002
 10
314.1081997535
 20
137.4477765002
 10
311.7700682854
 20
137.5131441421
 10
309.4374143156
 20
137.643777362
 10
307.1138800062
 20
137.8394721917
 10
304.8030932804
 20
138.0999230769
 10
302.5086621573
 20
138.4247233546
 10
300.2341691188
 20
138.8133658875
 10
297.9831655156
 20
139.2652438566
 10
295.7591660228
 20
139.779651708
 10
293.5656431515
 20
140.355786255
 10
291.4060218273
 20
140.9927479318
 10
289.2836740425
 20
141.6895421984
 10
287.2019135913
 20
142.4450810932
 10
285.1639908955
 20
143.258184932
 10
283.1730879295
 20
144.1275841496
 10
281.2323132519
 20
145.0519212824
 10
279.344697152
 20
146.0297530876
 10
277.5131869182
 20
147.059552797
 10
275.7406422364
 20
148.1397125006
 10
274.0298307247
 20
149.2685456571
 10
272.3834236122
 20
150.4442897277
 10
270.8039915681
 20
151.6651089276
 10
269.294000688
 20
152.9290970924
 10
267.8558086436
 20
154.2342806547
 10
266.4916610009
 20
155.5786217253
 10
265.2036877146
 20
156.9600212752
 10
263.993899802
 20
158.376322413
 10
262.8641862034
 20
159.8253137526
 10
261.8163108325
 20
161.3047328661
 10
260.8519098222
 20
162.812269816
 10
259.9724889702
 20
164.3455707624
 10
259.1794213879
 20
165.9022416379
 10
258.4739453561
 20
167.4798518856
 10
257.8571623918
 20
169.0759382546
 10
257.3300355285
 20
170.6880086453
 10
256.8933878122
 20
172.3135460013
 10
256.5479010164
 20
173.9500122388
 10
256.2941145778
 20
175.5948522102
 10
256.1324247538
 20
177.2454976931
 10
256.0630840039
 20
178.8993714004
 10
256.0862005953
 20
180.5538910048
 10
256.2017384343
 20
182.2064731702
 10
256.4095171223
 20
183.8545375859
 10
256.7092122374
 20
185.4955109947
 10
257.1003558415
 20
187.1268312117
 10
257.5823372101
 20
188.7459511238
 10
258.1544037865
 20
190.3503426676
 10
258.8156623567
 20
191.9375007761
 10
259.565080444
 20
193.5049472903
 10
260.401487921
 20
195.0502348285
 10
261.3235788366
 20
196.5709506078
 10
262.3299134554
 20
198.0647202109
 10
263.4189205053
 20
199.5292112939
 10
264.5888996312
 20
200.9621372279
 10
265.8380240493
 20
202.3612606691
 10
267.1643434004
 20
203.7243970523
 10
268.5657867941
 20
205.0494180018
 10
270.0401660429
 20
206.3342546549
 10
271.5851790787
 20
207.5769008914
 10
273.198413547
 20
208.775416467
 10
274.8773505738
 20
209.9279300416
 10
276.619368698
 20
211.0326421023
 10
278.4217479653
 20
212.0878277723
 10
280.2816741743
 20
213.0918395044
 10
282.1962432711
 20
214.0431096534
 10
284.1624658833
 20
214.9401529241
 10
286.1772719876
 20
215.7815686897
 10
288.2375157036
 20
216.5660431794
 10
290.3399802052
 20
217.2923515295
 10
292.4813827437
 20
217.9593596956
 10
294.6583797733
 20
218.5660262238
 10
296.8675721714
 20
219.1114038761
 10
299.1055105464
 20
219.5946411103
 10
301.3687006232
 20
220.0149834087
 10
303.6536086991
 20
220.3717744566
 10
305.9566671615
 20
220.6644571673
 10
308.2742800579
 20
220.8925745514
 10
310.6028287109
 20
221.0557704307
 10
312.9386773681
 20
221.1537899942
 10
315.2781788793
 20
221.1864801959
  0
LWPOLYLINE
  5
2E4
330
1F
100
AcDbEntity
  8
0
  6
Continuous
 62
     8
370
    18
100
AcDbPolyline
 90
      160
 70
   128
 43
0.0
 10
315.2781788793
 20
220.8518089335
 10
317.5994143452
 20
220.8193739659
 10
319.9170254774
 20
220.7221197064
 10
322.2273936013
 20
220.5601980059
 10
324.5269113514
 20
220.3338616861
 10
326.8119883036
 20
220.0434641441
 10
329.0790565815
 20
219.6894588013
 10
331.3245764272
 20
219.2723983951
 10
333.5450417279
 20
218.7929341156
 10
335.7369854907
 20
218.2518145895
 10
337.8969852555
 20
217.6498847107
 10
340.0216684392
 20
216.9880843212
 10
342.1077176012
 20
216.2674467438
 10
344.1518756234
 20
215.4890971685
 10
346.1509507956
 20
214.6542508958
 10
348.1018217992
 20
213.764211439
 10
350.0014425809
 20
212.8203684891
 10
351.8468471082
 20
211.8241957448
 10
353.6351540009
 20
210.7772486116
 10
355.3635710303
 20
209.6811617732
 10
357.0293994783
 20
208.537646639
 10
358.6300383515
 20
207.3484886722
 10
360.1629884423
 20
206.1155446018
 10
361.6258562311
 20
204.8407395237
 10
363.0163576235
 20
203.5260638945
 10
364.3323215166
 20
202.1735704242
 10
365.5716931892
 20
200.7853708709
 10
366.7325375093
 20
199.3636327434
 10
367.8130419564
 20
197.9105759169
 10
368.8115194511
 20
196.4284691672
 10
369.7264109893
 20
194.9196266281
 10
370.5562880764
 20
193.3864041781
 10
371.2998549579
 20
191.831195762
 10
371.9559506424
 20
190.2564296532
 10
372.5235507144
 20
188.664564662
 10
373.0017689336
 20
187.0580862966
 10
373.3898586192
 20
185.4395028823
 10
373.6872138152
 20
183.8113416449
 10
373.8933702366
 20
182.176144765
 10
374.0080059949
 20
180.5364654084
 10
374.0309420997
 20
178.8948637397
 10
373.9621427391
 20
177.2539029251
 10
373.8017153352
 20
175.6161451301
 10
373.5499103762
 20
173.984147519
 10
373.2071210258
 20
172.3604582625
 10
372.7738825088
 20
170.7476125585
 10
372.2508712757
 20
169.1481286742
 10
371.6389039465
 20
167.5645040138
 10
370.9389360356
 20
165.9992112192
 10
370.1520604597
 20
164.4546943092
 10
369.2795058316
 20
162.9333648638
 10
368.3226345418
 20
161.4375982581
 10
367.2829406313
 20
159.9697299543
 10
366.1620474586
 20
158.5320518545
 10
364.9617051654
 20
157.1268087222
 10
363.6837879437
 20
155.756194678
 10
362.3302911096
 20
154.4223497728
 10
360.9033279876
 20
153.1273566472
 10
359.4051266113
 20
151.8732372792
 10
357.8380262443
 20
150.6619498273
 10
356.2044737279
 20
149.4953855732
 10
354.5070196602
 20
148.3753659683
 10
352.7483144144
 20
147.3036397905
 10
350.931104
 20
146.2818804128
 10
349.0582257752
 20
145.3116831912
 10
347.1326040172
 20
144.3945629736
 10
345.1572453556
 20
143.5319517343
 10
343.1352340786
 20
142.7251963383
 10
341.0697273167
 20
141.9755564385
 10
338.9639501136
 20
141.2842025085
 10
336.8211903904
 20
140.6522140154
 10
334.644793812
 20
140.0805777343
 10
332.4381585633
 20
139.5701862073
 10
330.2047300434
 20
139.1218363503
 10
327.9479954857
 20
138.7362282082
 10
325.6714785134
 20
138.4139638625
 10
323.3787336375
 20
138.1555464907
 10
321.0733407069
 20
137.9613795808
 10
318.7588993191
 20
137.8317663013
 10
316.4390231994
 20
137.7669090281
 10
314.1173345592
 20
137.7669090281
 10
311.7974584396
 20
137.8317663013
 10
309.4830170517
 20
137.9613795808
 10
307.1776241211
 20
138.1555464907
 10
304.8848792452
 20
138.4139638625
 10
302.6083622729
 20
138.7362282082
 10
300.3516277152
 20
139.1218363503
 10
298.1181991953
 20
139.5701862073
 10
295.9115639466
 20
140.0805777343
 10
293.7351673682
 20
140.6522140154
 10
291.592407645
 20
141.2842025085
 10
289.4866304419
 20
141.9755564385
 10
287.42112368
 20
142.7251963383
 10
285.399112403
 20
143.5319517343
 10
283.4237537415
 20
144.3945629736
 10
281.4981319834
 20
145.3116831912
 10
279.6252537586
 20
146.2818804128
 10
277.8080433442
 20
147.3036397905
 10
276.0493380984
 20
148.3753659683
 10
274.3518840308
 20
149.4953855732
 10
272.7183315143
 20
150.6619498273
 10
271.1512311473
 20
151.8732372792
 10
269.653029771
 20
153.1273566472
 10
268.226066649
 20
154.4223497728
 10
266.8725698149
 20
155.756194678
 10
265.5946525932
 20
157.1268087222
 10
264.3943103
 20
158.5320518545
 10
263.2734171273
 20
159.9697299543
 10
262.2337232168
 20
161.4375982581
 10
261.276851927
 20
162.9333648638
 10
260.4042972989
 20
164.4546943092
 10
259.617421723
 20
165.9992112192
 10
258.9174538121
 20
167.5645040138
 10
258.3054864829
 20
169.1481286742
 10
257.7824752498
 20
170.7476125585
 10
257.3492367328
 20
172.3604582625
 10
257.0064473824
 20
173.984147519
 10
256.7546424235
 20
175.6161451301
 10
256.5942150195
 20
177.2539029251
 10
256.5254156589
 20
178.8948637397
 10
256.5483517638
 20
180.5364654084
 10
256.662987522
 20
182.176144765
 10
256.8691439434
 20
183.8113416449
 10
257.1664991394
 20
185.4395028823
 10
257.554588825
 20
187.0580862966
 10
258.0328070443
 20
188.664564662
 10
258.6004071162
 20
190.2564296532
 10
259.2565028007
 20
191.831195762
 10
260.0000696822
 20
193.3864041781
 10
260.8299467694
 20
194.9196266281
 10
261.7448383075
 20
196.4284691672
 10
262.7433158022
 20
197.9105759169
 10
263.8238202493
 20
199.3636327434
 10
264.9846645695
 20
200.7853708709
 10
266.224036242
 20
202.1735704242
 10
267.5400001351
 20
203.5260638945
 10
268.9305015276
 20
204.8407395237
 10
270.3933693164
 20
206.1155446018
 10
271.9263194071
 20
207.3484886722
 10
273.5269582803
 20
208.537646639
 10
275.1927867283
 20
209.6811617732
 10
276.9212037577
 20
210.7772486116
 10
278.7095106505
 20
211.8241957448
 10
280.5549151777
 20
212.8203684891
 10
282.4545359594
 20
213.764211439
 10
284.405406963
 20
214.6542508958
 10
286.4044821352
 20
215.4890971685
 10
288.4486401574
 20
216.2674467438
 10
290.5346893194
 20
216.9880843212
 10
292.6593725031
 20
217.6498847107
 10
294.819372268
 20
218.2518145895
 10
297.0113160307
 20
218.7929341156
 10
299.2317813314
 20
219.2723983951
 10
301.4773011771
 20
219.6894588013
 10
303.744369455
 20
220.0434641441
 10
306.0294464072
 20
220.3338616861
 10
308.3289641573
 20
220.5601980059
 10
310.6393322812
 20
220.7221197064
 10
312.9569434135
 20
220.8193739659
 10
315.2781788793
 20
220.8518089335
  0
LWPOLYLINE
  5
2E5
330
1F
100
AcDbEntity
  8
0
  6
Continuous
 62
     8
370
    18
100
AcDbPolyline
 90
      158
 70
   128
 43
0.0
 10
315.2781788793
 20
219.5809867179
 10
312.9897410678
 20
219.5486025824
 10
310.7049679829
 20
219.4515020363
 10
308.4275184825
 20
219.2898405773
 10
306.1610396963
 20
219.0638770916
 10
303.9091611857
 20
218.7739734394
 10
301.6754891308
 20
218.4205938752
 10
299.4636005558
 20
218.0043043044
 10
297.2770376006
 20
217.5257713773
 10
295.1193018484
 20
216.9857614212
 10
292.9938487184
 20
216.3851392132
 10
290.9040819317
 20
215.7248665956
 10
288.8533480614
 20
215.0060009354
 10
286.8449311726
 20
214.2296934311
 10
284.8820475637
 20
213.3971872691
 10
282.9678406157
 20
212.5098156328
 10
281.1053757581
 20
211.5689995679
 10
279.2976355604
 20
210.5762457063
 10
277.5475149554
 20
209.5331438538
 10
275.8578166031
 20
208.4413644438
 10
274.2312464031
 20
207.3026558626
 10
272.6704091607
 20
206.1188416491
 10
271.1778044158
 20
204.8918175749
 10
269.7558224403
 20
203.6235486084
 10
268.4067404099
 20
202.3160657678
 10
267.1327187577
 20
200.9714628689
 10
265.9357977144
 20
199.5918931718
 10
264.8178940411
 20
198.1795659331
 10
263.7807979596
 20
196.7367428671
 10
262.8261702856
 20
195.2657345249
 10
261.9555397692
 20
193.7688965935
 10
261.1703006466
 20
192.2486261238
 10
260.4717104074
 20
190.7073576918
 10
259.8608877807
 20
189.1475594996
 10
259.338810944
 20
187.5717294234
 10
258.9063159561
 20
185.9823910128
 10
258.5640954187
 20
184.3820894497
 10
258.3126973671
 20
182.7733874728
 10
258.1525243927
 20
181.1588612729
 10
258.0838329979
 20
179.5410963682
 10
258.1067331858
 20
177.9226834631
 10
258.2211882839
 20
176.3062142997
 10
258.4270150027
 20
174.6942775076
 10
258.7238837292
 20
173.089454458
 10
259.1113190549
 20
171.4943151302
 10
259.5887005372
 20
169.9114139959
 10
260.1552636927
 20
168.3432859284
 10
260.8101012217
 20
166.7924421432
 10
261.5521644609
 20
165.2613661766
 10
262.380265063
 20
163.7525099087
 10
263.2930768997
 20
162.2682896366
 10
264.2891381852
 20
160.811082205
 10
265.3668538173
 20
159.3832212002
 10
266.5244979316
 20
157.9869932127
 10
267.7602166656
 20
156.6246341756
 10
269.0720311272
 20
155.2983257838
 10
270.4578405641
 20
154.0101920007
 10
271.9154257274
 20
152.7622956562
 10
273.4424524261
 20
151.5566351436
 10
275.0364752647
 20
150.3951412195
 10
276.6949415596
 20
149.2796739115
 10
278.4151954266
 20
148.2120195398
 10
280.1944820345
 20
147.1938878566
 10
282.0299520163
 20
146.2269093079
 10
283.9186660326
 20
145.3126324225
 10
285.8575994783
 20
144.4525213323
 10
287.8436473265
 20
143.6479534277
 10
289.8736291008
 20
142.9002171514
 10
291.9442939686
 20
142.2105099357
 10
294.0523259471
 20
141.5799362845
 10
296.1943492133
 20
141.0095060044
 10
298.3669335102
 20
140.5001325881
 10
300.5665996402
 20
140.0526317512
 10
302.7898250366
 20
139.6677201259
 10
305.0330494045
 20
139.3460141133
 10
307.2926804225
 20
139.0880288967
 10
309.5650994956
 20
138.8941776161
 10
311.8466675496
 20
138.7647707067
 10
314.1337308593
 20
138.7000154022
 10
316.4226268993
 20
138.7000154022
 10
318.709690209
 20
138.7647707067
 10
320.9912582631
 20
138.8941776161
 10
323.2636773361
 20
139.0880288967
 10
325.5233083542
 20
139.3460141133
 10
327.766532722
 20
139.6677201259
 10
329.9897581184
 20
140.0526317512
 10
332.1894242484
 20
140.5001325881
 10
334.3620085454
 20
141.0095060044
 10
336.5040318115
 20
141.5799362845
 10
338.61206379
 20
142.2105099357
 10
340.6827286578
 20
142.9002171514
 10
342.7127104322
 20
143.6479534277
 10
344.6987582803
 20
144.4525213323
 10
346.637691726
 20
145.3126324225
 10
348.5264057423
 20
146.2269093079
 10
350.3618757241
 20
147.1938878566
 10
352.141162332
 20
148.2120195398
 10
353.8614161991
 20
149.2796739115
 10
355.5198824939
 20
150.3951412195
 10
357.1139053326
 20
151.5566351436
 10
358.6409320312
 20
152.7622956562
 10
360.0985171945
 20
154.0101920007
 10
361.4843266314
 20
155.2983257838
 10
362.796141093
 20
156.6246341756
 10
364.031859827
 20
157.9869932127
 10
365.1895039413
 20
159.3832212002
 10
366.2672195734
 20
160.811082205
 10
367.2632808589
 20
162.2682896366
 10
368.1760926956
 20
163.7525099087
 10
369.0041932977
 20
165.2613661766
 10
369.7462565369
 20
166.7924421432
 10
370.4010940659
 20
168.3432859284
 10
370.9676572214
 20
169.9114139959
 10
371.4450387037
 20
171.4943151302
 10
371.8324740294
 20
173.089454458
 10
372.1293427559
 20
174.6942775076
 10
372.3351694747
 20
176.3062142997
 10
372.4496245728
 20
177.9226834631
 10
372.4725247607
 20
179.5410963682
 10
372.4038333659
 20
181.1588612729
 10
372.2436603915
 20
182.7733874728
 10
371.9922623399
 20
184.3820894497
 10
371.6500418025
 20
185.9823910128
 10
371.2175468146
 20
187.5717294234
 10
370.6954699779
 20
189.1475594996
 10
370.0846473513
 20
190.7073576918
 10
369.386057112
 20
192.2486261238
 10
368.6008179894
 20
193.7688965935
 10
367.730187473
 20
195.2657345249
 10
366.775559799
 20
196.7367428671
 10
365.7384637175
 20
198.1795659331
 10
364.6205600442
 20
199.5918931718
 10
363.4236390009
 20
200.9714628689
 10
362.1496173488
 20
202.3160657678
 10
360.8005353183
 20
203.6235486084
 10
359.3785533428
 20
204.8918175749
 10
357.8859485979
 20
206.1188416491
 10
356.3251113555
 20
207.3026558626
 10
354.6985411555
 20
208.4413644438
 10
353.0088428032
 20
209.5331438538
 10
351.2587221982
 20
210.5762457063
 10
349.4509820005
 20
211.5689995679
 10
347.5885171429
 20
212.5098156328
 10
345.6743101949
 20
213.3971872691
 10
343.711426586
 20
214.2296934311
 10
341.7030096972
 20
215.0060009354
 10
339.6522758269
 20
215.7248665956
 10
337.5625090403
 20
216.3851392132
 10
335.4370559102
 20
216.9857614212
 10
333.279320158
 20
217.5257713773
 10
331.0927572028
 20
218.0043043044
 10
328.8808686278
 20
218.4205938752
 10
326.6471965729
 20
218.7739734394
 10
324.3953180623
 20
219.0638770916
 10
322.1288392762
 20
219.2898405773
 10
319.8513897757
 20
219.4515020363
 10
317.5666166908
 20
219.5486025824
 10
315.2781788793
 20
219.5809867179
  0
LWPOLYLINE
  5
2E6
330
1F
100
AcDbEntity
  8
0
  6
Continuous
 62
     8
370
    18
100
AcDbPolyline
 90
       80
 70
   128
 43
0.0
 10
378.1241034725
 20
172.2424931694
 10
377.9647376603
 20
171.0044785488
 10
377.668459363
 20
169.320330319
 10
377.2817211235
 20
167.6453788445
 10
376.8050836754
 20
165.9820526449
 10
376.2392380973
 20
164.3327633841
 10
375.5850048113
 20
162.6999023739
 10
374.8433323931
 20
161.0858371067
 10
374.0152961968
 20
159.4929078227
 10
373.1020967957
 20
157.9234241173
 10
372.1050582417
 20
156.3796615916
 10
371.0256261452
 20
154.8638585538
 10
369.8653655798
 20
153.3782127733
 10
368.6259588122
 20
151.9248782946
 10
367.3092028638
 20
150.5059623136
 10
365.9170069049
 20
149.123522123
 10
364.4513894864
 20
147.7795621287
 10
362.9144756136
 20
146.4760309443
 10
361.3084936645
 20
145.2148185655
 10
359.6357721596
 20
143.9977536296
 10
357.8987363851
 20
142.8266007643
 10
356.0999048767
 20
141.7030580294
 10
354.2418857682
 20
140.6287544545
 10
352.3273730097
 20
139.605247677
 10
350.3591424617
 20
138.6340216839
 10
348.3400478702
 20
137.71648466
 10
346.2730167295
 20
136.8539669463
 10
344.1610460369
 20
136.0477191111
 10
342.0071979483
 20
135.2989101366
 10
339.8145953373
 20
134.6086257242
 10
337.5864172682
 20
133.9778667203
 10
335.325894386
 20
133.4075476653
 10
333.036304233
 20
132.8984954672
 10
330.7209664959
 20
132.451448203
 10
328.3832381931
 20
132.0670540485
 10
326.0265088072
 20
131.7458703385
 10
323.6541953704
 20
131.4883627587
 10
321.2697375105
 20
131.2949046705
 10
318.8765924633
 20
131.1657765695
 10
316.4782300605
 20
131.1011656792
 10
314.0781276981
 20
131.1011656792
 10
311.6797652953
 20
131.1657765695
 10
309.2866202481
 20
131.2949046705
 10
306.9021623882
 20
131.4883627587
 10
304.5298489514
 20
131.7458703385
 10
302.1731195655
 20
132.0670540485
 10
299.8353912627
 20
132.451448203
 10
297.5200535256
 20
132.8984954672
 10
295.2304633726
 20
133.4075476653
 10
292.9699404905
 20
133.9778667203
 10
290.7417624213
 20
134.6086257242
 10
288.5491598103
 20
135.2989101366
 10
286.3953117217
 20
136.0477191111
 10
284.2833410292
 20
136.8539669463
 10
282.2163098884
 20
137.71648466
 10
280.1972152969
 20
138.6340216839
 10
278.2289847489
 20
139.605247677
 10
276.3144719904
 20
140.6287544545
 10
274.4564528819
 20
141.7030580294
 10
272.6576213736
 20
142.8266007643
 10
270.920585599
 20
143.9977536296
 10
269.2478640941
 20
145.2148185655
 10
267.641882145
 20
146.4760309444
 10
266.1049682722
 20
147.7795621287
 10
264.6393508537
 20
149.123522123
 10
263.2471548948
 20
150.5059623136
 10
261.9303989464
 20
151.9248782946
 10
260.6909921788
 20
153.3782127733
 10
259.5307316134
 20
154.8638585538
 10
258.451299517
 20
156.3796615916
 10
257.4542609629
 20
157.9234241173
 10
256.5410615618
 20
159.4929078227
 10
255.7130253655
 20
161.0858371067
 10
254.9713529473
 20
162.6999023739
 10
254.3171196613
 20
164.3327633841
 10
253.7512740833
 20
165.9820526449
 10
253.2746366351
 20
167.6453788445
 10
252.8878983956
 20
169.320330319
 10
252.5916200983
 20
171.0044785488
 10
252.4322542861
 20
172.2424931694
  0
LWPOLYLINE
  5
2E7
330
1F
100
AcDbEntity
  8
0
  6
Continuous
 62
     8
370
    18
100
AcDbPolyline
 90
       86
 70
   128
 43
0.0
 10
251.9950821053
 20
176.5725797689
 10
251.9815604661
 20
175.9801807225
 10
252.004506057
 20
174.2759232981
 10
252.1191924244
 20
172.5735190754
 10
252.3254532841
 20
170.875436378
 10
252.6229895777
 20
169.1841372632
 10
253.0113699058
 20
167.5020739531
 10
253.4900311541
 20
165.8316852788
 10
254.0582793096
 20
164.1753931441
 10
254.7152904669
 20
162.5355990142
 10
255.4601120224
 20
160.914680434
 10
256.2916640563
 20
159.3149875803
 10
257.2087408975
 20
157.7388398549
 10
258.2100128722
 20
156.1885225213
 10
259.2940282319
 20
154.6662833914
 10
260.4592152579
 20
153.1743295664
 10
261.7038845404
 20
151.7148242367
 10
263.0262314279
 20
150.2898835456
 10
264.4243386439
 20
148.9015735209
 10
265.8961790666
 20
147.5519070792
 10
267.4396186681
 20
146.242841108
 10
269.0524196084
 20
144.9762736277
 10
270.7322434804
 20
143.7540410402
 10
272.4766547002
 20
142.5779154657
 10
274.2831240381
 20
141.449602174
 10
276.1490322864
 20
140.3707371115
 10
278.0716740565
 20
139.3428845294
 10
280.0482617015
 20
138.3675347155
 10
282.0759293585
 20
137.4461018341
 10
284.1517371031
 20
136.5799218745
 10
286.2726752126
 20
135.770250715
 10
288.4356685294
 20
135.0182623013
 10
290.6375809201
 20
134.3250469448
 10
292.8752198222
 20
133.6916097414
 10
295.1453408731
 20
133.1188691145
 10
297.4446526144
 20
132.6076554833
 10
299.7698212639
 20
132.1587100586
 10
302.1174755494
 20
131.7726837685
 10
304.4842115965
 20
131.4501363141
 10
306.8665978642
 20
131.1915353584
 10
309.2611801202
 20
130.9972558481
 10
311.6644864493
 20
130.8675794698
 10
314.0730322868
 20
130.802694242
 10
316.4833254718
 20
130.802694242
 10
318.8918713093
 20
130.8675794698
 10
321.2951776384
 20
130.9972558481
 10
323.6897598944
 20
131.1915353584
 10
326.0721461622
 20
131.4501363141
 10
328.4388822093
 20
131.7726837685
 10
330.7865364947
 20
132.1587100586
 10
333.1117051442
 20
132.6076554833
 10
335.4110168855
 20
133.1188691145
 10
337.6811379365
 20
133.6916097414
 10
339.9187768385
 20
134.3250469448
 10
342.1206892292
 20
135.0182623013
 10
344.283682546
 20
135.770250715
 10
346.4046206555
 20
136.5799218745
 10
348.4804284001
 20
137.4461018341
 10
350.5080960571
 20
138.3675347155
 10
352.4846837022
 20
139.3428845294
 10
354.4073254722
 20
140.3707371115
 10
356.2732337205
 20
141.449602174
 10
358.0797030585
 20
142.5779154657
 10
359.8241142782
 20
143.7540410402
 10
361.5039381502
 20
144.9762736277
 10
363.1167390906
 20
146.242841108
 10
364.660178692
 20
147.5519070792
 10
366.1320191147
 20
148.9015735209
 10
367.5301263307
 20
150.2898835456
 10
368.8524732182
 20
151.7148242367
 10
370.0971425007
 20
153.1743295664
 10
371.2623295267
 20
154.6662833914
 10
372.3463448864
 20
156.1885225213
 10
373.3476168612
 20
157.7388398549
 10
374.2646937023
 20
159.3149875803
 10
375.0962457362
 20
160.914680434
 10
375.8410672917
 20
162.5355990142
 10
376.498078449
 20
164.1753931441
 10
377.0663266045
 20
165.8316852788
 10
377.5449878529
 20
167.5020739531
 10
377.933368181
 20
169.1841372632
 10
378.2309044745
 20
170.875436378
 10
378.4371653342
 20
172.5735190754
 10
378.5518517016
 20
174.2759232981
 10
378.5747972925
 20
175.9801807225
 10
378.5612756533
 20
176.5725797689
  0
LWPOLYLINE
  5
2E8
330
1F
100
AcDbEntity
  8
0
  6
Continuous
 62
     8
370
    18
100
AcDbPolyline
 90
       40
 70
   128
 43
0.0
 10
315.2781788793
 20
219.1003721903
 10
317.568636358
 20
219.0677516443
 10
319.8553787063
 20
218.9699429169
 10
322.1346968197
 20
218.8071046543
 10
324.402893636
 20
218.5795009807
 10
326.6562901315
 20
218.2875010701
 10
328.891231289
 20
217.9315785475
 10
331.1040920257
 20
217.5123107204
 10
333.2912830734
 20
217.0303776428
 10
335.4492568003
 20
216.4865610119
 10
337.5745129649
 20
215.8817429003
 10
339.6636043942
 20
215.2169043252
 10
341.7131425741
 20
214.4931236571
 10
343.7198031462
 20
213.7115748711
 10
345.6803312998
 20
212.8735256419
 10
347.5915470509
 20
211.9803352887
 10
349.4503504007
 20
211.0334525693
 10
351.2537263634
 20
210.0344133311
 10
352.9987498564
 20
208.9848380192
 10
354.6825904454
 20
207.8864290488
 10
356.3025169348
 20
206.7409680432
 10
357.8559017978
 20
205.5503129443
 10
359.3402254385
 20
204.316394999
 10
360.7530802786
 20
203.0412156268
 10
362.0921746623
 20
201.7268431732
 10
363.3553365736
 20
200.3754095553
 10
364.5405171594
 20
198.9891068032
 10
365.6457940523
 20
197.5701835051
 10
366.6693744892
 20
196.1209411598
 10
367.609598219
 20
194.6437304437
 10
368.4649401951
 20
193.1409473979
 10
369.23401305
 20
191.615029542
 10
369.9155693445
 20
190.0684519204
 10
370.5085035918
 20
188.5037230877
 10
371.0118540505
 20
186.9233810396
 10
371.4248042843
 20
185.3299890969
 10
371.7466844864
 20
183.7261317471
 10
371.9769725658
 20
182.1144104526
 10
372.1152949946
 20
180.4974394313
 10
372.1614274131
 20
178.8778414161
  0
LWPOLYLINE
  5
2E9
330
1F
100
AcDbEntity
  8
0
  6
Continuous
 62
     8
370
    18
100
AcDbPolyline
 90
       40
 70
   128
 43
0.0
 10
258.3949303455
 20
178.8778414161
 10
258.4410627641
 20
180.4974394313
 10
258.5793851928
 20
182.1144104526
 10
258.8096732723
 20
183.7261317471
 10
259.1315534743
 20
185.3299890969
 10
259.5445037081
 20
186.9233810396
 10
260.0478541668
 20
188.5037230877
 10
260.6407884141
 20
190.0684519204
 10
261.3223447086
 20
191.615029542
 10
262.0914175635
 20
193.1409473979
 10
262.9467595397
 20
194.6437304437
 10
263.8869832694
 20
196.1209411598
 10
264.9105637063
 20
197.5701835051
 10
266.0158405992
 20
198.9891068032
 10
267.201021185
 20
200.3754095553
 10
268.4641830964
 20
201.7268431732
 10
269.8032774801
 20
203.0412156268
 10
271.2161323201
 20
204.316394999
 10
272.7004559609
 20
205.5503129443
 10
274.2538408239
 20
206.7409680432
 10
275.8737673132
 20
207.8864290488
 10
277.5576079022
 20
208.9848380192
 10
279.3026313953
 20
210.0344133311
 10
281.1060073579
 20
211.0334525693
 10
282.9648107077
 20
211.9803352887
 10
284.8760264588
 20
212.8735256419
 10
286.8365546124
 20
213.7115748711
 10
288.8432151845
 20
214.4931236571
 10
290.8927533644
 20
215.2169043252
 10
292.9818447937
 20
215.8817429003
 10
295.1071009584
 20
216.4865610119
 10
297.2650746852
 20
217.0303776428
 10
299.4522657329
 20
217.5123107204
 10
301.6651264696
 20
217.9315785475
 10
303.9000676271
 20
218.2875010701
 10
306.1534641227
 20
218.5795009807
 10
308.4216609389
 20
218.8071046543
 10
310.7009790523
 20
218.9699429169
 10
312.9877214006
 20
219.0677516443
 10
315.2781788793
 20
219.1003721903
  0
LWPOLYLINE
  5
2EA
330
1F
100
AcDbEntity
  8
0
  6
Continuous
 62
     8
370
    18
100
AcDbPolyline
 90
       75
 70
   128
 43
0.0
 10
253.4894502038
 20
165.4648509474
 10
253.5470435809
 20
165.2520919591
 10
254.0509052314
 20
163.5863704708
 10
254.6446263491
 20
161.9355179713
 10
255.3273355665
 20
160.3019573142
 10
256.0980309136
 20
158.6880859751
 10
256.9555812886
 20
157.0962725328
 10
257.8987281182
 20
155.528853193
 10
258.9260872043
 20
153.9881283596
 10
260.0361507558
 20
152.4763592589
 10
261.2272896014
 20
150.9957646205
 10
262.4977555805
 20
149.5485174211
 10
263.8456841091
 20
148.1367416957
 10
265.2690969163
 20
146.7625094198
 10
266.7659049474
 20
145.4278374687
 10
268.3339114303
 20
144.1346846576
 10
269.9708150992
 20
142.8849488666
 10
271.6742135723
 20
141.6804642552
 10
273.4416068774
 20
140.5229985708
 10
275.270401121
 20
139.4142505538
 10
277.1579122956
 20
138.3558474448
 10
279.1013702181
 20
137.3493425965
 10
281.097922596
 20
136.3962131933
 10
283.1446392134
 20
135.4978580842
 10
285.2385162314
 20
134.6555957292
 10
287.3764805968
 20
133.8706622643
 10
289.555394552
 20
133.1442096878
 10
291.7720602404
 20
132.477304169
 10
294.0232243993
 20
131.8709244836
 10
296.3055831349
 20
131.3259605774
 10
298.6157867711
 20
130.8432122603
 10
300.9504447654
 20
130.4233880318
 10
303.3061306853
 20
130.0671040419
 10
305.6793872368
 20
129.7748831865
 10
308.0667313388
 20
129.5471543401
 10
310.4646592344
 20
129.384251726
 10
312.8696516339
 20
129.2864144264
 10
315.2781788793
 20
129.253786031
 10
317.6867061247
 20
129.2864144264
 10
320.0916985242
 20
129.384251726
 10
322.4896264198
 20
129.5471543401
 10
324.8769705218
 20
129.7748831865
 10
327.2502270733
 20
130.0671040419
 10
329.6059129932
 20
130.4233880318
 10
331.9405709875
 20
130.8432122603
 10
334.2507746237
 20
131.3259605774
 10
336.5331333593
 20
131.8709244836
 10
338.7842975182
 20
132.477304169
 10
341.0009632066
 20
133.1442096878
 10
343.1798771618
 20
133.8706622643
 10
345.3178415272
 20
134.6555957292
 10
347.4117185452
 20
135.4978580842
 10
349.4584351626
 20
136.3962131933
 10
351.4549875406
 20
137.3493425965
 10
353.398445463
 20
138.3558474448
 10
355.2859566376
 20
139.4142505538
 10
357.1147508813
 20
140.5229985708
 10
358.8821441863
 20
141.6804642552
 10
360.5855426594
 20
142.8849488666
 10
362.2224463283
 20
144.1346846576
 10
363.7904528112
 20
145.4278374687
 10
365.2872608423
 20
146.7625094198
 10
366.7106736495
 20
148.1367416957
 10
368.0586021781
 20
149.5485174211
 10
369.3290681572
 20
150.9957646205
 10
370.5202070028
 20
152.4763592589
 10
371.6302705543
 20
153.9881283596
 10
372.6576296404
 20
155.528853193
 10
373.60077647
 20
157.0962725328
 10
374.4583268451
 20
158.6880859751
 10
375.2290221921
 20
160.3019573142
 10
375.9117314095
 20
161.9355179713
 10
376.5054525272
 20
163.5863704708
 10
377.0093141778
 20
165.2520919591
 10
377.0669075548
 20
165.4648509474
  0
LWPOLYLINE
  5
2EB
330
1F
100
AcDbEntity
  8
0
  6
Continuous
 62
     8
370
    18
100
AcDbPolyline
 90
       88
 70
   128
 43
0.0
 10
378.5775799352
 20
177.6647496082
 10
378.7323195062
 20
176.0106482463
 10
378.8013943614
 20
174.3009097305
 10
378.7783666271
 20
172.5905511945
 10
378.6632696912
 20
170.8820524945
 10
378.4562704333
 20
169.1778907904
 10
378.1576689825
 20
167.4805369537
 10
377.7678982825
 20
165.7924519853
 10
377.2875234633
 20
164.1160834468
 10
376.7172410227
 20
162.4538619125
 10
376.0578778156
 20
160.8081974447
 10
375.3103898556
 20
159.1814760995
 10
374.4758609289
 20
157.5760564673
 10
373.5555010226
 20
155.9942662532
 10
372.5506445705
 20
154.4383989017
 10
371.4627485184
 20
152.9107102717
 10
370.2933902117
 20
151.4134153658
 10
369.044265108
 20
149.9486851183
 10
367.7171843194
 20
148.5186432482
 10
366.3140719862
 20
147.1253631793
 10
364.836962487
 20
145.7708650347
 10
363.2879974894
 20
144.4571127071
 10
361.6694228447
 20
143.1860110118
 10
359.9835853312
 20
141.9594029247
 10
358.2329292523
 20
140.7790669104
 10
356.4199928918
 20
139.6467143431
 10
354.5474048343
 20
138.5639870259
 10
352.6178801532
 20
137.5324548099
 10
350.634216475
 20
136.5536133181
 10
348.5992899224
 20
135.6288817771
 10
346.5160509443
 20
134.7596009594
 10
344.3875200381
 20
133.9470312388
 10
342.2167833701
 20
133.1923507639
 10
340.0069883009
 20
132.4966537493
 10
337.7613388221
 20
131.860948889
 10
335.4830909109
 20
131.2861578943
 10
333.1755478088
 20
130.7731141573
 10
330.8420552328
 20
130.3225615422
 10
328.4859965239
 20
129.9351533074
 10
326.1107877422
 20
129.6114511577
 10
323.7198727133
 20
129.3519244303
 10
321.3167180353
 20
129.1569494141
 10
318.9048080528
 20
129.0268088043
 10
316.4876398047
 20
128.9616912923
 10
314.0687179539
 20
128.9616912923
 10
311.6515497058
 20
129.0268088043
 10
309.2396397234
 20
129.1569494141
 10
306.8364850454
 20
129.3519244303
 10
304.4455700164
 20
129.6114511577
 10
302.0703612347
 20
129.9351533074
 10
299.7143025258
 20
130.3225615422
 10
297.3808099498
 20
130.7731141573
 10
295.0732668477
 20
131.2861578943
 10
292.7950189365
 20
131.860948889
 10
290.5493694577
 20
132.4966537493
 10
288.3395743886
 20
133.1923507639
 10
286.1688377205
 20
133.9470312388
 10
284.0403068143
 20
134.7596009594
 10
281.9570678362
 20
135.6288817771
 10
279.9221412836
 20
136.5536133181
 10
277.9384776054
 20
137.5324548099
 10
276.0089529244
 20
138.5639870259
 10
274.1363648668
 20
139.6467143431
 10
272.3234285063
 20
140.7790669104
 10
270.5727724274
 20
141.9594029247
 10
268.8869349139
 20
143.1860110118
 10
267.2683602692
 20
144.4571127071
 10
265.7193952716
 20
145.7708650347
 10
264.2422857724
 20
147.1253631793
 10
262.8391734392
 20
148.5186432482
 10
261.5120926506
 20
149.9486851183
 10
260.2629675469
 20
151.4134153658
 10
259.0936092402
 20
152.9107102717
 10
258.0057131882
 20
154.4383989017
 10
257.0008567361
 20
155.9942662532
 10
256.0804968297
 20
157.5760564673
 10
255.245967903
 20
159.1814760995
 10
254.498479943
 20
160.8081974447
 10
253.8391167359
 20
162.4538619125
 10
253.2688342953
 20
164.1160834468
 10
252.7884594762
 20
165.7924519853
 10
252.3986887761
 20
167.4805369537
 10
252.1000873253
 20
169.1778907904
 10
251.8930880674
 20
170.8820524945
 10
251.7779911316
 20
172.5905511945
 10
251.7549633972
 20
174.3009097305
 10
251.8240382525
 20
176.0106482463
 10
251.9787778235
 20
177.6647496082
  0
LWPOLYLINE
  5
2EC
330
1F
100
AcDbEntity
  8
0
  6
Continuous
 62
     8
370
    18
100
AcDbPolyline
 90
       60
 70
   128
 43
0.0
 10
258.9239231654
 20
152.762385308
 10
258.9360088695
 20
152.7461810755
 10
260.1086472815
 20
151.2446861866
 10
261.36127624
 20
149.7758473016
 10
262.6920795529
 20
148.3417940965
 10
264.0991276825
 20
146.9446058113
 10
265.5803805436
 20
145.5863082354
 10
267.1336904611
 20
144.2688707705
 10
268.7568052842
 20
142.9942035749
 10
270.4473716514
 20
141.7641547943
 10
272.2029384033
 20
140.5805078817
 10
274.0209601359
 20
139.444979012
 10
275.8988008914
 20
138.3592145935
 10
277.8337379803
 20
137.3247888809
 10
279.8229659287
 20
136.3432016925
 10
281.8636005464
 20
135.4158762359
 10
283.9526831082
 20
134.5441570444
 10
286.0871846441
 20
133.7293080274
 10
288.264010331
 20
132.9725106382
 10
290.4800039797
 20
132.2748621606
 10
292.7319526112
 20
131.6373741181
 10
295.0165911155
 20
131.0609708075
 10
297.3306069849
 20
130.5464879586
 10
299.6706451178
 20
130.0946715222
 10
302.0333126825
 20
129.706176589
 10
304.4151840371
 20
129.3815664395
 10
306.8128056956
 20
129.1213117273
 10
309.2227013359
 20
128.925789797
 10
311.6413768398
 20
128.7952841367
 10
314.0653253589
 20
128.729983967
 10
316.4910323997
 20
128.729983967
 10
318.9149809188
 20
128.7952841367
 10
321.3336564227
 20
128.925789797
 10
323.7435520631
 20
129.1213117273
 10
326.1411737216
 20
129.3815664395
 10
328.5230450761
 20
129.706176589
 10
330.8857126408
 20
130.0946715222
 10
333.2257507737
 20
130.5464879586
 10
335.5397666432
 20
131.0609708075
 10
337.8244051474
 20
131.6373741181
 10
340.0763537789
 20
132.2748621606
 10
342.2923474276
 20
132.9725106382
 10
344.4691731145
 20
133.7293080274
 10
346.6036746504
 20
134.5441570444
 10
348.6927572122
 20
135.4158762359
 10
350.7333918299
 20
136.3432016925
 10
352.7226197784
 20
137.3247888809
 10
354.6575568672
 20
138.3592145935
 10
356.5353976227
 20
139.444979012
 10
358.3534193553
 20
140.5805078817
 10
360.1089861072
 20
141.7641547943
 10
361.7995524745
 20
142.9942035749
 10
363.4226672975
 20
144.2688707705
 10
364.975977215
 20
145.5863082354
 10
366.4572300761
 20
146.9446058113
 10
367.8642782057
 20
148.3417940965
 10
369.1950815186
 20
149.7758473016
 10
370.4477104771
 20
151.2446861866
 10
371.6203488891
 20
152.7461810755
 10
371.6324345932
 20
152.762385308
  0
LWPOLYLINE
  5
2ED
330
1F
100
AcDbEntity
  8
0
  6
Continuous
 62
     8
370
    18
100
AcDbPolyline
 90
       59
 70
   128
 43
0.0
 10
259.6269711361
 20
151.8192901273
 10
260.0113733521
 20
151.3116314422
 10
261.2030464527
 20
149.8303727208
 10
262.4740822669
 20
148.3824763956
 10
263.8226153746
 20
146.9700674542
 10
265.2466666173
 20
145.5952188014
 10
266.7441460035
 20
144.2599482172
 10
268.3128557757
 20
142.9662153954
 10
269.950493636
 20
141.7159190672
 10
271.6546561251
 20
140.510894215
 10
273.4228421494
 20
139.3529093788
 10
275.2524566521
 20
138.2436640612
 10
277.1408144216
 20
137.1847862325
 10
279.0851440326
 20
136.177829942
 10
281.0825919132
 20
135.224273037
 10
283.1302265332
 20
134.3255149936
 10
285.2250427064
 20
133.4828748632
 10
287.3639660012
 20
132.6975893365
 10
289.5438572528
 20
131.9708109282
 10
291.76151717
 20
131.3036062859
 10
294.0136910312
 20
130.6969546243
 10
296.2970734607
 20
130.1517462885
 10
298.6083132798
 20
129.6687814469
 10
300.9440184255
 20
129.2487689169
 10
303.3007609282
 20
128.892325125
 10
305.6750819435
 20
128.5999732014
 10
308.0634968278
 20
128.372142213
 10
310.4625002529
 20
128.2091665331
 10
312.8685713504
 20
128.1112853511
 10
315.2781788793
 20
128.078642321
 10
317.6877864082
 20
128.1112853511
 10
320.0938575057
 20
128.2091665331
 10
322.4928609308
 20
128.372142213
 10
324.8812758151
 20
128.5999732014
 10
327.2555968304
 20
128.892325125
 10
329.6123393332
 20
129.2487689169
 10
331.9480444788
 20
129.6687814469
 10
334.2592842979
 20
130.1517462885
 10
336.5426667274
 20
130.6969546243
 10
338.7948405886
 20
131.3036062859
 10
341.0125005059
 20
131.9708109282
 10
343.1923917574
 20
132.6975893365
 10
345.3313150522
 20
133.4828748632
 10
347.4261312254
 20
134.3255149936
 10
349.4737658454
 20
135.224273037
 10
351.471213726
 20
136.177829942
 10
353.415543337
 20
137.1847862325
 10
355.3039011065
 20
138.2436640612
 10
357.1335156093
 20
139.3529093788
 10
358.9017016336
 20
140.510894215
 10
360.6058641226
 20
141.7159190672
 10
362.2435019829
 20
142.9662153954
 10
363.8122117551
 20
144.2599482172
 10
365.3096911414
 20
145.5952188014
 10
366.7337423841
 20
146.9700674542
 10
368.0822754917
 20
148.3824763956
 10
369.3533113059
 20
149.8303727208
 10
370.5449844065
 20
151.3116314422
 10
370.9293866225
 20
151.8192901273
  0
ARC
  5
2EE
330
1F
100
AcDbEntity
  8
0
  6
Continuous
 62
     8
370
    18
100
AcDbCircle
 10
315.6929496399
 20
132.7636258217
 30
0.0
 40
85.4563073342541
100
AcDbArc
 50
78.6768617117
 51
82.1489889281
  0
LWPOLYLINE
  5
2EF
330
1F
100
AcDbEntity
  8
0
  6
Continuous
 62
     8
370
    18
100
AcDbPolyline
 90
       80
 70
   128
 43
0.0
 10
378.1036527291
 20
169.7179999275
 10
378.0034862333
 20
168.9861235946
 10
377.7070247968
 20
167.3009343387
 10
377.3200475021
 20
165.624947523
 10
376.843115429
 20
163.960593168
 10
376.2769200837
 20
162.3102844287
 10
375.6222823951
 20
160.6764140947
 10
374.8801515254
 20
159.061351122
 10
374.0516034933
 20
157.4674371973
 10
373.1378396144
 20
155.8969833436
 10
372.1401847588
 20
154.3522665688
 10
371.0600854308
 20
152.8355265645
 10
369.8991076711
 20
151.3489624587
 10
368.6589347864
 20
149.8947296273
 10
367.3413649089
 20
148.4749365689
 10
365.948308389
 20
147.0916418476
 10
364.4817850254
 20
145.7468511085
 10
362.9439211368
 20
144.4425141698
 10
361.3369464788
 20
143.1805221951
 10
359.663191011
 20
141.9627049523
 10
357.9250815189
 20
140.7908281599
 10
356.1251380951
 20
139.6665909272
 10
354.2659704854
 20
138.5916232907
 10
352.3502743052
 20
137.5674838509
 10
350.3808271307
 20
136.5956575118
 10
348.3604844721
 20
135.6775533289
 10
346.2921756331
 20
134.8145024653
 10
344.1788994637
 20
134.0077562624
 10
342.0237200125
 20
133.258484425
 10
339.8297620835
 20
132.5677733257
 10
337.600206706
 20
131.9366244295
 10
335.3382865221
 20
131.365952842
 10
333.0472811
 20
130.8565859823
 10
330.7305121784
 20
130.4092623839
 10
328.3913388507
 20
130.024630623
 10
326.0331526947
 20
129.7032483791
 10
323.6593728549
 20
129.4455816256
 10
321.2734410851
 20
129.2520039547
 10
318.8788167582
 20
129.1227960355
 10
316.4789718506
 20
129.0581452071
 10
314.077385908
 20
129.0581452071
 10
311.6775410004
 20
129.1227960355
 10
309.2829166735
 20
129.2520039547
 10
306.8969849037
 20
129.4455816256
 10
304.5232050639
 20
129.7032483791
 10
302.1650189079
 20
130.024630623
 10
299.8258455803
 20
130.4092623839
 10
297.5090766586
 20
130.8565859823
 10
295.2180712365
 20
131.365952842
 10
292.9561510526
 20
131.9366244295
 10
290.7265956752
 20
132.5677733257
 10
288.5326377462
 20
133.258484425
 10
286.3774582949
 20
134.0077562624
 10
284.2641821256
 20
134.8145024653
 10
282.1958732866
 20
135.6775533289
 10
280.1755306279
 20
136.5956575118
 10
278.2060834535
 20
137.5674838509
 10
276.2903872732
 20
138.5916232907
 10
274.4312196635
 20
139.6665909272
 10
272.6312762397
 20
140.7908281599
 10
270.8931667476
 20
141.9627049523
 10
269.2194112798
 20
143.1805221951
 10
267.6124366218
 20
144.4425141698
 10
266.0745727332
 20
145.7468511085
 10
264.6080493696
 20
147.0916418476
 10
263.2149928497
 20
148.4749365689
 10
261.8974229722
 20
149.8947296273
 10
260.6572500876
 20
151.3489624587
 10
259.4962723278
 20
152.8355265645
 10
258.4161729998
 20
154.3522665688
 10
257.4185181442
 20
155.8969833436
 10
256.5047542653
 20
157.4674371973
 10
255.6762062332
 20
159.061351122
 10
254.9340753635
 20
160.6764140947
 10
254.279437675
 20
162.3102844287
 10
253.7132423296
 20
163.960593168
 10
253.2363102566
 20
165.624947523
 10
252.8493329618
 20
167.3009343387
 10
252.5528715253
 20
168.9861235946
 10
252.4527050295
 20
169.7179999275
  0
ARC
  5
2F0
330
1F
100
AcDbEntity
  8
0
  6
Continuous
 62
     8
370
    18
100
AcDbCircle
 10
314.8634081185
 20
132.763625823
 30
0.0
 40
85.45630733296194
100
AcDbArc
 50
97.8510110719
 51
101.3231382884
  0
LWPOLYLINE
  5
2F1
330
1F
100
AcDbEntity
  8
0
  6
Continuous
 62
     8
370
    18
100
AcDbPolyline
 90
       49
 70
   128
 43
0.0
 10
315.2781788793
 20
215.486543483
 10
313.0162401715
 20
215.4539106155
 10
310.7580662375
 20
215.3560663272
 10
308.5074155849
 20
215.1931734703
 10
306.2680341996
 20
214.9655031638
 10
304.0436493109
 20
214.6734343425
 10
301.837963188
 20
214.3174531262
 10
299.6546469777
 20
213.8981520104
 10
297.4973345943
 20
213.4162288804
 10
295.3696166715
 20
212.8724858498
 10
293.2750345857
 20
212.2678279252
 10
291.2170745621
 20
211.6032614999
 10
289.1991618721
 20
210.8798926793
 10
287.2246551322
 20
210.0989254394
 10
285.296840714
 20
209.261659623
 10
283.4189272743
 20
208.3694887764
 10
281.5940404147
 20
207.4238978301
 10
279.8252174794
 20
206.4264606268
 10
278.1154024995
 20
205.3788373022
 10
276.4674412933
 20
204.2827715221
 10
274.8840767296
 20
203.1400875797
 10
273.3679441625
 20
201.9526873598
 10
271.921567045
 20
200.7225471727
 10
270.5473527291
 20
199.4517144655
 10
269.2475884588
 20
198.1423044137
 10
268.0244375636
 20
196.7964964011
 10
266.8799358574
 20
195.4165303924
 10
265.8159882503
 20
194.0047032049
 10
264.8343655781
 20
192.5633646854
 10
263.9367016549
 20
191.0949137999
 10
263.1244905537
 20
189.6017946397
 10
262.3990841197
 20
188.0864923545
 10
261.7616897203
 20
186.5515290153
 10
261.2133682357
 20
184.9994594171
 10
260.7550322927
 20
183.4328668266
 10
260.3874447464
 20
181.8543586826
 10
260.11121741
 20
180.266562256
 10
259.9268100365
 20
178.6721202774
 10
259.8345295539
 20
177.073686538
 10
259.8345295539
 20
175.4739214731
 10
259.9268100365
 20
173.8754877338
 10
260.11121741
 20
172.2810457551
 10
260.3874447464
 20
170.6932493286
 10
260.7550322927
 20
169.1147411846
 10
261.2133682357
 20
167.5481485941
 10
261.7616897203
 20
165.9960789959
 10
262.3990841197
 20
164.4611156567
 10
263.1244905537
 20
162.9458133714
 10
263.5318978783
 20
162.1741537046
  0
LWPOLYLINE
  5
2F2
330
1F
100
AcDbEntity
  8
0
  6
Continuous
 62
     8
370
    18
100
AcDbPolyline
 90
       49
 70
   128
 43
0.0
 10
367.0244598803
 20
162.1741537046
 10
367.4318672049
 20
162.9458133714
 10
368.1572736389
 20
164.4611156567
 10
368.7946680383
 20
165.9960789959
 10
369.3429895229
 20
167.5481485941
 10
369.8013254659
 20
169.1147411846
 10
370.1689130122
 20
170.6932493286
 10
370.4451403487
 20
172.2810457551
 10
370.6295477221
 20
173.8754877338
 10
370.7218282047
 20
175.4739214731
 10
370.7218282047
 20
177.073686538
 10
370.6295477221
 20
178.6721202774
 10
370.4451403487
 20
180.266562256
 10
370.1689130122
 20
181.8543586826
 10
369.8013254659
 20
183.4328668266
 10
369.3429895229
 20
184.9994594171
 10
368.7946680383
 20
186.5515290153
 10
368.1572736389
 20
188.0864923545
 10
367.4318672049
 20
189.6017946397
 10
366.6196561037
 20
191.0949137999
 10
365.7219921805
 20
192.5633646854
 10
364.7403695083
 20
194.0047032049
 10
363.6764219012
 20
195.4165303924
 10
362.531920195
 20
196.7964964011
 10
361.3087692998
 20
198.1423044137
 10
360.0090050295
 20
199.4517144655
 10
358.6347907136
 20
200.7225471727
 10
357.1884135961
 20
201.9526873598
 10
355.672281029
 20
203.1400875797
 10
354.0889164653
 20
204.2827715221
 10
352.4409552591
 20
205.3788373022
 10
350.7311402792
 20
206.4264606268
 10
348.9623173439
 20
207.4238978301
 10
347.1374304843
 20
208.3694887764
 10
345.2595170447
 20
209.261659623
 10
343.3317026264
 20
210.0989254394
 10
341.3571958865
 20
210.8798926793
 10
339.3392831965
 20
211.6032614999
 10
337.2813231729
 20
212.2678279252
 10
335.1867410871
 20
212.8724858498
 10
333.0590231643
 20
213.4162288804
 10
330.901710781
 20
213.8981520104
 10
328.7183945706
 20
214.3174531262
 10
326.5127084477
 20
214.6734343425
 10
324.288323559
 20
214.9655031638
 10
322.0489421737
 20
215.1931734703
 10
319.7982915211
 20
215.3560663272
 10
317.5401175871
 20
215.4539106155
 10
315.2781788793
 20
215.486543483
  0
LWPOLYLINE
  5
2F3
330
1F
100
AcDbEntity
  8
0
  6
Continuous
 62
     8
370
    18
100
AcDbPolyline
 90
       61
 70
   128
 43
0.0
 10
371.8163182952
 20
153.010926731
 10
371.6302705543
 20
152.7429701779
 10
370.5202070028
 20
151.2312010772
 10
369.3290681572
 20
149.7506064387
 10
368.0586021781
 20
148.3033592394
 10
366.7106736495
 20
146.891583514
 10
365.2872608423
 20
145.5173512381
 10
363.7904528112
 20
144.182679287
 10
362.2224463283
 20
142.8895264759
 10
360.5855426594
 20
141.6397906848
 10
358.8821441863
 20
140.4353060735
 10
357.1147508813
 20
139.277840389
 10
355.2859566376
 20
138.169092372
 10
353.398445463
 20
137.1106892631
 10
351.4549875406
 20
136.1041844147
 10
349.4584351626
 20
135.1510550116
 10
347.4117185452
 20
134.2526999025
 10
345.3178415272
 20
133.4104375474
 10
343.1798771618
 20
132.6255040826
 10
341.0009632066
 20
131.8990515061
 10
338.7842975182
 20
131.2321459872
 10
336.5331333593
 20
130.6257663018
 10
334.2507746237
 20
130.0808023957
 10
331.9405709875
 20
129.5980540785
 10
329.6059129932
 20
129.17822985
 10
327.2502270733
 20
128.8219458602
 10
324.8769705218
 20
128.5297250048
 10
322.4896264198
 20
128.3019961584
 10
320.0916985242
 20
128.1390935443
 10
317.6867061247
 20
128.0412562447
 10
315.2781788793
 20
128.0086278493
 10
312.8696516339
 20
128.0412562447
 10
310.4646592344
 20
128.1390935443
 10
308.0667313388
 20
128.3019961584
 10
305.6793872368
 20
128.5297250048
 10
303.3061306853
 20
128.8219458602
 10
300.9504447654
 20
129.17822985
 10
298.6157867711
 20
129.5980540785
 10
296.3055831349
 20
130.0808023957
 10
294.0232243993
 20
130.6257663018
 10
291.7720602404
 20
131.2321459872
 10
289.555394552
 20
131.8990515061
 10
287.3764805968
 20
132.6255040826
 10
285.2385162314
 20
133.4104375474
 10
283.1446392134
 20
134.2526999025
 10
281.097922596
 20
135.1510550116
 10
279.1013702181
 20
136.1041844147
 10
277.1579122956
 20
137.1106892631
 10
275.270401121
 20
138.169092372
 10
273.4416068774
 20
139.277840389
 10
271.6742135723
 20
140.4353060735
 10
269.9708150992
 20
141.6397906848
 10
268.3339114303
 20
142.8895264759
 10
266.7659049474
 20
144.182679287
 10
265.2690969163
 20
145.5173512381
 10
263.8456841091
 20
146.891583514
 10
262.4977555805
 20
148.3033592394
 10
261.2272896014
 20
149.7506064387
 10
260.0361507558
 20
151.2312010772
 10
258.9260872043
 20
152.7429701779
 10
258.7400394635
 20
153.010926731
  0
LWPOLYLINE
  5
2F4
330
1F
100
AcDbEntity
  8
0
  6
Continuous
 62
     8
370
    18
100
AcDbPolyline
 90
       67
 70
   128
 43
0.0
 10
255.6695167129
 20
157.8766173078
 10
256.0980309136
 20
157.0046087306
 10
256.9555812886
 20
155.4127952883
 10
257.8987281182
 20
153.8453759484
 10
258.9260872043
 20
152.3046511151
 10
260.0361507558
 20
150.7928820144
 10
261.2272896014
 20
149.312287376
 10
262.4977555805
 20
147.8650401766
 10
263.8456841091
 20
146.4532644512
 10
265.2690969163
 20
145.0790321753
 10
266.7659049474
 20
143.7443602242
 10
268.3339114303
 20
142.4512074131
 10
269.9708150992
 20
141.201471622
 10
271.6742135723
 20
139.9969870107
 10
273.4416068774
 20
138.8395213262
 10
275.270401121
 20
137.7307733093
 10
277.1579122956
 20
136.6723702003
 10
279.1013702181
 20
135.6658653519
 10
281.097922596
 20
134.7127359488
 10
283.1446392134
 20
133.8143808397
 10
285.2385162314
 20
132.9721184846
 10
287.3764805968
 20
132.1871850198
 10
289.555394552
 20
131.4607324433
 10
291.7720602404
 20
130.7938269244
 10
294.0232243993
 20
130.187447239
 10
296.3055831349
 20
129.6424833329
 10
298.6157867711
 20
129.1597350157
 10
300.9504447654
 20
128.7399107872
 10
303.3061306853
 20
128.3836267974
 10
305.6793872368
 20
128.091405942
 10
308.0667313388
 20
127.8636770956
 10
310.4646592344
 20
127.7007744815
 10
312.8696516339
 20
127.6029371819
 10
315.2781788793
 20
127.5703087865
 10
317.6867061247
 20
127.6029371819
 10
320.0916985242
 20
127.7007744815
 10
322.4896264198
 20
127.8636770956
 10
324.8769705218
 20
128.091405942
 10
327.2502270733
 20
128.3836267974
 10
329.6059129932
 20
128.7399107872
 10
331.9405709875
 20
129.1597350157
 10
334.2507746237
 20
129.6424833329
 10
336.5331333593
 20
130.1874472391
 10
338.7842975182
 20
130.7938269244
 10
341.0009632066
 20
131.4607324433
 10
343.1798771618
 20
132.1871850198
 10
345.3178415272
 20
132.9721184846
 10
347.4117185452
 20
133.8143808397
 10
349.4584351626
 20
134.7127359488
 10
351.4549875406
 20
135.6658653519
 10
353.398445463
 20
136.6723702003
 10
355.2859566376
 20
137.7307733093
 10
357.1147508813
 20
138.8395213262
 10
358.8821441863
 20
139.9969870107
 10
360.5855426594
 20
141.201471622
 10
362.2224463283
 20
142.4512074131
 10
363.7904528112
 20
143.7443602242
 10
365.2872608423
 20
145.0790321753
 10
366.7106736495
 20
146.4532644512
 10
368.0586021781
 20
147.8650401766
 10
369.3290681572
 20
149.312287376
 10
370.5202070028
 20
150.7928820144
 10
371.6302705543
 20
152.3046511151
 10
372.6576296404
 20
153.8453759484
 10
373.60077647
 20
155.4127952883
 10
374.4583268451
 20
157.0046087306
 10
374.8868410457
 20
157.8766173078
  0
LINE
  5
2F5
330
1F
100
AcDbEntity
  8
0
  6
Continuous
 62
     8
370
    18
100
AcDbLine
 10
358.2676062044
 20
204.4452180434
 30
0.0
 11
358.6557053332
 21
204.1871130045
 31
0.0
  0
LWPOLYLINE
  5
2F6
330
1F
100
AcDbEntity
  8
0
  6
Continuous
 62
     8
370
    18
100
AcDbPolyline
 90
       72
 70
   128
 43
0.0
 10
376.6536103358
 20
161.6991501356
 10
376.2392380973
 20
160.5192158633
 10
375.5850048113
 20
158.8863548531
 10
374.8433323931
 20
157.2722895859
 10
374.0152961968
 20
155.679360302
 10
373.1020967957
 20
154.1098765965
 10
372.1050582417
 20
152.5661140708
 10
371.0256261452
 20
151.050311033
 10
369.8653655798
 20
149.5646652526
 10
368.6259588122
 20
148.1113307738
 10
367.3092028638
 20
146.6924147929
 10
365.9170069049
 20
145.3099746022
 10
364.4513894864
 20
143.9660146079
 10
362.9144756136
 20
142.6624834236
 10
361.3084936645
 20
141.4012710447
 10
359.6357721596
 20
140.1842061088
 10
357.8987363851
 20
139.0130532435
 10
356.0999048767
 20
137.8895105087
 10
354.2418857682
 20
136.8152069338
 10
352.3273730097
 20
135.7917001562
 10
350.3591424617
 20
134.8204741631
 10
348.3400478702
 20
133.9029371392
 10
346.2730167295
 20
133.0404194256
 10
344.1610460369
 20
132.2341715903
 10
342.0071979483
 20
131.4853626158
 10
339.8145953373
 20
130.7950782034
 10
337.5864172682
 20
130.1643191996
 10
335.325894386
 20
129.5940001445
 10
333.036304233
 20
129.0849479464
 10
330.7209664959
 20
128.6379006822
 10
328.3832381931
 20
128.2535065277
 10
326.0265088072
 20
127.9323228178
 10
323.6541953704
 20
127.6748152379
 10
321.2697375105
 20
127.4813571497
 10
318.8765924633
 20
127.3522290487
 10
316.4782300605
 20
127.2876181584
 10
314.0781276981
 20
127.2876181584
 10
311.6797652953
 20
127.3522290487
 10
309.2866202481
 20
127.4813571497
 10
306.9021623882
 20
127.6748152379
 10
304.5298489514
 20
127.9323228178
 10
302.1731195655
 20
128.2535065277
 10
299.8353912627
 20
128.6379006822
 10
297.5200535256
 20
129.0849479464
 10
295.2304633726
 20
129.5940001445
 10
292.9699404905
 20
130.1643191996
 10
290.7417624213
 20
130.7950782034
 10
288.5491598103
 20
131.4853626158
 10
286.3953117217
 20
132.2341715903
 10
284.2833410292
 20
133.0404194256
 10
282.2163098884
 20
133.9029371392
 10
280.1972152969
 20
134.8204741631
 10
278.2289847489
 20
135.7917001562
 10
276.3144719904
 20
136.8152069338
 10
274.4564528819
 20
137.8895105087
 10
272.6576213736
 20
139.0130532436
 10
270.920585599
 20
140.1842061088
 10
269.2478640941
 20
141.4012710447
 10
267.641882145
 20
142.6624834236
 10
266.1049682722
 20
143.9660146079
 10
264.6393508537
 20
145.3099746022
 10
263.2471548948
 20
146.6924147929
 10
261.9303989464
 20
148.1113307738
 10
260.6909921788
 20
149.5646652526
 10
259.5307316134
 20
151.050311033
 10
258.451299517
 20
152.5661140708
 10
257.4542609629
 20
154.1098765965
 10
256.5410615618
 20
155.679360302
 10
255.7130253655
 20
157.2722895859
 10
254.9713529473
 20
158.8863548531
 10
254.3171196613
 20
160.5192158633
 10
253.9027474228
 20
161.6991501356
  0
LINE
  5
2F7
330
1F
100
AcDbEntity
  8
0
  6
Continuous
 62
     8
370
    18
100
AcDbLine
 10
273.2480817681
 20
205.2091421327
 30
0.0
 11
272.5304567482
 21
204.7515683927
 31
0.0
  0
LWPOLYLINE
  5
2F8
330
1F
100
AcDbEntity
  8
0
  6
Continuous
 62
     8
370
    18
100
AcDbPolyline
 90
       78
 70
   128
 43
0.0
 10
252.4286251494
 20
166.4133065877
 10
252.6229895962
 20
165.3705897519
 10
253.0113699242
 20
163.6885264424
 10
253.4900311724
 20
162.0181377685
 10
254.0582793277
 20
160.3618456343
 10
254.7152904848
 20
158.722051505
 10
255.4601120401
 20
157.1011329252
 10
256.2916640737
 20
155.501440072
 10
257.2087409146
 20
153.925292347
 10
258.2100128891
 20
152.3749750139
 10
259.2940282485
 20
150.8527358844
 10
260.4592152741
 20
149.3607820599
 10
261.7038845562
 20
147.9012767307
 10
263.0262314434
 20
146.47633604
 10
264.424338659
 20
145.0880260156
 10
265.8961790812
 20
143.7383595743
 10
267.4396186822
 20
142.4292936035
 10
269.052419622
 20
141.1627261236
 10
270.7322434936
 20
139.9404935364
 10
272.4766547128
 20
138.7643679623
 10
274.2831240502
 20
137.636054671
 10
276.149032298
 20
136.5571896088
 10
278.0716740675
 20
135.5293370269
 10
280.0482617119
 20
134.5539872134
 10
282.0759293683
 20
133.6325543322
 10
284.1517371123
 20
132.7663743729
 10
286.2726752212
 20
131.9567032136
 10
288.4356685374
 20
131.2047148002
 10
290.6375809274
 20
130.5114994438
 10
292.8752198288
 20
129.8780622406
 10
295.145340879
 20
129.3053216139
 10
297.4446526197
 20
128.7941079828
 10
299.7698212685
 20
128.3451625583
 10
302.1174755533
 20
127.9591362683
 10
304.4842115996
 20
127.636588814
 10
306.8665978667
 20
127.3779878584
 10
309.261180122
 20
127.1837083481
 10
311.6644864503
 20
127.0540319699
 10
314.0730322872
 20
126.9891467421
 10
316.4833254714
 20
126.9891467421
 10
318.8918713083
 20
127.0540319699
 10
321.2951776366
 20
127.1837083481
 10
323.6897598919
 20
127.3779878584
 10
326.072146159
 20
127.636588814
 10
328.4388822054
 20
127.9591362683
 10
330.7865364901
 20
128.3451625583
 10
333.1117051389
 20
128.7941079828
 10
335.4110168796
 20
129.3053216139
 10
337.6811379299
 20
129.8780622406
 10
339.9187768312
 20
130.5114994438
 10
342.1206892213
 20
131.2047148002
 10
344.2836825375
 20
131.9567032136
 10
346.4046206463
 20
132.7663743729
 10
348.4804283903
 20
133.6325543322
 10
350.5080960467
 20
134.5539872134
 10
352.4846836912
 20
135.5293370269
 10
354.4073254607
 20
136.5571896088
 10
356.2732337084
 20
137.636054671
 10
358.0797030458
 20
138.7643679623
 10
359.824114265
 20
139.9404935364
 10
361.5039381366
 20
141.1627261236
 10
363.1167390764
 20
142.4292936035
 10
364.6601786774
 20
143.7383595743
 10
366.1320190996
 20
145.0880260156
 10
367.5301263152
 20
146.47633604
 10
368.8524732024
 20
147.9012767307
 10
370.0971424845
 20
149.3607820599
 10
371.2623295102
 20
150.8527358844
 10
372.3463448695
 20
152.3749750139
 10
373.347616844
 20
153.925292347
 10
374.2646936849
 20
155.501440072
 10
375.0962457185
 20
157.1011329252
 10
375.8410672738
 20
158.722051505
 10
376.4980784309
 20
160.3618456343
 10
377.0663265863
 20
162.0181377685
 10
377.5449878345
 20
163.6885264424
 10
377.9333681625
 20
165.3705897519
 10
378.1277326093
 20
166.4133065877
  0
LINE
  5
2F9
330
1F
100
AcDbEntity
  8
0
  6
Continuous
 62
     8
370
    18
100
AcDbLine
 10
358.0259010104
 20
204.7515683927
 30
0.0
 11
357.3082759905
 21
205.2091421327
 31
0.0
  0
LWPOLYLINE
  5
2FA
330
1F
100
AcDbEntity
  8
0
  6
Continuous
 62
     8
370
    18
100
AcDbPolyline
 90
       71
 70
   128
 43
0.0
 10
254.150447544
 20
159.7480488965
 10
254.6446263491
 20
158.3934093567
 10
255.3273355665
 20
156.7598486997
 10
256.0980309136
 20
155.1459773606
 10
256.9555812886
 20
153.5541639183
 10
257.8987281182
 20
151.9867445784
 10
258.9260872043
 20
150.4460197451
 10
260.0361507558
 20
148.9342506443
 10
261.2272896014
 20
147.4536560059
 10
262.4977555805
 20
146.0064088066
 10
263.8456841091
 20
144.5946330812
 10
265.2690969163
 20
143.2204008052
 10
266.7659049474
 20
141.8857288542
 10
268.3339114303
 20
140.5925760431
 10
269.9708150992
 20
139.342840252
 10
271.6742135723
 20
138.1383556406
 10
273.4416068774
 20
136.9808899562
 10
275.270401121
 20
135.8721419392
 10
277.1579122956
 20
134.8137388303
 10
279.1013702181
 20
133.8072339819
 10
281.097922596
 20
132.8541045787
 10
283.1446392134
 20
131.9557494696
 10
285.2385162314
 20
131.1134871146
 10
287.3764805968
 20
130.3285536498
 10
289.555394552
 20
129.6021010733
 10
291.7720602404
 20
128.9351955544
 10
294.0232243993
 20
128.328815869
 10
296.3055831349
 20
127.7838519629
 10
298.6157867711
 20
127.3011036457
 10
300.9504447654
 20
126.8812794172
 10
303.3061306853
 20
126.5249954273
 10
305.6793872368
 20
126.232774572
 10
308.0667313388
 20
126.0050457255
 10
310.4646592344
 20
125.8421431115
 10
312.8696516339
 20
125.7443058119
 10
315.2781788793
 20
125.7116774165
 10
317.6867061247
 20
125.7443058119
 10
320.0916985242
 20
125.8421431115
 10
322.4896264198
 20
126.0050457255
 10
324.8769705218
 20
126.232774572
 10
327.2502270733
 20
126.5249954273
 10
329.6059129932
 20
126.8812794172
 10
331.9405709875
 20
127.3011036457
 10
334.2507746237
 20
127.7838519629
 10
336.5331333593
 20
128.328815869
 10
338.7842975182
 20
128.9351955544
 10
341.0009632066
 20
129.6021010733
 10
343.1798771618
 20
130.3285536498
 10
345.3178415272
 20
131.1134871146
 10
347.4117185452
 20
131.9557494696
 10
349.4584351626
 20
132.8541045787
 10
351.4549875406
 20
133.8072339819
 10
353.398445463
 20
134.8137388303
 10
355.2859566376
 20
135.8721419392
 10
357.1147508813
 20
136.9808899562
 10
358.8821441863
 20
138.1383556406
 10
360.5855426594
 20
139.342840252
 10
362.2224463283
 20
140.5925760431
 10
363.7904528112
 20
141.8857288542
 10
365.2872608423
 20
143.2204008052
 10
366.7106736495
 20
144.5946330812
 10
368.0586021781
 20
146.0064088066
 10
369.3290681572
 20
147.4536560059
 10
370.5202070028
 20
148.9342506443
 10
371.6302705543
 20
150.4460197451
 10
372.6576296404
 20
151.9867445784
 10
373.60077647
 20
153.5541639183
 10
374.4583268451
 20
155.1459773606
 10
375.2290221921
 20
156.7598486997
 10
375.9117314095
 20
158.3934093567
 10
376.4059102146
 20
159.7480488965
  0
LWPOLYLINE
  5
2FB
330
1F
100
AcDbEntity
  8
0
  6
Continuous
 62
     8
370
    18
100
AcDbPolyline
 90
       29
 70
   128
 43
0.0
 10
315.2781788793
 20
213.5719985321
 10
313.0024403085
 20
213.5395876118
 10
310.730392994
 20
213.4424074216
 10
308.4657222049
 20
213.2806155881
 10
306.2121012454
 20
213.0544745383
 10
303.9731854969
 20
212.7643510737
 10
301.7526064891
 20
212.4107157757
 10
299.5539660091
 20
211.994142242
 10
297.38083026
 20
211.5153061565
 10
295.2367240757
 20
210.9749841929
 10
293.1251252044
 20
210.3740527556
 10
291.0494586672
 20
209.7134865574
 10
289.0130912027
 20
208.9943570392
 10
287.0193258066
 20
208.2178306318
 10
285.0713963734
 20
207.3851668636
 10
283.1724624519
 20
206.4977163186
 10
281.3256041199
 20
205.5569184445
 10
279.5338169883
 20
204.5642992192
 10
277.8000073424
 20
203.5214686745
 10
276.1269874278
 20
202.4301182855
 10
274.5174708889
 20
201.2920182264
 10
272.9740683674
 20
200.1090144997
 10
271.4992832679
 20
198.8830259418
 10
270.0955076971
 20
197.6160411106
 10
268.7650185843
 20
196.3101150601
 10
267.5099739875
 20
194.9673660072
 10
266.3324095937
 20
193.5899718958
 10
265.2342354167
 20
192.1801668641
 10
264.6271434595
 20
191.3381979206
  0
LWPOLYLINE
  5
2FC
330
1F
100
AcDbEntity
  8
0
  6
Continuous
 62
     8
370
    18
100
AcDbPolyline
 90
       29
 70
   128
 43
0.0
 10
365.9292142991
 20
191.3381979206
 10
365.3221223419
 20
192.1801668641
 10
364.2239481649
 20
193.5899718958
 10
363.0463837712
 20
194.9673660072
 10
361.7913391744
 20
196.3101150601
 10
360.4608500615
 20
197.6160411106
 10
359.0570744907
 20
198.8830259418
 10
357.5822893912
 20
200.1090144997
 10
356.0388868697
 20
201.2920182264
 10
354.4293703308
 20
202.4301182855
 10
352.7563504162
 20
203.5214686745
 10
351.0225407703
 20
204.5642992192
 10
349.2307536387
 20
205.5569184445
 10
347.3838953067
 20
206.4977163186
 10
345.4849613852
 20
207.3851668636
 10
343.5370319521
 20
208.2178306318
 10
341.5432665559
 20
208.9943570392
 10
339.5068990914
 20
209.7134865574
 10
337.4312325542
 20
210.3740527556
 10
335.3196336829
 20
210.9749841929
 10
333.1755274987
 20
211.5153061565
 10
331.0023917495
 20
211.994142242
 10
328.8037512695
 20
212.4107157757
 10
326.5831722617
 20
212.7643510737
 10
324.3442565133
 20
213.0544745383
 10
322.0906355537
 20
213.2806155881
 10
319.8259647646
 20
213.4424074216
 10
317.5539174501
 20
213.5395876118
 10
315.2781788793
 20
213.5719985321
  0
LWPOLYLINE
  5
2FD
330
1F
100
AcDbEntity
  8
0
  6
Continuous
 62
     8
370
    18
100
AcDbPolyline
 90
       78
 70
   128
 43
0.0
 10
377.8402162326
 20
164.5594892247
 10
377.668459363
 20
163.6481514282
 10
377.2817211235
 20
161.9731999537
 10
376.8050836754
 20
160.3098737541
 10
376.2392380973
 20
158.6605844933
 10
375.5850048113
 20
157.0277234831
 10
374.8433323931
 20
155.4136582159
 10
374.0152961968
 20
153.8207289319
 10
373.1020967957
 20
152.2512452265
 10
372.1050582417
 20
150.7074827008
 10
371.0256261452
 20
149.191679663
 10
369.8653655798
 20
147.7060338825
 10
368.6259588122
 20
146.2526994038
 10
367.3092028638
 20
144.8337834228
 10
365.9170069049
 20
143.4513432322
 10
364.4513894864
 20
142.1073832379
 10
362.9144756136
 20
140.8038520536
 10
361.3084936645
 20
139.5426396747
 10
359.6357721596
 20
138.3255747388
 10
357.8987363851
 20
137.1544218735
 10
356.0999048767
 20
136.0308791387
 10
354.2418857682
 20
134.9565755637
 10
352.3273730097
 20
133.9330687862
 10
350.3591424617
 20
132.9618427931
 10
348.3400478702
 20
132.0443057692
 10
346.2730167295
 20
131.1817880556
 10
344.1610460369
 20
130.3755402203
 10
342.0071979483
 20
129.6267312458
 10
339.8145953373
 20
128.9364468334
 10
337.5864172682
 20
128.3056878296
 10
335.325894386
 20
127.7353687745
 10
333.036304233
 20
127.2263165764
 10
330.7209664959
 20
126.7792693122
 10
328.3832381931
 20
126.3948751577
 10
326.0265088072
 20
126.0736914477
 10
323.6541953704
 20
125.8161838679
 10
321.2697375105
 20
125.6227257797
 10
318.8765924633
 20
125.4935976787
 10
316.4782300605
 20
125.4289867884
 10
314.0781276981
 20
125.4289867884
 10
311.6797652953
 20
125.4935976787
 10
309.2866202481
 20
125.6227257797
 10
306.9021623882
 20
125.8161838679
 10
304.5298489514
 20
126.0736914477
 10
302.1731195655
 20
126.3948751577
 10
299.8353912627
 20
126.7792693122
 10
297.5200535256
 20
127.2263165764
 10
295.2304633726
 20
127.7353687745
 10
292.9699404905
 20
128.3056878296
 10
290.7417624213
 20
128.9364468334
 10
288.5491598103
 20
129.6267312458
 10
286.3953117217
 20
130.3755402203
 10
284.2833410292
 20
131.1817880556
 10
282.2163098884
 20
132.0443057692
 10
280.1972152969
 20
132.9618427931
 10
278.2289847489
 20
133.9330687862
 10
276.3144719904
 20
134.9565755637
 10
274.4564528819
 20
136.0308791387
 10
272.6576213736
 20
137.1544218735
 10
270.920585599
 20
138.3255747388
 10
269.2478640941
 20
139.5426396747
 10
267.641882145
 20
140.8038520536
 10
266.1049682722
 20
142.1073832379
 10
264.6393508537
 20
143.4513432322
 10
263.2471548948
 20
144.8337834228
 10
261.9303989464
 20
146.2526994038
 10
260.6909921788
 20
147.7060338825
 10
259.5307316134
 20
149.191679663
 10
258.451299517
 20
150.7074827008
 10
257.4542609629
 20
152.2512452265
 10
256.5410615618
 20
153.8207289319
 10
255.7130253655
 20
155.4136582159
 10
254.9713529473
 20
157.0277234831
 10
254.3171196613
 20
158.6605844933
 10
253.7512740833
 20
160.3098737541
 10
253.2746366351
 20
161.9731999537
 10
252.8878983956
 20
163.6481514282
 10
252.716141526
 20
164.5594892247
  0
LWPOLYLINE
  5
2FE
330
1F
100
AcDbEntity
  8
0
  6
Continuous
 62
     8
370
    18
100
AcDbPolyline
 90
        3
 70
   128
 43
0.0
 10
265.4245087183
 20
197.4630210361
 10
265.1511731151
 20
197.2141904089
 10
265.1158951534
 20
197.1818102235
  0
LWPOLYLINE
  5
2FF
330
1F
100
AcDbEntity
  8
0
  6
Continuous
 62
     8
370
    18
100
AcDbPolyline
 90
       82
 70
   128
 43
0.0
 10
252.0081311343
 20
168.5169652131
 10
252.1191924295
 20
166.901340187
 10
252.3254532892
 20
165.2032574896
 10
252.6229895827
 20
163.511958375
 10
253.0113699108
 20
161.8298950651
 10
253.4900311591
 20
160.1595063909
 10
254.0582793146
 20
158.5032142563
 10
254.7152904718
 20
156.8634201266
 10
255.4601120273
 20
155.2425015465
 10
256.2916640611
 20
153.6428086929
 10
257.2087409022
 20
152.0666609676
 10
258.2100128768
 20
150.5163436341
 10
259.2940282364
 20
148.9941045043
 10
260.4592152623
 20
147.5021506795
 10
261.7038845447
 20
146.04264535
 10
263.0262314322
 20
144.617704659
 10
264.4243386481
 20
143.2293946343
 10
265.8961790706
 20
141.8797281928
 10
267.4396186719
 20
140.5706622216
 10
269.0524196121
 20
139.3040947415
 10
270.732243484
 20
138.081862154
 10
272.4766547036
 20
136.9057365797
 10
274.2831240414
 20
135.7774232881
 10
276.1490322896
 20
134.6985582256
 10
278.0716740595
 20
133.6707056436
 10
280.0482617044
 20
132.6953558298
 10
282.0759293612
 20
131.7739229484
 10
284.1517371056
 20
130.9077429889
 10
286.2726752149
 20
130.0980718295
 10
288.4356685316
 20
129.3460834159
 10
290.6375809221
 20
128.6528680594
 10
292.875219824
 20
128.0194308561
 10
295.1453408747
 20
127.4466902292
 10
297.4446526159
 20
126.935476598
 10
299.7698212652
 20
126.4865311734
 10
302.1174755504
 20
126.1005048833
 10
304.4842115973
 20
125.777957429
 10
306.8665978649
 20
125.5193564733
 10
309.2611801207
 20
125.325076963
 10
311.6644864496
 20
125.1954005847
 10
314.0730322869
 20
125.1305153569
 10
316.4833254717
 20
125.1305153569
 10
318.8918713091
 20
125.1954005847
 10
321.2951776379
 20
125.325076963
 10
323.6897598937
 20
125.5193564733
 10
326.0721461613
 20
125.777957429
 10
328.4388822082
 20
126.1005048833
 10
330.7865364934
 20
126.4865311734
 10
333.1117051428
 20
126.935476598
 10
335.4110168839
 20
127.4466902292
 10
337.6811379347
 20
128.0194308561
 10
339.9187768365
 20
128.6528680594
 10
342.120689227
 20
129.3460834159
 10
344.2836825437
 20
130.0980718295
 10
346.404620653
 20
130.9077429889
 10
348.4804283974
 20
131.7739229484
 10
350.5080960542
 20
132.6953558298
 10
352.4846836992
 20
133.6707056436
 10
354.4073254691
 20
134.6985582256
 10
356.2732337172
 20
135.7774232881
 10
358.079703055
 20
136.9057365797
 10
359.8241142746
 20
138.081862154
 10
361.5039381465
 20
139.3040947415
 10
363.1167390867
 20
140.5706622216
 10
364.660178688
 20
141.8797281928
 10
366.1320191106
 20
143.2293946343
 10
367.5301263265
 20
144.617704659
 10
368.8524732139
 20
146.04264535
 10
370.0971424963
 20
147.5021506795
 10
371.2623295222
 20
148.9941045043
 10
372.3463448818
 20
150.5163436341
 10
373.3476168565
 20
152.0666609676
 10
374.2646936976
 20
153.6428086929
 10
375.0962457313
 20
155.2425015465
 10
375.8410672868
 20
156.8634201266
 10
376.498078444
 20
158.5032142563
 10
377.0663265995
 20
160.1595063909
 10
377.5449878478
 20
161.8298950651
 10
377.9333681759
 20
163.511958375
 10
378.2309044694
 20
165.2032574896
 10
378.4371653291
 20
166.901340187
 10
378.5482266243
 20
168.5169652131
  0
LWPOLYLINE
  5
300
330
1F
100
AcDbEntity
  8
0
  6
Continuous
 62
     8
370
    18
100
AcDbPolyline
 90
        3
 70
   128
 43
0.0
 10
365.4404626052
 20
197.1818102235
 10
365.4051846435
 20
197.2141904089
 10
365.1318490403
 20
197.4630210361
  0
LWPOLYLINE
  5
301
330
1F
100
AcDbEntity
  8
0
  6
Continuous
 62
     8
370
    18
100
AcDbPolyline
 90
       57
 70
   128
 43
0.0
 10
260.122994061
 20
147.5504018141
 10
261.2272896014
 20
146.1823467967
 10
262.4977555805
 20
144.7350995974
 10
263.8456841091
 20
143.3233238719
 10
265.2690969163
 20
141.949091596
 10
266.7659049474
 20
140.6144196449
 10
268.3339114303
 20
139.3212668338
 10
269.9708150992
 20
138.0715310428
 10
271.6742135723
 20
136.8670464314
 10
273.4416068774
 20
135.709580747
 10
275.270401121
 20
134.60083273
 10
277.1579122956
 20
133.542429621
 10
279.1013702181
 20
132.5359247727
 10
281.097922596
 20
131.5827953695
 10
283.1446392134
 20
130.6844402604
 10
285.2385162314
 20
129.8421779054
 10
287.3764805968
 20
129.0572444406
 10
289.555394552
 20
128.330791864
 10
291.7720602404
 20
127.6638863452
 10
294.0232243993
 20
127.0575066598
 10
296.3055831349
 20
126.5125427537
 10
298.6157867711
 20
126.0297944365
 10
300.9504447654
 20
125.609970208
 10
303.3061306853
 20
125.2536862181
 10
305.6793872368
 20
124.9614653628
 10
308.0667313388
 20
124.7337365163
 10
310.4646592344
 20
124.5708339023
 10
312.8696516339
 20
124.4729966026
 10
315.2781788793
 20
124.4403682072
 10
317.6867061247
 20
124.4729966026
 10
320.0916985242
 20
124.5708339023
 10
322.4896264198
 20
124.7337365163
 10
324.8769705218
 20
124.9614653628
 10
327.2502270733
 20
125.2536862181
 10
329.6059129932
 20
125.609970208
 10
331.9405709875
 20
126.0297944365
 10
334.2507746237
 20
126.5125427537
 10
336.5331333593
 20
127.0575066598
 10
338.7842975182
 20
127.6638863452
 10
341.0009632066
 20
128.330791864
 10
343.1798771618
 20
129.0572444406
 10
345.3178415272
 20
129.8421779054
 10
347.4117185452
 20
130.6844402604
 10
349.4584351626
 20
131.5827953695
 10
351.4549875406
 20
132.5359247727
 10
353.398445463
 20
133.542429621
 10
355.2859566376
 20
134.60083273
 10
357.1147508813
 20
135.709580747
 10
358.8821441863
 20
136.8670464314
 10
360.5855426594
 20
138.0715310428
 10
362.2224463283
 20
139.3212668338
 10
363.7904528112
 20
140.6144196449
 10
365.2872608423
 20
141.949091596
 10
366.7106736495
 20
143.3233238719
 10
368.0586021781
 20
144.7350995974
 10
369.3290681572
 20
146.1823467967
 10
370.4333636976
 20
147.5504018141
  0
ARC
  5
302
330
1F
100
AcDbEntity
  8
0
  6
Continuous
 62
     8
370
    18
100
AcDbCircle
 10
315.2738598173
 20
128.1595723428
 30
0.0
 40
84.53886154906384
100
AcDbArc
 50
89.9970727779
 51
94.5057063747
  0
LINE
  5
303
330
1F
100
AcDbEntity
  8
0
  6
Continuous
 62
     8
370
    18
100
AcDbLine
 10
259.4554688623
 20
185.761822468
 30
0.0
 11
259.3575286292
 21
185.5837413553
 31
0.0
  0
LINE
  5
304
330
1F
100
AcDbEntity
  8
0
  6
Continuous
 62
     8
370
    18
100
AcDbLine
 10
371.1988291294
 20
185.5837413553
 30
0.0
 11
371.1008888963
 21
185.761822468
 31
0.0
  0
ARC
  5
305
330
1F
100
AcDbEntity
  8
0
  6
Continuous
 62
     8
370
    18
100
AcDbCircle
 10
315.2824979413
 20
128.1595723426
 30
0.0
 40
84.53886154924562
100
AcDbArc
 50
85.4942936253
 51
90.0029272221
  0
LWPOLYLINE
  5
306
330
1F
100
AcDbEntity
  8
0
  6
Continuous
 62
     8
370
    18
100
AcDbPolyline
 90
       30
 70
   128
 43
0.0
 10
315.2781788793
 20
213.3972526984
 10
313.0054086121
 20
213.3648840525
 10
310.7363247865
 20
213.2678306169
 10
308.474607865
 20
213.1062498126
 10
306.2239263604
 20
212.8804037243
 10
303.9879308866
 20
212.5906586751
 10
301.7702482363
 20
212.2374846326
 10
299.5744754989
 20
211.8214544463
 10
297.4041742258
 20
211.3432429188
 10
295.2628646536
 20
210.8036257109
 10
293.1540199943
 20
210.2034780837
 10
291.0810608016
 20
209.5437734788
 10
289.0473494229
 20
208.8255819395
 10
287.0561845455
 20
208.0500683751
 10
285.1107958462
 20
207.2184906714
 10
283.2143387524
 20
206.3321976506
 10
281.3698893245
 20
205.3926268831
 10
279.5804392664
 20
204.4013023562
 10
277.8488910724
 20
203.3598320019
 10
276.1780533201
 20
202.2699050888
 10
274.5706361144
 20
201.1332894825
 10
273.029246692
 20
199.9518287776
 10
271.5563851921
 20
198.7274393077
 10
270.1544406014
 20
197.462107037
 10
268.8256868792
 20
196.157884339
 10
267.5722792689
 20
194.8168866677
 10
266.3962508023
 20
193.4412891264
 10
265.2995090017
 20
192.0333229391
 10
264.2838327865
 20
190.5952718323
 10
263.6910432341
 20
189.6824131417
  0
LWPOLYLINE
  5
307
330
1F
100
AcDbEntity
  8
0
  6
Continuous
 62
     8
370
    18
100
AcDbPolyline
 90
       30
 70
   128
 43
0.0
 10
366.8653145245
 20
189.6824131417
 10
366.2725249722
 20
190.5952718323
 10
365.2568487569
 20
192.0333229391
 10
364.1601069563
 20
193.4412891264
 10
362.9840784897
 20
194.8168866677
 10
361.7306708794
 20
196.157884339
 10
360.4019171572
 20
197.462107037
 10
358.9999725665
 20
198.7274393077
 10
357.5271110666
 20
199.9518287776
 10
355.9857216442
 20
201.1332894825
 10
354.3783044385
 20
202.2699050888
 10
352.7074666863
 20
203.3598320019
 10
350.9759184923
 20
204.4013023562
 10
349.1864684341
 20
205.3926268831
 10
347.3420190062
 20
206.3321976506
 10
345.4455619125
 20
207.2184906714
 10
343.5001732131
 20
208.0500683751
 10
341.5090083357
 20
208.8255819395
 10
339.475296957
 20
209.5437734788
 10
337.4023377643
 20
210.2034780837
 10
335.293493105
 20
210.8036257109
 10
333.1521835328
 20
211.3432429188
 10
330.9818822597
 20
211.8214544463
 10
328.7861095223
 20
212.2374846326
 10
326.568426872
 20
212.5906586751
 10
324.3324313982
 20
212.8804037243
 10
322.0817498937
 20
213.1062498126
 10
319.8200329721
 20
213.2678306169
 10
317.5509491465
 20
213.3648840525
 10
315.2781788793
 20
213.3972526984
  0
LWPOLYLINE
  5
308
330
1F
100
AcDbEntity
  8
0
  6
Continuous
 62
     8
370
    18
100
AcDbPolyline
 90
       72
 70
   128
 43
0.0
 10
376.618102396
 20
158.4624533485
 10
376.2392380973
 20
157.3892752841
 10
375.5850048113
 20
155.7564142739
 10
374.8433323931
 20
154.1423490066
 10
374.0152961968
 20
152.5494197227
 10
373.1020967957
 20
150.9799360172
 10
372.1050582417
 20
149.4361734916
 10
371.0256261452
 20
147.9203704537
 10
369.8653655798
 20
146.4347246733
 10
368.6259588122
 20
144.9813901946
 10
367.3092028638
 20
143.5624742136
 10
365.9170069049
 20
142.1800340229
 10
364.4513894864
 20
140.8360740287
 10
362.9144756136
 20
139.5325428443
 10
361.3084936645
 20
138.2713304655
 10
359.6357721596
 20
137.0542655295
 10
357.8987363851
 20
135.8831126643
 10
356.0999048767
 20
134.7595699294
 10
354.2418857682
 20
133.6852663545
 10
352.3273730097
 20
132.661759577
 10
350.3591424617
 20
131.6905335839
 10
348.3400478702
 20
130.77299656
 10
346.2730167295
 20
129.9104788463
 10
344.1610460369
 20
129.1042310111
 10
342.0071979483
 20
128.3554220365
 10
339.8145953373
 20
127.6651376242
 10
337.5864172682
 20
127.0343786203
 10
335.325894386
 20
126.4640595653
 10
333.036304233
 20
125.9550073672
 10
330.7209664959
 20
125.5079601029
 10
328.3832381931
 20
125.1235659485
 10
326.0265088072
 20
124.8023822385
 10
323.6541953704
 20
124.5448746587
 10
321.2697375105
 20
124.3514165704
 10
318.8765924633
 20
124.2222884695
 10
316.4782300605
 20
124.1576775792
 10
314.0781276981
 20
124.1576775792
 10
311.6797652953
 20
124.2222884695
 10
309.2866202481
 20
124.3514165704
 10
306.9021623882
 20
124.5448746587
 10
304.5298489514
 20
124.8023822385
 10
302.1731195655
 20
125.1235659485
 10
299.8353912627
 20
125.5079601029
 10
297.5200535256
 20
125.9550073672
 10
295.2304633726
 20
126.4640595653
 10
292.9699404905
 20
127.0343786203
 10
290.7417624213
 20
127.6651376242
 10
288.5491598103
 20
128.3554220365
 10
286.3953117217
 20
129.1042310111
 10
284.2833410292
 20
129.9104788463
 10
282.2163098884
 20
130.77299656
 10
280.1972152969
 20
131.6905335839
 10
278.2289847489
 20
132.661759577
 10
276.3144719904
 20
133.6852663545
 10
274.4564528819
 20
134.7595699294
 10
272.6576213736
 20
135.8831126643
 10
270.920585599
 20
137.0542655295
 10
269.2478640941
 20
138.2713304655
 10
267.641882145
 20
139.5325428443
 10
266.1049682722
 20
140.8360740287
 10
264.6393508537
 20
142.1800340229
 10
263.2471548948
 20
143.5624742136
 10
261.9303989464
 20
144.9813901946
 10
260.6909921788
 20
146.4347246733
 10
259.5307316134
 20
147.9203704537
 10
258.451299517
 20
149.4361734916
 10
257.4542609629
 20
150.9799360172
 10
256.5410615618
 20
152.5494197227
 10
255.7130253655
 20
154.1423490067
 10
254.9713529473
 20
155.7564142739
 10
254.3171196613
 20
157.3892752841
 10
253.9382553626
 20
158.4624533485
  0
LINE
  5
309
330
1F
100
AcDbEntity
  8
0
  6
Continuous
 62
     8
370
    18
100
AcDbLine
 10
262.854352246
 20
193.6956671641
 30
0.0
 11
262.6521108118
 21
193.4830302532
 31
0.0
  0
LWPOLYLINE
  5
30A
330
1F
100
AcDbEntity
  8
0
  6
Continuous
 62
     8
370
    18
100
AcDbPolyline
 90
       84
 70
   128
 43
0.0
 10
251.9793280019
 20
168.6935130129
 10
252.0050337033
 20
167.3326613553
 10
252.1197191143
 20
165.6302713292
 10
252.325978254
 20
163.9322027922
 10
252.6235120663
 20
162.2409177814
 10
253.0118891557
 20
160.5588684982
 10
253.4905464124
 20
158.8884937535
 10
254.0587898293
 20
157.2322154308
 10
254.7157955076
 20
155.5924349753
 10
255.4606108521
 20
153.9715299121
 10
256.2921559515
 20
152.3718503984
 10
257.2092251451
 20
150.7957158167
 10
258.2104887701
 20
149.2454114113
 10
259.2944950901
 20
147.7231849756
 10
260.4596723994
 20
146.2312435922
 10
261.7043313025
 20
144.7717504335
 10
263.0266671628
 20
143.3468216251
 10
264.4247627199
 20
141.9585231776
 10
265.8965908687
 20
140.608867991
 10
267.4400175992
 20
139.2998129362
 10
269.0528050902
 20
138.033256018
 10
270.732614954
 20
136.8110336228
 10
272.4770116269
 20
135.6349178562
 10
274.2834659005
 20
134.5066139736
 10
276.1493585888
 20
133.4277579079
 10
278.0719843257
 20
132.3999138971
 10
280.0485554878
 20
131.4245722169
 10
282.0762062358
 20
130.5031470193
 10
284.15199667
 20
129.6369742829
 10
286.2729170928
 20
128.8273098754
 10
288.4358923722
 20
128.0753277326
 10
290.6377864008
 20
127.3821181569
 10
292.875406643
 20
126.7486862357
 10
295.1455087631
 20
126.175950385
 10
297.4448013302
 20
125.6647410169
 10
299.7699505899
 20
125.215799336
 10
302.117585298
 20
124.829776265
 10
304.4843016086
 20
124.5072315004
 10
306.8666680093
 20
124.2486327012
 10
309.2612302967
 20
124.054354811
 10
311.6645165843
 20
123.9246795141
 10
314.0730423367
 20
123.8597948274
 10
316.4833154219
 20
123.8597948274
 10
318.8918411744
 20
123.9246795141
 10
321.2951274619
 20
124.054354811
 10
323.6896897493
 20
124.2486327012
 10
326.0720561501
 20
124.5072315004
 10
328.4387724607
 20
124.829776265
 10
330.7864071688
 20
125.215799336
 10
333.1115564284
 20
125.6647410169
 10
335.4108489955
 20
126.175950385
 10
337.6809511157
 20
126.7486862357
 10
339.9185713578
 20
127.3821181569
 10
342.1204653865
 20
128.0753277326
 10
344.2834406659
 20
128.8273098754
 10
346.4043610886
 20
129.6369742829
 10
348.4801515228
 20
130.5031470193
 10
350.5078022708
 20
131.4245722169
 10
352.4843734329
 20
132.3999138971
 10
354.4069991699
 20
133.4277579079
 10
356.2728918581
 20
134.5066139736
 10
358.0793461317
 20
135.6349178562
 10
359.8237428046
 20
136.8110336228
 10
361.5035526684
 20
138.033256018
 10
363.1163401594
 20
139.2998129362
 10
364.6597668899
 20
140.608867991
 10
366.1315950388
 20
141.9585231776
 10
367.5296905958
 20
143.3468216251
 10
368.8520264561
 20
144.7717504335
 10
370.0966853592
 20
146.2312435922
 10
371.2618626686
 20
147.7231849756
 10
372.3458689885
 20
149.2454114113
 10
373.3471326136
 20
150.7957158167
 10
374.2642018071
 20
152.3718503984
 10
375.0957469066
 20
153.9715299121
 10
375.840562251
 20
155.5924349753
 10
376.4975679293
 20
157.2322154308
 10
377.0658113462
 20
158.8884937535
 10
377.5444686029
 20
160.5588684982
 10
377.9328456923
 20
162.2409177814
 10
378.2303795046
 20
163.9322027922
 10
378.4366386443
 20
165.6302713292
 10
378.5513240554
 20
167.3326613553
 10
378.5770297567
 20
168.6935130129
  0
LINE
  5
30B
330
1F
100
AcDbEntity
  8
0
  6
Continuous
 62
     8
370
    18
100
AcDbLine
 10
367.9042469468
 20
193.4830302532
 30
0.0
 11
367.7020055126
 21
193.6956671641
 31
0.0
  0
LWPOLYLINE
  5
30C
330
1F
100
AcDbEntity
  8
0
  6
Continuous
 62
     8
370
    18
100
AcDbPolyline
 90
       32
 70
   128
 43
0.0
 10
315.2781788793
 20
213.1079627065
 10
312.9991969934
 20
213.0752961372
 10
310.7239594688
 20
212.9773501006
 10
308.4562045147
 20
212.8142855216
 10
306.1996580466
 20
212.5863703149
 10
303.9580275643
 20
212.2939789447
 10
301.734996061
 20
211.9375918091
 10
299.5342159714
 20
211.5177944514
 10
297.3593031716
 20
211.0352765974
 10
295.2138310375
 20
210.4908310227
 10
293.1013245742
 20
209.88535225
 10
291.0252546243
 20
209.2198350794
 10
288.9890321653
 20
208.4953729537
 10
286.9960027053
 20
207.7131561623
 10
285.0494407865
 20
206.8744698855
 10
283.152544605
 20
205.9806920825
 10
281.3084307563
 20
205.0332912279
 10
279.5201291145
 20
204.0338238988
 10
277.7905778546
 20
202.9839322174
 10
276.1226186248
 20
201.8853411531
 10
274.5189918776
 20
200.739855688
 10
272.9823323677
 20
199.5493578518
 10
271.5151648225
 20
198.3158036292
 10
270.1198997945
 20
197.0412197466
 10
268.7988297005
 20
195.7277003421
 10
267.5541250551
 20
194.3774035244
 10
266.3878309048
 20
192.9925478278
 10
265.3018634679
 20
191.5754085666
 10
264.298006986
 20
190.1283140967
 10
263.3779107926
 20
188.6536419907
 10
262.5430866035
 20
187.1538151308
 10
262.2957309711
 20
186.6720417356
  0
LWPOLYLINE
  5
30D
330
1F
100
AcDbEntity
  8
0
  6
Continuous
 62
     8
370
    18
100
AcDbPolyline
 90
       32
 70
   128
 43
0.0
 10
368.2606267876
 20
186.6720417356
 10
368.0132711552
 20
187.1538151308
 10
367.178446966
 20
188.6536419907
 10
366.2583507726
 20
190.1283140967
 10
365.2544942907
 20
191.5754085666
 10
364.1685268538
 20
192.9925478278
 10
363.0022327035
 20
194.3774035244
 10
361.7575280581
 20
195.7277003421
 10
360.4364579641
 20
197.0412197466
 10
359.0411929361
 20
198.3158036292
 10
357.5740253909
 20
199.5493578518
 10
356.037365881
 20
200.739855688
 10
354.4337391338
 20
201.8853411531
 10
352.765779904
 20
202.9839322174
 10
351.0362286441
 20
204.0338238988
 10
349.2479270023
 20
205.0332912279
 10
347.4038131536
 20
205.9806920825
 10
345.5069169721
 20
206.8744698855
 10
343.5603550533
 20
207.7131561623
 10
341.5673255933
 20
208.4953729537
 10
339.5311031343
 20
209.2198350794
 10
337.4550331844
 20
209.88535225
 10
335.3425267211
 20
210.4908310227
 10
333.197054587
 20
211.0352765974
 10
331.0221417872
 20
211.5177944514
 10
328.8213616977
 20
211.9375918091
 10
326.5983301943
 20
212.2939789447
 10
324.3566997121
 20
212.5863703149
 10
322.1001532439
 20
212.8142855216
 10
319.8323982898
 20
212.9773501006
 10
317.5571607652
 20
213.0752961372
 10
315.2781788793
 20
213.1079627065
  0
LWPOLYLINE
  5
30E
330
1F
100
AcDbEntity
  8
0
  6
Continuous
 62
     8
370
    18
100
AcDbPolyline
 90
       33
 70
   128
 43
0.0
 10
315.2781788793
 20
212.8416917142
 10
317.5538421409
 20
212.8090727136
 10
319.8257664937
 20
212.7112693047
 10
322.0902191721
 20
212.5484421782
 10
324.3434796861
 20
212.3208588588
 10
326.5818459347
 20
212.0288932651
 10
328.801640288
 20
211.6730250959
 10
330.9992156297
 20
211.2538390417
 10
333.1709613493
 20
210.7720238241
 10
335.3133092743
 20
210.2283710641
 10
337.4227395326
 20
209.6237739819
 10
339.495786336
 20
208.9592259288
 10
341.5290436739
 20
208.2358187556
 10
343.5191709099
 20
207.4547410184
 10
345.4628982701
 20
206.6172760257
 10
347.3570322156
 20
205.7247997305
 10
349.1984606893
 20
204.7787784689
 10
350.9841582291
 20
203.7807665514
 10
352.7111909386
 20
202.7324037089
 10
354.3767213075
 20
201.6354123988
 10
355.9780128739
 20
200.491594975
 10
357.5124347199
 20
199.3028307265
 10
358.9774657944
 20
198.0710727898
 10
360.3706990553
 20
196.79834494
 10
361.689845424
 20
195.4867382656
 10
362.9327375464
 20
194.138407733
 10
364.097333354
 20
192.7555686455
 10
365.181719419
 20
191.3404930043
 10
366.184114098
 20
189.895505775
 10
367.102870459
 20
188.4229810676
 10
367.9364789879
 20
186.9253382365
 10
368.6835700679
 20
185.4050379048
 10
368.8978069988
 20
184.9286203404
  0
LWPOLYLINE
  5
30F
330
1F
100
AcDbEntity
  8
0
  6
Continuous
 62
     8
370
    18
100
AcDbPolyline
 90
       33
 70
   128
 43
0.0
 10
261.6585507598
 20
184.9286203404
 10
261.8727876907
 20
185.4050379048
 10
262.6198787707
 20
186.9253382365
 10
263.4534872996
 20
188.4229810676
 10
264.3722436607
 20
189.895505775
 10
265.3746383396
 20
191.3404930043
 10
266.4590244046
 20
192.7555686455
 10
267.6236202122
 20
194.138407733
 10
268.8665123346
 20
195.4867382656
 10
270.1856587033
 20
196.79834494
 10
271.5788919642
 20
198.0710727898
 10
273.0439230387
 20
199.3028307265
 10
274.5783448847
 20
200.491594975
 10
276.1796364511
 20
201.6354123988
 10
277.8451668201
 20
202.7324037089
 10
279.5721995295
 20
203.7807665514
 10
281.3578970693
 20
204.7787784689
 10
283.199325543
 20
205.7247997305
 10
285.0934594885
 20
206.6172760257
 10
287.0371868487
 20
207.4547410184
 10
289.0273140847
 20
208.2358187556
 10
291.0605714226
 20
208.9592259288
 10
293.133618226
 20
209.6237739819
 10
295.2430484843
 20
210.2283710641
 10
297.3853964093
 20
210.7720238241
 10
299.5571421289
 20
211.2538390417
 10
301.7547174707
 20
211.6730250959
 10
303.974511824
 20
212.0288932651
 10
306.2128780725
 20
212.3208588588
 10
308.4661385866
 20
212.5484421782
 10
310.7305912649
 20
212.7112693047
 10
313.0025156177
 20
212.8090727136
 10
315.2781788793
 20
212.8416917142
  0
LWPOLYLINE
  5
310
330
1F
100
AcDbEntity
  8
0
  6
Continuous
 62
     8
370
    18
100
AcDbPolyline
 90
       35
 70
   128
 43
0.0
 10
315.2781788793
 20
212.0119699725
 10
313.0074733246
 20
211.9794220349
 10
310.7404985332
 20
211.8818316983
 10
308.4809791387
 20
211.7193593032
 10
306.2326275255
 20
211.4922717914
 10
303.9991377295
 20
211.2009422672
 10
301.7841793684
 20
210.8458493841
 10
299.5913916131
 20
210.4275765589
 10
297.4243772081
 20
209.9468110126
 10
295.2866965523
 20
209.4043426419
 10
293.1818618496
 20
208.8010627208
 10
291.1133313376
 20
208.1379624366
 10
289.0845036068
 20
207.4161312614
 10
287.0987120156
 20
206.6367551619
 10
285.1592192145
 20
205.801114651
 10
283.269211785
 20
204.9105826839
 10
281.4317950045
 20
203.9666224021
 10
279.6499877437
 20
202.9707847301
 10
277.9267175075
 20
201.9247058265
 10
276.2648156242
 20
200.8301043961
 10
274.6670125942
 20
199.6887788662
 10
273.1359336039
 20
198.5026044318
 10
271.6740942119
 20
197.2735299742
 10
270.2838962165
 20
196.0035748597
 10
268.9676237094
 20
194.694825621
 10
267.7274393228
 20
193.3494325298
 10
266.5653806764
 20
191.9696060634
 10
265.4833570296
 20
190.557613273
 10
264.4831461443
 20
189.1157740591
 10
263.5663913645
 20
187.6464573597
 10
262.7345989157
 20
186.1520772583
 10
261.9891354309
 20
184.6350890176
 10
261.3312257045
 20
183.0979850451
 10
260.7619506805
 20
181.5432907987
 10
260.7570399681
 20
181.5286516992
  0
LWPOLYLINE
  5
311
330
1F
100
AcDbEntity
  8
0
  6
Continuous
 62
     8
370
    18
100
AcDbPolyline
 90
       35
 70
   128
 43
0.0
 10
369.7993177905
 20
181.5286516992
 10
369.7944070781
 20
181.5432907987
 10
369.2251320541
 20
183.0979850451
 10
368.5672223277
 20
184.6350890176
 10
367.8217588429
 20
186.1520772583
 10
366.9899663941
 20
187.6464573597
 10
366.0732116143
 20
189.1157740591
 10
365.073000729
 20
190.557613273
 10
363.9909770822
 20
191.9696060634
 10
362.8289184358
 20
193.3494325298
 10
361.5887340493
 20
194.694825621
 10
360.2724615421
 20
196.0035748597
 10
358.8822635467
 20
197.2735299742
 10
357.4204241547
 20
198.5026044318
 10
355.8893451644
 20
199.6887788662
 10
354.2915421345
 20
200.8301043961
 10
352.6296402512
 20
201.9247058265
 10
350.9063700149
 20
202.9707847301
 10
349.1245627542
 20
203.9666224021
 10
347.2871459736
 20
204.9105826839
 10
345.3971385441
 20
205.801114651
 10
343.457645743
 20
206.6367551619
 10
341.4718541519
 20
207.4161312614
 10
339.443026421
 20
208.1379624366
 10
337.3744959091
 20
208.8010627208
 10
335.2696612063
 20
209.4043426419
 10
333.1319805505
 20
209.9468110126
 10
330.9649661455
 20
210.4275765589
 10
328.7721783902
 20
210.8458493841
 10
326.5572200291
 20
211.2009422672
 10
324.3237302331
 20
211.4922717914
 10
322.0753786199
 20
211.7193593032
 10
319.8158592254
 20
211.8818316983
 10
317.548884434
 20
211.9794220349
 10
315.2781788793
 20
212.0119699725
  0
LWPOLYLINE
  5
312
330
1F
100
AcDbEntity
  8
0
  6
Continuous
 62
     8
370
    18
100
AcDbPolyline
 90
       36
 70
   128
 43
0.0
 10
315.2781788793
 20
211.7667088055
 10
313.0162723205
 20
211.7342869913
 10
310.7580820683
 20
211.6370748177
 10
308.5073183233
 20
211.475232004
 10
306.2676790843
 20
211.2490244576
 10
304.0428440729
 20
210.9588238368
 10
301.8364686871
 20
210.6051069405
 10
299.6521779958
 20
210.1884549246
 10
297.4935607829
 20
209.7095523474
 10
295.3641636509
 20
209.1691860444
 10
293.2674851936
 20
208.5682438361
 10
291.2069702482
 20
207.907713069
 10
289.1860042354
 20
207.1886789934
 10
287.207907597
 20
206.4123229804
 10
285.2759303406
 20
205.5799205808
 10
283.3932466998
 20
204.6928394297
 10
281.5629499189
 20
203.752536999
 10
279.7880471706
 20
202.7605582031
 10
278.0714546155
 20
201.7185328607
 10
276.4159926107
 20
200.6281730166
 10
274.8243810759
 20
199.4912701292
 10
273.2992350246
 20
198.3096921269
 10
271.8430602679
 20
197.0853803392
 10
270.458249297
 20
195.8203463074
 10
269.1470773527
 20
194.5166684788
 10
267.9116986871
 20
193.1764887929
 10
266.7541430241
 20
191.8020091612
 10
265.6763122246
 20
190.3954878503
 10
264.6799771617
 20
188.9592357709
 10
263.7667748114
 20
187.4956126814
 10
262.9382055628
 20
186.0070233107
 10
262.1956307528
 20
184.4959134073
 10
261.5402704301
 20
182.9647657208
 10
260.9732013498
 20
181.4160959227
 10
260.495355205
 20
179.8524484735
 10
260.451077683
 20
179.6900498014
  0
LWPOLYLINE
  5
313
330
1F
100
AcDbEntity
  8
0
  6
Continuous
 62
     8
370
    18
100
AcDbPolyline
 90
       36
 70
   128
 43
0.0
 10
370.1052800756
 20
179.6900498014
 10
370.0610025536
 20
179.8524484735
 10
369.5831564088
 20
181.4160959227
 10
369.0160873286
 20
182.9647657208
 10
368.3607270058
 20
184.4959134073
 10
367.6181521959
 20
186.0070233107
 10
366.7895829472
 20
187.4956126814
 10
365.8763805969
 20
188.9592357709
 10
364.880045534
 20
190.3954878503
 10
363.8022147345
 20
191.8020091612
 10
362.6446590715
 20
193.1764887929
 10
361.4092804059
 20
194.5166684788
 10
360.0981084616
 20
195.8203463074
 10
358.7132974907
 20
197.0853803392
 10
357.257122734
 20
198.3096921269
 10
355.7319766827
 20
199.4912701292
 10
354.1403651479
 20
200.6281730166
 10
352.4849031431
 20
201.7185328607
 10
350.768310588
 20
202.7605582031
 10
348.9934078397
 20
203.752536999
 10
347.1631110588
 20
204.6928394297
 10
345.280427418
 20
205.5799205808
 10
343.3484501616
 20
206.4123229804
 10
341.3703535232
 20
207.1886789934
 10
339.3493875104
 20
207.907713069
 10
337.2888725651
 20
208.5682438361
 10
335.1921941078
 20
209.1691860444
 10
333.0627969757
 20
209.7095523474
 10
330.9041797629
 20
210.1884549246
 10
328.7198890716
 20
210.6051069405
 10
326.5135136857
 20
210.9588238368
 10
324.2886786743
 20
211.2490244576
 10
322.0490394354
 20
211.475232004
 10
319.7982756903
 20
211.6370748177
 10
317.5400854381
 20
211.7342869913
 10
315.2781788793
 20
211.7667088055
  0
LWPOLYLINE
  5
314
330
1F
100
AcDbEntity
  8
0
  6
Continuous
 62
     8
370
    18
100
AcDbPolyline
 90
       37
 70
   128
 43
0.0
 10
315.2781788793
 20
211.5256199454
 10
317.5364275212
 20
211.4930403143
 10
319.790917531
 20
211.3953556465
 10
322.0378965328
 20
211.2327285286
 10
324.2736246516
 20
211.0054296373
 10
326.4943807386
 20
210.7138372893
 10
328.6964685646
 20
210.3584368111
 10
330.8762229717
 20
209.9398197318
 10
333.0300159737
 20
209.4586827983
 10
335.1542627948
 20
208.9158268154
 10
337.2454278358
 20
208.3121553134
 10
339.3000305588
 20
207.648673044
 10
341.3146512804
 20
206.9264843078
 10
343.2859368631
 20
206.1467911167
 10
345.2106062968
 20
205.3108911932
 10
347.0854561591
 20
204.4201758102
 10
348.9073659473
 20
203.4761274755
 10
350.6733032726
 20
202.4803174643
 10
352.3803289064
 20
201.4344032043
 10
354.025601673
 20
200.3401255164
 10
355.6063831784
 20
199.1993057178
 10
357.1200423676
 20
198.0138425906
 10
358.5640599044
 20
196.7857092211
 10
359.9360323641
 20
195.5169497161
 10
361.233676234
 20
194.2096758006
 10
362.4548317137
 20
192.866063303
 10
363.5974663107
 20
191.4883485338
 10
364.6596782223
 20
190.0788245631
 10
365.6396995017
 20
188.6398374045
 10
366.5358990002
 20
187.1737821101
 10
367.3467850821
 20
185.6830987844
 10
368.0710081075
 20
184.1702685225
 10
368.7073626788
 20
182.6378092811
 10
369.2547896466
 20
181.0882716875
 10
369.7123778726
 20
179.524234794
 10
370.0793657465
 20
177.9483017856
 10
370.3423023816
 20
176.4508240137
  0
LWPOLYLINE
  5
315
330
1F
100
AcDbEntity
  8
0
  6
Continuous
 62
     8
370
    18
100
AcDbPolyline
 90
       37
 70
   128
 43
0.0
 10
260.214055377
 20
176.4508240137
 10
260.4769920121
 20
177.9483017856
 10
260.843979886
 20
179.524234794
 10
261.301568112
 20
181.0882716875
 10
261.8489950798
 20
182.6378092811
 10
262.4853496511
 20
184.1702685225
 10
263.2095726766
 20
185.6830987844
 10
264.0204587585
 20
187.1737821101
 10
264.9166582569
 20
188.6398374045
 10
265.8966795363
 20
190.0788245631
 10
266.9588914479
 20
191.4883485338
 10
268.1015260449
 20
192.866063303
 10
269.3226815247
 20
194.2096758006
 10
270.6203253945
 20
195.5169497161
 10
271.9922978542
 20
196.7857092211
 10
273.436315391
 20
198.0138425906
 10
274.9499745803
 20
199.1993057178
 10
276.5307560856
 20
200.3401255164
 10
278.1760288523
 20
201.4344032043
 10
279.8830544861
 20
202.4803174643
 10
281.6489918113
 20
203.4761274755
 10
283.4709015995
 20
204.4201758102
 10
285.3457514618
 20
205.3108911932
 10
287.2704208955
 20
206.1467911167
 10
289.2417064783
 20
206.9264843078
 10
291.2563271999
 20
207.648673044
 10
293.3109299229
 20
208.3121553134
 10
295.4020949638
 20
208.9158268154
 10
297.5263417849
 20
209.4586827983
 10
299.6801347869
 20
209.9398197318
 10
301.859889194
 20
210.3584368111
 10
304.06197702
 20
210.7138372893
 10
306.2827331071
 20
211.0054296373
 10
308.5184612259
 20
211.2327285286
 10
310.7654402276
 20
211.3953556465
 10
313.0199302375
 20
211.4930403143
 10
315.2781788793
 20
211.5256199454
  0
LWPOLYLINE
  5
316
330
1F
100
AcDbEntity
  8
0
  6
Continuous
 62
     8
370
    18
100
AcDbPolyline
 90
       34
 70
   128
 43
0.0
 10
315.2781788793
 20
211.1134687312
 10
317.5245936851
 20
211.0810598262
 10
319.7672695551
 20
210.9838870527
 10
322.0024737767
 20
210.822112145
 10
324.2264860731
 20
210.5960043616
 10
326.4356047953
 20
210.3059400366
 10
328.6261530831
 20
209.9524019535
 10
330.7944849852
 20
209.5359785414
 10
332.936991527
 20
209.057362896
 10
335.0501067179
 20
208.5173516259
 10
337.1303134863
 20
207.9168435265
 10
339.1741495331
 20
207.2568380843
 10
341.1782130951
 20
206.5384338132
 10
343.1391686061
 20
205.7628264262
 10
345.0537522493
 20
204.9313068453
 10
346.9187773892
 20
204.0452590527
 10
348.7311398755
 20
203.1061577876
 10
350.4878232096
 20
202.1155660913
 10
352.1859035655
 20
201.075132706
 10
353.8225546561
 20
199.9865893303
 10
355.3950524372
 20
198.8517477373
 10
356.9007796412
 20
197.6724967588
 10
358.3372301341
 20
196.4507991416
 10
359.7020130855
 20
195.188688281
 10
360.9928569491
 20
193.8882648358
 10
362.2076132426
 20
192.5516932325
 10
363.344260124
 20
191.1811980627
 10
364.4009057568
 20
189.7790603803
 10
365.3757914585
 20
188.3476139052
 10
366.2672946283
 20
186.8892411387
 10
367.0739314469
 20
185.4063693984
 10
367.7943593471
 20
183.9014667778
 10
368.4273792476
 20
182.377038039
 10
368.5874883191
 20
181.9506577914
  0
LWPOLYLINE
  5
317
330
1F
100
AcDbEntity
  8
0
  6
Continuous
 62
     8
370
    18
100
AcDbPolyline
 90
       34
 70
   128
 43
0.0
 10
261.9688357849
 20
181.9505660754
 10
262.128978511
 20
182.377038039
 10
262.7619984116
 20
183.9014667778
 10
263.4824263117
 20
185.4063693984
 10
264.2890631304
 20
186.8892411387
 10
265.1805663001
 20
188.3476139052
 10
266.1554520018
 20
189.7790603803
 10
267.2120976346
 20
191.1811980627
 10
268.348744516
 20
192.5516932325
 10
269.5635008095
 20
193.8882648358
 10
270.8543446731
 20
195.188688281
 10
272.2191276246
 20
196.4507991416
 10
273.6555781174
 20
197.6724967588
 10
275.1613053215
 20
198.8517477373
 10
276.7338031025
 20
199.9865893303
 10
278.3704541931
 20
201.075132706
 10
280.068534549
 20
202.1155660913
 10
281.8252178831
 20
203.1061577876
 10
283.6375803694
 20
204.0452590527
 10
285.5026055093
 20
204.9313068453
 10
287.4171891525
 20
205.7628264262
 10
289.3781446636
 20
206.5384338132
 10
291.3822082255
 20
207.2568380843
 10
293.4260442724
 20
207.9168435265
 10
295.5062510407
 20
208.5173516259
 10
297.6193662316
 20
209.057362896
 10
299.7618727735
 20
209.5359785414
 10
301.9302046755
 20
209.9524019535
 10
304.1207529634
 20
210.3059400366
 10
306.3298716855
 20
210.5960043616
 10
308.5538839819
 20
210.822112145
 10
310.7890882035
 20
210.9838870527
 10
313.0317640735
 20
211.0810598262
 10
315.2781788793
 20
211.1134687312
  0
LWPOLYLINE
  5
318
330
1F
100
AcDbEntity
  8
0
  6
Continuous
 62
     8
370
    18
100
AcDbPolyline
 90
       34
 70
   128
 43
0.0
 10
315.2781788793
 20
210.6390040635
 10
313.0225855568
 20
210.6064627405
 10
310.7707464468
 20
210.5088929334
 10
308.5264095132
 20
210.3464570376
 10
306.2933102334
 20
210.1194254114
 10
304.0751653807
 20
209.8281759268
 10
301.8756668384
 20
209.4731933396
 10
299.6984754548
 20
209.0550684834
 10
297.5472149499
 20
208.5744972857
 10
295.4254658846
 20
208.0322796098
 10
293.3367597008
 20
207.4293179237
 10
291.2845728439
 20
206.7666157974
 10
289.2723209764
 20
206.0452762333
 10
287.3033532928
 20
205.2664998299
 10
285.3809469456
 20
204.4315827837
 10
283.5083015904
 20
203.5419147316
 10
281.6885340606
 20
202.5989764384
 10
279.9246731797
 20
201.6043373318
 10
278.21965472
 20
200.5596528905
 10
276.5763165165
 20
199.4666618885
 10
274.9973937435
 20
198.3271835015
 10
273.485514362
 20
197.1431142789
 10
272.0431947462
 20
195.916424987
 10
270.6728354946
 20
194.6491573291
 10
269.376717435
 20
193.3434205471
 10
268.156997828
 20
192.0013879111
 10
267.0157067765
 20
190.6252931019
 10
265.9547438468
 20
189.2174264935
 10
264.9758749071
 20
187.780131341
 10
264.080729188
 20
186.3157998803
 10
263.2707965713
 20
184.8268693466
 10
262.5474251099
 20
183.3158179179
 10
261.9118187842
 20
181.78516059
 10
261.8615344474
 20
181.6533349248
  0
LWPOLYLINE
  5
319
330
1F
100
AcDbEntity
  8
0
  6
Continuous
 62
     8
370
    18
100
AcDbPolyline
 90
       34
 70
   128
 43
0.0
 10
368.6948233112
 20
181.6533349248
 10
368.6445389744
 20
181.78516059
 10
368.0089326487
 20
183.3158179179
 10
367.2855611873
 20
184.8268693466
 10
366.4756285706
 20
186.3157998803
 10
365.5804828515
 20
187.780131341
 10
364.6016139118
 20
189.2174264935
 10
363.5406509821
 20
190.6252931019
 10
362.3993599307
 20
192.0013879111
 10
361.1796403237
 20
193.3434205471
 10
359.8835222641
 20
194.6491573291
 10
358.5131630125
 20
195.916424987
 10
357.0708433966
 20
197.1431142789
 10
355.5589640151
 20
198.3271835015
 10
353.9800412421
 20
199.4666618885
 10
352.3367030386
 20
200.5596528905
 10
350.6316845789
 20
201.6043373318
 10
348.867823698
 20
202.5989764384
 10
347.0480561682
 20
203.5419147316
 10
345.175410813
 20
204.4315827837
 10
343.2530044658
 20
205.2664998299
 10
341.2840367822
 20
206.0452762333
 10
339.2717849147
 20
206.7666157974
 10
337.2195980578
 20
207.4293179237
 10
335.130891874
 20
208.0322796098
 10
333.0091428087
 20
208.5744972857
 10
330.8578823039
 20
209.0550684834
 10
328.6806909202
 20
209.4731933396
 10
326.4811923779
 20
209.8281759268
 10
324.2630475252
 20
210.1194254114
 10
322.0299482454
 20
210.3464570376
 10
319.7856113119
 20
210.5088929334
 10
317.5337722018
 20
210.6064627405
 10
315.2781788793
 20
210.6390040635
  0
LINE
  5
31A
330
1F
100
AcDbEntity
  8
0
  6
Continuous
 62
     8
370
    18
100
AcDbLine
 10
262.5678951603
 20
186.7218355114
 30
0.0
 11
262.4527924192
 21
186.565348948
 31
0.0
  0
LINE
  5
31B
330
1F
100
AcDbEntity
  8
0
  6
Continuous
 62
     8
370
    18
100
AcDbLine
 10
258.4654775635
 20
179.6870374611
 30
0.0
 11
258.4287901288
 21
179.6030194534
 31
0.0
  0
LINE
  5
31C
330
1F
100
AcDbEntity
  8
0
  6
Continuous
 62
     8
370
    18
100
AcDbLine
 10
372.1275676299
 20
179.6030194534
 30
0.0
 11
372.0908801952
 21
179.6870374611
 31
0.0
  0
LINE
  5
31D
330
1F
100
AcDbEntity
  8
0
  6
Continuous
 62
     8
370
    18
100
AcDbLine
 10
368.1035653394
 20
186.565348948
 30
0.0
 11
367.9884625983
 21
186.7218355114
 31
0.0
  0
LWPOLYLINE
  5
31E
330
1F
100
AcDbEntity
  8
0
  6
Continuous
 62
     8
370
    18
100
AcDbPolyline
 90
       38
 70
   128
 43
0.0
 10
315.2781788793
 20
210.2740178228
 10
313.0294528495
 20
210.2415755739
 10
310.7844696023
 20
210.1443028241
 10
308.5469656907
 20
209.9823614743
 10
306.3206652191
 20
209.7560210599
 10
304.1092736451
 20
209.4656583022
 10
301.9164716115
 20
209.1117564814
 10
299.745908821
 20
208.694904632
 10
297.6011979612
 20
208.215796563
 10
295.4859086916
 20
207.6752297022
 10
293.4035617024
 20
207.07410377
 10
291.3576228547
 20
206.4134192812
 10
289.3514974118
 20
205.6942758798
 10
287.3885243716
 20
204.9178705091
 10
285.4719709089
 20
204.0854954192
 10
283.6050269378
 20
203.1985360163
 10
281.7907998023
 20
202.2584685568
 10
280.0323091044
 20
201.2668576902
 10
278.3324816784
 20
200.2253538549
 10
276.6941467192
 20
199.1356905313
 10
275.1200310738
 20
197.9996813565
 10
273.6127547021
 20
196.8192171055
 10
272.1748263172
 20
195.5962625447
 10
270.8086392087
 20
194.3328531612
 10
269.5164672603
 20
193.0310917753
 10
268.3004611647
 20
191.6931450402
 10
267.1626448441
 20
190.3212398364
 10
266.1049120814
 20
188.9176595646
 10
265.1290233684
 20
187.4847403457
 10
264.2366029756
 20
186.0248671323
 10
263.4291362487
 20
184.5404697392
 10
262.7079671362
 20
183.0340187996
 10
262.0742959531
 20
181.5080216522
 10
261.5291773825
 20
179.9650181687
 10
261.0735187204
 20
178.4075765262
 10
260.7080783657
 20
176.8382889325
 10
260.4334645579
 20
175.2597673121
 10
260.2849330333
 20
174.0469997144
  0
LWPOLYLINE
  5
31F
330
1F
100
AcDbEntity
  8
0
  6
Continuous
 62
     8
370
    18
100
AcDbPolyline
 90
       38
 70
   128
 43
0.0
 10
370.2714247253
 20
174.0469997144
 10
370.1228932007
 20
175.2597673121
 10
369.8482793929
 20
176.8382889325
 10
369.4828390382
 20
178.4075765262
 10
369.0271803762
 20
179.9650181687
 10
368.4820618055
 20
181.5080216522
 10
367.8483906224
 20
183.0340187996
 10
367.12722151
 20
184.5404697392
 10
366.319754783
 20
186.0248671323
 10
365.4273343902
 20
187.4847403457
 10
364.4514456772
 20
188.9176595646
 10
363.3937129145
 20
190.3212398364
 10
362.2558965939
 20
191.6931450402
 10
361.0398904983
 20
193.0310917753
 10
359.74771855
 20
194.3328531612
 10
358.3815314415
 20
195.5962625447
 10
356.9436030565
 20
196.8192171055
 10
355.4363266849
 20
197.9996813565
 10
353.8622110394
 20
199.1356905313
 10
352.2238760802
 20
200.2253538549
 10
350.5240486542
 20
201.2668576902
 10
348.7655579564
 20
202.2584685568
 10
346.9513308209
 20
203.1985360163
 10
345.0843868497
 20
204.0854954192
 10
343.167833387
 20
204.9178705091
 10
341.2048603468
 20
205.6942758798
 10
339.1987349039
 20
206.4134192812
 10
337.1527960562
 20
207.07410377
 10
335.0704490671
 20
207.6752297022
 10
332.9551597974
 20
208.215796563
 10
330.8104489376
 20
208.694904632
 10
328.6398861471
 20
209.1117564814
 10
326.4470841136
 20
209.4656583022
 10
324.2356925395
 20
209.7560210599
 10
322.0093920679
 20
209.9823614743
 10
319.7718881563
 20
210.1443028241
 10
317.5269049091
 20
210.2415755739
 10
315.2781788793
 20
210.2740178228
  0
LWPOLYLINE
  5
320
330
1F
100
AcDbEntity
  8
0
  6
Continuous
 62
     8
370
    18
100
AcDbPolyline
 90
       42
 70
   128
 43
0.0
 10
315.2781788793
 20
209.09939022
 10
313.0472150458
 20
209.0667806055
 10
310.8200627765
 20
208.9690074752
 10
308.6005271238
 20
208.8062378727
 10
306.3924001272
 20
208.5787498873
 10
304.1994543344
 20
208.2869321782
 10
302.0254363567
 20
207.9312833112
 10
299.8740604673
 20
207.5124109064
 10
297.7490022559
 20
207.0310306003
 10
295.6538923486
 20
206.487964823
 10
293.5923102057
 20
205.8841413933
 10
291.5677780056
 20
205.2205919334
 10
289.5837546277
 20
204.4984501065
 10
287.6436297426
 20
203.7189496797
 10
285.7507180212
 20
202.8834224164
 10
283.9082534713
 20
201.993295801
 10
282.1193839128
 20
201.0500905998
 10
280.3871655992
 20
200.0554182631
 10
278.7145579965
 20
199.010978172
 10
277.1044187268
 20
197.9185547347
 10
275.559498686
 20
196.7800143384
 10
274.082437344
 20
195.5973021603
 10
272.6757582354
 20
194.3724388443
 10
271.3418646478
 20
193.1075170488
 10
270.083035516
 20
191.8046978715
 10
268.9014215286
 20
190.4662071571
 10
267.7990414531
 20
189.0943316945
 10
266.7777786875
 20
187.6914153099
 10
265.839378042
 20
186.2598548625
 10
264.9854427585
 20
184.8020961493
 10
264.217431771
 20
183.3206297266
 10
263.5366572134
 20
181.8179866548
 10
262.9442821776
 20
180.2967341745
 10
262.4413187264
 20
178.7594713201
 10
262.0286261645
 20
177.2088244793
 10
261.7069095702
 20
175.6474429062
 10
261.4767185908
 20
174.0779941951
 10
261.3384465039
 20
172.5031597228
 10
261.2923295449
 20
170.9256300675
 10
261.3384465039
 20
169.3481004122
 10
261.4767185908
 20
167.7732659399
 10
261.4791216492
 20
167.7528261414
  0
LWPOLYLINE
  5
321
330
1F
100
AcDbEntity
  8
0
  6
Continuous
 62
     8
370
    18
100
AcDbPolyline
 90
       42
 70
   128
 43
0.0
 10
369.0772361094
 20
167.7528261414
 10
369.0796391678
 20
167.7732659399
 10
369.2179112547
 20
169.3481004122
 10
369.2640282137
 20
170.9256300675
 10
369.2179112547
 20
172.5031597228
 10
369.0796391678
 20
174.0779941951
 10
368.8494481884
 20
175.6474429062
 10
368.5277315941
 20
177.2088244793
 10
368.1150390322
 20
178.7594713201
 10
367.6120755811
 20
180.2967341745
 10
367.0197005453
 20
181.8179866548
 10
366.3389259877
 20
183.3206297266
 10
365.5709150001
 20
184.8020961493
 10
364.7169797166
 20
186.2598548625
 10
363.7785790711
 20
187.6914153099
 10
362.7573163055
 20
189.0943316945
 10
361.6549362301
 20
190.4662071571
 10
360.4733222426
 20
191.8046978715
 10
359.2144931109
 20
193.1075170488
 10
357.8805995233
 20
194.3724388443
 10
356.4739204146
 20
195.5973021603
 10
354.9968590726
 20
196.7800143384
 10
353.4519390318
 20
197.9185547347
 10
351.8417997621
 20
199.010978172
 10
350.1691921594
 20
200.0554182631
 10
348.4369738459
 20
201.0500905998
 10
346.6481042873
 20
201.993295801
 10
344.8056397374
 20
202.8834224164
 10
342.912728016
 20
203.7189496797
 10
340.9726031309
 20
204.4984501065
 10
338.988579753
 20
205.2205919334
 10
336.9640475529
 20
205.8841413933
 10
334.90246541
 20
206.487964823
 10
332.8073555028
 20
207.0310306003
 10
330.6822972913
 20
207.5124109064
 10
328.5309214019
 20
207.9312833112
 10
326.3569034242
 20
208.2869321782
 10
324.1639576315
 20
208.5787498873
 10
321.9558306348
 20
208.8062378728
 10
319.7362949821
 20
208.9690074752
 10
317.5091427129
 20
209.0667806055
 10
315.2781788793
 20
209.09939022
  0
LWPOLYLINE
  5
322
330
1F
100
AcDbEntity
  8
0
  6
Continuous
 62
     8
370
    18
100
AcDbPolyline
 90
       43
 70
   128
 43
0.0
 10
315.2781788793
 20
208.7289434101
 10
313.0621429355
 20
208.6965519941
 10
310.8498930518
 20
208.5994330861
 10
308.6452088203
 20
208.4377526123
 10
306.4518569068
 20
208.2117868011
 10
304.2735846163
 20
207.9219217111
 10
302.1141134906
 20
207.5686525721
 10
299.9771329497
 20
207.1525829384
 10
297.8662939892
 20
206.6744236581
 10
295.7852029418
 20
206.1349916582
 10
293.737415317
 20
205.5352085493
 10
291.7264297253
 20
204.8760990507
 10
289.7556819019
 20
204.1587892401
 10
287.8285388366
 20
203.3845046291
 10
285.9482930207
 20
202.55456807
 10
284.1181568229
 20
201.6703974955
 10
282.3412570001
 20
200.7335034962
 10
280.6206293558
 20
199.7454867398
 10
278.9592135534
 20
198.7080352364
 10
277.3598480941
 20
197.6229214544
 10
275.8252654669
 20
196.4919992926
 10
274.3580874805
 20
195.3172009124
 10
272.9608207838
 20
194.1005334372
 10
271.6358525835
 20
192.844075523
 10
270.3854465656
 20
191.549973807
 10
269.2117390278
 20
190.2204392403
 10
268.1167352298
 20
188.8577433105
 10
267.1023059671
 20
187.4642141606
 10
266.1701843752
 20
186.0422326118
 10
265.3219629681
 20
184.5942280958
 10
264.5590909179
 20
183.122674504
 10
263.8828715787
 20
181.630085961
 10
263.2944602598
 20
180.1190125293
 10
262.7948622523
 20
178.5920358525
 10
262.3849311108
 20
177.0517647447
 10
262.0653671958
 20
175.5008307331
 10
261.836716477
 20
173.9418835626
 10
261.6993696002
 20
172.3775866682
 10
261.6535612204
 20
170.8106126249
 10
261.6993696002
 20
169.2436385817
 10
261.836716477
 20
167.6793416873
 10
262.0653671958
 20
166.1203945168
 10
262.0923349021
 20
165.9698678736
  0
LWPOLYLINE
  5
323
330
1F
100
AcDbEntity
  8
0
  6
Continuous
 62
     8
370
    18
100
AcDbPolyline
 90
       43
 70
   128
 43
0.0
 10
368.4640228566
 20
165.9698678736
 10
368.4909905628
 20
166.1203945168
 10
368.7196412816
 20
167.6793416873
 10
368.8569881584
 20
169.2436385817
 10
368.9027965382
 20
170.810612625
 10
368.8569881584
 20
172.3775866682
 10
368.7196412816
 20
173.9418835626
 10
368.4909905628
 20
175.5008307331
 10
368.1714266478
 20
177.0517647447
 10
367.7614955063
 20
178.5920358525
 10
367.2618974988
 20
180.1190125293
 10
366.6734861799
 20
181.630085961
 10
365.9972668407
 20
183.122674504
 10
365.2343947905
 20
184.5942280958
 10
364.3861733834
 20
186.0422326118
 10
363.4540517915
 20
187.4642141606
 10
362.4396225288
 20
188.8577433105
 10
361.3446187308
 20
190.2204392403
 10
360.170911193
 20
191.549973807
 10
358.9205051751
 20
192.844075523
 10
357.5955369749
 20
194.1005334372
 10
356.1982702781
 20
195.3172009124
 10
354.7310922917
 20
196.4919992926
 10
353.1965096645
 20
197.6229214544
 10
351.5971442052
 20
198.7080352364
 10
349.9357284029
 20
199.7454867398
 10
348.2151007586
 20
200.7335034962
 10
346.4382009357
 20
201.6703974955
 10
344.6080647379
 20
202.55456807
 10
342.7278189221
 20
203.3845046291
 10
340.8006758567
 20
204.1587892401
 10
338.8299280334
 20
204.8760990507
 10
336.8189424417
 20
205.5352085493
 10
334.7711548168
 20
206.1349916582
 10
332.6900637695
 20
206.6744236581
 10
330.5792248089
 20
207.1525829384
 10
328.4422442681
 20
207.5686525721
 10
326.2827731423
 20
207.9219217111
 10
324.1045008518
 20
208.2117868011
 10
321.9111489384
 20
208.4377526123
 10
319.7064647068
 20
208.5994330861
 10
317.4942148232
 20
208.6965519941
 10
315.2781788793
 20
208.7289434101
  0
ENDSEC
  0
SECTION
  2
OBJECTS
  0
DICTIONARY
  5
C
330
0
100
AcDbDictionary
281
     1
  3
ACAD_GROUP
350
D
  3
ACAD_LAYOUT
350
1A
  3
ACAD_MLINESTYLE
350
17
  3
ACAD_PLOTSETTINGS
350
19
  3
ACAD_PLOTSTYLENAME
350
E
  3
ACAD_SCALELIST
350
47
  3
DWGPROPS
350
324
  0
DICTIONARY
  5
D
102
{ACAD_REACTORS
330
C
102
}
330
C
100
AcDbDictionary
281
     1
  0
DICTIONARY
  5
1A
102
{ACAD_REACTORS
330
C
102
}
330
C
100
AcDbDictionary
281
     1
  3
Layout1
350
1E
  3
Layout2
350
26
  3
Model
350
22
  0
DICTIONARY
  5
17
102
{ACAD_REACTORS
330
C
102
}
330
C
100
AcDbDictionary
281
     1
  3
Standard
350
18
  0
DICTIONARY
  5
19
102
{ACAD_REACTORS
330
C
102
}
330
C
100
AcDbDictionary
281
     1
  0
ACDBDICTIONARYWDFLT
  5
E
102
{ACAD_REACTORS
330
C
102
}
330
C
100
AcDbDictionary
281
     1
  3
Normal
350
F
100
AcDbDictionaryWithDefault
340
F
  0
DICTIONARY
  5
47
102
{ACAD_REACTORS
330
C
102
}
330
C
100
AcDbDictionary
281
     1
  3
A0
350
48
  3
A1
350
49
  3
A2
350
4A
  3
A3
350
4B
  3
A4
350
4C
  3
A5
350
4D
  3
A6
350
4E
  3
A7
350
4F
  3
A8
350
50
  3
A9
350
51
  3
B0
350
52
  3
B1
350
53
  3
B2
350
54
  3
B3
350
55
  3
B4
350
56
  3
B5
350
57
  3
B6
350
58
  3
B7
350
59
  3
B8
350
5A
  3
B9
350
5B
  3
C0
350
5C
  3
C1
350
5D
  3
C2
350
5E
  3
C3
350
5F
  3
C4
350
60
  3
C5
350
61
  3
C6
350
62
  3
C7
350
63
  3
C8
350
64
  3
C9
350
65
  3
D0
350
66
  3
D1
350
67
  3
D2
350
68
  0
XRECORD
  5
324
102
{ACAD_REACTORS
330
C
102
}
330
C
100
AcDbXrecord
280
     1
  1
DWGPROPS COOKIE
  2

  3

  4

  6

  7

  8
ch-ntl-rs-wscad
  9

300
=
301
=
302
=
303
=
304
=
305
=
306
=
307
=
308
=
309
=
 40
0.0
 41
2460206.612878438
 42
2460206.612886771
  1

 90
        0
  0
LAYOUT
  5
1E
102
{ACAD_REACTORS
330
1A
102
}
330
1A
100
AcDbPlotSettings
  1

  2
none_device
  4

  6

 40
0.0
 41
0.0
 42
0.0
 43
0.0
 44
0.0
 45
0.0
 46
0.0
 47
0.0
 48
0.0
 49
0.0
140
0.0
141
0.0
142
1.0
143
1.0
 70
   688
 72
     1
 73
     0
 74
     5
  7

 75
    16
147
1.0
148
0.0
149
0.0
100
AcDbLayout
  1
Layout1
 70
     1
 71
     1
 10
0.0
 20
0.0
 11
420.0
 21
297.0
 12
0.0
 22
0.0
 32
0.0
 14
1.0000000000E+20
 24
1.0000000000E+20
 34
1.0000000000E+20
 15
-1.0000000000E+20
 25
-1.0000000000E+20
 35
-1.0000000000E+20
146
0.0
 13
0.0
 23
0.0
 33
0.0
 16
1.0
 26
0.0
 36
0.0
 17
0.0
 27
1.0
 37
0.0
 76
     0
330
1B
  0
LAYOUT
  5
26
102
{ACAD_REACTORS
330
1A
102
}
330
1A
100
AcDbPlotSettings
  1

  2
none_device
  4

  6

 40
0.0
 41
0.0
 42
0.0
 43
0.0
 44
0.0
 45
0.0
 46
0.0
 47
0.0
 48
0.0
 49
0.0
140
0.0
141
0.0
142
1.0
143
1.0
 70
   688
 72
     1
 73
     0
 74
     5
  7

 75
    16
147
1.0
148
0.0
149
0.0
100
AcDbLayout
  1
Layout2
 70
     1
 71
     2
 10
0.0
 20
0.0
 11
0.0
 21
0.0
 12
0.0
 22
0.0
 32
0.0
 14
0.0
 24
0.0
 34
0.0
 15
0.0
 25
0.0
 35
0.0
146
0.0
 13
0.0
 23
0.0
 33
0.0
 16
1.0
 26
0.0
 36
0.0
 17
0.0
 27
1.0
 37
0.0
 76
     0
330
23
  0
LAYOUT
  5
22
102
{ACAD_REACTORS
330
1A
102
}
330
1A
100
AcDbPlotSettings
  1

  2
none_device
  4
Letter_(8.50_x_11.00_Inches)
  6

 40
6.35
 41
6.35
 42
6.35000508
 43
6.35000508
 44
215.9
 45
279.4
 46
0.0
 47
0.0
 48
0.0
 49
0.0
140
0.0
141
0.0
142
1.0
143
1.0
 70
  1712
 72
     1
 73
     0
 74
     0
  7

 75
     0
147
1.0
148
0.0
149
0.0
100
AcDbLayout
  1
Model
 70
     1
 71
     0
 10
0.0
 20
0.0
 11
420.0
 21
297.0
 12
0.0
 22
0.0
 32
0.0
 14
0.0
 24
0.0
 34
0.0
 15
420.0
 25
297.0
 35
0.0
146
0.0
 13
0.0
 23
0.0
 33
0.0
 16
1.0
 26
0.0
 36
0.0
 17
0.0
 27
1.0
 37
0.0
 76
     0
330
1F
331
29
  0
MLINESTYLE
  5
18
102
{ACAD_REACTORS
330
17
102
}
330
17
100
AcDbMlineStyle
  2
Standard
 70
     0
  3

 62
   256
 51
90.0
 52
90.0
 71
     2
 49
0.5
 62
   256
  6
BYLAYER
 49
-0.5
 62
   256
  6
BYLAYER
  0
ACDBPLACEHOLDER
  5
F
102
{ACAD_REACTORS
330
E
102
}
330
E
  0
SCALE
  5
48
102
{ACAD_REACTORS
330
47
102
}
330
47
100
AcDbScale
 70
     0
300
1:1
140
1.0
141
1.0
290
     1
  0
SCALE
  5
49
102
{ACAD_REACTORS
330
47
102
}
330
47
100
AcDbScale
 70
     0
300
1:2
140
1.0
141
2.0
290
     0
  0
SCALE
  5
4A
102
{ACAD_REACTORS
330
47
102
}
330
47
100
AcDbScale
 70
     0
300
1:4
140
1.0
141
4.0
290
     0
  0
SCALE
  5
4B
102
{ACAD_REACTORS
330
47
102
}
330
47
100
AcDbScale
 70
     0
300
1:5
140
1.0
141
5.0
290
     0
  0
SCALE
  5
4C
102
{ACAD_REACTORS
330
47
102
}
330
47
100
AcDbScale
 70
     0
300
1:8
140
1.0
141
8.0
290
     0
  0
SCALE
  5
4D
102
{ACAD_REACTORS
330
47
102
}
330
47
100
AcDbScale
 70
     0
300
1:10
140
1.0
141
10.0
290
     0
  0
SCALE
  5
4E
102
{ACAD_REACTORS
330
47
102
}
330
47
100
AcDbScale
 70
     0
300
1:16
140
1.0
141
16.0
290
     0
  0
SCALE
  5
4F
102
{ACAD_REACTORS
330
47
102
}
330
47
100
AcDbScale
 70
     0
300
1:20
140
1.0
141
20.0
290
     0
  0
SCALE
  5
50
102
{ACAD_REACTORS
330
47
102
}
330
47
100
AcDbScale
 70
     0
300
1:30
140
1.0
141
30.0
290
     0
  0
SCALE
  5
51
102
{ACAD_REACTORS
330
47
102
}
330
47
100
AcDbScale
 70
     0
300
1:40
140
1.0
141
40.0
290
     0
  0
SCALE
  5
52
102
{ACAD_REACTORS
330
47
102
}
330
47
100
AcDbScale
 70
     0
300
1:50
140
1.0
141
50.0
290
     0
  0
SCALE
  5
53
102
{ACAD_REACTORS
330
47
102
}
330
47
100
AcDbScale
 70
     0
300
1:100
140
1.0
141
100.0
290
     0
  0
SCALE
  5
54
102
{ACAD_REACTORS
330
47
102
}
330
47
100
AcDbScale
 70
     0
300
2:1
140
2.0
141
1.0
290
     0
  0
SCALE
  5
55
102
{ACAD_REACTORS
330
47
102
}
330
47
100
AcDbScale
 70
     0
300
4:1
140
4.0
141
1.0
290
     0
  0
SCALE
  5
56
102
{ACAD_REACTORS
330
47
102
}
330
47
100
AcDbScale
 70
     0
300
8:1
140
8.0
141
1.0
290
     0
  0
SCALE
  5
57
102
{ACAD_REACTORS
330
47
102
}
330
47
100
AcDbScale
 70
     0
300
10:1
140
10.0
141
1.0
290
     0
  0
SCALE
  5
58
102
{ACAD_REACTORS
330
47
102
}
330
47
100
AcDbScale
 70
     0
300
100:1
140
100.0
141
1.0
290
     0
  0
SCALE
  5
59
102
{ACAD_REACTORS
330
47
102
}
330
47
100
AcDbScale
 70
     0
300
1/128" = 1'-0"
140
0.0078125
141
12.0
290
     0
  0
SCALE
  5
5A
102
{ACAD_REACTORS
330
47
102
}
330
47
100
AcDbScale
 70
     0
300
1/64" = 1'-0"
140
0.015625
141
12.0
290
     0
  0
SCALE
  5
5B
102
{ACAD_REACTORS
330
47
102
}
330
47
100
AcDbScale
 70
     0
300
1/32" = 1'-0"
140
0.03125
141
12.0
290
     0
  0
SCALE
  5
5C
102
{ACAD_REACTORS
330
47
102
}
330
47
100
AcDbScale
 70
     0
300
1/16" = 1'-0"
140
0.0625
141
12.0
290
     0
  0
SCALE
  5
5D
102
{ACAD_REACTORS
330
47
102
}
330
47
100
AcDbScale
 70
     0
300
3/32" = 1'-0"
140
0.09375
141
12.0
290
     0
  0
SCALE
  5
5E
102
{ACAD_REACTORS
330
47
102
}
330
47
100
AcDbScale
 70
     0
300
1/8" = 1'-0"
140
0.125
141
12.0
290
     0
  0
SCALE
  5
5F
102
{ACAD_REACTORS
330
47
102
}
330
47
100
AcDbScale
 70
     0
300
3/16" = 1'-0"
140
0.1875
141
12.0
290
     0
  0
SCALE
  5
60
102
{ACAD_REACTORS
330
47
102
}
330
47
100
AcDbScale
 70
     0
300
1/4" = 1'-0"
140
0.25
141
12.0
290
     0
  0
SCALE
  5
61
102
{ACAD_REACTORS
330
47
102
}
330
47
100
AcDbScale
 70
     0
300
3/8" = 1'-0"
140
0.375
141
12.0
290
     0
  0
SCALE
  5
62
102
{ACAD_REACTORS
330
47
102
}
330
47
100
AcDbScale
 70
     0
300
1/2" = 1'-0"
140
0.5
141
12.0
290
     0
  0
SCALE
  5
63
102
{ACAD_REACTORS
330
47
102
}
330
47
100
AcDbScale
 70
     0
300
3/4" = 1'-0"
140
0.75
141
12.0
290
     0
  0
SCALE
  5
64
102
{ACAD_REACTORS
330
47
102
}
330
47
100
AcDbScale
 70
     0
300
1" = 1'-0"
140
1.0
141
12.0
290
     0
  0
SCALE
  5
65
102
{ACAD_REACTORS
330
47
102
}
330
47
100
AcDbScale
 70
     0
300
1-1/2" = 1'-0"
140
1.5
141
12.0
290
     0
  0
SCALE
  5
66
102
{ACAD_REACTORS
330
47
102
}
330
47
100
AcDbScale
 70
     0
300
3" = 1'-0"
140
3.0
141
12.0
290
     0
  0
SCALE
  5
67
102
{ACAD_REACTORS
330
47
102
}
330
47
100
AcDbScale
 70
     0
300
6" = 1'-0"
140
6.0
141
12.0
290
     0
  0
SCALE
  5
68
102
{ACAD_REACTORS
330
47
102
}
330
47
100
AcDbScale
 70
     0
300
1'-0" = 1'-0"
140
12.0
141
12.0
290
     0
  0
ENDSEC
  0
EOF
