  0
SECTION
  2
HEADER
  9
$ACADVER
  1
AC1015
  9
$ACADMAINTVER
 70
     6
  9
$DWGCODEPAGE
  3
ANSI_1252
  9
$INSBASE
 10
0.0
 20
0.0
 30
0.0
  9
$EXTMIN
 10
0.0
 20
0.0
 30
0.0
  9
$EXTMAX
 10
420.0
 20
297.0
 30
0.0
  9
$LIMMIN
 10
0.0
 20
0.0
  9
$LIMMAX
 10
420.0
 20
297.0
  9
$ORTHOMODE
 70
     0
  9
$REGENMODE
 70
     1
  9
$FILLMODE
 70
     1
  9
$QTEXTMODE
 70
     0
  9
$MIRRTEXT
 70
     1
  9
$LTSCALE
 40
1.0
  9
$ATTMODE
 70
     1
  9
$TEXTSIZE
 40
3.5
  9
$TRACEWID
 40
1.0
  9
$TEXTSTYLE
  7
Standard
  9
$CLAYER
  8
0
  9
$CELTYPE
  6
ByLayer
  9
$CECOLOR
 62
   256
  9
$CELTSCALE
 40
1.0
  9
$DISPSILH
 70
     0
  9
$DIMSCALE
 40
1.0
  9
$DIMASZ
 40
3.5
  9
$DIMEXO
 40
0.1
  9
$DIMDLI
 40
3.75
  9
$DIMRND
 40
0.0
  9
$DIMDLE
 40
0.0
  9
$DIMEXE
 40
1.0
  9
$DIMTP
 40
0.0
  9
$DIMTM
 40
0.0
  9
$DIMTXT
 40
3.5
  9
$DIMCEN
 40
2.5
  9
$DIMTSZ
 40
0.0
  9
$DIMTOL
 70
     0
  9
$DIMLIM
 70
     0
  9
$DIMTIH
 70
     1
  9
$DIMTOH
 70
     1
  9
$DIMSE1
 70
     0
  9
$DIMSE2
 70
     0
  9
$DIMTAD
 70
     1
  9
$DIMZIN
 70
     0
  9
$DIMBLK
  1

  9
$DIMASO
 70
     1
  9
$DIMSHO
 70
     1
  9
$DIMPOST
  1

  9
$DIMAPOST
  1

  9
$DIMALT
 70
     0
  9
$DIMALTD
 70
     3
  9
$DIMALTF
 40
0.0393700787
  9
$DIMLFAC
 40
1.0
  9
$DIMTOFL
 70
     1
  9
$DIMTVP
 40
0.0
  9
$DIMTIX
 70
     0
  9
$DIMSOXD
 70
     0
  9
$DIMSAH
 70
     0
  9
$DIMBLK1
  1

  9
$DIMBLK2
  1

  9
$DIMSTYLE
  2
ISO-25
  9
$DIMCLRD
 70
     0
  9
$DIMCLRE
 70
     0
  9
$DIMCLRT
 70
     0
  9
$DIMTFAC
 40
1.0
  9
$DIMGAP
 40
2.0
  9
$DIMJUST
 70
     0
  9
$DIMSD1
 70
     0
  9
$DIMSD2
 70
     0
  9
$DIMTOLJ
 70
     0
  9
$DIMTZIN
 70
     0
  9
$DIMALTZ
 70
     0
  9
$DIMALTTZ
 70
     0
  9
$DIMUPT
 70
     0
  9
$DIMDEC
 70
     2
  9
$DIMTDEC
 70
     3
  9
$DIMALTU
 70
     2
  9
$DIMALTTD
 70
     3
  9
$DIMTXSTY
  7
Standard
  9
$DIMAUNIT
 70
     0
  9
$DIMADEC
 70
     2
  9
$DIMALTRND
 40
0.0
  9
$DIMAZIN
 70
     0
  9
$DIMDSEP
 70
    44
  9
$DIMATFIT
 70
     3
  9
$DIMFRAC
 70
     0
  9
$DIMLDRBLK
  1

  9
$DIMLUNIT
 70
     2
  9
$DIMLWD
 70
    -2
  9
$DIMLWE
 70
    -2
  9
$DIMTMOVE
 70
     0
  9
$LUNITS
 70
     2
  9
$LUPREC
 70
     2
  9
$SKETCHINC
 40
1.0
  9
$FILLETRAD
 40
10.0
  9
$AUNITS
 70
     0
  9
$AUPREC
 70
     2
  9
$MENU
  1
.
  9
$ELEVATION
 40
0.0
  9
$PELEVATION
 40
0.0
  9
$THICKNESS
 40
0.0
  9
$LIMCHECK
 70
     0
  9
$CHAMFERA
 40
0.0
  9
$CHAMFERB
 40
0.0
  9
$CHAMFERC
 40
0.0
  9
$CHAMFERD
 40
0.0
  9
$SKPOLY
 70
     0
  9
$TDCREATE
 40
2460206.696272952
  9
$TDUCREATE
 40
2460206.612939618
  9
$TDUPDATE
 40
2460206.6962811
  9
$TDUUPDATE
 40
2460206.612947766
  9
$TDINDWG
 40
0.0000000116
  9
$TDUSRTIMER
 40
0.0000000116
  9
$USRTIMER
 70
     1
  9
$ANGBASE
 50
0.0
  9
$ANGDIR
 70
     0
  9
$PDMODE
 70
     0
  9
$PDSIZE
 40
-1.0
  9
$PLINEWID
 40
0.0
  9
$SPLFRAME
 70
     0
  9
$SPLINETYPE
 70
     6
  9
$SPLINESEGS
 70
     8
  9
$HANDSEED
  5
32B
  9
$SURFTAB1
 70
     6
  9
$SURFTAB2
 70
     6
  9
$SURFTYPE
 70
     6
  9
$SURFU
 70
     6
  9
$SURFV
 70
     6
  9
$UCSBASE
  2

  9
$UCSNAME
  2

  9
$UCSORG
 10
0.0
 20
0.0
 30
0.0
  9
$UCSXDIR
 10
1.0
 20
0.0
 30
0.0
  9
$UCSYDIR
 10
0.0
 20
1.0
 30
0.0
  9
$UCSORTHOREF
  2

  9
$UCSORTHOVIEW
 70
     0
  9
$UCSORGTOP
 10
0.0
 20
0.0
 30
0.0
  9
$UCSORGBOTTOM
 10
0.0
 20
0.0
 30
0.0
  9
$UCSORGLEFT
 10
0.0
 20
0.0
 30
0.0
  9
$UCSORGRIGHT
 10
0.0
 20
0.0
 30
0.0
  9
$UCSORGFRONT
 10
0.0
 20
0.0
 30
0.0
  9
$UCSORGBACK
 10
0.0
 20
0.0
 30
0.0
  9
$PUCSBASE
  2

  9
$PUCSNAME
  2

  9
$PUCSORG
 10
0.0
 20
0.0
 30
0.0
  9
$PUCSXDIR
 10
1.0
 20
0.0
 30
0.0
  9
$PUCSYDIR
 10
0.0
 20
1.0
 30
0.0
  9
$PUCSORTHOREF
  2

  9
$PUCSORTHOVIEW
 70
     0
  9
$PUCSORGTOP
 10
0.0
 20
0.0
 30
0.0
  9
$PUCSORGBOTTOM
 10
0.0
 20
0.0
 30
0.0
  9
$PUCSORGLEFT
 10
0.0
 20
0.0
 30
0.0
  9
$PUCSORGRIGHT
 10
0.0
 20
0.0
 30
0.0
  9
$PUCSORGFRONT
 10
0.0
 20
0.0
 30
0.0
  9
$PUCSORGBACK
 10
0.0
 20
0.0
 30
0.0
  9
$USERI1
 70
     0
  9
$USERI2
 70
     0
  9
$USERI3
 70
     0
  9
$USERI4
 70
     0
  9
$USERI5
 70
     0
  9
$USERR1
 40
0.0
  9
$USERR2
 40
0.0
  9
$USERR3
 40
0.0
  9
$USERR4
 40
0.0
  9
$USERR5
 40
0.0
  9
$WORLDVIEW
 70
     1
  9
$SHADEDGE
 70
     3
  9
$SHADEDIF
 70
    70
  9
$TILEMODE
 70
     1
  9
$MAXACTVP
 70
    64
  9
$PINSBASE
 10
0.0
 20
0.0
 30
0.0
  9
$PLIMCHECK
 70
     0
  9
$PEXTMIN
 10
1.0000000000E+20
 20
1.0000000000E+20
 30
1.0000000000E+20
  9
$PEXTMAX
 10
-1.0000000000E+20
 20
-1.0000000000E+20
 30
-1.0000000000E+20
  9
$PLIMMIN
 10
0.0
 20
0.0
  9
$PLIMMAX
 10
420.0
 20
297.0
  9
$UNITMODE
 70
     0
  9
$VISRETAIN
 70
     1
  9
$PLINEGEN
 70
     0
  9
$PSLTSCALE
 70
     1
  9
$TREEDEPTH
 70
  3020
  9
$CMLSTYLE
  2
Standard
  9
$CMLJUST
 70
     0
  9
$CMLSCALE
 40
20.0
  9
$PROXYGRAPHICS
 70
     1
  9
$MEASUREMENT
 70
     1
  9
$CELWEIGHT
370
    -1
  9
$ENDCAPS
280
     0
  9
$JOINSTYLE
280
     0
  9
$LWDISPLAY
290
     1
  9
$INSUNITS
 70
     4
  9
$HYPERLINKBASE
  1

  9
$STYLESHEET
  1

  9
$XEDIT
290
     1
  9
$CEPSNTYPE
380
     0
  9
$PSTYLEMODE
290
     1
  9
$FINGERPRINTGUID
  2
{bcd10f2b-fe31-4139-930a-9c1b637fe25e}
  9
$VERSIONGUID
  2
{FAEB1C32-E019-11D5-929B-00C0DF256EC4}
  9
$EXTNAMES
290
     1
  9
$PSVPSCALE
 40
0.0
  9
$OLESTARTUP
290
     0
  0
ENDSEC
  0
SECTION
  2
CLASSES
  0
CLASS
  1
ACDBDICTIONARYWDFLT
  2
AcDbDictionaryWithDefault
  3
ObjectDBX Classes
 90
        0
280
     0
281
     0
  0
CLASS
  1
VISUALSTYLE
  2
AcDbVisualStyle
  3
ObjectDBX Classes
 90
     4095
280
     0
281
     0
  0
CLASS
  1
MATERIAL
  2
AcDbMaterial
  3
ObjectDBX Classes
 90
     1153
280
     0
281
     0
  0
CLASS
  1
SCALE
  2
AcDbScale
  3
ObjectDBX Classes
 90
     1153
280
     0
281
     0
  0
CLASS
  1
TABLESTYLE
  2
AcDbTableStyle
  3
ObjectDBX Classes
 90
     4095
280
     0
281
     0
  0
CLASS
  1
MLEADERSTYLE
  2
AcDbMLeaderStyle
  3
ACDB_MLEADERSTYLE_CLASS
 90
     4095
280
     0
281
     0
  0
CLASS
  1
SUN
  2
AcDbSun
  3
SCENEOE
 90
     1153
280
     0
281
     0
  0
CLASS
  1
ACDBPLACEHOLDER
  2
AcDbPlaceHolder
  3
ObjectDBX Classes
 90
        0
280
     0
281
     0
  0
CLASS
  1
LAYOUT
  2
AcDbLayout
  3
ObjectDBX Classes
 90
        0
280
     0
281
     0
  0
ENDSEC
  0
SECTION
  2
TABLES
  0
TABLE
  2
VPORT
  5
8
330
0
100
AcDbSymbolTable
 70
     1
  0
VPORT
  5
29
330
8
100
AcDbSymbolTableRecord
100
AcDbViewportTableRecord
  2
*Active
 70
     0
 10
0.0
 20
0.0
 11
1.0
 21
1.0
 12
210.0
 22
148.5
 13
0.0
 23
0.0
 14
10.0
 24
10.0
 15
10.0
 25
10.0
 16
0.0
 26
0.0
 36
1.0
 17
0.0
 27
0.0
 37
0.0
 40
297.0
 41
1.4141414141
 42
50.0
 43
0.0
 44
0.0
 50
0.0
 51
0.0
 71
     0
 72
  2000
 73
     1
 74
     3
 75
     0
 76
     0
 77
     0
 78
     0
281
     0
 65
     1
110
0.0
120
0.0
130
0.0
111
1.0
121
0.0
131
0.0
112
0.0
122
1.0
132
0.0
 79
     0
146
0.0
  0
ENDTAB
  0
TABLE
  2
LTYPE
  5
5
330
0
100
AcDbSymbolTable
 70
     6
  0
LTYPE
  5
14
330
5
100
AcDbSymbolTableRecord
100
AcDbLinetypeTableRecord
  2
ByBlock
 70
     0
  3

 72
    65
 73
     0
 40
0.0
  0
LTYPE
  5
15
330
5
100
AcDbSymbolTableRecord
100
AcDbLinetypeTableRecord
  2
ByLayer
 70
     0
  3

 72
    65
 73
     0
 40
0.0
  0
LTYPE
  5
16
330
5
100
AcDbSymbolTableRecord
100
AcDbLinetypeTableRecord
  2
Continuous
 70
     0
  3
Solid line
 72
    65
 73
     0
 40
0.0
  0
LTYPE
  5
6E
330
5
100
AcDbSymbolTableRecord
100
AcDbLinetypeTableRecord
  2
HIDDEN
 70
     0
  3
Hidden __ __ __ __ __ __ __ __ __ __ __ __ __ __
 72
    65
 73
     2
 40
1.905
 49
1.27
 74
     0
 49
-0.635
 74
     0
  0
LTYPE
  5
6F
330
5
100
AcDbSymbolTableRecord
100
AcDbLinetypeTableRecord
  2
PHANTOM
 70
     0
  3
Phantom ______  __  __  ______  __  __  ______
 72
    65
 73
     6
 40
12.7
 49
6.35
 74
     0
 49
-1.27
 74
     0
 49
1.27
 74
     0
 49
-1.27
 74
     0
 49
1.27
 74
     0
 49
-1.27
 74
     0
  0
LTYPE
  5
70
330
5
100
AcDbSymbolTableRecord
100
AcDbLinetypeTableRecord
  2
CENTER
 70
     0
  3
Center ____ _ ____ _ ____ _ ____ _ ____ _ ____
 72
    65
 73
     4
 40
10.16
 49
6.35
 74
     0
 49
-1.27
 74
     0
 49
1.27
 74
     0
 49
-1.27
 74
     0
  0
LTYPE
  5
71
330
5
100
AcDbSymbolTableRecord
100
AcDbLinetypeTableRecord
  2
CENTERX2
 70
     0
  3
Center (2x) ________  __  ________  __  _____
 72
    65
 73
     4
 40
20.32
 49
12.7
 74
     0
 49
-2.54
 74
     0
 49
2.54
 74
     0
 49
-2.54
 74
     0
  0
LTYPE
  5
72
330
5
100
AcDbSymbolTableRecord
100
AcDbLinetypeTableRecord
  2
DOT2
 70
     0
  3
Dot (.5x) ........................................
 72
    65
 73
     2
 40
0.635
 49
0.0
 74
     0
 49
-0.635
 74
     0
  0
ENDTAB
  0
TABLE
  2
LAYER
  5
2
330
0
100
AcDbSymbolTable
 70
     9
  0
LAYER
  5
10
330
2
100
AcDbSymbolTableRecord
100
AcDbLayerTableRecord
  2
0
 70
     0
 62
     7
  6
Continuous
370
    -3
390
F
  0
LAYER
  5
73
330
2
100
AcDbSymbolTableRecord
100
AcDbLayerTableRecord
  2
VORLAGE_TEXT
 70
     0
 62
     7
  6
Continuous
370
    -3
390
F
  0
LAYER
  5
74
330
2
100
AcDbSymbolTableRecord
100
AcDbLayerTableRecord
  2
VORLAGE_BEMASSUNG
 70
     0
 62
    -5
  6
Continuous
290
     0
370
    -3
390
F
  0
LAYER
  5
75
330
2
100
AcDbSymbolTableRecord
100
AcDbLayerTableRecord
  2
TEXT
 70
     0
 62
     7
  6
Continuous
370
    -3
390
F
  0
LAYER
  5
76
330
2
100
AcDbSymbolTableRecord
100
AcDbLayerTableRecord
  2
LINIEN-DICK
 70
     0
 62
     7
  6
Continuous
370
    35
390
F
  0
LAYER
  5
77
330
2
100
AcDbSymbolTableRecord
100
AcDbLayerTableRecord
  2
LINIEN-NORMAL
 70
     0
 62
     7
  6
Continuous
370
    25
390
F
  0
LAYER
  5
78
330
2
100
AcDbSymbolTableRecord
100
AcDbLayerTableRecord
  2
LINIEN-DÜNN
 70
     0
 62
     7
  6
Continuous
370
    -3
390
F
  0
LAYER
  5
79
330
2
100
AcDbSymbolTableRecord
100
AcDbLayerTableRecord
  2
TEXT-DEUTSCH
 70
     0
 62
     7
  6
Continuous
370
    -3
390
F
  0
LAYER
  5
7A
330
2
100
AcDbSymbolTableRecord
100
AcDbLayerTableRecord
  2
TEXT-ENGLISCH
 70
     0
 62
    -7
  6
Continuous
290
     0
370
    -3
390
F
  0
ENDTAB
  0
TABLE
  2
STYLE
  5
3
330
0
100
AcDbSymbolTable
 70
     3
  0
STYLE
  5
11
330
3
100
AcDbSymbolTableRecord
100
AcDbTextStyleTableRecord
  2
Standard
 70
     0
 40
0.0
 41
1.0
 50
0.0
 71
     0
 42
3.5
  3
txt
  4

  0
STYLE
  5
F1
330
3
100
AcDbSymbolTableRecord
100
AcDbTextStyleTableRecord
  2
SLDTEXTSTYLE0
 70
     0
 40
0.0
 41
0.605
 50
0.0
 71
     0
 42
3.5
  3
TXT
  4

  0
STYLE
  5
19E
330
3
100
AcDbSymbolTableRecord
100
AcDbTextStyleTableRecord
  2
SLDTEXTSTYLE1
 70
     0
 40
0.0
 41
0.563
 50
0.0
 71
     0
 42
3.5
  3
TXT
  4

  0
ENDTAB
  0
TABLE
  2
VIEW
  5
6
330
0
100
AcDbSymbolTable
 70
     0
  0
ENDTAB
  0
TABLE
  2
UCS
  5
7
330
0
100
AcDbSymbolTable
 70
     0
  0
ENDTAB
  0
TABLE
  2
APPID
  5
9
330
0
100
AcDbSymbolTable
 70
     1
  0
APPID
  5
12
330
9
100
AcDbSymbolTableRecord
100
AcDbRegAppTableRecord
  2
ACAD
 70
     0
  0
ENDTAB
  0
TABLE
  2
DIMSTYLE
  5
A
330
0
100
AcDbSymbolTable
 70
     4
100
AcDbDimStyleTable
  0
DIMSTYLE
105
27
330
A
100
AcDbSymbolTableRecord
100
AcDbDimStyleTableRecord
  2
ISO-25
 70
     0
 41
2.5
 42
0.625
 43
3.75
 44
1.25
 73
     0
 74
     0
 77
     1
 78
     8
140
2.5
141
2.5
143
0.0393700787
147
0.625
171
     3
172
     1
178
     0
271
     2
272
     2
274
     3
278
    44
283
     0
284
     8
340
11
  0
DIMSTYLE
105
1B6
102
{ACAD_REACTORS
330
1B5
102
}
330
A
100
AcDbSymbolTableRecord
100
AcDbDimStyleTableRecord
  2
SLDDIMSTYLE0
 70
     0
 41
3.5
 44
0.0
 45
0.000000001
 73
     0
 74
     0
 77
     1
 78
    12
 79
     3
140
3.5
141
0.0
147
0.875
173
     1
178
     0
271
     1
272
     3
276
     2
284
    12
340
F1
  0
DIMSTYLE
105
1BF
102
{ACAD_REACTORS
330
1BE
102
}
330
A
100
AcDbSymbolTableRecord
100
AcDbDimStyleTableRecord
  2
SLDDIMSTYLE1
 70
     0
 41
3.5
 44
0.0
 45
0.000000001
 73
     0
 74
     0
 77
     1
 78
    12
 79
     3
140
3.5
141
0.0
147
0.875
172
     1
173
     1
178
     0
271
     2
272
     3
276
     2
284
    12
340
F1
  0
DIMSTYLE
105
29F
102
{ACAD_REACTORS
330
29E
102
}
330
A
100
AcDbSymbolTableRecord
100
AcDbDimStyleTableRecord
  2
SLDDIMSTYLE2
 70
     0
 41
3.5
 44
0.0
 45
0.000000001
 73
     0
 74
     0
 77
     1
 78
    12
 79
     3
140
3.5
147
0.875
173
     1
178
     0
271
     2
272
     3
276
     2
284
    12
340
F1
  0
ENDTAB
  0
TABLE
  2
BLOCK_RECORD
  5
1
330
0
100
AcDbSymbolTable
 70
    10
  0
BLOCK_RECORD
  5
1F
330
1
100
AcDbSymbolTableRecord
100
AcDbBlockTableRecord
  2
*Model_Space
340
22
  0
BLOCK_RECORD
  5
1B
330
1
100
AcDbSymbolTableRecord
100
AcDbBlockTableRecord
  2
*Paper_Space
340
1E
  0
BLOCK_RECORD
  5
23
330
1
100
AcDbSymbolTableRecord
100
AcDbBlockTableRecord
  2
*Paper_Space0
340
26
  0
BLOCK_RECORD
  5
7B
330
1
100
AcDbSymbolTableRecord
100
AcDbBlockTableRecord
  2
ACO-Logo
340
0
102
{BLKREFS
331
151
102
}
  0
BLOCK_RECORD
  5
EE
330
1
100
AcDbSymbolTableRecord
100
AcDbBlockTableRecord
  2
SW_NOTE_0
340
0
102
{BLKREFS
331
F3
102
}
  0
BLOCK_RECORD
  5
F4
330
1
100
AcDbSymbolTableRecord
100
AcDbBlockTableRecord
  2
SW_NOTE_0_1
340
0
102
{BLKREFS
331
F8
102
}
  0
BLOCK_RECORD
  5
F9
330
1
100
AcDbSymbolTableRecord
100
AcDbBlockTableRecord
  2
SW_NOTE_0_2
340
0
102
{BLKREFS
331
100
102
}
  0
BLOCK_RECORD
  5
178
330
1
100
AcDbSymbolTableRecord
100
AcDbBlockTableRecord
  2
SW_NOTE_0_3
340
0
102
{BLKREFS
331
180
102
}
  0
BLOCK_RECORD
  5
1B7
330
1
100
AcDbSymbolTableRecord
100
AcDbBlockTableRecord
  2
_D
340
0
  0
BLOCK_RECORD
  5
1C0
330
1
100
AcDbSymbolTableRecord
100
AcDbBlockTableRecord
  2
_D_1
340
0
  0
BLOCK_RECORD
  5
1C9
330
1
100
AcDbSymbolTableRecord
100
AcDbBlockTableRecord
  2
SW_CENTERMARKSYMBOL_0
340
0
102
{BLKREFS
331
1D4
102
}
  0
BLOCK_RECORD
  5
2A0
330
1
100
AcDbSymbolTableRecord
100
AcDbBlockTableRecord
  2
_D_2
340
0
  0
ENDTAB
  0
ENDSEC
  0
SECTION
  2
BLOCKS
  0
BLOCK
  5
20
330
1F
100
AcDbEntity
  8
0
100
AcDbBlockBegin
  2
*Model_Space
 70
     0
 10
0.0
 20
0.0
 30
0.0
  3
*Model_Space
  1

  0
ENDBLK
  5
21
330
1F
100
AcDbEntity
  8
0
100
AcDbBlockEnd
  0
BLOCK
  5
1C
330
1B
100
AcDbEntity
 67
     1
  8
0
100
AcDbBlockBegin
  2
*Paper_Space
 70
     0
 10
0.0
 20
0.0
 30
0.0
  3
*Paper_Space
  1

  0
ENDBLK
  5
1D
330
1B
100
AcDbEntity
 67
     1
  8
0
100
AcDbBlockEnd
  0
BLOCK
  5
24
330
23
100
AcDbEntity
  8
0
100
AcDbBlockBegin
  2
*Paper_Space0
 70
     0
 10
0.0
 20
0.0
 30
0.0
  3
*Paper_Space0
  1

  0
ENDBLK
  5
25
330
23
100
AcDbEntity
  8
0
100
AcDbBlockEnd
  0
BLOCK
  5
7C
330
7B
100
AcDbEntity
  8
0
100
AcDbBlockBegin
  2
ACO-Logo
 70
     0
 10
0.0
 20
0.0
 30
0.0
  3
ACO-Logo
  1

  0
ARC
  5
7E
330
7B
100
AcDbEntity
  8
0
  6
Continuous
 62
   179
370
    18
100
AcDbCircle
 10
80.3853261169
 20
4.9940995715
 30
0.0
 40
0.3000000000000441
100
AcDbArc
 50
181.9349323096
 51
274.6062978506
  0
ARC
  5
7F
330
7B
100
AcDbEntity
  8
0
  6
Continuous
 62
   179
370
    18
100
AcDbCircle
 10
81.2359083165
 20
2.1946665956
 30
0.0
 40
1.000000000000021
100
AcDbArc
 50
221.4087409628
 51
276.0561297228
  0
ARC
  5
80
330
7B
100
AcDbEntity
  8
0
  6
Continuous
 62
   179
370
    18
100
AcDbCircle
 10
79.1360017163
 20
3.654242048
 30
0.0
 40
0.300000000000004
100
AcDbArc
 50
181.2730300201
 51
274.4996077095
  0
ARC
  5
81
330
7B
100
AcDbEntity
  8
0
  6
Continuous
 62
   179
370
    18
100
AcDbCircle
 10
78.7699033484
 20
3.2873137407
 30
0.0
 40
0.4000000000000358
100
AcDbArc
 50
221.0090869016
 51
274.5606296317
  0
ARC
  5
82
330
7B
100
AcDbEntity
  8
0
  6
Continuous
 62
   179
370
    18
100
AcDbCircle
 10
91.2333953062
 20
4.6062442307
 30
0.0
 40
0.3000000000000493
100
AcDbArc
 50
274.4996077095
 51
3.7249371334
  0
ARC
  5
83
330
7B
100
AcDbEntity
  8
0
  6
Continuous
 62
   179
370
    18
100
AcDbCircle
 10
81.5287571045
 20
9.7648973508
 30
0.0
 40
1.00000000000002
100
AcDbArc
 50
93.1134387481
 51
181.9414863909
  0
ARC
  5
84
330
7B
100
AcDbEntity
  8
0
  6
Continuous
 62
   179
370
    18
100
AcDbCircle
 10
81.6051675115
 20
7.5107903456
 30
0.0
 40
1.0
100
AcDbArc
 50
181.9414863909
 51
274.398705355
  0
ARC
  5
85
330
7B
100
AcDbEntity
  8
0
  6
Continuous
 62
   179
370
    18
100
AcDbCircle
 10
80.1506905656
 20
11.9393118923
 30
0.0
 40
0.300000000000045
100
AcDbArc
 50
93.0418421566
 51
181.9349323096
  0
ARC
  5
86
330
7B
100
AcDbEntity
  8
0
  6
Continuous
 62
   179
370
    18
100
AcDbCircle
 10
78.1879722102
 20
12.3499352608
 30
0.0
 40
0.7999999999953393
100
AcDbArc
 50
92.6995697565
 51
148.2554209065
  0
ARC
  5
87
330
7B
100
AcDbEntity
  8
0
  6
Continuous
 62
   179
370
    18
100
AcDbCircle
 10
78.930862229
 20
12.8855189761
 30
0.0
 40
0.3000000000000031
100
AcDbArc
 50
92.6995697565
 51
181.2730300201
  0
ARC
  5
88
330
7B
100
AcDbEntity
  8
0
  6
Continuous
 62
   179
370
    18
100
AcDbCircle
 10
82.327743407
 20
9.8083568568
 30
0.0
 40
1.000000000000034
100
AcDbArc
 50
1.9414863909
 51
93.1134387481
  0
ARC
  5
89
330
7B
100
AcDbEntity
  8
0
  6
Continuous
 62
   179
370
    18
100
AcDbCircle
 10
81.5287571045
 20
9.7648973508
 30
0.0
 40
0.3625000000000009
100
AcDbArc
 50
93.1134387481
 51
181.9414863909
  0
ARC
  5
8A
330
7B
100
AcDbEntity
  8
0
  6
Continuous
 62
   179
370
    18
100
AcDbCircle
 10
82.327743407
 20
9.8083568568
 30
0.0
 40
0.3625000000000146
100
AcDbArc
 50
1.9414863909
 51
93.1134387481
  0
ARC
  5
8B
330
7B
100
AcDbEntity
  8
0
  6
Continuous
 62
   179
370
    18
100
AcDbCircle
 10
82.4035451983
 20
7.5722040138
 30
0.0
 40
1.000000000000008
100
AcDbArc
 50
274.398705355
 51
1.9414863909
  0
ARC
  5
8C
330
7B
100
AcDbEntity
  8
0
  6
Continuous
 62
   179
370
    18
100
AcDbCircle
 10
82.4035451983
 20
7.5722040138
 30
0.0
 40
0.3625000000000068
100
AcDbArc
 50
274.398705355
 51
1.9414863909
  0
ARC
  5
8D
330
7B
100
AcDbEntity
  8
0
  6
Continuous
 62
   179
370
    18
100
AcDbCircle
 10
81.6051675115
 20
7.5107903456
 30
0.0
 40
0.3625000000000111
100
AcDbArc
 50
181.9414863909
 51
274.398705355
  0
ARC
  5
8E
330
7B
100
AcDbEntity
  8
0
  6
Continuous
 62
   179
370
    18
100
AcDbCircle
 10
88.825822761
 20
8.0662148274
 30
0.0
 40
0.9999999999999997
100
AcDbArc
 50
274.398705355
 51
2.6541955134
  0
ARC
  5
8F
330
7B
100
AcDbEntity
  8
0
  6
Continuous
 62
   179
370
    18
100
AcDbCircle
 10
90.1578295581
 20
5.7814576687
 30
0.0
 40
0.3000000000000043
100
AcDbArc
 50
274.6062978507
 51
2.5147526475
  0
ARC
  5
90
330
7B
100
AcDbEntity
  8
0
  6
Continuous
 62
   179
370
    18
100
AcDbCircle
 10
88.825822761
 20
8.0662148274
 30
0.0
 40
0.3625000000000083
100
AcDbArc
 50
274.398705355
 51
2.6541955134
  0
ARC
  5
91
330
7B
100
AcDbEntity
  8
0
  6
Continuous
 62
   179
370
    18
100
AcDbCircle
 10
88.728529747
 20
10.16496413
 30
0.0
 40
1.000000000000001
100
AcDbArc
 50
2.6541955134
 51
93.1134387481
  0
ARC
  5
92
330
7B
100
AcDbEntity
  8
0
  6
Continuous
 62
   179
370
    18
100
AcDbCircle
 10
88.728529747
 20
10.16496413
 30
0.0
 40
0.3625000000000085
100
AcDbArc
 50
2.6541955134
 51
93.1134387481
  0
ARC
  5
93
330
7B
100
AcDbEntity
  8
0
  6
Continuous
 62
   179
370
    18
100
AcDbCircle
 10
89.8647121341
 20
12.455515937
 30
0.0
 40
0.2999999999999984
100
AcDbArc
 50
2.5147526475
 51
93.0418421566
  0
ARC
  5
94
330
7B
100
AcDbEntity
  8
0
  6
Continuous
 62
   179
370
    18
100
AcDbCircle
 10
90.6583795404
 20
13.4384863935
 30
0.0
 40
0.2999999999999911
100
AcDbArc
 50
3.7249371334
 51
92.6995697565
  0
CIRCLE
  5
95
330
7B
100
AcDbEntity
  8
0
  6
Continuous
 62
   179
370
    18
100
AcDbCircle
 10
15.7233972286
 20
6.4054930194
 30
0.0
 40
1.579500000000014
  0
CIRCLE
  5
96
330
7B
100
AcDbEntity
  8
0
  6
Continuous
 62
   179
370
    18
100
AcDbCircle
 10
15.7233972286
 20
6.4054930194
 30
0.0
 40
2.281499999999994
  0
ARC
  5
97
330
7B
100
AcDbEntity
  8
0
  6
Continuous
 62
   179
370
    18
100
AcDbCircle
 10
89.7681336026
 20
2.3106616691
 30
0.0
 40
0.098384530246548
100
AcDbArc
 50
332.3802627259
 51
4.9765441602
  0
ARC
  5
98
330
7B
100
AcDbEntity
  8
0
  6
Continuous
 62
   179
370
    18
100
AcDbCircle
 10
89.6886560089
 20
2.3522464185
 30
0.0
 40
0.1880839130754018
100
AcDbArc
 50
303.690067526
 51
332.3802627258
  0
ARC
  5
99
330
7B
100
AcDbEntity
  8
0
  6
Continuous
 62
   179
370
    18
100
AcDbCircle
 10
89.4849700869
 20
2.6577753016
 30
0.0
 40
0.5552839311631531
100
AcDbArc
 50
287.108652213
 51
303.690067526
  0
ARC
  5
9A
330
7B
100
AcDbEntity
  8
0
  6
Continuous
 62
   179
370
    18
100
AcDbCircle
 10
88.0513010646
 20
7.3154864882
 30
0.0
 40
5.428648309393203
100
AcDbArc
 50
285.2551187031
 51
287.108652213
  0
ARC
  5
9B
330
7B
100
AcDbEntity
  8
0
  6
Continuous
 62
   179
370
    18
100
AcDbCircle
 10
89.1317168954
 20
3.3539617753
 30
0.0
 40
1.322436378825653
100
AcDbArc
 50
281.4991866428
 51
285.255118703
  0
ARC
  5
9C
330
7B
100
AcDbEntity
  8
0
  6
Continuous
 62
   179
370
    18
100
AcDbCircle
 10
89.3198255509
 20
2.4293110075
 30
0.0
 40
0.3788454141584939
100
AcDbArc
 50
279.1917900003
 51
281.499186643
  0
ARC
  5
9D
330
7B
100
AcDbEntity
  8
0
  6
Continuous
 62
   179
370
    18
100
AcDbCircle
 10
89.0487250788
 20
4.1046569124
 30
0.0
 40
2.07598399629105
100
AcDbArc
 50
277.7634675038
 51
279.1917900002
  0
ARC
  5
9E
330
7B
100
AcDbEntity
  8
0
  6
Continuous
 62
   179
370
    18
100
AcDbCircle
 10
9.2588909915
 20
6.4054930194
 30
0.0
 40
1.579500000000074
100
AcDbArc
 50
31.0558004991
 51
330.0
  0
ARC
  5
9F
330
7B
100
AcDbEntity
  8
0
  6
Continuous
 62
   179
370
    18
100
AcDbCircle
 10
9.2588909915
 20
6.4054930194
 30
0.0
 40
2.281500000000107
100
AcDbArc
 50
30.7309172659
 51
330.0
  0
ARC
  5
A0
330
7B
100
AcDbEntity
  8
0
  6
Continuous
 62
   179
370
    18
100
AcDbCircle
 10
6.1288847544
 20
4.0685261312
 30
0.0
 40
4.914000000000307
100
AcDbArc
 50
172.3058370354
 51
179.7113029221
  0
ARC
  5
A1
330
7B
100
AcDbEntity
  8
0
  6
Continuous
 62
   179
370
    18
100
AcDbCircle
 10
-0.5401152456
 20
4.0685261312
 30
0.0
 40
4.91400000000019
100
AcDbArc
 50
0.2886970779
 51
7.6941629646
  0
ARC
  5
A2
330
7B
100
AcDbEntity
  8
0
  6
Continuous
 62
   179
370
    18
100
AcDbCircle
 10
-0.5401152456
 20
4.0685261312
 30
0.0
 40
5.616000000000127
100
AcDbArc
 50
0.2526096926
 51
53.5764263577
  0
ARC
  5
A3
330
7B
100
AcDbEntity
  8
0
  6
Continuous
 62
   179
370
    18
100
AcDbCircle
 10
6.1288847544
 20
4.0685261312
 30
0.0
 40
5.61600000000074
100
AcDbArc
 50
126.4235736423
 51
179.7473903073
  0
ARC
  5
A4
330
7B
100
AcDbEntity
  8
0
  6
Continuous
 62
   179
370
    18
100
AcDbCircle
 10
-0.5401152456
 20
4.0685261312
 30
0.0
 40
4.914000000000161
100
AcDbArc
 50
16.0658750272
 51
47.2678899574
  0
ARC
  5
A5
330
7B
100
AcDbEntity
  8
0
  6
Continuous
 62
   179
370
    18
100
AcDbCircle
 10
6.1288847544
 20
4.0685261312
 30
0.0
 40
4.914000000000584
100
AcDbArc
 50
132.7321100426
 51
163.9341249728
  0
LINE
  5
A6
330
7B
100
AcDbEntity
  8
0
  6
Continuous
 62
   179
370
    18
100
AcDbLine
 10
78.8017089389
 20
2.8885802402
 30
0.0
 11
90.7982178739
 21
3.8455002136
 31
0.0
  0
LINE
  5
A7
330
7B
100
AcDbEntity
  8
0
  6
Continuous
 62
   179
370
    18
100
AcDbLine
 10
76.6545490427
 20
5.8693097374
 30
0.0
 11
78.0344191726
 21
3.5235305166
 31
0.0
  0
LINE
  5
A8
330
7B
100
AcDbEntity
  8
0
  6
Continuous
 62
   179
370
    18
100
AcDbLine
 10
91.5327615373
 20
4.6257342197
 30
0.0
 11
90.9577457715
 21
13.4579763825
 31
0.0
  0
LINE
  5
A9
330
7B
100
AcDbEntity
  8
0
  6
Continuous
 62
   179
370
    18
100
AcDbLine
 10
78.6309362756
 20
12.8788539549
 30
0.0
 11
78.8360757629
 21
3.6475770268
 31
0.0
  0
LINE
  5
AA
330
7B
100
AcDbEntity
  8
0
  6
Continuous
 62
   179
370
    18
100
AcDbLine
 10
80.4094186633
 20
4.6950685544
 30
0.0
 11
90.1819221045
 21
5.4824266516
 31
0.0
  0
LINE
  5
AB
330
7B
100
AcDbEntity
  8
0
  6
Continuous
 62
   179
370
    18
100
AcDbLine
 10
79.1595373973
 20
3.3551666867
 30
0.0
 11
91.2569309872
 21
4.3071688694
 31
0.0
  0
LINE
  5
AC
330
7B
100
AcDbEntity
  8
0
  6
Continuous
 62
   179
370
    18
100
AcDbLine
 10
79.2585043218
 20
2.925017226
 30
0.0
 11
80.4858981444
 21
1.533240302
 31
0.0
  0
LINE
  5
AD
330
7B
100
AcDbEntity
  8
0
  6
Continuous
 62
   179
370
    18
100
AcDbLine
 10
78.0344191726
 20
3.5235305166
 30
0.0
 11
78.3638740472
 21
3.1446574108
 31
0.0
  0
LINE
  5
AE
330
7B
100
AcDbEntity
  8
0
  6
Continuous
 62
   179
370
    18
100
AcDbLine
 10
78.3638740472
 20
3.1446574108
 30
0.0
 11
78.4680611395
 21
3.0248422547
 31
0.0
  0
LINE
  5
AF
330
7B
100
AcDbEntity
  8
0
  6
Continuous
 62
   179
370
    18
100
AcDbLine
 10
81.3414110113
 20
1.2002475785
 30
0.0
 11
89.3291569519
 21
2.0477010263
 31
0.0
  0
LINE
  5
B0
330
7B
100
AcDbEntity
  8
0
  6
Continuous
 62
   179
370
    18
100
AcDbLine
 10
89.8661472522
 20
2.5197759309
 30
0.0
 11
89.8661472522
 21
2.3090867337
 31
0.0
  0
LINE
  5
B1
330
7B
100
AcDbEntity
  8
0
  6
Continuous
 62
   179
370
    18
100
AcDbLine
 10
88.676842368
 20
3.6762854359
 30
0.0
 11
89.6713239345
 21
2.7875997807
 31
0.0
  0
LINE
  5
B2
330
7B
100
AcDbEntity
  8
0
  6
Continuous
 62
   179
370
    18
100
AcDbLine
 10
89.6713239345
 20
2.7875997807
 30
0.0
 11
89.7459749087
 21
2.7242700694
 31
0.0
  0
LINE
  5
B3
330
7B
100
AcDbEntity
  8
0
  6
Continuous
 62
   179
370
    18
100
AcDbLine
 10
90.7982178739
 20
3.8455002136
 30
0.0
 11
91.3961615969
 21
4.3514525945
 31
0.0
  0
LINE
  5
B4
330
7B
100
AcDbEntity
  8
0
  6
Continuous
 62
   179
370
    18
100
AcDbLine
 10
90.6442498554
 20
13.7381534621
 30
0.0
 11
78.1502930503
 21
13.1490474438
 31
0.0
  0
LINE
  5
B5
330
7B
100
AcDbEntity
  8
0
  6
Continuous
 62
   179
370
    18
100
AcDbLine
 10
80.1347709981
 20
12.2388892068
 30
0.0
 11
89.8487925667
 21
12.7550932515
 31
0.0
  0
LINE
  5
B6
330
7B
100
AcDbEntity
  8
0
  6
Continuous
 62
   179
370
    18
100
AcDbLine
 10
76.4935641943
 20
11.7567556248
 30
0.0
 11
76.6545490427
 21
5.8693097374
 31
0.0
  0
LINE
  5
B7
330
7B
100
AcDbEntity
  8
0
  6
Continuous
 62
   179
370
    18
100
AcDbLine
 10
79.8508616208
 20
11.929182536
 30
0.0
 11
80.0854971721
 21
4.9839702153
 31
0.0
  0
LINE
  5
B8
330
7B
100
AcDbEntity
  8
0
  6
Continuous
 62
   179
370
    18
100
AcDbLine
 10
80.5293311574
 20
9.7310185051
 30
0.0
 11
80.6057415643
 21
7.4769115
 31
0.0
  0
LINE
  5
B9
330
7B
100
AcDbEntity
  8
0
  6
Continuous
 62
   179
370
    18
100
AcDbLine
 10
77.507650604
 20
12.7708420346
 30
0.0
 11
76.4935641943
 21
11.7567556248
 31
0.0
  0
LINE
  5
BA
330
7B
100
AcDbEntity
  8
0
  6
Continuous
 62
   179
370
    18
100
AcDbLine
 10
86.8848195129
 20
11.0661568594
 30
0.0
 11
88.6742167283
 21
11.1634880887
 31
0.0
  0
LINE
  5
BB
330
7B
100
AcDbEntity
  8
0
  6
Continuous
 62
   179
370
    18
100
AcDbLine
 10
87.0766213517
 20
6.9287171941
 30
0.0
 11
88.90708891
 21
7.0695223909
 31
0.0
  0
LINE
  5
BC
330
7B
100
AcDbEntity
  8
0
  6
Continuous
 62
   179
370
    18
100
AcDbLine
 10
87.6830038473
 20
7.6147347768
 30
0.0
 11
88.8536252418
 21
7.7047825764
 31
0.0
  0
LINE
  5
BD
330
7B
100
AcDbEntity
  8
0
  6
Continuous
 62
   179
370
    18
100
AcDbLine
 10
87.5509212094
 20
10.4639459651
 30
0.0
 11
88.7088412777
 21
10.5269290651
 31
0.0
  0
LINE
  5
BE
330
7B
100
AcDbEntity
  8
0
  6
Continuous
 62
   179
370
    18
100
AcDbLine
 10
87.0766218384
 20
6.9287066941
 30
0.0
 11
86.8848195129
 21
11.0661568594
 31
0.0
  0
LINE
  5
BF
330
7B
100
AcDbEntity
  8
0
  6
Continuous
 62
   179
370
    18
100
AcDbLine
 10
83.7004598825
 20
6.6667911093
 30
0.0
 11
84.5054929504
 21
10.9267193262
 31
0.0
  0
LINE
  5
C0
330
7B
100
AcDbEntity
  8
0
  6
Continuous
 62
   179
370
    18
100
AcDbLine
 10
85.3543248406
 20
10.9728900984
 30
0.0
 11
86.4940946704
 21
6.8816860929
 31
0.0
  0
LINE
  5
C1
330
7B
100
AcDbEntity
  8
0
  6
Continuous
 62
   179
370
    18
100
AcDbLine
 10
84.9728575427
 20
9.9667192298
 30
0.0
 11
85.4540299774
 21
8.2395506903
 31
0.0
  0
LINE
  5
C2
330
7B
100
AcDbEntity
  8
0
  6
Continuous
 62
   179
370
    18
100
AcDbLine
 10
84.6363094629
 20
8.1858350416
 30
0.0
 11
84.9728575427
 21
9.9667192298
 31
0.0
  0
LINE
  5
C3
330
7B
100
AcDbEntity
  8
0
  6
Continuous
 62
   179
370
    18
100
AcDbLine
 10
87.6830038473
 20
7.6147347768
 30
0.0
 11
87.5509212094
 21
10.4639459651
 31
0.0
  0
LINE
  5
C4
330
7B
100
AcDbEntity
  8
0
  6
Continuous
 62
   179
370
    18
100
AcDbLine
 10
84.6363094629
 20
8.1858350416
 30
0.0
 11
85.4540299774
 21
8.2395506903
 31
0.0
  0
LINE
  5
C5
330
7B
100
AcDbEntity
  8
0
  6
Continuous
 62
   179
370
    18
100
AcDbLine
 10
84.5140586807
 20
7.5389304886
 30
0.0
 11
85.6288154243
 21
7.6121582976
 31
0.0
  0
LINE
  5
C6
330
7B
100
AcDbEntity
  8
0
  6
Continuous
 62
   179
370
    18
100
AcDbLine
 10
84.3588137958
 20
6.717433718
 30
0.0
 11
84.5140586807
 21
7.5389304886
 31
0.0
  0
LINE
  5
C7
330
7B
100
AcDbEntity
  8
0
  6
Continuous
 62
   179
370
    18
100
AcDbLine
 10
81.6818640104
 20
6.5137358601
 30
0.0
 11
82.4802416972
 21
6.5751495283
 31
0.0
  0
LINE
  5
C8
330
7B
100
AcDbEntity
  8
0
  6
Continuous
 62
   179
370
    18
100
AcDbLine
 10
81.6329699923
 20
7.1493580946
 30
0.0
 11
82.4313476791
 21
7.2107717628
 31
0.0
  0
LINE
  5
C9
330
7B
100
AcDbEntity
  8
0
  6
Continuous
 62
   179
370
    18
100
AcDbLine
 10
83.7004598825
 20
6.6667911093
 30
0.0
 11
84.3588137958
 21
6.717433718
 31
0.0
  0
LINE
  5
CA
330
7B
100
AcDbEntity
  8
0
  6
Continuous
 62
   179
370
    18
100
AcDbLine
 10
82.7059483815
 20
9.3512024135
 30
0.0
 11
83.3423973297
 21
9.3930104243
 31
0.0
  0
LINE
  5
CB
330
7B
100
AcDbEntity
  8
0
  6
Continuous
 62
   179
370
    18
100
AcDbLine
 10
82.7491656358
 20
8.0762934118
 30
0.0
 11
83.385614584
 21
8.1181014226
 31
0.0
  0
LINE
  5
CC
330
7B
100
AcDbEntity
  8
0
  6
Continuous
 62
   179
370
    18
100
AcDbLine
 10
81.1664651987
 20
9.7526162692
 30
0.0
 11
81.2428756056
 21
7.4985092641
 31
0.0
  0
LINE
  5
CD
330
7B
100
AcDbEntity
  8
0
  6
Continuous
 62
   179
370
    18
100
AcDbLine
 10
82.6900353128
 20
9.8206379383
 30
0.0
 11
82.7052632884
 21
9.3714126602
 31
0.0
  0
LINE
  5
CE
330
7B
100
AcDbEntity
  8
0
  6
Continuous
 62
   179
370
    18
100
AcDbLine
 10
82.7491656358
 20
8.0762934118
 30
0.0
 11
82.7658371041
 21
7.5844850954
 31
0.0
  0
LINE
  5
CF
330
7B
100
AcDbEntity
  8
0
  6
Continuous
 62
   179
370
    18
100
AcDbLine
 10
83.3271693541
 20
9.8422357024
 30
0.0
 11
83.3423973297
 21
9.3930104243
 31
0.0
  0
LINE
  5
D0
330
7B
100
AcDbEntity
  8
0
  6
Continuous
 62
   179
370
    18
100
AcDbLine
 10
83.385614584
 20
8.1181014226
 30
0.0
 11
83.4029711454
 21
7.6060828595
 31
0.0
  0
LINE
  5
D1
330
7B
100
AcDbEntity
  8
0
  6
Continuous
 62
   179
370
    18
100
AcDbLine
 10
85.6288154243
 20
7.6121582976
 30
0.0
 11
85.8462022593
 21
6.8318482152
 31
0.0
  0
LINE
  5
D2
330
7B
100
AcDbEntity
  8
0
  6
Continuous
 62
   179
370
    18
100
AcDbLine
 10
85.8462022593
 20
6.8318482152
 30
0.0
 11
86.4940946704
 21
6.8816860929
 31
0.0
  0
LINE
  5
D3
330
7B
100
AcDbEntity
  8
0
  6
Continuous
 62
   179
370
    18
100
AcDbLine
 10
84.5054929504
 20
10.9267193262
 30
0.0
 11
85.3543248406
 21
10.9728900984
 31
0.0
  0
LINE
  5
D4
330
7B
100
AcDbEntity
  8
0
  6
Continuous
 62
   179
370
    18
100
AcDbLine
 10
81.4744440858
 20
10.7634213094
 30
0.0
 11
82.2734303883
 21
10.8068808154
 31
0.0
  0
LINE
  5
D5
330
7B
100
AcDbEntity
  8
0
  6
Continuous
 62
   179
370
    18
100
AcDbLine
 10
81.5090686352
 20
10.1268622858
 30
0.0
 11
82.3080549377
 21
10.1703217918
 31
0.0
  0
LINE
  5
D6
330
7B
100
AcDbEntity
  8
0
  6
Continuous
 62
   179
370
    18
100
AcDbLine
 10
90.4575406452
 20
5.7946206556
 30
0.0
 11
90.1644232213
 21
12.4686789239
 31
0.0
  0
LINE
  5
D7
330
7B
100
AcDbEntity
  8
0
  6
Continuous
 62
   179
370
    18
100
AcDbLine
 10
89.8247499755
 20
8.1125227115
 30
0.0
 11
89.7274569615
 21
10.2112720142
 31
0.0
  0
LINE
  5
D8
330
7B
100
AcDbEntity
  8
0
  6
Continuous
 62
   179
370
    18
100
AcDbLine
 10
89.1879338763
 20
8.0830014354
 30
0.0
 11
89.0906408622
 21
10.181750738
 31
0.0
  0
LINE
  5
D9
330
7B
100
AcDbEntity
  8
0
  6
Continuous
 62
   179
370
    18
100
AcDbLine
 10
89.7459749087
 20
2.7242700694
 30
0.0
 11
89.7974962577
 21
2.6659765769
 31
0.0
  0
LINE
  5
DA
330
7B
100
AcDbEntity
  8
0
  6
Continuous
 62
   179
370
    18
100
AcDbLine
 10
89.7974962577
 20
2.6659765769
 30
0.0
 11
89.8351851379
 21
2.60192886
 31
0.0
  0
LINE
  5
DB
330
7B
100
AcDbEntity
  8
0
  6
Continuous
 62
   179
370
    18
100
AcDbLine
 10
89.8351851379
 20
2.60192886
 30
0.0
 11
89.8661472522
 21
2.5197759309
 31
0.0
  0
LINE
  5
DC
330
7B
100
AcDbEntity
  8
0
  6
Continuous
 62
   179
370
    18
100
AcDbLine
 10
10.6119938288
 20
7.2203138351
 30
0.0
 11
11.2200151261
 21
7.5713550947
 31
0.0
  0
LINE
  5
DD
330
7B
100
AcDbEntity
  8
0
  6
Continuous
 62
   179
370
    18
100
AcDbLine
 10
11.2347279503
 20
5.2647430194
 30
0.0
 11
10.6267781168
 21
5.6157430194
 31
0.0
  0
LINE
  5
DE
330
7B
100
AcDbEntity
  8
0
  6
Continuous
 62
   179
370
    18
100
AcDbLine
 10
6.4645062371
 20
16.1712617198
 30
0.0
 11
6.4645062371
 21
2.9364593988
 31
0.0
  0
LINE
  5
DF
330
7B
100
AcDbEntity
  8
0
  6
Continuous
 62
   179
370
    18
100
AcDbLine
 10
6.4645062371
 20
2.9364593988
 30
0.0
 11
12.0532757459
 21
2.9364593988
 31
0.0
  0
LINE
  5
E0
330
7B
100
AcDbEntity
  8
0
  6
Continuous
 62
   179
370
    18
100
AcDbLine
 10
12.0532757459
 20
2.9364593988
 30
0.0
 11
12.0532757459
 21
16.1712617198
 31
0.0
  0
LINE
  5
E1
330
7B
100
AcDbEntity
  8
0
  6
Continuous
 62
   179
370
    18
100
AcDbLine
 10
12.0532757459
 20
16.1712617198
 30
0.0
 11
6.4645062371
 21
16.1712617198
 31
0.0
  0
LINE
  5
E2
330
7B
100
AcDbEntity
  8
0
  6
Continuous
 62
   179
370
    18
100
AcDbLine
 10
0.0
 20
16.1712617198
 30
0.0
 11
0.0
 21
2.9364593988
 31
0.0
  0
LINE
  5
E3
330
7B
100
AcDbEntity
  8
0
  6
Continuous
 62
   179
370
    18
100
AcDbLine
 10
0.0
 20
2.9364593988
 30
0.0
 11
5.5887695089
 21
2.9364593988
 31
0.0
  0
LINE
  5
E4
330
7B
100
AcDbEntity
  8
0
  6
Continuous
 62
   179
370
    18
100
AcDbLine
 10
5.5887695089
 20
2.9364593988
 30
0.0
 11
5.5887695089
 21
16.1712617198
 31
0.0
  0
LINE
  5
E5
330
7B
100
AcDbEntity
  8
0
  6
Continuous
 62
   179
370
    18
100
AcDbLine
 10
5.5887695089
 20
16.1712617198
 30
0.0
 11
0.0
 21
16.1712617198
 31
0.0
  0
LINE
  5
E6
330
7B
100
AcDbEntity
  8
0
  6
Continuous
 62
   179
370
    18
100
AcDbLine
 10
1.2591262606
 20
4.7264381407
 30
0.0
 11
4.3296432482
 21
4.7264381407
 31
0.0
  0
LINE
  5
E7
330
7B
100
AcDbEntity
  8
0
  6
Continuous
 62
   179
370
    18
100
AcDbLine
 10
4.3738223747
 20
4.0932862697
 30
0.0
 11
5.0758301722
 21
4.0932862697
 31
0.0
  0
LINE
  5
E8
330
7B
100
AcDbEntity
  8
0
  6
Continuous
 62
   179
370
    18
100
AcDbLine
 10
0.5129393366
 20
4.0932862697
 30
0.0
 11
1.2149471342
 21
4.0932862697
 31
0.0
  0
LINE
  5
E9
330
7B
100
AcDbEntity
  8
0
  6
Continuous
 62
   179
370
    18
100
AcDbLine
 10
4.1819643097
 20
5.4284381407
 30
0.0
 11
1.4068051992
 21
5.4284381407
 31
0.0
  0
LINE
  5
EA
330
7B
100
AcDbEntity
  8
0
  6
Continuous
 62
   179
370
    18
100
AcDbLine
 10
18.517781983
 20
16.1712617198
 30
0.0
 11
18.517781983
 21
2.9364593988
 31
0.0
  0
LINE
  5
EB
330
7B
100
AcDbEntity
  8
0
  6
Continuous
 62
   179
370
    18
100
AcDbLine
 10
18.517781983
 20
2.9364593988
 30
0.0
 11
12.9290124742
 21
2.9364593988
 31
0.0
  0
LINE
  5
EC
330
7B
100
AcDbEntity
  8
0
  6
Continuous
 62
   179
370
    18
100
AcDbLine
 10
12.9290124742
 20
2.9364593988
 30
0.0
 11
12.9290124742
 21
16.1712617198
 31
0.0
  0
LINE
  5
ED
330
7B
100
AcDbEntity
  8
0
  6
Continuous
 62
   179
370
    18
100
AcDbLine
 10
12.9290124742
 20
16.1712617198
 30
0.0
 11
18.517781983
 21
16.1712617198
 31
0.0
  0
INSERT
  5
F3
330
7B
100
AcDbEntity
  8
0
  6
Continuous
 62
     7
370
     0
100
AcDbBlockReference
  2
SW_NOTE_0
 10
1.8998941161
 20
-0.3226565443
 30
0.0
  0
INSERT
  5
F8
330
7B
100
AcDbEntity
  8
0
  6
Continuous
 62
     7
370
     0
100
AcDbBlockReference
  2
SW_NOTE_0_1
 10
29.1164837035
 20
12.7459167441
 30
0.0
  0
INSERT
  5
100
330
7B
100
AcDbEntity
  8
0
  6
Continuous
 62
     7
370
     0
100
AcDbBlockReference
  2
SW_NOTE_0_2
 10
28.8863479825
 20
8.6365742194
 30
0.0
  0
ENDBLK
  5
7D
330
7B
100
AcDbEntity
  8
0
100
AcDbBlockEnd
  0
BLOCK
  5
EF
330
EE
100
AcDbEntity
  8
0
100
AcDbBlockBegin
  2
SW_NOTE_0
 70
     0
 10
0.0
 20
0.0
 30
0.0
  3
SW_NOTE_0
  1

  0
MTEXT
  5
F2
330
EE
100
AcDbEntity
  8
0
  6
Continuous
 62
     0
370
     0
100
AcDbMText
 10
7.46875
 20
2.5781354795
 30
0.0
 40
2.0
 41
0.0
 71
     2
 72
     1
  1
www.aco.ch
  7
SLDTEXTSTYLE0
 73
     1
 44
1.0
  0
ENDBLK
  5
F0
330
EE
100
AcDbEntity
  8
0
100
AcDbBlockEnd
  0
BLOCK
  5
F5
330
F4
100
AcDbEntity
  8
0
100
AcDbBlockBegin
  2
SW_NOTE_0_1
 70
     0
 10
0.0
 20
0.0
 30
0.0
  3
SW_NOTE_0_1
  1

  0
MTEXT
  5
F7
330
F4
100
AcDbEntity
  8
0
  6
Continuous
 62
     0
370
     0
100
AcDbMText
 10
0.0
 20
3.8672032193
 30
0.0
 40
3.0
 41
0.0
 71
     1
 72
     1
  1
ACO AG
  7
SLDTEXTSTYLE0
 73
     1
 44
1.0
  0
ENDBLK
  5
F6
330
F4
100
AcDbEntity
  8
0
100
AcDbBlockEnd
  0
BLOCK
  5
FA
330
F9
100
AcDbEntity
  8
0
100
AcDbBlockBegin
  2
SW_NOTE_0_2
 70
     0
 10
0.0
 20
0.0
 30
0.0
  3
SW_NOTE_0_2
  1

  0
MTEXT
  5
FC
330
F9
100
AcDbEntity
  8
0
  6
Continuous
 62
     0
370
     0
100
AcDbMText
 10
0.0
 20
2.5781354795
 30
0.0
 40
2.0
 41
0.0
 71
     1
 72
     1
  1
Industrie Kleinzaun
  7
SLDTEXTSTYLE0
 73
     1
 44
1.0
  0
MTEXT
  5
FD
330
F9
100
AcDbEntity
  8
0
  6
Continuous
 62
     0
370
     0
100
AcDbMText
 10
0.0
 20
-0.4218645465
 30
0.0
 40
2.0
 41
0.0
 71
     1
 72
     1
  1
CH-8754 Netstal
  7
SLDTEXTSTYLE0
 73
     1
 44
1.0
  0
MTEXT
  5
FE
330
F9
100
AcDbEntity
  8
0
  6
Continuous
 62
     0
370
     0
100
AcDbMText
 10
0.0
 20
-3.4218645726
 30
0.0
 40
2.0
 41
0.0
 71
     1
 72
     1
  1
Tel. 055 / 645 53 00
  7
SLDTEXTSTYLE0
 73
     1
 44
1.0
  0
MTEXT
  5
FF
330
F9
100
AcDbEntity
  8
0
  6
Continuous
 62
     0
370
     0
100
AcDbMText
 10
0.0
 20
-6.4218645987
 30
0.0
 40
2.0
 41
0.0
 71
     1
 72
     1
  1
E-Mail: aco@aco.ch
  7
SLDTEXTSTYLE0
 73
     1
 44
1.0
  0
ENDBLK
  5
FB
330
F9
100
AcDbEntity
  8
0
100
AcDbBlockEnd
  0
BLOCK
  5
179
330
178
100
AcDbEntity
  8
0
100
AcDbBlockBegin
  2
SW_NOTE_0_3
 70
     0
 10
0.0
 20
0.0
 30
0.0
  3
SW_NOTE_0_3
  1

  0
MTEXT
  5
17B
330
178
100
AcDbEntity
  8
0
  6
Continuous
 62
     0
370
     0
100
AcDbMText
 10
0.0
 20
1.9336016097
 30
0.0
 40
1.5
 41
0.0
 71
     1
 72
     1
  1
Diese Zeichnung darf weder kopiert
  7
SLDTEXTSTYLE0
 73
     1
 44
1.0
  0
MTEXT
  5
17C
330
178
100
AcDbEntity
  8
0
  6
Continuous
 62
     0
370
     0
100
AcDbMText
 10
0.0
 20
-0.5663983345
 30
0.0
 40
1.5
 41
0.0
 71
     1
 72
     1
  1
noch dritten Personen, insbesondere
  7
SLDTEXTSTYLE0
 73
     1
 44
1.0
  0
MTEXT
  5
17D
330
178
100
AcDbEntity
  8
0
  6
Continuous
 62
     0
370
     0
100
AcDbMText
 10
0.0
 20
-3.0663982786
 30
0.0
 40
1.5
 41
0.0
 71
     1
 72
     1
  1
zum Zweck anderweitiger Benutzung
  7
SLDTEXTSTYLE0
 73
     1
 44
1.0
  0
MTEXT
  5
17E
330
178
100
AcDbEntity
  8
0
  6
Continuous
 62
     0
370
     0
100
AcDbMText
 10
0.0
 20
-5.5663982227
 30
0.0
 40
1.5
 41
0.0
 71
     1
 72
     1
  1
mitgeteilt werden und bleibt unser
  7
SLDTEXTSTYLE0
 73
     1
 44
1.0
  0
MTEXT
  5
17F
330
178
100
AcDbEntity
  8
0
  6
Continuous
 62
     0
370
     0
100
AcDbMText
 10
0.0
 20
-8.0663981668
 30
0.0
 40
1.5
 41
0.0
 71
     1
 72
     1
  1
Eigentum.
  7
SLDTEXTSTYLE0
 73
     1
 44
1.0
  0
ENDBLK
  5
17A
330
178
100
AcDbEntity
  8
0
100
AcDbBlockEnd
  0
BLOCK
  5
1B8
330
1B7
100
AcDbEntity
  8
0
100
AcDbBlockBegin
  2
_D
 70
     0
 10
0.0
 20
0.0
 30
0.0
  3
_D
  1

  0
SOLID
  5
1BA
330
1B7
100
AcDbEntity
  8
0
  6
Continuous
 62
     7
370
    18
100
AcDbTrace
 10
198.3249426288
 20
185.6283154736
 30
0.0
 11
201.1805661682
 21
187.7224394025
 31
0.0
 12
200.4190665577
 22
188.483939013
 32
0.0
 13
200.4190665577
 23
188.483939013
 33
0.0
  0
LINE
  5
1BB
330
1B7
100
AcDbEntity
  8
0
  6
Continuous
 62
     7
370
     0
100
AcDbLine
 10
198.3249426288
 20
185.6283154736
 30
0.0
 11
212.9715065174
 21
200.2748793623
 31
0.0
  0
MTEXT
  5
1BC
330
1B7
100
AcDbEntity
  8
0
  6
Continuous
 62
     7
370
    18
100
AcDbMText
 10
197.6662318896
 20
191.3487348644
 30
0.0
 40
3.5
 41
0.0
 71
     1
 72
     1
  1
%%c
  7
SLDTEXTSTYLE0
 11
0.7071067811865462
 21
0.7071067811865488
 31
0.0
 73
     1
 44
1.0
  0
MTEXT
  5
1BD
330
1B7
100
AcDbEntity
  8
0
  6
Continuous
 62
     7
370
    18
100
AcDbMText
 10
201.2676888205
 20
194.9639412169
 30
0.0
 40
3.5
 41
0.0
 71
     1
 72
     1
  1
180.7
  7
SLDTEXTSTYLE0
 11
0.7071067811865462
 21
0.7071067811865488
 31
0.0
 73
     1
 44
1.0
  0
ENDBLK
  5
1B9
330
1B7
100
AcDbEntity
  8
0
100
AcDbBlockEnd
  0
BLOCK
  5
1C1
330
1C0
100
AcDbEntity
  8
0
100
AcDbBlockBegin
  2
_D_1
 70
     0
 10
0.0
 20
0.0
 30
0.0
  3
_D_1
  1

  0
SOLID
  5
1C3
330
1C0
100
AcDbEntity
  8
0
  6
Continuous
 62
     7
370
    18
100
AcDbTrace
 10
67.0534021971
 20
82.8327244877
 30
0.0
 11
70.3537218796
 21
84.1164031165
 31
0.0
 12
69.8152603411
 22
85.049045859
 32
0.0
 13
69.8152603411
 23
85.049045859
 33
0.0
  0
SOLID
  5
1C4
330
1C0
100
AcDbEntity
  8
0
  6
Continuous
 62
     7
370
    18
100
AcDbTrace
 10
201.8030417684
 20
160.6304651675
 30
0.0
 11
198.502722086
 21
159.3467865387
 31
0.0
 12
199.0411836244
 22
158.4141437962
 32
0.0
 13
199.0411836244
 23
158.4141437962
 33
0.0
  0
LINE
  5
1C5
330
1C0
100
AcDbEntity
  8
0
  6
Continuous
 62
     7
370
     0
100
AcDbLine
 10
201.8030417684
 20
160.6304651675
 30
0.0
 11
230.2690980378
 21
177.0653504173
 31
0.0
  0
LINE
  5
1C6
330
1C0
100
AcDbEntity
  8
0
  6
Continuous
 62
     7
370
     0
100
AcDbLine
 10
201.8030417684
 20
160.6304651675
 30
0.0
 11
67.0534021971
 21
82.8327244877
 31
0.0
  0
MTEXT
  5
1C7
330
1C0
100
AcDbEntity
  8
0
  6
Continuous
 62
     7
370
    18
100
AcDbMText
 10
213.175085858
 20
172.4046464547
 30
0.0
 40
3.5
 41
0.0
 71
     1
 72
     1
  1
%%c
  7
SLDTEXTSTYLE0
 11
0.866025403784438
 21
0.5000000000000011
 31
0.0
 73
     1
 44
1.0
  0
MTEXT
  5
1C8
330
1C0
100
AcDbEntity
  8
0
  6
Continuous
 62
     7
370
    18
100
AcDbMText
 10
217.5895103759
 20
174.9645419941
 30
0.0
 40
3.5
 41
0.0
 71
     1
 72
     1
  1
155.6
  7
SLDTEXTSTYLE0
 11
0.866025403784438
 21
0.5000000000000011
 31
0.0
 73
     1
 44
1.0
  0
ENDBLK
  5
1C2
330
1C0
100
AcDbEntity
  8
0
100
AcDbBlockEnd
  0
BLOCK
  5
1CA
330
1C9
100
AcDbEntity
  8
0
100
AcDbBlockBegin
  2
SW_CENTERMARKSYMBOL_0
 70
     0
 10
0.0
 20
0.0
 30
0.0
  3
SW_CENTERMARKSYMBOL_0
  1

  0
LINE
  5
1CC
330
1C9
100
AcDbEntity
  8
0
  6
Continuous
 62
     0
370
    18
100
AcDbLine
 10
0.0
 20
0.0
 30
0.0
 11
0.0
 21
2.5
 31
0.0
  0
LINE
  5
1CD
330
1C9
100
AcDbEntity
  8
0
  6
Continuous
 62
     0
370
    18
100
AcDbLine
 10
0.0
 20
0.0
 30
0.0
 11
-2.5
 21
0.0
 31
0.0
  0
LINE
  5
1CE
330
1C9
100
AcDbEntity
  8
0
  6
Continuous
 62
     0
370
    18
100
AcDbLine
 10
0.0
 20
0.0
 30
0.0
 11
0.0
 21
-2.5
 31
0.0
  0
LINE
  5
1CF
330
1C9
100
AcDbEntity
  8
0
  6
Continuous
 62
     0
370
    18
100
AcDbLine
 10
0.0
 20
0.0
 30
0.0
 11
2.5
 21
0.0
 31
0.0
  0
LINE
  5
1D0
330
1C9
100
AcDbEntity
  8
0
  6
Continuous
 62
     0
370
    18
100
AcDbLine
 10
0.0
 20
5.0
 30
0.0
 11
0.0
 21
92.8636089287
 31
0.0
  0
LINE
  5
1D1
330
1C9
100
AcDbEntity
  8
0
  6
Continuous
 62
     0
370
    18
100
AcDbLine
 10
-5.0
 20
0.0
 30
0.0
 11
-92.8636089287
 21
0.0
 31
0.0
  0
LINE
  5
1D2
330
1C9
100
AcDbEntity
  8
0
  6
Continuous
 62
     0
370
    18
100
AcDbLine
 10
0.0
 20
-5.0
 30
0.0
 11
0.0
 21
-92.8636089287
 31
0.0
  0
LINE
  5
1D3
330
1C9
100
AcDbEntity
  8
0
  6
Continuous
 62
     0
370
    18
100
AcDbLine
 10
5.0
 20
0.0
 30
0.0
 11
92.8636089287
 21
0.0
 31
0.0
  0
ENDBLK
  5
1CB
330
1C9
100
AcDbEntity
  8
0
100
AcDbBlockEnd
  0
BLOCK
  5
2A1
330
2A0
100
AcDbEntity
  8
0
100
AcDbBlockBegin
  2
_D_2
 70
     0
 10
0.0
 20
0.0
 30
0.0
  3
_D_2
  1

  0
SOLID
  5
2A3
330
2A0
100
AcDbEntity
  8
0
  6
Continuous
 62
     7
370
    18
100
AcDbTrace
 10
234.8035259697
 20
254.398307643
 30
0.0
 11
234.2650644313
 21
250.898307643
 31
0.0
 12
235.3419875082
 22
250.898307643
 32
0.0
 13
235.3419875082
 23
250.898307643
 33
0.0
  0
SOLID
  5
2A4
330
2A0
100
AcDbEntity
  8
0
  6
Continuous
 62
     7
370
    18
100
AcDbTrace
 10
234.8035259697
 20
236.2972012212
 30
0.0
 11
235.3419875082
 21
239.7972012212
 31
0.0
 12
234.2650644313
 22
239.7972012212
 32
0.0
 13
234.2650644313
 23
239.7972012212
 33
0.0
  0
LINE
  5
2A5
330
2A0
100
AcDbEntity
  8
0
  6
Continuous
 62
     7
370
     0
100
AcDbLine
 10
220.2058401997
 20
254.398307643
 30
0.0
 11
235.8035259697
 21
254.398307643
 31
0.0
  0
LINE
  5
2A6
330
2A0
100
AcDbEntity
  8
0
  6
Continuous
 62
     7
370
     0
100
AcDbLine
 10
219.3653660383
 20
236.2972012212
 30
0.0
 11
235.8035259697
 21
236.2972012212
 31
0.0
  0
LINE
  5
2A7
330
2A0
100
AcDbEntity
  8
0
  6
Continuous
 62
     7
370
     0
100
AcDbLine
 10
234.8035259697
 20
254.398307643
 30
0.0
 11
234.8035259697
 21
236.2972012212
 31
0.0
  0
MTEXT
  5
2A8
330
2A0
100
AcDbEntity
  8
0
  6
Continuous
 62
     7
370
    18
100
AcDbMText
 10
230.2917886477
 20
240.6689351035
 30
0.0
 40
3.5
 41
0.0
 71
     1
 72
     1
  1
18.1
  7
SLDTEXTSTYLE0
 11
-7.044195017643634E-15
 21
1.0
 31
0.0
 73
     1
 44
1.0
  0
ENDBLK
  5
2A2
330
2A0
100
AcDbEntity
  8
0
100
AcDbBlockEnd
  0
ENDSEC
  0
SECTION
  2
ENTITIES
  0
LINE
  5
101
330
1F
100
AcDbEntity
  8
LINIEN-DÜNN
  6
CENTERX2
100
AcDbLine
 10
352.6174545849
 20
46.9080238789
 30
0.0
 11
352.6174545849
 21
39.4621586124
 31
0.0
  0
LINE
  5
102
330
1F
100
AcDbEntity
  8
LINIEN-DÜNN
100
AcDbLine
 10
357.7661698132
 20
46.3720107039
 30
0.0
 11
357.7661698132
 21
39.9353173413
 31
0.0
  0
LINE
  5
103
330
1F
100
AcDbEntity
  8
LINIEN-DÜNN
100
AcDbLine
 10
364.6059427486
 20
44.7376225767
 30
0.0
 11
364.6059427486
 21
41.5697054685
 31
0.0
  0
LINE
  5
104
330
1F
100
AcDbEntity
  8
LINIEN-DÜNN
100
AcDbLine
 10
364.6059427486
 20
44.7376225767
 30
0.0
 11
357.7661698132
 21
46.3720107039
 31
0.0
  0
LINE
  5
105
330
1F
100
AcDbEntity
  8
LINIEN-DÜNN
100
AcDbLine
 10
15.0
 20
198.5
 30
0.0
 11
20.0
 21
198.5
 31
0.0
  0
LINE
  5
106
330
1F
100
AcDbEntity
  8
LINIEN-DÜNN
100
AcDbLine
 10
12.0
 20
148.5
 30
0.0
 11
0.0
 21
148.5
 31
0.0
  0
LINE
  5
107
330
1F
100
AcDbEntity
  8
LINIEN-DÜNN
100
AcDbLine
 10
357.7661698132
 20
39.9353173413
 30
0.0
 11
364.6059427486
 21
41.5697054685
 31
0.0
  0
LINE
  5
108
330
1F
100
AcDbEntity
  8
LINIEN-DÜNN
  6
CENTERX2
100
AcDbLine
 10
348.6240467841
 20
43.1536640226
 30
0.0
 11
356.6108623857
 21
43.1536640226
 31
0.0
  0
LINE
  5
109
330
1F
100
AcDbEntity
  8
LINIEN-DÜNN
  6
CENTERX2
100
AcDbLine
 10
357.1289238876
 20
43.1536640226
 30
0.0
 11
365.6255362296
 21
43.1536640226
 31
0.0
  0
LINE
  5
10A
330
1F
100
AcDbEntity
  8
LINIEN-DÜNN
100
AcDbLine
 10
0.0
 20
0.0
 30
0.0
 11
420.0
 21
0.0
 31
0.0
  0
LINE
  5
10B
330
1F
100
AcDbEntity
  8
LINIEN-DÜNN
100
AcDbLine
 10
0.0
 20
0.0
 30
0.0
 11
0.0
 21
297.0
 31
0.0
  0
LINE
  5
10C
330
1F
100
AcDbEntity
  8
LINIEN-DÜNN
100
AcDbLine
 10
0.0
 20
297.0
 30
0.0
 11
420.0
 21
297.0
 31
0.0
  0
LINE
  5
10D
330
1F
100
AcDbEntity
  8
LINIEN-DÜNN
100
AcDbLine
 10
420.0
 20
0.0
 30
0.0
 11
420.0
 21
297.0
 31
0.0
  0
LINE
  5
10E
330
1F
100
AcDbEntity
  8
LINIEN-NORMAL
100
AcDbLine
 10
228.0
 20
35.0
 30
0.0
 11
410.0
 21
35.0
 31
0.0
  0
LINE
  5
10F
330
1F
100
AcDbEntity
  8
LINIEN-DÜNN
100
AcDbLine
 10
410.0
 20
198.5
 30
0.0
 11
415.0
 21
198.5
 31
0.0
  0
LINE
  5
110
330
1F
100
AcDbEntity
  8
LINIEN-DÜNN
100
AcDbLine
 10
15.0
 20
148.5
 30
0.0
 11
20.0
 21
148.5
 31
0.0
  0
LINE
  5
111
330
1F
100
AcDbEntity
  8
LINIEN-DÜNN
100
AcDbLine
 10
228.0
 20
40.0
 30
0.0
 11
296.6
 21
40.0
 31
0.0
  0
LINE
  5
112
330
1F
100
AcDbEntity
  8
LINIEN-DÜNN
100
AcDbLine
 10
15.0
 20
248.5
 30
0.0
 11
20.0
 21
248.5
 31
0.0
  0
LINE
  5
113
330
1F
100
AcDbEntity
  8
LINIEN-DICK
100
AcDbLine
 10
20.0
 20
287.0
 30
0.0
 11
20.0
 21
10.0
 31
0.0
  0
LINE
  5
114
330
1F
100
AcDbEntity
  8
LINIEN-DICK
100
AcDbLine
 10
410.0
 20
287.0
 30
0.0
 11
20.0
 21
287.0
 31
0.0
  0
LINE
  5
115
330
1F
100
AcDbEntity
  8
LINIEN-DICK
100
AcDbLine
 10
410.0
 20
5.0
 30
0.0
 11
410.0
 21
287.0
 31
0.0
  0
LINE
  5
116
330
1F
100
AcDbEntity
  8
LINIEN-DICK
100
AcDbLine
 10
20.0
 20
10.0
 30
0.0
 11
415.0
 21
10.0
 31
0.0
  0
LINE
  5
117
330
1F
100
AcDbEntity
  8
LINIEN-DÜNN
100
AcDbLine
 10
410.0
 20
148.5
 30
0.0
 11
415.0
 21
148.5
 31
0.0
  0
LINE
  5
118
330
1F
100
AcDbEntity
  8
LINIEN-DÜNN
100
AcDbLine
 10
228.0
 20
50.0
 30
0.0
 11
296.6
 21
50.0
 31
0.0
  0
LINE
  5
119
330
1F
100
AcDbEntity
  8
LINIEN-DÜNN
100
AcDbLine
 10
15.0
 20
98.5
 30
0.0
 11
20.0
 21
98.5
 31
0.0
  0
LINE
  5
11A
330
1F
100
AcDbEntity
  8
LINIEN-DÜNN
100
AcDbLine
 10
296.6
 20
45.0
 30
0.0
 11
228.0
 21
45.0
 31
0.0
  0
LINE
  5
11B
330
1F
100
AcDbEntity
  8
LINIEN-DÜNN
100
AcDbLine
 10
65.0
 20
292.0
 30
0.0
 11
65.0
 21
287.0
 31
0.0
  0
LINE
  5
11C
330
1F
100
AcDbEntity
  8
LINIEN-DÜNN
100
AcDbLine
 10
230.0
 20
292.0
 30
0.0
 11
230.0
 21
297.0
 31
0.0
  0
LINE
  5
11D
330
1F
100
AcDbEntity
  8
LINIEN-NORMAL
100
AcDbLine
 10
296.6
 20
55.0
 30
0.0
 11
296.6
 21
35.0
 31
0.0
  0
LINE
  5
11E
330
1F
100
AcDbEntity
  8
LINIEN-DÜNN
100
AcDbLine
 10
410.0
 20
98.5
 30
0.0
 11
415.0
 21
98.5
 31
0.0
  0
LINE
  5
11F
330
1F
100
AcDbEntity
  8
VORLAGE_BEMASSUNG
100
AcDbLine
 10
230.0
 20
5.0
 30
0.0
 11
230.0
 21
0.0
 31
0.0
  0
LINE
  5
120
330
1F
100
AcDbEntity
  8
LINIEN-DÜNN
100
AcDbLine
 10
125.0
 20
292.0
 30
0.0
 11
125.0
 21
297.0
 31
0.0
  0
LINE
  5
121
330
1F
100
AcDbEntity
  8
LINIEN-DÜNN
100
AcDbLine
 10
125.0
 20
5.0
 30
0.0
 11
125.0
 21
0.0
 31
0.0
  0
LINE
  5
122
330
1F
100
AcDbEntity
  8
LINIEN-NORMAL
100
AcDbLine
 10
410.0
 20
55.0
 30
0.0
 11
228.0
 21
55.0
 31
0.0
  0
LINE
  5
123
330
1F
100
AcDbEntity
  8
LINIEN-DÜNN
100
AcDbLine
 10
228.0
 20
55.0
 30
0.0
 11
410.0
 21
55.0
 31
0.0
  0
LINE
  5
124
330
1F
100
AcDbEntity
  8
LINIEN-DÜNN
100
AcDbLine
 10
410.0
 20
55.0
 30
0.0
 11
228.0
 21
55.0
 31
0.0
  0
LINE
  5
125
330
1F
100
AcDbEntity
  8
LINIEN-DÜNN
100
AcDbLine
 10
268.0
 20
76.5
 30
0.0
 11
268.0
 21
55.0
 31
0.0
  0
LINE
  5
126
330
1F
100
AcDbEntity
  8
LINIEN-DÜNN
100
AcDbLine
 10
271.6
 20
55.0
 30
0.0
 11
271.6
 21
40.0
 31
0.0
  0
LINE
  5
127
330
1F
100
AcDbEntity
  8
LINIEN-DÜNN
100
AcDbLine
 10
247.0
 20
55.0
 30
0.0
 11
247.0
 21
35.0
 31
0.0
  0
LINE
  5
128
330
1F
100
AcDbEntity
  8
LINIEN-DICK
100
AcDbLine
 10
228.0
 20
76.5
 30
0.0
 11
228.0
 21
10.0
 31
0.0
  0
LINE
  5
129
330
1F
100
AcDbEntity
  8
LINIEN-DÜNN
100
AcDbLine
 10
15.0
 20
292.0
 30
0.0
 11
415.0
 21
292.0
 31
0.0
  0
LINE
  5
12A
330
1F
100
AcDbEntity
  8
LINIEN-DÜNN
100
AcDbLine
 10
228.0
 20
65.75
 30
0.0
 11
310.0
 21
65.75
 31
0.0
  0
LINE
  5
12B
330
1F
100
AcDbEntity
  8
LINIEN-DICK
100
AcDbLine
 10
228.0
 20
76.5
 30
0.0
 11
410.0
 21
76.5
 31
0.0
  0
LINE
  5
12C
330
1F
100
AcDbEntity
  8
LINIEN-DÜNN
100
AcDbLine
 10
15.0
 20
48.5
 30
0.0
 11
20.0
 21
48.5
 31
0.0
  0
LINE
  5
12D
330
1F
100
AcDbEntity
  8
LINIEN-DÜNN
100
AcDbLine
 10
410.0
 20
48.5
 30
0.0
 11
415.0
 21
48.5
 31
0.0
  0
LINE
  5
12E
330
1F
100
AcDbEntity
  8
LINIEN-DÜNN
100
AcDbLine
 10
332.6610845472
 20
20.0
 30
0.0
 11
332.6610845472
 21
10.0
 31
0.0
  0
LINE
  5
12F
330
1F
100
AcDbEntity
  8
LINIEN-DÜNN
100
AcDbLine
 10
410.0
 20
248.5
 30
0.0
 11
415.0
 21
248.5
 31
0.0
  0
LINE
  5
130
330
1F
100
AcDbEntity
  8
LINIEN-DÜNN
100
AcDbLine
 10
65.0
 20
10.0
 30
0.0
 11
65.0
 21
5.0
 31
0.0
  0
LINE
  5
131
330
1F
100
AcDbEntity
  8
LINIEN-DÜNN
100
AcDbLine
 10
115.0
 20
10.0
 30
0.0
 11
115.0
 21
5.0
 31
0.0
  0
LINE
  5
132
330
1F
100
AcDbEntity
  8
LINIEN-DÜNN
100
AcDbLine
 10
115.0
 20
292.0
 30
0.0
 11
115.0
 21
287.0
 31
0.0
  0
LINE
  5
133
330
1F
100
AcDbEntity
  8
LINIEN-DÜNN
100
AcDbLine
 10
165.0
 20
10.0
 30
0.0
 11
165.0
 21
5.0
 31
0.0
  0
LINE
  5
134
330
1F
100
AcDbEntity
  8
LINIEN-DÜNN
100
AcDbLine
 10
165.0
 20
292.0
 30
0.0
 11
165.0
 21
287.0
 31
0.0
  0
LINE
  5
135
330
1F
100
AcDbEntity
  8
LINIEN-DÜNN
100
AcDbLine
 10
215.0
 20
10.0
 30
0.0
 11
215.0
 21
5.0
 31
0.0
  0
LINE
  5
136
330
1F
100
AcDbEntity
  8
LINIEN-DÜNN
100
AcDbLine
 10
215.0
 20
292.0
 30
0.0
 11
215.0
 21
287.0
 31
0.0
  0
LINE
  5
137
330
1F
100
AcDbEntity
  8
LINIEN-DÜNN
100
AcDbLine
 10
265.0
 20
10.0
 30
0.0
 11
265.0
 21
5.0
 31
0.0
  0
LINE
  5
138
330
1F
100
AcDbEntity
  8
LINIEN-DÜNN
100
AcDbLine
 10
265.0
 20
292.0
 30
0.0
 11
265.0
 21
287.0
 31
0.0
  0
LINE
  5
139
330
1F
100
AcDbEntity
  8
LINIEN-DÜNN
100
AcDbLine
 10
347.6610845472
 20
20.0
 30
0.0
 11
347.6610845472
 21
10.0
 31
0.0
  0
LINE
  5
13A
330
1F
100
AcDbEntity
  8
LINIEN-DÜNN
100
AcDbLine
 10
362.6610845472
 20
20.0
 30
0.0
 11
362.6610845472
 21
10.0
 31
0.0
  0
LINE
  5
13B
330
1F
100
AcDbEntity
  8
LINIEN-NORMAL
100
AcDbLine
 10
327.6610845472
 20
10.0
 30
0.0
 11
327.6610845472
 21
55.0
 31
0.0
  0
LINE
  5
13C
330
1F
100
AcDbEntity
  8
LINIEN-DÜNN
100
AcDbLine
 10
20.0
 20
292.0
 30
0.0
 11
20.0
 21
297.0
 31
0.0
  0
LINE
  5
13D
330
1F
100
AcDbEntity
  8
LINIEN-DÜNN
100
AcDbLine
 10
20.0
 20
5.0
 30
0.0
 11
20.0
 21
0.0
 31
0.0
  0
LINE
  5
13E
330
1F
100
AcDbEntity
  8
LINIEN-DÜNN
100
AcDbLine
 10
315.0
 20
10.0
 30
0.0
 11
315.0
 21
5.0
 31
0.0
  0
LINE
  5
13F
330
1F
100
AcDbEntity
  8
LINIEN-DÜNN
100
AcDbLine
 10
315.0
 20
292.0
 30
0.0
 11
315.0
 21
287.0
 31
0.0
  0
LINE
  5
140
330
1F
100
AcDbEntity
  8
LINIEN-DÜNN
100
AcDbLine
 10
365.0
 20
10.0
 30
0.0
 11
365.0
 21
5.0
 31
0.0
  0
LINE
  5
141
330
1F
100
AcDbEntity
  8
LINIEN-DÜNN
100
AcDbLine
 10
365.0
 20
292.0
 30
0.0
 11
365.0
 21
287.0
 31
0.0
  0
LINE
  5
142
330
1F
100
AcDbEntity
  8
LINIEN-DÜNN
100
AcDbLine
 10
15.0
 20
292.0
 30
0.0
 11
15.0
 21
5.0
 31
0.0
  0
LINE
  5
143
330
1F
100
AcDbEntity
  8
LINIEN-DÜNN
100
AcDbLine
 10
15.0
 20
5.0
 30
0.0
 11
415.0
 21
5.0
 31
0.0
  0
LINE
  5
144
330
1F
100
AcDbEntity
  8
LINIEN-DÜNN
100
AcDbLine
 10
415.0
 20
292.0
 30
0.0
 11
415.0
 21
5.0
 31
0.0
  0
LINE
  5
145
330
1F
100
AcDbEntity
  8
LINIEN-DÜNN
100
AcDbLine
 10
347.6610845472
 20
44.213444
 30
0.0
 11
327.6610845472
 21
44.213444
 31
0.0
  0
LINE
  5
146
330
1F
100
AcDbEntity
  8
LINIEN-DÜNN
100
AcDbLine
 10
347.6610845472
 20
35.0
 30
0.0
 11
347.6610845472
 21
55.0
 31
0.0
  0
LINE
  5
147
330
1F
100
AcDbEntity
  8
LINIEN-DÜNN
100
AcDbLine
 10
370.057188
 20
55.012032
 30
0.0
 11
370.057188
 21
35.0
 31
0.0
  0
LINE
  5
148
330
1F
100
AcDbEntity
  8
LINIEN-DÜNN
100
AcDbLine
 10
398.0
 20
35.0
 30
0.0
 11
398.0
 21
20.0
 31
0.0
  0
LINE
  5
149
330
1F
100
AcDbEntity
  8
LINIEN-DÜNN
100
AcDbLine
 10
410.0
 20
15.0
 30
0.0
 11
327.6610845472
 21
15.0
 31
0.0
  0
LINE
  5
14A
330
1F
100
AcDbEntity
  8
LINIEN-DÜNN
100
AcDbLine
 10
327.6610845472
 20
20.0
 30
0.0
 11
410.0
 21
20.0
 31
0.0
  0
LINE
  5
14B
330
1F
100
AcDbEntity
  8
LINIEN-DÜNN
100
AcDbLine
 10
341.485486
 20
20.0
 30
0.0
 11
341.485486
 21
27.564675
 31
0.0
  0
LINE
  5
14C
330
1F
100
AcDbEntity
  8
LINIEN-NORMAL
100
AcDbLine
 10
310.0
 20
76.5
 30
0.0
 11
310.0
 21
55.0
 31
0.0
  0
CIRCLE
  5
14D
330
1F
100
AcDbEntity
  8
LINIEN-DÜNN
100
AcDbCircle
 10
11.0
 20
108.5
 30
0.0
 40
2.750000000000001
  0
CIRCLE
  5
14E
330
1F
100
AcDbEntity
  8
LINIEN-DÜNN
100
AcDbCircle
 10
11.0
 20
188.5
 30
0.0
 40
2.750000000000001
  0
CIRCLE
  5
14F
330
1F
100
AcDbEntity
  8
LINIEN-DÜNN
100
AcDbCircle
 10
352.6174545849
 20
43.1536640226
 30
0.0
 40
3.218346681300138
  0
CIRCLE
  5
150
330
1F
100
AcDbEntity
  8
LINIEN-DÜNN
100
AcDbCircle
 10
352.6174545849
 20
43.1536640226
 30
0.0
 40
1.583958554121555
  0
INSERT
  5
151
330
1F
100
AcDbEntity
  8
0
  6
Continuous
 62
     7
100
AcDbBlockReference
  2
ACO-Logo
 10
314.3510726297
 20
57.6366106772
 30
0.0
  0
POINT
  5
152
330
1F
100
AcDbEntity
  8
VORLAGE_BEMASSUNG
100
AcDbPoint
 10
0.0
 20
0.0
 30
0.0
  0
POINT
  5
153
330
1F
100
AcDbEntity
  8
VORLAGE_BEMASSUNG
100
AcDbPoint
 10
410.0
 20
10.0
 30
0.0
  0
MTEXT
  5
154
330
1F
100
AcDbEntity
  8
VORLAGE_TEXT
100
AcDbMText
 10
17.7359443114
 20
124.8017866468
 30
0.0
 40
2.0
 41
0.0
 71
     2
 72
     1
  1
D
  7
SLDTEXTSTYLE0
 73
     1
 44
1.0
  0
MTEXT
  5
155
330
1F
100
AcDbEntity
  8
VORLAGE_TEXT
100
AcDbMText
 10
17.6274822413
 20
174.7261854936
 30
0.0
 40
2.0
 41
0.0
 71
     2
 72
     1
  1
C
  7
SLDTEXTSTYLE0
 73
     1
 44
1.0
  0
MTEXT
  5
156
330
1F
100
AcDbEntity
  8
VORLAGE_TEXT
100
AcDbMText
 10
17.5516905072
 20
224.4926420442
 30
0.0
 40
2.0
 41
0.0
 71
     2
 72
     1
  1
B
  7
SLDTEXTSTYLE0
 73
     1
 44
1.0
  0
MTEXT
  5
157
330
1F
100
AcDbEntity
  8
VORLAGE_TEXT
100
AcDbMText
 10
290.0344258799
 20
290.5428789914
 30
0.0
 40
2.0
 41
0.0
 71
     2
 72
     1
  1
6
  7
SLDTEXTSTYLE0
 73
     1
 44
1.0
  0
MTEXT
  5
158
330
1F
100
AcDbEntity
  8
VORLAGE_TEXT
100
AcDbMText
 10
240.0417859812
 20
290.6369260235
 30
0.0
 40
2.0
 41
0.0
 71
     2
 72
     1
  1
5
  7
SLDTEXTSTYLE0
 73
     1
 44
1.0
  0
MTEXT
  5
159
330
1F
100
AcDbEntity
  8
VORLAGE_TEXT
100
AcDbMText
 10
190.0300404524
 20
290.6343268032
 30
0.0
 40
2.0
 41
0.0
 71
     2
 72
     1
  1
4
  7
SLDTEXTSTYLE0
 73
     1
 44
1.0
  0
MTEXT
  5
15A
330
1F
100
AcDbEntity
  8
VORLAGE_TEXT
100
AcDbMText
 10
140.0165868337
 20
290.6378887952
 30
0.0
 40
2.0
 41
0.0
 71
     2
 72
     1
  1
3
  7
SLDTEXTSTYLE0
 73
     1
 44
1.0
  0
MTEXT
  5
15B
330
1F
100
AcDbEntity
  8
VORLAGE_TEXT
100
AcDbMText
 10
90.033223
 20
290.5566702875
 30
0.0
 40
2.0
 41
0.0
 71
     2
 72
     1
  1
2
  7
SLDTEXTSTYLE0
 73
     1
 44
1.0
  0
MTEXT
  5
15C
330
1F
100
AcDbEntity
  8
VORLAGE_TEXT
100
AcDbMText
 10
40.0509551097
 20
290.5530165805
 30
0.0
 40
2.0
 41
0.0
 71
     2
 72
     1
  1
1
  7
SLDTEXTSTYLE0
 73
     1
 44
1.0
  0
MTEXT
  5
15D
330
1F
100
AcDbEntity
  8
VORLAGE_TEXT
100
AcDbMText
 10
17.5609786315
 20
271.2966048816
 30
0.0
 40
2.0
 41
0.0
 71
     2
 72
     1
  1
A
  7
SLDTEXTSTYLE0
 73
     1
 44
1.0
  0
MTEXT
  5
15E
330
1F
100
AcDbEntity
  8
VORLAGE_TEXT
100
AcDbMText
 10
89.9333968896
 20
8.5904490253
 30
0.0
 40
2.0
 41
0.0
 71
     2
 72
     1
  1
2
  7
SLDTEXTSTYLE0
 73
     1
 44
1.0
  0
MTEXT
  5
15F
330
1F
100
AcDbEntity
  8
VORLAGE_TEXT
100
AcDbMText
 10
39.9009486579
 20
8.6623118453
 30
0.0
 40
2.0
 41
0.0
 71
     2
 72
     1
  1
1
  7
SLDTEXTSTYLE0
 73
     1
 44
1.0
  0
MTEXT
  5
160
330
1F
100
AcDbEntity
  8
VORLAGE_TEXT
100
AcDbMText
 10
190.0227230239
 20
8.7073169286
 30
0.0
 40
2.0
 41
0.0
 71
     2
 72
     1
  1
4
  7
SLDTEXTSTYLE0
 73
     1
 44
1.0
  0
MTEXT
  5
161
330
1F
100
AcDbEntity
  8
VORLAGE_TEXT
100
AcDbMText
 10
140.0453427777
 20
8.5647154541
 30
0.0
 40
2.0
 41
0.0
 71
     2
 72
     1
  1
3
  7
SLDTEXTSTYLE0
 73
     1
 44
1.0
  0
MTEXT
  5
162
330
1F
100
AcDbEntity
  8
VORLAGE_TEXT
100
AcDbMText
 10
239.8749782531
 20
8.5637526825
 30
0.0
 40
2.0
 41
0.0
 71
     2
 72
     1
  1
5
  7
SLDTEXTSTYLE0
 73
     1
 44
1.0
  0
MTEXT
  5
163
330
1F
100
AcDbEntity
  8
VORLAGE_TEXT
100
AcDbMText
 10
412.6717254925
 20
224.51208263
 30
0.0
 40
2.0
 41
0.0
 71
     2
 72
     1
  1
B
  7
SLDTEXTSTYLE0
 73
     1
 44
1.0
  0
MTEXT
  5
164
330
1F
100
AcDbEntity
  8
VORLAGE_TEXT
100
AcDbMText
 10
412.5951211154
 20
271.2798202564
 30
0.0
 40
2.0
 41
0.0
 71
     2
 72
     1
  1
A
  7
SLDTEXTSTYLE0
 73
     1
 44
1.0
  0
MTEXT
  5
165
330
1F
100
AcDbEntity
  8
VORLAGE_TEXT
100
AcDbMText
 10
412.6491448679
 20
174.7279841048
 30
0.0
 40
2.0
 41
0.0
 71
     2
 72
     1
  1
C
  7
SLDTEXTSTYLE0
 73
     1
 44
1.0
  0
MTEXT
  5
166
330
1F
100
AcDbEntity
  8
VORLAGE_TEXT
100
AcDbMText
 10
340.0216466634
 20
290.5954278102
 30
0.0
 40
2.0
 41
0.0
 71
     2
 72
     1
  1
7
  7
SLDTEXTSTYLE0
 73
     1
 44
1.0
  0
MTEXT
  5
167
330
1F
100
AcDbEntity
  8
VORLAGE_TEXT
100
AcDbMText
 10
390.037657264
 20
290.6215496941
 30
0.0
 40
2.0
 41
0.0
 71
     2
 72
     1
  1
8
  7
SLDTEXTSTYLE0
 73
     1
 44
1.0
  0
MTEXT
  5
168
330
1F
100
AcDbEntity
  8
VORLAGE_TEXT
100
AcDbMText
 10
17.6897935208
 20
74.7267628143
 30
0.0
 40
2.0
 41
0.0
 71
     2
 72
     1
  1
E
  7
SLDTEXTSTYLE0
 73
     1
 44
1.0
  0
MTEXT
  5
169
330
1F
100
AcDbEntity
  8
VORLAGE_TEXT
100
AcDbMText
 10
17.5936930126
 20
27.773321616
 30
0.0
 40
2.0
 41
0.0
 71
     2
 72
     1
  1
F
  7
SLDTEXTSTYLE0
 73
     1
 44
1.0
  0
MTEXT
  5
16A
330
1F
100
AcDbEntity
  8
VORLAGE_TEXT
100
AcDbMText
 10
339.8003474583
 20
8.7205095051
 30
0.0
 40
2.0
 41
0.0
 71
     2
 72
     1
  1
7
  7
SLDTEXTSTYLE0
 73
     1
 44
1.0
  0
MTEXT
  5
16B
330
1F
100
AcDbEntity
  8
VORLAGE_TEXT
100
AcDbMText
 10
289.7886477179
 20
8.6884673623
 30
0.0
 40
2.0
 41
0.0
 71
     2
 72
     1
  1
6
  7
SLDTEXTSTYLE0
 73
     1
 44
1.0
  0
MTEXT
  5
16C
330
1F
100
AcDbEntity
  8
VORLAGE_TEXT
100
AcDbMText
 10
412.5160699095
 20
74.5096307526
 30
0.0
 40
2.0
 41
0.0
 71
     2
 72
     1
  1
E
  7
SLDTEXTSTYLE0
 73
     1
 44
1.0
  0
MTEXT
  5
16D
330
1F
100
AcDbEntity
  8
VORLAGE_TEXT
100
AcDbMText
 10
412.6234021365
 20
124.4517683275
 30
0.0
 40
2.0
 41
0.0
 71
     2
 72
     1
  1
D
  7
SLDTEXTSTYLE0
 73
     1
 44
1.0
  0
MTEXT
  5
16E
330
1F
100
AcDbEntity
  8
TEXT-DEUTSCH
100
AcDbMText
 10
411.7952690469
 20
41.8548502951
 30
0.0
 40
1.8
 41
0.0
 71
     3
 72
     1
  1
Plotdatum: 18.09.2023
  7
SLDTEXTSTYLE0
 11
-3.269436733918102E-15
 21
1.0
 31
0.0
 73
     1
 44
1.0
  0
MTEXT
  5
16F
330
1F
100
AcDbEntity
  8
VORLAGE_TEXT
100
AcDbMText
 10
412.557933251
 20
8.2549718046
 30
0.0
 40
1.8
 41
0.0
 71
     2
 72
     1
  1
A3
  7
SLDTEXTSTYLE0
 73
     1
 44
1.0
  0
MTEXT
  5
170
330
1F
100
AcDbEntity
  8
VORLAGE_TEXT
100
AcDbMText
 10
390.594604279
 20
8.3847467643
 30
0.0
 40
1.8
 41
0.0
 71
     2
 72
     1
  1
CAD-System: SolidWorks
  7
SLDTEXTSTYLE0
 73
     1
 44
1.0
  0
MTEXT
  5
171
330
1F
100
AcDbEntity
  8
TEXT
100
AcDbMText
 10
403.9986368527
 20
28.4394692021
 30
0.0
 40
5.0
 41
0.0
 71
     2
 72
     1
  1
A
  7
SLDTEXTSTYLE0
 73
     1
 44
1.0
  0
MTEXT
  5
172
330
1F
100
AcDbEntity
  8
TEXT
100
AcDbMText
 10
249.556836311
 20
38.5581729516
 30
0.0
 40
2.0
 41
0.0
 71
     1
 72
     1
  1
Freigegeben
  7
SLDTEXTSTYLE0
 73
     1
 44
1.0
  0
MTEXT
  5
173
330
1F
100
AcDbEntity
  8
TEXT
100
AcDbMText
 10
284.1136255556
 20
43.5473338598
 30
0.0
 40
2.0
 41
0.0
 71
     2
 72
     1
  1
bae
  7
SLDTEXTSTYLE0
 73
     1
 44
1.0
  0
MTEXT
  5
174
330
1F
100
AcDbEntity
  8
TEXT
100
AcDbMText
 10
249.5284668163
 20
43.5603133928
 30
0.0
 40
2.0
 41
0.0
 71
     1
 72
     1
  1
18.09.2023
  7
SLDTEXTSTYLE0
 73
     1
 44
1.0
  0
MTEXT
  5
175
330
1F
100
AcDbEntity
  8
TEXT
100
AcDbMText
 10
284.1309088133
 20
48.5138972561
 30
0.0
 40
2.0
 41
0.0
 71
     2
 72
     1
  1
AB
  7
SLDTEXTSTYLE0
 73
     1
 44
1.0
  0
MTEXT
  5
176
330
1F
100
AcDbEntity
  8
TEXT
100
AcDbMText
 10
249.5284668163
 20
48.4989062069
 30
0.0
 40
2.0
 41
0.0
 71
     1
 72
     1
  1
04.02.2021
  7
SLDTEXTSTYLE0
 73
     1
 44
1.0
  0
MTEXT
  5
177
330
1F
100
AcDbEntity
  8
0
  6
Continuous
 62
     7
370
     0
100
AcDbMText
 10
372.2007348103
 20
38.8723054925
 30
0.0
 40
1.5
 41
0.0
 71
     1
 72
     1
  1
Copyright reserved! © ACO AG
  7
SLDTEXTSTYLE0
 73
     1
 44
1.0
  0
INSERT
  5
180
330
1F
100
AcDbEntity
  8
0
  6
Continuous
 62
     7
370
     0
100
AcDbBlockReference
  2
SW_NOTE_0_3
 10
372.2203831445
 20
51.2202922854
 30
0.0
  0
MTEXT
  5
181
330
1F
100
AcDbEntity
  8
TEXT
100
AcDbMText
 10
364.9468572407
 20
13.5417229519
 30
0.0
 40
2.0
 41
0.0
 71
     1
 72
     1
  1
Erstausgabe
  7
SLDTEXTSTYLE0
 73
     1
 44
1.0
  0
MTEXT
  5
182
330
1F
100
AcDbEntity
  8
TEXT
100
AcDbMText
 10
330.2607505021
 20
13.524501801
 30
0.0
 40
2.0
 41
0.0
 71
     2
 72
     1
  1
-
  7
SLDTEXTSTYLE0
 73
     1
 44
1.0
  0
MTEXT
  5
183
330
1F
100
AcDbEntity
  8
TEXT
100
AcDbMText
 10
364.9468572407
 20
18.4594173137
 30
0.0
 40
2.0
 41
0.0
 71
     1
 72
     1
  1
SAP-Nr.
  7
SLDTEXTSTYLE0
 73
     1
 44
1.0
  0
MTEXT
  5
184
330
1F
100
AcDbEntity
  8
TEXT
100
AcDbMText
 10
354.2676663079
 20
18.5245664709
 30
0.0
 40
2.0
 41
0.0
 71
     2
 72
     1
  1
bae
  7
SLDTEXTSTYLE0
 73
     1
 44
1.0
  0
MTEXT
  5
185
330
1F
100
AcDbEntity
  8
TEXT
100
AcDbMText
 10
340.3080766506
 20
18.5245664709
 30
0.0
 40
2.0
 41
0.0
 71
     2
 72
     1
  1
18.09.2023
  7
SLDTEXTSTYLE0
 73
     1
 44
1.0
  0
MTEXT
  5
186
330
1F
100
AcDbEntity
  8
TEXT
100
AcDbMText
 10
330.227417144
 20
18.524501801
 30
0.0
 40
2.0
 41
0.0
 71
     2
 72
     1
  1
A
  7
SLDTEXTSTYLE0
 73
     1
 44
1.0
  0
MTEXT
  5
187
330
1F
100
AcDbEntity
  8
VORLAGE_TEXT
100
AcDbMText
 10
311.764909851
 20
46.3490312465
 30
0.0
 40
5.0
 41
0.0
 71
     2
 72
     1
  1
1:1
  7
SLDTEXTSTYLE0
 73
     1
 44
1.0
  0
MTEXT
  5
188
330
1F
100
AcDbEntity
  8
VORLAGE_TEXT
100
AcDbMText
 10
230.1851195342
 20
38.7793829468
 30
0.0
 40
2.0
 41
0.0
 71
     1
 72
     1
  1
Status:
  7
SLDTEXTSTYLE0
 73
     1
 44
1.0
  0
MTEXT
  5
189
330
1F
100
AcDbEntity
  8
TEXT
100
AcDbMText
 10
344.926838705
 20
28.2772828851
 30
0.0
 40
5.0
 41
0.0
 71
     1
 72
     1
  1
98407
  7
SLDTEXTSTYLE0
 73
     1
 44
1.0
  0
MTEXT
  5
18A
330
1F
100
AcDbEntity
  8
TEXT
100
AcDbMText
 10
231.1132118803
 20
14.9211049657
 30
0.0
 40
2.5
 41
0.0
 71
     1
 72
     1
  1
Art. Nr.: 2021388
  7
SLDTEXTSTYLE0
 73
     1
 44
1.0
  0
MTEXT
  5
18B
330
1F
100
AcDbEntity
  8
TEXT
100
AcDbMText
 10
231.1475981734
 20
21.4529560996
 30
0.0
 40
2.5
 41
0.0
 71
     1
 72
     1
  1
Pipe Dichtung FPM (Viton)
  7
SLDTEXTSTYLE0
 73
     1
 44
1.0
  0
MTEXT
  5
18C
330
1F
100
AcDbEntity
  8
TEXT
100
AcDbMText
 10
231.1159560181
 20
33.0904969858
 30
0.0
 40
2.5
 41
0.0
 71
     1
 72
     1
  1
ACO-Standard
  7
SLDTEXTSTYLE0
 73
     1
 44
1.0
  0
MTEXT
  5
18D
330
1F
100
AcDbEntity
  8
TEXT
100
AcDbMText
 10
231.1475981734
 20
28.0307932366
 30
0.0
 40
3.5
 41
0.0
 71
     1
 72
     1
  1
Pipe Dichtung Ø160 Viton
  7
SLDTEXTSTYLE0
 73
     1
 44
1.0
  0
MTEXT
  5
18E
330
1F
100
AcDbEntity
  8
VORLAGE_TEXT
100
AcDbMText
 10
348.2746465368
 20
53.819119072
 30
0.0
 40
2.0
 41
0.0
 71
     1
 72
     1
  1
Projektion: ISO-E
  7
SLDTEXTSTYLE0
 73
     1
 44
1.0
  0
MTEXT
  5
18F
330
1F
100
AcDbEntity
  8
TEXT
100
AcDbMText
 10
337.7677091855
 20
49.3670227094
 30
0.0
 40
2.5
 41
0.0
 71
     2
 72
     1
  1
Millimeter
  7
SLDTEXTSTYLE0
 73
     1
 44
1.0
  0
MTEXT
  5
190
330
1F
100
AcDbEntity
  8
VORLAGE_TEXT
100
AcDbMText
 10
337.6323777421
 20
53.855374072
 30
0.0
 40
2.0
 41
0.0
 71
     2
 72
     1
  1
Masseinheit:
  7
SLDTEXTSTYLE0
 73
     1
 44
1.0
  0
MTEXT
  5
191
330
1F
100
AcDbEntity
  8
VORLAGE_TEXT
100
AcDbMText
 10
337.6114490186
 20
43.5452078816
 30
0.0
 40
2.0
 41
0.0
 71
     2
 72
     1
  1
Blatt / Anz.:
  7
SLDTEXTSTYLE0
 73
     1
 44
1.0
  0
MTEXT
  5
192
330
1F
100
AcDbEntity
  8
VORLAGE_TEXT
100
AcDbMText
 10
329.2895578243
 20
28.4139191092
 30
0.0
 40
5.0
 41
0.0
 71
     1
 72
     1
  1
CH
  7
SLDTEXTSTYLE0
 73
     1
 44
1.0
  0
MTEXT
  5
193
330
1F
100
AcDbEntity
  8
VORLAGE_TEXT
100
AcDbMText
 10
330.40704
 20
33.692638072
 30
0.0
 40
2.0
 41
0.0
 71
     1
 72
     1
  1
Zeichnung Nr.:
  7
SLDTEXTSTYLE0
 73
     1
 44
1.0
  0
MTEXT
  5
194
330
1F
100
AcDbEntity
  8
VORLAGE_TEXT
100
AcDbMText
 10
269.897953
 20
75.161075072
 30
0.0
 40
2.0
 41
0.0
 71
     1
 72
     1
  1
Gewicht:
  7
SLDTEXTSTYLE0
 73
     1
 44
1.0
  0
MTEXT
  5
195
330
1F
100
AcDbEntity
  8
VORLAGE_TEXT
100
AcDbMText
 10
230.0
 20
64.542328072
 30
0.0
 40
2.0
 41
0.0
 71
     1
 72
     1
  1
zul. Abweichung:
  7
SLDTEXTSTYLE0
 73
     1
 44
1.0
  0
MTEXT
  5
196
330
1F
100
AcDbEntity
  8
VORLAGE_TEXT
100
AcDbMText
 10
269.612607
 20
64.542328072
 30
0.0
 40
2.0
 41
0.0
 71
     1
 72
     1
  1
Oberfläche:
  7
SLDTEXTSTYLE0
 73
     1
 44
1.0
  0
MTEXT
  5
197
330
1F
100
AcDbEntity
  8
VORLAGE_TEXT
100
AcDbMText
 10
230.261411
 20
43.4433838912
 30
0.0
 40
2.0
 41
0.0
 71
     1
 72
     1
  1
Freigegeben:
  7
SLDTEXTSTYLE0
 73
     1
 44
1.0
  0
MTEXT
  5
198
330
1F
100
AcDbEntity
  8
VORLAGE_TEXT
100
AcDbMText
 10
230.0
 20
75.161075072
 30
0.0
 40
2.0
 41
0.0
 71
     1
 72
     1
  1
Werkstoff:
  7
SLDTEXTSTYLE0
 73
     1
 44
1.0
  0
MTEXT
  5
199
330
1F
100
AcDbEntity
  8
VORLAGE_TEXT
100
AcDbMText
 10
254.035545
 20
53.129475072
 30
0.0
 40
2.0
 41
0.0
 71
     1
 72
     1
  1
Datum:
  7
SLDTEXTSTYLE0
 73
     1
 44
1.0
  0
MTEXT
  5
19A
330
1F
100
AcDbEntity
  8
VORLAGE_TEXT
100
AcDbMText
 10
279.934928
 20
53.136060072
 30
0.0
 40
2.0
 41
0.0
 71
     1
 72
     1
  1
Name:
  7
SLDTEXTSTYLE0
 73
     1
 44
1.0
  0
MTEXT
  5
19B
330
1F
100
AcDbEntity
  8
VORLAGE_TEXT
100
AcDbMText
 10
312.162455406
 20
53.881591072
 30
0.0
 40
2.0
 41
0.0
 71
     2
 72
     1
  1
Massstab:
  7
SLDTEXTSTYLE0
 73
     1
 44
1.0
  0
MTEXT
  5
19C
330
1F
100
AcDbEntity
  8
VORLAGE_TEXT
100
AcDbMText
 10
403.9552944035
 20
33.324874072
 30
0.0
 40
2.0
 41
0.0
 71
     2
 72
     1
  1
Index:
  7
SLDTEXTSTYLE0
 73
     1
 44
1.0
  0
MTEXT
  5
19D
330
1F
100
AcDbEntity
  8
VORLAGE_TEXT
100
AcDbMText
 10
230.261411
 20
48.4499477886
 30
0.0
 40
2.0
 41
0.0
 71
     1
 72
     1
  1
Erstellt:
  7
SLDTEXTSTYLE0
 73
     1
 44
1.0
  0
MTEXT
  5
19F
330
1F
100
AcDbEntity
  8
VORLAGE_TEXT
100
AcDbMText
 10
337.6348165843
 20
39.869706576
 30
0.0
 40
2.5
 41
0.0
 71
     2
 72
     1
  1
1 / 1
  7
SLDTEXTSTYLE1
 73
     1
 44
1.0
  0
MTEXT
  5
1A0
330
1F
100
AcDbEntity
  8
TEXT
100
AcDbMText
 10
269.612607
 20
60.8119428599
 30
0.0
 40
3.0
 41
0.0
 71
     1
 72
     1
  1
DIN ISO 1302
  7
SLDTEXTSTYLE0
 73
     1
 44
1.0
  0
MTEXT
  5
1A1
330
1F
100
AcDbEntity
  8
TEXT
100
AcDbMText
 10
230.0
 20
60.8119428599
 30
0.0
 40
3.0
 41
0.0
 71
     1
 72
     1
  1
Norm
  7
SLDTEXTSTYLE0
 73
     1
 44
1.0
  0
MTEXT
  5
1A2
330
1F
100
AcDbEntity
  8
TEXT
100
AcDbMText
 10
269.612607
 20
71.2121947186
 30
0.0
 40
3.0
 41
0.0
 71
     1
 72
     1
  1
0.14 kg
  7
SLDTEXTSTYLE0
 73
     1
 44
1.0
  0
MTEXT
  5
1A3
330
1F
100
AcDbEntity
  8
TEXT
100
AcDbMText
 10
230.0
 20
71.2121947186
 30
0.0
 40
3.0
 41
0.0
 71
     1
 72
     1
  1
VITON
  7
SLDTEXTSTYLE0
 73
     1
 44
1.0
  0
CIRCLE
  5
1A4
330
1F
100
AcDbEntity
  8
0
  6
Continuous
 62
     7
370
    25
100
AcDbCircle
 10
134.4282219828
 20
121.7315948276
 30
0.0
 40
85.30314551792942
  0
CIRCLE
  5
1A5
330
1F
100
AcDbEntity
  8
0
  6
Continuous
 62
     7
370
    25
100
AcDbCircle
 10
134.4282219828
 20
121.7315948276
 30
0.0
 40
90.10000000002191
  0
CIRCLE
  5
1A6
330
1F
100
AcDbEntity
  8
0
  6
Continuous
 62
     7
370
    25
100
AcDbCircle
 10
134.4282219828
 20
121.7315948276
 30
0.0
 40
85.19957362873392
  0
CIRCLE
  5
1A7
330
1F
100
AcDbEntity
  8
0
  6
Continuous
 62
     7
370
    25
100
AcDbCircle
 10
134.4282219828
 20
121.7315948276
 30
0.0
 40
77.79774067972869
  0
CIRCLE
  5
1A8
330
1F
100
AcDbEntity
  8
0
  6
Continuous
 62
     7
370
    25
100
AcDbCircle
 10
134.4282219828
 20
121.7315948276
 30
0.0
 40
90.37530398698294
  0
CIRCLE
  5
1A9
330
1F
100
AcDbEntity
  8
0
  6
Continuous
 62
     7
370
    25
100
AcDbCircle
 10
134.4282219828
 20
121.7315948276
 30
0.0
 40
86.72609720875998
  0
CIRCLE
  5
1AA
330
1F
100
AcDbEntity
  8
0
  6
Continuous
 62
     7
370
    25
100
AcDbCircle
 10
134.4282219828
 20
121.7315948276
 30
0.0
 40
88.79938041838118
  0
CIRCLE
  5
1AB
330
1F
100
AcDbEntity
  8
0
  6
Continuous
 62
     7
370
    25
100
AcDbCircle
 10
134.4282219828
 20
121.7315948276
 30
0.0
 40
84.12923598222964
  0
CIRCLE
  5
1AC
330
1F
100
AcDbEntity
  8
0
  6
Continuous
 62
     8
370
    18
100
AcDbCircle
 10
134.4282219828
 20
121.7315948276
 30
0.0
 40
85.81173069865137
  0
CIRCLE
  5
1AD
330
1F
100
AcDbEntity
  8
0
  6
Continuous
 62
     8
370
    18
100
AcDbCircle
 10
134.4282219828
 20
121.7315948276
 30
0.0
 40
86.51359991158951
  0
CIRCLE
  5
1AE
330
1F
100
AcDbEntity
  8
0
  6
Continuous
 62
     8
370
    18
100
AcDbCircle
 10
134.4282219828
 20
121.7315948276
 30
0.0
 40
89.94396970880304
  0
CIRCLE
  5
1AF
330
1F
100
AcDbEntity
  8
0
  6
Continuous
 62
     8
370
    18
100
AcDbCircle
 10
134.4282219828
 20
121.7315948276
 30
0.0
 40
85.224658543079
  0
CIRCLE
  5
1B0
330
1F
100
AcDbEntity
  8
0
  6
Continuous
 62
     8
370
    18
100
AcDbCircle
 10
134.4282219828
 20
121.7315948276
 30
0.0
 40
78.87403161420345
  0
CIRCLE
  5
1B1
330
1F
100
AcDbEntity
  8
0
  6
Continuous
 62
     8
370
    18
100
AcDbCircle
 10
134.4282219828
 20
121.7315948276
 30
0.0
 40
79.1631667557612
  0
CIRCLE
  5
1B2
330
1F
100
AcDbEntity
  8
0
  6
Continuous
 62
     8
370
    18
100
AcDbCircle
 10
134.4282219828
 20
121.7315948276
 30
0.0
 40
83.50855255070404
  0
CIRCLE
  5
1B3
330
1F
100
AcDbEntity
  8
0
  6
Continuous
 62
     8
370
    18
100
AcDbCircle
 10
134.4282219828
 20
121.7315948276
 30
0.0
 40
77.93081066539874
  0
CIRCLE
  5
1B4
330
1F
100
AcDbEntity
  8
0
  6
Continuous
 62
     8
370
    18
100
AcDbCircle
 10
134.4282219828
 20
121.7315948276
 30
0.0
 40
90.36360892873184
  0
DIMENSION
  5
1B5
330
1F
100
AcDbEntity
  8
0
  6
Continuous
 62
     7
370
    18
100
AcDbDimension
  2
_D
 10
70.5315013368
 20
57.8348741816
 30
0.0
 11
206.9401171114
 21
194.2434899563
 31
0.0
 70
   163
  1
<>
 71
     1
 42
-1.0
  3
SLDDIMSTYLE0
100
AcDbDiametricDimension
 15
198.3249426288
 25
185.6283154736
 35
0.0
 40
0.0
  0
DIMENSION
  5
1BE
330
1F
100
AcDbEntity
  8
0
  6
Continuous
 62
     7
370
    18
100
AcDbDimension
  2
_D_1
 10
201.8030417684
 20
160.6304651675
 30
0.0
 11
222.8823122521
 21
172.800591882
 31
0.0
 70
   163
  1
<>
 71
     1
 42
-1.0
  3
SLDDIMSTYLE1
100
AcDbDiametricDimension
 15
67.0534021971
 25
82.8327244877
 35
0.0
 40
0.0
  0
INSERT
  5
1D4
330
1F
100
AcDbEntity
  8
0
  6
Continuous
 62
     7
370
     0
100
AcDbBlockReference
  2
SW_CENTERMARKSYMBOL_0
 10
134.4282219828
 20
121.7315948276
 30
0.0
  0
LINE
  5
1D5
330
1F
100
AcDbEntity
  8
0
  6
CENTER
 62
     7
370
    18
100
AcDbLine
 10
230.8972167181
 20
121.7315948276
 30
0.0
 11
38.144991991
 21
121.7315948276
 31
0.0
  0
LINE
  5
1D6
330
1F
100
AcDbEntity
  8
0
  6
Continuous
 62
     7
370
    18
100
AcDbLine
 10
228.8972167181
 20
114.1315948276
 30
0.0
 11
228.8972167181
 21
121.7315948276
 31
0.0
  0
SOLID
  5
1D7
330
1F
100
AcDbEntity
  8
0
  6
Continuous
 62
     7
370
    18
100
AcDbTrace
 10
228.8972167181
 20
121.7315948276
 30
0.0
 11
228.0972167181
 21
116.7315948276
 31
0.0
 12
229.6972167181
 22
116.7315948276
 32
0.0
 13
229.6972167181
 23
116.7315948276
 33
0.0
  0
LINE
  5
1D8
330
1F
100
AcDbEntity
  8
0
  6
Continuous
 62
     7
370
    18
100
AcDbLine
 10
40.144991991
 20
114.1315948276
 30
0.0
 11
40.144991991
 21
121.7315948276
 31
0.0
  0
SOLID
  5
1D9
330
1F
100
AcDbEntity
  8
0
  6
Continuous
 62
     7
370
    18
100
AcDbTrace
 10
40.144991991
 20
121.7315948276
 30
0.0
 11
39.344991991
 21
116.7315948276
 31
0.0
 12
40.944991991
 22
116.7315948276
 32
0.0
 13
40.944991991
 23
116.7315948276
 33
0.0
  0
MTEXT
  5
1DA
330
1F
100
AcDbEntity
  8
0
  6
Continuous
 62
     7
100
AcDbMText
 10
226.8708344388
 20
112.5801216089
 30
0.0
 40
5.0
 41
0.0
 71
     1
 72
     1
  1
A
  7
SLDTEXTSTYLE0
 73
     1
 44
1.0
  0
MTEXT
  5
1DB
330
1F
100
AcDbEntity
  8
0
  6
Continuous
 62
     7
100
AcDbMText
 10
37.7599711644
 20
112.4123807451
 30
0.0
 40
5.0
 41
0.0
 71
     1
 72
     1
  1
A
  7
SLDTEXTSTYLE0
 73
     1
 44
1.0
  0
LINE
  5
1DC
330
1F
100
AcDbEntity
  8
0
  6
Continuous
 62
     7
370
    25
100
AcDbLine
 10
49.5910779272
 20
236.2972012212
 30
0.0
 11
219.2653660383
 21
236.2972012212
 31
0.0
  0
LINE
  5
1DD
330
1F
100
AcDbEntity
  8
0
  6
Continuous
 62
     7
370
    25
100
AcDbLine
 10
213.9943009876
 20
241.8145034153
 30
0.0
 11
54.8621429779
 21
241.8145034153
 31
0.0
  0
LINE
  5
1DE
330
1F
100
AcDbEntity
  8
0
  6
Continuous
 62
     7
370
    25
100
AcDbLine
 10
44.1777422288
 20
244.2598549381
 30
0.0
 11
44.9177256483
 21
244.2598549381
 31
0.0
  0
LINE
  5
1DF
330
1F
100
AcDbEntity
  8
0
  6
Continuous
 62
     7
370
    25
100
AcDbLine
 10
223.9387183172
 20
244.2598549381
 30
0.0
 11
224.6787017367
 21
244.2598549381
 31
0.0
  0
LINE
  5
1E0
330
1F
100
AcDbEntity
  8
0
  6
Continuous
 62
     7
370
    25
100
AcDbLine
 10
54.7012933718
 20
246.4692546928
 30
0.0
 11
214.1551505937
 21
246.4692546928
 31
0.0
  0
LINE
  5
1E1
330
1F
100
AcDbEntity
  8
0
  6
Continuous
 62
     7
370
    25
100
AcDbLine
 10
220.1058401997
 20
254.398307643
 30
0.0
 11
48.7506037658
 21
254.398307643
 31
0.0
  0
LINE
  5
1E2
330
1F
100
AcDbEntity
  8
0
  6
Continuous
 62
     7
370
    25
100
AcDbLine
 10
44.484252274
 20
242.3587992995
 30
0.0
 11
44.761695357
 21
242.5189811381
 31
0.0
  0
ARC
  5
1E3
330
1F
100
AcDbEntity
  8
0
  6
Continuous
 62
     7
370
    25
100
AcDbCircle
 10
44.6056650658
 20
242.7892335302
 30
0.0
 40
0.3120605825534
100
AcDbArc
 50
299.9999999995
 51
359.9999999999
  0
LINE
  5
1E4
330
1F
100
AcDbEntity
  8
0
  6
Continuous
 62
     7
370
    25
100
AcDbLine
 10
44.9177256483
 20
242.7892335302
 30
0.0
 11
44.9177256483
 21
244.5106537674
 31
0.0
  0
ARC
  5
1E5
330
1F
100
AcDbEntity
  8
0
  6
Continuous
 62
     7
370
    25
100
AcDbCircle
 10
44.7929014153
 20
244.5106537674
 30
0.0
 40
0.1248242330213145
100
AcDbArc
 50
0.0
 51
124.9999999894
  0
LINE
  5
1E6
330
1F
100
AcDbEntity
  8
0
  6
Continuous
 62
     7
370
    25
100
AcDbLine
 10
44.2493384675
 20
244.2824291455
 30
0.0
 11
44.7213051765
 21
244.6129037931
 31
0.0
  0
ARC
  5
1E7
330
1F
100
AcDbEntity
  8
0
  6
Continuous
 62
     7
370
    25
100
AcDbCircle
 10
44.1777422288
 20
244.3846791715
 30
0.0
 40
0.1248242332296712
100
AcDbArc
 50
155.0000002542
 51
304.9999998845
  0
LINE
  5
1E8
330
1F
100
AcDbEntity
  8
0
  6
Continuous
 62
     7
370
    25
100
AcDbLine
 10
44.064613054
 20
244.4374321714
 30
0.0
 11
44.8884880023
 21
246.2042376999
 31
0.0
  0
ARC
  5
1E9
330
1F
100
AcDbEntity
  8
0
  6
Continuous
 62
     7
370
    25
100
AcDbCircle
 10
44.6056650663
 20
246.3361202007
 30
0.0
 40
0.3120605825532968
100
AcDbArc
 50
335.0000000206
 51
0.0000000193
  0
LINE
  5
1EA
330
1F
100
AcDbEntity
  8
0
  6
Continuous
 62
     7
370
    25
100
AcDbLine
 10
44.9177256487
 20
246.3361202008
 30
0.0
 11
44.9177256486
 21
246.9787186733
 31
0.0
  0
ARC
  5
1EB
330
1F
100
AcDbEntity
  8
0
  6
Continuous
 62
     7
370
    25
100
AcDbCircle
 10
44.6056650661
 20
246.9787186731
 30
0.0
 40
0.3120605825532863
100
AcDbArc
 50
0.0000000193
 51
60.0000000141
  0
LINE
  5
1EC
330
1F
100
AcDbEntity
  8
0
  6
Continuous
 62
     7
370
    25
100
AcDbLine
 10
44.7616953573
 20
247.2489710652
 30
0.0
 11
44.4842522743
 21
247.4091529039
 31
0.0
  0
ARC
  5
1ED
330
1F
100
AcDbEntity
  8
0
  6
Continuous
 62
     7
370
    25
100
AcDbCircle
 10
44.6402825654
 20
247.679405296
 30
0.0
 40
0.3120605825552893
100
AcDbArc
 50
120.0000000253
 51
240.0000000192
  0
LINE
  5
1EE
330
1F
100
AcDbEntity
  8
0
  6
Continuous
 62
     7
370
    25
100
AcDbLine
 10
44.484252274
 20
247.9496576879
 30
0.0
 11
44.7616953571
 21
248.1098395266
 31
0.0
  0
ARC
  5
1EF
330
1F
100
AcDbEntity
  8
0
  6
Continuous
 62
     7
370
    25
100
AcDbCircle
 10
44.6056650657
 20
248.3800919186
 30
0.0
 40
0.3120605825549916
100
AcDbArc
 50
300.0000000201
 51
0.0000000193
  0
LINE
  5
1F0
330
1F
100
AcDbEntity
  8
0
  6
Continuous
 62
     7
370
    25
100
AcDbLine
 10
44.9177256482
 20
248.3800919187
 30
0.0
 11
44.9177256482
 21
249.7035686844
 31
0.0
  0
ARC
  5
1F1
330
1F
100
AcDbEntity
  8
0
  6
Continuous
 62
     7
370
    25
100
AcDbCircle
 10
44.6056650657
 20
249.7035686843
 30
0.0
 40
0.3120605825533227
100
AcDbArc
 50
0.0000000193
 51
60.0000000255
  0
LINE
  5
1F2
330
1F
100
AcDbEntity
  8
0
  6
Continuous
 62
     7
370
    25
100
AcDbLine
 10
44.7616953568
 20
249.9738210764
 30
0.0
 11
44.4842522739
 21
250.134002915
 31
0.0
  0
ARC
  5
1F3
330
1F
100
AcDbEntity
  8
0
  6
Continuous
 62
     7
370
    25
100
AcDbCircle
 10
44.6402825651
 20
250.4042553071
 30
0.0
 40
0.3120605825558517
100
AcDbArc
 50
120.0000000138
 51
240.0000000191
  0
LINE
  5
1F4
330
1F
100
AcDbEntity
  8
0
  6
Continuous
 62
     7
370
    25
100
AcDbLine
 10
44.4842522737
 20
250.6745076991
 30
0.0
 11
44.7616953572
 21
250.8346895381
 31
0.0
  0
ARC
  5
1F5
330
1F
100
AcDbEntity
  8
0
  6
Continuous
 62
     7
370
    25
100
AcDbCircle
 10
44.6056650659
 20
251.1049419301
 30
0.0
 40
0.3120605825532917
100
AcDbArc
 50
300.0000000005
 51
359.9999999998
  0
LINE
  5
1F6
330
1F
100
AcDbEntity
  8
0
  6
Continuous
 62
     7
370
    25
100
AcDbLine
 10
44.9177256484
 20
251.1049419301
 30
0.0
 11
44.9177256483
 21
251.5667411717
 31
0.0
  0
ARC
  5
1F7
330
1F
100
AcDbEntity
  8
0
  6
Continuous
 62
     7
370
    25
100
AcDbCircle
 10
44.6056650657
 20
251.5667411717
 30
0.0
 40
0.3120605825533969
100
AcDbArc
 50
359.9999999998
 51
59.9999999969
  0
LINE
  5
1F8
330
1F
100
AcDbEntity
  8
0
  6
Continuous
 62
     7
370
    25
100
AcDbLine
 10
44.761695357
 20
251.8369935637
 30
0.0
 11
44.484252274
 21
251.9971754024
 31
0.0
  0
ARC
  5
1F9
330
1F
100
AcDbEntity
  8
0
  6
Continuous
 62
     7
370
    25
100
AcDbCircle
 10
44.6402825653
 20
252.2674277944
 30
0.0
 40
0.3120605825616096
100
AcDbArc
 50
120.0000000144
 51
239.9999999948
  0
LINE
  5
1FA
330
1F
100
AcDbEntity
  8
0
  6
Continuous
 62
     7
370
    25
100
AcDbLine
 10
44.484252274
 20
252.5376801864
 30
0.0
 11
45.6288415644
 21
253.1985091217
 31
0.0
  0
LINE
  5
1FB
330
1F
100
AcDbEntity
  8
0
  6
Continuous
 62
     7
370
    25
100
AcDbLine
 10
45.6288415644
 20
253.1985091217
 30
0.0
 11
47.702124774
 21
254.0029215585
 31
0.0
  0
ARC
  5
1FC
330
1F
100
AcDbEntity
  8
0
  6
Continuous
 62
     7
370
    25
100
AcDbCircle
 10
48.4510719979
 20
252.705711131
 30
0.0
 40
1.497890796256878
100
AcDbArc
 50
110.98581906
 51
120.0000806426
  0
LINE
  5
1FD
330
1F
100
AcDbEntity
  8
0
  6
Continuous
 62
     7
370
    25
100
AcDbLine
 10
47.9146220712
 20
254.1042454758
 30
0.0
 11
48.6164912841
 21
254.3734685301
 31
0.0
  0
ARC
  5
1FE
330
1F
100
AcDbEntity
  8
0
  6
Continuous
 62
     7
370
    25
100
AcDbCircle
 10
48.7506037658
 20
254.0238349439
 30
0.0
 40
0.3744726990415088
100
AcDbArc
 50
358.0634206337
 51
110.98581906
  0
LINE
  5
1FF
330
1F
100
AcDbEntity
  8
0
  6
Continuous
 62
     7
370
    25
100
AcDbLine
 10
49.0306597346
 20
251.2251493224
 30
0.0
 11
49.1248625829
 21
254.011180294
 31
0.0
  0
LWPOLYLINE
  5
200
330
1F
100
AcDbEntity
  8
0
  6
Continuous
 62
     7
370
    25
100
AcDbPolyline
 90
        3
 70
   128
 43
0.0
 10
49.055637708
 20
251.1252038226
 10
49.0337902408
 20
251.1841542238
 10
49.0306597346
 20
251.2251493224
  0
LINE
  5
201
330
1F
100
AcDbEntity
  8
0
  6
Continuous
 62
     7
370
    25
100
AcDbLine
 10
49.2035634397
 20
250.8689889397
 30
0.0
 11
49.055637708
 21
251.1252038226
 31
0.0
  0
ARC
  5
202
330
1F
100
AcDbEntity
  8
0
  6
Continuous
 62
     7
370
    25
100
AcDbCircle
 10
49.0414120045
 20
250.7753707649
 30
0.0
 40
0.1872363495334507
100
AcDbArc
 50
334.2543347228
 51
30.000000012
  0
LINE
  5
203
330
1F
100
AcDbEntity
  8
0
  6
Continuous
 62
     7
370
    25
100
AcDbLine
 10
48.6381848841
 20
249.5081871545
 30
0.0
 11
49.2100616085
 21
250.6940395798
 31
0.0
  0
ARC
  5
204
330
1F
100
AcDbEntity
  8
0
  6
Continuous
 62
     7
370
    25
100
AcDbCircle
 10
49.4252163693
 20
249.1286416241
 30
0.0
 40
0.8737696311744472
100
AcDbArc
 50
154.2543347249
 51
359.9999999737
  0
LINE
  5
205
330
1F
100
AcDbEntity
  8
0
  6
Continuous
 62
     7
370
    25
100
AcDbLine
 10
50.2989860005
 20
249.1286416237
 30
0.0
 11
50.2989860005
 21
249.415285659
 31
0.0
  0
ARC
  5
206
330
1F
100
AcDbEntity
  8
0
  6
Continuous
 62
     7
370
    25
100
AcDbCircle
 10
50.9231071657
 20
249.415285659
 30
0.0
 40
0.6241211651343548
100
AcDbArc
 50
90.3155935642
 51
180.0
  0
LINE
  5
207
330
1F
100
AcDbEntity
  8
0
  6
Continuous
 62
     7
370
    25
100
AcDbLine
 10
50.9196694321
 20
250.0393973558
 30
0.0
 11
55.265055227
 21
250.0633326179
 31
0.0
  0
ARC
  5
208
330
1F
100
AcDbEntity
  8
0
  6
Continuous
 62
     7
370
    25
100
AcDbCircle
 10
55.2678054136
 20
249.56404326
 30
0.0
 40
0.4992969320852845
100
AcDbArc
 50
54.9999999992
 51
90.3155935272
  0
LINE
  5
209
330
1F
100
AcDbEntity
  8
0
  6
Continuous
 62
     7
370
    25
100
AcDbLine
 10
56.4974113174
 20
249.312592944
 30
0.0
 11
55.5541903686
 21
249.9730433627
 31
0.0
  0
ARC
  5
20A
330
1F
100
AcDbEntity
  8
0
  6
Continuous
 62
     7
370
    25
100
AcDbCircle
 10
56.3184207205
 20
249.05696788
 30
0.0
 40
0.3120605825532773
100
AcDbArc
 50
294.2415900002
 51
54.9999999882
  0
LINE
  5
20B
330
1F
100
AcDbEntity
  8
0
  6
Continuous
 62
     7
370
    25
100
AcDbLine
 10
56.0720754212
 20
248.60380254
 30
0.0
 11
56.4465481203
 21
248.7724240756
 31
0.0
  0
LINE
  5
20C
330
1F
100
AcDbEntity
  8
0
  6
Continuous
 62
     7
370
    25
100
AcDbLine
 10
54.8846823673
 20
248.0691306115
 30
0.0
 11
56.0720754212
 21
248.60380254
 31
0.0
  0
ARC
  5
20D
330
1F
100
AcDbEntity
  8
0
  6
Continuous
 62
     7
370
    25
100
AcDbCircle
 10
55.0128097674
 20
247.784586807
 30
0.0
 40
0.3120605828497715
100
AcDbArc
 50
114.2415900407
 51
194.0976954333
  0
LINE
  5
20E
330
1F
100
AcDbEntity
  8
0
  6
Continuous
 62
     7
370
    25
100
AcDbLine
 10
54.9434228787
 20
246.7797115341
 30
0.0
 11
54.7101478835
 21
247.7085763381
 31
0.0
  0
ARC
  5
20F
330
1F
100
AcDbEntity
  8
0
  6
Continuous
 62
     7
370
    25
100
AcDbCircle
 10
54.7012933718
 20
246.7189031588
 30
0.0
 40
0.2496484660474228
100
AcDbArc
 50
256.4168996169
 51
14.0976954826
  0
LINE
  5
210
330
1F
100
AcDbEntity
  8
0
  6
Continuous
 62
     7
370
    25
100
AcDbLine
 10
54.6426620767
 20
246.4762372819
 30
0.0
 11
54.1766086029
 21
246.5888419839
 31
0.0
  0
ARC
  5
211
330
1F
100
AcDbEntity
  8
0
  6
Continuous
 62
     7
370
    25
100
AcDbCircle
 10
54.1326351315
 20
246.4068425762
 30
0.0
 40
0.1872363495324354
100
AcDbArc
 50
76.4168995966
 51
165.2994334226
  0
LINE
  5
212
330
1F
100
AcDbEntity
  8
0
  6
Continuous
 62
     7
370
    25
100
AcDbLine
 10
53.756884094
 20
245.7124488388
 30
0.0
 11
53.9515279183
 21
246.4543570783
 31
0.0
  0
LWPOLYLINE
  5
213
330
1F
100
AcDbEntity
  8
0
  6
Continuous
 62
     7
370
    25
100
AcDbPolyline
 90
        3
 70
   128
 43
0.0
 10
53.7571348816
 20
245.6164740036
 10
53.7512893354
 20
245.6790702591
 10
53.756884094
 20
245.7124488388
  0
LINE
  5
214
330
1F
100
AcDbEntity
  8
0
  6
Continuous
 62
     7
370
    25
100
AcDbLine
 10
53.824571424
 20
245.3647974008
 30
0.0
 11
53.7571348816
 21
245.6164740036
 31
0.0
  0
ARC
  5
215
330
1F
100
AcDbEntity
  8
0
  6
Continuous
 62
     7
370
    25
100
AcDbCircle
 10
53.523144048
 20
245.2840301787
 30
0.0
 40
0.3120605825562747
100
AcDbArc
 50
313.9389210569
 51
15.0000000175
  0
LINE
  5
216
330
1F
100
AcDbEntity
  8
0
  6
Continuous
 62
     7
370
    25
100
AcDbLine
 10
53.5236954536
 20
244.8511921569
 30
0.0
 11
53.7396801211
 21
245.0593216203
 31
0.0
  0
ARC
  5
217
330
1F
100
AcDbEntity
  8
0
  6
Continuous
 62
     7
370
    25
100
AcDbCircle
 10
53.696924312
 20
244.6714253099
 30
0.0
 40
0.2496484661173357
100
AcDbArc
 50
133.9389210203
 51
180.0
  0
LINE
  5
218
330
1F
100
AcDbEntity
  8
0
  6
Continuous
 62
     7
370
    25
100
AcDbLine
 10
53.4472758459
 20
242.3036095117
 30
0.0
 11
53.447275846
 21
244.6714253099
 31
0.0
  0
ARC
  5
219
330
1F
100
AcDbEntity
  8
0
  6
Continuous
 62
     7
370
    25
100
AcDbCircle
 10
54.071397011
 20
242.3036095117
 30
0.0
 40
0.6241211651343758
100
AcDbArc
 50
180.0
 51
281.0000000003
  0
LINE
  5
21A
330
1F
100
AcDbEntity
  8
0
  6
Continuous
 62
     7
370
    25
100
AcDbLine
 10
54.1904849435
 20
241.6909552102
 30
0.0
 11
54.7906902185
 21
241.8076232971
 31
0.0
  0
ARC
  5
21B
330
1F
100
AcDbEntity
  8
0
  6
Continuous
 62
     7
370
    25
100
AcDbCircle
 10
54.8621429779
 20
241.4400307162
 30
0.0
 40
0.3744726990413652
100
AcDbArc
 50
283.7684576276
 51
100.9999999916
  0
ARC
  5
21C
330
1F
100
AcDbEntity
  8
0
  6
Continuous
 62
     7
370
    25
100
AcDbCircle
 10
55.0998071131
 20
240.4701309975
 30
0.0
 40
0.6241211651755433
100
AcDbArc
 50
103.7684575829
 51
152.0000000036
  0
LINE
  5
21D
330
1F
100
AcDbEntity
  8
0
  6
Continuous
 62
     7
370
    25
100
AcDbLine
 10
53.0975563773
 20
238.0338571248
 30
0.0
 11
54.5487408327
 21
240.7631381362
 31
0.0
  0
ARC
  5
21E
330
1F
100
AcDbEntity
  8
0
  6
Continuous
 62
     7
370
    25
100
AcDbCircle
 10
53.3179828895
 20
237.9166542693
 30
0.0
 40
0.2496484660454471
100
AcDbArc
 50
151.9999999989
 51
180.0
  0
LINE
  5
21F
330
1F
100
AcDbEntity
  8
0
  6
Continuous
 62
     7
370
    25
100
AcDbLine
 10
53.0683344234
 20
237.1086132597
 30
0.0
 11
53.0683344234
 21
237.9166542693
 31
0.0
  0
ARC
  5
220
330
1F
100
AcDbEntity
  8
0
  6
Continuous
 62
     7
370
    25
100
AcDbCircle
 10
52.7183344234
 20
237.1086132597
 30
0.0
 40
0.350000000000108
100
AcDbArc
 50
278.7114973805
 51
0.0
  0
LINE
  5
221
330
1F
100
AcDbEntity
  8
0
  6
Continuous
 62
     7
370
    25
100
AcDbLine
 10
49.8746645584
 20
236.3188017168
 30
0.0
 11
52.7713451348
 21
236.7626510299
 31
0.0
  0
ARC
  5
222
330
1F
100
AcDbEntity
  8
0
  6
Continuous
 62
     7
370
    25
100
AcDbCircle
 10
49.5910779272
 20
238.1695647165
 30
0.0
 40
1.872363495319732
100
AcDbArc
 50
263.9999999998
 51
278.711497382
  0
LINE
  5
223
330
1F
100
AcDbEntity
  8
0
  6
Continuous
 62
     7
370
    25
100
AcDbLine
 10
49.3953626484
 20
236.3074582243
 30
0.0
 11
48.7403630221
 21
236.3763014592
 31
0.0
  0
ARC
  5
224
330
1F
100
AcDbEntity
  8
0
  6
Continuous
 62
     7
370
    25
100
AcDbCircle
 10
48.8969352452
 20
237.8659866529
 30
0.0
 40
1.497890796257302
100
AcDbArc
 50
240.0
 51
264.0
  0
LINE
  5
225
330
1F
100
AcDbEntity
  8
0
  6
Continuous
 62
     7
370
    25
100
AcDbLine
 10
48.147989847
 20
236.5687751713
 30
0.0
 11
45.6288415645
 21
237.6306079272
 31
0.0
  0
LINE
  5
226
330
1F
100
AcDbEntity
  8
0
  6
Continuous
 62
     7
370
    25
100
AcDbLine
 10
45.6288415645
 20
237.6306079272
 30
0.0
 11
44.484252274
 21
238.2914368623
 31
0.0
  0
ARC
  5
227
330
1F
100
AcDbEntity
  8
0
  6
Continuous
 62
     7
370
    25
100
AcDbCircle
 10
44.6402825653
 20
238.5616892543
 30
0.0
 40
0.3120605825557795
100
AcDbArc
 50
120.0000000055
 51
239.9999999998
  0
LINE
  5
228
330
1F
100
AcDbEntity
  8
0
  6
Continuous
 62
     7
370
    25
100
AcDbLine
 10
44.484252274
 20
238.8319416463
 30
0.0
 11
44.761695357
 21
238.992123485
 31
0.0
  0
ARC
  5
229
330
1F
100
AcDbEntity
  8
0
  6
Continuous
 62
     7
370
    25
100
AcDbCircle
 10
44.6056650658
 20
239.262375877
 30
0.0
 40
0.3120605825544005
100
AcDbArc
 50
299.9999999996
 51
359.9999999999
  0
LINE
  5
22A
330
1F
100
AcDbEntity
  8
0
  6
Continuous
 62
     7
370
    25
100
AcDbLine
 10
44.9177256483
 20
239.262375877
 30
0.0
 11
44.9177256483
 21
241.3878602848
 31
0.0
  0
ARC
  5
22B
330
1F
100
AcDbEntity
  8
0
  6
Continuous
 62
     7
370
    25
100
AcDbCircle
 10
44.6056650658
 20
241.3878602848
 30
0.0
 40
0.3120605825532886
100
AcDbArc
 50
359.9999999999
 51
60.0000000062
  0
LINE
  5
22C
330
1F
100
AcDbEntity
  8
0
  6
Continuous
 62
     7
370
    25
100
AcDbLine
 10
44.761695357
 20
241.6581126768
 30
0.0
 11
44.484252274
 21
241.8182945154
 31
0.0
  0
ARC
  5
22D
330
1F
100
AcDbEntity
  8
0
  6
Continuous
 62
     7
370
    25
100
AcDbCircle
 10
44.6402825657
 20
242.0885469075
 30
0.0
 40
0.3120605827661435
100
AcDbArc
 50
120.000000055
 51
239.9999999452
  0
LINE
  5
22E
330
1F
100
AcDbEntity
  8
0
  6
Continuous
 62
     7
370
    25
100
AcDbLine
 10
224.3721916915
 20
241.8182945154
 30
0.0
 11
224.0947486085
 21
241.6581126768
 31
0.0
  0
ARC
  5
22F
330
1F
100
AcDbEntity
  8
0
  6
Continuous
 62
     7
370
    25
100
AcDbCircle
 10
224.2507788998
 20
241.3878602848
 30
0.0
 40
0.3120605825532922
100
AcDbArc
 50
119.9999999938
 51
180.0000000001
  0
LINE
  5
230
330
1F
100
AcDbEntity
  8
0
  6
Continuous
 62
     7
370
    25
100
AcDbLine
 10
223.9387183172
 20
241.3878602848
 30
0.0
 11
223.9387183172
 21
239.262375877
 31
0.0
  0
ARC
  5
231
330
1F
100
AcDbEntity
  8
0
  6
Continuous
 62
     7
370
    25
100
AcDbCircle
 10
224.2507788998
 20
239.262375877
 30
0.0
 40
0.3120605825543863
100
AcDbArc
 50
180.0000000001
 51
240.0000000004
  0
LINE
  5
232
330
1F
100
AcDbEntity
  8
0
  6
Continuous
 62
     7
370
    25
100
AcDbLine
 10
224.0947486085
 20
238.992123485
 30
0.0
 11
224.3721916915
 21
238.8319416463
 31
0.0
  0
ARC
  5
233
330
1F
100
AcDbEntity
  8
0
  6
Continuous
 62
     7
370
    25
100
AcDbCircle
 10
224.2161614002
 20
238.5616892543
 30
0.0
 40
0.3120605825558058
100
AcDbArc
 50
299.9999999997
 51
59.9999999947
  0
LINE
  5
234
330
1F
100
AcDbEntity
  8
0
  6
Continuous
 62
     7
370
    25
100
AcDbLine
 10
224.3721916915
 20
238.2914368623
 30
0.0
 11
223.227602401
 21
237.6306079272
 31
0.0
  0
LINE
  5
235
330
1F
100
AcDbEntity
  8
0
  6
Continuous
 62
     7
370
    25
100
AcDbLine
 10
223.227602401
 20
237.6306079272
 30
0.0
 11
220.7084541185
 21
236.5687751713
 31
0.0
  0
ARC
  5
236
330
1F
100
AcDbEntity
  8
0
  6
Continuous
 62
     7
370
    25
100
AcDbCircle
 10
219.9595087203
 20
237.8659866529
 30
0.0
 40
1.497890796257304
100
AcDbArc
 50
276.0
 51
300.0
  0
LINE
  5
237
330
1F
100
AcDbEntity
  8
0
  6
Continuous
 62
     7
370
    25
100
AcDbLine
 10
220.1160809434
 20
236.3763014592
 30
0.0
 11
219.4610813171
 21
236.3074582243
 31
0.0
  0
ARC
  5
238
330
1F
100
AcDbEntity
  8
0
  6
Continuous
 62
     7
370
    25
100
AcDbCircle
 10
219.2653660383
 20
238.1695647165
 30
0.0
 40
1.872363495319734
100
AcDbArc
 50
261.288502618
 51
276.0000000002
  0
LINE
  5
239
330
1F
100
AcDbEntity
  8
0
  6
Continuous
 62
     7
370
    25
100
AcDbLine
 10
216.0850988307
 20
236.7626510299
 30
0.0
 11
218.9817794071
 21
236.3188017168
 31
0.0
  0
ARC
  5
23A
330
1F
100
AcDbEntity
  8
0
  6
Continuous
 62
     7
370
    25
100
AcDbCircle
 10
216.1381095421
 20
237.1086132597
 30
0.0
 40
0.350000000000108
100
AcDbArc
 50
180.0
 51
261.2885026195
  0
LINE
  5
23B
330
1F
100
AcDbEntity
  8
0
  6
Continuous
 62
     7
370
    25
100
AcDbLine
 10
215.7881095421
 20
237.9166542693
 30
0.0
 11
215.7881095421
 21
237.1086132597
 31
0.0
  0
ARC
  5
23C
330
1F
100
AcDbEntity
  8
0
  6
Continuous
 62
     7
370
    25
100
AcDbCircle
 10
215.538461076
 20
237.9166542693
 30
0.0
 40
0.2496484660454784
100
AcDbArc
 50
0.0
 51
28.0000000011
  0
LINE
  5
23D
330
1F
100
AcDbEntity
  8
0
  6
Continuous
 62
     7
370
    25
100
AcDbLine
 10
214.3077031328
 20
240.7631381362
 30
0.0
 11
215.7588875882
 21
238.0338571248
 31
0.0
  0
ARC
  5
23E
330
1F
100
AcDbEntity
  8
0
  6
Continuous
 62
     7
370
    25
100
AcDbCircle
 10
213.7566368524
 20
240.4701309975
 30
0.0
 40
0.6241211651755433
100
AcDbArc
 50
27.9999999964
 51
76.2315424171
  0
ARC
  5
23F
330
1F
100
AcDbEntity
  8
0
  6
Continuous
 62
     7
370
    25
100
AcDbCircle
 10
213.9943009876
 20
241.4400307162
 30
0.0
 40
0.3744726990413652
100
AcDbArc
 50
79.0000000084
 51
256.2315423724
  0
LINE
  5
240
330
1F
100
AcDbEntity
  8
0
  6
Continuous
 62
     7
370
    25
100
AcDbLine
 10
214.0657537471
 20
241.8076232971
 30
0.0
 11
214.665959022
 21
241.6909552102
 31
0.0
  0
ARC
  5
241
330
1F
100
AcDbEntity
  8
0
  6
Continuous
 62
     7
370
    25
100
AcDbCircle
 10
214.7850469545
 20
242.3036095117
 30
0.0
 40
0.6241211651343771
100
AcDbArc
 50
258.9999999997
 51
0.0
  0
LINE
  5
242
330
1F
100
AcDbEntity
  8
0
  6
Continuous
 62
     7
370
    25
100
AcDbLine
 10
215.4091681195
 20
244.6714253099
 30
0.0
 11
215.4091681196
 21
242.3036095117
 31
0.0
  0
ARC
  5
243
330
1F
100
AcDbEntity
  8
0
  6
Continuous
 62
     7
370
    25
100
AcDbCircle
 10
215.1595196535
 20
244.6714253099
 30
0.0
 40
0.2496484661173357
100
AcDbArc
 50
0.0
 51
46.0610789797
  0
LINE
  5
244
330
1F
100
AcDbEntity
  8
0
  6
Continuous
 62
     7
370
    25
100
AcDbLine
 10
215.1167638444
 20
245.0593216203
 30
0.0
 11
215.3327485119
 21
244.8511921569
 31
0.0
  0
ARC
  5
245
330
1F
100
AcDbEntity
  8
0
  6
Continuous
 62
     7
370
    25
100
AcDbCircle
 10
215.3332999175
 20
245.2840301787
 30
0.0
 40
0.3120605825562678
100
AcDbArc
 50
164.9999999825
 51
226.0610789431
  0
LINE
  5
246
330
1F
100
AcDbEntity
  8
0
  6
Continuous
 62
     7
370
    25
100
AcDbLine
 10
215.099309084
 20
245.6164740036
 30
0.0
 11
215.0318725415
 21
245.3647974008
 31
0.0
  0
ARC
  5
247
330
1F
100
AcDbEntity
  8
0
  6
Continuous
 62
     7
370
    25
100
AcDbCircle
 10
214.9184526583
 20
245.6649343367
 30
0.0
 40
0.1872363495328097
100
AcDbArc
 50
345.000000016
 51
14.7005665797
  0
LINE
  5
248
330
1F
100
AcDbEntity
  8
0
  6
Continuous
 62
     7
370
    25
100
AcDbLine
 10
214.9049160472
 20
246.4543570783
 30
0.0
 11
215.0995598715
 21
245.7124488388
 31
0.0
  0
ARC
  5
249
330
1F
100
AcDbEntity
  8
0
  6
Continuous
 62
     7
370
    25
100
AcDbCircle
 10
214.723808834
 20
246.4068425762
 30
0.0
 40
0.1872363495324492
100
AcDbArc
 50
14.7005665774
 51
103.5831004034
  0
LINE
  5
24A
330
1F
100
AcDbEntity
  8
0
  6
Continuous
 62
     7
370
    25
100
AcDbLine
 10
214.6798353626
 20
246.5888419839
 30
0.0
 11
214.2137818888
 21
246.4762372819
 31
0.0
  0
ARC
  5
24B
330
1F
100
AcDbEntity
  8
0
  6
Continuous
 62
     7
370
    25
100
AcDbCircle
 10
214.1551505937
 20
246.7189031588
 30
0.0
 40
0.2496484660473746
100
AcDbArc
 50
165.9023045174
 51
283.5831003832
  0
LINE
  5
24C
330
1F
100
AcDbEntity
  8
0
  6
Continuous
 62
     7
370
    25
100
AcDbLine
 10
214.146296082
 20
247.7085763381
 30
0.0
 11
213.9130210868
 21
246.7797115341
 31
0.0
  0
ARC
  5
24D
330
1F
100
AcDbEntity
  8
0
  6
Continuous
 62
     7
370
    25
100
AcDbCircle
 10
213.8436341984
 20
247.7845868071
 30
0.0
 40
0.3120605825806004
100
AcDbArc
 50
345.9023045263
 51
65.7584100058
  0
LINE
  5
24E
330
1F
100
AcDbEntity
  8
0
  6
Continuous
 62
     7
370
    25
100
AcDbLine
 10
212.7843685443
 20
248.60380254
 30
0.0
 11
213.9717615982
 21
248.0691306115
 31
0.0
  0
LINE
  5
24F
330
1F
100
AcDbEntity
  8
0
  6
Continuous
 62
     7
370
    25
100
AcDbLine
 10
212.4098958452
 20
248.7724240756
 30
0.0
 11
212.7843685443
 21
248.60380254
 31
0.0
  0
ARC
  5
250
330
1F
100
AcDbEntity
  8
0
  6
Continuous
 62
     7
370
    25
100
AcDbCircle
 10
212.538023245
 20
249.05696788
 30
0.0
 40
0.3120605825532773
100
AcDbArc
 50
125.0000000118
 51
245.7584099998
  0
LINE
  5
251
330
1F
100
AcDbEntity
  8
0
  6
Continuous
 62
     7
370
    25
100
AcDbLine
 10
213.302253597
 20
249.9730433627
 30
0.0
 11
212.3590326482
 21
249.312592944
 31
0.0
  0
ARC
  5
252
330
1F
100
AcDbEntity
  8
0
  6
Continuous
 62
     7
370
    25
100
AcDbCircle
 10
213.588638552
 20
249.56404326
 30
0.0
 40
0.4992969320852845
100
AcDbArc
 50
89.6844064728
 51
125.0000000008
  0
LINE
  5
253
330
1F
100
AcDbEntity
  8
0
  6
Continuous
 62
     7
370
    25
100
AcDbLine
 10
213.5913887385
 20
250.0633326179
 30
0.0
 11
217.9367745335
 21
250.0393973558
 31
0.0
  0
ARC
  5
254
330
1F
100
AcDbEntity
  8
0
  6
Continuous
 62
     7
370
    25
100
AcDbCircle
 10
217.9333367999
 20
249.415285659
 30
0.0
 40
0.6241211651343406
100
AcDbArc
 50
0.0
 51
89.6844064358
  0
LINE
  5
255
330
1F
100
AcDbEntity
  8
0
  6
Continuous
 62
     7
370
    25
100
AcDbLine
 10
218.557457965
 20
249.415285659
 30
0.0
 11
218.557457965
 21
249.1286416237
 31
0.0
  0
ARC
  5
256
330
1F
100
AcDbEntity
  8
0
  6
Continuous
 62
     7
370
    25
100
AcDbCircle
 10
219.4312275962
 20
249.1286416241
 30
0.0
 40
0.8737696312113883
100
AcDbArc
 50
180.0000000251
 51
25.7456652772
  0
LINE
  5
257
330
1F
100
AcDbEntity
  8
0
  6
Continuous
 62
     7
370
    25
100
AcDbLine
 10
219.6463823571
 20
250.6940395798
 30
0.0
 11
220.2182590814
 21
249.5081871545
 31
0.0
  0
ARC
  5
258
330
1F
100
AcDbEntity
  8
0
  6
Continuous
 62
     7
370
    25
100
AcDbCircle
 10
219.815031961
 20
250.7753707649
 30
0.0
 40
0.1872363495334763
100
AcDbArc
 50
149.999999988
 51
205.7456652772
  0
LINE
  5
259
330
1F
100
AcDbEntity
  8
0
  6
Continuous
 62
     7
370
    25
100
AcDbLine
 10
219.8008062575
 20
251.1252038226
 30
0.0
 11
219.6528805258
 21
250.8689889397
 31
0.0
  0
ARC
  5
25A
330
1F
100
AcDbEntity
  8
0
  6
Continuous
 62
     7
370
    25
100
AcDbCircle
 10
219.6386548224
 20
251.2188219974
 30
0.0
 40
0.1872363495331173
100
AcDbArc
 50
329.999999988
 51
1.9365793663
  0
LINE
  5
25B
330
1F
100
AcDbEntity
  8
0
  6
Continuous
 62
     7
370
    25
100
AcDbLine
 10
219.7315813826
 20
254.011180294
 30
0.0
 11
219.8257842309
 21
251.2251493224
 31
0.0
  0
ARC
  5
25C
330
1F
100
AcDbEntity
  8
0
  6
Continuous
 62
     7
370
    25
100
AcDbCircle
 10
220.1058401997
 20
254.0238349439
 30
0.0
 40
0.3744726990414947
100
AcDbArc
 50
69.01418094
 51
181.9365793663
  0
LINE
  5
25D
330
1F
100
AcDbEntity
  8
0
  6
Continuous
 62
     7
370
    25
100
AcDbLine
 10
220.2399526814
 20
254.3734685301
 30
0.0
 11
220.9418218943
 21
254.1042454758
 31
0.0
  0
ARC
  5
25E
330
1F
100
AcDbEntity
  8
0
  6
Continuous
 62
     7
370
    25
100
AcDbCircle
 10
220.4053719676
 20
252.705711131
 30
0.0
 40
1.497890796256875
100
AcDbArc
 50
59.9999193574
 51
69.01418094
  0
LINE
  5
25F
330
1F
100
AcDbEntity
  8
0
  6
Continuous
 62
     7
370
    25
100
AcDbLine
 10
221.1543191915
 20
254.0029215585
 30
0.0
 11
223.2276024011
 21
253.1985091217
 31
0.0
  0
LINE
  5
260
330
1F
100
AcDbEntity
  8
0
  6
Continuous
 62
     7
370
    25
100
AcDbLine
 10
223.2276024011
 20
253.1985091217
 30
0.0
 11
224.3721916916
 21
252.5376801864
 31
0.0
  0
ARC
  5
261
330
1F
100
AcDbEntity
  8
0
  6
Continuous
 62
     7
370
    25
100
AcDbCircle
 10
224.2161614002
 20
252.2674277944
 30
0.0
 40
0.3120605825556541
100
AcDbArc
 50
300.0000000031
 51
59.999999988
  0
LINE
  5
262
330
1F
100
AcDbEntity
  8
0
  6
Continuous
 62
     7
370
    25
100
AcDbLine
 10
224.3721916915
 20
251.9971754024
 30
0.0
 11
224.0947486085
 21
251.8369935637
 31
0.0
  0
ARC
  5
263
330
1F
100
AcDbEntity
  8
0
  6
Continuous
 62
     7
370
    25
100
AcDbCircle
 10
224.2507788998
 20
251.5667411717
 30
0.0
 40
0.3120605825533897
100
AcDbArc
 50
120.0000000031
 51
180.0000000002
  0
LINE
  5
264
330
1F
100
AcDbEntity
  8
0
  6
Continuous
 62
     7
370
    25
100
AcDbLine
 10
223.9387183172
 20
251.5667411717
 30
0.0
 11
223.9387183171
 21
251.1049419301
 31
0.0
  0
ARC
  5
265
330
1F
100
AcDbEntity
  8
0
  6
Continuous
 62
     7
370
    25
100
AcDbCircle
 10
224.2507788996
 20
251.1049419301
 30
0.0
 40
0.3120605825532952
100
AcDbArc
 50
180.0000000002
 51
239.9999999995
  0
LINE
  5
266
330
1F
100
AcDbEntity
  8
0
  6
Continuous
 62
     7
370
    25
100
AcDbLine
 10
224.0947486083
 20
250.8346895381
 30
0.0
 11
224.3721916918
 21
250.6745076991
 31
0.0
  0
ARC
  5
267
330
1F
100
AcDbEntity
  8
0
  6
Continuous
 62
     7
370
    25
100
AcDbCircle
 10
224.2161614005
 20
250.4042553071
 30
0.0
 40
0.3120605825539913
100
AcDbArc
 50
299.9999999803
 51
59.9999999869
  0
LINE
  5
268
330
1F
100
AcDbEntity
  8
0
  6
Continuous
 62
     7
370
    25
100
AcDbLine
 10
224.3721916916
 20
250.134002915
 30
0.0
 11
224.0947486087
 21
249.9738210764
 31
0.0
  0
ARC
  5
269
330
1F
100
AcDbEntity
  8
0
  6
Continuous
 62
     7
370
    25
100
AcDbCircle
 10
224.2507788998
 20
249.7035686843
 30
0.0
 40
0.3120605825533227
100
AcDbArc
 50
119.9999999745
 51
179.9999999807
  0
LINE
  5
26A
330
1F
100
AcDbEntity
  8
0
  6
Continuous
 62
     7
370
    25
100
AcDbLine
 10
223.9387183173
 20
249.7035686844
 30
0.0
 11
223.9387183173
 21
248.3800919187
 31
0.0
  0
ARC
  5
26B
330
1F
100
AcDbEntity
  8
0
  6
Continuous
 62
     7
370
    25
100
AcDbCircle
 10
224.2507788998
 20
248.3800919186
 30
0.0
 40
0.3120605825549774
100
AcDbArc
 50
179.9999999807
 51
239.9999999799
  0
LINE
  5
26C
330
1F
100
AcDbEntity
  8
0
  6
Continuous
 62
     7
370
    25
100
AcDbLine
 10
224.0947486085
 20
248.1098395266
 30
0.0
 11
224.3721916915
 21
247.9496576879
 31
0.0
  0
ARC
  5
26D
330
1F
100
AcDbEntity
  8
0
  6
Continuous
 62
     7
370
    25
100
AcDbCircle
 10
224.2161614001
 20
247.679405296
 30
0.0
 40
0.3120605825538195
100
AcDbArc
 50
299.9999999803
 51
59.9999999753
  0
LINE
  5
26E
330
1F
100
AcDbEntity
  8
0
  6
Continuous
 62
     7
370
    25
100
AcDbLine
 10
224.3721916913
 20
247.4091529039
 30
0.0
 11
224.0947486082
 21
247.2489710652
 31
0.0
  0
ARC
  5
26F
330
1F
100
AcDbEntity
  8
0
  6
Continuous
 62
     7
370
    25
100
AcDbCircle
 10
224.2507788994
 20
246.9787186731
 30
0.0
 40
0.3120605825533005
100
AcDbArc
 50
119.9999999859
 51
179.9999999807
  0
LINE
  5
270
330
1F
100
AcDbEntity
  8
0
  6
Continuous
 62
     7
370
    25
100
AcDbLine
 10
223.9387183169
 20
246.9787186733
 30
0.0
 11
223.9387183168
 21
246.3361202008
 31
0.0
  0
ARC
  5
271
330
1F
100
AcDbEntity
  8
0
  6
Continuous
 62
     7
370
    25
100
AcDbCircle
 10
224.2507788992
 20
246.3361202007
 30
0.0
 40
0.3120605825533097
100
AcDbArc
 50
179.9999999807
 51
204.9999999794
  0
LINE
  5
272
330
1F
100
AcDbEntity
  8
0
  6
Continuous
 62
     7
370
    25
100
AcDbLine
 10
223.9679559632
 20
246.2042376999
 30
0.0
 11
224.7918309115
 21
244.4374321714
 31
0.0
  0
ARC
  5
273
330
1F
100
AcDbEntity
  8
0
  6
Continuous
 62
     7
370
    25
100
AcDbCircle
 10
224.6787017367
 20
244.3846791712
 30
0.0
 40
0.1248242333057567
100
AcDbArc
 50
235.0000000157
 51
24.9999998812
  0
LINE
  5
274
330
1F
100
AcDbEntity
  8
0
  6
Continuous
 62
     7
370
    25
100
AcDbLine
 10
224.135138789
 20
244.6129037931
 30
0.0
 11
224.607105498
 21
244.2824291455
 31
0.0
  0
ARC
  5
275
330
1F
100
AcDbEntity
  8
0
  6
Continuous
 62
     7
370
    25
100
AcDbCircle
 10
224.0635425502
 20
244.5106537674
 30
0.0
 40
0.1248242330212861
100
AcDbArc
 50
55.0000000106
 51
180.0
  0
LINE
  5
276
330
1F
100
AcDbEntity
  8
0
  6
Continuous
 62
     7
370
    25
100
AcDbLine
 10
223.9387183172
 20
244.5106537674
 30
0.0
 11
223.9387183172
 21
242.7892335302
 31
0.0
  0
ARC
  5
277
330
1F
100
AcDbEntity
  8
0
  6
Continuous
 62
     7
370
    25
100
AcDbCircle
 10
224.2507788998
 20
242.7892335302
 30
0.0
 40
0.3120605825534142
100
AcDbArc
 50
180.0000000001
 51
240.0000000005
  0
LINE
  5
278
330
1F
100
AcDbEntity
  8
0
  6
Continuous
 62
     7
370
    25
100
AcDbLine
 10
224.0947486085
 20
242.5189811381
 30
0.0
 11
224.3721916915
 21
242.3587992995
 31
0.0
  0
ARC
  5
279
330
1F
100
AcDbEntity
  8
0
  6
Continuous
 62
     7
370
    25
100
AcDbCircle
 10
224.2161614002
 20
242.0885469075
 30
0.0
 40
0.312060582612171
100
AcDbArc
 50
299.9999999997
 51
60.0000000062
  0
LINE
  5
27A
330
1F
100
AcDbEntity
  8
0
  6
Continuous
 62
     7
370
    25
100
AcDbLine
 10
55.2678054136
 20
250.0633326179
 30
0.0
 11
213.588638552
 21
250.0633326179
 31
0.0
  0
LINE
  5
27B
330
1F
100
AcDbEntity
  8
0
  6
Continuous
 62
     8
370
    18
100
AcDbLine
 10
218.9817794071
 20
236.3188017168
 30
0.0
 11
49.8746645584
 21
236.3188017168
 31
0.0
  0
LINE
  5
27C
330
1F
100
AcDbEntity
  8
0
  6
Continuous
 62
     8
370
    18
100
AcDbLine
 10
52.7713451348
 20
236.7626510299
 30
0.0
 11
216.0850988307
 21
236.7626510299
 31
0.0
  0
LINE
  5
27D
330
1F
100
AcDbEntity
  8
0
  6
Continuous
 62
     8
370
    18
100
AcDbLine
 10
215.7881095421
 20
237.1086132597
 30
0.0
 11
53.0683344234
 21
237.1086132597
 31
0.0
  0
LINE
  5
27E
330
1F
100
AcDbEntity
  8
0
  6
Continuous
 62
     8
370
    18
100
AcDbLine
 10
215.7881095421
 20
237.9166542693
 30
0.0
 11
53.0683344234
 21
237.9166542693
 31
0.0
  0
LINE
  5
27F
330
1F
100
AcDbEntity
  8
0
  6
Continuous
 62
     8
370
    18
100
AcDbLine
 10
215.7588875882
 20
238.0338571248
 30
0.0
 11
53.0975563773
 21
238.0338571248
 31
0.0
  0
LINE
  5
280
330
1F
100
AcDbEntity
  8
0
  6
Continuous
 62
     8
370
    18
100
AcDbLine
 10
214.3077031328
 20
240.7631381362
 30
0.0
 11
54.5487408327
 21
240.7631381362
 31
0.0
  0
LINE
  5
281
330
1F
100
AcDbEntity
  8
0
  6
Continuous
 62
     8
370
    18
100
AcDbLine
 10
54.9512670288
 20
241.0763183218
 30
0.0
 11
213.9051769367
 21
241.0763183218
 31
0.0
  0
LINE
  5
282
330
1F
100
AcDbEntity
  8
0
  6
Continuous
 62
     8
370
    18
100
AcDbLine
 10
215.4091681196
 20
242.3036095117
 30
0.0
 11
53.4472758459
 21
242.3036095117
 31
0.0
  0
LINE
  5
283
330
1F
100
AcDbEntity
  8
0
  6
Continuous
 62
     8
370
    18
100
AcDbLine
 10
215.4091681195
 20
244.6714253099
 30
0.0
 11
53.447275846
 21
244.6714253099
 31
0.0
  0
LINE
  5
284
330
1F
100
AcDbEntity
  8
0
  6
Continuous
 62
     8
370
    18
100
AcDbLine
 10
224.607105498
 20
244.2824291455
 30
0.0
 11
223.9387183172
 21
244.2824291455
 31
0.0
  0
LINE
  5
285
330
1F
100
AcDbEntity
  8
0
  6
Continuous
 62
     8
370
    18
100
AcDbLine
 10
44.9177256483
 20
244.2824291455
 30
0.0
 11
44.2493384675
 21
244.2824291455
 31
0.0
  0
LINE
  5
286
330
1F
100
AcDbEntity
  8
0
  6
Continuous
 62
     8
370
    18
100
AcDbLine
 10
44.7213051765
 20
244.6129037931
 30
0.0
 11
44.864497654
 21
244.6129037931
 31
0.0
  0
LINE
  5
287
330
1F
100
AcDbEntity
  8
0
  6
Continuous
 62
     8
370
    18
100
AcDbLine
 10
223.9919463115
 20
244.6129037931
 30
0.0
 11
224.135138789
 21
244.6129037931
 31
0.0
  0
LINE
  5
288
330
1F
100
AcDbEntity
  8
0
  6
Continuous
 62
     8
370
    18
100
AcDbLine
 10
215.3327485119
 20
244.8511921569
 30
0.0
 11
53.5236954536
 21
244.8511921569
 31
0.0
  0
LINE
  5
289
330
1F
100
AcDbEntity
  8
0
  6
Continuous
 62
     8
370
    18
100
AcDbLine
 10
53.7396801211
 20
245.0593216203
 30
0.0
 11
215.1167638444
 21
245.0593216203
 31
0.0
  0
LINE
  5
28A
330
1F
100
AcDbEntity
  8
0
  6
Continuous
 62
     8
370
    18
100
AcDbLine
 10
215.0318725415
 20
245.3647974008
 30
0.0
 11
53.824571424
 21
245.3647974008
 31
0.0
  0
LINE
  5
28B
330
1F
100
AcDbEntity
  8
0
  6
Continuous
 62
     8
370
    18
100
AcDbLine
 10
215.099309084
 20
245.6164740036
 30
0.0
 11
53.7571348816
 21
245.6164740036
 31
0.0
  0
LINE
  5
28C
330
1F
100
AcDbEntity
  8
0
  6
Continuous
 62
     8
370
    18
100
AcDbLine
 10
215.0995598715
 20
245.7124488388
 30
0.0
 11
53.756884094
 21
245.7124488388
 31
0.0
  0
LINE
  5
28D
330
1F
100
AcDbEntity
  8
0
  6
Continuous
 62
     8
370
    18
100
AcDbLine
 10
214.9049160472
 20
246.4543570783
 30
0.0
 11
53.9515279183
 21
246.4543570783
 31
0.0
  0
LINE
  5
28E
330
1F
100
AcDbEntity
  8
0
  6
Continuous
 62
     8
370
    18
100
AcDbLine
 10
213.9130210868
 20
246.7797115341
 30
0.0
 11
54.9434228787
 21
246.7797115341
 31
0.0
  0
LINE
  5
28F
330
1F
100
AcDbEntity
  8
0
  6
Continuous
 62
     8
370
    18
100
AcDbLine
 10
214.146296082
 20
247.7085763381
 30
0.0
 11
54.7101478835
 21
247.7085763381
 31
0.0
  0
LINE
  5
290
330
1F
100
AcDbEntity
  8
0
  6
Continuous
 62
     8
370
    18
100
AcDbLine
 10
213.9717615982
 20
248.0691306115
 30
0.0
 11
54.8846823673
 21
248.0691306115
 31
0.0
  0
LINE
  5
291
330
1F
100
AcDbEntity
  8
0
  6
Continuous
 62
     8
370
    18
100
AcDbLine
 10
212.7843685443
 20
248.60380254
 30
0.0
 11
56.0720754212
 21
248.60380254
 31
0.0
  0
LINE
  5
292
330
1F
100
AcDbEntity
  8
0
  6
Continuous
 62
     8
370
    18
100
AcDbLine
 10
48.6381848841
 20
249.5081871545
 30
0.0
 11
50.3059390031
 21
249.5081871545
 31
0.0
  0
LINE
  5
293
330
1F
100
AcDbEntity
  8
0
  6
Continuous
 62
     8
370
    18
100
AcDbLine
 10
218.5505049624
 20
249.5081871545
 30
0.0
 11
220.2182590814
 21
249.5081871545
 31
0.0
  0
LINE
  5
294
330
1F
100
AcDbEntity
  8
0
  6
Continuous
 62
     8
370
    18
100
AcDbLine
 10
56.4465481203
 20
248.7724240756
 30
0.0
 11
212.4098958452
 21
248.7724240756
 31
0.0
  0
LINE
  5
295
330
1F
100
AcDbEntity
  8
0
  6
Continuous
 62
     8
370
    18
100
AcDbLine
 10
212.3590326482
 20
249.312592944
 30
0.0
 11
56.4974113174
 21
249.312592944
 31
0.0
  0
LINE
  5
296
330
1F
100
AcDbEntity
  8
0
  6
Continuous
 62
     8
370
    18
100
AcDbLine
 10
55.5541903686
 20
249.9730433627
 30
0.0
 11
213.302253597
 21
249.9730433627
 31
0.0
  0
LINE
  5
297
330
1F
100
AcDbEntity
  8
0
  6
Continuous
 62
     8
370
    18
100
AcDbLine
 10
49.2100616085
 20
250.6940395798
 30
0.0
 11
219.6463823571
 21
250.6940395798
 31
0.0
  0
LINE
  5
298
330
1F
100
AcDbEntity
  8
0
  6
Continuous
 62
     8
370
    18
100
AcDbLine
 10
219.6528805258
 20
250.8689889397
 30
0.0
 11
49.2035634397
 21
250.8689889397
 31
0.0
  0
LINE
  5
299
330
1F
100
AcDbEntity
  8
0
  6
Continuous
 62
     8
370
    18
100
AcDbLine
 10
49.055637708
 20
251.1252038226
 30
0.0
 11
219.8008062575
 21
251.1252038226
 31
0.0
  0
LINE
  5
29A
330
1F
100
AcDbEntity
  8
0
  6
Continuous
 62
     8
370
    18
100
AcDbLine
 10
49.0306597346
 20
251.2251493224
 30
0.0
 11
219.8257842309
 21
251.2251493224
 31
0.0
  0
LINE
  5
29B
330
1F
100
AcDbEntity
  8
0
  6
Continuous
 62
     8
370
    18
100
AcDbLine
 10
49.1248625829
 20
254.011180294
 30
0.0
 11
219.7315813826
 21
254.011180294
 31
0.0
  0
HATCH
  5
29C
330
1F
100
AcDbEntity
  8
0
  6
Continuous
 62
     7
370
    18
100
AcDbHatch
 10
0.0
 20
0.0
 30
0.0
210
0.0
220
0.0
230
1.0
  2
DIN 128 Elastomer-Gummi
 70
     0
 71
     0
 91
        1
 92
        0
 93
       76
 72
     4
 94
        3
 73
     1
 74
     0
 95
       26
 96
       22
 40
0.0
 40
0.0
 40
0.0
 40
0.0
 40
0.0000218961866652
 40
0.0000218961866652
 40
0.0000218961866652
 40
0.000128120389187
 40
0.000128120389187
 40
0.000128120389187
 40
0.0002343445917088
 40
0.0002343445917088
 40
0.0002343445917088
 40
0.0003405687942307
 40
0.0003405687942307
 40
0.0003405687942307
 40
0.0004467929967525
 40
0.0004467929967525
 40
0.0004467929967525
 40
0.0005530171992715
 40
0.0005530171992715
 40
0.0005530171992715
 40
0.0006592414017906
 40
0.0006592414017906
 40
0.0006592414017906
 40
0.0006592414017906
 10
44.48425227406508
 20
242.3587992994833
 42
1.0
 10
44.47793138943199
 20
242.3551499350397
 42
1.0
 10
44.47173480754285
 20
242.3512762967093
 42
1.0
 10
44.46568538817093
 20
242.3471926747081
 42
1.0
 10
44.43673677346195
 20
242.3276510968039
 42
1.0
 10
44.41076282157768
 20
242.3028420076794
 42
1.0
 10
44.38991444676681
 20
242.2748198587914
 42
1.0
 10
44.36906607195593
 20
242.2467977099035
 42
1.0
 10
44.35276825029999
 20
242.2147896157873
 42
1.0
 10
44.34237061149638
 20
242.1814461806334
 42
1.0
 10
44.33197297269278
 20
242.1481027454795
 42
1.0
 10
44.32718873702553
 20
242.1125043161777
 42
1.0
 10
44.32841408913031
 20
242.0775988141361
 42
1.0
 10
44.32963944123509
 20
242.0426933120946
 42
1.0
 10
44.33690817783592
 20
242.0075180004698
 42
1.0
 10
44.34961837169452
 20
241.974985762111
 42
1.0
 10
44.36232856555279
 20
241.9424535237531
 42
1.0
 10
44.38083077950823
 20
241.9116670793602
 42
1.0
 10
44.40359283717873
 20
241.885175867778
 42
1.0
 10
44.42635489484924
 20
241.8586846561957
 42
1.0
 10
44.45400460188932
 20
241.8357580171004
 42
1.0
 10
44.48425227403734
 20
241.8182945154437
 42
1.0
 72
     1
 10
44.48425227403686
 20
241.8182945154428
 11
44.7616953570092
 21
241.6581126767845
 72
     2
 10
44.60566506576165
 20
241.3878602847568
 40
0.3120605825532921
 50
299.9999999938333
 51
360.0000000001104
 73
     0
 72
     1
 10
44.91772564831476
 20
241.3878602847562
 11
44.91772564831434
 21
239.2623758770006
 72
     2
 10
44.60566506576105
 20
239.2623758770013
 40
0.3120605825532921
 50
0.0000000001148039
 51
60.00000000043897
 73
     0
 72
     1
 10
44.76169535703618
 20
238.9921234849882
 11
44.48425227401022
 21
238.831941646299
 72
     4
 94
        3
 73
     1
 74
     0
 95
       26
 96
       22
 40
0.0
 40
0.0
 40
0.0
 40
0.0
 40
0.0000218961866027
 40
0.0000218961866027
 40
0.0000218961866027
 40
0.0001281203891249
 40
0.0001281203891249
 40
0.0001281203891249
 40
0.0002343445916471
 40
0.0002343445916471
 40
0.0002343445916471
 40
0.0003405687941692
 40
0.0003405687941692
 40
0.0003405687941692
 40
0.0004467929966914
 40
0.0004467929966914
 40
0.0004467929966914
 40
0.0005530171992109
 40
0.0005530171992109
 40
0.0005530171992109
 40
0.0006592414017303
 40
0.0006592414017303
 40
0.0006592414017303
 40
0.0006592414017303
 10
44.48425227401022
 20
238.831941646299
 42
1.0
 10
44.47793138939592
 20
238.8282922818646
 42
1.0
 10
44.4717348075249
 20
238.8244186435446
 42
1.0
 10
44.46568538817026
 20
238.8203350215551
 42
1.0
 10
44.43673677346128
 20
238.8007934436509
 42
1.0
 10
44.41076282157704
 20
238.7759843545263
 42
1.0
 10
44.38991444676617
 20
238.7479622056384
 42
1.0
 10
44.3690660719553
 20
238.7199400567504
 42
1.0
 10
44.35276825029936
 20
238.6879319626343
 42
1.0
 10
44.34237061149577
 20
238.6545885274804
 42
1.0
 10
44.33197297269218
 20
238.6212450923265
 42
1.0
 10
44.32718873702492
 20
238.5856466630246
 42
1.0
 10
44.32841408912972
 20
238.5507411609831
 42
1.0
 10
44.32963944123451
 20
238.5158356589415
 42
1.0
 10
44.33690817783535
 20
238.4806603473167
 42
1.0
 10
44.34961837169395
 20
238.448128108958
 42
1.0
 10
44.36232856555223
 20
238.4155958706
 42
1.0
 10
44.38083077950768
 20
238.3848094262072
 42
1.0
 10
44.40359283717819
 20
238.3583182146249
 42
1.0
 10
44.42635489484871
 20
238.3318270030427
 42
1.0
 10
44.45400460188879
 20
238.3089003639474
 42
1.0
 10
44.48425227403682
 20
238.2914368622906
 42
1.0
 72
     1
 10
44.48425227403556
 20
238.2914368622884
 11
45.62884156454464
 21
237.6306079272166
 72
     1
 10
45.62884156454464
 20
237.6306079272166
 11
48.14798984704008
 21
236.5687751712953
 72
     2
 10
48.89693524516825
 20
237.8659866529476
 40
1.4978907962558
 50
239.9999999999886
 51
263.999999999989
 73
     1
 72
     1
 10
48.7403630220924
 20
236.3763014591991
 11
49.39536264839384
 21
236.3074582243117
 72
     2
 10
49.59107792724336
 20
238.169564716495
 40
1.87236349531975
 50
263.9999999998378
 51
278.7114973819749
 73
     1
 72
     1
 10
49.87466455842753
 20
236.3188017167581
 11
52.7713451348498
 21
236.7626510299028
 72
     2
 10
52.71833442344334
 20
237.1086132597432
 40
0.35
 50
278.7114973805217
 51
360.0000000000008
 73
     1
 72
     1
 10
53.06833442344345
 20
237.1086132597432
 11
53.06833442344332
 21
237.9166542693245
 72
     2
 10
53.31798288948595
 20
237.9166542693245
 40
0.249648466042634
 50
180.0
 51
208.0000000010657
 73
     0
 72
     1
 10
53.09755637733238
 20
238.03385712483
 11
54.548740832703
 21
240.7631381361904
 72
     2
 10
55.09980711312895
 20
240.4701309974614
 40
0.624121165134352
 50
207.9999999964292
 51
256.2315424171029
 73
     0
 72
     2
 10
54.86214297791015
 20
241.4400307162377
 40
0.374472699041373
 50
283.7684576275831
 51
460.9999999915841
 73
     1
 72
     1
 10
54.79069021846444
 20
241.8076232970845
 11
54.19048494352508
 21
241.6909552102353
 72
     2
 10
54.07139701100964
 20
242.3036095116956
 40
0.624121165134352
 50
78.9999999997278
 51
180.0
 73
     0
 72
     1
 10
53.44727584590316
 20
242.3036095116956
 11
53.44727584597742
 21
244.6714253099456
 72
     2
 10
53.69692431202006
 20
244.6714253099456
 40
0.249648466042634
 50
180.0
 51
226.0610789797348
 73
     0
 72
     1
 10
53.5236954536189
 20
244.8511921568661
 11
53.7396801210764
 21
245.0593216202854
 72
     2
 10
53.52314404799395
 20
245.2840301787322
 40
0.312060582556037
 50
313.9389210569494
 51
375.0000000174777
 73
     1
 72
     1
 10
53.82457142402723
 20
245.3647974008155
 11
53.75713488155922
 21
245.616474003555
 72
     4
 94
        3
 73
     1
 74
     0
 95
       11
 96
        7
 40
0.0
 40
0.0
 40
0.0
 40
0.0
 40
0.0000628686059652
 40
0.0000628686059652
 40
0.0000628686059652
 40
0.0000963695548553
 40
0.0000963695548553
 40
0.0000963695548553
 40
0.0000963695548553
 10
53.75713488155922
 20
245.616474003555
 42
1.0
 10
53.75171101737727
 20
245.6367161402781
 42
1.0
 10
53.74970718936036
 20
245.6581738666707
 42
1.0
 10
53.75128933537778
 20
245.6790702590808
 42
1.0
 10
53.75214105603604
 20
245.6903194667411
 42
1.0
 10
53.75402123992584
 20
245.7015367277701
 42
1.0
 10
53.75688409400295
 20
245.7124488388214
 42
1.0
 72
     1
 10
53.75688409400256
 20
245.7124488388215
 11
53.95152791828878
 21
246.4543570783246
 72
     2
 10
54.13263513149396
 20
246.4068425762091
 40
0.187236349532424
 50
194.7005665774169
 51
283.583100403404
 73
     0
 72
     1
 10
54.17660860290211
 20
246.588841983883
 11
54.64266207670318
 21
246.4762372818778
 72
     2
 10
54.70129337183326
 20
246.7189031588178
 40
0.249648466047037
 50
256.416899616853
 51
374.0976954825979
 73
     1
 72
     1
 10
54.94342287870625
 20
246.7797115340738
 11
54.71014788348928
 21
247.7085763381206
 72
     4
 94
        3
 73
     1
 74
     0
 95
       20
 96
       16
 40
0.0
 40
0.0
 40
0.0
 40
0.0
 40
0.0001047810099418
 40
0.0001047810099418
 40
0.0001047810099418
 40
0.0002095620198836
 40
0.0002095620198836
 40
0.0002095620198836
 40
0.0003143430298281
 40
0.0003143430298281
 40
0.0003143430298281
 40
0.0004191240397726
 40
0.0004191240397726
 40
0.0004191240397726
 40
0.0004327468916934
 40
0.0004327468916934
 40
0.0004327468916934
 40
0.0004327468916934
 10
54.71014788348928
 20
247.7085763381206
 42
1.0
 10
54.70164050366676
 20
247.7424514034201
 42
1.0
 10
54.69886438154324
 20
247.7782624383894
 42
1.0
 10
54.70204940899881
 20
247.8130439156524
 42
1.0
 10
54.70523443645438
 20
247.8478253929154
 42
1.0
 10
54.71446846047874
 20
247.8825366285593
 42
1.0
 10
54.72898680752763
 20
247.9143031700685
 42
1.0
 10
54.7435051545769
 20
247.9460697115786
 42
1.0
 10
54.76370825858819
 20
247.9757677193903
 42
1.0
 10
54.78792309173426
 20
248.0009378885646
 42
1.0
 10
54.81213792488034
 20
248.0261080577388
 42
1.0
 10
54.84103236215705
 20
248.0474446126186
 42
1.0
 10
54.8722136426506
 20
248.0631806638175
 42
1.0
 10
54.87632496290578
 20
248.0652554966983
 42
1.0
 10
54.88048324128619
 20
248.0672397845526
 42
1.0
 10
54.88468236728394
 20
248.0691306115089
 42
1.0
 72
     1
 10
54.88468236727406
 20
248.0691306115344
 11
56.07207542119232
 21
248.603802540025
 72
     1
 10
56.07207542119232
 20
248.603802540025
 11
56.44654812030742
 21
248.7724240756313
 72
     2
 10
56.31842072047655
 20
249.056967879985
 40
0.312060582553295
 50
294.2415900002152
 51
414.9999999881866
 73
     1
 72
     1
 10
56.49741131735981
 20
249.3125929440372
 11
55.5541903685551
 21
249.9730433626651
 72
     2
 10
55.26780541356325
 20
249.5640432600439
 40
0.499296932085268
 50
54.99999999924745
 51
90.31559352716158
 73
     1
 72
     1
 10
55.26505522699733
 20
250.063332617884
 11
50.9196694320545
 21
250.0393973558187
 72
     2
 10
50.92310716566325
 20
249.4152856589674
 40
0.624121165134352
 50
90.3155935642337
 51
180.0
 73
     1
 72
     1
 10
50.2989860005289
 20
249.4152856589674
 11
50.29898600049356
 21
249.128641623714
 72
     4
 94
        3
 73
     1
 74
     0
 95
       38
 96
       34
 40
0.0000000000000104
 40
0.0000000000000104
 40
0.0000000000000104
 40
0.0000000000000104
 40
0.0002933868278444
 40
0.0002933868278444
 40
0.0002933868278444
 40
0.0005867736556888
 40
0.0005867736556888
 40
0.0005867736556888
 40
0.0008801604835332
 40
0.0008801604835332
 40
0.0008801604835332
 40
0.0011735473113775
 40
0.0011735473113775
 40
0.0011735473113775
 40
0.0014669341392219
 40
0.0014669341392219
 40
0.0014669341392219
 40
0.0017603209670663
 40
0.0017603209670663
 40
0.0017603209670663
 40
0.0020537077949107
 40
0.0020537077949107
 40
0.0020537077949107
 40
0.0023470946227551
 40
0.0023470946227551
 40
0.0023470946227551
 40
0.0026404814505995
 40
0.0026404814505995
 40
0.0026404814505995
 40
0.0029338682784439
 40
0.0029338682784439
 40
0.0029338682784439
 40
0.0031217389533841
 40
0.0031217389533841
 40
0.0031217389533841
 40
0.0031217389533841
 10
50.29898600043137
 20
249.128641623714
 42
1.0
 10
50.29898600038861
 20
249.0308460144325
 42
1.0
 10
50.2821014449361
 20
248.9317017433331
 42
1.0
 10
50.24973055145202
 20
248.839418990612
 42
1.0
 10
50.21735965796793
 20
248.7471362378909
 42
1.0
 10
50.16860959724216
 20
248.6591697312881
 42
1.0
 10
50.10751738299928
 20
248.582804015462
 42
1.0
 10
50.04642516875639
 20
248.5064382996359
 42
1.0
 10
49.97130580229796
 20
248.4395671138564
 42
1.0
 10
49.88837995102131
 20
248.3877280900927
 42
1.0
 10
49.80545409974467
 20
248.335889066329
 42
1.0
 10
49.71243456628431
 20
248.2976524203008
 42
1.0
 10
49.61702433864978
 20
248.2761845452904
 42
1.0
 10
49.52161411101526
 20
248.2547166702801
 42
1.0
 10
49.42118165732683
 20
248.2494254557888
 42
1.0
 10
49.32404383274117
 20
248.2607490695891
 42
1.0
 10
49.2269060081555
 20
248.2720726833894
 42
1.0
 10
49.13038363153593
 20
248.300323444731
 42
1.0
 10
49.042469762857
 20
248.3431618957842
 42
1.0
 10
48.95455589417809
 20
248.3860003468374
 42
1.0
 10
48.87282576039571
 20
248.4446080249742
 42
1.0
 10
48.80404746942362
 20
248.5141316028862
 42
1.0
 10
48.7352691784515
 20
248.5836551807983
 42
1.0
 10
48.67754574010513
 20
248.666012204604
 42
1.0
 10
48.63565725741138
 20
248.7543826533544
 42
1.0
 10
48.59376877471763
 20
248.8427531021049
 42
1.0
 10
48.56655991160473
 20
248.9395743418861
 42
1.0
 10
48.5562838458571
 20
249.0368285637352
 42
1.0
 10
48.54600778010946
 20
249.1340827855844
 42
1.0
 10
48.55238108514609
 20
249.2344523810184
 42
1.0
 10
48.57487598480586
 20
249.3296257001999
 42
1.0
 10
48.58940190142663
 20
249.3910831736655
 42
1.0
 10
48.61075362269609
 20
249.4513052663623
 42
1.0
 10
48.63818488409309
 20
249.5081871544869
 42
1.0
 72
     1
 10
48.63818488409309
 20
249.5081871544869
 11
49.21006160846309
 21
250.694039579784
 72
     2
 10
49.04141200449265
 20
250.7753707648684
 40
0.187236349531975
 50
334.2543347227788
 51
390.0000000120252
 73
     1
 72
     1
 10
49.20356343967955
 20
250.8689889396684
 11
49.05563770797229
 21
251.1252038226072
 72
     4
 94
        3
 73
     1
 74
     0
 95
       11
 96
        7
 40
0.0000000000000002
 40
0.0000000000000002
 40
0.0000000000000002
 40
0.0000000000000002
 40
0.0000628686059651
 40
0.0000628686059651
 40
0.0000628686059651
 40
0.0001036460194941
 40
0.0001036460194941
 40
0.0001036460194941
 40
0.0001036460194941
 10
49.0556377079733
 20
251.1252038226078
 42
1.0
 10
49.04515960697531
 20
251.1433524258944
 42
1.0
 10
49.03767038947743
 20
251.1635603691328
 42
1.0
 10
49.03379024083684
 20
251.1841542237575
 42
1.0
 10
49.03125272336993
 20
251.1976220752915
 42
1.0
 10
49.03019660427441
 20
251.2114523325382
 42
1.0
 10
49.03065973460813
 20
251.2251493223582
 42
1.0
 72
     1
 10
49.03065973460813
 20
251.2251493223582
 11
49.1248625828694
 21
254.0111802940148
 72
     2
 10
48.75060376578776
 20
254.0238349439145
 40
0.374472699041373
 50
358.0634206337408
 51
470.9858190599669
 73
     1
 72
     1
 10
48.61649128410718
 20
254.3734685300941
 11
47.91462207116903
 21
254.1042454757803
 72
     2
 10
48.45107199792385
 20
252.7057111309765
 40
1.4978907962558
 50
110.9858190599553
 51
120.0000806426156
 73
     1
 72
     1
 10
47.70212477399856
 20
254.0029215585026
 11
45.62884156437738
 21
253.1985091216829
 72
     1
 10
45.62884156437738
 20
253.1985091216829
 11
44.48425227395553
 21
252.5376801864241
 72
     4
 94
        3
 73
     1
 74
     0
 95
       26
 96
       22
 40
0.0
 40
0.0
 40
0.0
 40
0.0
 40
0.0000218961865476
 40
0.0000218961865476
 40
0.0000218961865476
 40
0.0001281203890701
 40
0.0001281203890701
 40
0.0001281203890701
 40
0.0002343445915926
 40
0.0002343445915926
 40
0.0002343445915926
 40
0.0003405687941152
 40
0.0003405687941152
 40
0.0003405687941152
 40
0.0004467929966377
 40
0.0004467929966377
 40
0.0004467929966377
 40
0.0005530171991574
 40
0.0005530171991574
 40
0.0005530171991574
 40
0.0006592414016772
 40
0.0006592414016772
 40
0.0006592414016772
 40
0.0006592414016772
 10
44.48425227395666
 20
252.5376801864221
 42
1.0
 10
44.47793138935868
 20
252.5340308219962
 42
1.0
 10
44.47173480750341
 20
252.5301571836858
 42
1.0
 10
44.46568538816374
 20
252.5260735617068
 42
1.0
 10
44.43673677345361
 20
252.5065319838044
 42
1.0
 10
44.41076282156786
 20
252.4817228946814
 42
1.0
 10
44.38991444675533
 20
252.4537007457947
 42
1.0
 10
44.3690660719428
 20
252.4256785969079
 42
1.0
 10
44.35276825028496
 20
252.3936705027928
 42
1.0
 10
44.34237061147939
 20
252.3603270676395
 42
1.0
 10
44.33197297267381
 20
252.3269836324862
 42
1.0
 10
44.32718873700443
 20
252.2913852031847
 42
1.0
 10
44.32841408910715
 20
252.256479701143
 42
1.0
 10
44.32963944120986
 20
252.2215741991014
 42
1.0
 10
44.33690817780861
 20
252.1863988874761
 42
1.0
 10
44.34961837166527
 20
252.1538666491167
 42
1.0
 10
44.36232856552162
 20
252.121334410758
 42
1.0
 10
44.38083077947525
 20
252.090547966364
 42
1.0
 10
44.40359283714418
 20
252.0640567547804
 42
1.0
 10
44.42635489481312
 20
252.0375655431968
 42
1.0
 10
44.45400460185182
 20
252.0146389040999
 42
1.0
 10
44.48425227399881
 20
251.9971754024413
 42
1.0
 72
     1
 10
44.48425227399881
 20
251.9971754024413
 11
44.76169535703015
 21
251.8369935637488
 72
     2
 10
44.60566506573886
 20
251.5667411717462
 40
0.3120605825532921
 50
300.0000000030886
 51
360.0000000002043
 73
     0
 72
     1
 10
44.91772564829215
 20
251.5667411717451
 11
44.91772564837004
 21
251.1049419300682
 72
     2
 10
44.60566506589466
 20
251.1049419300693
 40
0.3120605825532921
 50
0.000000000203516
 51
59.99999999949743
 73
     0
 72
     1
 10
44.76169535717367
 20
250.8346895380598
 11
44.48425227371337
 21
250.6745076990623
 72
     4
 94
        3
 73
     1
 74
     0
 95
       26
 96
       22
 40
0.0
 40
0.0
 40
0.0
 40
0.0
 40
0.000021896186666
 40
0.000021896186666
 40
0.000021896186666
 40
0.0001281203891878
 40
0.0001281203891878
 40
0.0001281203891878
 40
0.0002343445917096
 40
0.0002343445917096
 40
0.0002343445917096
 40
0.0003405687942314
 40
0.0003405687942314
 40
0.0003405687942314
 40
0.0004467929967532
 40
0.0004467929967532
 40
0.0004467929967532
 40
0.0005530171992723
 40
0.0005530171992723
 40
0.0005530171992723
 40
0.0006592414017913
 40
0.0006592414017913
 40
0.0006592414017913
 40
0.0006592414017913
 10
44.48425227371372
 20
250.6745076990617
 42
1.0
 10
44.47793138908164
 20
250.6708583346159
 42
1.0
 10
44.47173480719361
 20
250.6669846962833
 42
1.0
 10
44.46568538782286
 20
250.6629010742799
 42
1.0
 10
44.4367367731205
 20
250.6433594963659
 42
1.0
 10
44.41076282124465
 20
250.6185504072325
 42
1.0
 10
44.38991444644327
 20
250.5905282583375
 42
1.0
 10
44.3690660716419
 20
250.5625061094425
 42
1.0
 10
44.35276824999681
 20
250.5304980153208
 42
1.0
 10
44.34237061120451
 20
250.4971545801634
 42
1.0
 10
44.3319729724122
 20
250.463811145006
 42
1.0
 10
44.32718873675699
 20
250.4282127157025
 42
1.0
 10
44.32841408887361
 20
250.3933072136614
 42
1.0
 10
44.32963944099023
 20
250.3584017116203
 42
1.0
 10
44.33690817760298
 20
250.3232263999979
 42
1.0
 10
44.34961837147259
 20
250.2906941616434
 42
1.0
 10
44.36232856534189
 20
250.2581619232898
 42
1.0
 10
44.38083077930776
 20
250.2273754789032
 42
1.0
 10
44.40359283698727
 20
250.2008842673287
 42
1.0
 10
44.42635489466676
 20
250.1743930557542
 42
1.0
 10
44.4540046017146
 20
250.1514664166683
 42
1.0
 10
44.48425227386854
 20
250.1340029150217
 42
1.0
 72
     1
 10
44.48425227386854
 20
250.1340029150217
 11
44.76169535684052
 21
249.9738210763635
 72
     2
 10
44.60566506568436
 20
249.703568684283
 40
0.3120605825532921
 50
299.9999999744527
 51
359.9999999806928
 73
     0
 72
     1
 10
44.91772564823765
 20
249.7035686843882
 11
44.91772564823646
 21
248.3800919186925
 72
     2
 10
44.60566506568146
 20
248.3800919185874
 40
0.3120605825532921
 50
359.9999999806928
 51
419.9999999799039
 73
     0
 72
     1
 10
44.76169535705289
 20
248.1098395266312
 11
44.48425227404647
 21
247.9496576878958
 72
     4
 94
        3
 73
     1
 74
     0
 95
       26
 96
       22
 40
0.0
 40
0.0
 40
0.0
 40
0.0
 40
0.0000218961866022
 40
0.0000218961866022
 40
0.0000218961866022
 40
0.0001281203891244
 40
0.0001281203891244
 40
0.0001281203891244
 40
0.0002343445916466
 40
0.0002343445916466
 40
0.0002343445916466
 40
0.0003405687941688
 40
0.0003405687941688
 40
0.0003405687941688
 40
0.000446792996691
 40
0.000446792996691
 40
0.000446792996691
 40
0.0005530171992104
 40
0.0005530171992104
 40
0.0005530171992104
 40
0.0006592414017299
 40
0.0006592414017299
 40
0.0006592414017299
 40
0.0006592414017299
 10
44.48425227404675
 20
247.9496576878953
 42
1.0
 10
44.47793138943382
 20
247.9460083234588
 42
1.0
 10
44.47173480756425
 20
247.9421346851369
 42
1.0
 10
44.46568538821111
 20
247.9380510631453
 42
1.0
 10
44.43673677350873
 20
247.9185094852314
 42
1.0
 10
44.41076282163285
 20
247.893700396098
 42
1.0
 10
44.38991444683145
 20
247.8656782472031
 42
1.0
 10
44.36906607203004
 20
247.8376560983081
 42
1.0
 10
44.35276825038492
 20
247.8056480041864
 42
1.0
 10
44.34237061159259
 20
247.772304569029
 42
1.0
 10
44.33197297280025
 20
247.7389611338716
 42
1.0
 10
44.32718873714503
 20
247.7033627045681
 42
1.0
 10
44.32841408926162
 20
247.668457202527
 42
1.0
 10
44.32963944137821
 20
247.6335517004859
 42
1.0
 10
44.33690817799092
 20
247.5983763888635
 42
1.0
 10
44.34961837186051
 20
247.565844150509
 42
1.0
 10
44.36232856572978
 20
247.5333119121554
 42
1.0
 10
44.38083077969562
 20
247.5025254677688
 42
1.0
 10
44.40359283737509
 20
247.4760342561943
 42
1.0
 10
44.42635489505456
 20
247.4495430446197
 42
1.0
 10
44.45400460210239
 20
247.4266164055337
 42
1.0
 10
44.48425227425631
 20
247.4091529038872
 42
1.0
 72
     1
 10
44.48425227425631
 20
247.4091529038872
 11
44.76169535728254
 21
247.2489710651976
 72
     2
 10
44.60566506607226
 20
246.9787186731484
 40
0.3120605825532921
 50
299.9999999859313
 51
359.9999999806928
 73
     0
 72
     1
 10
44.91772564862555
 20
246.9787186732535
 11
44.91772564873376
 21
246.3361202008353
 72
     2
 10
44.60566506628886
 20
246.3361202007301
 40
0.3120605825532921
 50
359.9999999806877
 51
384.9999999793822
 73
     0
 72
     1
 10
44.88848800233157
 20
246.2042376998754
 11
44.06461305402672
 21
244.4374321714296
 72
     4
 94
        3
 73
     1
 74
     0
 95
       29
 96
       25
 40
0.0
 40
0.0
 40
0.0
 40
0.0
 40
0.0000319186490061
 40
0.0000319186490061
 40
0.0000319186490061
 40
0.0000740855733468
 40
0.0000740855733468
 40
0.0000740855733468
 40
0.0001162524976874
 40
0.0001162524976874
 40
0.0001162524976874
 40
0.0001584194220281
 40
0.0001584194220281
 40
0.0001584194220281
 40
0.0002005863463687
 40
0.0002005863463687
 40
0.0002005863463687
 40
0.0002427532707093
 40
0.0002427532707093
 40
0.0002427532707093
 40
0.0002849201950489
 40
0.0002849201950489
 40
0.0002849201950489
 40
0.0003270871193884
 40
0.0003270871193884
 40
0.0003270871193884
 40
0.0003270871193884
 10
44.064613054289
 20
244.4374321713073
 42
1.0
 10
44.06011658632231
 20
244.4277894645826
 42
1.0
 10
44.05683691992783
 20
244.417484589216
 42
1.0
 10
44.05493294535528
 20
244.4070167862956
 42
1.0
 10
44.05243283479517
 20
244.3932715057652
 42
1.0
 10
44.05227138901498
 20
244.3789050215748
 42
1.0
 10
44.05446197740998
 20
244.3651070285267
 42
1.0
 10
44.05665256580497
 20
244.3513090354785
 42
1.0
 10
44.06125560750779
 20
244.3376989678882
 42
1.0
 10
44.06788992263366
 20
244.3254038813702
 42
1.0
 10
44.07452423775953
 20
244.3131087948523
 42
1.0
 10
44.08337280891092
 20
244.3017895757401
 42
1.0
 10
44.09370288206352
 20
244.2923835734897
 42
1.0
 10
44.10403295521613
 20
244.2829775712393
 42
1.0
 10
44.11612944654189
 20
244.2752253566952
 42
1.0
 10
44.12899064033473
 20
244.2697688941144
 42
1.0
 10
44.14185183412759
 20
244.2643124315336
 42
1.0
 10
44.15583245799182
 20
244.2610012249411
 42
1.0
 10
44.16977477038668
 20
244.2601094767944
 42
1.0
 10
44.18371708278118
 20
244.2592177286478
 42
1.0
 10
44.19800562989649
 20
244.260720843432
 42
1.0
 10
44.21145717093357
 20
244.2644943475583
 42
1.0
 10
44.22490871197064
 20
244.2682678516845
 42
1.0
 10
44.23789425703968
 20
244.2744158230557
 42
1.0
 10
44.24933846750761
 20
244.2824291454896
 42
1.0
 72
     1
 10
44.24933846750761
 20
244.2824291454896
 11
44.72130517654939
 21
244.612903793098
 72
     2
 10
44.79290141526925
 20
244.5106537674397
 40
0.124824233021317
 50
235.0000000106078
 51
360.0000000000008
 73
     0
 72
     1
 10
44.91772564829056
 20
244.5106537674397
 11
44.91772564831535
 21
242.7892335301536
 72
     2
 10
44.60566506576195
 20
242.7892335301542
 40
0.3120605825532921
 50
0.0000000001095855
 51
60.0000000004549
 73
     0
 72
     1
 10
44.76169535703646
 20
242.5189811381421
 11
44.48425227403564
 21
242.3587992995342
 97
        0
 75
     0
 76
     2
 52
0.0
 41
0.125
 77
     0
 78
     3
 53
45.00000209717174
 43
0.8418990000000001
 44
0.8418990000000001
 45
0.5612659459355175
 46
1.683798043244233
 79
     2
 49
0.79375
 49
-1.5875
 53
45.00000209717174
 43
1.96443125
 44
0.8418990000000001
 45
0.5612659459355175
 46
1.683798043244233
 79
     2
 49
0.79375
 49
-1.5875
 53
134.9999719140475
 43
0.0
 44
0.0
 45
-0.5612662826950551
 46
-0.5612657324384541
 79
     0
 98
        1
 10
0.0
 20
0.0
  0
HATCH
  5
29D
330
1F
100
AcDbEntity
  8
0
  6
Continuous
 62
     7
370
    18
100
AcDbHatch
 10
0.0
 20
0.0
 30
0.0
210
0.0
220
0.0
230
1.0
  2
DIN 128 Elastomer-Gummi
 70
     0
 71
     0
 91
        1
 92
        0
 93
       76
 72
     2
 10
224.2161614002047
 20
242.0885469074554
 40
0.3120605825532921
 50
299.9999999996759
 51
420.0000000062082
 73
     1
 72
     1
 10
224.3721916914815
 20
242.3587992995342
 11
224.0947486084807
 21
242.5189811381421
 72
     2
 10
224.2507788997551
 20
242.7892335301542
 40
0.3120605825532921
 50
119.9999999995406
 51
179.9999999998904
 73
     0
 72
     1
 10
223.9387183172017
 20
242.7892335301536
 11
223.9387183172266
 21
244.5106537674397
 72
     2
 10
224.0635425502479
 20
244.5106537674397
 40
0.124824233021317
 50
180.0
 51
304.9999999893992
 73
     0
 72
     1
 10
224.1351387889677
 20
244.612903793098
 11
224.6071054980095
 21
244.2824291454896
 72
     2
 10
224.6787017367252
 20
244.3846791711614
 40
0.124824233016324
 50
235.0000000157384
 51
384.9999998812218
 73
     1
 72
     1
 10
224.7918309114904
 20
244.4374321714296
 11
223.9679559631855
 21
246.2042376998754
 72
     2
 10
224.2507788992282
 20
246.3361202007301
 40
0.3120605825532921
 50
155.0000000206198
 51
180.0000000193139
 73
     0
 72
     1
 10
223.9387183167834
 20
246.3361202008353
 11
223.9387183168915
 21
246.9787186732535
 72
     2
 10
224.2507788994448
 20
246.9787186731484
 40
0.3120605825532921
 50
180.0000000193087
 51
240.0000000140761
 73
     0
 72
     1
 10
224.0947486082346
 20
247.2489710651976
 11
224.3721916912608
 21
247.4091529038872
 72
     2
 10
224.2161614000771
 20
247.6794052959517
 40
0.3120605825532921
 50
299.9999999803047
 51
419.9999999752633
 73
     1
 72
     1
 10
224.3721916914706
 20
247.9496576878958
 11
224.0947486084642
 21
248.1098395266312
 72
     2
 10
224.2507788998356
 20
248.3800919185874
 40
0.3120605825532921
 50
120.0000000200912
 51
180.0000000193087
 73
     0
 72
     1
 10
223.9387183172807
 20
248.3800919186925
 11
223.9387183172795
 21
249.7035686843882
 72
     2
 10
224.2507788998327
 20
249.703568684283
 40
0.3120605825532921
 50
180.0000000193087
 51
240.0000000255489
 73
     0
 72
     1
 10
224.0947486086766
 20
249.9738210763635
 11
224.3721916916486
 21
250.1340029150217
 72
     2
 10
224.2161614004651
 20
250.4042553070864
 40
0.3120605825532921
 50
299.9999999802536
 51
419.9999999869291
 73
     1
 72
     1
 10
224.3721916918037
 20
250.6745076990623
 11
224.0947486083435
 21
250.8346895380598
 72
     2
 10
224.2507788996225
 20
251.1049419300693
 40
0.3120605825532921
 50
120.0000000005037
 51
179.9999999997965
 73
     0
 72
     1
 10
223.9387183171471
 20
251.1049419300682
 11
223.938718317225
 21
251.5667411717451
 72
     2
 10
224.2507788997782
 20
251.5667411717462
 40
0.3120605825532921
 50
179.9999999997965
 51
239.9999999969153
 73
     0
 72
     1
 10
224.094748608487
 20
251.8369935637488
 11
224.3721916915183
 21
251.9971754024413
 72
     2
 10
224.2161614002272
 20
252.2674277944438
 40
0.3120605825532921
 50
300.0000000030715
 51
419.9999999879972
 73
     1
 72
     1
 10
224.3721916915616
 20
252.5376801864241
 11
223.2276024011397
 21
253.1985091216829
 72
     1
 10
223.2276024011397
 20
253.1985091216829
 11
221.1543191915186
 21
254.0029215585026
 72
     2
 10
220.4053719675933
 20
252.7057111309765
 40
1.4978907962558
 50
59.99991935738392
 51
69.01418094004494
 73
     1
 72
     1
 10
220.9418218943481
 20
254.1042454757803
 11
220.2399526814099
 21
254.3734685300941
 72
     2
 10
220.1058401997293
 20
254.0238349439145
 40
0.374472699041373
 50
69.01418094003091
 51
181.9365793662609
 73
     1
 72
     1
 10
219.7315813826477
 20
254.0111802940148
 11
219.825784230909
 21
251.2251493223582
 72
     2
 10
219.638654822357
 20
251.2188219974079
 40
0.187236349531975
 50
358.0634206337264
 51
390.0000000120581
 73
     0
 72
     1
 10
219.8008062575448
 20
251.1252038226072
 11
219.6528805258376
 21
250.8689889396684
 72
     2
 10
219.8150319610245
 20
250.7753707648684
 40
0.187236349531975
 50
149.99999998798
 51
205.745665277219
 73
     1
 72
     1
 10
219.646382357054
 20
250.694039579784
 11
220.218259081424
 21
249.5081871544869
 72
     2
 10
219.4312275962349
 20
249.128641624096
 40
0.8737696311492191
 50
334.2543347227625
 51
539.9999999749526
 73
     0
 72
     1
 10
218.5574579650236
 20
249.128641623714
 11
218.5574579649882
 21
249.4152856589674
 72
     2
 10
217.9333367998539
 20
249.4152856589674
 40
0.624121165134352
 50
0.0
 51
89.68440643576763
 73
     1
 72
     1
 10
217.9367745334626
 20
250.0393973558187
 11
213.5913887385198
 21
250.063332617884
 72
     2
 10
213.5886385519539
 20
249.5640432600439
 40
0.499296932085268
 50
89.68440647283109
 51
125.0000000007526
 73
     1
 72
     1
 10
213.302253596962
 20
249.9730433626651
 11
212.3590326481573
 21
249.3125929440372
 72
     2
 10
212.5380232450406
 20
249.056967879985
 40
0.312060582553295
 50
125.0000000118153
 51
245.7584099997864
 73
     1
 72
     1
 10
212.4098958452097
 20
248.7724240756313
 11
212.7843685443248
 21
248.603802540025
 72
     1
 10
212.7843685443248
 20
248.603802540025
 11
213.9717615982431
 21
248.0691306115344
 72
     2
 10
213.8436341984307
 20
247.7845868071424
 40
0.3120605825532921
 50
294.2415899942384
 51
374.0976954737534
 73
     0
 72
     1
 10
214.1462960820278
 20
247.7085763381206
 11
213.9130210868109
 21
246.7797115340738
 72
     2
 10
214.1551505936838
 20
246.7189031588178
 40
0.249648466047037
 50
165.9023045174002
 51
283.5831003831566
 73
     1
 72
     1
 10
214.2137818888139
 20
246.4762372818778
 11
214.679835362615
 21
246.588841983883
 72
     2
 10
214.7238088340231
 20
246.4068425762091
 40
0.187236349532424
 50
256.4168995965975
 51
345.2994334225858
 73
     0
 72
     1
 10
214.9049160472283
 20
246.4543570783246
 11
215.0995598715145
 21
245.7124488388215
 72
     2
 10
214.9184526583109
 20
245.6649343366988
 40
0.187236349532424
 50
345.2994334203489
 51
374.9999999839661
 73
     0
 72
     1
 10
215.0993090839579
 20
245.616474003555
 11
215.0318725414899
 21
245.3647974008155
 72
     2
 10
215.3332999175231
 20
245.2840301787322
 40
0.312060582556037
 50
164.9999999825228
 51
226.061078943057
 73
     1
 72
     1
 10
215.1167638444407
 20
245.0593216202854
 11
215.3327485118982
 21
244.8511921568661
 72
     2
 10
215.1595196534971
 20
244.6714253099456
 40
0.249648466042634
 50
313.9389210202669
 51
360.0000000000008
 73
     0
 72
     1
 10
215.4091681195397
 20
244.6714253099456
 11
215.409168119614
 21
242.3036095116956
 72
     2
 10
214.7850469545075
 20
242.3036095116956
 40
0.624121165134352
 50
0.0
 51
101.0000000002728
 73
     0
 72
     1
 10
214.665959021992
 20
241.6909552102353
 11
214.0657537470527
 21
241.8076232970845
 72
     2
 10
213.994300987607
 20
241.4400307162377
 40
0.374472699041373
 50
79.00000000841882
 51
256.2315423724185
 73
     1
 72
     2
 10
213.7566368523882
 20
240.4701309974614
 40
0.624121165134352
 50
283.7684575828987
 51
332.0000000035721
 73
     0
 72
     1
 10
214.3077031328141
 20
240.7631381361904
 11
215.7588875881847
 21
238.03385712483
 72
     2
 10
215.5384610760311
 20
237.9166542693245
 40
0.249648466042634
 50
331.9999999989398
 51
360.0000000000008
 73
     0
 72
     1
 10
215.7881095420738
 20
237.9166542693245
 11
215.7881095420737
 21
237.1086132597432
 72
     2
 10
216.1381095420738
 20
237.1086132597432
 40
0.35
 50
180.0
 51
261.2885026194765
 73
     1
 72
     1
 10
216.0850988306673
 20
236.7626510299028
 11
218.9817794070896
 21
236.3188017167581
 72
     2
 10
219.2653660382737
 20
238.169564716495
 40
1.87236349531975
 50
261.2885026180267
 51
276.0000000001645
 73
     1
 72
     1
 10
219.4610813171233
 20
236.3074582243117
 11
220.1160809434247
 21
236.3763014591991
 72
     2
 10
219.9595087203489
 20
237.8659866529476
 40
1.4978907962558
 50
276.0000000000135
 51
300.000000000013
 73
     1
 72
     1
 10
220.708454118477
 20
236.5687751712953
 11
223.2276024009725
 21
237.6306079272166
 72
     1
 10
223.2276024009725
 20
237.6306079272166
 11
224.3721916914815
 21
238.2914368622884
 72
     2
 10
224.2161614002053
 20
238.5616892543024
 40
0.3120605825532921
 50
299.9999999996566
 51
419.9999999947048
 73
     1
 72
     1
 10
224.3721916915069
 20
238.831941646299
 11
224.094748608481
 21
238.9921234849882
 72
     2
 10
224.2507788997561
 20
239.2623758770013
 40
0.3120605825532921
 50
119.9999999995565
 51
179.9999999998852
 73
     0
 72
     1
 10
223.9387183172028
 20
239.2623758770006
 11
223.9387183172024
 21
241.3878602847562
 72
     2
 10
224.2507788997555
 20
241.3878602847568
 40
0.3120605825532921
 50
179.9999999998904
 51
240.0000000061672
 73
     0
 72
     1
 10
224.0947486085079
 20
241.6581126767845
 11
224.3721916914803
 21
241.8182945154428
 97
        0
 75
     0
 76
     2
 52
0.0
 41
0.125
 77
     0
 78
     3
 53
45.00000209717174
 43
0.8418990000000001
 44
0.8418990000000001
 45
0.5612659459355175
 46
1.683798043244233
 79
     2
 49
0.79375
 49
-1.5875
 53
45.00000209717174
 43
1.96443125
 44
0.8418990000000001
 45
0.5612659459355175
 46
1.683798043244233
 79
     2
 49
0.79375
 49
-1.5875
 53
134.9999719140475
 43
0.0
 44
0.0
 45
-0.5612662826950551
 46
-0.5612657324384541
 79
     0
 98
        1
 10
0.0
 20
0.0
  0
DIMENSION
  5
29E
330
1F
100
AcDbEntity
  8
0
  6
Continuous
 62
     7
370
    18
100
AcDbDimension
  2
_D_2
 10
234.8035259697
 20
236.2972012212
 30
0.0
 11
234.8035259697
 21
245.3477544321
 31
0.0
 70
   160
  1
<>
 71
     2
 42
-1.0
  3
SLDDIMSTYLE2
100
AcDbAlignedDimension
 13
220.1058401997
 23
254.398307643
 33
0.0
 14
219.2653660383
 24
236.2972012212
 34
0.0
 50
90.0
100
AcDbRotatedDimension
  0
MTEXT
  5
2A9
330
1F
100
AcDbEntity
  8
0
  6
Continuous
 62
     7
370
     0
100
AcDbMText
 10
134.4029068383
 20
271.8420535422
 30
0.0
 40
5.0
 41
0.0
 71
     2
 72
     1
  1
A-A
  7
SLDTEXTSTYLE0
 73
     1
 44
1.0
  0
LINE
  5
2AA
330
1F
100
AcDbEntity
  8
0
  6
Continuous
 62
     7
370
    25
100
AcDbLine
 10
284.4636600408
 20
145.8281420507
 30
0.0
 11
284.9495389807
 21
145.1763657478
 31
0.0
  0
LINE
  5
2AB
330
1F
100
AcDbEntity
  8
0
  6
Continuous
 62
     7
370
    25
100
AcDbLine
 10
390.561370273
 20
145.1763657478
 30
0.0
 11
391.0472492129
 21
145.8281420507
 31
0.0
  0
LWPOLYLINE
  5
2AC
330
1F
100
AcDbEntity
  8
0
  6
Continuous
 62
     7
370
    25
100
AcDbPolyline
 90
      165
 70
   128
 43
0.0
 10
337.7554546268
 20
210.7610259211
 10
335.4879486135
 20
210.7303079448
 10
333.2237704779
 20
210.6381990988
 10
330.9662432137
 20
210.4848345655
 10
328.7186800535
 20
210.2704394285
 10
326.4843796062
 20
209.9953283422
 10
324.2666210157
 20
209.6599050702
 10
322.0686591486
 20
209.2646618922
 10
319.893719817
 20
208.8101788822
 10
317.7449950444
 20
208.2971230567
 10
315.6256383807
 20
207.7262473958
 10
313.5387602739
 20
207.0983897383
 10
311.4874235056
 20
206.4144715519
 10
309.4746386952
 20
205.6754965807
 10
307.5033598821
 20
204.8825493726
 10
305.5764801898
 20
204.0367936869
 10
303.6968275799
 20
203.1394707867
 10
301.8671607017
 20
202.191897617
 10
300.0901648439
 20
201.1954648722
 10
298.3684479928
 20
200.1516349547
 10
296.7045370053
 20
199.0619398289
 10
295.1008739004
 20
197.9279787726
 10
293.5598122746
 20
196.7514160301
 10
292.0836138485
 20
195.5339783694
 10
290.6744451468
 20
194.2774525482
 10
289.3343743189
 20
192.9836826914
 10
288.0653681035
 20
191.6545675846
 10
286.8692889423
 20
190.2920578876
 10
285.7478922464
 20
188.8981532713
 10
284.70282382
 20
187.4748994828
 10
283.7356174452
 20
186.0243853434
 10
282.8476926307
 20
184.5487396826
 10
282.0403525286
 20
183.0501282139
 10
281.3147820219
 20
181.5307503563
 10
280.6720459853
 20
179.9928360063
 10
280.1130877226
 20
178.4386422653
 10
279.6387275821
 20
176.8704501269
 10
279.2496617527
 20
175.2905611294
 10
278.9464612423
 20
173.7012939776
 10
278.7295710393
 20
172.1049811404
 10
278.59930946
 20
170.5039654269
 10
278.5558676813
 20
168.9005965485
 10
278.59930946
 20
167.2972276701
 10
278.7295710393
 20
165.6962119567
 10
278.9464612423
 20
164.0998991194
 10
279.2496617527
 20
162.5106319677
 10
279.6387275821
 20
160.9307429702
 10
280.1130877226
 20
159.3625508318
 10
280.6720459853
 20
157.8083570908
 10
281.3147820219
 20
156.2704427408
 10
282.0403525286
 20
154.7510648832
 10
282.8476926307
 20
153.2524534145
 10
283.7356174452
 20
151.7768077537
 10
284.70282382
 20
150.3262936143
 10
285.7478922464
 20
148.9030398258
 10
286.8692889423
 20
147.5091352095
 10
288.0653681035
 20
146.1466255125
 10
289.3343743189
 20
144.8175104057
 10
290.6744451468
 20
143.5237405489
 10
292.0836138485
 20
142.2672147277
 10
293.5598122746
 20
141.049777067
 10
295.1008739004
 20
139.8732143245
 10
296.7045370054
 20
138.7392532682
 10
298.3684479928
 20
137.6495581424
 10
300.0901648439
 20
136.6057282249
 10
301.8671607017
 20
135.6092954801
 10
303.6968275799
 20
134.6617223104
 10
305.5764801898
 20
133.7643994101
 10
307.5033598821
 20
132.9186437244
 10
309.4746386952
 20
132.1256965163
 10
311.4874235056
 20
131.3867215452
 10
313.5387602739
 20
130.7028033588
 10
315.6256383807
 20
130.0749457013
 10
317.7449950444
 20
129.5040700404
 10
319.893719817
 20
128.9910142148
 10
322.0686591486
 20
128.5365312048
 10
324.2666210157
 20
128.1412880269
 10
326.4843796062
 20
127.8058647548
 10
328.7186800535
 20
127.5307536686
 10
330.9662432137
 20
127.3163585316
 10
333.2237704779
 20
127.1629939983
 10
335.4879486135
 20
127.0708851522
 10
337.7554546268
 20
127.0401671759
 10
340.0229606402
 20
127.0708851522
 10
342.2871387757
 20
127.1629939983
 10
344.5446660399
 20
127.3163585316
 10
346.7922292001
 20
127.5307536686
 10
349.0265296475
 20
127.8058647548
 10
351.244288238
 20
128.1412880269
 10
353.4422501051
 20
128.5365312048
 10
355.6171894366
 20
128.9910142148
 10
357.7659142092
 20
129.5040700404
 10
359.885270873
 20
130.0749457013
 10
361.9721489797
 20
130.7028033588
 10
364.0234857481
 20
131.3867215452
 10
366.0362705584
 20
132.1256965163
 10
368.0075493715
 20
132.9186437244
 10
369.9344290639
 20
133.7643994101
 10
371.8140816738
 20
134.6617223104
 10
373.6437485519
 20
135.6092954801
 10
375.4207444097
 20
136.6057282249
 10
377.1424612608
 20
137.6495581424
 10
378.8063722483
 20
138.7392532682
 10
380.4100353533
 20
139.8732143245
 10
381.9510969791
 20
141.049777067
 10
383.4272954052
 20
142.2672147277
 10
384.8364641069
 20
143.5237405489
 10
386.1765349348
 20
144.8175104057
 10
387.4455411501
 20
146.1466255125
 10
388.6416203113
 20
147.5091352095
 10
389.7630170073
 20
148.9030398258
 10
390.8080854337
 20
150.3262936143
 10
391.7752918085
 20
151.7768077537
 10
392.663216623
 20
153.2524534145
 10
393.4705567251
 20
154.7510648832
 10
394.1961272318
 20
156.2704427408
 10
394.8388632684
 20
157.8083570908
 10
395.3978215311
 20
159.3625508318
 10
395.8721816716
 20
160.9307429702
 10
396.2612475009
 20
162.5106319677
 10
396.5644480114
 20
164.0998991194
 10
396.7813382144
 20
165.6962119567
 10
396.9115997936
 20
167.2972276701
 10
396.9550415723
 20
168.9005965485
 10
396.9115997936
 20
170.5039654269
 10
396.7813382144
 20
172.1049811404
 10
396.5644480114
 20
173.7012939776
 10
396.2612475009
 20
175.2905611294
 10
395.8721816716
 20
176.8704501269
 10
395.3978215311
 20
178.4386422653
 10
394.8388632684
 20
179.9928360063
 10
394.1961272318
 20
181.5307503563
 10
393.4705567251
 20
183.0501282139
 10
392.663216623
 20
184.5487396826
 10
391.7752918085
 20
186.0243853434
 10
390.8080854337
 20
187.4748994828
 10
389.7630170073
 20
188.8981532713
 10
388.6416203113
 20
190.2920578876
 10
387.4455411501
 20
191.6545675846
 10
386.1765349348
 20
192.9836826914
 10
384.8364641069
 20
194.2774525482
 10
383.4272954052
 20
195.5339783694
 10
381.9510969791
 20
196.7514160301
 10
380.4100353533
 20
197.9279787726
 10
378.8063722483
 20
199.0619398289
 10
377.1424612608
 20
200.1516349547
 10
375.4207444097
 20
201.1954648722
 10
373.6437485519
 20
202.191897617
 10
371.8140816738
 20
203.1394707867
 10
369.9344290639
 20
204.0367936869
 10
368.0075493715
 20
204.8825493726
 10
366.0362705584
 20
205.6754965807
 10
364.0234857481
 20
206.4144715519
 10
361.9721489797
 20
207.0983897383
 10
359.885270873
 20
207.7262473958
 10
357.7659142092
 20
208.2971230567
 10
355.6171894366
 20
208.8101788822
 10
353.4422501051
 20
209.2646618922
 10
351.244288238
 20
209.6599050702
 10
349.0265296475
 20
209.9953283422
 10
346.7922292001
 20
210.2704394285
 10
344.5446660399
 20
210.4848345655
 10
342.2871387757
 20
210.6381990988
 10
340.0229606402
 20
210.7303079448
 10
337.7554546268
 20
210.7610259211
  0
LWPOLYLINE
  5
2AD
330
1F
100
AcDbEntity
  8
0
  6
Continuous
 62
     7
370
    25
100
AcDbPolyline
 90
      163
 70
   128
 43
0.0
 10
337.7554546268
 20
210.0740407937
 10
335.5250892714
 20
210.0434528475
 10
333.2980785973
 20
209.9517350161
 10
331.0777722401
 20
209.7990252519
 10
328.8675097516
 20
209.5855532447
 10
326.6706155765
 20
209.3116400769
 10
324.4903940523
 20
208.9776977398
 10
322.3301244392
 20
208.5842285145
 10
320.193055988
 20
208.1318242159
 10
318.0824030527
 20
207.6211653032
 10
316.0013402557
 20
207.0530198559
 10
313.9529977131
 20
206.4282424187
 10
311.9404563268
 20
205.7477727161
 10
309.9667431501
 20
205.0126342394
 10
308.0348268352
 20
204.2239327065
 10
306.1476131677
 20
203.3828543995
 10
304.3079406963
 20
202.4906643801
 10
302.518576463
 20
201.5487045868
 10
300.7822118417
 20
200.5583918167
 10
299.1014584896
 20
199.5212155941
 10
297.4788444196
 20
198.4387359306
 10
295.9168101973
 20
197.3125809786
 10
294.4177052705
 20
196.144444582
 10
292.9837844354
 20
194.9360837289
 10
291.6172044453
 20
193.6893159089
 10
290.3200207661
 20
192.4060163791
 10
289.0941844855
 20
191.088115344
 10
287.9415393775
 20
189.7375950518
 10
286.86381913
 20
188.3564868135
 10
285.8626447366
 20
186.946867947
 10
284.9395220586
 20
185.510858653
 10
284.0958395602
 20
184.0506188258
 10
283.3328662201
 20
182.5683448049
 10
282.6517496227
 20
181.0662660712
 10
282.053514232
 20
179.5466418938
 10
281.5390598508
 20
178.0117579319
 10
281.1091602675
 20
176.4639227966
 10
280.7644620918
 20
174.9054645791
 10
280.5054837826
 20
173.3387273486
 10
280.3326148677
 20
171.7660676266
 10
280.2461153586
 20
170.1898508429
 10
280.2461153586
 20
168.6124477771
 10
280.3326148677
 20
167.0362309934
 10
280.5054837826
 20
165.4635712715
 10
280.7644620918
 20
163.8968340409
 10
281.1091602675
 20
162.3383758234
 10
281.5390598508
 20
160.7905406881
 10
282.053514232
 20
159.2556567262
 10
282.6517496227
 20
157.7360325488
 10
283.3328662201
 20
156.2339538151
 10
284.0958395602
 20
154.7516797942
 10
284.9395220586
 20
153.291439967
 10
285.8626447366
 20
151.855430673
 10
286.86381913
 20
150.4458118065
 10
287.9415393775
 20
149.0647035682
 10
289.0941844855
 20
147.714183276
 10
290.3200207661
 20
146.3962822409
 10
291.6172044453
 20
145.1129827111
 10
292.9837844354
 20
143.8662148911
 10
294.4177052705
 20
142.657854038
 10
295.9168101973
 20
141.4897176414
 10
297.4788444196
 20
140.3635626894
 10
299.1014584896
 20
139.2810830259
 10
300.7822118417
 20
138.2439068034
 10
302.518576463
 20
137.2535940332
 10
304.3079406963
 20
136.3116342399
 10
306.1476131677
 20
135.4194442205
 10
308.0348268352
 20
134.5783659135
 10
309.9667431501
 20
133.7896643806
 10
311.9404563268
 20
133.0545259039
 10
313.9529977131
 20
132.3740562013
 10
316.0013402557
 20
131.7492787641
 10
318.0824030527
 20
131.1811333168
 10
320.193055988
 20
130.6704744041
 10
322.3301244392
 20
130.2180701055
 10
324.4903940523
 20
129.8246008802
 10
326.6706155765
 20
129.4906585431
 10
328.8675097516
 20
129.2167453753
 10
331.0777722401
 20
129.0032733681
 10
333.2980785973
 20
128.8505636039
 10
335.5250892714
 20
128.7588457725
 10
337.7554546268
 20
128.7282578263
 10
339.9858199823
 20
128.7588457725
 10
342.2128306564
 20
128.8505636039
 10
344.4331370135
 20
129.0032733681
 10
346.643399502
 20
129.2167453753
 10
348.8402936771
 20
129.4906585431
 10
351.0205152014
 20
129.8246008802
 10
353.1807848144
 20
130.2180701055
 10
355.3178532656
 20
130.6704744041
 10
357.428506201
 20
131.1811333168
 10
359.509568998
 20
131.7492787641
 10
361.5579115405
 20
132.3740562013
 10
363.5704529268
 20
133.0545259039
 10
365.5441661035
 20
133.7896643806
 10
367.4760824184
 20
134.5783659135
 10
369.3632960859
 20
135.4194442205
 10
371.2029685574
 20
136.3116342399
 10
372.9923327906
 20
137.2535940332
 10
374.728697412
 20
138.2439068034
 10
376.409450764
 20
139.2810830259
 10
378.032064834
 20
140.3635626894
 10
379.5940990564
 20
141.4897176414
 10
381.0932039832
 20
142.657854038
 10
382.5271248182
 20
143.8662148911
 10
383.8937048084
 20
145.1129827111
 10
385.1908884875
 20
146.3962822409
 10
386.4167247682
 20
147.714183276
 10
387.5693698761
 20
149.0647035682
 10
388.6470901236
 20
150.4458118065
 10
389.6482645171
 20
151.855430673
 10
390.5713871951
 20
153.291439967
 10
391.4150696934
 20
154.7516797942
 10
392.1780430335
 20
156.2339538151
 10
392.8591596309
 20
157.7360325488
 10
393.4573950216
 20
159.2556567262
 10
393.9718494028
 20
160.7905406881
 10
394.4017489861
 20
162.3383758234
 10
394.7464471618
 20
163.8968340409
 10
395.0054254711
 20
165.4635712715
 10
395.1782943859
 20
167.0362309934
 10
395.2647938951
 20
168.6124477771
 10
395.2647938951
 20
170.1898508429
 10
395.1782943859
 20
171.7660676266
 10
395.0054254711
 20
173.3387273486
 10
394.7464471618
 20
174.9054645791
 10
394.4017489861
 20
176.4639227966
 10
393.9718494028
 20
178.0117579319
 10
393.4573950216
 20
179.5466418938
 10
392.8591596309
 20
181.0662660712
 10
392.1780430335
 20
182.5683448049
 10
391.4150696934
 20
184.0506188258
 10
390.5713871951
 20
185.510858653
 10
389.6482645171
 20
186.946867947
 10
388.6470901236
 20
188.3564868135
 10
387.5693698761
 20
189.7375950518
 10
386.4167247682
 20
191.088115344
 10
385.1908884875
 20
192.4060163791
 10
383.8937048084
 20
193.6893159089
 10
382.5271248182
 20
194.9360837289
 10
381.0932039832
 20
196.144444582
 10
379.5940990564
 20
197.3125809786
 10
378.032064834
 20
198.4387359306
 10
376.409450764
 20
199.5212155941
 10
374.728697412
 20
200.5583918167
 10
372.9923327906
 20
201.5487045868
 10
371.2029685574
 20
202.4906643801
 10
369.3632960859
 20
203.3828543995
 10
367.4760824184
 20
204.2239327065
 10
365.5441661035
 20
205.0126342394
 10
363.5704529268
 20
205.7477727161
 10
361.5579115405
 20
206.4282424187
 10
359.509568998
 20
207.0530198559
 10
357.428506201
 20
207.6211653032
 10
355.3178532656
 20
208.1318242159
 10
353.1807848144
 20
208.5842285145
 10
351.0205152014
 20
208.9776977398
 10
348.8402936771
 20
209.3116400769
 10
346.643399502
 20
209.5855532447
 10
344.4331370135
 20
209.7990252519
 10
342.2128306564
 20
209.9517350161
 10
339.9858199823
 20
210.0434528475
 10
337.7554546268
 20
210.0740407937
  0
LWPOLYLINE
  5
2AE
330
1F
100
AcDbEntity
  8
0
  6
Continuous
 62
     7
370
    25
100
AcDbPolyline
 90
      166
 70
   128
 43
0.0
 10
337.7554546268
 20
210.734276341
 10
335.4726341939
 20
210.7035383721
 10
333.1931236324
 20
210.6113690326
 10
330.9202280147
 20
210.4579019593
 10
328.657242822
 20
210.2433596646
 10
326.4074491668
 20
209.9680532145
 10
324.1741090345
 20
209.6323817769
 10
321.960460555
 20
209.2368320433
 10
319.7697133068
 20
208.7819775231
 10
317.6050436641
 20
208.2684777118
 10
315.469590191
 20
207.6970771351
 10
313.3664490907
 20
207.0686042691
 10
311.2986697168
 20
206.3839703394
 10
309.2692501517
 20
205.6441679998
 10
307.2811328598
 20
204.850269893
 10
305.3372004211
 20
204.0034270952
 10
303.4402713518
 20
203.1048674477
 10
301.5930960177
 20
202.155893776
 10
299.7983526464
 20
201.1578820011
 10
298.0586434442
 20
200.1122791448
 10
296.3764908232
 20
199.0206012312
 10
294.7543337439
 20
197.8844310889
 10
293.1945241789
 20
196.7054160561
 10
291.6993237029
 20
195.4852655918
 10
290.2709002138
 20
194.2257487975
 10
288.911324789
 20
192.9286918522
 10
287.622568683
 20
191.5959753645
 10
286.4065004688
 20
190.2295316458
 10
285.2648833291
 20
188.8313419089
 10
284.1993724997
 20
187.4034333952
 10
283.2115128693
 20
185.9478764357
 10
282.30273674
 20
184.4667814486
 10
281.4743617504
 20
182.9622958803
 10
280.7275889648
 20
181.4366010908
 10
280.0635011326
 20
179.8919091918
 10
279.4830611175
 20
178.330459839
 10
278.9871105022
 20
176.7545169844
 10
278.5763683675
 20
175.1663655947
 10
278.2514302503
 20
173.5683083376
 10
278.0127672798
 20
171.9626622432
 10
277.8607254945
 20
170.3517553449
 10
277.7955253404
 20
168.7379233037
 10
277.8172613516
 20
167.1235060218
 10
277.9259020129
 20
165.5108442499
 10
278.1212898057
 20
163.9022761934
 10
278.4031414364
 20
162.3001341222
 10
278.7710482471
 20
160.7067409892
 10
279.2244768081
 20
159.1244070619
 10
279.7627696913
 20
157.5554265735
 10
280.3851464236
 20
156.0020743955
 10
281.090704618
 20
154.4666027402
 10
281.8784212828
 20
152.9512378946
 10
282.747154304
 20
151.458176993
 10
283.6956441018
 20
149.9895848308
 10
284.7225154568
 20
148.5475907263
 10
285.8262795035
 20
147.1342854331
 10
287.0053358897
 20
145.7517181088
 10
288.2579750963
 20
144.4018933438
 10
289.5823809162
 20
143.0867682549
 10
290.9766330875
 20
141.8082496479
 10
292.4387100781
 20
140.5681912525
 10
293.9664920159
 20
139.3683910348
 10
295.5577637632
 20
138.2105885903
 10
297.2102181281
 20
137.0964626221
 10
298.9214592098
 20
136.0276285062
 10
300.6890058723
 20
135.0056359499
 10
302.5102953419
 20
134.0319667447
 10
304.3826869229
 20
133.1080326178
 10
306.3034658267
 20
132.2351731855
 10
308.2698471074
 20
131.4146540104
 10
310.2789797002
 20
130.647664767
 10
312.3279505548
 20
129.9353175163
 10
314.4137888594
 20
129.2786450936
 10
316.5334703479
 20
128.6785996113
 10
318.6839216848
 20
128.1360510779
 10
320.8620249211
 20
127.651786137
 10
323.0646220156
 20
127.2265069264
 10
325.2885194128
 20
126.8608300602
 10
327.5304926743
 20
126.5552857351
 10
329.787291153
 20
126.310316961
 10
332.0556427071
 20
126.1262789192
 10
334.3322584435
 20
126.0034384474
 10
336.6138374871
 20
125.9419736525
 10
338.8970717665
 20
125.9419736525
 10
341.1786508101
 20
126.0034384474
 10
343.4552665465
 20
126.1262789192
 10
345.7236181006
 20
126.310316961
 10
347.9804165794
 20
126.5552857351
 10
350.2223898408
 20
126.8608300602
 10
352.4462872381
 20
127.2265069264
 10
354.6488843325
 20
127.651786137
 10
356.8269875689
 20
128.1360510779
 10
358.9774389057
 20
128.6785996113
 10
361.0971203942
 20
129.2786450936
 10
363.1829586989
 20
129.9353175163
 10
365.2319295535
 20
130.647664767
 10
367.2410621462
 20
131.4146540104
 10
369.2074434269
 20
132.2351731855
 10
371.1282223307
 20
133.1080326178
 10
373.0006139118
 20
134.0319667447
 10
374.8219033814
 20
135.0056359499
 10
376.5894500438
 20
136.0276285062
 10
378.3006911255
 20
137.0964626221
 10
379.9531454905
 20
138.2105885903
 10
381.5444172378
 20
139.3683910348
 10
383.0721991756
 20
140.5681912525
 10
384.5342761661
 20
141.8082496479
 10
385.9285283375
 20
143.0867682549
 10
387.2529341574
 20
144.4018933438
 10
388.505573364
 20
145.7517181088
 10
389.6846297501
 20
147.1342854331
 10
390.7883937969
 20
148.5475907263
 10
391.8152651518
 20
149.9895848308
 10
392.7637549496
 20
151.458176993
 10
393.6324879709
 20
152.9512378946
 10
394.4202046356
 20
154.4666027402
 10
395.1257628301
 20
156.0020743955
 10
395.7481395623
 20
157.5554265735
 10
396.2864324455
 20
159.1244070619
 10
396.7398610065
 20
160.7067409892
 10
397.1077678172
 20
162.3001341222
 10
397.3896194479
 20
163.9022761934
 10
397.5850072408
 20
165.5108442499
 10
397.693647902
 20
167.1235060218
 10
397.7153839132
 20
168.7379233037
 10
397.6501837592
 20
170.3517553449
 10
397.4981419739
 20
171.9626622432
 10
397.2594790034
 20
173.5683083376
 10
396.9345408862
 20
175.1663655947
 10
396.5237987515
 20
176.7545169844
 10
396.0278481361
 20
178.330459839
 10
395.447408121
 20
179.8919091918
 10
394.7833202888
 20
181.4366010908
 10
394.0365475033
 20
182.9622958803
 10
393.2081725136
 20
184.4667814486
 10
392.2993963843
 20
185.9478764357
 10
391.311536754
 20
187.4034333952
 10
390.2460259245
 20
188.8313419089
 10
389.1044087849
 20
190.2295316458
 10
387.8883405707
 20
191.5959753645
 10
386.5995844646
 20
192.9286918522
 10
385.2400090398
 20
194.2257487975
 10
383.8115855507
 20
195.4852655918
 10
382.3163850748
 20
196.7054160561
 10
380.7565755098
 20
197.8844310889
 10
379.1344184304
 20
199.0206012312
 10
377.4522658094
 20
200.1122791448
 10
375.7125566072
 20
201.1578820011
 10
373.9178132359
 20
202.155893776
 10
372.0706379018
 20
203.1048674477
 10
370.1737088325
 20
204.0034270952
 10
368.2297763938
 20
204.850269893
 10
366.2416591019
 20
205.6441679998
 10
364.2122395369
 20
206.3839703394
 10
362.144460163
 20
207.0686042691
 10
360.0413190627
 20
207.6970771351
 10
357.9058655895
 20
208.2684777118
 10
355.7411959468
 20
208.7819775231
 10
353.5504486987
 20
209.2368320433
 10
351.3368002191
 20
209.6323817769
 10
349.1034600869
 20
209.9680532145
 10
346.8536664316
 20
210.2433596646
 10
344.590681239
 20
210.4579019593
 10
342.3177856212
 20
210.6113690326
 10
340.0382750597
 20
210.7035383721
 10
337.7554546268
 20
210.734276341
  0
LWPOLYLINE
  5
2AF
330
1F
100
AcDbEntity
  8
0
  6
Continuous
 62
     7
370
    25
100
AcDbPolyline
 90
       86
 70
   128
 43
0.0
 10
397.7065754791
 20
167.5029940808
 10
397.7153839132
 20
167.0753466618
 10
397.693647902
 20
165.4609293799
 10
397.5850072407
 20
163.848267608
 10
397.3896194479
 20
162.2396995515
 10
397.1077678172
 20
160.6375574803
 10
396.7398610065
 20
159.0441643472
 10
396.2864324455
 20
157.46183042
 10
395.7481395623
 20
155.8928499316
 10
395.1257628301
 20
154.3394977536
 10
394.4202046356
 20
152.8040260983
 10
393.6324879708
 20
151.2886612527
 10
392.7637549496
 20
149.7956003511
 10
391.8152651518
 20
148.3270081889
 10
390.7883937969
 20
146.8850140844
 10
389.6846297501
 20
145.4717087912
 10
388.505573364
 20
144.0891414668
 10
387.2529341574
 20
142.7393167018
 10
385.9285283375
 20
141.424191613
 10
384.5342761661
 20
140.145673006
 10
383.0721991756
 20
138.9056146106
 10
381.5444172378
 20
137.7058143928
 10
379.9531454904
 20
136.5480119484
 10
378.3006911255
 20
135.4338859802
 10
376.5894500438
 20
134.3650518643
 10
374.8219033814
 20
133.343059308
 10
373.0006139118
 20
132.3693901028
 10
371.1282223307
 20
131.4454559759
 10
369.2074434269
 20
130.5725965436
 10
367.2410621462
 20
129.7520773685
 10
365.2319295535
 20
128.9850881251
 10
363.1829586989
 20
128.2727408743
 10
361.0971203942
 20
127.6160684517
 10
358.9774389057
 20
127.0160229694
 10
356.8269875689
 20
126.473474436
 10
354.6488843325
 20
125.9892094951
 10
352.4462872381
 20
125.5639302845
 10
350.2223898408
 20
125.1982534183
 10
347.9804165794
 20
124.8927090932
 10
345.7236181006
 20
124.6477403191
 10
343.4552665465
 20
124.4637022773
 10
341.1786508101
 20
124.3408618055
 10
338.8970717665
 20
124.2793970106
 10
336.6138374871
 20
124.2793970106
 10
334.3322584435
 20
124.3408618055
 10
332.0556427071
 20
124.4637022773
 10
329.787291153
 20
124.6477403191
 10
327.5304926743
 20
124.8927090932
 10
325.2885194128
 20
125.1982534183
 10
323.0646220156
 20
125.5639302845
 10
320.8620249211
 20
125.9892094951
 10
318.6839216848
 20
126.473474436
 10
316.5334703479
 20
127.0160229694
 10
314.4137888594
 20
127.6160684517
 10
312.3279505548
 20
128.2727408743
 10
310.2789797002
 20
128.9850881251
 10
308.2698471074
 20
129.7520773685
 10
306.3034658267
 20
130.5725965436
 10
304.3826869229
 20
131.4454559759
 10
302.5102953419
 20
132.3693901028
 10
300.6890058723
 20
133.343059308
 10
298.9214592098
 20
134.3650518643
 10
297.2102181281
 20
135.4338859802
 10
295.5577637632
 20
136.5480119484
 10
293.9664920159
 20
137.7058143928
 10
292.4387100781
 20
138.9056146106
 10
290.9766330876
 20
140.145673006
 10
289.5823809162
 20
141.424191613
 10
288.2579750963
 20
142.7393167018
 10
287.0053358897
 20
144.0891414668
 10
285.8262795035
 20
145.4717087912
 10
284.7225154568
 20
146.8850140844
 10
283.6956441018
 20
148.3270081889
 10
282.747154304
 20
149.7956003511
 10
281.8784212828
 20
151.2886612527
 10
281.090704618
 20
152.8040260983
 10
280.3851464236
 20
154.3394977536
 10
279.7627696914
 20
155.8928499316
 10
279.2244768081
 20
157.46183042
 10
278.7710482471
 20
159.0441643472
 10
278.4031414364
 20
160.6375574803
 10
278.1212898057
 20
162.2396995515
 10
277.9259020129
 20
163.848267608
 10
277.8172613516
 20
165.4609293799
 10
277.7955253404
 20
167.0753466618
 10
277.8043337746
 20
167.5029940808
  0
ARC
  5
2B0
330
1F
100
AcDbEntity
  8
0
  6
Continuous
 62
     7
370
    25
100
AcDbCircle
 10
365.4790009494
 20
165.8480553189
 30
0.0
 40
32.47356227040429
100
AcDbArc
 50
321.939090874
 51
7.6920806824
  0
ARC
  5
2B1
330
1F
100
AcDbEntity
  8
0
  6
Continuous
 62
     7
370
    25
100
AcDbCircle
 10
309.962892327
 20
165.8293242512
 30
0.0
 40
32.40768638151472
100
AcDbArc
 50
172.2587693284
 51
218.1100591153
  0
ARC
  5
2B2
330
1F
100
AcDbEntity
  8
0
  6
Continuous
 62
     7
370
    25
100
AcDbCircle
 10
337.7393636007
 20
123.1939710134
 30
0.0
 40
83.87441463302733
100
AcDbArc
 50
89.9890079961
 51
96.2483522237
  0
ARC
  5
2B3
330
1F
100
AcDbEntity
  8
0
  6
Continuous
 62
     7
370
    25
100
AcDbCircle
 10
337.7690535951
 20
123.1482326386
 30
0.0
 40
83.920152566143
100
AcDbArc
 50
83.7533551988
 51
90.0092845814
  0
LWPOLYLINE
  5
2B4
330
1F
100
AcDbEntity
  8
0
  6
Continuous
 62
     7
370
    25
100
AcDbPolyline
 90
       80
 70
   128
 43
0.0
 10
391.9953796664
 20
169.1466671946
 10
391.9709487679
 20
167.9956538734
 10
391.8624113744
 20
166.462761476
 10
391.6672265731
 20
164.9341671113
 10
391.385706935
 20
163.4123186853
 10
391.0183032884
 20
161.8996533008
 10
390.5656039969
 20
160.398593355
 10
390.0283340177
 20
158.9115426599
 10
389.4073537402
 20
157.440882593
 10
388.7036576081
 20
155.9889682835
 10
387.9183725275
 20
154.5581248413
 10
387.0527560613
 20
153.150643633
 10
386.1081944164
 20
151.7687786126
 10
385.0862002228
 20
150.4147427123
 10
383.9884101121
 20
149.0907042984
 10
382.8165820961
 20
147.7987836989
 10
381.5725927514
 20
146.541049808
 10
380.2584342149
 20
145.319516773
 10
378.8762109928
 20
144.1361407689
 10
377.4281365908
 20
142.9928168654
 10
375.9165299693
 20
141.8913759927
 10
374.34381183
 20
140.8335820089
 10
372.712500739
 20
139.8211288755
 10
371.0252090937
 20
138.8556379449
 10
369.2846389395
 20
137.9386553637
 10
367.4935776424
 20
137.0716495967
 10
365.6548934253
 20
136.2560090754
 10
363.7715307751
 20
135.4930399745
 10
361.846505727
 20
134.78396412
 10
359.8829010351
 20
134.1299170331
 10
357.8838612348
 20
133.5319461111
 10
355.8525876081
 20
132.9910089504
 10
353.7923330564
 20
132.507971813
 10
351.7063968912
 20
132.0836082394
 10
349.5981195512
 20
131.7185978096
 10
347.4708772523
 20
131.4135250547
 10
345.3280765808
 20
131.1688785213
 10
343.1731490388
 20
130.9850499886
 10
341.0095455482
 20
130.8623338416
 10
338.8407309246
 20
130.800926599
 10
336.670178329
 20
130.800926599
 10
334.5013637055
 20
130.8623338416
 10
332.3377602148
 20
130.9850499886
 10
330.1828326728
 20
131.1688785213
 10
328.0400320014
 20
131.4135250547
 10
325.9127897024
 20
131.7185978096
 10
323.8045123624
 20
132.0836082394
 10
321.7185761973
 20
132.507971813
 10
319.6583216455
 20
132.9910089504
 10
317.6270480188
 20
133.5319461111
 10
315.6280082186
 20
134.1299170331
 10
313.6644035266
 20
134.78396412
 10
311.7393784786
 20
135.4930399745
 10
309.8560158284
 20
136.2560090754
 10
308.0173316113
 20
137.0716495967
 10
306.2262703141
 20
137.9386553637
 10
304.4857001599
 20
138.8556379449
 10
302.7984085147
 20
139.8211288755
 10
301.1670974237
 20
140.8335820089
 10
299.5943792843
 20
141.8913759927
 10
298.0827726629
 20
142.9928168654
 10
296.6346982609
 20
144.1361407689
 10
295.2524750387
 20
145.319516773
 10
293.9383165022
 20
146.541049808
 10
292.6943271576
 20
147.7987836989
 10
291.5224991415
 20
149.0907042984
 10
290.4247090308
 20
150.4147427123
 10
289.4027148373
 20
151.7687786126
 10
288.4581531923
 20
153.150643633
 10
287.5925367262
 20
154.5581248413
 10
286.8072516455
 20
155.9889682835
 10
286.1035555135
 20
157.440882593
 10
285.4825752359
 20
158.9115426599
 10
284.9453052567
 20
160.398593355
 10
284.4926059653
 20
161.8996533008
 10
284.1252023186
 20
163.4123186853
 10
283.8436826805
 20
164.9341671113
 10
283.6484978793
 20
166.462761476
 10
283.5399604857
 20
167.9956538734
 10
283.5155295873
 20
169.1466671946
  0
LWPOLYLINE
  5
2B5
330
1F
100
AcDbEntity
  8
0
  6
Continuous
 62
     7
370
    25
100
AcDbPolyline
 90
       41
 70
   128
 43
0.0
 10
337.7554546268
 20
207.1191718162
 10
339.9255726859
 20
207.0884620469
 10
342.0922154968
 20
206.996381918
 10
344.2519133765
 20
206.8430788875
 10
346.4012077639
 20
206.6287984563
 10
348.5366567581
 20
206.3538837753
 10
350.65484063
 20
206.0187750954
 10
352.7523672996
 20
205.624009063
 10
354.8258777671
 20
205.1702178602
 10
356.8720514926
 20
204.6581281928
 10
358.8876117137
 20
204.088560126
 10
360.8693306925
 20
203.4624257718
 10
362.814034885
 20
202.7807278277
 10
364.718610023
 20
202.0445579716
 10
366.5800061011
 20
201.2550951129
 10
368.3952422617
 20
200.4136035053
 10
370.1614115679
 20
199.5214307215
 10
371.8756856589
 20
198.5800054958
 10
373.5353192795
 20
197.5908354357
 10
375.1376546762
 20
196.5555046078
 10
376.6801258535
 20
195.4756710009
 10
378.1602626831
 20
194.3530638711
 10
379.5756948594
 20
193.1894809723
 10
380.9241556956
 20
191.9867856777
 10
382.2034857532
 20
190.7469039951
 10
383.4116363008
 20
189.4718214831
 10
384.5466725942
 20
188.1635800713
 10
385.6067769752
 20
186.8242747903
 10
386.5902517825
 20
185.4560504166
 10
387.4955220697
 20
184.061098038
 10
388.3211381284
 20
182.6416515448
 10
389.0657778088
 20
181.1999840526
 10
389.7282486378
 20
179.7384042616
 10
390.307489728
 20
178.25925276
 10
390.8025734773
 20
176.7648982753
 10
391.2127070535
 20
175.2577338815
 10
391.5372336649
 20
173.7401731663
 10
391.7756336114
 20
172.2146463662
 10
391.9275251169
 20
170.6835964747
 10
391.9926649409
 20
169.1494753299
 10
391.9947108946
 20
168.9562101057
  0
LWPOLYLINE
  5
2B6
330
1F
100
AcDbEntity
  8
0
  6
Continuous
 62
     7
370
    25
100
AcDbPolyline
 90
       41
 70
   128
 43
0.0
 10
283.516198359
 20
168.9562101057
 10
283.5182443127
 20
169.14947533
 10
283.5833841367
 20
170.6835964747
 10
283.7352756422
 20
172.2146463662
 10
283.9736755887
 20
173.7401731663
 10
284.2982022001
 20
175.2577338815
 10
284.7083357764
 20
176.7648982753
 10
285.2034195256
 20
178.25925276
 10
285.7826606159
 20
179.7384042616
 10
286.4451314448
 20
181.1999840526
 10
287.1897711253
 20
182.6416515448
 10
288.0153871839
 20
184.061098038
 10
288.9206574712
 20
185.4560504166
 10
289.9041322784
 20
186.8242747903
 10
290.9642366595
 20
188.1635800713
 10
292.0992729529
 20
189.4718214831
 10
293.3074235004
 20
190.7469039951
 10
294.5867535581
 20
191.9867856777
 10
295.9352143942
 20
193.1894809723
 10
297.3506465705
 20
194.3530638711
 10
298.8307834001
 20
195.4756710009
 10
300.3732545775
 20
196.5555046078
 10
301.9755899742
 20
197.5908354357
 10
303.6352235948
 20
198.5800054958
 10
305.3494976857
 20
199.5214307215
 10
307.1156669919
 20
200.4136035053
 10
308.9309031525
 20
201.2550951129
 10
310.7922992307
 20
202.0445579716
 10
312.6968743686
 20
202.7807278277
 10
314.6415785611
 20
203.4624257718
 10
316.6232975399
 20
204.088560126
 10
318.638857761
 20
204.6581281928
 10
320.6850314866
 20
205.1702178602
 10
322.758541954
 20
205.624009063
 10
324.8560686236
 20
206.0187750954
 10
326.9742524956
 20
206.3538837753
 10
329.1097014897
 20
206.6287984563
 10
331.2589958771
 20
206.8430788875
 10
333.4186937569
 20
206.996381918
 10
335.5853365677
 20
207.0884620469
 10
337.7554546268
 20
207.1191718162
  0
ARC
  5
2B7
330
1F
100
AcDbEntity
  8
0
  6
Continuous
 62
     7
370
    25
100
AcDbCircle
 10
338.0048703854
 20
125.2123143334
 30
0.0
 40
81.76690183733514
100
AcDbArc
 50
80.1329479908
 51
83.3401557807
  0
ARC
  5
2B8
330
1F
100
AcDbEntity
  8
0
  6
Continuous
 62
     7
370
    25
100
AcDbCircle
 10
337.506038868
 20
125.2123143345
 30
0.0
 40
81.76690183616353
100
AcDbArc
 50
96.6598442192
 51
99.8670520092
  0
LWPOLYLINE
  5
2B9
330
1F
100
AcDbEntity
  8
0
  6
Continuous
 62
     7
370
    25
100
AcDbPolyline
 90
       41
 70
   128
 43
0.0
 10
337.7554546268
 20
207.0501464991
 10
339.9247932466
 20
207.0194477598
 10
342.0906578665
 20
206.9274007033
 10
344.2495800496
 20
206.7741527344
 10
346.398102477
 20
206.5599492662
 10
348.5327844839
 20
206.285133326
 10
350.6502075698
 20
205.9501450068
 10
352.7469808727
 20
205.5555207621
 10
354.8197465993
 20
205.1018925471
 10
356.8651854026
 20
204.5899868064
 10
358.8800216968
 20
204.0206233108
 10
360.8610289035
 20
203.3947138447
 10
362.8050346185
 20
202.7132607454
 10
364.7089256919
 20
201.9773552987
 10
366.5696532142
 20
201.1881759907
 10
368.3842373982
 20
200.3469866208
 10
370.149772351
 20
199.4551342779
 10
371.8634307278
 20
198.514047183
 10
373.5224682593
 20
197.5252324022
 10
375.1242281467
 20
196.490273433
 10
376.6661453162
 20
195.4108276689
 10
378.1457505264
 20
194.2886237449
 10
379.5606743233
 20
193.1254587691
 10
380.908650834
 20
191.9231954454
 10
382.1875213959
 20
190.6837590899
 10
383.3952380132
 20
189.4091345481
 10
384.5298666367
 20
188.1013630162
 10
385.589590261
 20
186.7625387722
 10
386.5727118345
 20
185.3948058223
 10
387.4776569767
 20
184.0003544675
 10
388.3029764997
 20
182.5814177956
 10
389.0473487285
 20
181.1402681056
 10
389.7095816185
 20
179.6792132689
 10
390.2886146633
 20
178.2005930327
 10
390.7835205938
 20
176.706775274
 10
391.1935068627
 20
175.200152207
 10
391.5179169142
 20
173.6831365526
 10
391.7562312348
 20
172.1581576745
 10
391.9080681856
 20
170.6276576887
 10
391.9731846134
 20
169.0940875528
 10
391.9577088199
 20
167.7174875916
  0
LWPOLYLINE
  5
2BA
330
1F
100
AcDbEntity
  8
0
  6
Continuous
 62
     7
370
    25
100
AcDbPolyline
 90
       41
 70
   128
 43
0.0
 10
283.5532004337
 20
167.7174875916
 10
283.5377246403
 20
169.0940875528
 10
283.6028410681
 20
170.6276576887
 10
283.7546780188
 20
172.1581576745
 10
283.9929923394
 20
173.6831365526
 10
284.3174023909
 20
175.200152207
 10
284.7273886599
 20
176.706775274
 10
285.2222945904
 20
178.2005930327
 10
285.8013276351
 20
179.6792132689
 10
286.4635605251
 20
181.1402681056
 10
287.207932754
 20
182.5814177956
 10
288.0332522769
 20
184.0003544675
 10
288.9381974191
 20
185.3948058223
 10
289.9213189926
 20
186.7625387722
 10
290.981042617
 20
188.1013630162
 10
292.1156712405
 20
189.4091345481
 10
293.3233878577
 20
190.6837590899
 10
294.6022584196
 20
191.9231954454
 10
295.9502349304
 20
193.1254587691
 10
297.3651587272
 20
194.2886237449
 10
298.8447639375
 20
195.4108276689
 10
300.3866811069
 20
196.490273433
 10
301.9884409943
 20
197.5252324022
 10
303.6474785259
 20
198.514047183
 10
305.3611369027
 20
199.4551342779
 10
307.1266718555
 20
200.3469866208
 10
308.9412560394
 20
201.1881759907
 10
310.8019835617
 20
201.9773552987
 10
312.7058746352
 20
202.7132607454
 10
314.6498803501
 20
203.3947138447
 10
316.6308875568
 20
204.0206233108
 10
318.645723851
 20
204.5899868064
 10
320.6911626543
 20
205.1018925471
 10
322.763928381
 20
205.5555207621
 10
324.8607016839
 20
205.9501450068
 10
326.9781247698
 20
206.285133326
 10
329.1128067767
 20
206.5599492662
 10
331.2613292041
 20
206.7741527344
 10
333.4202513872
 20
206.9274007033
 10
335.586116007
 20
207.0194477598
 10
337.7554546268
 20
207.0501464991
  0
LWPOLYLINE
  5
2BB
330
1F
100
AcDbEntity
  8
0
  6
Continuous
 62
     7
370
    25
100
AcDbPolyline
 90
        3
 70
   128
 43
0.0
 10
314.7435586665
 20
203.4258394582
 10
313.4839887608
 20
203.0415016745
 10
312.8955936055
 20
202.8535571213
  0
LWPOLYLINE
  5
2BC
330
1F
100
AcDbEntity
  8
0
  6
Continuous
 62
     7
370
    25
100
AcDbPolyline
 90
        3
 70
   128
 43
0.0
 10
362.6153156482
 20
202.8535571213
 10
362.0269204928
 20
203.0415016745
 10
360.7673505871
 20
203.4258394582
  0
LWPOLYLINE
  5
2BD
330
1F
100
AcDbEntity
  8
0
  6
Continuous
 62
     7
370
    25
100
AcDbPolyline
 90
        3
 70
   128
 43
0.0
 10
365.9932290456
 20
201.4403412363
 10
366.2416591019
 20
201.3460354385
 10
367.2639465937
 20
200.9466353013
  0
LWPOLYLINE
  5
2BE
330
1F
100
AcDbEntity
  8
0
  6
Continuous
 62
     7
370
    25
100
AcDbPolyline
 90
       80
 70
   128
 43
0.0
 10
397.4161240432
 20
159.7862382672
 10
397.3896194479
 20
159.6041436321
 10
397.1077678172
 20
158.0020015609
 10
396.7398610065
 20
156.4086084279
 10
396.2864324455
 20
154.8262745007
 10
395.7481395623
 20
153.2572940122
 10
395.1257628301
 20
151.7039418342
 10
394.4202046356
 20
150.1684701789
 10
393.6324879708
 20
148.6531053333
 10
392.7637549496
 20
147.1600444317
 10
391.8152651518
 20
145.6914522695
 10
390.7883937969
 20
144.249458165
 10
389.6846297501
 20
142.8361528718
 10
388.5055733639
 20
141.4535855475
 10
387.2529341574
 20
140.1037607825
 10
385.9285283375
 20
138.7886356936
 10
384.5342761661
 20
137.5101170866
 10
383.0721991755
 20
136.2700586912
 10
381.5444172378
 20
135.0702584735
 10
379.9531454904
 20
133.9124560291
 10
378.3006911255
 20
132.7983300608
 10
376.5894500438
 20
131.7294959449
 10
374.8219033813
 20
130.7075033886
 10
373.0006139118
 20
129.7338341834
 10
371.1282223307
 20
128.8099000565
 10
369.2074434269
 20
127.9370406242
 10
367.2410621462
 20
127.1165214492
 10
365.2319295535
 20
126.3495322057
 10
363.1829586989
 20
125.637184955
 10
361.0971203942
 20
124.9805125323
 10
358.9774389057
 20
124.38046705
 10
356.8269875689
 20
123.8379185167
 10
354.6488843325
 20
123.3536535757
 10
352.4462872381
 20
122.9283743651
 10
350.2223898408
 20
122.5626974989
 10
347.9804165794
 20
122.2571531738
 10
345.7236181006
 20
122.0121843997
 10
343.4552665465
 20
121.828146358
 10
341.1786508101
 20
121.7053058862
 10
338.8970717665
 20
121.6438410912
 10
336.6138374871
 20
121.6438410912
 10
334.3322584435
 20
121.7053058862
 10
332.0556427071
 20
121.828146358
 10
329.7872911531
 20
122.0121843997
 10
327.5304926743
 20
122.2571531738
 10
325.2885194128
 20
122.5626974989
 10
323.0646220156
 20
122.9283743651
 10
320.8620249211
 20
123.3536535757
 10
318.6839216848
 20
123.8379185167
 10
316.5334703479
 20
124.38046705
 10
314.4137888594
 20
124.9805125323
 10
312.3279505548
 20
125.637184955
 10
310.2789797002
 20
126.3495322057
 10
308.2698471074
 20
127.1165214492
 10
306.3034658267
 20
127.9370406242
 10
304.3826869229
 20
128.8099000565
 10
302.5102953419
 20
129.7338341834
 10
300.6890058723
 20
130.7075033886
 10
298.9214592098
 20
131.7294959449
 10
297.2102181281
 20
132.7983300608
 10
295.5577637632
 20
133.9124560291
 10
293.9664920159
 20
135.0702584735
 10
292.4387100781
 20
136.2700586912
 10
290.9766330876
 20
137.5101170866
 10
289.5823809162
 20
138.7886356936
 10
288.2579750963
 20
140.1037607825
 10
287.0053358897
 20
141.4535855475
 10
285.8262795035
 20
142.8361528718
 10
284.7225154568
 20
144.249458165
 10
283.6956441019
 20
145.6914522695
 10
282.747154304
 20
147.1600444317
 10
281.8784212828
 20
148.6531053333
 10
281.090704618
 20
150.1684701789
 10
280.3851464236
 20
151.7039418342
 10
279.7627696914
 20
153.2572940122
 10
279.2244768081
 20
154.8262745007
 10
278.7710482471
 20
156.4086084279
 10
278.4031414364
 20
158.0020015609
 10
278.1212898057
 20
159.6041436321
 10
278.0947852104
 20
159.7862382672
  0
LWPOLYLINE
  5
2BF
330
1F
100
AcDbEntity
  8
0
  6
Continuous
 62
     7
370
    25
100
AcDbPolyline
 90
        3
 70
   128
 43
0.0
 10
308.2469626599
 20
200.9466353013
 10
309.2692501517
 20
201.3460354385
 10
309.517680208
 20
201.4403412363
  0
LINE
  5
2C0
330
1F
100
AcDbEntity
  8
0
  6
Continuous
 62
     7
370
    25
100
AcDbLine
 10
297.2348302021
 20
194.1853486398
 30
0.0
 11
296.7090190431
 21
193.8372467244
 31
0.0
  0
LINE
  5
2C1
330
1F
100
AcDbEntity
  8
0
  6
Continuous
 62
     7
370
    25
100
AcDbLine
 10
378.8018902105
 20
193.8372467244
 30
0.0
 11
378.2760790516
 21
194.1853486398
 31
0.0
  0
LINE
  5
2C2
330
1F
100
AcDbEntity
  8
0
  6
Continuous
 62
     7
370
    25
100
AcDbLine
 10
379.4275866913
 20
193.2389551883
 30
0.0
 11
379.880631703
 21
192.9260398933
 31
0.0
  0
LWPOLYLINE
  5
2C3
330
1F
100
AcDbEntity
  8
0
  6
Continuous
 62
     7
370
    25
100
AcDbPolyline
 90
       82
 70
   128
 43
0.0
 10
397.685903486
 20
161.3623499625
 10
397.585007241
 20
159.9282050749
 10
397.3896194481
 20
158.3196370184
 10
397.1077678174
 20
156.7174949472
 10
396.7398610067
 20
155.1241018141
 10
396.2864324457
 20
153.5417678869
 10
395.7481395625
 20
151.9727873984
 10
395.1257628303
 20
150.4194352205
 10
394.4202046358
 20
148.8839635651
 10
393.632487971
 20
147.3685987196
 10
392.7637549498
 20
145.8755378179
 10
391.815265152
 20
144.4069456557
 10
390.7883937971
 20
142.9649515512
 10
389.6846297503
 20
141.551646258
 10
388.5055733641
 20
140.1690789336
 10
387.2529341575
 20
138.8192541686
 10
385.9285283376
 20
137.5041290798
 10
384.5342761662
 20
136.2256104728
 10
383.0721991757
 20
134.9855520773
 10
381.5444172379
 20
133.7857518596
 10
379.9531454906
 20
132.6279494152
 10
378.3006911257
 20
131.513823447
 10
376.589450044
 20
130.444989331
 10
374.8219033815
 20
129.4229967747
 10
373.0006139119
 20
128.4493275695
 10
371.1282223308
 20
127.5253934427
 10
369.207443427
 20
126.6525340104
 10
367.2410621463
 20
125.8320148353
 10
365.2319295536
 20
125.0650255918
 10
363.182958699
 20
124.3526783411
 10
361.0971203943
 20
123.6960059184
 10
358.9774389058
 20
123.0959604361
 10
356.8269875689
 20
122.5534119028
 10
354.6488843326
 20
122.0691469618
 10
352.4462872381
 20
121.6438677512
 10
350.2223898409
 20
121.278190885
 10
347.9804165794
 20
120.9726465599
 10
345.7236181006
 20
120.7276777858
 10
343.4552665466
 20
120.5436397441
 10
341.1786508101
 20
120.4207992723
 10
338.8970717665
 20
120.3593344773
 10
336.6138374871
 20
120.3593344773
 10
334.3322584435
 20
120.4207992723
 10
332.0556427071
 20
120.5436397441
 10
329.787291153
 20
120.7276777858
 10
327.5304926742
 20
120.9726465599
 10
325.2885194128
 20
121.278190885
 10
323.0646220155
 20
121.6438677512
 10
320.8620249211
 20
122.0691469618
 10
318.6839216847
 20
122.5534119028
 10
316.5334703478
 20
123.0959604361
 10
314.4137888593
 20
123.6960059184
 10
312.3279505547
 20
124.3526783411
 10
310.2789797001
 20
125.0650255918
 10
308.2698471073
 20
125.8320148353
 10
306.3034658266
 20
126.6525340104
 10
304.3826869228
 20
127.5253934427
 10
302.5102953417
 20
128.4493275695
 10
300.6890058722
 20
129.4229967747
 10
298.9214592097
 20
130.444989331
 10
297.210218128
 20
131.513823447
 10
295.557763763
 20
132.6279494152
 10
293.9664920157
 20
133.7857518596
 10
292.4387100779
 20
134.9855520773
 10
290.9766330874
 20
136.2256104728
 10
289.582380916
 20
137.5041290798
 10
288.2579750961
 20
138.8192541686
 10
287.0053358895
 20
140.1690789336
 10
285.8262795033
 20
141.551646258
 10
284.7225154566
 20
142.9649515512
 10
283.6956441017
 20
144.4069456557
 10
282.7471543038
 20
145.8755378179
 10
281.8784212826
 20
147.3685987196
 10
281.0907046178
 20
148.8839635651
 10
280.3851464234
 20
150.4194352205
 10
279.7627696911
 20
151.9727873984
 10
279.2244768079
 20
153.5417678869
 10
278.7710482469
 20
155.1241018141
 10
278.4031414362
 20
156.7174949472
 10
278.1212898055
 20
158.3196370184
 10
277.9259020127
 20
159.9282050749
 10
277.8250057677
 20
161.3623499625
  0
LINE
  5
2C4
330
1F
100
AcDbEntity
  8
0
  6
Continuous
 62
     7
370
    25
100
AcDbLine
 10
295.6302775506
 20
192.9260398933
 30
0.0
 11
296.0833225623
 21
193.2389551883
 31
0.0
  0
LWPOLYLINE
  5
2C5
330
1F
100
AcDbEntity
  8
0
  6
Continuous
 62
     7
370
    25
100
AcDbPolyline
 90
       52
 70
   128
 43
0.0
 10
337.7554546268
 20
204.7420689552
 10
335.6082215746
 20
204.7112908531
 10
333.4645164207
 20
204.6190071151
 10
331.327861267
 20
204.4653693632
 10
329.2017666323
 20
204.2506300237
 10
327.0897256846
 20
203.9751419129
 10
324.9952085014
 20
203.6393576569
 10
322.9216563692
 20
203.2438289485
 10
320.8724761285
 20
202.7892056403
 10
318.8510345772
 20
202.2762346771
 10
316.8606529384
 20
201.705758869
 10
314.9046014039
 20
201.0787155061
 10
312.9860937612
 20
200.3961348191
 10
311.1082821134
 20
199.6591382863
 10
309.2742517
 20
198.868936791
 10
307.4870158283
 20
198.0268286321
 10
305.7495109221
 20
197.1341973913
 10
304.0645916973
 20
196.1925096592
 10
302.4350264719
 20
195.2033126264
 10
300.8634926171
 20
194.1682315409
 10
299.3525721591
 20
193.0889670383
 10
297.9047475361
 20
191.9672923474
 10
296.5223975203
 20
190.8050503766
 10
295.207793309
 20
189.6041506866
 10
293.9630947935
 20
188.3665663523
 10
292.7903470102
 20
187.0943307215
 10
291.6914767807
 20
185.7895340741
 10
290.6682895459
 20
184.4543201875
 10
289.7224663996
 20
183.0908828147
 10
288.8555613268
 20
181.7014620795
 10
288.0689986504
 20
180.2883407968
 10
287.3640706906
 20
178.853840721
 10
286.7419356424
 20
177.4003187319
 10
286.2036156719
 20
175.9301629625
 10
285.7499952374
 20
174.4457888747
 10
285.3818196361
 20
172.9496352913
 10
285.0996937796
 20
171.4441603888
 10
284.9040811999
 20
169.9318376583
 10
284.795303288
 20
168.4151518422
 10
284.7735387657
 20
166.8965948513
 10
284.838823392
 20
165.3786616708
 10
284.9910499045
 20
163.8638462609
 10
285.2299681954
 20
162.3546374592
 10
285.5551857226
 20
160.853514892
 10
285.9661681545
 20
159.3629448997
 10
286.4622402481
 20
157.8853764848
 10
287.0425869582
 20
156.4232372884
 10
287.7062547768
 20
154.9789296013
 10
288.4521532993
 20
153.5548264172
 10
289.2790570164
 20
152.153267534
 10
290.1856073275
 20
150.7765557092
 10
290.5791797256
 20
150.2209102119
  0
LWPOLYLINE
  5
2C6
330
1F
100
AcDbEntity
  8
0
  6
Continuous
 62
     7
370
    25
100
AcDbPolyline
 90
       52
 70
   128
 43
0.0
 10
384.9317295281
 20
150.2209102119
 10
385.3253019261
 20
150.7765557092
 10
386.2318522372
 20
152.153267534
 10
387.0587559543
 20
153.5548264172
 10
387.8046544768
 20
154.9789296013
 10
388.4683222954
 20
156.4232372884
 10
389.0486690056
 20
157.8853764848
 10
389.5447410992
 20
159.3629448997
 10
389.9557235311
 20
160.853514892
 10
390.2809410583
 20
162.3546374592
 10
390.5198593492
 20
163.8638462609
 10
390.6720858616
 20
165.3786616708
 10
390.7373704879
 20
166.8965948513
 10
390.7156059656
 20
168.4151518422
 10
390.6068280537
 20
169.9318376583
 10
390.411215474
 20
171.4441603888
 10
390.1290896175
 20
172.9496352913
 10
389.7609140163
 20
174.4457888747
 10
389.3072935818
 20
175.9301629625
 10
388.7689736113
 20
177.4003187319
 10
388.146838563
 20
178.853840721
 10
387.4419106032
 20
180.2883407968
 10
386.6553479268
 20
181.7014620795
 10
385.788442854
 20
183.0908828147
 10
384.8426197078
 20
184.4543201875
 10
383.8194324729
 20
185.7895340741
 10
382.7205622434
 20
187.0943307215
 10
381.5478144601
 20
188.3665663523
 10
380.3031159447
 20
189.6041506866
 10
378.9885117334
 20
190.8050503766
 10
377.6061617175
 20
191.9672923474
 10
376.1583370945
 20
193.0889670383
 10
374.6474166365
 20
194.1682315409
 10
373.0758827818
 20
195.2033126264
 10
371.4463175563
 20
196.1925096592
 10
369.7613983315
 20
197.1341973913
 10
368.0238934253
 20
198.0268286321
 10
366.2366575536
 20
198.868936791
 10
364.4026271403
 20
199.6591382863
 10
362.5248154924
 20
200.3961348191
 10
360.6063078498
 20
201.0787155061
 10
358.6502563153
 20
201.705758869
 10
356.6598746764
 20
202.2762346771
 10
354.6384331251
 20
202.7892056403
 10
352.5892528845
 20
203.2438289485
 10
350.5157007522
 20
203.6393576569
 10
348.4211835691
 20
203.9751419129
 10
346.3091426213
 20
204.2506300237
 10
344.1830479866
 20
204.4653693632
 10
342.0463928329
 20
204.6190071151
 10
339.902687679
 20
204.7112908531
 10
337.7554546268
 20
204.7420689552
  0
LINE
  5
2C7
330
1F
100
AcDbEntity
  8
0
  6
Continuous
 62
     7
370
    25
100
AcDbLine
 10
292.5311482888
 20
189.8601914117
 30
0.0
 11
292.2130635858
 21
189.596740583
 31
0.0
  0
LINE
  5
2C8
330
1F
100
AcDbEntity
  8
0
  6
Continuous
 62
     7
370
    25
100
AcDbLine
 10
383.2978456679
 20
189.596740583
 30
0.0
 11
382.9797609648
 21
189.8601914117
 31
0.0
  0
LINE
  5
2C9
330
1F
100
AcDbEntity
  8
0
  6
Continuous
 62
     7
370
    25
100
AcDbLine
 10
383.524330297
 20
189.2661171156
 30
0.0
 11
383.8108723117
 21
189.0249234044
 31
0.0
  0
LWPOLYLINE
  5
2CA
330
1F
100
AcDbEntity
  8
0
  6
Continuous
 62
     7
370
    25
100
AcDbPolyline
 90
       84
 70
   128
 43
0.0
 10
397.7166748443
 20
161.5808955411
 10
397.6936479021
 20
160.6625589132
 10
397.5850072408
 20
159.0498971413
 10
397.389619448
 20
157.4413290848
 10
397.1077678173
 20
155.8391870136
 10
396.7398610065
 20
154.2457938806
 10
396.2864324456
 20
152.6634599533
 10
395.7481395623
 20
151.0944794649
 10
395.1257628301
 20
149.5411272869
 10
394.4202046357
 20
148.0056556316
 10
393.6324879709
 20
146.490290786
 10
392.7637549497
 20
144.9972298844
 10
391.8152651518
 20
143.5286377222
 10
390.7883937969
 20
142.0866436177
 10
389.6846297502
 20
140.6733383245
 10
388.505573364
 20
139.2907710002
 10
387.2529341574
 20
137.9409462351
 10
385.9285283375
 20
136.6258211463
 10
384.5342761661
 20
135.3473025393
 10
383.0721991756
 20
134.1072441439
 10
381.5444172378
 20
132.9074439261
 10
379.9531454905
 20
131.7496414817
 10
378.3006911256
 20
130.6355155135
 10
376.5894500439
 20
129.5666813976
 10
374.8219033814
 20
128.5446888413
 10
373.0006139118
 20
127.571019636
 10
371.1282223307
 20
126.6470855092
 10
369.2074434269
 20
125.7742260769
 10
367.2410621462
 20
124.9537069018
 10
365.2319295535
 20
124.1867176584
 10
363.1829586989
 20
123.4743704076
 10
361.0971203943
 20
122.817697985
 10
358.9774389057
 20
122.2176525027
 10
356.8269875689
 20
121.6751039693
 10
354.6488843325
 20
121.1908390284
 10
352.4462872381
 20
120.7655598177
 10
350.2223898408
 20
120.3998829516
 10
347.9804165794
 20
120.0943386264
 10
345.7236181006
 20
119.8493698524
 10
343.4552665465
 20
119.6653318106
 10
341.1786508101
 20
119.5424913388
 10
338.8970717665
 20
119.4810265439
 10
336.6138374871
 20
119.4810265439
 10
334.3322584435
 20
119.5424913388
 10
332.0556427071
 20
119.6653318106
 10
329.787291153
 20
119.8493698524
 10
327.5304926743
 20
120.0943386264
 10
325.2885194128
 20
120.3998829516
 10
323.0646220156
 20
120.7655598177
 10
320.8620249211
 20
121.1908390284
 10
318.6839216848
 20
121.6751039693
 10
316.5334703479
 20
122.2176525027
 10
314.4137888594
 20
122.817697985
 10
312.3279505548
 20
123.4743704076
 10
310.2789797001
 20
124.1867176584
 10
308.2698471074
 20
124.9537069018
 10
306.3034658267
 20
125.7742260769
 10
304.3826869229
 20
126.6470855092
 10
302.5102953418
 20
127.571019636
 10
300.6890058723
 20
128.5446888413
 10
298.9214592098
 20
129.5666813976
 10
297.2102181281
 20
130.6355155135
 10
295.5577637632
 20
131.7496414817
 10
293.9664920158
 20
132.9074439261
 10
292.438710078
 20
134.1072441439
 10
290.9766330875
 20
135.3473025393
 10
289.5823809161
 20
136.6258211463
 10
288.2579750962
 20
137.9409462351
 10
287.0053358896
 20
139.2907710002
 10
285.8262795035
 20
140.6733383245
 10
284.7225154567
 20
142.0866436177
 10
283.6956441018
 20
143.5286377222
 10
282.747154304
 20
144.9972298844
 10
281.8784212827
 20
146.490290786
 10
281.090704618
 20
148.0056556316
 10
280.3851464235
 20
149.5411272869
 10
279.7627696913
 20
151.0944794649
 10
279.2244768081
 20
152.6634599533
 10
278.7710482471
 20
154.2457938806
 10
278.4031414364
 20
155.8391870136
 10
278.1212898057
 20
157.4413290848
 10
277.9259020128
 20
159.0498971413
 10
277.8172613516
 20
160.6625589132
 10
277.7942344093
 20
161.5808955411
  0
LINE
  5
2CB
330
1F
100
AcDbEntity
  8
0
  6
Continuous
 62
     7
370
    25
100
AcDbLine
 10
291.7000369419
 20
189.0249234044
 30
0.0
 11
291.9865789566
 21
189.2661171156
 31
0.0
  0
LWPOLYLINE
  5
2CC
330
1F
100
AcDbEntity
  8
0
  6
Continuous
 62
     7
370
    25
100
AcDbPolyline
 90
        3
 70
   128
 43
0.0
 10
315.1729092289
 20
199.6046395944
 10
314.1090256531
 20
199.269561957
 10
313.1591607048
 20
198.9545733997
  0
LINE
  5
2CD
330
1F
100
AcDbEntity
  8
0
  6
Continuous
 62
     7
370
    25
100
AcDbLine
 10
285.0741114201
 20
177.7805801473
 30
0.0
 11
284.9773317384
 21
177.6099378977
 31
0.0
  0
LINE
  5
2CE
330
1F
100
AcDbEntity
  8
0
  6
Continuous
 62
     7
370
    25
100
AcDbLine
 10
390.5335775153
 20
177.6099378977
 30
0.0
 11
390.4367978336
 21
177.7805801473
 31
0.0
  0
LWPOLYLINE
  5
2CF
330
1F
100
AcDbEntity
  8
0
  6
Continuous
 62
     7
370
    25
100
AcDbPolyline
 90
        3
 70
   128
 43
0.0
 10
362.3517485488
 20
198.9545733997
 10
361.4018836006
 20
199.269561957
 10
360.3380000247
 20
199.6046395944
  0
LINE
  5
2D0
330
1F
100
AcDbEntity
  8
0
  6
Continuous
 62
     7
370
    25
100
AcDbLine
 10
286.5487897424
 20
181.3147481808
 30
0.0
 11
286.392527719
 21
181.0909144235
 31
0.0
  0
LINE
  5
2D1
330
1F
100
AcDbEntity
  8
0
  6
Continuous
 62
     7
370
    25
100
AcDbLine
 10
389.1183815347
 20
181.0909144235
 30
0.0
 11
388.9621195113
 21
181.3147481808
 31
0.0
  0
LWPOLYLINE
  5
2D2
330
1F
100
AcDbEntity
  8
0
  6
Continuous
 62
     7
370
    25
100
AcDbPolyline
 90
       33
 70
   128
 43
0.0
 10
337.7554546268
 20
203.1647383344
 10
339.920986068
 20
203.1338969768
 10
342.0830050093
 20
203.041422929
 10
344.238004648
 20
202.8874661843
 10
346.3824895669
 20
202.6722764609
 10
348.5129814035
 20
202.3962027974
 10
350.6260244924
 20
202.0596929863
 10
352.7181914699
 20
201.6632928477
 10
354.7860888336
 20
201.2076453442
 10
356.8263624462
 20
200.6934895376
 10
358.8357029767
 20
200.1216593906
 10
360.8108512672
 20
199.4930824137
 10
362.7486036201
 20
198.808778161
 10
364.6458169939
 20
198.0698565766
 10
366.4994141016
 20
197.2775161941
 10
368.3063884019
 20
196.4330421923
 10
370.063808976
 20
195.5378043112
 10
371.7688252811
 20
194.59325463
 10
373.4186717746
 20
193.6009252116
 10
375.0106723995
 20
192.562425618
 10
376.542244925
 20
191.4794402994
 10
378.0109051347
 20
190.3537258619
 10
379.4142708566
 20
189.1871082184
 10
380.7500658261
 20
187.981479627
 10
382.0161233791
 20
186.7387956217
 10
383.2103899655
 20
185.4610718405
 10
384.3309284805
 20
184.150380756
 10
385.3759214067
 20
182.8088483141
 10
386.3436737615
 20
181.4386504851
 10
387.2326158473
 20
180.042009735
 10
388.0413057966
 20
178.6211914202
 10
388.7684319115
 20
177.1785001132
 10
389.2379133916
 20
176.1342683209
  0
LWPOLYLINE
  5
2D3
330
1F
100
AcDbEntity
  8
0
  6
Continuous
 62
     7
370
    25
100
AcDbPolyline
 90
       33
 70
   128
 43
0.0
 10
286.272995862
 20
176.1342683209
 10
286.7424773422
 20
177.1785001132
 10
287.469603457
 20
178.6211914202
 10
288.2782934063
 20
180.042009735
 10
289.1672354921
 20
181.4386504851
 10
290.134987847
 20
182.8088483141
 10
291.1799807731
 20
184.150380756
 10
292.3005192882
 20
185.4610718405
 10
293.4947858746
 20
186.7387956217
 10
294.7608434275
 20
187.981479627
 10
296.0966383971
 20
189.1871082184
 10
297.5000041189
 20
190.3537258619
 10
298.9686643286
 20
191.4794402994
 10
300.5002368541
 20
192.562425618
 10
302.092237479
 20
193.6009252116
 10
303.7420839725
 20
194.59325463
 10
305.4471002777
 20
195.5378043112
 10
307.2045208517
 20
196.4330421923
 10
309.011495152
 20
197.2775161941
 10
310.8650922598
 20
198.0698565766
 10
312.7623056336
 20
198.808778161
 10
314.7000579864
 20
199.4930824137
 10
316.675206277
 20
200.1216593906
 10
318.6845468074
 20
200.6934895376
 10
320.7248204201
 20
201.2076453442
 10
322.7927177837
 20
201.6632928477
 10
324.8848847612
 20
202.0596929863
 10
326.9979278501
 20
202.3962027974
 10
329.1284196868
 20
202.6722764609
 10
331.2729046056
 20
202.8874661843
 10
333.4279042444
 20
203.041422929
 10
335.5899231856
 20
203.1338969768
 10
337.7554546268
 20
203.1647383344
  0
LWPOLYLINE
  5
2D4
330
1F
100
AcDbEntity
  8
0
  6
Continuous
 62
     7
370
    25
100
AcDbPolyline
 90
        3
 70
   128
 43
0.0
 10
357.3981357228
 20
200.4924003368
 10
359.2186978188
 20
199.985294189
 10
360.4861829288
 20
199.6010804372
  0
LWPOLYLINE
  5
2D5
330
1F
100
AcDbEntity
  8
0
  6
Continuous
 62
     7
370
    25
100
AcDbPolyline
 90
        3
 70
   128
 43
0.0
 10
391.0888097405
 20
175.6173746808
 10
391.0965600214
 20
175.6005209393
 10
391.1653449099
 20
175.4498044848
  0
LWPOLYLINE
  5
2D6
330
1F
100
AcDbEntity
  8
0
  6
Continuous
 62
     7
370
    25
100
AcDbPolyline
 90
        3
 70
   128
 43
0.0
 10
284.3455643437
 20
175.4498044848
 10
284.4143492323
 20
175.6005209393
 10
284.4220995131
 20
175.6173746808
  0
LWPOLYLINE
  5
2D7
330
1F
100
AcDbEntity
  8
0
  6
Continuous
 62
     7
370
    25
100
AcDbPolyline
 90
        3
 70
   128
 43
0.0
 10
315.0247263249
 20
199.6010804372
 10
316.2922114349
 20
199.985294189
 10
318.1127735308
 20
200.4924003368
  0
LWPOLYLINE
  5
2D8
330
1F
100
AcDbEntity
  8
0
  6
Continuous
 62
     7
370
    25
100
AcDbPolyline
 90
       33
 70
   128
 43
0.0
 10
337.7554546268
 20
203.1196135855
 10
339.9209928001
 20
203.0887721321
 10
342.0830184626
 20
202.9962977968
 10
344.2380248007
 20
202.8423405734
 10
346.3825163863
 20
202.6271501811
 10
348.5130148462
 20
202.3510756593
 10
350.626064504
 20
202.0145648021
 10
352.7182379856
 20
201.6181634313
 10
354.7861417778
 20
201.1625145112
 10
356.8264217332
 20
200.6483571063
 10
358.8357685102
 20
200.0765251815
 10
360.810922941
 20
199.4479462505
 10
362.7486813179
 20
198.7636398705
 10
364.6459005897
 20
198.024715989
 10
366.4995034599
 20
197.2323731432
 10
368.3064833776
 20
196.3878965162
 10
370.0639094151
 20
195.492655852
 10
371.7689310207
 20
194.5481032344
 10
373.4187826432
 20
193.5557707311
 10
375.0107882173
 20
192.5172679091
 10
376.5423655041
 20
191.4342792237
 10
378.0110302795
 20
190.3085612866
 10
379.4144003641
 20
189.1419400163
 10
380.7501994863
 20
187.9363076769
 10
382.0162609752
 20
186.6936198084
 10
383.2105312742
 20
185.4158920551
 10
384.3310732728
 20
184.105196896
 10
385.3760694476
 20
182.7636602835
 10
386.343824811
 20
181.3934581949
 10
387.2327696602
 20
179.996813103
 10
388.0414621236
 20
178.5759903712
 10
388.7685904989
 20
177.1332945792
 10
389.3146651337
 20
175.908177034
  0
LWPOLYLINE
  5
2D9
330
1F
100
AcDbEntity
  8
0
  6
Continuous
 62
     7
370
    25
100
AcDbPolyline
 90
       33
 70
   128
 43
0.0
 10
286.1962441199
 20
175.908177034
 10
286.7423187547
 20
177.1332945792
 10
287.4694471301
 20
178.5759903712
 10
288.2781395934
 20
179.996813103
 10
289.1670844427
 20
181.3934581949
 10
290.1348398061
 20
182.7636602835
 10
291.1798359809
 20
184.105196896
 10
292.3003779794
 20
185.4158920551
 10
293.4946482785
 20
186.6936198084
 10
294.7607097673
 20
187.9363076769
 10
296.0965088895
 20
189.1419400163
 10
297.4998789741
 20
190.3085612866
 10
298.9685437496
 20
191.4342792237
 10
300.5001210363
 20
192.5172679091
 10
302.0921266104
 20
193.5557707311
 10
303.7419782329
 20
194.5481032344
 10
305.4469998386
 20
195.492655852
 10
307.204425876
 20
196.3878965162
 10
309.0114057938
 20
197.2323731432
 10
310.8650086639
 20
198.024715989
 10
312.7622279357
 20
198.7636398705
 10
314.6999863126
 20
199.4479462505
 10
316.6751407434
 20
200.0765251815
 10
318.6844875204
 20
200.6483571063
 10
320.7247674758
 20
201.1625145112
 10
322.792671268
 20
201.6181634313
 10
324.8848447496
 20
202.0145648021
 10
326.9978944075
 20
202.3510756593
 10
329.1283928673
 20
202.6271501811
 10
331.2728844529
 20
202.8423405734
 10
333.427890791
 20
202.9962977968
 10
335.5899164535
 20
203.0887721321
 10
337.7554546268
 20
203.1196135855
  0
LINE
  5
2DA
330
1F
100
AcDbEntity
  8
0
  6
Continuous
 62
     7
370
    25
100
AcDbLine
 10
379.0605071072
 20
189.4452148739
 30
0.0
 11
379.7205560882
 21
188.919385138
 31
0.0
  0
LINE
  5
2DB
330
1F
100
AcDbEntity
  8
0
  6
Continuous
 62
     7
370
    25
100
AcDbLine
 10
391.646693928
 20
172.9289651913
 30
0.0
 11
391.6950826226
 21
172.7960135453
 31
0.0
  0
LINE
  5
2DC
330
1F
100
AcDbEntity
  8
0
  6
Continuous
 62
     7
370
    25
100
AcDbLine
 10
283.815826631
 20
172.7960135453
 30
0.0
 11
283.8642153256
 21
172.9289651913
 31
0.0
  0
LINE
  5
2DD
330
1F
100
AcDbEntity
  8
0
  6
Continuous
 62
     7
370
    25
100
AcDbLine
 10
295.7903531654
 20
188.919385138
 30
0.0
 11
296.4504021465
 21
189.4452148739
 31
0.0
  0
LWPOLYLINE
  5
2DE
330
1F
100
AcDbEntity
  8
0
  6
Continuous
 62
     7
370
    25
100
AcDbPolyline
 90
        3
 70
   128
 43
0.0
 10
310.3394562387
 20
197.8073461076
 10
310.1031479339
 20
197.714981215
 10
308.9265914024
 20
197.2394731334
  0
LWPOLYLINE
  5
2DF
330
1F
100
AcDbEntity
  8
0
  6
Continuous
 62
     7
370
    25
100
AcDbPolyline
 90
        3
 70
   128
 43
0.0
 10
366.5843178512
 20
197.2394731334
 10
365.4077613197
 20
197.714981215
 10
365.1714530149
 20
197.8073461076
  0
LINE
  5
2E0
330
1F
100
AcDbEntity
  8
0
  6
Continuous
 62
     7
370
    25
100
AcDbLine
 10
363.696682018
 20
198.4032182573
 30
0.0
 11
365.3039446553
 21
197.7967568657
 31
0.0
  0
LINE
  5
2E1
330
1F
100
AcDbEntity
  8
0
  6
Continuous
 62
     7
370
    25
100
AcDbLine
 10
310.2069645983
 20
197.7967568657
 30
0.0
 11
311.8142272357
 21
198.4032182573
 31
0.0
  0
LINE
  5
2E2
330
1F
100
AcDbEntity
  8
0
  6
Continuous
 62
     7
370
    25
100
AcDbLine
 10
291.9079653507
 20
184.9703182219
 30
0.0
 11
291.6752337021
 21
184.7444345419
 31
0.0
  0
LINE
  5
2E3
330
1F
100
AcDbEntity
  8
0
  6
Continuous
 62
     7
370
    25
100
AcDbLine
 10
284.2030658732
 20
174.7104271287
 30
0.0
 11
284.1461708881
 21
174.5973122057
 31
0.0
  0
LINE
  5
2E4
330
1F
100
AcDbEntity
  8
0
  6
Continuous
 62
     7
370
    25
100
AcDbLine
 10
391.3647383656
 20
174.5973122057
 30
0.0
 11
391.3078433805
 21
174.7104271287
 31
0.0
  0
LINE
  5
2E5
330
1F
100
AcDbEntity
  8
0
  6
Continuous
 62
     7
370
    25
100
AcDbLine
 10
383.8356755515
 20
184.7444345419
 30
0.0
 11
383.6029439029
 21
184.9703182219
 31
0.0
  0
LWPOLYLINE
  5
2E6
330
1F
100
AcDbEntity
  8
0
  6
Continuous
 62
     7
370
    25
100
AcDbPolyline
 90
        3
 70
   128
 43
0.0
 10
309.2758999152
 20
197.349882021
 10
308.174652816
 20
196.8882567201
 10
307.9702736277
 20
196.7999564913
  0
LINE
  5
2E7
330
1F
100
AcDbEntity
  8
0
  6
Continuous
 62
     7
370
    25
100
AcDbLine
 10
285.0522963263
 20
177.7169902762
 30
0.0
 11
284.9585530844
 21
177.5537179566
 31
0.0
  0
LINE
  5
2E8
330
1F
100
AcDbEntity
  8
0
  6
Continuous
 62
     7
370
    25
100
AcDbLine
 10
390.5523561692
 20
177.5537179566
 30
0.0
 11
390.4586129274
 21
177.7169902762
 31
0.0
  0
LWPOLYLINE
  5
2E9
330
1F
100
AcDbEntity
  8
0
  6
Continuous
 62
     7
370
    25
100
AcDbPolyline
 90
        3
 70
   128
 43
0.0
 10
367.540635626
 20
196.7999564913
 10
367.3362564377
 20
196.8882567201
 10
366.2350093385
 20
197.349882021
  0
ARC
  5
2EA
330
1F
100
AcDbEntity
  8
0
  6
Continuous
 62
     7
370
    25
100
AcDbCircle
 10
363.2892731996
 20
164.478280515
 30
0.0
 40
27.46056790716046
100
AcDbArc
 50
3.1585432984
 51
20.28314105
  0
ARC
  5
2EB
330
1F
100
AcDbEntity
  8
0
  6
Continuous
 62
     7
370
    25
100
AcDbCircle
 10
312.2216360541
 20
164.478280515
 30
0.0
 40
27.46056790718177
100
AcDbArc
 50
159.71685895
 51
176.8414567016
  0
LWPOLYLINE
  5
2EC
330
1F
100
AcDbEntity
  8
0
  6
Continuous
 62
     7
370
    25
100
AcDbPolyline
 90
       43
 70
   128
 43
0.0
 10
337.7554546268
 20
200.1305924564
 10
339.8745796786
 20
200.1000199538
 10
341.9901776559
 20
200.0083533309
 10
344.0987273546
 20
199.8557451578
 10
346.1967193018
 20
199.6424494357
 10
348.2806615971
 20
199.3688211743
 10
350.3470857241
 20
199.0353158008
 10
352.3925523238
 20
198.642488402
 10
354.4136569189
 20
198.1909928004
 10
356.4070355803
 20
197.6815804657
 10
358.3693705259
 20
197.1150992647
 10
360.2973956428
 20
196.4924920493
 10
362.1879019236
 20
195.8147950878
 10
364.037742807
 20
195.0831363398
 10
365.8438394156
 20
194.2987335793
 10
367.6031856797
 20
193.4628923671
 10
369.3128533411
 20
192.5770038785
 10
370.9699968267
 20
191.6425425874
 10
372.5718579847
 20
190.6610638125
 10
374.1157706754
 20
189.6342011283
 10
375.5991652083
 20
188.5636636463
 10
377.0195726198
 20
187.4512331707
 10
378.3746287818
 20
186.298761232
 10
379.6620783371
 20
185.1081660062
 10
380.879778453
 20
183.8814291214
 10
382.0257023877
 20
182.6205923603
 10
383.0979428641
 20
181.327754261
 10
384.0947152435
 20
180.0050666251
 10
385.0143604969
 20
178.6547309356
 10
385.8553479654
 20
177.2789946929
 10
386.6162779084
 20
175.8801476743
 10
387.2958838331
 20
174.4605181226
 10
387.8930346024
 20
173.0224688711
 10
388.4067363179
 20
171.5683934108
 10
388.8361339738
 20
170.1007119069
 10
389.18051288
 20
168.6218671703
 10
389.4392998518
 20
167.1343205922
 10
389.6120641639
 20
165.640548047
 10
389.6985182672
 20
164.1430357718
 10
389.6985182672
 20
162.6442762278
 10
389.6120641639
 20
161.1467639526
 10
389.4392998518
 20
159.6529914074
 10
389.2213066213
 20
158.370157273
  0
LWPOLYLINE
  5
2ED
330
1F
100
AcDbEntity
  8
0
  6
Continuous
 62
     7
370
    25
100
AcDbPolyline
 90
       43
 70
   128
 43
0.0
 10
286.2896026324
 20
158.370157273
 10
286.0716094018
 20
159.6529914074
 10
285.8988450897
 20
161.1467639526
 10
285.8123909865
 20
162.6442762278
 10
285.8123909865
 20
164.1430357718
 10
285.8988450897
 20
165.640548047
 10
286.0716094018
 20
167.1343205922
 10
286.3303963736
 20
168.6218671703
 10
286.6747752798
 20
170.1007119069
 10
287.1041729357
 20
171.5683934108
 10
287.6178746512
 20
173.0224688711
 10
288.2150254206
 20
174.4605181226
 10
288.8946313452
 20
175.8801476743
 10
289.6555612882
 20
177.2789946929
 10
290.4965487567
 20
178.6547309356
 10
291.4161940101
 20
180.0050666251
 10
292.4129663896
 20
181.327754261
 10
293.4852068659
 20
182.6205923603
 10
294.6311308007
 20
183.8814291214
 10
295.8488309165
 20
185.1081660062
 10
297.1362804718
 20
186.298761232
 10
298.4913366338
 20
187.4512331707
 10
299.9117440453
 20
188.5636636463
 10
301.3951385783
 20
189.6342011283
 10
302.9390512689
 20
190.6610638125
 10
304.540912427
 20
191.6425425874
 10
306.1980559126
 20
192.5770038785
 10
307.907723574
 20
193.4628923671
 10
309.6670698381
 20
194.2987335793
 10
311.4731664466
 20
195.0831363398
 10
313.3230073301
 20
195.8147950878
 10
315.2135136108
 20
196.4924920493
 10
317.1415387278
 20
197.1150992647
 10
319.1038736734
 20
197.6815804657
 10
321.0972523347
 20
198.1909928004
 10
323.1183569298
 20
198.642488402
 10
325.1638235295
 20
199.0353158008
 10
327.2302476565
 20
199.3688211743
 10
329.3141899518
 20
199.6424494357
 10
331.4121818991
 20
199.8557451578
 10
333.5207315978
 20
200.0083533309
 10
335.636329575
 20
200.1000199538
 10
337.7554546268
 20
200.1305924564
  0
LWPOLYLINE
  5
2EE
330
1F
100
AcDbEntity
  8
0
  6
Continuous
 62
     8
370
    18
100
AcDbPolyline
 90
      166
 70
   128
 43
0.0
 10
337.7554546268
 20
210.9890727397
 10
335.4726341939
 20
210.9583347708
 10
333.1931236324
 20
210.8661654313
 10
330.9202280147
 20
210.7126983579
 10
328.657242822
 20
210.4981560633
 10
326.4074491668
 20
210.2228496131
 10
324.1741090345
 20
209.8871781755
 10
321.960460555
 20
209.491628442
 10
319.7697133068
 20
209.0367739218
 10
317.6050436641
 20
208.5232741105
 10
315.469590191
 20
207.9518735337
 10
313.3664490907
 20
207.3234006677
 10
311.2986697168
 20
206.6387667381
 10
309.2692501517
 20
205.8989643985
 10
307.2811328598
 20
205.1050662917
 10
305.3372004211
 20
204.2582234939
 10
303.4402713518
 20
203.3596638464
 10
301.5930960177
 20
202.4106901746
 10
299.7983526464
 20
201.4126783998
 10
298.0586434442
 20
200.3670755435
 10
296.3764908232
 20
199.2753976299
 10
294.7543337439
 20
198.1392274876
 10
293.1945241789
 20
196.9602124548
 10
291.6993237029
 20
195.7400619905
 10
290.2709002138
 20
194.4805451962
 10
288.911324789
 20
193.1834882509
 10
287.622568683
 20
191.8507717632
 10
286.4065004688
 20
190.4843280445
 10
285.2648833291
 20
189.0861383076
 10
284.1993724997
 20
187.6582297939
 10
283.2115128693
 20
186.2026728344
 10
282.30273674
 20
184.7215778473
 10
281.4743617504
 20
183.217092279
 10
280.7275889649
 20
181.6913974895
 10
280.0635011326
 20
180.1467055905
 10
279.4830611176
 20
178.5852562376
 10
278.9871105022
 20
177.0093133831
 10
278.5763683675
 20
175.4211619934
 10
278.2514302503
 20
173.8231047363
 10
278.0127672798
 20
172.2174586419
 10
277.8607254945
 20
170.6065517436
 10
277.7955253404
 20
168.9927197024
 10
277.8172613516
 20
167.3783024205
 10
277.9259020129
 20
165.7656406486
 10
278.1212898057
 20
164.1570725921
 10
278.4031414364
 20
162.5549305209
 10
278.7710482471
 20
160.9615373879
 10
279.2244768081
 20
159.3792034606
 10
279.7627696914
 20
157.8102229722
 10
280.3851464236
 20
156.2568707942
 10
281.090704618
 20
154.7213991389
 10
281.8784212828
 20
153.2060342933
 10
282.747154304
 20
151.7129733917
 10
283.6956441018
 20
150.2443812295
 10
284.7225154568
 20
148.802387125
 10
285.8262795035
 20
147.3890818318
 10
287.0053358897
 20
146.0065145075
 10
288.2579750963
 20
144.6566897424
 10
289.5823809162
 20
143.3415646536
 10
290.9766330876
 20
142.0630460466
 10
292.4387100781
 20
140.8229876512
 10
293.9664920159
 20
139.6231874335
 10
295.5577637632
 20
138.465384989
 10
297.2102181281
 20
137.3512590208
 10
298.9214592098
 20
136.2824249049
 10
300.6890058723
 20
135.2604323486
 10
302.5102953419
 20
134.2867631434
 10
304.3826869229
 20
133.3628290165
 10
306.3034658267
 20
132.4899695842
 10
308.2698471074
 20
131.6694504092
 10
310.2789797002
 20
130.9024611657
 10
312.3279505548
 20
130.190113915
 10
314.4137888594
 20
129.5334414923
 10
316.5334703479
 20
128.93339601
 10
318.6839216848
 20
128.3908474766
 10
320.8620249211
 20
127.9065825357
 10
323.0646220156
 20
127.4813033251
 10
325.2885194128
 20
127.1156264589
 10
327.5304926743
 20
126.8100821338
 10
329.7872911531
 20
126.5651133597
 10
332.0556427071
 20
126.3810753179
 10
334.3322584435
 20
126.2582348461
 10
336.6138374871
 20
126.1967700512
 10
338.8970717665
 20
126.1967700512
 10
341.1786508101
 20
126.2582348461
 10
343.4552665465
 20
126.3810753179
 10
345.7236181006
 20
126.5651133597
 10
347.9804165794
 20
126.8100821338
 10
350.2223898408
 20
127.1156264589
 10
352.4462872381
 20
127.4813033251
 10
354.6488843325
 20
127.9065825357
 10
356.8269875689
 20
128.3908474766
 10
358.9774389057
 20
128.93339601
 10
361.0971203942
 20
129.5334414923
 10
363.1829586989
 20
130.190113915
 10
365.2319295535
 20
130.9024611657
 10
367.2410621462
 20
131.6694504092
 10
369.2074434269
 20
132.4899695842
 10
371.1282223307
 20
133.3628290165
 10
373.0006139118
 20
134.2867631434
 10
374.8219033814
 20
135.2604323486
 10
376.5894500438
 20
136.2824249049
 10
378.3006911255
 20
137.3512590208
 10
379.9531454904
 20
138.465384989
 10
381.5444172378
 20
139.6231874335
 10
383.0721991756
 20
140.8229876512
 10
384.5342761661
 20
142.0630460466
 10
385.9285283375
 20
143.3415646536
 10
387.2529341574
 20
144.6566897424
 10
388.505573364
 20
146.0065145075
 10
389.6846297501
 20
147.3890818318
 10
390.7883937969
 20
148.802387125
 10
391.8152651518
 20
150.2443812295
 10
392.7637549496
 20
151.7129733917
 10
393.6324879708
 20
153.2060342933
 10
394.4202046356
 20
154.7213991389
 10
395.1257628301
 20
156.2568707942
 10
395.7481395623
 20
157.8102229722
 10
396.2864324455
 20
159.3792034606
 10
396.7398610065
 20
160.9615373879
 10
397.1077678172
 20
162.5549305209
 10
397.3896194479
 20
164.1570725921
 10
397.5850072407
 20
165.7656406486
 10
397.693647902
 20
167.3783024205
 10
397.7153839132
 20
168.9927197024
 10
397.6501837592
 20
170.6065517436
 10
397.4981419739
 20
172.2174586419
 10
397.2594790034
 20
173.8231047363
 10
396.9345408862
 20
175.4211619934
 10
396.5237987514
 20
177.0093133831
 10
396.0278481361
 20
178.5852562376
 10
395.447408121
 20
180.1467055905
 10
394.7833202888
 20
181.6913974895
 10
394.0365475033
 20
183.217092279
 10
393.2081725136
 20
184.7215778473
 10
392.2993963843
 20
186.2026728344
 10
391.311536754
 20
187.6582297939
 10
390.2460259245
 20
189.0861383076
 10
389.1044087848
 20
190.4843280445
 10
387.8883405707
 20
191.8507717632
 10
386.5995844646
 20
193.1834882509
 10
385.2400090398
 20
194.4805451962
 10
383.8115855507
 20
195.7400619905
 10
382.3163850748
 20
196.9602124548
 10
380.7565755098
 20
198.1392274876
 10
379.1344184304
 20
199.2753976299
 10
377.4522658094
 20
200.3670755435
 10
375.7125566072
 20
201.4126783998
 10
373.9178132359
 20
202.4106901746
 10
372.0706379018
 20
203.3596638464
 10
370.1737088325
 20
204.2582234939
 10
368.2297763938
 20
205.1050662917
 10
366.2416591019
 20
205.8989643985
 10
364.2122395369
 20
206.6387667381
 10
362.144460163
 20
207.3234006677
 10
360.0413190627
 20
207.9518735337
 10
357.9058655895
 20
208.5232741105
 10
355.7411959468
 20
209.0367739218
 10
353.5504486987
 20
209.491628442
 10
351.3368002191
 20
209.8871781755
 10
349.1034600869
 20
210.2228496131
 10
346.8536664316
 20
210.4981560633
 10
344.590681239
 20
210.7126983579
 10
342.3177856212
 20
210.8661654313
 10
340.0382750597
 20
210.9583347708
 10
337.7554546268
 20
210.9890727397
  0
LWPOLYLINE
  5
2EF
330
1F
100
AcDbEntity
  8
0
  6
Continuous
 62
     8
370
    18
100
AcDbPolyline
 90
       76
 70
   128
 43
0.0
 10
278.8098235224
 20
160.5583083254
 10
279.0553159946
 20
159.5386293414
 10
279.506559315
 20
157.9639212687
 10
280.042257965
 20
156.4025022796
 10
280.6616352328
 20
154.8566362823
 10
281.3637930804
 20
153.3285646348
 10
282.1477134462
 20
151.8205028949
 10
283.0122597205
 20
150.3346376079
 10
283.956178394
 20
148.8731231364
 10
284.9781008747
 20
147.4380785367
 10
286.0765454728
 20
146.0315844863
 10
287.2499195487
 20
144.6556802671
 10
288.496521822
 20
143.3123608086
 10
289.8145448386
 20
142.0035737957
 10
291.2020775913
 20
140.7312168444
 10
292.6571082902
 20
139.4971347507
 10
294.1775272797
 20
138.3031168155
 10
295.7611300979
 20
137.1508942508
 10
297.4056206719
 20
136.0421376692
 10
299.1086146476
 20
134.9784546616
 10
300.8676428467
 20
133.9613874667
 10
302.6801548463
 20
132.9924107348
 10
304.5435226774
 20
132.0729293894
 10
306.4550446347
 20
131.2042765907
 10
308.4119491941
 20
130.3877118021
 10
310.4113990312
 20
129.6244189645
 10
312.4504951348
 20
128.9155047795
 10
314.5262810104
 20
128.261997105
 10
316.6357469671
 20
127.6648434646
 10
318.7758344807
 20
127.124909674
 10
320.9434406292
 20
126.6429785856
 10
323.1354225907
 20
126.2197489533
 10
325.3486022009
 20
125.8558344197
 10
327.5797705611
 20
125.5517626261
 10
329.8256926904
 20
125.3079744474
 10
332.0831122163
 20
125.1248233533
 10
334.3487560965
 20
125.0025748953
 10
336.6193393639
 20
124.9414063221
 10
338.8915698898
 20
124.9414063221
 10
341.1621531571
 20
125.0025748953
 10
343.4277970373
 20
125.1248233533
 10
345.6852165633
 20
125.3079744474
 10
347.9311386925
 20
125.5517626261
 10
350.1623070527
 20
125.8558344197
 10
352.375486663
 20
126.2197489533
 10
354.5674686245
 20
126.6429785856
 10
356.7350747729
 20
127.124909674
 10
358.8751622866
 20
127.6648434646
 10
360.9846282432
 20
128.261997105
 10
363.0604141189
 20
128.9155047795
 10
365.0995102224
 20
129.6244189645
 10
367.0989600595
 20
130.3877118021
 10
369.0558646189
 20
131.2042765907
 10
370.9673865763
 20
132.0729293894
 10
372.8307544073
 20
132.9924107348
 10
374.643266407
 20
133.9613874667
 10
376.402294606
 20
134.9784546616
 10
378.1052885818
 20
136.0421376692
 10
379.7497791558
 20
137.1508942508
 10
381.3333819739
 20
138.3031168155
 10
382.8538009635
 20
139.4971347507
 10
384.3088316623
 20
140.7312168444
 10
385.696364415
 20
142.0035737957
 10
387.0143874317
 20
143.3123608086
 10
388.260989705
 20
144.6556802671
 10
389.4343637808
 20
146.0315844863
 10
390.5328083789
 20
147.4380785367
 10
391.5547308596
 20
148.8731231364
 10
392.4986495331
 20
150.3346376079
 10
393.3631958074
 20
151.8205028949
 10
394.1471161732
 20
153.3285646348
 10
394.8492740209
 20
154.8566362823
 10
395.4686512886
 20
156.4025022796
 10
396.0043499386
 20
157.9639212687
 10
396.4555932591
 20
159.5386293414
 10
396.7010857312
 20
160.5583083254
  0
LWPOLYLINE
  5
2F0
330
1F
100
AcDbEntity
  8
0
  6
Continuous
 62
     8
370
    18
100
AcDbPolyline
 90
      162
 70
   128
 43
0.0
 10
337.7554546268
 20
209.885526379
 10
335.5266511391
 20
209.8547699505
 10
333.3012417515
 20
209.762547502
 10
331.0826153954
 20
209.6089994731
 10
328.8741506727
 20
209.3943596921
 10
326.6792107109
 20
209.11895502
 10
324.5011380416
 20
208.7832048526
 10
322.3432495102
 20
208.3876204822
 10
320.2088312249
 20
207.9328043184
 10
318.1011335526
 20
207.4194489712
 10
316.0233661694
 20
206.8483361961
 10
313.9786931721
 20
206.2203357037
 10
311.9702282606
 20
205.5364038352
 10
310.0010299954
 20
204.797582106
 10
308.0740971409
 20
204.0049956197
 10
306.1923640978
 20
203.1598513547
 10
304.3586964353
 20
202.2634363265
 10
302.5758865266
 20
201.3171156271
 10
300.8466492972
 20
200.322330347
 10
299.1736180902
 20
199.28059538
 10
297.5593406561
 20
198.1934971167
 10
296.0062752732
 20
197.0626910284
 10
294.5167870038
 20
195.8898991461
 10
293.093144093
 20
194.6769074386
 10
291.737514514
 20
193.4255630921
 10
290.4519626671
 20
192.1377716977
 10
289.2384462356
 20
190.8154943491
 10
288.098813205
 20
189.4607446567
 10
287.0347990483
 20
188.0755856808
 10
286.0480240837
 20
186.6621267901
 10
285.1399910065
 20
185.2225204492
 10
284.3120826015
 20
183.7589589412
 10
283.5655596365
 20
182.2736710289
 10
282.9015589429
 20
180.7689185606
 10
282.3210916841
 20
179.2469930263
 10
281.8250418162
 20
177.7102120674
 10
281.4141647412
 20
176.1609159479
 10
281.0890861571
 20
174.6014639903
 10
280.8503011049
 20
173.0342309825
 10
280.6981732151
 20
171.4616035619
 10
280.6329341531
 20
169.8859765808
 10
280.6546832674
 20
168.3097494591
 10
280.7633874376
 20
166.7353225307
 10
280.9588811252
 20
165.165093388
 10
281.2408666256
 20
163.6014532312
 10
281.6089145214
 20
162.0467832262
 10
282.0624643363
 20
160.503450879
 10
282.6008253887
 20
158.9738064302
 10
283.2231778437
 20
157.4601792759
 10
283.928573961
 20
155.9648744207
 10
284.7159395388
 20
154.4901689671
 10
285.5840755491
 20
153.0383086484
 10
286.5316599641
 20
151.6115044083
 10
287.5572497688
 20
150.2119290343
 10
288.6592831593
 20
148.8417138489
 10
289.8360819205
 20
147.5029454637
 10
291.0858539819
 20
146.1976626022
 10
292.4066961469
 20
144.9278529949
 10
293.7965969907
 20
143.6954503524
 10
295.2534399236
 20
142.5023314205
 10
296.7750064142
 20
141.3503131226
 10
298.3589793676
 20
140.2411497925
 10
300.0029466543
 20
139.1765305031
 10
301.7044047834
 20
138.158076494
 10
303.4607627146
 20
137.1873387025
 10
305.2693458048
 20
136.2657954021
 10
307.12739988
 20
135.3948499515
 10
309.0320954304
 20
134.5758286567
 10
310.980531919
 20
133.8099787522
 10
312.9697421983
 20
133.0984665009
 10
314.9966970291
 20
132.4423754188
 10
317.0583096937
 20
131.8427046243
 10
319.1514406961
 20
131.300367317
 10
321.2729025428
 20
130.8161893873
 10
323.4194645976
 20
130.3909081584
 10
325.5878580005
 20
130.0251712632
 10
327.7747806459
 20
129.7195356588
 10
329.9769022115
 20
129.4744667779
 10
332.1908692294
 20
129.2903378199
 10
334.4133101929
 20
129.1674291828
 10
336.6408406911
 20
129.1059280361
 10
338.8700685625
 20
129.1059280361
 10
341.0975990607
 20
129.1674291828
 10
343.3200400242
 20
129.2903378199
 10
345.5340070421
 20
129.4744667779
 10
347.7361286077
 20
129.7195356588
 10
349.9230512532
 20
130.0251712632
 10
352.091444656
 20
130.3909081584
 10
354.2380067108
 20
130.8161893873
 10
356.3594685576
 20
131.300367317
 10
358.4525995599
 20
131.8427046243
 10
360.5142122245
 20
132.4423754188
 10
362.5411670554
 20
133.0984665009
 10
364.5303773347
 20
133.8099787522
 10
366.4788138232
 20
134.5758286567
 10
368.3835093737
 20
135.3948499515
 10
370.2415634489
 20
136.2657954021
 10
372.050146539
 20
137.1873387025
 10
373.8065044703
 20
138.158076494
 10
375.5079625993
 20
139.1765305031
 10
377.151929886
 20
140.2411497925
 10
378.7359028394
 20
141.3503131226
 10
380.25746933
 20
142.5023314205
 10
381.7143122629
 20
143.6954503524
 10
383.1042131068
 20
144.9278529949
 10
384.4250552717
 20
146.1976626022
 10
385.6748273332
 20
147.5029454637
 10
386.8516260943
 20
148.8417138489
 10
387.9536594848
 20
150.2119290343
 10
388.9792492896
 20
151.6115044083
 10
389.9268337045
 20
153.0383086484
 10
390.7949697148
 20
154.4901689671
 10
391.5823352926
 20
155.9648744207
 10
392.2877314099
 20
157.4601792759
 10
392.9100838649
 20
158.9738064302
 10
393.4484449174
 20
160.503450879
 10
393.9019947323
 20
162.0467832262
 10
394.270042628
 20
163.6014532312
 10
394.5520281284
 20
165.165093388
 10
394.7475218161
 20
166.7353225307
 10
394.8562259863
 20
168.3097494591
 10
394.8779751005
 20
169.8859765808
 10
394.8127360386
 20
171.4616035619
 10
394.6606081487
 20
173.0342309825
 10
394.4218230966
 20
174.6014639903
 10
394.0967445125
 20
176.1609159479
 10
393.6858674375
 20
177.7102120674
 10
393.1898175695
 20
179.2469930263
 10
392.6093503108
 20
180.7689185606
 10
391.9453496172
 20
182.2736710289
 10
391.1988266521
 20
183.7589589412
 10
390.3709182471
 20
185.2225204492
 10
389.46288517
 20
186.6621267901
 10
388.4761102053
 20
188.0755856808
 10
387.4120960486
 20
189.4607446567
 10
386.272463018
 20
190.8154943491
 10
385.0589465866
 20
192.1377716977
 10
383.7733947396
 20
193.4255630921
 10
382.4177651606
 20
194.6769074386
 10
380.9941222498
 20
195.8898991461
 10
379.5046339804
 20
197.0626910284
 10
377.9515685975
 20
198.1934971167
 10
376.3372911634
 20
199.28059538
 10
374.6642599564
 20
200.322330347
 10
372.935022727
 20
201.3171156271
 10
371.1522128184
 20
202.2634363265
 10
369.3185451558
 20
203.1598513547
 10
367.4368121127
 20
204.0049956197
 10
365.5098792582
 20
204.797582106
 10
363.5406809931
 20
205.5364038352
 10
361.5322160815
 20
206.2203357037
 10
359.4875430842
 20
206.8483361961
 10
357.409775701
 20
207.4194489712
 10
355.3020780288
 20
207.9328043184
 10
353.1676597434
 20
208.3876204822
 10
351.009771212
 20
208.7832048526
 10
348.8316985427
 20
209.11895502
 10
346.6367585809
 20
209.3943596921
 10
344.4282938583
 20
209.6089994731
 10
342.2096675021
 20
209.762547502
 10
339.9842581145
 20
209.8547699505
 10
337.7554546268
 20
209.885526379
  0
LWPOLYLINE
  5
2F1
330
1F
100
AcDbEntity
  8
0
  6
Continuous
 62
     8
370
    18
100
AcDbPolyline
 90
      162
 70
   128
 43
0.0
 10
337.7554546268
 20
209.6092096062
 10
335.5436881555
 20
209.5786882804
 10
333.3352898396
 20
209.4871707821
 10
331.1336227056
 20
209.3347964773
 10
328.9420395293
 20
209.1217974068
 10
326.7638777305
 20
208.8484979333
 10
324.6024542901
 20
208.5153142466
 10
322.4610606997
 20
208.1227537306
 10
320.3429579484
 20
207.6714141902
 10
318.2513715573
 20
207.161982941
 10
316.1894866676
 20
206.5952357629
 10
314.1604431897
 20
205.9720357183
 10
312.1673310221
 20
205.293331838
 10
310.2131853461
 20
204.5601576762
 10
308.300982003
 20
203.773629736
 10
306.4336329631
 20
202.9349457699
 10
304.6139818911
 20
202.0453829552
 10
302.8447998154
 20
201.1062959493
 10
301.1287809083
 20
200.1191148269
 10
299.4685383837
 20
199.0853429018
 10
297.8666005171
 20
198.0065544383
 10
296.3254067955
 20
196.8843922533
 10
294.8473042029
 20
195.7205652145
 10
293.4345436456
 20
194.5168456388
 10
292.0892765249
 20
193.2750665923
 10
290.8135514608
 20
191.9971190998
 10
289.609311172
 20
190.6849492644
 10
288.478389518
 20
189.3405553045
 10
287.4225087058
 20
187.9659845102
 10
286.4432766678
 20
186.5633301262
 10
285.5421846128
 20
185.1347281636
 10
284.7206047554
 20
183.6823541476
 10
283.9797882261
 20
182.2084198044
 10
283.3208631665
 20
180.7151696927
 10
282.7448330105
 20
179.2048777861
 10
282.2525749572
 20
177.6798440102
 10
281.8448386344
 20
176.1423907397
 10
281.5222449572
 20
174.5948592625
 10
281.2852851825
 20
173.0396062137
 10
281.1343201611
 20
171.4789999871
 10
281.0695797878
 20
169.9154171287
 10
281.0911626514
 20
168.3512387171
 10
281.1990358849
 20
166.7888467381
 10
281.3930352151
 20
165.230620457
 10
281.6728652129
 20
163.6789327953
 10
282.0380997435
 20
162.1361467174
 10
282.488182615
 20
160.6046116321
 10
283.0224284254
 20
159.0866598146
 10
283.6400236063
 20
157.5846028551
 10
284.3400276623
 20
156.1007281387
 10
285.1213746026
 20
154.6372953617
 10
285.9828745647
 20
153.1965330909
 10
286.9232156263
 20
151.7806353696
 10
287.9409658031
 20
150.3917583764
 10
289.0345752293
 20
149.032017142
 10
290.2023785183
 20
147.7034823279
 10
291.4425972983
 20
146.4081770734
 10
292.7533429206
 20
145.148073915
 10
294.1326193359
 20
143.9250917817
 10
295.5783261337
 20
142.7410930736
 10
297.088261741
 20
141.5978808255
 10
298.660126775
 20
140.4971959611
 10
300.2915275445
 20
139.4407146419
 10
301.9799796952
 20
138.4300457145
 10
303.722911993
 20
137.4667282612
 10
305.5176702395
 20
136.5522292554
 10
307.3615213139
 20
135.6879413284
 10
309.2516573353
 20
134.875180648
 10
311.1851999382
 20
134.1151849147
 10
313.1592046563
 20
133.4091114767
 10
315.1706654058
 20
132.7580355673
 10
317.2165190639
 20
132.1629486677
 10
319.293650133
 20
131.6247569972
 10
321.398895485
 20
131.1442801328
 10
323.5290491785
 20
130.7222497616
 10
325.6808673409
 20
130.3593085663
 10
327.851073108
 20
130.0560092463
 10
330.0363616144
 20
129.8128136766
 10
332.2334050262
 20
129.6300922038
 10
334.4388576086
 20
129.5081230826
 10
336.6493608213
 20
129.447092052
 10
338.8615484323
 20
129.447092052
 10
341.072051645
 20
129.5081230826
 10
343.2775042275
 20
129.6300922038
 10
345.4745476392
 20
129.8128136766
 10
347.6598361456
 20
130.0560092463
 10
349.8300419127
 20
130.3593085663
 10
351.9818600751
 20
130.7222497616
 10
354.1120137687
 20
131.1442801328
 10
356.2172591207
 20
131.6247569972
 10
358.2943901897
 20
132.1629486677
 10
360.3402438479
 20
132.7580355673
 10
362.3517045974
 20
133.4091114767
 10
364.3257093154
 20
134.1151849147
 10
366.2592519183
 20
134.875180648
 10
368.1493879397
 20
135.6879413284
 10
369.9932390142
 20
136.5522292554
 10
371.7879972607
 20
137.4667282612
 10
373.5309295585
 20
138.4300457145
 10
375.2193817092
 20
139.4407146419
 10
376.8507824786
 20
140.4971959611
 10
378.4226475126
 20
141.5978808255
 10
379.9325831199
 20
142.7410930736
 10
381.3782899177
 20
143.9250917817
 10
382.757566333
 20
145.148073915
 10
384.0683119553
 20
146.4081770734
 10
385.3085307353
 20
147.7034823279
 10
386.4763340243
 20
149.032017142
 10
387.5699434506
 20
150.3917583765
 10
388.5876936273
 20
151.7806353696
 10
389.5280346889
 20
153.1965330909
 10
390.389534651
 20
154.6372953617
 10
391.1708815914
 20
156.1007281387
 10
391.8708856473
 20
157.5846028551
 10
392.4884808283
 20
159.0866598146
 10
393.0227266386
 20
160.6046116321
 10
393.4728095101
 20
162.1361467174
 10
393.8380440407
 20
163.6789327953
 10
394.1178740386
 20
165.230620457
 10
394.3118733687
 20
166.7888467381
 10
394.4197466022
 20
168.3512387171
 10
394.4413294658
 20
169.9154171287
 10
394.3765890925
 20
171.4789999871
 10
394.2256240711
 20
173.0396062137
 10
393.9886642965
 20
174.5948592625
 10
393.6660706193
 20
176.1423907398
 10
393.2583342964
 20
177.6798440102
 10
392.7660762431
 20
179.2048777861
 10
392.1900460872
 20
180.7151696927
 10
391.5311210275
 20
182.2084198044
 10
390.7903044983
 20
183.6823541476
 10
389.9687246408
 20
185.1347281636
 10
389.0676325858
 20
186.5633301262
 10
388.0884005478
 20
187.9659845102
 10
387.0325197356
 20
189.3405553045
 10
385.9015980816
 20
190.6849492644
 10
384.6973577929
 20
191.9971190998
 10
383.4216327287
 20
193.2750665923
 10
382.0763656081
 20
194.5168456388
 10
380.6636050508
 20
195.7205652145
 10
379.1855024581
 20
196.8843922533
 10
377.6443087366
 20
198.0065544383
 10
376.0423708699
 20
199.0853429018
 10
374.3821283453
 20
200.1191148269
 10
372.6661094383
 20
201.1062959493
 10
370.8969273625
 20
202.0453829552
 10
369.0772762905
 20
202.9349457699
 10
367.2099272507
 20
203.773629736
 10
365.2977239076
 20
204.5601576762
 10
363.3435782315
 20
205.293331838
 10
361.350466064
 20
205.9720357183
 10
359.3214225861
 20
206.5952357629
 10
357.2595376963
 20
207.161982941
 10
355.1679513052
 20
207.6714141902
 10
353.0498485539
 20
208.1227537306
 10
350.9084549635
 20
208.5153142466
 10
348.7470315232
 20
208.8484979333
 10
346.5688697243
 20
209.1217974068
 10
344.3772865481
 20
209.3347964773
 10
342.175619414
 20
209.4871707821
 10
339.9672210982
 20
209.5786882804
 10
337.7554546268
 20
209.6092096062
  0
LWPOLYLINE
  5
2F2
330
1F
100
AcDbEntity
  8
0
  6
Continuous
 62
     8
370
    18
100
AcDbPolyline
 90
      161
 70
   128
 43
0.0
 10
337.7554546268
 20
209.3779171453
 10
339.9684926843
 20
209.3471873554
 10
342.1781183975
 20
209.2550453688
 10
344.3809246838
 20
209.1016332617
 10
346.5735149754
 20
208.8871875846
 10
348.7525084572
 20
208.612038997
 10
350.914545279
 20
208.2766117582
 10
353.0562917368
 20
207.8814230726
 10
355.1744454128
 20
207.4270822926
 10
357.2657402676
 20
206.9142899788
 10
359.326951676
 20
206.3438368196
 10
361.3549013996
 20
205.7166024126
 10
363.3464624867
 20
205.0335539077
 10
365.2985640946
 20
204.2957445161
 10
367.208196224
 20
203.5043118866
 10
369.0724143607
 20
202.6604763509
 10
370.8883440154
 20
201.7655390421
 10
372.6531851562
 20
200.8208798888
 10
374.3642165259
 20
199.8279554869
 10
376.0187998382
 20
198.7882968539
 10
377.6143838456
 20
197.703507068
 10
379.1485082732
 20
196.5752587964
 10
380.6188076123
 20
195.4052917162
 10
382.0230147678
 20
194.1954098319
 10
383.3589645542
 20
192.9474786935
 10
384.6245970338
 20
191.6634225205
 10
385.8179606928
 20
190.3452212345
 10
386.9372154512
 20
188.9949074062
 10
387.9806354991
 20
187.6145631217
 10
388.9466119585
 20
186.2063167718
 10
389.8336553637
 20
184.7723397704
 10
390.6403979581
 20
183.314843206
 10
391.365595803
 20
181.8360744327
 10
392.008130696
 20
180.3383136048
 10
392.5670118948
 20
178.8238701609
 10
393.0413776452
 20
177.2950792631
 10
393.4304965094
 20
175.754298196
 10
393.7337684944
 20
174.2039027324
 10
393.9507259769
 20
172.6462834697
 10
394.081034424
 20
171.083842144
 10
394.1244929097
 20
169.5189879265
 10
394.081034424
 20
167.9541337091
 10
393.9507259769
 20
166.3916923834
 10
393.7337684944
 20
164.8340731207
 10
393.4304965094
 20
163.2836776571
 10
393.0413776452
 20
161.74289659
 10
392.5670118948
 20
160.2141056922
 10
392.008130696
 20
158.6996622483
 10
391.365595803
 20
157.2019014204
 10
390.6403979581
 20
155.7231326471
 10
389.8336553637
 20
154.2656360827
 10
388.9466119585
 20
152.8316590813
 10
387.9806354991
 20
151.4234127314
 10
386.9372154512
 20
150.0430684469
 10
385.8179606928
 20
148.6927546186
 10
384.6245970338
 20
147.3745533326
 10
383.3589645542
 20
146.0904971596
 10
382.0230147678
 20
144.8425660212
 10
380.6188076123
 20
143.6326841369
 10
379.1485082732
 20
142.4627170567
 10
377.6143838456
 20
141.3344687851
 10
376.0187998382
 20
140.2496789992
 10
374.3642165259
 20
139.2100203661
 10
372.6531851562
 20
138.2170959643
 10
370.8883440154
 20
137.272436811
 10
369.0724143607
 20
136.3774995022
 10
367.208196224
 20
135.5336639665
 10
365.2985640946
 20
134.742231337
 10
363.3464624867
 20
134.0044219454
 10
361.3549013996
 20
133.3213734405
 10
359.326951676
 20
132.6941390335
 10
357.2657402676
 20
132.1236858743
 10
355.1744454128
 20
131.6108935605
 10
353.0562917368
 20
131.1565527805
 10
350.914545279
 20
130.7613640949
 10
348.7525084572
 20
130.4259368561
 10
346.5735149754
 20
130.1507882685
 10
344.3809246838
 20
129.9363425914
 10
342.1781183975
 20
129.7829304843
 10
339.9684926843
 20
129.6907884977
 10
337.7554546268
 20
129.6600587078
 10
335.5424165693
 20
129.6907884977
 10
333.3327908561
 20
129.7829304843
 10
331.1299845698
 20
129.9363425914
 10
328.9373942782
 20
130.1507882685
 10
326.7584007965
 20
130.4259368561
 10
324.5963639747
 20
130.7613640949
 10
322.4546175168
 20
131.1565527805
 10
320.3364638408
 20
131.6108935605
 10
318.2451689861
 20
132.1236858743
 10
316.1839575776
 20
132.6941390335
 10
314.1560078541
 20
133.3213734405
 10
312.1644467669
 20
134.0044219454
 10
310.212345159
 20
134.742231337
 10
308.3027130296
 20
135.5336639665
 10
306.4384948929
 20
136.3774995022
 10
304.6225652382
 20
137.272436811
 10
302.8577240975
 20
138.2170959643
 10
301.1466927277
 20
139.2100203661
 10
299.4921094154
 20
140.2496789992
 10
297.896525408
 20
141.3344687851
 10
296.3624009805
 20
142.4627170567
 10
294.8921016414
 20
143.6326841369
 10
293.4878944858
 20
144.8425660212
 10
292.1519446994
 20
146.0904971596
 10
290.8863122199
 20
147.3745533326
 10
289.6929485608
 20
148.6927546186
 10
288.5736938025
 20
150.0430684469
 10
287.5302737545
 20
151.4234127314
 10
286.5642972951
 20
152.8316590813
 10
285.6772538899
 20
154.2656360827
 10
284.8705112955
 20
155.7231326471
 10
284.1453134506
 20
157.2019014204
 10
283.5027785576
 20
158.6996622483
 10
282.9438973588
 20
160.2141056922
 10
282.4695316085
 20
161.74289659
 10
282.0804127443
 20
163.2836776571
 10
281.7771407592
 20
164.8340731207
 10
281.5601832767
 20
166.3916923834
 10
281.4298748296
 20
167.9541337091
 10
281.3864163439
 20
169.5189879265
 10
281.4298748296
 20
171.083842144
 10
281.5601832767
 20
172.6462834697
 10
281.7771407592
 20
174.2039027324
 10
282.0804127443
 20
175.754298196
 10
282.4695316085
 20
177.2950792631
 10
282.9438973588
 20
178.8238701609
 10
283.5027785576
 20
180.3383136048
 10
284.1453134506
 20
181.8360744327
 10
284.8705112955
 20
183.314843206
 10
285.6772538899
 20
184.7723397704
 10
286.5642972951
 20
186.2063167718
 10
287.5302737545
 20
187.6145631217
 10
288.5736938025
 20
188.9949074062
 10
289.6929485608
 20
190.3452212345
 10
290.8863122199
 20
191.6634225205
 10
292.1519446994
 20
192.9474786935
 10
293.4878944858
 20
194.1954098319
 10
294.8921016414
 20
195.4052917162
 10
296.3624009805
 20
196.5752587964
 10
297.896525408
 20
197.703507068
 10
299.4921094154
 20
198.7882968539
 10
301.1466927277
 20
199.8279554869
 10
302.8577240975
 20
200.8208798888
 10
304.6225652382
 20
201.7655390421
 10
306.4384948929
 20
202.6604763509
 10
308.3027130296
 20
203.5043118866
 10
310.212345159
 20
204.2957445161
 10
312.1644467669
 20
205.0335539077
 10
314.1560078541
 20
205.7166024126
 10
316.1839575776
 20
206.3438368196
 10
318.2451689861
 20
206.9142899788
 10
320.3364638408
 20
207.4270822926
 10
322.4546175169
 20
207.8814230726
 10
324.5963639747
 20
208.2766117582
 10
326.7584007965
 20
208.612038997
 10
328.9373942782
 20
208.8871875846
 10
331.1299845698
 20
209.1016332617
 10
333.3327908561
 20
209.2550453688
 10
335.5424165693
 20
209.3471873554
 10
337.7554546268
 20
209.3779171453
  0
LWPOLYLINE
  5
2F3
330
1F
100
AcDbEntity
  8
0
  6
Continuous
 62
     8
370
    18
100
AcDbPolyline
 90
       86
 70
   128
 43
0.0
 10
277.8010715562
 20
167.6303922803
 10
277.7955253404
 20
167.3301430605
 10
277.8172613516
 20
165.7157257786
 10
277.9259020129
 20
164.1030640067
 10
278.1212898057
 20
162.4944959502
 10
278.4031414364
 20
160.892353879
 10
278.7710482471
 20
159.298960746
 10
279.2244768081
 20
157.7166268188
 10
279.7627696914
 20
156.1476463303
 10
280.3851464236
 20
154.5942941524
 10
281.090704618
 20
153.058822497
 10
281.8784212828
 20
151.5434576515
 10
282.747154304
 20
150.0503967498
 10
283.6956441018
 20
148.5818045876
 10
284.7225154568
 20
147.1398104831
 10
285.8262795035
 20
145.7265051899
 10
287.0053358897
 20
144.3439378656
 10
288.2579750963
 20
142.9941131006
 10
289.5823809162
 20
141.6789880117
 10
290.9766330876
 20
140.4004694047
 10
292.4387100781
 20
139.1604110093
 10
293.9664920159
 20
137.9606107916
 10
295.5577637632
 20
136.8028083472
 10
297.2102181281
 20
135.6886823789
 10
298.9214592098
 20
134.619848263
 10
300.6890058723
 20
133.5978557067
 10
302.5102953419
 20
132.6241865015
 10
304.3826869229
 20
131.7002523746
 10
306.3034658267
 20
130.8273929423
 10
308.2698471074
 20
130.0068737673
 10
310.2789797002
 20
129.2398845238
 10
312.3279505548
 20
128.5275372731
 10
314.4137888594
 20
127.8708648504
 10
316.5334703479
 20
127.2708193681
 10
318.6839216848
 20
126.7282708348
 10
320.8620249211
 20
126.2440058938
 10
323.0646220156
 20
125.8187266832
 10
325.2885194128
 20
125.453049817
 10
327.5304926743
 20
125.1475054919
 10
329.7872911531
 20
124.9025367178
 10
332.0556427071
 20
124.7184986761
 10
334.3322584435
 20
124.5956582043
 10
336.6138374871
 20
124.5341934093
 10
338.8970717665
 20
124.5341934093
 10
341.1786508101
 20
124.5956582043
 10
343.4552665465
 20
124.7184986761
 10
345.7236181006
 20
124.9025367178
 10
347.9804165794
 20
125.1475054919
 10
350.2223898408
 20
125.453049817
 10
352.4462872381
 20
125.8187266832
 10
354.6488843325
 20
126.2440058938
 10
356.8269875689
 20
126.7282708348
 10
358.9774389057
 20
127.2708193681
 10
361.0971203942
 20
127.8708648504
 10
363.1829586989
 20
128.5275372731
 10
365.2319295535
 20
129.2398845238
 10
367.2410621462
 20
130.0068737673
 10
369.2074434269
 20
130.8273929423
 10
371.1282223307
 20
131.7002523746
 10
373.0006139118
 20
132.6241865015
 10
374.8219033814
 20
133.5978557067
 10
376.5894500438
 20
134.619848263
 10
378.3006911255
 20
135.6886823789
 10
379.9531454904
 20
136.8028083472
 10
381.5444172378
 20
137.9606107916
 10
383.0721991756
 20
139.1604110093
 10
384.5342761661
 20
140.4004694047
 10
385.9285283375
 20
141.6789880117
 10
387.2529341574
 20
142.9941131006
 10
388.505573364
 20
144.3439378656
 10
389.6846297501
 20
145.7265051899
 10
390.7883937969
 20
147.1398104831
 10
391.8152651518
 20
148.5818045876
 10
392.7637549496
 20
150.0503967498
 10
393.6324879708
 20
151.5434576515
 10
394.4202046356
 20
153.058822497
 10
395.1257628301
 20
154.5942941524
 10
395.7481395623
 20
156.1476463303
 10
396.2864324455
 20
157.7166268188
 10
396.7398610065
 20
159.298960746
 10
397.1077678172
 20
160.892353879
 10
397.3896194479
 20
162.4944959502
 10
397.5850072407
 20
164.1030640067
 10
397.693647902
 20
165.7157257786
 10
397.7153839132
 20
167.3301430605
 10
397.7098376974
 20
167.6303922803
  0
LWPOLYLINE
  5
2F4
330
1F
100
AcDbEntity
  8
0
  6
Continuous
 62
     8
370
    18
100
AcDbPolyline
 90
       80
 70
   128
 43
0.0
 10
397.3290549395
 20
163.5121916853
 10
397.2056706341
 20
162.5836774538
 10
396.9246884089
 20
160.9864773841
 10
396.5579164514
 20
159.3979992654
 10
396.1058865458
 20
157.8205462391
 10
395.5692540922
 20
156.2564054613
 10
394.9487971565
 20
154.7078447865
 10
394.2454153419
 20
153.1771094797
 10
393.4601284847
 20
151.6664189608
 10
392.5940751759
 20
150.1779635865
 10
391.6485111099
 20
148.713901475
 10
390.6248072642
 20
147.2763553762
 10
389.5244479115
 20
145.8674095946
 10
388.3490284677
 20
144.4891069668
 10
387.1002531787
 20
143.1434459
 10
385.7799326492
 20
141.832377474
 10
384.3899812177
 20
140.5578026127
 10
382.932414181
 20
139.3215693278
 10
381.4093448719
 20
138.1254700394
 10
379.8229815952
 20
136.971238977
 10
378.1756244262
 20
135.8605496655
 10
376.4696618752
 20
134.795012498
 10
374.7075674247
 20
133.7761724017
 10
372.8918959434
 20
132.8055065972
 10
371.0252799813
 20
131.8844224572
 10
369.110425953
 20
131.0142554657
 10
367.1501102138
 20
130.1962672815
 10
365.1471750342
 20
129.4316439094
 10
363.1045244787
 20
128.7214939802
 10
361.0251201953
 20
128.0668471433
 10
358.9119771214
 20
127.468652574
 10
356.7681591125
 20
126.9277775974
 10
354.5967744997
 20
126.4450064304
 10
352.4009715832
 20
126.0210390451
 10
350.1839340672
 20
125.6564901536
 10
347.9488764441
 20
125.351888317
 10
345.699039334
 20
125.1076751788
 10
343.4376847854
 20
124.9242048247
 10
341.1680915463
 20
124.8017432692
 10
338.89355031
 20
124.7404680699
 10
336.6173589437
 20
124.7404680699
 10
334.3428177073
 20
124.8017432692
 10
332.0732244682
 20
124.9242048247
 10
329.8118699197
 20
125.1076751788
 10
327.5620328095
 20
125.351888317
 10
325.3269751865
 20
125.6564901536
 10
323.1099376705
 20
126.0210390451
 10
320.9141347539
 20
126.4450064304
 10
318.7427501411
 20
126.9277775974
 10
316.5989321322
 20
127.468652574
 10
314.4857890583
 20
128.0668471433
 10
312.4063847749
 20
128.7214939802
 10
310.3637342194
 20
129.4316439094
 10
308.3607990398
 20
130.1962672815
 10
306.4004833007
 20
131.0142554657
 10
304.4856292724
 20
131.8844224572
 10
302.6190133102
 20
132.8055065972
 10
300.8033418289
 20
133.7761724017
 10
299.0412473785
 20
134.795012498
 10
297.3352848274
 20
135.8605496655
 10
295.6879276584
 20
136.971238977
 10
294.1015643818
 20
138.1254700394
 10
292.5784950727
 20
139.3215693278
 10
291.1209280359
 20
140.5578026127
 10
289.7309766045
 20
141.832377474
 10
288.4106560749
 20
143.1434459
 10
287.1618807859
 20
144.4891069668
 10
285.9864613421
 20
145.8674095946
 10
284.8861019895
 20
147.2763553762
 10
283.8623981438
 20
148.713901475
 10
282.9168340778
 20
150.1779635865
 10
282.0507807689
 20
151.6664189608
 10
281.2654939117
 20
153.1771094797
 10
280.5621120971
 20
154.7078447865
 10
279.9416551614
 20
156.2564054613
 10
279.4050227079
 20
157.8205462391
 10
278.9529928022
 20
159.3979992654
 10
278.5862208447
 20
160.9864773841
 10
278.3052386195
 20
162.5836774538
 10
278.1818543141
 20
163.5121916853
  0
LWPOLYLINE
  5
2F5
330
1F
100
AcDbEntity
  8
0
  6
Continuous
 62
     8
370
    18
100
AcDbPolyline
 90
      158
 70
   128
 43
0.0
 10
337.7554546268
 20
207.8031762536
 10
335.5774149514
 20
207.7723543839
 10
333.4028632099
 20
207.6799381335
 10
331.2352817507
 20
207.5260754985
 10
329.0781417598
 20
207.311012876
 10
326.9348977024
 20
207.0350946696
 10
324.8089817902
 20
206.6987627371
 10
322.7037984857
 20
206.302555684
 10
320.6227190501
 20
205.847108
 10
318.5690761441
 20
205.3331490435
 10
316.5461584916
 20
204.7615018734
 10
314.5572056125
 20
204.133081931
 10
312.6054026354
 20
203.4488955741
 10
310.6938751967
 20
202.7100384655
 10
308.8256844349
 20
201.917693818
 10
307.0038220889
 20
201.0731305002
 10
305.2312057069
 20
200.177701004
 10
303.510673974
 20
199.2328392789
 10
301.8449821665
 20
198.2400584356
 10
300.2367977394
 20
197.2009483231
 10
298.6886960551
 20
196.1171729824
 10
297.2031562585
 20
194.990467982
 10
295.7825573077
 20
193.8226376381
 10
294.4291741636
 20
192.6155521258
 10
293.1451741471
 20
191.3711444834
 10
291.9326134684
 20
190.0914075175
 10
290.793433934
 20
188.7783906113
 10
289.7294598371
 20
187.434196443
 10
288.7423950362
 20
186.0609776182
 10
287.8338202264
 20
184.6609332227
 10
287.0051904084
 20
183.2363053015
 10
286.2578325579
 20
181.7893752675
 10
285.5929435012
 20
180.3224602486
 10
285.011587998
 20
178.8379093768
 10
284.5146970367
 20
177.3381000263
 10
284.1030663433
 20
175.8254340064
 10
283.7773551072
 20
174.3023337152
 10
283.5380849257
 20
172.7712382604
 10
283.3856389682
 20
171.2345995532
 10
283.3202613632
 20
169.6948783817
 10
283.3420568071
 20
168.1545404704
 10
283.4509903965
 20
166.6160525315
 10
283.6468876839
 20
165.0818783146
 10
283.9294349576
 20
163.5544746611
 10
284.2981797436
 20
162.0362875702
 10
284.7525315305
 20
160.5297482815
 10
285.2917627148
 20
159.0372693816
 10
285.9150097665
 20
157.5612409409
 10
286.6212746117
 20
156.1040266856
 10
287.409426231
 20
154.6679602128
 10
288.2782024706
 20
153.2553412535
 10
289.2262120639
 20
151.8684319893
 10
290.2519368591
 20
150.5094534303
 10
291.3537342505
 20
149.180581858
 10
292.5298398089
 20
147.8839453402
 10
293.7783701076
 20
146.6216203233
 10
295.0973257379
 20
145.3956283069
 10
296.4845945114
 20
144.2079326065
 10
297.9379548424
 20
143.0604352097
 10
299.4550793055
 20
141.9549737299
 10
301.0335383628
 20
140.8933184639
 10
302.6708042545
 20
139.8771695568
 10
304.3642550473
 20
138.9081542794
 10
306.1111788323
 20
137.9878244221
 10
307.9087780689
 20
137.1176538102
 10
309.7541740642
 20
136.2990359433
 10
311.644411583
 20
135.5332817642
 10
313.5764635805
 20
134.8216175589
 10
315.5472360498
 20
134.1651829935
 10
317.5535729768
 20
133.5650292887
 10
319.5922613938
 20
133.0221175365
 10
321.6600365255
 20
132.537317161
 10
323.7535870165
 20
132.1114045264
 10
325.8695602347
 20
131.7450616931
 10
328.00456764
 20
131.4388753263
 10
330.1551902107
 20
131.1933357558
 10
332.317983919
 20
131.0088361909
 10
334.4894852458
 20
130.8856720912
 10
336.6662167277
 20
130.8240406928
 10
338.8446925259
 20
130.8240406928
 10
341.0214240079
 20
130.8856720912
 10
343.1929253347
 20
131.0088361909
 10
345.3557190429
 20
131.1933357558
 10
347.5063416136
 20
131.4388753263
 10
349.6413490189
 20
131.7450616931
 10
351.7573222372
 20
132.1114045264
 10
353.8508727282
 20
132.537317161
 10
355.9186478598
 20
133.0221175365
 10
357.9573362769
 20
133.5650292887
 10
359.9636732038
 20
134.1651829935
 10
361.9344456732
 20
134.8216175589
 10
363.8664976707
 20
135.5332817642
 10
365.7567351894
 20
136.2990359433
 10
367.6021311847
 20
137.1176538102
 10
369.3997304213
 20
137.9878244221
 10
371.1466542064
 20
138.9081542794
 10
372.8401049991
 20
139.8771695568
 10
374.4773708909
 20
140.8933184639
 10
376.0558299482
 20
141.9549737299
 10
377.5729544113
 20
143.0604352097
 10
379.0263147423
 20
144.2079326065
 10
380.4135835158
 20
145.3956283069
 10
381.732539146
 20
146.6216203233
 10
382.9810694447
 20
147.8839453402
 10
384.1571750032
 20
149.180581858
 10
385.2589723945
 20
150.5094534303
 10
386.2846971897
 20
151.8684319893
 10
387.232706783
 20
153.2553412535
 10
388.1014830227
 20
154.6679602128
 10
388.8896346419
 20
156.1040266856
 10
389.5958994871
 20
157.5612409409
 10
390.2191465388
 20
159.0372693816
 10
390.7583777231
 20
160.5297482815
 10
391.21272951
 20
162.0362875702
 10
391.581474296
 20
163.5544746611
 10
391.8640215698
 20
165.0818783146
 10
392.0599188572
 20
166.6160525315
 10
392.1688524465
 20
168.1545404704
 10
392.1906478904
 20
169.6948783817
 10
392.1252702854
 20
171.2345995532
 10
391.9728243279
 20
172.7712382604
 10
391.7335541464
 20
174.3023337152
 10
391.4078429104
 20
175.8254340064
 10
390.996212217
 20
177.3381000263
 10
390.4993212557
 20
178.8379093768
 10
389.9179657525
 20
180.3224602486
 10
389.2530766957
 20
181.7893752675
 10
388.5057188453
 20
183.2363053015
 10
387.6770890272
 20
184.6609332227
 10
386.7685142174
 20
186.0609776182
 10
385.7814494165
 20
187.434196443
 10
384.7174753196
 20
188.7783906113
 10
383.5782957852
 20
190.0914075175
 10
382.3657351066
 20
191.3711444834
 10
381.0817350901
 20
192.6155521258
 10
379.728351946
 20
193.8226376381
 10
378.3077529951
 20
194.990467982
 10
376.8222131986
 20
196.1171729824
 10
375.2741115142
 20
197.2009483231
 10
373.6659270872
 20
198.2400584356
 10
372.0002352796
 20
199.2328392789
 10
370.2797035467
 20
200.177701004
 10
368.5070871647
 20
201.0731305002
 10
366.6852248188
 20
201.917693818
 10
364.817034057
 20
202.7100384655
 10
362.9055066182
 20
203.4488955741
 10
360.9537036411
 20
204.133081931
 10
358.9647507621
 20
204.7615018734
 10
356.9418331095
 20
205.3331490435
 10
354.8881902035
 20
205.847108
 10
352.8071107679
 20
206.302555684
 10
350.7019274635
 20
206.6987627371
 10
348.5760115513
 20
207.0350946696
 10
346.4327674938
 20
207.311012876
 10
344.275627503
 20
207.5260754985
 10
342.1080460438
 20
207.6799381335
 10
339.9334943023
 20
207.7723543839
 10
337.7554546268
 20
207.8031762536
  0
LWPOLYLINE
  5
2F6
330
1F
100
AcDbEntity
  8
0
  6
Continuous
 62
     8
370
    18
100
AcDbPolyline
 90
       74
 70
   128
 43
0.0
 10
279.1677545639
 20
157.6439603797
 10
279.506559315
 20
156.4918223034
 10
280.042257965
 20
154.9304033143
 10
280.6616352328
 20
153.3845373171
 10
281.3637930804
 20
151.8564656696
 10
282.1477134462
 20
150.3484039296
 10
283.0122597205
 20
148.8625386426
 10
283.956178394
 20
147.4010241711
 10
284.9781008747
 20
145.9659795715
 10
286.0765454728
 20
144.559485521
 10
287.2499195486
 20
143.1835813018
 10
288.496521822
 20
141.8402618434
 10
289.8145448386
 20
140.5314748305
 10
291.2020775913
 20
139.2591178792
 10
292.6571082901
 20
138.0250357854
 10
294.1775272797
 20
136.8310178503
 10
295.7611300979
 20
135.6787952856
 10
297.4056206719
 20
134.5700387039
 10
299.1086146476
 20
133.5063556963
 10
300.8676428467
 20
132.4892885015
 10
302.6801548463
 20
131.5203117695
 10
304.5435226774
 20
130.6008304242
 10
306.4550446347
 20
129.7321776255
 10
308.4119491941
 20
128.9156128368
 10
310.4113990312
 20
128.1523199993
 10
312.4504951348
 20
127.4434058143
 10
314.5262810104
 20
126.7898981398
 10
316.635746967
 20
126.1927444994
 10
318.7758344807
 20
125.6528107088
 10
320.9434406292
 20
125.1708796203
 10
323.1354225907
 20
124.7476499881
 10
325.3486022009
 20
124.3837354545
 10
327.5797705611
 20
124.0796636608
 10
329.8256926903
 20
123.8358754822
 10
332.0831122163
 20
123.6527243881
 10
334.3487560965
 20
123.5304759301
 10
336.6193393639
 20
123.4693073568
 10
338.8915698898
 20
123.4693073568
 10
341.1621531571
 20
123.5304759301
 10
343.4277970373
 20
123.6527243881
 10
345.6852165633
 20
123.8358754822
 10
347.9311386925
 20
124.0796636608
 10
350.1623070527
 20
124.3837354545
 10
352.375486663
 20
124.7476499881
 10
354.5674686245
 20
125.1708796203
 10
356.7350747729
 20
125.6528107088
 10
358.8751622866
 20
126.1927444994
 10
360.9846282432
 20
126.7898981398
 10
363.0604141189
 20
127.4434058143
 10
365.0995102224
 20
128.1523199993
 10
367.0989600595
 20
128.9156128368
 10
369.055864619
 20
129.7321776255
 10
370.9673865763
 20
130.6008304242
 10
372.8307544073
 20
131.5203117695
 10
374.643266407
 20
132.4892885015
 10
376.402294606
 20
133.5063556963
 10
378.1052885818
 20
134.5700387039
 10
379.7497791558
 20
135.6787952856
 10
381.3333819739
 20
136.8310178503
 10
382.8538009635
 20
138.0250357854
 10
384.3088316623
 20
139.2591178792
 10
385.696364415
 20
140.5314748305
 10
387.0143874317
 20
141.8402618434
 10
388.260989705
 20
143.1835813018
 10
389.4343637808
 20
144.559485521
 10
390.5328083789
 20
145.9659795715
 10
391.5547308597
 20
147.4010241711
 10
392.4986495331
 20
148.8625386426
 10
393.3631958075
 20
150.3484039296
 10
394.1471161732
 20
151.8564656696
 10
394.8492740209
 20
153.3845373171
 10
395.4686512886
 20
154.9304033143
 10
396.0043499386
 20
156.4918223034
 10
396.3431546898
 20
157.6439603797
  0
LWPOLYLINE
  5
2F7
330
1F
100
AcDbEntity
  8
0
  6
Continuous
 62
     8
370
    18
100
AcDbPolyline
 90
       59
 70
   128
 43
0.0
 10
391.0472492129
 20
145.8281420507
 10
390.3027804306
 20
144.8600499091
 10
389.1503116477
 20
143.4689110764
 10
387.9242202271
 20
142.1096063593
 10
386.6262625331
 20
140.7840829487
 10
385.2582978775
 20
139.4942396442
 10
383.8222858565
 20
138.2419241338
 10
382.3202835436
 20
137.0289303474
 10
380.7544425424
 20
135.8569958871
 10
379.1270059053
 20
134.7277995375
 10
377.4403049196
 20
133.6429588616
 10
375.696755768
 20
132.6040278833
 10
373.898856068
 20
131.6124948611
 10
372.0491812936
 20
130.6697801565
 10
370.1503810862
 20
129.7772341992
 10
368.2051754586
 20
128.9361355528
 10
366.2163508992
 20
128.147689083
 10
364.1867563801
 20
127.4130242317
 10
362.1192992758
 20
126.7331933993
 10
360.0169411987
 20
126.1091704369
 10
357.8826937566
 20
125.5418492513
 10
355.7196142383
 20
125.0320425247
 10
353.5308012344
 20
124.5804805503
 10
351.3193901984
 20
124.1878101863
 10
349.0885489554
 20
123.8545939292
 10
346.8414731639
 20
123.5813091081
 10
344.5813817384
 20
123.3683472009
 10
342.3115122381
 20
123.2160132734
 10
340.0351162291
 20
123.1245255425
 10
337.7554546268
 20
123.0940150636
 10
335.4757930246
 20
123.1245255425
 10
333.1993970156
 20
123.2160132734
 10
330.9295275152
 20
123.3683472009
 10
328.6694360897
 20
123.5813091081
 10
326.4223602983
 20
123.8545939292
 10
324.1915190552
 20
124.1878101863
 10
321.9801080193
 20
124.5804805503
 10
319.7912950154
 20
125.0320425247
 10
317.6282154971
 20
125.5418492513
 10
315.4939680549
 20
126.1091704369
 10
313.3916099779
 20
126.7331933993
 10
311.3241528736
 20
127.4130242317
 10
309.2945583544
 20
128.147689083
 10
307.3057337951
 20
128.9361355528
 10
305.3605281675
 20
129.7772341992
 10
303.46172796
 20
130.6697801565
 10
301.6120531856
 20
131.6124948611
 10
299.8141534856
 20
132.6040278833
 10
298.0706043341
 20
133.6429588616
 10
296.3839033483
 20
134.7277995375
 10
294.7564667112
 20
135.8569958871
 10
293.1906257101
 20
137.0289303474
 10
291.6886233971
 20
138.2419241338
 10
290.2526113762
 20
139.4942396442
 10
288.8846467206
 20
140.7840829487
 10
287.5866890265
 20
142.1096063593
 10
286.360597606
 20
143.4689110764
 10
285.208128823
 20
144.8600499091
 10
284.4636600408
 20
145.8281420507
  0
LWPOLYLINE
  5
2F8
330
1F
100
AcDbEntity
  8
0
  6
Continuous
 62
     8
370
    18
100
AcDbPolyline
 90
       88
 70
   128
 43
0.0
 10
397.713145271
 20
168.8793991789
 10
397.8066155784
 20
167.7876400915
 10
397.8719860209
 20
166.1695930771
 10
397.85019324
 20
164.5509592934
 10
397.7412688333
 20
162.9340856047
 10
397.5453707307
 20
161.3213163233
 10
397.2627829657
 20
159.7149898105
 10
396.8939152635
 20
158.1174350861
 10
396.4393024472
 20
156.5309684517
 10
395.8996036617
 20
154.9578901323
 10
395.2756014188
 20
153.4004809412
 10
394.5682004619
 20
151.8609989726
 10
393.778426455
 20
150.3416763284
 10
392.9074244948
 20
148.844715881
 10
391.9564574509
 20
147.3722880801
 10
390.9269041345
 20
145.9265278051
 10
389.8202572996
 20
144.5095312703
 10
388.6381214782
 20
143.1233529851
 10
387.3822106544
 20
141.7700027756
 10
386.0543457786
 20
140.4514428701
 10
384.6564521282
 20
139.1695850546
 10
383.1905565151
 20
137.9262879002
 10
381.6587843479
 20
136.723354069
 10
380.0633565498
 20
135.5625277
 10
378.4065863387
 20
134.4454918805
 10
376.6908758728
 20
133.3738662057
 10
374.9187127683
 20
132.3492044303
 10
373.0926664925
 20
131.3729922159
 10
371.2153846376
 20
130.446644977
 10
369.2895890831
 20
129.5715058284
 10
367.3180720483
 20
128.7488436382
 10
365.3036920445
 20
127.9798511881
 10
363.24936973
 20
127.2656434435
 10
361.1580836759
 20
126.6072559373
 10
359.0328660469
 20
126.0056432686
 10
356.8767982056
 20
125.4616777182
 10
354.6930062441
 20
124.976147984
 10
352.4846564519
 20
124.5497580379
 10
350.2549507253
 20
124.1831261045
 10
348.0071219243
 20
123.8767837649
 10
345.7444291857
 20
123.6311751864
 10
343.4701531979
 20
123.4466564779
 10
341.1875914434
 20
123.3234951739
 10
338.9000534186
 20
123.2618698465
 10
336.610855835
 20
123.2618698465
 10
334.3233178103
 20
123.3234951739
 10
332.0407560558
 20
123.4466564779
 10
329.7664800679
 20
123.6311751864
 10
327.5037873294
 20
123.8767837649
 10
325.2559585283
 20
124.1831261045
 10
323.0262528017
 20
124.5497580379
 10
320.8179030096
 20
124.976147984
 10
318.6341110481
 20
125.4616777182
 10
316.4780432067
 20
126.0056432686
 10
314.3528255778
 20
126.6072559373
 10
312.2615395236
 20
127.2656434435
 10
310.2072172092
 20
127.9798511881
 10
308.1928372053
 20
128.7488436382
 10
306.2213201705
 20
129.5715058284
 10
304.295524616
 20
130.446644977
 10
302.4182427612
 20
131.3729922159
 10
300.5921964853
 20
132.3492044303
 10
298.8200333809
 20
133.3738662057
 10
297.104322915
 20
134.4454918805
 10
295.4475527038
 20
135.5625277
 10
293.8521249057
 20
136.723354069
 10
292.3203527386
 20
137.9262879002
 10
290.8544571255
 20
139.1695850546
 10
289.456563475
 20
140.4514428701
 10
288.1286985993
 20
141.7700027756
 10
286.8727877754
 20
143.1233529851
 10
285.6906519541
 20
144.5095312703
 10
284.5840051191
 20
145.9265278051
 10
283.5544518028
 20
147.3722880801
 10
282.6034847588
 20
148.844715881
 10
281.7324827986
 20
150.3416763284
 10
280.9427087917
 20
151.8609989726
 10
280.2353078349
 20
153.4004809412
 10
279.6113055919
 20
154.9578901323
 10
279.0716068065
 20
156.5309684517
 10
278.6169939901
 20
158.1174350861
 10
278.248126288
 20
159.7149898105
 10
277.965538523
 20
161.3213163233
 10
277.7696404203
 20
162.9340856047
 10
277.6607160136
 20
164.5509592934
 10
277.6389232328
 20
166.1695930771
 10
277.7042936752
 20
167.7876400915
 10
277.7977639826
 20
168.8793991789
  0
LWPOLYLINE
  5
2F9
330
1F
100
AcDbEntity
  8
0
  6
Continuous
 62
     8
370
    18
100
AcDbPolyline
 90
       60
 70
   128
 43
0.0
 10
284.9495389807
 20
145.1763657478
 10
284.9608617168
 20
145.1611844864
 10
286.0596651101
 20
143.7542310197
 10
287.233422456
 20
142.3778773761
 10
288.4804319186
 20
141.0341191367
 10
289.7988854534
 20
139.7249046225
 10
291.1868714288
 20
138.4521320695
 10
292.6423773978
 20
137.217646876
 10
294.163293016
 20
136.0232389277
 10
295.747413101
 20
134.8706400018
 10
297.3924408303
 20
133.7615212567
 10
299.0959910708
 20
132.6974908084
 10
300.8555938376
 20
131.6800913994
 10
302.6686978749
 20
130.7107981616
 10
304.5326743551
 20
129.7910164775
 10
306.4448206906
 20
128.9220799426
 10
308.402364452
 20
128.1052484319
 10
310.402467388
 20
127.3417062728
 10
312.4422295405
 20
126.6325605287
 10
314.5186934494
 20
125.9788393929
 10
316.6288484405
 20
125.3814906986
 10
318.7696349909
 20
124.8413805444
 10
320.9379491647
 20
124.3592920383
 10
323.1306471136
 20
123.9359241626
 10
325.3445496353
 20
123.5718907602
 10
327.5764467828
 20
123.2677196448
 10
329.8231025185
 20
123.0238518354
 10
332.0812594064
 20
122.8406409169
 10
334.3476433349
 20
122.7183525278
 10
336.618968264
 20
122.6571639744
 10
338.8919409897
 20
122.6571639744
 10
341.1632659188
 20
122.7183525278
 10
343.4296498473
 20
122.8406409169
 10
345.6878067352
 20
123.0238518354
 10
347.9344624709
 20
123.2677196448
 10
350.1663596183
 20
123.5718907602
 10
352.38026214
 20
123.9359241626
 10
354.572960089
 20
124.3592920383
 10
356.7412742628
 20
124.8413805444
 10
358.8820608131
 20
125.3814906986
 10
360.9922158043
 20
125.9788393929
 10
363.0686797132
 20
126.6325605287
 10
365.1084418657
 20
127.3417062728
 10
367.1085448016
 20
128.1052484319
 10
369.066088563
 20
128.9220799426
 10
370.9782348985
 20
129.7910164775
 10
372.8422113787
 20
130.7107981616
 10
374.655315416
 20
131.6800913994
 10
376.4149181828
 20
132.6974908084
 10
378.1184684233
 20
133.7615212567
 10
379.7634961526
 20
134.8706400018
 10
381.3476162376
 20
136.0232389277
 10
382.8685318558
 20
137.217646876
 10
384.3240378249
 20
138.4521320695
 10
385.7120238003
 20
139.7249046225
 10
387.0304773351
 20
141.0341191367
 10
388.2774867977
 20
142.3778773761
 10
389.4512441436
 20
143.7542310197
 10
390.5500475369
 20
145.1611844864
 10
390.561370273
 20
145.1763657478
  0
LWPOLYLINE
  5
2FA
330
1F
100
AcDbEntity
  8
0
  6
Continuous
 62
     8
370
    18
100
AcDbPolyline
 90
       80
 70
   128
 43
0.0
 10
278.2085810996
 20
161.6872887875
 10
278.2784593403
 20
161.1887853297
 10
278.5595681336
 20
159.5908658032
 10
278.9265053031
 20
158.0016721564
 10
279.3787388251
 20
156.4235085683
 10
279.9156130041
 20
154.8586632251
 10
280.5363494239
 20
153.309405003
 10
281.240048076
 20
151.7779801783
 10
282.0256886647
 20
150.2666091706
 10
282.8921320862
 20
148.7774833234
 10
283.8381220805
 20
147.3127617268
 10
284.8622870524
 20
145.8745680871
 10
285.9631420606
 20
144.4649876475
 10
287.1390909706
 20
143.086064165
 10
288.388428769
 20
141.7397969468
 10
289.7093440354
 20
140.4281379515
 10
291.0999215688
 20
139.1529889595
 10
292.5581451649
 20
137.9161988148
 10
294.0819005387
 20
136.7195607448
 10
295.6689783908
 20
135.5648097605
 10
297.3170776099
 20
134.4536201402
 10
299.0238086098
 20
133.3876030028
 10
300.7866967936
 20
132.3683039712
 10
302.6031861419
 20
131.3972009315
 10
304.470642919
 20
130.4757018902
 10
306.3863594911
 20
129.605142933
 10
308.3475582521
 20
128.786786287
 10
310.3513956515
 20
128.0218184913
 10
312.3949663165
 20
127.3113486758
 10
314.4753072651
 20
126.656406954
 10
316.5894022018
 20
126.0579429287
 10
318.734185891
 20
125.5168243156
 10
320.9065486014
 20
125.0338356849
 10
323.1033406147
 20
124.609677324
 10
325.3213767927
 20
124.2449642219
 10
327.5574411947
 20
123.9402251777
 10
329.8082917414
 20
123.695902034
 10
332.0706649144
 20
123.5123490359
 10
334.3412804891
 20
123.3898323178
 10
336.6168462898
 20
123.3285295171
 10
338.8940629638
 20
123.3285295171
 10
341.1696287646
 20
123.3898323178
 10
343.4402443392
 20
123.5123490359
 10
345.7026175123
 20
123.695902034
 10
347.9534680589
 20
123.9402251777
 10
350.189532461
 20
124.2449642219
 10
352.4075686389
 20
124.609677324
 10
354.6043606523
 20
125.0338356849
 10
356.7767233627
 20
125.5168243156
 10
358.9215070519
 20
126.0579429287
 10
361.0356019885
 20
126.656406954
 10
363.1159429371
 20
127.3113486758
 10
365.1595136022
 20
128.0218184913
 10
367.1633510015
 20
128.786786287
 10
369.1245497626
 20
129.605142933
 10
371.0402663346
 20
130.4757018902
 10
372.9077231117
 20
131.3972009315
 10
374.7242124601
 20
132.3683039712
 10
376.4871006439
 20
133.3876030028
 10
378.1938316437
 20
134.4536201402
 10
379.8419308628
 20
135.5648097605
 10
381.4290087149
 20
136.7195607448
 10
382.9527640888
 20
137.9161988148
 10
384.4109876848
 20
139.1529889595
 10
385.8015652183
 20
140.4281379515
 10
387.1224804846
 20
141.7397969468
 10
388.371818283
 20
143.086064165
 10
389.5477671931
 20
144.4649876475
 10
390.6486222013
 20
145.8745680871
 10
391.6727871732
 20
147.3127617268
 10
392.6187771674
 20
148.7774833234
 10
393.4852205889
 20
150.2666091706
 10
394.2708611776
 20
151.7779801783
 10
394.9745598298
 20
153.309405003
 10
395.5952962496
 20
154.8586632251
 10
396.1321704286
 20
156.4235085683
 10
396.5844039505
 20
158.0016721564
 10
396.95134112
 20
159.5908658032
 10
397.2324499133
 20
161.1887853297
 10
397.302328154
 20
161.6872887875
  0
LWPOLYLINE
  5
2FB
330
1F
100
AcDbEntity
  8
0
  6
Continuous
 62
     8
370
    18
100
AcDbPolyline
 90
       41
 70
   128
 43
0.0
 10
337.7554546268
 20
207.5000860011
 10
339.9255726859
 20
207.4693762318
 10
342.0922154968
 20
207.3772961029
 10
344.2519133765
 20
207.2239930724
 10
346.4012077639
 20
207.0097126412
 10
348.5366567581
 20
206.7347979602
 10
350.65484063
 20
206.3996892803
 10
352.7523672996
 20
206.0049232479
 10
354.8258777671
 20
205.5511320451
 10
356.8720514926
 20
205.0390423777
 10
358.8876117137
 20
204.4694743109
 10
360.8693306925
 20
203.8433399567
 10
362.814034885
 20
203.1616420126
 10
364.718610023
 20
202.4254721565
 10
366.5800061011
 20
201.6360092978
 10
368.3952422617
 20
200.7945176902
 10
370.1614115679
 20
199.9023449064
 10
371.8756856589
 20
198.9609196807
 10
373.5353192795
 20
197.9717496206
 10
375.1376546762
 20
196.9364187927
 10
376.6801258535
 20
195.8565851858
 10
378.1602626831
 20
194.733978056
 10
379.5756948594
 20
193.5703951572
 10
380.9241556956
 20
192.3676998626
 10
382.2034857532
 20
191.12781818
 10
383.4116363008
 20
189.852735668
 10
384.5466725942
 20
188.5444942562
 10
385.6067769752
 20
187.2051889752
 10
386.5902517825
 20
185.8369646015
 10
387.4955220697
 20
184.4420122229
 10
388.3211381284
 20
183.0225657297
 10
389.0657778088
 20
181.5808982375
 10
389.7282486378
 20
180.1193184465
 10
390.307489728
 20
178.6401669449
 10
390.8025734773
 20
177.1458124602
 10
391.2127070535
 20
175.6386480664
 10
391.5372336649
 20
174.1210873512
 10
391.7756336114
 20
172.5955605511
 10
391.9275251169
 20
171.0645106596
 10
391.9926649409
 20
169.5303895149
 10
391.9953796664
 20
169.1466671946
  0
LWPOLYLINE
  5
2FC
330
1F
100
AcDbEntity
  8
0
  6
Continuous
 62
     8
370
    18
100
AcDbPolyline
 90
       41
 70
   128
 43
0.0
 10
283.5155295873
 20
169.1466671946
 10
283.5182443127
 20
169.5303895149
 10
283.5833841367
 20
171.0645106596
 10
283.7352756422
 20
172.5955605511
 10
283.9736755887
 20
174.1210873512
 10
284.2982022001
 20
175.6386480664
 10
284.7083357764
 20
177.1458124602
 10
285.2034195256
 20
178.6401669449
 10
285.7826606159
 20
180.1193184465
 10
286.4451314448
 20
181.5808982375
 10
287.1897711253
 20
183.0225657298
 10
288.0153871839
 20
184.4420122229
 10
288.9206574712
 20
185.8369646015
 10
289.9041322784
 20
187.2051889752
 10
290.9642366595
 20
188.5444942562
 10
292.0992729529
 20
189.852735668
 10
293.3074235004
 20
191.12781818
 10
294.5867535581
 20
192.3676998626
 10
295.9352143942
 20
193.5703951572
 10
297.3506465705
 20
194.733978056
 10
298.8307834001
 20
195.8565851858
 10
300.3732545775
 20
196.9364187927
 10
301.9755899742
 20
197.9717496206
 10
303.6352235948
 20
198.9609196807
 10
305.3494976857
 20
199.9023449064
 10
307.1156669919
 20
200.7945176902
 10
308.9309031525
 20
201.6360092978
 10
310.7922992307
 20
202.4254721565
 10
312.6968743686
 20
203.1616420126
 10
314.6415785611
 20
203.8433399567
 10
316.6232975399
 20
204.4694743109
 10
318.638857761
 20
205.0390423777
 10
320.6850314866
 20
205.5511320451
 10
322.758541954
 20
206.0049232479
 10
324.8560686236
 20
206.3996892803
 10
326.9742524956
 20
206.7347979602
 10
329.1097014897
 20
207.0097126412
 10
331.2589958771
 20
207.2239930724
 10
333.4186937569
 20
207.3772961029
 10
335.5853365677
 20
207.4693762318
 10
337.7554546268
 20
207.5000860011
  0
LWPOLYLINE
  5
2FD
330
1F
100
AcDbEntity
  8
0
  6
Continuous
 62
     8
370
    18
100
AcDbPolyline
 90
       60
 70
   128
 43
0.0
 10
391.3173271251
 20
146.1947355901
 10
390.5328083787
 20
145.1054464423
 10
389.4343637806
 20
143.6989523919
 10
388.2609897047
 20
142.3230481727
 10
387.0143874314
 20
140.9797287142
 10
385.6963644148
 20
139.6709417013
 10
384.3088316621
 20
138.39858475
 10
382.8538009633
 20
137.1645026563
 10
381.3333819737
 20
135.9704847212
 10
379.7497791556
 20
134.8182621565
 10
378.1052885816
 20
133.7095055748
 10
376.4022946058
 20
132.6458225672
 10
374.6432664068
 20
131.6287553724
 10
372.8307544072
 20
130.6597786405
 10
370.9673865761
 20
129.7402972951
 10
369.0558646188
 20
128.8716444964
 10
367.0989600594
 20
128.0550797078
 10
365.0995102223
 20
127.2917868702
 10
363.0604141188
 20
126.5828726852
 10
360.9846282431
 20
125.9293650107
 10
358.8751622865
 20
125.3322113703
 10
356.7350747728
 20
124.7922775797
 10
354.5674686244
 20
124.3103464913
 10
352.3754866629
 20
123.887116859
 10
350.1623070526
 20
123.5232023254
 10
347.9311386925
 20
123.2191305318
 10
345.6852165632
 20
122.9753423531
 10
343.4277970373
 20
122.792191259
 10
341.1621531571
 20
122.6699428011
 10
338.8915698898
 20
122.6087742278
 10
336.6193393639
 20
122.6087742278
 10
334.3487560965
 20
122.6699428011
 10
332.0831122163
 20
122.792191259
 10
329.8256926904
 20
122.9753423531
 10
327.5797705611
 20
123.2191305318
 10
325.348602201
 20
123.5232023254
 10
323.1354225907
 20
123.887116859
 10
320.9434406293
 20
124.3103464913
 10
318.7758344808
 20
124.7922775797
 10
316.6357469672
 20
125.3322113703
 10
314.5262810105
 20
125.9293650107
 10
312.4504951349
 20
126.5828726852
 10
310.4113990313
 20
127.2917868702
 10
308.4119491943
 20
128.0550797078
 10
306.4550446348
 20
128.8716444964
 10
304.5435226775
 20
129.7402972951
 10
302.6801548465
 20
130.6597786405
 10
300.8676428469
 20
131.6287553724
 10
299.1086146478
 20
132.6458225672
 10
297.4056206721
 20
133.7095055748
 10
295.7611300981
 20
134.8182621565
 10
294.1775272799
 20
135.9704847212
 10
292.6571082904
 20
137.1645026563
 10
291.2020775915
 20
138.39858475
 10
289.8145448389
 20
139.6709417013
 10
288.4965218222
 20
140.9797287142
 10
287.2499195489
 20
142.3230481727
 10
286.0765454731
 20
143.6989523919
 10
284.978100875
 20
145.1054464423
 10
284.1935821286
 20
146.1947355901
  0
LWPOLYLINE
  5
2FE
330
1F
100
AcDbEntity
  8
0
  6
Continuous
 62
     8
370
    18
100
AcDbPolyline
 90
       50
 70
   128
 43
0.0
 10
337.7554546268
 20
205.0794561791
 10
339.8997362295
 20
205.0489174604
 10
342.0405397995
 20
204.9573508382
 10
344.1743929457
 20
204.8049048338
 10
346.2978345505
 20
204.5918267154
 10
348.4074203838
 20
204.3184620963
 10
350.4997286897
 20
203.9852543749
 10
352.5713657365
 20
203.5927440155
 10
354.6189713213
 20
203.1415676712
 10
356.6392242203
 20
202.6324571517
 10
358.628847576
 20
202.0662382362
 10
360.584614212
 20
201.4438293338
 10
362.5033518677
 20
200.766239994
 10
364.3819483435
 20
200.0345692692
 10
366.2173565492
 20
199.250003932
 10
368.0065994458
 20
198.4138165502
 10
369.746774875
 20
197.5273634229
 10
371.4350602657
 20
196.5920823802
 10
373.0687172129
 20
195.6094904514
 10
374.6450959191
 20
194.5811814043
 10
376.1616394921
 20
193.5088231598
 10
377.6158880929
 20
192.394155087
 10
379.0054829249
 20
191.2389851814
 10
380.32817006
 20
190.0451871331
 10
381.5818040951
 20
188.8146972867
 10
382.7643516311
 20
187.5495115013
 10
383.8738945715
 20
186.2516819128
 10
384.9086332337
 20
184.9233136056
 10
385.8668892678
 20
183.566561198
 10
386.7471083789
 20
182.1836253472
 10
387.5478628485
 20
180.7767491804
 10
388.2678538499
 20
179.3482146558
 10
388.905913555
 20
177.9003388616
 10
389.4610070287
 20
176.4354702577
 10
389.9322339074
 20
174.9559848663
 10
390.3188298592
 20
173.464282418
 10
390.6201678242
 20
171.9627824598
 10
390.835759031
 20
170.4539204301
 10
390.96525379
 20
168.9401437085
 10
391.0084420602
 20
167.4239076465
 10
390.96525379
 20
165.9076715845
 10
390.835759031
 20
164.393894863
 10
390.6201678242
 20
162.8850328332
 10
390.3188298592
 20
161.383532875
 10
389.9322339074
 20
159.8918304268
 10
389.4610070287
 20
158.4123450353
 10
388.905913555
 20
156.9474764314
 10
388.2678538499
 20
155.4996006372
 10
387.5478628485
 20
154.0710661126
 10
386.8820031222
 20
152.8901038858
  0
LWPOLYLINE
  5
2FF
330
1F
100
AcDbEntity
  8
0
  6
Continuous
 62
     8
370
    18
100
AcDbPolyline
 90
       50
 70
   128
 43
0.0
 10
288.6289061315
 20
152.8901038858
 10
287.9630464051
 20
154.0710661126
 10
287.2430554037
 20
155.4996006372
 10
286.6049956986
 20
156.9474764314
 10
286.0499022249
 20
158.4123450353
 10
285.5786753463
 20
159.8918304268
 10
285.1920793945
 20
161.383532875
 10
284.8907414295
 20
162.8850328332
 10
284.6751502226
 20
164.393894863
 10
284.5456554636
 20
165.9076715845
 10
284.5024671934
 20
167.4239076465
 10
284.5456554636
 20
168.9401437085
 10
284.6751502226
 20
170.4539204301
 10
284.8907414295
 20
171.9627824598
 10
285.1920793945
 20
173.464282418
 10
285.5786753463
 20
174.9559848663
 10
286.0499022249
 20
176.4354702577
 10
286.6049956986
 20
177.9003388616
 10
287.2430554037
 20
179.3482146558
 10
287.9630464051
 20
180.7767491804
 10
288.7638008747
 20
182.1836253472
 10
289.6440199858
 20
183.566561198
 10
290.6022760199
 20
184.9233136056
 10
291.6370146821
 20
186.2516819128
 10
292.7465576225
 20
187.5495115013
 10
293.9291051585
 20
188.8146972867
 10
295.1827391936
 20
190.0451871331
 10
296.5054263288
 20
191.2389851814
 10
297.8950211607
 20
192.394155087
 10
299.3492697615
 20
193.5088231598
 10
300.8658133346
 20
194.5811814043
 10
302.4421920407
 20
195.6094904514
 10
304.0758489879
 20
196.5920823802
 10
305.7641343787
 20
197.5273634229
 10
307.5043098078
 20
198.4138165502
 10
309.2935527045
 20
199.250003932
 10
311.1289609101
 20
200.0345692692
 10
313.007557386
 20
200.766239994
 10
314.9262950416
 20
201.4438293338
 10
316.8820616776
 20
202.0662382362
 10
318.8716850333
 20
202.6324571517
 10
320.8919379324
 20
203.1415676712
 10
322.9395435171
 20
203.5927440155
 10
325.0111805639
 20
203.9852543749
 10
327.1034888698
 20
204.3184620963
 10
329.2130747031
 20
204.5918267154
 10
331.3365163079
 20
204.8049048338
 10
333.4703694541
 20
204.9573508382
 10
335.6111730242
 20
205.0489174604
 10
337.7554546268
 20
205.0794561791
  0
LWPOLYLINE
  5
300
330
1F
100
AcDbEntity
  8
0
  6
Continuous
 62
     8
370
    18
100
AcDbPolyline
 90
       68
 70
   128
 43
0.0
 10
281.2825068439
 20
150.8602132101
 10
281.3637930806
 20
150.6930087154
 10
282.1477134464
 20
149.1849469755
 10
283.0122597207
 20
147.6990816885
 10
283.9561783942
 20
146.237567217
 10
284.9781008749
 20
144.8025226173
 10
286.076545473
 20
143.3960285669
 10
287.2499195488
 20
142.0201243477
 10
288.4965218221
 20
140.6768048892
 10
289.8145448388
 20
139.3680178764
 10
291.2020775915
 20
138.0956609251
 10
292.6571082903
 20
136.8615788313
 10
294.1775272799
 20
135.6675608962
 10
295.761130098
 20
134.5153383315
 10
297.405620672
 20
133.4065817498
 10
299.1086146478
 20
132.3428987422
 10
300.8676428468
 20
131.3258315474
 10
302.6801548464
 20
130.3568548155
 10
304.5435226775
 20
129.4373734701
 10
306.4550446348
 20
128.5687206714
 10
308.4119491942
 20
127.7521558828
 10
310.4113990313
 20
126.9888630452
 10
312.4504951348
 20
126.2799488602
 10
314.5262810105
 20
125.6264411857
 10
316.6357469671
 20
125.0292875453
 10
318.7758344808
 20
124.4893537547
 10
320.9434406292
 20
124.0074226663
 10
323.1354225907
 20
123.584193034
 10
325.348602201
 20
123.2202785004
 10
327.5797705611
 20
122.9162067068
 10
329.8256926904
 20
122.6724185281
 10
332.0831122163
 20
122.489267434
 10
334.3487560965
 20
122.367018976
 10
336.6193393639
 20
122.3058504028
 10
338.8915698898
 20
122.3058504028
 10
341.1621531571
 20
122.367018976
 10
343.4277970373
 20
122.489267434
 10
345.6852165633
 20
122.6724185281
 10
347.9311386925
 20
122.9162067068
 10
350.1623070527
 20
123.2202785004
 10
352.3754866629
 20
123.584193034
 10
354.5674686244
 20
124.0074226663
 10
356.7350747728
 20
124.4893537547
 10
358.8751622865
 20
125.0292875453
 10
360.9846282432
 20
125.6264411857
 10
363.0604141188
 20
126.2799488602
 10
365.0995102223
 20
126.9888630452
 10
367.0989600594
 20
127.7521558828
 10
369.0558646188
 20
128.5687206714
 10
370.9673865761
 20
129.4373734701
 10
372.8307544072
 20
130.3568548155
 10
374.6432664068
 20
131.3258315474
 10
376.4022946059
 20
132.3428987422
 10
378.1052885816
 20
133.4065817498
 10
379.7497791556
 20
134.5153383315
 10
381.3333819738
 20
135.6675608962
 10
382.8538009633
 20
136.8615788313
 10
384.3088316622
 20
138.0956609251
 10
385.6963644148
 20
139.3680178764
 10
387.0143874315
 20
140.6768048892
 10
388.2609897048
 20
142.0201243477
 10
389.4343637806
 20
143.3960285669
 10
390.5328083787
 20
144.8025226173
 10
391.5547308595
 20
146.237567217
 10
392.4986495329
 20
147.6990816885
 10
393.3631958072
 20
149.1849469755
 10
394.147116173
 20
150.6930087154
 10
394.2284024098
 20
150.8602132101
  0
LINE
  5
301
330
1F
100
AcDbEntity
  8
0
  6
Continuous
 62
     8
370
    18
100
AcDbLine
 10
360.2671913183
 20
203.5894238381
 30
0.0
 11
362.0941999943
 21
203.041071697
 31
0.0
  0
LWPOLYLINE
  5
302
330
1F
100
AcDbEntity
  8
0
  6
Continuous
 62
     8
370
    18
100
AcDbPolyline
 90
       78
 70
   128
 43
0.0
 10
397.2476442707
 20
158.9900810585
 10
397.1077678171
 20
158.2567979596
 10
396.7398610064
 20
156.6634048266
 10
396.2864324454
 20
155.0810708994
 10
395.7481395621
 20
153.5120904109
 10
395.1257628299
 20
151.958738233
 10
394.4202046355
 20
150.4232665776
 10
393.6324879707
 20
148.9079017321
 10
392.7637549495
 20
147.4148408304
 10
391.8152651517
 20
145.9462486682
 10
390.7883937967
 20
144.5042545637
 10
389.68462975
 20
143.0909492705
 10
388.5055733638
 20
141.7083819462
 10
387.2529341572
 20
140.3585571812
 10
385.9285283373
 20
139.0434320924
 10
384.534276166
 20
137.7649134854
 10
383.0721991754
 20
136.5248550899
 10
381.5444172376
 20
135.3250548722
 10
379.9531454903
 20
134.1672524278
 10
378.3006911254
 20
133.0531264596
 10
376.5894500437
 20
131.9842923437
 10
374.8219033813
 20
130.9622997874
 10
373.0006139117
 20
129.9886305822
 10
371.1282223306
 20
129.0646964553
 10
369.2074434268
 20
128.191837023
 10
367.2410621462
 20
127.3713178479
 10
365.2319295534
 20
126.6043286045
 10
363.1829586988
 20
125.8919813538
 10
361.0971203942
 20
125.2353089311
 10
358.9774389057
 20
124.6352634488
 10
356.8269875688
 20
124.0927149154
 10
354.6488843324
 20
123.6084499745
 10
352.446287238
 20
123.1831707639
 10
350.2223898408
 20
122.8174938977
 10
347.9804165793
 20
122.5119495726
 10
345.7236181006
 20
122.2669807985
 10
343.4552665465
 20
122.0829427568
 10
341.1786508101
 20
121.9601022849
 10
338.8970717665
 20
121.89863749
 10
336.6138374872
 20
121.89863749
 10
334.3322584435
 20
121.9601022849
 10
332.0556427071
 20
122.0829427568
 10
329.7872911531
 20
122.2669807985
 10
327.5304926743
 20
122.5119495726
 10
325.2885194128
 20
122.8174938977
 10
323.0646220156
 20
123.1831707639
 10
320.8620249212
 20
123.6084499745
 10
318.6839216848
 20
124.0927149154
 10
316.533470348
 20
124.6352634488
 10
314.4137888595
 20
125.2353089311
 10
312.3279505548
 20
125.8919813538
 10
310.2789797002
 20
126.6043286045
 10
308.2698471075
 20
127.3713178479
 10
306.3034658268
 20
128.191837023
 10
304.382686923
 20
129.0646964553
 10
302.510295342
 20
129.9886305822
 10
300.6890058724
 20
130.9622997874
 10
298.9214592099
 20
131.9842923437
 10
297.2102181282
 20
133.0531264596
 10
295.5577637633
 20
134.1672524278
 10
293.966492016
 20
135.3250548722
 10
292.4387100782
 20
136.5248550899
 10
290.9766330877
 20
137.7649134854
 10
289.5823809163
 20
139.0434320924
 10
288.2579750964
 20
140.3585571812
 10
287.0053358898
 20
141.7083819462
 10
285.8262795036
 20
143.0909492705
 10
284.7225154569
 20
144.5042545637
 10
283.695644102
 20
145.9462486682
 10
282.7471543041
 20
147.4148408304
 10
281.8784212829
 20
148.9079017321
 10
281.0907046182
 20
150.4232665776
 10
280.3851464237
 20
151.958738233
 10
279.7627696915
 20
153.5120904109
 10
279.2244768083
 20
155.0810708994
 10
278.7710482473
 20
156.6634048266
 10
278.4031414366
 20
158.2567979596
 10
278.2632649829
 20
158.9900810585
  0
LINE
  5
303
330
1F
100
AcDbEntity
  8
0
  6
Continuous
 62
     8
370
    18
100
AcDbLine
 10
313.4167092593
 20
203.041071697
 30
0.0
 11
315.2437179353
 21
203.5894238381
 31
0.0
  0
LWPOLYLINE
  5
304
330
1F
100
AcDbEntity
  8
0
  6
Continuous
 62
     8
370
    18
100
AcDbPolyline
 90
        3
 70
   128
 43
0.0
 10
362.0183707099
 20
202.9972892999
 10
362.0692293174
 20
202.9812978357
 10
363.7000463389
 20
202.446961637
  0
LWPOLYLINE
  5
305
330
1F
100
AcDbEntity
  8
0
  6
Continuous
 62
     8
370
    18
100
AcDbPolyline
 90
       72
 70
   128
 43
0.0
 10
395.884677809
 20
154.5083390506
 10
395.5692540921
 20
153.6208495419
 10
394.9487971564
 20
152.0722888671
 10
394.2454153417
 20
150.5415535604
 10
393.4601284846
 20
149.0308630414
 10
392.5940751757
 20
147.5424076672
 10
391.6485111097
 20
146.0783455556
 10
390.624807264
 20
144.6407994568
 10
389.5244479113
 20
143.2318536752
 10
388.3490284676
 20
141.8535510475
 10
387.1002531785
 20
140.5078899807
 10
385.779932649
 20
139.1968215547
 10
384.3899812176
 20
137.9222466934
 10
382.9324141808
 20
136.6860134085
 10
381.4093448717
 20
135.4899141201
 10
379.8229815951
 20
134.3356830577
 10
378.1756244261
 20
133.2249937461
 10
376.4696618751
 20
132.1594565787
 10
374.7075674246
 20
131.1406164824
 10
372.8918959433
 20
130.1699506779
 10
371.0252799812
 20
129.2488665379
 10
369.1104259529
 20
128.3786995464
 10
367.1501102137
 20
127.5607113623
 10
365.1471750341
 20
126.7960879902
 10
363.1045244786
 20
126.0859380609
 10
361.0251201952
 20
125.431291224
 10
358.9119771214
 20
124.8330966548
 10
356.7681591125
 20
124.2922216781
 10
354.5967744997
 20
123.8094505111
 10
352.4009715831
 20
123.3854831258
 10
350.1839340671
 20
123.0209342343
 10
347.9488764441
 20
122.7163323977
 10
345.6990393339
 20
122.4721192595
 10
343.4376847854
 20
122.2886489054
 10
341.1680915463
 20
122.1661873499
 10
338.89355031
 20
122.1049121506
 10
336.6173589437
 20
122.1049121506
 10
334.3428177073
 20
122.1661873499
 10
332.0732244683
 20
122.2886489054
 10
329.8118699197
 20
122.4721192595
 10
327.5620328095
 20
122.7163323977
 10
325.3269751865
 20
123.0209342343
 10
323.1099376705
 20
123.3854831258
 10
320.914134754
 20
123.8094505111
 10
318.7427501412
 20
124.2922216781
 10
316.5989321323
 20
124.8330966548
 10
314.4857890584
 20
125.431291224
 10
312.406384775
 20
126.0859380609
 10
310.3637342195
 20
126.7960879902
 10
308.3607990399
 20
127.5607113623
 10
306.4004833008
 20
128.3786995464
 10
304.4856292725
 20
129.2488665379
 10
302.6190133103
 20
130.1699506779
 10
300.803341829
 20
131.1406164824
 10
299.0412473786
 20
132.1594565787
 10
297.3352848276
 20
133.2249937461
 10
295.6879276585
 20
134.3356830577
 10
294.1015643819
 20
135.4899141201
 10
292.5784950728
 20
136.6860134085
 10
291.1209280361
 20
137.9222466934
 10
289.7309766046
 20
139.1968215547
 10
288.4106560751
 20
140.5078899807
 10
287.1618807861
 20
141.8535510475
 10
285.9864613423
 20
143.2318536752
 10
284.8861019896
 20
144.6407994568
 10
283.8623981439
 20
146.0783455556
 10
282.9168340779
 20
147.5424076672
 10
282.0507807691
 20
149.0308630414
 10
281.2654939119
 20
150.5415535604
 10
280.5621120973
 20
152.0722888671
 10
279.9416551616
 20
153.6208495419
 10
279.6262314447
 20
154.5083390506
  0
LWPOLYLINE
  5
306
330
1F
100
AcDbEntity
  8
0
  6
Continuous
 62
     8
370
    18
100
AcDbPolyline
 90
        3
 70
   128
 43
0.0
 10
311.8108629147
 20
202.446961637
 10
313.4416799362
 20
202.9812978357
 10
313.4925385438
 20
202.9972892999
  0
LWPOLYLINE
  5
307
330
1F
100
AcDbEntity
  8
0
  6
Continuous
 62
     8
370
    18
100
AcDbPolyline
 90
       72
 70
   128
 43
0.0
 10
279.7957425916
 20
153.1689801825
 10
280.042257965
 20
152.4824397464
 10
280.6616352327
 20
150.9365737491
 10
281.3637930804
 20
149.4085021016
 10
282.1477134461
 20
147.9004403617
 10
283.0122597205
 20
146.4145750747
 10
283.9561783939
 20
144.9530606032
 10
284.9781008747
 20
143.5180160035
 10
286.0765454728
 20
142.1115219531
 10
287.2499195486
 20
140.7356177339
 10
288.4965218219
 20
139.3922982754
 10
289.8145448386
 20
138.0835112625
 10
291.2020775913
 20
136.8111543112
 10
292.6571082901
 20
135.5770722175
 10
294.1775272797
 20
134.3830542823
 10
295.7611300978
 20
133.2308317176
 10
297.4056206718
 20
132.122075136
 10
299.1086146476
 20
131.0583921284
 10
300.8676428467
 20
130.0413249335
 10
302.6801548463
 20
129.0723482016
 10
304.5435226774
 20
128.1528668562
 10
306.4550446347
 20
127.2842140575
 10
308.4119491941
 20
126.4676492689
 10
310.4113990312
 20
125.7043564313
 10
312.4504951347
 20
124.9954422463
 10
314.5262810104
 20
124.3419345718
 10
316.635746967
 20
123.7447809314
 10
318.7758344807
 20
123.2048471408
 10
320.9434406292
 20
122.7229160524
 10
323.1354225907
 20
122.2996864201
 10
325.3486022009
 20
121.9357718865
 10
327.5797705611
 20
121.6317000929
 10
329.8256926903
 20
121.3879119142
 10
332.0831122163
 20
121.2047608201
 10
334.3487560965
 20
121.0825123621
 10
336.6193393639
 20
121.0213437889
 10
338.8915698898
 20
121.0213437889
 10
341.1621531571
 20
121.0825123621
 10
343.4277970373
 20
121.2047608201
 10
345.6852165633
 20
121.3879119142
 10
347.9311386926
 20
121.6317000929
 10
350.1623070527
 20
121.9357718865
 10
352.375486663
 20
122.2996864201
 10
354.5674686245
 20
122.7229160524
 10
356.7350747729
 20
123.2048471408
 10
358.8751622866
 20
123.7447809314
 10
360.9846282433
 20
124.3419345718
 10
363.0604141189
 20
124.9954422463
 10
365.0995102225
 20
125.7043564313
 10
367.0989600595
 20
126.4676492689
 10
369.055864619
 20
127.2842140575
 10
370.9673865763
 20
128.1528668562
 10
372.8307544074
 20
129.0723482016
 10
374.643266407
 20
130.0413249335
 10
376.402294606
 20
131.0583921284
 10
378.1052885818
 20
132.122075136
 10
379.7497791558
 20
133.2308317176
 10
381.3333819739
 20
134.3830542823
 10
382.8538009635
 20
135.5770722175
 10
384.3088316624
 20
136.8111543112
 10
385.696364415
 20
138.0835112625
 10
387.0143874317
 20
139.3922982754
 10
388.260989705
 20
140.7356177339
 10
389.4343637809
 20
142.1115219531
 10
390.532808379
 20
143.5180160035
 10
391.5547308597
 20
144.9530606032
 10
392.4986495331
 20
146.4145750747
 10
393.3631958075
 20
147.9004403617
 10
394.1471161733
 20
149.4085021016
 10
394.8492740209
 20
150.9365737491
 10
395.4686512886
 20
152.4824397464
 10
395.715166662
 20
153.1689801825
  0
LINE
  5
308
330
1F
100
AcDbEntity
  8
0
  6
Continuous
 62
     8
370
    18
100
AcDbLine
 10
377.7533383173
 20
194.5951106354
 30
0.0
 11
378.2836075809
 21
194.2553419278
 31
0.0
  0
LWPOLYLINE
  5
309
330
1F
100
AcDbEntity
  8
0
  6
Continuous
 62
     8
370
    18
100
AcDbPolyline
 90
       82
 70
   128
 43
0.0
 10
397.6647619555
 20
161.2184425074
 10
397.5850072409
 20
160.1830014736
 10
397.389619448
 20
158.5744334171
 10
397.1077678173
 20
156.9722913459
 10
396.7398610066
 20
155.3788982128
 10
396.2864324456
 20
153.7965642856
 10
395.7481395624
 20
152.2275837971
 10
395.1257628302
 20
150.6742316192
 10
394.4202046357
 20
149.1387599639
 10
393.632487971
 20
147.6233951183
 10
392.7637549497
 20
146.1303342166
 10
391.8152651519
 20
144.6617420544
 10
390.788393797
 20
143.2197479499
 10
389.6846297502
 20
141.8064426567
 10
388.505573364
 20
140.4238753324
 10
387.2529341575
 20
139.0740505674
 10
385.9285283376
 20
137.7589254785
 10
384.5342761662
 20
136.4804068715
 10
383.0721991756
 20
135.2403484761
 10
381.5444172378
 20
134.0405482584
 10
379.9531454905
 20
132.882745814
 10
378.3006911256
 20
131.7686198457
 10
376.5894500439
 20
130.6997857298
 10
374.8219033814
 20
129.6777931735
 10
373.0006139118
 20
128.7041239683
 10
371.1282223308
 20
127.7801898414
 10
369.207443427
 20
126.9073304091
 10
367.2410621463
 20
126.0868112341
 10
365.2319295535
 20
125.3198219906
 10
363.1829586989
 20
124.6074747399
 10
361.0971203943
 20
123.9508023172
 10
358.9774389058
 20
123.3507568349
 10
356.8269875689
 20
122.8082083015
 10
354.6488843325
 20
122.3239433606
 10
352.4462872381
 20
121.89866415
 10
350.2223898408
 20
121.5329872838
 10
347.9804165794
 20
121.2274429587
 10
345.7236181006
 20
120.9824741846
 10
343.4552665466
 20
120.7984361428
 10
341.1786508101
 20
120.675595671
 10
338.8970717665
 20
120.6141308761
 10
336.6138374871
 20
120.6141308761
 10
334.3322584435
 20
120.675595671
 10
332.0556427071
 20
120.7984361428
 10
329.787291153
 20
120.9824741846
 10
327.5304926743
 20
121.2274429587
 10
325.2885194128
 20
121.5329872838
 10
323.0646220155
 20
121.89866415
 10
320.8620249211
 20
122.3239433606
 10
318.6839216847
 20
122.8082083015
 10
316.5334703479
 20
123.3507568349
 10
314.4137888594
 20
123.9508023172
 10
312.3279505547
 20
124.6074747399
 10
310.2789797001
 20
125.3198219906
 10
308.2698471074
 20
126.0868112341
 10
306.3034658267
 20
126.9073304091
 10
304.3826869229
 20
127.7801898414
 10
302.5102953418
 20
128.7041239683
 10
300.6890058722
 20
129.6777931735
 10
298.9214592097
 20
130.6997857298
 10
297.210218128
 20
131.7686198457
 10
295.5577637631
 20
132.882745814
 10
293.9664920158
 20
134.0405482584
 10
292.438710078
 20
135.2403484761
 10
290.9766330875
 20
136.4804068715
 10
289.5823809161
 20
137.7589254785
 10
288.2579750962
 20
139.0740505674
 10
287.0053358896
 20
140.4238753324
 10
285.8262795034
 20
141.8064426567
 10
284.7225154567
 20
143.2197479499
 10
283.6956441017
 20
144.6617420544
 10
282.7471543039
 20
146.1303342166
 10
281.8784212827
 20
147.6233951183
 10
281.0907046179
 20
149.1387599639
 10
280.3851464235
 20
150.6742316192
 10
279.7627696912
 20
152.2275837972
 10
279.224476808
 20
153.7965642856
 10
278.771048247
 20
155.3788982128
 10
278.4031414363
 20
156.9722913459
 10
278.1212898056
 20
158.5744334171
 10
277.9259020128
 20
160.1830014736
 10
277.8461472981
 20
161.2184425074
  0
LINE
  5
30A
330
1F
100
AcDbEntity
  8
0
  6
Continuous
 62
     8
370
    18
100
AcDbLine
 10
297.2273016727
 20
194.2553419278
 30
0.0
 11
297.7575709363
 21
194.5951106354
 31
0.0
  0
LWPOLYLINE
  5
30B
330
1F
100
AcDbEntity
  8
0
  6
Continuous
 62
     8
370
    18
100
AcDbPolyline
 90
       78
 70
   128
 43
0.0
 10
397.0567979539
 20
157.7564344183
 10
396.924688409
 20
157.066414851
 10
396.5579164515
 20
155.4779367323
 10
396.1058865459
 20
153.9004837059
 10
395.5692540924
 20
152.3363429281
 10
394.9487971567
 20
150.7877822533
 10
394.245415342
 20
149.2570469465
 10
393.4601284848
 20
147.7463564276
 10
392.594075176
 20
146.2579010534
 10
391.64851111
 20
144.7938389418
 10
390.6248072643
 20
143.356292843
 10
389.5244479116
 20
141.9473470614
 10
388.3490284678
 20
140.5690444337
 10
387.1002531788
 20
139.2233833668
 10
385.7799326493
 20
137.9123149408
 10
384.3899812178
 20
136.6377400795
 10
382.9324141811
 20
135.4015067946
 10
381.4093448719
 20
134.2054075062
 10
379.8229815953
 20
133.0511764438
 10
378.1756244263
 20
131.9404871323
 10
376.4696618752
 20
130.8749499648
 10
374.7075674248
 20
129.8561098685
 10
372.8918959435
 20
128.885444064
 10
371.0252799813
 20
127.964359924
 10
369.110425953
 20
127.0941929325
 10
367.1501102139
 20
126.2762047483
 10
365.1471750343
 20
125.5115813762
 10
363.1045244787
 20
124.801431447
 10
361.0251201953
 20
124.1467846101
 10
358.9119771215
 20
123.5485900408
 10
356.7681591125
 20
123.0077150642
 10
354.5967744998
 20
122.5249438972
 10
352.4009715832
 20
122.1009765119
 10
350.1839340672
 20
121.7364276204
 10
347.9488764442
 20
121.4318257837
 10
345.699039334
 20
121.1876126455
 10
343.4376847854
 20
121.0041422915
 10
341.1680915463
 20
120.881680736
 10
338.89355031
 20
120.8204055367
 10
336.6173589437
 20
120.8204055367
 10
334.3428177073
 20
120.881680736
 10
332.0732244682
 20
121.0041422915
 10
329.8118699196
 20
121.1876126455
 10
327.5620328095
 20
121.4318257837
 10
325.3269751865
 20
121.7364276204
 10
323.1099376704
 20
122.1009765119
 10
320.9141347539
 20
122.5249438972
 10
318.7427501411
 20
123.0077150642
 10
316.5989321322
 20
123.5485900408
 10
314.4857890583
 20
124.1467846101
 10
312.4063847749
 20
124.801431447
 10
310.3637342194
 20
125.5115813762
 10
308.3607990398
 20
126.2762047483
 10
306.4004833006
 20
127.0941929325
 10
304.4856292723
 20
127.964359924
 10
302.6190133101
 20
128.885444064
 10
300.8033418288
 20
129.8561098685
 10
299.0412473784
 20
130.8749499648
 10
297.3352848274
 20
131.9404871323
 10
295.6879276583
 20
133.0511764438
 10
294.1015643817
 20
134.2054075062
 10
292.5784950726
 20
135.4015067946
 10
291.1209280358
 20
136.6377400795
 10
289.7309766044
 20
137.9123149408
 10
288.4106560748
 20
139.2233833668
 10
287.1618807858
 20
140.5690444337
 10
285.986461342
 20
141.9473470614
 10
284.8861019894
 20
143.356292843
 10
283.8623981437
 20
144.7938389418
 10
282.9168340777
 20
146.2579010534
 10
282.0507807688
 20
147.7463564276
 10
281.2654939116
 20
149.2570469465
 10
280.562112097
 20
150.7877822533
 10
279.9416551613
 20
152.3363429281
 10
279.4050227077
 20
153.900483706
 10
278.9529928021
 20
155.4779367323
 10
278.5862208446
 20
157.066414851
 10
278.4541112997
 20
157.7564344183
  0
LWPOLYLINE
  5
30C
330
1F
100
AcDbEntity
  8
0
  6
Continuous
 62
     8
370
    18
100
AcDbPolyline
 90
       29
 70
   128
 43
0.0
 10
337.7554546268
 20
203.7563075111
 10
339.9154651544
 20
203.7257407755
 10
342.0720166201
 20
203.6340895185
 10
344.2216555014
 20
203.4815005115
 10
346.3609393456
 20
203.2682181118
 10
348.4864422827
 20
202.9945838721
 10
350.5947605116
 20
202.6610359928
 10
352.682517751
 20
202.2681086207
 10
354.746370646
 20
201.8164309937
 10
356.7830141227
 20
201.3067264326
 10
358.7891866801
 20
200.7398111833
 10
360.7616756141
 20
200.1165931095
 10
362.6973221617
 20
199.4380702385
 10
364.5930265596
 20
198.7053291635
 10
366.4457530083
 20
197.9195433033
 10
368.2525345336
 20
197.081971023
 10
370.0104777381
 20
196.1939536189
 10
371.7167674343
 20
195.2569131708
 10
373.3686711533
 20
194.2723502645
 10
374.9635435203
 20
193.2418415884
 10
376.4988304913
 20
192.1670374093
 10
377.9720734427
 20
191.0496589291
 10
379.3809131089
 20
189.8914955285
 10
380.7230933603
 20
188.6944019017
 10
381.9964648164
 20
187.4602950861
 10
383.1989882877
 20
186.1911513923
 10
384.3287380415
 20
184.8890032395
 10
385.3839048855
 20
183.5559359004
 10
386.3239587045
 20
182.2507869582
  0
LWPOLYLINE
  5
30D
330
1F
100
AcDbEntity
  8
0
  6
Continuous
 62
     8
370
    18
100
AcDbPolyline
 90
       29
 70
   128
 43
0.0
 10
289.1869505492
 20
182.2507869582
 10
290.1270043681
 20
183.5559359004
 10
291.1821712121
 20
184.8890032395
 10
292.3119209659
 20
186.1911513923
 10
293.5144444373
 20
187.4602950861
 10
294.7878158934
 20
188.6944019017
 10
296.1299961448
 20
189.8914955285
 10
297.538835811
 20
191.0496589291
 10
299.0120787624
 20
192.1670374093
 10
300.5473657333
 20
193.2418415884
 10
302.1422381004
 20
194.2723502645
 10
303.7941418194
 20
195.2569131708
 10
305.5004315155
 20
196.1939536189
 10
307.25837472
 20
197.081971023
 10
309.0651562454
 20
197.9195433033
 10
310.9178826941
 20
198.7053291635
 10
312.813587092
 20
199.4380702385
 10
314.7492336395
 20
200.1165931095
 10
316.7217225735
 20
200.7398111833
 10
318.727895131
 20
201.3067264326
 10
320.7645386076
 20
201.8164309937
 10
322.8283915027
 20
202.2681086207
 10
324.916148742
 20
202.6610359928
 10
327.024466971
 20
202.9945838721
 10
329.1499699081
 20
203.2682181118
 10
331.2892537523
 20
203.4815005115
 10
333.4388926335
 20
203.6340895185
 10
335.5954440992
 20
203.7257407755
 10
337.7554546268
 20
203.7563075111
  0
LWPOLYLINE
  5
30E
330
1F
100
AcDbEntity
  8
0
  6
Continuous
 62
     8
370
    18
100
AcDbPolyline
 90
       58
 70
   128
 43
0.0
 10
285.4718280061
 20
141.9918099021
 10
286.0765454728
 20
141.2332140196
 10
287.2499195486
 20
139.8573098003
 10
288.496521822
 20
138.5139903419
 10
289.8145448386
 20
137.205203329
 10
291.2020775913
 20
135.9328463777
 10
292.6571082901
 20
134.6987642839
 10
294.1775272797
 20
133.5047463488
 10
295.7611300979
 20
132.3525237841
 10
297.4056206719
 20
131.2437672024
 10
299.1086146476
 20
130.1800841948
 10
300.8676428467
 20
129.163017
 10
302.6801548463
 20
128.1940402681
 10
304.5435226774
 20
127.2745589227
 10
306.4550446347
 20
126.405906124
 10
308.4119491941
 20
125.5893413354
 10
310.4113990312
 20
124.8260484978
 10
312.4504951348
 20
124.1171343128
 10
314.5262810104
 20
123.4636266383
 10
316.635746967
 20
122.8664729979
 10
318.7758344807
 20
122.3265392073
 10
320.9434406292
 20
121.8446081189
 10
323.1354225907
 20
121.4213784866
 10
325.3486022009
 20
121.057463953
 10
327.5797705611
 20
120.7533921593
 10
329.8256926903
 20
120.5096039807
 10
332.0831122163
 20
120.3264528866
 10
334.3487560965
 20
120.2042044286
 10
336.6193393639
 20
120.1430358553
 10
338.8915698898
 20
120.1430358553
 10
341.1621531571
 20
120.2042044286
 10
343.4277970373
 20
120.3264528866
 10
345.6852165633
 20
120.5096039807
 10
347.9311386925
 20
120.7533921593
 10
350.1623070527
 20
121.057463953
 10
352.375486663
 20
121.4213784866
 10
354.5674686245
 20
121.8446081189
 10
356.7350747729
 20
122.3265392073
 10
358.8751622866
 20
122.8664729979
 10
360.9846282432
 20
123.4636266383
 10
363.0604141189
 20
124.1171343128
 10
365.0995102224
 20
124.8260484978
 10
367.0989600595
 20
125.5893413354
 10
369.055864619
 20
126.405906124
 10
370.9673865763
 20
127.2745589227
 10
372.8307544073
 20
128.1940402681
 10
374.643266407
 20
129.163017
 10
376.402294606
 20
130.1800841948
 10
378.1052885818
 20
131.2437672024
 10
379.7497791558
 20
132.3525237841
 10
381.3333819739
 20
133.5047463488
 10
382.8538009635
 20
134.6987642839
 10
384.3088316623
 20
135.9328463777
 10
385.696364415
 20
137.205203329
 10
387.0143874317
 20
138.5139903419
 10
388.260989705
 20
139.8573098003
 10
389.4343637808
 20
141.2332140196
 10
390.0390812475
 20
141.9918099021
  0
LINE
  5
30F
330
1F
100
AcDbEntity
  8
0
  6
Continuous
 62
     8
370
    18
100
AcDbLine
 10
382.5414292315
 20
190.3215303054
 30
0.0
 11
382.865145833
 21
190.0622929584
 31
0.0
  0
LWPOLYLINE
  5
310
330
1F
100
AcDbEntity
  8
0
  6
Continuous
 62
     8
370
    18
100
AcDbPolyline
 90
       84
 70
   128
 43
0.0
 10
397.7125436863
 20
161.5508780635
 10
397.6936479021
 20
160.9173553119
 10
397.5850072408
 20
159.30469354
 10
397.389619448
 20
157.6961254835
 10
397.1077678172
 20
156.0939834123
 10
396.7398610065
 20
154.5005902792
 10
396.2864324455
 20
152.918256352
 10
395.7481395623
 20
151.3492758636
 10
395.1257628301
 20
149.7959236856
 10
394.4202046356
 20
148.2604520303
 10
393.6324879709
 20
146.7450871847
 10
392.7637549497
 20
145.252026283
 10
391.8152651518
 20
143.7834341208
 10
390.7883937969
 20
142.3414400164
 10
389.6846297502
 20
140.9281347232
 10
388.505573364
 20
139.5455673988
 10
387.2529341574
 20
138.1957426338
 10
385.9285283375
 20
136.880617545
 10
384.5342761661
 20
135.602098938
 10
383.0721991756
 20
134.3620405426
 10
381.5444172378
 20
133.1622403248
 10
379.9531454905
 20
132.0044378804
 10
378.3006911255
 20
130.8903119122
 10
376.5894500438
 20
129.8214777963
 10
374.8219033814
 20
128.79948524
 10
373.0006139118
 20
127.8258160347
 10
371.1282223307
 20
126.9018819079
 10
369.2074434269
 20
126.0290224756
 10
367.2410621462
 20
125.2085033005
 10
365.2319295535
 20
124.4415140571
 10
363.1829586989
 20
123.7291668063
 10
361.0971203942
 20
123.0724943837
 10
358.9774389057
 20
122.4724489014
 10
356.8269875689
 20
121.929900368
 10
354.6488843325
 20
121.4456354271
 10
352.4462872381
 20
121.0203562164
 10
350.2223898408
 20
120.6546793503
 10
347.9804165794
 20
120.3491350251
 10
345.7236181006
 20
120.1041662511
 10
343.4552665465
 20
119.9201282093
 10
341.1786508101
 20
119.7972877375
 10
338.8970717665
 20
119.7358229426
 10
336.6138374871
 20
119.7358229426
 10
334.3322584435
 20
119.7972877375
 10
332.0556427071
 20
119.9201282093
 10
329.787291153
 20
120.1041662511
 10
327.5304926743
 20
120.3491350251
 10
325.2885194128
 20
120.6546793503
 10
323.0646220156
 20
121.0203562164
 10
320.8620249211
 20
121.4456354271
 10
318.6839216848
 20
121.929900368
 10
316.5334703479
 20
122.4724489014
 10
314.4137888594
 20
123.0724943837
 10
312.3279505548
 20
123.7291668063
 10
310.2789797002
 20
124.4415140571
 10
308.2698471074
 20
125.2085033005
 10
306.3034658267
 20
126.0290224756
 10
304.3826869229
 20
126.9018819079
 10
302.5102953419
 20
127.8258160347
 10
300.6890058723
 20
128.79948524
 10
298.9214592098
 20
129.8214777963
 10
297.2102181281
 20
130.8903119122
 10
295.5577637632
 20
132.0044378804
 10
293.9664920159
 20
133.1622403248
 10
292.4387100781
 20
134.3620405426
 10
290.9766330875
 20
135.602098938
 10
289.5823809162
 20
136.880617545
 10
288.2579750963
 20
138.1957426338
 10
287.0053358897
 20
139.5455673988
 10
285.8262795035
 20
140.9281347232
 10
284.7225154568
 20
142.3414400164
 10
283.6956441018
 20
143.7834341208
 10
282.747154304
 20
145.252026283
 10
281.8784212828
 20
146.7450871847
 10
281.090704618
 20
148.2604520303
 10
280.3851464235
 20
149.7959236856
 10
279.7627696913
 20
151.3492758636
 10
279.2244768081
 20
152.918256352
 10
278.7710482471
 20
154.5005902792
 10
278.4031414364
 20
156.0939834123
 10
278.1212898057
 20
157.6961254835
 10
277.9259020129
 20
159.30469354
 10
277.8172613516
 20
160.9173553119
 10
277.7983655674
 20
161.5508780635
  0
LINE
  5
311
330
1F
100
AcDbEntity
  8
0
  6
Continuous
 62
     8
370
    18
100
AcDbLine
 10
292.6457634206
 20
190.0622929584
 30
0.0
 11
292.9694800221
 21
190.3215303054
 31
0.0
  0
LWPOLYLINE
  5
312
330
1F
100
AcDbEntity
  8
0
  6
Continuous
 62
     8
370
    18
100
AcDbPolyline
 90
       72
 70
   128
 43
0.0
 10
395.8942922316
 20
152.3739138523
 10
395.5692540922
 20
151.4580349946
 10
394.9487971565
 20
149.9094743198
 10
394.2454153419
 20
148.378739013
 10
393.4601284847
 20
146.8680484941
 10
392.5940751759
 20
145.3795931198
 10
391.6485111098
 20
143.9155310083
 10
390.6248072641
 20
142.4779849095
 10
389.5244479115
 20
141.0690391279
 10
388.3490284677
 20
139.6907365001
 10
387.1002531787
 20
138.3450754333
 10
385.7799326492
 20
137.0340070073
 10
384.3899812177
 20
135.759432146
 10
382.932414181
 20
134.5231988611
 10
381.4093448718
 20
133.3270995727
 10
379.8229815952
 20
132.1728685103
 10
378.1756244262
 20
131.0621791988
 10
376.4696618752
 20
129.9966420313
 10
374.7075674247
 20
128.977801935
 10
372.8918959434
 20
128.0071361305
 10
371.0252799813
 20
127.0860519905
 10
369.110425953
 20
126.215884999
 10
367.1501102138
 20
125.3978968148
 10
365.1471750342
 20
124.6332734427
 10
363.1045244787
 20
123.9231235135
 10
361.0251201953
 20
123.2684766766
 10
358.9119771214
 20
122.6702821073
 10
356.7681591125
 20
122.1294071307
 10
354.5967744997
 20
121.6466359637
 10
352.4009715832
 20
121.2226685784
 10
350.1839340672
 20
120.8581196869
 10
347.9488764441
 20
120.5535178503
 10
345.699039334
 20
120.3093047121
 10
343.4376847854
 20
120.125834358
 10
341.1680915463
 20
120.0033728025
 10
338.89355031
 20
119.9420976032
 10
336.6173589437
 20
119.9420976032
 10
334.3428177073
 20
120.0033728025
 10
332.0732244682
 20
120.125834358
 10
329.8118699197
 20
120.3093047121
 10
327.5620328095
 20
120.5535178503
 10
325.3269751865
 20
120.8581196869
 10
323.1099376705
 20
121.2226685784
 10
320.9141347539
 20
121.6466359637
 10
318.7427501411
 20
122.1294071307
 10
316.5989321322
 20
122.6702821073
 10
314.4857890583
 20
123.2684766766
 10
312.4063847749
 20
123.9231235135
 10
310.3637342194
 20
124.6332734427
 10
308.3607990398
 20
125.3978968148
 10
306.4004833007
 20
126.215884999
 10
304.4856292724
 20
127.0860519905
 10
302.6190133102
 20
128.0071361305
 10
300.8033418289
 20
128.977801935
 10
299.0412473785
 20
129.9966420313
 10
297.3352848274
 20
131.0621791988
 10
295.6879276584
 20
132.1728685103
 10
294.1015643818
 20
133.3270995727
 10
292.5784950727
 20
134.5231988611
 10
291.1209280359
 20
135.759432146
 10
289.7309766045
 20
137.0340070073
 10
288.4106560749
 20
138.3450754333
 10
287.1618807859
 20
139.6907365001
 10
285.9864613422
 20
141.0690391279
 10
284.8861019895
 20
142.4779849095
 10
283.8623981438
 20
143.9155310083
 10
282.9168340778
 20
145.3795931198
 10
282.0507807689
 20
146.8680484941
 10
281.2654939117
 20
148.378739013
 10
280.5621120971
 20
149.9094743198
 10
279.9416551614
 20
151.4580349946
 10
279.616617022
 20
152.3739138523
  0
LWPOLYLINE
  5
313
330
1F
100
AcDbEntity
  8
0
  6
Continuous
 62
     8
370
    18
100
AcDbPolyline
 90
       31
 70
   128
 43
0.0
 10
337.7554546268
 20
203.6355400582
 10
339.9134268088
 20
203.6050021677
 10
342.0679431931
 20
203.5134373996
 10
344.2155535162
 20
203.3609923868
 10
346.352818574
 20
203.1479112562
 10
348.4763157294
 20
202.8745352379
 10
350.5826443934
 20
202.5413021191
 10
352.6684314707
 20
202.1487455424
 10
354.7303367616
 20
201.6974941518
 10
356.7650583108
 20
201.1882705856
 10
358.7693376955
 20
200.6218903194
 10
360.7399652431
 20
199.9992603602
 10
362.6737851715
 20
199.3213777936
 10
364.5677006426
 20
198.5893281873
 10
366.4186787217
 20
197.8042838527
 10
368.2237552344
 20
196.9675019675
 10
369.9800395137
 20
196.0803225623
 10
371.6847190288
 20
195.1441663748
 10
373.3350638893
 20
194.1605325748
 10
374.9284312169
 20
193.1309963629
 10
376.4622693775
 20
192.0572064485
 10
377.934122068
 20
190.9408824093
 10
379.3416322489
 20
189.7838119373
 10
380.6825459198
 20
188.5878479765
 10
381.9547157285
 20
187.3549057553
 10
383.1561044098
 20
186.0869597194
 10
384.2847880482
 20
184.7860403698
 10
385.3389591587
 20
183.4542310116
 10
386.3169295815
 20
182.0936644171
 10
387.2171331851
 20
180.706519411
 10
387.2318977109
 20
180.6824899177
  0
LWPOLYLINE
  5
314
330
1F
100
AcDbEntity
  8
0
  6
Continuous
 62
     8
370
    18
100
AcDbPolyline
 90
       31
 70
   128
 43
0.0
 10
288.2790115428
 20
180.6824899177
 10
288.2937760685
 20
180.706519411
 10
289.1939796722
 20
182.0936644171
 10
290.1719500949
 20
183.4542310116
 10
291.2261212055
 20
184.7860403698
 10
292.3548048439
 20
186.0869597194
 10
293.5561935252
 20
187.3549057553
 10
294.8283633338
 20
188.5878479765
 10
296.1692770047
 20
189.7838119373
 10
297.5767871857
 20
190.9408824093
 10
299.0486398761
 20
192.0572064485
 10
300.5824780368
 20
193.1309963629
 10
302.1758453644
 20
194.1605325748
 10
303.8261902249
 20
195.1441663748
 10
305.5308697399
 20
196.0803225623
 10
307.2871540192
 20
196.9675019675
 10
309.092230532
 20
197.8042838527
 10
310.943208611
 20
198.5893281873
 10
312.8371240821
 20
199.3213777936
 10
314.7709440105
 20
199.9992603602
 10
316.7415715581
 20
200.6218903194
 10
318.7458509428
 20
201.1882705856
 10
320.7805724921
 20
201.6974941518
 10
322.842477783
 20
202.1487455424
 10
324.9282648603
 20
202.5413021191
 10
327.0345935243
 20
202.8745352379
 10
329.1580906797
 20
203.1479112562
 10
331.2953557375
 20
203.3609923868
 10
333.4429660605
 20
203.5134373996
 10
335.5974824448
 20
203.6050021677
 10
337.7554546268
 20
203.6355400582
  0
LWPOLYLINE
  5
315
330
1F
100
AcDbEntity
  8
0
  6
Continuous
 62
     8
370
    18
100
AcDbPolyline
 90
       32
 70
   128
 43
0.0
 10
337.7554546268
 20
203.4356107396
 10
335.5894546307
 20
203.4047627089
 10
333.4269678946
 20
203.3122686526
 10
331.2715019797
 20
203.1582785963
 10
329.1265530598
 20
202.9430423124
 10
326.9956002497
 20
202.666908915
 10
324.8820999628
 20
202.3303262934
 10
322.7894803042
 20
201.933840386
 10
320.7211355107
 20
201.4780942943
 10
318.6804204452
 20
200.9638272401
 10
316.6706451548
 20
200.3918733664
 10
314.6950695024
 20
199.7631603846
 10
312.7568978791
 20
199.0787080695
 10
310.8592740063
 20
198.339626605
 10
309.0052758367
 20
197.5471147842
 10
307.1979105623
 20
196.702458064
 10
305.4401097361
 20
195.8070264808
 10
303.7347245175
 20
194.8622724278
 10
302.0845210476
 20
193.8697282996
 10
300.4921759623
 20
192.8310040065
 10
298.9602720513
 20
191.7477843629
 10
297.4912940683
 20
190.6218263551
 10
296.087624701
 20
189.4549562912
 10
294.7515407062
 20
188.2490668386
 10
293.4852092171
 20
187.0061139544
 10
292.2906842278
 20
185.7281137128
 10
291.1699032625
 20
184.4171390348
 10
290.1246842318
 20
183.0753163261
 10
289.1567224848
 20
181.7048220282
 10
288.2675880591
 20
180.3078790877
 10
287.458723134
 20
178.8867533512
 10
286.912679024
 20
177.8210321793
  0
LWPOLYLINE
  5
316
330
1F
100
AcDbEntity
  8
0
  6
Continuous
 62
     8
370
    18
100
AcDbPolyline
 90
       32
 70
   128
 43
0.0
 10
388.5982302296
 20
177.8210321793
 10
388.0521861197
 20
178.8867533512
 10
387.2433211945
 20
180.3078790877
 10
386.3541867688
 20
181.7048220282
 10
385.3862250219
 20
183.0753163261
 10
384.3410059912
 20
184.4171390348
 10
383.2202250258
 20
185.7281137128
 10
382.0257000366
 20
187.0061139544
 10
380.7593685474
 20
188.2490668386
 10
379.4232845526
 20
189.4549562912
 10
378.0196151853
 20
190.6218263551
 10
376.5506372023
 20
191.7477843629
 10
375.0187332913
 20
192.8310040065
 10
373.4263882061
 20
193.8697282996
 10
371.7761847361
 20
194.8622724278
 10
370.0707995175
 20
195.8070264808
 10
368.3129986913
 20
196.702458064
 10
366.5056334169
 20
197.5471147842
 10
364.6516352474
 20
198.339626605
 10
362.7540113745
 20
199.0787080695
 10
360.8158397512
 20
199.7631603846
 10
358.8402640989
 20
200.3918733664
 10
356.8304888085
 20
200.9638272401
 10
354.7897737429
 20
201.4780942943
 10
352.7214289494
 20
201.933840386
 10
350.6288092908
 20
202.3303262934
 10
348.5153090039
 20
202.666908915
 10
346.3843561939
 20
202.9430423124
 10
344.2394072739
 20
203.1582785963
 10
342.0839413591
 20
203.3122686526
 10
339.9214546229
 20
203.4047627089
 10
337.7554546268
 20
203.4356107396
  0
LWPOLYLINE
  5
317
330
1F
100
AcDbEntity
  8
0
  6
Continuous
 62
     8
370
    18
100
AcDbPolyline
 90
       33
 70
   128
 43
0.0
 10
337.7554546268
 20
203.2515899317
 10
339.9191758042
 20
203.2207743558
 10
342.0793874178
 20
203.1283776112
 10
344.2325855967
 20
202.9745495657
 10
346.3752778454
 20
202.7595397289
 10
348.5039887094
 20
202.4836968477
 10
350.6152654118
 20
202.1474683401
 10
352.7056834541
 20
201.75139957
 10
354.7718521705
 20
201.2961329624
 10
356.8104202279
 20
200.7824069615
 10
358.8180810614
 20
200.2110548327
 10
360.7915782378
 20
199.5830033111
 10
362.7277107375
 20
198.8992710988
 10
364.6233381464
 20
198.1609672118
 10
366.47538575
 20
197.3692891817
 10
368.2808495203
 20
196.5255211132
 10
370.0368009885
 20
195.6310316012
 10
371.7403919948
 20
194.687271511
 10
373.3888593084
 20
193.6957716248
 10
374.9795291094
 20
192.6581401592
 10
376.5098213254
 20
191.576060156
 10
377.9772538168
 20
190.4512867532
 10
379.379446403
 20
189.2856443371
 10
380.7141247222
 20
188.0810235842
 10
381.9791239215
 20
186.8393783936
 10
383.1723921674
 20
185.5627227184
 10
384.2919939746
 20
184.2531272989
 10
385.3361133447
 20
182.9127163034
 10
386.3030567125
 20
181.5436638836
 10
387.1912556921
 20
180.1481906475
 10
387.9992696216
 20
178.7285600578
 10
388.7257878994
 20
177.2870747605
 10
389.2226577766
 20
176.1784840354
  0
LWPOLYLINE
  5
318
330
1F
100
AcDbEntity
  8
0
  6
Continuous
 62
     8
370
    18
100
AcDbPolyline
 90
       33
 70
   128
 43
0.0
 10
286.2882514771
 20
176.1784840354
 10
286.7851213542
 20
177.2870747605
 10
287.5116396321
 20
178.7285600578
 10
288.3196535616
 20
180.1481906475
 10
289.2078525412
 20
181.5436638836
 10
290.1747959089
 20
182.9127163034
 10
291.2189152791
 20
184.2531272989
 10
292.3385170862
 20
185.5627227184
 10
293.5317853322
 20
186.8393783936
 10
294.7967845314
 20
188.0810235842
 10
296.1314628507
 20
189.2856443371
 10
297.5336554368
 20
190.4512867532
 10
299.0010879283
 20
191.576060156
 10
300.5313801443
 20
192.6581401592
 10
302.1220499452
 20
193.6957716248
 10
303.7705172588
 20
194.687271511
 10
305.4741082652
 20
195.6310316012
 10
307.2300597333
 20
196.5255211132
 10
309.0355235036
 20
197.3692891817
 10
310.8875711072
 20
198.1609672118
 10
312.7831985162
 20
198.8992710988
 10
314.7193310158
 20
199.5830033111
 10
316.6928281923
 20
200.2110548327
 10
318.7004890258
 20
200.7824069615
 10
320.7390570831
 20
201.2961329624
 10
322.8052257996
 20
201.75139957
 10
324.8956438418
 20
202.1474683401
 10
327.0069205442
 20
202.4836968477
 10
329.1356314082
 20
202.7595397289
 10
331.2783236569
 20
202.9745495657
 10
333.4315218358
 20
203.1283776112
 10
335.5917334495
 20
203.2207743558
 10
337.7554546268
 20
203.2515899317
  0
LWPOLYLINE
  5
319
330
1F
100
AcDbEntity
  8
0
  6
Continuous
 62
     8
370
    18
100
AcDbPolyline
 90
       35
 70
   128
 43
0.0
 10
337.7554546268
 20
202.6781187087
 10
339.9157677891
 20
202.6473516696
 10
342.0725769155
 20
202.5551004564
 10
344.2223836538
 20
202.401514701
 10
346.3617010095
 20
202.1868435201
 10
348.4870590022
 20
201.911435111
 10
350.5950102933
 20
201.5757361873
 10
352.6821357782
 20
201.1802912537
 10
354.7450501316
 20
200.7257417235
 10
356.780407299
 20
200.2128248777
 10
358.7849059236
 20
199.6423726692
 10
360.7552947013
 20
199.0153103735
 10
362.6883776543
 20
198.3326550882
 10
364.581019315
 20
197.5955140824
 10
366.4301498116
 20
196.8050830016
 10
368.2327698478
 20
195.962643928
 10
369.9859555673
 20
195.0695633007
 10
371.6868632963
 20
194.1272896999
 10
373.3327341565
 20
193.1373514967
 10
374.9208985391
 20
192.1013543746
 10
376.4487804358
 20
191.0209787246
 10
377.9139016165
 20
189.89797692
 10
379.3138856494
 20
188.7341704738
 10
380.6464617551
 20
187.5314470844
 10
381.9094684905
 20
186.2917575735
 10
383.1008572539
 20
185.017112722
 10
384.2186956084
 20
183.7095800085
 10
385.2611704162
 20
182.3712802559
 10
386.2265907792
 20
181.0043841913
 10
387.1133907821
 20
179.611108925
 10
387.9201320321
 20
178.1937143546
 10
388.6455059919
 20
176.7544994994
 10
389.2883361022
 20
175.2957987711
 10
389.8475796904
 20
173.8199781876
 10
390.1143875605
 20
173.0170858165
  0
LWPOLYLINE
  5
31A
330
1F
100
AcDbEntity
  8
0
  6
Continuous
 62
     8
370
    18
100
AcDbPolyline
 90
       35
 70
   128
 43
0.0
 10
285.3965216931
 20
173.0170858165
 10
285.6633295632
 20
173.8199781876
 10
286.2225731514
 20
175.2957987711
 10
286.8654032618
 20
176.7544994994
 10
287.5907772215
 20
178.1937143546
 10
288.3975184715
 20
179.611108925
 10
289.2843184745
 20
181.0043841913
 10
290.2497388375
 20
182.3712802559
 10
291.2922136452
 20
183.7095800085
 10
292.4100519997
 20
185.017112722
 10
293.6014407631
 20
186.2917575735
 10
294.8644474985
 20
187.5314470844
 10
296.1970236043
 20
188.7341704738
 10
297.5970076371
 20
189.89797692
 10
299.0621288179
 20
191.0209787246
 10
300.5900107146
 20
192.1013543746
 10
302.1781750972
 20
193.1373514967
 10
303.8240459573
 20
194.1272896999
 10
305.5249536864
 20
195.0695633007
 10
307.2781394058
 20
195.962643928
 10
309.080759442
 20
196.8050830016
 10
310.9298899387
 20
197.5955140824
 10
312.8225315993
 20
198.3326550882
 10
314.7556145523
 20
199.0153103735
 10
316.72600333
 20
199.6423726692
 10
318.7305019546
 20
200.2128248777
 10
320.765859122
 20
200.7257417235
 10
322.8287734755
 20
201.1802912537
 10
324.9158989603
 20
201.5757361873
 10
327.0238502515
 20
201.911435111
 10
329.1492082441
 20
202.1868435201
 10
331.2885255998
 20
202.401514701
 10
333.4383323381
 20
202.5551004564
 10
335.5951414646
 20
202.6473516695
 10
337.7554546268
 20
202.6781187087
  0
LWPOLYLINE
  5
31B
330
1F
100
AcDbEntity
  8
0
  6
Continuous
 62
     8
370
    18
100
AcDbPolyline
 90
       36
 70
   128
 43
0.0
 10
337.7554546268
 20
202.508617864
 10
335.6011835215
 20
202.4779368754
 10
333.4504066517
 20
202.3859436744
 10
331.3066125855
 20
202.2327874743
 10
329.1732785647
 20
202.0187166949
 10
327.0538648649
 20
201.74407856
 10
324.9518091827
 20
201.4093185335
 10
322.8705210603
 20
201.0149795974
 10
320.8133763546
 20
200.5617013709
 10
318.7837117618
 20
200.0502190729
 10
316.7848194053
 20
199.4813623297
 10
314.8199414958
 20
198.8560538289
 10
312.8922650725
 20
198.1753078233
 10
311.0049168335
 20
197.4402284852
 10
309.1609580647
 20
196.6520081162
 10
307.3633796739
 20
195.8119252124
 10
305.6150973398
 20
194.9213423915
 10
303.9189467827
 20
193.9817041821
 10
302.2776791651
 20
192.9945346807
 10
300.693956629
 20
191.9614350799
 10
299.1703479783
 20
190.8840810711
 10
297.7093245116
 20
189.7642201263
 10
296.3132560143
 20
188.6036686642
 10
294.9844069148
 20
187.4043091033
 10
293.7249326111
 20
186.1680868095
 10
292.5368759751
 20
184.8970069396
 10
291.4221640391
 20
183.5931311899
 10
290.3826048698
 20
182.2585744517
 10
289.419884636
 20
180.8955013809
 10
288.5355648735
 20
179.5061228869
 10
287.7310799522
 20
178.0926925467
 10
287.0077347496
 20
176.6575029496
 10
286.3667025342
 20
175.2028819783
 10
285.8090230625
 20
173.7311890334
 10
285.3356008929
 20
172.2448112061
 10
285.0723381421
 20
171.2675734374
  0
LWPOLYLINE
  5
31C
330
1F
100
AcDbEntity
  8
0
  6
Continuous
 62
     8
370
    18
100
AcDbPolyline
 90
       36
 70
   128
 43
0.0
 10
390.4385711115
 20
171.2675734374
 10
390.1753083607
 20
172.2448112061
 10
389.7018861911
 20
173.7311890334
 10
389.1442067195
 20
175.2028819783
 10
388.503174504
 20
176.6575029496
 10
387.7798293014
 20
178.0926925467
 10
386.9753443801
 20
179.5061228869
 10
386.0910246176
 20
180.8955013809
 10
385.1283043839
 20
182.2585744517
 10
384.0887452146
 20
183.5931311899
 10
382.9740332785
 20
184.8970069396
 10
381.7859766425
 20
186.1680868095
 10
380.5265023388
 20
187.4043091033
 10
379.1976532393
 20
188.6036686642
 10
377.8015847421
 20
189.7642201263
 10
376.3405612754
 20
190.8840810711
 10
374.8169526246
 20
191.9614350799
 10
373.2332300885
 20
192.9945346807
 10
371.5919624709
 20
193.9817041821
 10
369.8958119139
 20
194.9213423915
 10
368.1475295797
 20
195.8119252124
 10
366.3499511889
 20
196.6520081162
 10
364.5059924201
 20
197.4402284852
 10
362.6186441812
 20
198.1753078233
 10
360.6909677578
 20
198.8560538289
 10
358.7260898484
 20
199.4813623297
 10
356.7271974918
 20
200.0502190729
 10
354.697532899
 20
200.5617013709
 10
352.6403881933
 20
201.0149795974
 10
350.5591000709
 20
201.4093185335
 10
348.4570443888
 20
201.74407856
 10
346.3376306889
 20
202.0187166949
 10
344.2042966681
 20
202.2327874743
 10
342.0605026019
 20
202.3859436744
 10
339.9097257322
 20
202.4779368754
 10
337.7554546268
 20
202.508617864
  0
LWPOLYLINE
  5
31D
330
1F
100
AcDbEntity
  8
0
  6
Continuous
 62
     8
370
    18
100
AcDbPolyline
 90
       38
 70
   128
 43
0.0
 10
337.7554546268
 20
202.3420005151
 10
335.6136942423
 20
202.3114977034
 10
333.475407801
 20
202.220038744
 10
331.3440636112
 20
202.0677719837
 10
329.2231187212
 20
201.8549443997
 10
327.1160133111
 20
201.5819011991
 10
325.0261651138
 20
201.249085259
 10
322.9569638707
 20
200.8570364081
 10
320.9117658336
 20
200.406390551
 10
318.8938883214
 20
199.897878637
 10
316.9066043387
 20
199.3323254742
 10
314.9531372674
 20
198.710648392
 10
313.0366556383
 20
198.0338557528
 10
311.1602679915
 20
197.3030453169
 10
309.3270178346
 20
196.5194024613
 10
307.5398787063
 20
195.6841982576
 10
305.8017493525
 20
194.7987874102
 10
304.1154490256
 20
193.8646060587
 10
302.4837129107
 20
192.8831694486
 10
300.9091876899
 20
191.8560694737
 10
299.3944272489
 20
190.784972094
 10
297.9418885345
 20
189.6716146332
 10
296.5539275699
 20
188.5178029613
 10
295.2327956328
 20
187.325408565
 10
293.9806356042
 20
186.0963655124
 10
292.799478492
 20
184.8326673158
 10
291.6912401376
 20
183.5363636983
 10
290.6577181075
 20
182.2095572691
 10
289.7005887783
 20
180.8544001131
 10
288.8214046172
 20
179.4730903002
 10
288.0215916642
 20
178.0678683199
 10
287.3024472188
 20
176.6410134474
 10
286.6651377359
 20
175.1948400465
 10
286.1106969338
 20
173.7316938158
 10
285.6400241175
 20
172.2539479839
 10
285.2538827202
 20
170.7639994598
 10
284.9528990644
 20
169.2642649455
 10
284.7851891183
 20
168.148824352
  0
LWPOLYLINE
  5
31E
330
1F
100
AcDbEntity
  8
0
  6
Continuous
 62
     8
370
    18
100
AcDbPolyline
 90
       38
 70
   128
 43
0.0
 10
390.7257201353
 20
168.148824352
 10
390.5580101892
 20
169.2642649455
 10
390.2570265335
 20
170.7639994598
 10
389.8708851361
 20
172.2539479839
 10
389.4002123198
 20
173.7316938158
 10
388.8457715178
 20
175.1948400465
 10
388.2084620349
 20
176.6410134474
 10
387.4893175894
 20
178.0678683199
 10
386.6895046364
 20
179.4730903002
 10
385.8103204753
 20
180.8544001131
 10
384.8531911461
 20
182.2095572691
 10
383.819669116
 20
183.5363636983
 10
382.7114307616
 20
184.8326673158
 10
381.5302736495
 20
186.0963655124
 10
380.2781136208
 20
187.325408565
 10
378.9569816838
 20
188.5178029613
 10
377.5690207192
 20
189.6716146332
 10
376.1164820048
 20
190.784972094
 10
374.6017215637
 20
191.8560694737
 10
373.0271963429
 20
192.8831694486
 10
371.3954602281
 20
193.8646060587
 10
369.7091599011
 20
194.7987874102
 10
367.9710305474
 20
195.6841982576
 10
366.183891419
 20
196.5194024613
 10
364.3506412622
 20
197.3030453169
 10
362.4742536154
 20
198.0338557528
 10
360.5577719862
 20
198.710648392
 10
358.6043049149
 20
199.3323254742
 10
356.6170209322
 20
199.897878637
 10
354.59914342
 20
200.406390551
 10
352.553945383
 20
200.8570364081
 10
350.4847441398
 20
201.249085259
 10
348.3948959425
 20
201.5819011991
 10
346.2877905325
 20
201.8549443997
 10
344.1668456424
 20
202.0677719837
 10
342.0355014527
 20
202.220038744
 10
339.8972150113
 20
202.3114977034
 10
337.7554546268
 20
202.3420005151
  0
LWPOLYLINE
  5
31F
330
1F
100
AcDbEntity
  8
0
  6
Continuous
 62
     8
370
    18
100
AcDbPolyline
 90
       34
 70
   128
 43
0.0
 10
337.7554546268
 20
202.0571613789
 10
339.9028996048
 20
202.0263802391
 10
342.0468163363
 20
201.9340873929
 10
344.1836823718
 20
201.7804344774
 10
346.309986846
 20
201.5656739437
 10
348.4222362463
 20
201.290158643
 10
350.5169601523
 20
200.9543412461
 10
352.5907169383
 20
200.5587735002
 10
354.6400994272
 20
200.1041053219
 10
356.6617404891
 20
199.59108373
 10
358.6523185729
 20
199.0205516175
 10
360.6085631642
 20
198.3934463672
 10
362.5272601581
 20
197.7107983114
 10
364.4052571406
 20
196.9737290391
 10
366.2394685676
 20
196.1834495531
 10
368.0268808344
 20
195.3412582806
 10
369.7645572274
 20
194.4485389396
 10
371.449642749
 20
193.5067582656
 10
373.0793688079
 20
192.5174636019
 10
374.6510577685
 20
191.4822803568
 10
376.1621273501
 20
190.4029093339
 10
377.6100948693
 20
189.2811239369
 10
378.9925813192
 20
188.1187672561
 10
380.3073152782
 20
186.9177490407
 10
381.5521366419
 20
185.6800425603
 10
382.725000172
 20
184.4076813635
 10
383.8239788569
 20
183.1027559363
 10
384.8472670774
 20
181.7674102679
 10
385.7931835738
 20
180.4038383277
 10
386.6601742076
 20
179.0142804607
 10
387.4468145156
 20
177.6010197068
 10
388.1518120497
 20
176.1663780499
 10
388.7740085009
 20
174.7127126024
 10
389.047038142
 20
173.9977518741
  0
LWPOLYLINE
  5
320
330
1F
100
AcDbEntity
  8
0
  6
Continuous
 62
     8
370
    18
100
AcDbPolyline
 90
       34
 70
   128
 43
0.0
 10
286.4638711116
 20
173.9977518741
 10
286.7369007527
 20
174.7127126024
 10
287.3590972039
 20
176.1663780499
 10
288.0640947381
 20
177.6010197068
 10
288.850735046
 20
179.0142804607
 10
289.7177256799
 20
180.4038383277
 10
290.6636421762
 20
181.7674102679
 10
291.6869303967
 20
183.1027559363
 10
292.7859090816
 20
184.4076813635
 10
293.9587726118
 20
185.6800425603
 10
295.2035939755
 20
186.9177490407
 10
296.5183279345
 20
188.1187672561
 10
297.9008143844
 20
189.2811239369
 10
299.3487819035
 20
190.4029093339
 10
300.8598514851
 20
191.4822803568
 10
302.4315404458
 20
192.5174636019
 10
304.0612665047
 20
193.5067582656
 10
305.7463520262
 20
194.4485389396
 10
307.4840284193
 20
195.3412582806
 10
309.2714406861
 20
196.1834495531
 10
311.105652113
 20
196.9737290391
 10
312.9836490955
 20
197.7107983114
 10
314.9023460894
 20
198.3934463672
 10
316.8585906807
 20
199.0205516175
 10
318.8491687645
 20
199.59108373
 10
320.8708098264
 20
200.1041053219
 10
322.9201923154
 20
200.5587735002
 10
324.9939491013
 20
200.9543412461
 10
327.0886730074
 20
201.290158643
 10
329.2009224076
 20
201.5656739437
 10
331.3272268818
 20
201.7804344774
 10
333.4640929173
 20
201.9340873929
 10
335.6080096488
 20
202.0263802391
 10
337.7554546268
 20
202.0571613789
  0
LWPOLYLINE
  5
321
330
1F
100
AcDbEntity
  8
0
  6
Continuous
 62
     8
370
    18
100
AcDbPolyline
 90
       34
 70
   128
 43
0.0
 10
337.7554546268
 20
201.7292571984
 10
339.9092020076
 20
201.6983857209
 10
342.059410787
 20
201.6058220102
 10
344.2025481778
 20
201.4517181483
 10
346.3350930108
 20
201.2363273273
 10
348.4535415205
 20
200.9600034339
 10
350.5544131015
 20
200.6232004674
 10
352.6342560273
 20
200.2264717942
 10
354.6896531215
 20
199.7704692386
 10
356.717227372
 20
199.2559420115
 10
358.7136474798
 20
198.6837354798
 10
360.6756333316
 20
198.0547897773
 10
362.5999613901
 20
197.3701382602
 10
364.4834699892
 20
196.6309058091
 10
366.3230645292
 20
195.838306981
 10
368.1157225611
 20
194.9936440137
 10
369.8584987526
 20
194.0983046861
 10
371.5485297269
 20
193.1537600386
 10
373.1830387675
 20
192.1615619554
 10
374.7593403804
 20
191.1233406155
 10
376.2748447061
 20
190.0408018137
 10
377.7270617751
 20
188.9157241584
 10
379.1136055985
 20
187.7499561493
 10
380.4321980885
 20
186.5454131401
 10
381.680672801
 20
185.304074192
 10
382.8569784954
 20
184.0279788214
 10
383.9591825045
 20
182.7192236497
 10
384.98547391
 20
181.3799589583
 10
385.9341665179
 20
180.0123851556
 10
386.8037016286
 20
178.6187491616
 10
387.5926505983
 20
177.2013407166
 10
388.2997171859
 20
175.7624886191
 10
388.9237396828
 20
174.3045568992
 10
389.1214300834
 20
173.7926248747
  0
LWPOLYLINE
  5
322
330
1F
100
AcDbEntity
  8
0
  6
Continuous
 62
     8
370
    18
100
AcDbPolyline
 90
       34
 70
   128
 43
0.0
 10
286.3894791702
 20
173.7926248747
 10
286.5871695708
 20
174.3045568992
 10
287.2111920677
 20
175.7624886191
 10
287.9182586553
 20
177.2013407166
 10
288.707207625
 20
178.6187491616
 10
289.5767427357
 20
180.0123851556
 10
290.5254353436
 20
181.3799589583
 10
291.5517267491
 20
182.7192236497
 10
292.6539307582
 20
184.0279788214
 10
293.8302364526
 20
185.304074192
 10
295.0787111651
 20
186.5454131401
 10
296.3973036551
 20
187.7499561493
 10
297.7838474785
 20
188.9157241584
 10
299.2360645475
 20
190.0408018137
 10
300.7515688733
 20
191.1233406155
 10
302.3278704862
 20
192.1615619554
 10
303.9623795268
 20
193.1537600386
 10
305.652410501
 20
194.0983046861
 10
307.3951866925
 20
194.9936440137
 10
309.1878447245
 20
195.838306981
 10
311.0274392645
 20
196.6309058091
 10
312.9109478636
 20
197.3701382602
 10
314.835275922
 20
198.0547897773
 10
316.7972617739
 20
198.6837354798
 10
318.7936818816
 20
199.2559420115
 10
320.8212561321
 20
199.7704692386
 10
322.8766532263
 20
200.2264717942
 10
324.9564961522
 20
200.6232004674
 10
327.0573677332
 20
200.9600034339
 10
329.1758162428
 20
201.2363273273
 10
331.3083610758
 20
201.4517181483
 10
333.4514984666
 20
201.6058220102
 10
335.6017072461
 20
201.6983857209
 10
337.7554546268
 20
201.7292571984
  0
LWPOLYLINE
  5
323
330
1F
100
AcDbEntity
  8
0
  6
Continuous
 62
     8
370
    18
100
AcDbPolyline
 90
       39
 70
   128
 43
0.0
 10
337.7554546268
 20
201.4770139392
 10
339.9044866003
 20
201.4462100517
 10
342.0499877199
 20
201.3538489997
 10
344.1884329328
 20
201.2000825322
 10
346.3163087793
 20
200.9851632872
 10
348.430119165
 20
200.7094443763
 10
350.5263911048
 20
200.3733788051
 10
352.6016804295
 20
199.9775187284
 10
354.6525774442
 20
199.5225145432
 10
356.6757125305
 20
199.0091138203
 10
358.6677616827
 20
198.4381600757
 10
360.6254519693
 20
197.8105913848
 10
362.5455669104
 20
197.1274388414
 10
364.4249517621
 20
196.3898248633
 10
366.2605187
 20
195.5989613484
 10
368.0492518925
 20
194.7561476834
 10
369.7882124556
 20
193.8627686088
 10
371.4745432817
 20
192.9202919441
 10
373.1054737337
 20
191.9302661761
 10
374.6783241971
 20
190.8943179145
 10
376.1905104828
 20
189.8141492195
 10
377.6395480726
 20
188.6915348054
 10
379.0230562017
 20
187.5283191249
 10
380.3387617696
 20
186.3264133382
 10
381.5845030758
 20
185.0877921733
 10
382.7582333705
 20
183.8144906817
 10
383.8580242178
 20
182.5086008942
 10
384.8820686644
 20
181.1722683844
 10
385.8286842078
 20
179.8076887431
 10
386.6963155613
 20
178.4171039711
 10
387.4835372088
 20
177.0027987954
 10
388.1890557471
 20
175.5670969159
 10
388.8117120113
 20
174.1123571868
 10
389.3504829786
 20
172.6409697418
 10
389.8044834498
 20
171.1553520665
 10
390.1729675034
 20
169.657945027
 10
390.4553297209
 20
168.151208859
 10
390.651106182
 20
166.637619126
 10
390.7081255604
 20
165.9913320679
  0
LWPOLYLINE
  5
324
330
1F
100
AcDbEntity
  8
0
  6
Continuous
 62
     8
370
    18
100
AcDbPolyline
 90
       39
 70
   128
 43
0.0
 10
284.8027836933
 20
165.9913320679
 10
284.8598030716
 20
166.637619126
 10
285.0555795327
 20
168.151208859
 10
285.3379417503
 20
169.657945027
 10
285.7064258038
 20
171.1553520665
 10
286.160426275
 20
172.6409697418
 10
286.6991972423
 20
174.1123571868
 10
287.3218535065
 20
175.5670969159
 10
288.0273720449
 20
177.0027987955
 10
288.8145936923
 20
178.4171039711
 10
289.6822250458
 20
179.8076887431
 10
290.6288405892
 20
181.1722683844
 10
291.6528850358
 20
182.5086008942
 10
292.7526758832
 20
183.8144906817
 10
293.9264061778
 20
185.0877921733
 10
295.172147484
 20
186.3264133382
 10
296.487853052
 20
187.5283191249
 10
297.871361181
 20
188.6915348054
 10
299.3203987708
 20
189.8141492195
 10
300.8325850565
 20
190.8943179145
 10
302.4054355199
 20
191.9302661761
 10
304.0363659719
 20
192.9202919441
 10
305.7226967981
 20
193.8627686088
 10
307.4616573612
 20
194.7561476834
 10
309.2503905537
 20
195.5989613484
 10
311.0859574916
 20
196.3898248633
 10
312.9653423432
 20
197.1274388414
 10
314.8854572843
 20
197.8105913848
 10
316.8431475709
 20
198.4381600757
 10
318.8351967232
 20
199.0091138203
 10
320.8583318095
 20
199.5225145432
 10
322.9092288242
 20
199.9775187284
 10
324.9845181489
 20
200.3733788051
 10
327.0807900887
 20
200.7094443763
 10
329.1946004743
 20
200.9851632872
 10
331.3224763208
 20
201.2000825322
 10
333.4609215338
 20
201.3538489997
 10
335.6064226534
 20
201.4462100517
 10
337.7554546268
 20
201.4770139392
  0
LWPOLYLINE
  5
325
330
1F
100
AcDbEntity
  8
0
  6
Continuous
 62
     8
370
    18
100
AcDbPolyline
 90
       43
 70
   128
 43
0.0
 10
337.7554546268
 20
200.6652247214
 10
339.8861455785
 20
200.6344853582
 10
342.0132902053
 20
200.5423184312
 10
344.133348085
 20
200.3888773432
 10
346.2427905905
 20
200.1744174817
 10
348.3381067629
 20
199.899295794
 10
350.4158091552
 20
199.563970193
 10
352.4724396368
 20
199.168998795
 10
354.5045751493
 20
198.715038991
 10
356.5088334037
 20
198.2028463523
 10
358.4818785098
 20
197.633273373
 10
360.4204265288
 20
197.007268051
 10
362.3212509389
 20
196.3258723105
 10
364.1811880054
 20
195.5902202674
 10
365.9971420466
 20
194.801536342
 10
367.7660905863
 20
193.9611332207
 10
369.4850893841
 20
193.0704096718
 10
371.1512773363
 20
192.1308482165
 10
372.7618812374
 20
191.1440126623
 10
374.3142203961
 20
190.1115454994
 10
375.8057110971
 20
189.0351651677
 10
377.2338709014
 20
187.9166631959
 10
378.596322778
 20
186.7579012203
 10
379.89079906
 20
185.5608078856
 10
381.1151452195
 20
184.3273756358
 10
382.2673234532
 20
183.0596573969
 10
383.345416074
 20
181.759763161
 10
384.3476287032
 20
180.4298564736
 10
385.2722932569
 20
179.0721508333
 10
386.117870722
 20
177.688906007
 10
386.8829537184
 20
176.2824242693
 10
387.5662688409
 20
174.8550465702
 10
388.1666787789
 20
173.409148639
 10
388.6831842094
 20
171.9471370302
 10
389.11492546
 20
170.4714451178
 10
389.46118394
 20
168.9845290453
 10
389.7213833364
 20
167.4888636378
 10
389.8950905729
 20
165.9869382827
 10
389.982016531
 20
164.4812527866
 10
389.982016531
 20
162.9743132145
 10
389.8950905729
 20
161.4686277184
 10
389.7213833364
 20
159.9667023633
 10
389.720829045
 20
159.9628750773
  0
LWPOLYLINE
  5
326
330
1F
100
AcDbEntity
  8
0
  6
Continuous
 62
     8
370
    18
100
AcDbPolyline
 90
       43
 70
   128
 43
0.0
 10
285.7900802086
 20
159.9628750773
 10
285.7895259172
 20
159.9667023633
 10
285.6158186807
 20
161.4686277184
 10
285.5288927226
 20
162.9743132145
 10
285.5288927226
 20
164.4812527866
 10
285.6158186807
 20
165.9869382827
 10
285.7895259172
 20
167.4888636378
 10
286.0497253136
 20
168.9845290453
 10
286.3959837936
 20
170.4714451178
 10
286.8277250442
 20
171.9471370302
 10
287.3442304747
 20
173.409148639
 10
287.9446404127
 20
174.8550465702
 10
288.6279555352
 20
176.2824242693
 10
289.3930385316
 20
177.688906007
 10
290.2386159968
 20
179.0721508333
 10
291.1632805504
 20
180.4298564736
 10
292.1654931796
 20
181.759763161
 10
293.2435858005
 20
183.0596573969
 10
294.3957640341
 20
184.3273756358
 10
295.6201101937
 20
185.5608078856
 10
296.9145864757
 20
186.7579012203
 10
298.2770383522
 20
187.9166631959
 10
299.7051981565
 20
189.0351651677
 10
301.1966888576
 20
190.1115454994
 10
302.7490280163
 20
191.1440126623
 10
304.3596319173
 20
192.1308482165
 10
306.0258198695
 20
193.0704096718
 10
307.7448186673
 20
193.9611332207
 10
309.513767207
 20
194.801536342
 10
311.3297212482
 20
195.5902202674
 10
313.1896583147
 20
196.3258723105
 10
315.0904827248
 20
197.007268051
 10
317.0290307439
 20
197.633273373
 10
319.00207585
 20
198.2028463523
 10
321.0063341043
 20
198.715038991
 10
323.0384696168
 20
199.168998795
 10
325.0951000984
 20
199.563970193
 10
327.1728024907
 20
199.899295794
 10
329.2681186631
 20
200.1744174817
 10
331.3775611686
 20
200.3888773432
 10
333.4976190483
 20
200.5423184312
 10
335.6247636752
 20
200.6344853582
 10
337.7554546268
 20
200.6652247214
  0
LWPOLYLINE
  5
327
330
1F
100
AcDbEntity
  8
0
  6
Continuous
 62
     8
370
    18
100
AcDbPolyline
 90
       44
 70
   128
 43
0.0
 10
337.7554546268
 20
200.409207644
 10
335.6349464831
 20
200.3786151876
 10
333.5179677159
 20
200.2868887365
 10
331.4080418275
 20
200.1341809605
 10
329.3086805813
 20
199.9207460264
 10
327.2233781569
 20
199.6469391757
 10
325.1556053343
 20
199.3132161328
 10
323.1088037175
 20
198.9201323469
 10
321.0863800056
 20
198.4683420671
 10
319.0917003233
 20
197.9585972537
 10
317.1280846182
 20
197.3917463267
 10
315.1988011348
 20
196.7687327535
 10
313.307060975
 20
196.0905934786
 10
311.4560127536
 20
195.3584571981
 10
309.6487373578
 20
194.5735424804
 10
307.888242819
 20
193.7371557388
 10
306.1774593067
 20
192.8506890562
 10
304.5192342513
 20
191.9156178692
 10
302.9163276046
 20
190.9334985113
 10
301.3714072465
 20
189.9059656234
 10
299.8870445447
 20
188.8347294324
 10
298.4657100742
 20
187.7215729054
 10
297.109769506
 20
186.5683487815
 10
295.8214796694
 20
185.3769764884
 10
294.6029847958
 20
184.1494389478
 10
293.4563129494
 20
182.8877792748
 10
292.3833726526
 20
181.5940973773
 10
291.3859497085
 20
180.2705464612
 10
290.4657042291
 20
178.9193294465
 10
289.6241678723
 20
177.5426953004
 10
288.8627412922
 20
176.1429352946
 10
288.1826918083
 20
174.7223791915
 10
287.5851512959
 20
173.2833913667
 10
287.071114302
 20
171.8283668732
 10
286.6414363907
 20
170.3597274558
 10
286.2968327183
 20
168.8799175198
 10
286.0378768436
 20
167.3914000628
 10
285.8649997732
 20
165.8966525753
 10
285.7784892439
 20
164.3981629169
 10
285.7784892439
 20
162.8984251758
 10
285.8649997732
 20
161.3999355174
 10
286.0378768436
 20
159.9051880299
 10
286.2968327183
 20
158.4166705729
 10
286.3309573484
 20
158.2515071908
  0
LWPOLYLINE
  5
328
330
1F
100
AcDbEntity
  8
0
  6
Continuous
 62
     8
370
    18
100
AcDbPolyline
 90
       44
 70
   128
 43
0.0
 10
389.1799519052
 20
158.2515071908
 10
389.2140765354
 20
158.4166705729
 10
389.47303241
 20
159.9051880299
 10
389.6459094804
 20
161.3999355174
 10
389.7324200097
 20
162.8984251758
 10
389.7324200097
 20
164.3981629169
 10
389.6459094804
 20
165.8966525753
 10
389.47303241
 20
167.3914000628
 10
389.2140765354
 20
168.8799175198
 10
388.869472863
 20
170.3597274558
 10
388.4397949516
 20
171.8283668732
 10
387.9257579578
 20
173.2833913667
 10
387.3282174453
 20
174.7223791915
 10
386.6481679614
 20
176.1429352946
 10
385.8867413814
 20
177.5426953004
 10
385.0452050245
 20
178.9193294465
 10
384.1249595452
 20
180.2705464612
 10
383.127536601
 20
181.5940973773
 10
382.0545963042
 20
182.8877792748
 10
380.9079244579
 20
184.1494389478
 10
379.6894295842
 20
185.3769764884
 10
378.4011397476
 20
186.5683487815
 10
377.0451991795
 20
187.7215729054
 10
375.623864709
 20
188.8347294324
 10
374.1395020071
 20
189.9059656234
 10
372.5945816491
 20
190.9334985113
 10
370.9916750024
 20
191.9156178692
 10
369.3334499469
 20
192.8506890562
 10
367.6226664346
 20
193.7371557388
 10
365.8621718959
 20
194.5735424804
 10
364.0548965
 20
195.3584571981
 10
362.2038482787
 20
196.0905934786
 10
360.3121081189
 20
196.7687327535
 10
358.3828246354
 20
197.3917463267
 10
356.4192089303
 20
197.9585972537
 10
354.4245292481
 20
198.4683420671
 10
352.4021055362
 20
198.9201323469
 10
350.3553039193
 20
199.3132161328
 10
348.2875310968
 20
199.6469391757
 10
346.2022286723
 20
199.9207460264
 10
344.1028674261
 20
200.1341809605
 10
341.9929415377
 20
200.2868887365
 10
339.8759627705
 20
200.3786151876
 10
337.7554546268
 20
200.409207644
  0
MTEXT
  5
329
330
1F
100
AcDbEntity
  8
0
  6
Continuous
 62
     7
370
     0
100
AcDbMText
 10
386.4018584015
 20
209.7848750775
 30
0.0
 40
3.5
 41
0.0
 71
     2
 72
     1
  1
(1:1.5)
  7
SLDTEXTSTYLE0
 73
     1
 44
1.0
  0
ENDSEC
  0
SECTION
  2
OBJECTS
  0
DICTIONARY
  5
C
330
0
100
AcDbDictionary
281
     1
  3
ACAD_GROUP
350
D
  3
ACAD_LAYOUT
350
1A
  3
ACAD_MLINESTYLE
350
17
  3
ACAD_PLOTSETTINGS
350
19
  3
ACAD_PLOTSTYLENAME
350
E
  3
ACAD_SCALELIST
350
47
  3
DWGPROPS
350
32A
  0
DICTIONARY
  5
D
102
{ACAD_REACTORS
330
C
102
}
330
C
100
AcDbDictionary
281
     1
  0
DICTIONARY
  5
1A
102
{ACAD_REACTORS
330
C
102
}
330
C
100
AcDbDictionary
281
     1
  3
Layout1
350
1E
  3
Layout2
350
26
  3
Model
350
22
  0
DICTIONARY
  5
17
102
{ACAD_REACTORS
330
C
102
}
330
C
100
AcDbDictionary
281
     1
  3
Standard
350
18
  0
DICTIONARY
  5
19
102
{ACAD_REACTORS
330
C
102
}
330
C
100
AcDbDictionary
281
     1
  0
ACDBDICTIONARYWDFLT
  5
E
102
{ACAD_REACTORS
330
C
102
}
330
C
100
AcDbDictionary
281
     1
  3
Normal
350
F
100
AcDbDictionaryWithDefault
340
F
  0
DICTIONARY
  5
47
102
{ACAD_REACTORS
330
C
102
}
330
C
100
AcDbDictionary
281
     1
  3
A0
350
48
  3
A1
350
49
  3
A2
350
4A
  3
A3
350
4B
  3
A4
350
4C
  3
A5
350
4D
  3
A6
350
4E
  3
A7
350
4F
  3
A8
350
50
  3
A9
350
51
  3
B0
350
52
  3
B1
350
53
  3
B2
350
54
  3
B3
350
55
  3
B4
350
56
  3
B5
350
57
  3
B6
350
58
  3
B7
350
59
  3
B8
350
5A
  3
B9
350
5B
  3
C0
350
5C
  3
C1
350
5D
  3
C2
350
5E
  3
C3
350
5F
  3
C4
350
60
  3
C5
350
61
  3
C6
350
62
  3
C7
350
63
  3
C8
350
64
  3
C9
350
65
  3
D0
350
66
  3
D1
350
67
  3
D2
350
68
  0
XRECORD
  5
32A
102
{ACAD_REACTORS
330
C
102
}
330
C
100
AcDbXrecord
280
     1
  1
DWGPROPS COOKIE
  2

  3

  4

  6

  7

  8
ch-ntl-rs-wscad
  9

300
=
301
=
302
=
303
=
304
=
305
=
306
=
307
=
308
=
309
=
 40
0.0
 41
2460206.612939618
 42
2460206.612947766
  1

 90
        0
  0
LAYOUT
  5
1E
102
{ACAD_REACTORS
330
1A
102
}
330
1A
100
AcDbPlotSettings
  1

  2
none_device
  4

  6

 40
0.0
 41
0.0
 42
0.0
 43
0.0
 44
0.0
 45
0.0
 46
0.0
 47
0.0
 48
0.0
 49
0.0
140
0.0
141
0.0
142
1.0
143
1.0
 70
   688
 72
     1
 73
     0
 74
     5
  7

 75
    16
147
1.0
148
0.0
149
0.0
100
AcDbLayout
  1
Layout1
 70
     1
 71
     1
 10
0.0
 20
0.0
 11
420.0
 21
297.0
 12
0.0
 22
0.0
 32
0.0
 14
1.0000000000E+20
 24
1.0000000000E+20
 34
1.0000000000E+20
 15
-1.0000000000E+20
 25
-1.0000000000E+20
 35
-1.0000000000E+20
146
0.0
 13
0.0
 23
0.0
 33
0.0
 16
1.0
 26
0.0
 36
0.0
 17
0.0
 27
1.0
 37
0.0
 76
     0
330
1B
  0
LAYOUT
  5
26
102
{ACAD_REACTORS
330
1A
102
}
330
1A
100
AcDbPlotSettings
  1

  2
none_device
  4

  6

 40
0.0
 41
0.0
 42
0.0
 43
0.0
 44
0.0
 45
0.0
 46
0.0
 47
0.0
 48
0.0
 49
0.0
140
0.0
141
0.0
142
1.0
143
1.0
 70
   688
 72
     1
 73
     0
 74
     5
  7

 75
    16
147
1.0
148
0.0
149
0.0
100
AcDbLayout
  1
Layout2
 70
     1
 71
     2
 10
0.0
 20
0.0
 11
0.0
 21
0.0
 12
0.0
 22
0.0
 32
0.0
 14
0.0
 24
0.0
 34
0.0
 15
0.0
 25
0.0
 35
0.0
146
0.0
 13
0.0
 23
0.0
 33
0.0
 16
1.0
 26
0.0
 36
0.0
 17
0.0
 27
1.0
 37
0.0
 76
     0
330
23
  0
LAYOUT
  5
22
102
{ACAD_REACTORS
330
1A
102
}
330
1A
100
AcDbPlotSettings
  1

  2
none_device
  4
Letter_(8.50_x_11.00_Inches)
  6

 40
6.35
 41
6.35
 42
6.35000508
 43
6.35000508
 44
215.9
 45
279.4
 46
0.0
 47
0.0
 48
0.0
 49
0.0
140
0.0
141
0.0
142
1.0
143
1.0
 70
  1712
 72
     1
 73
     0
 74
     0
  7

 75
     0
147
1.0
148
0.0
149
0.0
100
AcDbLayout
  1
Model
 70
     1
 71
     0
 10
0.0
 20
0.0
 11
420.0
 21
297.0
 12
0.0
 22
0.0
 32
0.0
 14
0.0
 24
0.0
 34
0.0
 15
420.0
 25
297.0
 35
0.0
146
0.0
 13
0.0
 23
0.0
 33
0.0
 16
1.0
 26
0.0
 36
0.0
 17
0.0
 27
1.0
 37
0.0
 76
     0
330
1F
331
29
  0
MLINESTYLE
  5
18
102
{ACAD_REACTORS
330
17
102
}
330
17
100
AcDbMlineStyle
  2
Standard
 70
     0
  3

 62
   256
 51
90.0
 52
90.0
 71
     2
 49
0.5
 62
   256
  6
BYLAYER
 49
-0.5
 62
   256
  6
BYLAYER
  0
ACDBPLACEHOLDER
  5
F
102
{ACAD_REACTORS
330
E
102
}
330
E
  0
SCALE
  5
48
102
{ACAD_REACTORS
330
47
102
}
330
47
100
AcDbScale
 70
     0
300
1:1
140
1.0
141
1.0
290
     1
  0
SCALE
  5
49
102
{ACAD_REACTORS
330
47
102
}
330
47
100
AcDbScale
 70
     0
300
1:2
140
1.0
141
2.0
290
     0
  0
SCALE
  5
4A
102
{ACAD_REACTORS
330
47
102
}
330
47
100
AcDbScale
 70
     0
300
1:4
140
1.0
141
4.0
290
     0
  0
SCALE
  5
4B
102
{ACAD_REACTORS
330
47
102
}
330
47
100
AcDbScale
 70
     0
300
1:5
140
1.0
141
5.0
290
     0
  0
SCALE
  5
4C
102
{ACAD_REACTORS
330
47
102
}
330
47
100
AcDbScale
 70
     0
300
1:8
140
1.0
141
8.0
290
     0
  0
SCALE
  5
4D
102
{ACAD_REACTORS
330
47
102
}
330
47
100
AcDbScale
 70
     0
300
1:10
140
1.0
141
10.0
290
     0
  0
SCALE
  5
4E
102
{ACAD_REACTORS
330
47
102
}
330
47
100
AcDbScale
 70
     0
300
1:16
140
1.0
141
16.0
290
     0
  0
SCALE
  5
4F
102
{ACAD_REACTORS
330
47
102
}
330
47
100
AcDbScale
 70
     0
300
1:20
140
1.0
141
20.0
290
     0
  0
SCALE
  5
50
102
{ACAD_REACTORS
330
47
102
}
330
47
100
AcDbScale
 70
     0
300
1:30
140
1.0
141
30.0
290
     0
  0
SCALE
  5
51
102
{ACAD_REACTORS
330
47
102
}
330
47
100
AcDbScale
 70
     0
300
1:40
140
1.0
141
40.0
290
     0
  0
SCALE
  5
52
102
{ACAD_REACTORS
330
47
102
}
330
47
100
AcDbScale
 70
     0
300
1:50
140
1.0
141
50.0
290
     0
  0
SCALE
  5
53
102
{ACAD_REACTORS
330
47
102
}
330
47
100
AcDbScale
 70
     0
300
1:100
140
1.0
141
100.0
290
     0
  0
SCALE
  5
54
102
{ACAD_REACTORS
330
47
102
}
330
47
100
AcDbScale
 70
     0
300
2:1
140
2.0
141
1.0
290
     0
  0
SCALE
  5
55
102
{ACAD_REACTORS
330
47
102
}
330
47
100
AcDbScale
 70
     0
300
4:1
140
4.0
141
1.0
290
     0
  0
SCALE
  5
56
102
{ACAD_REACTORS
330
47
102
}
330
47
100
AcDbScale
 70
     0
300
8:1
140
8.0
141
1.0
290
     0
  0
SCALE
  5
57
102
{ACAD_REACTORS
330
47
102
}
330
47
100
AcDbScale
 70
     0
300
10:1
140
10.0
141
1.0
290
     0
  0
SCALE
  5
58
102
{ACAD_REACTORS
330
47
102
}
330
47
100
AcDbScale
 70
     0
300
100:1
140
100.0
141
1.0
290
     0
  0
SCALE
  5
59
102
{ACAD_REACTORS
330
47
102
}
330
47
100
AcDbScale
 70
     0
300
1/128" = 1'-0"
140
0.0078125
141
12.0
290
     0
  0
SCALE
  5
5A
102
{ACAD_REACTORS
330
47
102
}
330
47
100
AcDbScale
 70
     0
300
1/64" = 1'-0"
140
0.015625
141
12.0
290
     0
  0
SCALE
  5
5B
102
{ACAD_REACTORS
330
47
102
}
330
47
100
AcDbScale
 70
     0
300
1/32" = 1'-0"
140
0.03125
141
12.0
290
     0
  0
SCALE
  5
5C
102
{ACAD_REACTORS
330
47
102
}
330
47
100
AcDbScale
 70
     0
300
1/16" = 1'-0"
140
0.0625
141
12.0
290
     0
  0
SCALE
  5
5D
102
{ACAD_REACTORS
330
47
102
}
330
47
100
AcDbScale
 70
     0
300
3/32" = 1'-0"
140
0.09375
141
12.0
290
     0
  0
SCALE
  5
5E
102
{ACAD_REACTORS
330
47
102
}
330
47
100
AcDbScale
 70
     0
300
1/8" = 1'-0"
140
0.125
141
12.0
290
     0
  0
SCALE
  5
5F
102
{ACAD_REACTORS
330
47
102
}
330
47
100
AcDbScale
 70
     0
300
3/16" = 1'-0"
140
0.1875
141
12.0
290
     0
  0
SCALE
  5
60
102
{ACAD_REACTORS
330
47
102
}
330
47
100
AcDbScale
 70
     0
300
1/4" = 1'-0"
140
0.25
141
12.0
290
     0
  0
SCALE
  5
61
102
{ACAD_REACTORS
330
47
102
}
330
47
100
AcDbScale
 70
     0
300
3/8" = 1'-0"
140
0.375
141
12.0
290
     0
  0
SCALE
  5
62
102
{ACAD_REACTORS
330
47
102
}
330
47
100
AcDbScale
 70
     0
300
1/2" = 1'-0"
140
0.5
141
12.0
290
     0
  0
SCALE
  5
63
102
{ACAD_REACTORS
330
47
102
}
330
47
100
AcDbScale
 70
     0
300
3/4" = 1'-0"
140
0.75
141
12.0
290
     0
  0
SCALE
  5
64
102
{ACAD_REACTORS
330
47
102
}
330
47
100
AcDbScale
 70
     0
300
1" = 1'-0"
140
1.0
141
12.0
290
     0
  0
SCALE
  5
65
102
{ACAD_REACTORS
330
47
102
}
330
47
100
AcDbScale
 70
     0
300
1-1/2" = 1'-0"
140
1.5
141
12.0
290
     0
  0
SCALE
  5
66
102
{ACAD_REACTORS
330
47
102
}
330
47
100
AcDbScale
 70
     0
300
3" = 1'-0"
140
3.0
141
12.0
290
     0
  0
SCALE
  5
67
102
{ACAD_REACTORS
330
47
102
}
330
47
100
AcDbScale
 70
     0
300
6" = 1'-0"
140
6.0
141
12.0
290
     0
  0
SCALE
  5
68
102
{ACAD_REACTORS
330
47
102
}
330
47
100
AcDbScale
 70
     0
300
1'-0" = 1'-0"
140
12.0
141
12.0
290
     0
  0
ENDSEC
  0
EOF
