  0
SECTION
  2
HEADER
  9
$ACADVER
  1
AC1015
  9
$ACADMAINTVER
 70
     6
  9
$DWGCODEPAGE
  3
ANSI_1252
  9
$INSBASE
 10
0.0
 20
0.0
 30
0.0
  9
$EXTMIN
 10
0.0
 20
0.0
 30
0.0
  9
$EXTMAX
 10
420.0
 20
297.0
 30
0.0
  9
$LIMMIN
 10
0.0
 20
0.0
  9
$LIMMAX
 10
420.0
 20
297.0
  9
$ORTHOMODE
 70
     0
  9
$REGENMODE
 70
     1
  9
$FILLMODE
 70
     1
  9
$QTEXTMODE
 70
     0
  9
$MIRRTEXT
 70
     1
  9
$LTSCALE
 40
1.0
  9
$ATTMODE
 70
     1
  9
$TEXTSIZE
 40
3.5
  9
$TRACEWID
 40
1.0
  9
$TEXTSTYLE
  7
Standard
  9
$CLAYER
  8
0
  9
$CELTYPE
  6
ByLayer
  9
$CECOLOR
 62
   256
  9
$CELTSCALE
 40
1.0
  9
$DISPSILH
 70
     0
  9
$DIMSCALE
 40
1.0
  9
$DIMASZ
 40
3.5
  9
$DIMEXO
 40
0.1
  9
$DIMDLI
 40
3.75
  9
$DIMRND
 40
0.0
  9
$DIMDLE
 40
0.0
  9
$DIMEXE
 40
1.0
  9
$DIMTP
 40
0.0
  9
$DIMTM
 40
0.0
  9
$DIMTXT
 40
3.5
  9
$DIMCEN
 40
2.5
  9
$DIMTSZ
 40
0.0
  9
$DIMTOL
 70
     0
  9
$DIMLIM
 70
     0
  9
$DIMTIH
 70
     1
  9
$DIMTOH
 70
     1
  9
$DIMSE1
 70
     0
  9
$DIMSE2
 70
     0
  9
$DIMTAD
 70
     1
  9
$DIMZIN
 70
     0
  9
$DIMBLK
  1

  9
$DIMASO
 70
     1
  9
$DIMSHO
 70
     1
  9
$DIMPOST
  1

  9
$DIMAPOST
  1

  9
$DIMALT
 70
     0
  9
$DIMALTD
 70
     3
  9
$DIMALTF
 40
0.0393700787
  9
$DIMLFAC
 40
1.0
  9
$DIMTOFL
 70
     1
  9
$DIMTVP
 40
0.0
  9
$DIMTIX
 70
     0
  9
$DIMSOXD
 70
     0
  9
$DIMSAH
 70
     0
  9
$DIMBLK1
  1

  9
$DIMBLK2
  1

  9
$DIMSTYLE
  2
ISO-25
  9
$DIMCLRD
 70
     0
  9
$DIMCLRE
 70
     0
  9
$DIMCLRT
 70
     0
  9
$DIMTFAC
 40
1.0
  9
$DIMGAP
 40
2.0
  9
$DIMJUST
 70
     0
  9
$DIMSD1
 70
     0
  9
$DIMSD2
 70
     0
  9
$DIMTOLJ
 70
     0
  9
$DIMTZIN
 70
     0
  9
$DIMALTZ
 70
     0
  9
$DIMALTTZ
 70
     0
  9
$DIMUPT
 70
     0
  9
$DIMDEC
 70
     2
  9
$DIMTDEC
 70
     3
  9
$DIMALTU
 70
     2
  9
$DIMALTTD
 70
     3
  9
$DIMTXSTY
  7
Standard
  9
$DIMAUNIT
 70
     0
  9
$DIMADEC
 70
     2
  9
$DIMALTRND
 40
0.0
  9
$DIMAZIN
 70
     0
  9
$DIMDSEP
 70
    44
  9
$DIMATFIT
 70
     3
  9
$DIMFRAC
 70
     0
  9
$DIMLDRBLK
  1

  9
$DIMLUNIT
 70
     2
  9
$DIMLWD
 70
    -2
  9
$DIMLWE
 70
    -2
  9
$DIMTMOVE
 70
     0
  9
$LUNITS
 70
     2
  9
$LUPREC
 70
     2
  9
$SKETCHINC
 40
1.0
  9
$FILLETRAD
 40
10.0
  9
$AUNITS
 70
     0
  9
$AUPREC
 70
     2
  9
$MENU
  1
.
  9
$ELEVATION
 40
0.0
  9
$PELEVATION
 40
0.0
  9
$THICKNESS
 40
0.0
  9
$LIMCHECK
 70
     0
  9
$CHAMFERA
 40
0.0
  9
$CHAMFERB
 40
0.0
  9
$CHAMFERC
 40
0.0
  9
$CHAMFERD
 40
0.0
  9
$SKPOLY
 70
     0
  9
$TDCREATE
 40
2458289.941132558
  9
$TDUCREATE
 40
2458289.857799225
  9
$TDUPDATE
 40
2458289.941143773
  9
$TDUUPDATE
 40
2458289.85781044
  9
$TDINDWG
 40
0.0000000116
  9
$TDUSRTIMER
 40
0.0000000116
  9
$USRTIMER
 70
     1
  9
$ANGBASE
 50
0.0
  9
$ANGDIR
 70
     0
  9
$PDMODE
 70
     0
  9
$PDSIZE
 40
-1.0
  9
$PLINEWID
 40
0.0
  9
$SPLFRAME
 70
     0
  9
$SPLINETYPE
 70
     6
  9
$SPLINESEGS
 70
     8
  9
$HANDSEED
  5
572
  9
$SURFTAB1
 70
     6
  9
$SURFTAB2
 70
     6
  9
$SURFTYPE
 70
     6
  9
$SURFU
 70
     6
  9
$SURFV
 70
     6
  9
$UCSBASE
  2

  9
$UCSNAME
  2

  9
$UCSORG
 10
0.0
 20
0.0
 30
0.0
  9
$UCSXDIR
 10
1.0
 20
0.0
 30
0.0
  9
$UCSYDIR
 10
0.0
 20
1.0
 30
0.0
  9
$UCSORTHOREF
  2

  9
$UCSORTHOVIEW
 70
     0
  9
$UCSORGTOP
 10
0.0
 20
0.0
 30
0.0
  9
$UCSORGBOTTOM
 10
0.0
 20
0.0
 30
0.0
  9
$UCSORGLEFT
 10
0.0
 20
0.0
 30
0.0
  9
$UCSORGRIGHT
 10
0.0
 20
0.0
 30
0.0
  9
$UCSORGFRONT
 10
0.0
 20
0.0
 30
0.0
  9
$UCSORGBACK
 10
0.0
 20
0.0
 30
0.0
  9
$PUCSBASE
  2

  9
$PUCSNAME
  2

  9
$PUCSORG
 10
0.0
 20
0.0
 30
0.0
  9
$PUCSXDIR
 10
1.0
 20
0.0
 30
0.0
  9
$PUCSYDIR
 10
0.0
 20
1.0
 30
0.0
  9
$PUCSORTHOREF
  2

  9
$PUCSORTHOVIEW
 70
     0
  9
$PUCSORGTOP
 10
0.0
 20
0.0
 30
0.0
  9
$PUCSORGBOTTOM
 10
0.0
 20
0.0
 30
0.0
  9
$PUCSORGLEFT
 10
0.0
 20
0.0
 30
0.0
  9
$PUCSORGRIGHT
 10
0.0
 20
0.0
 30
0.0
  9
$PUCSORGFRONT
 10
0.0
 20
0.0
 30
0.0
  9
$PUCSORGBACK
 10
0.0
 20
0.0
 30
0.0
  9
$USERI1
 70
     0
  9
$USERI2
 70
     0
  9
$USERI3
 70
     0
  9
$USERI4
 70
     0
  9
$USERI5
 70
     0
  9
$USERR1
 40
0.0
  9
$USERR2
 40
0.0
  9
$USERR3
 40
0.0
  9
$USERR4
 40
0.0
  9
$USERR5
 40
0.0
  9
$WORLDVIEW
 70
     1
  9
$SHADEDGE
 70
     3
  9
$SHADEDIF
 70
    70
  9
$TILEMODE
 70
     1
  9
$MAXACTVP
 70
    64
  9
$PINSBASE
 10
0.0
 20
0.0
 30
0.0
  9
$PLIMCHECK
 70
     0
  9
$PEXTMIN
 10
1.0000000000E+20
 20
1.0000000000E+20
 30
1.0000000000E+20
  9
$PEXTMAX
 10
-1.0000000000E+20
 20
-1.0000000000E+20
 30
-1.0000000000E+20
  9
$PLIMMIN
 10
0.0
 20
0.0
  9
$PLIMMAX
 10
420.0
 20
297.0
  9
$UNITMODE
 70
     0
  9
$VISRETAIN
 70
     1
  9
$PLINEGEN
 70
     0
  9
$PSLTSCALE
 70
     1
  9
$TREEDEPTH
 70
  3020
  9
$CMLSTYLE
  2
Standard
  9
$CMLJUST
 70
     0
  9
$CMLSCALE
 40
20.0
  9
$PROXYGRAPHICS
 70
     1
  9
$MEASUREMENT
 70
     1
  9
$CELWEIGHT
370
    -1
  9
$ENDCAPS
280
     0
  9
$JOINSTYLE
280
     0
  9
$LWDISPLAY
290
     1
  9
$INSUNITS
 70
     4
  9
$HYPERLINKBASE
  1

  9
$STYLESHEET
  1

  9
$XEDIT
290
     1
  9
$CEPSNTYPE
380
     0
  9
$PSTYLEMODE
290
     1
  9
$FINGERPRINTGUID
  2
{35D25524-C86B-48A1-AE35-2FEC7006F281}
  9
$VERSIONGUID
  2
{FAEB1C32-E019-11D5-929B-00C0DF256EC4}
  9
$EXTNAMES
290
     1
  9
$PSVPSCALE
 40
0.0
  9
$OLESTARTUP
290
     0
  0
ENDSEC
  0
SECTION
  2
CLASSES
  0
CLASS
  1
ACDBDICTIONARYWDFLT
  2
AcDbDictionaryWithDefault
  3
ObjectDBX Classes
 90
        0
280
     0
281
     0
  0
CLASS
  1
VISUALSTYLE
  2
AcDbVisualStyle
  3
ObjectDBX Classes
 90
     4095
280
     0
281
     0
  0
CLASS
  1
MATERIAL
  2
AcDbMaterial
  3
ObjectDBX Classes
 90
     1153
280
     0
281
     0
  0
CLASS
  1
SCALE
  2
AcDbScale
  3
ObjectDBX Classes
 90
     1153
280
     0
281
     0
  0
CLASS
  1
TABLESTYLE
  2
AcDbTableStyle
  3
ObjectDBX Classes
 90
     4095
280
     0
281
     0
  0
CLASS
  1
MLEADERSTYLE
  2
AcDbMLeaderStyle
  3
ACDB_MLEADERSTYLE_CLASS
 90
     4095
280
     0
281
     0
  0
CLASS
  1
SUN
  2
AcDbSun
  3
SCENEOE
 90
     1153
280
     0
281
     0
  0
CLASS
  1
ACDBPLACEHOLDER
  2
AcDbPlaceHolder
  3
ObjectDBX Classes
 90
        0
280
     0
281
     0
  0
CLASS
  1
LAYOUT
  2
AcDbLayout
  3
ObjectDBX Classes
 90
        0
280
     0
281
     0
  0
ENDSEC
  0
SECTION
  2
TABLES
  0
TABLE
  2
VPORT
  5
8
330
0
100
AcDbSymbolTable
 70
     1
  0
VPORT
  5
29
330
8
100
AcDbSymbolTableRecord
100
AcDbViewportTableRecord
  2
*Active
 70
     0
 10
0.0
 20
0.0
 11
1.0
 21
1.0
 12
210.0
 22
148.5
 13
0.0
 23
0.0
 14
10.0
 24
10.0
 15
10.0
 25
10.0
 16
0.0
 26
0.0
 36
1.0
 17
0.0
 27
0.0
 37
0.0
 40
297.0
 41
1.4141414141
 42
50.0
 43
0.0
 44
0.0
 50
0.0
 51
0.0
 71
     0
 72
  2000
 73
     1
 74
     3
 75
     0
 76
     0
 77
     0
 78
     0
281
     0
 65
     1
110
0.0
120
0.0
130
0.0
111
1.0
121
0.0
131
0.0
112
0.0
122
1.0
132
0.0
 79
     0
146
0.0
  0
ENDTAB
  0
TABLE
  2
LTYPE
  5
5
330
0
100
AcDbSymbolTable
 70
     6
  0
LTYPE
  5
14
330
5
100
AcDbSymbolTableRecord
100
AcDbLinetypeTableRecord
  2
ByBlock
 70
     0
  3

 72
    65
 73
     0
 40
0.0
  0
LTYPE
  5
15
330
5
100
AcDbSymbolTableRecord
100
AcDbLinetypeTableRecord
  2
ByLayer
 70
     0
  3

 72
    65
 73
     0
 40
0.0
  0
LTYPE
  5
16
330
5
100
AcDbSymbolTableRecord
100
AcDbLinetypeTableRecord
  2
Continuous
 70
     0
  3
Solid line
 72
    65
 73
     0
 40
0.0
  0
LTYPE
  5
6E
330
5
100
AcDbSymbolTableRecord
100
AcDbLinetypeTableRecord
  2
HIDDEN
 70
     0
  3
Hidden __ __ __ __ __ __ __ __ __ __ __ __ __ __
 72
    65
 73
     2
 40
1.905
 49
1.27
 74
     0
 49
-0.635
 74
     0
  0
LTYPE
  5
6F
330
5
100
AcDbSymbolTableRecord
100
AcDbLinetypeTableRecord
  2
PHANTOM
 70
     0
  3
Phantom ______  __  __  ______  __  __  ______
 72
    65
 73
     6
 40
12.7
 49
6.35
 74
     0
 49
-1.27
 74
     0
 49
1.27
 74
     0
 49
-1.27
 74
     0
 49
1.27
 74
     0
 49
-1.27
 74
     0
  0
LTYPE
  5
70
330
5
100
AcDbSymbolTableRecord
100
AcDbLinetypeTableRecord
  2
CENTER
 70
     0
  3
Center ____ _ ____ _ ____ _ ____ _ ____ _ ____
 72
    65
 73
     4
 40
10.16
 49
6.35
 74
     0
 49
-1.27
 74
     0
 49
1.27
 74
     0
 49
-1.27
 74
     0
  0
LTYPE
  5
71
330
5
100
AcDbSymbolTableRecord
100
AcDbLinetypeTableRecord
  2
CENTERX2
 70
     0
  3
Center (2x) ________  __  ________  __  _____
 72
    65
 73
     4
 40
20.32
 49
12.7
 74
     0
 49
-2.54
 74
     0
 49
2.54
 74
     0
 49
-2.54
 74
     0
  0
LTYPE
  5
72
330
5
100
AcDbSymbolTableRecord
100
AcDbLinetypeTableRecord
  2
DOT2
 70
     0
  3
Dot (.5x) ........................................
 72
    65
 73
     2
 40
0.635
 49
0.0
 74
     0
 49
-0.635
 74
     0
  0
ENDTAB
  0
TABLE
  2
LAYER
  5
2
330
0
100
AcDbSymbolTable
 70
     9
  0
LAYER
  5
10
330
2
100
AcDbSymbolTableRecord
100
AcDbLayerTableRecord
  2
0
 70
     0
 62
     7
  6
Continuous
370
    -3
390
F
  0
LAYER
  5
73
330
2
100
AcDbSymbolTableRecord
100
AcDbLayerTableRecord
  2
VORLAGE_TEXT
 70
     0
 62
     7
  6
Continuous
370
    -3
390
F
  0
LAYER
  5
74
330
2
100
AcDbSymbolTableRecord
100
AcDbLayerTableRecord
  2
VORLAGE_BEMASSUNG
 70
     0
 62
    -5
  6
Continuous
290
     0
370
    -3
390
F
  0
LAYER
  5
75
330
2
100
AcDbSymbolTableRecord
100
AcDbLayerTableRecord
  2
TEXT
 70
     0
 62
     7
  6
Continuous
370
    -3
390
F
  0
LAYER
  5
76
330
2
100
AcDbSymbolTableRecord
100
AcDbLayerTableRecord
  2
LINIEN-DICK
 70
     0
 62
     7
  6
Continuous
370
    35
390
F
  0
LAYER
  5
77
330
2
100
AcDbSymbolTableRecord
100
AcDbLayerTableRecord
  2
LINIEN-NORMAL
 70
     0
 62
     7
  6
Continuous
370
    25
390
F
  0
LAYER
  5
78
330
2
100
AcDbSymbolTableRecord
100
AcDbLayerTableRecord
  2
LINIEN-DÜNN
 70
     0
 62
     7
  6
Continuous
370
    -3
390
F
  0
LAYER
  5
79
330
2
100
AcDbSymbolTableRecord
100
AcDbLayerTableRecord
  2
TEXT-DEUTSCH
 70
     0
 62
     7
  6
Continuous
370
    -3
390
F
  0
LAYER
  5
7A
330
2
100
AcDbSymbolTableRecord
100
AcDbLayerTableRecord
  2
TEXT-ENGLISCH
 70
     0
 62
    -7
  6
Continuous
290
     0
370
    -3
390
F
  0
ENDTAB
  0
TABLE
  2
STYLE
  5
3
330
0
100
AcDbSymbolTable
 70
     4
  0
STYLE
  5
11
330
3
100
AcDbSymbolTableRecord
100
AcDbTextStyleTableRecord
  2
Standard
 70
     0
 40
0.0
 41
1.0
 50
0.0
 71
     0
 42
3.5
  3
txt
  4

  0
STYLE
  5
EE
330
3
100
AcDbSymbolTableRecord
100
AcDbTextStyleTableRecord
  2
SLDTEXTSTYLE0
 70
     0
 40
0.0
 41
0.605
 50
0.0
 71
     0
 42
3.5
  3
TXT
  4

  0
STYLE
  5
F6
330
3
100
AcDbSymbolTableRecord
100
AcDbTextStyleTableRecord
  2
SLDTEXTSTYLE1
 70
     0
 40
0.0
 41
0.5715909091
 50
0.0
 71
     0
 42
3.5
  3
TXT
  4

  0
STYLE
  5
194
330
3
100
AcDbSymbolTableRecord
100
AcDbTextStyleTableRecord
  2
SLDTEXTSTYLE2
 70
     0
 40
0.0
 41
0.563
 50
0.0
 71
     0
 42
3.5
  3
TXT
  4

  0
ENDTAB
  0
TABLE
  2
VIEW
  5
6
330
0
100
AcDbSymbolTable
 70
     0
  0
ENDTAB
  0
TABLE
  2
UCS
  5
7
330
0
100
AcDbSymbolTable
 70
     0
  0
ENDTAB
  0
TABLE
  2
APPID
  5
9
330
0
100
AcDbSymbolTable
 70
     1
  0
APPID
  5
12
330
9
100
AcDbSymbolTableRecord
100
AcDbRegAppTableRecord
  2
ACAD
 70
     0
  0
ENDTAB
  0
TABLE
  2
DIMSTYLE
  5
A
330
0
100
AcDbSymbolTable
 70
     6
100
AcDbDimStyleTable
  0
DIMSTYLE
105
27
330
A
100
AcDbSymbolTableRecord
100
AcDbDimStyleTableRecord
  2
ISO-25
 70
     0
 41
2.5
 42
0.625
 43
3.75
 44
1.25
 73
     0
 74
     0
 77
     1
 78
     8
140
2.5
141
2.5
143
0.0393700787
147
0.625
171
     3
172
     1
178
     0
271
     2
272
     2
274
     3
278
    44
283
     0
284
     8
340
11
  0
DIMSTYLE
105
210
102
{ACAD_REACTORS
330
20F
330
21B
330
232
330
258
102
}
330
A
100
AcDbSymbolTableRecord
100
AcDbDimStyleTableRecord
  2
SLDDIMSTYLE0
 70
     0
 41
3.5
 44
0.0
 45
0.000000001
 73
     0
 74
     0
 77
     1
 78
    12
 79
     3
140
3.5
147
0.875
173
     1
178
     0
271
     2
272
     3
276
     2
284
    12
340
EE
  0
DIMSTYLE
105
226
102
{ACAD_REACTORS
330
225
102
}
330
A
100
AcDbSymbolTableRecord
100
AcDbDimStyleTableRecord
  2
SLDDIMSTYLE1
 70
     0
 41
3.5
 44
0.0
 45
0.000000001
 73
     0
 74
     0
 77
     1
 78
    12
 79
     3
140
3.5
147
0.875
172
     1
173
     1
178
     0
271
     2
272
     3
276
     2
284
    12
289
     0
340
EE
  0
DIMSTYLE
105
263
102
{ACAD_REACTORS
330
262
102
}
330
A
100
AcDbSymbolTableRecord
100
AcDbDimStyleTableRecord
  2
SLDDIMSTYLE2
 70
     0
 41
3.5
 44
0.0
 45
0.000000001
 73
     0
 74
     0
 77
     1
 78
    12
 79
     3
140
3.5
141
0.0
147
0.875
173
     1
178
     0
271
     2
272
     3
276
     2
279
     1
284
    12
340
EE
  0
DIMSTYLE
105
37A
102
{ACAD_REACTORS
330
379
330
384
330
39B
102
}
330
A
100
AcDbSymbolTableRecord
100
AcDbDimStyleTableRecord
  2
SLDDIMSTYLE3
 70
     0
 41
3.5
 44
0.0
 45
0.000000001
 73
     0
 74
     0
 77
     1
 78
    12
 79
     3
140
3.5
144
2.0
147
0.875
173
     1
178
     0
271
     2
272
     3
276
     2
284
    12
340
EE
  0
DIMSTYLE
105
38F
102
{ACAD_REACTORS
330
38E
102
}
330
A
100
AcDbSymbolTableRecord
100
AcDbDimStyleTableRecord
  2
SLDDIMSTYLE4
 70
     0
 41
3.5
 44
0.0
 45
0.000000001
 73
     0
 74
     0
 77
     1
 78
    12
 79
     3
140
3.5
144
2.0
147
0.875
172
     1
173
     1
178
     0
271
     2
272
     3
276
     2
284
    12
289
     0
340
EE
  0
ENDTAB
  0
TABLE
  2
BLOCK_RECORD
  5
1
330
0
100
AcDbSymbolTable
 70
    37
  0
BLOCK_RECORD
  5
1F
330
1
100
AcDbSymbolTableRecord
100
AcDbBlockTableRecord
  2
*Model_Space
340
22
  0
BLOCK_RECORD
  5
1B
330
1
100
AcDbSymbolTableRecord
100
AcDbBlockTableRecord
  2
*Paper_Space
340
1E
  0
BLOCK_RECORD
  5
23
330
1
100
AcDbSymbolTableRecord
100
AcDbBlockTableRecord
  2
*Paper_Space0
340
26
  0
BLOCK_RECORD
  5
7B
330
1
100
AcDbSymbolTableRecord
100
AcDbBlockTableRecord
  2
ACO-Logo
340
0
102
{BLKREFS
331
14A
102
}
  0
BLOCK_RECORD
  5
F1
330
1
100
AcDbSymbolTableRecord
100
AcDbBlockTableRecord
  2
SW_NOTE_0
340
0
102
{BLKREFS
331
F9
102
}
  0
BLOCK_RECORD
  5
173
330
1
100
AcDbSymbolTableRecord
100
AcDbBlockTableRecord
  2
SW_NOTE_1
340
0
102
{BLKREFS
331
17B
102
}
  0
BLOCK_RECORD
  5
211
330
1
100
AcDbSymbolTableRecord
100
AcDbBlockTableRecord
  2
_D
340
0
  0
BLOCK_RECORD
  5
21C
330
1
100
AcDbSymbolTableRecord
100
AcDbBlockTableRecord
  2
_D_1
340
0
  0
BLOCK_RECORD
  5
227
330
1
100
AcDbSymbolTableRecord
100
AcDbBlockTableRecord
  2
_D_2
340
0
  0
BLOCK_RECORD
  5
233
330
1
100
AcDbSymbolTableRecord
100
AcDbBlockTableRecord
  2
_D_3
340
0
  0
BLOCK_RECORD
  5
259
330
1
100
AcDbSymbolTableRecord
100
AcDbBlockTableRecord
  2
_D_4
340
0
  0
BLOCK_RECORD
  5
264
330
1
100
AcDbSymbolTableRecord
100
AcDbBlockTableRecord
  2
_D_5
340
0
  0
BLOCK_RECORD
  5
37B
330
1
100
AcDbSymbolTableRecord
100
AcDbBlockTableRecord
  2
_D_6
340
0
  0
BLOCK_RECORD
  5
385
330
1
100
AcDbSymbolTableRecord
100
AcDbBlockTableRecord
  2
_D_7
340
0
  0
BLOCK_RECORD
  5
390
330
1
100
AcDbSymbolTableRecord
100
AcDbBlockTableRecord
  2
_D_8
340
0
  0
BLOCK_RECORD
  5
39C
330
1
100
AcDbSymbolTableRecord
100
AcDbBlockTableRecord
  2
_D_9
340
0
  0
BLOCK_RECORD
  5
3A6
330
1
100
AcDbSymbolTableRecord
100
AcDbBlockTableRecord
  2
SW_CENTERMARKSYMBOL_0
340
0
102
{BLKREFS
331
3B9
102
}
  0
BLOCK_RECORD
  5
3BA
330
1
100
AcDbSymbolTableRecord
100
AcDbBlockTableRecord
  2
SW_CENTERMARKSYMBOL_1
340
0
102
{BLKREFS
331
3CD
102
}
  0
BLOCK_RECORD
  5
3CE
330
1
100
AcDbSymbolTableRecord
100
AcDbBlockTableRecord
  2
SW_CENTERMARKSYMBOL_2
340
0
102
{BLKREFS
331
3E1
102
}
  0
BLOCK_RECORD
  5
3E2
330
1
100
AcDbSymbolTableRecord
100
AcDbBlockTableRecord
  2
SW_CENTERMARKSYMBOL_3
340
0
102
{BLKREFS
331
3F5
102
}
  0
BLOCK_RECORD
  5
3F6
330
1
100
AcDbSymbolTableRecord
100
AcDbBlockTableRecord
  2
SW_CENTERMARKSYMBOL_4
340
0
102
{BLKREFS
331
409
102
}
  0
BLOCK_RECORD
  5
40A
330
1
100
AcDbSymbolTableRecord
100
AcDbBlockTableRecord
  2
SW_CENTERMARKSYMBOL_5
340
0
102
{BLKREFS
331
41D
102
}
  0
BLOCK_RECORD
  5
41E
330
1
100
AcDbSymbolTableRecord
100
AcDbBlockTableRecord
  2
SW_CENTERMARKSYMBOL_6
340
0
102
{BLKREFS
331
431
102
}
  0
BLOCK_RECORD
  5
432
330
1
100
AcDbSymbolTableRecord
100
AcDbBlockTableRecord
  2
SW_CENTERMARKSYMBOL_7
340
0
102
{BLKREFS
331
445
102
}
  0
BLOCK_RECORD
  5
446
330
1
100
AcDbSymbolTableRecord
100
AcDbBlockTableRecord
  2
SW_CENTERMARKSYMBOL_8
340
0
102
{BLKREFS
331
459
102
}
  0
BLOCK_RECORD
  5
45A
330
1
100
AcDbSymbolTableRecord
100
AcDbBlockTableRecord
  2
SW_CENTERMARKSYMBOL_9
340
0
102
{BLKREFS
331
46D
102
}
  0
BLOCK_RECORD
  5
46E
330
1
100
AcDbSymbolTableRecord
100
AcDbBlockTableRecord
  2
SW_CENTERMARKSYMBOL_10
340
0
102
{BLKREFS
331
481
102
}
  0
BLOCK_RECORD
  5
482
330
1
100
AcDbSymbolTableRecord
100
AcDbBlockTableRecord
  2
SW_CENTERMARKSYMBOL_11
340
0
102
{BLKREFS
331
495
102
}
  0
BLOCK_RECORD
  5
496
330
1
100
AcDbSymbolTableRecord
100
AcDbBlockTableRecord
  2
SW_CENTERMARKSYMBOL_12
340
0
102
{BLKREFS
331
4A9
102
}
  0
BLOCK_RECORD
  5
4AA
330
1
100
AcDbSymbolTableRecord
100
AcDbBlockTableRecord
  2
SW_CENTERMARKSYMBOL_13
340
0
102
{BLKREFS
331
4BD
102
}
  0
BLOCK_RECORD
  5
4BE
330
1
100
AcDbSymbolTableRecord
100
AcDbBlockTableRecord
  2
SW_CENTERMARKSYMBOL_14
340
0
102
{BLKREFS
331
4D1
102
}
  0
BLOCK_RECORD
  5
4D2
330
1
100
AcDbSymbolTableRecord
100
AcDbBlockTableRecord
  2
SW_CENTERMARKSYMBOL_15
340
0
102
{BLKREFS
331
4E5
102
}
  0
BLOCK_RECORD
  5
4E6
330
1
100
AcDbSymbolTableRecord
100
AcDbBlockTableRecord
  2
SW_CENTERMARKSYMBOL_16
340
0
102
{BLKREFS
331
4F9
102
}
  0
BLOCK_RECORD
  5
4FA
330
1
100
AcDbSymbolTableRecord
100
AcDbBlockTableRecord
  2
SW_CENTERMARKSYMBOL_17
340
0
102
{BLKREFS
331
50D
102
}
  0
BLOCK_RECORD
  5
50E
330
1
100
AcDbSymbolTableRecord
100
AcDbBlockTableRecord
  2
SW_CENTERMARKSYMBOL_18
340
0
102
{BLKREFS
331
521
102
}
  0
BLOCK_RECORD
  5
522
330
1
100
AcDbSymbolTableRecord
100
AcDbBlockTableRecord
  2
SW_CENTERMARKSYMBOL_19
340
0
102
{BLKREFS
331
535
102
}
  0
BLOCK_RECORD
  5
536
330
1
100
AcDbSymbolTableRecord
100
AcDbBlockTableRecord
  2
SW_CENTERMARKSYMBOL_20
340
0
102
{BLKREFS
331
549
102
}
  0
BLOCK_RECORD
  5
54A
330
1
100
AcDbSymbolTableRecord
100
AcDbBlockTableRecord
  2
SW_CENTERMARKSYMBOL_21
340
0
102
{BLKREFS
331
55D
102
}
  0
BLOCK_RECORD
  5
55E
330
1
100
AcDbSymbolTableRecord
100
AcDbBlockTableRecord
  2
SW_CENTERMARKSYMBOL_22
340
0
102
{BLKREFS
331
571
102
}
  0
ENDTAB
  0
ENDSEC
  0
SECTION
  2
BLOCKS
  0
BLOCK
  5
20
330
1F
100
AcDbEntity
  8
0
100
AcDbBlockBegin
  2
*Model_Space
 70
     0
 10
0.0
 20
0.0
 30
0.0
  3
*Model_Space
  1

  0
ENDBLK
  5
21
330
1F
100
AcDbEntity
  8
0
100
AcDbBlockEnd
  0
BLOCK
  5
1C
330
1B
100
AcDbEntity
 67
     1
  8
0
100
AcDbBlockBegin
  2
*Paper_Space
 70
     0
 10
0.0
 20
0.0
 30
0.0
  3
*Paper_Space
  1

  0
ENDBLK
  5
1D
330
1B
100
AcDbEntity
 67
     1
  8
0
100
AcDbBlockEnd
  0
BLOCK
  5
24
330
23
100
AcDbEntity
  8
0
100
AcDbBlockBegin
  2
*Paper_Space0
 70
     0
 10
0.0
 20
0.0
 30
0.0
  3
*Paper_Space0
  1

  0
ENDBLK
  5
25
330
23
100
AcDbEntity
  8
0
100
AcDbBlockEnd
  0
BLOCK
  5
7C
330
7B
100
AcDbEntity
  8
0
100
AcDbBlockBegin
  2
ACO-Logo
 70
     0
 10
0.0
 20
0.0
 30
0.0
  3
ACO-Logo
  1

  0
ARC
  5
7E
330
7B
100
AcDbEntity
  8
0
  6
Continuous
 62
   179
370
    18
100
AcDbCircle
 10
80.3853261169
 20
4.9940995715
 30
0.0
 40
0.3000000000000441
100
AcDbArc
 50
181.9349323096
 51
274.6062978506
  0
ARC
  5
7F
330
7B
100
AcDbEntity
  8
0
  6
Continuous
 62
   179
370
    18
100
AcDbCircle
 10
81.2359083165
 20
2.1946665956
 30
0.0
 40
1.000000000000021
100
AcDbArc
 50
221.4087409628
 51
276.0561297228
  0
ARC
  5
80
330
7B
100
AcDbEntity
  8
0
  6
Continuous
 62
   179
370
    18
100
AcDbCircle
 10
79.1360017163
 20
3.654242048
 30
0.0
 40
0.300000000000004
100
AcDbArc
 50
181.2730300201
 51
274.4996077095
  0
ARC
  5
81
330
7B
100
AcDbEntity
  8
0
  6
Continuous
 62
   179
370
    18
100
AcDbCircle
 10
78.7699033484
 20
3.2873137407
 30
0.0
 40
0.4000000000000358
100
AcDbArc
 50
221.0090869016
 51
274.5606296317
  0
ARC
  5
82
330
7B
100
AcDbEntity
  8
0
  6
Continuous
 62
   179
370
    18
100
AcDbCircle
 10
91.2333953062
 20
4.6062442307
 30
0.0
 40
0.3000000000000493
100
AcDbArc
 50
274.4996077095
 51
3.7249371334
  0
ARC
  5
83
330
7B
100
AcDbEntity
  8
0
  6
Continuous
 62
   179
370
    18
100
AcDbCircle
 10
81.5287571045
 20
9.7648973508
 30
0.0
 40
1.00000000000002
100
AcDbArc
 50
93.1134387481
 51
181.9414863909
  0
ARC
  5
84
330
7B
100
AcDbEntity
  8
0
  6
Continuous
 62
   179
370
    18
100
AcDbCircle
 10
81.6051675115
 20
7.5107903456
 30
0.0
 40
1.0
100
AcDbArc
 50
181.9414863909
 51
274.398705355
  0
ARC
  5
85
330
7B
100
AcDbEntity
  8
0
  6
Continuous
 62
   179
370
    18
100
AcDbCircle
 10
80.1506905656
 20
11.9393118923
 30
0.0
 40
0.300000000000045
100
AcDbArc
 50
93.0418421566
 51
181.9349323096
  0
ARC
  5
86
330
7B
100
AcDbEntity
  8
0
  6
Continuous
 62
   179
370
    18
100
AcDbCircle
 10
78.1879722102
 20
12.3499352608
 30
0.0
 40
0.7999999999953393
100
AcDbArc
 50
92.6995697565
 51
148.2554209065
  0
ARC
  5
87
330
7B
100
AcDbEntity
  8
0
  6
Continuous
 62
   179
370
    18
100
AcDbCircle
 10
78.930862229
 20
12.8855189761
 30
0.0
 40
0.3000000000000031
100
AcDbArc
 50
92.6995697565
 51
181.2730300201
  0
ARC
  5
88
330
7B
100
AcDbEntity
  8
0
  6
Continuous
 62
   179
370
    18
100
AcDbCircle
 10
82.327743407
 20
9.8083568568
 30
0.0
 40
1.000000000000034
100
AcDbArc
 50
1.9414863909
 51
93.1134387481
  0
ARC
  5
89
330
7B
100
AcDbEntity
  8
0
  6
Continuous
 62
   179
370
    18
100
AcDbCircle
 10
81.5287571045
 20
9.7648973508
 30
0.0
 40
0.3625000000000009
100
AcDbArc
 50
93.1134387481
 51
181.9414863909
  0
ARC
  5
8A
330
7B
100
AcDbEntity
  8
0
  6
Continuous
 62
   179
370
    18
100
AcDbCircle
 10
82.327743407
 20
9.8083568568
 30
0.0
 40
0.3625000000000146
100
AcDbArc
 50
1.9414863909
 51
93.1134387481
  0
ARC
  5
8B
330
7B
100
AcDbEntity
  8
0
  6
Continuous
 62
   179
370
    18
100
AcDbCircle
 10
82.4035451983
 20
7.5722040138
 30
0.0
 40
1.000000000000008
100
AcDbArc
 50
274.398705355
 51
1.9414863909
  0
ARC
  5
8C
330
7B
100
AcDbEntity
  8
0
  6
Continuous
 62
   179
370
    18
100
AcDbCircle
 10
82.4035451983
 20
7.5722040138
 30
0.0
 40
0.3625000000000068
100
AcDbArc
 50
274.398705355
 51
1.9414863909
  0
ARC
  5
8D
330
7B
100
AcDbEntity
  8
0
  6
Continuous
 62
   179
370
    18
100
AcDbCircle
 10
81.6051675115
 20
7.5107903456
 30
0.0
 40
0.3625000000000111
100
AcDbArc
 50
181.9414863909
 51
274.398705355
  0
ARC
  5
8E
330
7B
100
AcDbEntity
  8
0
  6
Continuous
 62
   179
370
    18
100
AcDbCircle
 10
88.825822761
 20
8.0662148274
 30
0.0
 40
0.9999999999999997
100
AcDbArc
 50
274.398705355
 51
2.6541955134
  0
ARC
  5
8F
330
7B
100
AcDbEntity
  8
0
  6
Continuous
 62
   179
370
    18
100
AcDbCircle
 10
90.1578295581
 20
5.7814576687
 30
0.0
 40
0.3000000000000043
100
AcDbArc
 50
274.6062978507
 51
2.5147526475
  0
ARC
  5
90
330
7B
100
AcDbEntity
  8
0
  6
Continuous
 62
   179
370
    18
100
AcDbCircle
 10
88.825822761
 20
8.0662148274
 30
0.0
 40
0.3625000000000083
100
AcDbArc
 50
274.398705355
 51
2.6541955134
  0
ARC
  5
91
330
7B
100
AcDbEntity
  8
0
  6
Continuous
 62
   179
370
    18
100
AcDbCircle
 10
88.728529747
 20
10.16496413
 30
0.0
 40
1.000000000000001
100
AcDbArc
 50
2.6541955134
 51
93.1134387481
  0
ARC
  5
92
330
7B
100
AcDbEntity
  8
0
  6
Continuous
 62
   179
370
    18
100
AcDbCircle
 10
88.728529747
 20
10.16496413
 30
0.0
 40
0.3625000000000085
100
AcDbArc
 50
2.6541955134
 51
93.1134387481
  0
ARC
  5
93
330
7B
100
AcDbEntity
  8
0
  6
Continuous
 62
   179
370
    18
100
AcDbCircle
 10
89.8647121341
 20
12.455515937
 30
0.0
 40
0.2999999999999984
100
AcDbArc
 50
2.5147526475
 51
93.0418421566
  0
ARC
  5
94
330
7B
100
AcDbEntity
  8
0
  6
Continuous
 62
   179
370
    18
100
AcDbCircle
 10
90.6583795404
 20
13.4384863935
 30
0.0
 40
0.2999999999999911
100
AcDbArc
 50
3.7249371334
 51
92.6995697565
  0
CIRCLE
  5
95
330
7B
100
AcDbEntity
  8
0
  6
Continuous
 62
   179
370
    18
100
AcDbCircle
 10
15.7233972286
 20
6.4054930194
 30
0.0
 40
1.579500000000014
  0
CIRCLE
  5
96
330
7B
100
AcDbEntity
  8
0
  6
Continuous
 62
   179
370
    18
100
AcDbCircle
 10
15.7233972286
 20
6.4054930194
 30
0.0
 40
2.281499999999994
  0
ARC
  5
97
330
7B
100
AcDbEntity
  8
0
  6
Continuous
 62
   179
370
    18
100
AcDbCircle
 10
89.7681336026
 20
2.3106616691
 30
0.0
 40
0.098384530246548
100
AcDbArc
 50
332.3802627259
 51
4.9765441602
  0
ARC
  5
98
330
7B
100
AcDbEntity
  8
0
  6
Continuous
 62
   179
370
    18
100
AcDbCircle
 10
89.6886560089
 20
2.3522464185
 30
0.0
 40
0.1880839130754018
100
AcDbArc
 50
303.690067526
 51
332.3802627258
  0
ARC
  5
99
330
7B
100
AcDbEntity
  8
0
  6
Continuous
 62
   179
370
    18
100
AcDbCircle
 10
89.4849700869
 20
2.6577753016
 30
0.0
 40
0.5552839311631531
100
AcDbArc
 50
287.108652213
 51
303.690067526
  0
ARC
  5
9A
330
7B
100
AcDbEntity
  8
0
  6
Continuous
 62
   179
370
    18
100
AcDbCircle
 10
88.0513010646
 20
7.3154864882
 30
0.0
 40
5.428648309393203
100
AcDbArc
 50
285.2551187031
 51
287.108652213
  0
ARC
  5
9B
330
7B
100
AcDbEntity
  8
0
  6
Continuous
 62
   179
370
    18
100
AcDbCircle
 10
89.1317168954
 20
3.3539617753
 30
0.0
 40
1.322436378825653
100
AcDbArc
 50
281.4991866428
 51
285.255118703
  0
ARC
  5
9C
330
7B
100
AcDbEntity
  8
0
  6
Continuous
 62
   179
370
    18
100
AcDbCircle
 10
89.3198255509
 20
2.4293110075
 30
0.0
 40
0.3788454141584939
100
AcDbArc
 50
279.1917900003
 51
281.499186643
  0
ARC
  5
9D
330
7B
100
AcDbEntity
  8
0
  6
Continuous
 62
   179
370
    18
100
AcDbCircle
 10
89.0487250788
 20
4.1046569124
 30
0.0
 40
2.07598399629105
100
AcDbArc
 50
277.7634675038
 51
279.1917900002
  0
ARC
  5
9E
330
7B
100
AcDbEntity
  8
0
  6
Continuous
 62
   179
370
    18
100
AcDbCircle
 10
9.2588909915
 20
6.4054930194
 30
0.0
 40
1.579500000000074
100
AcDbArc
 50
31.0558004991
 51
330.0
  0
ARC
  5
9F
330
7B
100
AcDbEntity
  8
0
  6
Continuous
 62
   179
370
    18
100
AcDbCircle
 10
9.2588909915
 20
6.4054930194
 30
0.0
 40
2.281500000000107
100
AcDbArc
 50
30.7309172659
 51
330.0
  0
ARC
  5
A0
330
7B
100
AcDbEntity
  8
0
  6
Continuous
 62
   179
370
    18
100
AcDbCircle
 10
6.1288847544
 20
4.0685261312
 30
0.0
 40
4.914000000000307
100
AcDbArc
 50
172.3058370354
 51
179.7113029221
  0
ARC
  5
A1
330
7B
100
AcDbEntity
  8
0
  6
Continuous
 62
   179
370
    18
100
AcDbCircle
 10
-0.5401152456
 20
4.0685261312
 30
0.0
 40
4.91400000000019
100
AcDbArc
 50
0.2886970779
 51
7.6941629646
  0
ARC
  5
A2
330
7B
100
AcDbEntity
  8
0
  6
Continuous
 62
   179
370
    18
100
AcDbCircle
 10
-0.5401152456
 20
4.0685261312
 30
0.0
 40
5.616000000000127
100
AcDbArc
 50
0.2526096926
 51
53.5764263577
  0
ARC
  5
A3
330
7B
100
AcDbEntity
  8
0
  6
Continuous
 62
   179
370
    18
100
AcDbCircle
 10
6.1288847544
 20
4.0685261312
 30
0.0
 40
5.61600000000074
100
AcDbArc
 50
126.4235736423
 51
179.7473903073
  0
ARC
  5
A4
330
7B
100
AcDbEntity
  8
0
  6
Continuous
 62
   179
370
    18
100
AcDbCircle
 10
-0.5401152456
 20
4.0685261312
 30
0.0
 40
4.914000000000161
100
AcDbArc
 50
16.0658750272
 51
47.2678899574
  0
ARC
  5
A5
330
7B
100
AcDbEntity
  8
0
  6
Continuous
 62
   179
370
    18
100
AcDbCircle
 10
6.1288847544
 20
4.0685261312
 30
0.0
 40
4.914000000000584
100
AcDbArc
 50
132.7321100426
 51
163.9341249728
  0
LINE
  5
A6
330
7B
100
AcDbEntity
  8
0
  6
Continuous
 62
   179
370
    18
100
AcDbLine
 10
78.8017089389
 20
2.8885802402
 30
0.0
 11
90.7982178739
 21
3.8455002136
 31
0.0
  0
LINE
  5
A7
330
7B
100
AcDbEntity
  8
0
  6
Continuous
 62
   179
370
    18
100
AcDbLine
 10
76.6545490427
 20
5.8693097374
 30
0.0
 11
78.0344191726
 21
3.5235305166
 31
0.0
  0
LINE
  5
A8
330
7B
100
AcDbEntity
  8
0
  6
Continuous
 62
   179
370
    18
100
AcDbLine
 10
91.5327615373
 20
4.6257342197
 30
0.0
 11
90.9577457715
 21
13.4579763825
 31
0.0
  0
LINE
  5
A9
330
7B
100
AcDbEntity
  8
0
  6
Continuous
 62
   179
370
    18
100
AcDbLine
 10
78.6309362756
 20
12.8788539549
 30
0.0
 11
78.8360757629
 21
3.6475770268
 31
0.0
  0
LINE
  5
AA
330
7B
100
AcDbEntity
  8
0
  6
Continuous
 62
   179
370
    18
100
AcDbLine
 10
80.4094186633
 20
4.6950685544
 30
0.0
 11
90.1819221045
 21
5.4824266516
 31
0.0
  0
LINE
  5
AB
330
7B
100
AcDbEntity
  8
0
  6
Continuous
 62
   179
370
    18
100
AcDbLine
 10
79.1595373973
 20
3.3551666867
 30
0.0
 11
91.2569309872
 21
4.3071688694
 31
0.0
  0
LINE
  5
AC
330
7B
100
AcDbEntity
  8
0
  6
Continuous
 62
   179
370
    18
100
AcDbLine
 10
79.2585043218
 20
2.925017226
 30
0.0
 11
80.4858981444
 21
1.533240302
 31
0.0
  0
LINE
  5
AD
330
7B
100
AcDbEntity
  8
0
  6
Continuous
 62
   179
370
    18
100
AcDbLine
 10
78.0344191726
 20
3.5235305166
 30
0.0
 11
78.3638740472
 21
3.1446574108
 31
0.0
  0
LINE
  5
AE
330
7B
100
AcDbEntity
  8
0
  6
Continuous
 62
   179
370
    18
100
AcDbLine
 10
78.3638740472
 20
3.1446574108
 30
0.0
 11
78.4680611395
 21
3.0248422547
 31
0.0
  0
LINE
  5
AF
330
7B
100
AcDbEntity
  8
0
  6
Continuous
 62
   179
370
    18
100
AcDbLine
 10
81.3414110113
 20
1.2002475785
 30
0.0
 11
89.3291569519
 21
2.0477010263
 31
0.0
  0
LINE
  5
B0
330
7B
100
AcDbEntity
  8
0
  6
Continuous
 62
   179
370
    18
100
AcDbLine
 10
89.8661472522
 20
2.5197759309
 30
0.0
 11
89.8661472522
 21
2.3090867337
 31
0.0
  0
LINE
  5
B1
330
7B
100
AcDbEntity
  8
0
  6
Continuous
 62
   179
370
    18
100
AcDbLine
 10
88.676842368
 20
3.6762854359
 30
0.0
 11
89.6713239345
 21
2.7875997807
 31
0.0
  0
LINE
  5
B2
330
7B
100
AcDbEntity
  8
0
  6
Continuous
 62
   179
370
    18
100
AcDbLine
 10
89.6713239345
 20
2.7875997807
 30
0.0
 11
89.7459749087
 21
2.7242700694
 31
0.0
  0
LINE
  5
B3
330
7B
100
AcDbEntity
  8
0
  6
Continuous
 62
   179
370
    18
100
AcDbLine
 10
90.7982178739
 20
3.8455002136
 30
0.0
 11
91.3961615969
 21
4.3514525945
 31
0.0
  0
LINE
  5
B4
330
7B
100
AcDbEntity
  8
0
  6
Continuous
 62
   179
370
    18
100
AcDbLine
 10
90.6442498554
 20
13.7381534621
 30
0.0
 11
78.1502930503
 21
13.1490474438
 31
0.0
  0
LINE
  5
B5
330
7B
100
AcDbEntity
  8
0
  6
Continuous
 62
   179
370
    18
100
AcDbLine
 10
80.1347709981
 20
12.2388892068
 30
0.0
 11
89.8487925667
 21
12.7550932515
 31
0.0
  0
LINE
  5
B6
330
7B
100
AcDbEntity
  8
0
  6
Continuous
 62
   179
370
    18
100
AcDbLine
 10
76.4935641943
 20
11.7567556248
 30
0.0
 11
76.6545490427
 21
5.8693097374
 31
0.0
  0
LINE
  5
B7
330
7B
100
AcDbEntity
  8
0
  6
Continuous
 62
   179
370
    18
100
AcDbLine
 10
79.8508616208
 20
11.929182536
 30
0.0
 11
80.0854971721
 21
4.9839702153
 31
0.0
  0
LINE
  5
B8
330
7B
100
AcDbEntity
  8
0
  6
Continuous
 62
   179
370
    18
100
AcDbLine
 10
80.5293311574
 20
9.7310185051
 30
0.0
 11
80.6057415643
 21
7.4769115
 31
0.0
  0
LINE
  5
B9
330
7B
100
AcDbEntity
  8
0
  6
Continuous
 62
   179
370
    18
100
AcDbLine
 10
77.507650604
 20
12.7708420346
 30
0.0
 11
76.4935641943
 21
11.7567556248
 31
0.0
  0
LINE
  5
BA
330
7B
100
AcDbEntity
  8
0
  6
Continuous
 62
   179
370
    18
100
AcDbLine
 10
86.8848195129
 20
11.0661568594
 30
0.0
 11
88.6742167283
 21
11.1634880887
 31
0.0
  0
LINE
  5
BB
330
7B
100
AcDbEntity
  8
0
  6
Continuous
 62
   179
370
    18
100
AcDbLine
 10
87.0766213517
 20
6.9287171941
 30
0.0
 11
88.90708891
 21
7.0695223909
 31
0.0
  0
LINE
  5
BC
330
7B
100
AcDbEntity
  8
0
  6
Continuous
 62
   179
370
    18
100
AcDbLine
 10
87.6830038473
 20
7.6147347768
 30
0.0
 11
88.8536252418
 21
7.7047825764
 31
0.0
  0
LINE
  5
BD
330
7B
100
AcDbEntity
  8
0
  6
Continuous
 62
   179
370
    18
100
AcDbLine
 10
87.5509212094
 20
10.4639459651
 30
0.0
 11
88.7088412777
 21
10.5269290651
 31
0.0
  0
LINE
  5
BE
330
7B
100
AcDbEntity
  8
0
  6
Continuous
 62
   179
370
    18
100
AcDbLine
 10
87.0766218384
 20
6.9287066941
 30
0.0
 11
86.8848195129
 21
11.0661568594
 31
0.0
  0
LINE
  5
BF
330
7B
100
AcDbEntity
  8
0
  6
Continuous
 62
   179
370
    18
100
AcDbLine
 10
83.7004598825
 20
6.6667911093
 30
0.0
 11
84.5054929504
 21
10.9267193262
 31
0.0
  0
LINE
  5
C0
330
7B
100
AcDbEntity
  8
0
  6
Continuous
 62
   179
370
    18
100
AcDbLine
 10
85.3543248406
 20
10.9728900984
 30
0.0
 11
86.4940946704
 21
6.8816860929
 31
0.0
  0
LINE
  5
C1
330
7B
100
AcDbEntity
  8
0
  6
Continuous
 62
   179
370
    18
100
AcDbLine
 10
84.9728575427
 20
9.9667192298
 30
0.0
 11
85.4540299774
 21
8.2395506903
 31
0.0
  0
LINE
  5
C2
330
7B
100
AcDbEntity
  8
0
  6
Continuous
 62
   179
370
    18
100
AcDbLine
 10
84.6363094629
 20
8.1858350416
 30
0.0
 11
84.9728575427
 21
9.9667192298
 31
0.0
  0
LINE
  5
C3
330
7B
100
AcDbEntity
  8
0
  6
Continuous
 62
   179
370
    18
100
AcDbLine
 10
87.6830038473
 20
7.6147347768
 30
0.0
 11
87.5509212094
 21
10.4639459651
 31
0.0
  0
LINE
  5
C4
330
7B
100
AcDbEntity
  8
0
  6
Continuous
 62
   179
370
    18
100
AcDbLine
 10
84.6363094629
 20
8.1858350416
 30
0.0
 11
85.4540299774
 21
8.2395506903
 31
0.0
  0
LINE
  5
C5
330
7B
100
AcDbEntity
  8
0
  6
Continuous
 62
   179
370
    18
100
AcDbLine
 10
84.5140586807
 20
7.5389304886
 30
0.0
 11
85.6288154243
 21
7.6121582976
 31
0.0
  0
LINE
  5
C6
330
7B
100
AcDbEntity
  8
0
  6
Continuous
 62
   179
370
    18
100
AcDbLine
 10
84.3588137958
 20
6.717433718
 30
0.0
 11
84.5140586807
 21
7.5389304886
 31
0.0
  0
LINE
  5
C7
330
7B
100
AcDbEntity
  8
0
  6
Continuous
 62
   179
370
    18
100
AcDbLine
 10
81.6818640104
 20
6.5137358601
 30
0.0
 11
82.4802416972
 21
6.5751495283
 31
0.0
  0
LINE
  5
C8
330
7B
100
AcDbEntity
  8
0
  6
Continuous
 62
   179
370
    18
100
AcDbLine
 10
81.6329699923
 20
7.1493580946
 30
0.0
 11
82.4313476791
 21
7.2107717628
 31
0.0
  0
LINE
  5
C9
330
7B
100
AcDbEntity
  8
0
  6
Continuous
 62
   179
370
    18
100
AcDbLine
 10
83.7004598825
 20
6.6667911093
 30
0.0
 11
84.3588137958
 21
6.717433718
 31
0.0
  0
LINE
  5
CA
330
7B
100
AcDbEntity
  8
0
  6
Continuous
 62
   179
370
    18
100
AcDbLine
 10
82.7059483815
 20
9.3512024135
 30
0.0
 11
83.3423973297
 21
9.3930104243
 31
0.0
  0
LINE
  5
CB
330
7B
100
AcDbEntity
  8
0
  6
Continuous
 62
   179
370
    18
100
AcDbLine
 10
82.7491656358
 20
8.0762934118
 30
0.0
 11
83.385614584
 21
8.1181014226
 31
0.0
  0
LINE
  5
CC
330
7B
100
AcDbEntity
  8
0
  6
Continuous
 62
   179
370
    18
100
AcDbLine
 10
81.1664651987
 20
9.7526162692
 30
0.0
 11
81.2428756056
 21
7.4985092641
 31
0.0
  0
LINE
  5
CD
330
7B
100
AcDbEntity
  8
0
  6
Continuous
 62
   179
370
    18
100
AcDbLine
 10
82.6900353128
 20
9.8206379383
 30
0.0
 11
82.7052632884
 21
9.3714126602
 31
0.0
  0
LINE
  5
CE
330
7B
100
AcDbEntity
  8
0
  6
Continuous
 62
   179
370
    18
100
AcDbLine
 10
82.7491656358
 20
8.0762934118
 30
0.0
 11
82.7658371041
 21
7.5844850954
 31
0.0
  0
LINE
  5
CF
330
7B
100
AcDbEntity
  8
0
  6
Continuous
 62
   179
370
    18
100
AcDbLine
 10
83.3271693541
 20
9.8422357024
 30
0.0
 11
83.3423973297
 21
9.3930104243
 31
0.0
  0
LINE
  5
D0
330
7B
100
AcDbEntity
  8
0
  6
Continuous
 62
   179
370
    18
100
AcDbLine
 10
83.385614584
 20
8.1181014226
 30
0.0
 11
83.4029711454
 21
7.6060828595
 31
0.0
  0
LINE
  5
D1
330
7B
100
AcDbEntity
  8
0
  6
Continuous
 62
   179
370
    18
100
AcDbLine
 10
85.6288154243
 20
7.6121582976
 30
0.0
 11
85.8462022593
 21
6.8318482152
 31
0.0
  0
LINE
  5
D2
330
7B
100
AcDbEntity
  8
0
  6
Continuous
 62
   179
370
    18
100
AcDbLine
 10
85.8462022593
 20
6.8318482152
 30
0.0
 11
86.4940946704
 21
6.8816860929
 31
0.0
  0
LINE
  5
D3
330
7B
100
AcDbEntity
  8
0
  6
Continuous
 62
   179
370
    18
100
AcDbLine
 10
84.5054929504
 20
10.9267193262
 30
0.0
 11
85.3543248406
 21
10.9728900984
 31
0.0
  0
LINE
  5
D4
330
7B
100
AcDbEntity
  8
0
  6
Continuous
 62
   179
370
    18
100
AcDbLine
 10
81.4744440858
 20
10.7634213094
 30
0.0
 11
82.2734303883
 21
10.8068808154
 31
0.0
  0
LINE
  5
D5
330
7B
100
AcDbEntity
  8
0
  6
Continuous
 62
   179
370
    18
100
AcDbLine
 10
81.5090686352
 20
10.1268622858
 30
0.0
 11
82.3080549377
 21
10.1703217918
 31
0.0
  0
LINE
  5
D6
330
7B
100
AcDbEntity
  8
0
  6
Continuous
 62
   179
370
    18
100
AcDbLine
 10
90.4575406452
 20
5.7946206556
 30
0.0
 11
90.1644232213
 21
12.4686789239
 31
0.0
  0
LINE
  5
D7
330
7B
100
AcDbEntity
  8
0
  6
Continuous
 62
   179
370
    18
100
AcDbLine
 10
89.8247499755
 20
8.1125227115
 30
0.0
 11
89.7274569615
 21
10.2112720142
 31
0.0
  0
LINE
  5
D8
330
7B
100
AcDbEntity
  8
0
  6
Continuous
 62
   179
370
    18
100
AcDbLine
 10
89.1879338763
 20
8.0830014354
 30
0.0
 11
89.0906408622
 21
10.181750738
 31
0.0
  0
LINE
  5
D9
330
7B
100
AcDbEntity
  8
0
  6
Continuous
 62
   179
370
    18
100
AcDbLine
 10
89.7459749087
 20
2.7242700694
 30
0.0
 11
89.7974962577
 21
2.6659765769
 31
0.0
  0
LINE
  5
DA
330
7B
100
AcDbEntity
  8
0
  6
Continuous
 62
   179
370
    18
100
AcDbLine
 10
89.7974962577
 20
2.6659765769
 30
0.0
 11
89.8351851379
 21
2.60192886
 31
0.0
  0
LINE
  5
DB
330
7B
100
AcDbEntity
  8
0
  6
Continuous
 62
   179
370
    18
100
AcDbLine
 10
89.8351851379
 20
2.60192886
 30
0.0
 11
89.8661472522
 21
2.5197759309
 31
0.0
  0
LINE
  5
DC
330
7B
100
AcDbEntity
  8
0
  6
Continuous
 62
   179
370
    18
100
AcDbLine
 10
10.6119938288
 20
7.2203138351
 30
0.0
 11
11.2200151261
 21
7.5713550947
 31
0.0
  0
LINE
  5
DD
330
7B
100
AcDbEntity
  8
0
  6
Continuous
 62
   179
370
    18
100
AcDbLine
 10
11.2347279503
 20
5.2647430194
 30
0.0
 11
10.6267781168
 21
5.6157430194
 31
0.0
  0
LINE
  5
DE
330
7B
100
AcDbEntity
  8
0
  6
Continuous
 62
   179
370
    18
100
AcDbLine
 10
6.4645062371
 20
16.1712617198
 30
0.0
 11
6.4645062371
 21
2.9364593988
 31
0.0
  0
LINE
  5
DF
330
7B
100
AcDbEntity
  8
0
  6
Continuous
 62
   179
370
    18
100
AcDbLine
 10
6.4645062371
 20
2.9364593988
 30
0.0
 11
12.0532757459
 21
2.9364593988
 31
0.0
  0
LINE
  5
E0
330
7B
100
AcDbEntity
  8
0
  6
Continuous
 62
   179
370
    18
100
AcDbLine
 10
12.0532757459
 20
2.9364593988
 30
0.0
 11
12.0532757459
 21
16.1712617198
 31
0.0
  0
LINE
  5
E1
330
7B
100
AcDbEntity
  8
0
  6
Continuous
 62
   179
370
    18
100
AcDbLine
 10
12.0532757459
 20
16.1712617198
 30
0.0
 11
6.4645062371
 21
16.1712617198
 31
0.0
  0
LINE
  5
E2
330
7B
100
AcDbEntity
  8
0
  6
Continuous
 62
   179
370
    18
100
AcDbLine
 10
0.0
 20
16.1712617198
 30
0.0
 11
0.0
 21
2.9364593988
 31
0.0
  0
LINE
  5
E3
330
7B
100
AcDbEntity
  8
0
  6
Continuous
 62
   179
370
    18
100
AcDbLine
 10
0.0
 20
2.9364593988
 30
0.0
 11
5.5887695089
 21
2.9364593988
 31
0.0
  0
LINE
  5
E4
330
7B
100
AcDbEntity
  8
0
  6
Continuous
 62
   179
370
    18
100
AcDbLine
 10
5.5887695089
 20
2.9364593988
 30
0.0
 11
5.5887695089
 21
16.1712617198
 31
0.0
  0
LINE
  5
E5
330
7B
100
AcDbEntity
  8
0
  6
Continuous
 62
   179
370
    18
100
AcDbLine
 10
5.5887695089
 20
16.1712617198
 30
0.0
 11
0.0
 21
16.1712617198
 31
0.0
  0
LINE
  5
E6
330
7B
100
AcDbEntity
  8
0
  6
Continuous
 62
   179
370
    18
100
AcDbLine
 10
1.2591262606
 20
4.7264381407
 30
0.0
 11
4.3296432482
 21
4.7264381407
 31
0.0
  0
LINE
  5
E7
330
7B
100
AcDbEntity
  8
0
  6
Continuous
 62
   179
370
    18
100
AcDbLine
 10
4.3738223747
 20
4.0932862697
 30
0.0
 11
5.0758301722
 21
4.0932862697
 31
0.0
  0
LINE
  5
E8
330
7B
100
AcDbEntity
  8
0
  6
Continuous
 62
   179
370
    18
100
AcDbLine
 10
0.5129393366
 20
4.0932862697
 30
0.0
 11
1.2149471342
 21
4.0932862697
 31
0.0
  0
LINE
  5
E9
330
7B
100
AcDbEntity
  8
0
  6
Continuous
 62
   179
370
    18
100
AcDbLine
 10
4.1819643097
 20
5.4284381407
 30
0.0
 11
1.4068051992
 21
5.4284381407
 31
0.0
  0
LINE
  5
EA
330
7B
100
AcDbEntity
  8
0
  6
Continuous
 62
   179
370
    18
100
AcDbLine
 10
18.517781983
 20
16.1712617198
 30
0.0
 11
18.517781983
 21
2.9364593988
 31
0.0
  0
LINE
  5
EB
330
7B
100
AcDbEntity
  8
0
  6
Continuous
 62
   179
370
    18
100
AcDbLine
 10
18.517781983
 20
2.9364593988
 30
0.0
 11
12.9290124742
 21
2.9364593988
 31
0.0
  0
LINE
  5
EC
330
7B
100
AcDbEntity
  8
0
  6
Continuous
 62
   179
370
    18
100
AcDbLine
 10
12.9290124742
 20
2.9364593988
 30
0.0
 11
12.9290124742
 21
16.1712617198
 31
0.0
  0
LINE
  5
ED
330
7B
100
AcDbEntity
  8
0
  6
Continuous
 62
   179
370
    18
100
AcDbLine
 10
12.9290124742
 20
16.1712617198
 30
0.0
 11
18.517781983
 21
16.1712617198
 31
0.0
  0
MTEXT
  5
EF
330
7B
100
AcDbEntity
  8
0
  6
Continuous
 62
     7
370
     0
100
AcDbMText
 10
9.3686441161
 20
2.2554789353
 30
0.0
 40
2.0
 41
0.0
 71
     2
 72
     1
  1
www.aco.ch
  7
SLDTEXTSTYLE0
 73
     1
 44
1.0
  0
MTEXT
  5
F0
330
7B
100
AcDbEntity
  8
0
  6
Continuous
 62
     7
370
     0
100
AcDbMText
 10
46.980584205
 20
16.6131199634
 30
0.0
 40
3.0
 41
0.0
 71
     2
 72
     1
  1
ACO Passavant AG
  7
SLDTEXTSTYLE0
 73
     1
 44
1.0
  0
INSERT
  5
F9
330
7B
100
AcDbEntity
  8
0
  6
Continuous
 62
     7
370
     0
100
AcDbBlockReference
  2
SW_NOTE_0
 10
28.8863479825
 20
8.6365742194
 30
0.0
  0
ENDBLK
  5
7D
330
7B
100
AcDbEntity
  8
0
100
AcDbBlockEnd
  0
BLOCK
  5
F2
330
F1
100
AcDbEntity
  8
0
100
AcDbBlockBegin
  2
SW_NOTE_0
 70
     0
 10
0.0
 20
0.0
 30
0.0
  3
SW_NOTE_0
  1

  0
MTEXT
  5
F4
330
F1
100
AcDbEntity
  8
0
  6
Continuous
 62
     0
370
     0
100
AcDbMText
 10
0.0
 20
2.5781354795
 30
0.0
 40
2.0
 41
0.0
 71
     1
 72
     1
  1
Industrie Kleinzaun
  7
SLDTEXTSTYLE0
 73
     1
 44
1.0
  0
MTEXT
  5
F5
330
F1
100
AcDbEntity
  8
0
  6
Continuous
 62
     0
370
     0
100
AcDbMText
 10
0.0
 20
-0.4218645465
 30
0.0
 40
2.0
 41
0.0
 71
     1
 72
     1
  1
CH-8754 Netstal
  7
SLDTEXTSTYLE0
 73
     1
 44
1.0
  0
MTEXT
  5
F7
330
F1
100
AcDbEntity
  8
0
  6
Continuous
 62
     0
370
     0
100
AcDbMText
 10
0.0
 20
-3.4218645726
 30
0.0
 40
2.0
 41
0.0
 71
     1
 72
     1
  1
Tel. 055 / 645 53 00  -  Fax 055 / 645 53 10
  7
SLDTEXTSTYLE1
 73
     1
 44
1.0
  0
MTEXT
  5
F8
330
F1
100
AcDbEntity
  8
0
  6
Continuous
 62
     0
370
     0
100
AcDbMText
 10
0.0
 20
-6.4218645987
 30
0.0
 40
2.0
 41
0.0
 71
     1
 72
     1
  1
E-Mail: aco@aco.ch
  7
SLDTEXTSTYLE0
 73
     1
 44
1.0
  0
ENDBLK
  5
F3
330
F1
100
AcDbEntity
  8
0
100
AcDbBlockEnd
  0
BLOCK
  5
174
330
173
100
AcDbEntity
  8
0
100
AcDbBlockBegin
  2
SW_NOTE_1
 70
     0
 10
0.0
 20
0.0
 30
0.0
  3
SW_NOTE_1
  1

  0
MTEXT
  5
176
330
173
100
AcDbEntity
  8
0
  6
Continuous
 62
     0
370
     0
100
AcDbMText
 10
0.0
 20
1.9336016097
 30
0.0
 40
1.5
 41
0.0
 71
     1
 72
     1
  1
Diese Zeichnung darf weder kopiert
  7
SLDTEXTSTYLE0
 73
     1
 44
1.0
  0
MTEXT
  5
177
330
173
100
AcDbEntity
  8
0
  6
Continuous
 62
     0
370
     0
100
AcDbMText
 10
0.0
 20
-0.5663983345
 30
0.0
 40
1.5
 41
0.0
 71
     1
 72
     1
  1
noch dritten Personen, insbesondere
  7
SLDTEXTSTYLE0
 73
     1
 44
1.0
  0
MTEXT
  5
178
330
173
100
AcDbEntity
  8
0
  6
Continuous
 62
     0
370
     0
100
AcDbMText
 10
0.0
 20
-3.0663982786
 30
0.0
 40
1.5
 41
0.0
 71
     1
 72
     1
  1
zum Zweck anderweitiger Benutzung
  7
SLDTEXTSTYLE0
 73
     1
 44
1.0
  0
MTEXT
  5
179
330
173
100
AcDbEntity
  8
0
  6
Continuous
 62
     0
370
     0
100
AcDbMText
 10
0.0
 20
-5.5663982227
 30
0.0
 40
1.5
 41
0.0
 71
     1
 72
     1
  1
mitgeteilt werden und bleibt unser
  7
SLDTEXTSTYLE0
 73
     1
 44
1.0
  0
MTEXT
  5
17A
330
173
100
AcDbEntity
  8
0
  6
Continuous
 62
     0
370
     0
100
AcDbMText
 10
0.0
 20
-8.0663981668
 30
0.0
 40
1.5
 41
0.0
 71
     1
 72
     1
  1
Eigentum.
  7
SLDTEXTSTYLE0
 73
     1
 44
1.0
  0
ENDBLK
  5
175
330
173
100
AcDbEntity
  8
0
100
AcDbBlockEnd
  0
BLOCK
  5
212
330
211
100
AcDbEntity
  8
0
100
AcDbBlockBegin
  2
_D
 70
     0
 10
0.0
 20
0.0
 30
0.0
  3
_D
  1

  0
SOLID
  5
214
330
211
100
AcDbEntity
  8
0
  6
Continuous
 62
     7
370
    18
100
AcDbTrace
 10
70.2240131579
 20
160.2990789474
 30
0.0
 11
73.7240131579
 21
159.7606174089
 31
0.0
 12
73.7240131579
 22
160.8375404858
 32
0.0
 13
73.7240131579
 23
160.8375404858
 33
0.0
  0
SOLID
  5
215
330
211
100
AcDbEntity
  8
0
  6
Continuous
 62
     7
370
    18
100
AcDbTrace
 10
158.2240131579
 20
160.2990789474
 30
0.0
 11
154.7240131579
 21
160.8375404858
 31
0.0
 12
154.7240131579
 22
159.7606174089
 32
0.0
 13
154.7240131579
 23
159.7606174089
 33
0.0
  0
LINE
  5
216
330
211
100
AcDbEntity
  8
0
  6
Continuous
 62
     7
370
    18
100
AcDbLine
 10
70.2240131579
 20
180.1990789474
 30
0.0
 11
70.2240131579
 21
159.2990789474
 31
0.0
  0
LINE
  5
217
330
211
100
AcDbEntity
  8
0
  6
Continuous
 62
     7
370
    18
100
AcDbLine
 10
158.2240131579
 20
180.1990789474
 30
0.0
 11
158.2240131579
 21
159.2990789474
 31
0.0
  0
LINE
  5
218
330
211
100
AcDbEntity
  8
0
  6
Continuous
 62
     7
370
    18
100
AcDbLine
 10
70.2240131579
 20
160.2990789474
 30
0.0
 11
158.2240131579
 21
160.2990789474
 31
0.0
  0
MTEXT
  5
219
330
211
100
AcDbEntity
  8
0
  6
Continuous
 62
     7
370
    18
100
AcDbMText
 10
108.9989265732
 20
164.8108160366
 30
0.0
 40
3.5
 41
0.0
 71
     1
 72
     1
  1
%%c
  7
SLDTEXTSTYLE0
 73
     1
 44
1.0
  0
MTEXT
  5
21A
330
211
100
AcDbEntity
  8
0
  6
Continuous
 62
     7
370
    18
100
AcDbMText
 10
114.1018781185
 20
164.8205383458
 30
0.0
 40
3.5
 41
0.0
 71
     1
 72
     1
  1
88
  7
SLDTEXTSTYLE0
 73
     1
 44
1.0
  0
ENDBLK
  5
213
330
211
100
AcDbEntity
  8
0
100
AcDbBlockEnd
  0
BLOCK
  5
21D
330
21C
100
AcDbEntity
  8
0
100
AcDbBlockBegin
  2
_D_1
 70
     0
 10
0.0
 20
0.0
 30
0.0
  3
_D_1
  1

  0
SOLID
  5
21F
330
21C
100
AcDbEntity
  8
0
  6
Continuous
 62
     7
370
    18
100
AcDbTrace
 10
64.2240131579
 20
274.3466448229
 30
0.0
 11
67.7240131579
 21
273.8081832844
 31
0.0
 12
67.7240131579
 22
274.8851063614
 32
0.0
 13
67.7240131579
 23
274.8851063614
 33
0.0
  0
SOLID
  5
220
330
21C
100
AcDbEntity
  8
0
  6
Continuous
 62
     7
370
    18
100
AcDbTrace
 10
164.2240131579
 20
274.3466448229
 30
0.0
 11
160.7240131579
 21
274.8851063614
 31
0.0
 12
160.7240131579
 22
273.8081832844
 32
0.0
 13
160.7240131579
 23
273.8081832844
 33
0.0
  0
LINE
  5
221
330
21C
100
AcDbEntity
  8
0
  6
Continuous
 62
     7
370
    18
100
AcDbLine
 10
64.2240131579
 20
263.3990789474
 30
0.0
 11
64.2240131579
 21
275.3466448229
 31
0.0
  0
LINE
  5
222
330
21C
100
AcDbEntity
  8
0
  6
Continuous
 62
     7
370
    18
100
AcDbLine
 10
164.2240131579
 20
263.3990789474
 30
0.0
 11
164.2240131579
 21
275.3466448229
 31
0.0
  0
LINE
  5
223
330
21C
100
AcDbEntity
  8
0
  6
Continuous
 62
     7
370
    18
100
AcDbLine
 10
64.2240131579
 20
274.3466448229
 30
0.0
 11
164.2240131579
 21
274.3466448229
 31
0.0
  0
MTEXT
  5
224
330
21C
100
AcDbEntity
  8
0
  6
Continuous
 62
     7
370
    18
100
AcDbMText
 10
110.2135965906
 20
278.8583821449
 30
0.0
 40
3.5
 41
0.0
 71
     1
 72
     1
  1
100
  7
SLDTEXTSTYLE0
 73
     1
 44
1.0
  0
ENDBLK
  5
21E
330
21C
100
AcDbEntity
  8
0
100
AcDbBlockEnd
  0
BLOCK
  5
228
330
227
100
AcDbEntity
  8
0
100
AcDbBlockBegin
  2
_D_2
 70
     0
 10
0.0
 20
0.0
 30
0.0
  3
_D_2
  1

  0
SOLID
  5
22A
330
227
100
AcDbEntity
  8
0
  6
Continuous
 62
     7
370
    18
100
AcDbTrace
 10
66.223606585
 20
266.4387654336
 30
0.0
 11
69.723606585
 21
265.9003038951
 31
0.0
 12
69.723606585
 22
266.977226972
 32
0.0
 13
69.723606585
 23
266.977226972
 33
0.0
  0
SOLID
  5
22B
330
227
100
AcDbEntity
  8
0
  6
Continuous
 62
     7
370
    18
100
AcDbTrace
 10
64.2240131579
 20
266.4387654336
 30
0.0
 11
60.7240131579
 21
266.977226972
 31
0.0
 12
60.7240131579
 22
265.9003038951
 32
0.0
 13
60.7240131579
 23
265.9003038951
 33
0.0
  0
LINE
  5
22C
330
227
100
AcDbEntity
  8
0
  6
Continuous
 62
     7
370
    18
100
AcDbLine
 10
66.223606585
 20
263.3990789474
 30
0.0
 11
66.223606585
 21
267.4387654336
 31
0.0
  0
LINE
  5
22D
330
227
100
AcDbEntity
  8
0
  6
Continuous
 62
     7
370
    18
100
AcDbLine
 10
64.2240131579
 20
263.3990789474
 30
0.0
 11
64.2240131579
 21
267.4387654336
 31
0.0
  0
LINE
  5
22E
330
227
100
AcDbEntity
  8
0
  6
Continuous
 62
     7
370
    18
100
AcDbLine
 10
66.223606585
 20
266.4387654336
 30
0.0
 11
72.9543758157
 21
266.4387654336
 31
0.0
  0
LINE
  5
22F
330
227
100
AcDbEntity
  8
0
  6
Continuous
 62
     7
370
    18
100
AcDbLine
 10
66.223606585
 20
266.4387654336
 30
0.0
 11
64.2240131579
 21
266.4387654336
 31
0.0
  0
LINE
  5
230
330
227
100
AcDbEntity
  8
0
  6
Continuous
 62
     7
370
    18
100
AcDbLine
 10
64.2240131579
 20
266.4387654336
 30
0.0
 11
55.9013023737
 21
266.4387654336
 31
0.0
  0
MTEXT
  5
231
330
227
100
AcDbEntity
  8
0
  6
Continuous
 62
     7
370
    18
100
AcDbMText
 10
55.9013023737
 20
270.9505027556
 30
0.0
 40
3.5
 41
0.0
 71
     1
 72
     1
  1
2
  7
SLDTEXTSTYLE0
 73
     1
 44
1.0
  0
ENDBLK
  5
229
330
227
100
AcDbEntity
  8
0
100
AcDbBlockEnd
  0
BLOCK
  5
234
330
233
100
AcDbEntity
  8
0
100
AcDbBlockBegin
  2
_D_3
 70
     0
 10
0.0
 20
0.0
 30
0.0
  3
_D_3
  1

  0
SOLID
  5
236
330
233
100
AcDbEntity
  8
0
  6
Continuous
 62
     7
370
    18
100
AcDbTrace
 10
184.2260460226
 20
263.2990789474
 30
0.0
 11
183.6875844841
 21
259.7990789474
 31
0.0
 12
184.7645075611
 22
259.7990789474
 32
0.0
 13
184.7645075611
 23
259.7990789474
 33
0.0
  0
SOLID
  5
237
330
233
100
AcDbEntity
  8
0
  6
Continuous
 62
     7
370
    18
100
AcDbTrace
 10
184.2260460226
 20
180.2990789474
 30
0.0
 11
184.7645075611
 21
183.7990789474
 31
0.0
 12
183.6875844841
 22
183.7990789474
 32
0.0
 13
183.6875844841
 23
183.7990789474
 33
0.0
  0
LINE
  5
238
330
233
100
AcDbEntity
  8
0
  6
Continuous
 62
     7
370
    18
100
AcDbLine
 10
164.3240131579
 20
263.2990789474
 30
0.0
 11
185.2260460226
 21
263.2990789474
 31
0.0
  0
LINE
  5
239
330
233
100
AcDbEntity
  8
0
  6
Continuous
 62
     7
370
    18
100
AcDbLine
 10
158.3240131579
 20
180.2990789474
 30
0.0
 11
185.2260460226
 21
180.2990789474
 31
0.0
  0
LINE
  5
23A
330
233
100
AcDbEntity
  8
0
  6
Continuous
 62
     7
370
    18
100
AcDbLine
 10
184.2260460226
 20
263.2990789474
 30
0.0
 11
184.2260460226
 21
180.2990789474
 31
0.0
  0
MTEXT
  5
23B
330
233
100
AcDbEntity
  8
0
  6
Continuous
 62
     7
370
    18
100
AcDbMText
 10
179.7143087006
 20
219.1254679025
 30
0.0
 40
3.5
 41
0.0
 71
     1
 72
     1
  1
83
  7
SLDTEXTSTYLE0
 11
-7.044195017643634E-15
 21
1.0
 31
0.0
 73
     1
 44
1.0
  0
ENDBLK
  5
235
330
233
100
AcDbEntity
  8
0
100
AcDbBlockEnd
  0
BLOCK
  5
25A
330
259
100
AcDbEntity
  8
0
100
AcDbBlockBegin
  2
_D_4
 70
     0
 10
0.0
 20
0.0
 30
0.0
  3
_D_4
  1

  0
SOLID
  5
25C
330
259
100
AcDbEntity
  8
0
  6
Continuous
 62
     7
370
    18
100
AcDbTrace
 10
44.2219802932
 20
28.6881606854
 30
0.0
 11
44.7604418317
 21
32.1881606854
 31
0.0
 12
43.6835187547
 22
32.1881606854
 32
0.0
 13
43.6835187547
 23
32.1881606854
 33
0.0
  0
SOLID
  5
25D
330
259
100
AcDbEntity
  8
0
  6
Continuous
 62
     7
370
    18
100
AcDbTrace
 10
44.2219802932
 20
128.6881606854
 30
0.0
 11
43.6835187547
 21
125.1881606854
 31
0.0
 12
44.7604418317
 22
125.1881606854
 32
0.0
 13
44.7604418317
 23
125.1881606854
 33
0.0
  0
LINE
  5
25E
330
259
100
AcDbEntity
  8
0
  6
Continuous
 62
     7
370
    18
100
AcDbLine
 10
64.1219802932
 20
28.6881606854
 30
0.0
 11
43.2219802932
 21
28.6881606854
 31
0.0
  0
LINE
  5
25F
330
259
100
AcDbEntity
  8
0
  6
Continuous
 62
     7
370
    18
100
AcDbLine
 10
64.1219802932
 20
128.6881606854
 30
0.0
 11
43.2219802932
 21
128.6881606854
 31
0.0
  0
LINE
  5
260
330
259
100
AcDbEntity
  8
0
  6
Continuous
 62
     7
370
    18
100
AcDbLine
 10
44.2219802932
 20
28.6881606854
 30
0.0
 11
44.2219802932
 21
128.6881606854
 31
0.0
  0
MTEXT
  5
261
330
259
100
AcDbEntity
  8
0
  6
Continuous
 62
     7
370
    18
100
AcDbMText
 10
39.7102429712
 20
74.677744118
 30
0.0
 40
3.5
 41
0.0
 71
     1
 72
     1
  1
100
  7
SLDTEXTSTYLE0
 11
6.123233995736766E-17
 21
1.0
 31
0.0
 73
     1
 44
1.0
  0
ENDBLK
  5
25B
330
259
100
AcDbEntity
  8
0
100
AcDbBlockEnd
  0
BLOCK
  5
265
330
264
100
AcDbEntity
  8
0
100
AcDbBlockBegin
  2
_D_5
 70
     0
 10
0.0
 20
0.0
 30
0.0
  3
_D_5
  1

  0
SOLID
  5
267
330
264
100
AcDbEntity
  8
0
  6
Continuous
 62
     7
370
    18
100
AcDbTrace
 10
141.8060477287
 20
47.0143328628
 30
0.0
 11
139.9135828526
 21
50.0074111312
 31
0.0
 12
139.1014420956
 22
49.3001695144
 32
0.0
 13
139.1014420956
 23
49.3001695144
 33
0.0
  0
LINE
  5
268
330
264
100
AcDbEntity
  8
0
  6
Continuous
 62
     7
370
    18
100
AcDbLine
 10
141.8060477287
 20
47.0143328628
 30
0.0
 11
59.3085076374
 21
141.7480321569
 31
0.0
  0
MTEXT
  5
269
330
264
100
AcDbEntity
  8
0
  6
Continuous
 62
     7
370
    18
100
AcDbMText
 10
62.7109836164
 20
144.7109582233
 30
0.0
 40
3.5
 41
0.0
 71
     1
 72
     1
  1
R42
  7
SLDTEXTSTYLE0
 11
0.6567151088289471
 21
-0.7541387576804313
 31
0.0
 73
     1
 44
1.0
  0
ENDBLK
  5
266
330
264
100
AcDbEntity
  8
0
100
AcDbBlockEnd
  0
BLOCK
  5
37C
330
37B
100
AcDbEntity
  8
0
100
AcDbBlockBegin
  2
_D_6
 70
     0
 10
0.0
 20
0.0
 30
0.0
  3
_D_6
  1

  0
SOLID
  5
37E
330
37B
100
AcDbEntity
  8
0
  6
Continuous
 62
     7
370
    18
100
AcDbTrace
 10
233.5838673651
 20
247.9059888715
 30
0.0
 11
237.0838673651
 21
247.367527333
 31
0.0
 12
237.0838673651
 22
248.4444504099
 32
0.0
 13
237.0838673651
 23
248.4444504099
 33
0.0
  0
SOLID
  5
37F
330
37B
100
AcDbEntity
  8
0
  6
Continuous
 62
     7
370
    18
100
AcDbTrace
 10
371.7639441122
 20
247.9059888715
 30
0.0
 11
368.2639441122
 21
248.4444504099
 31
0.0
 12
368.2639441122
 22
247.367527333
 32
0.0
 13
368.2639441122
 23
247.367527333
 33
0.0
  0
LINE
  5
380
330
37B
100
AcDbEntity
  8
0
  6
Continuous
 62
     7
370
    18
100
AcDbLine
 10
233.5838673651
 20
240.1490789474
 30
0.0
 11
233.5838673651
 21
248.9059888715
 31
0.0
  0
LINE
  5
381
330
37B
100
AcDbEntity
  8
0
  6
Continuous
 62
     7
370
    18
100
AcDbLine
 10
371.7639441122
 20
240.1490789474
 30
0.0
 11
371.7639441122
 21
248.9059888715
 31
0.0
  0
LINE
  5
382
330
37B
100
AcDbEntity
  8
0
  6
Continuous
 62
     7
370
    18
100
AcDbLine
 10
233.5838673651
 20
247.9059888715
 30
0.0
 11
371.7639441122
 21
247.9059888715
 31
0.0
  0
MTEXT
  5
383
330
37B
100
AcDbEntity
  8
0
  6
Continuous
 62
     7
370
    18
100
AcDbMText
 10
295.3214753652
 20
252.4177261935
 30
0.0
 40
3.5
 41
0.0
 71
     1
 72
     1
  1
276.36
  7
SLDTEXTSTYLE0
 73
     1
 44
1.0
  0
ENDBLK
  5
37D
330
37B
100
AcDbEntity
  8
0
100
AcDbBlockEnd
  0
BLOCK
  5
386
330
385
100
AcDbEntity
  8
0
100
AcDbBlockBegin
  2
_D_7
 70
     0
 10
0.0
 20
0.0
 30
0.0
  3
_D_7
  1

  0
SOLID
  5
388
330
385
100
AcDbEntity
  8
0
  6
Continuous
 62
     7
370
    18
100
AcDbTrace
 10
212.7342946883
 20
203.5490789474
 30
0.0
 11
213.2727562267
 21
207.0490789474
 31
0.0
 12
212.1958331498
 22
207.0490789474
 32
0.0
 13
212.1958331498
 23
207.0490789474
 33
0.0
  0
SOLID
  5
389
330
385
100
AcDbEntity
  8
0
  6
Continuous
 62
     7
370
    18
100
AcDbTrace
 10
212.7342946883
 20
240.0490789474
 30
0.0
 11
212.1958331498
 21
236.5490789474
 31
0.0
 12
213.2727562267
 22
236.5490789474
 32
0.0
 13
213.2727562267
 23
236.5490789474
 33
0.0
  0
LINE
  5
38A
330
385
100
AcDbEntity
  8
0
  6
Continuous
 62
     7
370
    18
100
AcDbLine
 10
233.4838673651
 20
203.5490789474
 30
0.0
 11
211.7342946883
 21
203.5490789474
 31
0.0
  0
LINE
  5
38B
330
385
100
AcDbEntity
  8
0
  6
Continuous
 62
     7
370
    18
100
AcDbLine
 10
233.4838673651
 20
240.0490789474
 30
0.0
 11
211.7342946883
 21
240.0490789474
 31
0.0
  0
LINE
  5
38C
330
385
100
AcDbEntity
  8
0
  6
Continuous
 62
     7
370
    18
100
AcDbLine
 10
212.7342946883
 20
203.5490789474
 30
0.0
 11
212.7342946883
 21
240.0490789474
 31
0.0
  0
MTEXT
  5
38D
330
385
100
AcDbEntity
  8
0
  6
Continuous
 62
     7
370
    18
100
AcDbMText
 10
208.2225573663
 20
219.1254679025
 30
0.0
 40
3.5
 41
0.0
 71
     1
 72
     1
  1
73
  7
SLDTEXTSTYLE0
 11
6.123233995736766E-17
 21
1.0
 31
0.0
 73
     1
 44
1.0
  0
ENDBLK
  5
387
330
385
100
AcDbEntity
  8
0
100
AcDbBlockEnd
  0
BLOCK
  5
391
330
390
100
AcDbEntity
  8
0
100
AcDbBlockBegin
  2
_D_8
 70
     0
 10
0.0
 20
0.0
 30
0.0
  3
_D_8
  1

  0
SOLID
  5
393
330
390
100
AcDbEntity
  8
0
  6
Continuous
 62
     7
370
    18
100
AcDbTrace
 10
235.3338673651
 20
195.3900629953
 30
0.0
 11
231.8338673651
 21
195.9285245338
 31
0.0
 12
231.8338673651
 22
194.8516014568
 32
0.0
 13
231.8338673651
 23
194.8516014568
 33
0.0
  0
SOLID
  5
394
330
390
100
AcDbEntity
  8
0
  6
Continuous
 62
     7
370
    18
100
AcDbTrace
 10
237.8338673651
 20
195.3900629953
 30
0.0
 11
241.3338673651
 21
194.8516014568
 31
0.0
 12
241.3338673651
 22
195.9285245338
 32
0.0
 13
241.3338673651
 23
195.9285245338
 33
0.0
  0
LINE
  5
395
330
390
100
AcDbEntity
  8
0
  6
Continuous
 62
     7
370
    18
100
AcDbLine
 10
235.3338673651
 20
207.1990789474
 30
0.0
 11
235.3338673651
 21
194.3900629953
 31
0.0
  0
LINE
  5
396
330
390
100
AcDbEntity
  8
0
  6
Continuous
 62
     7
370
    18
100
AcDbLine
 10
237.8338673651
 20
207.1990789474
 30
0.0
 11
237.8338673651
 21
194.3900629953
 31
0.0
  0
LINE
  5
397
330
390
100
AcDbEntity
  8
0
  6
Continuous
 62
     7
370
    18
100
AcDbLine
 10
235.3338673651
 20
195.3900629953
 30
0.0
 11
229.6142713111
 21
195.3900629953
 31
0.0
  0
LINE
  5
398
330
390
100
AcDbEntity
  8
0
  6
Continuous
 62
     7
370
    18
100
AcDbLine
 10
235.3338673651
 20
195.3900629953
 30
0.0
 11
237.8338673651
 21
195.3900629953
 31
0.0
  0
LINE
  5
399
330
390
100
AcDbEntity
  8
0
  6
Continuous
 62
     7
370
    18
100
AcDbLine
 10
237.8338673651
 20
195.3900629953
 30
0.0
 11
244.5646365958
 21
195.3900629953
 31
0.0
  0
MTEXT
  5
39A
330
390
100
AcDbEntity
  8
0
  6
Continuous
 62
     7
370
    18
100
AcDbMText
 10
229.6142713111
 20
199.9018003173
 30
0.0
 40
3.5
 41
0.0
 71
     1
 72
     1
  1
5
  7
SLDTEXTSTYLE0
 73
     1
 44
1.0
  0
ENDBLK
  5
392
330
390
100
AcDbEntity
  8
0
100
AcDbBlockEnd
  0
BLOCK
  5
39D
330
39C
100
AcDbEntity
  8
0
100
AcDbBlockBegin
  2
_D_9
 70
     0
 10
0.0
 20
0.0
 30
0.0
  3
_D_9
  1

  0
SOLID
  5
39F
330
39C
100
AcDbEntity
  8
0
  6
Continuous
 62
     7
370
    18
100
AcDbTrace
 10
227.3589714359
 20
206.0490789474
 30
0.0
 11
227.8974329743
 21
209.5490789474
 31
0.0
 12
226.8205098974
 22
209.5490789474
 32
0.0
 13
226.8205098974
 23
209.5490789474
 33
0.0
  0
SOLID
  5
3A0
330
39C
100
AcDbEntity
  8
0
  6
Continuous
 62
     7
370
    18
100
AcDbTrace
 10
227.3589714359
 20
226.0490789474
 30
0.0
 11
226.8205098974
 21
222.5490789474
 31
0.0
 12
227.8974329743
 22
222.5490789474
 32
0.0
 13
227.8974329743
 23
222.5490789474
 33
0.0
  0
LINE
  5
3A1
330
39C
100
AcDbEntity
  8
0
  6
Continuous
 62
     7
370
    18
100
AcDbLine
 10
236.4838673651
 20
206.0490789474
 30
0.0
 11
226.3589714359
 21
206.0490789474
 31
0.0
  0
LINE
  5
3A2
330
39C
100
AcDbEntity
  8
0
  6
Continuous
 62
     7
370
    18
100
AcDbLine
 10
236.4838673651
 20
226.0490789474
 30
0.0
 11
226.3589714359
 21
226.0490789474
 31
0.0
  0
LINE
  5
3A3
330
39C
100
AcDbEntity
  8
0
  6
Continuous
 62
     7
370
    18
100
AcDbLine
 10
227.3589714359
 20
206.0490789474
 30
0.0
 11
227.3589714359
 21
226.0490789474
 31
0.0
  0
MTEXT
  5
3A4
330
39C
100
AcDbEntity
  8
0
  6
Continuous
 62
     7
370
    18
100
AcDbMText
 10
222.8472341139
 20
213.3754679025
 30
0.0
 40
3.5
 41
0.0
 71
     1
 72
     1
  1
40
  7
SLDTEXTSTYLE0
 11
1.249573021575912E-14
 21
1.0
 31
0.0
 73
     1
 44
1.0
  0
ENDBLK
  5
39E
330
39C
100
AcDbEntity
  8
0
100
AcDbBlockEnd
  0
BLOCK
  5
3A7
330
3A6
100
AcDbEntity
  8
0
100
AcDbBlockBegin
  2
SW_CENTERMARKSYMBOL_0
 70
     0
 10
0.0
 20
0.0
 30
0.0
  3
SW_CENTERMARKSYMBOL_0
  1

  0
LINE
  5
3A9
330
3A6
100
AcDbEntity
  8
0
  6
Continuous
 62
     0
370
     0
100
AcDbLine
 10
0.0
 20
0.0
 30
0.0
 11
0.0
 21
-1.25
 31
0.0
  0
LINE
  5
3AA
330
3A6
100
AcDbEntity
  8
0
  6
Continuous
 62
     0
370
     0
100
AcDbLine
 10
0.0
 20
0.0
 30
0.0
 11
1.25
 21
0.0
 31
0.0
  0
LINE
  5
3AB
330
3A6
100
AcDbEntity
  8
0
  6
Continuous
 62
     0
370
     0
100
AcDbLine
 10
0.0
 20
0.0
 30
0.0
 11
0.0
 21
1.25
 31
0.0
  0
LINE
  5
3AC
330
3A6
100
AcDbEntity
  8
0
  6
Continuous
 62
     0
370
     0
100
AcDbLine
 10
0.0
 20
0.0
 30
0.0
 11
-1.25
 21
0.0
 31
0.0
  0
LINE
  5
3AD
330
3A6
100
AcDbEntity
  8
0
  6
Continuous
 62
     0
370
     0
100
AcDbLine
 10
0.0
 20
-1.25
 30
0.0
 11
0.0
 21
-2.5
 31
0.0
  0
LINE
  5
3AE
330
3A6
100
AcDbEntity
  8
0
  6
Continuous
 62
     0
370
     0
100
AcDbLine
 10
1.25
 20
0.0
 30
0.0
 11
2.5
 21
0.0
 31
0.0
  0
LINE
  5
3AF
330
3A6
100
AcDbEntity
  8
0
  6
Continuous
 62
     0
370
     0
100
AcDbLine
 10
0.0
 20
1.25
 30
0.0
 11
0.0
 21
2.5
 31
0.0
  0
LINE
  5
3B0
330
3A6
100
AcDbEntity
  8
0
  6
Continuous
 62
     0
370
     0
100
AcDbLine
 10
-1.25
 20
0.0
 30
0.0
 11
-2.5
 21
0.0
 31
0.0
  0
LINE
  5
3B1
330
3A6
100
AcDbEntity
  8
0
  6
Continuous
 62
     0
370
     0
100
AcDbLine
 10
0.0
 20
-17.5
 30
0.0
 11
0.0
 21
-18.75
 31
0.0
  0
LINE
  5
3B2
330
3A6
100
AcDbEntity
  8
0
  6
Continuous
 62
     0
370
     0
100
AcDbLine
 10
0.0
 20
-17.5
 30
0.0
 11
1.25
 21
-17.5
 31
0.0
  0
LINE
  5
3B3
330
3A6
100
AcDbEntity
  8
0
  6
Continuous
 62
     0
370
     0
100
AcDbLine
 10
0.0
 20
-17.5
 30
0.0
 11
0.0
 21
-16.25
 31
0.0
  0
LINE
  5
3B4
330
3A6
100
AcDbEntity
  8
0
  6
Continuous
 62
     0
370
     0
100
AcDbLine
 10
0.0
 20
-17.5
 30
0.0
 11
-1.25
 21
-17.5
 31
0.0
  0
LINE
  5
3B5
330
3A6
100
AcDbEntity
  8
0
  6
Continuous
 62
     0
370
     0
100
AcDbLine
 10
0.0
 20
-18.75
 30
0.0
 11
0.0
 21
-20.0
 31
0.0
  0
LINE
  5
3B6
330
3A6
100
AcDbEntity
  8
0
  6
Continuous
 62
     0
370
     0
100
AcDbLine
 10
1.25
 20
-17.5
 30
0.0
 11
2.5
 21
-17.5
 31
0.0
  0
LINE
  5
3B7
330
3A6
100
AcDbEntity
  8
0
  6
Continuous
 62
     0
370
     0
100
AcDbLine
 10
0.0
 20
-16.25
 30
0.0
 11
0.0
 21
-15.0
 31
0.0
  0
LINE
  5
3B8
330
3A6
100
AcDbEntity
  8
0
  6
Continuous
 62
     0
370
     0
100
AcDbLine
 10
-1.25
 20
-17.5
 30
0.0
 11
-2.5
 21
-17.5
 31
0.0
  0
ENDBLK
  5
3A8
330
3A6
100
AcDbEntity
  8
0
100
AcDbBlockEnd
  0
BLOCK
  5
3BB
330
3BA
100
AcDbEntity
  8
0
100
AcDbBlockBegin
  2
SW_CENTERMARKSYMBOL_1
 70
     0
 10
0.0
 20
0.0
 30
0.0
  3
SW_CENTERMARKSYMBOL_1
  1

  0
LINE
  5
3BD
330
3BA
100
AcDbEntity
  8
0
  6
Continuous
 62
     0
370
     0
100
AcDbLine
 10
0.0
 20
0.0
 30
0.0
 11
0.0
 21
-1.25
 31
0.0
  0
LINE
  5
3BE
330
3BA
100
AcDbEntity
  8
0
  6
Continuous
 62
     0
370
     0
100
AcDbLine
 10
0.0
 20
0.0
 30
0.0
 11
1.25
 21
0.0
 31
0.0
  0
LINE
  5
3BF
330
3BA
100
AcDbEntity
  8
0
  6
Continuous
 62
     0
370
     0
100
AcDbLine
 10
0.0
 20
0.0
 30
0.0
 11
0.0
 21
1.25
 31
0.0
  0
LINE
  5
3C0
330
3BA
100
AcDbEntity
  8
0
  6
Continuous
 62
     0
370
     0
100
AcDbLine
 10
0.0
 20
0.0
 30
0.0
 11
-1.25
 21
0.0
 31
0.0
  0
LINE
  5
3C1
330
3BA
100
AcDbEntity
  8
0
  6
Continuous
 62
     0
370
     0
100
AcDbLine
 10
0.0
 20
-1.25
 30
0.0
 11
0.0
 21
-2.5
 31
0.0
  0
LINE
  5
3C2
330
3BA
100
AcDbEntity
  8
0
  6
Continuous
 62
     0
370
     0
100
AcDbLine
 10
1.25
 20
0.0
 30
0.0
 11
2.5
 21
0.0
 31
0.0
  0
LINE
  5
3C3
330
3BA
100
AcDbEntity
  8
0
  6
Continuous
 62
     0
370
     0
100
AcDbLine
 10
0.0
 20
1.25
 30
0.0
 11
0.0
 21
2.5
 31
0.0
  0
LINE
  5
3C4
330
3BA
100
AcDbEntity
  8
0
  6
Continuous
 62
     0
370
     0
100
AcDbLine
 10
-1.25
 20
0.0
 30
0.0
 11
-2.5
 21
0.0
 31
0.0
  0
LINE
  5
3C5
330
3BA
100
AcDbEntity
  8
0
  6
Continuous
 62
     0
370
     0
100
AcDbLine
 10
0.0
 20
-17.5
 30
0.0
 11
0.0
 21
-18.75
 31
0.0
  0
LINE
  5
3C6
330
3BA
100
AcDbEntity
  8
0
  6
Continuous
 62
     0
370
     0
100
AcDbLine
 10
0.0
 20
-17.5
 30
0.0
 11
1.25
 21
-17.5
 31
0.0
  0
LINE
  5
3C7
330
3BA
100
AcDbEntity
  8
0
  6
Continuous
 62
     0
370
     0
100
AcDbLine
 10
0.0
 20
-17.5
 30
0.0
 11
0.0
 21
-16.25
 31
0.0
  0
LINE
  5
3C8
330
3BA
100
AcDbEntity
  8
0
  6
Continuous
 62
     0
370
     0
100
AcDbLine
 10
0.0
 20
-17.5
 30
0.0
 11
-1.25
 21
-17.5
 31
0.0
  0
LINE
  5
3C9
330
3BA
100
AcDbEntity
  8
0
  6
Continuous
 62
     0
370
     0
100
AcDbLine
 10
0.0
 20
-18.75
 30
0.0
 11
0.0
 21
-20.0
 31
0.0
  0
LINE
  5
3CA
330
3BA
100
AcDbEntity
  8
0
  6
Continuous
 62
     0
370
     0
100
AcDbLine
 10
1.25
 20
-17.5
 30
0.0
 11
2.5
 21
-17.5
 31
0.0
  0
LINE
  5
3CB
330
3BA
100
AcDbEntity
  8
0
  6
Continuous
 62
     0
370
     0
100
AcDbLine
 10
0.0
 20
-16.25
 30
0.0
 11
0.0
 21
-15.0
 31
0.0
  0
LINE
  5
3CC
330
3BA
100
AcDbEntity
  8
0
  6
Continuous
 62
     0
370
     0
100
AcDbLine
 10
-1.25
 20
-17.5
 30
0.0
 11
-2.5
 21
-17.5
 31
0.0
  0
ENDBLK
  5
3BC
330
3BA
100
AcDbEntity
  8
0
100
AcDbBlockEnd
  0
BLOCK
  5
3CF
330
3CE
100
AcDbEntity
  8
0
100
AcDbBlockBegin
  2
SW_CENTERMARKSYMBOL_2
 70
     0
 10
0.0
 20
0.0
 30
0.0
  3
SW_CENTERMARKSYMBOL_2
  1

  0
LINE
  5
3D1
330
3CE
100
AcDbEntity
  8
0
  6
Continuous
 62
     0
370
     0
100
AcDbLine
 10
0.0
 20
0.0
 30
0.0
 11
0.0
 21
-1.25
 31
0.0
  0
LINE
  5
3D2
330
3CE
100
AcDbEntity
  8
0
  6
Continuous
 62
     0
370
     0
100
AcDbLine
 10
0.0
 20
0.0
 30
0.0
 11
1.25
 21
0.0
 31
0.0
  0
LINE
  5
3D3
330
3CE
100
AcDbEntity
  8
0
  6
Continuous
 62
     0
370
     0
100
AcDbLine
 10
0.0
 20
0.0
 30
0.0
 11
0.0
 21
1.25
 31
0.0
  0
LINE
  5
3D4
330
3CE
100
AcDbEntity
  8
0
  6
Continuous
 62
     0
370
     0
100
AcDbLine
 10
0.0
 20
0.0
 30
0.0
 11
-1.25
 21
0.0
 31
0.0
  0
LINE
  5
3D5
330
3CE
100
AcDbEntity
  8
0
  6
Continuous
 62
     0
370
     0
100
AcDbLine
 10
0.0
 20
-1.25
 30
0.0
 11
0.0
 21
-2.5
 31
0.0
  0
LINE
  5
3D6
330
3CE
100
AcDbEntity
  8
0
  6
Continuous
 62
     0
370
     0
100
AcDbLine
 10
1.25
 20
0.0
 30
0.0
 11
2.5
 21
0.0
 31
0.0
  0
LINE
  5
3D7
330
3CE
100
AcDbEntity
  8
0
  6
Continuous
 62
     0
370
     0
100
AcDbLine
 10
0.0
 20
1.25
 30
0.0
 11
0.0
 21
2.5
 31
0.0
  0
LINE
  5
3D8
330
3CE
100
AcDbEntity
  8
0
  6
Continuous
 62
     0
370
     0
100
AcDbLine
 10
-1.25
 20
0.0
 30
0.0
 11
-2.5
 21
0.0
 31
0.0
  0
LINE
  5
3D9
330
3CE
100
AcDbEntity
  8
0
  6
Continuous
 62
     0
370
     0
100
AcDbLine
 10
0.0
 20
-17.5
 30
0.0
 11
0.0
 21
-18.75
 31
0.0
  0
LINE
  5
3DA
330
3CE
100
AcDbEntity
  8
0
  6
Continuous
 62
     0
370
     0
100
AcDbLine
 10
0.0
 20
-17.5
 30
0.0
 11
1.25
 21
-17.5
 31
0.0
  0
LINE
  5
3DB
330
3CE
100
AcDbEntity
  8
0
  6
Continuous
 62
     0
370
     0
100
AcDbLine
 10
0.0
 20
-17.5
 30
0.0
 11
0.0
 21
-16.25
 31
0.0
  0
LINE
  5
3DC
330
3CE
100
AcDbEntity
  8
0
  6
Continuous
 62
     0
370
     0
100
AcDbLine
 10
0.0
 20
-17.5
 30
0.0
 11
-1.25
 21
-17.5
 31
0.0
  0
LINE
  5
3DD
330
3CE
100
AcDbEntity
  8
0
  6
Continuous
 62
     0
370
     0
100
AcDbLine
 10
0.0
 20
-18.75
 30
0.0
 11
0.0
 21
-20.0
 31
0.0
  0
LINE
  5
3DE
330
3CE
100
AcDbEntity
  8
0
  6
Continuous
 62
     0
370
     0
100
AcDbLine
 10
1.25
 20
-17.5
 30
0.0
 11
2.5
 21
-17.5
 31
0.0
  0
LINE
  5
3DF
330
3CE
100
AcDbEntity
  8
0
  6
Continuous
 62
     0
370
     0
100
AcDbLine
 10
0.0
 20
-16.25
 30
0.0
 11
0.0
 21
-15.0
 31
0.0
  0
LINE
  5
3E0
330
3CE
100
AcDbEntity
  8
0
  6
Continuous
 62
     0
370
     0
100
AcDbLine
 10
-1.25
 20
-17.5
 30
0.0
 11
-2.5
 21
-17.5
 31
0.0
  0
ENDBLK
  5
3D0
330
3CE
100
AcDbEntity
  8
0
100
AcDbBlockEnd
  0
BLOCK
  5
3E3
330
3E2
100
AcDbEntity
  8
0
100
AcDbBlockBegin
  2
SW_CENTERMARKSYMBOL_3
 70
     0
 10
0.0
 20
0.0
 30
0.0
  3
SW_CENTERMARKSYMBOL_3
  1

  0
LINE
  5
3E5
330
3E2
100
AcDbEntity
  8
0
  6
Continuous
 62
     0
370
     0
100
AcDbLine
 10
0.0
 20
0.0
 30
0.0
 11
0.0
 21
-1.25
 31
0.0
  0
LINE
  5
3E6
330
3E2
100
AcDbEntity
  8
0
  6
Continuous
 62
     0
370
     0
100
AcDbLine
 10
0.0
 20
0.0
 30
0.0
 11
1.25
 21
0.0
 31
0.0
  0
LINE
  5
3E7
330
3E2
100
AcDbEntity
  8
0
  6
Continuous
 62
     0
370
     0
100
AcDbLine
 10
0.0
 20
0.0
 30
0.0
 11
0.0
 21
1.25
 31
0.0
  0
LINE
  5
3E8
330
3E2
100
AcDbEntity
  8
0
  6
Continuous
 62
     0
370
     0
100
AcDbLine
 10
0.0
 20
0.0
 30
0.0
 11
-1.25
 21
0.0
 31
0.0
  0
LINE
  5
3E9
330
3E2
100
AcDbEntity
  8
0
  6
Continuous
 62
     0
370
     0
100
AcDbLine
 10
0.0
 20
-1.25
 30
0.0
 11
0.0
 21
-2.5
 31
0.0
  0
LINE
  5
3EA
330
3E2
100
AcDbEntity
  8
0
  6
Continuous
 62
     0
370
     0
100
AcDbLine
 10
1.25
 20
0.0
 30
0.0
 11
2.5
 21
0.0
 31
0.0
  0
LINE
  5
3EB
330
3E2
100
AcDbEntity
  8
0
  6
Continuous
 62
     0
370
     0
100
AcDbLine
 10
0.0
 20
1.25
 30
0.0
 11
0.0
 21
2.5
 31
0.0
  0
LINE
  5
3EC
330
3E2
100
AcDbEntity
  8
0
  6
Continuous
 62
     0
370
     0
100
AcDbLine
 10
-1.25
 20
0.0
 30
0.0
 11
-2.5
 21
0.0
 31
0.0
  0
LINE
  5
3ED
330
3E2
100
AcDbEntity
  8
0
  6
Continuous
 62
     0
370
     0
100
AcDbLine
 10
0.0
 20
-17.5
 30
0.0
 11
0.0
 21
-18.75
 31
0.0
  0
LINE
  5
3EE
330
3E2
100
AcDbEntity
  8
0
  6
Continuous
 62
     0
370
     0
100
AcDbLine
 10
0.0
 20
-17.5
 30
0.0
 11
1.25
 21
-17.5
 31
0.0
  0
LINE
  5
3EF
330
3E2
100
AcDbEntity
  8
0
  6
Continuous
 62
     0
370
     0
100
AcDbLine
 10
0.0
 20
-17.5
 30
0.0
 11
0.0
 21
-16.25
 31
0.0
  0
LINE
  5
3F0
330
3E2
100
AcDbEntity
  8
0
  6
Continuous
 62
     0
370
     0
100
AcDbLine
 10
0.0
 20
-17.5
 30
0.0
 11
-1.25
 21
-17.5
 31
0.0
  0
LINE
  5
3F1
330
3E2
100
AcDbEntity
  8
0
  6
Continuous
 62
     0
370
     0
100
AcDbLine
 10
0.0
 20
-18.75
 30
0.0
 11
0.0
 21
-20.0
 31
0.0
  0
LINE
  5
3F2
330
3E2
100
AcDbEntity
  8
0
  6
Continuous
 62
     0
370
     0
100
AcDbLine
 10
1.25
 20
-17.5
 30
0.0
 11
2.5
 21
-17.5
 31
0.0
  0
LINE
  5
3F3
330
3E2
100
AcDbEntity
  8
0
  6
Continuous
 62
     0
370
     0
100
AcDbLine
 10
0.0
 20
-16.25
 30
0.0
 11
0.0
 21
-15.0
 31
0.0
  0
LINE
  5
3F4
330
3E2
100
AcDbEntity
  8
0
  6
Continuous
 62
     0
370
     0
100
AcDbLine
 10
-1.25
 20
-17.5
 30
0.0
 11
-2.5
 21
-17.5
 31
0.0
  0
ENDBLK
  5
3E4
330
3E2
100
AcDbEntity
  8
0
100
AcDbBlockEnd
  0
BLOCK
  5
3F7
330
3F6
100
AcDbEntity
  8
0
100
AcDbBlockBegin
  2
SW_CENTERMARKSYMBOL_4
 70
     0
 10
0.0
 20
0.0
 30
0.0
  3
SW_CENTERMARKSYMBOL_4
  1

  0
LINE
  5
3F9
330
3F6
100
AcDbEntity
  8
0
  6
Continuous
 62
     0
370
     0
100
AcDbLine
 10
0.0
 20
0.0
 30
0.0
 11
0.0
 21
-1.25
 31
0.0
  0
LINE
  5
3FA
330
3F6
100
AcDbEntity
  8
0
  6
Continuous
 62
     0
370
     0
100
AcDbLine
 10
0.0
 20
0.0
 30
0.0
 11
1.25
 21
0.0
 31
0.0
  0
LINE
  5
3FB
330
3F6
100
AcDbEntity
  8
0
  6
Continuous
 62
     0
370
     0
100
AcDbLine
 10
0.0
 20
0.0
 30
0.0
 11
0.0
 21
1.25
 31
0.0
  0
LINE
  5
3FC
330
3F6
100
AcDbEntity
  8
0
  6
Continuous
 62
     0
370
     0
100
AcDbLine
 10
0.0
 20
0.0
 30
0.0
 11
-1.25
 21
0.0
 31
0.0
  0
LINE
  5
3FD
330
3F6
100
AcDbEntity
  8
0
  6
Continuous
 62
     0
370
     0
100
AcDbLine
 10
0.0
 20
-1.25
 30
0.0
 11
0.0
 21
-2.5
 31
0.0
  0
LINE
  5
3FE
330
3F6
100
AcDbEntity
  8
0
  6
Continuous
 62
     0
370
     0
100
AcDbLine
 10
1.25
 20
0.0
 30
0.0
 11
2.5
 21
0.0
 31
0.0
  0
LINE
  5
3FF
330
3F6
100
AcDbEntity
  8
0
  6
Continuous
 62
     0
370
     0
100
AcDbLine
 10
0.0
 20
1.25
 30
0.0
 11
0.0
 21
2.5
 31
0.0
  0
LINE
  5
400
330
3F6
100
AcDbEntity
  8
0
  6
Continuous
 62
     0
370
     0
100
AcDbLine
 10
-1.25
 20
0.0
 30
0.0
 11
-2.5
 21
0.0
 31
0.0
  0
LINE
  5
401
330
3F6
100
AcDbEntity
  8
0
  6
Continuous
 62
     0
370
     0
100
AcDbLine
 10
0.0
 20
-17.5
 30
0.0
 11
0.0
 21
-18.75
 31
0.0
  0
LINE
  5
402
330
3F6
100
AcDbEntity
  8
0
  6
Continuous
 62
     0
370
     0
100
AcDbLine
 10
0.0
 20
-17.5
 30
0.0
 11
1.25
 21
-17.5
 31
0.0
  0
LINE
  5
403
330
3F6
100
AcDbEntity
  8
0
  6
Continuous
 62
     0
370
     0
100
AcDbLine
 10
0.0
 20
-17.5
 30
0.0
 11
0.0
 21
-16.25
 31
0.0
  0
LINE
  5
404
330
3F6
100
AcDbEntity
  8
0
  6
Continuous
 62
     0
370
     0
100
AcDbLine
 10
0.0
 20
-17.5
 30
0.0
 11
-1.25
 21
-17.5
 31
0.0
  0
LINE
  5
405
330
3F6
100
AcDbEntity
  8
0
  6
Continuous
 62
     0
370
     0
100
AcDbLine
 10
0.0
 20
-18.75
 30
0.0
 11
0.0
 21
-20.0
 31
0.0
  0
LINE
  5
406
330
3F6
100
AcDbEntity
  8
0
  6
Continuous
 62
     0
370
     0
100
AcDbLine
 10
1.25
 20
-17.5
 30
0.0
 11
2.5
 21
-17.5
 31
0.0
  0
LINE
  5
407
330
3F6
100
AcDbEntity
  8
0
  6
Continuous
 62
     0
370
     0
100
AcDbLine
 10
0.0
 20
-16.25
 30
0.0
 11
0.0
 21
-15.0
 31
0.0
  0
LINE
  5
408
330
3F6
100
AcDbEntity
  8
0
  6
Continuous
 62
     0
370
     0
100
AcDbLine
 10
-1.25
 20
-17.5
 30
0.0
 11
-2.5
 21
-17.5
 31
0.0
  0
ENDBLK
  5
3F8
330
3F6
100
AcDbEntity
  8
0
100
AcDbBlockEnd
  0
BLOCK
  5
40B
330
40A
100
AcDbEntity
  8
0
100
AcDbBlockBegin
  2
SW_CENTERMARKSYMBOL_5
 70
     0
 10
0.0
 20
0.0
 30
0.0
  3
SW_CENTERMARKSYMBOL_5
  1

  0
LINE
  5
40D
330
40A
100
AcDbEntity
  8
0
  6
Continuous
 62
     0
370
     0
100
AcDbLine
 10
0.0
 20
0.0
 30
0.0
 11
0.0
 21
-1.25
 31
0.0
  0
LINE
  5
40E
330
40A
100
AcDbEntity
  8
0
  6
Continuous
 62
     0
370
     0
100
AcDbLine
 10
0.0
 20
0.0
 30
0.0
 11
1.25
 21
0.0
 31
0.0
  0
LINE
  5
40F
330
40A
100
AcDbEntity
  8
0
  6
Continuous
 62
     0
370
     0
100
AcDbLine
 10
0.0
 20
0.0
 30
0.0
 11
0.0
 21
1.25
 31
0.0
  0
LINE
  5
410
330
40A
100
AcDbEntity
  8
0
  6
Continuous
 62
     0
370
     0
100
AcDbLine
 10
0.0
 20
0.0
 30
0.0
 11
-1.25
 21
0.0
 31
0.0
  0
LINE
  5
411
330
40A
100
AcDbEntity
  8
0
  6
Continuous
 62
     0
370
     0
100
AcDbLine
 10
0.0
 20
-1.25
 30
0.0
 11
0.0
 21
-2.5
 31
0.0
  0
LINE
  5
412
330
40A
100
AcDbEntity
  8
0
  6
Continuous
 62
     0
370
     0
100
AcDbLine
 10
1.25
 20
0.0
 30
0.0
 11
2.5
 21
0.0
 31
0.0
  0
LINE
  5
413
330
40A
100
AcDbEntity
  8
0
  6
Continuous
 62
     0
370
     0
100
AcDbLine
 10
0.0
 20
1.25
 30
0.0
 11
0.0
 21
2.5
 31
0.0
  0
LINE
  5
414
330
40A
100
AcDbEntity
  8
0
  6
Continuous
 62
     0
370
     0
100
AcDbLine
 10
-1.25
 20
0.0
 30
0.0
 11
-2.5
 21
0.0
 31
0.0
  0
LINE
  5
415
330
40A
100
AcDbEntity
  8
0
  6
Continuous
 62
     0
370
     0
100
AcDbLine
 10
0.0
 20
-17.5
 30
0.0
 11
0.0
 21
-18.75
 31
0.0
  0
LINE
  5
416
330
40A
100
AcDbEntity
  8
0
  6
Continuous
 62
     0
370
     0
100
AcDbLine
 10
0.0
 20
-17.5
 30
0.0
 11
1.25
 21
-17.5
 31
0.0
  0
LINE
  5
417
330
40A
100
AcDbEntity
  8
0
  6
Continuous
 62
     0
370
     0
100
AcDbLine
 10
0.0
 20
-17.5
 30
0.0
 11
0.0
 21
-16.25
 31
0.0
  0
LINE
  5
418
330
40A
100
AcDbEntity
  8
0
  6
Continuous
 62
     0
370
     0
100
AcDbLine
 10
0.0
 20
-17.5
 30
0.0
 11
-1.25
 21
-17.5
 31
0.0
  0
LINE
  5
419
330
40A
100
AcDbEntity
  8
0
  6
Continuous
 62
     0
370
     0
100
AcDbLine
 10
0.0
 20
-18.75
 30
0.0
 11
0.0
 21
-20.0
 31
0.0
  0
LINE
  5
41A
330
40A
100
AcDbEntity
  8
0
  6
Continuous
 62
     0
370
     0
100
AcDbLine
 10
1.25
 20
-17.5
 30
0.0
 11
2.5
 21
-17.5
 31
0.0
  0
LINE
  5
41B
330
40A
100
AcDbEntity
  8
0
  6
Continuous
 62
     0
370
     0
100
AcDbLine
 10
0.0
 20
-16.25
 30
0.0
 11
0.0
 21
-15.0
 31
0.0
  0
LINE
  5
41C
330
40A
100
AcDbEntity
  8
0
  6
Continuous
 62
     0
370
     0
100
AcDbLine
 10
-1.25
 20
-17.5
 30
0.0
 11
-2.5
 21
-17.5
 31
0.0
  0
ENDBLK
  5
40C
330
40A
100
AcDbEntity
  8
0
100
AcDbBlockEnd
  0
BLOCK
  5
41F
330
41E
100
AcDbEntity
  8
0
100
AcDbBlockBegin
  2
SW_CENTERMARKSYMBOL_6
 70
     0
 10
0.0
 20
0.0
 30
0.0
  3
SW_CENTERMARKSYMBOL_6
  1

  0
LINE
  5
421
330
41E
100
AcDbEntity
  8
0
  6
Continuous
 62
     0
370
     0
100
AcDbLine
 10
0.0
 20
0.0
 30
0.0
 11
0.0
 21
-1.25
 31
0.0
  0
LINE
  5
422
330
41E
100
AcDbEntity
  8
0
  6
Continuous
 62
     0
370
     0
100
AcDbLine
 10
0.0
 20
0.0
 30
0.0
 11
1.25
 21
0.0
 31
0.0
  0
LINE
  5
423
330
41E
100
AcDbEntity
  8
0
  6
Continuous
 62
     0
370
     0
100
AcDbLine
 10
0.0
 20
0.0
 30
0.0
 11
0.0
 21
1.25
 31
0.0
  0
LINE
  5
424
330
41E
100
AcDbEntity
  8
0
  6
Continuous
 62
     0
370
     0
100
AcDbLine
 10
0.0
 20
0.0
 30
0.0
 11
-1.25
 21
0.0
 31
0.0
  0
LINE
  5
425
330
41E
100
AcDbEntity
  8
0
  6
Continuous
 62
     0
370
     0
100
AcDbLine
 10
0.0
 20
-1.25
 30
0.0
 11
0.0
 21
-2.5
 31
0.0
  0
LINE
  5
426
330
41E
100
AcDbEntity
  8
0
  6
Continuous
 62
     0
370
     0
100
AcDbLine
 10
1.25
 20
0.0
 30
0.0
 11
2.5
 21
0.0
 31
0.0
  0
LINE
  5
427
330
41E
100
AcDbEntity
  8
0
  6
Continuous
 62
     0
370
     0
100
AcDbLine
 10
0.0
 20
1.25
 30
0.0
 11
0.0
 21
2.5
 31
0.0
  0
LINE
  5
428
330
41E
100
AcDbEntity
  8
0
  6
Continuous
 62
     0
370
     0
100
AcDbLine
 10
-1.25
 20
0.0
 30
0.0
 11
-2.5
 21
0.0
 31
0.0
  0
LINE
  5
429
330
41E
100
AcDbEntity
  8
0
  6
Continuous
 62
     0
370
     0
100
AcDbLine
 10
0.0
 20
-17.5
 30
0.0
 11
0.0
 21
-18.75
 31
0.0
  0
LINE
  5
42A
330
41E
100
AcDbEntity
  8
0
  6
Continuous
 62
     0
370
     0
100
AcDbLine
 10
0.0
 20
-17.5
 30
0.0
 11
1.25
 21
-17.5
 31
0.0
  0
LINE
  5
42B
330
41E
100
AcDbEntity
  8
0
  6
Continuous
 62
     0
370
     0
100
AcDbLine
 10
0.0
 20
-17.5
 30
0.0
 11
0.0
 21
-16.25
 31
0.0
  0
LINE
  5
42C
330
41E
100
AcDbEntity
  8
0
  6
Continuous
 62
     0
370
     0
100
AcDbLine
 10
0.0
 20
-17.5
 30
0.0
 11
-1.25
 21
-17.5
 31
0.0
  0
LINE
  5
42D
330
41E
100
AcDbEntity
  8
0
  6
Continuous
 62
     0
370
     0
100
AcDbLine
 10
0.0
 20
-18.75
 30
0.0
 11
0.0
 21
-20.0
 31
0.0
  0
LINE
  5
42E
330
41E
100
AcDbEntity
  8
0
  6
Continuous
 62
     0
370
     0
100
AcDbLine
 10
1.25
 20
-17.5
 30
0.0
 11
2.5
 21
-17.5
 31
0.0
  0
LINE
  5
42F
330
41E
100
AcDbEntity
  8
0
  6
Continuous
 62
     0
370
     0
100
AcDbLine
 10
0.0
 20
-16.25
 30
0.0
 11
0.0
 21
-15.0
 31
0.0
  0
LINE
  5
430
330
41E
100
AcDbEntity
  8
0
  6
Continuous
 62
     0
370
     0
100
AcDbLine
 10
-1.25
 20
-17.5
 30
0.0
 11
-2.5
 21
-17.5
 31
0.0
  0
ENDBLK
  5
420
330
41E
100
AcDbEntity
  8
0
100
AcDbBlockEnd
  0
BLOCK
  5
433
330
432
100
AcDbEntity
  8
0
100
AcDbBlockBegin
  2
SW_CENTERMARKSYMBOL_7
 70
     0
 10
0.0
 20
0.0
 30
0.0
  3
SW_CENTERMARKSYMBOL_7
  1

  0
LINE
  5
435
330
432
100
AcDbEntity
  8
0
  6
Continuous
 62
     0
370
     0
100
AcDbLine
 10
0.0
 20
0.0
 30
0.0
 11
0.0
 21
-1.25
 31
0.0
  0
LINE
  5
436
330
432
100
AcDbEntity
  8
0
  6
Continuous
 62
     0
370
     0
100
AcDbLine
 10
0.0
 20
0.0
 30
0.0
 11
1.25
 21
0.0
 31
0.0
  0
LINE
  5
437
330
432
100
AcDbEntity
  8
0
  6
Continuous
 62
     0
370
     0
100
AcDbLine
 10
0.0
 20
0.0
 30
0.0
 11
0.0
 21
1.25
 31
0.0
  0
LINE
  5
438
330
432
100
AcDbEntity
  8
0
  6
Continuous
 62
     0
370
     0
100
AcDbLine
 10
0.0
 20
0.0
 30
0.0
 11
-1.25
 21
0.0
 31
0.0
  0
LINE
  5
439
330
432
100
AcDbEntity
  8
0
  6
Continuous
 62
     0
370
     0
100
AcDbLine
 10
0.0
 20
-1.25
 30
0.0
 11
0.0
 21
-2.5
 31
0.0
  0
LINE
  5
43A
330
432
100
AcDbEntity
  8
0
  6
Continuous
 62
     0
370
     0
100
AcDbLine
 10
1.25
 20
0.0
 30
0.0
 11
2.5
 21
0.0
 31
0.0
  0
LINE
  5
43B
330
432
100
AcDbEntity
  8
0
  6
Continuous
 62
     0
370
     0
100
AcDbLine
 10
0.0
 20
1.25
 30
0.0
 11
0.0
 21
2.5
 31
0.0
  0
LINE
  5
43C
330
432
100
AcDbEntity
  8
0
  6
Continuous
 62
     0
370
     0
100
AcDbLine
 10
-1.25
 20
0.0
 30
0.0
 11
-2.5
 21
0.0
 31
0.0
  0
LINE
  5
43D
330
432
100
AcDbEntity
  8
0
  6
Continuous
 62
     0
370
     0
100
AcDbLine
 10
0.0
 20
-17.5
 30
0.0
 11
0.0
 21
-18.75
 31
0.0
  0
LINE
  5
43E
330
432
100
AcDbEntity
  8
0
  6
Continuous
 62
     0
370
     0
100
AcDbLine
 10
0.0
 20
-17.5
 30
0.0
 11
1.25
 21
-17.5
 31
0.0
  0
LINE
  5
43F
330
432
100
AcDbEntity
  8
0
  6
Continuous
 62
     0
370
     0
100
AcDbLine
 10
0.0
 20
-17.5
 30
0.0
 11
0.0
 21
-16.25
 31
0.0
  0
LINE
  5
440
330
432
100
AcDbEntity
  8
0
  6
Continuous
 62
     0
370
     0
100
AcDbLine
 10
0.0
 20
-17.5
 30
0.0
 11
-1.25
 21
-17.5
 31
0.0
  0
LINE
  5
441
330
432
100
AcDbEntity
  8
0
  6
Continuous
 62
     0
370
     0
100
AcDbLine
 10
0.0
 20
-18.75
 30
0.0
 11
0.0
 21
-20.0
 31
0.0
  0
LINE
  5
442
330
432
100
AcDbEntity
  8
0
  6
Continuous
 62
     0
370
     0
100
AcDbLine
 10
1.25
 20
-17.5
 30
0.0
 11
2.5
 21
-17.5
 31
0.0
  0
LINE
  5
443
330
432
100
AcDbEntity
  8
0
  6
Continuous
 62
     0
370
     0
100
AcDbLine
 10
0.0
 20
-16.25
 30
0.0
 11
0.0
 21
-15.0
 31
0.0
  0
LINE
  5
444
330
432
100
AcDbEntity
  8
0
  6
Continuous
 62
     0
370
     0
100
AcDbLine
 10
-1.25
 20
-17.5
 30
0.0
 11
-2.5
 21
-17.5
 31
0.0
  0
ENDBLK
  5
434
330
432
100
AcDbEntity
  8
0
100
AcDbBlockEnd
  0
BLOCK
  5
447
330
446
100
AcDbEntity
  8
0
100
AcDbBlockBegin
  2
SW_CENTERMARKSYMBOL_8
 70
     0
 10
0.0
 20
0.0
 30
0.0
  3
SW_CENTERMARKSYMBOL_8
  1

  0
LINE
  5
449
330
446
100
AcDbEntity
  8
0
  6
Continuous
 62
     0
370
     0
100
AcDbLine
 10
0.0
 20
0.0
 30
0.0
 11
0.0
 21
-1.25
 31
0.0
  0
LINE
  5
44A
330
446
100
AcDbEntity
  8
0
  6
Continuous
 62
     0
370
     0
100
AcDbLine
 10
0.0
 20
0.0
 30
0.0
 11
1.25
 21
0.0
 31
0.0
  0
LINE
  5
44B
330
446
100
AcDbEntity
  8
0
  6
Continuous
 62
     0
370
     0
100
AcDbLine
 10
0.0
 20
0.0
 30
0.0
 11
0.0
 21
1.25
 31
0.0
  0
LINE
  5
44C
330
446
100
AcDbEntity
  8
0
  6
Continuous
 62
     0
370
     0
100
AcDbLine
 10
0.0
 20
0.0
 30
0.0
 11
-1.25
 21
0.0
 31
0.0
  0
LINE
  5
44D
330
446
100
AcDbEntity
  8
0
  6
Continuous
 62
     0
370
     0
100
AcDbLine
 10
0.0
 20
-1.25
 30
0.0
 11
0.0
 21
-2.5
 31
0.0
  0
LINE
  5
44E
330
446
100
AcDbEntity
  8
0
  6
Continuous
 62
     0
370
     0
100
AcDbLine
 10
1.25
 20
0.0
 30
0.0
 11
2.5
 21
0.0
 31
0.0
  0
LINE
  5
44F
330
446
100
AcDbEntity
  8
0
  6
Continuous
 62
     0
370
     0
100
AcDbLine
 10
0.0
 20
1.25
 30
0.0
 11
0.0
 21
2.5
 31
0.0
  0
LINE
  5
450
330
446
100
AcDbEntity
  8
0
  6
Continuous
 62
     0
370
     0
100
AcDbLine
 10
-1.25
 20
0.0
 30
0.0
 11
-2.5
 21
0.0
 31
0.0
  0
LINE
  5
451
330
446
100
AcDbEntity
  8
0
  6
Continuous
 62
     0
370
     0
100
AcDbLine
 10
0.0
 20
-17.5
 30
0.0
 11
0.0
 21
-18.75
 31
0.0
  0
LINE
  5
452
330
446
100
AcDbEntity
  8
0
  6
Continuous
 62
     0
370
     0
100
AcDbLine
 10
0.0
 20
-17.5
 30
0.0
 11
1.25
 21
-17.5
 31
0.0
  0
LINE
  5
453
330
446
100
AcDbEntity
  8
0
  6
Continuous
 62
     0
370
     0
100
AcDbLine
 10
0.0
 20
-17.5
 30
0.0
 11
0.0
 21
-16.25
 31
0.0
  0
LINE
  5
454
330
446
100
AcDbEntity
  8
0
  6
Continuous
 62
     0
370
     0
100
AcDbLine
 10
0.0
 20
-17.5
 30
0.0
 11
-1.25
 21
-17.5
 31
0.0
  0
LINE
  5
455
330
446
100
AcDbEntity
  8
0
  6
Continuous
 62
     0
370
     0
100
AcDbLine
 10
0.0
 20
-18.75
 30
0.0
 11
0.0
 21
-20.0
 31
0.0
  0
LINE
  5
456
330
446
100
AcDbEntity
  8
0
  6
Continuous
 62
     0
370
     0
100
AcDbLine
 10
1.25
 20
-17.5
 30
0.0
 11
2.5
 21
-17.5
 31
0.0
  0
LINE
  5
457
330
446
100
AcDbEntity
  8
0
  6
Continuous
 62
     0
370
     0
100
AcDbLine
 10
0.0
 20
-16.25
 30
0.0
 11
0.0
 21
-15.0
 31
0.0
  0
LINE
  5
458
330
446
100
AcDbEntity
  8
0
  6
Continuous
 62
     0
370
     0
100
AcDbLine
 10
-1.25
 20
-17.5
 30
0.0
 11
-2.5
 21
-17.5
 31
0.0
  0
ENDBLK
  5
448
330
446
100
AcDbEntity
  8
0
100
AcDbBlockEnd
  0
BLOCK
  5
45B
330
45A
100
AcDbEntity
  8
0
100
AcDbBlockBegin
  2
SW_CENTERMARKSYMBOL_9
 70
     0
 10
0.0
 20
0.0
 30
0.0
  3
SW_CENTERMARKSYMBOL_9
  1

  0
LINE
  5
45D
330
45A
100
AcDbEntity
  8
0
  6
Continuous
 62
     0
370
     0
100
AcDbLine
 10
0.0
 20
0.0
 30
0.0
 11
0.0
 21
-1.25
 31
0.0
  0
LINE
  5
45E
330
45A
100
AcDbEntity
  8
0
  6
Continuous
 62
     0
370
     0
100
AcDbLine
 10
0.0
 20
0.0
 30
0.0
 11
1.25
 21
0.0
 31
0.0
  0
LINE
  5
45F
330
45A
100
AcDbEntity
  8
0
  6
Continuous
 62
     0
370
     0
100
AcDbLine
 10
0.0
 20
0.0
 30
0.0
 11
0.0
 21
1.25
 31
0.0
  0
LINE
  5
460
330
45A
100
AcDbEntity
  8
0
  6
Continuous
 62
     0
370
     0
100
AcDbLine
 10
0.0
 20
0.0
 30
0.0
 11
-1.25
 21
0.0
 31
0.0
  0
LINE
  5
461
330
45A
100
AcDbEntity
  8
0
  6
Continuous
 62
     0
370
     0
100
AcDbLine
 10
0.0
 20
-1.25
 30
0.0
 11
0.0
 21
-2.5
 31
0.0
  0
LINE
  5
462
330
45A
100
AcDbEntity
  8
0
  6
Continuous
 62
     0
370
     0
100
AcDbLine
 10
1.25
 20
0.0
 30
0.0
 11
2.5
 21
0.0
 31
0.0
  0
LINE
  5
463
330
45A
100
AcDbEntity
  8
0
  6
Continuous
 62
     0
370
     0
100
AcDbLine
 10
0.0
 20
1.25
 30
0.0
 11
0.0
 21
2.5
 31
0.0
  0
LINE
  5
464
330
45A
100
AcDbEntity
  8
0
  6
Continuous
 62
     0
370
     0
100
AcDbLine
 10
-1.25
 20
0.0
 30
0.0
 11
-2.5
 21
0.0
 31
0.0
  0
LINE
  5
465
330
45A
100
AcDbEntity
  8
0
  6
Continuous
 62
     0
370
     0
100
AcDbLine
 10
0.0
 20
-17.5
 30
0.0
 11
0.0
 21
-18.75
 31
0.0
  0
LINE
  5
466
330
45A
100
AcDbEntity
  8
0
  6
Continuous
 62
     0
370
     0
100
AcDbLine
 10
0.0
 20
-17.5
 30
0.0
 11
1.25
 21
-17.5
 31
0.0
  0
LINE
  5
467
330
45A
100
AcDbEntity
  8
0
  6
Continuous
 62
     0
370
     0
100
AcDbLine
 10
0.0
 20
-17.5
 30
0.0
 11
0.0
 21
-16.25
 31
0.0
  0
LINE
  5
468
330
45A
100
AcDbEntity
  8
0
  6
Continuous
 62
     0
370
     0
100
AcDbLine
 10
0.0
 20
-17.5
 30
0.0
 11
-1.25
 21
-17.5
 31
0.0
  0
LINE
  5
469
330
45A
100
AcDbEntity
  8
0
  6
Continuous
 62
     0
370
     0
100
AcDbLine
 10
0.0
 20
-18.75
 30
0.0
 11
0.0
 21
-20.0
 31
0.0
  0
LINE
  5
46A
330
45A
100
AcDbEntity
  8
0
  6
Continuous
 62
     0
370
     0
100
AcDbLine
 10
1.25
 20
-17.5
 30
0.0
 11
2.5
 21
-17.5
 31
0.0
  0
LINE
  5
46B
330
45A
100
AcDbEntity
  8
0
  6
Continuous
 62
     0
370
     0
100
AcDbLine
 10
0.0
 20
-16.25
 30
0.0
 11
0.0
 21
-15.0
 31
0.0
  0
LINE
  5
46C
330
45A
100
AcDbEntity
  8
0
  6
Continuous
 62
     0
370
     0
100
AcDbLine
 10
-1.25
 20
-17.5
 30
0.0
 11
-2.5
 21
-17.5
 31
0.0
  0
ENDBLK
  5
45C
330
45A
100
AcDbEntity
  8
0
100
AcDbBlockEnd
  0
BLOCK
  5
46F
330
46E
100
AcDbEntity
  8
0
100
AcDbBlockBegin
  2
SW_CENTERMARKSYMBOL_10
 70
     0
 10
0.0
 20
0.0
 30
0.0
  3
SW_CENTERMARKSYMBOL_10
  1

  0
LINE
  5
471
330
46E
100
AcDbEntity
  8
0
  6
Continuous
 62
     0
370
     0
100
AcDbLine
 10
0.0
 20
0.0
 30
0.0
 11
0.0
 21
-1.25
 31
0.0
  0
LINE
  5
472
330
46E
100
AcDbEntity
  8
0
  6
Continuous
 62
     0
370
     0
100
AcDbLine
 10
0.0
 20
0.0
 30
0.0
 11
1.25
 21
0.0
 31
0.0
  0
LINE
  5
473
330
46E
100
AcDbEntity
  8
0
  6
Continuous
 62
     0
370
     0
100
AcDbLine
 10
0.0
 20
0.0
 30
0.0
 11
0.0
 21
1.25
 31
0.0
  0
LINE
  5
474
330
46E
100
AcDbEntity
  8
0
  6
Continuous
 62
     0
370
     0
100
AcDbLine
 10
0.0
 20
0.0
 30
0.0
 11
-1.25
 21
0.0
 31
0.0
  0
LINE
  5
475
330
46E
100
AcDbEntity
  8
0
  6
Continuous
 62
     0
370
     0
100
AcDbLine
 10
0.0
 20
-1.25
 30
0.0
 11
0.0
 21
-2.5
 31
0.0
  0
LINE
  5
476
330
46E
100
AcDbEntity
  8
0
  6
Continuous
 62
     0
370
     0
100
AcDbLine
 10
1.25
 20
0.0
 30
0.0
 11
2.5
 21
0.0
 31
0.0
  0
LINE
  5
477
330
46E
100
AcDbEntity
  8
0
  6
Continuous
 62
     0
370
     0
100
AcDbLine
 10
0.0
 20
1.25
 30
0.0
 11
0.0
 21
2.5
 31
0.0
  0
LINE
  5
478
330
46E
100
AcDbEntity
  8
0
  6
Continuous
 62
     0
370
     0
100
AcDbLine
 10
-1.25
 20
0.0
 30
0.0
 11
-2.5
 21
0.0
 31
0.0
  0
LINE
  5
479
330
46E
100
AcDbEntity
  8
0
  6
Continuous
 62
     0
370
     0
100
AcDbLine
 10
0.0
 20
-17.5
 30
0.0
 11
0.0
 21
-18.75
 31
0.0
  0
LINE
  5
47A
330
46E
100
AcDbEntity
  8
0
  6
Continuous
 62
     0
370
     0
100
AcDbLine
 10
0.0
 20
-17.5
 30
0.0
 11
1.25
 21
-17.5
 31
0.0
  0
LINE
  5
47B
330
46E
100
AcDbEntity
  8
0
  6
Continuous
 62
     0
370
     0
100
AcDbLine
 10
0.0
 20
-17.5
 30
0.0
 11
0.0
 21
-16.25
 31
0.0
  0
LINE
  5
47C
330
46E
100
AcDbEntity
  8
0
  6
Continuous
 62
     0
370
     0
100
AcDbLine
 10
0.0
 20
-17.5
 30
0.0
 11
-1.25
 21
-17.5
 31
0.0
  0
LINE
  5
47D
330
46E
100
AcDbEntity
  8
0
  6
Continuous
 62
     0
370
     0
100
AcDbLine
 10
0.0
 20
-18.75
 30
0.0
 11
0.0
 21
-20.0
 31
0.0
  0
LINE
  5
47E
330
46E
100
AcDbEntity
  8
0
  6
Continuous
 62
     0
370
     0
100
AcDbLine
 10
1.25
 20
-17.5
 30
0.0
 11
2.5
 21
-17.5
 31
0.0
  0
LINE
  5
47F
330
46E
100
AcDbEntity
  8
0
  6
Continuous
 62
     0
370
     0
100
AcDbLine
 10
0.0
 20
-16.25
 30
0.0
 11
0.0
 21
-15.0
 31
0.0
  0
LINE
  5
480
330
46E
100
AcDbEntity
  8
0
  6
Continuous
 62
     0
370
     0
100
AcDbLine
 10
-1.25
 20
-17.5
 30
0.0
 11
-2.5
 21
-17.5
 31
0.0
  0
ENDBLK
  5
470
330
46E
100
AcDbEntity
  8
0
100
AcDbBlockEnd
  0
BLOCK
  5
483
330
482
100
AcDbEntity
  8
0
100
AcDbBlockBegin
  2
SW_CENTERMARKSYMBOL_11
 70
     0
 10
0.0
 20
0.0
 30
0.0
  3
SW_CENTERMARKSYMBOL_11
  1

  0
LINE
  5
485
330
482
100
AcDbEntity
  8
0
  6
Continuous
 62
     0
370
     0
100
AcDbLine
 10
0.0
 20
0.0
 30
0.0
 11
0.0
 21
-1.25
 31
0.0
  0
LINE
  5
486
330
482
100
AcDbEntity
  8
0
  6
Continuous
 62
     0
370
     0
100
AcDbLine
 10
0.0
 20
0.0
 30
0.0
 11
1.25
 21
0.0
 31
0.0
  0
LINE
  5
487
330
482
100
AcDbEntity
  8
0
  6
Continuous
 62
     0
370
     0
100
AcDbLine
 10
0.0
 20
0.0
 30
0.0
 11
0.0
 21
1.25
 31
0.0
  0
LINE
  5
488
330
482
100
AcDbEntity
  8
0
  6
Continuous
 62
     0
370
     0
100
AcDbLine
 10
0.0
 20
0.0
 30
0.0
 11
-1.25
 21
0.0
 31
0.0
  0
LINE
  5
489
330
482
100
AcDbEntity
  8
0
  6
Continuous
 62
     0
370
     0
100
AcDbLine
 10
0.0
 20
-1.25
 30
0.0
 11
0.0
 21
-2.5
 31
0.0
  0
LINE
  5
48A
330
482
100
AcDbEntity
  8
0
  6
Continuous
 62
     0
370
     0
100
AcDbLine
 10
1.25
 20
0.0
 30
0.0
 11
2.5
 21
0.0
 31
0.0
  0
LINE
  5
48B
330
482
100
AcDbEntity
  8
0
  6
Continuous
 62
     0
370
     0
100
AcDbLine
 10
0.0
 20
1.25
 30
0.0
 11
0.0
 21
2.5
 31
0.0
  0
LINE
  5
48C
330
482
100
AcDbEntity
  8
0
  6
Continuous
 62
     0
370
     0
100
AcDbLine
 10
-1.25
 20
0.0
 30
0.0
 11
-2.5
 21
0.0
 31
0.0
  0
LINE
  5
48D
330
482
100
AcDbEntity
  8
0
  6
Continuous
 62
     0
370
     0
100
AcDbLine
 10
0.0
 20
-17.5
 30
0.0
 11
0.0
 21
-18.75
 31
0.0
  0
LINE
  5
48E
330
482
100
AcDbEntity
  8
0
  6
Continuous
 62
     0
370
     0
100
AcDbLine
 10
0.0
 20
-17.5
 30
0.0
 11
1.25
 21
-17.5
 31
0.0
  0
LINE
  5
48F
330
482
100
AcDbEntity
  8
0
  6
Continuous
 62
     0
370
     0
100
AcDbLine
 10
0.0
 20
-17.5
 30
0.0
 11
0.0
 21
-16.25
 31
0.0
  0
LINE
  5
490
330
482
100
AcDbEntity
  8
0
  6
Continuous
 62
     0
370
     0
100
AcDbLine
 10
0.0
 20
-17.5
 30
0.0
 11
-1.25
 21
-17.5
 31
0.0
  0
LINE
  5
491
330
482
100
AcDbEntity
  8
0
  6
Continuous
 62
     0
370
     0
100
AcDbLine
 10
0.0
 20
-18.75
 30
0.0
 11
0.0
 21
-20.0
 31
0.0
  0
LINE
  5
492
330
482
100
AcDbEntity
  8
0
  6
Continuous
 62
     0
370
     0
100
AcDbLine
 10
1.25
 20
-17.5
 30
0.0
 11
2.5
 21
-17.5
 31
0.0
  0
LINE
  5
493
330
482
100
AcDbEntity
  8
0
  6
Continuous
 62
     0
370
     0
100
AcDbLine
 10
0.0
 20
-16.25
 30
0.0
 11
0.0
 21
-15.0
 31
0.0
  0
LINE
  5
494
330
482
100
AcDbEntity
  8
0
  6
Continuous
 62
     0
370
     0
100
AcDbLine
 10
-1.25
 20
-17.5
 30
0.0
 11
-2.5
 21
-17.5
 31
0.0
  0
ENDBLK
  5
484
330
482
100
AcDbEntity
  8
0
100
AcDbBlockEnd
  0
BLOCK
  5
497
330
496
100
AcDbEntity
  8
0
100
AcDbBlockBegin
  2
SW_CENTERMARKSYMBOL_12
 70
     0
 10
0.0
 20
0.0
 30
0.0
  3
SW_CENTERMARKSYMBOL_12
  1

  0
LINE
  5
499
330
496
100
AcDbEntity
  8
0
  6
Continuous
 62
     0
370
     0
100
AcDbLine
 10
0.0
 20
0.0
 30
0.0
 11
0.0
 21
-1.25
 31
0.0
  0
LINE
  5
49A
330
496
100
AcDbEntity
  8
0
  6
Continuous
 62
     0
370
     0
100
AcDbLine
 10
0.0
 20
0.0
 30
0.0
 11
1.25
 21
0.0
 31
0.0
  0
LINE
  5
49B
330
496
100
AcDbEntity
  8
0
  6
Continuous
 62
     0
370
     0
100
AcDbLine
 10
0.0
 20
0.0
 30
0.0
 11
0.0
 21
1.25
 31
0.0
  0
LINE
  5
49C
330
496
100
AcDbEntity
  8
0
  6
Continuous
 62
     0
370
     0
100
AcDbLine
 10
0.0
 20
0.0
 30
0.0
 11
-1.25
 21
0.0
 31
0.0
  0
LINE
  5
49D
330
496
100
AcDbEntity
  8
0
  6
Continuous
 62
     0
370
     0
100
AcDbLine
 10
0.0
 20
-1.25
 30
0.0
 11
0.0
 21
-2.5
 31
0.0
  0
LINE
  5
49E
330
496
100
AcDbEntity
  8
0
  6
Continuous
 62
     0
370
     0
100
AcDbLine
 10
1.25
 20
0.0
 30
0.0
 11
2.5
 21
0.0
 31
0.0
  0
LINE
  5
49F
330
496
100
AcDbEntity
  8
0
  6
Continuous
 62
     0
370
     0
100
AcDbLine
 10
0.0
 20
1.25
 30
0.0
 11
0.0
 21
2.5
 31
0.0
  0
LINE
  5
4A0
330
496
100
AcDbEntity
  8
0
  6
Continuous
 62
     0
370
     0
100
AcDbLine
 10
-1.25
 20
0.0
 30
0.0
 11
-2.5
 21
0.0
 31
0.0
  0
LINE
  5
4A1
330
496
100
AcDbEntity
  8
0
  6
Continuous
 62
     0
370
     0
100
AcDbLine
 10
0.0
 20
-17.5
 30
0.0
 11
0.0
 21
-18.75
 31
0.0
  0
LINE
  5
4A2
330
496
100
AcDbEntity
  8
0
  6
Continuous
 62
     0
370
     0
100
AcDbLine
 10
0.0
 20
-17.5
 30
0.0
 11
1.25
 21
-17.5
 31
0.0
  0
LINE
  5
4A3
330
496
100
AcDbEntity
  8
0
  6
Continuous
 62
     0
370
     0
100
AcDbLine
 10
0.0
 20
-17.5
 30
0.0
 11
0.0
 21
-16.25
 31
0.0
  0
LINE
  5
4A4
330
496
100
AcDbEntity
  8
0
  6
Continuous
 62
     0
370
     0
100
AcDbLine
 10
0.0
 20
-17.5
 30
0.0
 11
-1.25
 21
-17.5
 31
0.0
  0
LINE
  5
4A5
330
496
100
AcDbEntity
  8
0
  6
Continuous
 62
     0
370
     0
100
AcDbLine
 10
0.0
 20
-18.75
 30
0.0
 11
0.0
 21
-20.0
 31
0.0
  0
LINE
  5
4A6
330
496
100
AcDbEntity
  8
0
  6
Continuous
 62
     0
370
     0
100
AcDbLine
 10
1.25
 20
-17.5
 30
0.0
 11
2.5
 21
-17.5
 31
0.0
  0
LINE
  5
4A7
330
496
100
AcDbEntity
  8
0
  6
Continuous
 62
     0
370
     0
100
AcDbLine
 10
0.0
 20
-16.25
 30
0.0
 11
0.0
 21
-15.0
 31
0.0
  0
LINE
  5
4A8
330
496
100
AcDbEntity
  8
0
  6
Continuous
 62
     0
370
     0
100
AcDbLine
 10
-1.25
 20
-17.5
 30
0.0
 11
-2.5
 21
-17.5
 31
0.0
  0
ENDBLK
  5
498
330
496
100
AcDbEntity
  8
0
100
AcDbBlockEnd
  0
BLOCK
  5
4AB
330
4AA
100
AcDbEntity
  8
0
100
AcDbBlockBegin
  2
SW_CENTERMARKSYMBOL_13
 70
     0
 10
0.0
 20
0.0
 30
0.0
  3
SW_CENTERMARKSYMBOL_13
  1

  0
LINE
  5
4AD
330
4AA
100
AcDbEntity
  8
0
  6
Continuous
 62
     0
370
     0
100
AcDbLine
 10
0.0
 20
0.0
 30
0.0
 11
0.0
 21
-1.25
 31
0.0
  0
LINE
  5
4AE
330
4AA
100
AcDbEntity
  8
0
  6
Continuous
 62
     0
370
     0
100
AcDbLine
 10
0.0
 20
0.0
 30
0.0
 11
1.25
 21
0.0
 31
0.0
  0
LINE
  5
4AF
330
4AA
100
AcDbEntity
  8
0
  6
Continuous
 62
     0
370
     0
100
AcDbLine
 10
0.0
 20
0.0
 30
0.0
 11
0.0
 21
1.25
 31
0.0
  0
LINE
  5
4B0
330
4AA
100
AcDbEntity
  8
0
  6
Continuous
 62
     0
370
     0
100
AcDbLine
 10
0.0
 20
0.0
 30
0.0
 11
-1.25
 21
0.0
 31
0.0
  0
LINE
  5
4B1
330
4AA
100
AcDbEntity
  8
0
  6
Continuous
 62
     0
370
     0
100
AcDbLine
 10
0.0
 20
-1.25
 30
0.0
 11
0.0
 21
-2.5
 31
0.0
  0
LINE
  5
4B2
330
4AA
100
AcDbEntity
  8
0
  6
Continuous
 62
     0
370
     0
100
AcDbLine
 10
1.25
 20
0.0
 30
0.0
 11
2.5
 21
0.0
 31
0.0
  0
LINE
  5
4B3
330
4AA
100
AcDbEntity
  8
0
  6
Continuous
 62
     0
370
     0
100
AcDbLine
 10
0.0
 20
1.25
 30
0.0
 11
0.0
 21
2.5
 31
0.0
  0
LINE
  5
4B4
330
4AA
100
AcDbEntity
  8
0
  6
Continuous
 62
     0
370
     0
100
AcDbLine
 10
-1.25
 20
0.0
 30
0.0
 11
-2.5
 21
0.0
 31
0.0
  0
LINE
  5
4B5
330
4AA
100
AcDbEntity
  8
0
  6
Continuous
 62
     0
370
     0
100
AcDbLine
 10
0.0
 20
-17.5
 30
0.0
 11
0.0
 21
-18.75
 31
0.0
  0
LINE
  5
4B6
330
4AA
100
AcDbEntity
  8
0
  6
Continuous
 62
     0
370
     0
100
AcDbLine
 10
0.0
 20
-17.5
 30
0.0
 11
1.25
 21
-17.5
 31
0.0
  0
LINE
  5
4B7
330
4AA
100
AcDbEntity
  8
0
  6
Continuous
 62
     0
370
     0
100
AcDbLine
 10
0.0
 20
-17.5
 30
0.0
 11
0.0
 21
-16.25
 31
0.0
  0
LINE
  5
4B8
330
4AA
100
AcDbEntity
  8
0
  6
Continuous
 62
     0
370
     0
100
AcDbLine
 10
0.0
 20
-17.5
 30
0.0
 11
-1.25
 21
-17.5
 31
0.0
  0
LINE
  5
4B9
330
4AA
100
AcDbEntity
  8
0
  6
Continuous
 62
     0
370
     0
100
AcDbLine
 10
0.0
 20
-18.75
 30
0.0
 11
0.0
 21
-20.0
 31
0.0
  0
LINE
  5
4BA
330
4AA
100
AcDbEntity
  8
0
  6
Continuous
 62
     0
370
     0
100
AcDbLine
 10
1.25
 20
-17.5
 30
0.0
 11
2.5
 21
-17.5
 31
0.0
  0
LINE
  5
4BB
330
4AA
100
AcDbEntity
  8
0
  6
Continuous
 62
     0
370
     0
100
AcDbLine
 10
0.0
 20
-16.25
 30
0.0
 11
0.0
 21
-15.0
 31
0.0
  0
LINE
  5
4BC
330
4AA
100
AcDbEntity
  8
0
  6
Continuous
 62
     0
370
     0
100
AcDbLine
 10
-1.25
 20
-17.5
 30
0.0
 11
-2.5
 21
-17.5
 31
0.0
  0
ENDBLK
  5
4AC
330
4AA
100
AcDbEntity
  8
0
100
AcDbBlockEnd
  0
BLOCK
  5
4BF
330
4BE
100
AcDbEntity
  8
0
100
AcDbBlockBegin
  2
SW_CENTERMARKSYMBOL_14
 70
     0
 10
0.0
 20
0.0
 30
0.0
  3
SW_CENTERMARKSYMBOL_14
  1

  0
LINE
  5
4C1
330
4BE
100
AcDbEntity
  8
0
  6
Continuous
 62
     0
370
     0
100
AcDbLine
 10
0.0
 20
0.0
 30
0.0
 11
0.0
 21
-1.25
 31
0.0
  0
LINE
  5
4C2
330
4BE
100
AcDbEntity
  8
0
  6
Continuous
 62
     0
370
     0
100
AcDbLine
 10
0.0
 20
0.0
 30
0.0
 11
1.25
 21
0.0
 31
0.0
  0
LINE
  5
4C3
330
4BE
100
AcDbEntity
  8
0
  6
Continuous
 62
     0
370
     0
100
AcDbLine
 10
0.0
 20
0.0
 30
0.0
 11
0.0
 21
1.25
 31
0.0
  0
LINE
  5
4C4
330
4BE
100
AcDbEntity
  8
0
  6
Continuous
 62
     0
370
     0
100
AcDbLine
 10
0.0
 20
0.0
 30
0.0
 11
-1.25
 21
0.0
 31
0.0
  0
LINE
  5
4C5
330
4BE
100
AcDbEntity
  8
0
  6
Continuous
 62
     0
370
     0
100
AcDbLine
 10
0.0
 20
-1.25
 30
0.0
 11
0.0
 21
-2.5
 31
0.0
  0
LINE
  5
4C6
330
4BE
100
AcDbEntity
  8
0
  6
Continuous
 62
     0
370
     0
100
AcDbLine
 10
1.25
 20
0.0
 30
0.0
 11
2.5
 21
0.0
 31
0.0
  0
LINE
  5
4C7
330
4BE
100
AcDbEntity
  8
0
  6
Continuous
 62
     0
370
     0
100
AcDbLine
 10
0.0
 20
1.25
 30
0.0
 11
0.0
 21
2.5
 31
0.0
  0
LINE
  5
4C8
330
4BE
100
AcDbEntity
  8
0
  6
Continuous
 62
     0
370
     0
100
AcDbLine
 10
-1.25
 20
0.0
 30
0.0
 11
-2.5
 21
0.0
 31
0.0
  0
LINE
  5
4C9
330
4BE
100
AcDbEntity
  8
0
  6
Continuous
 62
     0
370
     0
100
AcDbLine
 10
0.0
 20
-17.5
 30
0.0
 11
0.0
 21
-18.75
 31
0.0
  0
LINE
  5
4CA
330
4BE
100
AcDbEntity
  8
0
  6
Continuous
 62
     0
370
     0
100
AcDbLine
 10
0.0
 20
-17.5
 30
0.0
 11
1.25
 21
-17.5
 31
0.0
  0
LINE
  5
4CB
330
4BE
100
AcDbEntity
  8
0
  6
Continuous
 62
     0
370
     0
100
AcDbLine
 10
0.0
 20
-17.5
 30
0.0
 11
0.0
 21
-16.25
 31
0.0
  0
LINE
  5
4CC
330
4BE
100
AcDbEntity
  8
0
  6
Continuous
 62
     0
370
     0
100
AcDbLine
 10
0.0
 20
-17.5
 30
0.0
 11
-1.25
 21
-17.5
 31
0.0
  0
LINE
  5
4CD
330
4BE
100
AcDbEntity
  8
0
  6
Continuous
 62
     0
370
     0
100
AcDbLine
 10
0.0
 20
-18.75
 30
0.0
 11
0.0
 21
-20.0
 31
0.0
  0
LINE
  5
4CE
330
4BE
100
AcDbEntity
  8
0
  6
Continuous
 62
     0
370
     0
100
AcDbLine
 10
1.25
 20
-17.5
 30
0.0
 11
2.5
 21
-17.5
 31
0.0
  0
LINE
  5
4CF
330
4BE
100
AcDbEntity
  8
0
  6
Continuous
 62
     0
370
     0
100
AcDbLine
 10
0.0
 20
-16.25
 30
0.0
 11
0.0
 21
-15.0
 31
0.0
  0
LINE
  5
4D0
330
4BE
100
AcDbEntity
  8
0
  6
Continuous
 62
     0
370
     0
100
AcDbLine
 10
-1.25
 20
-17.5
 30
0.0
 11
-2.5
 21
-17.5
 31
0.0
  0
ENDBLK
  5
4C0
330
4BE
100
AcDbEntity
  8
0
100
AcDbBlockEnd
  0
BLOCK
  5
4D3
330
4D2
100
AcDbEntity
  8
0
100
AcDbBlockBegin
  2
SW_CENTERMARKSYMBOL_15
 70
     0
 10
0.0
 20
0.0
 30
0.0
  3
SW_CENTERMARKSYMBOL_15
  1

  0
LINE
  5
4D5
330
4D2
100
AcDbEntity
  8
0
  6
Continuous
 62
     0
370
     0
100
AcDbLine
 10
0.0
 20
0.0
 30
0.0
 11
0.0
 21
-1.25
 31
0.0
  0
LINE
  5
4D6
330
4D2
100
AcDbEntity
  8
0
  6
Continuous
 62
     0
370
     0
100
AcDbLine
 10
0.0
 20
0.0
 30
0.0
 11
1.25
 21
0.0
 31
0.0
  0
LINE
  5
4D7
330
4D2
100
AcDbEntity
  8
0
  6
Continuous
 62
     0
370
     0
100
AcDbLine
 10
0.0
 20
0.0
 30
0.0
 11
0.0
 21
1.25
 31
0.0
  0
LINE
  5
4D8
330
4D2
100
AcDbEntity
  8
0
  6
Continuous
 62
     0
370
     0
100
AcDbLine
 10
0.0
 20
0.0
 30
0.0
 11
-1.25
 21
0.0
 31
0.0
  0
LINE
  5
4D9
330
4D2
100
AcDbEntity
  8
0
  6
Continuous
 62
     0
370
     0
100
AcDbLine
 10
0.0
 20
-1.25
 30
0.0
 11
0.0
 21
-2.5
 31
0.0
  0
LINE
  5
4DA
330
4D2
100
AcDbEntity
  8
0
  6
Continuous
 62
     0
370
     0
100
AcDbLine
 10
1.25
 20
0.0
 30
0.0
 11
2.5
 21
0.0
 31
0.0
  0
LINE
  5
4DB
330
4D2
100
AcDbEntity
  8
0
  6
Continuous
 62
     0
370
     0
100
AcDbLine
 10
0.0
 20
1.25
 30
0.0
 11
0.0
 21
2.5
 31
0.0
  0
LINE
  5
4DC
330
4D2
100
AcDbEntity
  8
0
  6
Continuous
 62
     0
370
     0
100
AcDbLine
 10
-1.25
 20
0.0
 30
0.0
 11
-2.5
 21
0.0
 31
0.0
  0
LINE
  5
4DD
330
4D2
100
AcDbEntity
  8
0
  6
Continuous
 62
     0
370
     0
100
AcDbLine
 10
0.0
 20
-17.5
 30
0.0
 11
0.0
 21
-18.75
 31
0.0
  0
LINE
  5
4DE
330
4D2
100
AcDbEntity
  8
0
  6
Continuous
 62
     0
370
     0
100
AcDbLine
 10
0.0
 20
-17.5
 30
0.0
 11
1.25
 21
-17.5
 31
0.0
  0
LINE
  5
4DF
330
4D2
100
AcDbEntity
  8
0
  6
Continuous
 62
     0
370
     0
100
AcDbLine
 10
0.0
 20
-17.5
 30
0.0
 11
0.0
 21
-16.25
 31
0.0
  0
LINE
  5
4E0
330
4D2
100
AcDbEntity
  8
0
  6
Continuous
 62
     0
370
     0
100
AcDbLine
 10
0.0
 20
-17.5
 30
0.0
 11
-1.25
 21
-17.5
 31
0.0
  0
LINE
  5
4E1
330
4D2
100
AcDbEntity
  8
0
  6
Continuous
 62
     0
370
     0
100
AcDbLine
 10
0.0
 20
-18.75
 30
0.0
 11
0.0
 21
-20.0
 31
0.0
  0
LINE
  5
4E2
330
4D2
100
AcDbEntity
  8
0
  6
Continuous
 62
     0
370
     0
100
AcDbLine
 10
1.25
 20
-17.5
 30
0.0
 11
2.5
 21
-17.5
 31
0.0
  0
LINE
  5
4E3
330
4D2
100
AcDbEntity
  8
0
  6
Continuous
 62
     0
370
     0
100
AcDbLine
 10
0.0
 20
-16.25
 30
0.0
 11
0.0
 21
-15.0
 31
0.0
  0
LINE
  5
4E4
330
4D2
100
AcDbEntity
  8
0
  6
Continuous
 62
     0
370
     0
100
AcDbLine
 10
-1.25
 20
-17.5
 30
0.0
 11
-2.5
 21
-17.5
 31
0.0
  0
ENDBLK
  5
4D4
330
4D2
100
AcDbEntity
  8
0
100
AcDbBlockEnd
  0
BLOCK
  5
4E7
330
4E6
100
AcDbEntity
  8
0
100
AcDbBlockBegin
  2
SW_CENTERMARKSYMBOL_16
 70
     0
 10
0.0
 20
0.0
 30
0.0
  3
SW_CENTERMARKSYMBOL_16
  1

  0
LINE
  5
4E9
330
4E6
100
AcDbEntity
  8
0
  6
Continuous
 62
     0
370
     0
100
AcDbLine
 10
0.0
 20
0.0
 30
0.0
 11
0.0
 21
-1.25
 31
0.0
  0
LINE
  5
4EA
330
4E6
100
AcDbEntity
  8
0
  6
Continuous
 62
     0
370
     0
100
AcDbLine
 10
0.0
 20
0.0
 30
0.0
 11
1.25
 21
0.0
 31
0.0
  0
LINE
  5
4EB
330
4E6
100
AcDbEntity
  8
0
  6
Continuous
 62
     0
370
     0
100
AcDbLine
 10
0.0
 20
0.0
 30
0.0
 11
0.0
 21
1.25
 31
0.0
  0
LINE
  5
4EC
330
4E6
100
AcDbEntity
  8
0
  6
Continuous
 62
     0
370
     0
100
AcDbLine
 10
0.0
 20
0.0
 30
0.0
 11
-1.25
 21
0.0
 31
0.0
  0
LINE
  5
4ED
330
4E6
100
AcDbEntity
  8
0
  6
Continuous
 62
     0
370
     0
100
AcDbLine
 10
0.0
 20
-1.25
 30
0.0
 11
0.0
 21
-2.5
 31
0.0
  0
LINE
  5
4EE
330
4E6
100
AcDbEntity
  8
0
  6
Continuous
 62
     0
370
     0
100
AcDbLine
 10
1.25
 20
0.0
 30
0.0
 11
2.5
 21
0.0
 31
0.0
  0
LINE
  5
4EF
330
4E6
100
AcDbEntity
  8
0
  6
Continuous
 62
     0
370
     0
100
AcDbLine
 10
0.0
 20
1.25
 30
0.0
 11
0.0
 21
2.5
 31
0.0
  0
LINE
  5
4F0
330
4E6
100
AcDbEntity
  8
0
  6
Continuous
 62
     0
370
     0
100
AcDbLine
 10
-1.25
 20
0.0
 30
0.0
 11
-2.5
 21
0.0
 31
0.0
  0
LINE
  5
4F1
330
4E6
100
AcDbEntity
  8
0
  6
Continuous
 62
     0
370
     0
100
AcDbLine
 10
0.0
 20
-17.5
 30
0.0
 11
0.0
 21
-18.75
 31
0.0
  0
LINE
  5
4F2
330
4E6
100
AcDbEntity
  8
0
  6
Continuous
 62
     0
370
     0
100
AcDbLine
 10
0.0
 20
-17.5
 30
0.0
 11
1.25
 21
-17.5
 31
0.0
  0
LINE
  5
4F3
330
4E6
100
AcDbEntity
  8
0
  6
Continuous
 62
     0
370
     0
100
AcDbLine
 10
0.0
 20
-17.5
 30
0.0
 11
0.0
 21
-16.25
 31
0.0
  0
LINE
  5
4F4
330
4E6
100
AcDbEntity
  8
0
  6
Continuous
 62
     0
370
     0
100
AcDbLine
 10
0.0
 20
-17.5
 30
0.0
 11
-1.25
 21
-17.5
 31
0.0
  0
LINE
  5
4F5
330
4E6
100
AcDbEntity
  8
0
  6
Continuous
 62
     0
370
     0
100
AcDbLine
 10
0.0
 20
-18.75
 30
0.0
 11
0.0
 21
-20.0
 31
0.0
  0
LINE
  5
4F6
330
4E6
100
AcDbEntity
  8
0
  6
Continuous
 62
     0
370
     0
100
AcDbLine
 10
1.25
 20
-17.5
 30
0.0
 11
2.5
 21
-17.5
 31
0.0
  0
LINE
  5
4F7
330
4E6
100
AcDbEntity
  8
0
  6
Continuous
 62
     0
370
     0
100
AcDbLine
 10
0.0
 20
-16.25
 30
0.0
 11
0.0
 21
-15.0
 31
0.0
  0
LINE
  5
4F8
330
4E6
100
AcDbEntity
  8
0
  6
Continuous
 62
     0
370
     0
100
AcDbLine
 10
-1.25
 20
-17.5
 30
0.0
 11
-2.5
 21
-17.5
 31
0.0
  0
ENDBLK
  5
4E8
330
4E6
100
AcDbEntity
  8
0
100
AcDbBlockEnd
  0
BLOCK
  5
4FB
330
4FA
100
AcDbEntity
  8
0
100
AcDbBlockBegin
  2
SW_CENTERMARKSYMBOL_17
 70
     0
 10
0.0
 20
0.0
 30
0.0
  3
SW_CENTERMARKSYMBOL_17
  1

  0
LINE
  5
4FD
330
4FA
100
AcDbEntity
  8
0
  6
Continuous
 62
     0
370
     0
100
AcDbLine
 10
0.0
 20
0.0
 30
0.0
 11
0.0
 21
-1.25
 31
0.0
  0
LINE
  5
4FE
330
4FA
100
AcDbEntity
  8
0
  6
Continuous
 62
     0
370
     0
100
AcDbLine
 10
0.0
 20
0.0
 30
0.0
 11
1.25
 21
0.0
 31
0.0
  0
LINE
  5
4FF
330
4FA
100
AcDbEntity
  8
0
  6
Continuous
 62
     0
370
     0
100
AcDbLine
 10
0.0
 20
0.0
 30
0.0
 11
0.0
 21
1.25
 31
0.0
  0
LINE
  5
500
330
4FA
100
AcDbEntity
  8
0
  6
Continuous
 62
     0
370
     0
100
AcDbLine
 10
0.0
 20
0.0
 30
0.0
 11
-1.25
 21
0.0
 31
0.0
  0
LINE
  5
501
330
4FA
100
AcDbEntity
  8
0
  6
Continuous
 62
     0
370
     0
100
AcDbLine
 10
0.0
 20
-1.25
 30
0.0
 11
0.0
 21
-2.5
 31
0.0
  0
LINE
  5
502
330
4FA
100
AcDbEntity
  8
0
  6
Continuous
 62
     0
370
     0
100
AcDbLine
 10
1.25
 20
0.0
 30
0.0
 11
2.5
 21
0.0
 31
0.0
  0
LINE
  5
503
330
4FA
100
AcDbEntity
  8
0
  6
Continuous
 62
     0
370
     0
100
AcDbLine
 10
0.0
 20
1.25
 30
0.0
 11
0.0
 21
2.5
 31
0.0
  0
LINE
  5
504
330
4FA
100
AcDbEntity
  8
0
  6
Continuous
 62
     0
370
     0
100
AcDbLine
 10
-1.25
 20
0.0
 30
0.0
 11
-2.5
 21
0.0
 31
0.0
  0
LINE
  5
505
330
4FA
100
AcDbEntity
  8
0
  6
Continuous
 62
     0
370
     0
100
AcDbLine
 10
0.0
 20
-17.5
 30
0.0
 11
0.0
 21
-18.75
 31
0.0
  0
LINE
  5
506
330
4FA
100
AcDbEntity
  8
0
  6
Continuous
 62
     0
370
     0
100
AcDbLine
 10
0.0
 20
-17.5
 30
0.0
 11
1.25
 21
-17.5
 31
0.0
  0
LINE
  5
507
330
4FA
100
AcDbEntity
  8
0
  6
Continuous
 62
     0
370
     0
100
AcDbLine
 10
0.0
 20
-17.5
 30
0.0
 11
0.0
 21
-16.25
 31
0.0
  0
LINE
  5
508
330
4FA
100
AcDbEntity
  8
0
  6
Continuous
 62
     0
370
     0
100
AcDbLine
 10
0.0
 20
-17.5
 30
0.0
 11
-1.25
 21
-17.5
 31
0.0
  0
LINE
  5
509
330
4FA
100
AcDbEntity
  8
0
  6
Continuous
 62
     0
370
     0
100
AcDbLine
 10
0.0
 20
-18.75
 30
0.0
 11
0.0
 21
-20.0
 31
0.0
  0
LINE
  5
50A
330
4FA
100
AcDbEntity
  8
0
  6
Continuous
 62
     0
370
     0
100
AcDbLine
 10
1.25
 20
-17.5
 30
0.0
 11
2.5
 21
-17.5
 31
0.0
  0
LINE
  5
50B
330
4FA
100
AcDbEntity
  8
0
  6
Continuous
 62
     0
370
     0
100
AcDbLine
 10
0.0
 20
-16.25
 30
0.0
 11
0.0
 21
-15.0
 31
0.0
  0
LINE
  5
50C
330
4FA
100
AcDbEntity
  8
0
  6
Continuous
 62
     0
370
     0
100
AcDbLine
 10
-1.25
 20
-17.5
 30
0.0
 11
-2.5
 21
-17.5
 31
0.0
  0
ENDBLK
  5
4FC
330
4FA
100
AcDbEntity
  8
0
100
AcDbBlockEnd
  0
BLOCK
  5
50F
330
50E
100
AcDbEntity
  8
0
100
AcDbBlockBegin
  2
SW_CENTERMARKSYMBOL_18
 70
     0
 10
0.0
 20
0.0
 30
0.0
  3
SW_CENTERMARKSYMBOL_18
  1

  0
LINE
  5
511
330
50E
100
AcDbEntity
  8
0
  6
Continuous
 62
     0
370
     0
100
AcDbLine
 10
0.0
 20
0.0
 30
0.0
 11
0.0
 21
-1.25
 31
0.0
  0
LINE
  5
512
330
50E
100
AcDbEntity
  8
0
  6
Continuous
 62
     0
370
     0
100
AcDbLine
 10
0.0
 20
0.0
 30
0.0
 11
1.25
 21
0.0
 31
0.0
  0
LINE
  5
513
330
50E
100
AcDbEntity
  8
0
  6
Continuous
 62
     0
370
     0
100
AcDbLine
 10
0.0
 20
0.0
 30
0.0
 11
0.0
 21
1.25
 31
0.0
  0
LINE
  5
514
330
50E
100
AcDbEntity
  8
0
  6
Continuous
 62
     0
370
     0
100
AcDbLine
 10
0.0
 20
0.0
 30
0.0
 11
-1.25
 21
0.0
 31
0.0
  0
LINE
  5
515
330
50E
100
AcDbEntity
  8
0
  6
Continuous
 62
     0
370
     0
100
AcDbLine
 10
0.0
 20
-1.25
 30
0.0
 11
0.0
 21
-2.5
 31
0.0
  0
LINE
  5
516
330
50E
100
AcDbEntity
  8
0
  6
Continuous
 62
     0
370
     0
100
AcDbLine
 10
1.25
 20
0.0
 30
0.0
 11
2.5
 21
0.0
 31
0.0
  0
LINE
  5
517
330
50E
100
AcDbEntity
  8
0
  6
Continuous
 62
     0
370
     0
100
AcDbLine
 10
0.0
 20
1.25
 30
0.0
 11
0.0
 21
2.5
 31
0.0
  0
LINE
  5
518
330
50E
100
AcDbEntity
  8
0
  6
Continuous
 62
     0
370
     0
100
AcDbLine
 10
-1.25
 20
0.0
 30
0.0
 11
-2.5
 21
0.0
 31
0.0
  0
LINE
  5
519
330
50E
100
AcDbEntity
  8
0
  6
Continuous
 62
     0
370
     0
100
AcDbLine
 10
0.0
 20
-17.5
 30
0.0
 11
0.0
 21
-18.75
 31
0.0
  0
LINE
  5
51A
330
50E
100
AcDbEntity
  8
0
  6
Continuous
 62
     0
370
     0
100
AcDbLine
 10
0.0
 20
-17.5
 30
0.0
 11
1.25
 21
-17.5
 31
0.0
  0
LINE
  5
51B
330
50E
100
AcDbEntity
  8
0
  6
Continuous
 62
     0
370
     0
100
AcDbLine
 10
0.0
 20
-17.5
 30
0.0
 11
0.0
 21
-16.25
 31
0.0
  0
LINE
  5
51C
330
50E
100
AcDbEntity
  8
0
  6
Continuous
 62
     0
370
     0
100
AcDbLine
 10
0.0
 20
-17.5
 30
0.0
 11
-1.25
 21
-17.5
 31
0.0
  0
LINE
  5
51D
330
50E
100
AcDbEntity
  8
0
  6
Continuous
 62
     0
370
     0
100
AcDbLine
 10
0.0
 20
-18.75
 30
0.0
 11
0.0
 21
-20.0
 31
0.0
  0
LINE
  5
51E
330
50E
100
AcDbEntity
  8
0
  6
Continuous
 62
     0
370
     0
100
AcDbLine
 10
1.25
 20
-17.5
 30
0.0
 11
2.5
 21
-17.5
 31
0.0
  0
LINE
  5
51F
330
50E
100
AcDbEntity
  8
0
  6
Continuous
 62
     0
370
     0
100
AcDbLine
 10
0.0
 20
-16.25
 30
0.0
 11
0.0
 21
-15.0
 31
0.0
  0
LINE
  5
520
330
50E
100
AcDbEntity
  8
0
  6
Continuous
 62
     0
370
     0
100
AcDbLine
 10
-1.25
 20
-17.5
 30
0.0
 11
-2.5
 21
-17.5
 31
0.0
  0
ENDBLK
  5
510
330
50E
100
AcDbEntity
  8
0
100
AcDbBlockEnd
  0
BLOCK
  5
523
330
522
100
AcDbEntity
  8
0
100
AcDbBlockBegin
  2
SW_CENTERMARKSYMBOL_19
 70
     0
 10
0.0
 20
0.0
 30
0.0
  3
SW_CENTERMARKSYMBOL_19
  1

  0
LINE
  5
525
330
522
100
AcDbEntity
  8
0
  6
Continuous
 62
     0
370
     0
100
AcDbLine
 10
0.0
 20
0.0
 30
0.0
 11
0.0
 21
-1.25
 31
0.0
  0
LINE
  5
526
330
522
100
AcDbEntity
  8
0
  6
Continuous
 62
     0
370
     0
100
AcDbLine
 10
0.0
 20
0.0
 30
0.0
 11
1.25
 21
0.0
 31
0.0
  0
LINE
  5
527
330
522
100
AcDbEntity
  8
0
  6
Continuous
 62
     0
370
     0
100
AcDbLine
 10
0.0
 20
0.0
 30
0.0
 11
0.0
 21
1.25
 31
0.0
  0
LINE
  5
528
330
522
100
AcDbEntity
  8
0
  6
Continuous
 62
     0
370
     0
100
AcDbLine
 10
0.0
 20
0.0
 30
0.0
 11
-1.25
 21
0.0
 31
0.0
  0
LINE
  5
529
330
522
100
AcDbEntity
  8
0
  6
Continuous
 62
     0
370
     0
100
AcDbLine
 10
0.0
 20
-1.25
 30
0.0
 11
0.0
 21
-2.5
 31
0.0
  0
LINE
  5
52A
330
522
100
AcDbEntity
  8
0
  6
Continuous
 62
     0
370
     0
100
AcDbLine
 10
1.25
 20
0.0
 30
0.0
 11
2.5
 21
0.0
 31
0.0
  0
LINE
  5
52B
330
522
100
AcDbEntity
  8
0
  6
Continuous
 62
     0
370
     0
100
AcDbLine
 10
0.0
 20
1.25
 30
0.0
 11
0.0
 21
2.5
 31
0.0
  0
LINE
  5
52C
330
522
100
AcDbEntity
  8
0
  6
Continuous
 62
     0
370
     0
100
AcDbLine
 10
-1.25
 20
0.0
 30
0.0
 11
-2.5
 21
0.0
 31
0.0
  0
LINE
  5
52D
330
522
100
AcDbEntity
  8
0
  6
Continuous
 62
     0
370
     0
100
AcDbLine
 10
0.0
 20
-17.5
 30
0.0
 11
0.0
 21
-18.75
 31
0.0
  0
LINE
  5
52E
330
522
100
AcDbEntity
  8
0
  6
Continuous
 62
     0
370
     0
100
AcDbLine
 10
0.0
 20
-17.5
 30
0.0
 11
1.25
 21
-17.5
 31
0.0
  0
LINE
  5
52F
330
522
100
AcDbEntity
  8
0
  6
Continuous
 62
     0
370
     0
100
AcDbLine
 10
0.0
 20
-17.5
 30
0.0
 11
0.0
 21
-16.25
 31
0.0
  0
LINE
  5
530
330
522
100
AcDbEntity
  8
0
  6
Continuous
 62
     0
370
     0
100
AcDbLine
 10
0.0
 20
-17.5
 30
0.0
 11
-1.25
 21
-17.5
 31
0.0
  0
LINE
  5
531
330
522
100
AcDbEntity
  8
0
  6
Continuous
 62
     0
370
     0
100
AcDbLine
 10
0.0
 20
-18.75
 30
0.0
 11
0.0
 21
-20.0
 31
0.0
  0
LINE
  5
532
330
522
100
AcDbEntity
  8
0
  6
Continuous
 62
     0
370
     0
100
AcDbLine
 10
1.25
 20
-17.5
 30
0.0
 11
2.5
 21
-17.5
 31
0.0
  0
LINE
  5
533
330
522
100
AcDbEntity
  8
0
  6
Continuous
 62
     0
370
     0
100
AcDbLine
 10
0.0
 20
-16.25
 30
0.0
 11
0.0
 21
-15.0
 31
0.0
  0
LINE
  5
534
330
522
100
AcDbEntity
  8
0
  6
Continuous
 62
     0
370
     0
100
AcDbLine
 10
-1.25
 20
-17.5
 30
0.0
 11
-2.5
 21
-17.5
 31
0.0
  0
ENDBLK
  5
524
330
522
100
AcDbEntity
  8
0
100
AcDbBlockEnd
  0
BLOCK
  5
537
330
536
100
AcDbEntity
  8
0
100
AcDbBlockBegin
  2
SW_CENTERMARKSYMBOL_20
 70
     0
 10
0.0
 20
0.0
 30
0.0
  3
SW_CENTERMARKSYMBOL_20
  1

  0
LINE
  5
539
330
536
100
AcDbEntity
  8
0
  6
Continuous
 62
     0
370
     0
100
AcDbLine
 10
0.0
 20
0.0
 30
0.0
 11
0.0
 21
-1.25
 31
0.0
  0
LINE
  5
53A
330
536
100
AcDbEntity
  8
0
  6
Continuous
 62
     0
370
     0
100
AcDbLine
 10
0.0
 20
0.0
 30
0.0
 11
1.25
 21
0.0
 31
0.0
  0
LINE
  5
53B
330
536
100
AcDbEntity
  8
0
  6
Continuous
 62
     0
370
     0
100
AcDbLine
 10
0.0
 20
0.0
 30
0.0
 11
0.0
 21
1.25
 31
0.0
  0
LINE
  5
53C
330
536
100
AcDbEntity
  8
0
  6
Continuous
 62
     0
370
     0
100
AcDbLine
 10
0.0
 20
0.0
 30
0.0
 11
-1.25
 21
0.0
 31
0.0
  0
LINE
  5
53D
330
536
100
AcDbEntity
  8
0
  6
Continuous
 62
     0
370
     0
100
AcDbLine
 10
0.0
 20
-1.25
 30
0.0
 11
0.0
 21
-2.5
 31
0.0
  0
LINE
  5
53E
330
536
100
AcDbEntity
  8
0
  6
Continuous
 62
     0
370
     0
100
AcDbLine
 10
1.25
 20
0.0
 30
0.0
 11
2.5
 21
0.0
 31
0.0
  0
LINE
  5
53F
330
536
100
AcDbEntity
  8
0
  6
Continuous
 62
     0
370
     0
100
AcDbLine
 10
0.0
 20
1.25
 30
0.0
 11
0.0
 21
2.5
 31
0.0
  0
LINE
  5
540
330
536
100
AcDbEntity
  8
0
  6
Continuous
 62
     0
370
     0
100
AcDbLine
 10
-1.25
 20
0.0
 30
0.0
 11
-2.5
 21
0.0
 31
0.0
  0
LINE
  5
541
330
536
100
AcDbEntity
  8
0
  6
Continuous
 62
     0
370
     0
100
AcDbLine
 10
0.0
 20
-17.5
 30
0.0
 11
0.0
 21
-18.75
 31
0.0
  0
LINE
  5
542
330
536
100
AcDbEntity
  8
0
  6
Continuous
 62
     0
370
     0
100
AcDbLine
 10
0.0
 20
-17.5
 30
0.0
 11
1.25
 21
-17.5
 31
0.0
  0
LINE
  5
543
330
536
100
AcDbEntity
  8
0
  6
Continuous
 62
     0
370
     0
100
AcDbLine
 10
0.0
 20
-17.5
 30
0.0
 11
0.0
 21
-16.25
 31
0.0
  0
LINE
  5
544
330
536
100
AcDbEntity
  8
0
  6
Continuous
 62
     0
370
     0
100
AcDbLine
 10
0.0
 20
-17.5
 30
0.0
 11
-1.25
 21
-17.5
 31
0.0
  0
LINE
  5
545
330
536
100
AcDbEntity
  8
0
  6
Continuous
 62
     0
370
     0
100
AcDbLine
 10
0.0
 20
-18.75
 30
0.0
 11
0.0
 21
-20.0
 31
0.0
  0
LINE
  5
546
330
536
100
AcDbEntity
  8
0
  6
Continuous
 62
     0
370
     0
100
AcDbLine
 10
1.25
 20
-17.5
 30
0.0
 11
2.5
 21
-17.5
 31
0.0
  0
LINE
  5
547
330
536
100
AcDbEntity
  8
0
  6
Continuous
 62
     0
370
     0
100
AcDbLine
 10
0.0
 20
-16.25
 30
0.0
 11
0.0
 21
-15.0
 31
0.0
  0
LINE
  5
548
330
536
100
AcDbEntity
  8
0
  6
Continuous
 62
     0
370
     0
100
AcDbLine
 10
-1.25
 20
-17.5
 30
0.0
 11
-2.5
 21
-17.5
 31
0.0
  0
ENDBLK
  5
538
330
536
100
AcDbEntity
  8
0
100
AcDbBlockEnd
  0
BLOCK
  5
54B
330
54A
100
AcDbEntity
  8
0
100
AcDbBlockBegin
  2
SW_CENTERMARKSYMBOL_21
 70
     0
 10
0.0
 20
0.0
 30
0.0
  3
SW_CENTERMARKSYMBOL_21
  1

  0
LINE
  5
54D
330
54A
100
AcDbEntity
  8
0
  6
Continuous
 62
     0
370
     0
100
AcDbLine
 10
0.0
 20
0.0
 30
0.0
 11
0.0
 21
-1.25
 31
0.0
  0
LINE
  5
54E
330
54A
100
AcDbEntity
  8
0
  6
Continuous
 62
     0
370
     0
100
AcDbLine
 10
0.0
 20
0.0
 30
0.0
 11
1.25
 21
0.0
 31
0.0
  0
LINE
  5
54F
330
54A
100
AcDbEntity
  8
0
  6
Continuous
 62
     0
370
     0
100
AcDbLine
 10
0.0
 20
0.0
 30
0.0
 11
0.0
 21
1.25
 31
0.0
  0
LINE
  5
550
330
54A
100
AcDbEntity
  8
0
  6
Continuous
 62
     0
370
     0
100
AcDbLine
 10
0.0
 20
0.0
 30
0.0
 11
-1.25
 21
0.0
 31
0.0
  0
LINE
  5
551
330
54A
100
AcDbEntity
  8
0
  6
Continuous
 62
     0
370
     0
100
AcDbLine
 10
0.0
 20
-1.25
 30
0.0
 11
0.0
 21
-2.5
 31
0.0
  0
LINE
  5
552
330
54A
100
AcDbEntity
  8
0
  6
Continuous
 62
     0
370
     0
100
AcDbLine
 10
1.25
 20
0.0
 30
0.0
 11
2.5
 21
0.0
 31
0.0
  0
LINE
  5
553
330
54A
100
AcDbEntity
  8
0
  6
Continuous
 62
     0
370
     0
100
AcDbLine
 10
0.0
 20
1.25
 30
0.0
 11
0.0
 21
2.5
 31
0.0
  0
LINE
  5
554
330
54A
100
AcDbEntity
  8
0
  6
Continuous
 62
     0
370
     0
100
AcDbLine
 10
-1.25
 20
0.0
 30
0.0
 11
-2.5
 21
0.0
 31
0.0
  0
LINE
  5
555
330
54A
100
AcDbEntity
  8
0
  6
Continuous
 62
     0
370
     0
100
AcDbLine
 10
0.0
 20
-17.5
 30
0.0
 11
0.0
 21
-18.75
 31
0.0
  0
LINE
  5
556
330
54A
100
AcDbEntity
  8
0
  6
Continuous
 62
     0
370
     0
100
AcDbLine
 10
0.0
 20
-17.5
 30
0.0
 11
1.25
 21
-17.5
 31
0.0
  0
LINE
  5
557
330
54A
100
AcDbEntity
  8
0
  6
Continuous
 62
     0
370
     0
100
AcDbLine
 10
0.0
 20
-17.5
 30
0.0
 11
0.0
 21
-16.25
 31
0.0
  0
LINE
  5
558
330
54A
100
AcDbEntity
  8
0
  6
Continuous
 62
     0
370
     0
100
AcDbLine
 10
0.0
 20
-17.5
 30
0.0
 11
-1.25
 21
-17.5
 31
0.0
  0
LINE
  5
559
330
54A
100
AcDbEntity
  8
0
  6
Continuous
 62
     0
370
     0
100
AcDbLine
 10
0.0
 20
-18.75
 30
0.0
 11
0.0
 21
-20.0
 31
0.0
  0
LINE
  5
55A
330
54A
100
AcDbEntity
  8
0
  6
Continuous
 62
     0
370
     0
100
AcDbLine
 10
1.25
 20
-17.5
 30
0.0
 11
2.5
 21
-17.5
 31
0.0
  0
LINE
  5
55B
330
54A
100
AcDbEntity
  8
0
  6
Continuous
 62
     0
370
     0
100
AcDbLine
 10
0.0
 20
-16.25
 30
0.0
 11
0.0
 21
-15.0
 31
0.0
  0
LINE
  5
55C
330
54A
100
AcDbEntity
  8
0
  6
Continuous
 62
     0
370
     0
100
AcDbLine
 10
-1.25
 20
-17.5
 30
0.0
 11
-2.5
 21
-17.5
 31
0.0
  0
ENDBLK
  5
54C
330
54A
100
AcDbEntity
  8
0
100
AcDbBlockEnd
  0
BLOCK
  5
55F
330
55E
100
AcDbEntity
  8
0
100
AcDbBlockBegin
  2
SW_CENTERMARKSYMBOL_22
 70
     0
 10
0.0
 20
0.0
 30
0.0
  3
SW_CENTERMARKSYMBOL_22
  1

  0
LINE
  5
561
330
55E
100
AcDbEntity
  8
0
  6
Continuous
 62
     0
370
     0
100
AcDbLine
 10
0.0
 20
0.0
 30
0.0
 11
0.0
 21
-1.25
 31
0.0
  0
LINE
  5
562
330
55E
100
AcDbEntity
  8
0
  6
Continuous
 62
     0
370
     0
100
AcDbLine
 10
0.0
 20
0.0
 30
0.0
 11
1.25
 21
0.0
 31
0.0
  0
LINE
  5
563
330
55E
100
AcDbEntity
  8
0
  6
Continuous
 62
     0
370
     0
100
AcDbLine
 10
0.0
 20
0.0
 30
0.0
 11
0.0
 21
1.25
 31
0.0
  0
LINE
  5
564
330
55E
100
AcDbEntity
  8
0
  6
Continuous
 62
     0
370
     0
100
AcDbLine
 10
0.0
 20
0.0
 30
0.0
 11
-1.25
 21
0.0
 31
0.0
  0
LINE
  5
565
330
55E
100
AcDbEntity
  8
0
  6
Continuous
 62
     0
370
     0
100
AcDbLine
 10
0.0
 20
-1.25
 30
0.0
 11
0.0
 21
-2.5
 31
0.0
  0
LINE
  5
566
330
55E
100
AcDbEntity
  8
0
  6
Continuous
 62
     0
370
     0
100
AcDbLine
 10
1.25
 20
0.0
 30
0.0
 11
2.5
 21
0.0
 31
0.0
  0
LINE
  5
567
330
55E
100
AcDbEntity
  8
0
  6
Continuous
 62
     0
370
     0
100
AcDbLine
 10
0.0
 20
1.25
 30
0.0
 11
0.0
 21
2.5
 31
0.0
  0
LINE
  5
568
330
55E
100
AcDbEntity
  8
0
  6
Continuous
 62
     0
370
     0
100
AcDbLine
 10
-1.25
 20
0.0
 30
0.0
 11
-2.5
 21
0.0
 31
0.0
  0
LINE
  5
569
330
55E
100
AcDbEntity
  8
0
  6
Continuous
 62
     0
370
     0
100
AcDbLine
 10
0.0
 20
-17.5
 30
0.0
 11
0.0
 21
-18.75
 31
0.0
  0
LINE
  5
56A
330
55E
100
AcDbEntity
  8
0
  6
Continuous
 62
     0
370
     0
100
AcDbLine
 10
0.0
 20
-17.5
 30
0.0
 11
1.25
 21
-17.5
 31
0.0
  0
LINE
  5
56B
330
55E
100
AcDbEntity
  8
0
  6
Continuous
 62
     0
370
     0
100
AcDbLine
 10
0.0
 20
-17.5
 30
0.0
 11
0.0
 21
-16.25
 31
0.0
  0
LINE
  5
56C
330
55E
100
AcDbEntity
  8
0
  6
Continuous
 62
     0
370
     0
100
AcDbLine
 10
0.0
 20
-17.5
 30
0.0
 11
-1.25
 21
-17.5
 31
0.0
  0
LINE
  5
56D
330
55E
100
AcDbEntity
  8
0
  6
Continuous
 62
     0
370
     0
100
AcDbLine
 10
0.0
 20
-18.75
 30
0.0
 11
0.0
 21
-20.0
 31
0.0
  0
LINE
  5
56E
330
55E
100
AcDbEntity
  8
0
  6
Continuous
 62
     0
370
     0
100
AcDbLine
 10
1.25
 20
-17.5
 30
0.0
 11
2.5
 21
-17.5
 31
0.0
  0
LINE
  5
56F
330
55E
100
AcDbEntity
  8
0
  6
Continuous
 62
     0
370
     0
100
AcDbLine
 10
0.0
 20
-16.25
 30
0.0
 11
0.0
 21
-15.0
 31
0.0
  0
LINE
  5
570
330
55E
100
AcDbEntity
  8
0
  6
Continuous
 62
     0
370
     0
100
AcDbLine
 10
-1.25
 20
-17.5
 30
0.0
 11
-2.5
 21
-17.5
 31
0.0
  0
ENDBLK
  5
560
330
55E
100
AcDbEntity
  8
0
100
AcDbBlockEnd
  0
ENDSEC
  0
SECTION
  2
ENTITIES
  0
LINE
  5
FA
330
1F
100
AcDbEntity
  8
LINIEN-DÜNN
  6
CENTERX2
100
AcDbLine
 10
352.6174545849
 20
46.9080238789
 30
0.0
 11
352.6174545849
 21
39.4621586124
 31
0.0
  0
LINE
  5
FB
330
1F
100
AcDbEntity
  8
LINIEN-DÜNN
100
AcDbLine
 10
357.7661698132
 20
46.3720107039
 30
0.0
 11
357.7661698132
 21
39.9353173413
 31
0.0
  0
LINE
  5
FC
330
1F
100
AcDbEntity
  8
LINIEN-DÜNN
100
AcDbLine
 10
364.6059427486
 20
44.7376225767
 30
0.0
 11
364.6059427486
 21
41.5697054685
 31
0.0
  0
LINE
  5
FD
330
1F
100
AcDbEntity
  8
LINIEN-DÜNN
100
AcDbLine
 10
364.6059427486
 20
44.7376225767
 30
0.0
 11
357.7661698132
 21
46.3720107039
 31
0.0
  0
LINE
  5
FE
330
1F
100
AcDbEntity
  8
LINIEN-DÜNN
100
AcDbLine
 10
15.0
 20
198.5
 30
0.0
 11
20.0
 21
198.5
 31
0.0
  0
LINE
  5
FF
330
1F
100
AcDbEntity
  8
LINIEN-DÜNN
100
AcDbLine
 10
12.0
 20
148.5
 30
0.0
 11
0.0
 21
148.5
 31
0.0
  0
LINE
  5
100
330
1F
100
AcDbEntity
  8
LINIEN-DÜNN
100
AcDbLine
 10
357.7661698132
 20
39.9353173413
 30
0.0
 11
364.6059427486
 21
41.5697054685
 31
0.0
  0
LINE
  5
101
330
1F
100
AcDbEntity
  8
LINIEN-DÜNN
  6
CENTERX2
100
AcDbLine
 10
348.6240467841
 20
43.1536640226
 30
0.0
 11
356.6108623857
 21
43.1536640226
 31
0.0
  0
LINE
  5
102
330
1F
100
AcDbEntity
  8
LINIEN-DÜNN
  6
CENTERX2
100
AcDbLine
 10
357.1289238876
 20
43.1536640226
 30
0.0
 11
365.6255362296
 21
43.1536640226
 31
0.0
  0
LINE
  5
103
330
1F
100
AcDbEntity
  8
LINIEN-DÜNN
100
AcDbLine
 10
0.0
 20
0.0
 30
0.0
 11
420.0
 21
0.0
 31
0.0
  0
LINE
  5
104
330
1F
100
AcDbEntity
  8
LINIEN-DÜNN
100
AcDbLine
 10
0.0
 20
0.0
 30
0.0
 11
0.0
 21
297.0
 31
0.0
  0
LINE
  5
105
330
1F
100
AcDbEntity
  8
LINIEN-DÜNN
100
AcDbLine
 10
0.0
 20
297.0
 30
0.0
 11
420.0
 21
297.0
 31
0.0
  0
LINE
  5
106
330
1F
100
AcDbEntity
  8
LINIEN-DÜNN
100
AcDbLine
 10
420.0
 20
0.0
 30
0.0
 11
420.0
 21
297.0
 31
0.0
  0
LINE
  5
107
330
1F
100
AcDbEntity
  8
LINIEN-NORMAL
100
AcDbLine
 10
228.0
 20
35.0
 30
0.0
 11
410.0
 21
35.0
 31
0.0
  0
LINE
  5
108
330
1F
100
AcDbEntity
  8
LINIEN-DÜNN
100
AcDbLine
 10
410.0
 20
198.5
 30
0.0
 11
415.0
 21
198.5
 31
0.0
  0
LINE
  5
109
330
1F
100
AcDbEntity
  8
LINIEN-DÜNN
100
AcDbLine
 10
15.0
 20
148.5
 30
0.0
 11
20.0
 21
148.5
 31
0.0
  0
LINE
  5
10A
330
1F
100
AcDbEntity
  8
LINIEN-DÜNN
100
AcDbLine
 10
228.0
 20
40.0
 30
0.0
 11
296.6
 21
40.0
 31
0.0
  0
LINE
  5
10B
330
1F
100
AcDbEntity
  8
LINIEN-DÜNN
100
AcDbLine
 10
15.0
 20
248.5
 30
0.0
 11
20.0
 21
248.5
 31
0.0
  0
LINE
  5
10C
330
1F
100
AcDbEntity
  8
LINIEN-DICK
100
AcDbLine
 10
20.0
 20
287.0
 30
0.0
 11
20.0
 21
10.0
 31
0.0
  0
LINE
  5
10D
330
1F
100
AcDbEntity
  8
LINIEN-DICK
100
AcDbLine
 10
410.0
 20
287.0
 30
0.0
 11
20.0
 21
287.0
 31
0.0
  0
LINE
  5
10E
330
1F
100
AcDbEntity
  8
LINIEN-DICK
100
AcDbLine
 10
410.0
 20
5.0
 30
0.0
 11
410.0
 21
287.0
 31
0.0
  0
LINE
  5
10F
330
1F
100
AcDbEntity
  8
LINIEN-DICK
100
AcDbLine
 10
20.0
 20
10.0
 30
0.0
 11
415.0
 21
10.0
 31
0.0
  0
LINE
  5
110
330
1F
100
AcDbEntity
  8
LINIEN-DÜNN
100
AcDbLine
 10
410.0
 20
148.5
 30
0.0
 11
415.0
 21
148.5
 31
0.0
  0
LINE
  5
111
330
1F
100
AcDbEntity
  8
LINIEN-DÜNN
100
AcDbLine
 10
228.0
 20
50.0
 30
0.0
 11
296.6
 21
50.0
 31
0.0
  0
LINE
  5
112
330
1F
100
AcDbEntity
  8
LINIEN-DÜNN
100
AcDbLine
 10
15.0
 20
98.5
 30
0.0
 11
20.0
 21
98.5
 31
0.0
  0
LINE
  5
113
330
1F
100
AcDbEntity
  8
LINIEN-DÜNN
100
AcDbLine
 10
296.6
 20
45.0
 30
0.0
 11
228.0
 21
45.0
 31
0.0
  0
LINE
  5
114
330
1F
100
AcDbEntity
  8
LINIEN-DÜNN
100
AcDbLine
 10
65.0
 20
292.0
 30
0.0
 11
65.0
 21
287.0
 31
0.0
  0
LINE
  5
115
330
1F
100
AcDbEntity
  8
LINIEN-DÜNN
100
AcDbLine
 10
230.0
 20
292.0
 30
0.0
 11
230.0
 21
297.0
 31
0.0
  0
LINE
  5
116
330
1F
100
AcDbEntity
  8
LINIEN-NORMAL
100
AcDbLine
 10
296.6
 20
55.0
 30
0.0
 11
296.6
 21
35.0
 31
0.0
  0
LINE
  5
117
330
1F
100
AcDbEntity
  8
LINIEN-DÜNN
100
AcDbLine
 10
410.0
 20
98.5
 30
0.0
 11
415.0
 21
98.5
 31
0.0
  0
LINE
  5
118
330
1F
100
AcDbEntity
  8
VORLAGE_BEMASSUNG
100
AcDbLine
 10
230.0
 20
5.0
 30
0.0
 11
230.0
 21
0.0
 31
0.0
  0
LINE
  5
119
330
1F
100
AcDbEntity
  8
LINIEN-DÜNN
100
AcDbLine
 10
125.0
 20
292.0
 30
0.0
 11
125.0
 21
297.0
 31
0.0
  0
LINE
  5
11A
330
1F
100
AcDbEntity
  8
LINIEN-DÜNN
100
AcDbLine
 10
125.0
 20
5.0
 30
0.0
 11
125.0
 21
0.0
 31
0.0
  0
LINE
  5
11B
330
1F
100
AcDbEntity
  8
LINIEN-NORMAL
100
AcDbLine
 10
410.0
 20
55.0
 30
0.0
 11
228.0
 21
55.0
 31
0.0
  0
LINE
  5
11C
330
1F
100
AcDbEntity
  8
LINIEN-DÜNN
100
AcDbLine
 10
228.0
 20
55.0
 30
0.0
 11
410.0
 21
55.0
 31
0.0
  0
LINE
  5
11D
330
1F
100
AcDbEntity
  8
LINIEN-DÜNN
100
AcDbLine
 10
410.0
 20
55.0
 30
0.0
 11
228.0
 21
55.0
 31
0.0
  0
LINE
  5
11E
330
1F
100
AcDbEntity
  8
LINIEN-DÜNN
100
AcDbLine
 10
268.0
 20
76.5
 30
0.0
 11
268.0
 21
55.0
 31
0.0
  0
LINE
  5
11F
330
1F
100
AcDbEntity
  8
LINIEN-DÜNN
100
AcDbLine
 10
271.6
 20
55.0
 30
0.0
 11
271.6
 21
40.0
 31
0.0
  0
LINE
  5
120
330
1F
100
AcDbEntity
  8
LINIEN-DÜNN
100
AcDbLine
 10
247.0
 20
55.0
 30
0.0
 11
247.0
 21
35.0
 31
0.0
  0
LINE
  5
121
330
1F
100
AcDbEntity
  8
LINIEN-DICK
100
AcDbLine
 10
228.0
 20
76.5
 30
0.0
 11
228.0
 21
10.0
 31
0.0
  0
LINE
  5
122
330
1F
100
AcDbEntity
  8
LINIEN-DÜNN
100
AcDbLine
 10
15.0
 20
292.0
 30
0.0
 11
415.0
 21
292.0
 31
0.0
  0
LINE
  5
123
330
1F
100
AcDbEntity
  8
LINIEN-DÜNN
100
AcDbLine
 10
228.0
 20
65.75
 30
0.0
 11
310.0
 21
65.75
 31
0.0
  0
LINE
  5
124
330
1F
100
AcDbEntity
  8
LINIEN-DICK
100
AcDbLine
 10
228.0
 20
76.5
 30
0.0
 11
410.0
 21
76.5
 31
0.0
  0
LINE
  5
125
330
1F
100
AcDbEntity
  8
LINIEN-DÜNN
100
AcDbLine
 10
15.0
 20
48.5
 30
0.0
 11
20.0
 21
48.5
 31
0.0
  0
LINE
  5
126
330
1F
100
AcDbEntity
  8
LINIEN-DÜNN
100
AcDbLine
 10
410.0
 20
48.5
 30
0.0
 11
415.0
 21
48.5
 31
0.0
  0
LINE
  5
127
330
1F
100
AcDbEntity
  8
LINIEN-DÜNN
100
AcDbLine
 10
332.6610845472
 20
20.0
 30
0.0
 11
332.6610845472
 21
10.0
 31
0.0
  0
LINE
  5
128
330
1F
100
AcDbEntity
  8
LINIEN-DÜNN
100
AcDbLine
 10
410.0
 20
248.5
 30
0.0
 11
415.0
 21
248.5
 31
0.0
  0
LINE
  5
129
330
1F
100
AcDbEntity
  8
LINIEN-DÜNN
100
AcDbLine
 10
65.0
 20
10.0
 30
0.0
 11
65.0
 21
5.0
 31
0.0
  0
LINE
  5
12A
330
1F
100
AcDbEntity
  8
LINIEN-DÜNN
100
AcDbLine
 10
115.0
 20
10.0
 30
0.0
 11
115.0
 21
5.0
 31
0.0
  0
LINE
  5
12B
330
1F
100
AcDbEntity
  8
LINIEN-DÜNN
100
AcDbLine
 10
115.0
 20
292.0
 30
0.0
 11
115.0
 21
287.0
 31
0.0
  0
LINE
  5
12C
330
1F
100
AcDbEntity
  8
LINIEN-DÜNN
100
AcDbLine
 10
165.0
 20
10.0
 30
0.0
 11
165.0
 21
5.0
 31
0.0
  0
LINE
  5
12D
330
1F
100
AcDbEntity
  8
LINIEN-DÜNN
100
AcDbLine
 10
165.0
 20
292.0
 30
0.0
 11
165.0
 21
287.0
 31
0.0
  0
LINE
  5
12E
330
1F
100
AcDbEntity
  8
LINIEN-DÜNN
100
AcDbLine
 10
215.0
 20
10.0
 30
0.0
 11
215.0
 21
5.0
 31
0.0
  0
LINE
  5
12F
330
1F
100
AcDbEntity
  8
LINIEN-DÜNN
100
AcDbLine
 10
215.0
 20
292.0
 30
0.0
 11
215.0
 21
287.0
 31
0.0
  0
LINE
  5
130
330
1F
100
AcDbEntity
  8
LINIEN-DÜNN
100
AcDbLine
 10
265.0
 20
10.0
 30
0.0
 11
265.0
 21
5.0
 31
0.0
  0
LINE
  5
131
330
1F
100
AcDbEntity
  8
LINIEN-DÜNN
100
AcDbLine
 10
265.0
 20
292.0
 30
0.0
 11
265.0
 21
287.0
 31
0.0
  0
LINE
  5
132
330
1F
100
AcDbEntity
  8
LINIEN-DÜNN
100
AcDbLine
 10
347.6610845472
 20
20.0
 30
0.0
 11
347.6610845472
 21
10.0
 31
0.0
  0
LINE
  5
133
330
1F
100
AcDbEntity
  8
LINIEN-DÜNN
100
AcDbLine
 10
362.6610845472
 20
20.0
 30
0.0
 11
362.6610845472
 21
10.0
 31
0.0
  0
LINE
  5
134
330
1F
100
AcDbEntity
  8
LINIEN-NORMAL
100
AcDbLine
 10
327.6610845472
 20
10.0
 30
0.0
 11
327.6610845472
 21
55.0
 31
0.0
  0
LINE
  5
135
330
1F
100
AcDbEntity
  8
LINIEN-DÜNN
100
AcDbLine
 10
20.0
 20
292.0
 30
0.0
 11
20.0
 21
297.0
 31
0.0
  0
LINE
  5
136
330
1F
100
AcDbEntity
  8
LINIEN-DÜNN
100
AcDbLine
 10
20.0
 20
5.0
 30
0.0
 11
20.0
 21
0.0
 31
0.0
  0
LINE
  5
137
330
1F
100
AcDbEntity
  8
LINIEN-DÜNN
100
AcDbLine
 10
315.0
 20
10.0
 30
0.0
 11
315.0
 21
5.0
 31
0.0
  0
LINE
  5
138
330
1F
100
AcDbEntity
  8
LINIEN-DÜNN
100
AcDbLine
 10
315.0
 20
292.0
 30
0.0
 11
315.0
 21
287.0
 31
0.0
  0
LINE
  5
139
330
1F
100
AcDbEntity
  8
LINIEN-DÜNN
100
AcDbLine
 10
365.0
 20
10.0
 30
0.0
 11
365.0
 21
5.0
 31
0.0
  0
LINE
  5
13A
330
1F
100
AcDbEntity
  8
LINIEN-DÜNN
100
AcDbLine
 10
365.0
 20
292.0
 30
0.0
 11
365.0
 21
287.0
 31
0.0
  0
LINE
  5
13B
330
1F
100
AcDbEntity
  8
LINIEN-DÜNN
100
AcDbLine
 10
15.0
 20
292.0
 30
0.0
 11
15.0
 21
5.0
 31
0.0
  0
LINE
  5
13C
330
1F
100
AcDbEntity
  8
LINIEN-DÜNN
100
AcDbLine
 10
15.0
 20
5.0
 30
0.0
 11
415.0
 21
5.0
 31
0.0
  0
LINE
  5
13D
330
1F
100
AcDbEntity
  8
LINIEN-DÜNN
100
AcDbLine
 10
415.0
 20
292.0
 30
0.0
 11
415.0
 21
5.0
 31
0.0
  0
LINE
  5
13E
330
1F
100
AcDbEntity
  8
LINIEN-DÜNN
100
AcDbLine
 10
347.6610845472
 20
44.213444
 30
0.0
 11
327.6610845472
 21
44.213444
 31
0.0
  0
LINE
  5
13F
330
1F
100
AcDbEntity
  8
LINIEN-DÜNN
100
AcDbLine
 10
347.6610845472
 20
35.0
 30
0.0
 11
347.6610845472
 21
55.0
 31
0.0
  0
LINE
  5
140
330
1F
100
AcDbEntity
  8
LINIEN-DÜNN
100
AcDbLine
 10
370.057188
 20
55.012032
 30
0.0
 11
370.057188
 21
35.0
 31
0.0
  0
LINE
  5
141
330
1F
100
AcDbEntity
  8
LINIEN-DÜNN
100
AcDbLine
 10
398.0
 20
35.0
 30
0.0
 11
398.0
 21
20.0
 31
0.0
  0
LINE
  5
142
330
1F
100
AcDbEntity
  8
LINIEN-DÜNN
100
AcDbLine
 10
410.0
 20
15.0
 30
0.0
 11
327.6610845472
 21
15.0
 31
0.0
  0
LINE
  5
143
330
1F
100
AcDbEntity
  8
LINIEN-DÜNN
100
AcDbLine
 10
327.6610845472
 20
20.0
 30
0.0
 11
410.0
 21
20.0
 31
0.0
  0
LINE
  5
144
330
1F
100
AcDbEntity
  8
LINIEN-DÜNN
100
AcDbLine
 10
341.485486
 20
20.0
 30
0.0
 11
341.485486
 21
27.564675
 31
0.0
  0
LINE
  5
145
330
1F
100
AcDbEntity
  8
LINIEN-NORMAL
100
AcDbLine
 10
310.0
 20
76.5
 30
0.0
 11
310.0
 21
55.0
 31
0.0
  0
CIRCLE
  5
146
330
1F
100
AcDbEntity
  8
LINIEN-DÜNN
100
AcDbCircle
 10
11.0
 20
108.5
 30
0.0
 40
2.750000000000001
  0
CIRCLE
  5
147
330
1F
100
AcDbEntity
  8
LINIEN-DÜNN
100
AcDbCircle
 10
11.0
 20
188.5
 30
0.0
 40
2.750000000000001
  0
CIRCLE
  5
148
330
1F
100
AcDbEntity
  8
LINIEN-DÜNN
100
AcDbCircle
 10
352.6174545849
 20
43.1536640226
 30
0.0
 40
3.218346681300138
  0
CIRCLE
  5
149
330
1F
100
AcDbEntity
  8
LINIEN-DÜNN
100
AcDbCircle
 10
352.6174545849
 20
43.1536640226
 30
0.0
 40
1.583958554121555
  0
INSERT
  5
14A
330
1F
100
AcDbEntity
  8
0
  6
Continuous
 62
     7
100
AcDbBlockReference
  2
ACO-Logo
 10
314.3510726297
 20
57.2426704952
 30
0.0
  0
POINT
  5
14B
330
1F
100
AcDbEntity
  8
0
  6
Continuous
 62
     7
370
     0
100
AcDbPoint
 10
314.3510726297
 20
57.2426704952
 30
0.0
  0
POINT
  5
14C
330
1F
100
AcDbEntity
  8
VORLAGE_BEMASSUNG
100
AcDbPoint
 10
0.0
 20
0.0
 30
0.0
  0
POINT
  5
14D
330
1F
100
AcDbEntity
  8
VORLAGE_BEMASSUNG
100
AcDbPoint
 10
410.0
 20
10.0
 30
0.0
  0
MTEXT
  5
14E
330
1F
100
AcDbEntity
  8
0
  6
Continuous
 62
     7
370
     0
100
AcDbMText
 10
237.2674524463
 20
274.1064990141
 30
0.0
 40
4.2333333333
 41
0.0
 71
     1
 72
     1
  1
Abwicklung
  7
SLDTEXTSTYLE0
 73
     1
 44
1.0
  0
MTEXT
  5
14F
330
1F
100
AcDbEntity
  8
VORLAGE_TEXT
100
AcDbMText
 10
17.7359443114
 20
124.8017866468
 30
0.0
 40
2.0
 41
0.0
 71
     2
 72
     1
  1
D
  7
SLDTEXTSTYLE0
 73
     1
 44
1.0
  0
MTEXT
  5
150
330
1F
100
AcDbEntity
  8
VORLAGE_TEXT
100
AcDbMText
 10
17.6274822413
 20
174.7261854936
 30
0.0
 40
2.0
 41
0.0
 71
     2
 72
     1
  1
C
  7
SLDTEXTSTYLE0
 73
     1
 44
1.0
  0
MTEXT
  5
151
330
1F
100
AcDbEntity
  8
VORLAGE_TEXT
100
AcDbMText
 10
17.5516905072
 20
224.4926420442
 30
0.0
 40
2.0
 41
0.0
 71
     2
 72
     1
  1
B
  7
SLDTEXTSTYLE0
 73
     1
 44
1.0
  0
MTEXT
  5
152
330
1F
100
AcDbEntity
  8
VORLAGE_TEXT
100
AcDbMText
 10
290.0344258799
 20
290.5428789914
 30
0.0
 40
2.0
 41
0.0
 71
     2
 72
     1
  1
6
  7
SLDTEXTSTYLE0
 73
     1
 44
1.0
  0
MTEXT
  5
153
330
1F
100
AcDbEntity
  8
VORLAGE_TEXT
100
AcDbMText
 10
240.0417859812
 20
290.6369260235
 30
0.0
 40
2.0
 41
0.0
 71
     2
 72
     1
  1
5
  7
SLDTEXTSTYLE0
 73
     1
 44
1.0
  0
MTEXT
  5
154
330
1F
100
AcDbEntity
  8
VORLAGE_TEXT
100
AcDbMText
 10
190.0300404524
 20
290.6343268032
 30
0.0
 40
2.0
 41
0.0
 71
     2
 72
     1
  1
4
  7
SLDTEXTSTYLE0
 73
     1
 44
1.0
  0
MTEXT
  5
155
330
1F
100
AcDbEntity
  8
VORLAGE_TEXT
100
AcDbMText
 10
140.0165868337
 20
290.6378887952
 30
0.0
 40
2.0
 41
0.0
 71
     2
 72
     1
  1
3
  7
SLDTEXTSTYLE0
 73
     1
 44
1.0
  0
MTEXT
  5
156
330
1F
100
AcDbEntity
  8
VORLAGE_TEXT
100
AcDbMText
 10
90.033223
 20
290.5566702875
 30
0.0
 40
2.0
 41
0.0
 71
     2
 72
     1
  1
2
  7
SLDTEXTSTYLE0
 73
     1
 44
1.0
  0
MTEXT
  5
157
330
1F
100
AcDbEntity
  8
VORLAGE_TEXT
100
AcDbMText
 10
40.0509551097
 20
290.5530165805
 30
0.0
 40
2.0
 41
0.0
 71
     2
 72
     1
  1
1
  7
SLDTEXTSTYLE0
 73
     1
 44
1.0
  0
MTEXT
  5
158
330
1F
100
AcDbEntity
  8
VORLAGE_TEXT
100
AcDbMText
 10
17.5609786315
 20
271.2966048816
 30
0.0
 40
2.0
 41
0.0
 71
     2
 72
     1
  1
A
  7
SLDTEXTSTYLE0
 73
     1
 44
1.0
  0
MTEXT
  5
159
330
1F
100
AcDbEntity
  8
VORLAGE_TEXT
100
AcDbMText
 10
89.9333968896
 20
8.5904490253
 30
0.0
 40
2.0
 41
0.0
 71
     2
 72
     1
  1
2
  7
SLDTEXTSTYLE0
 73
     1
 44
1.0
  0
MTEXT
  5
15A
330
1F
100
AcDbEntity
  8
VORLAGE_TEXT
100
AcDbMText
 10
39.9009486579
 20
8.6623118453
 30
0.0
 40
2.0
 41
0.0
 71
     2
 72
     1
  1
1
  7
SLDTEXTSTYLE0
 73
     1
 44
1.0
  0
MTEXT
  5
15B
330
1F
100
AcDbEntity
  8
VORLAGE_TEXT
100
AcDbMText
 10
190.0227230239
 20
8.7073169286
 30
0.0
 40
2.0
 41
0.0
 71
     2
 72
     1
  1
4
  7
SLDTEXTSTYLE0
 73
     1
 44
1.0
  0
MTEXT
  5
15C
330
1F
100
AcDbEntity
  8
VORLAGE_TEXT
100
AcDbMText
 10
140.0453427777
 20
8.5647154541
 30
0.0
 40
2.0
 41
0.0
 71
     2
 72
     1
  1
3
  7
SLDTEXTSTYLE0
 73
     1
 44
1.0
  0
MTEXT
  5
15D
330
1F
100
AcDbEntity
  8
VORLAGE_TEXT
100
AcDbMText
 10
239.8749782531
 20
8.5637526825
 30
0.0
 40
2.0
 41
0.0
 71
     2
 72
     1
  1
5
  7
SLDTEXTSTYLE0
 73
     1
 44
1.0
  0
MTEXT
  5
15E
330
1F
100
AcDbEntity
  8
VORLAGE_TEXT
100
AcDbMText
 10
412.6717254925
 20
224.51208263
 30
0.0
 40
2.0
 41
0.0
 71
     2
 72
     1
  1
B
  7
SLDTEXTSTYLE0
 73
     1
 44
1.0
  0
MTEXT
  5
15F
330
1F
100
AcDbEntity
  8
VORLAGE_TEXT
100
AcDbMText
 10
412.5951211154
 20
271.2798202564
 30
0.0
 40
2.0
 41
0.0
 71
     2
 72
     1
  1
A
  7
SLDTEXTSTYLE0
 73
     1
 44
1.0
  0
MTEXT
  5
160
330
1F
100
AcDbEntity
  8
VORLAGE_TEXT
100
AcDbMText
 10
412.6491448679
 20
174.7279841048
 30
0.0
 40
2.0
 41
0.0
 71
     2
 72
     1
  1
C
  7
SLDTEXTSTYLE0
 73
     1
 44
1.0
  0
MTEXT
  5
161
330
1F
100
AcDbEntity
  8
VORLAGE_TEXT
100
AcDbMText
 10
340.0216466634
 20
290.5954278102
 30
0.0
 40
2.0
 41
0.0
 71
     2
 72
     1
  1
7
  7
SLDTEXTSTYLE0
 73
     1
 44
1.0
  0
MTEXT
  5
162
330
1F
100
AcDbEntity
  8
VORLAGE_TEXT
100
AcDbMText
 10
390.037657264
 20
290.6215496941
 30
0.0
 40
2.0
 41
0.0
 71
     2
 72
     1
  1
8
  7
SLDTEXTSTYLE0
 73
     1
 44
1.0
  0
MTEXT
  5
163
330
1F
100
AcDbEntity
  8
VORLAGE_TEXT
100
AcDbMText
 10
17.6897935208
 20
74.7267628143
 30
0.0
 40
2.0
 41
0.0
 71
     2
 72
     1
  1
E
  7
SLDTEXTSTYLE0
 73
     1
 44
1.0
  0
MTEXT
  5
164
330
1F
100
AcDbEntity
  8
VORLAGE_TEXT
100
AcDbMText
 10
17.5936930126
 20
27.773321616
 30
0.0
 40
2.0
 41
0.0
 71
     2
 72
     1
  1
F
  7
SLDTEXTSTYLE0
 73
     1
 44
1.0
  0
MTEXT
  5
165
330
1F
100
AcDbEntity
  8
VORLAGE_TEXT
100
AcDbMText
 10
339.8003474583
 20
8.7205095051
 30
0.0
 40
2.0
 41
0.0
 71
     2
 72
     1
  1
7
  7
SLDTEXTSTYLE0
 73
     1
 44
1.0
  0
MTEXT
  5
166
330
1F
100
AcDbEntity
  8
VORLAGE_TEXT
100
AcDbMText
 10
289.7886477179
 20
8.6884673623
 30
0.0
 40
2.0
 41
0.0
 71
     2
 72
     1
  1
6
  7
SLDTEXTSTYLE0
 73
     1
 44
1.0
  0
MTEXT
  5
167
330
1F
100
AcDbEntity
  8
VORLAGE_TEXT
100
AcDbMText
 10
412.5160699095
 20
74.5096307526
 30
0.0
 40
2.0
 41
0.0
 71
     2
 72
     1
  1
E
  7
SLDTEXTSTYLE0
 73
     1
 44
1.0
  0
MTEXT
  5
168
330
1F
100
AcDbEntity
  8
VORLAGE_TEXT
100
AcDbMText
 10
412.6234021365
 20
124.4517683275
 30
0.0
 40
2.0
 41
0.0
 71
     2
 72
     1
  1
D
  7
SLDTEXTSTYLE0
 73
     1
 44
1.0
  0
MTEXT
  5
169
330
1F
100
AcDbEntity
  8
TEXT-DEUTSCH
100
AcDbMText
 10
411.7952690469
 20
41.918601188
 30
0.0
 40
1.8
 41
0.0
 71
     3
 72
     1
  1
Plotdatum: 19.06.2018
  7
SLDTEXTSTYLE0
 11
-3.269436733918102E-15
 21
1.0
 31
0.0
 73
     1
 44
1.0
  0
MTEXT
  5
16A
330
1F
100
AcDbEntity
  8
VORLAGE_TEXT
100
AcDbMText
 10
412.557933251
 20
8.2549718046
 30
0.0
 40
1.8
 41
0.0
 71
     2
 72
     1
  1
A3
  7
SLDTEXTSTYLE0
 73
     1
 44
1.0
  0
MTEXT
  5
16B
330
1F
100
AcDbEntity
  8
VORLAGE_TEXT
100
AcDbMText
 10
390.594604279
 20
8.3847467643
 30
0.0
 40
1.8
 41
0.0
 71
     2
 72
     1
  1
CAD-System: SolidWorks
  7
SLDTEXTSTYLE0
 73
     1
 44
1.0
  0
MTEXT
  5
16C
330
1F
100
AcDbEntity
  8
TEXT
100
AcDbMText
 10
404.0541923444
 20
28.4394692021
 30
0.0
 40
5.0
 41
0.0
 71
     2
 72
     1
  1
-
  7
SLDTEXTSTYLE0
 73
     1
 44
1.0
  0
MTEXT
  5
16D
330
1F
100
AcDbEntity
  8
TEXT
100
AcDbMText
 10
249.556836311
 20
38.5581729516
 30
0.0
 40
2.0
 41
0.0
 71
     1
 72
     1
  1
Freigegeben
  7
SLDTEXTSTYLE0
 73
     1
 44
1.0
  0
MTEXT
  5
16E
330
1F
100
AcDbEntity
  8
TEXT
100
AcDbMText
 10
284.096264263
 20
43.5473338598
 30
0.0
 40
2.0
 41
0.0
 71
     2
 72
     1
  1
dca
  7
SLDTEXTSTYLE0
 73
     1
 44
1.0
  0
MTEXT
  5
16F
330
1F
100
AcDbEntity
  8
TEXT
100
AcDbMText
 10
249.5284668163
 20
43.5603133928
 30
0.0
 40
2.0
 41
0.0
 71
     1
 72
     1
  1
19.06.2018
  7
SLDTEXTSTYLE0
 73
     1
 44
1.0
  0
MTEXT
  5
170
330
1F
100
AcDbEntity
  8
TEXT
100
AcDbMText
 10
283.7642422588
 20
48.5138972561
 30
0.0
 40
2.0
 41
0.0
 71
     2
 72
     1
  1
gricchiuto
  7
SLDTEXTSTYLE0
 73
     1
 44
1.0
  0
MTEXT
  5
171
330
1F
100
AcDbEntity
  8
TEXT
100
AcDbMText
 10
249.5284668163
 20
48.4989062069
 30
0.0
 40
2.0
 41
0.0
 71
     1
 72
     1
  1
02.05.2018
  7
SLDTEXTSTYLE0
 73
     1
 44
1.0
  0
MTEXT
  5
172
330
1F
100
AcDbEntity
  8
0
  6
Continuous
 62
     7
370
     0
100
AcDbMText
 10
370.655574235
 20
38.8723054925
 30
0.0
 40
1.5
 41
0.0
 71
     1
 72
     1
  1
Copyright reserved! © ACO Passavant AG
  7
SLDTEXTSTYLE0
 73
     1
 44
1.0
  0
INSERT
  5
17B
330
1F
100
AcDbEntity
  8
0
  6
Continuous
 62
     7
370
     0
100
AcDbBlockReference
  2
SW_NOTE_1
 10
372.2203831445
 20
51.2202922854
 30
0.0
  0
MTEXT
  5
17C
330
1F
100
AcDbEntity
  8
TEXT
100
AcDbMText
 10
330.2607505021
 20
18.524501801
 30
0.0
 40
2.0
 41
0.0
 71
     2
 72
     1
  1
-
  7
SLDTEXTSTYLE0
 73
     1
 44
1.0
  0
MTEXT
  5
17D
330
1F
100
AcDbEntity
  8
VORLAGE_TEXT
100
AcDbMText
 10
311.764909851
 20
46.3490312465
 30
0.0
 40
5.0
 41
0.0
 71
     2
 72
     1
  1
1:1
  7
SLDTEXTSTYLE0
 73
     1
 44
1.0
  0
MTEXT
  5
17E
330
1F
100
AcDbEntity
  8
VORLAGE_TEXT
100
AcDbMText
 10
230.1851195342
 20
38.7793829468
 30
0.0
 40
2.0
 41
0.0
 71
     1
 72
     1
  1
Status:
  7
SLDTEXTSTYLE0
 73
     1
 44
1.0
  0
MTEXT
  5
17F
330
1F
100
AcDbEntity
  8
TEXT
100
AcDbMText
 10
344.926838705
 20
28.2772828851
 30
0.0
 40
5.0
 41
0.0
 71
     1
 72
     1
  1
16190
  7
SLDTEXTSTYLE0
 73
     1
 44
1.0
  0
MTEXT
  5
180
330
1F
100
AcDbEntity
  8
TEXT
100
AcDbMText
 10
231.1132118803
 20
14.9211049657
 30
0.0
 40
2.5
 41
0.0
 71
     1
 72
     1
  1
Art. Nr.: 16190
  7
SLDTEXTSTYLE0
 73
     1
 44
1.0
  0
MTEXT
  5
181
330
1F
100
AcDbEntity
  8
TEXT
100
AcDbMText
 10
231.1475981734
 20
21.4529560996
 30
0.0
 40
2.5
 41
0.0
 71
     1
 72
     1
  1
Schlammeimer
  7
SLDTEXTSTYLE0
 73
     1
 44
1.0
  0
MTEXT
  5
182
330
1F
100
AcDbEntity
  8
TEXT
100
AcDbMText
 10
231.1159560181
 20
33.0904969858
 30
0.0
 40
2.5
 41
0.0
 71
     1
 72
     1
  1
Bauelemente
  7
SLDTEXTSTYLE0
 73
     1
 44
1.0
  0
MTEXT
  5
183
330
1F
100
AcDbEntity
  8
TEXT
100
AcDbMText
 10
231.1475981734
 20
28.0307932366
 30
0.0
 40
3.5
 41
0.0
 71
     1
 72
     1
  1
Multiline V100
  7
SLDTEXTSTYLE0
 73
     1
 44
1.0
  0
MTEXT
  5
184
330
1F
100
AcDbEntity
  8
VORLAGE_TEXT
100
AcDbMText
 10
348.2746465368
 20
53.819119072
 30
0.0
 40
2.0
 41
0.0
 71
     1
 72
     1
  1
Projektion: ISO-E
  7
SLDTEXTSTYLE0
 73
     1
 44
1.0
  0
MTEXT
  5
185
330
1F
100
AcDbEntity
  8
TEXT
100
AcDbMText
 10
337.7677091855
 20
49.3670227094
 30
0.0
 40
2.5
 41
0.0
 71
     2
 72
     1
  1
Millimeter
  7
SLDTEXTSTYLE0
 73
     1
 44
1.0
  0
MTEXT
  5
186
330
1F
100
AcDbEntity
  8
VORLAGE_TEXT
100
AcDbMText
 10
337.6323777421
 20
53.855374072
 30
0.0
 40
2.0
 41
0.0
 71
     2
 72
     1
  1
Masseinheit:
  7
SLDTEXTSTYLE0
 73
     1
 44
1.0
  0
MTEXT
  5
187
330
1F
100
AcDbEntity
  8
VORLAGE_TEXT
100
AcDbMText
 10
337.6114490186
 20
43.5452078816
 30
0.0
 40
2.0
 41
0.0
 71
     2
 72
     1
  1
Blatt / Anz.:
  7
SLDTEXTSTYLE0
 73
     1
 44
1.0
  0
MTEXT
  5
188
330
1F
100
AcDbEntity
  8
VORLAGE_TEXT
100
AcDbMText
 10
329.2895578243
 20
28.4139191092
 30
0.0
 40
5.0
 41
0.0
 71
     1
 72
     1
  1
CH
  7
SLDTEXTSTYLE0
 73
     1
 44
1.0
  0
MTEXT
  5
189
330
1F
100
AcDbEntity
  8
VORLAGE_TEXT
100
AcDbMText
 10
330.40704
 20
33.692638072
 30
0.0
 40
2.0
 41
0.0
 71
     1
 72
     1
  1
Zeichnung Nr.:
  7
SLDTEXTSTYLE0
 73
     1
 44
1.0
  0
MTEXT
  5
18A
330
1F
100
AcDbEntity
  8
VORLAGE_TEXT
100
AcDbMText
 10
269.897953
 20
75.161075072
 30
0.0
 40
2.0
 41
0.0
 71
     1
 72
     1
  1
Gewicht:
  7
SLDTEXTSTYLE0
 73
     1
 44
1.0
  0
MTEXT
  5
18B
330
1F
100
AcDbEntity
  8
VORLAGE_TEXT
100
AcDbMText
 10
230.0
 20
64.542328072
 30
0.0
 40
2.0
 41
0.0
 71
     1
 72
     1
  1
zul. Abweichung:
  7
SLDTEXTSTYLE0
 73
     1
 44
1.0
  0
MTEXT
  5
18C
330
1F
100
AcDbEntity
  8
VORLAGE_TEXT
100
AcDbMText
 10
269.612607
 20
64.542328072
 30
0.0
 40
2.0
 41
0.0
 71
     1
 72
     1
  1
Oberfläche:
  7
SLDTEXTSTYLE0
 73
     1
 44
1.0
  0
MTEXT
  5
18D
330
1F
100
AcDbEntity
  8
VORLAGE_TEXT
100
AcDbMText
 10
230.261411
 20
43.4433838912
 30
0.0
 40
2.0
 41
0.0
 71
     1
 72
     1
  1
Freigegeben:
  7
SLDTEXTSTYLE0
 73
     1
 44
1.0
  0
MTEXT
  5
18E
330
1F
100
AcDbEntity
  8
VORLAGE_TEXT
100
AcDbMText
 10
230.0
 20
75.161075072
 30
0.0
 40
2.0
 41
0.0
 71
     1
 72
     1
  1
Werkstoff:
  7
SLDTEXTSTYLE0
 73
     1
 44
1.0
  0
MTEXT
  5
18F
330
1F
100
AcDbEntity
  8
VORLAGE_TEXT
100
AcDbMText
 10
254.035545
 20
53.129475072
 30
0.0
 40
2.0
 41
0.0
 71
     1
 72
     1
  1
Datum:
  7
SLDTEXTSTYLE0
 73
     1
 44
1.0
  0
MTEXT
  5
190
330
1F
100
AcDbEntity
  8
VORLAGE_TEXT
100
AcDbMText
 10
279.934928
 20
53.136060072
 30
0.0
 40
2.0
 41
0.0
 71
     1
 72
     1
  1
Name:
  7
SLDTEXTSTYLE0
 73
     1
 44
1.0
  0
MTEXT
  5
191
330
1F
100
AcDbEntity
  8
VORLAGE_TEXT
100
AcDbMText
 10
312.162455406
 20
53.881591072
 30
0.0
 40
2.0
 41
0.0
 71
     2
 72
     1
  1
Massstab:
  7
SLDTEXTSTYLE0
 73
     1
 44
1.0
  0
MTEXT
  5
192
330
1F
100
AcDbEntity
  8
VORLAGE_TEXT
100
AcDbMText
 10
403.9552944035
 20
33.324874072
 30
0.0
 40
2.0
 41
0.0
 71
     2
 72
     1
  1
Index:
  7
SLDTEXTSTYLE0
 73
     1
 44
1.0
  0
MTEXT
  5
193
330
1F
100
AcDbEntity
  8
VORLAGE_TEXT
100
AcDbMText
 10
230.261411
 20
48.4499477886
 30
0.0
 40
2.0
 41
0.0
 71
     1
 72
     1
  1
Erstellt:
  7
SLDTEXTSTYLE0
 73
     1
 44
1.0
  0
MTEXT
  5
195
330
1F
100
AcDbEntity
  8
VORLAGE_TEXT
100
AcDbMText
 10
337.6348165843
 20
39.869706576
 30
0.0
 40
2.5
 41
0.0
 71
     2
 72
     1
  1
1 / 1
  7
SLDTEXTSTYLE2
 73
     1
 44
1.0
  0
MTEXT
  5
196
330
1F
100
AcDbEntity
  8
TEXT
100
AcDbMText
 10
269.612607
 20
60.8119428599
 30
0.0
 40
3.0
 41
0.0
 71
     1
 72
     1
  1
DIN ISO 1302
  7
SLDTEXTSTYLE0
 73
     1
 44
1.0
  0
MTEXT
  5
197
330
1F
100
AcDbEntity
  8
TEXT
100
AcDbMText
 10
230.0
 20
60.8119428599
 30
0.0
 40
3.0
 41
0.0
 71
     1
 72
     1
  1
Norm
  7
SLDTEXTSTYLE0
 73
     1
 44
1.0
  0
LINE
  5
198
330
1F
100
AcDbEntity
  8
0
  6
Continuous
 62
     7
370
    25
100
AcDbLine
 10
158.2240131579
 20
180.2990789474
 30
0.0
 11
158.2240131579
 21
253.2990789474
 31
0.0
  0
LINE
  5
199
330
1F
100
AcDbEntity
  8
0
  6
Continuous
 62
     7
370
    25
100
AcDbLine
 10
70.2240131579
 20
253.2990789474
 30
0.0
 11
70.2240131579
 21
180.2990789474
 31
0.0
  0
LINE
  5
19A
330
1F
100
AcDbEntity
  8
0
  6
Continuous
 62
     7
370
    25
100
AcDbLine
 10
66.223606585
 20
263.2990789474
 30
0.0
 11
64.2240131579
 21
263.2990789474
 31
0.0
  0
LINE
  5
19B
330
1F
100
AcDbEntity
  8
0
  6
Continuous
 62
     7
370
    25
100
AcDbLine
 10
162.2244197308
 20
263.2990789474
 30
0.0
 11
162.2244197308
 21
263.258753689
 31
0.0
  0
LINE
  5
19C
330
1F
100
AcDbEntity
  8
0
  6
Continuous
 62
     7
370
    25
100
AcDbLine
 10
66.223606585
 20
263.258753689
 30
0.0
 11
66.223606585
 21
263.2990789474
 31
0.0
  0
ARC
  5
19D
330
1F
100
AcDbEntity
  8
0
  6
Continuous
 62
     7
370
    25
100
AcDbCircle
 10
154.2260460226
 20
263.0974526556
 30
0.0
 40
10.00000000000004
100
AcDbArc
 50
281.5250716486
 51
1.1553118432
  0
LINE
  5
19E
330
1F
100
AcDbEntity
  8
0
  6
Continuous
 62
     7
370
    25
100
AcDbLine
 10
72.2240131579
 20
253.2990789474
 30
0.0
 11
156.2240131579
 21
253.2990789474
 31
0.0
  0
ARC
  5
19F
330
1F
100
AcDbEntity
  8
0
  6
Continuous
 62
     7
370
    25
100
AcDbCircle
 10
74.2219802932
 20
263.0974526556
 30
0.0
 40
10.00000000000004
100
AcDbArc
 50
178.8446881568
 51
258.4749283514
  0
ARC
  5
1A0
330
1F
100
AcDbEntity
  8
0
  6
Continuous
 62
     7
370
    25
100
AcDbCircle
 10
74.2219802932
 20
263.0974526556
 30
0.0
 40
8.000000000000036
100
AcDbArc
 50
178.8446881568
 51
257.1091189899
  0
LINE
  5
1A1
330
1F
100
AcDbEntity
  8
0
  6
Continuous
 62
     7
370
    25
100
AcDbLine
 10
156.0108058122
 20
255.2990789474
 30
0.0
 11
72.4372205036
 21
255.2990789474
 31
0.0
  0
ARC
  5
1A2
330
1F
100
AcDbEntity
  8
0
  6
Continuous
 62
     7
370
    25
100
AcDbCircle
 10
154.2260460226
 20
263.0974526556
 30
0.0
 40
8.000000000000039
100
AcDbArc
 50
282.8908810101
 51
1.1553118432
  0
LINE
  5
1A3
330
1F
100
AcDbEntity
  8
0
  6
Continuous
 62
     7
370
    25
100
AcDbLine
 10
164.2240131579
 20
263.2990789474
 30
0.0
 11
162.2244197308
 21
263.2990789474
 31
0.0
  0
LINE
  5
1A4
330
1F
100
AcDbEntity
  8
0
  6
Continuous
 62
     7
370
    25
100
AcDbLine
 10
122.7693607893
 20
222.7990789474
 30
0.0
 11
122.7693607893
 21
187.7990789474
 31
0.0
  0
SPLINE
  5
1A5
330
1F
100
AcDbEntity
  8
0
  6
Continuous
 62
     7
370
    25
100
AcDbSpline
210
0.0
220
0.0
230
1.0
 70
     8
 71
     3
 72
    25
 73
    21
 74
     0
 42
0.000000001
 43
0.00000001
 40
0.0
 40
0.0
 40
0.0
 40
0.0
 40
0.070289977988379
 40
0.1340570668014708
 40
0.1737774556631003
 40
0.2119332257470175
 40
0.2492013735510808
 40
0.3134637919786915
 40
0.3750077753325092
 40
0.4363535187897405
 40
0.500044751500062
 40
0.563665744326588
 40
0.6250110988265862
 40
0.665927347701517
 40
0.7077049969204073
 40
0.7510501510778895
 40
0.8054258214857484
 40
0.8637829175702528
 40
0.9281367827362621
 40
1.0
 40
1.0
 40
1.0
 40
1.0
 10
117.8199979945799
 20
222.7990789473684
 30
0.0
 10
117.8438838027099
 20
222.9811186373663
 30
0.0
 10
117.8894388230376
 20
223.3283047879524
 30
0.0
 10
118.026938431438
 20
223.763017993624
 30
0.0
 10
118.1870332789097
 20
224.096459790635
 30
0.0
 10
118.3510084950868
 20
224.3489319221813
 30
0.0
 10
118.5916633786773
 20
224.6227892382585
 30
0.0
 10
118.9197261241426
 20
224.8958428027078
 30
0.0
 10
119.3483335756257
 20
225.1313958966815
 30
0.0
 10
119.8150116546011
 20
225.2706879322174
 30
0.0
 10
120.3037000384964
 20
225.313530524246
 30
0.0
 10
120.7916076440594
 20
225.2706338456531
 30
0.0
 10
121.2045178264073
 20
225.146603356143
 30
0.0
 10
121.5374947416848
 20
224.9789340707642
 30
0.0
 10
121.8059912285855
 20
224.7933536621483
 30
0.0
 10
122.0773962525223
 20
224.5544400848835
 30
0.0
 10
122.3327392708209
 20
224.2367886157678
 30
0.0
 10
122.5392865487128
 20
223.8224591008718
 30
0.0
 10
122.6918784725745
 20
223.3368270555687
 30
0.0
 10
122.7426012711354
 20
222.9847971974366
 30
0.0
 10
122.7693607893117
 20
222.7990789473684
 30
0.0
  0
LINE
  5
1A6
330
1F
100
AcDbEntity
  8
0
  6
Continuous
 62
     7
370
    25
100
AcDbLine
 10
117.8199979946
 20
187.7990789474
 30
0.0
 11
117.8199979946
 21
222.7990789474
 31
0.0
  0
SPLINE
  5
1A7
330
1F
100
AcDbEntity
  8
0
  6
Continuous
 62
     7
370
    25
100
AcDbSpline
210
0.0
220
0.0
230
1.0
 70
     8
 71
     3
 72
    25
 73
    21
 74
     0
 42
0.000000001
 43
0.00000001
 40
0.0
 40
0.0
 40
0.0
 40
0.0
 40
0.0702899779928509
 40
0.1340570668074413
 40
0.1737774556684997
 40
0.2119332257507058
 40
0.2492013735521363
 40
0.3134637919834712
 40
0.3750077753387449
 40
0.4363535187945101
 40
0.5000447515001347
 40
0.5636657443219449
 40
0.6250110988204681
 40
0.6659273476960652
 40
0.7077049969167651
 40
0.7510501510769512
 40
0.805425821481225
 40
0.8637829175644341
 40
0.928136782731907
 40
1.0
 40
1.0
 40
1.0
 40
1.0
 10
122.7693607893113
 20
187.7990789473684
 30
0.0
 10
122.7458502962347
 20
187.617039257359
 30
0.0
 10
122.7010110768887
 20
187.2698531067576
 30
0.0
 10
122.5655710627179
 20
186.8351399010714
 30
0.0
 10
122.4077050566651
 20
186.5016981040632
 30
0.0
 10
122.2458592860767
 20
186.2492259725306
 30
0.0
 10
122.0080561692196
 20
185.9753686564689
 30
0.0
 10
121.6833182619132
 20
185.7023150920347
 30
0.0
 10
121.2579398087841
 20
185.4667619980597
 30
0.0
 10
120.7934511795831
 20
185.3274699625216
 30
0.0
 10
120.305546709029
 20
185.28462737049
 30
0.0
 10
119.8168605352984
 20
185.3275240490859
 30
0.0
 10
119.4020099838175
 20
185.451554538597
 30
0.0
 10
119.0666823329017
 20
185.6192238239746
 30
0.0
 10
118.7958101195677
 20
185.8048042325912
 30
0.0
 10
118.5215402130164
 20
186.0437178098393
 30
0.0
 10
118.2630399332691
 20
186.3613692789385
 30
0.0
 10
118.0536131795432
 20
186.775698793827
 30
0.0
 10
117.8987155206886
 20
187.261330839142
 30
0.0
 10
117.847184108256
 20
187.6133606972889
 30
0.0
 10
117.8199979945795
 20
187.7990789473684
 30
0.0
  0
LINE
  5
1A8
330
1F
100
AcDbEntity
  8
0
  6
Continuous
 62
     7
370
    25
100
AcDbLine
 10
134.0942589739
 20
222.7990789474
 30
0.0
 11
134.0942589739
 21
187.7990789474
 31
0.0
  0
SPLINE
  5
1A9
330
1F
100
AcDbEntity
  8
0
  6
Continuous
 62
     7
370
    25
100
AcDbSpline
210
0.0
220
0.0
230
1.0
 70
     8
 71
     3
 72
    25
 73
    21
 74
     0
 42
0.000000001
 43
0.00000001
 40
0.0
 40
0.0
 40
0.0
 40
0.0
 40
0.070289977991683
 40
0.1340570668058699
 40
0.1737774556670562
 40
0.2119332257496939
 40
0.2492013735518017
 40
0.3134637919821539
 40
0.3750077753370354
 40
0.4363535187931671
 40
0.500044751499993
 40
0.5636657443253112
 40
0.6250110988249395
 40
0.6659273477000484
 40
0.7077049969194189
 40
0.7510501510776025
 40
0.8054258214845463
 40
0.8637829175687304
 40
0.9281367827351255
 40
1.0
 40
1.0
 40
1.0
 40
1.0
 10
129.5145861148034
 20
222.7990789473684
 30
0.0
 10
129.5370575938419
 20
222.9811186373748
 30
0.0
 10
129.5799152053076
 20
223.3283047879723
 30
0.0
 10
129.7091737307187
 20
223.7630179936546
 30
0.0
 10
129.859506520132
 20
224.0964597906635
 30
0.0
 10
130.0133318987962
 20
224.3489319221996
 30
0.0
 10
130.2388211221156
 20
224.6227892382654
 30
0.0
 10
130.5456554553445
 20
224.8958428027035
 30
0.0
 10
130.9454299293868
 20
225.131395896678
 30
0.0
 10
131.3794070705151
 20
225.2706879322158
 30
0.0
 10
131.8323655552694
 20
225.3135305242462
 30
0.0
 10
132.283062025572
 20
225.2706338456522
 30
0.0
 10
132.6632182096274
 20
225.146603356142
 30
0.0
 10
132.9690073527339
 20
224.9789340707637
 30
0.0
 10
133.2151077735451
 20
224.7933536621474
 30
0.0
 10
133.4634175008028
 20
224.554440084887
 30
0.0
 10
133.6965768762131
 20
224.2367886157756
 30
0.0
 10
133.8848589920208
 20
223.8224591008816
 30
0.0
 10
134.0237812419416
 20
223.3368270555754
 30
0.0
 10
134.0699185794741
 20
222.9847971974395
 30
0.0
 10
134.0942589738795
 20
222.7990789473684
 30
0.0
  0
LINE
  5
1AA
330
1F
100
AcDbEntity
  8
0
  6
Continuous
 62
     7
370
    25
100
AcDbLine
 10
129.5145861148
 20
187.7990789474
 30
0.0
 11
129.5145861148
 21
222.7990789474
 31
0.0
  0
SPLINE
  5
1AB
330
1F
100
AcDbEntity
  8
0
  6
Continuous
 62
     7
370
    25
100
AcDbSpline
210
0.0
220
0.0
230
1.0
 70
     8
 71
     3
 72
    25
 73
    21
 74
     0
 42
0.000000001
 43
0.00000001
 40
0.0
 40
0.0
 40
0.0
 40
0.0
 40
0.0702899779916764
 40
0.134057066805863
 40
0.1737774556670516
 40
0.2119332257496911
 40
0.2492013735517993
 40
0.3134637919821538
 40
0.3750077753370389
 40
0.4363535187931682
 40
0.5000447514999917
 40
0.5636657443253088
 40
0.6250110988249375
 40
0.6659273477000456
 40
0.7077049969194181
 40
0.7510501510776022
 40
0.8054258214845516
 40
0.863782917568736
 40
0.9281367827351249
 40
1.0
 40
1.0
 40
1.0
 40
1.0
 10
134.0942589738795
 20
187.7990789473684
 30
0.0
 10
134.0728743923986
 20
187.617039257362
 30
0.0
 10
134.0320897122762
 20
187.2698531067645
 30
0.0
 10
133.9087956903197
 20
186.8351399010822
 30
0.0
 10
133.7649175375314
 20
186.5016981040733
 30
0.0
 10
133.6172589490895
 20
186.2492259725372
 30
0.0
 10
133.4000283295185
 20
185.9753686564714
 30
0.0
 10
133.1028225961936
 20
185.7023150920334
 30
0.0
 10
132.7123991737376
 20
185.4667619980587
 30
0.0
 10
132.2847625925463
 20
185.3274699625209
 30
0.0
 10
131.8340742897502
 20
185.2846273704905
 30
0.0
 10
131.3811231167353
 20
185.3275240490846
 30
0.0
 10
130.9953477003439
 20
185.4515545385946
 30
0.0
 10
130.6827509197828
 20
185.6192238239731
 30
0.0
 10
130.4297704891974
 20
185.8048042325894
 30
0.0
 10
130.1731641752108
 20
186.0437178098497
 30
0.0
 10
129.9308614955142
 20
186.3613692789612
 30
0.0
 10
129.7342405315324
 20
186.7756987938552
 30
0.0
 10
129.5886409642378
 20
187.2613308391614
 30
0.0
 10
129.5401619129072
 20
187.6133606972972
 30
0.0
 10
129.5145861148034
 20
187.7990789473684
 30
0.0
  0
LINE
  5
1AC
330
1F
100
AcDbEntity
  8
0
  6
Continuous
 62
     7
370
    25
100
AcDbLine
 10
143.9463578261
 20
222.7990789474
 30
0.0
 11
143.9463578261
 21
187.7990789474
 31
0.0
  0
SPLINE
  5
1AD
330
1F
100
AcDbEntity
  8
0
  6
Continuous
 62
     7
370
    25
100
AcDbSpline
210
0.0
220
0.0
230
1.0
 70
     8
 71
     3
 72
    25
 73
    21
 74
     0
 42
0.000000001
 43
0.00000001
 40
0.0
 40
0.0
 40
0.0
 40
0.0
 40
0.0702899779928283
 40
0.1340570668073969
 40
0.1737774556684335
 40
0.2119332257506263
 40
0.249201373552042
 40
0.3134637919833543
 40
0.3750077753386024
 40
0.4363535187943424
 40
0.5000447514999464
 40
0.5636657443252682
 40
0.6250110988249058
 40
0.6659273477000159
 40
0.7077049969193923
 40
0.7510501510775804
 40
0.8054258214845265
 40
0.863782917568716
 40
0.9281367827351176
 40
1.0
 40
1.0
 40
1.0
 40
1.0
 10
140.0758241068474
 20
222.7990789473684
 30
0.0
 10
140.0952156518674
 20
222.9811186373777
 30
0.0
 10
140.132199212262
 20
223.3283047879791
 30
0.0
 10
140.2436359040635
 20
223.7630179936653
 30
0.0
 10
140.3730638426247
 20
224.0964597906735
 30
0.0
 10
140.5053377173309
 20
224.3489319222061
 30
0.0
 10
140.698947829484
 20
224.6227892382678
 30
0.0
 10
140.9618109316145
 20
224.895842802702
 30
0.0
 10
141.3031208079527
 20
225.1313958966768
 30
0.0
 10
141.6722302605312
 20
225.2706879322153
 30
0.0
 10
142.0558851822915
 20
225.3135305242463
 30
0.0
 10
142.4359645158933
 20
225.2706338456521
 30
0.0
 10
142.755189205556
 20
225.146603356142
 30
0.0
 10
143.01112522801
 20
224.9789340707636
 30
0.0
 10
143.2165884125472
 20
224.7933536621474
 30
0.0
 10
143.4233979172885
 20
224.554440084887
 30
0.0
 10
143.6170916807959
 20
224.2367886157756
 30
0.0
 10
143.7731530057361
 20
223.8224591008816
 30
0.0
 10
143.888108547707
 20
223.3368270555754
 30
0.0
 10
143.9262406859479
 20
222.9847971974395
 30
0.0
 10
143.9463578260765
 20
222.7990789473684
 30
0.0
  0
LINE
  5
1AE
330
1F
100
AcDbEntity
  8
0
  6
Continuous
 62
     7
370
    25
100
AcDbLine
 10
140.0758241068
 20
187.7990789474
 30
0.0
 11
140.0758241068
 21
222.7990789474
 31
0.0
  0
SPLINE
  5
1AF
330
1F
100
AcDbEntity
  8
0
  6
Continuous
 62
     7
370
    25
100
AcDbSpline
210
0.0
220
0.0
230
1.0
 70
     8
 71
     3
 72
    25
 73
    21
 74
     0
 42
0.000000001
 43
0.00000001
 40
0.0
 40
0.0
 40
0.0
 40
0.0
 40
0.0702899779928284
 40
0.1340570668073912
 40
0.1737774556684284
 40
0.2119332257506175
 40
0.2492013735520375
 40
0.3134637919833498
 40
0.3750077753386042
 40
0.436353518794346
 40
0.500044751499943
 40
0.5636657443252678
 40
0.6250110988249029
 40
0.6659273477000168
 40
0.7077049969193913
 40
0.7510501510775794
 40
0.8054258214845258
 40
0.8637829175687094
 40
0.9281367827351178
 40
1.0
 40
1.0
 40
1.0
 40
1.0
 10
143.9463578260765
 20
187.7990789473684
 30
0.0
 10
143.9286841993564
 20
187.617039257359
 30
0.0
 10
143.8949770532511
 20
187.2698531067576
 30
0.0
 10
143.7929676801167
 20
186.8351399010715
 30
0.0
 10
143.6737417502905
 20
186.5016981040633
 30
0.0
 10
143.5512149227644
 20
186.2492259725308
 30
0.0
 10
143.3706581167038
 20
185.975368656469
 30
0.0
 10
143.1230136962797
 20
185.7023150920348
 30
0.0
 10
142.7964838169431
 20
185.4667619980599
 30
0.0
 10
142.437396066843
 20
185.3274699625214
 30
0.0
 10
142.05732932789
 20
185.2846273704904
 30
0.0
 10
141.6736862775213
 20
185.3275240490847
 30
0.0
 10
141.3455799945628
 20
185.4515545385946
 30
0.0
 10
141.0788840206487
 20
185.6192238239731
 30
0.0
 10
140.8625464950927
 20
185.8048042325894
 30
0.0
 10
140.642623649478
 20
186.0437178098497
 30
0.0
 10
140.4344782482386
 20
186.3613692789611
 30
0.0
 10
140.2652367852278
 20
186.7756987938552
 30
0.0
 10
140.1397272718824
 20
187.2613308391613
 30
0.0
 10
140.0978938897127
 20
187.6133606972972
 30
0.0
 10
140.0758241068474
 20
187.7990789473684
 30
0.0
  0
LINE
  5
1B0
330
1F
100
AcDbEntity
  8
0
  6
Continuous
 62
     7
370
    25
100
AcDbLine
 10
151.5954114926
 20
222.7990789474
 30
0.0
 11
151.5954114926
 21
187.7990789474
 31
0.0
  0
SPLINE
  5
1B1
330
1F
100
AcDbEntity
  8
0
  6
Continuous
 62
     7
370
    25
100
AcDbSpline
210
0.0
220
0.0
230
1.0
 70
     8
 71
     3
 72
    25
 73
    21
 74
     0
 42
0.000000001
 43
0.00000001
 40
0.0
 40
0.0
 40
0.0
 40
0.0
 40
0.0702899779916745
 40
0.1340570668058527
 40
0.1737774556670347
 40
0.2119332257496669
 40
0.2492013735517703
 40
0.3134637919821162
 40
0.3750077753369881
 40
0.4363535187931092
 40
0.5000447514999274
 40
0.5636657443264662
 40
0.6250110988264865
 40
0.6659273477014227
 40
0.7077049969203345
 40
0.7510501510778261
 40
0.8054258214856935
 40
0.8637829175702093
 40
0.9281367827362392
 40
1.0
 40
1.0
 40
1.0
 40
1.0
 10
148.7209041278824
 20
222.7990789473684
 30
0.0
 10
148.7357784212566
 20
222.9811186373748
 30
0.0
 10
148.7641466779773
 20
223.3283047879722
 30
0.0
 10
148.8495017548455
 20
223.7630179936546
 30
0.0
 10
148.9484315348889
 20
224.0964597906635
 30
0.0
 10
149.0493496547918
 20
224.3489319221997
 30
0.0
 10
149.1967301114177
 20
224.6227892382654
 30
0.0
 10
149.3961383482231
 20
224.8958428027035
 30
0.0
 10
149.6536854517505
 20
225.131395896678
 30
0.0
 10
149.9305685127087
 20
225.2706879322159
 30
0.0
 10
150.2164830459975
 20
225.3135305242461
 30
0.0
 10
150.4977734430215
 20
225.2706338456527
 30
0.0
 10
150.732405435802
 20
225.1466033561429
 30
0.0
 10
150.9195181443559
 20
224.9789340707642
 30
0.0
 10
151.0691149885676
 20
224.7933536621481
 30
0.0
 10
151.2190953763552
 20
224.5544400848834
 30
0.0
 10
151.3589667832947
 20
224.2367886157678
 30
0.0
 10
151.4712399207031
 20
223.8224591008718
 30
0.0
 10
151.5537081532663
 20
223.3368270555687
 30
0.0
 10
151.5810087060567
 20
222.9847971974366
 30
0.0
 10
151.5954114925618
 20
222.7990789473684
 30
0.0
  0
LINE
  5
1B2
330
1F
100
AcDbEntity
  8
0
  6
Continuous
 62
     7
370
    25
100
AcDbLine
 10
148.7209041279
 20
187.7990789474
 30
0.0
 11
148.7209041279
 21
222.7990789474
 31
0.0
  0
SPLINE
  5
1B3
330
1F
100
AcDbEntity
  8
0
  6
Continuous
 62
     7
370
    25
100
AcDbSpline
210
0.0
220
0.0
230
1.0
 70
     8
 71
     3
 72
    25
 73
    21
 74
     0
 42
0.000000001
 43
0.00000001
 40
0.0
 40
0.0
 40
0.0
 40
0.0
 40
0.0702899779883853
 40
0.134057066801489
 40
0.1737774556631205
 40
0.2119332257470409
 40
0.2492013735511129
 40
0.3134637919787288
 40
0.3750077753325608
 40
0.4363535187898012
 40
0.5000447515001257
 40
0.5636657443254257
 40
0.6250110988250382
 40
0.6659273477001376
 40
0.7077049969194966
 40
0.7510501510776695
 40
0.8054258214845961
 40
0.8637829175687584
 40
0.9281367827351437
 40
1.0
 40
1.0
 40
1.0
 40
1.0
 10
151.5954114925618
 20
187.7990789473684
 30
0.0
 10
151.5827588046807
 20
187.6170392573705
 30
0.0
 10
151.5586275946129
 20
187.2698531067844
 30
0.0
 10
151.4854638908355
 20
186.8351399011128
 30
0.0
 10
151.399727310169
 20
186.5016981041018
 30
0.0
 10
151.3114140350684
 20
186.2492259725555
 30
0.0
 10
151.180914064858
 20
185.9753686564783
 30
0.0
 10
151.0011865700811
 20
185.7023150920291
 30
0.0
 10
150.7627529031655
 20
185.4667619980554
 30
0.0
 10
150.498829870205
 20
185.3274699625195
 30
0.0
 10
150.2175555614405
 20
185.2846273704908
 30
0.0
 10
149.9316565792759
 20
185.3275240490843
 30
0.0
 10
149.6855389434072
 20
185.4515545385947
 30
0.0
 10
149.4845115060397
 20
185.6192238239731
 30
0.0
 10
149.3208520048648
 20
185.8048042325894
 30
0.0
 10
149.1539134939118
 20
186.0437178098497
 30
0.0
 10
148.9953532833366
 20
186.3613692789611
 30
0.0
 10
148.8660356408812
 20
186.7756987938552
 30
0.0
 10
148.7699190521778
 20
187.2613308391614
 30
0.0
 10
148.7378320646405
 20
187.6133606972972
 30
0.0
 10
148.7209041278824
 20
187.7990789473684
 30
0.0
  0
LINE
  5
1B4
330
1F
100
AcDbEntity
  8
0
  6
Continuous
 62
     7
370
    25
100
AcDbLine
 10
156.4744656821
 20
222.7990789474
 30
0.0
 11
156.4744656821
 21
187.7990789474
 31
0.0
  0
SPLINE
  5
1B5
330
1F
100
AcDbEntity
  8
0
  6
Continuous
 62
     7
370
    25
100
AcDbSpline
210
0.0
220
0.0
230
1.0
 70
     8
 71
     3
 72
    25
 73
    21
 74
     0
 42
0.000000001
 43
0.00000001
 40
0.0
 40
0.0
 40
0.0
 40
0.0
 40
0.0702899779922546
 40
0.1340570668066316
 40
0.1737774556677397
 40
0.2119332257501579
 40
0.2492013735519188
 40
0.3134637919827518
 40
0.3750077753378204
 40
0.4363535187937584
 40
0.5000447514999685
 40
0.5636657443252869
 40
0.6250110988249179
 40
0.6659273477000283
 40
0.7077049969194074
 40
0.7510501510775938
 40
0.805425821484538
 40
0.8637829175687236
 40
0.9281367827351221
 40
1.0
 40
1.0
 40
1.0
 40
1.0
 10
154.8090455755347
 20
222.7990789473684
 30
0.0
 10
154.8183001221281
 20
222.9811186373763
 30
0.0
 10
154.8359503961268
 20
223.3283047879757
 30
0.0
 10
154.8888972679738
 20
223.7630179936599
 30
0.0
 10
154.9499961309946
 20
224.0964597906685
 30
0.0
 10
155.0120783601661
 20
224.3489319222029
 30
0.0
 10
155.1023051978646
 20
224.6227892382666
 30
0.0
 10
155.2234782631193
 20
224.8958428027027
 30
0.0
 10
155.3781729859064
 20
225.1313958966775
 30
0.0
 10
155.5423068498812
 20
225.2706879322156
 30
0.0
 10
155.7092887690062
 20
225.3135305242463
 30
0.0
 10
155.8709407486294
 20
225.2706338456522
 30
0.0
 10
156.0035889238739
 20
225.1466033561422
 30
0.0
 10
156.1080093671936
 20
224.9789340707637
 30
0.0
 10
156.190651627168
 20
224.7933536621474
 30
0.0
 10
156.2726862255179
 20
224.554440084887
 30
0.0
 10
156.3483678895672
 20
224.2367886157756
 30
0.0
 10
156.4085310600673
 20
223.8224591008816
 30
0.0
 10
156.4523993684627
 20
223.3368270555754
 30
0.0
 10
156.466844795868
 20
222.9847971974395
 30
0.0
 10
156.4744656821003
 20
222.7990789473684
 30
0.0
  0
LINE
  5
1B6
330
1F
100
AcDbEntity
  8
0
  6
Continuous
 62
     7
370
    25
100
AcDbLine
 10
154.8090455755
 20
187.7990789474
 30
0.0
 11
154.8090455755
 21
222.7990789474
 31
0.0
  0
SPLINE
  5
1B7
330
1F
100
AcDbEntity
  8
0
  6
Continuous
 62
     7
370
    25
100
AcDbSpline
210
0.0
220
0.0
230
1.0
 70
     8
 71
     3
 72
    25
 73
    21
 74
     0
 42
0.000000001
 43
0.00000001
 40
0.0
 40
0.0
 40
0.0
 40
0.0
 40
0.0702899779922844
 40
0.1340570668066757
 40
0.1737774556678023
 40
0.2119332257502319
 40
0.2492013735519991
 40
0.3134637919828521
 40
0.3750077753379401
 40
0.4363535187938944
 40
0.5000447515001242
 40
0.56366574432254
 40
0.6250110988212555
 40
0.6659273476967681
 40
0.7077049969172318
 40
0.7510501510770707
 40
0.8054258214818047
 40
0.863782917565182
 40
0.9281367827324684
 40
1.0
 40
1.0
 40
1.0
 40
1.0
 10
156.4744656821003
 20
187.7990789473684
 30
0.0
 10
156.467771760925
 20
187.6170392573605
 30
0.0
 10
156.4550051124804
 20
187.269853106761
 30
0.0
 10
156.4161100333206
 20
186.8351399010768
 30
0.0
 10
156.3702176692839
 20
186.5016981040682
 30
0.0
 10
156.32266380084
 20
186.2492259725338
 30
0.0
 10
156.2518934340177
 20
185.9753686564701
 30
0.0
 10
156.1534044179461
 20
185.702315092034
 30
0.0
 10
156.0207398673761
 20
185.4667619980592
 30
0.0
 10
155.8715437487531
 20
185.3274699625213
 30
0.0
 10
155.7099101585367
 20
185.2846273704902
 30
0.0
 10
155.5429463176154
 20
185.3275240490857
 30
0.0
 10
155.3970597750158
 20
185.4515545385968
 30
0.0
 10
155.2766011969325
 20
185.6192238239744
 30
0.0
 10
155.1777503000135
 20
185.8048042325909
 30
0.0
 10
155.0761697465591
 20
186.0437178098411
 30
0.0
 10
154.9789473428153
 20
186.3613692789425
 30
0.0
 10
154.8991386533415
 20
186.7756987938319
 30
0.0
 10
154.8395392316766
 20
187.2613308391454
 30
0.0
 10
154.8195769532756
 20
187.6133606972903
 30
0.0
 10
154.8090455755347
 20
187.7990789473684
 30
0.0
  0
LINE
  5
1B8
330
1F
100
AcDbEntity
  8
0
  6
Continuous
 62
     7
370
    25
100
AcDbLine
 10
158.2218807945
 20
222.7990789474
 30
0.0
 11
158.2218807945
 21
187.7990789474
 31
0.0
  0
SPLINE
  5
1B9
330
1F
100
AcDbEntity
  8
0
  6
Continuous
 62
     7
370
    25
100
AcDbSpline
210
0.0
220
0.0
230
1.0
 70
     8
 71
     3
 72
    25
 73
    21
 74
     0
 42
0.000000001
 43
0.00000001
 40
0.0
 40
0.0
 40
0.0
 40
0.0
 40
0.0702899779916708
 40
0.1340570668058523
 40
0.1737774556670431
 40
0.2119332257496784
 40
0.2492013735517844
 40
0.3134637919821336
 40
0.3750077753370152
 40
0.436353518793141
 40
0.5000447514999597
 40
0.5636657443258841
 40
0.6250110988257058
 40
0.6659273477007313
 40
0.7077049969198778
 40
0.7510501510777159
 40
0.8054258214851246
 40
0.863782917569477
 40
0.9281367827356863
 40
1.0
 40
1.0
 40
1.0
 40
1.0
 10
157.8889902850829
 20
222.7990789473684
 30
0.0
 10
157.891939130118
 20
222.9811186373748
 30
0.0
 10
157.8975631682407
 20
223.3283047879722
 30
0.0
 10
157.9141773683924
 20
223.7630179936546
 30
0.0
 10
157.9329166152745
 20
224.0964597906635
 30
0.0
 10
157.9515613666723
 20
224.3489319221997
 30
0.0
 10
157.9779468963439
 20
224.6227892382654
 30
0.0
 10
158.0119033405329
 20
224.8958428027035
 30
0.0
 10
158.0522795796154
 20
225.1313958966781
 30
0.0
 10
158.0914985065604
 20
225.2706879322159
 30
0.0
 10
158.127170971234
 20
225.3135305242462
 30
0.0
 10
158.1572027527678
 20
225.2706338456525
 30
0.0
 10
158.1780351161616
 20
225.1466033561426
 30
0.0
 10
158.1920235631616
 20
224.978934070764
 30
0.0
 10
158.2015857250782
 20
224.7933536621477
 30
0.0
 10
158.2095940605605
 20
224.5544400848852
 30
0.0
 10
158.2154763931242
 20
224.2367886157717
 30
0.0
 10
158.2190702519169
 20
223.8224591008766
 30
0.0
 10
158.2210870802294
 20
223.336827055572
 30
0.0
 10
158.2216066750205
 20
222.9847971974381
 30
0.0
 10
158.2218807944826
 20
222.7990789473684
 30
0.0
  0
LINE
  5
1BA
330
1F
100
AcDbEntity
  8
0
  6
Continuous
 62
     7
370
    25
100
AcDbLine
 10
157.8889902851
 20
187.7990789474
 30
0.0
 11
157.8889902851
 21
222.7990789474
 31
0.0
  0
SPLINE
  5
1BB
330
1F
100
AcDbEntity
  8
0
  6
Continuous
 62
     7
370
    25
100
AcDbSpline
210
0.0
220
0.0
230
1.0
 70
     8
 71
     3
 72
    25
 73
    21
 74
     0
 42
0.000000001
 43
0.00000001
 40
0.0
 40
0.0
 40
0.0
 40
0.0
 40
0.0702899779883838
 40
0.1340570668014798
 40
0.1737774556631176
 40
0.2119332257470394
 40
0.2492013735511122
 40
0.3134637919787295
 40
0.3750077753325621
 40
0.4363535187898057
 40
0.5000447515001273
 40
0.5636657443254248
 40
0.6250110988250388
 40
0.6659273477001364
 40
0.7077049969194942
 40
0.7510501510776709
 40
0.8054258214845984
 40
0.86378291756876
 40
0.9281367827351443
 40
1.0
 40
1.0
 40
1.0
 40
1.0
 10
158.2218807944826
 20
187.7990789473684
 30
0.0
 10
158.2216417990811
 20
187.6170392573705
 30
0.0
 10
158.2211859869806
 20
187.2698531067844
 30
0.0
 10
158.2194424684196
 20
186.8351399011128
 30
0.0
 10
158.2167959016345
 20
186.5016981041019
 30
0.0
 10
158.2135261725719
 20
186.2492259725556
 30
0.0
 10
158.2077309682577
 20
185.9753686564783
 30
0.0
 10
158.1977805196101
 20
185.7023150920291
 30
0.0
 10
158.1807182934607
 20
185.4667619980554
 30
0.0
 10
158.1573076309666
 20
185.3274699625194
 30
0.0
 10
158.1272951769386
 20
185.2846273704908
 30
0.0
 10
158.0916419775661
 20
185.3275240490842
 30
0.0
 10
158.0567997614683
 20
185.4515545385946
 30
0.0
 10
158.025838533793
 20
185.6192238239731
 30
0.0
 10
157.9991231527573
 20
185.8048042325893
 30
0.0
 10
157.9704297928684
 20
186.0437178098498
 30
0.0
 10
157.9417514022986
 20
186.3613692789611
 30
0.0
 10
157.9173671529942
 20
186.7756987938551
 30
0.0
 10
157.8987024576296
 20
187.2613308391614
 30
0.0
 10
157.8923445092303
 20
187.6133606972972
 30
0.0
 10
157.8889902850829
 20
187.7990789473684
 30
0.0
  0
LINE
  5
1BC
330
1F
100
AcDbEntity
  8
0
  6
Continuous
 62
     7
370
    25
100
AcDbLine
 10
70.5714655861
 20
222.7990789474
 30
0.0
 11
70.5714655861
 21
187.7990789474
 31
0.0
  0
SPLINE
  5
1BD
330
1F
100
AcDbEntity
  8
0
  6
Continuous
 62
     7
370
    25
100
AcDbSpline
210
0.0
220
0.0
230
1.0
 70
     8
 71
     3
 72
    25
 73
    21
 74
     0
 42
0.000000001
 43
0.00000001
 40
0.0
 40
0.0
 40
0.0
 40
0.0
 40
0.0702899779928282
 40
0.1340570668073975
 40
0.1737774556684343
 40
0.2119332257506278
 40
0.2492013735520409
 40
0.3134637919833509
 40
0.3750077753385988
 40
0.4363535187943438
 40
0.5000447514999474
 40
0.5636657443252673
 40
0.6250110988249064
 40
0.6659273477000172
 40
0.7077049969193954
 40
0.7510501510775798
 40
0.8054258214845273
 40
0.8637829175687157
 40
0.9281367827351179
 40
1.0
 40
1.0
 40
1.0
 40
1.0
 10
70.22724364764757
 20
222.7990789473684
 30
0.0
 10
70.22753710839358
 20
222.9811186373777
 30
0.0
 10
70.22809679681514
 20
223.3283047879791
 30
0.0
 10
70.23015390661291
 20
223.7630179936653
 30
0.0
 10
70.23316569635165
 20
224.0964597906735
 30
0.0
 10
70.23680959077403
 20
224.3489319222061
 30
0.0
 10
70.24315409195532
 20
224.6227892382678
 30
0.0
 10
70.25385367735159
 20
224.895842802702
 30
0.0
 10
70.2718952908889
 20
225.1313958966768
 30
0.0
 10
70.2963731133015
 20
225.2706879322153
 30
0.0
 10
70.32750394518601
 20
225.3135305242463
 30
0.0
 10
70.3642746530275
 20
225.2706338456521
 30
0.0
 10
70.40006335579731
 20
225.1466033561421
 30
0.0
 10
70.43178830629319
 20
224.9789340707636
 30
0.0
 10
70.45911979868022
 20
224.7933536621474
 30
0.0
 10
70.48843621638525
 20
224.554440084887
 30
0.0
 10
70.51770106306876
 20
224.2367886157756
 30
0.0
 10
70.54255988875177
 20
223.8224591008816
 30
0.0
 10
70.56157529405094
 20
223.3368270555754
 30
0.0
 10
70.56804984606974
 20
222.9847971974395
 30
0.0
 10
70.57146558607911
 20
222.7990789473684
 30
0.0
  0
LINE
  5
1BE
330
1F
100
AcDbEntity
  8
0
  6
Continuous
 62
     7
370
    25
100
AcDbLine
 10
70.2272436476
 20
187.7990789474
 30
0.0
 11
70.2272436476
 21
222.7990789474
 31
0.0
  0
SPLINE
  5
1BF
330
1F
100
AcDbEntity
  8
0
  6
Continuous
 62
     7
370
    25
100
AcDbSpline
210
0.0
220
0.0
230
1.0
 70
     8
 71
     3
 72
    25
 73
    21
 74
     0
 42
0.000000001
 43
0.00000001
 40
0.0
 40
0.0
 40
0.0
 40
0.0
 40
0.0702899779928277
 40
0.1340570668073922
 40
0.1737774556684293
 40
0.211933225750617
 40
0.2492013735520389
 40
0.3134637919833493
 40
0.3750077753386008
 40
0.4363535187943463
 40
0.5000447514999452
 40
0.5636657443252654
 40
0.6250110988249029
 40
0.6659273477000169
 40
0.7077049969193914
 40
0.7510501510775798
 40
0.8054258214845331
 40
0.8637829175687218
 40
0.9281367827351177
 40
1.0
 40
1.0
 40
1.0
 40
1.0
 10
70.57146558607911
 20
187.7990789473684
 30
0.0
 10
70.56846269386965
 20
187.617039257359
 30
0.0
 10
70.56273557696002
 20
187.2698531067576
 30
0.0
 10
70.545810080339
 20
186.8351399010715
 30
0.0
 10
70.52670809384334
 20
186.5016981040633
 30
0.0
 10
70.50769154968059
 20
186.2492259725308
 30
0.0
 10
70.48075990053552
 20
185.975368656469
 30
0.0
 10
70.4460580240805
 20
185.7023150920348
 30
0.0
 10
70.40470599531007
 20
185.4667619980599
 30
0.0
 10
70.36442234789713
 20
185.3274699625214
 30
0.0
 10
70.32763237879061
 20
185.2846273704904
 30
0.0
 10
70.2964822213189
 20
185.3275240490847
 30
0.0
 10
70.27470120932423
 20
185.4515545385946
 30
0.0
 10
70.25994642035097
 20
185.6192238239731
 30
0.0
 10
70.24976550008581
 20
185.8048042325894
 30
0.0
 10
70.24113091478024
 20
186.0437178098498
 30
0.0
 10
70.23465860833173
 20
186.3613692789612
 30
0.0
 10
70.23058696489379
 20
186.7756987938552
 30
0.0
 10
70.22821685763307
 20
187.2613308391614
 30
0.0
 10
70.22757975827761
 20
187.6133606972972
 30
0.0
 10
70.22724364764757
 20
187.7990789473684
 30
0.0
  0
LINE
  5
1C0
330
1F
100
AcDbEntity
  8
0
  6
Continuous
 62
     7
370
    25
100
AcDbLine
 10
73.6777122115
 20
222.7990789474
 30
0.0
 11
73.6777122115
 21
187.7990789474
 31
0.0
  0
SPLINE
  5
1C1
330
1F
100
AcDbEntity
  8
0
  6
Continuous
 62
     7
370
    25
100
AcDbSpline
210
0.0
220
0.0
230
1.0
 70
     8
 71
     3
 72
    25
 73
    21
 74
     0
 42
0.000000001
 43
0.00000001
 40
0.0
 40
0.0
 40
0.0
 40
0.0
 40
0.0702899779928274
 40
0.1340570668073968
 40
0.1737774556684336
 40
0.2119332257506268
 40
0.2492013735520432
 40
0.3134637919833533
 40
0.3750077753386056
 40
0.436353518794346
 40
0.5000447514999445
 40
0.5636657443252692
 40
0.6250110988249039
 40
0.6659273477000192
 40
0.7077049969193929
 40
0.7510501510775812
 40
0.8054258214845288
 40
0.8637829175687171
 40
0.9281367827351179
 40
1.0
 40
1.0
 40
1.0
 40
1.0
 10
72.001588156413
 20
222.7990789473684
 30
0.0
 10
72.00833436122808
 20
222.9811186373777
 30
0.0
 10
72.02120072504576
 20
223.3283047879792
 30
0.0
 10
72.060396608738
 20
223.7630179936653
 30
0.0
 10
72.10663892614276
 20
224.0964597906735
 30
0.0
 10
72.15455097421585
 20
224.3489319222061
 30
0.0
 10
72.22584655994909
 20
224.6227892382678
 30
0.0
 10
72.32505062027263
 20
224.895842802702
 30
0.0
 10
72.45864750249974
 20
225.1313958966768
 30
0.0
 10
72.60885655396811
 20
225.2706879322153
 30
0.0
 10
72.77154833425547
 20
225.3135305242463
 30
0.0
 10
72.93956607060449
 20
225.2706338456521
 30
0.0
 10
73.08634237452013
 20
225.146603356142
 30
0.0
 10
73.20751715840834
 20
224.9789340707637
 30
0.0
 10
73.3069447681245
 20
224.7933536621474
 30
0.0
 10
73.40910750878297
 20
224.554440084887
 30
0.0
 10
73.50687687489848
 20
224.2367886157756
 30
0.0
 10
73.58712745989615
 20
223.8224591008816
 30
0.0
 10
73.64705304519964
 20
223.3368270555754
 30
0.0
 10
73.66712367271772
 20
222.9847971974395
 30
0.0
 10
73.67771221154287
 20
222.7990789473684
 30
0.0
  0
LINE
  5
1C2
330
1F
100
AcDbEntity
  8
0
  6
Continuous
 62
     7
370
    25
100
AcDbLine
 10
72.0015881564
 20
187.7990789474
 30
0.0
 11
72.0015881564
 21
222.7990789474
 31
0.0
  0
SPLINE
  5
1C3
330
1F
100
AcDbEntity
  8
0
  6
Continuous
 62
     7
370
    25
100
AcDbSpline
210
0.0
220
0.0
230
1.0
 70
     8
 71
     3
 72
    25
 73
    21
 74
     0
 42
0.000000001
 43
0.00000001
 40
0.0
 40
0.0
 40
0.0
 40
0.0
 40
0.0702899779928286
 40
0.1340570668073915
 40
0.1737774556684263
 40
0.2119332257506228
 40
0.2492013735520362
 40
0.3134637919833463
 40
0.3750077753386025
 40
0.4363535187943433
 40
0.5000447514999422
 40
0.5636657443252621
 40
0.6250110988248995
 40
0.665927347700014
 40
0.7077049969193926
 40
0.7510501510775773
 40
0.805425821484525
 40
0.8637829175687097
 40
0.9281367827351176
 40
1.0
 40
1.0
 40
1.0
 40
1.0
 10
73.67771221154287
 20
187.7990789473684
 30
0.0
 10
73.6684074449758
 20
187.617039257359
 30
0.0
 10
73.65066139142837
 20
187.2698531067576
 30
0.0
 10
73.59742503970708
 20
186.8351399010715
 30
0.0
 10
73.53598847858022
 20
186.5016981040632
 30
0.0
 10
73.47355977851471
 20
186.2492259725307
 30
0.0
 10
73.3828234023157
 20
185.975368656469
 30
0.0
 10
73.26095357439804
 20
185.7023150920348
 30
0.0
 10
73.10534427456878
 20
185.4667619980598
 30
0.0
 10
72.94020951641625
 20
185.3274699625214
 30
0.0
 10
72.7721737175624
 20
185.2846273704904
 30
0.0
 10
72.60946356156556
 20
185.3275240490847
 30
0.0
 10
72.47591495590851
 20
185.4515545385946
 30
0.0
 10
72.37076538128738
 20
185.6192238239731
 30
0.0
 10
72.28753334560487
 20
185.8048042325893
 30
0.0
 10
72.20490080751908
 20
186.0437178098497
 30
0.0
 10
72.12865482092518
 20
186.3613692789611
 30
0.0
 10
72.06803392213324
 20
186.7756987938551
 30
0.0
 10
72.0238267720387
 20
187.2613308391614
 30
0.0
 10
72.0092685493609
 20
187.6133606972972
 30
0.0
 10
72.001588156413
 20
187.7990789473684
 30
0.0
  0
LINE
  5
1C4
330
1F
100
AcDbEntity
  8
0
  6
Continuous
 62
     7
370
    25
100
AcDbLine
 10
79.7892847659
 20
222.7990789474
 30
0.0
 11
79.7892847659
 21
187.7990789474
 31
0.0
  0
SPLINE
  5
1C5
330
1F
100
AcDbEntity
  8
0
  6
Continuous
 62
     7
370
    25
100
AcDbSpline
210
0.0
220
0.0
230
1.0
 70
     8
 71
     3
 72
    25
 73
    21
 74
     0
 42
0.000000001
 43
0.00000001
 40
0.0
 40
0.0
 40
0.0
 40
0.0
 40
0.0702899779872319
 40
0.1340570667999603
 40
0.1737774556617472
 40
0.2119332257461121
 40
0.2492013735508732
 40
0.3134637919775308
 40
0.3750077753309928
 40
0.4363535187886236
 40
0.5000447515001755
 40
0.5636657443254719
 40
0.6250110988250778
 40
0.6659273477001695
 40
0.7077049969195248
 40
0.7510501510776932
 40
0.8054258214846158
 40
0.8637829175687796
 40
0.928136782735151
 40
1.0
 40
1.0
 40
1.0
 40
1.0
 10
76.90549431877704
 20
222.7990789473684
 30
0.0
 10
76.9181932332856
 20
222.9811186373633
 30
0.0
 10
76.94241260679102
 20
223.3283047879455
 30
0.0
 10
77.0158420325116
 20
223.7630179936133
 30
0.0
 10
77.10188735812243
 20
224.0964597906249
 30
0.0
 10
77.19051627854665
 20
224.3489319221748
 30
0.0
 10
77.32147846004149
 20
224.622789238256
 30
0.0
 10
77.50183390688886
 20
224.8958428027092
 30
0.0
 10
77.74108374452283
 20
225.1313958966825
 30
0.0
 10
78.00589040382374
 20
225.2706879322178
 30
0.0
 10
78.2880842809337
 20
225.3135305242458
 30
0.0
 10
78.57489542986465
 20
225.2706338456526
 30
0.0
 10
78.82178015182906
 20
225.146603356142
 30
0.0
 10
79.02342319220992
 20
224.9789340707637
 30
0.0
 10
79.18757726119638
 20
224.7933536621474
 30
0.0
 10
79.3550139365435
 20
224.554440084887
 30
0.0
 10
79.51404107444257
 20
224.2367886157756
 30
0.0
 10
79.64373517789763
 20
223.8224591008816
 30
0.0
 10
79.74012920842051
 20
223.3368270555754
 30
0.0
 10
79.77230825964514
 20
222.9847971974395
 30
0.0
 10
79.78928476588254
 20
222.7990789473684
 30
0.0
  0
LINE
  5
1C6
330
1F
100
AcDbEntity
  8
0
  6
Continuous
 62
     7
370
    25
100
AcDbLine
 10
76.9054943188
 20
187.7990789474
 30
0.0
 11
76.9054943188
 21
222.7990789474
 31
0.0
  0
SPLINE
  5
1C7
330
1F
100
AcDbEntity
  8
0
  6
Continuous
 62
     7
370
    25
100
AcDbSpline
210
0.0
220
0.0
230
1.0
 70
     8
 71
     3
 72
    25
 73
    21
 74
     0
 42
0.000000001
 43
0.00000001
 40
0.0
 40
0.0
 40
0.0
 40
0.0
 40
0.070289977992828
 40
0.1340570668073925
 40
0.1737774556684298
 40
0.2119332257506177
 40
0.2492013735520398
 40
0.3134637919833506
 40
0.3750077753386023
 40
0.4363535187943434
 40
0.5000447514999424
 40
0.5636657443252676
 40
0.6250110988249007
 40
0.6659273477000147
 40
0.7077049969193895
 40
0.7510501510775779
 40
0.8054258214845313
 40
0.8637829175687227
 40
0.9281367827351173
 40
1.0
 40
1.0
 40
1.0
 40
1.0
 10
79.78928476588254
 20
187.7990789473684
 30
0.0
 10
79.77436780208191
 20
187.617039257359
 30
0.0
 10
79.74591816431152
 20
187.2698531067576
 30
0.0
 10
79.66031688065556
 20
186.8351399010715
 30
0.0
 10
79.56109947448142
 20
186.5016981040633
 30
0.0
 10
79.45988588626956
 20
186.2492259725307
 30
0.0
 10
79.31207023953718
 20
185.975368656469
 30
0.0
 10
79.11206555430454
 20
185.7023150920348
 30
0.0
 10
78.85373287559983
 20
185.4667619980599
 30
0.0
 10
78.57598693387372
 20
185.3274699625214
 30
0.0
 10
78.2891602600153
 20
185.2846273704904
 30
0.0
 10
78.0069503191083
 20
185.3275240490847
 30
0.0
 10
77.77153285476538
 20
185.4515545385946
 30
0.0
 10
77.58378226940665
 20
185.6192238239731
 30
0.0
 10
77.43366834679652
 20
185.8048042325894
 30
0.0
 10
77.28316264915411
 20
186.0437178098497
 30
0.0
 10
77.14279439907021
 20
186.3613692789612
 30
0.0
 10
77.03011751692983
 20
186.7756987938552
 30
0.0
 10
76.94734999514827
 20
187.2613308391614
 30
0.0
 10
76.91994971685762
 20
187.6133606972972
 30
0.0
 10
76.90549431877704
 20
187.7990789473684
 30
0.0
  0
LINE
  5
1C8
330
1F
100
AcDbEntity
  8
0
  6
Continuous
 62
     7
370
    25
100
AcDbLine
 10
88.453188351
 20
222.7990789474
 30
0.0
 11
88.453188351
 21
187.7990789474
 31
0.0
  0
SPLINE
  5
1C9
330
1F
100
AcDbEntity
  8
0
  6
Continuous
 62
     7
370
    25
100
AcDbSpline
210
0.0
220
0.0
230
1.0
 70
     8
 71
     3
 72
    25
 73
    21
 74
     0
 42
0.000000001
 43
0.00000001
 40
0.0
 40
0.0
 40
0.0
 40
0.0
 40
0.0702899779883844
 40
0.1340570668014879
 40
0.173777455663112
 40
0.2119332257470432
 40
0.249201373551115
 40
0.3134637919787289
 40
0.3750077753325637
 40
0.4363535187898031
 40
0.5000447515001278
 40
0.5636657443254246
 40
0.6250110988250421
 40
0.6659273477001384
 40
0.7077049969194977
 40
0.7510501510776703
 40
0.805425821484598
 40
0.8637829175687655
 40
0.9281367827351438
 40
1.0
 40
1.0
 40
1.0
 40
1.0
 10
84.57548048540187
 20
222.7990789473684
 30
0.0
 10
84.59319085538021
 20
222.9811186373663
 30
0.0
 10
84.62696807823917
 20
223.3283047879524
 30
0.0
 10
84.72918839519343
 20
223.763017993624
 30
0.0
 10
84.84865897710532
 20
224.0964597906349
 30
0.0
 10
84.97143551975344
 20
224.3489319221812
 30
0.0
 10
85.1523572699763
 20
224.6227892382584
 30
0.0
 10
85.40049600594499
 20
224.8958428027077
 30
0.0
 10
85.72766539979747
 20
225.1313958966813
 30
0.0
 10
86.08744197461174
 20
225.2706879322173
 30
0.0
 10
86.46822150101504
 20
225.3135305242459
 30
0.0
 10
86.85256737892982
 20
225.2706338456525
 30
0.0
 10
87.1812612157009
 20
225.146603356142
 30
0.0
 10
87.4484265608233
 20
224.9789340707637
 30
0.0
 10
87.66513985141982
 20
224.7933536621474
 30
0.0
 10
87.88543991425108
 20
224.554440084887
 30
0.0
 10
88.09393759871783
 20
224.2367886157756
 30
0.0
 10
88.26346218459886
 20
223.8224591008816
 30
0.0
 10
88.38917985372359
 20
223.3368270555754
 30
0.0
 10
88.43108219031284
 20
222.9847971974395
 30
0.0
 10
88.45318835104152
 20
222.7990789473684
 30
0.0
  0
LINE
  5
1CA
330
1F
100
AcDbEntity
  8
0
  6
Continuous
 62
     7
370
    25
100
AcDbLine
 10
84.5754804854
 20
187.7990789474
 30
0.0
 11
84.5754804854
 21
222.7990789474
 31
0.0
  0
SPLINE
  5
1CB
330
1F
100
AcDbEntity
  8
0
  6
Continuous
 62
     7
370
    25
100
AcDbSpline
210
0.0
220
0.0
230
1.0
 70
     8
 71
     3
 72
    25
 73
    21
 74
     0
 42
0.000000001
 43
0.00000001
 40
0.0
 40
0.0
 40
0.0
 40
0.0
 40
0.0702899779916675
 40
0.1340570668058459
 40
0.1737774556670294
 40
0.2119332257496674
 40
0.2492013735517654
 40
0.3134637919821112
 40
0.3750077753369893
 40
0.4363535187931126
 40
0.500044751499926
 40
0.5636657443264652
 40
0.6250110988264787
 40
0.6659273477014207
 40
0.70770499692033
 40
0.7510501510778217
 40
0.8054258214856928
 40
0.8637829175702163
 40
0.9281367827362397
 40
1.0
 40
1.0
 40
1.0
 40
1.0
 10
88.45318835104152
 20
187.7990789473684
 30
0.0
 10
88.43376484791077
 20
187.6170392573619
 30
0.0
 10
88.39672033699752
 20
187.2698531067645
 30
0.0
 10
88.28509896054928
 20
186.8351399010822
 30
0.0
 10
88.15545478692333
 20
186.5016981040733
 30
0.0
 10
88.02295834685191
 20
186.2492259725371
 30
0.0
 10
87.82901964964996
 20
185.9753686564714
 30
0.0
 10
87.56570462259609
 20
185.7023150920333
 30
0.0
 10
87.2237964004419
 20
185.4667619980587
 30
0.0
 10
86.85402603794685
 20
185.3274699625208
 30
0.0
 10
86.46966832338894
 20
185.2846273704906
 30
0.0
 10
86.08887623574756
 20
185.3275240490841
 30
0.0
 10
85.76903925317794
 20
185.4515545385937
 30
0.0
 10
85.51260388838251
 20
185.6192238239726
 30
0.0
 10
85.30673464904957
 20
185.8048042325887
 30
0.0
 10
85.09951140075063
 20
186.0437178098534
 30
0.0
 10
84.90542509993632
 20
186.361369278969
 30
0.0
 10
84.74904393972157
 20
186.775698793865
 30
0.0
 10
84.63385084458154
 20
187.2613308391681
 30
0.0
 10
84.59563944235103
 20
187.6133606973001
 30
0.0
 10
84.57548048540187
 20
187.7990789473684
 30
0.0
  0
LINE
  5
1CC
330
1F
100
AcDbEntity
  8
0
  6
Continuous
 62
     7
370
    25
100
AcDbLine
 10
99.0272471462
 20
222.7990789474
 30
0.0
 11
99.0272471462
 21
187.7990789474
 31
0.0
  0
SPLINE
  5
1CD
330
1F
100
AcDbEntity
  8
0
  6
Continuous
 62
     7
370
    25
100
AcDbSpline
210
0.0
220
0.0
230
1.0
 70
     8
 71
     3
 72
    25
 73
    21
 74
     0
 42
0.000000001
 43
0.00000001
 40
0.0
 40
0.0
 40
0.0
 40
0.0
 40
0.0702899779916743
 40
0.1340570668058517
 40
0.173777455667035
 40
0.211933225749667
 40
0.2492013735517701
 40
0.3134637919821143
 40
0.3750077753369881
 40
0.4363535187931093
 40
0.5000447514999294
 40
0.5636657443264685
 40
0.6250110988264842
 40
0.6659273477014245
 40
0.7077049969203344
 40
0.7510501510778256
 40
0.8054258214856984
 40
0.8637829175702092
 40
0.9281367827362389
 40
1.0
 40
1.0
 40
1.0
 40
1.0
 10
94.44304083053589
 20
222.7990789473684
 30
0.0
 10
94.46444994846583
 20
222.9811186373748
 30
0.0
 10
94.50528142451104
 20
223.3283047879722
 30
0.0
 10
94.62871597683079
 20
223.7630179936546
 30
0.0
 10
94.77275655502814
 20
224.0964597906635
 30
0.0
 10
94.92058041929293
 20
224.3489319221997
 30
0.0
 10
95.13805166595536
 20
224.6227892382654
 30
0.0
 10
95.43558143924089
 20
224.8958428027035
 30
0.0
 10
95.82642031866794
 20
225.131395896678
 30
0.0
 10
96.25449986666153
 20
225.2706879322159
 30
0.0
 10
96.70564134358895
 20
225.3135305242461
 30
0.0
 10
97.15903391074781
 20
225.2706338456527
 30
0.0
 10
97.54517379868975
 20
225.1466033561429
 30
0.0
 10
97.85805892846477
 20
224.9789340707642
 30
0.0
 10
98.1112684692953
 20
224.793353662148
 30
0.0
 10
98.3681030936593
 20
224.5544400848834
 30
0.0
 10
98.61061730095464
 20
224.2367886157677
 30
0.0
 10
98.8074070643732
 20
223.8224591008718
 30
0.0
 10
98.95313007272546
 20
223.3368270555687
 30
0.0
 10
99.00164985824782
 20
222.9847971974366
 30
0.0
 10
99.02724714624128
 20
222.7990789473684
 30
0.0
  0
LINE
  5
1CE
330
1F
100
AcDbEntity
  8
0
  6
Continuous
 62
     7
370
    25
100
AcDbLine
 10
94.4430408305
 20
187.7990789474
 30
0.0
 11
94.4430408305
 21
222.7990789474
 31
0.0
  0
SPLINE
  5
1CF
330
1F
100
AcDbEntity
  8
0
  6
Continuous
 62
     7
370
    25
100
AcDbSpline
210
0.0
220
0.0
230
1.0
 70
     8
 71
     3
 72
    25
 73
    21
 74
     0
 42
0.000000001
 43
0.00000001
 40
0.0
 40
0.0
 40
0.0
 40
0.0
 40
0.0702899779916767
 40
0.1340570668058634
 40
0.1737774556670522
 40
0.2119332257496906
 40
0.2492013735517987
 40
0.3134637919821551
 40
0.3750077753370386
 40
0.4363535187931678
 40
0.5000447514999918
 40
0.5636657443253085
 40
0.625011098824938
 40
0.6659273477000482
 40
0.7077049969194188
 40
0.7510501510776029
 40
0.8054258214845442
 40
0.863782917568721
 40
0.9281367827351245
 40
1.0
 40
1.0
 40
1.0
 40
1.0
 10
99.02724714624128
 20
187.7990789473684
 30
0.0
 10
99.00475679016907
 20
187.617039257362
 30
0.0
 10
98.9618631764192
 20
187.2698531067645
 30
0.0
 10
98.83249517748352
 20
186.8351399010822
 30
0.0
 10
98.68203357159628
 20
186.5016981040733
 30
0.0
 10
98.52807502724383
 20
186.2492259725372
 30
0.0
 10
98.30238817892489
 20
185.9753686564714
 30
0.0
 10
97.99527994132116
 20
185.7023150920334
 30
0.0
 10
97.59513870071501
 20
185.4667619980587
 30
0.0
 10
97.16075160772837
 20
185.3274699625209
 30
0.0
 10
96.70735176955739
 20
185.2846273704905
 30
0.0
 10
96.25620216500278
 20
185.3275240490846
 30
0.0
 10
95.87565225036944
 20
185.4515545385946
 30
0.0
 10
95.56953931105768
 20
185.6192238239731
 30
0.0
 10
95.32317395616833
 20
185.8048042325894
 30
0.0
 10
95.07459271866196
 20
186.0437178098498
 30
0.0
 10
94.84117420697159
 20
186.3613692789611
 30
0.0
 10
94.65267987180803
 20
186.7756987938551
 30
0.0
 10
94.51359941240823
 20
187.2613308391614
 30
0.0
 10
94.46740914750967
 20
187.6133606972972
 30
0.0
 10
94.44304083053589
 20
187.7990789473684
 30
0.0
  0
LINE
  5
1D0
330
1F
100
AcDbEntity
  8
0
  6
Continuous
 62
     7
370
    25
100
AcDbLine
 10
110.7277030199
 20
222.7990789474
 30
0.0
 11
110.7277030199
 21
187.7990789474
 31
0.0
  0
SPLINE
  5
1D1
330
1F
100
AcDbEntity
  8
0
  6
Continuous
 62
     7
370
    25
100
AcDbSpline
210
0.0
220
0.0
230
1.0
 70
     8
 71
     3
 72
    25
 73
    21
 74
     0
 42
0.000000001
 43
0.00000001
 40
0.0
 40
0.0
 40
0.0
 40
0.0
 40
0.0702899779916834
 40
0.1340570668058697
 40
0.1737774556670561
 40
0.2119332257496943
 40
0.2492013735518023
 40
0.3134637919821545
 40
0.3750077753370366
 40
0.4363535187931682
 40
0.5000447514999942
 40
0.5636657443253107
 40
0.6250110988249415
 40
0.6659273477000485
 40
0.7077049969194188
 40
0.751050151077603
 40
0.8054258214845454
 40
0.8637829175687284
 40
0.9281367827351247
 40
1.0
 40
1.0
 40
1.0
 40
1.0
 10
105.7767834819781
 20
222.7990789473684
 30
0.0
 10
105.8003044860314
 20
222.9811186373748
 30
0.0
 10
105.8451637519153
 20
223.3283047879723
 30
0.0
 10
105.9806634667642
 20
223.7630179936546
 30
0.0
 10
106.1385976324409
 20
224.0964597906635
 30
0.0
 10
106.3005119891724
 20
224.3489319221996
 30
0.0
 10
106.5384135805524
 20
224.6227892382654
 30
0.0
 10
106.8632812341011
 20
224.8958428027035
 30
0.0
 10
107.2888202926274
 20
225.131395896678
 30
0.0
 10
107.7534731976612
 20
225.2706879322158
 30
0.0
 10
108.2415376393999
 20
225.3135305242462
 30
0.0
 10
108.7303710573846
 20
225.2706338456522
 30
0.0
 10
109.1453359832207
 20
225.146603356142
 30
0.0
 10
109.4807495886688
 20
224.9789340707637
 30
0.0
 10
109.7516872756041
 20
224.7933536621474
 30
0.0
 10
110.026019663132
 20
224.554440084887
 30
0.0
 10
110.2845750362428
 20
224.2367886157756
 30
0.0
 10
110.4940437544163
 20
223.8224591008816
 30
0.0
 10
110.6489709900521
 20
223.3368270555754
 30
0.0
 10
110.7005118971961
 20
222.9847971974395
 30
0.0
 10
110.7277030199393
 20
222.7990789473684
 30
0.0
  0
LINE
  5
1D2
330
1F
100
AcDbEntity
  8
0
  6
Continuous
 62
     7
370
    25
100
AcDbLine
 10
105.776783482
 20
187.7990789474
 30
0.0
 11
105.776783482
 21
222.7990789474
 31
0.0
  0
SPLINE
  5
1D3
330
1F
100
AcDbEntity
  8
0
  6
Continuous
 62
     7
370
    25
100
AcDbSpline
210
0.0
220
0.0
230
1.0
 70
     8
 71
     3
 72
    25
 73
    21
 74
     0
 42
0.000000001
 43
0.00000001
 40
0.0
 40
0.0
 40
0.0
 40
0.0
 40
0.0702899779916771
 40
0.1340570668058637
 40
0.1737774556670502
 40
0.21193322574969
 40
0.2492013735517982
 40
0.3134637919821544
 40
0.3750077753370378
 40
0.4363535187931697
 40
0.5000447514999911
 40
0.5636657443253102
 40
0.6250110988249373
 40
0.6659273477000476
 40
0.7077049969194179
 40
0.7510501510776023
 40
0.805425821484545
 40
0.8637829175687219
 40
0.9281367827351245
 40
1.0
 40
1.0
 40
1.0
 40
1.0
 10
110.7277030199393
 20
187.7990789473684
 30
0.0
 10
110.7038128150339
 20
187.617039257362
 30
0.0
 10
110.6582494091755
 20
187.2698531067646
 30
0.0
 10
110.5207236526426
 20
186.8351399010822
 30
0.0
 10
110.3605969552728
 20
186.5016981040733
 30
0.0
 10
110.1965878434384
 20
186.2492259725372
 30
0.0
 10
109.9558809430208
 20
185.9753686564714
 30
0.0
 10
109.6277426157414
 20
185.7023150920334
 30
0.0
 10
109.1990271619883
 20
185.4667619980587
 30
0.0
 10
108.732220475197
 20
185.3274699625209
 30
0.0
 10
108.2433848907618
 20
185.2846273704905
 30
0.0
 10
107.7553173574338
 20
185.3275240490846
 30
0.0
 10
107.3422611904796
 20
185.4515545385946
 30
0.0
 10
107.0091600251798
 20
185.6192238239731
 30
0.0
 10
106.7405593620547
 20
185.8048042325894
 30
0.0
 10
106.4690451857452
 20
186.0437178098498
 30
0.0
 10
106.2135956395914
 20
186.3613692789611
 30
0.0
 10
106.0069594881398
 20
186.7756987938552
 30
0.0
 10
105.8543004251088
 20
187.2613308391614
 30
0.0
 10
105.8035549588265
 20
187.6133606972972
 30
0.0
 10
105.7767834819781
 20
187.7990789473684
 30
0.0
  0
LINE
  5
1D4
330
1F
100
AcDbEntity
  8
0
  6
Continuous
 62
     7
370
    25
100
AcDbLine
 10
114.3240130933
 20
253.2990789474
 30
0.0
 11
114.3240130933
 21
180.2990789474
 31
0.0
  0
LINE
  5
1D5
330
1F
100
AcDbEntity
  8
0
  6
Continuous
 62
     7
370
    25
100
AcDbLine
 10
114.2240131579
 20
180.2990789474
 30
0.0
 11
114.2240131579
 21
253.2990789474
 31
0.0
  0
LINE
  5
1D6
330
1F
100
AcDbEntity
  8
0
  6
Continuous
 62
     7
370
    25
100
AcDbLine
 10
114.3240130933
 20
180.2990789474
 30
0.0
 11
158.2240131579
 21
180.2990789474
 31
0.0
  0
LINE
  5
1D7
330
1F
100
AcDbEntity
  8
0
  6
Continuous
 62
     7
370
    25
100
AcDbLine
 10
70.2240131579
 20
180.2990789474
 30
0.0
 11
114.2240131579
 21
180.2990789474
 31
0.0
  0
LINE
  5
1D8
330
1F
100
AcDbEntity
  8
0
  6
Continuous
 62
     7
370
    25
100
AcDbLine
 10
72.2240131579
 20
253.2990789474
 30
0.0
 11
70.2240131579
 21
253.2990789474
 31
0.0
  0
LINE
  5
1D9
330
1F
100
AcDbEntity
  8
0
  6
Continuous
 62
     7
370
    25
100
AcDbLine
 10
158.2240131579
 20
253.2990789474
 30
0.0
 11
156.2240131579
 21
253.2990789474
 31
0.0
  0
LINE
  5
1DA
330
1F
100
AcDbEntity
  8
0
  6
Continuous
 62
     7
370
    25
100
AcDbLine
 10
114.3194676417
 20
253.2990789474
 30
0.0
 11
114.3194676417
 21
180.2990789474
 31
0.0
  0
LINE
  5
1DB
330
1F
100
AcDbEntity
  8
0
  6
Continuous
 62
     7
370
    25
100
AcDbLine
 10
114.3194676417
 20
180.2990789474
 30
0.0
 11
114.3240130933
 21
180.2990789474
 31
0.0
  0
SPLINE
  5
1DC
330
1F
100
AcDbEntity
  8
0
  6
Continuous
 62
     7
370
    25
100
AcDbSpline
210
0.0
220
0.0
230
1.0
 70
     8
 71
     3
 72
    16
 73
    12
 74
     0
 42
0.000000001
 43
0.00000001
 40
0.0
 40
0.0
 40
0.0
 40
0.0
 40
0.1488726388697044
 40
0.2835307304828088
 40
0.3670354040806552
 40
0.4468504223444046
 40
0.5243389152146469
 40
0.6569640225805271
 40
0.7828984997662183
 40
0.9075599696956372
 40
1.0
 40
1.0
 40
1.0
 40
1.0
 10
106.160748467247
 20
222.7990789473684
 30
0.0
 10
106.1831780425096
 20
222.9810239585213
 30
0.0
 10
106.2258955889097
 20
223.3275416417677
 30
0.0
 10
106.3550328067011
 20
223.7621701758214
 30
0.0
 10
106.505774396075
 20
224.0957866911239
 30
0.0
 10
106.6601477672135
 20
224.348220833784
 30
0.0
 10
106.8867761149932
 20
224.6216317425873
 30
0.0
 10
107.196151866209
 20
224.8952170202416
 30
0.0
 10
107.6027083461267
 20
225.1288034638376
 30
0.0
 10
108.0034914470182
 20
225.2635464969652
 30
0.0
 10
108.2682207741162
 20
225.2793677814918
 30
0.0
 10
108.3809403407385
 20
225.2861043541065
 30
0.0
  0
LINE
  5
1DD
330
1F
100
AcDbEntity
  8
0
  6
Continuous
 62
     7
370
    25
100
AcDbLine
 10
106.1607484672
 20
222.7990789474
 30
0.0
 11
105.776783482
 21
222.7990789474
 31
0.0
  0
LINE
  5
1DE
330
1F
100
AcDbEntity
  8
0
  6
Continuous
 62
     7
370
    25
100
AcDbLine
 10
106.1607484672
 20
187.7990789474
 30
0.0
 11
105.776783482
 21
187.7990789474
 31
0.0
  0
SPLINE
  5
1DF
330
1F
100
AcDbEntity
  8
0
  6
Continuous
 62
     7
370
    25
100
AcDbSpline
210
0.0
220
0.0
230
1.0
 70
     8
 71
     3
 72
    16
 73
    12
 74
     0
 42
0.000000001
 43
0.00000001
 40
0.0
 40
0.0
 40
0.0
 40
0.0
 40
0.0923873691725907
 40
0.2170561128550781
 40
0.3006723593013912
 40
0.3865198836625958
 40
0.4760984651910207
 40
0.5893510541723954
 40
0.7119175554616038
 40
0.8478126944901933
 40
0.9999999999999999
 40
0.9999999999999999
 40
0.9999999999999999
 40
0.9999999999999999
 10
108.3826573128819
 20
185.3120496404776
 30
0.0
 10
108.2700083072634
 20
185.3187801870488
 30
0.0
 10
108.0053492364885
 20
185.3345930226043
 30
0.0
 10
107.6541672687641
 20
185.4532459350682
 30
0.0
 10
107.3363506630689
 20
185.6193975023768
 30
0.0
 10
107.0800253183172
 20
185.8054496302265
 30
0.0
 10
106.8205093488381
 20
186.0447581452264
 30
0.0
 10
106.5767484419877
 20
186.3629911707392
 30
0.0
 10
106.3800427140708
 20
186.776888973599
 30
0.0
 10
106.2346031313759
 20
187.2620797146999
 30
0.0
 10
106.186277685032
 20
187.6134553239609
 30
0.0
 10
106.1607484672471
 20
187.7990789473684
 30
0.0
  0
SPLINE
  5
1E0
330
1F
100
AcDbEntity
  8
0
  6
Continuous
 62
     7
370
    25
100
AcDbSpline
210
0.0
220
0.0
230
1.0
 70
     8
 71
     3
 72
    16
 73
    12
 74
     0
 42
0.000000001
 43
0.00000001
 40
0.0
 40
0.0
 40
0.0
 40
0.0
 40
0.1489644750418387
 40
0.2837056341921936
 40
0.3672618199375323
 40
0.4471260742830522
 40
0.5246623680535459
 40
0.6573692888556915
 40
0.7833814521777842
 40
0.9081198229526453
 40
0.9999999999999999
 40
0.9999999999999999
 40
0.9999999999999999
 40
0.9999999999999999
 10
122.3809358969742
 20
187.7990789473684
 30
0.0
 10
122.358516344463
 20
187.6171339388476
 30
0.0
 10
122.3158178865809
 20
187.270616260616
 30
0.0
 10
122.1867375740049
 20
186.8359876959356
 30
0.0
 10
122.0360610298089
 20
186.5023712534192
 30
0.0
 10
121.8817530942166
 20
186.2499368835298
 30
0.0
 10
121.6552183849048
 20
185.9765269870108
 30
0.0
 10
121.3459673307333
 20
185.7029353290217
 30
0.0
 10
120.9395600435587
 20
185.469373564047
 30
0.0
 10
120.5396529038347
 20
185.33479077455
 30
0.0
 10
120.2757662319891
 20
185.3189789783754
 30
0.0
 10
120.1638369702829
 20
185.3122723013777
 30
0.0
  0
LINE
  5
1E1
330
1F
100
AcDbEntity
  8
0
  6
Continuous
 62
     7
370
    25
100
AcDbLine
 10
122.380935897
 20
187.7990789474
 30
0.0
 11
122.7693607893
 21
187.7990789474
 31
0.0
  0
LINE
  5
1E2
330
1F
100
AcDbEntity
  8
0
  6
Continuous
 62
     7
370
    25
100
AcDbLine
 10
122.380935897
 20
222.7990789474
 30
0.0
 11
122.7693607893
 21
222.7990789474
 31
0.0
  0
SPLINE
  5
1E3
330
1F
100
AcDbEntity
  8
0
  6
Continuous
 62
     7
370
    25
100
AcDbSpline
210
0.0
220
0.0
230
1.0
 70
     8
 71
     3
 72
    16
 73
    12
 74
     0
 42
0.000000001
 43
0.00000001
 40
0.0
 40
0.0
 40
0.0
 40
0.0
 40
0.0918285707808818
 40
0.2165740704406416
 40
0.3002417976865091
 40
0.3861421765985022
 40
0.4757759098122967
 40
0.5890982260809554
 40
0.7117401890400639
 40
0.8477189959046221
 40
0.9999999999999999
 40
0.9999999999999999
 40
0.9999999999999999
 40
0.9999999999999999
 10
120.1621160086042
 20
225.2858895066793
 30
0.0
 10
120.2739762688527
 20
225.2791888980969
 30
0.0
 10
120.5377942905922
 20
225.2633857764457
 30
0.0
 10
120.8881205150383
 20
225.144899596068
 30
0.0
 10
121.2058211938894
 20
224.9787632134384
 30
0.0
 10
121.4620464853754
 20
224.7927074694063
 30
0.0
 10
121.7214583011657
 20
224.5534000301845
 30
0.0
 10
121.9651174735177
 20
224.235166634328
 30
0.0
 10
122.1617386112175
 20
223.8212689487408
 30
0.0
 10
122.3071142222233
 20
223.3360781718219
 30
0.0
 10
122.3554180825725
 20
222.9847025679356
 30
0.0
 10
122.3809358969746
 20
222.7990789473684
 30
0.0
  0
LINE
  5
1E4
330
1F
100
AcDbEntity
  8
0
  6
Continuous
 62
     7
370
    25
100
AcDbLine
 10
106.1607484672
 20
187.7990789474
 30
0.0
 11
106.1607484672
 21
222.7990789474
 31
0.0
  0
LINE
  5
1E5
330
1F
100
AcDbEntity
  8
0
  6
Continuous
 62
     7
370
    25
100
AcDbLine
 10
122.380935897
 20
222.7990789474
 30
0.0
 11
122.380935897
 21
187.7990789474
 31
0.0
  0
SPLINE
  5
1E6
330
1F
100
AcDbEntity
  8
0
  6
Continuous
 62
     7
370
    25
100
AcDbSpline
210
0.0
220
0.0
230
1.0
 70
     8
 71
     3
 72
    16
 73
    12
 74
     0
 42
0.000000001
 43
0.00000001
 40
0.0
 40
0.0
 40
0.0
 40
0.0
 40
0.0139445103676658
 40
0.1493880849922491
 40
0.2402310900699442
 40
0.3334982172479127
 40
0.4308188682276773
 40
0.5538596163256364
 40
0.6870192566130241
 40
0.8346594979473874
 40
1.0
 40
1.0
 40
1.0
 40
1.0
 10
131.4212811450763
 20
225.2578263921287
 30
0.0
 10
131.435669134417
 20
225.2564417449662
 30
0.0
 10
131.5898082269944
 20
225.2416079657558
 30
0.0
 10
131.8254472984427
 20
225.1422423749491
 30
0.0
 10
132.1177600238797
 20
224.9793695276909
 30
0.0
 10
132.352479631581
 20
224.7925365831911
 30
0.0
 10
132.5898546125598
 20
224.553460354243
 30
0.0
 10
132.8123297025365
 20
224.235147363953
 30
0.0
 10
132.9915667789719
 20
223.8212748833782
 30
0.0
 10
133.1239177010737
 20
223.3360764076985
 30
0.0
 10
133.1678549485997
 20
222.9847019581346
 30
0.0
 10
133.1910659822438
 20
222.7990789473684
 30
0.0
  0
LINE
  5
1E7
330
1F
100
AcDbEntity
  8
0
  6
Continuous
 62
     7
370
    25
100
AcDbLine
 10
133.1910659822
 20
222.7990789474
 30
0.0
 11
133.1910659822
 21
187.7990789474
 31
0.0
  0
SPLINE
  5
1E8
330
1F
100
AcDbEntity
  8
0
  6
Continuous
 62
     7
370
    25
100
AcDbSpline
210
0.0
220
0.0
230
1.0
 70
     8
 71
     3
 72
    16
 73
    12
 74
     0
 42
0.000000001
 43
0.00000001
 40
0.0
 40
0.0
 40
0.0
 40
0.0
 40
0.1617667592536658
 40
0.3080878243796916
 40
0.3988249842300214
 40
0.4855529212258915
 40
0.5697528283830557
 40
0.7138648289302336
 40
0.8507067120815565
 40
0.9861653305851972
 40
0.9999999999999999
 40
0.9999999999999999
 40
0.9999999999999999
 40
0.9999999999999999
 10
133.1910659822438
 20
187.7990789473684
 30
0.0
 10
133.1706735947438
 20
187.6171345000257
 30
0.0
 10
133.1318359106127
 20
187.2706178905664
 30
0.0
 10
133.0143326714779
 20
186.8359828045005
 30
0.0
 10
132.8770045898836
 20
186.5023818622623
 30
0.0
 10
132.7362318112035
 20
186.2498991012068
 30
0.0
 10
132.5292588436154
 20
185.9767047782921
 30
0.0
 10
132.2464614349097
 20
185.7017543735016
 30
0.0
 10
131.8725614701347
 20
185.473448128612
 30
0.0
 10
131.5917054815246
 20
185.3565361161761
 30
0.0
 10
131.4376840193297
 20
185.3417113179542
 30
0.0
 10
131.4234112007592
 20
185.3403375376228
 30
0.0
  0
SPLINE
  5
1E9
330
1F
100
AcDbEntity
  8
0
  6
Continuous
 62
     7
370
    25
100
AcDbSpline
210
0.0
220
0.0
230
1.0
 70
     8
 71
     3
 72
    15
 73
    11
 74
     0
 42
0.000000001
 43
0.00000001
 40
0.0
 40
0.0
 40
0.0
 40
0.0
 40
0.0399811898704192
 40
0.1425085494154423
 40
0.2477718250383637
 40
0.3576099943682384
 40
0.4964764157084273
 40
0.646763235315012
 40
0.813393171143937
 40
1.0
 40
1.0
 40
1.0
 40
1.0
 10
141.4029196211555
 20
225.1519056483168
 30
0.0
 10
141.4324423389378
 20
225.1407939449337
 30
0.0
 10
141.5376728160598
 20
225.101187501609
 30
0.0
 10
141.7023735959479
 20
224.9756912240047
 30
0.0
 10
141.8995046801657
 20
224.7935732921075
 30
0.0
 10
142.0968572591321
 20
224.5530943885864
 30
0.0
 10
142.2817928743175
 20
224.2352642708531
 30
0.0
 10
142.4303180478009
 20
223.8212388799973
 30
0.0
 10
142.5398473431748
 20
223.3360871100798
 30
0.0
 10
142.5761593593844
 20
222.9847056576088
 30
0.0
 10
142.5953421593409
 20
222.7990789473684
 30
0.0
  0
LINE
  5
1EA
330
1F
100
AcDbEntity
  8
0
  6
Continuous
 62
     7
370
    25
100
AcDbLine
 10
142.5953421593
 20
222.7990789474
 30
0.0
 11
142.5953421593
 21
187.7990789474
 31
0.0
  0
SPLINE
  5
1EB
330
1F
100
AcDbEntity
  8
0
  6
Continuous
 62
     7
370
    25
100
AcDbSpline
210
0.0
220
0.0
230
1.0
 70
     8
 71
     3
 72
    15
 73
    11
 74
     0
 42
0.000000001
 43
0.00000001
 40
0.0
 40
0.0
 40
0.0
 40
0.0
 40
0.1825375868189267
 40
0.3476462547048776
 40
0.4500340522348662
 40
0.5478978432979892
 40
0.6429090058706424
 40
0.8055249656193655
 40
0.9599373259904327
 40
1.0
 40
1.0
 40
1.0
 40
1.0
 10
142.5953421593409
 20
187.7990789473684
 30
0.0
 10
142.5784893226606
 20
187.6171313079911
 30
0.0
 10
142.5463927793942
 20
187.2706086192439
 30
0.0
 10
142.4491657692823
 20
186.8360106276248
 30
0.0
 10
142.3353894650061
 20
186.5023215179287
 30
0.0
 10
142.2185097337983
 20
186.2501140116556
 30
0.0
 10
142.0467794482527
 20
185.9756934800182
 30
0.0
 10
141.8092543102525
 20
185.7084717911547
 30
0.0
 10
141.5771681467854
 20
185.5122492827556
 30
0.0
 10
141.4337451171218
 20
185.457541946054
 30
0.0
 10
141.404199370537
 20
185.4462720048855
 30
0.0
  0
SPLINE
  5
1EC
330
1F
100
AcDbEntity
  8
0
  6
Continuous
 62
     7
370
    25
100
AcDbSpline
210
0.0
220
0.0
230
1.0
 70
     8
 71
     3
 72
    13
 73
     9
 74
     0
 42
0.000000001
 43
0.00000001
 40
0.0
 40
0.0
 40
0.0
 40
0.0
 40
0.027608758308097
 40
0.1695944980259274
 40
0.3491045142333788
 40
0.5433774649054326
 40
0.7587768551390536
 40
1.0
 40
1.0
 40
1.0
 40
1.0
 10
149.3615486830288
 20
224.8278574411388
 30
0.0
 10
149.3712257854722
 20
224.8156333927289
 30
0.0
 10
149.4306700861869
 20
224.7405437660678
 30
0.0
 10
149.5370466298754
 20
224.5510290481453
 30
0.0
 10
149.6718628235351
 20
224.2359240391701
 30
0.0
 10
149.7783101968698
 20
223.8210356936034
 30
0.0
 10
149.8570085324706
 20
223.3361475093496
 30
0.0
 10
149.8829874865191
 20
222.9847265357224
 30
0.0
 10
149.8967115682588
 20
222.7990789473684
 30
0.0
  0
LINE
  5
1ED
330
1F
100
AcDbEntity
  8
0
  6
Continuous
 62
     7
370
    25
100
AcDbLine
 10
149.8967115683
 20
222.7990789474
 30
0.0
 11
149.8967115683
 21
187.7990789474
 31
0.0
  0
SPLINE
  5
1EE
330
1F
100
AcDbEntity
  8
0
  6
Continuous
 62
     7
370
    25
100
AcDbSpline
210
0.0
220
0.0
230
1.0
 70
     8
 71
     3
 72
    13
 73
     9
 74
     0
 42
0.000000001
 43
0.00000001
 40
0.0
 40
0.0
 40
0.0
 40
0.0
 40
0.2352988080159544
 40
0.4481309891862285
 40
0.5801132682111694
 40
0.7062639081363186
 40
0.8287373871288359
 40
0.9999999999999999
 40
0.9999999999999999
 40
0.9999999999999999
 40
0.9999999999999999
 10
149.8967115682588
 20
187.7990789473684
 30
0.0
 10
149.8846503486057
 20
187.6171244892885
 30
0.0
 10
149.8616795297584
 20
187.2705888141877
 30
0.0
 10
149.7919013658351
 20
186.8360700625427
 30
0.0
 10
149.7101906817467
 20
186.5021926123841
 30
0.0
 10
149.6256154441757
 20
186.2505730964111
 30
0.0
 10
149.5132433679374
 20
185.996722273226
 30
0.0
 10
149.4152755875151
 20
185.8535737278185
 30
0.0
 10
149.3581555450107
 20
185.7701110734349
 30
0.0
  0
LINE
  5
1EF
330
1F
100
AcDbEntity
  8
0
  6
Continuous
 62
     7
370
    25
100
AcDbLine
 10
114.3194676417
 20
225.2850803732
 30
0.0
 11
114.2240131579
 21
225.2944506231
 31
0.0
  0
LINE
  5
1F0
330
1F
100
AcDbEntity
  8
0
  6
Continuous
 62
     7
370
    25
100
AcDbLine
 10
114.2240131579
 20
185.3037496973
 30
0.0
 11
114.3194676417
 21
185.3127957514
 31
0.0
  0
LINE
  5
1F1
330
1F
100
AcDbEntity
  8
0
  6
Continuous
 62
     7
370
    25
100
AcDbLine
 10
78.6017906296
 20
187.7990789474
 30
0.0
 11
78.6017906296
 21
222.7990789474
 31
0.0
  0
SPLINE
  5
1F2
330
1F
100
AcDbEntity
  8
0
  6
Continuous
 62
     7
370
    25
100
AcDbSpline
210
0.0
220
0.0
230
1.0
 70
     8
 71
     3
 72
    13
 73
     9
 74
     0
 42
0.000000001
 43
0.00000001
 40
0.0
 40
0.0
 40
0.0
 40
0.0
 40
0.2345041506847111
 40
0.4466175494098322
 40
0.5781540944088562
 40
0.7038786950741194
 40
0.8259385534122649
 40
1.0
 40
1.0
 40
1.0
 40
1.0
 10
78.60179062964603
 20
222.7990789473684
 30
0.0
 10
78.61389608448997
 20
222.9810331092706
 30
0.0
 10
78.63695115008734
 20
223.327568220297
 30
0.0
 10
78.70698077540101
 20
223.7620904137714
 30
0.0
 10
78.78899038810027
 20
224.0959596832547
 30
0.0
 10
78.87385332709762
 20
224.3476047389283
 30
0.0
 10
78.98759351445165
 20
224.6033991572682
 30
0.0
 10
79.08706463545678
 20
224.7481484375768
 30
0.0
 10
79.14553421170083
 20
224.8332327212941
 30
0.0
  0
SPLINE
  5
1F3
330
1F
100
AcDbEntity
  8
0
  6
Continuous
 62
     7
370
    25
100
AcDbSpline
210
0.0
220
0.0
230
1.0
 70
     8
 71
     3
 72
    13
 73
     9
 74
     0
 42
0.000000001
 43
0.00000001
 40
0.0
 40
0.0
 40
0.0
 40
0.0
 40
0.0313751879277331
 40
0.1728109645535395
 40
0.3516256723124793
 40
0.5451461322524347
 40
0.7597112012703816
 40
0.9999999999999999
 40
0.9999999999999999
 40
0.9999999999999999
 40
0.9999999999999999
 10
79.14293182500424
 20
185.7650721683403
 30
0.0
 10
79.13184485775665
 20
185.7789986077704
 30
0.0
 10
79.07077910387359
 20
185.8557038512978
 30
0.0
 10
78.96270034156161
 20
186.0470263373264
 30
0.0
 10
78.82746804444419
 20
186.3622666019104
 30
0.0
 10
78.72061795173074
 20
186.7771121163522
 30
0.0
 10
78.64164009147478
 20
187.2620133831842
 30
0.0
 10
78.61556532622936
 20
187.6134323952572
 30
0.0
 10
78.60179062964603
 20
187.7990789473684
 30
0.0
  0
LINE
  5
1F4
330
1F
100
AcDbEntity
  8
0
  6
Continuous
 62
     7
370
    25
100
AcDbLine
 10
85.9231410614
 20
187.7990789474
 30
0.0
 11
85.9231410614
 21
222.7990789474
 31
0.0
  0
SPLINE
  5
1F5
330
1F
100
AcDbEntity
  8
0
  6
Continuous
 62
     7
370
    25
100
AcDbSpline
210
0.0
220
0.0
230
1.0
 70
     8
 71
     3
 72
    15
 73
    11
 74
     0
 42
0.000000001
 43
0.00000001
 40
0.0
 40
0.0
 40
0.0
 40
0.0
 40
0.1823034161775693
 40
0.3472002723368824
 40
0.4494567203997722
 40
0.5471949656771943
 40
0.6420842419967493
 40
0.8044915878154945
 40
0.9587058583523212
 40
1.0
 40
1.0
 40
1.0
 40
1.0
 10
85.92314106142426
 20
222.7990789473684
 30
0.0
 10
85.94002894616345
 20
222.981026553675
 30
0.0
 10
85.97219223911527
 20
223.327549179445
 30
0.0
 10
86.06962017625358
 20
223.7621475552291
 30
0.0
 10
86.1836302634537
 20
224.095835751796
 30
0.0
 10
86.30074723800877
 20
224.348046108839
 30
0.0
 10
86.47282894483658
 20
224.6224539409047
 30
0.0
 10
86.71080111956047
 20
224.889755674476
 30
0.0
 10
86.94425816448151
 20
225.0864478894739
 30
0.0
 10
87.08893363892031
 20
225.141428255519
 30
0.0
 10
87.11949114520698
 20
225.1530408863922
 30
0.0
  0
SPLINE
  5
1F6
330
1F
100
AcDbEntity
  8
0
  6
Continuous
 62
     7
370
    25
100
AcDbSpline
210
0.0
220
0.0
230
1.0
 70
     8
 71
     3
 72
    15
 73
    11
 74
     0
 42
0.000000001
 43
0.00000001
 40
0.0
 40
0.0
 40
0.0
 40
0.0
 40
0.0412144883756588
 40
0.1436101350438687
 40
0.2487381830652031
 40
0.3584352476064779
 40
0.4971232727056803
 40
0.6472170247321223
 40
0.8136328976188205
 40
1.0
 40
1.0
 40
1.0
 40
1.0
 10
87.12077751073456
 20
185.4450972689302
 30
0.0
 10
87.0902404141883
 20
185.4565470796385
 30
0.0
 10
86.9838351976809
 20
185.4964434589663
 30
0.0
 10
86.8178997230716
 20
185.6224208186418
 30
0.0
 10
86.62039859231015
 20
185.8045975257787
 30
0.0
 10
86.42264534911622
 20
186.0450589441897
 30
0.0
 10
86.23733693178941
 20
186.3628950812006
 30
0.0
 10
86.08850672040998
 20
186.7769185659471
 30
0.0
 10
85.978751277864
 20
187.2620709180748
 30
0.0
 10
85.94236375159963
 20
187.6134522832468
 30
0.0
 10
85.92314106142426
 20
187.7990789473684
 30
0.0
  0
LINE
  5
1F7
330
1F
100
AcDbEntity
  8
0
  6
Continuous
 62
     7
370
    25
100
AcDbLine
 10
95.3421759363
 20
187.7990789474
 30
0.0
 11
95.3421759363
 21
222.7990789474
 31
0.0
  0
SPLINE
  5
1F8
330
1F
100
AcDbEntity
  8
0
  6
Continuous
 62
     7
370
    25
100
AcDbSpline
210
0.0
220
0.0
230
1.0
 70
     8
 71
     3
 72
    16
 73
    12
 74
     0
 42
0.000000001
 43
0.00000001
 40
0.0
 40
0.0
 40
0.0
 40
0.0
 40
0.1616403832280143
 40
0.3078471388706354
 40
0.3985134127015185
 40
0.4851735957778354
 40
0.5693077239722685
 40
0.7133071408096361
 40
0.8500421198391307
 40
0.9853949148600751
 40
0.9999999999999999
 40
0.9999999999999999
 40
0.9999999999999999
 40
0.9999999999999999
 10
95.34217593632494
 20
222.7990789473684
 30
0.0
 10
95.36259172031325
 20
222.9810234031094
 30
0.0
 10
95.40147396349464
 20
223.3275400285632
 30
0.0
 10
95.51911115273434
 20
223.7621750170339
 30
0.0
 10
95.65659422670959
 20
224.09577619124
 30
0.0
 10
95.79752470678885
 20
224.3482582281022
 30
0.0
 10
96.00472637474384
 20
224.6214557771632
 30
0.0
 10
96.28783574146571
 20
224.8963858477565
 30
0.0
 10
96.66211974120002
 20
225.1247707436374
 30
0.0
 10
96.94407033349819
 20
225.2418008967977
 30
0.0
 10
97.09906552047352
 20
225.256631275049
 30
0.0
 10
97.11416121200784
 20
225.2580756735481
 30
0.0
  0
SPLINE
  5
1F9
330
1F
100
AcDbEntity
  8
0
  6
Continuous
 62
     7
370
    25
100
AcDbSpline
210
0.0
220
0.0
230
1.0
 70
     8
 71
     3
 72
    16
 73
    12
 74
     0
 42
0.000000001
 43
0.00000001
 40
0.0
 40
0.0
 40
0.0
 40
0.0
 40
0.0147131927077413
 40
0.1500511819114385
 40
0.2408233700681246
 40
0.3340177905938559
 40
0.4312625749854632
 40
0.5542074063209548
 40
0.6872632416348978
 40
0.8347883896024331
 40
1.0
 40
1.0
 40
1.0
 40
1.0
 10
97.11628848079779
 20
185.3400762093447
 30
0.0
 10
97.10107911080317
 20
185.3415311883986
 30
0.0
 10
96.94596770914123
 20
185.3563696623468
 30
0.0
 10
96.7092864259883
 20
185.4558753937882
 30
0.0
 10
96.41667284038161
 20
185.6187975228384
 30
0.0
 10
96.18169846940285
 20
185.8056187310377
 30
0.0
 10
95.94406453842204
 20
186.0446984514315
 30
0.0
 10
95.72134195600543
 20
186.3630102397867
 30
0.0
 10
95.54190291369069
 20
186.7768831009758
 30
0.0
 10
95.40940124362612
 20
187.2620814603985
 30
0.0
 10
95.36541359546258
 20
187.6134559273937
 30
0.0
 10
95.34217593632494
 20
187.7990789473684
 30
0.0
  0
LINE
  5
1FA
330
1F
100
AcDbEntity
  8
0
  6
Continuous
 62
     7
370
    25
100
AcDbLine
 10
114.3240130933
 20
180.2990789474
 30
0.0
 11
114.2240131579
 21
180.2990789474
 31
0.0
  0
LINE
  5
1FB
330
1F
100
AcDbEntity
  8
0
  6
Continuous
 62
     7
370
    25
100
AcDbLine
 10
95.3421759363
 20
222.7990789474
 30
0.0
 11
94.4430408305
 21
222.7990789474
 31
0.0
  0
LINE
  5
1FC
330
1F
100
AcDbEntity
  8
0
  6
Continuous
 62
     7
370
    25
100
AcDbLine
 10
95.3421759363
 20
187.7990789474
 30
0.0
 11
94.4430408305
 21
187.7990789474
 31
0.0
  0
LINE
  5
1FD
330
1F
100
AcDbEntity
  8
0
  6
Continuous
 62
     7
370
    25
100
AcDbLine
 10
133.1910659822
 20
187.7990789474
 30
0.0
 11
134.0942589739
 21
187.7990789474
 31
0.0
  0
LINE
  5
1FE
330
1F
100
AcDbEntity
  8
0
  6
Continuous
 62
     7
370
    25
100
AcDbLine
 10
133.1910659822
 20
222.7990789474
 30
0.0
 11
134.0942589739
 21
222.7990789474
 31
0.0
  0
LINE
  5
1FF
330
1F
100
AcDbEntity
  8
0
  6
Continuous
 62
     7
370
    25
100
AcDbLine
 10
85.9231410614
 20
187.7990789474
 30
0.0
 11
84.5754804854
 21
187.7990789474
 31
0.0
  0
LINE
  5
200
330
1F
100
AcDbEntity
  8
0
  6
Continuous
 62
     7
370
    25
100
AcDbLine
 10
85.9231410614
 20
222.7990789474
 30
0.0
 11
84.5754804854
 21
222.7990789474
 31
0.0
  0
LINE
  5
201
330
1F
100
AcDbEntity
  8
0
  6
Continuous
 62
     7
370
    25
100
AcDbLine
 10
142.5953421593
 20
187.7990789474
 30
0.0
 11
143.9463578261
 21
187.7990789474
 31
0.0
  0
LINE
  5
202
330
1F
100
AcDbEntity
  8
0
  6
Continuous
 62
     7
370
    25
100
AcDbLine
 10
142.5953421593
 20
222.7990789474
 30
0.0
 11
143.9463578261
 21
222.7990789474
 31
0.0
  0
LINE
  5
203
330
1F
100
AcDbEntity
  8
0
  6
Continuous
 62
     7
370
    25
100
AcDbLine
 10
78.6017906296
 20
222.7990789474
 30
0.0
 11
76.9054943188
 21
222.7990789474
 31
0.0
  0
LINE
  5
204
330
1F
100
AcDbEntity
  8
0
  6
Continuous
 62
     7
370
    25
100
AcDbLine
 10
78.6017906296
 20
187.7990789474
 30
0.0
 11
76.9054943188
 21
187.7990789474
 31
0.0
  0
LINE
  5
205
330
1F
100
AcDbEntity
  8
0
  6
Continuous
 62
     7
370
    25
100
AcDbLine
 10
149.8967115683
 20
187.7990789474
 30
0.0
 11
151.5954114926
 21
187.7990789474
 31
0.0
  0
LINE
  5
206
330
1F
100
AcDbEntity
  8
0
  6
Continuous
 62
     7
370
    25
100
AcDbLine
 10
149.8967115683
 20
222.7990789474
 30
0.0
 11
151.5954114926
 21
222.7990789474
 31
0.0
  0
LINE
  5
207
330
1F
100
AcDbEntity
  8
0
  6
Continuous
 62
     7
370
    25
100
AcDbLine
 10
73.6777122115
 20
187.7990789474
 30
0.0
 11
72.0015881564
 21
187.7990789474
 31
0.0
  0
LINE
  5
208
330
1F
100
AcDbEntity
  8
0
  6
Continuous
 62
     7
370
    25
100
AcDbLine
 10
73.6777122115
 20
222.7990789474
 30
0.0
 11
72.0015881564
 21
222.7990789474
 31
0.0
  0
LINE
  5
209
330
1F
100
AcDbEntity
  8
0
  6
Continuous
 62
     7
370
    25
100
AcDbLine
 10
154.8090455755
 20
187.7990789474
 30
0.0
 11
156.4744656821
 21
187.7990789474
 31
0.0
  0
LINE
  5
20A
330
1F
100
AcDbEntity
  8
0
  6
Continuous
 62
     7
370
    25
100
AcDbLine
 10
154.8090455755
 20
222.7990789474
 30
0.0
 11
156.4744656821
 21
222.7990789474
 31
0.0
  0
LINE
  5
20B
330
1F
100
AcDbEntity
  8
0
  6
Continuous
 62
     7
370
    25
100
AcDbLine
 10
70.5714655861
 20
222.7990789474
 30
0.0
 11
70.2272436476
 21
222.7990789474
 31
0.0
  0
LINE
  5
20C
330
1F
100
AcDbEntity
  8
0
  6
Continuous
 62
     7
370
    25
100
AcDbLine
 10
70.5714655861
 20
187.7990789474
 30
0.0
 11
70.2272436476
 21
187.7990789474
 31
0.0
  0
LINE
  5
20D
330
1F
100
AcDbEntity
  8
0
  6
Continuous
 62
     7
370
    25
100
AcDbLine
 10
157.8889902851
 20
222.7990789474
 30
0.0
 11
158.2218807945
 21
222.7990789474
 31
0.0
  0
LINE
  5
20E
330
1F
100
AcDbEntity
  8
0
  6
Continuous
 62
     7
370
    25
100
AcDbLine
 10
157.8889902851
 20
187.7990789474
 30
0.0
 11
158.2218807945
 21
187.7990789474
 31
0.0
  0
DIMENSION
  5
20F
330
1F
100
AcDbEntity
  8
0
  6
Continuous
 62
     7
370
    18
100
AcDbDimension
  2
_D
 10
158.2240131579
 20
160.2990789474
 30
0.0
 11
114.2240131579
 21
160.2990789474
 31
0.0
 70
   160
  1
%%c<>
 71
     2
 42
-1.0
  3
SLDDIMSTYLE0
100
AcDbAlignedDimension
 13
70.2240131579
 23
180.2990789474
 33
0.0
 14
158.2240131579
 24
180.2990789474
 34
0.0
100
AcDbRotatedDimension
  0
DIMENSION
  5
21B
330
1F
100
AcDbEntity
  8
0
  6
Continuous
 62
     7
370
    18
100
AcDbDimension
  2
_D_1
 10
164.2240131579
 20
274.3466448229
 30
0.0
 11
114.2240131579
 21
274.3466448229
 31
0.0
 70
   160
  1
<>
 71
     2
 42
-1.0
  3
SLDDIMSTYLE0
100
AcDbAlignedDimension
 13
64.2240131579
 23
263.2990789474
 33
0.0
 14
164.2240131579
 24
263.2990789474
 34
0.0
100
AcDbRotatedDimension
  0
DIMENSION
  5
225
330
1F
100
AcDbEntity
  8
0
  6
Continuous
 62
     7
370
    18
100
AcDbDimension
  2
_D_2
 10
64.2240131579
 20
266.4387654336
 30
0.0
 11
57.2381078961
 21
266.4387654336
 31
0.0
 70
   160
  1
<>
 71
     2
 42
-1.0
  3
SLDDIMSTYLE1
100
AcDbAlignedDimension
 13
66.223606585
 23
263.2990789474
 33
0.0
 14
64.2240131579
 24
263.2990789474
 34
0.0
100
AcDbRotatedDimension
  0
DIMENSION
  5
232
330
1F
100
AcDbEntity
  8
0
  6
Continuous
 62
     7
370
    18
100
AcDbDimension
  2
_D_3
 10
184.2260460226
 20
180.2990789474
 30
0.0
 11
184.2260460226
 21
221.7990789474
 31
0.0
 70
   160
  1
<>
 71
     2
 42
-1.0
  3
SLDDIMSTYLE0
100
AcDbAlignedDimension
 13
164.2240131579
 23
263.2990789474
 33
0.0
 14
158.2240131579
 24
180.2990789474
 34
0.0
 50
90.0
100
AcDbRotatedDimension
  0
LINE
  5
23C
330
1F
100
AcDbEntity
  8
0
  6
Continuous
 62
     7
370
    25
100
AcDbLine
 10
64.2219802932
 20
128.6881606854
 30
0.0
 11
64.2219802932
 21
28.6881606854
 31
0.0
  0
LINE
  5
23D
330
1F
100
AcDbEntity
  8
0
  6
Continuous
 62
     7
370
    25
100
AcDbLine
 10
164.2260460226
 20
28.6881606854
 30
0.0
 11
164.2260460226
 21
128.6881606854
 31
0.0
  0
LINE
  5
23E
330
1F
100
AcDbEntity
  8
0
  6
Continuous
 62
     7
370
    25
100
AcDbLine
 10
164.2240131579
 20
28.6881606854
 30
0.0
 11
164.2240131579
 21
128.6881606854
 31
0.0
  0
LINE
  5
23F
330
1F
100
AcDbEntity
  8
0
  6
Continuous
 62
     7
370
    25
100
AcDbLine
 10
164.2240131579
 20
28.6881606854
 30
0.0
 11
162.2244197308
 21
28.6881606854
 31
0.0
  0
LINE
  5
240
330
1F
100
AcDbEntity
  8
0
  6
Continuous
 62
     7
370
    25
100
AcDbLine
 10
162.2244197308
 20
28.6881606854
 30
0.0
 11
162.2244197308
 21
128.6881606854
 31
0.0
  0
LINE
  5
241
330
1F
100
AcDbEntity
  8
0
  6
Continuous
 62
     7
370
    25
100
AcDbLine
 10
164.2240131579
 20
128.6881606854
 30
0.0
 11
162.2244197308
 21
128.6881606854
 31
0.0
  0
LINE
  5
242
330
1F
100
AcDbEntity
  8
0
  6
Continuous
 62
     7
370
    25
100
AcDbLine
 10
66.223606585
 20
28.6881606854
 30
0.0
 11
66.223606585
 21
128.6881606854
 31
0.0
  0
LINE
  5
243
330
1F
100
AcDbEntity
  8
0
  6
Continuous
 62
     7
370
    25
100
AcDbLine
 10
66.223606585
 20
28.6881606854
 30
0.0
 11
64.2240131579
 21
28.6881606854
 31
0.0
  0
LINE
  5
244
330
1F
100
AcDbEntity
  8
0
  6
Continuous
 62
     7
370
    25
100
AcDbLine
 10
64.2240131579
 20
28.6881606854
 30
0.0
 11
64.2240131579
 21
128.6881606854
 31
0.0
  0
LINE
  5
245
330
1F
100
AcDbEntity
  8
0
  6
Continuous
 62
     7
370
    25
100
AcDbLine
 10
66.223606585
 20
128.6881606854
 30
0.0
 11
64.2240131579
 21
128.6881606854
 31
0.0
  0
LINE
  5
246
330
1F
100
AcDbEntity
  8
0
  6
Continuous
 62
     7
370
    25
100
AcDbLine
 10
64.2240131579
 20
28.6881606854
 30
0.0
 11
64.2219802932
 21
28.6881606854
 31
0.0
  0
LINE
  5
247
330
1F
100
AcDbEntity
  8
0
  6
Continuous
 62
     7
370
    25
100
AcDbLine
 10
64.2240131579
 20
128.6881606854
 30
0.0
 11
64.2219802932
 21
128.6881606854
 31
0.0
  0
LINE
  5
248
330
1F
100
AcDbEntity
  8
0
  6
Continuous
 62
     7
370
    25
100
AcDbLine
 10
164.2260460226
 20
28.6881606854
 30
0.0
 11
164.2240131579
 21
28.6881606854
 31
0.0
  0
LINE
  5
249
330
1F
100
AcDbEntity
  8
0
  6
Continuous
 62
     7
370
    25
100
AcDbLine
 10
164.2260460226
 20
128.6881606854
 30
0.0
 11
164.2240131579
 21
128.6881606854
 31
0.0
  0
LINE
  5
24A
330
1F
100
AcDbEntity
  8
0
  6
Continuous
 62
     7
370
    25
100
AcDbLine
 10
72.4372205036
 20
28.6881606854
 30
0.0
 11
72.4372205036
 21
74.4615829132
 31
0.0
  0
LINE
  5
24B
330
1F
100
AcDbEntity
  8
0
  6
Continuous
 62
     7
370
    25
100
AcDbLine
 10
72.4372205036
 20
82.9147384575
 30
0.0
 11
72.4372205036
 21
128.6881606854
 31
0.0
  0
SPLINE
  5
24C
330
1F
100
AcDbEntity
  8
0
  6
Continuous
 62
     7
370
    25
100
AcDbSpline
210
0.0
220
0.0
230
1.0
 70
     8
 71
     3
 72
     9
 73
     5
 74
     0
 42
0.000000001
 43
0.00000001
 40
0.0
 40
0.0
 40
0.0
 40
0.0
 40
0.5
 40
1.0
 40
1.0
 40
1.0
 40
1.0
 10
72.43722050356294
 20
82.91473845748864
 30
0.0
 10
72.29471965956294
 20
81.50587920011112
 30
0.0
 10
72.15330665622646
 20
78.68816068535608
 30
0.0
 10
72.29471965956294
 20
75.87044217060105
 30
0.0
 10
72.43722050356294
 20
74.46158291322354
 30
0.0
  0
LINE
  5
24D
330
1F
100
AcDbEntity
  8
0
  6
Continuous
 62
     7
370
    25
100
AcDbLine
 10
72.4372205036
 20
28.6881606854
 30
0.0
 11
66.223606585
 21
28.6881606854
 31
0.0
  0
LINE
  5
24E
330
1F
100
AcDbEntity
  8
0
  6
Continuous
 62
     7
370
    25
100
AcDbLine
 10
72.4372205036
 20
128.6881606854
 30
0.0
 11
66.223606585
 21
128.6881606854
 31
0.0
  0
LINE
  5
24F
330
1F
100
AcDbEntity
  8
0
  6
Continuous
 62
     7
370
    25
100
AcDbLine
 10
156.0108058122
 20
82.9147384575
 30
0.0
 11
156.0108058122
 21
128.6881606854
 31
0.0
  0
LINE
  5
250
330
1F
100
AcDbEntity
  8
0
  6
Continuous
 62
     7
370
    25
100
AcDbLine
 10
156.0108058122
 20
28.6881606854
 30
0.0
 11
156.0108058122
 21
74.4615829132
 31
0.0
  0
SPLINE
  5
251
330
1F
100
AcDbEntity
  8
0
  6
Continuous
 62
     7
370
    25
100
AcDbSpline
210
0.0
220
0.0
230
1.0
 70
     8
 71
     3
 72
     9
 73
     5
 74
     0
 42
0.000000001
 43
0.00000001
 40
0.0
 40
0.0
 40
0.0
 40
0.0
 40
0.5
 40
1.0
 40
1.0
 40
1.0
 40
1.0
 10
156.0108058122265
 20
74.46158291322354
 30
0.0
 10
156.1533066562264
 20
75.87044217060105
 30
0.0
 10
156.2947196595629
 20
78.68816068535608
 30
0.0
 10
156.1533066562264
 20
81.50587920011112
 30
0.0
 10
156.0108058122265
 20
82.91473845748864
 30
0.0
  0
LINE
  5
252
330
1F
100
AcDbEntity
  8
0
  6
Continuous
 62
     7
370
    25
100
AcDbLine
 10
162.2244197308
 20
28.6881606854
 30
0.0
 11
156.0108058122
 21
28.6881606854
 31
0.0
  0
LINE
  5
253
330
1F
100
AcDbEntity
  8
0
  6
Continuous
 62
     7
370
    25
100
AcDbLine
 10
162.2244197308
 20
128.6881606854
 30
0.0
 11
156.0108058122
 21
128.6881606854
 31
0.0
  0
ARC
  5
254
330
1F
100
AcDbEntity
  8
0
  6
Continuous
 62
     7
370
    25
100
AcDbCircle
 10
114.2240131579
 20
78.6881606854
 30
0.0
 40
42.0
100
AcDbArc
 50
5.7756113046
 51
174.2243886954
  0
LINE
  5
255
330
1F
100
AcDbEntity
  8
0
  6
Continuous
 62
     7
370
    25
100
AcDbLine
 10
156.0108058122
 20
128.6881606854
 30
0.0
 11
72.4372205036
 21
128.6881606854
 31
0.0
  0
ARC
  5
256
330
1F
100
AcDbEntity
  8
0
  6
Continuous
 62
     7
370
    25
100
AcDbCircle
 10
114.2240131579
 20
78.6881606854
 30
0.0
 40
42.0
100
AcDbArc
 50
185.7756113046
 51
354.2243886954
  0
LINE
  5
257
330
1F
100
AcDbEntity
  8
0
  6
Continuous
 62
     7
370
    25
100
AcDbLine
 10
156.0108058122
 20
28.6881606854
 30
0.0
 11
72.4372205036
 21
28.6881606854
 31
0.0
  0
DIMENSION
  5
258
330
1F
100
AcDbEntity
  8
0
  6
Continuous
 62
     7
370
    18
100
AcDbDimension
  2
_D_4
 10
44.2219802932
 20
128.6881606854
 30
0.0
 11
44.2219802932
 21
78.6881606854
 31
0.0
 70
   160
  1
<>
 71
     2
 42
-1.0
  3
SLDDIMSTYLE0
100
AcDbAlignedDimension
 13
64.2219802932
 23
28.6881606854
 33
0.0
 14
64.2219802932
 24
128.6881606854
 34
0.0
 50
90.0
100
AcDbRotatedDimension
  0
DIMENSION
  5
262
330
1F
100
AcDbEntity
  8
0
  6
Continuous
 62
     7
370
    18
100
AcDbDimension
  2
_D_5
 10
114.2240131579
 20
78.6881606854
 30
0.0
 11
62.1752956881
 21
138.4583238998
 31
0.0
 70
   164
  1
<>
 71
     1
 42
-1.0
  3
SLDDIMSTYLE2
100
AcDbRadialDimension
 15
141.8060477287
 25
47.0143328628
 35
0.0
 40
0.0
  0
LINE
  5
26A
330
1F
100
AcDbEntity
  8
0
  6
Continuous
 62
     7
370
    25
100
AcDbLine
 10
270.8843567028
 20
143.2779521107
 30
0.0
 11
306.2396957622
 21
122.8677493151
 31
0.0
  0
LINE
  5
26B
330
1F
100
AcDbEntity
  8
0
  6
Continuous
 62
     7
370
    25
100
AcDbLine
 10
327.204677414
 20
111.7634654096
 30
0.0
 11
327.204677414
 21
133.8573319137
 31
0.0
  0
LINE
  5
26C
330
1F
100
AcDbEntity
  8
0
  6
Continuous
 62
     7
370
    25
100
AcDbLine
 10
283.204677414
 20
114.0412777677
 30
0.0
 11
283.204677414
 21
111.7634654096
 31
0.0
  0
LINE
  5
26D
330
1F
100
AcDbEntity
  8
0
  6
Continuous
 62
     7
370
    25
100
AcDbLine
 10
283.204677414
 20
136.1655823551
 30
0.0
 11
283.204677414
 21
129.8989795497
 31
0.0
  0
LINE
  5
26E
330
1F
100
AcDbEntity
  8
0
  6
Continuous
 62
     7
370
    25
100
AcDbLine
 10
305.204677414
 20
125.2397063072
 30
0.0
 11
269.8493383547
 21
145.6499091028
 31
0.0
  0
LWPOLYLINE
  5
26F
330
1F
100
AcDbEntity
  8
0
  6
Continuous
 62
     7
370
    25
100
AcDbPolyline
 90
       13
 70
   128
 43
0.0
 10
305.204677414
 20
125.2397063072
 10
305.2201207037
 20
124.7763738235
 10
305.2827190144
 20
124.345487906
 10
305.39163361
 20
123.9528218673
 10
305.5454051762
 20
123.6036369235
 10
305.7419733731
 20
123.3026117
 10
305.9787044419
 20
123.0537795447
 10
306.252426493
 20
122.8604744859
 10
306.5594720059
 20
122.7252865608
 10
306.8957269686
 20
122.6500271123
 10
307.2566860006
 20
122.6357045195
 10
307.6375127188
 20
122.6825106865
 10
308.0331045388
 20
122.7898184715
  0
ARC
  5
270
330
1F
100
AcDbEntity
  8
0
  6
Continuous
 62
     7
370
    25
100
AcDbCircle
 10
272.319765039
 20
145.3160984421
 30
0.0
 40
2.492877365555961
100
AcDbArc
 50
172.3046494169
 51
234.8440556065
  0
LINE
  5
271
330
1F
100
AcDbEntity
  8
0
  6
Continuous
 62
     7
370
    25
100
AcDbLine
 10
305.91164045
 20
125.6478273808
 30
0.0
 11
305.204677414
 21
125.2397063072
 31
0.0
  0
LINE
  5
272
330
1F
100
AcDbEntity
  8
0
  6
Continuous
 62
     7
370
    25
100
AcDbLine
 10
305.91164045
 20
125.6313637712
 30
0.0
 11
305.91164045
 21
125.6478273808
 31
0.0
  0
LWPOLYLINE
  5
273
330
1F
100
AcDbEntity
  8
0
  6
Continuous
 62
     7
370
    25
100
AcDbPolyline
 90
       11
 70
   128
 43
0.0
 10
308.1084847187
 20
123.649875335
 10
307.7389148021
 20
123.5654086684
 10
307.3879854503
 20
123.5486163355
 10
307.0622344072
 20
123.5998111742
 10
306.7677303498
 20
123.7180394348
 10
306.50995983
 20
123.9010985483
 10
306.2937250612
 20
124.14557816
 10
306.123054454
 20
124.4469236634
 10
306.0011275678
 20
124.7995210519
 10
305.9302158762
 20
125.1968015064
 10
305.91164045
 20
125.6313637712
  0
LINE
  5
274
330
1F
100
AcDbEntity
  8
0
  6
Continuous
 62
     7
370
    25
100
AcDbLine
 10
337.6562091687
 20
140.70741358
 30
0.0
 11
308.1084847187
 21
123.649875335
 31
0.0
  0
ARC
  5
275
330
1F
100
AcDbEntity
  8
0
  6
Continuous
 62
     7
370
    25
100
AcDbCircle
 10
333.6547947086
 20
145.4461759707
 30
0.0
 40
6.202192086442624
100
AcDbArc
 50
310.1777720883
 51
357.9593444939
  0
LINE
  5
276
330
1F
100
AcDbEntity
  8
0
  6
Continuous
 62
     7
370
    25
100
AcDbLine
 10
339.8530534374
 20
145.2417880293
 30
0.0
 11
339.8530534374
 21
145.2253244197
 31
0.0
  0
LINE
  5
277
330
1F
100
AcDbEntity
  8
0
  6
Continuous
 62
     7
370
    25
100
AcDbLine
 10
340.5600164734
 20
145.6499091028
 30
0.0
 11
339.8530534374
 21
145.2417880293
 31
0.0
  0
ARC
  5
278
330
1F
100
AcDbEntity
  8
0
  6
Continuous
 62
     7
370
    25
100
AcDbCircle
 10
332.7738372901
 20
145.9454297664
 30
0.0
 40
7.79178533690461
100
AcDbArc
 50
309.5149356927
 51
357.8264097285
  0
LINE
  5
279
330
1F
100
AcDbEntity
  8
0
  6
Continuous
 62
     7
370
    25
100
AcDbLine
 10
308.0331045388
 20
122.7898184715
 30
0.0
 11
337.7315893486
 21
139.9343888197
 31
0.0
  0
LINE
  5
27A
330
1F
100
AcDbEntity
  8
0
  6
Continuous
 62
     7
370
    25
100
AcDbLine
 10
305.91164045
 20
125.6478273808
 30
0.0
 11
270.5563013906
 21
146.0580301764
 31
0.0
  0
LINE
  5
27B
330
1F
100
AcDbEntity
  8
0
  6
Continuous
 62
     7
370
    25
100
AcDbLine
 10
270.5563013906
 20
146.0580301764
 30
0.0
 11
269.8493383547
 21
145.6499091028
 31
0.0
  0
LINE
  5
27C
330
1F
100
AcDbEntity
  8
0
  6
Continuous
 62
     7
370
    25
100
AcDbLine
 10
308.1084847187
 20
123.649875335
 30
0.0
 11
305.982453721
 21
124.8772069055
 31
0.0
  0
LINE
  5
27D
330
1F
100
AcDbEntity
  8
0
  6
Continuous
 62
     7
370
    25
100
AcDbLine
 10
337.6562091687
 20
140.70741358
 30
0.0
 11
321.4728605409
 21
150.0498618832
 31
0.0
  0
LWPOLYLINE
  5
27E
330
1F
100
AcDbEntity
  8
0
  6
Continuous
 62
     7
370
    25
100
AcDbPolyline
 90
       50
 70
   128
 43
0.0
 10
295.5915372222
 20
131.6054961617
 10
295.9110959494
 20
131.5124917407
 10
296.9900834497
 20
131.2266926758
 10
298.0953224536
 20
130.9765483765
 10
299.2232809321
 20
130.7628582329
 10
300.3703542509
 20
130.5863051378
 10
301.5328766902
 20
130.4474533047
 10
302.7071331594
 20
130.3467464644
 10
303.889371069
 20
130.2845064474
 10
305.0758123232
 20
130.2609321551
 10
306.2626653935
 20
130.2760989241
 10
307.4461374355
 20
130.3299582858
 10
308.6224464093
 20
130.4223381211
 10
309.7878331665
 20
130.5529432102
 10
310.9385734626
 20
130.7213561764
 10
312.0709898593
 20
130.92703882
 10
313.1814634762
 20
131.1693338376
 10
314.2664455557
 20
131.4474669234
 10
315.322468804
 20
131.7605492433
 10
316.3461584715
 20
132.1075802753
 10
317.3342431373
 20
132.487451007
 10
318.2835651642
 20
132.8989474796
 10
319.1910907893
 20
133.3407546677
 10
320.0539198189
 20
133.8114606811
 10
320.8692948973
 20
134.3095612776
 10
321.6346103177
 20
134.8334646693
 10
322.3474203499
 20
135.3814966103
 10
323.005447056
 20
135.9519057464
 10
323.60658757
 20
136.5428692124
 10
324.1489208179
 20
137.1524984573
 10
324.6307136571
 20
137.7788452797
 10
325.0504264149
 20
138.4199080533
 10
325.4067178086
 20
139.0736381241
 10
325.6984492325
 20
139.7379463568
 10
325.924688396
 20
140.4107098115
 10
326.0847123032
 20
141.0897785278
 10
326.1780095631
 20
141.7729823952
 10
326.2042820243
 20
142.4581380887
 10
326.1634457275
 20
143.1430560459
 10
326.0556311739
 20
143.8255474639
 10
325.8811829081
 20
144.5034312943
 10
325.640658417
 20
145.1745412136
 10
325.3348263485
 20
145.8367325454
 10
324.9646640549
 20
146.4878891148
 10
324.5313544693
 20
147.1259300107
 10
324.036282326
 20
147.7488162361
 10
323.4810297345
 20
148.3545572239
 10
322.867371124
 20
148.9412171984
 10
322.1972675727
 20
149.5069213613
 10
321.4728605409
 20
150.0498618832
  0
LWPOLYLINE
  5
27F
330
1F
100
AcDbEntity
  8
0
  6
Continuous
 62
     7
370
    25
100
AcDbPolyline
 90
       50
 70
   128
 43
0.0
 10
318.484218737
 20
151.7751680724
 10
317.5437162623
 20
152.1933593504
 10
316.5637817321
 20
152.5802018964
 10
315.5475467383
 20
152.9344594716
 10
314.4982588787
 20
153.2549999698
 10
313.4192713784
 20
153.5407990347
 10
312.3140323744
 20
153.790943334
 10
311.186073896
 20
154.0046334776
 10
310.0390005772
 20
154.1811865727
 10
308.8764781378
 20
154.3200384058
 10
307.7022216687
 20
154.4207452461
 10
306.5199837591
 20
154.4829852631
 10
305.3335425049
 20
154.5065595554
 10
304.1466894345
 20
154.4913927864
 10
302.9632173926
 20
154.4375334247
 10
301.7869084187
 20
154.3451535895
 10
300.6215216616
 20
154.2145485004
 10
299.4707813655
 20
154.0461355341
 10
298.3383649688
 20
153.8404528906
 10
297.2278913519
 20
153.5981578729
 10
296.1429092723
 20
153.3200247871
 10
295.086886024
 20
153.0069424672
 10
294.0631963566
 20
152.6599114352
 10
293.0751116908
 20
152.2800407036
 10
292.1257896638
 20
151.8685442309
 10
291.2182640388
 20
151.4267370429
 10
290.3554350091
 20
150.9560310294
 10
289.5400599308
 20
150.457930433
 10
288.7747445104
 20
149.9340270412
 10
288.0619344782
 20
149.3859951003
 10
287.4039077721
 20
148.8155859642
 10
286.8027672581
 20
148.2246224982
 10
286.2604340101
 20
147.6149932532
 10
285.7786411709
 20
146.9886464309
 10
285.3589284132
 20
146.3475836573
 10
285.0026370194
 20
145.6938535865
 10
284.7109055955
 20
145.0295453537
 10
284.484666432
 20
144.356781899
 10
284.3246425249
 20
143.6777131828
 10
284.231345265
 20
142.9945093154
 10
284.2050728037
 20
142.3093536218
 10
284.2459091005
 20
141.6244356646
 10
284.3537236542
 20
140.9419442467
 10
284.52817192
 20
140.2640604162
 10
284.768696411
 20
139.5929504969
 10
285.0745284795
 20
138.9307591651
 10
285.4446907732
 20
138.2796025958
 10
285.8780003587
 20
137.6415616999
 10
286.3730725021
 20
137.0186754745
 10
286.5341783406
 20
136.8341981479
  0
SPLINE
  5
280
330
1F
100
AcDbEntity
  8
0
  6
Continuous
 62
     7
370
    25
100
AcDbSpline
210
0.0
220
0.0
230
1.0
 70
     8
 71
     3
 72
     9
 73
     5
 74
     0
 42
0.000000001
 43
0.00000001
 40
0.0
 40
0.0
 40
0.0
 40
0.0
 40
0.5
 40
1.0
 40
1.0
 40
1.0
 40
1.0
 10
321.4728605409326
 20
150.0498618831795
 30
0.0
 10
321.0251352301767
 20
150.3798126227688
 30
0.0
 10
320.0789183423512
 20
150.9995114838255
 30
0.0
 10
319.0327073609185
 20
151.5300167489083
 30
0.0
 10
318.4842187370454
 20
151.7751680723888
 30
0.0
  0
LWPOLYLINE
  5
281
330
1F
100
AcDbEntity
  8
0
  6
Continuous
 62
     7
370
    25
100
AcDbPolyline
 90
       42
 70
   128
 43
0.0
 10
320.0539198189
 20
150.1394902175
 10
319.1819766567
 20
150.6148912783
 10
318.2644424495
 20
151.0607806671
 10
317.3043100033
 20
151.4757039855
 10
316.3047110706
 20
151.8583078398
 10
315.2689061352
 20
152.2073442559
 10
314.2002737775
 20
152.5216747494
 10
313.1022996543
 20
152.8002740397
 10
311.9785651289
 20
153.0422333937
 10
310.8327355898
 20
153.2467635903
 10
309.6685484946
 20
153.4131974946
 10
308.4898011799
 20
153.5409922337
 10
307.3003384742
 20
153.6297309678
 10
306.1040401577
 20
153.6791242495
 10
304.9048083069
 20
153.6890109683
 10
303.7065545668
 20
153.6593588757
 10
302.5131873921
 20
153.5902646907
 10
301.3285992983
 20
153.4819537841
 10
300.1566541658
 20
153.3347794437
 10
299.0011746358
 20
153.1492217214
 10
297.8659296425
 20
152.9258858682
 10
296.754622119
 20
152.6655003589
 10
295.6708769195
 20
152.3689145172
 10
294.6182289956
 20
152.0370957444
 10
293.6001118661
 20
151.6711263642
 10
292.6198464173
 20
151.2722000929
 10
291.6806300714
 20
150.8416181448
 10
290.785526357
 20
150.380784989
 10
289.9374549163
 20
149.8912037673
 10
289.139181982
 20
149.3744713919
 10
288.3933113546
 20
148.8322733365
 10
287.702275909
 20
148.2663781383
 10
287.0683296592
 20
147.67863163
 10
286.4935404061
 20
147.0709509184
 10
285.9797829927
 20
146.4453181317
 10
285.528733189
 20
145.803773954
 10
285.1418622257
 20
145.1484109692
 10
284.8204319954
 20
144.4813668349
 10
284.5654909368
 20
143.8048173107
 10
284.3778706146
 20
143.1209691603
 10
284.2581830072
 20
142.4320529543
 10
284.2165894248
 20
141.9754754493
  0
LWPOLYLINE
  5
282
330
1F
100
AcDbEntity
  8
0
  6
Continuous
 62
     7
370
    25
100
AcDbPolyline
 90
       15
 70
   128
 43
0.0
 10
326.1927654033
 20
141.9754754493
 10
326.1854101623
 20
142.086396104
 10
326.0998492181
 20
142.7770044221
 10
325.9461325665
 20
143.4636666261
 10
325.7247615994
 20
144.1441429666
 10
325.4364583829
 20
144.8162138711
 10
325.082163302
 20
145.4776871842
 10
324.6630319937
 20
146.1264053174
 10
324.1804315773
 20
146.7602522869
 10
323.6359361949
 20
147.3771606157
 10
323.0313218774
 20
147.975118077
 10
322.368560751
 20
148.5521742579
 10
321.6498146046
 20
149.1064469211
 10
320.8774278389
 20
149.6361281443
 10
320.0539198189
 20
150.1394902175
  0
LINE
  5
283
330
1F
100
AcDbEntity
  8
0
  6
Continuous
 62
     7
370
    25
100
AcDbLine
 10
302.3008701093
 20
161.1176163756
 30
0.0
 11
273.3851882517
 21
144.4249485526
 31
0.0
  0
LINE
  5
284
330
1F
100
AcDbEntity
  8
0
  6
Continuous
 62
     7
370
    25
100
AcDbLine
 10
318.484218737
 20
151.7751680724
 30
0.0
 11
302.3008701093
 21
161.1176163756
 31
0.0
  0
ARC
  5
285
330
1F
100
AcDbEntity
  8
0
  6
Continuous
 62
     7
370
    25
100
AcDbCircle
 10
298.2994556493
 20
165.8563787663
 30
0.0
 40
6.202192086441842
100
AcDbArc
 50
310.1777720883
 51
357.9593444939
  0
LINE
  5
286
330
1F
100
AcDbEntity
  8
0
  6
Continuous
 62
     7
370
    25
100
AcDbLine
 10
339.8530534374
 20
145.2253244197
 30
0.0
 11
304.4977143781
 21
165.6355272152
 31
0.0
  0
LINE
  5
287
330
1F
100
AcDbEntity
  8
0
  6
Continuous
 62
     7
370
    25
100
AcDbLine
 10
339.8530534374
 20
145.2417880293
 30
0.0
 11
304.4977143781
 21
165.6519908248
 31
0.0
  0
LINE
  5
288
330
1F
100
AcDbEntity
  8
0
  6
Continuous
 62
     7
370
    25
100
AcDbLine
 10
304.4977143781
 20
165.6519908248
 30
0.0
 11
304.4977143781
 21
165.6355272152
 31
0.0
  0
LINE
  5
289
330
1F
100
AcDbEntity
  8
0
  6
Continuous
 62
     7
370
    25
100
AcDbLine
 10
305.204677414
 20
166.0601118984
 30
0.0
 11
304.4977143781
 21
165.6519908248
 31
0.0
  0
LINE
  5
28A
330
1F
100
AcDbEntity
  8
0
  6
Continuous
 62
     7
370
    25
100
AcDbLine
 10
340.5600164734
 20
145.6499091028
 30
0.0
 11
305.204677414
 21
166.0601118984
 31
0.0
  0
LINE
  5
28B
330
1F
100
AcDbEntity
  8
0
  6
Continuous
 62
     7
370
    25
100
AcDbLine
 10
323.4860624443
 20
122.0495842866
 30
0.0
 11
323.4860624443
 21
107.7601200786
 31
0.0
  0
SPLINE
  5
28C
330
1F
100
AcDbEntity
  8
0
  6
Continuous
 62
     7
370
    25
100
AcDbSpline
210
0.0
220
0.0
230
1.0
 70
     8
 71
     3
 72
    15
 73
    11
 74
     0
 42
0.000000001
 43
0.00000001
 40
0.0
 40
0.0
 40
0.0
 40
0.0
 40
0.1342966665447033
 40
0.2492772533680751
 40
0.3750410584312782
 40
0.5000197527223352
 40
0.6249314220714982
 40
0.7508254512649793
 40
0.8634935494501496
 40
1.0
 40
1.0
 40
1.0
 40
1.0
 10
321.9803594991253
 20
120.8984581278809
 30
0.0
 10
321.9979314293877
 20
121.0525318783142
 30
0.0
 10
322.0305478942998
 20
121.3385187334783
 30
0.0
 10
322.20773501696
 20
121.8024755402557
 30
0.0
 10
322.4617692188284
 20
122.2079387078336
 30
0.0
 10
322.7628776755984
 20
122.5059932548696
 30
0.0
 10
323.0543865772668
 20
122.6606016010543
 30
0.0
 10
323.2867386606918
 20
122.6300722060657
 30
0.0
 10
323.4400685792695
 20
122.4169988133347
 30
0.0
 10
323.4697835524865
 20
122.1796255720391
 30
0.0
 10
323.4860624443021
 20
122.0495842865655
 30
0.0
  0
LINE
  5
28D
330
1F
100
AcDbEntity
  8
0
  6
Continuous
 62
     7
370
    25
100
AcDbLine
 10
321.9803594991
 20
106.6089939199
 30
0.0
 11
321.9803594991
 21
120.8984581279
 31
0.0
  0
SPLINE
  5
28E
330
1F
100
AcDbEntity
  8
0
  6
Continuous
 62
     7
370
    25
100
AcDbSpline
210
0.0
220
0.0
230
1.0
 70
     8
 71
     3
 72
    15
 73
    11
 74
     0
 42
0.000000001
 43
0.00000001
 40
0.0
 40
0.0
 40
0.0
 40
0.0
 40
0.134296666550678
 40
0.2492772533689002
 40
0.3750410584374891
 40
0.5000197527223704
 40
0.6249314220653318
 40
0.7508254512642306
 40
0.863493549444325
 40
1.0
 40
1.0
 40
1.0
 40
1.0
 10
323.486062444302
 20
107.7601200785648
 30
0.0
 10
323.4709971373364
 20
107.6049536554692
 30
0.0
 10
323.4430333878407
 20
107.3169386156486
 30
0.0
 10
323.2875732674831
 20
106.8435107003139
 30
0.0
 10
323.0551381986227
 20
106.4286321642487
 30
0.0
 10
322.7632707227552
 20
106.1265493425314
 30
0.0
 10
322.4625827958934
 20
105.9759422636747
 30
0.0
 10
322.2086242072003
 20
106.015890240819
 30
0.0
 10
322.0339652573243
 20
106.2382612608765
 30
0.0
 10
321.9993325151528
 20
106.4777782274332
 30
0.0
 10
321.9803594991252
 20
106.6089939198802
 30
0.0
  0
LINE
  5
28F
330
1F
100
AcDbEntity
  8
0
  6
Continuous
 62
     7
370
    25
100
AcDbLine
 10
326.1095916036
 20
125.1579225124
 30
0.0
 11
326.1095916036
 21
110.8684583044
 31
0.0
  0
SPLINE
  5
290
330
1F
100
AcDbEntity
  8
0
  6
Continuous
 62
     7
370
    25
100
AcDbSpline
210
0.0
220
0.0
230
1.0
 70
     8
 71
     3
 72
    15
 73
    11
 74
     0
 42
0.000000001
 43
0.00000001
 40
0.0
 40
0.0
 40
0.0
 40
0.0
 40
0.1342966665491108
 40
0.2492772533686362
 40
0.3750410584358013
 40
0.5000197527222583
 40
0.6249314220698402
 40
0.7508254512647421
 40
0.8634935494486257
 40
0.9999999999999999
 40
0.9999999999999999
 40
0.9999999999999999
 40
0.9999999999999999
 10
325.1975134896728
 20
123.8150129641388
 30
0.0
 10
325.2088605968879
 20
123.9713806323856
 30
0.0
 10
325.2299227408184
 20
124.2616253857203
 30
0.0
 10
325.3433465298303
 20
124.748634050515
 30
0.0
 10
325.5032845051801
 20
125.1869343465784
 30
0.0
 10
325.688272093534
 20
125.5235470363523
 30
0.0
 10
325.8622792753727
 20
125.7150810801804
 30
0.0
 10
325.9969672581257
 20
125.7136660616714
 30
0.0
 10
326.0838654518373
 20
125.5196480591988
 30
0.0
 10
326.1004861882949
 20
125.285950262138
 30
0.0
 10
326.1095916035586
 20
125.1579225123524
 30
0.0
  0
LINE
  5
291
330
1F
100
AcDbEntity
  8
0
  6
Continuous
 62
     7
370
    25
100
AcDbLine
 10
325.1975134897
 20
109.5255487561
 30
0.0
 11
325.1975134897
 21
123.8150129641
 31
0.0
  0
SPLINE
  5
292
330
1F
100
AcDbEntity
  8
0
  6
Continuous
 62
     7
370
    25
100
AcDbSpline
210
0.0
220
0.0
230
1.0
 70
     8
 71
     3
 72
    15
 73
    11
 74
     0
 42
0.000000001
 43
0.00000001
 40
0.0
 40
0.0
 40
0.0
 40
0.0
 40
0.1342966665491037
 40
0.2492772533686336
 40
0.3750410584358049
 40
0.5000197527222566
 40
0.6249314220698382
 40
0.7508254512647425
 40
0.8634935494486322
 40
1.0
 40
1.0
 40
1.0
 40
1.0
 10
326.1095916035586
 20
110.8684583043518
 30
0.0
 10
326.101168735648
 20
110.7114287506923
 30
0.0
 10
326.0855344728461
 20
110.4199554264484
 30
0.0
 10
325.9974575136673
 20
109.9272096467404
 30
0.0
 10
325.8627171951798
 20
109.4832060002415
 30
0.0
 10
325.6885101814696
 20
109.1441531869504
 30
0.0
 10
325.5037947028092
 20
108.9550429069538
 30
0.0
 10
325.3439004626823
 20
108.9621632225765
 30
0.0
 10
325.232119714131
 20
109.1618132538826
 30
0.0
 10
325.2097618837511
 20
109.3968096104601
 30
0.0
 10
325.1975134896728
 20
109.5255487561382
 30
0.0
  0
LINE
  5
293
330
1F
100
AcDbEntity
  8
0
  6
Continuous
 62
     7
370
    25
100
AcDbLine
 10
327.1836309404
 20
128.5595595116
 30
0.0
 11
327.1836309404
 21
114.2700953036
 31
0.0
  0
SPLINE
  5
294
330
1F
100
AcDbEntity
  8
0
  6
Continuous
 62
     7
370
    25
100
AcDbSpline
210
0.0
220
0.0
230
1.0
 70
     8
 71
     3
 72
    15
 73
    11
 74
     0
 42
0.000000001
 43
0.00000001
 40
0.0
 40
0.0
 40
0.0
 40
0.0
 40
0.1342966665506418
 40
0.2492772533688214
 40
0.3750410584373688
 40
0.5000197527222118
 40
0.6249314220698065
 40
0.75082545126472
 40
0.8634935494486113
 40
1.0
 40
1.0
 40
1.0
 40
1.0
 10
326.9327816546949
 20
127.1244041590958
 30
0.0
 10
326.9370628817328
 20
127.2820114991103
 30
0.0
 10
326.9450095608609
 20
127.5745572922316
 30
0.0
 10
326.9862629495768
 20
128.0738352703796
 30
0.0
 10
327.0402499611531
 20
128.5291045384405
 30
0.0
 10
327.0954052454563
 20
128.884765857089
 30
0.0
 10
327.1390131487971
 20
129.0935615791355
 30
0.0
 10
327.1660538443126
 20
129.1049752135712
 30
0.0
 10
327.1800793459493
 20
128.9189626871548
 30
0.0
 10
327.1823739026825
 20
128.6867652902351
 30
0.0
 10
327.1836309403567
 20
128.5595595116287
 30
0.0
  0
LINE
  5
295
330
1F
100
AcDbEntity
  8
0
  6
Continuous
 62
     7
370
    25
100
AcDbLine
 10
326.9327816547
 20
112.8349399511
 30
0.0
 11
326.9327816547
 21
127.1244041591
 31
0.0
  0
SPLINE
  5
296
330
1F
100
AcDbEntity
  8
0
  6
Continuous
 62
     7
370
    25
100
AcDbSpline
210
0.0
220
0.0
230
1.0
 70
     8
 71
     3
 72
    15
 73
    11
 74
     0
 42
0.000000001
 43
0.00000001
 40
0.0
 40
0.0
 40
0.0
 40
0.0
 40
0.1342966665506354
 40
0.2492772533688166
 40
0.3750410584373705
 40
0.5000197527222079
 40
0.6249314220698035
 40
0.7508254512647192
 40
0.863493549448605
 40
1.0
 40
1.0
 40
1.0
 40
1.0
 10
327.1836309403567
 20
114.2700953036281
 30
0.0
 10
327.1824748215552
 20
114.1123059249477
 30
0.0
 10
327.1803288701566
 20
113.819422237374
 30
0.0
 10
327.166163410448
 20
113.3185663777311
 30
0.0
 10
327.1391049080668
 20
112.861728514436
 30
0.0
 10
327.0954707268963
 20
112.5053960874341
 30
0.0
 10
327.0404189630806
 20
112.2972669743287
 30
0.0
 10
326.9864405670808
 20
112.2874224705231
 30
0.0
 10
326.9458233029457
 20
112.4749839765588
 30
0.0
 10
326.9373975655522
 20
112.7075385169317
 30
0.0
 10
326.9327816546949
 20
112.8349399510951
 30
0.0
  0
LINE
  5
297
330
1F
100
AcDbEntity
  8
0
  6
Continuous
 62
     7
370
    25
100
AcDbLine
 10
320.9134243499
 20
138.0065991045
 30
0.0
 11
320.9134243499
 21
134.3381843379
 31
0.0
  0
LINE
  5
298
330
1F
100
AcDbEntity
  8
0
  6
Continuous
 62
     7
370
    25
100
AcDbLine
 10
320.9478348382
 20
138.1510101404
 30
0.0
 11
320.9134243499
 21
138.0065991045
 31
0.0
  0
LINE
  5
299
330
1F
100
AcDbEntity
  8
0
  6
Continuous
 62
     7
370
    25
100
AcDbLine
 10
316.1769476615
 20
140.1229925191
 30
0.0
 11
316.1769476615
 21
132.0470827571
 31
0.0
  0
LINE
  5
29A
330
1F
100
AcDbEntity
  8
0
  6
Continuous
 62
     7
370
    25
100
AcDbLine
 10
316.2341893035
 20
140.3249893329
 30
0.0
 11
316.1769476615
 21
140.1229925191
 31
0.0
  0
LINE
  5
29B
330
1F
100
AcDbEntity
  8
0
  6
Continuous
 62
     7
370
    25
100
AcDbLine
 10
310.6271970737
 20
141.4234611315
 30
0.0
 11
310.6271970737
 21
130.671827556
 31
0.0
  0
LINE
  5
29C
330
1F
100
AcDbEntity
  8
0
  6
Continuous
 62
     7
370
    25
100
AcDbLine
 10
301.1899126578
 20
130.4843117607
 30
0.0
 11
301.1899126578
 21
141.522648773
 31
0.0
  0
LINE
  5
29D
330
1F
100
AcDbEntity
  8
0
  6
Continuous
 62
     7
370
    25
100
AcDbLine
 10
295.5045641627
 20
140.5141288724
 30
0.0
 11
295.4555330606
 21
140.6895262269
 31
0.0
  0
LINE
  5
29E
330
1F
100
AcDbEntity
  8
0
  6
Continuous
 62
     7
370
    25
100
AcDbLine
 10
295.5045641627
 20
131.6557046402
 30
0.0
 11
295.5045641627
 21
140.5141288724
 31
0.0
  0
LINE
  5
29F
330
1F
100
AcDbEntity
  8
0
  6
Continuous
 62
     7
370
    25
100
AcDbLine
 10
290.5381962204
 20
138.5813202517
 30
0.0
 11
290.4929236892
 21
138.7690838656
 31
0.0
  0
LINE
  5
2A0
330
1F
100
AcDbEntity
  8
0
  6
Continuous
 62
     7
370
    25
100
AcDbLine
 10
290.5381962204
 20
134.522727827
 30
0.0
 11
290.5381962204
 21
138.5813202517
 31
0.0
  0
LINE
  5
2A1
330
1F
100
AcDbEntity
  8
0
  6
Continuous
 62
     7
370
    25
100
AcDbLine
 10
283.2974216735
 20
127.9500165312
 30
0.0
 11
283.2974216735
 21
113.6605523232
 31
0.0
  0
SPLINE
  5
2A2
330
1F
100
AcDbEntity
  8
0
  6
Continuous
 62
     7
370
    25
100
AcDbSpline
210
0.0
220
0.0
230
1.0
 70
     8
 71
     3
 72
    13
 73
     9
 74
     0
 42
0.000000001
 43
0.00000001
 40
0.0
 40
0.0
 40
0.0
 40
0.0
 40
0.126692479998461
 40
0.3013356866213904
 40
0.4758852336742415
 40
0.6518075144939919
 40
0.8092480931686694
 40
1.0
 40
1.0
 40
1.0
 40
1.0
 10
283.2054290972223
 20
129.8989813163015
 30
0.0
 10
283.2054117399172
 20
129.9054152364066
 30
0.0
 10
283.2053704558925
 20
129.9207181946607
 30
0.0
 10
283.2164013808462
 20
129.7109887049805
 30
0.0
 10
283.2391680906122
 20
129.3594228498165
 30
0.0
 10
283.266882220895
 20
128.9043014106601
 30
0.0
 10
283.28975777321
 20
128.4048275104649
 30
0.0
 10
283.2947091420893
 20
128.1109905811389
 30
0.0
 10
283.2974216735035
 20
127.9500165311534
 30
0.0
  0
LINE
  5
2A3
330
1F
100
AcDbEntity
  8
0
  6
Continuous
 62
     7
370
    25
100
AcDbLine
 10
283.2098962112
 20
115.1021099691
 30
0.0
 11
283.2098962112
 21
129.3915741771
 31
0.0
  0
SPLINE
  5
2A4
330
1F
100
AcDbEntity
  8
0
  6
Continuous
 62
     7
370
    25
100
AcDbSpline
210
0.0
220
0.0
230
1.0
 70
     8
 71
     3
 72
    15
 73
    11
 74
     0
 42
0.000000001
 43
0.00000001
 40
0.0
 40
0.0
 40
0.0
 40
0.0
 40
0.1342966665476082
 40
0.2492772533685279
 40
0.3750410584343577
 40
0.5000197527224594
 40
0.6249314220653995
 40
0.7508254512642774
 40
0.8634935494443562
 40
1.0
 40
1.0
 40
1.0
 40
1.0
 10
283.2974216735035
 20
113.6605523231528
 30
0.0
 10
283.2949035588393
 20
113.5339996583127
 30
0.0
 10
283.290229513509
 20
113.2990965776273
 30
0.0
 10
283.2669568526243
 20
113.116523121777
 30
0.0
 10
283.2392934736305
 20
113.1249065801636
 30
0.0
 10
283.2162725852439
 20
113.3352461822957
 30
0.0
 10
283.2048080469249
 20
113.6926093588516
 30
0.0
 10
283.204202532192
 20
114.1468132111218
 30
0.0
 10
283.2080248448675
 20
114.6471891804022
 30
0.0
 10
283.2092338670232
 20
114.9410970536058
 30
0.0
 10
283.2098962112472
 20
115.10210996911
 30
0.0
  0
LINE
  5
2A5
330
1F
100
AcDbEntity
  8
0
  6
Continuous
 62
     7
370
    25
100
AcDbLine
 10
284.6535911866
 20
124.5821331135
 30
0.0
 11
284.6535911866
 21
110.2926689055
 31
0.0
  0
SPLINE
  5
2A6
330
1F
100
AcDbEntity
  8
0
  6
Continuous
 62
     7
370
    25
100
AcDbSpline
210
0.0
220
0.0
230
1.0
 70
     8
 71
     3
 72
    15
 73
    11
 74
     0
 42
0.000000001
 43
0.00000001
 40
0.0
 40
0.0
 40
0.0
 40
0.0
 40
0.134296666547579
 40
0.2492772533684526
 40
0.3750410584342381
 40
0.5000197527223045
 40
0.6249314220698758
 40
0.7508254512647645
 40
0.863493549448638
 40
1.0
 40
1.0
 40
1.0
 40
1.0
 10
283.8957928021536
 20
125.9566379251968
 30
0.0
 10
283.9025092058396
 20
126.0836105789228
 30
0.0
 10
283.9149759833586
 20
126.3192932297839
 30
0.0
 10
283.9857126537698
 20
126.5066148952925
 30
0.0
 10
284.0952338597224
 20
126.5064203389495
 30
0.0
 10
284.2389348321541
 20
126.3081533439594
 30
0.0
 10
284.3934369738228
 20
125.9650993784621
 30
0.0
 10
284.5287131649854
 20
125.5243677257031
 30
0.0
 10
284.6239831668212
 20
125.033904763981
 30
0.0
 10
284.6431118378847
 20
124.7420314351051
 30
0.0
 10
284.653591186614
 20
124.5821331134759
 30
0.0
  0
LINE
  5
2A7
330
1F
100
AcDbEntity
  8
0
  6
Continuous
 62
     7
370
    25
100
AcDbLine
 10
283.8957928022
 20
111.6671737172
 30
0.0
 11
283.8957928022
 21
125.9566379252
 31
0.0
  0
SPLINE
  5
2A8
330
1F
100
AcDbEntity
  8
0
  6
Continuous
 62
     7
370
    25
100
AcDbSpline
210
0.0
220
0.0
230
1.0
 70
     8
 71
     3
 72
    15
 73
    11
 74
     0
 42
0.000000001
 43
0.00000001
 40
0.0
 40
0.0
 40
0.0
 40
0.0
 40
0.1342966665506349
 40
0.2492772533688193
 40
0.3750410584373688
 40
0.5000197527222073
 40
0.6249314220698013
 40
0.7508254512647174
 40
0.8634935494486037
 40
1.0
 40
1.0
 40
1.0
 40
1.0
 10
284.653591186614
 20
110.2926689054753
 30
0.0
 10
284.6438817436725
 20
110.1651463254956
 30
0.0
 10
284.6258593807177
 20
109.9284429188042
 30
0.0
 10
284.5291795337035
 20
109.7363545821715
 30
0.0
 10
284.3938678337836
 20
109.7318105205489
 30
0.0
 10
284.2391326470674
 20
109.9280501434992
 30
0.0
 10
284.0955907413491
 20
110.2731178886141
 30
0.0
 10
283.9861138470133
 20
110.7185897767425
 30
0.0
 10
283.9163118235685
 20
111.2137320990218
 30
0.0
 10
283.9030552257298
 20
111.5066843336286
 30
0.0
 10
283.8957928021536
 20
111.6671737171962
 30
0.0
  0
LINE
  5
2A9
330
1F
100
AcDbEntity
  8
0
  6
Continuous
 62
     7
370
    25
100
AcDbLine
 10
287.533024496
 20
121.5502264638
 30
0.0
 11
287.533024496
 21
107.2607622558
 31
0.0
  0
SPLINE
  5
2AA
330
1F
100
AcDbEntity
  8
0
  6
Continuous
 62
     7
370
    25
100
AcDbSpline
210
0.0
220
0.0
230
1.0
 70
     8
 71
     3
 72
    15
 73
    11
 74
     0
 42
0.000000001
 43
0.00000001
 40
0.0
 40
0.0
 40
0.0
 40
0.0
 40
0.1342966665506352
 40
0.2492772533688172
 40
0.3750410584373711
 40
0.5000197527222101
 40
0.6249314220698051
 40
0.7508254512647181
 40
0.8634935494486105
 40
1.0
 40
1.0
 40
1.0
 40
1.0
 10
286.161121842995
 20
122.7557989885878
 30
0.0
 10
286.174677759699
 20
122.8843796846605
 30
0.0
 10
286.1998398264104
 20
123.1230471332019
 30
0.0
 10
286.3400062143388
 20
123.3270980650878
 30
0.0
 10
286.5503160818514
 20
123.3522731703569
 30
0.0
 10
286.8156184006848
 20
123.1864491615717
 30
0.0
 10
287.0902114049538
 20
122.8774319097011
 30
0.0
 10
287.3230736166853
 20
122.4659017557543
 30
0.0
 10
287.4836640508038
 20
121.995734172503
 30
0.0
 10
287.515554049762
 20
121.7079077499544
 30
0.0
 10
287.5330244960334
 20
121.5502264638181
 30
0.0
  0
LINE
  5
2AB
330
1F
100
AcDbEntity
  8
0
  6
Continuous
 62
     7
370
    25
100
AcDbLine
 10
286.161121843
 20
108.4663347806
 30
0.0
 11
286.161121843
 21
122.7557989886
 31
0.0
  0
SPLINE
  5
2AC
330
1F
100
AcDbEntity
  8
0
  6
Continuous
 62
     7
370
    25
100
AcDbSpline
210
0.0
220
0.0
230
1.0
 70
     8
 71
     3
 72
    15
 73
    11
 74
     0
 42
0.000000001
 43
0.00000001
 40
0.0
 40
0.0
 40
0.0
 40
0.0
 40
0.1342966665506344
 40
0.2492772533688184
 40
0.3750410584373675
 40
0.5000197527222106
 40
0.6249314220698039
 40
0.7508254512647198
 40
0.8634935494486053
 40
0.9999999999999999
 40
0.9999999999999999
 40
0.9999999999999999
 40
0.9999999999999999
 10
287.5330244960334
 20
107.2607622558175
 30
0.0
 10
287.5168433968918
 20
107.1311859845415
 30
0.0
 10
287.4868085490128
 20
106.8906705805849
 30
0.0
 10
287.3238875074461
 20
106.6779901650498
 30
0.0
 10
287.0909569036061
 20
106.6442363629843
 30
0.0
 10
286.8159765207447
 20
106.8063900590233
 30
0.0
 10
286.550996694409
 20
107.1190530162125
 30
0.0
 10
286.3407629399572
 20
107.5391647950526
 30
0.0
 10
286.2025103650793
 20
108.0178037966843
 30
0.0
 10
286.1757707374279
 20
108.3075834480399
 30
0.0
 10
286.161121842995
 20
108.4663347805871
 30
0.0
  0
LINE
  5
2AD
330
1F
100
AcDbEntity
  8
0
  6
Continuous
 62
     7
370
    25
100
AcDbLine
 10
291.722295583
 20
119.0790240531
 30
0.0
 11
291.722295583
 21
104.7895598451
 31
0.0
  0
SPLINE
  5
2AE
330
1F
100
AcDbEntity
  8
0
  6
Continuous
 62
     7
370
    25
100
AcDbSpline
210
0.0
220
0.0
230
1.0
 70
     8
 71
     3
 72
    15
 73
    11
 74
     0
 42
0.000000001
 43
0.00000001
 40
0.0
 40
0.0
 40
0.0
 40
0.0
 40
0.1342966665506424
 40
0.2492772533688207
 40
0.3750410584373657
 40
0.5000197527222134
 40
0.6249314220698079
 40
0.7508254512647199
 40
0.8634935494486115
 40
1.0
 40
1.0
 40
1.0
 40
1.0
 10
289.8379752399387
 20
120.0263062414305
 30
0.0
 10
289.8573658937131
 20
120.1575003275519
 30
0.0
 10
289.8933582160697
 20
120.4010186685991
 30
0.0
 10
290.0925650709482
 20
120.6319893873602
 30
0.0
 10
290.3880752557525
 20
120.6972871843683
 30
0.0
 10
290.7553144899758
 20
120.5816376786087
 30
0.0
 10
291.1296452924149
 20
120.3240944039743
 30
0.0
 10
291.4428335817257
 20
119.9558781040886
 30
0.0
 10
291.6568413500804
 20
119.5154244242996
 30
0.0
 10
291.6991289633884
 20
119.233481923231
 30
0.0
 10
291.7222955830302
 20
119.0790240531324
 30
0.0
  0
LINE
  5
2AF
330
1F
100
AcDbEntity
  8
0
  6
Continuous
 62
     7
370
    25
100
AcDbLine
 10
289.8379752399
 20
105.7368420334
 30
0.0
 11
289.8379752399
 21
120.0263062414
 31
0.0
  0
SPLINE
  5
2B0
330
1F
100
AcDbEntity
  8
0
  6
Continuous
 62
     7
370
    25
100
AcDbSpline
210
0.0
220
0.0
230
1.0
 70
     8
 71
     3
 72
    15
 73
    11
 74
     0
 42
0.000000001
 43
0.00000001
 40
0.0
 40
0.0
 40
0.0
 40
0.0
 40
0.1342966665506359
 40
0.2492772533688174
 40
0.3750410584373667
 40
0.50001975272221
 40
0.6249314220698035
 40
0.7508254512647199
 40
0.8634935494486178
 40
1.0
 40
1.0
 40
1.0
 40
1.0
 10
291.7222955830302
 20
104.7895598451318
 30
0.0
 10
291.7008421843665
 20
104.6569983277247
 30
0.0
 10
291.6610210597499
 20
104.4109418036846
 30
0.0
 10
291.4439346682614
 20
104.1681184133403
 30
0.0
 10
291.1306501727716
 20
104.0910377009374
 30
0.0
 10
290.7558063710233
 20
104.2016459999045
 30
0.0
 10
290.3890291516678
 20
104.4641966828134
 30
0.0
 10
290.0936212398037
 20
104.8441999198607
 30
0.0
 10
289.8971655106242
 20
105.2962891671982
 30
0.0
 10
289.8589248168518
 20
105.5809144451879
 30
0.0
 10
289.8379752399387
 20
105.7368420334299
 30
0.0
  0
LINE
  5
2B1
330
1F
100
AcDbEntity
  8
0
  6
Continuous
 62
     7
370
    25
100
AcDbLine
 10
296.9108921511
 20
117.3516934826
 30
0.0
 11
296.9108921511
 21
103.0622292746
 31
0.0
  0
SPLINE
  5
2B2
330
1F
100
AcDbEntity
  8
0
  6
Continuous
 62
     7
370
    25
100
AcDbSpline
210
0.0
220
0.0
230
1.0
 70
     8
 71
     3
 72
    15
 73
    11
 74
     0
 42
0.000000001
 43
0.00000001
 40
0.0
 40
0.0
 40
0.0
 40
0.0
 40
0.1342966665506415
 40
0.2492772533688225
 40
0.3750410584373717
 40
0.5000197527222098
 40
0.6249314220698048
 40
0.7508254512647209
 40
0.8634935494486122
 40
0.9999999999999999
 40
0.9999999999999999
 40
0.9999999999999999
 40
0.9999999999999999
 10
294.6538215266708
 20
117.9704719818694
 30
0.0
 10
294.6776096659487
 20
118.1050910990772
 30
0.0
 10
294.7217644627448
 20
118.3549668752256
 30
0.0
 10
294.965246404941
 20
118.6210525841101
 30
0.0
 10
295.3240534435913
 20
118.7382521753154
 30
0.0
 10
295.7660095122857
 20
118.6867897130446
 30
0.0
 10
296.2123323989754
 20
118.49434238477
 30
0.0
 10
296.582632986445
 20
118.1803418349014
 30
0.0
 10
296.8341956532475
 20
117.7768181640494
 30
0.0
 10
296.8837464874396
 20
117.5021604784048
 30
0.0
 10
296.9108921511191
 20
117.3516934825807
 30
0.0
  0
LINE
  5
2B3
330
1F
100
AcDbEntity
  8
0
  6
Continuous
 62
     7
370
    25
100
AcDbLine
 10
294.6538215267
 20
103.6810077739
 30
0.0
 11
294.6538215267
 21
117.9704719819
 31
0.0
  0
SPLINE
  5
2B4
330
1F
100
AcDbEntity
  8
0
  6
Continuous
 62
     7
370
    25
100
AcDbSpline
210
0.0
220
0.0
230
1.0
 70
     8
 71
     3
 72
    15
 73
    11
 74
     0
 42
0.000000001
 43
0.00000001
 40
0.0
 40
0.0
 40
0.0
 40
0.0
 40
0.1342966665506359
 40
0.2492772533688148
 40
0.3750410584373681
 40
0.5000197527222067
 40
0.6249314220697998
 40
0.7508254512647167
 40
0.8634935494486051
 40
1.0
 40
1.0
 40
1.0
 40
1.0
 10
296.9108921511191
 20
103.0622292745801
 30
0.0
 10
296.8857565968863
 20
102.9259722251614
 30
0.0
 10
296.8391007707813
 20
102.6730561707004
 30
0.0
 10
296.5839396552956
 20
102.3927731322855
 30
0.0
 10
296.2135221784594
 20
102.2614597666866
 30
0.0
 10
295.7665986956839
 20
102.306883786606
 30
0.0
 10
295.3252099192967
 20
102.5053290727981
 30
0.0
 10
294.9665237329096
 20
102.8334482144005
 30
0.0
 10
294.7264263133105
 20
103.2509091639156
 30
0.0
 10
294.679518985803
 20
103.5287803249139
 30
0.0
 10
294.6538215266708
 20
103.6810077738688
 30
0.0
  0
LINE
  5
2B5
330
1F
100
AcDbEntity
  8
0
  6
Continuous
 62
     7
370
    25
100
AcDbLine
 10
302.7142310586
 20
116.4962659469
 30
0.0
 11
302.7142310586
 21
102.2068017389
 31
0.0
  0
SPLINE
  5
2B6
330
1F
100
AcDbEntity
  8
0
  6
Continuous
 62
     7
370
    25
100
AcDbSpline
210
0.0
220
0.0
230
1.0
 70
     8
 71
     3
 72
    15
 73
    11
 74
     0
 42
0.000000001
 43
0.00000001
 40
0.0
 40
0.0
 40
0.0
 40
0.0
 40
0.1342966665431861
 40
0.2492772533679164
 40
0.3750410584297538
 40
0.5000197527224373
 40
0.6249314220699755
 40
0.7508254512648308
 40
0.8634935494486738
 40
0.9999999999999999
 40
0.9999999999999999
 40
0.9999999999999999
 40
0.9999999999999999
 10
300.2517061259009
 20
116.7406763743466
 30
0.0
 10
300.2781285537933
 20
116.8792782974845
 30
0.0
 10
300.3271730343592
 20
117.1365468328894
 30
0.0
 10
300.5968829775079
 20
117.4433399825453
 30
0.0
 10
300.9923917905095
 20
117.6203734657902
 30
0.0
 10
301.4763065381504
 20
117.6423529898063
 30
0.0
 10
301.9615396813441
 20
117.5237986107228
 30
0.0
 10
302.3615055759768
 20
117.2708971898349
 30
0.0
 10
302.6319771047791
 20
116.9087823500714
 30
0.0
 10
302.6851184103487
 20
116.6422704171481
 30
0.0
 10
302.714231058642
 20
116.4962659468778
 30
0.0
  0
LINE
  5
2B7
330
1F
100
AcDbEntity
  8
0
  6
Continuous
 62
     7
370
    25
100
AcDbLine
 10
300.2517061259
 20
102.4512121663
 30
0.0
 11
300.2517061259
 21
116.7406763743
 31
0.0
  0
SPLINE
  5
2B8
330
1F
100
AcDbEntity
  8
0
  6
Continuous
 62
     7
370
    25
100
AcDbSpline
210
0.0
220
0.0
230
1.0
 70
     8
 71
     3
 72
    15
 73
    11
 74
     0
 42
0.000000001
 43
0.00000001
 40
0.0
 40
0.0
 40
0.0
 40
0.0
 40
0.1342966665506363
 40
0.2492772533688183
 40
0.3750410584373682
 40
0.5000197527222071
 40
0.6249314220698011
 40
0.7508254512647176
 40
0.8634935494486186
 40
1.0
 40
1.0
 40
1.0
 40
1.0
 10
302.714231058642
 20
102.2068017388771
 30
0.0
 10
302.6872764172609
 20
102.066412787507
 30
0.0
 10
302.63724405874
 20
101.8058272264522
 30
0.0
 10
302.3629209757478
 20
101.483544407327
 30
0.0
 10
301.9628261724995
 20
101.2911124155421
 30
0.0
 10
301.4769493531392
 20
101.2625447880265
 30
0.0
 10
300.9936651270699
 20
101.3876431009878
 30
0.0
 10
300.5982867879791
 20
101.6559482862861
 30
0.0
 10
300.3323439006426
 20
102.0332690730108
 30
0.0
 10
300.2802467499677
 20
102.303286994224
 30
0.0
 10
300.2517061259009
 20
102.451212166346
 30
0.0
  0
LINE
  5
2B9
330
1F
100
AcDbEntity
  8
0
  6
Continuous
 62
     7
370
    25
100
AcDbLine
 10
308.7021639447
 20
116.5761464545
 30
0.0
 11
308.7021639447
 21
102.2866822465
 31
0.0
  0
SPLINE
  5
2BA
330
1F
100
AcDbEntity
  8
0
  6
Continuous
 62
     7
370
    25
100
AcDbSpline
210
0.0
220
0.0
230
1.0
 70
     8
 71
     3
 72
    15
 73
    11
 74
     0
 42
0.000000001
 43
0.00000001
 40
0.0
 40
0.0
 40
0.0
 40
0.0
 40
0.1342966665447176
 40
0.2492772533681049
 40
0.3750410584313263
 40
0.5000197527223909
 40
0.6249314220699412
 40
0.750825451264809
 40
0.8634935494486604
 40
0.9999999999999999
 40
0.9999999999999999
 40
0.9999999999999999
 40
0.9999999999999999
 10
306.2167091228583
 20
116.4280729036499
 30
0.0
 10
306.2438073867842
 20
116.5709201986558
 30
0.0
 10
306.2941063329628
 20
116.8360688599466
 30
0.0
 10
306.5700531492536
 20
117.1861446312659
 30
0.0
 10
306.9729482907363
 20
117.4265091659386
 30
0.0
 10
307.4629535492082
 20
117.525742037279
 30
0.0
 10
307.9511310602022
 20
117.4844006026687
 30
0.0
 10
308.3511164534835
 20
117.2949529708986
 30
0.0
 10
308.6204492670823
 20
116.9756565269862
 30
0.0
 10
308.6732421657645
 20
116.7175475140387
 30
0.0
 10
308.7021639446942
 20
116.5761464544538
 30
0.0
  0
LINE
  5
2BB
330
1F
100
AcDbEntity
  8
0
  6
Continuous
 62
     7
370
    25
100
AcDbLine
 10
306.2167091229
 20
102.1386086956
 30
0.0
 11
306.2167091229
 21
116.4280729036
 31
0.0
  0
SPLINE
  5
2BC
330
1F
100
AcDbEntity
  8
0
  6
Continuous
 62
     7
370
    25
100
AcDbSpline
210
0.0
220
0.0
230
1.0
 70
     8
 71
     3
 72
    15
 73
    11
 74
     0
 42
0.000000001
 43
0.00000001
 40
0.0
 40
0.0
 40
0.0
 40
0.0
 40
0.1342966665490894
 40
0.2492772533686044
 40
0.3750410584357626
 40
0.500019752722201
 40
0.6249314220713921
 40
0.7508254512649133
 40
0.8634935494501138
 40
0.9999999999999999
 40
0.9999999999999999
 40
0.9999999999999999
 40
0.9999999999999999
 10
308.7021639446942
 20
102.2866822464532
 30
0.0
 10
308.6753881168545
 20
102.1420312832415
 30
0.0
 10
308.6256876664111
 20
101.8735347096997
 30
0.0
 10
308.3525356735564
 20
101.5078250362965
 30
0.0
 10
307.9524189072258
 20
101.2519186093094
 30
0.0
 10
307.4636023497899
 20
101.1460362891156
 30
0.0
 10
306.9742441073527
 20
101.193982591675
 30
0.0
 10
306.5714793905977
 20
101.3989774205648
 30
0.0
 10
306.2994029460169
 20
101.733621402158
 30
0.0
 10
306.2459774567993
 20
101.9952690495304
 30
0.0
 10
306.2167091228583
 20
102.1386086956493
 30
0.0
  0
LINE
  5
2BD
330
1F
100
AcDbEntity
  8
0
  6
Continuous
 62
     7
370
    25
100
AcDbLine
 10
314.4308601874
 20
117.5854141949
 30
0.0
 11
314.4308601874
 21
103.2959499869
 31
0.0
  0
SPLINE
  5
2BE
330
1F
100
AcDbEntity
  8
0
  6
Continuous
 62
     7
370
    25
100
AcDbSpline
210
0.0
220
0.0
230
1.0
 70
     8
 71
     3
 72
    15
 73
    11
 74
     0
 42
0.000000001
 43
0.00000001
 40
0.0
 40
0.0
 40
0.0
 40
0.0
 40
0.1342966665490953
 40
0.2492772533686098
 40
0.3750410584357614
 40
0.5000197527222042
 40
0.6249314220713968
 40
0.7508254512649152
 40
0.8634935494501061
 40
1.0
 40
1.0
 40
1.0
 40
1.0
 10
312.1066994783567
 20
117.0558320019521
 30
0.0
 10
312.1324650322013
 20
117.2028725642226
 30
0.0
 10
312.1802902437939
 20
117.4758046364654
 30
0.0
 10
312.4420205231173
 20
117.8685300660266
 30
0.0
 10
312.8224390663285
 20
118.1710286607376
 30
0.0
 10
313.2822152337378
 20
118.3456001573443
 30
0.0
 10
313.737152984819
 20
118.3790685741059
 30
0.0
 10
314.1075106229778
 20
118.2507261433653
 30
0.0
 10
314.3557415466945
 20
117.9724839245515
 30
0.0
 10
314.4042729844369
 20
117.7224121673391
 30
0.0
 10
314.4308601874234
 20
117.5854141949012
 30
0.0
  0
LINE
  5
2BF
330
1F
100
AcDbEntity
  8
0
  6
Continuous
 62
     7
370
    25
100
AcDbLine
 10
312.1066994784
 20
102.766367794
 30
0.0
 11
312.1066994784
 21
117.055832002
 31
0.0
  0
SPLINE
  5
2C0
330
1F
100
AcDbEntity
  8
0
  6
Continuous
 62
     7
370
    25
100
AcDbSpline
210
0.0
220
0.0
230
1.0
 70
     8
 71
     3
 72
    15
 73
    11
 74
     0
 42
0.000000001
 43
0.00000001
 40
0.0
 40
0.0
 40
0.0
 40
0.0
 40
0.134296666549104
 40
0.2492772533686329
 40
0.3750410584358047
 40
0.5000197527222568
 40
0.6249314220698388
 40
0.750825451264743
 40
0.8634935494486169
 40
1.0
 40
1.0
 40
1.0
 40
1.0
 10
314.4308601874234
 20
103.2959499869006
 30
0.0
 10
314.4062478200058
 20
103.1472228058564
 30
0.0
 10
314.3605631168301
 20
102.8711600848327
 30
0.0
 10
314.1088284695619
 20
102.4638153185479
 30
0.0
 10
313.7383467313993
 20
102.1467834258769
 30
0.0
 10
313.2828219302646
 20
101.9659939978036
 30
0.0
 10
312.8236613159838
 20
101.9387018247019
 30
0.0
 10
312.4433634811268
 20
102.0815825139304
 30
0.0
 10
312.1853200142043
 20
102.3741762887422
 30
0.0
 10
312.1345261286424
 20
102.6275570399565
 30
0.0
 10
312.1066994783567
 20
102.7663677939515
 30
0.0
  0
LINE
  5
2C1
330
1F
100
AcDbEntity
  8
0
  6
Continuous
 62
     7
370
    25
100
AcDbLine
 10
319.475704003
 20
119.4492613944
 30
0.0
 11
319.475704003
 21
105.1597971864
 31
0.0
  0
SPLINE
  5
2C2
330
1F
100
AcDbEntity
  8
0
  6
Continuous
 62
     7
370
    25
100
AcDbSpline
210
0.0
220
0.0
230
1.0
 70
     8
 71
     3
 72
    15
 73
    11
 74
     0
 42
0.000000001
 43
0.00000001
 40
0.0
 40
0.0
 40
0.0
 40
0.0
 40
0.1342966665491108
 40
0.2492772533686369
 40
0.3750410584358024
 40
0.5000197527222595
 40
0.6249314220698424
 40
0.7508254512647428
 40
0.8634935494486239
 40
1.0
 40
1.0
 40
1.0
 40
1.0
 10
317.4851061532862
 20
118.5774236368907
 30
0.0
 10
317.5076292325288
 20
118.7282945533177
 30
0.0
 10
317.5494358646312
 20
119.0083364086111
 30
0.0
 10
317.7775499385346
 20
119.4399173044484
 30
0.0
 10
318.1072949410859
 20
119.7987475390384
 30
0.0
 10
318.502763021197
 20
120.0411587765722
 30
0.0
 10
318.8907406436176
 20
120.1414889824946
 30
0.0
 10
319.2040193070145
 20
120.067373995814
 30
0.0
 10
319.4127492560083
 20
119.8253788576549
 30
0.0
 10
319.4534220418244
 20
119.5823829637793
 30
0.0
 10
319.4757040030198
 20
119.4492613944221
 30
0.0
  0
LINE
  5
2C3
330
1F
100
AcDbEntity
  8
0
  6
Continuous
 62
     7
370
    25
100
AcDbLine
 10
317.4851061533
 20
104.2879594289
 30
0.0
 11
317.4851061533
 21
118.5774236369
 31
0.0
  0
SPLINE
  5
2C4
330
1F
100
AcDbEntity
  8
0
  6
Continuous
 62
     7
370
    25
100
AcDbSpline
210
0.0
220
0.0
230
1.0
 70
     8
 71
     3
 72
    15
 73
    11
 74
     0
 42
0.000000001
 43
0.00000001
 40
0.0
 40
0.0
 40
0.0
 40
0.0
 40
0.1342966665491045
 40
0.2492772533686321
 40
0.3750410584358038
 40
0.500019752722256
 40
0.6249314220698379
 40
0.7508254512647423
 40
0.8634935494486174
 40
1.0
 40
1.0
 40
1.0
 40
1.0
 10
319.4757040030198
 20
105.1597971864215
 30
0.0
 10
319.4550793853981
 20
105.0074817142496
 30
0.0
 10
319.4167966181142
 20
104.7247585199648
 30
0.0
 10
319.2051381002172
 20
104.2806564502977
 30
0.0
 10
318.8917518082604
 20
103.9093787323833
 30
0.0
 10
318.5032826448186
 20
103.661641959073
 30
0.0
 10
318.1083530296145
 20
103.5666015841396
 30
0.0
 10
317.7787100720373
 20
103.6531683027431
 30
0.0
 10
317.553825981581
 20
103.9074552658178
 30
0.0
 10
317.5094285851933
 20
104.1532852478516
 30
0.0
 10
317.4851061532862
 20
104.2879594288901
 30
0.0
  0
LINE
  5
2C5
330
1F
100
AcDbEntity
  8
0
  6
Continuous
 62
     7
370
    25
100
AcDbLine
 10
320.7963417398
 20
130.1578784741
 30
0.0
 11
320.7963417398
 21
102.8034095625
 31
0.0
  0
LINE
  5
2C6
330
1F
100
AcDbEntity
  8
0
  6
Continuous
 62
     7
370
    25
100
AcDbLine
 10
320.7610266001
 20
102.7829761795
 30
0.0
 11
320.7610266001
 21
130.1374914779
 31
0.0
  0
LWPOLYLINE
  5
2C7
330
1F
100
AcDbEntity
  8
0
  6
Continuous
 62
     7
370
    25
100
AcDbPolyline
 90
       16
 70
   128
 43
0.0
 10
320.7963417398
 20
102.8034095625
 10
321.6273887924
 20
103.3126643632
 10
322.4085966759
 20
103.8475654101
 10
323.1375946033
 20
104.4064894012
 10
323.8121702328
 20
104.9877401301
 10
324.4302763819
 20
105.5895536339
 10
324.9900372398
 20
106.2101035465
 10
325.4897540606
 20
106.8475066408
 10
325.927910318
 20
107.4998285444
 10
326.3031763082
 20
108.1650896098
 10
326.6144131848
 20
108.8412709219
 10
326.8606764151
 20
109.5263204252
 10
327.0412186466
 20
110.2181591513
 10
327.155491975
 20
110.9146875282
 10
327.2031496069
 20
111.6137917515
 10
327.204677414
 20
111.7634654096
  0
LWPOLYLINE
  5
2C8
330
1F
100
AcDbEntity
  8
0
  6
Continuous
 62
     7
370
    25
100
AcDbPolyline
 90
       44
 70
   128
 43
0.0
 10
283.204677414
 20
111.7634654096
 10
283.2242396847
 20
111.227999633
 10
283.3086709152
 20
110.5300541205
 10
283.4595515123
 20
109.8358517289
 10
283.6764235879
 20
109.1474992035
 10
283.958628985
 20
108.4670855366
 10
284.3053112747
 20
107.7966756279
 10
284.7154183557
 20
107.138304018
 10
285.1877056468
 20
106.4939687139
 10
285.7207398644
 20
105.8656251259
 10
286.3129033715
 20
105.2551801328
 10
286.9623990876
 20
104.6644862954
 10
287.6672559418
 20
104.0953362344
 10
288.4253348549
 20
103.5494571897
 10
289.234335231
 20
103.0285057794
 10
290.0918019392
 20
102.5340629717
 10
290.9951327643
 20
102.0676292872
 10
291.9415863042
 20
101.6306202456
 10
292.9282902889
 20
101.224362069
 10
293.9522502979
 20
100.8500876582
 10
295.0103588469
 20
100.5089328502
 10
296.0994048188
 20
100.2019329717
 10
297.2160832083
 20
99.9300196972
 10
298.3570051522
 20
99.6940182211
 10
299.5187082137
 20
99.4946447539
 10
300.6976668899
 20
99.3325043485
 10
301.8903033111
 20
99.2080890637
 10
303.0929980989
 20
99.1217764716
 10
304.3021013499
 20
99.0738285111
 10
305.5139437126
 20
99.0643906933
 10
306.724847523
 20
99.0934916597
 10
307.9311379651
 20
99.1610430957
 10
309.1291542236
 20
99.266839998
 10
310.3152605936
 20
99.4105612973
 10
311.4858575136
 20
99.5917708324
 10
312.6373924902
 20
99.8099186738
 10
313.7663708782
 20
100.0643427928
 10
314.8693664868
 20
100.3542710703
 10
315.9430319769
 20
100.6788236405
 10
316.9841090193
 20
101.0370155607
 10
317.9894381838
 20
101.4277598003
 10
318.9559685265
 20
101.84987054
 10
319.880766849
 20
102.3020667704
 10
320.7610266001
 20
102.7829761795
  0
LWPOLYLINE
  5
2C9
330
1F
100
AcDbEntity
  8
0
  6
Continuous
 62
     7
370
    25
100
AcDbPolyline
 90
       56
 70
   128
 43
0.0
 10
284.2165894248
 20
141.9754754493
 10
284.2668233624
 20
142.4991748132
 10
284.3916356556
 20
143.1812681168
 10
284.5830701863
 20
143.8581948286
 10
284.8405141753
 20
144.527788116
 10
285.1631435483
 20
145.187904621
 10
285.5499255734
 20
145.8364313205
 10
285.9996221671
 20
146.4712922901
 10
286.5107938574
 20
147.0904553492
 10
287.0818043911
 20
147.6919385662
 10
287.7108259722
 20
148.2738166022
 10
288.3958451118
 20
148.8342268742
 10
289.1346690739
 20
149.3713755174
 10
289.9249328939
 20
149.8835431267
 10
290.7641069491
 20
150.3690902615
 10
291.6495050559
 20
150.8264626924
 10
292.5782930679
 20
151.2541963771
 10
293.5474979487
 20
151.6509221466
 10
294.5540172877
 20
152.0153700873
 10
295.5946292315
 20
152.3463736071
 10
296.6660027968
 20
152.6428731683
 10
297.7647085327
 20
152.9039196805
 10
298.8872294985
 20
153.1286775376
 10
300.0299725211
 20
153.3164272929
 10
301.1892796973
 20
153.4665679625
 10
302.3614401019
 20
153.5786189481
 10
303.5427016668
 20
153.6522215762
 10
304.7292831915
 20
153.687140246
 10
305.9173864459
 20
153.6832631833
 10
307.1032083294
 20
153.6406027984
 10
308.2829530436
 20
153.5592956468
 10
309.4528442433
 20
153.4396019912
 10
310.609137124
 20
153.2819049695
 10
311.7481304095
 20
153.0867093673
 10
312.8661781992
 20
152.854640003
 10
313.9597016387
 20
152.586439727
 10
315.0252003758
 20
152.2829670445
 10
316.0592637647
 20
151.9451933671
 10
317.058581784
 20
151.5741999032
 10
318.0199556316
 20
151.1711741975
 10
318.9403079639
 20
150.7374063292
 10
319.816692747
 20
150.2742847828
 10
320.646304686
 20
149.7832920035
 10
321.4264882056
 20
149.265999652
 10
322.1547459499
 20
148.7240635733
 10
322.8287467766
 20
148.1592184967
 10
323.4463332191
 20
147.5732724831
 10
324.0055283924
 20
146.9681011368
 10
324.504542321
 20
146.3456416023
 10
324.9417776689
 20
145.7078863634
 10
325.315834852
 20
145.0568768652
 10
325.625516519
 20
144.3946969792
 10
325.8698313834
 20
143.7234663336
 10
326.047997397
 20
143.0453335277
 10
326.159444253
 20
142.3624692544
 10
326.1927654033
 20
141.9754754493
  0
LINE
  5
2CA
330
1F
100
AcDbEntity
  8
0
  6
Continuous
 62
     7
370
    25
100
AcDbLine
 10
322.6550903975
 20
122.3707376218
 30
0.0
 11
322.6550903975
 21
108.0812734138
 31
0.0
  0
SPLINE
  5
2CB
330
1F
100
AcDbEntity
  8
0
  6
Continuous
 62
     7
370
    25
100
AcDbSpline
210
0.0
220
0.0
230
1.0
 70
     8
 71
     3
 72
    12
 73
     8
 74
     0
 42
0.000000001
 43
0.00000001
 40
0.0
 40
0.0
 40
0.0
 40
0.0
 40
0.2822252313080064
 40
0.5211580334782892
 40
0.7778849222669584
 40
0.9022798624799226
 40
0.9999999999999999
 40
0.9999999999999999
 40
0.9999999999999999
 40
0.9999999999999999
 10
322.6550903974716
 20
108.0812734138177
 30
0.0
 10
322.6407875815361
 20
107.9271279087721
 30
0.0
 10
322.614375954937
 20
107.6424823159356
 30
0.0
 10
322.4674932953463
 20
107.1759518410033
 30
0.0
 10
322.2828524829372
 20
106.8396877565701
 30
0.0
 10
322.1162178816285
 20
106.6310258839014
 30
0.0
 10
322.0339894316709
 20
106.561177867903
 30
0.0
 10
321.9978127996299
 20
106.5304480417313
 30
0.0
  0
LINE
  5
2CC
330
1F
100
AcDbEntity
  8
0
  6
Continuous
 62
     7
370
    25
100
AcDbLine
 10
321.7698056991
 20
134.9325619517
 30
0.0
 11
321.7698056991
 21
136.5661415657
 31
0.0
  0
SPLINE
  5
2CD
330
1F
100
AcDbEntity
  8
0
  6
Continuous
 62
     7
370
    25
100
AcDbSpline
210
0.0
220
0.0
230
1.0
 70
     8
 71
     3
 72
    17
 73
    13
 74
     0
 42
0.000000001
 43
0.00000001
 40
0.0
 40
0.0
 40
0.0
 40
0.0
 40
0.1368787499120918
 40
0.252760746441081
 40
0.3772728442552266
 40
0.4376041754871218
 40
0.500019027609521
 40
0.5623651480013874
 40
0.62269546254709
 40
0.7473256874511919
 40
0.8608914446623392
 40
1.0
 40
1.0
 40
1.0
 40
1.0
 10
321.769805699081
 20
136.5661415657073
 30
0.0
 10
321.7540063228839
 20
136.7197117271053
 30
0.0
 10
321.7248311432199
 20
137.0032948884869
 30
0.0
 10
321.5627230500997
 20
137.4627742032669
 30
0.0
 10
321.3599423566279
 20
137.7930240724629
 30
0.0
 10
321.1649764961758
 20
138.0032614536345
 30
0.0
 10
321.0107468089306
 20
138.1237146531666
 30
0.0
 10
320.8544386872913
 20
138.2081538114591
 30
0.0
 10
320.6519482125936
 20
138.2601543759304
 30
0.0
 10
320.4331936393883
 20
138.2108703813066
 30
0.0
 10
320.2543042152312
 20
137.9751310791308
 30
0.0
 10
320.2188883967369
 20
137.7347655833459
 30
0.0
 10
320.199390398317
 20
137.6024335843612
 30
0.0
  0
LINE
  5
2CE
330
1F
100
AcDbEntity
  8
0
  6
Continuous
 62
     7
370
    25
100
AcDbLine
 10
320.1993903983
 20
137.6024335844
 30
0.0
 11
320.1993903983
 21
133.896269933
 31
0.0
  0
LINE
  5
2CF
330
1F
100
AcDbEntity
  8
0
  6
Continuous
 62
     7
370
    25
100
AcDbLine
 10
317.6745938243
 20
132.6294422106
 30
0.0
 11
317.6745938243
 21
138.8692613068
 31
0.0
  0
SPLINE
  5
2D0
330
1F
100
AcDbEntity
  8
0
  6
Continuous
 62
     7
370
    25
100
AcDbSpline
210
0.0
220
0.0
230
1.0
 70
     8
 71
     3
 72
    17
 73
    13
 74
     0
 42
0.000000001
 43
0.00000001
 40
0.0
 40
0.0
 40
0.0
 40
0.0
 40
0.136878749912103
 40
0.2527607464411005
 40
0.3772728442552487
 40
0.437604175487149
 40
0.5000190276095555
 40
0.5623651480008292
 40
0.622695462546346
 40
0.7473256874511034
 40
0.8608914446615719
 40
1.0
 40
1.0
 40
1.0
 40
1.0
 10
317.6745938242611
 20
138.8692613068073
 30
0.0
 10
317.6538991194574
 20
139.0199366822917
 30
0.0
 10
317.615684210007
 20
139.2981743225548
 30
0.0
 10
317.4043160050139
 20
139.7280287256446
 30
0.0
 10
317.1421265360799
 20
140.0213962007786
 30
0.0
 10
316.8921962526695
 20
140.1963435005185
 30
0.0
 10
316.6955727386974
 20
140.2889662991527
 30
0.0
 10
316.497422737392
 20
140.3452891067067
 30
0.0
 10
316.2420781091568
 20
140.3609732447759
 30
0.0
 10
315.9683924302157
 20
140.2726278718121
 30
0.0
 10
315.7461695055046
 20
140.0050715092957
 30
0.0
 10
315.7023388492483
 20
139.7584200193841
 30
0.0
 10
315.678208104774
 20
139.6226272983609
 30
0.0
  0
LINE
  5
2D1
330
1F
100
AcDbEntity
  8
0
  6
Continuous
 62
     7
370
    25
100
AcDbLine
 10
315.6782081048
 20
139.6226272984
 30
0.0
 11
315.6782081048
 21
131.876076219
 31
0.0
  0
LINE
  5
2D2
330
1F
100
AcDbEntity
  8
0
  6
Continuous
 62
     7
370
    25
100
AcDbLine
 10
312.6551012569
 20
131.0493196598
 30
0.0
 11
312.6551012569
 21
140.4493838576
 31
0.0
  0
SPLINE
  5
2D3
330
1F
100
AcDbEntity
  8
0
  6
Continuous
 62
     7
370
    25
100
AcDbSpline
210
0.0
220
0.0
230
1.0
 70
     8
 71
     3
 72
    17
 73
    13
 74
     0
 42
0.000000001
 43
0.00000001
 40
0.0
 40
0.0
 40
0.0
 40
0.0
 40
0.1368787499128796
 40
0.2527607464411719
 40
0.3772728442559848
 40
0.4376041754876926
 40
0.5000190276094928
 40
0.5623651480013643
 40
0.622695462547075
 40
0.7473256874511741
 40
0.8608914446623287
 40
1.0
 40
1.0
 40
1.0
 40
1.0
 10
312.6551012569026
 20
140.4493838576022
 30
0.0
 10
312.6310451324184
 20
140.5965095048384
 30
0.0
 10
312.5866230144125
 20
140.8681922053287
 30
0.0
 10
312.3416614866765
 20
141.2618495910931
 30
0.0
 10
312.0394969462393
 20
141.5104513400627
 30
0.0
 10
311.753127282689
 20
141.6428582198395
 30
0.0
 10
311.5286838422218
 20
141.7020811175859
 30
0.0
 10
311.3033790060064
 20
141.7248146124322
 30
0.0
 10
311.0141065828433
 20
141.6972986006287
 30
0.0
 10
310.7057756108831
 20
141.5627864642771
 30
0.0
 10
310.4566905357084
 20
141.2578449773333
 30
0.0
 10
310.4076938067959
 20
141.0038302274189
 30
0.0
 10
310.3807189073432
 20
140.8639837011194
 30
0.0
  0
LINE
  5
2D4
330
1F
100
AcDbEntity
  8
0
  6
Continuous
 62
     7
370
    25
100
AcDbLine
 10
310.3807189073
 20
140.8639837011
 30
0.0
 11
310.3807189073
 21
130.6347198163
 31
0.0
  0
LINE
  5
2D5
330
1F
100
AcDbEntity
  8
0
  6
Continuous
 62
     7
370
    25
100
AcDbLine
 10
307.0833770079
 20
130.3093143118
 30
0.0
 11
307.0833770079
 21
141.1893892056
 31
0.0
  0
SPLINE
  5
2D6
330
1F
100
AcDbEntity
  8
0
  6
Continuous
 62
     7
370
    25
100
AcDbSpline
210
0.0
220
0.0
230
1.0
 70
     8
 71
     3
 72
    17
 73
    13
 74
     0
 42
0.000000001
 43
0.00000001
 40
0.0
 40
0.0
 40
0.0
 40
0.0
 40
0.1368787499121014
 40
0.2527607464411051
 40
0.3772728442552649
 40
0.437604175487167
 40
0.5000190276095718
 40
0.5623651480005442
 40
0.6226954625459677
 40
0.7473256874510585
 40
0.8608914446611876
 40
1.0
 40
1.0
 40
1.0
 40
1.0
 10
307.0833770078989
 20
141.1893892056154
 30
0.0
 10
307.0577425239137
 20
141.33257329111
 30
0.0
 10
307.0104058021004
 20
141.596977490822
 30
0.0
 10
306.7500077060936
 20
141.9505487069929
 30
0.0
 10
306.4302647840372
 20
142.1498194709758
 30
0.0
 10
306.1286817006687
 20
142.2355887239643
 30
0.0
 10
305.8930542702889
 20
142.2583178495786
 30
0.0
 10
305.6572943831243
 20
142.2444787378562
 30
0.0
 10
305.355535280341
 20
142.1700808841499
 30
0.0
 10
305.0354127663322
 20
141.9857185187044
 30
0.0
 10
304.7779279359621
 20
141.6405948601142
 30
0.0
 10
304.727396813152
 20
141.3786853553436
 30
0.0
 10
304.6995771609569
 20
141.2344924119828
 30
0.0
  0
LINE
  5
2D7
330
1F
100
AcDbEntity
  8
0
  6
Continuous
 62
     7
370
    25
100
AcDbLine
 10
304.699577161
 20
141.234492412
 30
0.0
 11
304.699577161
 21
130.2642111054
 31
0.0
  0
LINE
  5
2D8
330
1F
100
AcDbEntity
  8
0
  6
Continuous
 62
     7
370
    25
100
AcDbLine
 10
301.3724019649
 20
130.4642759854
 30
0.0
 11
301.3724019649
 21
141.034427532
 31
0.0
  0
SPLINE
  5
2D9
330
1F
100
AcDbEntity
  8
0
  6
Continuous
 62
     7
370
    25
100
AcDbSpline
210
0.0
220
0.0
230
1.0
 70
     8
 71
     3
 72
    17
 73
    13
 74
     0
 42
0.000000001
 43
0.00000001
 40
0.0
 40
0.0
 40
0.0
 40
0.0
 40
0.1368787499083978
 40
0.2527607464406504
 40
0.3772728442516618
 40
0.4376041754844523
 40
0.5000190276096801
 40
0.5623651480012334
 40
0.6226954625468282
 40
0.7473256874512173
 40
0.8608914446619935
 40
0.9999999999999999
 40
0.9999999999999999
 40
0.9999999999999999
 40
0.9999999999999999
 10
301.3724019648589
 20
141.0344275320477
 30
0.0
 10
301.3470891708856
 20
141.1735703741767
 30
0.0
 10
301.3003464828974
 20
141.4305120007032
 30
0.0
 10
301.0438127445193
 20
141.7430791156207
 30
0.0
 10
300.7301910551602
 20
141.8921100898976
 30
0.0
 10
300.4357481437667
 20
141.9306013293949
 30
0.0
 10
300.2064016267903
 20
141.9164477607164
 30
0.0
 10
299.9776614098013
 20
141.8657635409237
 30
0.0
 10
299.6857822658988
 20
141.7442770748405
 30
0.0
 10
299.3775959598312
 20
141.5100759554938
 30
0.0
 10
299.1307963664631
 20
141.1249514143969
 30
0.0
 10
299.0824762590775
 20
140.8552008257886
 30
0.0
 10
299.0558738701588
 20
140.7066910136737
 30
0.0
  0
LINE
  5
2DA
330
1F
100
AcDbEntity
  8
0
  6
Continuous
 62
     7
370
    25
100
AcDbLine
 10
299.0558738702
 20
140.7066910137
 30
0.0
 11
299.0558738702
 21
130.7920125037
 31
0.0
  0
LINE
  5
2DB
330
1F
100
AcDbEntity
  8
0
  6
Continuous
 62
     7
370
    25
100
AcDbLine
 10
295.9454784014
 20
131.5027187909
 30
0.0
 11
295.9454784014
 21
139.9959847265
 31
0.0
  0
SPLINE
  5
2DC
330
1F
100
AcDbEntity
  8
0
  6
Continuous
 62
     7
370
    25
100
AcDbSpline
210
0.0
220
0.0
230
1.0
 70
     8
 71
     3
 72
    17
 73
    13
 74
     0
 42
0.000000001
 43
0.00000001
 40
0.0
 40
0.0
 40
0.0
 40
0.0
 40
0.1368787499124948
 40
0.2527607464411396
 40
0.3772728442556173
 40
0.4376041754874222
 40
0.5000190276095282
 40
0.5623651480010264
 40
0.6226954625466168
 40
0.747325687451128
 40
0.8608914446618476
 40
0.9999999999999999
 40
0.9999999999999999
 40
0.9999999999999999
 40
0.9999999999999999
 10
295.9454784013664
 20
139.9959847264794
 30
0.0
 10
295.9223635029865
 20
140.1312861839884
 30
0.0
 10
295.8796794561774
 20
140.3811342971279
 30
0.0
 10
295.646024571863
 20
140.6548186376026
 30
0.0
 10
295.3617700185881
 20
140.7564248328952
 30
0.0
 10
295.0962916354172
 20
140.7505019583311
 30
0.0
 10
294.8902253885917
 20
140.7018105495246
 30
0.0
 10
294.6854592590587
 20
140.616739710561
 30
0.0
 10
294.4250944016777
 20
140.4514481091799
 30
0.0
 10
294.1516873317659
 20
140.1711138014892
 30
0.0
 10
293.9338659688363
 20
139.7491345660803
 30
0.0
 10
293.8913384038764
 20
139.4721777523806
 30
0.0
 10
293.8679250696758
 20
139.319700589759
 30
0.0
  0
LINE
  5
2DD
330
1F
100
AcDbEntity
  8
0
  6
Continuous
 62
     7
370
    25
100
AcDbLine
 10
293.8679250697
 20
139.3197005898
 30
0.0
 11
293.8679250697
 21
132.6005162777
 31
0.0
  0
LINE
  5
2DE
330
1F
100
AcDbEntity
  8
0
  6
Continuous
 62
     7
370
    25
100
AcDbLine
 10
291.2048544564
 20
134.1378742191
 30
0.0
 11
291.2048544564
 21
138.1510310431
 31
0.0
  0
SPLINE
  5
2DF
330
1F
100
AcDbEntity
  8
0
  6
Continuous
 62
     7
370
    25
100
AcDbSpline
210
0.0
220
0.0
230
1.0
 70
     8
 71
     3
 72
    17
 73
    13
 74
     0
 42
0.000000001
 43
0.00000001
 40
0.0
 40
0.0
 40
0.0
 40
0.0
 40
0.1369031953628674
 40
0.2529531257868814
 40
0.3771830372389157
 40
0.4376632377258524
 40
0.5000098259455013
 40
0.5623570937565504
 40
0.6226885186228922
 40
0.7473210372258583
 40
0.8608888845037572
 40
1.0
 40
1.0
 40
1.0
 40
1.0
 10
291.2048544564311
 20
138.1510310430738
 30
0.0
 10
291.1857435677612
 20
138.2830795573921
 30
0.0
 10
291.1504327847455
 20
138.5270627921427
 30
0.0
 10
290.9566221869277
 20
138.7663751007602
 30
0.0
 10
290.7227662026187
 20
138.826817554992
 30
0.0
 10
290.506038674004
 20
138.7822847800591
 30
0.0
 10
290.3385154469589
 20
138.7045250823747
 30
0.0
 10
290.1729472414738
 20
138.5899526867982
 30
0.0
 10
289.9634001674768
 20
138.3874392197324
 30
0.0
 10
289.7450350530779
 20
138.0680710456223
 30
0.0
 10
289.5723377693291
 20
137.6151228474519
 30
0.0
 10
289.538754813374
 20
137.3321276184371
 30
0.0
 10
289.520265888086
 20
137.1763260370305
 30
0.0
  0
LINE
  5
2E0
330
1F
100
AcDbEntity
  8
0
  6
Continuous
 62
     7
370
    25
100
AcDbLine
 10
289.5202658881
 20
137.176326037
 30
0.0
 11
289.5202658881
 21
135.1103664996
 31
0.0
  0
LINE
  5
2E1
330
1F
100
AcDbEntity
  8
0
  6
Continuous
 62
     7
370
    25
100
AcDbLine
 10
287.5019091641
 20
121.3468517926
 30
0.0
 11
287.5019091641
 21
121.7499060528
 31
0.0
  0
SPLINE
  5
2E2
330
1F
100
AcDbEntity
  8
0
  6
Continuous
 62
     7
370
    25
100
AcDbSpline
210
0.0
220
0.0
230
1.0
 70
     8
 71
     3
 72
    11
 73
     7
 74
     0
 42
0.000000001
 43
0.00000001
 40
0.0
 40
0.0
 40
0.0
 40
0.0
 40
0.1146280898956295
 40
0.4070817694229235
 40
0.6735718892143556
 40
1.0
 40
1.0
 40
1.0
 40
1.0
 10
287.0267380053149
 20
119.9040889693251
 30
0.0
 10
287.0568646262393
 20
119.9474932001041
 30
0.0
 10
287.163854092467
 20
120.1016357936169
 30
0.0
 10
287.3226504914263
 20
120.4365673411183
 30
0.0
 10
287.4597515890401
 20
120.9033171696276
 30
0.0
 10
287.4869404662741
 20
121.1893679777081
 30
0.0
 10
287.5019091641014
 20
121.3468517926003
 30
0.0
  0
LINE
  5
2E3
330
1F
100
AcDbEntity
  8
0
  6
Continuous
 62
     7
370
    25
100
AcDbLine
 10
287.0267380053
 20
108.7553874476
 30
0.0
 11
287.0267380053
 21
122.924033362
 31
0.0
  0
SPLINE
  5
2E4
330
1F
100
AcDbEntity
  8
0
  6
Continuous
 62
     7
370
    25
100
AcDbSpline
210
0.0
220
0.0
230
1.0
 70
     8
 71
     3
 72
    12
 73
     8
 74
     0
 42
0.000000001
 43
0.00000001
 40
0.0
 40
0.0
 40
0.0
 40
0.0
 40
0.0092488502482154
 40
0.145829216797657
 40
0.427976623600734
 40
0.6850754447177273
 40
1.0
 40
1.0
 40
1.0
 40
1.0
 10
287.5330244960334
 20
107.272962308941
 30
0.0
 10
287.5302072635349
 20
107.275851282591
 30
0.0
 10
287.4857871683056
 20
107.3214025406843
 30
0.0
 10
287.3640651289908
 20
107.5036706171131
 30
0.0
 10
287.1963098264781
 20
107.8388355248339
 30
0.0
 10
287.0660060167618
 20
108.311711965942
 30
0.0
 10
287.0406807189737
 20
108.5978536186353
 30
0.0
 10
287.0267380053149
 20
108.7553874475662
 30
0.0
  0
LINE
  5
2E5
330
1F
100
AcDbEntity
  8
0
  6
Continuous
 62
     7
370
    25
100
AcDbLine
 10
290.5364617024
 20
106.1499625526
 30
0.0
 11
290.5364617024
 21
120.4394267606
 31
0.0
  0
LINE
  5
2E6
330
1F
100
AcDbEntity
  8
0
  6
Continuous
 62
     7
370
    25
100
AcDbLine
 10
290.5364617024
 20
120.4394267606
 30
0.0
 11
290.5751328467
 21
120.613248147
 31
0.0
  0
SPLINE
  5
2E7
330
1F
100
AcDbEntity
  8
0
  6
Continuous
 62
     7
370
    25
100
AcDbSpline
210
0.0
220
0.0
230
1.0
 70
     8
 71
     3
 72
    14
 73
    10
 74
     0
 42
0.000000001
 43
0.00000001
 40
0.0
 40
0.0
 40
0.0
 40
0.0
 40
0.0462213632998844
 40
0.1520719937125292
 40
0.2578060605718657
 40
0.3601214808701563
 40
0.5714844405872077
 40
0.7640829421533956
 40
1.0
 40
1.0
 40
1.0
 40
1.0
 10
291.6691749663179
 20
104.58022755185
 30
0.0
 10
291.6440327062428
 20
104.583193771659
 30
0.0
 10
291.5613126533692
 20
104.5929528728178
 30
0.0
 10
291.4132478981608
 20
104.6577838330858
 30
0.0
 10
291.2367003952709
 20
104.7632664366298
 30
0.0
 10
291.0123225827642
 20
104.9577075109321
 30
0.0
 10
290.7781710888655
 20
105.26757597873
 30
0.0
 10
290.592502211246
 20
105.7133777938685
 30
0.0
 10
290.556359750182
 20
105.9949463942636
 30
0.0
 10
290.5364617023975
 20
106.1499625525525
 30
0.0
  0
LINE
  5
2E8
330
1F
100
AcDbEntity
  8
0
  6
Continuous
 62
     7
370
    25
100
AcDbLine
 10
295.1334058852
 20
104.1875753048
 30
0.0
 11
295.1334058852
 21
118.4770395128
 31
0.0
  0
LINE
  5
2E9
330
1F
100
AcDbEntity
  8
0
  6
Continuous
 62
     7
370
    25
100
AcDbLine
 10
295.1334058852
 20
118.4770395128
 30
0.0
 11
295.181047164
 21
118.6587465114
 31
0.0
  0
SPLINE
  5
2EA
330
1F
100
AcDbEntity
  8
0
  6
Continuous
 62
     7
370
    25
100
AcDbSpline
210
0.0
220
0.0
230
1.0
 70
     8
 71
     3
 72
    15
 73
    11
 74
     0
 42
0.000000001
 43
0.00000001
 40
0.0
 40
0.0
 40
0.0
 40
0.0
 40
0.1272488630818099
 40
0.2118031296470033
 40
0.2992774474874539
 40
0.3866554379156736
 40
0.4712082795970286
 40
0.6458773452975495
 40
0.8050395767922168
 40
1.0
 40
1.0
 40
1.0
 40
1.0
 10
296.8693517532639
 20
102.9166058863882
 30
0.0
 10
296.7873168722064
 20
102.875392552964
 30
0.0
 10
296.6507714907595
 20
102.8067938025231
 30
0.0
 10
296.4091122987618
 20
102.8086034998329
 30
0.0
 10
296.1965335144973
 20
102.8473472840427
 30
0.0
 10
295.9838074067922
 20
102.9243650494771
 30
0.0
 10
295.7134822360616
 20
103.0787921250299
 30
0.0
 10
295.4290457602667
 20
103.3479002201635
 30
0.0
 10
295.2021538273403
 20
103.7608622833483
 30
0.0
 10
295.1578159033357
 20
104.0360642592023
 30
0.0
 10
295.1334058851872
 20
104.1875753047896
 30
0.0
  0
LINE
  5
2EB
330
1F
100
AcDbEntity
  8
0
  6
Continuous
 62
     7
370
    25
100
AcDbLine
 10
300.4768411845
 20
103.0136794976
 30
0.0
 11
300.4768411845
 21
117.3031437056
 31
0.0
  0
SPLINE
  5
2EC
330
1F
100
AcDbEntity
  8
0
  6
Continuous
 62
     7
370
    25
100
AcDbSpline
210
0.0
220
0.0
230
1.0
 70
     8
 71
     3
 72
    17
 73
    13
 74
     0
 42
0.000000001
 43
0.00000001
 40
0.0
 40
0.0
 40
0.0
 40
0.0
 40
0.0008914223946996
 40
0.1350309731347391
 40
0.2791603233629208
 40
0.3489970357897455
 40
0.421245534037271
 40
0.4934144716658041
 40
0.5632500072247152
 40
0.7075160958174667
 40
0.838974476826965
 40
0.9999999999999999
 40
0.9999999999999999
 40
0.9999999999999999
 40
0.9999999999999999
 10
302.714231058642
 20
102.3746025251332
 30
0.0
 10
302.7140184801275
 20
102.3738369342446
 30
0.0
 10
302.6818174900446
 20
102.2578666789157
 30
0.0
 10
302.4846470512532
 20
102.0619122327518
 30
0.0
 10
302.1790995682621
 20
101.8961172238422
 30
0.0
 10
301.8791320120552
 20
101.8461536754274
 30
0.0
 10
301.6468313653804
 20
101.8508524054522
 30
0.0
 10
301.4145442296497
 20
101.8922384803874
 30
0.0
 10
301.1180360583084
 20
102.0018096343659
 30
0.0
 10
300.8045294158712
 20
102.2234359903633
 30
0.0
 10
300.5531914840723
 20
102.5984796510292
 30
0.0
 10
300.5039505369798
 20
102.8662563824893
 30
0.0
 10
300.4768411844523
 20
103.0136794976088
 30
0.0
  0
LINE
  5
2ED
330
1F
100
AcDbEntity
  8
0
  6
Continuous
 62
     7
370
    25
100
AcDbLine
 10
308.5431872842
 20
117.0270285551
 30
0.0
 11
308.5431872842
 21
102.8566282104
 31
0.0
  0
SPLINE
  5
2EE
330
1F
100
AcDbEntity
  8
0
  6
Continuous
 62
     7
370
    25
100
AcDbSpline
210
0.0
220
0.0
230
1.0
 70
     8
 71
     3
 72
    17
 73
    13
 74
     0
 42
0.000000001
 43
0.00000001
 40
0.0
 40
0.0
 40
0.0
 40
0.0
 40
0.1445695312308675
 40
0.2669625683315956
 40
0.3984706046420046
 40
0.4621917613615908
 40
0.528113505379372
 40
0.5939626558500729
 40
0.6576827387593048
 40
0.7893155393441933
 40
0.9092621950123446
 40
1.0
 40
1.0
 40
1.0
 40
1.0
 10
308.5431872842095
 20
102.8566282104383
 30
0.0
 10
308.517778749106
 20
102.7124112895445
 30
0.0
 10
308.4708592652353
 20
102.4460998526125
 30
0.0
 10
308.21260304314
 20
102.0820342875321
 30
0.0
 10
307.8951291261477
 20
101.8698691758923
 30
0.0
 10
307.5953396001445
 20
101.7719331309157
 30
0.0
 10
307.3609093140521
 20
101.7396879639507
 30
0.0
 10
307.1262392358365
 20
101.7440261335945
 30
0.0
 10
306.8252397333825
 20
101.806140394831
 30
0.0
 10
306.5083033112851
 20
101.9782733083953
 30
0.0
 10
306.2788984529929
 20
102.2632937289042
 30
0.0
 10
306.2354301131542
 20
102.4673895401257
 30
0.0
 10
306.2167091228583
 20
102.555289738649
 30
0.0
  0
LINE
  5
2EF
330
1F
100
AcDbEntity
  8
0
  6
Continuous
 62
     7
370
    25
100
AcDbLine
 10
313.967948956
 20
118.2657021235
 30
0.0
 11
314.0114882432
 21
118.1094843525
 31
0.0
  0
LINE
  5
2F0
330
1F
100
AcDbEntity
  8
0
  6
Continuous
 62
     7
370
    25
100
AcDbLine
 10
314.0114882432
 20
118.1094843525
 30
0.0
 11
314.0114882432
 21
103.8200201445
 31
0.0
  0
SPLINE
  5
2F1
330
1F
100
AcDbEntity
  8
0
  6
Continuous
 62
     7
370
    25
100
AcDbSpline
210
0.0
220
0.0
230
1.0
 70
     8
 71
     3
 72
    15
 73
    11
 74
     0
 42
0.000000001
 43
0.00000001
 40
0.0
 40
0.0
 40
0.0
 40
0.0
 40
0.1846490001134778
 40
0.3409734464133782
 40
0.508939872013984
 40
0.5903266467663745
 40
0.6745240846011974
 40
0.7586288035484066
 40
0.8400142067940851
 40
1.0
 40
1.0
 40
1.0
 40
1.0
 10
314.0114882431783
 20
103.8200201445018
 30
0.0
 10
313.9881315339805
 20
103.6719343071826
 30
0.0
 10
313.9450009585256
 20
103.3984785165488
 30
0.0
 10
313.7070139913018
 20
102.995059382065
 30
0.0
 10
313.4130297968441
 20
102.7343614945438
 30
0.0
 10
313.1341312140057
 20
102.5905856102114
 30
0.0
 10
312.915100723197
 20
102.5221744970983
 30
0.0
 10
312.6959787937906
 20
102.4912512133684
 30
0.0
 10
312.4167667074764
 20
102.5029090548972
 30
0.0
 10
312.2512370423594
 20
102.5915861830236
 30
0.0
 10
312.1415205759285
 20
102.6503632073376
 30
0.0
  0
LINE
  5
2F2
330
1F
100
AcDbEntity
  8
0
  6
Continuous
 62
     7
370
    25
100
AcDbLine
 10
318.778689938
 20
120.0868280226
 30
0.0
 11
318.8270209762
 21
119.8886112248
 31
0.0
  0
LINE
  5
2F3
330
1F
100
AcDbEntity
  8
0
  6
Continuous
 62
     7
370
    25
100
AcDbLine
 10
318.8270209762
 20
119.8886112248
 30
0.0
 11
318.8270209762
 21
105.5991470168
 31
0.0
  0
SPLINE
  5
2F4
330
1F
100
AcDbEntity
  8
0
  6
Continuous
 62
     7
370
    25
100
AcDbSpline
210
0.0
220
0.0
230
1.0
 70
     8
 71
     3
 72
    14
 73
    10
 74
     0
 42
0.000000001
 43
0.00000001
 40
0.0
 40
0.0
 40
0.0
 40
0.0
 40
0.2215785727129407
 40
0.4091677157355672
 40
0.61072721958018
 40
0.7083912490429028
 40
0.8094280707427779
 40
0.9103536298917225
 40
1.0
 40
1.0
 40
1.0
 40
1.0
 10
318.8270209762476
 20
105.5991470167717
 30
0.0
 10
318.8074496099491
 20
105.4476600450206
 30
0.0
 10
318.7713090610497
 20
105.1679237084417
 30
0.0
 10
318.5712023874946
 20
104.7297039142511
 30
0.0
 10
318.3225913959344
 20
104.426128721361
 30
0.0
 10
318.0850648830179
 20
104.2410555876518
 30
0.0
 10
317.898265845627
 20
104.1414946537173
 30
0.0
 10
317.713774464128
 20
104.0760608754662
 30
0.0
 10
317.5996018712328
 20
104.0694378013689
 30
0.0
 10
317.5458942839779
 20
104.0663222609319
 30
0.0
  0
LWPOLYLINE
  5
2F5
330
1F
100
AcDbEntity
  8
0
  6
Continuous
 62
     7
370
    25
100
AcDbPolyline
 90
        3
 70
   128
 43
0.0
 10
322.6550903975
 20
118.5076854499
 10
322.1547459499
 20
118.9203239394
 10
321.9803594991
 20
119.0559709589
  0
LINE
  5
2F6
330
1F
100
AcDbEntity
  8
0
  6
Continuous
 62
     7
370
    25
100
AcDbLine
 10
290.7529052851
 20
120.5592215452
 30
0.0
 11
290.5364998351
 21
120.4390177975
 31
0.0
  0
LWPOLYLINE
  5
2F7
330
1F
100
AcDbEntity
  8
0
  6
Continuous
 62
     7
370
    25
100
AcDbPolyline
 90
        3
 70
   128
 43
0.0
 10
287.533024496
 20
118.3128875745
 10
287.0818043911
 20
117.8881989324
 10
287.0267380053
 20
117.8335714161
  0
LINE
  5
2F8
330
1F
100
AcDbEntity
  8
0
  6
Continuous
 62
     7
370
    25
100
AcDbLine
 10
320.7610266001
 20
102.8237041005
 30
0.0
 11
320.7963417398
 21
102.8034095625
 31
0.0
  0
LINE
  5
2F9
330
1F
100
AcDbEntity
  8
0
  6
Continuous
 62
     7
370
    25
100
AcDbLine
 10
300.4484857681
 20
117.2323018054
 30
0.0
 11
300.2517061259
 21
116.7406763743
 31
0.0
  0
LINE
  5
2FA
330
1F
100
AcDbEntity
  8
0
  6
Continuous
 62
     7
370
    25
100
AcDbLine
 10
314.0114882432
 20
118.1094843525
 30
0.0
 11
314.4308601874
 21
117.5854141949
 31
0.0
  0
LINE
  5
2FB
330
1F
100
AcDbEntity
  8
0
  6
Continuous
 62
     7
370
    25
100
AcDbLine
 10
295.1334058852
 20
118.4770395128
 30
0.0
 11
294.6538215267
 21
117.9704719819
 31
0.0
  0
LINE
  5
2FC
330
1F
100
AcDbEntity
  8
0
  6
Continuous
 62
     7
370
    25
100
AcDbLine
 10
308.5431872842
 20
102.8566282104
 30
0.0
 11
308.7021639447
 21
102.2866822465
 31
0.0
  0
LINE
  5
2FD
330
1F
100
AcDbEntity
  8
0
  6
Continuous
 62
     7
370
    25
100
AcDbLine
 10
300.4768411845
 20
103.0136794976
 30
0.0
 11
300.2517061259
 21
102.4512121663
 31
0.0
  0
LINE
  5
2FE
330
1F
100
AcDbEntity
  8
0
  6
Continuous
 62
     7
370
    25
100
AcDbLine
 10
314.0114882432
 20
103.8200201445
 30
0.0
 11
314.4308601874
 21
103.2959499869
 31
0.0
  0
LINE
  5
2FF
330
1F
100
AcDbEntity
  8
0
  6
Continuous
 62
     7
370
    25
100
AcDbLine
 10
318.8270209762
 20
119.8886112248
 30
0.0
 11
319.475704003
 21
119.4492613944
 31
0.0
  0
LINE
  5
300
330
1F
100
AcDbEntity
  8
0
  6
Continuous
 62
     7
370
    25
100
AcDbLine
 10
295.1334058852
 20
104.1875753048
 30
0.0
 11
294.6538215267
 21
103.6810077739
 31
0.0
  0
LINE
  5
301
330
1F
100
AcDbEntity
  8
0
  6
Continuous
 62
     7
370
    25
100
AcDbLine
 10
290.5364617024
 20
120.4394267606
 30
0.0
 11
289.8379752399
 21
120.0263062414
 31
0.0
  0
LINE
  5
302
330
1F
100
AcDbEntity
  8
0
  6
Continuous
 62
     7
370
    25
100
AcDbLine
 10
318.8270209762
 20
105.5991470168
 30
0.0
 11
319.475704003
 21
105.1597971864
 31
0.0
  0
LINE
  5
303
330
1F
100
AcDbEntity
  8
0
  6
Continuous
 62
     7
370
    25
100
AcDbLine
 10
290.5364617024
 20
106.1499625526
 30
0.0
 11
289.8379752399
 21
105.7368420334
 31
0.0
  0
LINE
  5
304
330
1F
100
AcDbEntity
  8
0
  6
Continuous
 62
     7
370
    25
100
AcDbLine
 10
322.6550903975
 20
122.3707376218
 30
0.0
 11
323.4860624443
 21
122.0495842866
 31
0.0
  0
LINE
  5
305
330
1F
100
AcDbEntity
  8
0
  6
Continuous
 62
     7
370
    25
100
AcDbLine
 10
286.9446878701
 20
123.0174528945
 30
0.0
 11
286.161121843
 21
122.7557989886
 31
0.0
  0
LINE
  5
306
330
1F
100
AcDbEntity
  8
0
  6
Continuous
 62
     7
370
    25
100
AcDbLine
 10
322.6550903975
 20
108.0812734138
 30
0.0
 11
323.4860624443
 21
107.7601200786
 31
0.0
  0
LINE
  5
307
330
1F
100
AcDbEntity
  8
0
  6
Continuous
 62
     7
370
    25
100
AcDbLine
 10
287.0267380053
 20
108.7553874476
 30
0.0
 11
286.161121843
 21
108.4663347806
 31
0.0
  0
LINE
  5
308
330
1F
100
AcDbEntity
  8
0
  6
Continuous
 62
     7
370
    25
100
AcDbLine
 10
325.5578550746
 20
125.2623592404
 30
0.0
 11
326.1095916036
 21
125.1579225124
 31
0.0
  0
LINE
  5
309
330
1F
100
AcDbEntity
  8
0
  6
Continuous
 62
     7
370
    25
100
AcDbLine
 10
284.3561094541
 20
126.0248642633
 30
0.0
 11
283.8957928022
 21
125.9566379252
 31
0.0
  0
LINE
  5
30A
330
1F
100
AcDbEntity
  8
0
  6
Continuous
 62
     7
370
    25
100
AcDbLine
 10
325.1975134897
 20
111.0411031248
 30
0.0
 11
326.1095916036
 21
110.8684583044
 31
0.0
  0
LINE
  5
30B
330
1F
100
AcDbEntity
  8
0
  6
Continuous
 62
     7
370
    25
100
AcDbLine
 10
284.6535911866
 20
111.7794916371
 30
0.0
 11
283.8957928022
 21
111.6671737172
 31
0.0
  0
LINE
  5
30C
330
1F
100
AcDbEntity
  8
0
  6
Continuous
 62
     7
370
    25
100
AcDbLine
 10
327.0481911637
 20
128.5629820131
 30
0.0
 11
327.1836309404
 21
128.5595595116
 31
0.0
  0
LINE
  5
30D
330
1F
100
AcDbEntity
  8
0
  6
Continuous
 62
     7
370
    25
100
AcDbLine
 10
326.9327816547
 20
114.2764341509
 30
0.0
 11
327.1836309404
 21
114.2700953036
 31
0.0
  0
LINE
  5
30E
330
1F
100
AcDbEntity
  8
0
  6
Continuous
 62
     7
370
    25
100
AcDbLine
 10
283.2974216735
 20
115.1010092085
 30
0.0
 11
283.2098962112
 21
115.1021099691
 31
0.0
  0
LINE
  5
30F
330
1F
100
AcDbEntity
  8
0
  6
Continuous
 62
     7
370
    25
100
AcDbLine
 10
287.5019091641
 20
121.3468517926
 30
0.0
 11
287.0267380053
 21
121.5218956815
 31
0.0
  0
LINE
  5
310
330
1F
100
AcDbEntity
  8
0
  6
Continuous
 62
     7
370
    25
100
AcDbLine
 10
320.1993903983
 20
137.6024335844
 30
0.0
 11
320.9134243499
 21
138.0065991045
 31
0.0
  0
LINE
  5
311
330
1F
100
AcDbEntity
  8
0
  6
Continuous
 62
     7
370
    25
100
AcDbLine
 10
291.2048544564
 20
138.1510310431
 30
0.0
 11
290.5381962204
 21
138.5813202517
 31
0.0
  0
LINE
  5
312
330
1F
100
AcDbEntity
  8
0
  6
Continuous
 62
     7
370
    25
100
AcDbLine
 10
315.6782081048
 20
139.6226272984
 30
0.0
 11
316.1769476615
 21
140.1229925191
 31
0.0
  0
LINE
  5
313
330
1F
100
AcDbEntity
  8
0
  6
Continuous
 62
     7
370
    25
100
AcDbLine
 10
295.9454784014
 20
139.9959847265
 30
0.0
 11
295.5045641627
 21
140.5141288724
 31
0.0
  0
LINE
  5
314
330
1F
100
AcDbEntity
  8
0
  6
Continuous
 62
     7
370
    25
100
AcDbLine
 10
310.3807189073
 20
140.8639837011
 30
0.0
 11
310.6271970737
 21
141.4234611315
 31
0.0
  0
LINE
  5
315
330
1F
100
AcDbEntity
  8
0
  6
Continuous
 62
     7
370
    25
100
AcDbLine
 10
301.3724019649
 20
141.034427532
 30
0.0
 11
301.2317462632
 21
141.4719068888
 31
0.0
  0
MTEXT
  5
316
330
1F
100
AcDbEntity
  8
0
  6
Continuous
 62
     7
370
     0
100
AcDbMText
 10
305.3008260064
 20
182.4233708977
 30
0.0
 40
3.5
 41
0.0
 71
     2
 72
     1
  1
(1:2)
  7
SLDTEXTSTYLE0
 73
     1
 44
1.0
  0
LINE
  5
317
330
1F
100
AcDbEntity
  8
0
  6
CENTERX2
 62
     7
100
AcDbLine
 10
302.6739057387
 20
240.0490789474
 30
0.0
 11
302.6739057387
 21
226.0490789474
 31
0.0
  0
LINE
  5
318
330
1F
100
AcDbEntity
  8
0
  6
CENTERX2
 62
     7
100
AcDbLine
 10
302.6739057387
 20
206.0490789474
 30
0.0
 11
302.6739057387
 21
203.5490789474
 31
0.0
  0
LINE
  5
319
330
1F
100
AcDbEntity
  8
0
  6
Continuous
 62
     7
370
    25
100
AcDbLine
 10
233.5838673651
 20
203.5490789474
 30
0.0
 11
233.5838673651
 21
240.0490789474
 31
0.0
  0
LINE
  5
31A
330
1F
100
AcDbEntity
  8
0
  6
Continuous
 62
     7
370
    25
100
AcDbLine
 10
371.7639441122
 20
240.0490789474
 30
0.0
 11
371.7639441122
 21
203.5490789474
 31
0.0
  0
LINE
  5
31B
330
1F
100
AcDbEntity
  8
0
  6
Continuous
 62
     7
370
    25
100
AcDbLine
 10
371.7639441122
 20
203.5490789474
 30
0.0
 11
233.5838673651
 21
203.5490789474
 31
0.0
  0
LINE
  5
31C
330
1F
100
AcDbEntity
  8
0
  6
Continuous
 62
     7
370
    25
100
AcDbLine
 10
235.3338673651
 20
224.7990789474
 30
0.0
 11
235.3338673651
 21
207.2990789474
 31
0.0
  0
ARC
  5
31D
330
1F
100
AcDbEntity
  8
0
  6
Continuous
 62
     7
370
    25
100
AcDbCircle
 10
236.5838673651
 20
207.2990789474
 30
0.0
 40
1.250000000000256
100
AcDbArc
 50
180.0
 51
0.0
  0
LINE
  5
31E
330
1F
100
AcDbEntity
  8
0
  6
Continuous
 62
     7
370
    25
100
AcDbLine
 10
237.8338673651
 20
207.2990789474
 30
0.0
 11
237.8338673651
 21
224.7990789474
 31
0.0
  0
ARC
  5
31F
330
1F
100
AcDbEntity
  8
0
  6
Continuous
 62
     7
370
    25
100
AcDbCircle
 10
236.5838673651
 20
224.7990789474
 30
0.0
 40
1.250000000000057
100
AcDbArc
 50
0.0
 51
180.0
  0
LINE
  5
320
330
1F
100
AcDbEntity
  8
0
  6
Continuous
 62
     7
370
    25
100
AcDbLine
 10
241.3420526717
 20
224.7990789474
 30
0.0
 11
241.3420526717
 21
207.2990789474
 31
0.0
  0
ARC
  5
321
330
1F
100
AcDbEntity
  8
0
  6
Continuous
 62
     7
370
    25
100
AcDbCircle
 10
242.5920526717
 20
207.2990789474
 30
0.0
 40
1.25
100
AcDbArc
 50
180.0
 51
0.0
  0
LINE
  5
322
330
1F
100
AcDbEntity
  8
0
  6
Continuous
 62
     7
370
    25
100
AcDbLine
 10
243.8420526717
 20
207.2990789474
 30
0.0
 11
243.8420526717
 21
224.7990789474
 31
0.0
  0
ARC
  5
323
330
1F
100
AcDbEntity
  8
0
  6
Continuous
 62
     7
370
    25
100
AcDbCircle
 10
242.5920526717
 20
224.7990789474
 30
0.0
 40
1.25
100
AcDbArc
 50
0.0
 51
180.0
  0
LINE
  5
324
330
1F
100
AcDbEntity
  8
0
  6
Continuous
 62
     7
370
    25
100
AcDbLine
 10
247.3502379784
 20
224.7990789474
 30
0.0
 11
247.3502379784
 21
207.2990789474
 31
0.0
  0
ARC
  5
325
330
1F
100
AcDbEntity
  8
0
  6
Continuous
 62
     7
370
    25
100
AcDbCircle
 10
248.6002379784
 20
207.2990789474
 30
0.0
 40
1.25
100
AcDbArc
 50
180.0
 51
0.0
  0
LINE
  5
326
330
1F
100
AcDbEntity
  8
0
  6
Continuous
 62
     7
370
    25
100
AcDbLine
 10
249.8502379784
 20
207.2990789474
 30
0.0
 11
249.8502379784
 21
224.7990789474
 31
0.0
  0
ARC
  5
327
330
1F
100
AcDbEntity
  8
0
  6
Continuous
 62
     7
370
    25
100
AcDbCircle
 10
248.6002379784
 20
224.7990789474
 30
0.0
 40
1.25
100
AcDbArc
 50
0.0
 51
180.0
  0
LINE
  5
328
330
1F
100
AcDbEntity
  8
0
  6
Continuous
 62
     7
370
    25
100
AcDbLine
 10
253.3584232851
 20
224.7990789474
 30
0.0
 11
253.3584232851
 21
207.2990789474
 31
0.0
  0
ARC
  5
329
330
1F
100
AcDbEntity
  8
0
  6
Continuous
 62
     7
370
    25
100
AcDbCircle
 10
254.6084232851
 20
207.2990789474
 30
0.0
 40
1.250000000000028
100
AcDbArc
 50
180.0
 51
0.0
  0
LINE
  5
32A
330
1F
100
AcDbEntity
  8
0
  6
Continuous
 62
     7
370
    25
100
AcDbLine
 10
255.8584232851
 20
207.2990789474
 30
0.0
 11
255.8584232851
 21
224.7990789474
 31
0.0
  0
ARC
  5
32B
330
1F
100
AcDbEntity
  8
0
  6
Continuous
 62
     7
370
    25
100
AcDbCircle
 10
254.6084232851
 20
224.7990789474
 30
0.0
 40
1.250000000000028
100
AcDbArc
 50
0.0
 51
180.0
  0
LINE
  5
32C
330
1F
100
AcDbEntity
  8
0
  6
Continuous
 62
     7
370
    25
100
AcDbLine
 10
259.3666085918
 20
224.7990789474
 30
0.0
 11
259.3666085918
 21
207.2990789474
 31
0.0
  0
ARC
  5
32D
330
1F
100
AcDbEntity
  8
0
  6
Continuous
 62
     7
370
    25
100
AcDbCircle
 10
260.6166085918
 20
207.2990789474
 30
0.0
 40
1.250000000000057
100
AcDbArc
 50
180.0
 51
0.0
  0
LINE
  5
32E
330
1F
100
AcDbEntity
  8
0
  6
Continuous
 62
     7
370
    25
100
AcDbLine
 10
261.8666085918
 20
207.2990789474
 30
0.0
 11
261.8666085918
 21
224.7990789474
 31
0.0
  0
ARC
  5
32F
330
1F
100
AcDbEntity
  8
0
  6
Continuous
 62
     7
370
    25
100
AcDbCircle
 10
260.6166085918
 20
224.7990789474
 30
0.0
 40
1.250000000000057
100
AcDbArc
 50
0.0
 51
180.0
  0
LINE
  5
330
330
1F
100
AcDbEntity
  8
0
  6
Continuous
 62
     7
370
    25
100
AcDbLine
 10
265.3747938985
 20
224.7990789474
 30
0.0
 11
265.3747938985
 21
207.2990789474
 31
0.0
  0
ARC
  5
331
330
1F
100
AcDbEntity
  8
0
  6
Continuous
 62
     7
370
    25
100
AcDbCircle
 10
266.6247938985
 20
207.2990789474
 30
0.0
 40
1.250000000000057
100
AcDbArc
 50
180.0
 51
0.0
  0
LINE
  5
332
330
1F
100
AcDbEntity
  8
0
  6
Continuous
 62
     7
370
    25
100
AcDbLine
 10
267.8747938985
 20
207.2990789474
 30
0.0
 11
267.8747938985
 21
224.7990789474
 31
0.0
  0
ARC
  5
333
330
1F
100
AcDbEntity
  8
0
  6
Continuous
 62
     7
370
    25
100
AcDbCircle
 10
266.6247938985
 20
224.7990789474
 30
0.0
 40
1.250000000000057
100
AcDbArc
 50
0.0
 51
180.0
  0
LINE
  5
334
330
1F
100
AcDbEntity
  8
0
  6
Continuous
 62
     7
370
    25
100
AcDbLine
 10
271.3829792052
 20
224.7990789474
 30
0.0
 11
271.3829792052
 21
207.2990789474
 31
0.0
  0
ARC
  5
335
330
1F
100
AcDbEntity
  8
0
  6
Continuous
 62
     7
370
    25
100
AcDbCircle
 10
272.6329792052
 20
207.2990789474
 30
0.0
 40
1.25
100
AcDbArc
 50
180.0
 51
0.0
  0
LINE
  5
336
330
1F
100
AcDbEntity
  8
0
  6
Continuous
 62
     7
370
    25
100
AcDbLine
 10
273.8829792052
 20
207.2990789474
 30
0.0
 11
273.8829792052
 21
224.7990789474
 31
0.0
  0
ARC
  5
337
330
1F
100
AcDbEntity
  8
0
  6
Continuous
 62
     7
370
    25
100
AcDbCircle
 10
272.6329792052
 20
224.7990789474
 30
0.0
 40
1.25
100
AcDbArc
 50
0.0
 51
180.0
  0
LINE
  5
338
330
1F
100
AcDbEntity
  8
0
  6
Continuous
 62
     7
370
    25
100
AcDbLine
 10
277.3911645119
 20
224.7990789474
 30
0.0
 11
277.3911645119
 21
207.2990789474
 31
0.0
  0
ARC
  5
339
330
1F
100
AcDbEntity
  8
0
  6
Continuous
 62
     7
370
    25
100
AcDbCircle
 10
278.6411645119
 20
207.2990789474
 30
0.0
 40
1.25
100
AcDbArc
 50
180.0
 51
0.0
  0
LINE
  5
33A
330
1F
100
AcDbEntity
  8
0
  6
Continuous
 62
     7
370
    25
100
AcDbLine
 10
279.8911645119
 20
207.2990789474
 30
0.0
 11
279.8911645119
 21
224.7990789474
 31
0.0
  0
ARC
  5
33B
330
1F
100
AcDbEntity
  8
0
  6
Continuous
 62
     7
370
    25
100
AcDbCircle
 10
278.6411645119
 20
224.7990789474
 30
0.0
 40
1.25
100
AcDbArc
 50
0.0
 51
180.0
  0
LINE
  5
33C
330
1F
100
AcDbEntity
  8
0
  6
Continuous
 62
     7
370
    25
100
AcDbLine
 10
283.3993498186
 20
224.7990789474
 30
0.0
 11
283.3993498186
 21
207.2990789474
 31
0.0
  0
ARC
  5
33D
330
1F
100
AcDbEntity
  8
0
  6
Continuous
 62
     7
370
    25
100
AcDbCircle
 10
284.6493498186
 20
207.2990789474
 30
0.0
 40
1.25
100
AcDbArc
 50
180.0
 51
0.0
  0
LINE
  5
33E
330
1F
100
AcDbEntity
  8
0
  6
Continuous
 62
     7
370
    25
100
AcDbLine
 10
285.8993498186
 20
207.2990789474
 30
0.0
 11
285.8993498186
 21
224.7990789474
 31
0.0
  0
ARC
  5
33F
330
1F
100
AcDbEntity
  8
0
  6
Continuous
 62
     7
370
    25
100
AcDbCircle
 10
284.6493498186
 20
224.7990789474
 30
0.0
 40
1.25
100
AcDbArc
 50
0.0
 51
180.0
  0
LINE
  5
340
330
1F
100
AcDbEntity
  8
0
  6
Continuous
 62
     7
370
    25
100
AcDbLine
 10
289.4075351253
 20
224.7990789474
 30
0.0
 11
289.4075351253
 21
207.2990789474
 31
0.0
  0
ARC
  5
341
330
1F
100
AcDbEntity
  8
0
  6
Continuous
 62
     7
370
    25
100
AcDbCircle
 10
290.6575351253
 20
207.2990789474
 30
0.0
 40
1.250000000000057
100
AcDbArc
 50
180.0
 51
0.0
  0
LINE
  5
342
330
1F
100
AcDbEntity
  8
0
  6
Continuous
 62
     7
370
    25
100
AcDbLine
 10
291.9075351253
 20
207.2990789474
 30
0.0
 11
291.9075351253
 21
224.7990789474
 31
0.0
  0
ARC
  5
343
330
1F
100
AcDbEntity
  8
0
  6
Continuous
 62
     7
370
    25
100
AcDbCircle
 10
290.6575351253
 20
224.7990789474
 30
0.0
 40
1.250000000000057
100
AcDbArc
 50
0.0
 51
180.0
  0
LINE
  5
344
330
1F
100
AcDbEntity
  8
0
  6
Continuous
 62
     7
370
    25
100
AcDbLine
 10
295.415720432
 20
224.7990789474
 30
0.0
 11
295.415720432
 21
207.2990789474
 31
0.0
  0
ARC
  5
345
330
1F
100
AcDbEntity
  8
0
  6
Continuous
 62
     7
370
    25
100
AcDbCircle
 10
296.665720432
 20
207.2990789474
 30
0.0
 40
1.25
100
AcDbArc
 50
180.0
 51
0.0
  0
LINE
  5
346
330
1F
100
AcDbEntity
  8
0
  6
Continuous
 62
     7
370
    25
100
AcDbLine
 10
297.915720432
 20
207.2990789474
 30
0.0
 11
297.915720432
 21
224.7990789474
 31
0.0
  0
ARC
  5
347
330
1F
100
AcDbEntity
  8
0
  6
Continuous
 62
     7
370
    25
100
AcDbCircle
 10
296.665720432
 20
224.7990789474
 30
0.0
 40
1.25
100
AcDbArc
 50
0.0
 51
180.0
  0
LINE
  5
348
330
1F
100
AcDbEntity
  8
0
  6
Continuous
 62
     7
370
    25
100
AcDbLine
 10
301.4239057387
 20
224.7990789474
 30
0.0
 11
301.4239057387
 21
207.2990789474
 31
0.0
  0
ARC
  5
349
330
1F
100
AcDbEntity
  8
0
  6
Continuous
 62
     7
370
    25
100
AcDbCircle
 10
302.6739057387
 20
207.2990789474
 30
0.0
 40
1.250000000000057
100
AcDbArc
 50
180.0
 51
0.0
  0
LINE
  5
34A
330
1F
100
AcDbEntity
  8
0
  6
Continuous
 62
     7
370
    25
100
AcDbLine
 10
303.9239057387
 20
207.2990789474
 30
0.0
 11
303.9239057387
 21
224.7990789474
 31
0.0
  0
ARC
  5
34B
330
1F
100
AcDbEntity
  8
0
  6
Continuous
 62
     7
370
    25
100
AcDbCircle
 10
302.6739057387
 20
224.7990789474
 30
0.0
 40
1.250000000000057
100
AcDbArc
 50
0.0
 51
180.0
  0
LINE
  5
34C
330
1F
100
AcDbEntity
  8
0
  6
Continuous
 62
     7
370
    25
100
AcDbLine
 10
307.4320910453
 20
224.7990789474
 30
0.0
 11
307.4320910453
 21
207.2990789474
 31
0.0
  0
ARC
  5
34D
330
1F
100
AcDbEntity
  8
0
  6
Continuous
 62
     7
370
    25
100
AcDbCircle
 10
308.6820910453
 20
207.2990789474
 30
0.0
 40
1.250000000000057
100
AcDbArc
 50
180.0
 51
0.0
  0
LINE
  5
34E
330
1F
100
AcDbEntity
  8
0
  6
Continuous
 62
     7
370
    25
100
AcDbLine
 10
309.9320910453
 20
207.2990789474
 30
0.0
 11
309.9320910453
 21
224.7990789474
 31
0.0
  0
ARC
  5
34F
330
1F
100
AcDbEntity
  8
0
  6
Continuous
 62
     7
370
    25
100
AcDbCircle
 10
308.6820910453
 20
224.7990789474
 30
0.0
 40
1.250000000000057
100
AcDbArc
 50
0.0
 51
180.0
  0
LINE
  5
350
330
1F
100
AcDbEntity
  8
0
  6
Continuous
 62
     7
370
    25
100
AcDbLine
 10
313.440276352
 20
224.7990789474
 30
0.0
 11
313.440276352
 21
207.2990789474
 31
0.0
  0
ARC
  5
351
330
1F
100
AcDbEntity
  8
0
  6
Continuous
 62
     7
370
    25
100
AcDbCircle
 10
314.690276352
 20
207.2990789474
 30
0.0
 40
1.25
100
AcDbArc
 50
180.0
 51
0.0
  0
LINE
  5
352
330
1F
100
AcDbEntity
  8
0
  6
Continuous
 62
     7
370
    25
100
AcDbLine
 10
315.940276352
 20
207.2990789474
 30
0.0
 11
315.940276352
 21
224.7990789474
 31
0.0
  0
ARC
  5
353
330
1F
100
AcDbEntity
  8
0
  6
Continuous
 62
     7
370
    25
100
AcDbCircle
 10
314.690276352
 20
224.7990789474
 30
0.0
 40
1.25
100
AcDbArc
 50
0.0
 51
180.0
  0
LINE
  5
354
330
1F
100
AcDbEntity
  8
0
  6
Continuous
 62
     7
370
    25
100
AcDbLine
 10
319.4484616587
 20
224.7990789474
 30
0.0
 11
319.4484616587
 21
207.2990789474
 31
0.0
  0
ARC
  5
355
330
1F
100
AcDbEntity
  8
0
  6
Continuous
 62
     7
370
    25
100
AcDbCircle
 10
320.6984616587
 20
207.2990789474
 30
0.0
 40
1.25
100
AcDbArc
 50
180.0
 51
0.0
  0
LINE
  5
356
330
1F
100
AcDbEntity
  8
0
  6
Continuous
 62
     7
370
    25
100
AcDbLine
 10
321.9484616587
 20
207.2990789474
 30
0.0
 11
321.9484616587
 21
224.7990789474
 31
0.0
  0
ARC
  5
357
330
1F
100
AcDbEntity
  8
0
  6
Continuous
 62
     7
370
    25
100
AcDbCircle
 10
320.6984616587
 20
224.7990789474
 30
0.0
 40
1.25
100
AcDbArc
 50
0.0
 51
180.0
  0
LINE
  5
358
330
1F
100
AcDbEntity
  8
0
  6
Continuous
 62
     7
370
    25
100
AcDbLine
 10
325.4566469654
 20
224.7990789474
 30
0.0
 11
325.4566469654
 21
207.2990789474
 31
0.0
  0
ARC
  5
359
330
1F
100
AcDbEntity
  8
0
  6
Continuous
 62
     7
370
    25
100
AcDbCircle
 10
326.7066469654
 20
207.2990789474
 30
0.0
 40
1.250000000000057
100
AcDbArc
 50
180.0
 51
0.0
  0
LINE
  5
35A
330
1F
100
AcDbEntity
  8
0
  6
Continuous
 62
     7
370
    25
100
AcDbLine
 10
327.9566469654
 20
207.2990789474
 30
0.0
 11
327.9566469654
 21
224.7990789474
 31
0.0
  0
ARC
  5
35B
330
1F
100
AcDbEntity
  8
0
  6
Continuous
 62
     7
370
    25
100
AcDbCircle
 10
326.7066469654
 20
224.7990789474
 30
0.0
 40
1.250000000000057
100
AcDbArc
 50
0.0
 51
180.0
  0
LINE
  5
35C
330
1F
100
AcDbEntity
  8
0
  6
Continuous
 62
     7
370
    25
100
AcDbLine
 10
331.4648322721
 20
224.7990789474
 30
0.0
 11
331.4648322721
 21
207.2990789474
 31
0.0
  0
ARC
  5
35D
330
1F
100
AcDbEntity
  8
0
  6
Continuous
 62
     7
370
    25
100
AcDbCircle
 10
332.7148322721
 20
207.2990789474
 30
0.0
 40
1.25
100
AcDbArc
 50
180.0
 51
0.0
  0
LINE
  5
35E
330
1F
100
AcDbEntity
  8
0
  6
Continuous
 62
     7
370
    25
100
AcDbLine
 10
333.9648322721
 20
207.2990789474
 30
0.0
 11
333.9648322721
 21
224.7990789474
 31
0.0
  0
ARC
  5
35F
330
1F
100
AcDbEntity
  8
0
  6
Continuous
 62
     7
370
    25
100
AcDbCircle
 10
332.7148322721
 20
224.7990789474
 30
0.0
 40
1.25
100
AcDbArc
 50
0.0
 51
180.0
  0
LINE
  5
360
330
1F
100
AcDbEntity
  8
0
  6
Continuous
 62
     7
370
    25
100
AcDbLine
 10
337.4730175788
 20
224.7990789474
 30
0.0
 11
337.4730175788
 21
207.2990789474
 31
0.0
  0
ARC
  5
361
330
1F
100
AcDbEntity
  8
0
  6
Continuous
 62
     7
370
    25
100
AcDbCircle
 10
338.7230175788
 20
207.2990789474
 30
0.0
 40
1.250000000000057
100
AcDbArc
 50
180.0
 51
0.0
  0
LINE
  5
362
330
1F
100
AcDbEntity
  8
0
  6
Continuous
 62
     7
370
    25
100
AcDbLine
 10
339.9730175788
 20
207.2990789474
 30
0.0
 11
339.9730175788
 21
224.7990789474
 31
0.0
  0
ARC
  5
363
330
1F
100
AcDbEntity
  8
0
  6
Continuous
 62
     7
370
    25
100
AcDbCircle
 10
338.7230175788
 20
224.7990789474
 30
0.0
 40
1.250000000000057
100
AcDbArc
 50
0.0
 51
180.0
  0
LINE
  5
364
330
1F
100
AcDbEntity
  8
0
  6
Continuous
 62
     7
370
    25
100
AcDbLine
 10
343.4812028855
 20
224.7990789474
 30
0.0
 11
343.4812028855
 21
207.2990789474
 31
0.0
  0
ARC
  5
365
330
1F
100
AcDbEntity
  8
0
  6
Continuous
 62
     7
370
    25
100
AcDbCircle
 10
344.7312028855
 20
207.2990789474
 30
0.0
 40
1.250000000000057
100
AcDbArc
 50
180.0
 51
0.0
  0
LINE
  5
366
330
1F
100
AcDbEntity
  8
0
  6
Continuous
 62
     7
370
    25
100
AcDbLine
 10
345.9812028855
 20
207.2990789474
 30
0.0
 11
345.9812028855
 21
224.7990789474
 31
0.0
  0
ARC
  5
367
330
1F
100
AcDbEntity
  8
0
  6
Continuous
 62
     7
370
    25
100
AcDbCircle
 10
344.7312028855
 20
224.7990789474
 30
0.0
 40
1.250000000000057
100
AcDbArc
 50
0.0
 51
180.0
  0
LINE
  5
368
330
1F
100
AcDbEntity
  8
0
  6
Continuous
 62
     7
370
    25
100
AcDbLine
 10
349.4893881922
 20
224.7990789474
 30
0.0
 11
349.4893881922
 21
207.2990789474
 31
0.0
  0
ARC
  5
369
330
1F
100
AcDbEntity
  8
0
  6
Continuous
 62
     7
370
    25
100
AcDbCircle
 10
350.7393881922
 20
207.2990789474
 30
0.0
 40
1.250000000000057
100
AcDbArc
 50
180.0
 51
0.0
  0
LINE
  5
36A
330
1F
100
AcDbEntity
  8
0
  6
Continuous
 62
     7
370
    25
100
AcDbLine
 10
351.9893881922
 20
207.2990789474
 30
0.0
 11
351.9893881922
 21
224.7990789474
 31
0.0
  0
ARC
  5
36B
330
1F
100
AcDbEntity
  8
0
  6
Continuous
 62
     7
370
    25
100
AcDbCircle
 10
350.7393881922
 20
224.7990789474
 30
0.0
 40
1.25
100
AcDbArc
 50
0.0
 51
180.0
  0
LINE
  5
36C
330
1F
100
AcDbEntity
  8
0
  6
Continuous
 62
     7
370
    25
100
AcDbLine
 10
355.4975734989
 20
224.7990789474
 30
0.0
 11
355.4975734989
 21
207.2990789474
 31
0.0
  0
ARC
  5
36D
330
1F
100
AcDbEntity
  8
0
  6
Continuous
 62
     7
370
    25
100
AcDbCircle
 10
356.7475734989
 20
207.2990789474
 30
0.0
 40
1.25
100
AcDbArc
 50
180.0
 51
0.0
  0
LINE
  5
36E
330
1F
100
AcDbEntity
  8
0
  6
Continuous
 62
     7
370
    25
100
AcDbLine
 10
357.9975734989
 20
207.2990789474
 30
0.0
 11
357.9975734989
 21
224.7990789474
 31
0.0
  0
ARC
  5
36F
330
1F
100
AcDbEntity
  8
0
  6
Continuous
 62
     7
370
    25
100
AcDbCircle
 10
356.7475734989
 20
224.7990789474
 30
0.0
 40
1.25
100
AcDbArc
 50
0.0
 51
180.0
  0
LINE
  5
370
330
1F
100
AcDbEntity
  8
0
  6
Continuous
 62
     7
370
    25
100
AcDbLine
 10
361.5057588056
 20
224.7990789474
 30
0.0
 11
361.5057588056
 21
207.2990789474
 31
0.0
  0
ARC
  5
371
330
1F
100
AcDbEntity
  8
0
  6
Continuous
 62
     7
370
    25
100
AcDbCircle
 10
362.7557588056
 20
207.2990789474
 30
0.0
 40
1.25
100
AcDbArc
 50
180.0
 51
0.0
  0
LINE
  5
372
330
1F
100
AcDbEntity
  8
0
  6
Continuous
 62
     7
370
    25
100
AcDbLine
 10
364.0057588056
 20
207.2990789474
 30
0.0
 11
364.0057588056
 21
224.7990789474
 31
0.0
  0
ARC
  5
373
330
1F
100
AcDbEntity
  8
0
  6
Continuous
 62
     7
370
    25
100
AcDbCircle
 10
362.7557588056
 20
224.7990789474
 30
0.0
 40
1.25
100
AcDbArc
 50
0.0
 51
180.0
  0
LINE
  5
374
330
1F
100
AcDbEntity
  8
0
  6
Continuous
 62
     7
370
    25
100
AcDbLine
 10
367.5139441122
 20
224.7990789474
 30
0.0
 11
367.5139441122
 21
207.2990789474
 31
0.0
  0
ARC
  5
375
330
1F
100
AcDbEntity
  8
0
  6
Continuous
 62
     7
370
    25
100
AcDbCircle
 10
368.7639441122
 20
207.2990789474
 30
0.0
 40
1.25
100
AcDbArc
 50
180.0
 51
0.0
  0
LINE
  5
376
330
1F
100
AcDbEntity
  8
0
  6
Continuous
 62
     7
370
    25
100
AcDbLine
 10
370.0139441122
 20
207.2990789474
 30
0.0
 11
370.0139441122
 21
224.7990789474
 31
0.0
  0
ARC
  5
377
330
1F
100
AcDbEntity
  8
0
  6
Continuous
 62
     7
370
    25
100
AcDbCircle
 10
368.7639441122
 20
224.7990789474
 30
0.0
 40
1.25
100
AcDbArc
 50
0.0
 51
180.0
  0
LINE
  5
378
330
1F
100
AcDbEntity
  8
0
  6
Continuous
 62
     7
370
    25
100
AcDbLine
 10
233.5838673651
 20
240.0490789474
 30
0.0
 11
371.7639441122
 21
240.0490789474
 31
0.0
  0
DIMENSION
  5
379
330
1F
100
AcDbEntity
  8
0
  6
Continuous
 62
     7
370
    18
100
AcDbDimension
  2
_D_6
 10
371.7639441122
 20
247.9059888715
 30
0.0
 11
302.6739057387
 21
247.9059888715
 31
0.0
 70
   160
  1
<>
 71
     2
 42
-1.0
  3
SLDDIMSTYLE3
100
AcDbAlignedDimension
 13
233.5838673651
 23
240.0490789474
 33
0.0
 14
371.7639441122
 24
240.0490789474
 34
0.0
100
AcDbRotatedDimension
  0
DIMENSION
  5
384
330
1F
100
AcDbEntity
  8
0
  6
Continuous
 62
     7
370
    18
100
AcDbDimension
  2
_D_7
 10
212.7342946883
 20
240.0490789474
 30
0.0
 11
212.7342946883
 21
221.7990789474
 31
0.0
 70
   160
  1
<>
 71
     2
 42
-1.0
  3
SLDDIMSTYLE3
100
AcDbAlignedDimension
 13
233.5838673651
 23
203.5490789474
 33
0.0
 14
233.5838673651
 24
240.0490789474
 34
0.0
 50
90.0
100
AcDbRotatedDimension
  0
DIMENSION
  5
38E
330
1F
100
AcDbEntity
  8
0
  6
Continuous
 62
     7
370
    18
100
AcDbDimension
  2
_D_8
 10
237.8338673651
 20
195.3900629953
 30
0.0
 11
230.9510768336
 21
195.3900629953
 31
0.0
 70
   160
  1
<>
 71
     2
 42
-1.0
  3
SLDDIMSTYLE4
100
AcDbAlignedDimension
 13
235.3338673651
 23
207.2990789474
 33
0.0
 14
237.8338673651
 24
207.2990789474
 34
0.0
100
AcDbRotatedDimension
  0
DIMENSION
  5
39B
330
1F
100
AcDbEntity
  8
0
  6
Continuous
 62
     7
370
    18
100
AcDbDimension
  2
_D_9
 10
227.3589714359
 20
226.0490789474
 30
0.0
 11
227.3589714359
 21
216.0490789474
 31
0.0
 70
   160
  1
<>
 71
     2
 42
-1.0
  3
SLDDIMSTYLE3
100
AcDbAlignedDimension
 13
236.5838673651
 23
206.0490789474
 33
0.0
 14
236.5838673651
 24
226.0490789474
 34
0.0
 50
90.0
100
AcDbRotatedDimension
  0
MTEXT
  5
3A5
330
1F
100
AcDbEntity
  8
0
  6
Continuous
 62
     7
370
     0
100
AcDbMText
 10
303.5662665451
 20
270.4697901098
 30
0.0
 40
5.0
 41
0.0
 71
     2
 72
     1
  1
(1:2)
  7
SLDTEXTSTYLE0
 73
     1
 44
1.0
  0
INSERT
  5
3B9
330
1F
100
AcDbEntity
  8
0
  6
Continuous
 62
     7
370
     0
100
AcDbBlockReference
  2
SW_CENTERMARKSYMBOL_0
 10
236.5838673651
 20
224.7990789474
 30
0.0
  0
INSERT
  5
3CD
330
1F
100
AcDbEntity
  8
0
  6
Continuous
 62
     7
370
     0
100
AcDbBlockReference
  2
SW_CENTERMARKSYMBOL_1
 10
242.5920526717
 20
224.7990789474
 30
0.0
  0
INSERT
  5
3E1
330
1F
100
AcDbEntity
  8
0
  6
Continuous
 62
     7
370
     0
100
AcDbBlockReference
  2
SW_CENTERMARKSYMBOL_2
 10
248.6002379784
 20
224.7990789474
 30
0.0
  0
INSERT
  5
3F5
330
1F
100
AcDbEntity
  8
0
  6
Continuous
 62
     7
370
     0
100
AcDbBlockReference
  2
SW_CENTERMARKSYMBOL_3
 10
254.6084232851
 20
224.7990789474
 30
0.0
  0
INSERT
  5
409
330
1F
100
AcDbEntity
  8
0
  6
Continuous
 62
     7
370
     0
100
AcDbBlockReference
  2
SW_CENTERMARKSYMBOL_4
 10
260.6166085918
 20
224.7990789474
 30
0.0
  0
INSERT
  5
41D
330
1F
100
AcDbEntity
  8
0
  6
Continuous
 62
     7
370
     0
100
AcDbBlockReference
  2
SW_CENTERMARKSYMBOL_5
 10
266.6247938985
 20
224.7990789474
 30
0.0
  0
INSERT
  5
431
330
1F
100
AcDbEntity
  8
0
  6
Continuous
 62
     7
370
     0
100
AcDbBlockReference
  2
SW_CENTERMARKSYMBOL_6
 10
272.6329792052
 20
224.7990789474
 30
0.0
  0
INSERT
  5
445
330
1F
100
AcDbEntity
  8
0
  6
Continuous
 62
     7
370
     0
100
AcDbBlockReference
  2
SW_CENTERMARKSYMBOL_7
 10
278.6411645119
 20
224.7990789474
 30
0.0
  0
INSERT
  5
459
330
1F
100
AcDbEntity
  8
0
  6
Continuous
 62
     7
370
     0
100
AcDbBlockReference
  2
SW_CENTERMARKSYMBOL_8
 10
284.6493498186
 20
224.7990789474
 30
0.0
  0
INSERT
  5
46D
330
1F
100
AcDbEntity
  8
0
  6
Continuous
 62
     7
370
     0
100
AcDbBlockReference
  2
SW_CENTERMARKSYMBOL_9
 10
290.6575351253
 20
224.7990789474
 30
0.0
  0
INSERT
  5
481
330
1F
100
AcDbEntity
  8
0
  6
Continuous
 62
     7
370
     0
100
AcDbBlockReference
  2
SW_CENTERMARKSYMBOL_10
 10
296.665720432
 20
224.7990789474
 30
0.0
  0
INSERT
  5
495
330
1F
100
AcDbEntity
  8
0
  6
Continuous
 62
     7
370
     0
100
AcDbBlockReference
  2
SW_CENTERMARKSYMBOL_11
 10
302.6739057387
 20
224.7990789474
 30
0.0
  0
INSERT
  5
4A9
330
1F
100
AcDbEntity
  8
0
  6
Continuous
 62
     7
370
     0
100
AcDbBlockReference
  2
SW_CENTERMARKSYMBOL_12
 10
308.6820910453
 20
224.7990789474
 30
0.0
  0
INSERT
  5
4BD
330
1F
100
AcDbEntity
  8
0
  6
Continuous
 62
     7
370
     0
100
AcDbBlockReference
  2
SW_CENTERMARKSYMBOL_13
 10
314.690276352
 20
224.7990789474
 30
0.0
  0
INSERT
  5
4D1
330
1F
100
AcDbEntity
  8
0
  6
Continuous
 62
     7
370
     0
100
AcDbBlockReference
  2
SW_CENTERMARKSYMBOL_14
 10
320.6984616587
 20
224.7990789474
 30
0.0
  0
INSERT
  5
4E5
330
1F
100
AcDbEntity
  8
0
  6
Continuous
 62
     7
370
     0
100
AcDbBlockReference
  2
SW_CENTERMARKSYMBOL_15
 10
326.7066469654
 20
224.7990789474
 30
0.0
  0
INSERT
  5
4F9
330
1F
100
AcDbEntity
  8
0
  6
Continuous
 62
     7
370
     0
100
AcDbBlockReference
  2
SW_CENTERMARKSYMBOL_16
 10
332.7148322721
 20
224.7990789474
 30
0.0
  0
INSERT
  5
50D
330
1F
100
AcDbEntity
  8
0
  6
Continuous
 62
     7
370
     0
100
AcDbBlockReference
  2
SW_CENTERMARKSYMBOL_17
 10
338.7230175788
 20
224.7990789474
 30
0.0
  0
INSERT
  5
521
330
1F
100
AcDbEntity
  8
0
  6
Continuous
 62
     7
370
     0
100
AcDbBlockReference
  2
SW_CENTERMARKSYMBOL_18
 10
344.7312028855
 20
224.7990789474
 30
0.0
  0
INSERT
  5
535
330
1F
100
AcDbEntity
  8
0
  6
Continuous
 62
     7
370
     0
100
AcDbBlockReference
  2
SW_CENTERMARKSYMBOL_19
 10
350.7393881922
 20
224.7990789474
 30
0.0
  0
INSERT
  5
549
330
1F
100
AcDbEntity
  8
0
  6
Continuous
 62
     7
370
     0
100
AcDbBlockReference
  2
SW_CENTERMARKSYMBOL_20
 10
356.7475734989
 20
224.7990789474
 30
0.0
  0
INSERT
  5
55D
330
1F
100
AcDbEntity
  8
0
  6
Continuous
 62
     7
370
     0
100
AcDbBlockReference
  2
SW_CENTERMARKSYMBOL_21
 10
362.7557588056
 20
224.7990789474
 30
0.0
  0
INSERT
  5
571
330
1F
100
AcDbEntity
  8
0
  6
Continuous
 62
     7
370
     0
100
AcDbBlockReference
  2
SW_CENTERMARKSYMBOL_22
 10
368.7639441122
 20
224.7990789474
 30
0.0
  0
ENDSEC
  0
SECTION
  2
OBJECTS
  0
DICTIONARY
  5
C
330
0
100
AcDbDictionary
281
     1
  3
ACAD_GROUP
350
D
  3
ACAD_LAYOUT
350
1A
  3
ACAD_MLINESTYLE
350
17
  3
ACAD_PLOTSETTINGS
350
19
  3
ACAD_PLOTSTYLENAME
350
E
  3
ACAD_SCALELIST
350
47
  0
DICTIONARY
  5
D
102
{ACAD_REACTORS
330
C
102
}
330
C
100
AcDbDictionary
281
     1
  0
DICTIONARY
  5
1A
102
{ACAD_REACTORS
330
C
102
}
330
C
100
AcDbDictionary
281
     1
  3
Layout1
350
1E
  3
Layout2
350
26
  3
Model
350
22
  0
DICTIONARY
  5
17
102
{ACAD_REACTORS
330
C
102
}
330
C
100
AcDbDictionary
281
     1
  3
Standard
350
18
  0
DICTIONARY
  5
19
102
{ACAD_REACTORS
330
C
102
}
330
C
100
AcDbDictionary
281
     1
  0
ACDBDICTIONARYWDFLT
  5
E
102
{ACAD_REACTORS
330
C
102
}
330
C
100
AcDbDictionary
281
     1
  3
Normal
350
F
100
AcDbDictionaryWithDefault
340
F
  0
DICTIONARY
  5
47
102
{ACAD_REACTORS
330
C
102
}
330
C
100
AcDbDictionary
281
     1
  3
A0
350
48
  3
A1
350
49
  3
A2
350
4A
  3
A3
350
4B
  3
A4
350
4C
  3
A5
350
4D
  3
A6
350
4E
  3
A7
350
4F
  3
A8
350
50
  3
A9
350
51
  3
B0
350
52
  3
B1
350
53
  3
B2
350
54
  3
B3
350
55
  3
B4
350
56
  3
B5
350
57
  3
B6
350
58
  3
B7
350
59
  3
B8
350
5A
  3
B9
350
5B
  3
C0
350
5C
  3
C1
350
5D
  3
C2
350
5E
  3
C3
350
5F
  3
C4
350
60
  3
C5
350
61
  3
C6
350
62
  3
C7
350
63
  3
C8
350
64
  3
C9
350
65
  3
D0
350
66
  3
D1
350
67
  3
D2
350
68
  0
LAYOUT
  5
1E
102
{ACAD_REACTORS
330
1A
102
}
330
1A
100
AcDbPlotSettings
  1

  2
none_device
  4

  6

 40
0.0
 41
0.0
 42
0.0
 43
0.0
 44
0.0
 45
0.0
 46
0.0
 47
0.0
 48
0.0
 49
0.0
140
0.0
141
0.0
142
1.0
143
1.0
 70
   688
 72
     1
 73
     0
 74
     5
  7

 75
    16
147
1.0
148
0.0
149
0.0
100
AcDbLayout
  1
Layout1
 70
     1
 71
     1
 10
0.0
 20
0.0
 11
420.0
 21
297.0
 12
0.0
 22
0.0
 32
0.0
 14
1.0000000000E+20
 24
1.0000000000E+20
 34
1.0000000000E+20
 15
-1.0000000000E+20
 25
-1.0000000000E+20
 35
-1.0000000000E+20
146
0.0
 13
0.0
 23
0.0
 33
0.0
 16
1.0
 26
0.0
 36
0.0
 17
0.0
 27
1.0
 37
0.0
 76
     0
330
1B
  0
LAYOUT
  5
26
102
{ACAD_REACTORS
330
1A
102
}
330
1A
100
AcDbPlotSettings
  1

  2
none_device
  4

  6

 40
0.0
 41
0.0
 42
0.0
 43
0.0
 44
0.0
 45
0.0
 46
0.0
 47
0.0
 48
0.0
 49
0.0
140
0.0
141
0.0
142
1.0
143
1.0
 70
   688
 72
     1
 73
     0
 74
     5
  7

 75
    16
147
1.0
148
0.0
149
0.0
100
AcDbLayout
  1
Layout2
 70
     1
 71
     2
 10
0.0
 20
0.0
 11
0.0
 21
0.0
 12
0.0
 22
0.0
 32
0.0
 14
0.0
 24
0.0
 34
0.0
 15
0.0
 25
0.0
 35
0.0
146
0.0
 13
0.0
 23
0.0
 33
0.0
 16
1.0
 26
0.0
 36
0.0
 17
0.0
 27
1.0
 37
0.0
 76
     0
330
23
  0
LAYOUT
  5
22
102
{ACAD_REACTORS
330
1A
102
}
330
1A
100
AcDbPlotSettings
  1

  2
none_device
  4
Letter_(8.50_x_11.00_Inches)
  6

 40
6.35
 41
6.35
 42
6.35000508
 43
6.35000508
 44
215.9
 45
279.4
 46
0.0
 47
0.0
 48
0.0
 49
0.0
140
0.0
141
0.0
142
1.0
143
1.0
 70
  1712
 72
     1
 73
     0
 74
     0
  7

 75
     0
147
1.0
148
0.0
149
0.0
100
AcDbLayout
  1
Model
 70
     1
 71
     0
 10
0.0
 20
0.0
 11
420.0
 21
297.0
 12
0.0
 22
0.0
 32
0.0
 14
0.0
 24
0.0
 34
0.0
 15
420.0
 25
297.0
 35
0.0
146
0.0
 13
0.0
 23
0.0
 33
0.0
 16
1.0
 26
0.0
 36
0.0
 17
0.0
 27
1.0
 37
0.0
 76
     0
330
1F
331
29
  0
MLINESTYLE
  5
18
102
{ACAD_REACTORS
330
17
102
}
330
17
100
AcDbMlineStyle
  2
Standard
 70
     0
  3

 62
   256
 51
90.0
 52
90.0
 71
     2
 49
0.5
 62
   256
  6
BYLAYER
 49
-0.5
 62
   256
  6
BYLAYER
  0
ACDBPLACEHOLDER
  5
F
102
{ACAD_REACTORS
330
E
102
}
330
E
  0
SCALE
  5
48
102
{ACAD_REACTORS
330
47
102
}
330
47
100
AcDbScale
 70
     0
300
1:1
140
1.0
141
1.0
290
     1
  0
SCALE
  5
49
102
{ACAD_REACTORS
330
47
102
}
330
47
100
AcDbScale
 70
     0
300
1:2
140
1.0
141
2.0
290
     0
  0
SCALE
  5
4A
102
{ACAD_REACTORS
330
47
102
}
330
47
100
AcDbScale
 70
     0
300
1:4
140
1.0
141
4.0
290
     0
  0
SCALE
  5
4B
102
{ACAD_REACTORS
330
47
102
}
330
47
100
AcDbScale
 70
     0
300
1:5
140
1.0
141
5.0
290
     0
  0
SCALE
  5
4C
102
{ACAD_REACTORS
330
47
102
}
330
47
100
AcDbScale
 70
     0
300
1:8
140
1.0
141
8.0
290
     0
  0
SCALE
  5
4D
102
{ACAD_REACTORS
330
47
102
}
330
47
100
AcDbScale
 70
     0
300
1:10
140
1.0
141
10.0
290
     0
  0
SCALE
  5
4E
102
{ACAD_REACTORS
330
47
102
}
330
47
100
AcDbScale
 70
     0
300
1:16
140
1.0
141
16.0
290
     0
  0
SCALE
  5
4F
102
{ACAD_REACTORS
330
47
102
}
330
47
100
AcDbScale
 70
     0
300
1:20
140
1.0
141
20.0
290
     0
  0
SCALE
  5
50
102
{ACAD_REACTORS
330
47
102
}
330
47
100
AcDbScale
 70
     0
300
1:30
140
1.0
141
30.0
290
     0
  0
SCALE
  5
51
102
{ACAD_REACTORS
330
47
102
}
330
47
100
AcDbScale
 70
     0
300
1:40
140
1.0
141
40.0
290
     0
  0
SCALE
  5
52
102
{ACAD_REACTORS
330
47
102
}
330
47
100
AcDbScale
 70
     0
300
1:50
140
1.0
141
50.0
290
     0
  0
SCALE
  5
53
102
{ACAD_REACTORS
330
47
102
}
330
47
100
AcDbScale
 70
     0
300
1:100
140
1.0
141
100.0
290
     0
  0
SCALE
  5
54
102
{ACAD_REACTORS
330
47
102
}
330
47
100
AcDbScale
 70
     0
300
2:1
140
2.0
141
1.0
290
     0
  0
SCALE
  5
55
102
{ACAD_REACTORS
330
47
102
}
330
47
100
AcDbScale
 70
     0
300
4:1
140
4.0
141
1.0
290
     0
  0
SCALE
  5
56
102
{ACAD_REACTORS
330
47
102
}
330
47
100
AcDbScale
 70
     0
300
8:1
140
8.0
141
1.0
290
     0
  0
SCALE
  5
57
102
{ACAD_REACTORS
330
47
102
}
330
47
100
AcDbScale
 70
     0
300
10:1
140
10.0
141
1.0
290
     0
  0
SCALE
  5
58
102
{ACAD_REACTORS
330
47
102
}
330
47
100
AcDbScale
 70
     0
300
100:1
140
100.0
141
1.0
290
     0
  0
SCALE
  5
59
102
{ACAD_REACTORS
330
47
102
}
330
47
100
AcDbScale
 70
     0
300
1/128" = 1'-0"
140
0.0078125
141
12.0
290
     0
  0
SCALE
  5
5A
102
{ACAD_REACTORS
330
47
102
}
330
47
100
AcDbScale
 70
     0
300
1/64" = 1'-0"
140
0.015625
141
12.0
290
     0
  0
SCALE
  5
5B
102
{ACAD_REACTORS
330
47
102
}
330
47
100
AcDbScale
 70
     0
300
1/32" = 1'-0"
140
0.03125
141
12.0
290
     0
  0
SCALE
  5
5C
102
{ACAD_REACTORS
330
47
102
}
330
47
100
AcDbScale
 70
     0
300
1/16" = 1'-0"
140
0.0625
141
12.0
290
     0
  0
SCALE
  5
5D
102
{ACAD_REACTORS
330
47
102
}
330
47
100
AcDbScale
 70
     0
300
3/32" = 1'-0"
140
0.09375
141
12.0
290
     0
  0
SCALE
  5
5E
102
{ACAD_REACTORS
330
47
102
}
330
47
100
AcDbScale
 70
     0
300
1/8" = 1'-0"
140
0.125
141
12.0
290
     0
  0
SCALE
  5
5F
102
{ACAD_REACTORS
330
47
102
}
330
47
100
AcDbScale
 70
     0
300
3/16" = 1'-0"
140
0.1875
141
12.0
290
     0
  0
SCALE
  5
60
102
{ACAD_REACTORS
330
47
102
}
330
47
100
AcDbScale
 70
     0
300
1/4" = 1'-0"
140
0.25
141
12.0
290
     0
  0
SCALE
  5
61
102
{ACAD_REACTORS
330
47
102
}
330
47
100
AcDbScale
 70
     0
300
3/8" = 1'-0"
140
0.375
141
12.0
290
     0
  0
SCALE
  5
62
102
{ACAD_REACTORS
330
47
102
}
330
47
100
AcDbScale
 70
     0
300
1/2" = 1'-0"
140
0.5
141
12.0
290
     0
  0
SCALE
  5
63
102
{ACAD_REACTORS
330
47
102
}
330
47
100
AcDbScale
 70
     0
300
3/4" = 1'-0"
140
0.75
141
12.0
290
     0
  0
SCALE
  5
64
102
{ACAD_REACTORS
330
47
102
}
330
47
100
AcDbScale
 70
     0
300
1" = 1'-0"
140
1.0
141
12.0
290
     0
  0
SCALE
  5
65
102
{ACAD_REACTORS
330
47
102
}
330
47
100
AcDbScale
 70
     0
300
1-1/2" = 1'-0"
140
1.5
141
12.0
290
     0
  0
SCALE
  5
66
102
{ACAD_REACTORS
330
47
102
}
330
47
100
AcDbScale
 70
     0
300
3" = 1'-0"
140
3.0
141
12.0
290
     0
  0
SCALE
  5
67
102
{ACAD_REACTORS
330
47
102
}
330
47
100
AcDbScale
 70
     0
300
6" = 1'-0"
140
6.0
141
12.0
290
     0
  0
SCALE
  5
68
102
{ACAD_REACTORS
330
47
102
}
330
47
100
AcDbScale
 70
     0
300
1'-0" = 1'-0"
140
12.0
141
12.0
290
     0
  0
ENDSEC
  0
EOF
