  0
SECTION
  2
HEADER
  9
$ACADVER
  1
AC1015
  9
$ACADMAINTVER
 70
    20
  9
$DWGCODEPAGE
  3
ANSI_1252
  9
$INSBASE
 10
0.0
 20
0.0
 30
0.0
  9
$EXTMIN
 10
16117.76545492831
 20
4573.196799871674
 30
0.0
  9
$EXTMAX
 10
17611.90972792758
 20
6058.966670633526
 30
0.0
  9
$LIMMIN
 10
0.0
 20
0.0
  9
$LIMMAX
 10
420.0
 20
297.0
  9
$ORTHOMODE
 70
     0
  9
$REGENMODE
 70
     1
  9
$FILLMODE
 70
     1
  9
$QTEXTMODE
 70
     0
  9
$MIRRTEXT
 70
     1
  9
$LTSCALE
 40
1.0
  9
$ATTMODE
 70
     1
  9
$TEXTSIZE
 40
2.5
  9
$TRACEWID
 40
1.0
  9
$TEXTSTYLE
  7
STANDARD
  9
$CLAYER
  8
0
  9
$CELTYPE
  6
ByLayer
  9
$CECOLOR
 62
   256
  9
$CELTSCALE
 40
1.0
  9
$DISPSILH
 70
     0
  9
$DIMSCALE
 40
1.0
  9
$DIMASZ
 40
2.5
  9
$DIMEXO
 40
1.0
  9
$DIMDLI
 40
10.0
  9
$DIMRND
 40
0.0
  9
$DIMDLE
 40
0.0
  9
$DIMEXE
 40
1.0
  9
$DIMTP
 40
0.1
  9
$DIMTM
 40
0.1
  9
$DIMTXT
 40
3.5
  9
$DIMCEN
 40
0.0
  9
$DIMTSZ
 40
0.0
  9
$DIMTOL
 70
     0
  9
$DIMLIM
 70
     0
  9
$DIMTIH
 70
     0
  9
$DIMTOH
 70
     0
  9
$DIMSE1
 70
     0
  9
$DIMSE2
 70
     0
  9
$DIMTAD
 70
     1
  9
$DIMZIN
 70
     8
  9
$DIMBLK
  1

  9
$DIMASO
 70
     1
  9
$DIMSHO
 70
     1
  9
$DIMPOST
  1

  9
$DIMAPOST
  1
"
  9
$DIMALT
 70
     0
  9
$DIMALTD
 70
     2
  9
$DIMALTF
 40
0.0393701
  9
$DIMLFAC
 40
1.0
  9
$DIMTOFL
 70
     1
  9
$DIMTVP
 40
0.0
  9
$DIMTIX
 70
     0
  9
$DIMSOXD
 70
     0
  9
$DIMSAH
 70
     0
  9
$DIMBLK1
  1

  9
$DIMBLK2
  1

  9
$DIMSTYLE
  2
AM_DIN
  9
$DIMCLRD
 70
   256
  9
$DIMCLRE
 70
   256
  9
$DIMCLRT
 70
     2
  9
$DIMTFAC
 40
0.71
  9
$DIMGAP
 40
1.5
  9
$DIMJUST
 70
     0
  9
$DIMSD1
 70
     0
  9
$DIMSD2
 70
     0
  9
$DIMTOLJ
 70
     0
  9
$DIMTZIN
 70
     8
  9
$DIMALTZ
 70
     0
  9
$DIMALTTZ
 70
     0
  9
$DIMUPT
 70
     0
  9
$DIMDEC
 70
     2
  9
$DIMTDEC
 70
     3
  9
$DIMALTU
 70
     2
  9
$DIMALTTD
 70
     4
  9
$DIMTXSTY
  7
STANDARD
  9
$DIMAUNIT
 70
     0
  9
$DIMADEC
 70
     0
  9
$DIMALTRND
 40
0.0
  9
$DIMAZIN
 70
     2
  9
$DIMDSEP
 70
    46
  9
$DIMATFIT
 70
     3
  9
$DIMFRAC
 70
     0
  9
$DIMLDRBLK
  1

  9
$DIMLUNIT
 70
     2
  9
$DIMLWD
 70
    -1
  9
$DIMLWE
 70
    -1
  9
$DIMTMOVE
 70
     0
  9
$LUNITS
 70
     2
  9
$LUPREC
 70
     2
  9
$SKETCHINC
 40
1.0
  9
$FILLETRAD
 40
2.5
  9
$AUNITS
 70
     0
  9
$AUPREC
 70
     0
  9
$MENU
  1
.
  9
$ELEVATION
 40
0.0
  9
$PELEVATION
 40
0.0
  9
$THICKNESS
 40
0.0
  9
$LIMCHECK
 70
     0
  9
$CHAMFERA
 40
2.5
  9
$CHAMFERB
 40
2.5
  9
$CHAMFERC
 40
20.0
  9
$CHAMFERD
 40
0.0
  9
$SKPOLY
 70
     0
  9
$TDCREATE
 40
2454705.328066945
  9
$TDUCREATE
 40
2454705.286400278
  9
$TDUPDATE
 40
2455135.563477095
  9
$TDUUPDATE
 40
2455135.521810428
  9
$TDINDWG
 40
0.2311941204
  9
$TDUSRTIMER
 40
0.2311941204
  9
$USRTIMER
 70
     1
  9
$ANGBASE
 50
0.0
  9
$ANGDIR
 70
     0
  9
$PDMODE
 70
     0
  9
$PDSIZE
 40
0.0
  9
$PLINEWID
 40
0.0
  9
$SPLFRAME
 70
     0
  9
$SPLINETYPE
 70
     6
  9
$SPLINESEGS
 70
     8
  9
$HANDSEED
  5
65CC
  9
$SURFTAB1
 70
     6
  9
$SURFTAB2
 70
     6
  9
$SURFTYPE
 70
     6
  9
$SURFU
 70
     6
  9
$SURFV
 70
     6
  9
$UCSBASE
  2

  9
$UCSNAME
  2

  9
$UCSORG
 10
0.0
 20
0.0
 30
0.0
  9
$UCSXDIR
 10
1.0
 20
0.0
 30
0.0
  9
$UCSYDIR
 10
0.0
 20
1.0
 30
0.0
  9
$UCSORTHOREF
  2

  9
$UCSORTHOVIEW
 70
     0
  9
$UCSORGTOP
 10
0.0
 20
0.0
 30
0.0
  9
$UCSORGBOTTOM
 10
0.0
 20
0.0
 30
0.0
  9
$UCSORGLEFT
 10
0.0
 20
0.0
 30
0.0
  9
$UCSORGRIGHT
 10
0.0
 20
0.0
 30
0.0
  9
$UCSORGFRONT
 10
0.0
 20
0.0
 30
0.0
  9
$UCSORGBACK
 10
0.0
 20
0.0
 30
0.0
  9
$PUCSBASE
  2

  9
$PUCSNAME
  2

  9
$PUCSORG
 10
0.0
 20
0.0
 30
0.0
  9
$PUCSXDIR
 10
1.0
 20
0.0
 30
0.0
  9
$PUCSYDIR
 10
0.0
 20
1.0
 30
0.0
  9
$PUCSORTHOREF
  2

  9
$PUCSORTHOVIEW
 70
     0
  9
$PUCSORGTOP
 10
0.0
 20
0.0
 30
0.0
  9
$PUCSORGBOTTOM
 10
0.0
 20
0.0
 30
0.0
  9
$PUCSORGLEFT
 10
0.0
 20
0.0
 30
0.0
  9
$PUCSORGRIGHT
 10
0.0
 20
0.0
 30
0.0
  9
$PUCSORGFRONT
 10
0.0
 20
0.0
 30
0.0
  9
$PUCSORGBACK
 10
0.0
 20
0.0
 30
0.0
  9
$USERI1
 70
     0
  9
$USERI2
 70
     0
  9
$USERI3
 70
     0
  9
$USERI4
 70
     0
  9
$USERI5
 70
     0
  9
$USERR1
 40
0.0
  9
$USERR2
 40
0.0
  9
$USERR3
 40
0.0
  9
$USERR4
 40
0.0
  9
$USERR5
 40
0.0
  9
$WORLDVIEW
 70
     1
  9
$SHADEDGE
 70
     3
  9
$SHADEDIF
 70
    70
  9
$TILEMODE
 70
     1
  9
$MAXACTVP
 70
    64
  9
$PINSBASE
 10
0.0
 20
0.0
 30
0.0
  9
$PLIMCHECK
 70
     0
  9
$PEXTMIN
 10
1.000000000000000E+20
 20
1.000000000000000E+20
 30
1.000000000000000E+20
  9
$PEXTMAX
 10
-1.000000000000000E+20
 20
-1.000000000000000E+20
 30
-1.000000000000000E+20
  9
$PLIMMIN
 10
0.0
 20
0.0
  9
$PLIMMAX
 10
420.0
 20
297.0
  9
$UNITMODE
 70
     0
  9
$VISRETAIN
 70
     1
  9
$PLINEGEN
 70
     0
  9
$PSLTSCALE
 70
     1
  9
$TREEDEPTH
 70
  3020
  9
$CMLSTYLE
  2
Standard
  9
$CMLJUST
 70
     0
  9
$CMLSCALE
 40
20.0
  9
$PROXYGRAPHICS
 70
     1
  9
$MEASUREMENT
 70
     1
  9
$CELWEIGHT
370
    -1
  9
$ENDCAPS
280
     0
  9
$JOINSTYLE
280
     0
  9
$LWDISPLAY
290
     0
  9
$INSUNITS
 70
     4
  9
$HYPERLINKBASE
  1

  9
$STYLESHEET
  1
MONOCHROME 09+15.CTB
  9
$XEDIT
290
     1
  9
$CEPSNTYPE
380
     0
  9
$PSTYLEMODE
290
     1
  9
$FINGERPRINTGUID
  2
{D5D76390-38D3-4D8A-B628-F0CAAA001618}
  9
$VERSIONGUID
  2
{287D13EF-73B7-445B-9CA9-277502F8D2BB}
  9
$EXTNAMES
290
     1
  9
$PSVPSCALE
 40
0.0
  9
$OLESTARTUP
290
     0
  0
ENDSEC
  0
SECTION
  2
CLASSES
  0
CLASS
  1
ACDBDICTIONARYWDFLT
  2
AcDbDictionaryWithDefault
  3
ObjectDBX Classes
 90
        0
280
     0
281
     0
  0
CLASS
  1
ACDBPLACEHOLDER
  2
AcDbPlaceHolder
  3
ObjectDBX Classes
 90
        0
280
     0
281
     0
  0
CLASS
  1
LAYOUT
  2
AcDbLayout
  3
ObjectDBX Classes
 90
        0
280
     0
281
     0
  0
CLASS
  1
AMGSETTINGSOBJ
  2
AmgSettingsObj
  3
"AcadM|Product Description: AutoCAD Mechanical|Company: Autodesk, Inc."
 90
     1024
280
     0
281
     0
  0
CLASS
  1
ACME_DOCUMENT
  2
AcMeDbDoc
  3
AcMeServices
 90
     1024
280
     0
281
     0
  0
CLASS
  1
ACMESCOPE
  2
AcMeScope
  3
AcMeServices
 90
     1024
280
     0
281
     0
  0
CLASS
  1
ACMECOMMANDHISTORY
  2
AcMeCommandHistory
  3
AcMeServices
 90
     1024
280
     0
281
     0
  0
CLASS
  1
DICTIONARYVAR
  2
AcDbDictionaryVar
  3
ObjectDBX Classes
 90
        0
280
     0
281
     0
  0
CLASS
  1
ACIMSYSVARMAN
  2
AcImSysVarManager
  3
AcMeServices
 90
     1024
280
     0
281
     0
  0
CLASS
  1
ACIMREALSYSVAR
  2
AcImRealSysVar
  3
AcMeServices
 90
     1024
280
     0
281
     0
  0
CLASS
  1
ACIMINTSYSVAR
  2
AcImIntSysVar
  3
AcMeServices
 90
     1024
280
     0
281
     0
  0
CLASS
  1
ACMEDRAWINGMAN
  2
AcMeDrawingMan
  3
AcMeServices
 90
     1024
280
     0
281
     0
  0
CLASS
  1
ACMEVIEW
  2
AcMeView
  3
AcMeServices
 90
     1024
280
     0
281
     0
  0
CLASS
  1
ACDBENTITYCACHE
  2
AcMeEntityCache
  3
AcMeServices
 90
     1024
280
     0
281
     0
  0
CLASS
  1
GSMANAGER
  2
AcMeGSManager
  3
AcMeServices
 90
    32768
280
     0
281
     0
  0
CLASS
  1
AMDTINTERNALREACTOR
  2
AmdtInternalReactor
  3
AcMeServices
 90
     1024
280
     0
281
     0
  0
CLASS
  1
ACMESTATEMGR
  2
AcMeStateMgr
  3
AcMeServices
 90
     1024
280
     0
281
     0
  0
CLASS
  1
ACGREFMASTER
  2
AcGrefMaster
  3
AcAttribServices
 90
     1024
280
     0
281
     0
  0
CLASS
  1
ACME_DATABASE
  2
AcMeDbDatabase
  3
AcMeServices
 90
     1024
280
     0
281
     0
  0
CLASS
  1
ACRFINSADJUSTERMGR
  2
AcRfInsAdjusterMgr
  3
AcMeServices
 90
     1024
280
     0
281
     0
  0
CLASS
  1
ACGREFACADMASTER
  2
AcGrefacadMaster
  3
AcGrefServices
 90
     1024
280
     0
281
     0
  0
CLASS
  1
AMIMASTER
  2
AmiMaster
  3
AmiServices
 90
     1024
280
     0
281
     0
  0
CLASS
  1
ACIMSTRSYSVAR
  2
AcImStrSysVar
  3
AcMeServices
 90
     1024
280
     0
281
     0
  0
CLASS
  1
ACMSTANDARDDIN
  2
AcmStandardDIN
  3
"Amdt_StdImp|Product Description: AutoCAD Mechanical|Company: Autodesk, Inc."
 90
     1024
280
     0
281
     0
  0
CLASS
  1
AMGOBJPROPCFG
  2
AmgObjPropCfg
  3
"AmgLay|Product Description: AutoCAD Mechanical|Company: Autodesk, Inc."
 90
     1025
280
     0
281
     0
  0
CLASS
  1
AMDTEDGESTANDARDDIN
  2
AmdtEdgeStdDIN
  3
"Amdt_StdImp|Product Description: AutoCAD Mechanical|Company: Autodesk, Inc."
 90
    33792
280
     0
281
     0
  0
CLASS
  1
ACMSURFSTANDARDDIN
  2
AcmSurfTextStdDIN
  3
"Amdt_StdImp|Product Description: AutoCAD Mechanical|Company: Autodesk, Inc."
 90
    33792
280
     0
281
     0
  0
CLASS
  1
ACMFCFSTANDARDDIN
  2
AcmFCFStdDIN
  3
"Amdt_StdImp|Product Description: AutoCAD Mechanical|Company: Autodesk, Inc."
 90
     1024
280
     0
281
     0
  0
CLASS
  1
ACMWELDSTANDARDDIN
  2
AcmWeldingStdDIN
  3
"Amdt_StdImp|Product Description: AutoCAD Mechanical|Company: Autodesk, Inc."
 90
     1024
280
     0
281
     0
  0
CLASS
  1
ACMIDSTANDARDDIN
  2
AcmIdStdDIN
  3
"Amdt_StdImp|Product Description: AutoCAD Mechanical|Company: Autodesk, Inc."
 90
     1024
280
     0
281
     0
  0
CLASS
  1
ACMDATUMSTANDARDDIN
  2
AcmDatumStdDIN
  3
"Amdt_StdImp|Product Description: AutoCAD Mechanical|Company: Autodesk, Inc."
 90
     1024
280
     0
281
     0
  0
CLASS
  1
ACMBOMSTANDARDDIN
  2
AcmBOMStdDIN
  3
"Amdt_StdImp|Product Description: AutoCAD Mechanical|Company: Autodesk, Inc."
 90
     1024
280
     0
281
     0
  0
CLASS
  1
ACMDETAILSTANDARDDIN
  2
AmdtDetailSymStdDIN
  3
"Amdt_StdImp|Product Description: AutoCAD Mechanical|Company: Autodesk, Inc."
 90
     1024
280
     0
281
     0
  0
CLASS
  1
ACMSECTIONSTANDARDDIN
  2
AmdtSectionSymStdDIN
  3
"Amdt_StdImp|Product Description: AutoCAD Mechanical|Company: Autodesk, Inc."
 90
     1024
280
     0
281
     0
  0
CLASS
  1
ACMCENTERLINESTANDARDDIN
  2
AmdtCenterLineStdDIN
  3
"Amdt_StdImp|Product Description: AutoCAD Mechanical|Company: Autodesk, Inc."
 90
     1024
280
     0
281
     0
  0
CLASS
  1
ACMTHREADLINESTANDARDDIN
  2
AmdtThreadLineStdDIN
  3
"Amdt_StdImp|Product Description: AutoCAD Mechanical|Company: Autodesk, Inc."
 90
     1024
280
     0
281
     0
  0
CLASS
  1
ACAMGLAYSTD
  2
AcAmgLayStd
  3
"AmgLay|Product Description: AutoCAD Mechanical|Company: Autodesk, Inc."
 90
     1024
280
     0
281
     0
  0
CLASS
  1
ACAMGDIMSTD
  2
AcAmgDimStd
  3
"AmgDim|Product Description: AutoCAD Mechanical|Company: Autodesk, Inc."
 90
     1024
280
     0
281
     0
  0
CLASS
  1
ACAMGTITLESTD
  2
AcAmgTitleStd
  3
"AmgTitle|Product Description: AutoCAD Mechanical|Company: Autodesk, Inc."
 90
     4095
280
     0
281
     0
  0
CLASS
  1
ACMDATADICTIONARY
  2
AcmDataDictionary
  3
"AcmSymBB|Product Description: AutoCAD Mechanical|Company: Autodesk, Inc."
 90
     1024
280
     0
281
     0
  0
CLASS
  1
ACMDATAENTRYBLOCK
  2
AcmDataEntryBlock
  3
AcmSymBB|Product Description: AutoCAD Mechanical|Company: Autodesk, Inc.
 90
    33792
280
     0
281
     0
  0
CLASS
  1
LAYER_INDEX
  2
AcDbLayerIndex
  3
ObjectDBX Classes
 90
    32768
280
     0
281
     0
  0
CLASS
  1
IDBUFFER
  2
AcDbIdBuffer
  3
ObjectDBX Classes
 90
    32768
280
     0
281
     0
  0
CLASS
  1
ACMNOTESTANDARDDIN
  2
AmdtNoteStdDIN
  3
"Amdt_StdImp|Product Description: AutoCAD Mechanical|Company: Autodesk, Inc."
 90
     1024
280
     0
281
     0
  0
CLASS
  1
ACAMGHOLECHARTSTDDIN
  2
AcAmgHoleChartStdDIN
  3
AmgDim|Product Description: AutoCAD Mechanical|Company: Autodesk, Inc.
 90
     1024
280
     0
281
     0
  0
CLASS
  1
AM_DRAWING_MGR
  2
AcDmDwgMgr
  3
AcMechDwgViewMgmt
 90
     1024
280
     0
281
     0
  0
CLASS
  1
AM_DWG_DOCUMENT
  2
AcDmDwgDocument
  3
AcMechDwgViewMgmt
 90
     1024
280
     0
281
     0
  0
CLASS
  1
AM_DWG_SHEET
  2
AcDmSheet
  3
AcMechDwgViewMgmt
 90
     1024
280
     0
281
     0
  0
CLASS
  1
AM_VIEWDIMPARMAP
  2
AcDmViewDimParMap
  3
AcMechDwgViewMgmt
 90
     1024
280
     0
281
     0
  0
CLASS
  1
AM_DWGMGR_NAME
  2
AcDmDwgMgrName
  3
AcMechDwgViewMgmt
 90
     1024
280
     0
281
     0
  0
CLASS
  1
AMDTMENUSTATEMGR
  2
AmdtMenuStateMgr
  3
McadcomServices
 90
     1024
280
     0
281
     0
  0
CLASS
  1
AMDTMCOMMENUSTATE
  2
AmdtMcomMenuState
  3
McadcomServices
 90
     1024
280
     0
281
     0
  0
CLASS
  1
MAPIAMMOUDLE
  2
MApiAmModule
  3
MApiAmServices
 90
     1024
280
     0
281
     0
  0
CLASS
  1
AMDTADMENUSTATE
  2
AmdtAdMenuState
  3
DesignerServices
 90
     1024
280
     0
281
     0
  0
CLASS
  1
ADAPPL
  2
AcAdAppl
  3
DesignerServices
 90
     1024
280
     0
281
     0
  0
CLASS
  1
DEPMGR
  2
AcAdDepMgr
  3
DesignerServices
 90
     1024
280
     0
281
     0
  0
CLASS
  1
PARAMMGR
  2
AcAdParamMgr
  3
DesignerServices
 90
     1024
280
     0
281
     0
  0
CLASS
  1
PARAMSCOPE
  2
AcAdParamScope
  3
DesignerServices
 90
     1024
280
     0
281
     0
  0
CLASS
  1
NAMEDAPPL
  2
AcAdNamedAppl
  3
DesignerServices
 90
     1024
280
     0
281
     0
  0
CLASS
  1
AMDTDMMENUSTATE
  2
AmdtDmMenuState
  3
AcMechDwgViewMgmt
 90
     1024
280
     0
281
     0
  0
CLASS
  1
AMDTAMMENUSTATE
  2
AmdtAmMenuState
  3
DesignerAssemblies
 90
     1024
280
     0
281
     0
  0
CLASS
  1
ACAMPROJECT
  2
AcAmProject
  3
DesignerAssemblies
 90
     1024
280
     0
281
     0
  0
CLASS
  1
ACAMGRCOMPDEF
  2
AcAmGrCompDef
  3
DesignerAssemblies
 90
     1024
280
     0
281
     0
  0
CLASS
  1
ACCMCONTEXT
  2
AcCmContext
  3
DesignerAssemblies
 90
    33792
280
     0
281
     0
  0
CLASS
  1
ACAMCOMPDEF
  2
AcAmCompDef
  3
DesignerAssemblies
 90
     1024
280
     0
281
     0
  0
CLASS
  1
ACAMCOMPDEFMGR
  2
AcAmCompDefMgr
  3
DesignerAssemblies
 90
     1024
280
     0
281
     0
  0
CLASS
  1
AMCONTEXTMGR
  2
AcAmContextMgr
  3
DesignerAssemblies
 90
     1024
280
     0
281
     0
  0
CLASS
  1
ACAMCONTEXTMODELER
  2
AcAmContextModeler
  3
DesignerAssemblies
 90
     1024
280
     0
281
     0
  0
CLASS
  1
CATALOGSTATE
  2
AcAmCatalogState
  3
DesignerAssemblies
 90
     1024
280
     0
281
     0
  0
CLASS
  1
ACAMGRCOMPDEFSET
  2
AcAmGrCompDefSet
  3
DesignerAssemblies
 90
     1024
280
     0
281
     0
  0
CLASS
  1
AMDTBROWSERDBTAB
  2
AmdtBrowserDbTab
  3
McadcomServices
 90
     1024
280
     0
281
     0
  0
CLASS
  1
CBROWSERAPPOBJECT
  2
CBrowserAppObject
  3
McadcomServices
 90
     1024
280
     0
281
     0
  0
CLASS
  1
DM_PLACEHOLDER
  2
AcDmSelsetPlaceholder
  3
AcMechDwgViewMgmt
 90
     1024
280
     0
281
     0
  0
CLASS
  1
TABLESTYLE
  2
AcDbTableStyle
  3
ObjectDBX Classes
 90
     4095
280
     0
281
     0
  0
CLASS
  1
VAACXREFPANELOBJECT
  2
VaAcXREFPanelObject
  3
VAAC_ADDIN
 90
    32768
280
     0
281
     0
  0
CLASS
  1
VAACIMAGEINVENTORY
  2
VaAcImageInventory
  3
VAAC_ADDIN
 90
    32768
280
     0
281
     0
  0
CLASS
  1
AMDTNOTETEMPLATEDB
  2
AmdtNoteTemplateDB
  3
AcmSymBB|Product Description: AutoCAD Mechanical|Company: Autodesk, Inc.
 90
     1024
280
     0
281
     0
  0
CLASS
  1
ACAMGFILTERDAT
  2
AcAmgFilterDat
  3
"AcadM|Product Description: AutoCAD Mechanical|Company: Autodesk, Inc."
 90
    33792
280
     0
281
     0
  0
CLASS
  1
ACMBOM
  2
AcmBom
  3
"AcmSymBB|Product Description: AutoCAD Mechanical|Company: Autodesk, Inc."
 90
    33792
280
     0
281
     0
  0
CLASS
  1
AMDTFORMULAUPDATEDISPATCHER
  2
AmdtFormulaUpdateDispatcher
  3
AcMeServices
 90
    33792
280
     0
281
     0
  0
CLASS
  1
SORTENTSTABLE
  2
AcDbSortentsTable
  3
ObjectDBX Classes
 90
        0
280
     0
281
     0
  0
CLASS
  1
DIMASSOC
  2
AcDbDimAssoc
  3
"AcDbDimAssoc|Product Desc:     AcDim ARX App For Dimension|Company:          Autodesk, Inc.|WEB Address:      www.autodesk.com"
 90
        0
280
     0
281
     0
  0
CLASS
  1
ACMSTANDARDANSI
  2
AcmStandardANSI
  3
"Amdt_StdImp|Product Description: AutoCAD Mechanical|Company: Autodesk, Inc."
 90
    33792
280
     0
281
     0
  0
CLASS
  1
ACMSURFSTANDARDANSI
  2
AcmSurfTextStdANSI
  3
"Amdt_StdImp|Product Description: AutoCAD Mechanical|Company: Autodesk, Inc."
 90
    33792
280
     0
281
     0
  0
CLASS
  1
ACMFCFSTANDARDANSI
  2
AcmFCFStdANSI
  3
"Amdt_StdImp|Product Description: AutoCAD Mechanical|Company: Autodesk, Inc."
 90
    33792
280
     0
281
     0
  0
CLASS
  1
ACMWELDSTANDARDANSI
  2
AcmWeldingStdANSI
  3
"Amdt_StdImp|Product Description: AutoCAD Mechanical|Company: Autodesk, Inc."
 90
    33792
280
     0
281
     0
  0
CLASS
  1
ACMIDSTANDARDANSI
  2
AcmIdStdANSI
  3
"Amdt_StdImp|Product Description: AutoCAD Mechanical|Company: Autodesk, Inc."
 90
    33792
280
     0
281
     0
  0
CLASS
  1
ACMDATUMSTANDARDANSI
  2
AcmDatumStdANSI
  3
"Amdt_StdImp|Product Description: AutoCAD Mechanical|Company: Autodesk, Inc."
 90
    33792
280
     0
281
     0
  0
CLASS
  1
ACMBOMSTANDARDANSI
  2
AcmBOMStdANSI
  3
"Amdt_StdImp|Product Description: AutoCAD Mechanical|Company: Autodesk, Inc."
 90
    33792
280
     0
281
     0
  0
CLASS
  1
ACMDETAILSTANDARDANSI
  2
AmdtDetailSymStdANSI
  3
"Amdt_StdImp|Product Description: AutoCAD Mechanical|Company: Autodesk, Inc."
 90
    33792
280
     0
281
     0
  0
CLASS
  1
ACMSECTIONSTANDARDANSI
  2
AmdtSectionSymStdANSI
  3
"Amdt_StdImp|Product Description: AutoCAD Mechanical|Company: Autodesk, Inc."
 90
    33792
280
     0
281
     0
  0
CLASS
  1
ACMCENTERLINESTANDARDANSI
  2
AmdtCenterLineStdANSI
  3
"Amdt_StdImp|Product Description: AutoCAD Mechanical|Company: Autodesk, Inc."
 90
    33792
280
     0
281
     0
  0
CLASS
  1
ACMTHREADLINESTANDARDANSI
  2
AmdtThreadLineStdANSI
  3
"Amdt_StdImp|Product Description: AutoCAD Mechanical|Company: Autodesk, Inc."
 90
    33792
280
     0
281
     0
  0
CLASS
  1
ACMNOTESTANDARDANSI
  2
AmdtNoteStdANSI
  3
"Amdt_StdImp|Product Description: AutoCAD Mechanical|Company: Autodesk, Inc."
 90
    33792
280
     0
281
     0
  0
CLASS
  1
ACAMGHOLECHARTSTDANSI
  2
AcAmgHoleChartStdANSI
  3
AmgDim|Product Description: AutoCAD Mechanical|Company: Autodesk, Inc.
 90
    33792
280
     0
281
     0
  0
CLASS
  1
ACRFATTGENMGR
  2
AcRfAttGeneralMgr
  3
AcAttribServices
 90
    33792
280
     0
281
     0
  0
CLASS
  1
MATERIAL
  2
AcDbMaterial
  3
ObjectDBX Classes
 90
     1153
280
     0
281
     0
  0
CLASS
  1
VISUALSTYLE
  2
AcDbVisualStyle
  3
ObjectDBX Classes
 90
     4095
280
     0
281
     0
  0
CLASS
  1
SCALE
  2
AcDbScale
  3
ObjectDBX Classes
 90
     1153
280
     0
281
     0
  0
CLASS
  1
MLEADERSTYLE
  2
AcDbMLeaderStyle
  3
ACDB_MLEADERSTYLE_CLASS
 90
     4095
280
     0
281
     0
  0
CLASS
  1
AMDTEDGESTANDARDDIN13715
  2
AmdtEdgeStdDIN13715
  3
"Amdt_StdImp|Product Description: AutoCAD Mechanical|Company: Autodesk, Inc."
 90
     1024
280
     0
281
     0
  0
CLASS
  1
ACMSURFSTANDARDDIN2002
  2
AcmSurfTextStdDIN2002
  3
"Amdt_StdImp|Product Description: AutoCAD Mechanical|Company: Autodesk, Inc."
 90
     1024
280
     0
281
     0
  0
CLASS
  1
ACMTAPERSTANDARDDIN
  2
AcmTaperStdDIN
  3
"Amdt_StdImp|Product Description: AutoCAD Mechanical|Company: Autodesk, Inc."
 90
     1024
280
     0
281
     0
  0
CLASS
  1
ACMANOOTATIONVIEWSTANDARDDIN
  2
AmdtAnViewStdDIN
  3
"Amdt_StdImp|Product Description: AutoCAD Mechanical|Company: Autodesk, Inc."
 90
     1024
280
     0
281
     0
  0
CLASS
  1
CELLSTYLEMAP
  2
AcDbCellStyleMap
  3
ObjectDBX Classes
 90
     1152
280
     0
281
     0
  0
ENDSEC
  0
SECTION
  2
TABLES
  0
TABLE
  2
VPORT
  5
8
330
0
100
AcDbSymbolTable
 70
     1
  0
VPORT
  5
6496
330
8
100
AcDbSymbolTableRecord
100
AcDbViewportTableRecord
  2
*Active
 70
     0
 10
0.0
 20
0.0
 11
1.0
 21
1.0
 12
16956.67701797741
 22
5316.030220715163
 13
0.0
 23
0.0
 14
2.5
 24
2.5
 15
10.0
 25
10.0
 16
0.0
 26
0.0
 36
1.0
 17
0.0
 27
0.0
 37
0.0
 40
1496.763487025098
 41
1.513838748495788
 42
50.0
 43
0.0
 44
0.0
 50
0.0
 51
0.0
 71
     0
 72
   100
 73
     1
 74
     3
 75
     0
 76
     0
 77
     0
 78
     0
281
     0
 65
     0
110
0.0
120
0.0
130
0.0
111
1.0
121
0.0
131
0.0
112
0.0
122
1.0
132
0.0
 79
     0
146
0.0
  0
ENDTAB
  0
TABLE
  2
LTYPE
  5
5
330
0
100
AcDbSymbolTable
 70
    22
  0
LTYPE
  5
14
330
5
100
AcDbSymbolTableRecord
100
AcDbLinetypeTableRecord
  2
ByBlock
 70
     0
  3

 72
    65
 73
     0
 40
0.0
  0
LTYPE
  5
15
330
5
100
AcDbSymbolTableRecord
100
AcDbLinetypeTableRecord
  2
ByLayer
 70
     0
  3

 72
    65
 73
     0
 40
0.0
  0
LTYPE
  5
16
330
5
100
AcDbSymbolTableRecord
100
AcDbLinetypeTableRecord
  2
Continuous
 70
     0
  3
Solid line
 72
    65
 73
     0
 40
0.0
  0
LTYPE
  5
50
330
5
100
AcDbSymbolTableRecord
100
AcDbLinetypeTableRecord
  2
Amconstr
 70
     0
  3
_______________________
 72
    65
 73
     2
 40
9999.0
 49
9999.0
 74
     0
 49
0.0
 74
     0
  0
LTYPE
  5
55
330
5
100
AcDbSymbolTableRecord
100
AcDbLinetypeTableRecord
  2
Amzigzag
 70
     0
  3
/\/-/\/-/\/-/\/-/\/-/\/
 72
    65
 73
     2
 40
11.0001
 49
0.0001
 74
     4
 75
   136
340
285
 46
0.04
 50
0.0
 44
0.0
 45
0.0
 49
-11.0
 74
     0
  0
LTYPE
  5
56
330
5
100
AcDbSymbolTableRecord
100
AcDbLinetypeTableRecord
  2
AM_DIN_F_W050
 70
     0
  3
__ __ __ __ __ __ __ __ __ __ __ __ __ __ __
 72
    65
 73
     2
 40
6.25
 49
4.75
 74
     0
 49
-1.5
 74
     0
  0
LTYPE
  5
57
330
5
100
AcDbSymbolTableRecord
100
AcDbLinetypeTableRecord
  2
AM_DIN_G_W050
 70
     0
  3
____ . ____ . ____ . ____ . ____ . ____ . ____
 72
    65
 73
     4
 40
13.75
 49
9.75
 74
     0
 49
-1.5
 74
     0
 49
1.0
 74
     0
 49
-1.5
 74
     0
  0
LTYPE
  5
58
330
5
100
AcDbSymbolTableRecord
100
AcDbLinetypeTableRecord
  2
AM_DIN_K_W050
 70
     0
  3
_____ . . _____ . . _____ . . ____ .. ____
 72
    65
 73
     6
 40
16.25
 49
9.75
 74
     0
 49
-1.5
 74
     0
 49
1.0
 74
     0
 49
-1.5
 74
     0
 49
1.0
 74
     0
 49
-1.5
 74
     0
  0
LTYPE
  5
59
330
5
100
AcDbSymbolTableRecord
100
AcDbLinetypeTableRecord
  2
AM_DIN_G_W050x2
 70
     0
  3
__ . __ . __ . __ . __ . __
 72
    65
 73
     4
 40
6.875
 49
4.75
 74
     0
 49
-0.875
 74
     0
 49
0.375
 74
     0
 49
-0.875
 74
     0
  0
LTYPE
  5
5A
330
5
100
AcDbSymbolTableRecord
100
AcDbLinetypeTableRecord
  2
AM_DIN_F_W050x2
 70
     0
  3
 _ _ _ _ _ _ _ _ _ _ _ _
 72
    65
 73
     2
 40
3.125
 49
2.25
 74
     0
 49
-0.875
 74
     0
  0
LTYPE
  5
68
330
5
100
AcDbSymbolTableRecord
100
AcDbLinetypeTableRecord
  2
ACDINWELD
 70
     0
  3
_ _ _ _ _
 72
    65
 73
     2
 40
2.0
 49
2.0
 74
     0
 49
-1.0
 74
     0
  0
LTYPE
  5
69
330
5
100
AcDbSymbolTableRecord
100
AcDbLinetypeTableRecord
  2
ACDINTGB
 70
     0
  3
__ . . __ . .
 72
    65
 73
     6
 40
9.0
 49
4.0
 74
     0
 49
-1.0
 74
     0
 49
1.0
 74
     0
 49
-1.0
 74
     0
 49
1.0
 74
     0
 49
-1.0
 74
     0
  0
LTYPE
  5
6A
330
5
100
AcDbSymbolTableRecord
100
AcDbLinetypeTableRecord
  2
ACDINTGL
 70
     0
  3
_ _ _ _ _
 72
    65
 73
     2
 40
3.0
 49
2.0
 74
     0
 49
-1.0
 74
     0
  0
LTYPE
  5
6C
330
5
100
AcDbSymbolTableRecord
100
AcDbLinetypeTableRecord
  2
CENTER
 70
     0
  3
__ . __
 72
    65
 73
     4
 40
7.0
 49
4.0
 74
     0
 49
-1.0
 74
     0
 49
1.0
 74
     0
 49
-1.0
 74
     0
  0
LTYPE
  5
F2
330
5
100
AcDbSymbolTableRecord
100
AcDbLinetypeTableRecord
  2
HIDDEN
 70
     0
  3
Hidden __ __ __ __ __ __ __ __ __ __ __ __ __ _
 72
    65
 73
     2
 40
9.524999999999996
 49
6.349999999999998
 74
     0
 49
-3.174999999999998
 74
     0
  0
LTYPE
  5
F3
330
5
100
AcDbSymbolTableRecord
100
AcDbLinetypeTableRecord
  2
PHANTOM2
 70
     0
  3
Phantom (.5x) ___ _ _ ___ _ _ ___ _ _ ___ _ _
 72
    65
 73
     6
 40
31.75
 49
15.875
 74
     0
 49
-3.174999999999998
 74
     0
 49
3.174999999999998
 74
     0
 49
-3.174999999999998
 74
     0
 49
3.174999999999998
 74
     0
 49
-3.174999999999998
 74
     0
  0
LTYPE
  5
425
330
5
100
AcDbSymbolTableRecord
100
AcDbLinetypeTableRecord
  2
AUSGEZOGEN
 70
     0
  3
Ausgezogene Linie
 72
    65
 73
     0
 40
0.0
  0
LTYPE
  5
5328
330
5
100
AcDbSymbolTableRecord
100
AcDbLinetypeTableRecord
  2
ACANSTGB
 70
     0
  3
__ . . __ . .
 72
    65
 73
     6
 40
0.35433070866
 49
0.15748031496
 74
     0
 49
-0.03937007874
 74
     0
 49
0.03937007874
 74
     0
 49
-0.03937007874
 74
     0
 49
0.03937007874
 74
     0
 49
-0.03937007874
 74
     0
  0
LTYPE
  5
5329
330
5
100
AcDbSymbolTableRecord
100
AcDbLinetypeTableRecord
  2
ACANSTGL
 70
     0
  3
_ _ _ _ _
 72
    65
 73
     2
 40
0.11811023622
 49
0.07874015748
 74
     0
 49
-0.03937007874
 74
     0
  0
LTYPE
  5
6556
330
5
100
AcDbSymbolTableRecord
100
AcDbLinetypeTableRecord
  2
AM_ISO02W050
 70
     0
  3
__ __ __ __ __ __ __ __ __ __ __ __ __ __ __
 72
    65
 73
     2
 40
7.5
 49
6.0
 74
     0
 49
-1.5
 74
     0
  0
LTYPE
  5
6557
330
5
100
AcDbSymbolTableRecord
100
AcDbLinetypeTableRecord
  2
AM_ISO08W050
 70
     0
  3
____ . ____ . ____ . ____ . ____ . ____ . ____
 72
    65
 73
     4
 40
18.0
 49
12.0
 74
     0
 49
-1.5
 74
     0
 49
3.0
 74
     0
 49
-1.5
 74
     0
  0
LTYPE
  5
6558
330
5
100
AcDbSymbolTableRecord
100
AcDbLinetypeTableRecord
  2
AM_ISO09W050
 70
     0
  3
_____ . . _____ . . _____ . . ____ .. ____
 72
    65
 73
     6
 40
22.5
 49
12.0
 74
     0
 49
-1.5
 74
     0
 49
3.0
 74
     0
 49
-1.5
 74
     0
 49
3.0
 74
     0
 49
-1.5
 74
     0
  0
LTYPE
  5
6559
330
5
100
AcDbSymbolTableRecord
100
AcDbLinetypeTableRecord
  2
AM_ISO08W050x2
 70
     0
  3
__ . __ . __ . __ . __ . __
 72
    65
 73
     4
 40
9.0
 49
6.0
 74
     0
 49
-0.75
 74
     0
 49
1.5
 74
     0
 49
-0.75
 74
     0
  0
LTYPE
  5
655A
330
5
100
AcDbSymbolTableRecord
100
AcDbLinetypeTableRecord
  2
AM_ISO02W050x2
 70
     0
  3
 _ _ _ _ _ _ _ _ _ _ _ _
 72
    65
 73
     2
 40
3.75
 49
3.0
 74
     0
 49
-0.75
 74
     0
  0
ENDTAB
  0
TABLE
  2
LAYER
  5
2
102
{ACAD_XDICTIONARY
360
C0
102
}
330
0
100
AcDbSymbolTable
 70
     8
  0
LAYER
  5
10
102
{ACAD_XDICTIONARY
360
657F
102
}
330
2
100
AcDbSymbolTableRecord
100
AcDbLayerTableRecord
  2
0
 70
     0
 62
     7
  6
Continuous
370
    -3
390
F
  0
LAYER
  5
82
102
{ACAD_XDICTIONARY
360
6581
102
}
330
2
100
AcDbSymbolTableRecord
100
AcDbLayerTableRecord
  2
AM_0
 70
     0
 62
     7
  6
Continuous
370
    50
390
F
1001
AcAecLayerStandard
1000

1000

  0
LAYER
  5
426
330
2
100
AcDbSymbolTableRecord
100
AcDbLayerTableRecord
  2
DEFPOINTS
 70
     0
 62
    -1
  6
AUSGEZOGEN
290
     0
370
    -3
390
F
  0
LAYER
  5
427
102
{ACAD_XDICTIONARY
360
6583
102
}
330
2
100
AcDbSymbolTableRecord
100
AcDbLayerTableRecord
  2
AM_8
 70
     0
 62
     1
  6
Continuous
370
    25
390
F
  0
LAYER
  5
428
102
{ACAD_XDICTIONARY
360
6585
102
}
330
2
100
AcDbSymbolTableRecord
100
AcDbLayerTableRecord
  2
AM_5
 70
     0
 62
     3
  6
Continuous
370
    25
390
F
  0
LAYER
  5
429
102
{ACAD_XDICTIONARY
360
6587
102
}
330
2
100
AcDbSymbolTableRecord
100
AcDbLayerTableRecord
  2
anbauteile dünn
 70
     0
 62
     3
  6
Continuous
370
    25
390
F
1001
AcAecLayerStandard
1000

1000

  0
LAYER
  5
42A
102
{ACAD_XDICTIONARY
360
6589
102
}
330
2
100
AcDbSymbolTableRecord
100
AcDbLayerTableRecord
  2
Beschriftung
 70
     0
 62
     2
  6
Continuous
370
    50
390
F
1001
AcAecLayerStandard
1000

1000

  0
LAYER
  5
42B
102
{ACAD_XDICTIONARY
360
658B
102
}
330
2
100
AcDbSymbolTableRecord
100
AcDbLayerTableRecord
  2
bezugslinien
 70
     0
 62
     3
  6
Continuous
370
    25
390
F
1001
AcAecLayerStandard
1000

1000

  0
ENDTAB
  0
TABLE
  2
STYLE
  5
3
330
0
100
AcDbSymbolTable
 70
     6
  0
STYLE
  5
11
330
3
100
AcDbSymbolTableRecord
100
AcDbTextStyleTableRecord
  2
STANDARD
 70
     0
 40
0.0
 41
1.0
 50
0.0
 71
     0
 42
2.5
  3
ISOCP.SHX
  4
bigfont.shx
  0
STYLE
  5
5B
330
3
100
AcDbSymbolTableRecord
100
AcDbTextStyleTableRecord
  2
ACDINTS
 70
     0
 40
1.0
 41
1.0
 50
0.0
 71
     0
 42
2.5
  3
isocp.shx
  4
bigfont.shx
  0
STYLE
  5
67
330
3
100
AcDbSymbolTableRecord
100
AcDbTextStyleTableRecord
  2
ACDINGDT
 70
     0
 40
0.0
 41
1.0
 50
0.0
 71
     0
 42
2.5
  3
amgdt.shx
  4
bigfont.shx
  0
STYLE
  5
285
330
3
100
AcDbSymbolTableRecord
100
AcDbTextStyleTableRecord
  2

 70
     1
 40
0.0
 41
1.0
 50
0.0
 71
     0
 42
2.5
  3
genltshp.shx
  4

  0
STYLE
  5
42E
330
3
100
AcDbSymbolTableRecord
100
AcDbTextStyleTableRecord
  2
ACANSGDT
 70
     0
 40
0.0
 41
1.0
 50
0.0
 71
     0
 42
3.5
  3
ARIAL.TTF
  4

1001
ACAD
1000
Arial
1071
       34
  0
STYLE
  5
532B
330
3
100
AcDbSymbolTableRecord
100
AcDbTextStyleTableRecord
  2
ACANSTS
 70
     0
 40
1.0
 41
1.0
 50
0.0
 71
     0
 42
0.2
  3
romans.shx
  4

  0
ENDTAB
  0
TABLE
  2
VIEW
  5
6
330
0
100
AcDbSymbolTable
 70
     0
  0
ENDTAB
  0
TABLE
  2
UCS
  5
7
330
0
100
AcDbSymbolTable
 70
     0
  0
ENDTAB
  0
TABLE
  2
APPID
  5
9
330
0
100
AcDbSymbolTable
 70
    33
  0
APPID
  5
12
330
9
100
AcDbSymbolTableRecord
100
AcDbRegAppTableRecord
  2
ACAD
 70
     0
  0
APPID
  5
30
330
9
100
AcDbSymbolTableRecord
100
AcDbRegAppTableRecord
  2
MCAD_NO_VIS
 70
     0
  0
APPID
  5
31
330
9
100
AcDbSymbolTableRecord
100
AcDbRegAppTableRecord
  2
ACAD_TEMP_GRAPHIC
 70
     0
  0
APPID
  5
44
330
9
100
AcDbSymbolTableRecord
100
AcDbRegAppTableRecord
  2
ACATTRIBSERVICES
 70
     0
  0
APPID
  5
108
330
9
100
AcDbSymbolTableRecord
100
AcDbRegAppTableRecord
  2
AD_DRAW
 70
     0
  0
APPID
  5
126
330
9
100
AcDbSymbolTableRecord
100
AcDbRegAppTableRecord
  2
DESIGNERASSEMBLIES
 70
     0
  0
APPID
  5
12A
330
9
100
AcDbSymbolTableRecord
100
AcDbRegAppTableRecord
  2
ACADM_DIM_EDIT
 70
     0
  0
APPID
  5
12B
330
9
100
AcDbSymbolTableRecord
100
AcDbRegAppTableRecord
  2
AMDT_DM_ADJ
 70
     0
  0
APPID
  5
1A4
330
9
100
AcDbSymbolTableRecord
100
AcDbRegAppTableRecord
  2
ACAD_DSTYLE_DIMARC_LENGTH_SYMBOL
 70
     0
  0
APPID
  5
1A5
330
9
100
AcDbSymbolTableRecord
100
AcDbRegAppTableRecord
  2
ACAD_DSTYLE_DIMJOGGED_JOGANGLE_SYMBOL
 70
     0
  0
APPID
  5
22C
330
9
100
AcDbSymbolTableRecord
100
AcDbRegAppTableRecord
  2
AcAecLayerStandard
 70
     0
  0
APPID
  5
430
330
9
100
AcDbSymbolTableRecord
100
AcDbRegAppTableRecord
  2
GENIUS_GENREC_14
 70
     0
  0
APPID
  5
431
330
9
100
AcDbSymbolTableRecord
100
AcDbRegAppTableRecord
  2
GENIUS_GENOBJ-N-REC_13
 70
     0
  0
APPID
  5
432
330
9
100
AcDbSymbolTableRecord
100
AcDbRegAppTableRecord
  2
GENIUS_GENODEF_13
 70
     0
  0
APPID
  5
433
330
9
100
AcDbSymbolTableRecord
100
AcDbRegAppTableRecord
  2
GENIUS_GENOBJ-N-FIL_13
 70
     0
  0
APPID
  5
434
330
9
100
AcDbSymbolTableRecord
100
AcDbRegAppTableRecord
  2
GENIUS_GENOBJ-N-HTC_13
 70
     0
  0
APPID
  5
435
330
9
100
AcDbSymbolTableRecord
100
AcDbRegAppTableRecord
  2
GENIUS_GENHATCH_13
 70
     0
  0
APPID
  5
436
330
9
100
AcDbSymbolTableRecord
100
AcDbRegAppTableRecord
  2
ACAD_PSEXT
 70
     0
  0
APPID
  5
437
330
9
100
AcDbSymbolTableRecord
100
AcDbRegAppTableRecord
  2
ACAD_DSTYLE_DIMEXT_LENGTH
 70
     0
  0
APPID
  5
438
330
9
100
AcDbSymbolTableRecord
100
AcDbRegAppTableRecord
  2
ACAD_DSTYLE_DIMEXT_ENABLED
 70
     0
  0
APPID
  5
13C6
330
9
100
AcDbSymbolTableRecord
100
AcDbRegAppTableRecord
  2
ACAD_EXEMPT_FROM_CAD_STANDARDS
 70
     0
  0
APPID
  5
1C57
330
9
100
AcDbSymbolTableRecord
100
AcDbRegAppTableRecord
  2
GENIUS_GENOREF_13
 70
     0
  0
APPID
  5
214C
330
9
100
AcDbSymbolTableRecord
100
AcDbRegAppTableRecord
  2
GENIUS_GENDIMSH_14
 70
     0
  0
APPID
  5
3286
330
9
100
AcDbSymbolTableRecord
100
AcDbRegAppTableRecord
  2
GENIUS_GENDTOL_13
 70
     0
  0
APPID
  5
3306
330
9
100
AcDbSymbolTableRecord
100
AcDbRegAppTableRecord
  2
AcDbDynamicBlockGUID
 70
     0
  0
APPID
  5
3307
330
9
100
AcDbSymbolTableRecord
100
AcDbRegAppTableRecord
  2
ACDBBLOCKREPETAG
 70
     0
  0
APPID
  5
3512
330
9
100
AcDbSymbolTableRecord
100
AcDbRegAppTableRecord
  2
GENIUS_GENFIL_13
 70
     0
  0
APPID
  5
3513
330
9
100
AcDbSymbolTableRecord
100
AcDbRegAppTableRecord
  2
GENIUS_GENOBJ-N-CHA_13
 70
     0
  0
APPID
  5
6552
330
9
100
AcDbSymbolTableRecord
100
AcDbRegAppTableRecord
  2
ACAD_DSTYLE_DIMBREAK
 70
     0
  0
APPID
  5
6553
330
9
100
AcDbSymbolTableRecord
100
AcDbRegAppTableRecord
  2
ACAD_DSTYLE_DIMJAG
 70
     0
  0
APPID
  5
656C
330
9
100
AcDbSymbolTableRecord
100
AcDbRegAppTableRecord
  2
ACAD_DSTYLE_DIMINSPECT
 70
     0
  0
APPID
  5
658F
330
9
100
AcDbSymbolTableRecord
100
AcDbRegAppTableRecord
  2
DCO15
 70
     0
  0
APPID
  5
65CB
330
9
100
AcDbSymbolTableRecord
100
AcDbRegAppTableRecord
  2
ACAD_MLEADERVER
 70
     0
  0
ENDTAB
  0
TABLE
  2
DIMSTYLE
  5
A
330
0
100
AcDbSymbolTable
 70
    14
100
AcDbDimStyleTable
 71
     1
340
6F
  0
DIMSTYLE
105
6F
102
{ACAD_REACTORS
330
6541
102
}
330
A
100
AcDbSymbolTableRecord
100
AcDbDimStyleTableRecord
  2
AM_DIN
 70
     0
  4
"
 41
2.5
 42
1.0
 43
10.0
 44
1.0
 47
0.1
 48
0.1
 73
     0
 74
     0
 77
     1
 78
     8
 79
     2
140
3.5
141
0.0
143
0.0393701
146
0.71
147
1.5
172
     1
176
   256
177
   256
178
     2
271
     2
272
     3
274
     4
283
     0
284
     8
340
11
371
    -1
372
    -1
1001
ACAD_DSTYLE_DIMJOGGED_JOGANGLE_SYMBOL
1070
   384
1040
1.570796326794896
  0
DIMSTYLE
105
70
330
A
100
AcDbSymbolTableRecord
100
AcDbDimStyleTableRecord
  2
AM_DIN$3
 70
     0
  4
"
 41
2.5
 42
1.0
 43
10.0
 44
1.0
 47
0.1
 48
0.1
 73
     0
 77
     1
 78
     8
 79
     2
140
3.5
141
0.0
143
0.0393701
146
0.71
147
1.5
176
   256
177
   256
178
     2
271
     2
272
     3
274
     4
283
     0
284
     8
288
     1
289
     0
340
11
371
    -1
372
    -1
1001
ACAD_DSTYLE_DIMJOGGED_JOGANGLE_SYMBOL
1070
   384
1040
1.570796326794896
  0
DIMSTYLE
105
71
330
A
100
AcDbSymbolTableRecord
100
AcDbDimStyleTableRecord
  2
AM_DIN$4
 70
     0
  4
"
 41
2.5
 42
1.0
 43
10.0
 44
1.0
 47
0.1
 48
0.1
 73
     0
 77
     1
 78
     8
 79
     2
140
3.5
141
0.0
143
0.0393701
146
0.71
147
1.5
176
   256
177
   256
178
     2
271
     2
272
     3
274
     4
283
     0
284
     8
288
     1
289
     0
340
11
371
    -1
372
    -1
1001
ACAD_DSTYLE_DIMJOGGED_JOGANGLE_SYMBOL
1070
   384
1040
1.570796326794896
  0
DIMSTYLE
105
72
330
A
100
AcDbSymbolTableRecord
100
AcDbDimStyleTableRecord
  2
AM_DIN$6
 70
     0
  4
"
 41
2.5
 42
1.0
 43
10.0
 44
1.0
 47
0.1
 48
0.1
 73
     0
 74
     0
 78
     8
 79
     2
140
3.5
141
0.0
143
0.0393701
146
0.71
147
1.5
172
     1
176
   256
177
   256
178
     2
271
     2
272
     3
274
     4
283
     0
284
     8
340
11
371
    -1
372
    -1
1001
ACAD_DSTYLE_DIMJOGGED_JOGANGLE_SYMBOL
1070
   384
1040
1.570796326794896
  0
DIMSTYLE
105
73
330
A
100
AcDbSymbolTableRecord
100
AcDbDimStyleTableRecord
  2
AM_DIN$7
 70
     0
  4
"
 41
2.5
 42
1.0
 43
10.0
 44
1.0
 47
0.1
 48
0.1
 73
     0
 74
     0
 77
     1
 78
     8
 79
     2
140
5.0
141
0.0
143
0.0393701
146
0.71
147
1.5
172
     1
176
   256
177
   256
178
     2
271
     2
272
     3
274
     4
283
     0
284
     8
340
11
371
    -1
372
    -1
1001
ACAD_DSTYLE_DIMJOGGED_JOGANGLE_SYMBOL
1070
   384
1040
1.570796326794896
  0
DIMSTYLE
105
74
330
A
100
AcDbSymbolTableRecord
100
AcDbDimStyleTableRecord
  2
AM_DIN$SF
 70
     0
  4
"
 41
2.5
 42
1.0
 43
10.0
 44
1.0
 47
0.1
 48
0.1
 73
     0
 74
     0
 75
     1
 76
     1
 77
     1
 78
     8
 79
     2
140
3.5
141
0.0
143
0.0393701
146
0.71
147
1.5
172
     1
176
   256
177
   256
178
     2
271
     2
272
     3
274
     4
283
     0
284
     8
340
11
371
    -1
372
    -1
1001
ACAD_DSTYLE_DIMJOGGED_JOGANGLE_SYMBOL
1070
   384
1040
1.570796326794896
  0
DIMSTYLE
105
79
330
A
100
AcDbSymbolTableRecord
100
AcDbDimStyleTableRecord
  2
AM_DIN$SH
 70
     0
  4
"
 41
2.5
 42
1.0
 43
10.0
 44
1.0
 47
0.1
 48
0.1
 73
     0
 74
     0
 75
     1
 76
     1
 77
     1
 78
     8
 79
     2
140
3.5
141
0.0
143
0.0393701
144
2.0
146
0.71
147
1.5
172
     1
173
     1
176
   256
177
   256
178
     2
271
     2
272
     3
274
     4
283
     0
284
     8
340
11
343
75
371
    -1
372
    -1
1001
ACAD_DSTYLE_DIMJOGGED_JOGANGLE_SYMBOL
1070
   384
1040
1.570796326794896
  0
DIMSTYLE
105
42F
102
{ACAD_REACTORS
330
50F0
330
50F3
330
50F6
102
}
330
A
100
AcDbSymbolTableRecord
100
AcDbDimStyleTableRecord
  2
AM_DIN$0
 70
     0
  4
"
 40
20.0
 41
2.5
 42
1.0
 43
10.0
 44
1.0
 47
0.1
 48
0.1
 73
     0
 74
     0
 77
     1
 78
     8
 79
     2
140
3.5
141
0.0
143
0.0393701
146
0.71
147
1.5
172
     1
176
   256
177
   256
178
     2
271
     2
272
     2
283
     0
284
     8
340
42E
371
    -1
372
    -1
1001
ACAD_DSTYLE_DIMJOGGED_JOGANGLE_SYMBOL
1070
   384
1040
1.570796326794896
  0
DIMSTYLE
105
532D
330
A
100
AcDbSymbolTableRecord
100
AcDbDimStyleTableRecord
  2
AM_ANSI
 70
     0
  4
mm
 41
0.1
 42
0.05
 43
0.5
 44
0.1
 47
0.1
 48
0.1
 78
     7
 79
     2
140
0.12
141
0.0
146
0.71
147
0.06
176
   256
177
   256
178
     2
274
     4
284
     7
340
11
371
    -1
372
    -1
1001
ACAD_DSTYLE_DIMJOGGED_JOGANGLE_SYMBOL
1070
   384
1040
0.7853981633974483
1001
ACAD_DSTYLE_DIMARC_LENGTH_SYMBOL
1070
   379
1070
     1
  0
DIMSTYLE
105
532E
330
A
100
AcDbSymbolTableRecord
100
AcDbDimStyleTableRecord
  2
AM_ANSI$3
 70
     0
  4
mm
 41
0.1
 42
0.05
 43
0.5
 44
0.1
 47
0.1
 48
0.1
 78
     7
 79
     2
140
0.12
141
0.0
146
0.71
147
0.06
176
   256
177
   256
178
     2
274
     4
284
     7
288
     1
289
     0
340
11
371
    -1
372
    -1
1001
ACAD_DSTYLE_DIMJOGGED_JOGANGLE_SYMBOL
1070
   384
1040
0.7853981633974483
1001
ACAD_DSTYLE_DIMARC_LENGTH_SYMBOL
1070
   379
1070
     1
  0
DIMSTYLE
105
532F
330
A
100
AcDbSymbolTableRecord
100
AcDbDimStyleTableRecord
  2
AM_ANSI$4
 70
     0
  4
mm
 41
0.1
 42
0.05
 43
0.5
 44
0.1
 47
0.1
 48
0.1
 78
     7
 79
     2
140
0.12
141
0.0
146
0.71
147
0.06
176
   256
177
   256
178
     2
274
     4
284
     7
288
     1
289
     0
340
11
371
    -1
372
    -1
1001
ACAD_DSTYLE_DIMJOGGED_JOGANGLE_SYMBOL
1070
   384
1040
0.7853981633974483
1001
ACAD_DSTYLE_DIMARC_LENGTH_SYMBOL
1070
   379
1070
     1
  0
DIMSTYLE
105
5330
330
A
100
AcDbSymbolTableRecord
100
AcDbDimStyleTableRecord
  2
AM_ANSI$7
 70
     0
  4
mm
 41
0.1
 42
0.05
 43
0.5
 44
0.1
 47
0.1
 48
0.1
 78
     7
 79
     2
140
0.24
141
0.0
146
0.71
147
0.06
176
   256
177
   256
178
     2
274
     4
284
     7
340
11
371
    -1
372
    -1
1001
ACAD_DSTYLE_DIMJOGGED_JOGANGLE_SYMBOL
1070
   384
1040
0.7853981633974483
1001
ACAD_DSTYLE_DIMARC_LENGTH_SYMBOL
1070
   379
1070
     1
  0
DIMSTYLE
105
5331
330
A
100
AcDbSymbolTableRecord
100
AcDbDimStyleTableRecord
  2
AM_ANSI$SF
 70
     0
  4
mm
 41
0.1
 42
0.05
 43
0.5
 44
0.1
 47
0.1
 48
0.1
 75
     1
 76
     1
 78
     7
 79
     2
140
0.12
141
0.0
146
0.71
147
0.06
176
   256
177
   256
178
     2
274
     4
284
     7
340
11
371
    -1
372
    -1
1001
ACAD_DSTYLE_DIMJOGGED_JOGANGLE_SYMBOL
1070
   384
1040
0.7853981633974483
1001
ACAD_DSTYLE_DIMARC_LENGTH_SYMBOL
1070
   379
1070
     1
  0
DIMSTYLE
105
5332
330
A
100
AcDbSymbolTableRecord
100
AcDbDimStyleTableRecord
  2
AM_ANSI$SH
 70
     0
  4
mm
 41
0.1
 42
0.05
 43
0.5
 44
0.1
 47
0.1
 48
0.1
 75
     1
 76
     1
 78
     7
 79
     2
140
0.12
141
0.0
146
0.71
147
0.06
173
     1
176
   256
177
   256
178
     2
274
     4
284
     7
340
11
343
75
371
    -1
372
    -1
1001
ACAD_DSTYLE_DIMJOGGED_JOGANGLE_SYMBOL
1070
   384
1040
0.7853981633974483
1001
ACAD_DSTYLE_DIMARC_LENGTH_SYMBOL
1070
   379
1070
     1
  0
ENDTAB
  0
TABLE
  2
BLOCK_RECORD
  5
1
330
0
100
AcDbSymbolTable
 70
     6
  0
BLOCK_RECORD
  5
1F
102
{ACAD_XDICTIONARY
360
83
102
}
330
1
100
AcDbSymbolTableRecord
100
AcDbBlockTableRecord
  2
*Model_Space
340
22
  0
BLOCK_RECORD
  5
1B
330
1
100
AcDbSymbolTableRecord
100
AcDbBlockTableRecord
  2
*Paper_Space
340
1E
  0
BLOCK_RECORD
  5
23
330
1
100
AcDbSymbolTableRecord
100
AcDbBlockTableRecord
  2
*Paper_Space0
340
26
  0
BLOCK_RECORD
  5
75
102
{ACAD_XDICTIONARY
360
B6F
102
}
330
1
100
AcDbSymbolTableRecord
100
AcDbBlockTableRecord
  2
GENAXEH
340
0
  0
BLOCK_RECORD
  5
50FD
330
1
100
AcDbSymbolTableRecord
100
AcDbBlockTableRecord
  2
*D2
340
0
  0
BLOCK_RECORD
  5
5109
330
1
100
AcDbSymbolTableRecord
100
AcDbBlockTableRecord
  2
*D3
340
0
  0
BLOCK_RECORD
  5
5115
330
1
100
AcDbSymbolTableRecord
100
AcDbBlockTableRecord
  2
*D4
340
0
  0
ENDTAB
  0
ENDSEC
  0
SECTION
  2
BLOCKS
  0
BLOCK
  5
20
330
1F
100
AcDbEntity
  8
0
100
AcDbBlockBegin
  2
*Model_Space
 70
     0
 10
0.0
 20
0.0
 30
0.0
  3
*Model_Space
  1

  0
ENDBLK
  5
21
330
1F
100
AcDbEntity
  8
0
100
AcDbBlockEnd
  0
BLOCK
  5
1C
330
1B
100
AcDbEntity
 67
     1
  8
0
100
AcDbBlockBegin
  2
*Paper_Space
 70
     0
 10
0.0
 20
0.0
 30
0.0
  3
*Paper_Space
  1

  0
ENDBLK
  5
1D
330
1B
100
AcDbEntity
 67
     1
  8
0
100
AcDbBlockEnd
  0
BLOCK
  5
24
330
23
100
AcDbEntity
 67
     1
  8
0
100
AcDbBlockBegin
  2
*Paper_Space0
 70
     0
 10
0.0
 20
0.0
 30
0.0
  3
*Paper_Space0
  1

  0
ENDBLK
  5
25
330
23
100
AcDbEntity
 67
     1
  8
0
100
AcDbBlockEnd
  0
BLOCK
  5
77
330
75
100
AcDbEntity
  8
0
100
AcDbBlockBegin
  2
GENAXEH
 70
     0
 10
0.0
 20
0.0
 30
0.0
  3
GENAXEH
  1

  0
LINE
  5
76
330
75
100
AcDbEntity
  8
0
100
AcDbLine
 10
-1.0
 20
0.0
 30
0.0
 11
1.0
 21
0.0
 31
0.0
  0
ENDBLK
  5
78
330
75
100
AcDbEntity
  8
0
100
AcDbBlockEnd
  0
BLOCK
  5
5107
330
50FD
100
AcDbEntity
  8
0
100
AcDbBlockBegin
  2
*D2
 70
     1
 10
0.0
 20
0.0
 30
0.0
  3
*D2
  1

  0
LINE
  5
5162
330
50FD
100
AcDbEntity
  8
AM_5
100
AcDbLine
 10
17425.63180196336
 20
5068.196799871675
 30
0.0
 11
17611.90972792758
 21
5068.196799871675
 31
0.0
  0
LINE
  5
5163
330
50FD
100
AcDbEntity
  8
AM_5
100
AcDbLine
 10
16852.13379161921
 20
4622.624450944943
 30
0.0
 11
17611.90972792758
 21
4622.624450944943
 31
0.0
  0
LINE
  5
5164
330
50FD
100
AcDbEntity
  8
AM_5
100
AcDbLine
 10
17591.90972792758
 20
5018.196799871676
 30
0.0
 11
17591.90972792758
 21
4672.624450944943
 31
0.0
  0
SOLID
  5
5165
330
50FD
100
AcDbEntity
  8
AM_5
100
AcDbTrace
 10
17583.57639459424
 20
5018.196799871676
 30
0.0
 11
17600.24306126091
 21
5018.196799871676
 31
0.0
 12
17591.90972792758
 22
5068.196799871675
 32
0.0
 13
17591.90972792758
 23
5068.196799871675
 33
0.0
  0
SOLID
  5
5166
330
50FD
100
AcDbEntity
  8
AM_5
100
AcDbTrace
 10
17583.57639459424
 20
4672.624450944943
 30
0.0
 11
17600.24306126091
 21
4672.624450944943
 31
0.0
 12
17591.90972792758
 22
4622.624450944943
 32
0.0
 13
17591.90972792758
 23
4622.624450944943
 33
0.0
  0
MTEXT
  5
5167
330
50FD
100
AcDbEntity
  8
AM_5
 62
     2
100
AcDbMText
 10
17526.16961878706
 20
4845.410625408312
 30
0.0
 40
70.0
 41
0.0
 71
     5
 72
     1
  1
ca. 400
  7
ACANSGDT
 11
0.0000000000000001
 21
1.0
 31
0.0
 73
     1
 44
1.0
1001
ACAD
1000
MTEXTBEGIN
1070
    73
1070
     1
1070
    44
1040
1.0
1070
    74
1070
     0
1000
MTEXTEND
  0
POINT
  5
5168
330
50FD
100
AcDbEntity
  8
DEFPOINTS
 62
     0
100
AcDbPoint
 10
17405.63180196336
 20
5068.196799871675
 30
0.0
  0
POINT
  5
5169
330
50FD
100
AcDbEntity
  8
DEFPOINTS
 62
     0
100
AcDbPoint
 10
16832.13379161921
 20
4622.624450944943
 30
0.0
  0
POINT
  5
516A
330
50FD
100
AcDbEntity
  8
DEFPOINTS
 62
     0
100
AcDbPoint
 10
17591.90972792758
 20
4622.624450944943
 30
0.0
  0
ENDBLK
  5
5108
330
50FD
100
AcDbEntity
  8
0
100
AcDbBlockEnd
  0
BLOCK
  5
5113
330
5109
100
AcDbEntity
  8
0
100
AcDbBlockBegin
  2
*D3
 70
     1
 10
0.0
 20
0.0
 30
0.0
  3
*D3
  1

  0
LINE
  5
6576
330
5109
100
AcDbEntity
  8
AM_5
100
AcDbLine
 10
17509.59951869765
 20
5818.196799871677
 30
0.0
 11
17611.90972792757
 21
5818.196799871677
 31
0.0
  0
LINE
  5
6577
330
5109
100
AcDbEntity
  8
AM_5
100
AcDbLine
 10
17425.63180196336
 20
5068.196799871675
 30
0.0
 11
17611.90972792757
 21
5068.196799871675
 31
0.0
  0
LINE
  5
6578
330
5109
100
AcDbEntity
  8
AM_5
100
AcDbLine
 10
17591.90972792757
 20
5768.196799871677
 30
0.0
 11
17591.90972792757
 21
5118.196799871674
 31
0.0
  0
SOLID
  5
6579
330
5109
100
AcDbEntity
  8
AM_5
100
AcDbTrace
 10
17583.57639459423
 20
5768.196799871677
 30
0.0
 11
17600.2430612609
 21
5768.196799871677
 31
0.0
 12
17591.90972792757
 22
5818.196799871677
 32
0.0
 13
17591.90972792757
 23
5818.196799871677
 33
0.0
  0
SOLID
  5
657A
330
5109
100
AcDbEntity
  8
AM_5
100
AcDbTrace
 10
17583.57639459423
 20
5118.196799871674
 30
0.0
 11
17600.2430612609
 21
5118.196799871674
 31
0.0
 12
17591.90972792757
 22
5068.196799871675
 32
0.0
 13
17591.90972792757
 23
5068.196799871675
 33
0.0
  0
MTEXT
  5
657B
330
5109
100
AcDbEntity
  8
AM_5
 62
     2
100
AcDbMText
 10
17526.16961878705
 20
5388.097300689489
 30
0.0
 40
70.0
 41
0.0
 71
     5
 72
     1
  1
750
  7
ACANSGDT
 11
0.0000000000000001
 21
1.0
 31
0.0
 73
     1
 44
1.0
1001
ACAD
1000
MTEXTBEGIN
1070
    73
1070
     1
1070
    44
1040
1.0
1070
    74
1070
     0
1000
MTEXTEND
  0
POINT
  5
657C
330
5109
100
AcDbEntity
  8
DEFPOINTS
 62
     0
100
AcDbPoint
 10
17489.59951869765
 20
5818.196799871677
 30
0.0
  0
POINT
  5
657D
330
5109
100
AcDbEntity
  8
DEFPOINTS
 62
     0
100
AcDbPoint
 10
17405.63180196336
 20
5068.196799871675
 30
0.0
  0
POINT
  5
657E
330
5109
100
AcDbEntity
  8
DEFPOINTS
 62
     0
100
AcDbPoint
 10
17591.90972792757
 20
5068.196799871675
 30
0.0
  0
ENDBLK
  5
5114
330
5109
100
AcDbEntity
  8
0
100
AcDbBlockEnd
  0
BLOCK
  5
511F
330
5115
100
AcDbEntity
  8
0
100
AcDbBlockBegin
  2
*D4
 70
     1
 10
0.0
 20
0.0
 30
0.0
  3
*D4
  1

  0
LINE
  5
5133
330
5115
100
AcDbEntity
  8
AM_5
100
AcDbLine
 10
16681.61222074978
 20
5838.196799871678
 30
0.0
 11
16681.61222074978
 21
5957.622878000512
 31
0.0
  0
LINE
  5
5134
330
5115
100
AcDbEntity
  8
AM_5
100
AcDbLine
 10
17497.59951869765
 20
5838.196799871692
 30
0.0
 11
17497.59951869765
 21
5957.622878000512
 31
0.0
  0
LINE
  5
5135
330
5115
100
AcDbEntity
  8
AM_5
100
AcDbLine
 10
16731.61222074978
 20
5937.622878000511
 30
0.0
 11
17447.59951869765
 21
5937.622878000511
 31
0.0
  0
SOLID
  5
5136
330
5115
100
AcDbEntity
  8
AM_5
100
AcDbTrace
 10
16731.61222074978
 20
5945.956211333844
 30
0.0
 11
16731.61222074978
 21
5929.289544667177
 31
0.0
 12
16681.61222074978
 22
5937.622878000511
 32
0.0
 13
16681.61222074978
 23
5937.622878000511
 33
0.0
  0
SOLID
  5
5137
330
5115
100
AcDbEntity
  8
AM_5
100
AcDbTrace
 10
17447.59951869765
 20
5945.956211333844
 30
0.0
 11
17447.59951869765
 21
5929.289544667177
 31
0.0
 12
17497.59951869765
 22
5937.622878000511
 32
0.0
 13
17497.59951869765
 23
5937.622878000511
 33
0.0
  0
MTEXT
  5
5138
330
5115
100
AcDbEntity
  8
AM_5
 62
     2
100
AcDbMText
 10
17089.60586972372
 20
6005.320695190142
 30
0.0
 40
70.0
 41
0.0
 71
     5
 72
     1
  1
%%c816
  7
ACANSGDT
 73
     1
 44
1.0
1001
ACAD
1000
MTEXTBEGIN
1070
    73
1070
     1
1070
    44
1040
1.0
1070
    74
1070
     0
1000
MTEXTEND
  0
POINT
  5
5139
330
5115
100
AcDbEntity
  8
DEFPOINTS
 62
     0
100
AcDbPoint
 10
16681.61222074978
 20
5818.196799871677
 30
0.0
  0
POINT
  5
513A
330
5115
100
AcDbEntity
  8
DEFPOINTS
 62
     0
100
AcDbPoint
 10
17497.59951869765
 20
5818.196799871692
 30
0.0
  0
POINT
  5
513B
330
5115
100
AcDbEntity
  8
DEFPOINTS
 62
     0
100
AcDbPoint
 10
17497.59951869765
 20
5937.622878000511
 30
0.0
  0
ENDBLK
  5
5120
330
5115
100
AcDbEntity
  8
0
100
AcDbBlockEnd
  0
ENDSEC
  0
SECTION
  2
ENTITIES
  0
LINE
  5
4FED
330
1F
100
AcDbEntity
  8
AM_0
100
AcDbLine
 10
17487.59951869765
 20
5768.196799871674
 30
0.0
 11
17089.59951869765
 21
5768.19679987166
 31
0.0
  0
ARC
  5
4FEE
330
1F
100
AcDbEntity
  8
AM_0
100
AcDbCircle
 10
17487.59951869765
 20
5770.196799871674
 30
0.0
 40
2.0
100
AcDbArc
 50
270.0
 51
0.0
1001
GENIUS_GENODEF_13
1002
{
1000
HIER
1070
     0
1002
}
1002
{
1000
MANEDIT
1070
     0
1002
}
1002
{
1000
NOSEL
1070
     0
1002
}
1002
{
1000
BEHIND
1070
     0
1002
}
1002
{
1000
OTHER
1070
     0
1002
}
1002
{
1000
REACTOR
1002
}
1001
GENIUS_GENOBJ-N-FIL_13
1002
{
1000
OWNER
1000
GEN
1002
}
  0
LINE
  5
4FEF
330
1F
100
AcDbEntity
  8
AM_0
100
AcDbLine
 10
17487.59951869765
 20
5760.196799871674
 30
0.0
 11
17424.59951869764
 21
5760.19679987167
 31
0.0
  0
ARC
  5
4FF0
330
1F
100
AcDbEntity
  8
AM_0
100
AcDbCircle
 10
17487.59951869765
 20
5770.196799871673
 30
0.0
 40
10.0
100
AcDbArc
 50
270.0
 51
0.0
1001
GENIUS_GENODEF_13
1002
{
1000
HIER
1070
     0
1002
}
1002
{
1000
MANEDIT
1070
     0
1002
}
1002
{
1000
NOSEL
1070
     0
1002
}
1002
{
1000
BEHIND
1070
     0
1002
}
1002
{
1000
OTHER
1070
     0
1002
}
1002
{
1000
REACTOR
1002
}
1001
GENIUS_GENOBJ-N-FIL_13
1002
{
1000
OWNER
1000
GEN
1002
}
  0
ARC
  5
4FF1
330
1F
100
AcDbEntity
  8
AM_0
100
AcDbCircle
 10
17424.59951869764
 20
5750.19679987167
 30
0.0
 40
10.0
100
AcDbArc
 50
90.0
 51
180.0
1001
GENIUS_GENOBJ-N-FIL_13
1002
{
1000
OWNER
1000
GEN
1002
}
1001
GENIUS_GENODEF_13
1002
{
1000
HIER
1070
     0
1002
}
1002
{
1000
MANEDIT
1070
     0
1002
}
1002
{
1000
NOSEL
1070
     0
1002
}
1002
{
1000
BEHIND
1070
     0
1002
}
1002
{
1000
OTHER
1070
     0
1002
}
1002
{
1000
REACTOR
1002
}
  0
ARC
  5
4FF2
330
1F
100
AcDbEntity
  8
AM_0
100
AcDbCircle
 10
17424.59951869763
 20
5750.196799871673
 30
0.0
 40
18.0
100
AcDbArc
 50
90.0
 51
180.0
1001
GENIUS_GENOBJ-N-FIL_13
1002
{
1000
OWNER
1000
GEN
1002
}
1001
GENIUS_GENODEF_13
1002
{
1000
HIER
1070
     0
1002
}
1002
{
1000
MANEDIT
1070
     0
1002
}
1002
{
1000
NOSEL
1070
     0
1002
}
1002
{
1000
BEHIND
1070
     0
1002
}
1002
{
1000
OTHER
1070
     0
1002
}
1002
{
1000
REACTOR
1002
}
  0
LINE
  5
4FF3
102
{ACAD_REACTORS
330
50F5
102
}
330
1F
100
AcDbEntity
  8
AM_0
100
AcDbLine
 10
17497.59951869765
 20
5770.196799871673
 30
0.0
 11
17497.59951869765
 21
5818.196799871677
 31
0.0
  0
LINE
  5
4FF4
102
{ACAD_REACTORS
330
50F2
102
}
330
1F
100
AcDbEntity
  8
AM_0
100
AcDbLine
 10
17489.59951869765
 20
5770.196799871674
 30
0.0
 11
17489.59951869765
 21
5818.196799871677
 31
0.0
  0
LINE
  5
4FF5
330
1F
100
AcDbEntity
  8
AM_0
100
AcDbLine
 10
16773.57993748407
 20
5068.196799871677
 30
0.0
 11
16804.78335258859
 21
5068.196799871644
 31
0.0
  0
LINE
  5
4FF6
330
1F
100
AcDbEntity
  8
AM_0
100
AcDbLine
 10
16840.05139641815
 20
5068.196799871648
 30
0.0
 11
17025.59987533605
 21
5068.196799871668
 31
0.0
  0
LINE
  5
4FF7
330
1F
100
AcDbEntity
  8
AM_0
100
AcDbLine
 10
17040.59987533605
 20
5068.196799871668
 30
0.0
 11
17089.59951869765
 21
5068.196799871675
 31
0.0
  0
LINE
  5
4FF8
330
1F
100
AcDbEntity
  8
AM_0
100
AcDbLine
 10
17406.60586972371
 20
5750.196799871673
 30
0.0
 11
17406.60586972371
 21
5725.338935495408
 31
0.0
  0
LINE
  5
4FF9
330
1F
100
AcDbEntity
  8
AM_0
100
AcDbLine
 10
17406.60586972371
 20
5711.054664247948
 30
0.0
 11
17406.60586972371
 21
5667.911001973987
 31
0.0
  0
LINE
  5
4FFA
330
1F
100
AcDbEntity
  8
AM_0
100
AcDbLine
 10
17406.60586972371
 20
5630.482597769178
 30
0.0
 11
17406.60586972371
 21
5584.911001973988
 31
0.0
  0
LINE
  5
4FFB
330
1F
100
AcDbEntity
  8
AM_0
100
AcDbLine
 10
17406.60586972371
 20
5547.482597769178
 30
0.0
 11
17406.60586972371
 21
5501.911001973986
 31
0.0
  0
LINE
  5
4FFC
330
1F
100
AcDbEntity
  8
AM_0
100
AcDbLine
 10
17406.60586972371
 20
5464.482597769178
 30
0.0
 11
17406.60586972371
 21
5418.911001973986
 31
0.0
  0
LINE
  5
4FFD
330
1F
100
AcDbEntity
  8
AM_0
100
AcDbLine
 10
17406.60586972371
 20
5381.482597769178
 30
0.0
 11
17406.60586972371
 21
5335.911001973986
 31
0.0
  0
LINE
  5
4FFE
330
1F
100
AcDbEntity
  8
AM_0
100
AcDbLine
 10
17406.60586972371
 20
5298.482597769178
 30
0.0
 11
17406.60586972371
 21
5252.911001973988
 31
0.0
  0
LINE
  5
4FFF
330
1F
100
AcDbEntity
  8
AM_0
100
AcDbLine
 10
17406.60586972371
 20
5215.482597769177
 30
0.0
 11
17406.60586972371
 21
5169.911001973988
 31
0.0
  0
LINE
  5
5000
330
1F
100
AcDbEntity
  8
AM_0
100
AcDbLine
 10
17406.60586972371
 20
5132.482597769178
 30
0.0
 11
17406.60586972371
 21
5086.911001974082
 31
0.0
  0
LINE
  5
5001
330
1F
100
AcDbEntity
  8
AM_0
100
AcDbLine
 10
17414.60586972372
 20
5750.19679987167
 30
0.0
 11
17414.60586972372
 21
5722.02522699643
 31
0.0
  0
LINE
  5
5002
330
1F
100
AcDbEntity
  8
AM_0
100
AcDbLine
 10
17414.60586972372
 20
5714.368372746925
 30
0.0
 11
17414.60586972372
 21
5659.144033810708
 31
0.0
  0
LINE
  5
5003
330
1F
100
AcDbEntity
  8
AM_0
100
AcDbLine
 10
17414.60586972372
 20
5639.249565932459
 30
0.0
 11
17414.60586972372
 21
5576.144033810708
 31
0.0
  0
LINE
  5
5004
330
1F
100
AcDbEntity
  8
AM_0
100
AcDbLine
 10
17414.60586972372
 20
5556.24956593246
 30
0.0
 11
17414.60586972372
 21
5493.144033810708
 31
0.0
  0
LINE
  5
5005
330
1F
100
AcDbEntity
  8
AM_0
100
AcDbLine
 10
17414.60586972372
 20
5473.24956593246
 30
0.0
 11
17414.60586972372
 21
5410.144033810706
 31
0.0
  0
LINE
  5
5006
330
1F
100
AcDbEntity
  8
AM_0
100
AcDbLine
 10
17414.60586972372
 20
5390.249565932459
 30
0.0
 11
17414.60586972372
 21
5327.144033810707
 31
0.0
  0
LINE
  5
5007
330
1F
100
AcDbEntity
  8
AM_0
100
AcDbLine
 10
17414.60586972372
 20
5307.249565932459
 30
0.0
 11
17414.60586972372
 21
5244.144033810708
 31
0.0
  0
LINE
  5
5008
330
1F
100
AcDbEntity
  8
AM_0
100
AcDbLine
 10
17414.60586972372
 20
5224.24956593246
 30
0.0
 11
17414.60586972372
 21
5161.144033810708
 31
0.0
  0
LINE
  5
5009
330
1F
100
AcDbEntity
  8
AM_0
100
AcDbLine
 10
17414.60586972372
 20
5141.249565932461
 30
0.0
 11
17414.60586972372
 21
5078.144033810801
 31
0.0
  0
LINE
  5
500A
102
{ACAD_REACTORS
330
50F2
102
}
330
1F
100
AcDbEntity
  8
AM_0
100
AcDbLine
 10
17405.63180196336
 20
5068.196799871675
 30
0.0
 11
17089.60586972372
 21
5068.196799871679
 31
0.0
  0
ARC
  5
500B
330
1F
100
AcDbEntity
  8
AM_0
100
AcDbCircle
 10
17413.63180196336
 20
5068.196799871675
 30
0.0
 40
16.0
100
AcDbArc
 50
128.7615380298387
 51
180.0
  0
ARC
  5
500C
330
1F
100
AcDbEntity
  8
AM_0
100
AcDbCircle
 10
17398.60586972372
 20
5086.911001974082
 30
0.0
 40
8.0
100
AcDbArc
 50
308.7615380298387
 51
0.0
1001
GENIUS_GENOBJ-N-FIL_13
1002
{
1000
OWNER
1000
GEN
1002
}
1001
GENIUS_GENODEF_13
1002
{
1000
HIER
1070
     0
1002
}
1002
{
1000
MANEDIT
1070
     0
1002
}
1002
{
1000
NOSEL
1070
     0
1002
}
1002
{
1000
BEHIND
1070
     0
1002
}
1002
{
1000
OTHER
1070
     0
1002
}
1002
{
1000
REACTOR
1002
}
  0
ARC
  5
500D
330
1F
100
AcDbEntity
  8
AM_0
100
AcDbCircle
 10
17413.63180196336
 20
5234.196799871583
 30
0.0
 40
15.99999999999887
100
AcDbArc
 50
128.7615380297868
 51
231.2384619702132
  0
ARC
  5
500E
330
1F
100
AcDbEntity
  8
AM_0
100
AcDbCircle
 10
17398.60586972372
 20
5252.911001973988
 30
0.0
 40
8.0
100
AcDbArc
 50
308.7615380297868
 51
0.0
1001
GENIUS_GENOBJ-N-FIL_13
1002
{
1000
OWNER
1000
GEN
1002
}
1001
GENIUS_GENODEF_13
1002
{
1000
HIER
1070
     0
1002
}
1002
{
1000
MANEDIT
1070
     0
1002
}
1002
{
1000
NOSEL
1070
     0
1002
}
1002
{
1000
BEHIND
1070
     0
1002
}
1002
{
1000
OTHER
1070
     0
1002
}
1002
{
1000
REACTOR
1002
}
  0
ARC
  5
500F
330
1F
100
AcDbEntity
  8
AM_0
100
AcDbCircle
 10
17398.60586972372
 20
5215.482597769177
 30
0.0
 40
8.0
100
AcDbArc
 50
0.0
 51
51.23846197021314
1001
GENIUS_GENODEF_13
1002
{
1000
HIER
1070
     0
1002
}
1002
{
1000
MANEDIT
1070
     0
1002
}
1002
{
1000
NOSEL
1070
     0
1002
}
1002
{
1000
BEHIND
1070
     0
1002
}
1002
{
1000
OTHER
1070
     0
1002
}
1002
{
1000
REACTOR
1002
}
1001
GENIUS_GENOBJ-N-FIL_13
1002
{
1000
OWNER
1000
GEN
1002
}
  0
ARC
  5
5010
330
1F
100
AcDbEntity
  8
AM_0
100
AcDbCircle
 10
17413.63180196336
 20
5400.196799871583
 30
0.0
 40
15.99999999999887
100
AcDbArc
 50
128.7615380297868
 51
231.2384619702132
  0
ARC
  5
5011
330
1F
100
AcDbEntity
  8
AM_0
100
AcDbCircle
 10
17398.60586972372
 20
5418.911001973986
 30
0.0
 40
8.0
100
AcDbArc
 50
308.7615380297868
 51
0.0
1001
GENIUS_GENOBJ-N-FIL_13
1002
{
1000
OWNER
1000
GEN
1002
}
1001
GENIUS_GENODEF_13
1002
{
1000
HIER
1070
     0
1002
}
1002
{
1000
MANEDIT
1070
     0
1002
}
1002
{
1000
NOSEL
1070
     0
1002
}
1002
{
1000
BEHIND
1070
     0
1002
}
1002
{
1000
OTHER
1070
     0
1002
}
1002
{
1000
REACTOR
1002
}
  0
ARC
  5
5012
330
1F
100
AcDbEntity
  8
AM_0
100
AcDbCircle
 10
17398.60586972372
 20
5381.482597769178
 30
0.0
 40
8.0
100
AcDbArc
 50
0.0
 51
51.23846197021314
1001
GENIUS_GENODEF_13
1002
{
1000
HIER
1070
     0
1002
}
1002
{
1000
MANEDIT
1070
     0
1002
}
1002
{
1000
NOSEL
1070
     0
1002
}
1002
{
1000
BEHIND
1070
     0
1002
}
1002
{
1000
OTHER
1070
     0
1002
}
1002
{
1000
REACTOR
1002
}
1001
GENIUS_GENOBJ-N-FIL_13
1002
{
1000
OWNER
1000
GEN
1002
}
  0
ARC
  5
5013
330
1F
100
AcDbEntity
  8
AM_0
100
AcDbCircle
 10
17413.63180196336
 20
5566.196799871583
 30
0.0
 40
15.99999999999887
100
AcDbArc
 50
128.7615380297868
 51
231.2384619702132
  0
ARC
  5
5014
330
1F
100
AcDbEntity
  8
AM_0
100
AcDbCircle
 10
17398.60586972372
 20
5584.911001973988
 30
0.0
 40
8.0
100
AcDbArc
 50
308.7615380297868
 51
0.0
1001
GENIUS_GENOBJ-N-FIL_13
1002
{
1000
OWNER
1000
GEN
1002
}
1001
GENIUS_GENODEF_13
1002
{
1000
HIER
1070
     0
1002
}
1002
{
1000
MANEDIT
1070
     0
1002
}
1002
{
1000
NOSEL
1070
     0
1002
}
1002
{
1000
BEHIND
1070
     0
1002
}
1002
{
1000
OTHER
1070
     0
1002
}
1002
{
1000
REACTOR
1002
}
  0
ARC
  5
5015
330
1F
100
AcDbEntity
  8
AM_0
100
AcDbCircle
 10
17398.60586972372
 20
5547.482597769178
 30
0.0
 40
8.0
100
AcDbArc
 50
0.0
 51
51.23846197021314
1001
GENIUS_GENODEF_13
1002
{
1000
HIER
1070
     0
1002
}
1002
{
1000
MANEDIT
1070
     0
1002
}
1002
{
1000
NOSEL
1070
     0
1002
}
1002
{
1000
BEHIND
1070
     0
1002
}
1002
{
1000
OTHER
1070
     0
1002
}
1002
{
1000
REACTOR
1002
}
1001
GENIUS_GENOBJ-N-FIL_13
1002
{
1000
OWNER
1000
GEN
1002
}
  0
ARC
  5
5016
330
1F
100
AcDbEntity
  8
AM_0
100
AcDbCircle
 10
17413.63180196336
 20
5317.196799871584
 30
0.0
 40
15.99999999999887
100
AcDbArc
 50
128.7615380297868
 51
231.2384619702132
  0
ARC
  5
5017
330
1F
100
AcDbEntity
  8
AM_0
100
AcDbCircle
 10
17398.60586972372
 20
5335.911001973986
 30
0.0
 40
8.0
100
AcDbArc
 50
308.7615380297868
 51
0.0
1001
GENIUS_GENOBJ-N-FIL_13
1002
{
1000
OWNER
1000
GEN
1002
}
1001
GENIUS_GENODEF_13
1002
{
1000
HIER
1070
     0
1002
}
1002
{
1000
MANEDIT
1070
     0
1002
}
1002
{
1000
NOSEL
1070
     0
1002
}
1002
{
1000
BEHIND
1070
     0
1002
}
1002
{
1000
OTHER
1070
     0
1002
}
1002
{
1000
REACTOR
1002
}
  0
ARC
  5
5018
330
1F
100
AcDbEntity
  8
AM_0
100
AcDbCircle
 10
17398.60586972372
 20
5298.482597769178
 30
0.0
 40
8.0
100
AcDbArc
 50
0.0
 51
51.23846197021314
1001
GENIUS_GENODEF_13
1002
{
1000
HIER
1070
     0
1002
}
1002
{
1000
MANEDIT
1070
     0
1002
}
1002
{
1000
NOSEL
1070
     0
1002
}
1002
{
1000
BEHIND
1070
     0
1002
}
1002
{
1000
OTHER
1070
     0
1002
}
1002
{
1000
REACTOR
1002
}
1001
GENIUS_GENOBJ-N-FIL_13
1002
{
1000
OWNER
1000
GEN
1002
}
  0
ARC
  5
5019
330
1F
100
AcDbEntity
  8
AM_0
100
AcDbCircle
 10
17413.63180196336
 20
5483.196799871581
 30
0.0
 40
15.99999999999887
100
AcDbArc
 50
128.7615380297868
 51
231.2384619702132
  0
ARC
  5
501A
330
1F
100
AcDbEntity
  8
AM_0
100
AcDbCircle
 10
17398.60586972372
 20
5501.911001973986
 30
0.0
 40
8.0
100
AcDbArc
 50
308.7615380297868
 51
0.0
1001
GENIUS_GENOBJ-N-FIL_13
1002
{
1000
OWNER
1000
GEN
1002
}
1001
GENIUS_GENODEF_13
1002
{
1000
HIER
1070
     0
1002
}
1002
{
1000
MANEDIT
1070
     0
1002
}
1002
{
1000
NOSEL
1070
     0
1002
}
1002
{
1000
BEHIND
1070
     0
1002
}
1002
{
1000
OTHER
1070
     0
1002
}
1002
{
1000
REACTOR
1002
}
  0
ARC
  5
501B
330
1F
100
AcDbEntity
  8
AM_0
100
AcDbCircle
 10
17398.60586972372
 20
5464.482597769178
 30
0.0
 40
8.0
100
AcDbArc
 50
0.0
 51
51.23846197021314
1001
GENIUS_GENODEF_13
1002
{
1000
HIER
1070
     0
1002
}
1002
{
1000
MANEDIT
1070
     0
1002
}
1002
{
1000
NOSEL
1070
     0
1002
}
1002
{
1000
BEHIND
1070
     0
1002
}
1002
{
1000
OTHER
1070
     0
1002
}
1002
{
1000
REACTOR
1002
}
1001
GENIUS_GENOBJ-N-FIL_13
1002
{
1000
OWNER
1000
GEN
1002
}
  0
ARC
  5
501C
330
1F
100
AcDbEntity
  8
AM_0
100
AcDbCircle
 10
17413.63180196336
 20
5649.196799871583
 30
0.0
 40
15.99999999999887
100
AcDbArc
 50
128.7615380297868
 51
231.2384619702132
  0
ARC
  5
501D
330
1F
100
AcDbEntity
  8
AM_0
100
AcDbCircle
 10
17398.60586972372
 20
5667.911001973987
 30
0.0
 40
8.0
100
AcDbArc
 50
308.7615380297868
 51
0.0
1001
GENIUS_GENOBJ-N-FIL_13
1002
{
1000
OWNER
1000
GEN
1002
}
1001
GENIUS_GENODEF_13
1002
{
1000
HIER
1070
     0
1002
}
1002
{
1000
MANEDIT
1070
     0
1002
}
1002
{
1000
NOSEL
1070
     0
1002
}
1002
{
1000
BEHIND
1070
     0
1002
}
1002
{
1000
OTHER
1070
     0
1002
}
1002
{
1000
REACTOR
1002
}
  0
ARC
  5
501E
330
1F
100
AcDbEntity
  8
AM_0
100
AcDbCircle
 10
17398.60586972372
 20
5630.482597769178
 30
0.0
 40
8.0
100
AcDbArc
 50
0.0
 51
51.23846197021314
1001
GENIUS_GENODEF_13
1002
{
1000
HIER
1070
     0
1002
}
1002
{
1000
MANEDIT
1070
     0
1002
}
1002
{
1000
NOSEL
1070
     0
1002
}
1002
{
1000
BEHIND
1070
     0
1002
}
1002
{
1000
OTHER
1070
     0
1002
}
1002
{
1000
REACTOR
1002
}
1001
GENIUS_GENOBJ-N-FIL_13
1002
{
1000
OWNER
1000
GEN
1002
}
  0
ARC
  5
501F
330
1F
100
AcDbEntity
  8
AM_0
100
AcDbCircle
 10
17413.63180196336
 20
5151.196799871581
 30
0.0
 40
15.99999999999887
100
AcDbArc
 50
128.7615380297868
 51
231.2384619702132
  0
ARC
  5
5020
330
1F
100
AcDbEntity
  8
AM_0
100
AcDbCircle
 10
17398.60586972372
 20
5132.482597769178
 30
0.0
 40
8.0
100
AcDbArc
 50
0.0
 51
51.23846197021314
1001
GENIUS_GENODEF_13
1002
{
1000
HIER
1070
     0
1002
}
1002
{
1000
MANEDIT
1070
     0
1002
}
1002
{
1000
NOSEL
1070
     0
1002
}
1002
{
1000
BEHIND
1070
     0
1002
}
1002
{
1000
OTHER
1070
     0
1002
}
1002
{
1000
REACTOR
1002
}
1001
GENIUS_GENOBJ-N-FIL_13
1002
{
1000
OWNER
1000
GEN
1002
}
  0
ARC
  5
5021
330
1F
100
AcDbEntity
  8
AM_0
100
AcDbCircle
 10
17398.60586972372
 20
5169.911001973988
 30
0.0
 40
8.0
100
AcDbArc
 50
308.7615380297868
 51
0.0
1001
GENIUS_GENOBJ-N-FIL_13
1002
{
1000
OWNER
1000
GEN
1002
}
1001
GENIUS_GENODEF_13
1002
{
1000
HIER
1070
     0
1002
}
1002
{
1000
MANEDIT
1070
     0
1002
}
1002
{
1000
NOSEL
1070
     0
1002
}
1002
{
1000
BEHIND
1070
     0
1002
}
1002
{
1000
OTHER
1070
     0
1002
}
1002
{
1000
REACTOR
1002
}
  0
ARC
  5
5022
330
1F
100
AcDbEntity
  8
AM_0
100
AcDbCircle
 10
17413.63180196336
 20
5649.196799871583
 30
0.0
 40
8.0
100
AcDbArc
 50
95.88851952040782
 51
264.1114804795922
  0
ARC
  5
5023
330
1F
100
AcDbEntity
  8
AM_0
100
AcDbCircle
 10
17412.60586972372
 20
5659.144033810708
 30
0.0
 40
2.0
100
AcDbArc
 50
275.8885195204078
 51
0.0
1001
GENIUS_GENODEF_13
1002
{
1000
HIER
1070
     0
1002
}
1002
{
1000
MANEDIT
1070
     0
1002
}
1002
{
1000
NOSEL
1070
     0
1002
}
1002
{
1000
BEHIND
1070
     0
1002
}
1002
{
1000
OTHER
1070
     0
1002
}
1002
{
1000
REACTOR
1002
}
1001
GENIUS_GENOBJ-N-FIL_13
1002
{
1000
OWNER
1000
GEN
1002
}
  0
ARC
  5
5024
330
1F
100
AcDbEntity
  8
AM_0
100
AcDbCircle
 10
17412.60586972372
 20
5639.249565932459
 30
0.0
 40
2.0
100
AcDbArc
 50
0.0
 51
84.11148047959217
1001
GENIUS_GENODEF_13
1002
{
1000
HIER
1070
     0
1002
}
1002
{
1000
MANEDIT
1070
     0
1002
}
1002
{
1000
NOSEL
1070
     0
1002
}
1002
{
1000
BEHIND
1070
     0
1002
}
1002
{
1000
OTHER
1070
     0
1002
}
1002
{
1000
REACTOR
1002
}
1001
GENIUS_GENOBJ-N-FIL_13
1002
{
1000
OWNER
1000
GEN
1002
}
  0
ARC
  5
5025
330
1F
100
AcDbEntity
  8
AM_0
100
AcDbCircle
 10
17413.63180196336
 20
5566.196799871583
 30
0.0
 40
8.0
100
AcDbArc
 50
95.88851952040782
 51
264.1114804795922
  0
ARC
  5
5026
330
1F
100
AcDbEntity
  8
AM_0
100
AcDbCircle
 10
17412.60586972372
 20
5576.144033810708
 30
0.0
 40
2.0
100
AcDbArc
 50
275.8885195204078
 51
0.0
1001
GENIUS_GENODEF_13
1002
{
1000
HIER
1070
     0
1002
}
1002
{
1000
MANEDIT
1070
     0
1002
}
1002
{
1000
NOSEL
1070
     0
1002
}
1002
{
1000
BEHIND
1070
     0
1002
}
1002
{
1000
OTHER
1070
     0
1002
}
1002
{
1000
REACTOR
1002
}
1001
GENIUS_GENOBJ-N-FIL_13
1002
{
1000
OWNER
1000
GEN
1002
}
  0
ARC
  5
5027
330
1F
100
AcDbEntity
  8
AM_0
100
AcDbCircle
 10
17412.60586972372
 20
5556.24956593246
 30
0.0
 40
2.0
100
AcDbArc
 50
0.0
 51
84.11148047959217
1001
GENIUS_GENODEF_13
1002
{
1000
HIER
1070
     0
1002
}
1002
{
1000
MANEDIT
1070
     0
1002
}
1002
{
1000
NOSEL
1070
     0
1002
}
1002
{
1000
BEHIND
1070
     0
1002
}
1002
{
1000
OTHER
1070
     0
1002
}
1002
{
1000
REACTOR
1002
}
1001
GENIUS_GENOBJ-N-FIL_13
1002
{
1000
OWNER
1000
GEN
1002
}
  0
ARC
  5
5028
330
1F
100
AcDbEntity
  8
AM_0
100
AcDbCircle
 10
17413.63180196336
 20
5483.196799871581
 30
0.0
 40
8.0
100
AcDbArc
 50
95.88851952040782
 51
264.1114804795922
  0
ARC
  5
5029
330
1F
100
AcDbEntity
  8
AM_0
100
AcDbCircle
 10
17412.60586972372
 20
5493.144033810708
 30
0.0
 40
2.0
100
AcDbArc
 50
275.8885195204078
 51
0.0
1001
GENIUS_GENODEF_13
1002
{
1000
HIER
1070
     0
1002
}
1002
{
1000
MANEDIT
1070
     0
1002
}
1002
{
1000
NOSEL
1070
     0
1002
}
1002
{
1000
BEHIND
1070
     0
1002
}
1002
{
1000
OTHER
1070
     0
1002
}
1002
{
1000
REACTOR
1002
}
1001
GENIUS_GENOBJ-N-FIL_13
1002
{
1000
OWNER
1000
GEN
1002
}
  0
ARC
  5
502A
330
1F
100
AcDbEntity
  8
AM_0
100
AcDbCircle
 10
17412.60586972372
 20
5473.24956593246
 30
0.0
 40
2.0
100
AcDbArc
 50
0.0
 51
84.11148047959217
1001
GENIUS_GENODEF_13
1002
{
1000
HIER
1070
     0
1002
}
1002
{
1000
MANEDIT
1070
     0
1002
}
1002
{
1000
NOSEL
1070
     0
1002
}
1002
{
1000
BEHIND
1070
     0
1002
}
1002
{
1000
OTHER
1070
     0
1002
}
1002
{
1000
REACTOR
1002
}
1001
GENIUS_GENOBJ-N-FIL_13
1002
{
1000
OWNER
1000
GEN
1002
}
  0
ARC
  5
502B
330
1F
100
AcDbEntity
  8
AM_0
100
AcDbCircle
 10
17413.63180196336
 20
5400.196799871583
 30
0.0
 40
8.0
100
AcDbArc
 50
95.88851952040782
 51
264.1114804795922
  0
ARC
  5
502C
330
1F
100
AcDbEntity
  8
AM_0
100
AcDbCircle
 10
17412.60586972372
 20
5410.144033810706
 30
0.0
 40
2.0
100
AcDbArc
 50
275.8885195204078
 51
0.0
1001
GENIUS_GENODEF_13
1002
{
1000
HIER
1070
     0
1002
}
1002
{
1000
MANEDIT
1070
     0
1002
}
1002
{
1000
NOSEL
1070
     0
1002
}
1002
{
1000
BEHIND
1070
     0
1002
}
1002
{
1000
OTHER
1070
     0
1002
}
1002
{
1000
REACTOR
1002
}
1001
GENIUS_GENOBJ-N-FIL_13
1002
{
1000
OWNER
1000
GEN
1002
}
  0
ARC
  5
502D
330
1F
100
AcDbEntity
  8
AM_0
100
AcDbCircle
 10
17412.60586972372
 20
5390.249565932459
 30
0.0
 40
2.0
100
AcDbArc
 50
0.0
 51
84.11148047959217
1001
GENIUS_GENODEF_13
1002
{
1000
HIER
1070
     0
1002
}
1002
{
1000
MANEDIT
1070
     0
1002
}
1002
{
1000
NOSEL
1070
     0
1002
}
1002
{
1000
BEHIND
1070
     0
1002
}
1002
{
1000
OTHER
1070
     0
1002
}
1002
{
1000
REACTOR
1002
}
1001
GENIUS_GENOBJ-N-FIL_13
1002
{
1000
OWNER
1000
GEN
1002
}
  0
ARC
  5
502E
330
1F
100
AcDbEntity
  8
AM_0
100
AcDbCircle
 10
17413.63180196336
 20
5317.196799871584
 30
0.0
 40
8.0
100
AcDbArc
 50
95.88851952040782
 51
264.1114804795922
  0
ARC
  5
502F
330
1F
100
AcDbEntity
  8
AM_0
100
AcDbCircle
 10
17412.60586972372
 20
5327.144033810707
 30
0.0
 40
2.0
100
AcDbArc
 50
275.8885195204078
 51
0.0
1001
GENIUS_GENODEF_13
1002
{
1000
HIER
1070
     0
1002
}
1002
{
1000
MANEDIT
1070
     0
1002
}
1002
{
1000
NOSEL
1070
     0
1002
}
1002
{
1000
BEHIND
1070
     0
1002
}
1002
{
1000
OTHER
1070
     0
1002
}
1002
{
1000
REACTOR
1002
}
1001
GENIUS_GENOBJ-N-FIL_13
1002
{
1000
OWNER
1000
GEN
1002
}
  0
ARC
  5
5030
330
1F
100
AcDbEntity
  8
AM_0
100
AcDbCircle
 10
17412.60586972372
 20
5307.249565932459
 30
0.0
 40
2.0
100
AcDbArc
 50
0.0
 51
84.11148047959217
1001
GENIUS_GENODEF_13
1002
{
1000
HIER
1070
     0
1002
}
1002
{
1000
MANEDIT
1070
     0
1002
}
1002
{
1000
NOSEL
1070
     0
1002
}
1002
{
1000
BEHIND
1070
     0
1002
}
1002
{
1000
OTHER
1070
     0
1002
}
1002
{
1000
REACTOR
1002
}
1001
GENIUS_GENOBJ-N-FIL_13
1002
{
1000
OWNER
1000
GEN
1002
}
  0
ARC
  5
5031
330
1F
100
AcDbEntity
  8
AM_0
100
AcDbCircle
 10
17413.63180196336
 20
5234.196799871583
 30
0.0
 40
8.0
100
AcDbArc
 50
95.88851952040782
 51
264.1114804795922
  0
ARC
  5
5032
330
1F
100
AcDbEntity
  8
AM_0
100
AcDbCircle
 10
17412.60586972372
 20
5244.144033810708
 30
0.0
 40
2.0
100
AcDbArc
 50
275.8885195204078
 51
0.0
1001
GENIUS_GENODEF_13
1002
{
1000
HIER
1070
     0
1002
}
1002
{
1000
MANEDIT
1070
     0
1002
}
1002
{
1000
NOSEL
1070
     0
1002
}
1002
{
1000
BEHIND
1070
     0
1002
}
1002
{
1000
OTHER
1070
     0
1002
}
1002
{
1000
REACTOR
1002
}
1001
GENIUS_GENOBJ-N-FIL_13
1002
{
1000
OWNER
1000
GEN
1002
}
  0
ARC
  5
5033
330
1F
100
AcDbEntity
  8
AM_0
100
AcDbCircle
 10
17412.60586972372
 20
5224.24956593246
 30
0.0
 40
2.0
100
AcDbArc
 50
0.0
 51
84.11148047959217
1001
GENIUS_GENODEF_13
1002
{
1000
HIER
1070
     0
1002
}
1002
{
1000
MANEDIT
1070
     0
1002
}
1002
{
1000
NOSEL
1070
     0
1002
}
1002
{
1000
BEHIND
1070
     0
1002
}
1002
{
1000
OTHER
1070
     0
1002
}
1002
{
1000
REACTOR
1002
}
1001
GENIUS_GENOBJ-N-FIL_13
1002
{
1000
OWNER
1000
GEN
1002
}
  0
ARC
  5
5034
330
1F
100
AcDbEntity
  8
AM_0
100
AcDbCircle
 10
17413.63180196336
 20
5151.196799871584
 30
0.0
 40
8.0
100
AcDbArc
 50
95.88851952040782
 51
264.1114804795922
  0
ARC
  5
5035
330
1F
100
AcDbEntity
  8
AM_0
100
AcDbCircle
 10
17412.60586972372
 20
5161.144033810708
 30
0.0
 40
2.0
100
AcDbArc
 50
275.8885195204078
 51
0.0
1001
GENIUS_GENODEF_13
1002
{
1000
HIER
1070
     0
1002
}
1002
{
1000
MANEDIT
1070
     0
1002
}
1002
{
1000
NOSEL
1070
     0
1002
}
1002
{
1000
BEHIND
1070
     0
1002
}
1002
{
1000
OTHER
1070
     0
1002
}
1002
{
1000
REACTOR
1002
}
1001
GENIUS_GENOBJ-N-FIL_13
1002
{
1000
OWNER
1000
GEN
1002
}
  0
ARC
  5
5036
330
1F
100
AcDbEntity
  8
AM_0
100
AcDbCircle
 10
17412.60586972372
 20
5141.249565932461
 30
0.0
 40
2.0
100
AcDbArc
 50
0.0
 51
84.11148047959217
1001
GENIUS_GENODEF_13
1002
{
1000
HIER
1070
     0
1002
}
1002
{
1000
MANEDIT
1070
     0
1002
}
1002
{
1000
NOSEL
1070
     0
1002
}
1002
{
1000
BEHIND
1070
     0
1002
}
1002
{
1000
OTHER
1070
     0
1002
}
1002
{
1000
REACTOR
1002
}
1001
GENIUS_GENOBJ-N-FIL_13
1002
{
1000
OWNER
1000
GEN
1002
}
  0
ARC
  5
5037
102
{ACAD_REACTORS
330
50F2
102
}
330
1F
100
AcDbEntity
  8
AM_0
100
AcDbCircle
 10
17413.63180196336
 20
5068.196799871677
 30
0.0
 40
8.0
100
AcDbArc
 50
95.88851952040782
 51
180.0
  0
ARC
  5
5038
330
1F
100
AcDbEntity
  8
AM_0
100
AcDbCircle
 10
17412.60586972372
 20
5078.144033810801
 30
0.0
 40
2.0
100
AcDbArc
 50
275.8885195204078
 51
0.0
1001
GENIUS_GENODEF_13
1002
{
1000
HIER
1070
     0
1002
}
1002
{
1000
MANEDIT
1070
     0
1002
}
1002
{
1000
NOSEL
1070
     0
1002
}
1002
{
1000
BEHIND
1070
     0
1002
}
1002
{
1000
OTHER
1070
     0
1002
}
1002
{
1000
REACTOR
1002
}
1001
GENIUS_GENOBJ-N-FIL_13
1002
{
1000
OWNER
1000
GEN
1002
}
  0
ARC
  5
5039
330
1F
100
AcDbEntity
  8
AM_0
100
AcDbCircle
 10
17413.63180196337
 20
5234.196799871583
 30
0.0
 40
8.0
100
AcDbArc
 50
41.62120274358949
 51
318.3787972564105
  0
HATCH
  5
503A
330
1F
100
AcDbEntity
  8
AM_8
100
AcDbHatch
 10
0.0
 20
0.0
 30
0.0
210
0.0
220
0.0
230
1.0
  2
_U
 70
     0
 71
     0
 91
        1
 92
        1
 93
        2
 72
     3
 10
17413.63180196337
 20
5234.196799871583
 11
-5.656854249492844
 21
5.656854249492844
 40
0.9999999999998479
 50
176.6212027435733
 51
453.3787972564365
 73
     0
 72
     1
 10
17419.6122207498
 20
5239.510423036517
 11
17419.6122207498
 21
5228.883176706649
 97
        0
 75
     0
 76
     0
 52
315.0
 41
3.0
 77
     0
 78
     1
 53
225.0
 43
17312.72661166673
 44
1313.368037961092
 45
-2.121320343559641
 46
2.121320343559641
 79
     0
 98
        1
 10
6509.359053855653
 20
-9112.291807361128
1001
GENIUS_GENODEF_13
1002
{
1000
HIER
1070
     0
1002
}
1002
{
1000
MANEDIT
1070
     0
1002
}
1002
{
1000
NOSEL
1070
     0
1002
}
1002
{
1000
BEHIND
1070
     0
1002
}
1002
{
1000
OTHER
1070
     0
1002
}
1002
{
1000
REACTOR
1002
}
1001
GENIUS_GENOBJ-N-HTC_13
1002
{
1000
OWNER
1000
GEN
1002
}
1001
GENIUS_GENHATCH_13
1002
{
1000
DATA
1040
-45.0
1042
2.5
1000
_U
1070
     0
1011
12317.91974315179
1021
-5187.148908315432
1031
0.0
1002
}
1002
{
1000
UCS
1010
0.0
1020
0.0
1030
0.0
1010
1.0
1020
0.0
1030
0.0
1010
0.0
1020
1.0
1030
0.0
1002
}
  0
HATCH
  5
503B
330
1F
100
AcDbEntity
  8
AM_8
100
AcDbHatch
 10
0.0
 20
0.0
 30
0.0
210
0.0
220
0.0
230
1.0
  2
_U
 70
     0
 71
     0
 91
        1
 92
        1
 93
        2
 72
     1
 10
17419.6122207498
 20
5239.51042303652
 11
17419.6122207498
 21
5228.883176706649
 72
     3
 10
17413.63180196337
 20
5234.196799871583
 11
-5.656854249492352
 21
5.656854249492352
 40
0.9999999999999998
 50
176.6212027435775
 51
453.3787972564223
 73
     0
 97
        0
 75
     0
 76
     0
 52
45.0
 41
3.0
 77
     0
 78
     1
 53
135.0
 43
17312.72661166673
 44
1313.368037961092
 45
2.121320343559641
 46
2.121320343559641
 79
     0
 98
        1
 10
6509.359053855653
 20
-9112.291807361128
1001
GENIUS_GENOBJ-N-HTC_13
1002
{
1000
OWNER
1000
GEN
1002
}
1001
GENIUS_GENODEF_13
1002
{
1000
HIER
1070
     0
1002
}
1002
{
1000
MANEDIT
1070
     0
1002
}
1002
{
1000
NOSEL
1070
     0
1002
}
1002
{
1000
BEHIND
1070
     0
1002
}
1002
{
1000
OTHER
1070
     0
1002
}
1002
{
1000
REACTOR
1002
}
1001
GENIUS_GENHATCH_13
1002
{
1000
DATA
1040
45.0
1042
2.5
1000
_U
1070
     0
1011
12314.40983866186
1021
-5187.619304838754
1031
0.0
1002
}
1002
{
1000
UCS
1010
0.0
1020
0.0
1030
0.0
1010
1.0
1020
0.0
1030
0.0
1010
0.0
1020
1.0
1030
0.0
1002
}
  0
ARC
  5
503C
330
1F
100
AcDbEntity
  8
AM_0
100
AcDbCircle
 10
17404.60586972371
 20
5725.338935495408
 30
0.0
 40
2.0
100
AcDbArc
 50
314.9999999999447
 51
0.0
1001
GENIUS_GENODEF_13
1002
{
1000
HIER
1070
     0
1002
}
1002
{
1000
MANEDIT
1070
     0
1002
}
1002
{
1000
NOSEL
1070
     0
1002
}
1002
{
1000
BEHIND
1070
     0
1002
}
1002
{
1000
OTHER
1070
     0
1002
}
1002
{
1000
REACTOR
1002
}
1001
GENIUS_GENOBJ-N-FIL_13
1002
{
1000
OWNER
1000
GEN
1002
}
  0
ARC
  5
503D
330
1F
100
AcDbEntity
  8
AM_0
100
AcDbCircle
 10
17404.60586972371
 20
5711.054664247948
 30
0.0
 40
2.0
100
AcDbArc
 50
0.0
 51
45.00000000005528
1001
GENIUS_GENOBJ-N-FIL_13
1002
{
1000
OWNER
1000
GEN
1002
}
1001
GENIUS_GENODEF_13
1002
{
1000
HIER
1070
     0
1002
}
1002
{
1000
MANEDIT
1070
     0
1002
}
1002
{
1000
NOSEL
1070
     0
1002
}
1002
{
1000
BEHIND
1070
     0
1002
}
1002
{
1000
OTHER
1070
     0
1002
}
1002
{
1000
REACTOR
1002
}
  0
ARC
  5
503E
330
1F
100
AcDbEntity
  8
AM_0
100
AcDbCircle
 10
17412.60586972372
 20
5722.02522699643
 30
0.0
 40
2.0
100
AcDbArc
 50
314.9999999999447
 51
0.0
1001
GENIUS_GENOBJ-N-FIL_13
1002
{
1000
OWNER
1000
GEN
1002
}
1001
GENIUS_GENODEF_13
1002
{
1000
HIER
1070
     0
1002
}
1002
{
1000
MANEDIT
1070
     0
1002
}
1002
{
1000
NOSEL
1070
     0
1002
}
1002
{
1000
BEHIND
1070
     0
1002
}
1002
{
1000
OTHER
1070
     0
1002
}
1002
{
1000
REACTOR
1002
}
  0
ARC
  5
503F
330
1F
100
AcDbEntity
  8
AM_0
100
AcDbCircle
 10
17412.60586972372
 20
5714.368372746925
 30
0.0
 40
2.0
100
AcDbArc
 50
0.0
 51
45.00000000005528
1001
GENIUS_GENOBJ-N-FIL_13
1002
{
1000
OWNER
1000
GEN
1002
}
1001
GENIUS_GENODEF_13
1002
{
1000
HIER
1070
     0
1002
}
1002
{
1000
MANEDIT
1070
     0
1002
}
1002
{
1000
NOSEL
1070
     0
1002
}
1002
{
1000
BEHIND
1070
     0
1002
}
1002
{
1000
OTHER
1070
     0
1002
}
1002
{
1000
REACTOR
1002
}
  0
LINE
  5
5040
330
1F
100
AcDbEntity
  8
AM_0
100
AcDbLine
 10
17411.60586972371
 20
5718.196799871678
 30
0.0
 11
17414.02008328609
 21
5720.611013434059
 31
0.0
  0
ARC
  5
5041
330
1F
100
AcDbEntity
  8
AM_0
100
AcDbCircle
 10
17411.60586972371
 20
5718.196799871677
 30
0.0
 40
8.0
100
AcDbArc
 50
134.9999999999447
 51
225.0000000000552
1001
GENIUS_GENOBJ-N-FIL_13
1002
{
1000
OWNER
1000
GEN
1002
}
1001
GENIUS_GENODEF_13
1002
{
1000
HIER
1070
     0
1002
}
1002
{
1000
MANEDIT
1070
     0
1002
}
1002
{
1000
NOSEL
1070
     0
1002
}
1002
{
1000
BEHIND
1070
     0
1002
}
1002
{
1000
OTHER
1070
     0
1002
}
1002
{
1000
REACTOR
1002
}
  0
LINE
  5
5042
330
1F
100
AcDbEntity
  8
AM_0
100
AcDbLine
 10
17411.60586972371
 20
5718.196799871678
 30
0.0
 11
17414.02008328609
 21
5715.782586309298
 31
0.0
  0
LINE
  5
5043
330
1F
100
AcDbEntity
  8
anbauteile dünn
100
AcDbLine
 10
16831.79014264529
 20
5732.57445813461
 30
0.0
 11
16831.79014264528
 21
5523.043235828207
 31
0.0
  0
LINE
  5
5044
330
1F
100
AcDbEntity
  8
anbauteile dünn
100
AcDbLine
 10
16810.49014264529
 20
5732.57445813461
 30
0.0
 11
16810.49014264528
 21
5510.745675094469
 31
0.0
  0
LINE
  5
5045
330
1F
100
AcDbEntity
  8
anbauteile dünn
100
AcDbLine
 10
16790.04792340305
 20
5498.943354312135
 30
0.0
 11
16849.31303428015
 21
5533.16008203058
 31
0.0
  0
LINE
  5
5046
330
1F
100
AcDbEntity
  8
anbauteile dünn
100
AcDbLine
 10
16790.04792340305
 20
5468.943354312136
 30
0.0
 11
16849.31303428015
 21
5503.160082030579
 31
0.0
  0
LINE
  5
5047
330
1F
100
AcDbEntity
  8
anbauteile dünn
100
AcDbLine
 10
16831.79014264528
 20
5493.043235828206
 30
0.0
 11
16831.79014264528
 21
4637.624450944946
 31
0.0
  0
LINE
  5
5048
330
1F
100
AcDbEntity
  8
anbauteile dünn
100
AcDbLine
 10
16810.49014264528
 20
5480.745675094468
 30
0.0
 11
16810.49014264528
 21
4637.624450944946
 31
0.0
  0
ARC
  5
5049
330
1F
100
AcDbEntity
  8
anbauteile dünn
100
AcDbCircle
 10
16864.84694218873
 20
5983.01406023782
 30
0.0
 40
289.8760029299258
100
AcDbArc
 50
263.8214405773259
 51
284.4337194344152
  0
CIRCLE
  5
504A
330
1F
100
AcDbEntity
  8
anbauteile dünn
100
AcDbCircle
 10
17052.95571180193
 20
5707.402961088423
 30
0.0
 40
7.872840912074079
  0
POLYLINE
  5
504B
330
1F
100
AcDbEntity
  8
anbauteile dünn
100
AcDb2dPolyline
 66
     1
 10
0.0
 20
0.0
 30
0.0
  0
VERTEX
  5
504C
330
504B
100
AcDbEntity
  8
anbauteile dünn
100
AcDbVertex
100
AcDb2dVertex
 10
17089.60586972374
 20
5719.154419953014
 30
0.0
  0
VERTEX
  5
504D
330
504B
100
AcDbEntity
  8
anbauteile dünn
100
AcDbVertex
100
AcDb2dVertex
 10
17089.60586972374
 20
5719.154419953014
 30
0.0
  0
VERTEX
  5
504E
330
504B
100
AcDbEntity
  8
anbauteile dünn
100
AcDbVertex
100
AcDb2dVertex
 10
17067.59033224237
 20
5711.485831678208
 30
0.0
  0
VERTEX
  5
504F
330
504B
100
AcDbEntity
  8
anbauteile dünn
100
AcDbVertex
100
AcDb2dVertex
 10
17049.11633996021
 20
5706.331825800727
 30
0.0
  0
VERTEX
  5
5050
330
504B
100
AcDbEntity
  8
anbauteile dünn
100
AcDbVertex
100
AcDb2dVertex
 10
17031.67799413393
 20
5702.762766403459
 30
0.0
  0
VERTEX
  5
5051
330
504B
100
AcDbEntity
  8
anbauteile dünn
100
AcDbVertex
100
AcDb2dVertex
 10
17014.40843000203
 20
5704.196872426365
 30
0.0
  0
VERTEX
  5
5052
330
504B
100
AcDbEntity
  8
anbauteile dünn
100
AcDbVertex
100
AcDb2dVertex
 10
16996.02704087553
 20
5706.54353833072
 30
0.0
  0
VERTEX
  5
5053
330
504B
100
AcDbEntity
  8
anbauteile dünn
100
AcDbVertex
100
AcDb2dVertex
 10
16976.87930013366
 20
5709.185465774162
 30
0.0
  0
VERTEX
  5
5054
330
504B
100
AcDbEntity
  8
anbauteile dünn
100
AcDbVertex
100
AcDb2dVertex
 10
16958.95028917421
 20
5705.530608814204
 30
0.0
  0
VERTEX
  5
5055
330
504B
100
AcDbEntity
  8
anbauteile dünn
100
AcDbVertex
100
AcDb2dVertex
 10
16937.10139697554
 20
5702.287519208847
 30
0.0
  0
SEQEND
  5
5056
330
504B
100
AcDbEntity
  8
anbauteile dünn
  0
CIRCLE
  5
5057
330
1F
100
AcDbEntity
  8
anbauteile dünn
100
AcDbCircle
 10
17031.59240538694
 20
5703.042811260541
 30
0.0
 40
7.872840912074079
  0
CIRCLE
  5
5058
330
1F
100
AcDbEntity
  8
anbauteile dünn
100
AcDbCircle
 10
17070.9004121483
 20
5712.638819197898
 30
0.0
 40
7.872840912074079
  0
POLYLINE
  5
5059
330
1F
100
AcDbEntity
  8
anbauteile dünn
100
AcDb2dPolyline
 66
     1
 10
0.0
 20
0.0
 30
0.0
  0
VERTEX
  5
505A
330
5059
100
AcDbEntity
  8
anbauteile dünn
100
AcDbVertex
100
AcDb2dVertex
 10
17086.60586972373
 20
5735.958267530318
 30
0.0
  0
VERTEX
  5
505B
330
5059
100
AcDbEntity
  8
anbauteile dünn
100
AcDbVertex
100
AcDb2dVertex
 10
17083.83236703183
 20
5731.154419953025
 30
0.0
  0
SEQEND
  5
505C
330
5059
100
AcDbEntity
  8
anbauteile dünn
  0
ARC
  5
505D
330
1F
100
AcDbEntity
  8
anbauteile dünn
100
AcDbCircle
 10
17089.60586972373
 20
5743.154419953025
 30
0.0
 40
3.0
100
AcDbArc
 50
0.0
 51
180.0
  0
ARC
  5
505E
330
1F
100
AcDbEntity
  8
anbauteile dünn
100
AcDbCircle
 10
17089.60586972373
 20
5719.154419953025
 30
0.0
 40
3.0
100
AcDbArc
 50
180.0
 51
0.0
  0
CIRCLE
  5
505F
330
1F
100
AcDbEntity
  8
anbauteile dünn
100
AcDbCircle
 10
17089.60586972374
 20
5719.154419953014
 30
0.0
 40
7.872840912074079
  0
POLYLINE
  5
5060
330
1F
100
AcDbEntity
  8
anbauteile dünn
100
AcDb2dPolyline
 66
     1
 10
0.0
 20
0.0
 30
0.0
  0
VERTEX
  5
5061
330
5060
100
AcDbEntity
  8
anbauteile dünn
100
AcDbVertex
100
AcDb2dVertex
 10
17092.60586972373
 20
5726.350572375732
 30
0.0
  0
VERTEX
  5
5062
330
5060
100
AcDbEntity
  8
anbauteile dünn
100
AcDbVertex
100
AcDb2dVertex
 10
17095.37937241563
 20
5731.154419953025
 30
0.0
  0
VERTEX
  5
5063
330
5060
100
AcDbEntity
  8
anbauteile dünn
100
AcDbVertex
100
AcDb2dVertex
 10
17092.60586972373
 20
5735.958267530318
 30
0.0
  0
SEQEND
  5
5064
330
5060
100
AcDbEntity
  8
anbauteile dünn
  0
ARC
  5
5065
330
1F
100
AcDbEntity
  8
anbauteile dünn
100
AcDbCircle
 10
17089.60586972373
 20
5731.154419953025
 30
0.0
 40
5.0
100
AcDbArc
 50
306.8698976459586
 51
53.13010235404135
  0
ARC
  5
5066
330
1F
100
AcDbEntity
  8
anbauteile dünn
100
AcDbCircle
 10
17089.60586972373
 20
5731.154419953025
 30
0.0
 40
6.25
100
AcDbArc
 50
298.6854020140914
 51
61.31459798590856
  0
ARC
  5
5067
330
1F
100
AcDbEntity
  8
anbauteile dünn
100
AcDbCircle
 10
17089.60586972373
 20
5731.154419953025
 30
0.0
 40
2.299999999999876
100
AcDbArc
 50
244.2285382594315
 51
154.2285382594563
  0
CIRCLE
  5
5068
330
1F
100
AcDbEntity
  8
anbauteile dünn
100
AcDbCircle
 10
17089.60586972373
 20
5731.154419953025
 30
0.0
 40
3.0
  0
CIRCLE
  5
5069
330
1F
100
AcDbEntity
  8
anbauteile dünn
100
AcDbCircle
 10
17089.60586972373
 20
5731.154419953025
 30
0.0
 40
3.2
  0
ARC
  5
506A
330
1F
100
AcDbEntity
  8
anbauteile dünn
100
AcDbCircle
 10
17089.60586972373
 20
5731.154419953025
 30
0.0
 40
6.25
100
AcDbArc
 50
118.6854020140914
 51
241.3145979859086
  0
ARC
  5
506B
330
1F
100
AcDbEntity
  8
anbauteile dünn
100
AcDbCircle
 10
17089.60586972373
 20
5731.154419953025
 30
0.0
 40
5.0
100
AcDbArc
 50
126.8698976459587
 51
233.1301023540413
  0
POLYLINE
  5
506C
330
1F
100
AcDbEntity
  8
anbauteile dünn
100
AcDb2dPolyline
 66
     1
 10
0.0
 20
0.0
 30
0.0
  0
VERTEX
  5
506D
330
506C
100
AcDbEntity
  8
anbauteile dünn
100
AcDbVertex
100
AcDb2dVertex
 10
17083.83236703183
 20
5731.154419953025
 30
0.0
  0
VERTEX
  5
506E
330
506C
100
AcDbEntity
  8
anbauteile dünn
100
AcDbVertex
100
AcDb2dVertex
 10
17086.60586972373
 20
5726.350572375732
 30
0.0
  0
SEQEND
  5
506F
330
506C
100
AcDbEntity
  8
anbauteile dünn
  0
LINE
  5
5070
330
1F
100
AcDbEntity
  8
anbauteile dünn
100
AcDbLine
 10
17086.60586972373
 20
5743.154419953025
 30
0.0
 11
17086.60586972373
 21
5719.154419953025
 31
0.0
1001
ACAD
1000
ASC_BOUNDS
1002
{
1070
    19
1002
}
  0
LINE
  5
5071
330
1F
100
AcDbEntity
  8
anbauteile dünn
100
AcDbLine
 10
17092.60586972373
 20
5743.154419953025
 30
0.0
 11
17092.60586972373
 21
5719.154419953025
 31
0.0
1001
ACAD
1000
ASC_BOUNDS
1002
{
1070
    19
1002
}
  0
CIRCLE
  5
5072
330
1F
100
AcDbEntity
  8
anbauteile dünn
100
AcDbCircle
 10
17014.40843000203
 20
5704.196872426365
 30
0.0
 40
7.872840912074079
  0
CIRCLE
  5
5073
330
1F
100
AcDbEntity
  8
anbauteile dünn
100
AcDbCircle
 10
16996.02704087553
 20
5706.54353833072
 30
0.0
 40
7.872840912074079
  0
CIRCLE
  5
5074
330
1F
100
AcDbEntity
  8
anbauteile dünn
100
AcDbCircle
 10
16958.95028917421
 20
5705.530608814204
 30
0.0
 40
7.872840912074079
  0
CIRCLE
  5
5075
330
1F
100
AcDbEntity
  8
anbauteile dünn
100
AcDbCircle
 10
16976.87930013366
 20
5709.185465774162
 30
0.0
 40
7.872840912074079
  0
CIRCLE
  5
5076
330
1F
100
AcDbEntity
  8
anbauteile dünn
100
AcDbCircle
 10
16937.10139697554
 20
5702.287519208847
 30
0.0
 40
7.872840912074079
  0
ARC
  5
5077
330
1F
100
AcDbEntity
  8
anbauteile dünn
100
AcDbCircle
 10
16833.6483624707
 20
5694.821857535822
 30
0.0
 40
1.5
100
AcDbArc
 50
230.0325266652224
 51
270.0
  0
ARC
  5
5078
330
1F
100
AcDbEntity
  8
anbauteile dünn
100
AcDbCircle
 10
16833.6483624707
 20
5694.821857535822
 30
0.0
 40
1.5
100
AcDbArc
 50
90.0
 51
129.2102446588927
  0
ARC
  5
5079
330
1F
100
AcDbEntity
  8
anbauteile dünn
100
AcDbCircle
 10
16833.6483624707
 20
5694.821857535822
 30
0.0
 40
1.5
100
AcDbArc
 50
148.1911306009983
 51
198.9027478554296
  0
ARC
  5
507A
330
1F
100
AcDbEntity
  8
anbauteile dünn
100
AcDbCircle
 10
16833.6483624707
 20
5694.821857535822
 30
0.0
 40
1.5
100
AcDbArc
 50
270.0
 51
90.0
  0
ARC
  5
507B
330
1F
100
AcDbEntity
  8
anbauteile dünn
100
AcDbCircle
 10
16808.63192281987
 20
5694.821857535822
 30
0.0
 40
1.5
100
AcDbArc
 50
270.0
 51
309.9674733347776
  0
ARC
  5
507C
330
1F
100
AcDbEntity
  8
anbauteile dünn
100
AcDbCircle
 10
16808.63192281987
 20
5694.821857535822
 30
0.0
 40
1.5
100
AcDbArc
 50
50.78975534110725
 51
90.0
  0
ARC
  5
507D
330
1F
100
AcDbEntity
  8
anbauteile dünn
100
AcDbCircle
 10
16808.63192281987
 20
5694.821857535822
 30
0.0
 40
1.5
100
AcDbArc
 50
90.0
 51
270.0
  0
ARC
  5
507E
330
1F
100
AcDbEntity
  8
anbauteile dünn
100
AcDbCircle
 10
16808.63192281987
 20
5694.821857535822
 30
0.0
 40
1.5
100
AcDbArc
 50
341.0972521445704
 51
31.80886939900162
  0
LINE
  5
507F
330
1F
100
AcDbEntity
  8
anbauteile dünn
100
AcDbLine
 10
16808.63192281987
 20
5696.321857535821
 30
0.0
 11
16833.6932949692
 21
5696.321857535821
 31
0.0
  0
LINE
  5
5080
330
1F
100
AcDbEntity
  8
anbauteile dünn
100
AcDbLine
 10
16808.63192281987
 20
5693.321857535821
 30
0.0
 11
16833.6483624707
 21
5693.321857535821
 31
0.0
  0
LINE
  5
5081
330
1F
100
AcDbEntity
  8
anbauteile dünn
100
AcDbLine
 10
16946.14014264528
 20
5753.87445813461
 30
0.0
 11
16796.14014264529
 21
5753.87445813461
 31
0.0
  0
LINE
  5
5082
330
1F
100
AcDbEntity
  8
anbauteile dünn
100
AcDbLine
 10
16946.14014264528
 20
5732.57445813461
 30
0.0
 11
16796.14014264529
 21
5732.57445813461
 31
0.0
  0
LINE
  5
5083
330
1F
100
AcDbEntity
  8
anbauteile dünn
100
AcDbLine
 10
16796.14014264529
 20
5753.87445813461
 30
0.0
 11
16796.14014264529
 21
5732.57445813461
 31
0.0
  0
LINE
  5
5084
330
1F
100
AcDbEntity
  8
anbauteile dünn
100
AcDbLine
 10
16946.14014264528
 20
5753.87445813461
 30
0.0
 11
16946.14014264528
 21
5732.57445813461
 31
0.0
  0
LINE
  5
5085
330
1F
100
AcDbEntity
  8
anbauteile dünn
100
AcDbLine
 10
17025.59987533606
 20
5678.747362464732
 30
0.0
 11
17025.59987533606
 21
5293.741430036544
 31
0.0
  0
LINE
  5
5086
330
1F
100
AcDbEntity
  8
anbauteile dünn
100
AcDbLine
 10
17040.59987533606
 20
5678.747362464734
 30
0.0
 11
17040.59987533606
 21
5302.307369542615
 31
0.0
  0
LINE
  5
5087
330
1F
100
AcDbEntity
  8
anbauteile dünn
100
AcDbLine
 10
17020.59987533606
 20
4719.196799871677
 30
0.0
 11
17023.59987533606
 21
4725.196799871677
 31
0.0
  0
LINE
  5
5088
330
1F
100
AcDbEntity
  8
anbauteile dünn
100
AcDbLine
 10
17025.59987533606
 20
4643.196799871673
 30
0.0
 11
17040.59987533606
 21
4643.196799871673
 31
0.0
  0
LINE
  5
508C
330
1F
100
AcDbEntity
  8
anbauteile dünn
100
AcDbLine
 10
17020.59987533606
 20
4719.196799871677
 30
0.0
 11
17020.59987533606
 21
4573.196799871674
 31
0.0
  0
LINE
  5
508D
330
1F
100
AcDbEntity
  8
anbauteile dünn
100
AcDbLine
 10
17025.59987533606
 20
4573.196799871674
 30
0.0
 11
17020.59987533606
 21
4573.196799871674
 31
0.0
  0
LINE
  5
508E
330
1F
100
AcDbEntity
  8
anbauteile dünn
100
AcDbLine
 10
17025.59987533606
 20
4645.196799871677
 30
0.0
 11
17020.59987533606
 21
4645.196799871677
 31
0.0
  0
LINE
  5
508F
330
1F
100
AcDbEntity
  8
anbauteile dünn
100
AcDbLine
 10
17023.59987533606
 20
4725.196799871677
 30
0.0
 11
17025.59987533606
 21
4725.196799871677
 31
0.0
  0
LINE
  5
5090
330
1F
100
AcDbEntity
  8
anbauteile dünn
100
AcDbLine
 10
17025.59987533606
 20
5678.747362464734
 30
0.0
 11
17040.59987533606
 21
5678.747362464734
 31
0.0
  0
LINE
  5
5093
330
1F
100
AcDbEntity
  8
anbauteile dünn
100
AcDbLine
 10
17003.06515032472
 20
5280.872690621007
 30
0.0
 11
17062.98279454961
 21
5315.08941833945
 31
0.0
  0
LINE
  5
5094
330
1F
100
AcDbEntity
  8
anbauteile dünn
100
AcDbLine
 10
17003.06515032472
 20
5250.872690621007
 30
0.0
 11
17062.98279454961
 21
5285.08941833945
 31
0.0
  0
LINE
  5
5095
330
1F
100
AcDbEntity
  8
anbauteile dünn
100
AcDbLine
 10
17040.59987533606
 20
5272.307369542613
 30
0.0
 11
17040.59987533606
 21
4643.196799871673
 31
0.0
  0
LINE
  5
5096
330
1F
100
AcDbEntity
  8
anbauteile dünn
100
AcDbLine
 10
17025.59987533606
 20
5263.741430036546
 30
0.0
 11
17025.59987533606
 21
4573.196799871674
 31
0.0
  0
LINE
  5
5097
330
1F
100
AcDbEntity
  8
anbauteile dünn
100
AcDbLine
 10
16836.13379161921
 20
4637.624450944943
 30
0.0
 11
16836.13379161921
 21
4626.624450944944
 31
0.0
  0
ARC
  5
5098
330
1F
100
AcDbEntity
  8
anbauteile dünn
100
AcDbCircle
 10
16832.13379161921
 20
4626.624450944944
 30
0.0
 40
4.0
100
AcDbArc
 50
270.0
 51
0.0
1001
GENIUS_GENODEF_13
1002
{
1000
HIER
1070
     0
1002
}
1002
{
1000
MANEDIT
1070
     0
1002
}
1002
{
1000
NOSEL
1070
     0
1002
}
1002
{
1000
BEHIND
1070
     0
1002
}
1002
{
1000
REACTOR
1002
}
1001
GENIUS_GENOBJ-N-FIL_13
1002
{
1000
OWNER
1000
GEN
1002
}
  0
LINE
  5
5099
330
1F
100
AcDbEntity
  8
anbauteile dünn
100
AcDbLine
 10
16733.92154829046
 20
4622.624450944943
 30
0.0
 11
16832.13379161921
 21
4622.624450944943
 31
0.0
  0
LINE
  5
509A
330
1F
100
AcDbEntity
  8
anbauteile dünn
100
AcDbLine
 10
16729.92154829046
 20
4637.624450944943
 30
0.0
 11
16729.92154829046
 21
4626.624450944944
 31
0.0
  0
LINE
  5
509B
330
1F
100
AcDbEntity
  8
anbauteile dünn
100
AcDbLine
 10
16729.92154829046
 20
4637.624450944943
 30
0.0
 11
16836.13379161921
 21
4637.624450944943
 31
0.0
  0
ARC
  5
509C
330
1F
100
AcDbEntity
  8
anbauteile dünn
100
AcDbCircle
 10
16733.92154829046
 20
4626.624450944944
 30
0.0
 40
4.0
100
AcDbArc
 50
180.0
 51
270.0
1001
GENIUS_GENODEF_13
1002
{
1000
HIER
1070
     0
1002
}
1002
{
1000
MANEDIT
1070
     0
1002
}
1002
{
1000
NOSEL
1070
     0
1002
}
1002
{
1000
BEHIND
1070
     0
1002
}
1002
{
1000
REACTOR
1002
}
1001
GENIUS_GENOBJ-N-FIL_13
1002
{
1000
OWNER
1000
GEN
1002
}
  0
LINE
  5
509D
330
1F
100
AcDbEntity
  8
AM_0
100
AcDbLine
 10
16681.61222074978
 20
5818.196799871677
 30
0.0
 11
17497.59951869765
 21
5818.196799871675
 31
0.0
  0
LINE
  5
509E
330
1F
100
AcDbEntity
  8
AM_0
100
AcDbLine
 10
16691.61222074978
 20
5768.196799871674
 30
0.0
 11
17089.61222074978
 21
5768.19679987166
 31
0.0
  0
ARC
  5
509F
330
1F
100
AcDbEntity
  8
AM_0
100
AcDbCircle
 10
16691.61222074978
 20
5770.196799871674
 30
0.0
 40
2.0
100
AcDbArc
 50
180.0
 51
270.0
1001
GENIUS_GENODEF_13
1002
{
1000
HIER
1070
     0
1002
}
1002
{
1000
MANEDIT
1070
     0
1002
}
1002
{
1000
NOSEL
1070
     0
1002
}
1002
{
1000
BEHIND
1070
     0
1002
}
1002
{
1000
OTHER
1070
     0
1002
}
1002
{
1000
REACTOR
1002
}
1001
GENIUS_GENOBJ-N-FIL_13
1002
{
1000
OWNER
1000
GEN
1002
}
  0
LINE
  5
50A0
330
1F
100
AcDbEntity
  8
AM_0
100
AcDbLine
 10
16691.61222074978
 20
5760.196799871674
 30
0.0
 11
16754.61222074978
 21
5760.19679987167
 31
0.0
  0
ARC
  5
50A1
330
1F
100
AcDbEntity
  8
AM_0
100
AcDbCircle
 10
16691.61222074978
 20
5770.196799871673
 30
0.0
 40
10.0
100
AcDbArc
 50
180.0
 51
270.0
1001
GENIUS_GENODEF_13
1002
{
1000
HIER
1070
     0
1002
}
1002
{
1000
MANEDIT
1070
     0
1002
}
1002
{
1000
NOSEL
1070
     0
1002
}
1002
{
1000
BEHIND
1070
     0
1002
}
1002
{
1000
OTHER
1070
     0
1002
}
1002
{
1000
REACTOR
1002
}
1001
GENIUS_GENOBJ-N-FIL_13
1002
{
1000
OWNER
1000
GEN
1002
}
  0
ARC
  5
50A2
330
1F
100
AcDbEntity
  8
AM_0
100
AcDbCircle
 10
16754.61222074978
 20
5750.19679987167
 30
0.0
 40
10.0
100
AcDbArc
 50
0.0
 51
90.0
1001
GENIUS_GENOBJ-N-FIL_13
1002
{
1000
OWNER
1000
GEN
1002
}
1001
GENIUS_GENODEF_13
1002
{
1000
HIER
1070
     0
1002
}
1002
{
1000
MANEDIT
1070
     0
1002
}
1002
{
1000
NOSEL
1070
     0
1002
}
1002
{
1000
BEHIND
1070
     0
1002
}
1002
{
1000
OTHER
1070
     0
1002
}
1002
{
1000
REACTOR
1002
}
  0
ARC
  5
50A3
330
1F
100
AcDbEntity
  8
AM_0
100
AcDbCircle
 10
16754.61222074979
 20
5750.196799871673
 30
0.0
 40
18.0
100
AcDbArc
 50
0.0
 51
90.0
1001
GENIUS_GENOBJ-N-FIL_13
1002
{
1000
OWNER
1000
GEN
1002
}
1001
GENIUS_GENODEF_13
1002
{
1000
HIER
1070
     0
1002
}
1002
{
1000
MANEDIT
1070
     0
1002
}
1002
{
1000
NOSEL
1070
     0
1002
}
1002
{
1000
BEHIND
1070
     0
1002
}
1002
{
1000
OTHER
1070
     0
1002
}
1002
{
1000
REACTOR
1002
}
  0
LINE
  5
50A4
102
{ACAD_REACTORS
330
50F5
102
}
330
1F
100
AcDbEntity
  8
AM_0
100
AcDbLine
 10
16681.61222074978
 20
5770.196799871673
 30
0.0
 11
16681.61222074978
 21
5818.196799871677
 31
0.0
  0
LINE
  5
50A5
330
1F
100
AcDbEntity
  8
AM_0
100
AcDbLine
 10
16689.61222074978
 20
5770.196799871674
 30
0.0
 11
16689.61222074978
 21
5818.196799871677
 31
0.0
  0
LINE
  5
50A6
330
1F
100
AcDbEntity
  8
AM_0
100
AcDbLine
 10
16772.60586972372
 20
5750.196799871673
 30
0.0
 11
16772.60586972372
 21
5725.338935495408
 31
0.0
  0
LINE
  5
50A7
330
1F
100
AcDbEntity
  8
AM_0
100
AcDbLine
 10
16772.60586972372
 20
5711.054664247948
 30
0.0
 11
16772.60586972372
 21
5667.911001973987
 31
0.0
  0
LINE
  5
50A8
330
1F
100
AcDbEntity
  8
AM_0
100
AcDbLine
 10
16772.60586972372
 20
5630.482597769178
 30
0.0
 11
16772.60586972372
 21
5584.911001973988
 31
0.0
  0
LINE
  5
50A9
330
1F
100
AcDbEntity
  8
AM_0
100
AcDbLine
 10
16772.60586972371
 20
5547.482597769178
 30
0.0
 11
16772.60586972371
 21
5501.911001973986
 31
0.0
  0
LINE
  5
50AA
330
1F
100
AcDbEntity
  8
AM_0
100
AcDbLine
 10
16772.60586972371
 20
5464.482597769178
 30
0.0
 11
16772.60586972371
 21
5418.911001973986
 31
0.0
  0
LINE
  5
50AB
330
1F
100
AcDbEntity
  8
AM_0
100
AcDbLine
 10
16772.60586972371
 20
5381.482597769178
 30
0.0
 11
16772.60586972371
 21
5335.911001973986
 31
0.0
  0
LINE
  5
50AC
330
1F
100
AcDbEntity
  8
AM_0
100
AcDbLine
 10
16772.60586972371
 20
5298.482597769178
 30
0.0
 11
16772.60586972371
 21
5252.911001973988
 31
0.0
  0
LINE
  5
50AD
330
1F
100
AcDbEntity
  8
AM_0
100
AcDbLine
 10
16772.60586972371
 20
5215.482597769177
 30
0.0
 11
16772.60586972371
 21
5169.911001973988
 31
0.0
  0
LINE
  5
50AE
330
1F
100
AcDbEntity
  8
AM_0
100
AcDbLine
 10
16772.60586972371
 20
5132.482597769178
 30
0.0
 11
16772.60586972371
 21
5086.911001974082
 31
0.0
  0
LINE
  5
50AF
330
1F
100
AcDbEntity
  8
AM_0
100
AcDbLine
 10
16764.60586972371
 20
5750.19679987167
 30
0.0
 11
16764.60586972371
 21
5722.02522699643
 31
0.0
  0
LINE
  5
50B0
330
1F
100
AcDbEntity
  8
AM_0
100
AcDbLine
 10
16764.60586972371
 20
5714.368372746925
 30
0.0
 11
16764.60586972371
 21
5659.144033810708
 31
0.0
  0
LINE
  5
50B1
330
1F
100
AcDbEntity
  8
AM_0
100
AcDbLine
 10
16764.60586972371
 20
5639.249565932459
 30
0.0
 11
16764.60586972371
 21
5576.144033810708
 31
0.0
  0
LINE
  5
50B2
330
1F
100
AcDbEntity
  8
AM_0
100
AcDbLine
 10
16764.60586972371
 20
5556.24956593246
 30
0.0
 11
16764.60586972371
 21
5493.144033810708
 31
0.0
  0
LINE
  5
50B3
330
1F
100
AcDbEntity
  8
AM_0
100
AcDbLine
 10
16764.60586972371
 20
5473.24956593246
 30
0.0
 11
16764.60586972371
 21
5410.144033810706
 31
0.0
  0
LINE
  5
50B4
330
1F
100
AcDbEntity
  8
AM_0
100
AcDbLine
 10
16764.60586972371
 20
5390.249565932459
 30
0.0
 11
16764.60586972371
 21
5327.144033810707
 31
0.0
  0
LINE
  5
50B5
330
1F
100
AcDbEntity
  8
AM_0
100
AcDbLine
 10
16764.60586972371
 20
5307.249565932459
 30
0.0
 11
16764.60586972371
 21
5244.144033810708
 31
0.0
  0
LINE
  5
50B6
330
1F
100
AcDbEntity
  8
AM_0
100
AcDbLine
 10
16764.60586972371
 20
5224.24956593246
 30
0.0
 11
16764.60586972371
 21
5161.144033810708
 31
0.0
  0
LINE
  5
50B7
330
1F
100
AcDbEntity
  8
AM_0
100
AcDbLine
 10
16764.60586972371
 20
5141.249565932461
 30
0.0
 11
16764.60586972371
 21
5078.144033810801
 31
0.0
  0
ARC
  5
50B8
330
1F
100
AcDbEntity
  8
AM_0
100
AcDbCircle
 10
16765.57993748407
 20
5068.196799871675
 30
0.0
 40
16.0
100
AcDbArc
 50
0.0
 51
51.23846197013479
  0
ARC
  5
50B9
330
1F
100
AcDbEntity
  8
AM_0
100
AcDbCircle
 10
16780.60586972371
 20
5086.911001974082
 30
0.0
 40
8.000000000000001
100
AcDbArc
 50
180.0
 51
231.2384619701348
1001
GENIUS_GENOBJ-N-FIL_13
1002
{
1000
OWNER
1000
GEN
1002
}
1001
GENIUS_GENODEF_13
1002
{
1000
HIER
1070
     0
1002
}
1002
{
1000
MANEDIT
1070
     0
1002
}
1002
{
1000
NOSEL
1070
     0
1002
}
1002
{
1000
BEHIND
1070
     0
1002
}
1002
{
1000
OTHER
1070
     0
1002
}
1002
{
1000
REACTOR
1002
}
  0
ARC
  5
50BA
330
1F
100
AcDbEntity
  8
AM_0
100
AcDbCircle
 10
16765.57993748407
 20
5234.196799871583
 30
0.0
 40
15.99999999999887
100
AcDbArc
 50
308.7615380297767
 51
51.23846197022329
  0
ARC
  5
50BB
330
1F
100
AcDbEntity
  8
AM_0
100
AcDbCircle
 10
16780.60586972371
 20
5252.911001973988
 30
0.0
 40
8.000000000000001
100
AcDbArc
 50
180.0
 51
231.2384619702233
1001
GENIUS_GENOBJ-N-FIL_13
1002
{
1000
OWNER
1000
GEN
1002
}
1001
GENIUS_GENODEF_13
1002
{
1000
HIER
1070
     0
1002
}
1002
{
1000
MANEDIT
1070
     0
1002
}
1002
{
1000
NOSEL
1070
     0
1002
}
1002
{
1000
BEHIND
1070
     0
1002
}
1002
{
1000
OTHER
1070
     0
1002
}
1002
{
1000
REACTOR
1002
}
  0
ARC
  5
50BC
330
1F
100
AcDbEntity
  8
AM_0
100
AcDbCircle
 10
16780.60586972371
 20
5215.482597769177
 30
0.0
 40
8.000000000000001
100
AcDbArc
 50
128.7615380297767
 51
180.0
1001
GENIUS_GENODEF_13
1002
{
1000
HIER
1070
     0
1002
}
1002
{
1000
MANEDIT
1070
     0
1002
}
1002
{
1000
NOSEL
1070
     0
1002
}
1002
{
1000
BEHIND
1070
     0
1002
}
1002
{
1000
OTHER
1070
     0
1002
}
1002
{
1000
REACTOR
1002
}
1001
GENIUS_GENOBJ-N-FIL_13
1002
{
1000
OWNER
1000
GEN
1002
}
  0
ARC
  5
50BD
330
1F
100
AcDbEntity
  8
AM_0
100
AcDbCircle
 10
16765.57993748407
 20
5400.196799871583
 30
0.0
 40
15.99999999999887
100
AcDbArc
 50
308.7615380297767
 51
51.23846197022329
  0
ARC
  5
50BE
330
1F
100
AcDbEntity
  8
AM_0
100
AcDbCircle
 10
16780.60586972371
 20
5418.911001973986
 30
0.0
 40
8.000000000000001
100
AcDbArc
 50
180.0
 51
231.2384619702233
1001
GENIUS_GENOBJ-N-FIL_13
1002
{
1000
OWNER
1000
GEN
1002
}
1001
GENIUS_GENODEF_13
1002
{
1000
HIER
1070
     0
1002
}
1002
{
1000
MANEDIT
1070
     0
1002
}
1002
{
1000
NOSEL
1070
     0
1002
}
1002
{
1000
BEHIND
1070
     0
1002
}
1002
{
1000
OTHER
1070
     0
1002
}
1002
{
1000
REACTOR
1002
}
  0
ARC
  5
50BF
330
1F
100
AcDbEntity
  8
AM_0
100
AcDbCircle
 10
16780.60586972371
 20
5381.482597769178
 30
0.0
 40
8.000000000000001
100
AcDbArc
 50
128.7615380297767
 51
180.0
1001
GENIUS_GENODEF_13
1002
{
1000
HIER
1070
     0
1002
}
1002
{
1000
MANEDIT
1070
     0
1002
}
1002
{
1000
NOSEL
1070
     0
1002
}
1002
{
1000
BEHIND
1070
     0
1002
}
1002
{
1000
OTHER
1070
     0
1002
}
1002
{
1000
REACTOR
1002
}
1001
GENIUS_GENOBJ-N-FIL_13
1002
{
1000
OWNER
1000
GEN
1002
}
  0
ARC
  5
50C0
330
1F
100
AcDbEntity
  8
AM_0
100
AcDbCircle
 10
16765.57993748407
 20
5566.196799871583
 30
0.0
 40
15.99999999999887
100
AcDbArc
 50
308.7615380297767
 51
51.23846197022329
  0
ARC
  5
50C1
330
1F
100
AcDbEntity
  8
AM_0
100
AcDbCircle
 10
16780.60586972371
 20
5584.911001973988
 30
0.0
 40
8.000000000000001
100
AcDbArc
 50
180.0
 51
231.2384619702233
1001
GENIUS_GENOBJ-N-FIL_13
1002
{
1000
OWNER
1000
GEN
1002
}
1001
GENIUS_GENODEF_13
1002
{
1000
HIER
1070
     0
1002
}
1002
{
1000
MANEDIT
1070
     0
1002
}
1002
{
1000
NOSEL
1070
     0
1002
}
1002
{
1000
BEHIND
1070
     0
1002
}
1002
{
1000
OTHER
1070
     0
1002
}
1002
{
1000
REACTOR
1002
}
  0
ARC
  5
50C2
330
1F
100
AcDbEntity
  8
AM_0
100
AcDbCircle
 10
16780.60586972371
 20
5547.482597769178
 30
0.0
 40
8.000000000000001
100
AcDbArc
 50
128.7615380297767
 51
180.0
1001
GENIUS_GENODEF_13
1002
{
1000
HIER
1070
     0
1002
}
1002
{
1000
MANEDIT
1070
     0
1002
}
1002
{
1000
NOSEL
1070
     0
1002
}
1002
{
1000
BEHIND
1070
     0
1002
}
1002
{
1000
OTHER
1070
     0
1002
}
1002
{
1000
REACTOR
1002
}
1001
GENIUS_GENOBJ-N-FIL_13
1002
{
1000
OWNER
1000
GEN
1002
}
  0
ARC
  5
50C3
330
1F
100
AcDbEntity
  8
AM_0
100
AcDbCircle
 10
16765.57993748407
 20
5317.196799871584
 30
0.0
 40
15.99999999999887
100
AcDbArc
 50
308.7615380297767
 51
51.23846197022329
  0
ARC
  5
50C4
330
1F
100
AcDbEntity
  8
AM_0
100
AcDbCircle
 10
16780.60586972371
 20
5335.911001973986
 30
0.0
 40
8.000000000000001
100
AcDbArc
 50
180.0
 51
231.2384619702233
1001
GENIUS_GENOBJ-N-FIL_13
1002
{
1000
OWNER
1000
GEN
1002
}
1001
GENIUS_GENODEF_13
1002
{
1000
HIER
1070
     0
1002
}
1002
{
1000
MANEDIT
1070
     0
1002
}
1002
{
1000
NOSEL
1070
     0
1002
}
1002
{
1000
BEHIND
1070
     0
1002
}
1002
{
1000
OTHER
1070
     0
1002
}
1002
{
1000
REACTOR
1002
}
  0
ARC
  5
50C5
330
1F
100
AcDbEntity
  8
AM_0
100
AcDbCircle
 10
16780.60586972371
 20
5298.482597769178
 30
0.0
 40
8.000000000000001
100
AcDbArc
 50
128.7615380297767
 51
180.0
1001
GENIUS_GENODEF_13
1002
{
1000
HIER
1070
     0
1002
}
1002
{
1000
MANEDIT
1070
     0
1002
}
1002
{
1000
NOSEL
1070
     0
1002
}
1002
{
1000
BEHIND
1070
     0
1002
}
1002
{
1000
OTHER
1070
     0
1002
}
1002
{
1000
REACTOR
1002
}
1001
GENIUS_GENOBJ-N-FIL_13
1002
{
1000
OWNER
1000
GEN
1002
}
  0
ARC
  5
50C6
330
1F
100
AcDbEntity
  8
AM_0
100
AcDbCircle
 10
16765.57993748407
 20
5483.196799871581
 30
0.0
 40
15.99999999999887
100
AcDbArc
 50
308.7615380297767
 51
51.23846197022329
  0
ARC
  5
50C7
330
1F
100
AcDbEntity
  8
AM_0
100
AcDbCircle
 10
16780.60586972371
 20
5501.911001973986
 30
0.0
 40
8.000000000000001
100
AcDbArc
 50
180.0
 51
231.2384619702233
1001
GENIUS_GENOBJ-N-FIL_13
1002
{
1000
OWNER
1000
GEN
1002
}
1001
GENIUS_GENODEF_13
1002
{
1000
HIER
1070
     0
1002
}
1002
{
1000
MANEDIT
1070
     0
1002
}
1002
{
1000
NOSEL
1070
     0
1002
}
1002
{
1000
BEHIND
1070
     0
1002
}
1002
{
1000
OTHER
1070
     0
1002
}
1002
{
1000
REACTOR
1002
}
  0
ARC
  5
50C8
330
1F
100
AcDbEntity
  8
AM_0
100
AcDbCircle
 10
16780.60586972371
 20
5464.482597769178
 30
0.0
 40
8.000000000000001
100
AcDbArc
 50
128.7615380297767
 51
180.0
1001
GENIUS_GENODEF_13
1002
{
1000
HIER
1070
     0
1002
}
1002
{
1000
MANEDIT
1070
     0
1002
}
1002
{
1000
NOSEL
1070
     0
1002
}
1002
{
1000
BEHIND
1070
     0
1002
}
1002
{
1000
OTHER
1070
     0
1002
}
1002
{
1000
REACTOR
1002
}
1001
GENIUS_GENOBJ-N-FIL_13
1002
{
1000
OWNER
1000
GEN
1002
}
  0
ARC
  5
50C9
330
1F
100
AcDbEntity
  8
AM_0
100
AcDbCircle
 10
16765.57993748407
 20
5649.196799871583
 30
0.0
 40
15.99999999999887
100
AcDbArc
 50
308.7615380297767
 51
51.23846197022329
  0
ARC
  5
50CA
330
1F
100
AcDbEntity
  8
AM_0
100
AcDbCircle
 10
16780.60586972371
 20
5667.911001973987
 30
0.0
 40
8.000000000000001
100
AcDbArc
 50
180.0
 51
231.2384619702233
1001
GENIUS_GENOBJ-N-FIL_13
1002
{
1000
OWNER
1000
GEN
1002
}
1001
GENIUS_GENODEF_13
1002
{
1000
HIER
1070
     0
1002
}
1002
{
1000
MANEDIT
1070
     0
1002
}
1002
{
1000
NOSEL
1070
     0
1002
}
1002
{
1000
BEHIND
1070
     0
1002
}
1002
{
1000
OTHER
1070
     0
1002
}
1002
{
1000
REACTOR
1002
}
  0
ARC
  5
50CB
330
1F
100
AcDbEntity
  8
AM_0
100
AcDbCircle
 10
16780.60586972371
 20
5630.482597769178
 30
0.0
 40
8.000000000000001
100
AcDbArc
 50
128.7615380297767
 51
180.0
1001
GENIUS_GENODEF_13
1002
{
1000
HIER
1070
     0
1002
}
1002
{
1000
MANEDIT
1070
     0
1002
}
1002
{
1000
NOSEL
1070
     0
1002
}
1002
{
1000
BEHIND
1070
     0
1002
}
1002
{
1000
OTHER
1070
     0
1002
}
1002
{
1000
REACTOR
1002
}
1001
GENIUS_GENOBJ-N-FIL_13
1002
{
1000
OWNER
1000
GEN
1002
}
  0
ARC
  5
50CC
330
1F
100
AcDbEntity
  8
AM_0
100
AcDbCircle
 10
16765.57993748407
 20
5151.196799871581
 30
0.0
 40
15.99999999999887
100
AcDbArc
 50
308.7615380297767
 51
51.23846197022329
  0
ARC
  5
50CD
330
1F
100
AcDbEntity
  8
AM_0
100
AcDbCircle
 10
16780.60586972371
 20
5132.482597769178
 30
0.0
 40
8.000000000000001
100
AcDbArc
 50
128.7615380297767
 51
180.0
1001
GENIUS_GENODEF_13
1002
{
1000
HIER
1070
     0
1002
}
1002
{
1000
MANEDIT
1070
     0
1002
}
1002
{
1000
NOSEL
1070
     0
1002
}
1002
{
1000
BEHIND
1070
     0
1002
}
1002
{
1000
OTHER
1070
     0
1002
}
1002
{
1000
REACTOR
1002
}
1001
GENIUS_GENOBJ-N-FIL_13
1002
{
1000
OWNER
1000
GEN
1002
}
  0
ARC
  5
50CE
330
1F
100
AcDbEntity
  8
AM_0
100
AcDbCircle
 10
16780.60586972371
 20
5169.911001973988
 30
0.0
 40
8.000000000000001
100
AcDbArc
 50
180.0
 51
231.2384619702233
1001
GENIUS_GENOBJ-N-FIL_13
1002
{
1000
OWNER
1000
GEN
1002
}
1001
GENIUS_GENODEF_13
1002
{
1000
HIER
1070
     0
1002
}
1002
{
1000
MANEDIT
1070
     0
1002
}
1002
{
1000
NOSEL
1070
     0
1002
}
1002
{
1000
BEHIND
1070
     0
1002
}
1002
{
1000
OTHER
1070
     0
1002
}
1002
{
1000
REACTOR
1002
}
  0
ARC
  5
50CF
330
1F
100
AcDbEntity
  8
AM_0
100
AcDbCircle
 10
16765.57993748406
 20
5649.196799871583
 30
0.0
 40
8.000000000000001
100
AcDbArc
 50
275.8885195204078
 51
84.11148047959217
  0
ARC
  5
50D0
330
1F
100
AcDbEntity
  8
AM_0
100
AcDbCircle
 10
16766.60586972371
 20
5659.144033810708
 30
0.0
 40
2.0
100
AcDbArc
 50
180.0
 51
264.1114804795922
1001
GENIUS_GENODEF_13
1002
{
1000
HIER
1070
     0
1002
}
1002
{
1000
MANEDIT
1070
     0
1002
}
1002
{
1000
NOSEL
1070
     0
1002
}
1002
{
1000
BEHIND
1070
     0
1002
}
1002
{
1000
OTHER
1070
     0
1002
}
1002
{
1000
REACTOR
1002
}
1001
GENIUS_GENOBJ-N-FIL_13
1002
{
1000
OWNER
1000
GEN
1002
}
  0
ARC
  5
50D1
330
1F
100
AcDbEntity
  8
AM_0
100
AcDbCircle
 10
16766.60586972371
 20
5639.249565932459
 30
0.0
 40
2.0
100
AcDbArc
 50
95.88851952040782
 51
180.0
1001
GENIUS_GENODEF_13
1002
{
1000
HIER
1070
     0
1002
}
1002
{
1000
MANEDIT
1070
     0
1002
}
1002
{
1000
NOSEL
1070
     0
1002
}
1002
{
1000
BEHIND
1070
     0
1002
}
1002
{
1000
OTHER
1070
     0
1002
}
1002
{
1000
REACTOR
1002
}
1001
GENIUS_GENOBJ-N-FIL_13
1002
{
1000
OWNER
1000
GEN
1002
}
  0
ARC
  5
50D2
330
1F
100
AcDbEntity
  8
AM_0
100
AcDbCircle
 10
16765.57993748406
 20
5566.196799871583
 30
0.0
 40
8.000000000000001
100
AcDbArc
 50
275.8885195204078
 51
84.11148047959217
  0
ARC
  5
50D3
330
1F
100
AcDbEntity
  8
AM_0
100
AcDbCircle
 10
16766.60586972371
 20
5576.144033810708
 30
0.0
 40
2.0
100
AcDbArc
 50
180.0
 51
264.1114804795922
1001
GENIUS_GENODEF_13
1002
{
1000
HIER
1070
     0
1002
}
1002
{
1000
MANEDIT
1070
     0
1002
}
1002
{
1000
NOSEL
1070
     0
1002
}
1002
{
1000
BEHIND
1070
     0
1002
}
1002
{
1000
OTHER
1070
     0
1002
}
1002
{
1000
REACTOR
1002
}
1001
GENIUS_GENOBJ-N-FIL_13
1002
{
1000
OWNER
1000
GEN
1002
}
  0
ARC
  5
50D4
330
1F
100
AcDbEntity
  8
AM_0
100
AcDbCircle
 10
16766.60586972371
 20
5556.24956593246
 30
0.0
 40
2.0
100
AcDbArc
 50
95.88851952040782
 51
180.0
1001
GENIUS_GENODEF_13
1002
{
1000
HIER
1070
     0
1002
}
1002
{
1000
MANEDIT
1070
     0
1002
}
1002
{
1000
NOSEL
1070
     0
1002
}
1002
{
1000
BEHIND
1070
     0
1002
}
1002
{
1000
OTHER
1070
     0
1002
}
1002
{
1000
REACTOR
1002
}
1001
GENIUS_GENOBJ-N-FIL_13
1002
{
1000
OWNER
1000
GEN
1002
}
  0
ARC
  5
50D5
330
1F
100
AcDbEntity
  8
AM_0
100
AcDbCircle
 10
16765.57993748406
 20
5483.196799871581
 30
0.0
 40
8.000000000000001
100
AcDbArc
 50
275.8885195204078
 51
84.11148047959217
  0
ARC
  5
50D6
330
1F
100
AcDbEntity
  8
AM_0
100
AcDbCircle
 10
16766.60586972371
 20
5493.144033810708
 30
0.0
 40
2.0
100
AcDbArc
 50
180.0
 51
264.1114804795922
1001
GENIUS_GENODEF_13
1002
{
1000
HIER
1070
     0
1002
}
1002
{
1000
MANEDIT
1070
     0
1002
}
1002
{
1000
NOSEL
1070
     0
1002
}
1002
{
1000
BEHIND
1070
     0
1002
}
1002
{
1000
OTHER
1070
     0
1002
}
1002
{
1000
REACTOR
1002
}
1001
GENIUS_GENOBJ-N-FIL_13
1002
{
1000
OWNER
1000
GEN
1002
}
  0
ARC
  5
50D7
330
1F
100
AcDbEntity
  8
AM_0
100
AcDbCircle
 10
16766.60586972371
 20
5473.24956593246
 30
0.0
 40
2.0
100
AcDbArc
 50
95.88851952040782
 51
180.0
1001
GENIUS_GENODEF_13
1002
{
1000
HIER
1070
     0
1002
}
1002
{
1000
MANEDIT
1070
     0
1002
}
1002
{
1000
NOSEL
1070
     0
1002
}
1002
{
1000
BEHIND
1070
     0
1002
}
1002
{
1000
OTHER
1070
     0
1002
}
1002
{
1000
REACTOR
1002
}
1001
GENIUS_GENOBJ-N-FIL_13
1002
{
1000
OWNER
1000
GEN
1002
}
  0
ARC
  5
50D8
330
1F
100
AcDbEntity
  8
AM_0
100
AcDbCircle
 10
16765.57993748406
 20
5400.196799871583
 30
0.0
 40
8.000000000000001
100
AcDbArc
 50
275.8885195204078
 51
84.11148047959217
  0
ARC
  5
50D9
330
1F
100
AcDbEntity
  8
AM_0
100
AcDbCircle
 10
16766.60586972371
 20
5410.144033810706
 30
0.0
 40
2.0
100
AcDbArc
 50
180.0
 51
264.1114804795922
1001
GENIUS_GENODEF_13
1002
{
1000
HIER
1070
     0
1002
}
1002
{
1000
MANEDIT
1070
     0
1002
}
1002
{
1000
NOSEL
1070
     0
1002
}
1002
{
1000
BEHIND
1070
     0
1002
}
1002
{
1000
OTHER
1070
     0
1002
}
1002
{
1000
REACTOR
1002
}
1001
GENIUS_GENOBJ-N-FIL_13
1002
{
1000
OWNER
1000
GEN
1002
}
  0
ARC
  5
50DA
330
1F
100
AcDbEntity
  8
AM_0
100
AcDbCircle
 10
16766.60586972371
 20
5390.249565932459
 30
0.0
 40
2.0
100
AcDbArc
 50
95.88851952040782
 51
180.0
1001
GENIUS_GENODEF_13
1002
{
1000
HIER
1070
     0
1002
}
1002
{
1000
MANEDIT
1070
     0
1002
}
1002
{
1000
NOSEL
1070
     0
1002
}
1002
{
1000
BEHIND
1070
     0
1002
}
1002
{
1000
OTHER
1070
     0
1002
}
1002
{
1000
REACTOR
1002
}
1001
GENIUS_GENOBJ-N-FIL_13
1002
{
1000
OWNER
1000
GEN
1002
}
  0
ARC
  5
50DB
330
1F
100
AcDbEntity
  8
AM_0
100
AcDbCircle
 10
16765.57993748406
 20
5317.196799871584
 30
0.0
 40
8.000000000000001
100
AcDbArc
 50
275.8885195204078
 51
84.11148047959217
  0
ARC
  5
50DC
330
1F
100
AcDbEntity
  8
AM_0
100
AcDbCircle
 10
16766.60586972371
 20
5327.144033810707
 30
0.0
 40
2.0
100
AcDbArc
 50
180.0
 51
264.1114804795922
1001
GENIUS_GENODEF_13
1002
{
1000
HIER
1070
     0
1002
}
1002
{
1000
MANEDIT
1070
     0
1002
}
1002
{
1000
NOSEL
1070
     0
1002
}
1002
{
1000
BEHIND
1070
     0
1002
}
1002
{
1000
OTHER
1070
     0
1002
}
1002
{
1000
REACTOR
1002
}
1001
GENIUS_GENOBJ-N-FIL_13
1002
{
1000
OWNER
1000
GEN
1002
}
  0
ARC
  5
50DD
330
1F
100
AcDbEntity
  8
AM_0
100
AcDbCircle
 10
16766.60586972371
 20
5307.249565932459
 30
0.0
 40
2.0
100
AcDbArc
 50
95.88851952040782
 51
180.0
1001
GENIUS_GENODEF_13
1002
{
1000
HIER
1070
     0
1002
}
1002
{
1000
MANEDIT
1070
     0
1002
}
1002
{
1000
NOSEL
1070
     0
1002
}
1002
{
1000
BEHIND
1070
     0
1002
}
1002
{
1000
OTHER
1070
     0
1002
}
1002
{
1000
REACTOR
1002
}
1001
GENIUS_GENOBJ-N-FIL_13
1002
{
1000
OWNER
1000
GEN
1002
}
  0
ARC
  5
50DE
330
1F
100
AcDbEntity
  8
AM_0
100
AcDbCircle
 10
16765.57993748406
 20
5234.196799871583
 30
0.0
 40
8.000000000000001
100
AcDbArc
 50
275.8885195204078
 51
84.11148047959217
  0
ARC
  5
50DF
330
1F
100
AcDbEntity
  8
AM_0
100
AcDbCircle
 10
16766.60586972371
 20
5244.144033810708
 30
0.0
 40
2.0
100
AcDbArc
 50
180.0
 51
264.1114804795922
1001
GENIUS_GENODEF_13
1002
{
1000
HIER
1070
     0
1002
}
1002
{
1000
MANEDIT
1070
     0
1002
}
1002
{
1000
NOSEL
1070
     0
1002
}
1002
{
1000
BEHIND
1070
     0
1002
}
1002
{
1000
OTHER
1070
     0
1002
}
1002
{
1000
REACTOR
1002
}
1001
GENIUS_GENOBJ-N-FIL_13
1002
{
1000
OWNER
1000
GEN
1002
}
  0
ARC
  5
50E0
330
1F
100
AcDbEntity
  8
AM_0
100
AcDbCircle
 10
16766.60586972371
 20
5224.24956593246
 30
0.0
 40
2.0
100
AcDbArc
 50
95.88851952040782
 51
180.0
1001
GENIUS_GENODEF_13
1002
{
1000
HIER
1070
     0
1002
}
1002
{
1000
MANEDIT
1070
     0
1002
}
1002
{
1000
NOSEL
1070
     0
1002
}
1002
{
1000
BEHIND
1070
     0
1002
}
1002
{
1000
OTHER
1070
     0
1002
}
1002
{
1000
REACTOR
1002
}
1001
GENIUS_GENOBJ-N-FIL_13
1002
{
1000
OWNER
1000
GEN
1002
}
  0
ARC
  5
50E1
330
1F
100
AcDbEntity
  8
AM_0
100
AcDbCircle
 10
16765.57993748406
 20
5151.196799871584
 30
0.0
 40
8.000000000000001
100
AcDbArc
 50
275.8885195204078
 51
84.11148047959217
  0
ARC
  5
50E2
330
1F
100
AcDbEntity
  8
AM_0
100
AcDbCircle
 10
16766.60586972371
 20
5161.144033810708
 30
0.0
 40
2.0
100
AcDbArc
 50
180.0
 51
264.1114804795922
1001
GENIUS_GENODEF_13
1002
{
1000
HIER
1070
     0
1002
}
1002
{
1000
MANEDIT
1070
     0
1002
}
1002
{
1000
NOSEL
1070
     0
1002
}
1002
{
1000
BEHIND
1070
     0
1002
}
1002
{
1000
OTHER
1070
     0
1002
}
1002
{
1000
REACTOR
1002
}
1001
GENIUS_GENOBJ-N-FIL_13
1002
{
1000
OWNER
1000
GEN
1002
}
  0
ARC
  5
50E3
330
1F
100
AcDbEntity
  8
AM_0
100
AcDbCircle
 10
16766.60586972371
 20
5141.249565932461
 30
0.0
 40
2.0
100
AcDbArc
 50
95.88851952040782
 51
180.0
1001
GENIUS_GENODEF_13
1002
{
1000
HIER
1070
     0
1002
}
1002
{
1000
MANEDIT
1070
     0
1002
}
1002
{
1000
NOSEL
1070
     0
1002
}
1002
{
1000
BEHIND
1070
     0
1002
}
1002
{
1000
OTHER
1070
     0
1002
}
1002
{
1000
REACTOR
1002
}
1001
GENIUS_GENOBJ-N-FIL_13
1002
{
1000
OWNER
1000
GEN
1002
}
  0
ARC
  5
50E4
330
1F
100
AcDbEntity
  8
AM_0
100
AcDbCircle
 10
16765.57993748407
 20
5068.196799871677
 30
0.0
 40
8.000000000000001
100
AcDbArc
 50
0.0
 51
84.11148047959217
  0
ARC
  5
50E5
330
1F
100
AcDbEntity
  8
AM_0
100
AcDbCircle
 10
16766.60586972372
 20
5078.144033810801
 30
0.0
 40
2.0
100
AcDbArc
 50
180.0
 51
264.1114804795922
1001
GENIUS_GENODEF_13
1002
{
1000
HIER
1070
     0
1002
}
1002
{
1000
MANEDIT
1070
     0
1002
}
1002
{
1000
NOSEL
1070
     0
1002
}
1002
{
1000
BEHIND
1070
     0
1002
}
1002
{
1000
OTHER
1070
     0
1002
}
1002
{
1000
REACTOR
1002
}
1001
GENIUS_GENOBJ-N-FIL_13
1002
{
1000
OWNER
1000
GEN
1002
}
  0
ARC
  5
50E6
330
1F
100
AcDbEntity
  8
AM_0
100
AcDbCircle
 10
16765.57993748406
 20
5234.196799871583
 30
0.0
 40
8.000000000000001
100
AcDbArc
 50
221.6212027435895
 51
138.3787972564105
  0
HATCH
  5
50E7
330
1F
100
AcDbEntity
  8
AM_8
100
AcDbHatch
 10
0.0
 20
0.0
 30
0.0
210
0.0
220
0.0
230
1.0
  2
_U
 70
     0
 71
     0
 91
        1
 92
        1
 93
        2
 72
     3
 10
16765.57993748406
 20
5234.196799871583
 11
5.656854249492848
 21
5.656854249492845
 40
0.9999999999998479
 50
176.6212027435733
 51
453.3787972564365
 73
     1
 72
     1
 10
16759.59951869763
 20
5239.510423036517
 11
16759.59951869763
 21
5228.883176706649
 97
        0
 75
     0
 76
     0
 52
315.0
 41
3.0
 77
     0
 78
     1
 53
315.0
 43
16866.4851277807
 44
1313.368037961092
 45
2.121320343559642
 46
2.121320343559641
 79
     0
 98
        1
 10
27669.85268559178
 20
-9112.291807361128
1001
GENIUS_GENODEF_13
1002
{
1000
HIER
1070
     0
1002
}
1002
{
1000
MANEDIT
1070
     0
1002
}
1002
{
1000
NOSEL
1070
     0
1002
}
1002
{
1000
BEHIND
1070
     0
1002
}
1002
{
1000
OTHER
1070
     0
1002
}
1002
{
1000
REACTOR
1002
}
1001
GENIUS_GENOBJ-N-HTC_13
1002
{
1000
OWNER
1000
GEN
1002
}
1001
GENIUS_GENHATCH_13
1002
{
1000
DATA
1040
-45.0
1042
-2.5
1000
_U
1070
     0
1011
21861.29199629564
1021
-5187.148908315432
1031
0.0
1002
}
1002
{
1000
UCS
1010
0.0
1020
0.0
1030
0.0
1010
1.0
1020
0.0
1030
0.0
1010
0.0
1020
1.0
1030
0.0
1002
}
  0
HATCH
  5
50E8
330
1F
100
AcDbEntity
  8
AM_8
100
AcDbHatch
 10
0.0
 20
0.0
 30
0.0
210
0.0
220
0.0
230
1.0
  2
_U
 70
     0
 71
     0
 91
        1
 92
        1
 93
        2
 72
     1
 10
16759.59951869763
 20
5239.51042303652
 11
16759.59951869763
 21
5228.883176706649
 72
     3
 10
16765.57993748406
 20
5234.196799871583
 11
5.656854249492358
 21
5.656854249492353
 40
0.9999999999999998
 50
176.6212027435775
 51
453.3787972564223
 73
     1
 97
        0
 75
     0
 76
     0
 52
45.0
 41
3.0
 77
     0
 78
     1
 53
45.0
 43
16866.4851277807
 44
1313.368037961092
 45
-2.121320343559642
 46
2.121320343559641
 79
     0
 98
        1
 10
27669.85268559178
 20
-9112.291807361128
1001
GENIUS_GENOBJ-N-HTC_13
1002
{
1000
OWNER
1000
GEN
1002
}
1001
GENIUS_GENODEF_13
1002
{
1000
HIER
1070
     0
1002
}
1002
{
1000
MANEDIT
1070
     0
1002
}
1002
{
1000
NOSEL
1070
     0
1002
}
1002
{
1000
BEHIND
1070
     0
1002
}
1002
{
1000
OTHER
1070
     0
1002
}
1002
{
1000
REACTOR
1002
}
1001
GENIUS_GENHATCH_13
1002
{
1000
DATA
1040
45.0
1042
-2.5
1000
_U
1070
     0
1011
21864.80190078557
1021
-5187.619304838754
1031
0.0
1002
}
1002
{
1000
UCS
1010
0.0
1020
0.0
1030
0.0
1010
1.0
1020
0.0
1030
0.0
1010
0.0
1020
1.0
1030
0.0
1002
}
  0
ARC
  5
50E9
330
1F
100
AcDbEntity
  8
AM_0
100
AcDbCircle
 10
16774.60586972371
 20
5725.338935495408
 30
0.0
 40
2.0
100
AcDbArc
 50
180.0
 51
225.0000000000552
1001
GENIUS_GENODEF_13
1002
{
1000
HIER
1070
     0
1002
}
1002
{
1000
MANEDIT
1070
     0
1002
}
1002
{
1000
NOSEL
1070
     0
1002
}
1002
{
1000
BEHIND
1070
     0
1002
}
1002
{
1000
OTHER
1070
     0
1002
}
1002
{
1000
REACTOR
1002
}
1001
GENIUS_GENOBJ-N-FIL_13
1002
{
1000
OWNER
1000
GEN
1002
}
  0
ARC
  5
50EA
330
1F
100
AcDbEntity
  8
AM_0
100
AcDbCircle
 10
16774.60586972371
 20
5711.054664247948
 30
0.0
 40
2.0
100
AcDbArc
 50
134.9999999999447
 51
180.0
1001
GENIUS_GENOBJ-N-FIL_13
1002
{
1000
OWNER
1000
GEN
1002
}
1001
GENIUS_GENODEF_13
1002
{
1000
HIER
1070
     0
1002
}
1002
{
1000
MANEDIT
1070
     0
1002
}
1002
{
1000
NOSEL
1070
     0
1002
}
1002
{
1000
BEHIND
1070
     0
1002
}
1002
{
1000
OTHER
1070
     0
1002
}
1002
{
1000
REACTOR
1002
}
  0
ARC
  5
50EB
330
1F
100
AcDbEntity
  8
AM_0
100
AcDbCircle
 10
16766.60586972371
 20
5722.02522699643
 30
0.0
 40
2.0
100
AcDbArc
 50
180.0
 51
225.0000000000552
1001
GENIUS_GENOBJ-N-FIL_13
1002
{
1000
OWNER
1000
GEN
1002
}
1001
GENIUS_GENODEF_13
1002
{
1000
HIER
1070
     0
1002
}
1002
{
1000
MANEDIT
1070
     0
1002
}
1002
{
1000
NOSEL
1070
     0
1002
}
1002
{
1000
BEHIND
1070
     0
1002
}
1002
{
1000
OTHER
1070
     0
1002
}
1002
{
1000
REACTOR
1002
}
  0
ARC
  5
50EC
330
1F
100
AcDbEntity
  8
AM_0
100
AcDbCircle
 10
16766.60586972371
 20
5714.368372746925
 30
0.0
 40
2.0
100
AcDbArc
 50
134.9999999999447
 51
180.0
1001
GENIUS_GENOBJ-N-FIL_13
1002
{
1000
OWNER
1000
GEN
1002
}
1001
GENIUS_GENODEF_13
1002
{
1000
HIER
1070
     0
1002
}
1002
{
1000
MANEDIT
1070
     0
1002
}
1002
{
1000
NOSEL
1070
     0
1002
}
1002
{
1000
BEHIND
1070
     0
1002
}
1002
{
1000
OTHER
1070
     0
1002
}
1002
{
1000
REACTOR
1002
}
  0
LINE
  5
50ED
330
1F
100
AcDbEntity
  8
AM_0
100
AcDbLine
 10
16767.60586972372
 20
5718.196799871678
 30
0.0
 11
16765.19165616134
 21
5720.611013434059
 31
0.0
  0
ARC
  5
50EE
330
1F
100
AcDbEntity
  8
AM_0
100
AcDbCircle
 10
16767.60586972372
 20
5718.196799871677
 30
0.0
 40
8.000000000000001
100
AcDbArc
 50
314.9999999999447
 51
45.00000000005528
1001
GENIUS_GENOBJ-N-FIL_13
1002
{
1000
OWNER
1000
GEN
1002
}
1001
GENIUS_GENODEF_13
1002
{
1000
HIER
1070
     0
1002
}
1002
{
1000
MANEDIT
1070
     0
1002
}
1002
{
1000
NOSEL
1070
     0
1002
}
1002
{
1000
BEHIND
1070
     0
1002
}
1002
{
1000
OTHER
1070
     0
1002
}
1002
{
1000
REACTOR
1002
}
  0
LINE
  5
50EF
330
1F
100
AcDbEntity
  8
AM_0
100
AcDbLine
 10
16767.60586972372
 20
5718.196799871678
 30
0.0
 11
16765.19165616134
 21
5715.782586309298
 31
0.0
  0
DIMENSION
  5
50F0
102
{ACAD_XDICTIONARY
360
50F1
102
}
102
{ACAD_REACTORS
330
50F2
102
}
330
1F
100
AcDbEntity
  8
AM_5
100
AcDbDimension
  2
*D3
 10
17591.90972792757
 20
5068.196799871675
 30
0.0
 11
17591.90972792757
 21
5388.097300689489
 31
0.0
 70
   160
  1
<>
 71
     5
 42
750.0000000000027
  3
AM_DIN$0
100
AcDbAlignedDimension
 13
17489.59951869765
 23
5818.196799871677
 33
0.0
 14
17405.63180196336
 24
5068.196799871675
 34
0.0
 50
90.0
100
AcDbRotatedDimension
1001
ACAD_DSTYLE_DIMINSPECT
1070
   396
1000
100%
1070
   395
1000

1070
   394
1070
    33
1070
   393
1070
     0
  0
DIMENSION
  5
50F3
102
{ACAD_XDICTIONARY
360
50F4
102
}
102
{ACAD_REACTORS
330
50F5
102
}
330
1F
100
AcDbEntity
  8
AM_5
100
AcDbDimension
  2
*D4
 10
17497.59951869765
 20
5937.622878000511
 30
0.0
 11
17089.60586972372
 21
6005.320695190142
 31
0.0
 70
    32
  1
%%c816
 71
     5
 42
815.9872979478715
  3
AM_DIN$0
100
AcDbAlignedDimension
 13
16681.61222074978
 23
5818.196799871677
 33
0.0
 14
17497.59951869765
 24
5818.196799871692
 34
0.0
100
AcDbRotatedDimension
  0
DIMENSION
  5
50F6
330
1F
100
AcDbEntity
  8
AM_5
100
AcDbDimension
  2
*D2
 10
17591.90972792758
 20
4622.624450944943
 30
0.0
 11
17526.16961878706
 21
4845.410625408312
 31
0.0
 70
    32
  1
ca. 400
 71
     5
 42
445.5723489267311
  3
AM_DIN$0
100
AcDbAlignedDimension
 13
17405.63180196336
 23
5068.196799871675
 33
0.0
 14
16832.13379161921
 24
4622.624450944943
 34
0.0
 50
90.0
100
AcDbRotatedDimension
  0
LINE
  5
50F8
330
1F
100
AcDbEntity
  8
AM_5
 62
     3
100
AcDbLine
 10
16821.47704680734
 20
5538.927713324028
 30
0.0
 11
16531.74371153094
 21
5427.970254785417
 31
0.0
  0
MTEXT
  5
50F9
330
1F
100
AcDbEntity
  8
Beschriftung
100
AcDbMText
 10
16123.49533214523
 20
4905.062918830001
 30
0.0
 40
50.0
 41
1190.293354815057
 71
     1
 72
     5
  1
{\fArial|b0|i0|c0|p34;elastischer \PFührungsriemen}
 73
     1
 44
1.0
1001
ACAD
1000
MTEXTBEGIN
1070
    73
1070
     1
1070
    44
1040
1.0
1070
    74
1070
     0
1000
MTEXTEND
  0
LINE
  5
50FA
330
1F
100
AcDbEntity
  8
bezugslinien
100
AcDbLine
 10
16552.68087067765
 20
4856.783809527122
 30
0.0
 11
17032.37801683668
 21
4924.737500898436
 31
0.0
  0
MTEXT
  5
50FB
330
1F
100
AcDbEntity
  8
Beschriftung
100
AcDbMText
 10
16123.49533214523
 20
5138.672109501131
 30
0.0
 40
50.0
 41
1190.293354815057
 71
     1
 72
     5
  1
{\fArial|b0|i0|c0|p34;Dichtring}
 73
     1
 44
1.0
1001
ACAD
1000
MTEXTBEGIN
1070
    73
1070
     1
1070
    44
1040
1.0
1070
    74
1070
     0
1000
MTEXTEND
  0
LINE
  5
50FC
330
1F
100
AcDbEntity
  8
AM_5
 62
     3
100
AcDbLine
 10
16763.1329174394
 20
5233.649238635551
 30
0.0
 11
16440.437753476
 21
5116.019269189074
 31
0.0
  0
MTEXT
  5
5146
330
1F
100
AcDbEntity
  8
Beschriftung
100
AcDbMText
 10
16123.49533214523
 20
5454.076139670444
 30
0.0
 40
50.0
 41
1190.293354815057
 71
     1
 72
     5
  1
{\fArial|b0|i0|c0|p34;Bedienungs-\Pschlüssel mit Kette}
 73
     1
 44
0.8571428571428572
1001
ACAD
1000
MTEXTBEGIN
1070
    73
1070
     1
1070
    44
1040
0.8571428571428572
1070
    74
1070
     0
1000
MTEXTEND
  0
ARC
  5
5147
330
1F
100
AcDbEntity
  8
anbauteile dünn
100
AcDbCircle
 10
17018.41102521564
 20
4673.94073136991
 30
0.0
 40
2.188850120418031
100
AcDbArc
 50
285.3218354271752
 51
74.6781645728248
  0
ARC
  5
5148
330
1F
100
AcDbEntity
  8
anbauteile dünn
100
AcDbCircle
 10
17015.74872545647
 20
4673.94073136991
 30
0.0
 40
2.188850120418026
100
AcDbArc
 50
105.3218354271752
 51
254.6781645728248
  0
LINE
  5
5149
330
1F
100
AcDbEntity
  8
anbauteile dünn
100
AcDbLine
 10
17015.17034233542
 20
4660.367782722874
 30
0.0
 11
17018.98940833669
 21
4660.367782722874
 31
0.0
  0
LINE
  5
514A
330
1F
100
AcDbEntity
  8
anbauteile dünn
100
AcDbLine
 10
17018.98940833669
 20
4664.589885428845
 30
0.0
 11
17015.17034233542
 21
4664.589885428845
 31
0.0
  0
LINE
  5
514B
330
1F
100
AcDbEntity
  8
anbauteile dünn
100
AcDbLine
 10
17018.98940833669
 20
4671.829680016926
 30
0.0
 11
17015.17034233542
 21
4671.829680016926
 31
0.0
  0
LINE
  5
514C
330
1F
100
AcDbEntity
  8
anbauteile dünn
100
AcDbLine
 10
17013.55987533604
 20
4673.800731369911
 30
0.0
 11
17013.55987533604
 21
4662.61883407586
 31
0.0
  0
ARC
  5
514D
330
1F
100
AcDbEntity
  8
anbauteile dünn
100
AcDbCircle
 10
17015.74872545647
 20
4662.47883407586
 30
0.0
 40
2.188850120418031
100
AcDbArc
 50
105.3218354271752
 51
254.6781645728248
  0
LINE
  5
514E
330
1F
100
AcDbEntity
  8
anbauteile dünn
100
AcDbLine
 10
17013.55987533604
 20
4664.19679987167
 30
0.0
 11
17012.1764691107
 21
4664.19679987167
 31
0.0
  0
LINE
  5
514F
330
1F
100
AcDbEntity
  8
anbauteile dünn
100
AcDbLine
 10
17012.1764691107
 20
4664.19679987167
 30
0.0
 11
17012.1764691107
 21
4672.196799871683
 31
0.0
  0
ARC
  5
5150
330
1F
100
AcDbEntity
  8
anbauteile dünn
100
AcDbCircle
 10
17018.49532220474
 20
4668.237337129361
 30
0.0
 40
4.935523785674952
100
AcDbArc
 50
133.2931757558886
 51
227.6480171120431
  0
LINE
  5
5151
330
1F
100
AcDbEntity
  8
anbauteile dünn
100
AcDbLine
 10
17013.55987533604
 20
4672.196799871683
 30
0.0
 11
17012.1764691107
 21
4672.196799871683
 31
0.0
  0
ARC
  5
5152
330
1F
100
AcDbEntity
  8
anbauteile dünn
100
AcDbCircle
 10
17018.41102521564
 20
4662.47883407586
 30
0.0
 40
2.188850120418026
100
AcDbArc
 50
285.3218354271752
 51
74.6781645728248
  0
ARC
  5
5153
330
1F
100
AcDbEntity
  8
anbauteile dünn
100
AcDbCircle
 10
17015.66442846735
 20
4668.237337129361
 30
0.0
 40
4.935523785674952
100
AcDbArc
 50
312.3519828879569
 51
46.70682424411139
  0
LINE
  5
5154
330
1F
100
AcDbEntity
  8
anbauteile dünn
100
AcDbLine
 10
17018.98940833669
 20
4676.051782722896
 30
0.0
 11
17015.17034233542
 21
4676.051782722896
 31
0.0
  0
ARC
  5
5155
330
1F
100
AcDbEntity
  8
anbauteile dünn
100
AcDbCircle
 10
17018.50862447025
 20
4668.196799871677
 30
0.0
 40
24.52138807427454
100
AcDbArc
 50
335.9328356731603
 51
24.06716432683956
  0
LINE
  5
5156
330
1F
100
AcDbEntity
  8
anbauteile dünn
100
AcDbLine
 10
17040.59987533606
 20
4658.196799871663
 30
0.0
 11
17040.8983201602
 21
4658.196799871663
 31
0.0
  0
LINE
  5
5157
330
1F
100
AcDbEntity
  8
anbauteile dünn
100
AcDbLine
 10
17040.59987533606
 20
4678.19679987169
 30
0.0
 11
17040.8983201602
 21
4678.19679987169
 31
0.0
  0
LINE
  5
5158
330
1F
100
AcDbEntity
  8
anbauteile dünn
100
AcDbLine
 10
17040.59987533606
 20
4678.19679987169
 30
0.0
 11
17040.8983201602
 21
4678.19679987169
 31
0.0
  0
ENDSEC
  0
SECTION
  2
OBJECTS
  0
DICTIONARY
  5
C
330
0
100
AcDbDictionary
281
     1
  3
ACAD_2007HEADERVARS_RT
350
6599
  3
ACAD_COLOR
350
D7
  3
ACAD_GROUP
350
D
  3
ACAD_LAYOUT
350
1A
  3
ACAD_MATERIAL
350
D6
  3
ACAD_MLEADERSTYLE
350
64DF
  3
ACAD_MLINESTYLE
350
17
  3
ACAD_PLOTSETTINGS
350
19
  3
ACAD_PLOTSTYLENAME
350
E
  3
ACAD_SCALELIST
350
64CD
  3
ACAD_TABLESTYLE
350
133
  3
ACAD_VISUALSTYLE
350
64B9
  3
ACDB_RECOMPOSE_DATA
350
6597
  3
AcDbVariableDictionary
350
34
  3
AcmDictionary
350
49
  3
AMG
350
2B
  3
AMGSNAPSETTINGS
350
2C4
  3
ASE_INDEX_DICTIONARY
350
658E
  3
DWGPROPS
350
6598
  0
DICTIONARY
  5
C0
330
2
100
AcDbDictionary
280
     1
281
     1
  3
ACAD_LAYERSTATES
360
439
  3
AMLAYER_GROUPCOLORS
360
C1
  0
DICTIONARY
  5
657F
330
10
100
AcDbDictionary
280
     1
281
     1
  3
ADSK_XREC_LAYER_RECONCILED
360
6580
  0
DICTIONARY
  5
6581
330
82
100
AcDbDictionary
280
     1
281
     1
  3
ADSK_XREC_LAYER_RECONCILED
360
6582
  0
DICTIONARY
  5
6583
330
427
100
AcDbDictionary
280
     1
281
     1
  3
ADSK_XREC_LAYER_RECONCILED
360
6584
  0
DICTIONARY
  5
6585
330
428
100
AcDbDictionary
280
     1
281
     1
  3
ADSK_XREC_LAYER_RECONCILED
360
6586
  0
DICTIONARY
  5
6587
330
429
100
AcDbDictionary
280
     1
281
     1
  3
ADSK_XREC_LAYER_RECONCILED
360
6588
  0
DICTIONARY
  5
6589
330
42A
100
AcDbDictionary
280
     1
281
     1
  3
ADSK_XREC_LAYER_RECONCILED
360
658A
  0
DICTIONARY
  5
658B
330
42B
100
AcDbDictionary
280
     1
281
     1
  3
ADSK_XREC_LAYER_RECONCILED
360
658C
  0
DICTIONARY
  5
83
330
1F
100
AcDbDictionary
280
     1
281
     1
  3
ACAD_SORTENTS
360
1EB1
  0
DICTIONARY
  5
B6F
330
75
100
AcDbDictionary
280
     1
281
     1
  0
DICTIONARY
  5
50F1
330
50F0
100
AcDbDictionary
280
     1
281
     1
  3
ACAD_DIMASSOC
360
50F2
  0
DICTIONARY
  5
50F4
330
50F3
100
AcDbDictionary
280
     1
281
     1
  3
ACAD_DIMASSOC
360
50F5
  0
DICTIONARY
  5
6599
102
{ACAD_REACTORS
330
C
102
}
330
C
100
AcDbDictionary
281
     1
  3
DIMARCSYM
350
659A
  0
DICTIONARY
  5
D7
102
{ACAD_REACTORS
330
C
102
}
330
C
100
AcDbDictionary
281
     1
  0
DICTIONARY
  5
D
102
{ACAD_REACTORS
330
C
102
}
330
C
100
AcDbDictionary
281
     1
  0
DICTIONARY
  5
1A
102
{ACAD_REACTORS
330
C
102
}
330
C
100
AcDbDictionary
281
     1
  3
Layout1
350
1E
  3
Layout2
350
26
  3
Model
350
22
  0
DICTIONARY
  5
D6
102
{ACAD_REACTORS
330
C
102
}
330
C
100
AcDbDictionary
281
     1
  3
ByBlock
350
64A9
  3
ByLayer
350
64A1
  3
Global
350
64B1
  0
DICTIONARY
  5
64DF
102
{ACAD_REACTORS
330
C
102
}
330
C
100
AcDbDictionary
281
     1
  3
Standard
350
64E0
  0
DICTIONARY
  5
17
102
{ACAD_REACTORS
330
C
102
}
330
C
100
AcDbDictionary
281
     1
  3
Standard
350
18
  0
DICTIONARY
  5
19
102
{ACAD_REACTORS
330
C
102
}
330
C
100
AcDbDictionary
281
     1
  0
ACDBDICTIONARYWDFLT
  5
E
102
{ACAD_REACTORS
330
C
102
}
330
C
100
AcDbDictionary
281
     1
  3
Normal
350
F
100
AcDbDictionaryWithDefault
340
F
  0
DICTIONARY
  5
64CD
102
{ACAD_REACTORS
330
C
102
}
330
C
100
AcDbDictionary
281
     1
  3
A0
350
64CE
  3
A1
350
64CF
  3
A2
350
64D0
  3
A3
350
64D1
  3
A4
350
64D2
  3
A5
350
64D3
  3
A6
350
64D4
  3
A7
350
64D5
  3
A8
350
64D6
  3
A9
350
64D7
  3
B0
350
64D8
  3
B1
350
64D9
  3
B2
350
64DA
  3
B3
350
64DB
  3
B4
350
64DC
  3
B5
350
64DD
  3
B6
350
64DE
  0
DICTIONARY
  5
133
102
{ACAD_REACTORS
330
C
102
}
330
C
100
AcDbDictionary
281
     1
  3
Standard
350
134
  0
DICTIONARY
  5
64B9
102
{ACAD_REACTORS
330
C
102
}
330
C
100
AcDbDictionary
281
     1
  3
2dWireframe
350
64BF
  3
3D Hidden
350
64C1
  3
3dWireframe
350
64C0
  3
Basic
350
64BE
  3
Brighten
350
64C5
  3
ColorChange
350
64C9
  3
Conceptual
350
64C2
  3
Dim
350
64C4
  3
EdgeColorOff
350
64CC
  3
Facepattern
350
64C8
  3
Flat
350
64BA
  3
FlatWithEdges
350
64BB
  3
Gouraud
350
64BC
  3
GouraudWithEdges
350
64BD
  3
JitterOff
350
64CA
  3
Linepattern
350
64C7
  3
OverhangOff
350
64CB
  3
Realistic
350
64C3
  3
Thicken
350
64C6
  0
XRECORD
  5
6597
102
{ACAD_REACTORS
330
C
102
}
330
C
100
AcDbXrecord
280
     1
 90
        1
330
134
  0
DICTIONARY
  5
34
102
{ACAD_REACTORS
330
C
102
}
330
C
100
AcDbDictionary
281
     1
  3
CANNOSCALE
350
6592
  3
CMLEADERSTYLE
350
6591
  3
CTABLESTYLE
350
152
  3
DIMASSOC
350
AD
  3
INDEXCTL
350
35
  3
PROJECTNAME
350
6495
  3
SORTENTS
350
6593
  3
XCLIPFRAME
350
6594
  0
DICTIONARY
  5
49
102
{ACAD_REACTORS
330
C
102
}
330
C
100
AcDbDictionary
281
     1
  3
AcmBOM
350
2CB
  3
AcmStdDictionary
350
4A
  3
AMDTSECTSYM_ARROWCOLOR
350
13D
  0
DICTIONARY
  5
2B
102
{ACAD_REACTORS
330
C
102
}
330
C
100
AcDbDictionary
281
     1
  0
DICTIONARY
  5
2C4
102
{ACAD_REACTORS
330
C
102
}
330
C
100
AcDbDictionary
281
     1
  0
DICTIONARY
  5
658E
102
{ACAD_REACTORS
330
C
102
}
330
C
100
AcDbDictionary
281
     1
  3
ASEBlockHierarchyIndexRecord
350
6590
1001
DCO15
1040
1670315180.421
  0
XRECORD
  5
6598
102
{ACAD_REACTORS
330
C
102
}
330
C
100
AcDbXrecord
280
     1
  1
DWGPROPS COOKIE
  2

  3

  4

  6

  7

  8
Administrator
  9

300
AmdtFileType=84
301
=
302
=
303
=
304
=
305
=
306
=
307
=
308
=
309
=
 40
0.2311939351851852
 41
2454705.328066945
 42
2455135.563477095
  1

 90
        1
  0
DICTIONARY
  5
439
102
{ACAD_REACTORS
330
C0
102
}
330
C0
100
AcDbDictionary
281
     1
  0
DICTIONARY
  5
C1
102
{ACAD_REACTORS
330
C0
102
}
330
C0
100
AcDbDictionary
280
     1
281
     1
  0
XRECORD
  5
6580
102
{ACAD_REACTORS
330
657F
102
}
330
657F
100
AcDbXrecord
280
     1
290
     1
  0
XRECORD
  5
6582
102
{ACAD_REACTORS
330
6581
102
}
330
6581
100
AcDbXrecord
280
     1
290
     1
  0
XRECORD
  5
6584
102
{ACAD_REACTORS
330
6583
102
}
330
6583
100
AcDbXrecord
280
     1
290
     1
  0
XRECORD
  5
6586
102
{ACAD_REACTORS
330
6585
102
}
330
6585
100
AcDbXrecord
280
     1
290
     1
  0
XRECORD
  5
6588
102
{ACAD_REACTORS
330
6587
102
}
330
6587
100
AcDbXrecord
280
     1
290
     1
  0
XRECORD
  5
658A
102
{ACAD_REACTORS
330
6589
102
}
330
6589
100
AcDbXrecord
280
     1
290
     1
  0
XRECORD
  5
658C
102
{ACAD_REACTORS
330
658B
102
}
330
658B
100
AcDbXrecord
280
     1
290
     1
  0
SORTENTSTABLE
  5
1EB1
102
{ACAD_REACTORS
330
83
102
}
330
83
100
AcDbSortentsTable
330
1F
331
502F
  5
502F
331
507D
  5
507D
331
5079
  5
5079
331
502B
  5
502B
331
5075
  5
5075
331
50B4
  5
50C6
331
5027
  5
5027
331
5066
  5
5066
331
5071
  5
5071
331
50B0
  5
50C2
331
5023
  5
5023
331
4FF5
  5
4FF5
331
4FF1
  5
4FF1
331
50EC
  5
514C
331
50E8
  5
5148
331
50AC
  5
50BE
331
501F
  5
501F
331
505E
  5
505E
331
50A8
  5
50BA
331
501B
  5
501B
331
5069
  5
5069
331
50A4
  5
50B6
331
5017
  5
5017
331
50A0
  5
50B2
331
5013
  5
5013
331
4FED
  5
4FED
331
50E4
  5
50FB
331
50E0
  5
50F6
331
50DC
  5
50EE
331
50D8
  5
50EA
331
500F
  5
500F
331
509C
  5
50AE
331
5098
  5
50AA
331
500B
  5
500B
331
504A
  5
504A
331
5094
  5
50A6
331
5007
  5
5007
331
5046
  5
5046
331
5042
  5
5042
331
5090
  5
5090
331
5003
  5
5003
331
50D4
  5
50E6
331
50D0
  5
50E2
331
50CC
  5
50DE
331
50FA
  5
5155
331
50C8
  5
50DA
331
4FFF
  5
4FFF
331
503E
  5
503E
331
508C
  5
508C
331
5088
  5
5088
331
4FFB
  5
4FFB
331
503A
  5
503A
331
5084
  5
5084
331
5036
  5
5036
331
5032
  5
5032
331
5080
  5
5080
331
5157
  5
50A3
331
5153
  5
509F
331
50C4
  5
50D6
331
50C0
  5
50D2
331
514F
  5
509B
331
50BC
  5
50CE
331
514B
  5
5097
331
50B8
  5
50CA
331
502E
  5
502E
331
507C
  5
507C
331
5078
  5
5078
331
50B7
  5
50C9
331
502A
  5
502A
331
5065
  5
5065
331
5074
  5
5074
331
50B3
  5
50C5
331
5026
  5
5026
331
5070
  5
5070
331
5022
  5
5022
331
5147
  5
5093
331
4FF4
  5
4FF4
331
50EF
  5
514F
331
4FF0
  5
4FF0
331
50EB
  5
514B
331
50AF
  5
50C1
331
50AB
  5
50BD
331
501E
  5
501E
331
505D
  5
505D
331
506C
  5
506C
331
5068
  5
5068
331
50A7
  5
50B9
331
501A
  5
501A
331
5059
  5
5059
331
50A3
  5
50B5
331
5016
  5
5016
331
5012
  5
5012
331
50E7
  5
5147
331
50E3
  5
50FA
331
50DF
  5
50F3
331
50DB
  5
50ED
331
509F
  5
50B1
331
509B
  5
50AD
331
500E
  5
500E
331
5097
  5
50A9
331
500A
  5
500A
331
5049
  5
5049
331
50F0
  5
5150
331
5093
  5
50A5
331
5006
  5
5006
331
5045
  5
5045
331
5041
  5
5041
331
5002
  5
5002
331
50D7
  5
50E9
331
50D3
  5
50E5
331
50CF
  5
50E1
331
50CB
  5
50DD
331
50F9
  5
5154
331
508F
  5
508F
331
4FFE
  5
4FFE
331
503D
  5
503D
331
5087
  5
5087
331
4FFA
  5
4FFA
331
5039
  5
5039
331
5083
  5
5083
331
5035
  5
5035
331
5031
  5
5031
331
50C7
  5
50D9
331
5156
  5
50A2
331
5152
  5
509E
331
50C3
  5
50D5
331
50BF
  5
50D1
331
514E
  5
509A
331
50BB
  5
50CD
331
514A
  5
5096
331
507F
  5
507F
331
502D
  5
502D
331
507B
  5
507B
331
5077
  5
5077
331
50B6
  5
50C8
331
5029
  5
5029
331
5073
  5
5073
331
50B2
  5
50C4
331
5025
  5
5025
331
5021
  5
5021
331
5060
  5
5060
331
5146
  5
5158
331
4FF7
  5
4FF7
331
4FF3
  5
4FF3
331
50EE
  5
514E
331
50EA
  5
514A
331
50AE
  5
50C0
331
50AA
  5
50BC
331
501D
  5
501D
331
506B
  5
506B
331
50A6
  5
50B8
331
5019
  5
5019
331
5058
  5
5058
331
50A2
  5
50B4
331
5015
  5
5015
331
5011
  5
5011
331
4FEF
  5
4FEF
331
50E6
  5
5146
331
50E2
  5
50F9
331
50DE
  5
50F0
331
50DA
  5
50EC
331
509E
  5
50B0
331
509A
  5
50AC
331
500D
  5
500D
331
50F3
  5
5151
331
5096
  5
50A8
331
5009
  5
5009
331
5048
  5
5048
331
5005
  5
5005
331
5044
  5
5044
331
5040
  5
5040
331
5001
  5
5001
331
50D6
  5
50E8
331
50D2
  5
50E4
331
50CE
  5
50E0
331
50FC
  5
5157
331
50F8
  5
5153
331
50CA
  5
50DC
331
508E
  5
508E
331
4FFD
  5
4FFD
331
503C
  5
503C
331
5086
  5
5086
331
4FF9
  5
4FF9
331
5038
  5
5038
331
5082
  5
5082
331
5034
  5
5034
331
5030
  5
5030
331
50C6
  5
50D8
331
5155
  5
50A1
331
5151
  5
509D
331
50C2
  5
50D4
331
50BE
  5
50D0
331
514D
  5
5099
331
50BA
  5
50CC
331
5149
  5
5095
331
507E
  5
507E
331
502C
  5
502C
331
507A
  5
507A
331
5076
  5
5076
331
50B5
  5
50C7
331
5028
  5
5028
331
5067
  5
5067
331
5072
  5
5072
331
50B1
  5
50C3
331
5024
  5
5024
331
5020
  5
5020
331
4FF6
  5
4FF6
331
4FF2
  5
4FF2
331
50ED
  5
514D
331
50E9
  5
5149
331
505F
  5
505F
331
50AD
  5
50BF
331
50A9
  5
50BB
331
501C
  5
501C
331
506A
  5
506A
331
50A5
  5
50B7
331
5018
  5
5018
331
5057
  5
5057
331
50A1
  5
50B3
331
5014
  5
5014
331
5010
  5
5010
331
4FEE
  5
4FEE
331
50E5
  5
50FC
331
50E1
  5
50F8
331
50DD
  5
50EF
331
50D9
  5
50EB
331
50F6
  5
5152
331
509D
  5
50AF
331
5099
  5
50AB
331
500C
  5
500C
331
504B
  5
504B
331
5095
  5
50A7
331
5008
  5
5008
331
5047
  5
5047
331
5043
  5
5043
331
5004
  5
5004
331
5000
  5
5000
331
50D5
  5
50E7
331
50D1
  5
50E3
331
50CD
  5
50DF
331
50FB
  5
5156
331
50C9
  5
50DB
331
5158
  5
50A4
331
503F
  5
503F
331
508D
  5
508D
331
4FFC
  5
4FFC
331
503B
  5
503B
331
5085
  5
5085
331
4FF8
  5
4FF8
331
5037
  5
5037
331
5081
  5
5081
331
5033
  5
5033
331
5154
  5
50A0
331
50C5
  5
50D7
331
5150
  5
509C
331
50C1
  5
50D3
331
50BD
  5
50CF
331
514C
  5
5098
331
50B9
  5
50CB
331
5148
  5
5094
  0
DIMASSOC
  5
50F2
102
{ACAD_REACTORS
330
50F1
102
}
330
50F1
100
AcDbDimAssoc
330
50F0
 90
        3
 70
     0
 71
     0
  1
AcDbOsnapPointRef
 72
     1
331
4FF4
 73
     0
 91
        0
 40
0.0
 10
0.0
 20
0.0
 30
2.000000000000000E+50
 75
     0
  1
AcDbOsnapPointRef
 72
     6
331
5037
 73
     0
 91
        0
 40
3.141592653590246
 10
0.0
 20
0.0
 30
0.0
332
500A
 74
     0
 92
        0
 75
     0
  0
DIMASSOC
  5
50F5
102
{ACAD_REACTORS
330
50F4
102
}
330
50F4
100
AcDbDimAssoc
330
50F3
 90
        3
 70
     0
 71
     0
  1
AcDbOsnapPointRef
 72
     1
331
50A4
 73
     0
 91
        0
 40
0.0
 10
0.0
 20
0.0
 30
2.000000000000000E+50
 75
     0
  1
AcDbOsnapPointRef
 72
     8
331
4FF3
 73
     0
 91
        0
 40
1.0
 10
0.0
 20
0.0
 30
0.0
 75
     1
  1
AcDbOsnapPointRef
 72
     1
331
50A4
 73
     0
 91
        0
 40
0.0
 10
0.0
 20
0.0
 30
2.000000000000000E+50
 75
     0
  0
XRECORD
  5
659A
102
{ACAD_REACTORS
330
6599
102
}
330
6599
100
AcDbXrecord
280
     1
 70
     1
  0
LAYOUT
  5
1E
102
{ACAD_XDICTIONARY
360
659B
102
}
102
{ACAD_REACTORS
330
1A
102
}
330
1A
100
AcDbPlotSettings
  1

  2
none_device
  4
Letter_(8.50_x_11.00_Inches)
  6

 40
6.349999904632567
 41
6.349999904632567
 42
6.350006103515625
 43
6.350006103515625
 44
215.8999938964844
 45
279.3999938964844
 46
0.0
 47
0.0
 48
0.0
 49
0.0
140
0.0
141
0.0
142
1.0
143
1.0
 70
 15024
 72
     1
 73
     1
 74
     5
  7
monochrome 09+15.ctb
 75
    16
147
1.0
148
0.0
149
0.0
100
AcDbLayout
  1
Layout1
 70
     1
 71
     1
 10
0.0
 20
0.0
 11
420.0
 21
297.0
 12
0.0
 22
0.0
 32
0.0
 14
1.000000000000000E+20
 24
1.000000000000000E+20
 34
1.000000000000000E+20
 15
-1.000000000000000E+20
 25
-1.000000000000000E+20
 35
-1.000000000000000E+20
146
0.0
 13
0.0
 23
0.0
 33
0.0
 16
1.0
 26
0.0
 36
0.0
 17
0.0
 27
1.0
 37
0.0
 76
     0
330
1B
  0
LAYOUT
  5
26
102
{ACAD_XDICTIONARY
360
659F
102
}
102
{ACAD_REACTORS
330
1A
102
}
330
1A
100
AcDbPlotSettings
  1

  2
none_device
  4
Letter_(8.50_x_11.00_Inches)
  6

 40
6.349999904632567
 41
6.349999904632567
 42
6.350006103515625
 43
6.350006103515625
 44
215.8999938964844
 45
279.3999938964844
 46
0.0
 47
0.0
 48
0.0
 49
0.0
140
0.0
141
0.0
142
1.0
143
1.0
 70
 15024
 72
     1
 73
     1
 74
     5
  7
monochrome 09+15.ctb
 75
    16
147
1.0
148
0.0
149
0.0
100
AcDbLayout
  1
Layout2
 70
     1
 71
     2
 10
0.0
 20
0.0
 11
12.0
 21
9.0
 12
0.0
 22
0.0
 32
0.0
 14
0.0
 24
0.0
 34
0.0
 15
0.0
 25
0.0
 35
0.0
146
0.0
 13
0.0
 23
0.0
 33
0.0
 16
1.0
 26
0.0
 36
0.0
 17
0.0
 27
1.0
 37
0.0
 76
     0
330
23
  0
LAYOUT
  5
22
102
{ACAD_XDICTIONARY
360
659D
102
}
102
{ACAD_REACTORS
330
1A
102
}
330
1A
100
AcDbPlotSettings
  1

  2
Adobe PDF
  4
A4
  6

 40
3.174999952316283
 41
3.174999952316283
 42
3.175003051757812
 43
3.17498779296875
 44
209.9733276367186
 45
297.0318298339844
 46
0.0
 47
44.12866424306965
 48
0.0
 49
0.0
140
0.0
141
0.0
142
1.0
143
7.344107513060462
 70
 11956
 72
     1
 73
     0
 74
     1
  7
monochrome 09+15.ctb
 75
     0
147
0.1361635839646466
148
-16117.29573287735
149
-4572.716525127078
100
AcDbLayout
  1
Model
 70
     1
 71
     0
 10
0.0
 20
0.0
 11
12.0
 21
9.0
 12
0.0
 22
0.0
 32
0.0
 14
0.0
 24
0.0
 34
0.0
 15
0.0
 25
0.0
 35
0.0
146
0.0
 13
0.0
 23
0.0
 33
0.0
 16
1.0
 26
0.0
 36
0.0
 17
0.0
 27
1.0
 37
0.0
 76
     0
330
1F
331
6496
1001
ACAD_PSEXT
1000
Adobe PDF
1000
Adobe PDF Converter
1000
Eigene Dateien
1000

1070
     0
  0
MATERIAL
  5
64A9
102
{ACAD_XDICTIONARY
360
64AA
102
}
102
{ACAD_REACTORS
330
D6
102
}
330
D6
100
AcDbMaterial
  1
ByBlock
 72
     0
 43
0.0008202099737533
 43
0.0
 43
0.0
 43
0.0
 43
0.0
 43
0.0008202099737533
 43
0.0
 43
0.0
 43
0.0
 43
0.0
 43
1.0
 43
0.0
 43
0.0
 43
0.0
 43
0.0
 43
1.0
 77
     0
 47
0.0008202099737533
 47
0.0
 47
0.0
 47
0.0
 47
0.0
 47
0.0008202099737533
 47
0.0
 47
0.0
 47
0.0
 47
0.0
 47
1.0
 47
0.0
 47
0.0
 47
0.0
 47
0.0
 47
1.0
171
     0
 49
0.0008202099737533
 49
0.0
 49
0.0
 49
0.0
 49
0.0
 49
0.0008202099737533
 49
0.0
 49
0.0
 49
0.0
 49
0.0
 49
1.0
 49
0.0
 49
0.0
 49
0.0
 49
0.0
 49
1.0
175
     0
142
0.0008202099737533
142
0.0
142
0.0
142
0.0
142
0.0
142
0.0008202099737533
142
0.0
142
0.0
142
0.0
142
0.0
142
1.0
142
0.0
142
0.0
142
0.0
142
0.0
142
1.0
179
     0
144
0.0008202099737533
144
0.0
144
0.0
144
0.0
144
0.0
144
0.0008202099737533
144
0.0
144
0.0
144
0.0
144
0.0
144
1.0
144
0.0
144
0.0
144
0.0
144
0.0
144
1.0
147
0.0008202099737533
147
0.0
147
0.0
147
0.0
147
0.0
147
0.0008202099737533
147
0.0
147
0.0
147
0.0
147
0.0
147
1.0
147
0.0
147
0.0
147
0.0
147
0.0
147
1.0
  0
MATERIAL
  5
64A1
102
{ACAD_XDICTIONARY
360
64A2
102
}
102
{ACAD_REACTORS
330
D6
102
}
330
D6
100
AcDbMaterial
  1
ByLayer
 72
     0
 43
0.0008202099737533
 43
0.0
 43
0.0
 43
0.0
 43
0.0
 43
0.0008202099737533
 43
0.0
 43
0.0
 43
0.0
 43
0.0
 43
1.0
 43
0.0
 43
0.0
 43
0.0
 43
0.0
 43
1.0
 77
     0
 47
0.0008202099737533
 47
0.0
 47
0.0
 47
0.0
 47
0.0
 47
0.0008202099737533
 47
0.0
 47
0.0
 47
0.0
 47
0.0
 47
1.0
 47
0.0
 47
0.0
 47
0.0
 47
0.0
 47
1.0
171
     0
 49
0.0008202099737533
 49
0.0
 49
0.0
 49
0.0
 49
0.0
 49
0.0008202099737533
 49
0.0
 49
0.0
 49
0.0
 49
0.0
 49
1.0
 49
0.0
 49
0.0
 49
0.0
 49
0.0
 49
1.0
175
     0
142
0.0008202099737533
142
0.0
142
0.0
142
0.0
142
0.0
142
0.0008202099737533
142
0.0
142
0.0
142
0.0
142
0.0
142
1.0
142
0.0
142
0.0
142
0.0
142
0.0
142
1.0
179
     0
144
0.0008202099737533
144
0.0
144
0.0
144
0.0
144
0.0
144
0.0008202099737533
144
0.0
144
0.0
144
0.0
144
0.0
144
1.0
144
0.0
144
0.0
144
0.0
144
0.0
144
1.0
147
0.0008202099737533
147
0.0
147
0.0
147
0.0
147
0.0
147
0.0008202099737533
147
0.0
147
0.0
147
0.0
147
0.0
147
1.0
147
0.0
147
0.0
147
0.0
147
0.0
147
1.0
  0
MATERIAL
  5
64B1
102
{ACAD_XDICTIONARY
360
64B2
102
}
102
{ACAD_REACTORS
330
D6
102
}
330
D6
100
AcDbMaterial
  1
Global
 72
     0
 43
0.0008202099737533
 43
0.0
 43
0.0
 43
0.0
 43
0.0
 43
0.0008202099737533
 43
0.0
 43
0.0
 43
0.0
 43
0.0
 43
1.0
 43
0.0
 43
0.0
 43
0.0
 43
0.0
 43
1.0
 77
     0
 47
0.0008202099737533
 47
0.0
 47
0.0
 47
0.0
 47
0.0
 47
0.0008202099737533
 47
0.0
 47
0.0
 47
0.0
 47
0.0
 47
1.0
 47
0.0
 47
0.0
 47
0.0
 47
0.0
 47
1.0
171
     0
 49
0.0008202099737533
 49
0.0
 49
0.0
 49
0.0
 49
0.0
 49
0.0008202099737533
 49
0.0
 49
0.0
 49
0.0
 49
0.0
 49
1.0
 49
0.0
 49
0.0
 49
0.0
 49
0.0
 49
1.0
175
     0
142
0.0008202099737533
142
0.0
142
0.0
142
0.0
142
0.0
142
0.0008202099737533
142
0.0
142
0.0
142
0.0
142
0.0
142
1.0
142
0.0
142
0.0
142
0.0
142
0.0
142
1.0
179
     0
144
0.0008202099737533
144
0.0
144
0.0
144
0.0
144
0.0
144
0.0008202099737533
144
0.0
144
0.0
144
0.0
144
0.0
144
1.0
144
0.0
144
0.0
144
0.0
144
0.0
144
1.0
147
0.0008202099737533
147
0.0
147
0.0
147
0.0
147
0.0
147
0.0008202099737533
147
0.0
147
0.0
147
0.0
147
0.0
147
1.0
147
0.0
147
0.0
147
0.0
147
0.0
147
1.0
  0
MLEADERSTYLE
  5
64E0
102
{ACAD_REACTORS
330
64DF
102
}
330
64DF
100
AcDbMLeaderStyle
170
     2
171
     1
172
     0
 90
        2
 40
0.0
 41
0.0
173
     1
 91
-1056964608
340
14
 92
       -2
290
     1
 42
2.0
291
     1
 43
0.36
  3
Standard
 44
4.0
300

342
11
174
     1
178
     6
175
     1
176
     0
 93
-1056964608
 45
4.0
292
     0
297
     0
 46
4.0
 94
-1056964608
 47
1.0
 49
1.0
140
1.0
293
     1
141
0.0
294
     1
177
     0
142
1.0
295
     0
296
     0
143
0.125
1001
ACAD_MLEADERVER
1070
     2
  0
MLINESTYLE
  5
18
102
{ACAD_REACTORS
330
17
102
}
330
17
100
AcDbMlineStyle
  2
STANDARD
 70
     0
  3

 62
   256
 51
90.0
 52
90.0
 71
     2
 49
0.5
 62
   256
  6
BYLAYER
 49
-0.5
 62
   256
  6
BYLAYER
  0
ACDBPLACEHOLDER
  5
F
102
{ACAD_REACTORS
330
E
102
}
330
E
  0
SCALE
  5
64CE
102
{ACAD_REACTORS
330
64CD
102
}
330
64CD
100
AcDbScale
 70
     0
300
1:1
140
1.0
141
1.0
290
     1
  0
SCALE
  5
64CF
102
{ACAD_REACTORS
330
64CD
102
}
330
64CD
100
AcDbScale
 70
     0
300
1:2
140
1.0
141
2.0
290
     0
  0
SCALE
  5
64D0
102
{ACAD_REACTORS
330
64CD
102
}
330
64CD
100
AcDbScale
 70
     0
300
1:4
140
1.0
141
4.0
290
     0
  0
SCALE
  5
64D1
102
{ACAD_REACTORS
330
64CD
102
}
330
64CD
100
AcDbScale
 70
     0
300
1:5
140
1.0
141
5.0
290
     0
  0
SCALE
  5
64D2
102
{ACAD_REACTORS
330
64CD
102
}
330
64CD
100
AcDbScale
 70
     0
300
1:8
140
1.0
141
8.0
290
     0
  0
SCALE
  5
64D3
102
{ACAD_REACTORS
330
64CD
102
}
330
64CD
100
AcDbScale
 70
     0
300
1:10
140
1.0
141
10.0
290
     0
  0
SCALE
  5
64D4
102
{ACAD_REACTORS
330
64CD
102
}
330
64CD
100
AcDbScale
 70
     0
300
1:16
140
1.0
141
16.0
290
     0
  0
SCALE
  5
64D5
102
{ACAD_REACTORS
330
64CD
102
}
330
64CD
100
AcDbScale
 70
     0
300
1:20
140
1.0
141
20.0
290
     0
  0
SCALE
  5
64D6
102
{ACAD_REACTORS
330
64CD
102
}
330
64CD
100
AcDbScale
 70
     0
300
1:30
140
1.0
141
30.0
290
     0
  0
SCALE
  5
64D7
102
{ACAD_REACTORS
330
64CD
102
}
330
64CD
100
AcDbScale
 70
     0
300
1:40
140
1.0
141
40.0
290
     0
  0
SCALE
  5
64D8
102
{ACAD_REACTORS
330
64CD
102
}
330
64CD
100
AcDbScale
 70
     0
300
1:50
140
1.0
141
50.0
290
     0
  0
SCALE
  5
64D9
102
{ACAD_REACTORS
330
64CD
102
}
330
64CD
100
AcDbScale
 70
     0
300
1:100
140
1.0
141
100.0
290
     0
  0
SCALE
  5
64DA
102
{ACAD_REACTORS
330
64CD
102
}
330
64CD
100
AcDbScale
 70
     0
300
2:1
140
2.0
141
1.0
290
     0
  0
SCALE
  5
64DB
102
{ACAD_REACTORS
330
64CD
102
}
330
64CD
100
AcDbScale
 70
     0
300
4:1
140
4.0
141
1.0
290
     0
  0
SCALE
  5
64DC
102
{ACAD_REACTORS
330
64CD
102
}
330
64CD
100
AcDbScale
 70
     0
300
8:1
140
8.0
141
1.0
290
     0
  0
SCALE
  5
64DD
102
{ACAD_REACTORS
330
64CD
102
}
330
64CD
100
AcDbScale
 70
     0
300
10:1
140
10.0
141
1.0
290
     0
  0
SCALE
  5
64DE
102
{ACAD_REACTORS
330
64CD
102
}
330
64CD
100
AcDbScale
 70
     0
300
100:1
140
100.0
141
1.0
290
     0
  0
TABLESTYLE
  5
134
102
{ACAD_XDICTIONARY
360
6595
102
}
102
{ACAD_REACTORS
330
133
102
}
330
133
100
AcDbTableStyle
  3
Standard
 70
     0
 71
     0
 40
1.5
 41
1.5
280
     0
281
     0
  7
STANDARD
140
4.5
170
     2
 62
     0
 63
     7
283
     0
274
    -2
284
     1
 64
     0
275
    -2
285
     1
 65
     0
276
    -2
286
     1
 66
     0
277
    -2
287
     1
 67
     0
278
    -2
288
     1
 68
     0
279
    -2
289
     1
 69
     0
  7
STANDARD
140
6.0
170
     5
 62
     0
 63
     7
283
     0
274
    -2
284
     1
 64
     0
275
    -2
285
     1
 65
     0
276
    -2
286
     1
 66
     0
277
    -2
287
     1
 67
     0
278
    -2
288
     1
 68
     0
279
    -2
289
     1
 69
     0
  7
STANDARD
140
4.5
170
     5
 62
     0
 63
     7
283
     0
274
    -2
284
     1
 64
     0
275
    -2
285
     1
 65
     0
276
    -2
286
     1
 66
     0
277
    -2
287
     1
 67
     0
278
    -2
288
     1
 68
     0
279
    -2
289
     1
 69
     0
  0
VISUALSTYLE
  5
64BF
102
{ACAD_XDICTIONARY
360
65AF
102
}
102
{ACAD_REACTORS
330
64B9
102
}
330
64B9
100
AcDbVisualStyle
  2
2dWireframe
 70
     4
 71
     0
 72
     2
 73
     0
 90
        0
 40
-0.6
 41
-30.0
 62
     5
 63
     7
 74
     1
 91
        4
 64
     7
 65
   257
 75
     1
175
     1
 42
1.0
 92
        0
 66
   257
 43
1.0
 76
     1
 77
     6
 78
     2
 67
     7
 79
     5
170
     0
171
     0
290
     0
174
     0
 93
        1
 44
0.0
173
     0
291
     0
 45
0.0
1001
ACAD
1000
AcDbSavedByObjectVersion
1070
     0
  0
VISUALSTYLE
  5
64C1
102
{ACAD_XDICTIONARY
360
65B3
102
}
102
{ACAD_REACTORS
330
64B9
102
}
330
64B9
100
AcDbVisualStyle
  2
3D Hidden
 70
     6
 71
     1
 72
     2
 73
     2
 90
        0
 40
-0.6
 41
-30.0
 62
     5
 63
     7
 74
     2
 91
        2
 64
     7
 65
   257
 75
     2
175
     1
 42
179.0
 92
        0
 66
   257
 43
1.0
 76
     1
 77
     6
 78
     2
 67
     7
 79
     3
170
     0
171
     0
290
     0
174
     0
 93
        1
 44
0.0
173
     0
291
     0
 45
0.0
1001
ACAD
1000
AcDbSavedByObjectVersion
1070
     0
  0
VISUALSTYLE
  5
64C0
102
{ACAD_XDICTIONARY
360
65B1
102
}
102
{ACAD_REACTORS
330
64B9
102
}
330
64B9
100
AcDbVisualStyle
  2
3dWireframe
 70
     5
 71
     0
 72
     2
 73
     0
 90
        0
 40
-0.6
 41
-30.0
 62
     5
 63
     7
 74
     1
 91
        4
 64
     7
 65
   257
 75
     1
175
     1
 42
1.0
 92
        0
 66
   257
 43
1.0
 76
     1
 77
     6
 78
     2
 67
     7
 79
     5
170
     0
171
     0
290
     0
174
     0
 93
        1
 44
0.0
173
     0
291
     0
 45
0.0
1001
ACAD
1000
AcDbSavedByObjectVersion
1070
     0
  0
VISUALSTYLE
  5
64BE
102
{ACAD_XDICTIONARY
360
65AD
102
}
102
{ACAD_REACTORS
330
64B9
102
}
330
64B9
100
AcDbVisualStyle
  2
Basic
 70
     7
 71
     1
 72
     0
 73
     1
 90
        0
 40
-0.6
 41
-30.0
 62
     5
 63
     7
 74
     0
 91
        4
 64
     7
 65
   257
 75
     1
175
     1
 42
1.0
 92
        8
 66
     7
 43
1.0
 76
     1
 77
     6
 78
     2
 67
     7
 79
     5
170
     0
171
     0
290
     0
174
     0
 93
        1
 44
0.0
173
     0
291
     1
 45
0.0
1001
ACAD
1000
AcDbSavedByObjectVersion
1070
     0
  0
VISUALSTYLE
  5
64C5
102
{ACAD_XDICTIONARY
360
65BB
102
}
102
{ACAD_REACTORS
330
64B9
102
}
330
64B9
100
AcDbVisualStyle
  2
Brighten
 70
    12
 71
     2
 72
     2
 73
     0
 90
        0
 40
-0.6
 41
-30.0
 62
     5
 63
     7
 74
     1
 91
        4
 64
     7
 65
   257
 75
     1
175
     1
 42
1.0
 92
        8
 66
     7
 43
1.0
 76
     1
 77
     6
 78
     2
 67
     7
 79
     5
170
     0
171
     0
290
     0
174
     0
 93
        1
 44
50.0
173
     0
291
     1
 45
0.0
1001
ACAD
1000
AcDbSavedByObjectVersion
1070
     0
  0
VISUALSTYLE
  5
64C9
102
{ACAD_XDICTIONARY
360
65C3
102
}
102
{ACAD_REACTORS
330
64B9
102
}
330
64B9
100
AcDbVisualStyle
  2
ColorChange
 70
    16
 71
     2
 72
     2
 73
     3
 90
        0
 40
-0.6
 41
-30.0
 62
     5
 63
     8
 74
     1
 91
        4
 64
     7
 65
   257
 75
     1
175
     1
 42
1.0
 92
        8
 66
     8
 43
1.0
 76
     1
 77
     6
 78
     2
 67
     7
 79
     5
170
     0
171
     0
290
     0
174
     0
 93
        1
 44
0.0
173
     0
291
     1
 45
0.0
1001
ACAD
1000
AcDbSavedByObjectVersion
1070
     0
  0
VISUALSTYLE
  5
64C2
102
{ACAD_XDICTIONARY
360
65B5
102
}
102
{ACAD_REACTORS
330
64B9
102
}
330
64B9
100
AcDbVisualStyle
  2
Conceptual
 70
     9
 71
     3
 72
     2
 73
     0
 90
        0
 40
-0.6
 41
-30.0
 62
     5
 63
     7
 74
     2
 91
        2
 64
     7
 65
   257
 75
     1
175
     1
 42
179.0
 92
        8
 66
     7
 43
1.0
 76
     1
 77
     6
 78
     2
 67
     7
 79
     3
170
     0
171
     0
290
     0
174
     0
 93
        1
 44
0.0
173
     0
291
     0
 45
0.0
1001
ACAD
1000
AcDbSavedByObjectVersion
1070
     0
  0
VISUALSTYLE
  5
64C4
102
{ACAD_XDICTIONARY
360
65B9
102
}
102
{ACAD_REACTORS
330
64B9
102
}
330
64B9
100
AcDbVisualStyle
  2
Dim
 70
    11
 71
     2
 72
     2
 73
     0
 90
        0
 40
-0.6
 41
-30.0
 62
     5
 63
     7
 74
     1
 91
        4
 64
     7
 65
   257
 75
     1
175
     1
 42
1.0
 92
        8
 66
     7
 43
1.0
 76
     1
 77
     6
 78
     2
 67
     7
 79
     5
170
     0
171
     0
290
     0
174
     0
 93
        1
 44
-50.0
173
     0
291
     1
 45
0.0
1001
ACAD
1000
AcDbSavedByObjectVersion
1070
     0
  0
VISUALSTYLE
  5
64CC
102
{ACAD_XDICTIONARY
360
65C9
102
}
102
{ACAD_REACTORS
330
64B9
102
}
330
64B9
100
AcDbVisualStyle
  2
EdgeColorOff
 70
    22
 71
     2
 72
     2
 73
     0
 90
        0
 40
-0.6
 41
-30.0
 62
     5
 63
     7
 74
     1
 91
        4
 64
     7
 65
   257
 75
     1
175
     1
 42
1.0
 92
        8
 66
     7
 43
1.0
 76
     1
 77
     6
 78
     2
 67
     7
 79
     5
170
     0
171
     0
290
     0
174
     0
 93
        1
 44
0.0
173
     0
291
     1
 45
0.0
1001
ACAD
1000
AcDbSavedByObjectVersion
1070
     0
  0
VISUALSTYLE
  5
64C8
102
{ACAD_XDICTIONARY
360
65C1
102
}
102
{ACAD_REACTORS
330
64B9
102
}
330
64B9
100
AcDbVisualStyle
  2
Facepattern
 70
    15
 71
     2
 72
     2
 73
     0
 90
        0
 40
-0.6
 41
-30.0
 62
     5
 63
     7
 74
     1
 91
        4
 64
     7
 65
   257
 75
     1
175
     1
 42
1.0
 92
        8
 66
     7
 43
1.0
 76
     1
 77
     6
 78
     2
 67
     7
 79
     5
170
     0
171
     0
290
     0
174
     0
 93
        1
 44
0.0
173
     0
291
     1
 45
0.0
1001
ACAD
1000
AcDbSavedByObjectVersion
1070
     0
  0
VISUALSTYLE
  5
64BA
102
{ACAD_XDICTIONARY
360
65A5
102
}
102
{ACAD_REACTORS
330
64B9
102
}
330
64B9
100
AcDbVisualStyle
  2
Flat
 70
     0
 71
     2
 72
     1
 73
     1
 90
        2
 40
-0.6
 41
30.0
 62
     5
 63
     7
 74
     0
 91
        4
 64
     7
 65
   257
 75
     1
175
     1
 42
1.0
 92
        8
 66
     7
 43
1.0
 76
     1
 77
     6
 78
     2
 67
     7
 79
     5
170
     0
171
     0
290
     0
174
     0
 93
       13
 44
0.0
173
     0
291
     1
 45
0.0
1001
ACAD
1000
AcDbSavedByObjectVersion
1070
     0
  0
VISUALSTYLE
  5
64BB
102
{ACAD_XDICTIONARY
360
65A7
102
}
102
{ACAD_REACTORS
330
64B9
102
}
330
64B9
100
AcDbVisualStyle
  2
FlatWithEdges
 70
     1
 71
     2
 72
     1
 73
     1
 90
        2
 40
-0.6
 41
30.0
 62
     5
 63
     7
 74
     1
 91
        4
 64
     7
 65
   257
 75
     1
175
     1
 42
1.0
 92
        0
 66
   257
 43
1.0
 76
     1
 77
     6
 78
     2
 67
     7
 79
     5
170
     0
171
     0
290
     0
174
     0
 93
       13
 44
0.0
173
     0
291
     1
 45
0.0
1001
ACAD
1000
AcDbSavedByObjectVersion
1070
     0
  0
VISUALSTYLE
  5
64BC
102
{ACAD_XDICTIONARY
360
65A9
102
}
102
{ACAD_REACTORS
330
64B9
102
}
330
64B9
100
AcDbVisualStyle
  2
Gouraud
 70
     2
 71
     2
 72
     2
 73
     1
 90
        2
 40
-0.6
 41
30.0
 62
     5
 63
     7
 74
     0
 91
        4
 64
     7
 65
   257
 75
     1
175
     1
 42
1.0
 92
        0
 66
     7
 43
1.0
 76
     1
 77
     6
 78
     2
 67
     7
 79
     5
170
     0
171
     0
290
     0
174
     0
 93
       13
 44
0.0
173
     0
291
     1
 45
0.0
1001
ACAD
1000
AcDbSavedByObjectVersion
1070
     0
  0
VISUALSTYLE
  5
64BD
102
{ACAD_XDICTIONARY
360
65AB
102
}
102
{ACAD_REACTORS
330
64B9
102
}
330
64B9
100
AcDbVisualStyle
  2
GouraudWithEdges
 70
     3
 71
     2
 72
     2
 73
     1
 90
        2
 40
-0.6
 41
30.0
 62
     5
 63
     7
 74
     1
 91
        4
 64
     7
 65
   257
 75
     1
175
     1
 42
1.0
 92
        0
 66
   257
 43
1.0
 76
     1
 77
     6
 78
     2
 67
     7
 79
     5
170
     0
171
     0
290
     0
174
     0
 93
       13
 44
0.0
173
     0
291
     1
 45
0.0
1001
ACAD
1000
AcDbSavedByObjectVersion
1070
     0
  0
VISUALSTYLE
  5
64CA
102
{ACAD_XDICTIONARY
360
65C5
102
}
102
{ACAD_REACTORS
330
64B9
102
}
330
64B9
100
AcDbVisualStyle
  2
JitterOff
 70
    20
 71
     2
 72
     2
 73
     0
 90
        0
 40
-0.6
 41
-30.0
 62
     5
 63
     7
 74
     1
 91
        4
 64
     7
 65
   257
 75
     1
175
     1
 42
1.0
 92
       10
 66
     7
 43
1.0
 76
     1
 77
     6
 78
     2
 67
     7
 79
     5
170
     0
171
     0
290
     0
174
     0
 93
        1
 44
0.0
173
     0
291
     1
 45
0.0
1001
ACAD
1000
AcDbSavedByObjectVersion
1070
     0
  0
VISUALSTYLE
  5
64C7
102
{ACAD_XDICTIONARY
360
65BF
102
}
102
{ACAD_REACTORS
330
64B9
102
}
330
64B9
100
AcDbVisualStyle
  2
Linepattern
 70
    14
 71
     2
 72
     2
 73
     0
 90
        0
 40
-0.6
 41
-30.0
 62
     5
 63
     7
 74
     1
 91
        4
 64
     7
 65
   257
 75
     7
175
     7
 42
1.0
 92
        8
 66
     7
 43
1.0
 76
     1
 77
     6
 78
     2
 67
     7
 79
     5
170
     0
171
     0
290
     0
174
     0
 93
        1
 44
0.0
173
     0
291
     1
 45
0.0
1001
ACAD
1000
AcDbSavedByObjectVersion
1070
     0
  0
VISUALSTYLE
  5
64CB
102
{ACAD_XDICTIONARY
360
65C7
102
}
102
{ACAD_REACTORS
330
64B9
102
}
330
64B9
100
AcDbVisualStyle
  2
OverhangOff
 70
    21
 71
     2
 72
     2
 73
     0
 90
        0
 40
-0.6
 41
-30.0
 62
     5
 63
     7
 74
     1
 91
        4
 64
     7
 65
   257
 75
     1
175
     1
 42
1.0
 92
        9
 66
     7
 43
1.0
 76
     1
 77
     6
 78
     2
 67
     7
 79
     5
170
     0
171
     0
290
     0
174
     0
 93
        1
 44
0.0
173
     0
291
     1
 45
0.0
1001
ACAD
1000
AcDbSavedByObjectVersion
1070
     0
  0
VISUALSTYLE
  5
64C3
102
{ACAD_XDICTIONARY
360
65B7
102
}
102
{ACAD_REACTORS
330
64B9
102
}
330
64B9
100
AcDbVisualStyle
  2
Realistic
 70
     8
 71
     2
 72
     2
 73
     0
 90
        0
 40
-0.6
 41
-30.0
 62
     5
 63
     7
 74
     1
 91
        0
 64
     7
 65
   257
 75
     1
175
     1
 42
1.0
 92
        8
 66
     8
 43
1.0
 76
     1
 77
     6
 78
     2
 67
     7
 79
     5
170
     0
171
     0
290
     0
174
     0
 93
       13
 44
0.0
173
     0
291
     0
 45
0.0
1001
ACAD
1000
AcDbSavedByObjectVersion
1070
     0
  0
VISUALSTYLE
  5
64C6
102
{ACAD_XDICTIONARY
360
65BD
102
}
102
{ACAD_REACTORS
330
64B9
102
}
330
64B9
100
AcDbVisualStyle
  2
Thicken
 70
    13
 71
     2
 72
     2
 73
     0
 90
        0
 40
-0.6
 41
-30.0
 62
     5
 63
     7
 74
     1
 91
        4
 64
     7
 65
   257
 75
     1
175
     1
 42
1.0
 92
       12
 66
     7
 43
1.0
 76
     1
 77
     6
 78
     2
 67
     7
 79
     5
170
     0
171
     0
290
     0
174
     0
 93
        1
 44
0.0
173
     0
291
     1
 45
0.0
1001
ACAD
1000
AcDbSavedByObjectVersion
1070
     0
  0
DICTIONARYVAR
  5
6592
102
{ACAD_REACTORS
330
34
102
}
330
34
100
DictionaryVariables
280
     0
  1
1:1
  0
DICTIONARYVAR
  5
6591
102
{ACAD_REACTORS
330
34
102
}
330
34
100
DictionaryVariables
280
     0
  1
STANDARD
  0
DICTIONARYVAR
  5
152
102
{ACAD_REACTORS
330
34
102
}
330
34
100
DictionaryVariables
280
     0
  1
STANDARD
  0
DICTIONARYVAR
  5
AD
102
{ACAD_REACTORS
330
34
102
}
330
34
100
DictionaryVariables
280
     0
  1
2
  0
DICTIONARYVAR
  5
35
102
{ACAD_REACTORS
330
34
102
}
330
34
100
DictionaryVariables
280
     0
  1
0
  0
DICTIONARYVAR
  5
6495
102
{ACAD_REACTORS
330
34
102
}
330
34
100
DictionaryVariables
280
     0
  1

  0
DICTIONARYVAR
  5
6593
102
{ACAD_REACTORS
330
34
102
}
330
34
100
DictionaryVariables
280
     0
  1
127
  0
DICTIONARYVAR
  5
6594
102
{ACAD_REACTORS
330
34
102
}
330
34
100
DictionaryVariables
280
     0
  1
2
  0
DICTIONARY
  5
2CB
102
{ACAD_REACTORS
330
49
102
}
330
49
100
AcDbDictionary
281
     1
  0
DICTIONARY
  5
4A
102
{ACAD_REACTORS
330
49
102
}
330
49
100
AcDbDictionary
281
     1
  0
XRECORD
  5
13D
102
{ACAD_REACTORS
330
49
102
}
330
49
100
AcDbXrecord
280
     1
 90
-1023410169
  0
XRECORD
  5
6590
102
{ACAD_REACTORS
330
658E
102
}
330
658E
100
AcDbXrecord
280
     1
  0
DICTIONARY
  5
659B
330
1E
100
AcDbDictionary
280
     1
281
     1
  3
ACAD_XREC_ROUNDTRIP
360
659C
  0
DICTIONARY
  5
659F
330
26
100
AcDbDictionary
280
     1
281
     1
  3
ACAD_XREC_ROUNDTRIP
360
65A0
  0
DICTIONARY
  5
659D
330
22
100
AcDbDictionary
280
     1
281
     1
  3
ACAD_XREC_ROUNDTRIP
360
659E
  0
DICTIONARY
  5
64AA
330
64A9
100
AcDbDictionary
280
     1
281
     1
  3
ACAD_XREC_ROUNDTRIP
360
65A3
  3
BUMPTILE
360
64AC
  3
DIFFUSETILE
360
64AB
  3
OPACITYTILE
360
64AF
  3
REFLECTIONTILE
360
64AE
  3
REFRACTIONTILE
360
64B0
  3
SPECULARTILE
360
64AD
  0
DICTIONARY
  5
64A2
330
64A1
100
AcDbDictionary
280
     1
281
     1
  3
ACAD_XREC_ROUNDTRIP
360
65A2
  3
BUMPTILE
360
64A4
  3
DIFFUSETILE
360
64A3
  3
OPACITYTILE
360
64A7
  3
REFLECTIONTILE
360
64A6
  3
REFRACTIONTILE
360
64A8
  3
SPECULARTILE
360
64A5
  0
DICTIONARY
  5
64B2
330
64B1
100
AcDbDictionary
280
     1
281
     1
  3
ACAD_XREC_ROUNDTRIP
360
65A4
  3
BUMPTILE
360
64B4
  3
DIFFUSETILE
360
64B3
  3
OPACITYTILE
360
64B7
  3
REFLECTIONTILE
360
64B6
  3
REFRACTIONTILE
360
64B8
  3
SPECULARTILE
360
64B5
  0
DICTIONARY
  5
6595
330
134
100
AcDbDictionary
280
     1
281
     1
  3
ACAD_ROUNDTRIP_2008_TABLESTYLE_CELLSTYLEMAP
360
6596
  3
ACAD_XREC_ROUNDTRIP
360
65A1
  0
DICTIONARY
  5
65AF
330
64BF
100
AcDbDictionary
280
     1
281
     1
  3
ACAD_XREC_ROUNDTRIP
360
65B0
  0
DICTIONARY
  5
65B3
330
64C1
100
AcDbDictionary
280
     1
281
     1
  3
ACAD_XREC_ROUNDTRIP
360
65B4
  0
DICTIONARY
  5
65B1
330
64C0
100
AcDbDictionary
280
     1
281
     1
  3
ACAD_XREC_ROUNDTRIP
360
65B2
  0
DICTIONARY
  5
65AD
330
64BE
100
AcDbDictionary
280
     1
281
     1
  3
ACAD_XREC_ROUNDTRIP
360
65AE
  0
DICTIONARY
  5
65BB
330
64C5
100
AcDbDictionary
280
     1
281
     1
  3
ACAD_XREC_ROUNDTRIP
360
65BC
  0
DICTIONARY
  5
65C3
330
64C9
100
AcDbDictionary
280
     1
281
     1
  3
ACAD_XREC_ROUNDTRIP
360
65C4
  0
DICTIONARY
  5
65B5
330
64C2
100
AcDbDictionary
280
     1
281
     1
  3
ACAD_XREC_ROUNDTRIP
360
65B6
  0
DICTIONARY
  5
65B9
330
64C4
100
AcDbDictionary
280
     1
281
     1
  3
ACAD_XREC_ROUNDTRIP
360
65BA
  0
DICTIONARY
  5
65C9
330
64CC
100
AcDbDictionary
280
     1
281
     1
  3
ACAD_XREC_ROUNDTRIP
360
65CA
  0
DICTIONARY
  5
65C1
330
64C8
100
AcDbDictionary
280
     1
281
     1
  3
ACAD_XREC_ROUNDTRIP
360
65C2
  0
DICTIONARY
  5
65A5
330
64BA
100
AcDbDictionary
280
     1
281
     1
  3
ACAD_XREC_ROUNDTRIP
360
65A6
  0
DICTIONARY
  5
65A7
330
64BB
100
AcDbDictionary
280
     1
281
     1
  3
ACAD_XREC_ROUNDTRIP
360
65A8
  0
DICTIONARY
  5
65A9
330
64BC
100
AcDbDictionary
280
     1
281
     1
  3
ACAD_XREC_ROUNDTRIP
360
65AA
  0
DICTIONARY
  5
65AB
330
64BD
100
AcDbDictionary
280
     1
281
     1
  3
ACAD_XREC_ROUNDTRIP
360
65AC
  0
DICTIONARY
  5
65C5
330
64CA
100
AcDbDictionary
280
     1
281
     1
  3
ACAD_XREC_ROUNDTRIP
360
65C6
  0
DICTIONARY
  5
65BF
330
64C7
100
AcDbDictionary
280
     1
281
     1
  3
ACAD_XREC_ROUNDTRIP
360
65C0
  0
DICTIONARY
  5
65C7
330
64CB
100
AcDbDictionary
280
     1
281
     1
  3
ACAD_XREC_ROUNDTRIP
360
65C8
  0
DICTIONARY
  5
65B7
330
64C3
100
AcDbDictionary
280
     1
281
     1
  3
ACAD_XREC_ROUNDTRIP
360
65B8
  0
DICTIONARY
  5
65BD
330
64C6
100
AcDbDictionary
280
     1
281
     1
  3
ACAD_XREC_ROUNDTRIP
360
65BE
  0
XRECORD
  5
659C
102
{ACAD_REACTORS
330
659B
102
}
330
659B
100
AcDbXrecord
280
     1
102
SHADEPLOT
 70
     0
102
SHADEPLOTRESLEVEL
 70
     2
102
SHADEPLOTCUSTOMDPI
 70
   300
  0
XRECORD
  5
65A0
102
{ACAD_REACTORS
330
659F
102
}
330
659F
100
AcDbXrecord
280
     1
102
SHADEPLOT
 70
     0
102
SHADEPLOTRESLEVEL
 70
     2
102
SHADEPLOTCUSTOMDPI
 70
   300
  0
XRECORD
  5
659E
102
{ACAD_REACTORS
330
659D
102
}
330
659D
100
AcDbXrecord
280
     1
102
SHADEPLOT
 70
     0
102
SHADEPLOTRESLEVEL
 70
     2
102
SHADEPLOTCUSTOMDPI
 70
   300
  0
XRECORD
  5
65A3
102
{ACAD_REACTORS
330
64AA
102
}
330
64AA
100
AcDbXrecord
280
     1
102
MATERIAL
148
0.0
149
0.0
149
0.0
 93
        0
 94
      127
282
     0
 72
     0
 77
     0
171
     0
175
     0
179
     0
273
     0
  0
XRECORD
  5
64AC
102
{ACAD_REACTORS
330
64AA
102
}
330
64AA
100
AcDbXrecord
280
     1
270
     1
271
     1
  0
XRECORD
  5
64AB
102
{ACAD_REACTORS
330
64AA
102
}
330
64AA
100
AcDbXrecord
280
     1
270
     1
271
     1
  0
XRECORD
  5
64AF
102
{ACAD_REACTORS
330
64AA
102
}
330
64AA
100
AcDbXrecord
280
     1
270
     1
271
     1
  0
XRECORD
  5
64AE
102
{ACAD_REACTORS
330
64AA
102
}
330
64AA
100
AcDbXrecord
280
     1
270
     1
271
     1
  0
XRECORD
  5
64B0
102
{ACAD_REACTORS
330
64AA
102
}
330
64AA
100
AcDbXrecord
280
     1
270
     1
271
     1
  0
XRECORD
  5
64AD
102
{ACAD_REACTORS
330
64AA
102
}
330
64AA
100
AcDbXrecord
280
     1
270
     1
271
     1
  0
XRECORD
  5
65A2
102
{ACAD_REACTORS
330
64A2
102
}
330
64A2
100
AcDbXrecord
280
     1
102
MATERIAL
148
0.0
149
0.0
149
0.0
 93
        0
 94
      127
282
     0
 72
     0
 77
     0
171
     0
175
     0
179
     0
273
     0
  0
XRECORD
  5
64A4
102
{ACAD_REACTORS
330
64A2
102
}
330
64A2
100
AcDbXrecord
280
     1
270
     1
271
     1
  0
XRECORD
  5
64A3
102
{ACAD_REACTORS
330
64A2
102
}
330
64A2
100
AcDbXrecord
280
     1
270
     1
271
     1
  0
XRECORD
  5
64A7
102
{ACAD_REACTORS
330
64A2
102
}
330
64A2
100
AcDbXrecord
280
     1
270
     1
271
     1
  0
XRECORD
  5
64A6
102
{ACAD_REACTORS
330
64A2
102
}
330
64A2
100
AcDbXrecord
280
     1
270
     1
271
     1
  0
XRECORD
  5
64A8
102
{ACAD_REACTORS
330
64A2
102
}
330
64A2
100
AcDbXrecord
280
     1
270
     1
271
     1
  0
XRECORD
  5
64A5
102
{ACAD_REACTORS
330
64A2
102
}
330
64A2
100
AcDbXrecord
280
     1
270
     1
271
     1
  0
XRECORD
  5
65A4
102
{ACAD_REACTORS
330
64B2
102
}
330
64B2
100
AcDbXrecord
280
     1
102
MATERIAL
148
0.0
149
0.0
149
0.0
 93
        0
 94
      127
282
     0
 72
     0
 77
     0
171
     0
175
     0
179
     0
273
     0
  0
XRECORD
  5
64B4
102
{ACAD_REACTORS
330
64B2
102
}
330
64B2
100
AcDbXrecord
280
     1
270
     1
271
     1
  0
XRECORD
  5
64B3
102
{ACAD_REACTORS
330
64B2
102
}
330
64B2
100
AcDbXrecord
280
     1
270
     1
271
     1
  0
XRECORD
  5
64B7
102
{ACAD_REACTORS
330
64B2
102
}
330
64B2
100
AcDbXrecord
280
     1
270
     1
271
     1
  0
XRECORD
  5
64B6
102
{ACAD_REACTORS
330
64B2
102
}
330
64B2
100
AcDbXrecord
280
     1
270
     1
271
     1
  0
XRECORD
  5
64B8
102
{ACAD_REACTORS
330
64B2
102
}
330
64B2
100
AcDbXrecord
280
     1
270
     1
271
     1
  0
XRECORD
  5
64B5
102
{ACAD_REACTORS
330
64B2
102
}
330
64B2
100
AcDbXrecord
280
     1
270
     1
271
     1
  0
CELLSTYLEMAP
  5
6596
102
{ACAD_REACTORS
330
6595
102
}
330
6595
100
AcDbCellStyleMap
 90
        3
300
CELLSTYLE
  1
TABLEFORMAT_BEGIN
 90
        5
170
     1
 91
        0
 92
    32768
 62
   257
 93
        1
300
CONTENTFORMAT
  1
CONTENTFORMAT_BEGIN
 90
        0
 91
        0
 92
        4
 93
        0
300

 40
0.0
140
1.0
 94
        5
 62
     0
340
11
144
6.0
309
CONTENTFORMAT_END
171
     1
301
MARGIN
  1
CELLMARGIN_BEGIN
 40
1.5
 40
1.5
 40
1.5
 40
1.5
 40
0.18
 40
0.18
309
CELLMARGIN_END
 94
        6
 95
        1
302
GRIDFORMAT
  1
GRIDFORMAT_BEGIN
 90
        0
 91
        1
 62
     0
 92
       -2
340
0
 93
        0
 40
0.045
309
GRIDFORMAT_END
 95
        2
302
GRIDFORMAT
  1
GRIDFORMAT_BEGIN
 90
        0
 91
        1
 62
     0
 92
       -2
340
0
 93
        0
 40
0.045
309
GRIDFORMAT_END
 95
        4
302
GRIDFORMAT
  1
GRIDFORMAT_BEGIN
 90
        0
 91
        1
 62
     0
 92
       -2
340
0
 93
        0
 40
0.045
309
GRIDFORMAT_END
 95
        8
302
GRIDFORMAT
  1
GRIDFORMAT_BEGIN
 90
        0
 91
        1
 62
     0
 92
       -2
340
0
 93
        0
 40
0.045
309
GRIDFORMAT_END
 95
       16
302
GRIDFORMAT
  1
GRIDFORMAT_BEGIN
 90
        0
 91
        1
 62
     0
 92
       -2
340
0
 93
        0
 40
0.045
309
GRIDFORMAT_END
 95
       32
302
GRIDFORMAT
  1
GRIDFORMAT_BEGIN
 90
        0
 91
        1
 62
     0
 92
       -2
340
0
 93
        0
 40
0.045
309
GRIDFORMAT_END
309
TABLEFORMAT_END
  1
CELLSTYLE_BEGIN
 90
        1
 91
        1
300
_TITLE
309
CELLSTYLE_END
300
CELLSTYLE
  1
TABLEFORMAT_BEGIN
 90
        5
170
     1
 91
        0
 92
        0
 62
   257
 93
        1
300
CONTENTFORMAT
  1
CONTENTFORMAT_BEGIN
 90
        0
 91
        0
 92
        4
 93
        0
300

 40
0.0
140
1.0
 94
        5
 62
     0
340
11
144
4.5
309
CONTENTFORMAT_END
171
     1
301
MARGIN
  1
CELLMARGIN_BEGIN
 40
1.5
 40
1.5
 40
1.5
 40
1.5
 40
0.18
 40
0.18
309
CELLMARGIN_END
 94
        6
 95
        1
302
GRIDFORMAT
  1
GRIDFORMAT_BEGIN
 90
        0
 91
        1
 62
     0
 92
       -2
340
0
 93
        0
 40
0.045
309
GRIDFORMAT_END
 95
        2
302
GRIDFORMAT
  1
GRIDFORMAT_BEGIN
 90
        0
 91
        1
 62
     0
 92
       -2
340
0
 93
        0
 40
0.045
309
GRIDFORMAT_END
 95
        4
302
GRIDFORMAT
  1
GRIDFORMAT_BEGIN
 90
        0
 91
        1
 62
     0
 92
       -2
340
0
 93
        0
 40
0.045
309
GRIDFORMAT_END
 95
        8
302
GRIDFORMAT
  1
GRIDFORMAT_BEGIN
 90
        0
 91
        1
 62
     0
 92
       -2
340
0
 93
        0
 40
0.045
309
GRIDFORMAT_END
 95
       16
302
GRIDFORMAT
  1
GRIDFORMAT_BEGIN
 90
        0
 91
        1
 62
     0
 92
       -2
340
0
 93
        0
 40
0.045
309
GRIDFORMAT_END
 95
       32
302
GRIDFORMAT
  1
GRIDFORMAT_BEGIN
 90
        0
 91
        1
 62
     0
 92
       -2
340
0
 93
        0
 40
0.045
309
GRIDFORMAT_END
309
TABLEFORMAT_END
  1
CELLSTYLE_BEGIN
 90
        2
 91
        1
300
_HEADER
309
CELLSTYLE_END
300
CELLSTYLE
  1
TABLEFORMAT_BEGIN
 90
        5
170
     1
 91
        0
 92
        0
 62
   257
 93
        1
300
CONTENTFORMAT
  1
CONTENTFORMAT_BEGIN
 90
        0
 91
        0
 92
        4
 93
        0
300

 40
0.0
140
1.0
 94
        2
 62
     0
340
11
144
4.5
309
CONTENTFORMAT_END
171
     1
301
MARGIN
  1
CELLMARGIN_BEGIN
 40
1.5
 40
1.5
 40
1.5
 40
1.5
 40
0.18
 40
0.18
309
CELLMARGIN_END
 94
        6
 95
        1
302
GRIDFORMAT
  1
GRIDFORMAT_BEGIN
 90
        0
 91
        1
 62
     0
 92
       -2
340
0
 93
        0
 40
0.045
309
GRIDFORMAT_END
 95
        2
302
GRIDFORMAT
  1
GRIDFORMAT_BEGIN
 90
        0
 91
        1
 62
     0
 92
       -2
340
0
 93
        0
 40
0.045
309
GRIDFORMAT_END
 95
        4
302
GRIDFORMAT
  1
GRIDFORMAT_BEGIN
 90
        0
 91
        1
 62
     0
 92
       -2
340
0
 93
        0
 40
0.045
309
GRIDFORMAT_END
 95
        8
302
GRIDFORMAT
  1
GRIDFORMAT_BEGIN
 90
        0
 91
        1
 62
     0
 92
       -2
340
0
 93
        0
 40
0.045
309
GRIDFORMAT_END
 95
       16
302
GRIDFORMAT
  1
GRIDFORMAT_BEGIN
 90
        0
 91
        1
 62
     0
 92
       -2
340
0
 93
        0
 40
0.045
309
GRIDFORMAT_END
 95
       32
302
GRIDFORMAT
  1
GRIDFORMAT_BEGIN
 90
        0
 91
        1
 62
     0
 92
       -2
340
0
 93
        0
 40
0.045
309
GRIDFORMAT_END
309
TABLEFORMAT_END
  1
CELLSTYLE_BEGIN
 90
        3
 91
        2
300
_DATA
309
CELLSTYLE_END
  0
XRECORD
  5
65A1
102
{ACAD_REACTORS
330
6595
102
}
330
6595
100
AcDbXrecord
280
     1
102
ACAD_ROUNDTRIP_PRE2007_TABLESTYLE
 90
        4
 91
        0
  1

 92
        4
 93
        0
  2

 94
        4
 95
        0
  3

  0
XRECORD
  5
65B0
102
{ACAD_REACTORS
330
65AF
102
}
330
65AF
100
AcDbXrecord
280
     1
102
RTVSPropertyOp0
 70
     1
102
RTVSPropertyOp1
 70
     1
102
RTVSPropertyOp2
 70
     1
102
RTVSPropertyOp3
 70
     1
102
RTVSPropertyOp4
 70
     1
102
RTVSPropertyOp5
 70
     1
102
RTVSPropertyOp6
 70
     1
102
RTVSPropertyOp7
 70
     1
102
RTVSPropertyOp8
 70
     1
102
RTVSPropertyOp9
 70
     1
102
RTVSPropertyOp10
 70
     1
102
RTVSPropertyOp11
 70
     1
102
RTVSPropertyOp12
 70
     1
102
RTVSPropertyOp13
 70
     1
102
RTVSPropertyOp14
 70
     1
102
RTVSPropertyOp15
 70
     1
102
RTVSPropertyOp16
 70
     1
102
RTVSPropertyOp17
 70
     1
102
RTVSPropertyOp18
 70
     1
102
RTVSPropertyOp19
 70
     1
102
RTVSPropertyOp20
 70
     1
102
RTVSPropertyOp21
 70
     1
102
RTVSPropertyOp22
 70
     1
102
RTVSPropertyOp23
 70
     1
102
RTVSPropertyOp24
 70
     1
102
RTVSPropertyOp25
 70
     1
102
RTVSPropertyOp26
 70
     1
102
RTVSPropertyOp27
 70
     1
  0
XRECORD
  5
65B4
102
{ACAD_REACTORS
330
65B3
102
}
330
65B3
100
AcDbXrecord
280
     1
102
RTVSPropertyOp0
 70
     1
102
RTVSPropertyOp1
 70
     1
102
RTVSPropertyOp2
 70
     1
102
RTVSPropertyOp3
 70
     1
102
RTVSPropertyOp4
 70
     1
102
RTVSPropertyOp5
 70
     1
102
RTVSPropertyOp6
 70
     1
102
RTVSPropertyOp7
 70
     1
102
RTVSPropertyOp8
 70
     1
102
RTVSPropertyOp9
 70
     1
102
RTVSPropertyOp10
 70
     1
102
RTVSPropertyOp11
 70
     1
102
RTVSPropertyOp12
 70
     1
102
RTVSPropertyOp13
 70
     1
102
RTVSPropertyOp14
 70
     1
102
RTVSPropertyOp15
 70
     1
102
RTVSPropertyOp16
 70
     1
102
RTVSPropertyOp17
 70
     1
102
RTVSPropertyOp18
 70
     1
102
RTVSPropertyOp19
 70
     1
102
RTVSPropertyOp20
 70
     1
102
RTVSPropertyOp21
 70
     1
102
RTVSPropertyOp22
 70
     1
102
RTVSPropertyOp23
 70
     1
102
RTVSPropertyOp24
 70
     1
102
RTVSPropertyOp25
 70
     1
102
RTVSPropertyOp26
 70
     1
102
RTVSPropertyOp27
 70
     1
  0
XRECORD
  5
65B2
102
{ACAD_REACTORS
330
65B1
102
}
330
65B1
100
AcDbXrecord
280
     1
102
RTVSPropertyOp0
 70
     1
102
RTVSPropertyOp1
 70
     1
102
RTVSPropertyOp2
 70
     1
102
RTVSPropertyOp3
 70
     1
102
RTVSPropertyOp4
 70
     1
102
RTVSPropertyOp5
 70
     1
102
RTVSPropertyOp6
 70
     1
102
RTVSPropertyOp7
 70
     1
102
RTVSPropertyOp8
 70
     1
102
RTVSPropertyOp9
 70
     1
102
RTVSPropertyOp10
 70
     1
102
RTVSPropertyOp11
 70
     1
102
RTVSPropertyOp12
 70
     1
102
RTVSPropertyOp13
 70
     1
102
RTVSPropertyOp14
 70
     1
102
RTVSPropertyOp15
 70
     1
102
RTVSPropertyOp16
 70
     1
102
RTVSPropertyOp17
 70
     1
102
RTVSPropertyOp18
 70
     1
102
RTVSPropertyOp19
 70
     1
102
RTVSPropertyOp20
 70
     1
102
RTVSPropertyOp21
 70
     1
102
RTVSPropertyOp22
 70
     1
102
RTVSPropertyOp23
 70
     1
102
RTVSPropertyOp24
 70
     1
102
RTVSPropertyOp25
 70
     1
102
RTVSPropertyOp26
 70
     1
102
RTVSPropertyOp27
 70
     1
  0
XRECORD
  5
65AE
102
{ACAD_REACTORS
330
65AD
102
}
330
65AD
100
AcDbXrecord
280
     1
102
RTVSPropertyOp0
 70
     1
102
RTVSPropertyOp1
 70
     1
102
RTVSPropertyOp2
 70
     1
102
RTVSPropertyOp3
 70
     1
102
RTVSPropertyOp4
 70
     1
102
RTVSPropertyOp5
 70
     1
102
RTVSPropertyOp6
 70
     1
102
RTVSPropertyOp7
 70
     1
102
RTVSPropertyOp8
 70
     1
102
RTVSPropertyOp9
 70
     1
102
RTVSPropertyOp10
 70
     1
102
RTVSPropertyOp11
 70
     1
102
RTVSPropertyOp12
 70
     1
102
RTVSPropertyOp13
 70
     1
102
RTVSPropertyOp14
 70
     1
102
RTVSPropertyOp15
 70
     1
102
RTVSPropertyOp16
 70
     1
102
RTVSPropertyOp17
 70
     1
102
RTVSPropertyOp18
 70
     1
102
RTVSPropertyOp19
 70
     1
102
RTVSPropertyOp20
 70
     1
102
RTVSPropertyOp21
 70
     1
102
RTVSPropertyOp22
 70
     1
102
RTVSPropertyOp23
 70
     1
102
RTVSPropertyOp24
 70
     1
102
RTVSPropertyOp25
 70
     1
102
RTVSPropertyOp26
 70
     1
102
RTVSPropertyOp27
 70
     1
  0
XRECORD
  5
65BC
102
{ACAD_REACTORS
330
65BB
102
}
330
65BB
100
AcDbXrecord
280
     1
102
RTVSPropertyOp0
 70
     1
102
RTVSPropertyOp1
 70
     1
102
RTVSPropertyOp2
 70
     1
102
RTVSPropertyOp3
 70
     1
102
RTVSPropertyOp4
 70
     1
102
RTVSPropertyOp5
 70
     1
102
RTVSPropertyOp6
 70
     1
102
RTVSPropertyOp7
 70
     1
102
RTVSPropertyOp8
 70
     1
102
RTVSPropertyOp9
 70
     1
102
RTVSPropertyOp10
 70
     1
102
RTVSPropertyOp11
 70
     1
102
RTVSPropertyOp12
 70
     1
102
RTVSPropertyOp13
 70
     1
102
RTVSPropertyOp14
 70
     1
102
RTVSPropertyOp15
 70
     1
102
RTVSPropertyOp16
 70
     1
102
RTVSPropertyOp17
 70
     1
102
RTVSPropertyOp18
 70
     1
102
RTVSPropertyOp19
 70
     1
102
RTVSPropertyOp20
 70
     1
102
RTVSPropertyOp21
 70
     1
102
RTVSPropertyOp22
 70
     1
102
RTVSPropertyOp23
 70
     1
102
RTVSPropertyOp24
 70
     1
102
RTVSPropertyOp25
 70
     1
102
RTVSPropertyOp26
 70
     1
102
RTVSPropertyOp27
 70
     1
  0
XRECORD
  5
65C4
102
{ACAD_REACTORS
330
65C3
102
}
330
65C3
100
AcDbXrecord
280
     1
102
RTVSPropertyOp0
 70
     1
102
RTVSPropertyOp1
 70
     1
102
RTVSPropertyOp2
 70
     1
102
RTVSPropertyOp3
 70
     1
102
RTVSPropertyOp4
 70
     1
102
RTVSPropertyOp5
 70
     1
102
RTVSPropertyOp6
 70
     1
102
RTVSPropertyOp7
 70
     1
102
RTVSPropertyOp8
 70
     1
102
RTVSPropertyOp9
 70
     1
102
RTVSPropertyOp10
 70
     1
102
RTVSPropertyOp11
 70
     1
102
RTVSPropertyOp12
 70
     1
102
RTVSPropertyOp13
 70
     1
102
RTVSPropertyOp14
 70
     1
102
RTVSPropertyOp15
 70
     1
102
RTVSPropertyOp16
 70
     1
102
RTVSPropertyOp17
 70
     1
102
RTVSPropertyOp18
 70
     1
102
RTVSPropertyOp19
 70
     1
102
RTVSPropertyOp20
 70
     1
102
RTVSPropertyOp21
 70
     1
102
RTVSPropertyOp22
 70
     1
102
RTVSPropertyOp23
 70
     1
102
RTVSPropertyOp24
 70
     1
102
RTVSPropertyOp25
 70
     1
102
RTVSPropertyOp26
 70
     1
102
RTVSPropertyOp27
 70
     1
  0
XRECORD
  5
65B6
102
{ACAD_REACTORS
330
65B5
102
}
330
65B5
100
AcDbXrecord
280
     1
102
RTVSPropertyOp0
 70
     1
102
RTVSPropertyOp1
 70
     1
102
RTVSPropertyOp2
 70
     1
102
RTVSPropertyOp3
 70
     1
102
RTVSPropertyOp4
 70
     1
102
RTVSPropertyOp5
 70
     1
102
RTVSPropertyOp6
 70
     1
102
RTVSPropertyOp7
 70
     1
102
RTVSPropertyOp8
 70
     1
102
RTVSPropertyOp9
 70
     1
102
RTVSPropertyOp10
 70
     1
102
RTVSPropertyOp11
 70
     1
102
RTVSPropertyOp12
 70
     1
102
RTVSPropertyOp13
 70
     1
102
RTVSPropertyOp14
 70
     1
102
RTVSPropertyOp15
 70
     1
102
RTVSPropertyOp16
 70
     1
102
RTVSPropertyOp17
 70
     1
102
RTVSPropertyOp18
 70
     1
102
RTVSPropertyOp19
 70
     1
102
RTVSPropertyOp20
 70
     1
102
RTVSPropertyOp21
 70
     1
102
RTVSPropertyOp22
 70
     1
102
RTVSPropertyOp23
 70
     1
102
RTVSPropertyOp24
 70
     1
102
RTVSPropertyOp25
 70
     1
102
RTVSPropertyOp26
 70
     1
102
RTVSPropertyOp27
 70
     1
  0
XRECORD
  5
65BA
102
{ACAD_REACTORS
330
65B9
102
}
330
65B9
100
AcDbXrecord
280
     1
102
RTVSPropertyOp0
 70
     1
102
RTVSPropertyOp1
 70
     1
102
RTVSPropertyOp2
 70
     1
102
RTVSPropertyOp3
 70
     1
102
RTVSPropertyOp4
 70
     1
102
RTVSPropertyOp5
 70
     1
102
RTVSPropertyOp6
 70
     1
102
RTVSPropertyOp7
 70
     1
102
RTVSPropertyOp8
 70
     1
102
RTVSPropertyOp9
 70
     1
102
RTVSPropertyOp10
 70
     1
102
RTVSPropertyOp11
 70
     1
102
RTVSPropertyOp12
 70
     1
102
RTVSPropertyOp13
 70
     1
102
RTVSPropertyOp14
 70
     1
102
RTVSPropertyOp15
 70
     1
102
RTVSPropertyOp16
 70
     1
102
RTVSPropertyOp17
 70
     1
102
RTVSPropertyOp18
 70
     1
102
RTVSPropertyOp19
 70
     1
102
RTVSPropertyOp20
 70
     1
102
RTVSPropertyOp21
 70
     1
102
RTVSPropertyOp22
 70
     1
102
RTVSPropertyOp23
 70
     1
102
RTVSPropertyOp24
 70
     1
102
RTVSPropertyOp25
 70
     1
102
RTVSPropertyOp26
 70
     1
102
RTVSPropertyOp27
 70
     1
  0
XRECORD
  5
65CA
102
{ACAD_REACTORS
330
65C9
102
}
330
65C9
100
AcDbXrecord
280
     1
102
RTVSPropertyOp0
 70
     0
102
RTVSPropertyOp1
 70
     0
102
RTVSPropertyOp2
 70
     0
102
RTVSPropertyOp3
 70
     0
102
RTVSPropertyOp4
 70
     0
102
RTVSPropertyOp5
 70
     0
102
RTVSPropertyOp6
 70
     0
102
RTVSPropertyOp7
 70
     0
102
RTVSPropertyOp8
 70
     0
102
RTVSPropertyOp9
 70
     0
102
RTVSPropertyOp10
 70
     0
102
RTVSPropertyOp11
 70
     0
102
RTVSPropertyOp12
 70
     0
102
RTVSPropertyOp13
 70
     0
102
RTVSPropertyOp14
 70
     2
102
RTVSPropertyOp15
 70
     0
102
RTVSPropertyOp16
 70
     0
102
RTVSPropertyOp17
 70
     0
102
RTVSPropertyOp18
 70
     0
102
RTVSPropertyOp19
 70
     0
102
RTVSPropertyOp20
 70
     0
102
RTVSPropertyOp21
 70
     0
102
RTVSPropertyOp22
 70
     0
102
RTVSPropertyOp23
 70
     0
102
RTVSPropertyOp24
 70
     0
102
RTVSPropertyOp25
 70
     0
102
RTVSPropertyOp26
 70
     0
102
RTVSPropertyOp27
 70
     0
  0
XRECORD
  5
65C2
102
{ACAD_REACTORS
330
65C1
102
}
330
65C1
100
AcDbXrecord
280
     1
102
RTVSPropertyOp0
 70
     1
102
RTVSPropertyOp1
 70
     1
102
RTVSPropertyOp2
 70
     1
102
RTVSPropertyOp3
 70
     1
102
RTVSPropertyOp4
 70
     1
102
RTVSPropertyOp5
 70
     1
102
RTVSPropertyOp6
 70
     1
102
RTVSPropertyOp7
 70
     1
102
RTVSPropertyOp8
 70
     1
102
RTVSPropertyOp9
 70
     1
102
RTVSPropertyOp10
 70
     1
102
RTVSPropertyOp11
 70
     1
102
RTVSPropertyOp12
 70
     1
102
RTVSPropertyOp13
 70
     1
102
RTVSPropertyOp14
 70
     1
102
RTVSPropertyOp15
 70
     1
102
RTVSPropertyOp16
 70
     1
102
RTVSPropertyOp17
 70
     1
102
RTVSPropertyOp18
 70
     1
102
RTVSPropertyOp19
 70
     1
102
RTVSPropertyOp20
 70
     1
102
RTVSPropertyOp21
 70
     1
102
RTVSPropertyOp22
 70
     1
102
RTVSPropertyOp23
 70
     1
102
RTVSPropertyOp24
 70
     1
102
RTVSPropertyOp25
 70
     1
102
RTVSPropertyOp26
 70
     1
102
RTVSPropertyOp27
 70
     1
  0
XRECORD
  5
65A6
102
{ACAD_REACTORS
330
65A5
102
}
330
65A5
100
AcDbXrecord
280
     1
102
RTVSPropertyOp0
 70
     1
102
RTVSPropertyOp1
 70
     1
102
RTVSPropertyOp2
 70
     1
102
RTVSPropertyOp3
 70
     1
102
RTVSPropertyOp4
 70
     1
102
RTVSPropertyOp5
 70
     1
102
RTVSPropertyOp6
 70
     1
102
RTVSPropertyOp7
 70
     1
102
RTVSPropertyOp8
 70
     1
102
RTVSPropertyOp9
 70
     1
102
RTVSPropertyOp10
 70
     1
102
RTVSPropertyOp11
 70
     1
102
RTVSPropertyOp12
 70
     1
102
RTVSPropertyOp13
 70
     1
102
RTVSPropertyOp14
 70
     1
102
RTVSPropertyOp15
 70
     1
102
RTVSPropertyOp16
 70
     1
102
RTVSPropertyOp17
 70
     1
102
RTVSPropertyOp18
 70
     1
102
RTVSPropertyOp19
 70
     1
102
RTVSPropertyOp20
 70
     1
102
RTVSPropertyOp21
 70
     1
102
RTVSPropertyOp22
 70
     1
102
RTVSPropertyOp23
 70
     1
102
RTVSPropertyOp24
 70
     1
102
RTVSPropertyOp25
 70
     1
102
RTVSPropertyOp26
 70
     1
102
RTVSPropertyOp27
 70
     1
  0
XRECORD
  5
65A8
102
{ACAD_REACTORS
330
65A7
102
}
330
65A7
100
AcDbXrecord
280
     1
102
RTVSPropertyOp0
 70
     1
102
RTVSPropertyOp1
 70
     1
102
RTVSPropertyOp2
 70
     1
102
RTVSPropertyOp3
 70
     1
102
RTVSPropertyOp4
 70
     1
102
RTVSPropertyOp5
 70
     1
102
RTVSPropertyOp6
 70
     1
102
RTVSPropertyOp7
 70
     1
102
RTVSPropertyOp8
 70
     1
102
RTVSPropertyOp9
 70
     1
102
RTVSPropertyOp10
 70
     1
102
RTVSPropertyOp11
 70
     1
102
RTVSPropertyOp12
 70
     1
102
RTVSPropertyOp13
 70
     1
102
RTVSPropertyOp14
 70
     1
102
RTVSPropertyOp15
 70
     1
102
RTVSPropertyOp16
 70
     1
102
RTVSPropertyOp17
 70
     1
102
RTVSPropertyOp18
 70
     1
102
RTVSPropertyOp19
 70
     1
102
RTVSPropertyOp20
 70
     1
102
RTVSPropertyOp21
 70
     1
102
RTVSPropertyOp22
 70
     1
102
RTVSPropertyOp23
 70
     1
102
RTVSPropertyOp24
 70
     1
102
RTVSPropertyOp25
 70
     1
102
RTVSPropertyOp26
 70
     1
102
RTVSPropertyOp27
 70
     1
  0
XRECORD
  5
65AA
102
{ACAD_REACTORS
330
65A9
102
}
330
65A9
100
AcDbXrecord
280
     1
102
RTVSPropertyOp0
 70
     1
102
RTVSPropertyOp1
 70
     1
102
RTVSPropertyOp2
 70
     1
102
RTVSPropertyOp3
 70
     1
102
RTVSPropertyOp4
 70
     1
102
RTVSPropertyOp5
 70
     1
102
RTVSPropertyOp6
 70
     1
102
RTVSPropertyOp7
 70
     1
102
RTVSPropertyOp8
 70
     1
102
RTVSPropertyOp9
 70
     1
102
RTVSPropertyOp10
 70
     1
102
RTVSPropertyOp11
 70
     1
102
RTVSPropertyOp12
 70
     1
102
RTVSPropertyOp13
 70
     1
102
RTVSPropertyOp14
 70
     1
102
RTVSPropertyOp15
 70
     1
102
RTVSPropertyOp16
 70
     1
102
RTVSPropertyOp17
 70
     1
102
RTVSPropertyOp18
 70
     1
102
RTVSPropertyOp19
 70
     1
102
RTVSPropertyOp20
 70
     1
102
RTVSPropertyOp21
 70
     1
102
RTVSPropertyOp22
 70
     1
102
RTVSPropertyOp23
 70
     1
102
RTVSPropertyOp24
 70
     1
102
RTVSPropertyOp25
 70
     1
102
RTVSPropertyOp26
 70
     1
102
RTVSPropertyOp27
 70
     1
  0
XRECORD
  5
65AC
102
{ACAD_REACTORS
330
65AB
102
}
330
65AB
100
AcDbXrecord
280
     1
102
RTVSPropertyOp0
 70
     1
102
RTVSPropertyOp1
 70
     1
102
RTVSPropertyOp2
 70
     1
102
RTVSPropertyOp3
 70
     1
102
RTVSPropertyOp4
 70
     1
102
RTVSPropertyOp5
 70
     1
102
RTVSPropertyOp6
 70
     1
102
RTVSPropertyOp7
 70
     1
102
RTVSPropertyOp8
 70
     1
102
RTVSPropertyOp9
 70
     1
102
RTVSPropertyOp10
 70
     1
102
RTVSPropertyOp11
 70
     1
102
RTVSPropertyOp12
 70
     1
102
RTVSPropertyOp13
 70
     1
102
RTVSPropertyOp14
 70
     1
102
RTVSPropertyOp15
 70
     1
102
RTVSPropertyOp16
 70
     1
102
RTVSPropertyOp17
 70
     1
102
RTVSPropertyOp18
 70
     1
102
RTVSPropertyOp19
 70
     1
102
RTVSPropertyOp20
 70
     1
102
RTVSPropertyOp21
 70
     1
102
RTVSPropertyOp22
 70
     1
102
RTVSPropertyOp23
 70
     1
102
RTVSPropertyOp24
 70
     1
102
RTVSPropertyOp25
 70
     1
102
RTVSPropertyOp26
 70
     1
102
RTVSPropertyOp27
 70
     1
  0
XRECORD
  5
65C6
102
{ACAD_REACTORS
330
65C5
102
}
330
65C5
100
AcDbXrecord
280
     1
102
RTVSPropertyOp0
 70
     0
102
RTVSPropertyOp1
 70
     0
102
RTVSPropertyOp2
 70
     0
102
RTVSPropertyOp3
 70
     0
102
RTVSPropertyOp4
 70
     0
102
RTVSPropertyOp5
 70
     0
102
RTVSPropertyOp6
 70
     0
102
RTVSPropertyOp7
 70
     0
102
RTVSPropertyOp8
 70
     0
102
RTVSPropertyOp9
 70
     0
102
RTVSPropertyOp10
 70
     0
102
RTVSPropertyOp11
 70
     0
102
RTVSPropertyOp12
 70
     0
102
RTVSPropertyOp13
 70
     0
102
RTVSPropertyOp14
 70
     2
102
RTVSPropertyOp15
 70
     0
102
RTVSPropertyOp16
 70
     0
102
RTVSPropertyOp17
 70
     0
102
RTVSPropertyOp18
 70
     0
102
RTVSPropertyOp19
 70
     0
102
RTVSPropertyOp20
 70
     0
102
RTVSPropertyOp21
 70
     0
102
RTVSPropertyOp22
 70
     0
102
RTVSPropertyOp23
 70
     0
102
RTVSPropertyOp24
 70
     0
102
RTVSPropertyOp25
 70
     0
102
RTVSPropertyOp26
 70
     0
102
RTVSPropertyOp27
 70
     0
  0
XRECORD
  5
65C0
102
{ACAD_REACTORS
330
65BF
102
}
330
65BF
100
AcDbXrecord
280
     1
102
RTVSPropertyOp0
 70
     1
102
RTVSPropertyOp1
 70
     1
102
RTVSPropertyOp2
 70
     1
102
RTVSPropertyOp3
 70
     1
102
RTVSPropertyOp4
 70
     1
102
RTVSPropertyOp5
 70
     1
102
RTVSPropertyOp6
 70
     1
102
RTVSPropertyOp7
 70
     1
102
RTVSPropertyOp8
 70
     1
102
RTVSPropertyOp9
 70
     1
102
RTVSPropertyOp10
 70
     1
102
RTVSPropertyOp11
 70
     1
102
RTVSPropertyOp12
 70
     1
102
RTVSPropertyOp13
 70
     1
102
RTVSPropertyOp14
 70
     1
102
RTVSPropertyOp15
 70
     1
102
RTVSPropertyOp16
 70
     1
102
RTVSPropertyOp17
 70
     1
102
RTVSPropertyOp18
 70
     1
102
RTVSPropertyOp19
 70
     1
102
RTVSPropertyOp20
 70
     1
102
RTVSPropertyOp21
 70
     1
102
RTVSPropertyOp22
 70
     1
102
RTVSPropertyOp23
 70
     1
102
RTVSPropertyOp24
 70
     1
102
RTVSPropertyOp25
 70
     1
102
RTVSPropertyOp26
 70
     1
102
RTVSPropertyOp27
 70
     1
  0
XRECORD
  5
65C8
102
{ACAD_REACTORS
330
65C7
102
}
330
65C7
100
AcDbXrecord
280
     1
102
RTVSPropertyOp0
 70
     0
102
RTVSPropertyOp1
 70
     0
102
RTVSPropertyOp2
 70
     0
102
RTVSPropertyOp3
 70
     0
102
RTVSPropertyOp4
 70
     0
102
RTVSPropertyOp5
 70
     0
102
RTVSPropertyOp6
 70
     0
102
RTVSPropertyOp7
 70
     0
102
RTVSPropertyOp8
 70
     0
102
RTVSPropertyOp9
 70
     0
102
RTVSPropertyOp10
 70
     0
102
RTVSPropertyOp11
 70
     0
102
RTVSPropertyOp12
 70
     0
102
RTVSPropertyOp13
 70
     0
102
RTVSPropertyOp14
 70
     2
102
RTVSPropertyOp15
 70
     0
102
RTVSPropertyOp16
 70
     0
102
RTVSPropertyOp17
 70
     0
102
RTVSPropertyOp18
 70
     0
102
RTVSPropertyOp19
 70
     0
102
RTVSPropertyOp20
 70
     0
102
RTVSPropertyOp21
 70
     0
102
RTVSPropertyOp22
 70
     0
102
RTVSPropertyOp23
 70
     0
102
RTVSPropertyOp24
 70
     0
102
RTVSPropertyOp25
 70
     0
102
RTVSPropertyOp26
 70
     0
102
RTVSPropertyOp27
 70
     0
  0
XRECORD
  5
65B8
102
{ACAD_REACTORS
330
65B7
102
}
330
65B7
100
AcDbXrecord
280
     1
102
RTVSPropertyOp0
 70
     1
102
RTVSPropertyOp1
 70
     1
102
RTVSPropertyOp2
 70
     1
102
RTVSPropertyOp3
 70
     1
102
RTVSPropertyOp4
 70
     1
102
RTVSPropertyOp5
 70
     1
102
RTVSPropertyOp6
 70
     1
102
RTVSPropertyOp7
 70
     1
102
RTVSPropertyOp8
 70
     1
102
RTVSPropertyOp9
 70
     1
102
RTVSPropertyOp10
 70
     1
102
RTVSPropertyOp11
 70
     1
102
RTVSPropertyOp12
 70
     1
102
RTVSPropertyOp13
 70
     1
102
RTVSPropertyOp14
 70
     1
102
RTVSPropertyOp15
 70
     1
102
RTVSPropertyOp16
 70
     1
102
RTVSPropertyOp17
 70
     1
102
RTVSPropertyOp18
 70
     1
102
RTVSPropertyOp19
 70
     1
102
RTVSPropertyOp20
 70
     1
102
RTVSPropertyOp21
 70
     1
102
RTVSPropertyOp22
 70
     1
102
RTVSPropertyOp23
 70
     1
102
RTVSPropertyOp24
 70
     1
102
RTVSPropertyOp25
 70
     1
102
RTVSPropertyOp26
 70
     1
102
RTVSPropertyOp27
 70
     1
  0
XRECORD
  5
65BE
102
{ACAD_REACTORS
330
65BD
102
}
330
65BD
100
AcDbXrecord
280
     1
102
RTVSPropertyOp0
 70
     1
102
RTVSPropertyOp1
 70
     1
102
RTVSPropertyOp2
 70
     1
102
RTVSPropertyOp3
 70
     1
102
RTVSPropertyOp4
 70
     1
102
RTVSPropertyOp5
 70
     1
102
RTVSPropertyOp6
 70
     1
102
RTVSPropertyOp7
 70
     1
102
RTVSPropertyOp8
 70
     1
102
RTVSPropertyOp9
 70
     1
102
RTVSPropertyOp10
 70
     1
102
RTVSPropertyOp11
 70
     1
102
RTVSPropertyOp12
 70
     1
102
RTVSPropertyOp13
 70
     1
102
RTVSPropertyOp14
 70
     1
102
RTVSPropertyOp15
 70
     1
102
RTVSPropertyOp16
 70
     1
102
RTVSPropertyOp17
 70
     1
102
RTVSPropertyOp18
 70
     1
102
RTVSPropertyOp19
 70
     1
102
RTVSPropertyOp20
 70
     1
102
RTVSPropertyOp21
 70
     1
102
RTVSPropertyOp22
 70
     1
102
RTVSPropertyOp23
 70
     1
102
RTVSPropertyOp24
 70
     1
102
RTVSPropertyOp25
 70
     1
102
RTVSPropertyOp26
 70
     1
102
RTVSPropertyOp27
 70
     1
  0
ENDSEC
  0
EOF
