  0
SECTION
  2
HEADER
  9
$ACADVER
  1
AC1015
  9
$ACADMAINTVER
 70
    20
  9
$DWGCODEPAGE
  3
ANSI_1252
  9
$INSBASE
 10
0.0
 20
0.0
 30
0.0
  9
$EXTMIN
 10
875.4887621296864
 20
1284.852725422933
 30
0.0
  9
$EXTMAX
 10
2103.872546967152
 20
2465.816902568929
 30
0.0
  9
$LIMMIN
 10
0.0
 20
0.0
  9
$LIMMAX
 10
420.0
 20
297.0
  9
$ORTHOMODE
 70
     0
  9
$REGENMODE
 70
     1
  9
$FILLMODE
 70
     1
  9
$QTEXTMODE
 70
     0
  9
$MIRRTEXT
 70
     1
  9
$LTSCALE
 40
1.0
  9
$ATTMODE
 70
     1
  9
$TEXTSIZE
 40
2.5
  9
$TRACEWID
 40
1.0
  9
$TEXTSTYLE
  7
STANDARD
  9
$CLAYER
  8
0
  9
$CELTYPE
  6
ByLayer
  9
$CECOLOR
 62
   256
  9
$CELTSCALE
 40
1.0
  9
$DISPSILH
 70
     0
  9
$DIMSCALE
 40
1.0
  9
$DIMASZ
 40
2.5
  9
$DIMEXO
 40
1.0
  9
$DIMDLI
 40
10.0
  9
$DIMRND
 40
0.0
  9
$DIMDLE
 40
0.0
  9
$DIMEXE
 40
1.0
  9
$DIMTP
 40
0.1
  9
$DIMTM
 40
0.1
  9
$DIMTXT
 40
3.5
  9
$DIMCEN
 40
0.0
  9
$DIMTSZ
 40
0.0
  9
$DIMTOL
 70
     0
  9
$DIMLIM
 70
     0
  9
$DIMTIH
 70
     0
  9
$DIMTOH
 70
     0
  9
$DIMSE1
 70
     0
  9
$DIMSE2
 70
     0
  9
$DIMTAD
 70
     1
  9
$DIMZIN
 70
     8
  9
$DIMBLK
  1

  9
$DIMASO
 70
     1
  9
$DIMSHO
 70
     1
  9
$DIMPOST
  1

  9
$DIMAPOST
  1
"
  9
$DIMALT
 70
     0
  9
$DIMALTD
 70
     2
  9
$DIMALTF
 40
0.0393701
  9
$DIMLFAC
 40
1.0
  9
$DIMTOFL
 70
     1
  9
$DIMTVP
 40
0.0
  9
$DIMTIX
 70
     0
  9
$DIMSOXD
 70
     0
  9
$DIMSAH
 70
     0
  9
$DIMBLK1
  1

  9
$DIMBLK2
  1

  9
$DIMSTYLE
  2
AM_DIN
  9
$DIMCLRD
 70
   256
  9
$DIMCLRE
 70
   256
  9
$DIMCLRT
 70
     2
  9
$DIMTFAC
 40
0.71
  9
$DIMGAP
 40
1.5
  9
$DIMJUST
 70
     0
  9
$DIMSD1
 70
     0
  9
$DIMSD2
 70
     0
  9
$DIMTOLJ
 70
     0
  9
$DIMTZIN
 70
     8
  9
$DIMALTZ
 70
     0
  9
$DIMALTTZ
 70
     0
  9
$DIMUPT
 70
     0
  9
$DIMDEC
 70
     2
  9
$DIMTDEC
 70
     3
  9
$DIMALTU
 70
     2
  9
$DIMALTTD
 70
     4
  9
$DIMTXSTY
  7
STANDARD
  9
$DIMAUNIT
 70
     0
  9
$DIMADEC
 70
     0
  9
$DIMALTRND
 40
0.0
  9
$DIMAZIN
 70
     2
  9
$DIMDSEP
 70
    46
  9
$DIMATFIT
 70
     3
  9
$DIMFRAC
 70
     0
  9
$DIMLDRBLK
  1

  9
$DIMLUNIT
 70
     2
  9
$DIMLWD
 70
    -1
  9
$DIMLWE
 70
    -1
  9
$DIMTMOVE
 70
     0
  9
$LUNITS
 70
     2
  9
$LUPREC
 70
     2
  9
$SKETCHINC
 40
1.0
  9
$FILLETRAD
 40
2.5
  9
$AUNITS
 70
     0
  9
$AUPREC
 70
     0
  9
$MENU
  1
.
  9
$ELEVATION
 40
0.0
  9
$PELEVATION
 40
0.0
  9
$THICKNESS
 40
0.0
  9
$LIMCHECK
 70
     0
  9
$CHAMFERA
 40
2.5
  9
$CHAMFERB
 40
2.5
  9
$CHAMFERC
 40
20.0
  9
$CHAMFERD
 40
0.0
  9
$SKPOLY
 70
     0
  9
$TDCREATE
 40
2454053.357703808
  9
$TDUCREATE
 40
2454053.316037141
  9
$TDUPDATE
 40
2454053.357997142
  9
$TDUUPDATE
 40
2454053.316330474
  9
$TDINDWG
 40
0.0002936921
  9
$TDUSRTIMER
 40
0.0002936921
  9
$USRTIMER
 70
     1
  9
$ANGBASE
 50
0.0
  9
$ANGDIR
 70
     0
  9
$PDMODE
 70
     0
  9
$PDSIZE
 40
0.0
  9
$PLINEWID
 40
0.0
  9
$SPLFRAME
 70
     0
  9
$SPLINETYPE
 70
     6
  9
$SPLINESEGS
 70
     8
  9
$HANDSEED
  5
5DC
  9
$SURFTAB1
 70
     6
  9
$SURFTAB2
 70
     6
  9
$SURFTYPE
 70
     6
  9
$SURFU
 70
     6
  9
$SURFV
 70
     6
  9
$UCSBASE
  2

  9
$UCSNAME
  2

  9
$UCSORG
 10
0.0
 20
0.0
 30
0.0
  9
$UCSXDIR
 10
1.0
 20
0.0
 30
0.0
  9
$UCSYDIR
 10
0.0
 20
1.0
 30
0.0
  9
$UCSORTHOREF
  2

  9
$UCSORTHOVIEW
 70
     0
  9
$UCSORGTOP
 10
0.0
 20
0.0
 30
0.0
  9
$UCSORGBOTTOM
 10
0.0
 20
0.0
 30
0.0
  9
$UCSORGLEFT
 10
0.0
 20
0.0
 30
0.0
  9
$UCSORGRIGHT
 10
0.0
 20
0.0
 30
0.0
  9
$UCSORGFRONT
 10
0.0
 20
0.0
 30
0.0
  9
$UCSORGBACK
 10
0.0
 20
0.0
 30
0.0
  9
$PUCSBASE
  2

  9
$PUCSNAME
  2

  9
$PUCSORG
 10
0.0
 20
0.0
 30
0.0
  9
$PUCSXDIR
 10
1.0
 20
0.0
 30
0.0
  9
$PUCSYDIR
 10
0.0
 20
1.0
 30
0.0
  9
$PUCSORTHOREF
  2

  9
$PUCSORTHOVIEW
 70
     0
  9
$PUCSORGTOP
 10
0.0
 20
0.0
 30
0.0
  9
$PUCSORGBOTTOM
 10
0.0
 20
0.0
 30
0.0
  9
$PUCSORGLEFT
 10
0.0
 20
0.0
 30
0.0
  9
$PUCSORGRIGHT
 10
0.0
 20
0.0
 30
0.0
  9
$PUCSORGFRONT
 10
0.0
 20
0.0
 30
0.0
  9
$PUCSORGBACK
 10
0.0
 20
0.0
 30
0.0
  9
$USERI1
 70
     0
  9
$USERI2
 70
     0
  9
$USERI3
 70
     0
  9
$USERI4
 70
     0
  9
$USERI5
 70
     0
  9
$USERR1
 40
0.0
  9
$USERR2
 40
0.0
  9
$USERR3
 40
0.0
  9
$USERR4
 40
0.0
  9
$USERR5
 40
0.0
  9
$WORLDVIEW
 70
     1
  9
$SHADEDGE
 70
     3
  9
$SHADEDIF
 70
    70
  9
$TILEMODE
 70
     1
  9
$MAXACTVP
 70
    64
  9
$PINSBASE
 10
0.0
 20
0.0
 30
0.0
  9
$PLIMCHECK
 70
     0
  9
$PEXTMIN
 10
1.000000000000000E+20
 20
1.000000000000000E+20
 30
1.000000000000000E+20
  9
$PEXTMAX
 10
-1.000000000000000E+20
 20
-1.000000000000000E+20
 30
-1.000000000000000E+20
  9
$PLIMMIN
 10
0.0
 20
0.0
  9
$PLIMMAX
 10
420.0
 20
297.0
  9
$UNITMODE
 70
     0
  9
$VISRETAIN
 70
     1
  9
$PLINEGEN
 70
     0
  9
$PSLTSCALE
 70
     1
  9
$TREEDEPTH
 70
  3020
  9
$CMLSTYLE
  2
Standard
  9
$CMLJUST
 70
     0
  9
$CMLSCALE
 40
20.0
  9
$PROXYGRAPHICS
 70
     1
  9
$MEASUREMENT
 70
     1
  9
$CELWEIGHT
370
    -1
  9
$ENDCAPS
280
     0
  9
$JOINSTYLE
280
     0
  9
$LWDISPLAY
290
     0
  9
$INSUNITS
 70
     4
  9
$HYPERLINKBASE
  1

  9
$STYLESHEET
  1

  9
$XEDIT
290
     1
  9
$CEPSNTYPE
380
     0
  9
$PSTYLEMODE
290
     1
  9
$FINGERPRINTGUID
  2
{140F175C-C6EF-446C-ACC0-8B7C3391E68A}
  9
$VERSIONGUID
  2
{E3770400-A9CA-4FC3-8E0B-8D1FB9E5BFD8}
  9
$EXTNAMES
290
     1
  9
$PSVPSCALE
 40
0.0
  9
$OLESTARTUP
290
     0
  0
ENDSEC
  0
SECTION
  2
CLASSES
  0
CLASS
  1
ACDBDICTIONARYWDFLT
  2
AcDbDictionaryWithDefault
  3
ObjectDBX Classes
 90
        0
280
     0
281
     0
  0
CLASS
  1
ACDBPLACEHOLDER
  2
AcDbPlaceHolder
  3
ObjectDBX Classes
 90
        0
280
     0
281
     0
  0
CLASS
  1
LAYOUT
  2
AcDbLayout
  3
ObjectDBX Classes
 90
        0
280
     0
281
     0
  0
CLASS
  1
AMGSETTINGSOBJ
  2
AmgSettingsObj
  3
"AcadM|Product Description: AutoCAD Mechanical 2000|Company: Autodesk"
 90
        0
280
     0
281
     0
  0
CLASS
  1
ACME_DOCUMENT
  2
AcMeDbDoc
  3
AcMeServices
 90
        0
280
     0
281
     0
  0
CLASS
  1
ACMESCOPE
  2
AcMeScope
  3
AcMeServices
 90
        0
280
     0
281
     0
  0
CLASS
  1
ACMECOMMANDHISTORY
  2
AcMeCommandHistory
  3
AcMeServices
 90
        0
280
     0
281
     0
  0
CLASS
  1
DICTIONARYVAR
  2
AcDbDictionaryVar
  3
ObjectDBX Classes
 90
        0
280
     0
281
     0
  0
CLASS
  1
ACIMSYSVARMAN
  2
AcImSysVarManager
  3
AcMeServices
 90
        0
280
     0
281
     0
  0
CLASS
  1
ACIMREALSYSVAR
  2
AcImRealSysVar
  3
AcMeServices
 90
        0
280
     0
281
     0
  0
CLASS
  1
ACIMINTSYSVAR
  2
AcImIntSysVar
  3
AcMeServices
 90
        0
280
     0
281
     0
  0
CLASS
  1
ACMEDRAWINGMAN
  2
AcMeDrawingMan
  3
AcMeServices
 90
        0
280
     0
281
     0
  0
CLASS
  1
ACMEVIEW
  2
AcMeView
  3
AcMeServices
 90
        0
280
     0
281
     0
  0
CLASS
  1
ACDBENTITYCACHE
  2
AcMeEntityCache
  3
AcMeServices
 90
        0
280
     0
281
     0
  0
CLASS
  1
GSMANAGER
  2
AcMeGSManager
  3
AcMeServices
 90
        0
280
     0
281
     0
  0
CLASS
  1
AMDTINTERNALREACTOR
  2
AmdtInternalReactor
  3
AcMeServices
 90
        0
280
     0
281
     0
  0
CLASS
  1
ACMESTATEMGR
  2
AcMeStateMgr
  3
AcMeServices
 90
        0
280
     0
281
     0
  0
CLASS
  1
ACGREFMASTER
  2
AcGrefMaster
  3
AcAttribServices
 90
        0
280
     0
281
     0
  0
CLASS
  1
ACME_DATABASE
  2
AcMeDbDatabase
  3
AcMeServices
 90
        0
280
     0
281
     0
  0
CLASS
  1
ACRFINSADJUSTERMGR
  2
AcRfInsAdjusterMgr
  3
AcMeServices
 90
        0
280
     0
281
     0
  0
CLASS
  1
ACGREFACADMASTER
  2
AcGrefacadMaster
  3
AcGrefServices
 90
        0
280
     0
281
     0
  0
CLASS
  1
AMIMASTER
  2
AmiMaster
  3
AmiServices
 90
        0
280
     0
281
     0
  0
CLASS
  1
ACIMSTRSYSVAR
  2
AcImStrSysVar
  3
AcMeServices
 90
        0
280
     0
281
     0
  0
CLASS
  1
ACMSTANDARDDIN
  2
AcmStandardDIN
  3
"Amdt_StdImp|Product Description: AutoCAD Mechanical 2004 DX|Company: Autodesk"
 90
        0
280
     0
281
     0
  0
CLASS
  1
AMGOBJPROPCFG
  2
AmgObjPropCfg
  3
"AmgLay|Product Description: AutoCAD Mechanical 2000|Company: Autodesk"
 90
        1
280
     0
281
     0
  0
CLASS
  1
AMDTEDGESTANDARDDIN
  2
AmdtEdgeStdDIN
  3
"Amdt_StdImp|Product Description: AutoCAD Mechanical 2004 DX|Company: Autodesk"
 90
        0
280
     0
281
     0
  0
CLASS
  1
ACMSURFSTANDARDDIN
  2
AcmSurfTextStdDIN
  3
"Amdt_StdImp|Product Description: AutoCAD Mechanical 2004 DX|Company: Autodesk"
 90
        0
280
     0
281
     0
  0
CLASS
  1
ACMFCFSTANDARDDIN
  2
AcmFCFStdDIN
  3
"Amdt_StdImp|Product Description: AutoCAD Mechanical 2004 DX|Company: Autodesk"
 90
        0
280
     0
281
     0
  0
CLASS
  1
ACMWELDSTANDARDDIN
  2
AcmWeldingStdDIN
  3
"Amdt_StdImp|Product Description: AutoCAD Mechanical 2004 DX|Company: Autodesk"
 90
        0
280
     0
281
     0
  0
CLASS
  1
ACMIDSTANDARDDIN
  2
AcmIdStdDIN
  3
"Amdt_StdImp|Product Description: AutoCAD Mechanical 2004 DX|Company: Autodesk"
 90
        0
280
     0
281
     0
  0
CLASS
  1
ACMDATUMSTANDARDDIN
  2
AcmDatumStdDIN
  3
"Amdt_StdImp|Product Description: AutoCAD Mechanical 2004 DX|Company: Autodesk"
 90
        0
280
     0
281
     0
  0
CLASS
  1
ACMBOMSTANDARDDIN
  2
AcmBOMStdDIN
  3
"Amdt_StdImp|Product Description: AutoCAD Mechanical 2004 DX|Company: Autodesk"
 90
        0
280
     0
281
     0
  0
CLASS
  1
ACMDETAILSTANDARDDIN
  2
AmdtDetailSymStdDIN
  3
"Amdt_StdImp|Product Description: AutoCAD Mechanical 2004 DX|Company: Autodesk"
 90
        0
280
     0
281
     0
  0
CLASS
  1
ACMSECTIONSTANDARDDIN
  2
AmdtSectionSymStdDIN
  3
"Amdt_StdImp|Product Description: AutoCAD Mechanical 2004 DX|Company: Autodesk"
 90
        0
280
     0
281
     0
  0
CLASS
  1
ACMCENTERLINESTANDARDDIN
  2
AmdtCenterLineStdDIN
  3
"Amdt_StdImp|Product Description: AutoCAD Mechanical 2004 DX|Company: Autodesk"
 90
        0
280
     0
281
     0
  0
CLASS
  1
ACMTHREADLINESTANDARDDIN
  2
AmdtThreadLineStdDIN
  3
"Amdt_StdImp|Product Description: AutoCAD Mechanical 2004 DX|Company: Autodesk"
 90
        0
280
     0
281
     0
  0
CLASS
  1
ACAMGLAYSTD
  2
AcAmgLayStd
  3
"AcAmgLayStd|Product Description: AutoCAD Mechanical 2000|Company: Autodesk"
 90
        0
280
     0
281
     0
  0
CLASS
  1
ACAMGDIMSTD
  2
AcAmgDimStd
  3
"AcAmgDimStd|Product Description: AutoCAD Mechanical 2000|Company: Autodesk"
 90
        0
280
     0
281
     0
  0
CLASS
  1
ACAMGTITLESTD
  2
AcAmgTitleStd
  3
"TITLEAPP"
 90
        0
280
     0
281
     0
  0
CLASS
  1
ACMDATADICTIONARY
  2
AcmDataDictionary
  3
"AcmSymBB|Product Description: AutoCAD Mechanical 2004 DX|Company: Autodesk"
 90
        0
280
     0
281
     0
  0
CLASS
  1
ACMDATAENTRYBLOCK
  2
AcmDataEntryBlock
  3
"AcmSymBB|Product Description: AutoCAD Mechanical 2004 DX|Company: Autodesk"
 90
        0
280
     0
281
     0
  0
CLASS
  1
LAYER_INDEX
  2
AcDbLayerIndex
  3
ObjectDBX Classes
 90
    32768
280
     0
281
     0
  0
CLASS
  1
IDBUFFER
  2
AcDbIdBuffer
  3
ObjectDBX Classes
 90
    32768
280
     0
281
     0
  0
CLASS
  1
ACMNOTESTANDARDDIN
  2
AmdtNoteStdDIN
  3
"Amdt_StdImp|Product Description: AutoCAD Mechanical 2004 DX|Company: Autodesk"
 90
        0
280
     0
281
     0
  0
CLASS
  1
ACAMGHOLECHARTSTDDIN
  2
AcAmgHoleChartStdDIN
  3
ACMSYMBB_MODULE_NAME
 90
        0
280
     0
281
     0
  0
CLASS
  1
AM_DRAWING_MGR
  2
AcDmDwgMgr
  3
AcMechDwgViewMgmt
 90
        0
280
     0
281
     0
  0
CLASS
  1
AM_DWG_DOCUMENT
  2
AcDmDwgDocument
  3
AcMechDwgViewMgmt
 90
        0
280
     0
281
     0
  0
CLASS
  1
AM_DWG_SHEET
  2
AcDmSheet
  3
AcMechDwgViewMgmt
 90
        0
280
     0
281
     0
  0
CLASS
  1
AM_VIEWDIMPARMAP
  2
AcDmViewDimParMap
  3
AcMechDwgViewMgmt
 90
        0
280
     0
281
     0
  0
CLASS
  1
AM_DWGMGR_NAME
  2
AcDmDwgMgrName
  3
AcMechDwgViewMgmt
 90
        0
280
     0
281
     0
  0
CLASS
  1
AMDTMENUSTATEMGR
  2
AmdtMenuStateMgr
  3
McadcomServices
 90
        0
280
     0
281
     0
  0
CLASS
  1
AMDTMCOMMENUSTATE
  2
AmdtMcomMenuState
  3
McadcomServices
 90
        0
280
     0
281
     0
  0
CLASS
  1
MAPIAMMOUDLE
  2
MApiAmModule
  3
MApiAmServices
 90
        0
280
     0
281
     0
  0
CLASS
  1
AMDTADMENUSTATE
  2
AmdtAdMenuState
  3
DesignerServices
 90
        0
280
     0
281
     0
  0
CLASS
  1
ADAPPL
  2
AcAdAppl
  3
DesignerServices
 90
        0
280
     0
281
     0
  0
CLASS
  1
DEPMGR
  2
AcAdDepMgr
  3
DesignerServices
 90
        0
280
     0
281
     0
  0
CLASS
  1
PARAMMGR
  2
AcAdParamMgr
  3
DesignerServices
 90
        0
280
     0
281
     0
  0
CLASS
  1
PARAMSCOPE
  2
AcAdParamScope
  3
DesignerServices
 90
        0
280
     0
281
     0
  0
CLASS
  1
NAMEDAPPL
  2
AcAdNamedAppl
  3
DesignerServices
 90
        0
280
     0
281
     0
  0
CLASS
  1
AMDTDMMENUSTATE
  2
AmdtDmMenuState
  3
AcMechDwgViewMgmt
 90
        0
280
     0
281
     0
  0
CLASS
  1
AMDTAMMENUSTATE
  2
AmdtAmMenuState
  3
DesignerAssemblies
 90
        0
280
     0
281
     0
  0
CLASS
  1
ACAMPROJECT
  2
AcAmProject
  3
DesignerAssemblies
 90
        0
280
     0
281
     0
  0
CLASS
  1
ACAMGRCOMPDEF
  2
AcAmGrCompDef
  3
DesignerAssemblies
 90
        0
280
     0
281
     0
  0
CLASS
  1
ACCMCONTEXT
  2
AcCmContext
  3
DesignerAssemblies
 90
        0
280
     0
281
     0
  0
CLASS
  1
ACAMCOMPDEF
  2
AcAmCompDef
  3
DesignerAssemblies
 90
        0
280
     0
281
     0
  0
CLASS
  1
ACAMCOMPDEFMGR
  2
AcAmCompDefMgr
  3
DesignerAssemblies
 90
        0
280
     0
281
     0
  0
CLASS
  1
AMCONTEXTMGR
  2
AcAmContextMgr
  3
DesignerAssemblies
 90
        0
280
     0
281
     0
  0
CLASS
  1
ACAMCONTEXTMODELER
  2
AcAmContextModeler
  3
DesignerAssemblies
 90
        0
280
     0
281
     0
  0
CLASS
  1
CATALOGSTATE
  2
AcAmCatalogState
  3
DesignerAssemblies
 90
        0
280
     0
281
     0
  0
CLASS
  1
ACAMGRCOMPDEFSET
  2
AcAmGrCompDefSet
  3
DesignerAssemblies
 90
        0
280
     0
281
     0
  0
CLASS
  1
AMDTBROWSERDBTAB
  2
AmdtBrowserDbTab
  3
McadcomServices
 90
        0
280
     0
281
     0
  0
CLASS
  1
CBROWSERAPPOBJECT
  2
CBrowserAppObject
  3
McadcomServices
 90
        0
280
     0
281
     0
  0
CLASS
  1
DM_PLACEHOLDER
  2
AcDmSelsetPlaceholder
  3
AcMechDwgViewMgmt
 90
        0
280
     0
281
     0
  0
CLASS
  1
TABLESTYLE
  2
AcDbTableStyle
  3
ObjectDBX Classes
 90
     2047
280
     0
281
     0
  0
CLASS
  1
VAACXREFPANELOBJECT
  2
VaAcXREFPanelObject
  3
VAAC_ADDIN
 90
    32768
280
     0
281
     0
  0
CLASS
  1
VAACIMAGEINVENTORY
  2
VaAcImageInventory
  3
VAAC_ADDIN
 90
    32768
280
     0
281
     0
  0
CLASS
  1
AMDTNOTETEMPLATEDB
  2
AmdtNoteTemplateDB
  3
AMDT_STDIMP_MODULE_NAME
 90
        0
280
     0
281
     0
  0
CLASS
  1
ACAMGFILTERDAT
  2
AcAmgFilterDat
  3
"AcadM|Product Description: AutoCAD Mechanical 2000|Company: Autodesk"
 90
        0
280
     0
281
     0
  0
CLASS
  1
ACMBOM
  2
AcmBom
  3
"AcmSymBB|Product Description: AutoCAD Mechanical 2004 DX|Company: Autodesk"
 90
    32768
280
     0
281
     0
  0
CLASS
  1
AMDTFORMULAUPDATEDISPATCHER
  2
AmdtFormulaUpdateDispatcher
  3
AcMeServices
 90
    32768
280
     0
281
     0
  0
CLASS
  1
DIMASSOC
  2
AcDbDimAssoc
  3
"AcDbDimAssoc|Product Desc:     AcDim ARX App For Dimension|Company:          Autodesk, Inc.|WEB Address:      www.autodesk.com"
 90
        0
280
     0
281
     0
  0
CLASS
  1
SORTENTSTABLE
  2
AcDbSortentsTable
  3
ObjectDBX Classes
 90
        0
280
     0
281
     0
  0
CLASS
  1
ACRFATTGENMGR
  2
AcRfAttGeneralMgr
  3
AcAttribServices
 90
        0
280
     0
281
     0
  0
ENDSEC
  0
SECTION
  2
TABLES
  0
TABLE
  2
VPORT
  5
8
330
0
100
AcDbSymbolTable
 70
     3
  0
VPORT
  5
5D3
330
8
100
AcDbSymbolTableRecord
100
AcDbViewportTableRecord
  2
*Active
 70
     0
 10
0.0
 20
0.0
 11
1.0
 21
1.0
 12
1489.680654548419
 22
1875.33481399593
 13
0.0
 23
0.0
 14
2.5
 24
2.5
 15
10.0
 25
10.0
 16
0.0
 26
0.0
 36
1.0
 17
0.0
 27
0.0
 37
0.0
 40
1188.943664829414
 41
1.378804960541149
 42
50.0
 43
0.0
 44
0.0
 50
0.0
 51
0.0
 71
     0
 72
   100
 73
     1
 74
     3
 75
     0
 76
     0
 77
     0
 78
     0
281
     0
 65
     1
110
0.0
120
0.0
130
0.0
111
1.0
121
0.0
131
0.0
112
0.0
122
1.0
132
0.0
 79
     0
146
0.0
  0
ENDTAB
  0
TABLE
  2
LTYPE
  5
5
330
0
100
AcDbSymbolTable
 70
    21
  0
LTYPE
  5
14
330
5
100
AcDbSymbolTableRecord
100
AcDbLinetypeTableRecord
  2
ByBlock
 70
     0
  3

 72
    65
 73
     0
 40
0.0
  0
LTYPE
  5
15
330
5
100
AcDbSymbolTableRecord
100
AcDbLinetypeTableRecord
  2
ByLayer
 70
     0
  3

 72
    65
 73
     0
 40
0.0
  0
LTYPE
  5
16
330
5
100
AcDbSymbolTableRecord
100
AcDbLinetypeTableRecord
  2
Continuous
 70
     0
  3
Solid line
 72
    65
 73
     0
 40
0.0
  0
LTYPE
  5
50
330
5
100
AcDbSymbolTableRecord
100
AcDbLinetypeTableRecord
  2
Amconstr
 70
     0
  3
_______________________
 72
    65
 73
     2
 40
9999.0
 49
9999.0
 74
     0
 49
0.0
 74
     0
  0
LTYPE
  5
55
330
5
100
AcDbSymbolTableRecord
100
AcDbLinetypeTableRecord
  2
Amzigzag
 70
     0
  3
/\/-/\/-/\/-/\/-/\/-/\/
 72
    65
 73
     2
 40
11.0001
 49
0.0001
 74
     4
 75
   136
340
285
 46
0.04
 50
0.0
 44
0.0
 45
0.0
 49
-11.0
 74
     0
  0
LTYPE
  5
56
330
5
100
AcDbSymbolTableRecord
100
AcDbLinetypeTableRecord
  2
AM_DIN_F_W050
 70
     0
  3
__ __ __ __ __ __ __ __ __ __ __ __ __ __ __
 72
    65
 73
     2
 40
6.25
 49
4.75
 74
     0
 49
-1.5
 74
     0
  0
LTYPE
  5
57
330
5
100
AcDbSymbolTableRecord
100
AcDbLinetypeTableRecord
  2
AM_DIN_G_W050
 70
     0
  3
____ . ____ . ____ . ____ . ____ . ____ . ____
 72
    65
 73
     4
 40
13.75
 49
9.75
 74
     0
 49
-1.5
 74
     0
 49
1.0
 74
     0
 49
-1.5
 74
     0
  0
LTYPE
  5
58
330
5
100
AcDbSymbolTableRecord
100
AcDbLinetypeTableRecord
  2
AM_DIN_K_W050
 70
     0
  3
_____ . . _____ . . _____ . . ____ .. ____
 72
    65
 73
     6
 40
16.25
 49
9.75
 74
     0
 49
-1.5
 74
     0
 49
1.0
 74
     0
 49
-1.5
 74
     0
 49
1.0
 74
     0
 49
-1.5
 74
     0
  0
LTYPE
  5
59
330
5
100
AcDbSymbolTableRecord
100
AcDbLinetypeTableRecord
  2
AM_DIN_G_W050x2
 70
     0
  3
__ . __ . __ . __ . __ . __
 72
    65
 73
     4
 40
6.875
 49
4.75
 74
     0
 49
-0.875
 74
     0
 49
0.375
 74
     0
 49
-0.875
 74
     0
  0
LTYPE
  5
5A
330
5
100
AcDbSymbolTableRecord
100
AcDbLinetypeTableRecord
  2
AM_DIN_F_W050x2
 70
     0
  3
 _ _ _ _ _ _ _ _ _ _ _ _
 72
    65
 73
     2
 40
3.125
 49
2.25
 74
     0
 49
-0.875
 74
     0
  0
LTYPE
  5
68
330
5
100
AcDbSymbolTableRecord
100
AcDbLinetypeTableRecord
  2
ACDINWELD
 70
     0
  3
_ _ _ _ _
 72
    65
 73
     2
 40
2.0
 49
2.0
 74
     0
 49
-1.0
 74
     0
  0
LTYPE
  5
69
330
5
100
AcDbSymbolTableRecord
100
AcDbLinetypeTableRecord
  2
ACDINTGB
 70
     0
  3
__ . . __ . .
 72
    65
 73
     6
 40
9.0
 49
4.0
 74
     0
 49
-1.0
 74
     0
 49
1.0
 74
     0
 49
-1.0
 74
     0
 49
1.0
 74
     0
 49
-1.0
 74
     0
  0
LTYPE
  5
6A
330
5
100
AcDbSymbolTableRecord
100
AcDbLinetypeTableRecord
  2
ACDINTGL
 70
     0
  3
_ _ _ _ _
 72
    65
 73
     2
 40
3.0
 49
2.0
 74
     0
 49
-1.0
 74
     0
  0
LTYPE
  5
6C
330
5
100
AcDbSymbolTableRecord
100
AcDbLinetypeTableRecord
  2
CENTER
 70
     0
  3
__ . __
 72
    65
 73
     4
 40
7.0
 49
4.0
 74
     0
 49
-1.0
 74
     0
 49
1.0
 74
     0
 49
-1.0
 74
     0
  0
LTYPE
  5
F2
330
5
100
AcDbSymbolTableRecord
100
AcDbLinetypeTableRecord
  2
HIDDEN
 70
     0
  3
Hidden __ __ __ __ __ __ __ __ __ __ __ __ __ _
 72
    65
 73
     2
 40
9.524999999999998
 49
6.349999999999999
 74
     0
 49
-3.174999999999999
 74
     0
  0
LTYPE
  5
F3
330
5
100
AcDbSymbolTableRecord
100
AcDbLinetypeTableRecord
  2
PHANTOM2
 70
     0
  3
Phantom (.5x) ___ _ _ ___ _ _ ___ _ _ ___ _ _
 72
    65
 73
     6
 40
31.75
 49
15.875
 74
     0
 49
-3.174999999999999
 74
     0
 49
3.174999999999999
 74
     0
 49
-3.174999999999999
 74
     0
 49
3.174999999999999
 74
     0
 49
-3.174999999999999
 74
     0
  0
LTYPE
  5
34C
330
5
100
AcDbSymbolTableRecord
100
AcDbLinetypeTableRecord
  2
AUSGEZOGEN
 70
     0
  3
_______________________________________________
 72
    65
 73
     0
 40
0.0
  0
ENDTAB
  0
TABLE
  2
LAYER
  5
2
102
{ACAD_XDICTIONARY
360
C0
102
}
330
0
100
AcDbSymbolTable
 70
    10
  0
LAYER
  5
10
330
2
100
AcDbSymbolTableRecord
100
AcDbLayerTableRecord
  2
0
 70
     0
 62
     7
  6
Continuous
370
    -3
390
F
  0
LAYER
  5
34D
330
2
100
AcDbSymbolTableRecord
100
AcDbLayerTableRecord
  2
AM_7
 70
     0
 62
     4
  6
AM_DIN_G_W050
370
    25
390
F
  0
LAYER
  5
34E
330
2
100
AcDbSymbolTableRecord
100
AcDbLayerTableRecord
  2
DEFPOINTS
 70
     0
 62
     7
  6
Continuous
290
     0
370
    -3
390
F
  0
LAYER
  5
34F
330
2
100
AcDbSymbolTableRecord
100
AcDbLayerTableRecord
  2
406
 70
     0
 62
     7
  6
Continuous
370
    -3
390
F
  0
LAYER
  5
350
330
2
100
AcDbSymbolTableRecord
100
AcDbLayerTableRecord
  2
AM_5
 70
     0
 62
     3
  6
Continuous
370
    25
390
F
  0
LAYER
  5
351
330
2
100
AcDbSymbolTableRecord
100
AcDbLayerTableRecord
  2
AM_4
 70
     0
 62
     3
  6
Continuous
370
    25
390
F
  0
LAYER
  5
352
330
2
100
AcDbSymbolTableRecord
100
AcDbLayerTableRecord
  2
AM_6
 70
     0
 62
     2
  6
Continuous
370
    35
390
F
  0
LAYER
  5
353
330
2
100
AcDbSymbolTableRecord
100
AcDbLayerTableRecord
  2
4
 70
     0
 62
     3
  6
Continuous
370
    -3
390
F
  0
LAYER
  5
354
330
2
100
AcDbSymbolTableRecord
100
AcDbLayerTableRecord
  2
AM_3
 70
     0
 62
     6
  6
AM_DIN_F_W050
370
    25
390
F
  0
ENDTAB
  0
TABLE
  2
STYLE
  5
3
330
0
100
AcDbSymbolTable
 70
     8
  0
STYLE
  5
11
330
3
100
AcDbSymbolTableRecord
100
AcDbTextStyleTableRecord
  2
STANDARD
 70
     0
 40
0.0
 41
1.0
 50
0.0
 71
     0
 42
2.5
  3
ISOCP.SHX
  4
bigfont.shx
  0
STYLE
  5
5B
330
3
100
AcDbSymbolTableRecord
100
AcDbTextStyleTableRecord
  2
ACDINTS
 70
     0
 40
1.0
 41
1.0
 50
0.0
 71
     0
 42
2.5
  3
isocp.shx
  4
bigfont.shx
  0
STYLE
  5
67
330
3
100
AcDbSymbolTableRecord
100
AcDbTextStyleTableRecord
  2
ACDINGDT
 70
     0
 40
0.0
 41
1.0
 50
0.0
 71
     0
 42
2.5
  3
AMGDT
  4
bigfont.shx
  0
STYLE
  5
285
330
3
100
AcDbSymbolTableRecord
100
AcDbTextStyleTableRecord
  2

 70
     1
 40
0.0
 41
1.0
 50
0.0
 71
     0
 42
2.5
  3
genltshp.shx
  4

  0
ENDTAB
  0
TABLE
  2
VIEW
  5
6
330
0
100
AcDbSymbolTable
 70
     0
  0
ENDTAB
  0
TABLE
  2
UCS
  5
7
330
0
100
AcDbSymbolTable
 70
     0
  0
ENDTAB
  0
TABLE
  2
APPID
  5
9
330
0
100
AcDbSymbolTable
 70
    19
  0
APPID
  5
12
330
9
100
AcDbSymbolTableRecord
100
AcDbRegAppTableRecord
  2
ACAD
 70
     0
  0
APPID
  5
30
330
9
100
AcDbSymbolTableRecord
100
AcDbRegAppTableRecord
  2
MCAD_NO_VIS
 70
     0
  0
APPID
  5
31
330
9
100
AcDbSymbolTableRecord
100
AcDbRegAppTableRecord
  2
ACAD_TEMP_GRAPHIC
 70
     0
  0
APPID
  5
44
330
9
100
AcDbSymbolTableRecord
100
AcDbRegAppTableRecord
  2
ACATTRIBSERVICES
 70
     0
  0
APPID
  5
108
330
9
100
AcDbSymbolTableRecord
100
AcDbRegAppTableRecord
  2
AD_DRAW
 70
     0
  0
APPID
  5
126
330
9
100
AcDbSymbolTableRecord
100
AcDbRegAppTableRecord
  2
DESIGNERASSEMBLIES
 70
     0
  0
APPID
  5
12A
330
9
100
AcDbSymbolTableRecord
100
AcDbRegAppTableRecord
  2
ACADM_DIM_EDIT
 70
     0
  0
APPID
  5
12B
330
9
100
AcDbSymbolTableRecord
100
AcDbRegAppTableRecord
  2
AMDT_DM_ADJ
 70
     0
  0
APPID
  5
1A4
330
9
100
AcDbSymbolTableRecord
100
AcDbRegAppTableRecord
  2
ACAD_DSTYLE_DIMARC_LENGTH_SYMBOL
 70
     0
  0
APPID
  5
1A5
330
9
100
AcDbSymbolTableRecord
100
AcDbRegAppTableRecord
  2
ACAD_DSTYLE_DIMJOGGED_JOGANGLE_SYMBOL
 70
     0
  0
APPID
  5
22C
330
9
100
AcDbSymbolTableRecord
100
AcDbRegAppTableRecord
  2
AcAecLayerStandard
 70
     0
  0
APPID
  5
358
330
9
100
AcDbSymbolTableRecord
100
AcDbRegAppTableRecord
  2
GENIUS_GENOENT_13
 70
     0
  0
APPID
  5
359
330
9
100
AcDbSymbolTableRecord
100
AcDbRegAppTableRecord
  2
GENIUS_GENODEF_13
 70
     0
  0
APPID
  5
35A
330
9
100
AcDbSymbolTableRecord
100
AcDbRegAppTableRecord
  2
GENIUS_GENOLIS_13
 70
     0
  0
APPID
  5
35B
330
9
100
AcDbSymbolTableRecord
100
AcDbRegAppTableRecord
  2
GENIUS_GENOREF_13
 70
     0
  0
APPID
  5
35C
330
9
100
AcDbSymbolTableRecord
100
AcDbRegAppTableRecord
  2
GENIUS_GENOBJ-N-CEN_13
 70
     0
  0
APPID
  5
35D
330
9
100
AcDbSymbolTableRecord
100
AcDbRegAppTableRecord
  2
ACAD_PSEXT
 70
     0
  0
APPID
  5
35E
330
9
100
AcDbSymbolTableRecord
100
AcDbRegAppTableRecord
  2
GENIUS_GENCEN_19
 70
     0
  0
APPID
  5
35F
330
9
100
AcDbSymbolTableRecord
100
AcDbRegAppTableRecord
  2
GENIUS_GENOBJ-N-CRS_13
 70
     0
  0
ENDTAB
  0
TABLE
  2
DIMSTYLE
  5
A
330
0
100
AcDbSymbolTable
 70
    11
100
AcDbDimStyleTable
 71
     1
340
6F
  0
DIMSTYLE
105
6F
102
{ACAD_REACTORS
330
4B
102
}
330
A
100
AcDbSymbolTableRecord
100
AcDbDimStyleTableRecord
  2
AM_DIN
 70
     0
  4
"
 41
2.5
 42
1.0
 43
10.0
 44
1.0
 47
0.1
 48
0.1
 73
     0
 74
     0
 77
     1
 78
     8
 79
     2
140
3.5
141
0.0
143
0.0393701
146
0.71
147
1.5
172
     1
176
   256
177
   256
178
     2
271
     2
272
     3
274
     4
283
     0
284
     8
340
11
371
    -1
372
    -1
1001
ACAD_DSTYLE_DIMARC_LENGTH_SYMBOL
1070
   379
1070
     0
1001
ACAD_DSTYLE_DIMJOGGED_JOGANGLE_SYMBOL
1070
   384
1040
1.570796326794896
  0
DIMSTYLE
105
70
330
A
100
AcDbSymbolTableRecord
100
AcDbDimStyleTableRecord
  2
AM_DIN$3
 70
     0
  4
"
 41
2.5
 42
1.0
 43
10.0
 44
1.0
 47
0.1
 48
0.1
 73
     0
 77
     1
 78
     8
 79
     2
140
3.5
141
0.0
143
0.0393701
146
0.71
147
1.5
176
   256
177
   256
178
     2
271
     2
272
     3
274
     4
283
     0
284
     8
288
     1
289
     0
340
11
371
    -1
372
    -1
1001
ACAD_DSTYLE_DIMARC_LENGTH_SYMBOL
1070
   379
1070
     0
1001
ACAD_DSTYLE_DIMJOGGED_JOGANGLE_SYMBOL
1070
   384
1040
1.570796326794896
  0
DIMSTYLE
105
71
330
A
100
AcDbSymbolTableRecord
100
AcDbDimStyleTableRecord
  2
AM_DIN$4
 70
     0
  4
"
 41
2.5
 42
1.0
 43
10.0
 44
1.0
 47
0.1
 48
0.1
 73
     0
 77
     1
 78
     8
 79
     2
140
3.5
141
0.0
143
0.0393701
146
0.71
147
1.5
176
   256
177
   256
178
     2
271
     2
272
     3
274
     4
283
     0
284
     8
288
     1
289
     0
340
11
371
    -1
372
    -1
1001
ACAD_DSTYLE_DIMARC_LENGTH_SYMBOL
1070
   379
1070
     0
1001
ACAD_DSTYLE_DIMJOGGED_JOGANGLE_SYMBOL
1070
   384
1040
1.570796326794896
  0
DIMSTYLE
105
72
330
A
100
AcDbSymbolTableRecord
100
AcDbDimStyleTableRecord
  2
AM_DIN$6
 70
     0
  4
"
 41
2.5
 42
1.0
 43
10.0
 44
1.0
 47
0.1
 48
0.1
 73
     0
 74
     0
 78
     8
 79
     2
140
3.5
141
0.0
143
0.0393701
146
0.71
147
1.5
172
     1
176
   256
177
   256
178
     2
271
     2
272
     3
274
     4
283
     0
284
     8
340
11
371
    -1
372
    -1
1001
ACAD_DSTYLE_DIMARC_LENGTH_SYMBOL
1070
   379
1070
     0
1001
ACAD_DSTYLE_DIMJOGGED_JOGANGLE_SYMBOL
1070
   384
1040
1.570796326794896
  0
DIMSTYLE
105
73
330
A
100
AcDbSymbolTableRecord
100
AcDbDimStyleTableRecord
  2
AM_DIN$7
 70
     0
  4
"
 41
2.5
 42
1.0
 43
10.0
 44
1.0
 47
0.1
 48
0.1
 73
     0
 74
     0
 77
     1
 78
     8
 79
     2
140
5.0
141
0.0
143
0.0393701
146
0.71
147
1.5
172
     1
176
   256
177
   256
178
     2
271
     2
272
     3
274
     4
283
     0
284
     8
340
11
371
    -1
372
    -1
1001
ACAD_DSTYLE_DIMARC_LENGTH_SYMBOL
1070
   379
1070
     0
1001
ACAD_DSTYLE_DIMJOGGED_JOGANGLE_SYMBOL
1070
   384
1040
1.570796326794896
  0
DIMSTYLE
105
74
330
A
100
AcDbSymbolTableRecord
100
AcDbDimStyleTableRecord
  2
AM_DIN$SF
 70
     0
  4
"
 41
2.5
 42
1.0
 43
10.0
 44
1.0
 47
0.1
 48
0.1
 73
     0
 74
     0
 75
     1
 76
     1
 77
     1
 78
     8
 79
     2
140
3.5
141
0.0
143
0.0393701
146
0.71
147
1.5
172
     1
176
   256
177
   256
178
     2
271
     2
272
     3
274
     4
283
     0
284
     8
340
11
371
    -1
372
    -1
1001
ACAD_DSTYLE_DIMARC_LENGTH_SYMBOL
1070
   379
1070
     0
1001
ACAD_DSTYLE_DIMJOGGED_JOGANGLE_SYMBOL
1070
   384
1040
1.570796326794896
  0
DIMSTYLE
105
79
330
A
100
AcDbSymbolTableRecord
100
AcDbDimStyleTableRecord
  2
AM_DIN$SH
 70
     0
  4
"
 41
2.5
 42
1.0
 43
10.0
 44
1.0
 47
0.1
 48
0.1
 73
     0
 74
     0
 75
     1
 76
     1
 77
     1
 78
     8
 79
     2
140
3.5
141
0.0
143
0.0393701
144
2.0
146
0.71
147
1.5
172
     1
173
     1
176
   256
177
   256
178
     2
271
     2
272
     3
274
     4
283
     0
284
     8
340
11
343
75
371
    -1
372
    -1
1001
ACAD_DSTYLE_DIMARC_LENGTH_SYMBOL
1070
   379
1070
     0
1001
ACAD_DSTYLE_DIMJOGGED_JOGANGLE_SYMBOL
1070
   384
1040
1.570796326794896
  0
DIMSTYLE
105
356
330
A
100
AcDbSymbolTableRecord
100
AcDbDimStyleTableRecord
  2
GEN-ISO
 70
     0
  4
"
 40
10.0
 41
2.5
 42
1.0
 43
7.0
 44
1.0
 47
0.1
 48
0.1
 73
     0
 74
     0
 77
     1
 78
     8
140
3.5
141
0.0
143
0.0393701
146
0.71
147
0.6
172
     1
176
     3
177
     3
178
     2
271
     2
272
     2
283
     0
340
11
  0
DIMSTYLE
105
357
102
{ACAD_REACTORS
330
3F6
330
3F9
330
3FC
330
417
330
436
330
52F
330
54E
330
50E
330
511
330
514
102
}
330
A
100
AcDbSymbolTableRecord
100
AcDbDimStyleTableRecord
  2
GEN-ISO$0
 70
     0
  4
"
 40
10.0
 41
2.5
 42
1.0
 43
7.0
 44
1.0
 47
0.1
 48
0.1
 73
     0
 74
     0
 77
     1
 78
     8
140
3.5
141
0.0
143
0.0393701
146
0.71
147
0.6
172
     1
176
     3
177
     3
178
     2
271
     2
272
     2
283
     0
340
11
  0
ENDTAB
  0
TABLE
  2
BLOCK_RECORD
  5
1
330
0
100
AcDbSymbolTable
 70
    14
  0
BLOCK_RECORD
  5
1F
102
{ACAD_XDICTIONARY
360
83
102
}
330
1
100
AcDbSymbolTableRecord
100
AcDbBlockTableRecord
  2
*Model_Space
340
22
  0
BLOCK_RECORD
  5
1B
330
1
100
AcDbSymbolTableRecord
100
AcDbBlockTableRecord
  2
*Paper_Space
340
1E
  0
BLOCK_RECORD
  5
23
330
1
100
AcDbSymbolTableRecord
100
AcDbBlockTableRecord
  2
*Paper_Space0
340
26
  0
BLOCK_RECORD
  5
75
330
1
100
AcDbSymbolTableRecord
100
AcDbBlockTableRecord
  2
GENAXEH
340
0
  0
BLOCK_RECORD
  5
58C
330
1
100
AcDbSymbolTableRecord
100
AcDbBlockTableRecord
  2
*D9
340
0
  0
BLOCK_RECORD
  5
598
330
1
100
AcDbSymbolTableRecord
100
AcDbBlockTableRecord
  2
*D10
340
0
  0
BLOCK_RECORD
  5
5AD
330
1
100
AcDbSymbolTableRecord
100
AcDbBlockTableRecord
  2
*D11
340
0
  0
BLOCK_RECORD
  5
5B9
330
1
100
AcDbSymbolTableRecord
100
AcDbBlockTableRecord
  2
*D12
340
0
  0
BLOCK_RECORD
  5
5C5
330
1
100
AcDbSymbolTableRecord
100
AcDbBlockTableRecord
  2
*D13
340
0
  0
ENDTAB
  0
ENDSEC
  0
SECTION
  2
BLOCKS
  0
BLOCK
  5
20
330
1F
100
AcDbEntity
  8
0
100
AcDbBlockBegin
  2
*Model_Space
 70
     0
 10
0.0
 20
0.0
 30
0.0
  3
*Model_Space
  1

  0
ENDBLK
  5
21
330
1F
100
AcDbEntity
  8
0
100
AcDbBlockEnd
  0
BLOCK
  5
1C
330
1B
100
AcDbEntity
 67
     1
  8
0
100
AcDbBlockBegin
  2
*Paper_Space
 70
     0
 10
0.0
 20
0.0
 30
0.0
  3
*Paper_Space
  1

  0
ENDBLK
  5
1D
330
1B
100
AcDbEntity
 67
     1
  8
0
100
AcDbBlockEnd
  0
BLOCK
  5
24
330
23
100
AcDbEntity
 67
     1
  8
0
100
AcDbBlockBegin
  2
*Paper_Space0
 70
     0
 10
0.0
 20
0.0
 30
0.0
  3
*Paper_Space0
  1

  0
ENDBLK
  5
25
330
23
100
AcDbEntity
 67
     1
  8
0
100
AcDbBlockEnd
  0
BLOCK
  5
77
330
75
100
AcDbEntity
  8
0
100
AcDbBlockBegin
  2
GENAXEH
 70
     0
 10
0.0
 20
0.0
 30
0.0
  3
GENAXEH
  1

  0
LINE
  5
76
330
75
100
AcDbEntity
  8
0
100
AcDbLine
 10
-1.0
 20
0.0
 30
0.0
 11
1.0
 21
0.0
 31
0.0
  0
ENDBLK
  5
78
330
75
100
AcDbEntity
  8
0
100
AcDbBlockEnd
  0
BLOCK
  5
596
330
58C
100
AcDbEntity
  8
0
100
AcDbBlockBegin
  2
*D9
 70
     1
 10
0.0
 20
0.0
 30
0.0
  3
*D9
  1

  0
LINE
  5
5A4
330
58C
100
AcDbEntity
  8
AM_5
 62
     3
370
    -2
100
AcDbLine
 10
1264.241038125912
 20
2341.917930862558
 30
0.0
 11
1264.241038125912
 21
2436.566902568929
 31
0.0
  0
LINE
  5
5A5
330
58C
100
AcDbEntity
  8
AM_5
 62
     3
370
    -2
100
AcDbLine
 10
1648.241038125907
 20
2341.917930862545
 30
0.0
 11
1648.241038125907
 21
2436.566902568929
 31
0.0
  0
LINE
  5
5A6
330
58C
100
AcDbEntity
  8
AM_5
 62
     3
370
    -2
100
AcDbLine
 10
1289.241038125912
 20
2426.566902568929
 30
0.0
 11
1623.241038125907
 21
2426.566902568929
 31
0.0
  0
SOLID
  5
5A7
330
58C
100
AcDbEntity
  8
AM_5
 62
     3
100
AcDbTrace
 10
1289.241038125912
 20
2430.733569235596
 30
0.0
 11
1289.241038125912
 21
2422.400235902262
 31
0.0
 12
1264.241038125912
 22
2426.566902568929
 32
0.0
 13
1264.241038125912
 23
2426.566902568929
 33
0.0
  0
SOLID
  5
5A8
330
58C
100
AcDbEntity
  8
AM_5
 62
     3
100
AcDbTrace
 10
1623.241038125907
 20
2430.733569235596
 30
0.0
 11
1623.241038125907
 21
2422.400235902262
 31
0.0
 12
1648.241038125907
 22
2426.566902568929
 32
0.0
 13
1648.241038125907
 23
2426.566902568929
 33
0.0
  0
MTEXT
  5
5A9
330
58C
100
AcDbEntity
  8
AM_5
 62
     2
100
AcDbMText
 10
1456.24103812591
 20
2450.066902568929
 30
0.0
 40
35.0
 41
0.0
 71
     5
 72
     1
  1
%%c384
 73
     1
 44
1.0
1001
ACAD
1000
MTEXTBEGIN
1070
    73
1070
     1
1070
    44
1040
1.0
1070
    74
1070
     0
1000
MTEXTEND
  0
POINT
  5
5AA
330
58C
100
AcDbEntity
  8
DEFPOINTS
 62
     0
100
AcDbPoint
 10
1264.241038125912
 20
2331.917930862558
 30
0.0
  0
POINT
  5
5AB
330
58C
100
AcDbEntity
  8
DEFPOINTS
 62
     0
100
AcDbPoint
 10
1648.241038125907
 20
2331.917930862545
 30
0.0
  0
POINT
  5
5AC
330
58C
100
AcDbEntity
  8
DEFPOINTS
 62
     0
100
AcDbPoint
 10
1648.241038125907
 20
2426.566902568929
 30
0.0
  0
ENDBLK
  5
597
330
58C
100
AcDbEntity
  8
0
100
AcDbBlockEnd
  0
BLOCK
  5
5A2
330
598
100
AcDbEntity
  8
0
100
AcDbBlockBegin
  2
*D10
 70
     1
 10
0.0
 20
0.0
 30
0.0
  3
*D10
  1

  0
LINE
  5
599
330
598
100
AcDbEntity
  8
AM_5
 62
     3
370
    -2
100
AcDbLine
 10
1215.30375412477
 20
2101.923227593134
 30
0.0
 11
1215.30375412477
 21
1911.923227593133
 31
0.0
  0
LINE
  5
59A
330
598
100
AcDbEntity
  8
AM_5
 62
     3
370
    -2
100
AcDbLine
 10
1695.303754124772
 20
2031.923227593134
 30
0.0
 11
1695.303754124772
 21
1911.923227593133
 31
0.0
  0
LINE
  5
59B
330
598
100
AcDbEntity
  8
AM_5
 62
     3
370
    -2
100
AcDbLine
 10
1240.30375412477
 20
1921.923227593133
 30
0.0
 11
1670.303754124772
 21
1921.923227593133
 31
0.0
  0
SOLID
  5
59C
330
598
100
AcDbEntity
  8
AM_5
 62
     3
100
AcDbTrace
 10
1240.30375412477
 20
1926.0898942598
 30
0.0
 11
1240.30375412477
 21
1917.756560926467
 31
0.0
 12
1215.30375412477
 22
1921.923227593133
 32
0.0
 13
1215.30375412477
 23
1921.923227593133
 33
0.0
  0
SOLID
  5
59D
330
598
100
AcDbEntity
  8
AM_5
 62
     3
100
AcDbTrace
 10
1670.303754124772
 20
1926.0898942598
 30
0.0
 11
1670.303754124772
 21
1917.756560926467
 31
0.0
 12
1695.303754124772
 22
1921.923227593133
 32
0.0
 13
1695.303754124772
 23
1921.923227593133
 33
0.0
  0
MTEXT
  5
59E
330
598
100
AcDbEntity
  8
AM_5
 62
     2
100
AcDbMText
 10
1455.303754124771
 20
1945.423227593133
 30
0.0
 40
35.0
 41
0.0
 71
     5
 72
     1
  1
480
 73
     1
 44
1.0
1001
ACAD
1000
MTEXTBEGIN
1070
    73
1070
     1
1070
    44
1040
1.0
1070
    74
1070
     0
1000
MTEXTEND
  0
POINT
  5
59F
330
598
100
AcDbEntity
  8
DEFPOINTS
 62
     0
100
AcDbPoint
 10
1215.30375412477
 20
2111.923227593134
 30
0.0
  0
POINT
  5
5A0
330
598
100
AcDbEntity
  8
DEFPOINTS
 62
     0
100
AcDbPoint
 10
1695.303754124772
 20
2041.923227593135
 30
0.0
  0
POINT
  5
5A1
330
598
100
AcDbEntity
  8
DEFPOINTS
 62
     0
100
AcDbPoint
 10
1695.303754124772
 20
1921.923227593133
 30
0.0
  0
ENDBLK
  5
5A3
330
598
100
AcDbEntity
  8
0
100
AcDbBlockEnd
  0
BLOCK
  5
5B7
330
5AD
100
AcDbEntity
  8
0
100
AcDbBlockBegin
  2
*D11
 70
     1
 10
0.0
 20
0.0
 30
0.0
  3
*D11
  1

  0
LINE
  5
5AE
330
5AD
100
AcDbEntity
  8
AM_5
 62
     3
370
    -2
100
AcDbLine
 10
1145.30375412477
 20
2191.923227593135
 30
0.0
 11
1085.30375312477
 21
2191.923227593135
 31
0.0
  0
LINE
  5
5AF
330
5AD
100
AcDbEntity
  8
AM_5
 62
     3
370
    -2
100
AcDbLine
 10
1269.255171602914
 20
2021.917930862545
 30
0.0
 11
1085.30375312477
 21
2021.917930862545
 31
0.0
  0
LINE
  5
5B0
330
5AD
100
AcDbEntity
  8
AM_5
 62
     3
370
    -2
100
AcDbLine
 10
1095.30375312477
 20
2166.923227593135
 30
0.0
 11
1095.30375312477
 21
2046.917930862545
 31
0.0
  0
SOLID
  5
5B1
330
5AD
100
AcDbEntity
  8
AM_5
 62
     3
100
AcDbTrace
 10
1091.137086458103
 20
2166.923227593135
 30
0.0
 11
1099.470419791437
 21
2166.923227593135
 31
0.0
 12
1095.30375312477
 22
2191.923227593135
 32
0.0
 13
1095.30375312477
 23
2191.923227593135
 33
0.0
  0
SOLID
  5
5B2
330
5AD
100
AcDbEntity
  8
AM_5
 62
     3
100
AcDbTrace
 10
1091.137086458103
 20
2046.917930862545
 30
0.0
 11
1099.470419791437
 21
2046.917930862545
 31
0.0
 12
1095.30375312477
 22
2021.917930862545
 32
0.0
 13
1095.30375312477
 23
2021.917930862545
 33
0.0
  0
MTEXT
  5
5B3
330
5AD
100
AcDbEntity
  8
AM_5
 62
     2
100
AcDbMText
 10
1071.80375312477
 20
2106.92057922784
 30
0.0
 40
35.0
 41
0.0
 71
     5
 72
     1
  1
170
 11
0.0000000000000001
 21
1.0
 31
0.0
 73
     1
 44
1.0
1001
ACAD
1000
MTEXTBEGIN
1070
    73
1070
     1
1070
    44
1040
1.0
1070
    74
1070
     0
1000
MTEXTEND
  0
POINT
  5
5B4
330
5AD
100
AcDbEntity
  8
DEFPOINTS
 62
     0
100
AcDbPoint
 10
1155.30375412477
 20
2191.923227593135
 30
0.0
  0
POINT
  5
5B5
330
5AD
100
AcDbEntity
  8
DEFPOINTS
 62
     0
100
AcDbPoint
 10
1279.255171602914
 20
2021.917930862545
 30
0.0
  0
POINT
  5
5B6
330
5AD
100
AcDbEntity
  8
DEFPOINTS
 62
     0
100
AcDbPoint
 10
1095.30375312477
 20
2021.917930862545
 30
0.0
  0
ENDBLK
  5
5B8
330
5AD
100
AcDbEntity
  8
0
100
AcDbBlockEnd
  0
BLOCK
  5
5C3
330
5B9
100
AcDbEntity
  8
0
100
AcDbBlockBegin
  2
*D12
 70
     1
 10
0.0
 20
0.0
 30
0.0
  3
*D12
  1

  0
LINE
  5
5BA
330
5B9
100
AcDbEntity
  8
AM_5
 62
     3
370
    -2
100
AcDbLine
 10
1643.255171602915
 20
2021.917930862545
 30
0.0
 11
1847.269760525891
 21
2021.917930862545
 31
0.0
  0
LINE
  5
5BB
330
5B9
100
AcDbEntity
  8
AM_5
 62
     3
370
    -2
100
AcDbLine
 10
1765.303753906159
 20
2121.928349447999
 30
0.0
 11
1847.269760525891
 21
2121.928349447999
 31
0.0
  0
LINE
  5
5BC
330
5B9
100
AcDbEntity
  8
AM_5
 62
     3
370
    -2
100
AcDbLine
 10
1837.269760525891
 20
2046.917930862545
 30
0.0
 11
1837.269760525891
 21
2096.928349447999
 31
0.0
  0
SOLID
  5
5BD
330
5B9
100
AcDbEntity
  8
AM_5
 62
     3
100
AcDbTrace
 10
1833.103093859224
 20
2046.917930862545
 30
0.0
 11
1841.436427192558
 21
2046.917930862545
 31
0.0
 12
1837.269760525891
 22
2021.917930862545
 32
0.0
 13
1837.269760525891
 23
2021.917930862545
 33
0.0
  0
SOLID
  5
5BE
330
5B9
100
AcDbEntity
  8
AM_5
 62
     3
100
AcDbTrace
 10
1833.103093859224
 20
2096.928349447999
 30
0.0
 11
1841.436427192558
 21
2096.928349447999
 31
0.0
 12
1837.269760525891
 22
2121.928349447999
 32
0.0
 13
1837.269760525891
 23
2121.928349447999
 33
0.0
  0
MTEXT
  5
5BF
330
5B9
100
AcDbEntity
  8
AM_5
 62
     2
100
AcDbMText
 10
1813.769760525891
 20
2071.92314015527
 30
0.0
 40
35.0
 41
0.0
 71
     5
 72
     1
  1
100
 11
0.0000000000000001
 21
1.0
 31
0.0
 73
     1
 44
1.0
1001
ACAD
1000
MTEXTBEGIN
1070
    73
1070
     1
1070
    44
1040
1.0
1070
    74
1070
     0
1000
MTEXTEND
  0
POINT
  5
5C0
330
5B9
100
AcDbEntity
  8
DEFPOINTS
 62
     0
100
AcDbPoint
 10
1633.255171602916
 20
2021.917930862545
 30
0.0
  0
POINT
  5
5C1
330
5B9
100
AcDbEntity
  8
DEFPOINTS
 62
     0
100
AcDbPoint
 10
1755.303753906159
 20
2121.928349447999
 30
0.0
  0
POINT
  5
5C2
330
5B9
100
AcDbEntity
  8
DEFPOINTS
 62
     0
100
AcDbPoint
 10
1837.269760525891
 20
2121.928349447999
 30
0.0
  0
ENDBLK
  5
5C4
330
5B9
100
AcDbEntity
  8
0
100
AcDbBlockEnd
  0
BLOCK
  5
5CF
330
5C5
100
AcDbEntity
  8
0
100
AcDbBlockBegin
  2
*D13
 70
     1
 10
0.0
 20
0.0
 30
0.0
  3
*D13
  1

  0
LINE
  5
5C6
330
5C5
100
AcDbEntity
  8
AM_5
 62
     3
370
    -2
100
AcDbLine
 10
1643.255171602915
 20
2021.917930862545
 30
0.0
 11
1910.765398918494
 21
2021.917930862545
 31
0.0
  0
LINE
  5
5C7
330
5C5
100
AcDbEntity
  8
AM_5
 62
     3
370
    -2
100
AcDbLine
 10
1639.241038125903
 20
2341.917930862545
 30
0.0
 11
1910.765398918494
 21
2341.917930862545
 31
0.0
  0
LINE
  5
5C8
330
5C5
100
AcDbEntity
  8
AM_5
 62
     3
370
    -2
100
AcDbLine
 10
1900.765398918494
 20
2046.917930862545
 30
0.0
 11
1900.765398918494
 21
2316.917930862545
 31
0.0
  0
SOLID
  5
5C9
330
5C5
100
AcDbEntity
  8
AM_5
 62
     3
100
AcDbTrace
 10
1896.598732251828
 20
2046.917930862545
 30
0.0
 11
1904.932065585161
 21
2046.917930862545
 31
0.0
 12
1900.765398918494
 22
2021.917930862545
 32
0.0
 13
1900.765398918494
 23
2021.917930862545
 33
0.0
  0
SOLID
  5
5CA
330
5C5
100
AcDbEntity
  8
AM_5
 62
     3
100
AcDbTrace
 10
1896.598732251828
 20
2316.917930862545
 30
0.0
 11
1904.932065585161
 21
2316.917930862545
 31
0.0
 12
1900.765398918494
 22
2341.917930862545
 32
0.0
 13
1900.765398918494
 23
2341.917930862545
 33
0.0
  0
MTEXT
  5
5CB
330
5C5
100
AcDbEntity
  8
AM_5
 62
     2
100
AcDbMText
 10
1877.261954036605
 20
2181.917930862546
 30
0.0
 40
35.0
 41
0.0
 71
     5
 72
     1
  1
320
 11
0.0000000000000001
 21
1.0
 31
0.0
 73
     1
 44
1.0
1001
ACAD
1000
MTEXTBEGIN
1070
    73
1070
     1
1070
    44
1040
1.0
1070
    74
1070
     0
1000
MTEXTEND
  0
POINT
  5
5CC
330
5C5
100
AcDbEntity
  8
DEFPOINTS
 62
     0
100
AcDbPoint
 10
1633.255171602916
 20
2021.917930862545
 30
0.0
  0
POINT
  5
5CD
330
5C5
100
AcDbEntity
  8
DEFPOINTS
 62
     0
100
AcDbPoint
 10
1629.241038125903
 20
2341.917930862545
 30
0.0
  0
POINT
  5
5CE
330
5C5
100
AcDbEntity
  8
DEFPOINTS
 62
     0
100
AcDbPoint
 10
1900.765398918494
 20
2341.917930862545
 30
0.0
  0
ENDBLK
  5
5D0
330
5C5
100
AcDbEntity
  8
0
100
AcDbBlockEnd
  0
ENDSEC
  0
SECTION
  2
ENTITIES
  0
LINE
  5
47A
330
1F
100
AcDbEntity
  8
AM_3
100
AcDbLine
 10
1455.831876970034
 20
2049.670555702876
 30
0.0
 11
1280.928282256844
 21
2057.414092682984
 31
0.0
  0
LINE
  5
47B
330
1F
100
AcDbEntity
  8
AM_3
100
AcDbLine
 10
1455.829047682706
 20
2047.668721810188
 30
0.0
 11
1280.839822565389
 21
2055.416049919929
 31
0.0
  0
LINE
  5
47C
330
1F
100
AcDbEntity
  8
AM_3
100
AcDbLine
 10
1630.818272800028
 20
2039.921393700447
 30
0.0
 11
1455.829047682706
 21
2047.668721810188
 31
0.0
  0
LINE
  5
47D
330
1F
100
AcDbEntity
  8
AM_3
100
AcDbLine
 10
1630.821102087357
 20
2041.923227593135
 30
0.0
 11
1455.831876970034
 21
2049.670555702876
 31
0.0
  0
LINE
  5
47E
330
1F
100
AcDbEntity
  8
0
100
AcDbLine
 10
1267.241038125912
 20
2321.917930862545
 30
0.0
 11
1629.241038125903
 21
2321.917930862545
 31
0.0
1001
ACAD
1000
ASC_BOUNDS
1002
{
1070
    19
1005
0
1005
0
1005
0
1005
0
1002
}
  0
LINE
  5
47F
330
1F
100
AcDbEntity
  8
0
100
AcDbLine
 10
1295.557863007949
 20
2331.917930862534
 30
0.0
 11
1264.241038125919
 21
2331.917930862533
 31
0.0
  0
LINE
  5
480
330
1F
100
AcDbEntity
  8
0
100
AcDbLine
 10
1283.232452433565
 20
2341.917930862545
 30
0.0
 11
1456.24103812591
 21
2341.917930862547
 31
0.0
1001
ACAD
1000
ASC_BOUNDS
1002
{
1070
    19
1005
0
1005
0
1005
0
1002
}
  0
LINE
  5
481
330
1F
100
AcDbEntity
  8
0
100
AcDbLine
 10
1264.241038125912
 20
2331.917930862545
 30
0.0
 11
1639.241038125907
 21
2331.917930862545
 31
0.0
  0
LINE
  5
482
330
1F
100
AcDbEntity
  8
0
100
AcDbLine
 10
1264.241038125912
 20
2331.917930862545
 30
0.0
 11
1639.241038125903
 21
2331.917930862545
 31
0.0
  0
LINE
  5
483
330
1F
100
AcDbEntity
  8
0
100
AcDbLine
 10
1295.557863007949
 20
2331.917930862556
 30
0.0
 11
1264.241038125919
 21
2331.917930862558
 31
0.0
1001
ACAD
1000
ASC_BOUNDS
1002
{
1070
    19
1002
}
  0
LINE
  5
484
330
1F
100
AcDbEntity
  8
0
100
AcDbLine
 10
1283.020565684959
 20
2321.917930862556
 30
0.0
 11
1279.871293038073
 21
2271.923227593134
 31
0.0
1001
ACAD
1000
ASC_BOUNDS
1002
{
1070
    19
1002
}
  0
ARC
  5
485
330
1F
100
AcDbEntity
  8
0
100
AcDbCircle
 10
1267.241038125912
 20
2324.917930862556
 30
0.0
 40
3.0
100
AcDbArc
 50
180.0
 51
270.0
1001
ACAD
1000
ASC_BOUNDS
1002
{
1070
    19
1002
}
  0
LINE
  5
486
330
1F
100
AcDbEntity
  8
0
100
AcDbLine
 10
1264.241038125912
 20
2331.917930862558
 30
0.0
 11
1264.241038125912
 21
2324.917930862558
 31
0.0
1001
ACAD
1000
ASC_BOUNDS
1002
{
1070
    19
1002
}
  0
LINE
  5
487
330
1F
100
AcDbEntity
  8
0
100
AcDbLine
 10
1278.241038125912
 20
2331.917930862556
 30
0.0
 11
1273.741038125912
 21
2331.917930862556
 31
0.0
  0
ARC
  5
488
330
1F
100
AcDbEntity
  8
0
100
AcDbCircle
 10
1267.241038125912
 20
2338.917930862534
 30
0.0
 40
3.0
100
AcDbArc
 50
90.0
 51
180.0
  0
LINE
  5
489
330
1F
100
AcDbEntity
  8
0
100
AcDbLine
 10
1264.241038125919
 20
2331.917930862533
 30
0.0
 11
1264.241038125912
 21
2338.917930862533
 31
0.0
  0
LINE
  5
48A
330
1F
100
AcDbEntity
  8
0
100
AcDbLine
 10
1278.241038125912
 20
2331.917930862534
 30
0.0
 11
1273.741038125912
 21
2331.917930862534
 31
0.0
  0
LINE
  5
48B
330
1F
100
AcDbEntity
  8
0
100
AcDbLine
 10
1283.241038125912
 20
2341.917930862535
 30
0.0
 11
1267.241038125912
 21
2341.917930862535
 31
0.0
  0
LINE
  5
48C
330
1F
100
AcDbEntity
  8
0
  6
Continuous
 62
     7
100
AcDbLine
 10
1666.470030506993
 20
2338.701164152894
 30
0.0
 11
1638.211214590173
 21
2257.935550705816
 31
0.0
  0
LINE
  5
48D
330
1F
100
AcDbEntity
  8
0
  6
Continuous
 62
     7
100
AcDbLine
 10
1668.459088468917
 20
2338.492242100189
 30
0.0
 11
1658.221907886367
 21
2241.028401965909
 31
0.0
  0
LINE
  5
48E
330
1F
100
AcDbEntity
  8
0
  6
Continuous
 62
     7
100
AcDbLine
 10
1666.470030506993
 20
2338.701164152894
 30
0.0
 11
1656.064863448442
 21
2239.637996263323
 31
0.0
  0
LINE
  5
48F
330
1F
100
AcDbEntity
  8
0
  6
Continuous
 62
     7
100
AcDbLine
 10
1642.373495701009
 20
2269.831632560249
 30
0.0
 11
1643.601636603427
 21
2281.524239485586
 31
0.0
  0
LINE
  5
490
330
1F
100
AcDbEntity
  8
0
  6
Continuous
 62
     7
100
AcDbLine
 10
1658.221907886367
 20
2241.028401965909
 30
0.0
 11
1655.241038125907
 21
2239.106968062767
 31
0.0
  0
CIRCLE
  5
491
330
1F
100
AcDbEntity
  8
0
  6
Continuous
 62
     7
100
AcDbCircle
 10
1650.071140464126
 20
2251.211369532114
 30
0.0
 40
2.869338511451267
  0
LINE
  5
492
330
1F
100
AcDbEntity
  8
0
  6
Continuous
 62
     7
100
AcDbLine
 10
1655.241038125907
 20
2257.935550705816
 30
0.0
 11
1655.241038125907
 21
2238.536844401807
 31
0.0
  0
LINE
  5
493
330
1F
100
AcDbEntity
  8
0
  6
Continuous
 62
     7
100
AcDbLine
 10
1633.241038125907
 20
2257.935550705816
 30
0.0
 11
1633.241038125907
 21
2219.935550705816
 31
0.0
  0
LINE
  5
494
330
1F
100
AcDbEntity
  8
0
  6
Continuous
 62
     7
100
AcDbLine
 10
1655.241038125907
 20
2238.536844401807
 30
0.0
 11
1638.976689198069
 21
2219.935550705816
 31
0.0
  0
LINE
  5
495
330
1F
100
AcDbEntity
  8
0
  6
Continuous
 62
     7
100
AcDbLine
 10
1633.241038125907
 20
2219.935550705816
 30
0.0
 11
1638.976689198069
 21
2219.935550705816
 31
0.0
  0
LINE
  5
496
330
1F
100
AcDbEntity
  8
0
  6
Continuous
 62
     7
100
AcDbLine
 10
1655.241038125907
 20
2257.935550705816
 30
0.0
 11
1633.241038125907
 21
2257.935550705816
 31
0.0
  0
LINE
  5
497
330
1F
100
AcDbEntity
  8
0
  6
Continuous
 62
     7
100
AcDbLine
 10
1647.743488784137
 20
2285.179437183139
 30
0.0
 11
1651.026364672096
 21
2316.434301561498
 31
0.0
  0
LINE
  5
498
330
1F
100
AcDbEntity
  8
0
  6
Continuous
 62
     7
100
AcDbLine
 10
1656.496274067387
 20
2315.85976591656
 30
0.0
 11
1655.646102385362
 21
2307.765643102623
 31
0.0
  0
ARC
  5
499
330
1F
100
AcDbEntity
  8
0
  6
Continuous
 62
     7
100
AcDbCircle
 10
1648.718837497981
 20
2337.543584401045
 30
0.0
 40
5.5
100
AcDbArc
 50
354.0038851199492
 51
127.3688441849506
  0
ARC
  5
49A
330
1F
100
AcDbEntity
  8
0
  6
Continuous
 62
     7
100
AcDbCircle
 10
1648.718837497981
 20
2337.543584401045
 30
0.0
 40
6.5
100
AcDbArc
 50
354.0038851199492
 51
137.7027991340161
  0
LINE
  5
49B
330
1F
100
AcDbEntity
  8
0
  6
Continuous
 62
     7
100
AcDbLine
 10
1651.026364672096
 20
2316.434301561498
 30
0.0
 11
1651.523629162577
 21
2316.382071048323
 31
0.0
  0
ARC
  5
49C
330
1F
100
AcDbEntity
  8
0
  6
Continuous
 62
     7
100
AcDbCircle
 10
1651.680320702103
 20
2317.873864519767
 30
0.0
 40
1.5
100
AcDbArc
 50
264.0038851199492
 51
354.0038851199492
  0
ARC
  5
49D
330
1F
100
AcDbEntity
  8
0
  6
Continuous
 62
     7
100
AcDbCircle
 10
1656.652965606914
 20
2317.351559388003
 30
0.0
 40
1.5
100
AcDbArc
 50
174.0038851199491
 51
264.0038851199492
  0
LINE
  5
49E
330
1F
100
AcDbEntity
  8
0
  6
Continuous
 62
     7
100
AcDbLine
 10
1652.177585192585
 20
2317.821634006589
 30
0.0
 11
1653.172114173547
 21
2317.717172980237
 31
0.0
  0
LINE
  5
49F
330
1F
100
AcDbEntity
  8
0
  6
Continuous
 62
     7
100
AcDbLine
 10
1657.093701122994
 20
2335.90703707533
 30
0.0
 11
1656.099172142032
 21
2336.011498101683
 31
0.0
  0
LINE
  5
4A0
330
1F
100
AcDbEntity
  8
0
  6
Continuous
 62
     7
100
AcDbLine
 10
1655.10464316107
 20
2336.115959128035
 30
0.0
 11
1656.099172142032
 21
2336.011498101683
 31
0.0
  0
LINE
  5
4A1
330
1F
100
AcDbEntity
  8
0
  6
Continuous
 62
     7
100
AcDbLine
 10
1655.161172135471
 20
2317.508250927532
 30
0.0
 11
1657.093701122994
 21
2335.90703707533
 31
0.0
  0
LINE
  5
4A2
330
1F
100
AcDbEntity
  8
0
  6
Continuous
 62
     7
100
AcDbLine
 10
1653.172114173547
 20
2317.717172980237
 30
0.0
 11
1655.183275874235
 21
2336.864587729754
 31
0.0
  0
LINE
  5
4A3
330
1F
100
AcDbEntity
  8
0
  6
Continuous
 62
     7
100
AcDbLine
 10
1652.177585192585
 20
2317.821634006589
 30
0.0
 11
1654.188746893273
 21
2336.969048756107
 31
0.0
  0
LINE
  5
4A4
330
1F
100
AcDbEntity
  8
0
100
AcDbLine
 10
1668.459088468917
 20
2338.492242100189
 30
0.0
 11
1666.470030506993
 21
2338.701164152894
 31
0.0
  0
LINE
  5
4A5
330
1F
100
AcDbEntity
  8
0
  6
Continuous
 62
     7
100
AcDbLine
 10
1643.601636603427
 20
2281.524239485586
 30
0.0
 11
1646.363098290589
 21
2281.234187483486
 31
0.0
  0
LINE
  5
4A6
330
1F
100
AcDbEntity
  8
0
100
AcDbLine
 10
1616.924213243874
 20
2331.917930862545
 30
0.0
 11
1648.241038125903
 21
2331.917930862545
 31
0.0
1001
ACAD
1000
ASC_BOUNDS
1002
{
1070
    19
1002
}
  0
LINE
  5
4A7
330
1F
100
AcDbEntity
  8
4
100
AcDbLine
 10
1313.700191487865
 20
2262.018852083215
 30
0.0
 11
1598.781884763961
 21
2262.015327620241
 31
0.0
  0
LINE
  5
4A8
330
1F
100
AcDbEntity
  8
0
100
AcDbLine
 10
1629.461510566853
 20
2321.917930862543
 30
0.0
 11
1633.234675561107
 21
2262.018936578735
 31
0.0
1001
ACAD
1000
ASC_BOUNDS
1002
{
1070
    19
1002
}
  0
LINE
  5
4A9
330
1F
100
AcDbEntity
  8
0
100
AcDbLine
 10
1629.241038125903
 20
2321.917930862545
 30
0.0
 11
1645.241038125903
 21
2321.917930862545
 31
0.0
1001
ACAD
1000
ASC_BOUNDS
1002
{
1070
    19
1005
0
1002
}
  0
LINE
  5
4AA
330
1F
100
AcDbEntity
  8
0
100
AcDbLine
 10
1634.241038125907
 20
2331.917930862545
 30
0.0
 11
1638.741038125907
 21
2331.917930862545
 31
0.0
  0
LINE
  5
4AB
330
1F
100
AcDbEntity
  8
0
100
AcDbLine
 10
1648.241038125903
 20
2331.917930862545
 30
0.0
 11
1648.241038125903
 21
2324.917930862545
 31
0.0
1001
ACAD
1000
ASC_BOUNDS
1002
{
1070
    19
1002
}
  0
ARC
  5
4AC
330
1F
100
AcDbEntity
  8
0
100
AcDbCircle
 10
1645.241038125903
 20
2324.917930862545
 30
0.0
 40
3.0
100
AcDbArc
 50
270.0
 51
0.0
1001
ACAD
1000
ASC_BOUNDS
1002
{
1070
    19
1002
}
  0
LINE
  5
4AD
330
1F
100
AcDbEntity
  8
0
100
AcDbLine
 10
1616.924213243874
 20
2331.917930862545
 30
0.0
 11
1648.241038125903
 21
2331.917930862545
 31
0.0
  0
LINE
  5
4AE
330
1F
100
AcDbEntity
  8
0
100
AcDbLine
 10
1456.255171602915
 20
2341.917930862545
 30
0.0
 11
1629.241038125903
 21
2341.917930862545
 31
0.0
1001
ACAD
1000
ASC_BOUNDS
1002
{
1070
    19
1005
0
1005
0
1005
0
1002
}
  0
ARC
  5
4AF
330
1F
100
AcDbEntity
  8
0
100
AcDbCircle
 10
1456.241038125914
 20
2362.417930862545
 30
0.0
 40
24.99999999999955
100
AcDbArc
 50
304.9152062475895
 51
235.0847937524104
  0
LINE
  5
4B0
330
1F
100
AcDbEntity
  8
0
100
AcDbLine
 10
1648.241038125907
 20
2331.917930862545
 30
0.0
 11
1648.241038125907
 21
2338.917930862546
 31
0.0
  0
ARC
  5
4B1
330
1F
100
AcDbEntity
  8
0
100
AcDbCircle
 10
1645.241038125907
 20
2338.917930862546
 30
0.0
 40
3.0
100
AcDbArc
 50
0.0
 51
90.0
  0
LINE
  5
4B2
330
1F
100
AcDbEntity
  8
0
100
AcDbLine
 10
1634.241038125907
 20
2331.917930862545
 30
0.0
 11
1638.741038125907
 21
2331.917930862545
 31
0.0
  0
LINE
  5
4B3
330
1F
100
AcDbEntity
  8
0
100
AcDbLine
 10
1629.241038125907
 20
2341.917930862545
 30
0.0
 11
1645.241038125907
 21
2341.917930862545
 31
0.0
  0
ARC
  5
4B4
330
1F
100
AcDbEntity
  8
0
100
AcDbCircle
 10
1455.303754124772
 20
1491.866858899934
 30
0.0
 40
186.5
100
AcDbArc
 50
47.99265495467833
 51
131.8453874366564
  0
ARC
  5
4B5
330
1F
100
AcDbEntity
  8
0
100
AcDbCircle
 10
1455.303754124772
 20
1491.866858899934
 30
0.0
 40
186.5
100
AcDbArc
 50
227.9926549546783
 51
311.8453874366565
  0
POLYLINE
  5
4B6
330
1F
100
AcDbEntity
  8
0
100
AcDb2dPolyline
 66
     1
 10
0.0
 20
0.0
 30
0.0
  0
VERTEX
  5
4B7
330
4B6
100
AcDbEntity
  8
0
100
AcDbVertex
100
AcDb2dVertex
 10
1584.571976966512
 20
1648.3084664196
 30
0.0
  0
VERTEX
  5
4B8
330
4B6
100
AcDbEntity
  8
0
100
AcDbVertex
100
AcDb2dVertex
 10
1572.872489624198
 20
1636.642003289658
 30
0.0
  0
SEQEND
  5
4B9
330
4B6
100
AcDbEntity
  8
0
  0
POLYLINE
  5
4BA
330
1F
100
AcDbEntity
  8
0
100
AcDb2dPolyline
 66
     1
 10
0.0
 20
0.0
 30
0.0
  0
VERTEX
  5
4BB
330
4BA
100
AcDbEntity
  8
0
100
AcDbVertex
100
AcDb2dVertex
 10
1600.410650464055
 20
1609.025890283693
 30
0.0
  0
VERTEX
  5
4BC
330
4BA
100
AcDbEntity
  8
0
100
AcDbVertex
100
AcDb2dVertex
 10
1612.110137806368
 20
1620.692353413636
 30
0.0
  0
VERTEX
  5
4BD
330
4BA
100
AcDbEntity
  8
0
100
AcDbVertex
100
AcDb2dVertex
 10
1584.571976966512
 20
1648.3084664196
 30
0.0
  0
SEQEND
  5
4BE
330
4BA
100
AcDbEntity
  8
0
  0
ARC
  5
4BF
330
1F
100
AcDbEntity
  8
0
100
AcDbCircle
 10
1455.303754124772
 20
1491.866858899934
 30
0.0
 40
186.5
100
AcDbArc
 50
317.9926549546047
 51
41.84538743679927
  0
POLYLINE
  5
4C0
330
1F
100
AcDbEntity
  8
0
100
AcDb2dPolyline
 66
     1
 10
0.0
 20
0.0
 30
0.0
 70
     1
  0
VERTEX
  5
4C1
330
4C0
100
AcDbEntity
  8
0
100
AcDbVertex
100
AcDb2dVertex
 10
1573.57735396214
 20
1623.928797328496
 30
0.0
  0
VERTEX
  5
4C2
330
4C0
100
AcDbEntity
  8
0
100
AcDbVertex
100
AcDb2dVertex
 10
1582.78272496413
 20
1633.108184275114
 30
0.0
  0
VERTEX
  5
4C3
330
4C0
100
AcDbEntity
  8
0
100
AcDbVertex
100
AcDb2dVertex
 10
1596.904858728154
 20
1618.946075041286
 30
0.0
  0
VERTEX
  5
4C4
330
4C0
100
AcDbEntity
  8
0
100
AcDbVertex
100
AcDb2dVertex
 10
1587.699487726168
 20
1609.766688094668
 30
0.0
  0
SEQEND
  5
4C5
330
4C0
100
AcDbEntity
  8
0
  0
POLYLINE
  5
4C6
330
1F
100
AcDbEntity
  8
0
100
AcDb2dPolyline
 66
     1
 10
0.0
 20
0.0
 30
0.0
 70
     1
  0
VERTEX
  5
4C7
330
4C6
100
AcDbEntity
  8
0
100
AcDbVertex
100
AcDb2dVertex
 10
1323.24181569621
 20
1610.140458737304
 30
0.0
  0
VERTEX
  5
4C8
330
4C6
100
AcDbEntity
  8
0
100
AcDbVertex
100
AcDb2dVertex
 10
1314.06242874959
 20
1619.345829739292
 30
0.0
  0
VERTEX
  5
4C9
330
4C6
100
AcDbEntity
  8
0
100
AcDbVertex
100
AcDb2dVertex
 10
1328.224537983422
 20
1633.467963503316
 30
0.0
  0
VERTEX
  5
4CA
330
4C6
100
AcDbEntity
  8
0
100
AcDbVertex
100
AcDb2dVertex
 10
1337.403924930035
 20
1624.262592501332
 30
0.0
  0
SEQEND
  5
4CB
330
4C6
100
AcDbEntity
  8
0
  0
POLYLINE
  5
4CC
330
1F
100
AcDbEntity
  8
0
100
AcDb2dPolyline
 66
     1
 10
0.0
 20
0.0
 30
0.0
  0
VERTEX
  5
4CD
330
4CC
100
AcDbEntity
  8
0
100
AcDbVertex
100
AcDb2dVertex
 10
1338.144722741011
 20
1636.973755239217
 30
0.0
  0
VERTEX
  5
4CE
330
4CC
100
AcDbEntity
  8
0
100
AcDbVertex
100
AcDb2dVertex
 10
1326.478259611069
 20
1648.673242581531
 30
0.0
  0
VERTEX
  5
4CF
330
4CC
100
AcDbEntity
  8
0
100
AcDbVertex
100
AcDb2dVertex
 10
1298.862146605106
 20
1621.135081741676
 30
0.0
  0
SEQEND
  5
4D0
330
4CC
100
AcDbEntity
  8
0
  0
POLYLINE
  5
4D1
330
1F
100
AcDbEntity
  8
0
100
AcDb2dPolyline
 66
     1
 10
0.0
 20
0.0
 30
0.0
  0
VERTEX
  5
4D2
330
4D1
100
AcDbEntity
  8
0
100
AcDbVertex
100
AcDb2dVertex
 10
1298.862146605106
 20
1621.135081741676
 30
0.0
  0
VERTEX
  5
4D3
330
4D1
100
AcDbEntity
  8
0
100
AcDbVertex
100
AcDb2dVertex
 10
1310.528609735049
 20
1609.435594399362
 30
0.0
  0
SEQEND
  5
4D4
330
4D1
100
AcDbEntity
  8
0
  0
POLYLINE
  5
4D5
330
1F
100
AcDbEntity
  8
0
100
AcDb2dPolyline
 66
     1
 10
0.0
 20
0.0
 30
0.0
 70
     1
  0
VERTEX
  5
4D6
330
4D5
100
AcDbEntity
  8
0
100
AcDbVertex
100
AcDb2dVertex
 10
1337.030154287402
 20
1359.804920471372
 30
0.0
  0
VERTEX
  5
4D7
330
4D5
100
AcDbEntity
  8
0
100
AcDbVertex
100
AcDb2dVertex
 10
1327.824783285412
 20
1350.625533524754
 30
0.0
  0
VERTEX
  5
4D8
330
4D5
100
AcDbEntity
  8
0
100
AcDbVertex
100
AcDb2dVertex
 10
1313.702649521389
 20
1364.787642758582
 30
0.0
  0
VERTEX
  5
4D9
330
4D5
100
AcDbEntity
  8
0
100
AcDbVertex
100
AcDb2dVertex
 10
1322.908020523371
 20
1373.967029705201
 30
0.0
  0
SEQEND
  5
4DA
330
4D5
100
AcDbEntity
  8
0
  0
POLYLINE
  5
4DB
330
1F
100
AcDbEntity
  8
0
100
AcDb2dPolyline
 66
     1
 10
0.0
 20
0.0
 30
0.0
  0
VERTEX
  5
4DC
330
4DB
100
AcDbEntity
  8
0
100
AcDbVertex
100
AcDb2dVertex
 10
1310.196857785488
 20
1374.707827516175
 30
0.0
  0
VERTEX
  5
4DD
330
4DB
100
AcDbEntity
  8
0
100
AcDbVertex
100
AcDb2dVertex
 10
1298.497370443177
 20
1363.041364386233
 30
0.0
  0
VERTEX
  5
4DE
330
4DB
100
AcDbEntity
  8
0
100
AcDbVertex
100
AcDb2dVertex
 10
1326.03553128303
 20
1335.425251380268
 30
0.0
  0
SEQEND
  5
4DF
330
4DB
100
AcDbEntity
  8
0
  0
POLYLINE
  5
4E0
330
1F
100
AcDbEntity
  8
0
100
AcDb2dPolyline
 66
     1
 10
0.0
 20
0.0
 30
0.0
  0
VERTEX
  5
4E1
330
4E0
100
AcDbEntity
  8
0
100
AcDbVertex
100
AcDb2dVertex
 10
1326.03553128303
 20
1335.425251380268
 30
0.0
  0
VERTEX
  5
4E2
330
4E0
100
AcDbEntity
  8
0
100
AcDbVertex
100
AcDb2dVertex
 10
1337.73501862534
 20
1347.091714510211
 30
0.0
  0
SEQEND
  5
4E3
330
4E0
100
AcDbEntity
  8
0
  0
POLYLINE
  5
4E4
330
1F
100
AcDbEntity
  8
0
100
AcDb2dPolyline
 66
     1
 10
0.0
 20
0.0
 30
0.0
  0
VERTEX
  5
4E5
330
4E4
100
AcDbEntity
  8
0
100
AcDbVertex
100
AcDb2dVertex
 10
1572.462785508531
 20
1346.759962560652
 30
0.0
  0
VERTEX
  5
4E6
330
4E4
100
AcDbEntity
  8
0
100
AcDbVertex
100
AcDb2dVertex
 10
1584.129248638473
 20
1335.060475218338
 30
0.0
  0
VERTEX
  5
4E7
330
4E4
100
AcDbEntity
  8
0
100
AcDbVertex
100
AcDb2dVertex
 10
1611.745361644436
 20
1362.598636058193
 30
0.0
  0
SEQEND
  5
4E8
330
4E4
100
AcDbEntity
  8
0
  0
POLYLINE
  5
4E9
330
1F
100
AcDbEntity
  8
0
100
AcDb2dPolyline
 66
     1
 10
0.0
 20
0.0
 30
0.0
  0
VERTEX
  5
4EA
330
4E9
100
AcDbEntity
  8
0
100
AcDbVertex
100
AcDb2dVertex
 10
1611.745361644436
 20
1362.598636058193
 30
0.0
  0
VERTEX
  5
4EB
330
4E9
100
AcDbEntity
  8
0
100
AcDbVertex
100
AcDb2dVertex
 10
1600.078898514493
 20
1374.298123400506
 30
0.0
  0
SEQEND
  5
4EC
330
4E9
100
AcDbEntity
  8
0
  0
POLYLINE
  5
4ED
330
1F
100
AcDbEntity
  8
0
100
AcDb2dPolyline
 66
     1
 10
0.0
 20
0.0
 30
0.0
  0
VERTEX
  5
4EE
330
4ED
100
AcDbEntity
  8
0
100
AcDbVertex
100
AcDb2dVertex
 10
1587.365692553332
 20
1373.593259062564
 30
0.0
  0
VERTEX
  5
4EF
330
4ED
100
AcDbEntity
  8
0
100
AcDbVertex
100
AcDb2dVertex
 10
1596.545079499952
 20
1364.387888060572
 30
0.0
  0
SEQEND
  5
4F0
330
4ED
100
AcDbEntity
  8
0
  0
POLYLINE
  5
4F1
330
1F
100
AcDbEntity
  8
0
100
AcDb2dPolyline
 66
     1
 10
0.0
 20
0.0
 30
0.0
  0
VERTEX
  5
4F2
330
4F1
100
AcDbEntity
  8
0
100
AcDbVertex
100
AcDb2dVertex
 10
1582.382970266124
 20
1350.265754296552
 30
0.0
  0
VERTEX
  5
4F3
330
4F1
100
AcDbEntity
  8
0
100
AcDbVertex
100
AcDb2dVertex
 10
1573.203583319504
 20
1359.471125298537
 30
0.0
  0
VERTEX
  5
4F4
330
4F1
100
AcDbEntity
  8
0
100
AcDbVertex
100
AcDb2dVertex
 10
1587.365692553332
 20
1373.593259062564
 30
0.0
  0
SEQEND
  5
4F5
330
4F1
100
AcDbEntity
  8
0
  0
ARC
  5
4F6
330
1F
100
AcDbEntity
  8
0
100
AcDbCircle
 10
1455.303754124772
 20
1491.866858899934
 30
0.0
 40
186.5
100
AcDbArc
 50
137.9926549546047
 51
221.8453874367993
  0
LINE
  5
4F7
330
1F
100
AcDbEntity
  8
0
100
AcDbLine
 10
1582.382970266124
 20
1350.265754296545
 30
0.0
 11
1596.545079499952
 21
1364.387888060572
 31
0.0
  0
LINE
  5
4F8
330
1F
100
AcDbEntity
  8
0
100
AcDbLine
 10
1695.303754124772
 20
1571.866858899934
 30
0.0
 11
1695.303754124772
 21
1411.866858899934
 31
0.0
  0
LINE
  5
4F9
330
1F
100
AcDbEntity
  8
0
100
AcDbLine
 10
1695.303754124772
 20
1571.866858899934
 30
0.0
 11
1623.774077920981
 21
1571.866858899934
 31
0.0
  0
LINE
  5
4FA
330
1F
100
AcDbEntity
  8
0
100
AcDbLine
 10
1695.303754124772
 20
1411.866858899933
 30
0.0
 11
1623.774077920981
 21
1411.866858899934
 31
0.0
  0
LINE
  5
4FB
330
1F
100
AcDbEntity
  8
0
100
AcDbLine
 10
1279.255171602914
 20
2021.917930862545
 30
0.0
 11
1633.255171602916
 21
2021.917930862545
 31
0.0
  0
LINE
  5
4FC
102
{ACAD_REACTORS
330
513
330
516
102
}
330
1F
100
AcDbEntity
  8
0
100
AcDbLine
 10
1633.255171602916
 20
2021.917930862545
 30
0.0
 11
1633.253463865803
 21
2041.923227593135
 31
0.0
  0
LINE
  5
4FD
330
1F
100
AcDbEntity
  8
0
100
AcDbLine
 10
1633.239805586116
 20
2201.923227593134
 30
0.0
 11
1633.234675561107
 21
2262.018936578735
 31
0.0
  0
LINE
  5
4FE
102
{ACAD_REACTORS
330
510
102
}
330
1F
100
AcDbEntity
  8
0
100
AcDbLine
 10
1279.255171602914
 20
2021.917930862545
 30
0.0
 11
1279.255171602914
 21
2111.923227593136
 31
0.0
  0
LINE
  5
4FF
330
1F
100
AcDbEntity
  8
0
100
AcDbLine
 10
1215.30375412477
 20
1571.866858899934
 30
0.0
 11
1215.30375412477
 21
1411.866858899934
 31
0.0
  0
LINE
  5
500
330
1F
100
AcDbEntity
  8
0
100
AcDbLine
 10
1215.30375412477
 20
1571.866858899934
 30
0.0
 11
1286.833430328561
 21
1571.866858899934
 31
0.0
  0
LINE
  5
501
330
1F
100
AcDbEntity
  8
0
100
AcDbLine
 10
1215.30375412477
 20
1411.866858899933
 30
0.0
 11
1286.833430328561
 21
1411.866858899934
 31
0.0
  0
CIRCLE
  5
502
330
1F
100
AcDbEntity
  8
0
100
AcDbCircle
 10
1455.303754124772
 20
1491.866858899934
 30
0.0
 40
25.0
  0
LINE
  5
503
330
1F
100
AcDbEntity
  8
0
100
AcDbLine
 10
1695.303754124772
 20
2201.923227593134
 30
0.0
 11
1695.303754124772
 21
2041.923227593135
 31
0.0
  0
LINE
  5
504
330
1F
100
AcDbEntity
  8
0
100
AcDbLine
 10
1695.303754124772
 20
2201.923227593134
 30
0.0
 11
1633.239805586116
 21
2201.923227593134
 31
0.0
  0
LINE
  5
505
102
{ACAD_REACTORS
330
531
102
}
330
1F
100
AcDbEntity
  8
0
100
AcDbLine
 10
1695.303754124772
 20
2041.923227593135
 30
0.0
 11
1633.253463865803
 21
2041.923227593135
 31
0.0
  0
LINE
  5
506
330
1F
100
AcDbEntity
  8
0
100
AcDbLine
 10
1215.30375412477
 20
2271.923227593134
 30
0.0
 11
1215.30375412477
 21
2111.923227593134
 31
0.0
  0
LINE
  5
507
330
1F
100
AcDbEntity
  8
0
100
AcDbLine
 10
1215.30375412477
 20
2271.923227593134
 30
0.0
 11
1279.871293038073
 21
2271.923227593134
 31
0.0
  0
LINE
  5
508
102
{ACAD_REACTORS
330
531
102
}
330
1F
100
AcDbEntity
  8
0
100
AcDbLine
 10
1215.30375412477
 20
2111.923227593134
 30
0.0
 11
1279.255171602914
 21
2111.923227593134
 31
0.0
  0
LINE
  5
509
102
{ACAD_REACTORS
330
510
102
}
330
1F
100
AcDbEntity
  8
AM_7
  6
AM_DIN_G_W050x2
100
AcDbLine
 10
1155.30375412477
 20
2191.923227593135
 30
0.0
 11
1339.255171602914
 21
2191.923227593135
 31
0.0
1001
GENIUS_GENODEF_13
1002
{
1000
HIER
1070
     0
1002
}
1002
{
1000
MANEDIT
1070
     0
1002
}
1002
{
1000
NOSEL
1070
     0
1002
}
1002
{
1000
BEHIND
1070
     0
1002
}
1002
{
1000
OTHER
1070
     0
1002
}
1002
{
1000
REACTOR
1002
}
1001
GENIUS_GENOBJ-N-CEN_13
1002
{
1000
OWNER
1000
GEN
1002
}
1001
GENIUS_GENCEN_19
1002
{
1040
60.0
1002
}
  0
LINE
  5
50A
102
{ACAD_REACTORS
330
513
102
}
330
1F
100
AcDbEntity
  8
AM_7
  6
AM_DIN_G_W050x2
100
AcDbLine
 10
1755.303753906159
 20
2121.928349447999
 30
0.0
 11
1573.246635396783
 21
2121.912808278977
 31
0.0
1001
GENIUS_GENODEF_13
1002
{
1000
HIER
1070
     0
1002
}
1002
{
1000
MANEDIT
1070
     0
1002
}
1002
{
1000
NOSEL
1070
     0
1002
}
1002
{
1000
BEHIND
1070
     0
1002
}
1002
{
1000
OTHER
1070
     0
1002
}
1002
{
1000
REACTOR
1002
}
1001
GENIUS_GENOBJ-N-CEN_13
1002
{
1000
OWNER
1000
GEN
1002
}
1001
GENIUS_GENCEN_19
1002
{
1040
60.0
1002
}
  0
CIRCLE
  5
50B
330
1F
100
AcDbEntity
  8
0
100
AcDbCircle
 10
1455.289620647771
 20
1491.866858899934
 30
0.0
 40
177.0141334770014
  0
ARC
  5
50C
330
1F
100
AcDbEntity
  8
0
100
AcDbCircle
 10
1130.37907897695
 20
2192.497699809762
 30
0.0
 40
169.2818257479595
100
AcDbArc
 50
331.5769351463615
 51
27.98180256093895
  0
ARC
  5
50D
330
1F
100
AcDbEntity
  8
0
100
AcDbCircle
 10
1779.709056828193
 20
2121.935730247665
 30
0.0
 40
166.8869116827527
100
AcDbArc
 50
151.360853539278
 51
208.648928482858
  0
DIMENSION
  5
50E
102
{ACAD_XDICTIONARY
360
50F
102
}
102
{ACAD_REACTORS
330
510
102
}
330
1F
100
AcDbEntity
  8
AM_5
100
AcDbDimension
  2
*D11
 10
1095.30375312477
 20
2021.917930862545
 30
0.0
 11
1071.80375312477
 21
2106.92057922784
 31
0.0
 70
    32
 71
     5
 42
170.0052967305894
  3
GEN-ISO$0
100
AcDbAlignedDimension
 13
1155.30375412477
 23
2191.923227593135
 33
0.0
 14
1279.255171602914
 24
2021.917930862545
 34
0.0
 50
90.0
100
AcDbRotatedDimension
1001
ACAD
1000
DSTYLE
1002
{
1070
   271
1070
     0
1002
}
  0
DIMENSION
  5
511
102
{ACAD_XDICTIONARY
360
512
102
}
102
{ACAD_REACTORS
330
513
102
}
330
1F
100
AcDbEntity
  8
AM_5
100
AcDbDimension
  2
*D12
 10
1837.269760525891
 20
2121.928349447999
 30
0.0
 11
1837.269760525891
 21
2071.92314015527
 31
0.0
 70
   160
 71
     5
 42
100.0104185854543
  3
GEN-ISO$0
100
AcDbAlignedDimension
 13
1633.255171602916
 23
2021.917930862545
 33
0.0
 14
1755.303753906159
 24
2121.928349447999
 34
0.0
 50
90.0
100
AcDbRotatedDimension
1001
ACAD
1000
DSTYLE
1002
{
1070
   271
1070
     0
1002
}
  0
DIMENSION
  5
514
102
{ACAD_XDICTIONARY
360
515
102
}
102
{ACAD_REACTORS
330
516
102
}
330
1F
100
AcDbEntity
  8
AM_5
100
AcDbDimension
  2
*D13
 10
1900.765398918494
 20
2341.917930862545
 30
0.0
 11
1877.261954036605
 21
2181.917930862546
 31
0.0
 70
    32
 71
     5
 42
320.0
  3
GEN-ISO$0
100
AcDbAlignedDimension
 13
1633.255171602916
 23
2021.917930862545
 33
0.0
 14
1629.241038125903
 24
2341.917930862545
 34
0.0
 50
90.0
100
AcDbRotatedDimension
1001
ACAD
1000
DSTYLE
1002
{
1070
   271
1070
     0
1002
}
  0
LINE
  5
517
330
1F
100
AcDbEntity
  8
AM_4
100
AcDbLine
 10
1150.303754124756
 20
2273.041188801855
 30
0.0
 11
1150.303754124756
 21
2110.805266384136
 31
0.0
  0
LINE
  5
518
330
1F
100
AcDbEntity
  8
AM_4
100
AcDbLine
 10
1205.303754124756
 20
2106.923227593134
 30
0.0
 11
1205.303754124785
 21
2276.923227593136
 31
0.0
  0
LINE
  5
519
330
1F
100
AcDbEntity
  8
AM_4
100
AcDbLine
 10
1150.303754124756
 20
2110.805266384136
 30
0.0
 11
1150.303754124756
 21
2106.923227593192
 31
0.0
  0
LINE
  5
51A
330
1F
100
AcDbEntity
  8
AM_4
100
AcDbLine
 10
1150.303754124756
 20
2106.923227593199
 30
0.0
 11
1205.303754124756
 21
2106.923227593134
 31
0.0
  0
LINE
  5
51B
330
1F
100
AcDbEntity
  8
AM_4
100
AcDbLine
 10
1150.303754124756
 20
2298.180153499187
 30
0.0
 11
1150.303754124756
 21
2273.041188801855
 31
0.0
  0
LWPOLYLINE
  5
51C
330
1F
100
AcDbEntity
  8
AM_4
100
AcDbPolyline
 90
        6
 70
     1
 43
0.0
 10
1164.056530874486
 20
2281.05169054616
 10
1167.809307624224
 20
2287.55169054616
 10
1164.056530874486
 20
2294.05169054616
 10
1156.550977375025
 20
2294.05169054616
 10
1152.798200625288
 20
2287.55169054616
 10
1156.550977375025
 20
2281.05169054616
  0
CIRCLE
  5
51D
330
1F
100
AcDbEntity
  8
AM_4
100
AcDbCircle
 10
1160.303754124756
 20
2287.55169054616
 30
0.0
 40
6.5
  0
LWPOLYLINE
  5
51E
330
1F
100
AcDbEntity
  8
AM_4
100
AcDbPolyline
 90
        6
 70
     1
 43
0.0
 10
1199.056530874486
 20
2281.051690546102
 10
1202.809307624224
 20
2287.551690546102
 10
1199.056530874486
 20
2294.051690546102
 10
1191.550977375025
 20
2294.051690546102
 10
1187.798200625288
 20
2287.551690546102
 10
1191.550977375025
 20
2281.051690546102
  0
CIRCLE
  5
51F
330
1F
100
AcDbEntity
  8
AM_4
100
AcDbCircle
 10
1195.303754124756
 20
2287.551690546102
 30
0.0
 40
6.5
  0
LINE
  5
520
330
1F
100
AcDbEntity
  8
AM_4
100
AcDbLine
 10
1150.303754124756
 20
2276.923227593075
 30
0.0
 11
1205.303754124756
 21
2276.923227593133
 31
0.0
  0
LINE
  5
521
330
1F
100
AcDbEntity
  8
AM_4
100
AcDbLine
 10
1205.303754124756
 20
2298.180153499187
 30
0.0
 11
1150.303754124756
 21
2298.180153499187
 31
0.0
  0
LINE
  5
522
330
1F
100
AcDbEntity
  8
AM_4
100
AcDbLine
 10
1205.303754124756
 20
2276.923227593133
 30
0.0
 11
1205.303754124727
 21
2298.180153499187
 31
0.0
  0
LINE
  5
523
330
1F
100
AcDbEntity
  8
AM_4
100
AcDbLine
 10
1706.178993457226
 20
2203.041188801995
 30
0.0
 11
1706.178993457226
 21
2040.805266384276
 31
0.0
  0
LINE
  5
524
330
1F
100
AcDbEntity
  8
AM_4
100
AcDbLine
 10
1761.178993457226
 20
2036.923227593274
 30
0.0
 11
1761.178993457255
 21
2206.923227593276
 31
0.0
  0
LINE
  5
525
330
1F
100
AcDbEntity
  8
AM_4
100
AcDbLine
 10
1706.178993457226
 20
2040.805266384276
 30
0.0
 11
1706.178993457226
 21
2036.923227593332
 31
0.0
  0
LINE
  5
526
330
1F
100
AcDbEntity
  8
AM_4
100
AcDbLine
 10
1706.178993457226
 20
2036.923227593339
 30
0.0
 11
1761.178993457226
 21
2036.923227593274
 31
0.0
  0
LINE
  5
527
330
1F
100
AcDbEntity
  8
AM_4
100
AcDbLine
 10
1706.178993457226
 20
2228.180153499327
 30
0.0
 11
1706.178993457226
 21
2203.041188801995
 31
0.0
  0
LWPOLYLINE
  5
528
330
1F
100
AcDbEntity
  8
AM_4
100
AcDbPolyline
 90
        6
 70
     1
 43
0.0
 10
1719.931770206956
 20
2211.0516905463
 10
1723.68454695669
 20
2217.5516905463
 10
1719.931770206956
 20
2224.0516905463
 10
1712.426216707492
 20
2224.0516905463
 10
1708.673439957758
 20
2217.5516905463
 10
1712.426216707495
 20
2211.0516905463
  0
CIRCLE
  5
529
330
1F
100
AcDbEntity
  8
AM_4
100
AcDbCircle
 10
1716.178993457226
 20
2217.5516905463
 30
0.0
 40
6.5
  0
LWPOLYLINE
  5
52A
330
1F
100
AcDbEntity
  8
AM_4
100
AcDbPolyline
 90
        6
 70
     1
 43
0.0
 10
1754.931770206956
 20
2211.051690546242
 10
1758.684546956691
 20
2217.551690546242
 10
1754.931770206956
 20
2224.051690546242
 10
1747.426216707492
 20
2224.051690546242
 10
1743.673439957758
 20
2217.551690546242
 10
1747.426216707496
 20
2211.051690546242
  0
CIRCLE
  5
52B
330
1F
100
AcDbEntity
  8
AM_4
100
AcDbCircle
 10
1751.178993457226
 20
2217.551690546242
 30
0.0
 40
6.5
  0
LINE
  5
52C
330
1F
100
AcDbEntity
  8
AM_4
100
AcDbLine
 10
1706.178993457226
 20
2206.923227593215
 30
0.0
 11
1761.178993457226
 21
2206.923227593273
 31
0.0
  0
LINE
  5
52D
330
1F
100
AcDbEntity
  8
AM_4
100
AcDbLine
 10
1761.178993457226
 20
2228.180153499327
 30
0.0
 11
1706.178993457226
 21
2228.180153499327
 31
0.0
  0
LINE
  5
52E
330
1F
100
AcDbEntity
  8
AM_4
100
AcDbLine
 10
1761.178993457226
 20
2206.923227593273
 30
0.0
 11
1761.178993457197
 21
2228.180153499327
 31
0.0
  0
DIMENSION
  5
52F
102
{ACAD_XDICTIONARY
360
530
102
}
102
{ACAD_REACTORS
330
531
102
}
330
1F
100
AcDbEntity
  8
AM_5
100
AcDbDimension
  2
*D10
 10
1695.303754124772
 20
1921.923227593133
 30
0.0
 11
1455.303754124771
 21
1945.423227593133
 31
0.0
 70
    32
 71
     5
 42
480.0000000000018
  3
GEN-ISO$0
100
AcDbAlignedDimension
 13
1215.30375412477
 23
2111.923227593134
 33
0.0
 14
1695.303754124772
 24
2041.923227593135
 34
0.0
100
AcDbRotatedDimension
1001
ACAD
1000
DSTYLE
1002
{
1070
   271
1070
     0
1002
}
  0
LINE
  5
532
330
1F
100
AcDbEntity
  8
AM_4
100
AcDbLine
 10
1150.303754124756
 20
1572.984820108653
 30
0.0
 11
1150.303754124756
 21
1410.748897690934
 31
0.0
  0
LINE
  5
533
330
1F
100
AcDbEntity
  8
AM_4
100
AcDbLine
 10
1205.303754124756
 20
1406.866858899932
 30
0.0
 11
1205.303754124785
 21
1576.866858899935
 31
0.0
  0
LINE
  5
534
330
1F
100
AcDbEntity
  8
AM_4
100
AcDbLine
 10
1150.303754124756
 20
1410.748897690934
 30
0.0
 11
1150.303754124756
 21
1406.866858899991
 31
0.0
  0
LINE
  5
535
330
1F
100
AcDbEntity
  8
AM_4
100
AcDbLine
 10
1150.303754124756
 20
1406.866858899998
 30
0.0
 11
1205.303754124756
 21
1406.866858899932
 31
0.0
  0
LINE
  5
536
330
1F
100
AcDbEntity
  8
AM_4
100
AcDbLine
 10
1150.303754124756
 20
1598.123784805986
 30
0.0
 11
1150.303754124756
 21
1572.984820108653
 31
0.0
  0
LWPOLYLINE
  5
537
330
1F
100
AcDbEntity
  8
AM_4
100
AcDbPolyline
 90
        6
 70
     1
 43
0.0
 10
1164.056530874486
 20
1580.995321852959
 10
1167.809307624224
 20
1587.495321852959
 10
1164.056530874486
 20
1593.995321852959
 10
1156.550977375025
 20
1593.995321852959
 10
1152.798200625288
 20
1587.495321852959
 10
1156.550977375025
 20
1580.995321852959
  0
CIRCLE
  5
538
330
1F
100
AcDbEntity
  8
AM_4
100
AcDbCircle
 10
1160.303754124756
 20
1587.495321852959
 30
0.0
 40
6.5
  0
LWPOLYLINE
  5
539
330
1F
100
AcDbEntity
  8
AM_4
100
AcDbPolyline
 90
        6
 70
     1
 43
0.0
 10
1199.056530874486
 20
1580.995321852901
 10
1202.809307624224
 20
1587.495321852901
 10
1199.056530874486
 20
1593.995321852901
 10
1191.550977375025
 20
1593.995321852901
 10
1187.798200625288
 20
1587.495321852901
 10
1191.550977375025
 20
1580.995321852901
  0
CIRCLE
  5
53A
330
1F
100
AcDbEntity
  8
AM_4
100
AcDbCircle
 10
1195.303754124756
 20
1587.495321852901
 30
0.0
 40
6.5
  0
LINE
  5
53B
330
1F
100
AcDbEntity
  8
AM_4
100
AcDbLine
 10
1150.303754124756
 20
1576.866858899873
 30
0.0
 11
1205.303754124756
 21
1576.866858899931
 31
0.0
  0
LINE
  5
53C
330
1F
100
AcDbEntity
  8
AM_4
100
AcDbLine
 10
1205.303754124756
 20
1598.123784805986
 30
0.0
 11
1150.303754124756
 21
1598.123784805986
 31
0.0
  0
LINE
  5
53D
330
1F
100
AcDbEntity
  8
AM_4
100
AcDbLine
 10
1205.303754124756
 20
1576.866858899931
 30
0.0
 11
1205.303754124727
 21
1598.123784805986
 31
0.0
  0
LINE
  5
53E
330
1F
100
AcDbEntity
  8
AM_4
100
AcDbLine
 10
1706.178993457226
 20
1572.984820108792
 30
0.0
 11
1706.178993457226
 21
1410.748897691074
 31
0.0
  0
LINE
  5
53F
330
1F
100
AcDbEntity
  8
AM_4
100
AcDbLine
 10
1761.178993457226
 20
1406.866858900072
 30
0.0
 11
1761.178993457255
 21
1576.866858900074
 31
0.0
  0
LINE
  5
540
330
1F
100
AcDbEntity
  8
AM_4
100
AcDbLine
 10
1706.178993457226
 20
1410.748897691074
 30
0.0
 11
1706.178993457226
 21
1406.866858900131
 31
0.0
  0
LINE
  5
541
330
1F
100
AcDbEntity
  8
AM_4
100
AcDbLine
 10
1706.178993457226
 20
1406.866858900138
 30
0.0
 11
1761.178993457226
 21
1406.866858900072
 31
0.0
  0
LINE
  5
542
330
1F
100
AcDbEntity
  8
AM_4
100
AcDbLine
 10
1706.178993457226
 20
1598.123784806125
 30
0.0
 11
1706.178993457226
 21
1572.984820108792
 31
0.0
  0
LWPOLYLINE
  5
543
330
1F
100
AcDbEntity
  8
AM_4
100
AcDbPolyline
 90
        6
 70
     1
 43
0.0
 10
1719.931770206956
 20
1580.995321853098
 10
1723.68454695669
 20
1587.495321853098
 10
1719.931770206956
 20
1593.995321853098
 10
1712.426216707492
 20
1593.995321853098
 10
1708.673439957758
 20
1587.495321853098
 10
1712.426216707495
 20
1580.995321853098
  0
CIRCLE
  5
544
330
1F
100
AcDbEntity
  8
AM_4
100
AcDbCircle
 10
1716.178993457226
 20
1587.495321853098
 30
0.0
 40
6.5
  0
LWPOLYLINE
  5
545
330
1F
100
AcDbEntity
  8
AM_4
100
AcDbPolyline
 90
        6
 70
     1
 43
0.0
 10
1754.931770206956
 20
1580.99532185304
 10
1758.684546956691
 20
1587.49532185304
 10
1754.931770206956
 20
1593.99532185304
 10
1747.426216707492
 20
1593.99532185304
 10
1743.673439957758
 20
1587.49532185304
 10
1747.426216707496
 20
1580.99532185304
  0
CIRCLE
  5
546
330
1F
100
AcDbEntity
  8
AM_4
100
AcDbCircle
 10
1751.178993457226
 20
1587.49532185304
 30
0.0
 40
6.5
  0
LINE
  5
547
330
1F
100
AcDbEntity
  8
AM_4
100
AcDbLine
 10
1706.178993457226
 20
1576.866858900013
 30
0.0
 11
1761.178993457226
 21
1576.866858900071
 31
0.0
  0
LINE
  5
548
330
1F
100
AcDbEntity
  8
AM_4
100
AcDbLine
 10
1761.178993457226
 20
1598.123784806125
 30
0.0
 11
1706.178993457226
 21
1598.123784806125
 31
0.0
  0
LINE
  5
549
330
1F
100
AcDbEntity
  8
AM_4
100
AcDbLine
 10
1761.178993457226
 20
1576.866858900071
 30
0.0
 11
1761.178993457197
 21
1598.123784806125
 31
0.0
  0
LINE
  5
54A
330
1F
100
AcDbEntity
  8
AM_7
100
AcDbLine
 10
1455.289620647771
 20
1491.866858899934
 30
0.0
 11
1662.303754124772
 21
1491.866858899934
 31
0.0
1001
GENIUS_GENOREF_13
1005
58B
  0
LINE
  5
54B
330
1F
100
AcDbEntity
  8
AM_7
100
AcDbLine
 10
1455.289620647771
 20
1491.866858899934
 30
0.0
 11
1455.289620647771
 21
1698.880992376936
 31
0.0
1001
GENIUS_GENOREF_13
1005
58B
  0
LINE
  5
54C
330
1F
100
AcDbEntity
  8
AM_7
100
AcDbLine
 10
1455.289620647771
 20
1491.866858899934
 30
0.0
 11
1248.275487170767
 21
1491.866858899934
 31
0.0
1001
GENIUS_GENOREF_13
1005
58B
  0
LINE
  5
54D
330
1F
100
AcDbEntity
  8
AM_7
100
AcDbLine
 10
1455.289620647771
 20
1491.866858899934
 30
0.0
 11
1455.289620647771
 21
1284.852725422933
 31
0.0
1001
GENIUS_GENOREF_13
1005
58B
  0
DIMENSION
  5
54E
330
1F
100
AcDbEntity
  8
AM_5
100
AcDbDimension
  2
*D9
 10
1648.241038125907
 20
2426.566902568929
 30
0.0
 11
1456.24103812591
 21
2450.066902568929
 31
0.0
 70
    32
  1
%%c<>
 71
     5
 42
383.9999999999946
  3
GEN-ISO$0
100
AcDbAlignedDimension
 13
1264.241038125912
 23
2331.917930862558
 33
0.0
 14
1648.241038125907
 24
2331.917930862545
 34
0.0
100
AcDbRotatedDimension
1001
ACAD
1000
DSTYLE
1002
{
1070
   271
1070
     0
1002
}
  0
TEXT
  5
54F
330
1F
100
AcDbEntity
  8
AM_6
100
AcDbText
 10
871.4387621296864
 20
2283.570932673129
 30
0.0
 40
27.0
  1
Zulauf
100
AcDbText
  0
TEXT
  5
550
330
1F
100
AcDbEntity
  8
AM_6
100
AcDbText
 10
871.4387621296864
 20
2246.070932673129
 30
0.0
 40
27.0
  1
DN 150
100
AcDbText
  0
LINE
  5
551
330
1F
100
AcDbEntity
  8
406
  6
AUSGEZOGEN
 62
     7
100
AcDbLine
 10
1029.276587818452
 20
2190.048227593134
 30
0.0
 11
1029.276587818452
 21
2193.798960013133
 31
0.0
  0
LINE
  5
552
330
1F
100
AcDbEntity
  8
406
  6
AUSGEZOGEN
 62
     7
100
AcDbLine
 10
1028.026587818453
 20
2188.798227593135
 30
0.0
 11
1028.026587818453
 21
2195.048960013132
 31
0.0
  0
LINE
  5
553
330
1F
100
AcDbEntity
  8
406
  6
AUSGEZOGEN
 62
     7
100
AcDbLine
 10
1026.776587818453
 20
2187.548227593135
 30
0.0
 11
1026.776587818453
 21
2196.298960013132
 31
0.0
  0
LINE
  5
554
330
1F
100
AcDbEntity
  8
406
  6
AUSGEZOGEN
 62
     7
100
AcDbLine
 10
1025.526587818452
 20
2186.298227593134
 30
0.0
 11
1025.526587818452
 21
2197.548960013132
 31
0.0
  0
LINE
  5
555
330
1F
100
AcDbEntity
  8
406
  6
AUSGEZOGEN
 62
     7
100
AcDbLine
 10
1024.276587818452
 20
2185.048227593135
 30
0.0
 11
1024.276587818452
 21
2198.798960013133
 31
0.0
  0
LINE
  5
556
330
1F
100
AcDbEntity
  8
406
  6
AUSGEZOGEN
 62
     7
100
AcDbLine
 10
1023.026587818453
 20
2183.798227593134
 30
0.0
 11
1023.026587818453
 21
2200.048960013132
 31
0.0
  0
LINE
  5
557
330
1F
100
AcDbEntity
  8
406
  6
AUSGEZOGEN
 62
     7
100
AcDbLine
 10
1021.776587818453
 20
2182.548227593135
 30
0.0
 11
1021.776587818453
 21
2201.298960013132
 31
0.0
  0
LINE
  5
558
330
1F
100
AcDbEntity
  8
406
  6
AUSGEZOGEN
 62
     7
100
AcDbLine
 10
1020.526587818453
 20
2181.298227593134
 30
0.0
 11
1020.526587818453
 21
2202.548960013132
 31
0.0
  0
LINE
  5
559
330
1F
100
AcDbEntity
  8
406
  6
AUSGEZOGEN
 62
     7
100
AcDbLine
 10
1019.276587818453
 20
2180.048227593134
 30
0.0
 11
1019.276587818453
 21
2203.798960013132
 31
0.0
  0
LINE
  5
55A
330
1F
100
AcDbEntity
  8
406
  6
AUSGEZOGEN
 62
     7
100
AcDbLine
 10
1018.026587818453
 20
2178.798227593135
 30
0.0
 11
1018.026587818453
 21
2205.048960013133
 31
0.0
  0
LINE
  5
55B
330
1F
100
AcDbEntity
  8
406
  6
AUSGEZOGEN
 62
     7
100
AcDbLine
 10
1016.776587818452
 20
2177.548227593135
 30
0.0
 11
1016.776587818452
 21
2206.298960013132
 31
0.0
  0
LINE
  5
55C
330
1F
100
AcDbEntity
  8
406
  6
AUSGEZOGEN
 62
     7
100
AcDbLine
 10
1015.526587818452
 20
2176.297495173129
 30
0.0
 11
1015.526587818452
 21
2207.547983453135
 31
0.0
  0
LINE
  5
55D
330
1F
100
AcDbEntity
  8
406
  6
AUSGEZOGEN
 62
     7
100
AcDbLine
 10
1014.276587818453
 20
2175.04749517313
 30
0.0
 11
1014.276587818453
 21
2208.797983453135
 31
0.0
  0
LINE
  5
55E
330
1F
100
AcDbEntity
  8
406
  6
AUSGEZOGEN
 62
     7
100
AcDbLine
 10
1013.026587818453
 20
2173.79749517313
 30
0.0
 11
1013.026587818453
 21
2210.047983453135
 31
0.0
  0
LINE
  5
55F
330
1F
100
AcDbEntity
  8
406
  6
AUSGEZOGEN
 62
     7
100
AcDbLine
 10
1011.776587818453
 20
2172.547495173129
 30
0.0
 11
1011.776587818453
 21
2211.297983453135
 31
0.0
  0
LINE
  5
560
330
1F
100
AcDbEntity
  8
406
  6
AUSGEZOGEN
 62
     7
100
AcDbLine
 10
1010.526587818453
 20
2171.29749517313
 30
0.0
 11
1010.526587818453
 21
2212.547983453135
 31
0.0
  0
LINE
  5
561
330
1F
100
AcDbEntity
  8
406
  6
AUSGEZOGEN
 62
     7
100
AcDbLine
 10
1009.276587818453
 20
2170.047495173129
 30
0.0
 11
1009.276587818453
 21
2213.797983453135
 31
0.0
  0
LINE
  5
562
330
1F
100
AcDbEntity
  8
406
  6
AUSGEZOGEN
 62
     7
100
AcDbLine
 10
1008.026587818453
 20
2168.79749517313
 30
0.0
 11
1008.026587818453
 21
2215.047983453136
 31
0.0
  0
LINE
  5
563
330
1F
100
AcDbEntity
  8
406
  6
AUSGEZOGEN
 62
     7
100
AcDbLine
 10
1006.776587818452
 20
2167.547495173129
 30
0.0
 11
1006.776587818452
 21
2216.298471733134
 31
0.0
  0
LINE
  5
564
330
1F
100
AcDbEntity
  8
406
  6
AUSGEZOGEN
 62
     7
100
AcDbLine
 10
1005.526587818453
 20
2166.297495173129
 30
0.0
 11
1005.526587818453
 21
2217.547983453135
 31
0.0
  0
LINE
  5
565
330
1F
100
AcDbEntity
  8
406
  6
AUSGEZOGEN
 62
     7
100
AcDbLine
 10
1004.276587818452
 20
2165.047495173129
 30
0.0
 11
1004.276587818452
 21
2218.797983453137
 31
0.0
  0
LINE
  5
566
330
1F
100
AcDbEntity
  8
406
  6
AUSGEZOGEN
 62
     7
100
AcDbLine
 10
1003.026587818452
 20
2163.797495173129
 30
0.0
 11
1003.026587818452
 21
2220.047983453135
 31
0.0
  0
LINE
  5
567
330
1F
100
AcDbEntity
  8
406
  6
AUSGEZOGEN
 62
     7
100
AcDbLine
 10
1001.77658781846
 20
2162.54749517313
 30
0.0
 11
1001.77658781846
 21
2221.298471733134
 31
0.0
  0
LINE
  5
568
330
1F
100
AcDbEntity
  8
406
  6
AUSGEZOGEN
 62
     7
100
AcDbLine
 10
999.9015878184527
 20
2160.673227593135
 30
0.0
 11
999.9015878184527
 21
2223.173227593135
 31
0.0
  0
LINE
  5
569
330
1F
100
AcDbEntity
  8
406
  6
AUSGEZOGEN
 62
     7
100
AcDbLine
 10
1000.526587818453
 20
2161.29749517313
 30
0.0
 11
1000.526587818453
 21
2222.548471733134
 31
0.0
  0
LINE
  5
56A
330
1F
100
AcDbEntity
  8
406
  6
AUSGEZOGEN
 62
     7
100
AcDbLine
 10
999.9015878184527
 20
2223.173227593135
 30
0.0
 11
1031.15158781846
 21
2191.923227593135
 31
0.0
  0
LINE
  5
56B
330
1F
100
AcDbEntity
  8
406
  6
AUSGEZOGEN
 62
     7
100
AcDbLine
 10
1031.15158781846
 20
2191.923227593135
 30
0.0
 11
999.9015878184527
 21
2160.673227593135
 31
0.0
  0
LINE
  5
56C
330
1F
100
AcDbEntity
  8
406
  6
AUSGEZOGEN
 62
     7
100
AcDbLine
 10
999.9015878184527
 20
2191.923227593135
 30
0.0
 11
939.4997323484586
 21
2191.923227593135
 31
0.0
  0
TEXT
  5
56D
330
1F
100
AcDbEntity
  8
AM_6
100
AcDbText
 10
1944.159721278378
 20
2213.57093267313
 30
0.0
 40
27.0
  1
Ablauf
100
AcDbText
  0
TEXT
  5
56E
330
1F
100
AcDbEntity
  8
AM_6
100
AcDbText
 10
1944.159721278378
 20
2176.07093267313
 30
0.0
 40
27.0
  1
DN 150
100
AcDbText
  0
LINE
  5
56F
330
1F
100
AcDbEntity
  8
406
  6
AUSGEZOGEN
 62
     7
100
AcDbLine
 10
2101.997546967144
 20
2120.048227593136
 30
0.0
 11
2101.997546967144
 21
2123.798960013133
 31
0.0
  0
LINE
  5
570
330
1F
100
AcDbEntity
  8
406
  6
AUSGEZOGEN
 62
     7
100
AcDbLine
 10
2100.747546967145
 20
2118.798227593135
 30
0.0
 11
2100.747546967145
 21
2125.048960013133
 31
0.0
  0
LINE
  5
571
330
1F
100
AcDbEntity
  8
406
  6
AUSGEZOGEN
 62
     7
100
AcDbLine
 10
2099.497546967144
 20
2117.548227593136
 30
0.0
 11
2099.497546967144
 21
2126.298960013133
 31
0.0
  0
LINE
  5
572
330
1F
100
AcDbEntity
  8
406
  6
AUSGEZOGEN
 62
     7
100
AcDbLine
 10
2098.247546967145
 20
2116.298227593135
 30
0.0
 11
2098.247546967145
 21
2127.548960013133
 31
0.0
  0
LINE
  5
573
330
1F
100
AcDbEntity
  8
406
  6
AUSGEZOGEN
 62
     7
100
AcDbLine
 10
2096.997546967145
 20
2115.048227593135
 30
0.0
 11
2096.997546967145
 21
2128.798960013133
 31
0.0
  0
LINE
  5
574
330
1F
100
AcDbEntity
  8
406
  6
AUSGEZOGEN
 62
     7
100
AcDbLine
 10
2095.747546967144
 20
2113.798227593135
 30
0.0
 11
2095.747546967144
 21
2130.048960013133
 31
0.0
  0
LINE
  5
575
330
1F
100
AcDbEntity
  8
406
  6
AUSGEZOGEN
 62
     7
100
AcDbLine
 10
2094.497546967144
 20
2112.548227593135
 30
0.0
 11
2094.497546967144
 21
2131.298960013133
 31
0.0
  0
LINE
  5
576
330
1F
100
AcDbEntity
  8
406
  6
AUSGEZOGEN
 62
     7
100
AcDbLine
 10
2093.247546967145
 20
2111.298227593136
 30
0.0
 11
2093.247546967145
 21
2132.548960013133
 31
0.0
  0
LINE
  5
577
330
1F
100
AcDbEntity
  8
406
  6
AUSGEZOGEN
 62
     7
100
AcDbLine
 10
2091.997546967145
 20
2110.048227593136
 30
0.0
 11
2091.997546967145
 21
2133.798960013133
 31
0.0
  0
LINE
  5
578
330
1F
100
AcDbEntity
  8
406
  6
AUSGEZOGEN
 62
     7
100
AcDbLine
 10
2090.747546967145
 20
2108.798227593135
 30
0.0
 11
2090.747546967145
 21
2135.048960013133
 31
0.0
  0
LINE
  5
579
330
1F
100
AcDbEntity
  8
406
  6
AUSGEZOGEN
 62
     7
100
AcDbLine
 10
2089.497546967145
 20
2107.548227593135
 30
0.0
 11
2089.497546967145
 21
2136.298960013133
 31
0.0
  0
LINE
  5
57A
330
1F
100
AcDbEntity
  8
406
  6
AUSGEZOGEN
 62
     7
100
AcDbLine
 10
2088.247546967144
 20
2106.29749517313
 30
0.0
 11
2088.247546967144
 21
2137.547983453136
 31
0.0
  0
LINE
  5
57B
330
1F
100
AcDbEntity
  8
406
  6
AUSGEZOGEN
 62
     7
100
AcDbLine
 10
2086.997546967145
 20
2105.04749517313
 30
0.0
 11
2086.997546967145
 21
2138.797983453136
 31
0.0
  0
LINE
  5
57C
330
1F
100
AcDbEntity
  8
406
  6
AUSGEZOGEN
 62
     7
100
AcDbLine
 10
2085.747546967144
 20
2103.797495173131
 30
0.0
 11
2085.747546967144
 21
2140.047983453136
 31
0.0
  0
LINE
  5
57D
330
1F
100
AcDbEntity
  8
406
  6
AUSGEZOGEN
 62
     7
100
AcDbLine
 10
2084.497546967145
 20
2102.54749517313
 30
0.0
 11
2084.497546967145
 21
2141.297983453136
 31
0.0
  0
LINE
  5
57E
330
1F
100
AcDbEntity
  8
406
  6
AUSGEZOGEN
 62
     7
100
AcDbLine
 10
2083.247546967144
 20
2101.297495173131
 30
0.0
 11
2083.247546967144
 21
2142.547983453136
 31
0.0
  0
LINE
  5
57F
330
1F
100
AcDbEntity
  8
406
  6
AUSGEZOGEN
 62
     7
100
AcDbLine
 10
2081.997546967144
 20
2100.04749517313
 30
0.0
 11
2081.997546967144
 21
2143.797983453136
 31
0.0
  0
LINE
  5
580
330
1F
100
AcDbEntity
  8
406
  6
AUSGEZOGEN
 62
     7
100
AcDbLine
 10
2080.747546967145
 20
2098.79749517313
 30
0.0
 11
2080.747546967145
 21
2145.047983453136
 31
0.0
  0
LINE
  5
581
330
1F
100
AcDbEntity
  8
406
  6
AUSGEZOGEN
 62
     7
100
AcDbLine
 10
2079.497546967145
 20
2097.54749517313
 30
0.0
 11
2079.497546967145
 21
2146.298471733135
 31
0.0
  0
LINE
  5
582
330
1F
100
AcDbEntity
  8
406
  6
AUSGEZOGEN
 62
     7
100
AcDbLine
 10
2078.247546967145
 20
2096.29749517313
 30
0.0
 11
2078.247546967145
 21
2147.547983453137
 31
0.0
  0
LINE
  5
583
330
1F
100
AcDbEntity
  8
406
  6
AUSGEZOGEN
 62
     7
100
AcDbLine
 10
2076.997546967144
 20
2095.047495173131
 30
0.0
 11
2076.997546967144
 21
2148.797983453137
 31
0.0
  0
LINE
  5
584
330
1F
100
AcDbEntity
  8
406
  6
AUSGEZOGEN
 62
     7
100
AcDbLine
 10
2075.747546967145
 20
2093.79749517313
 30
0.0
 11
2075.747546967145
 21
2150.047983453135
 31
0.0
  0
LINE
  5
585
330
1F
100
AcDbEntity
  8
406
  6
AUSGEZOGEN
 62
     7
100
AcDbLine
 10
2074.497546967152
 20
2092.54749517313
 30
0.0
 11
2074.497546967152
 21
2151.298471733134
 31
0.0
  0
LINE
  5
586
330
1F
100
AcDbEntity
  8
406
  6
AUSGEZOGEN
 62
     7
100
AcDbLine
 10
2072.622546967144
 20
2090.673227593136
 30
0.0
 11
2072.622546967144
 21
2153.173227593136
 31
0.0
  0
LINE
  5
587
330
1F
100
AcDbEntity
  8
406
  6
AUSGEZOGEN
 62
     7
100
AcDbLine
 10
2073.247546967145
 20
2091.29749517313
 30
0.0
 11
2073.247546967145
 21
2152.548471733135
 31
0.0
  0
LINE
  5
588
330
1F
100
AcDbEntity
  8
406
  6
AUSGEZOGEN
 62
     7
100
AcDbLine
 10
2072.622546967144
 20
2153.173227593136
 30
0.0
 11
2103.872546967152
 21
2121.923227593136
 31
0.0
  0
LINE
  5
589
330
1F
100
AcDbEntity
  8
406
  6
AUSGEZOGEN
 62
     7
100
AcDbLine
 10
2103.872546967152
 20
2121.923227593136
 30
0.0
 11
2072.622546967144
 21
2090.673227593136
 31
0.0
  0
LINE
  5
58A
330
1F
100
AcDbEntity
  8
406
  6
AUSGEZOGEN
 62
     7
100
AcDbLine
 10
2072.622546967144
 20
2121.923227593136
 30
0.0
 11
2012.22069149715
 21
2121.923227593136
 31
0.0
  0
POINT
  5
58B
330
1F
100
AcDbEntity
  8
0
 60
     1
100
AcDbPoint
 10
17738.55717318748
 20
-3435.845464324756
 30
0.0
1001
GENIUS_GENODEF_13
1002
{
1000
HIER
1070
    10
1002
}
1002
{
1000
MANEDIT
1070
     0
1002
}
1002
{
1000
NOSEL
1070
     0
1002
}
1002
{
1000
BEHIND
1070
     0
1002
}
1002
{
1000
OTHER
1070
     0
1002
}
1002
{
1000
REACTOR
1002
}
1001
GENIUS_GENOLIS_13
1002
{
1000
ENT
1005
54D
1005
54C
1005
54B
1005
54A
1002
}
1001
GENIUS_GENOBJ-N-CRS_13
1002
{
1000
OWNER
1000
GEN
1002
}
1001
GENIUS_GENOENT_13
1002
{
1000
MYREF
1005
58B
1002
}
1002
{
1000
GRP
1005
0
1002
}
  0
ENDSEC
  0
SECTION
  2
OBJECTS
  0
DICTIONARY
  5
C
330
0
100
AcDbDictionary
281
     1
  3
ACAD_COLOR
350
D7
  3
ACAD_GROUP
350
D
  3
ACAD_LAYOUT
350
1A
  3
ACAD_MATERIAL
350
D6
  3
ACAD_MLINESTYLE
350
17
  3
ACAD_PLOTSETTINGS
350
19
  3
ACAD_PLOTSTYLENAME
350
E
  3
ACAD_TABLESTYLE
350
133
  3
ACDBHEADERROUNDTRIPXREC
350
5D5
  3
AcDbVariableDictionary
350
34
  3
AcmDictionary
350
49
  3
AMG
350
2B
  3
AMGSNAPSETTINGS
350
2C4
  3
DWGPROPS
350
5D4
  0
DICTIONARY
  5
C0
330
2
100
AcDbDictionary
280
     1
281
     1
  3
ACAD_LAYERSTATES
360
360
  3
AMLAYER_GROUPCOLORS
360
C1
  0
DICTIONARY
  5
83
330
1F
100
AcDbDictionary
280
     1
281
     1
  0
DICTIONARY
  5
50F
330
50E
100
AcDbDictionary
280
     1
281
     1
  3
ACAD_DIMASSOC
360
510
  0
DICTIONARY
  5
512
330
511
100
AcDbDictionary
280
     1
281
     1
  3
ACAD_DIMASSOC
360
513
  0
DICTIONARY
  5
515
330
514
100
AcDbDictionary
280
     1
281
     1
  3
ACAD_DIMASSOC
360
516
  0
DICTIONARY
  5
530
330
52F
100
AcDbDictionary
280
     1
281
     1
  3
ACAD_DIMASSOC
360
531
  0
DICTIONARY
  5
D7
102
{ACAD_REACTORS
330
C
102
}
330
C
100
AcDbDictionary
281
     1
  0
DICTIONARY
  5
D
102
{ACAD_REACTORS
330
C
102
}
330
C
100
AcDbDictionary
281
     1
  0
DICTIONARY
  5
1A
102
{ACAD_REACTORS
330
C
102
}
330
C
100
AcDbDictionary
281
     1
  3
Layout1
350
1E
  3
Layout2
350
26
  3
Model
350
22
  0
DICTIONARY
  5
D6
102
{ACAD_REACTORS
330
C
102
}
330
C
100
AcDbDictionary
281
     1
  0
DICTIONARY
  5
17
102
{ACAD_REACTORS
330
C
102
}
330
C
100
AcDbDictionary
281
     1
  3
Standard
350
18
  0
DICTIONARY
  5
19
102
{ACAD_REACTORS
330
C
102
}
330
C
100
AcDbDictionary
281
     1
  0
ACDBDICTIONARYWDFLT
  5
E
102
{ACAD_REACTORS
330
C
102
}
330
C
100
AcDbDictionary
281
     1
  3
Normal
350
F
100
AcDbDictionaryWithDefault
340
F
  0
DICTIONARY
  5
133
102
{ACAD_REACTORS
330
C
102
}
330
C
100
AcDbDictionary
281
     1
  3
Standard
350
134
  0
DICTIONARY
  5
5D5
102
{ACAD_REACTORS
330
C
102
}
330
C
100
AcDbDictionary
281
     1
  0
DICTIONARY
  5
34
102
{ACAD_REACTORS
330
C
102
}
330
C
100
AcDbDictionary
281
     1
  3
CTABLESTYLE
350
152
  3
DIMASSOC
350
AD
  3
INDEXCTL
350
35
  3
PROJECTNAME
350
5D2
  0
DICTIONARY
  5
49
102
{ACAD_REACTORS
330
C
102
}
330
C
100
AcDbDictionary
281
     1
  3
AcmBOM
350
2CB
  3
AcmStdDictionary
350
4A
  3
AMDTSECTSYM_ARROWCOLOR
350
13D
  0
DICTIONARY
  5
2B
102
{ACAD_REACTORS
330
C
102
}
330
C
100
AcDbDictionary
281
     1
  0
DICTIONARY
  5
2C4
102
{ACAD_REACTORS
330
C
102
}
330
C
100
AcDbDictionary
281
     1
  0
XRECORD
  5
5D4
102
{ACAD_REACTORS
330
C
102
}
330
C
100
AcDbXrecord
280
     1
  1
DWGPROPS COOKIE
  2

  3

  4

  6

  7

  8

  9

300
AmdtFileType=84
301
=
302
=
303
=
304
=
305
=
306
=
307
=
308
=
309
=
 40
0.0002935069444444
 41
2454053.357703808
 42
2454053.357997142
  1

 90
        1
  0
DICTIONARY
  5
360
102
{ACAD_REACTORS
330
C0
102
}
330
C0
100
AcDbDictionary
281
     1
  0
DICTIONARY
  5
C1
102
{ACAD_REACTORS
330
C0
102
}
330
C0
100
AcDbDictionary
280
     1
281
     1
  0
DIMASSOC
  5
510
102
{ACAD_REACTORS
330
50F
102
}
330
50F
100
AcDbDimAssoc
330
50E
 90
        3
 70
     0
 71
     0
  1
AcDbOsnapPointRef
 72
    13
331
509
 73
     0
 91
        0
 40
0.0
 10
0.0
 20
0.0
 30
2.000000000000000E+50
 75
     0
  1
AcDbOsnapPointRef
 72
    13
331
4FE
 73
     0
 91
        0
 40
0.0
 10
0.0
 20
0.0
 30
2.000000000000000E+50
 75
     0
  0
DIMASSOC
  5
513
102
{ACAD_REACTORS
330
512
102
}
330
512
100
AcDbDimAssoc
330
511
 90
        3
 70
     0
 71
     0
  1
AcDbOsnapPointRef
 72
    13
331
4FC
 73
     0
 91
        0
 40
0.0
 10
0.0
 20
0.0
 30
2.000000000000000E+50
 75
     0
  1
AcDbOsnapPointRef
 72
    13
331
50A
 73
     0
 91
        0
 40
0.0
 10
0.0
 20
0.0
 30
2.000000000000000E+50
 75
     0
  0
DIMASSOC
  5
516
102
{ACAD_REACTORS
330
515
102
}
330
515
100
AcDbDimAssoc
330
514
 90
        1
 70
     0
 71
     0
  1
AcDbOsnapPointRef
 72
    13
331
4FC
 73
     0
 91
        0
 40
0.0
 10
0.0
 20
0.0
 30
2.000000000000000E+50
 75
     0
  0
DIMASSOC
  5
531
102
{ACAD_REACTORS
330
530
102
}
330
530
100
AcDbDimAssoc
330
52F
 90
        3
 70
     0
 71
     0
  1
AcDbOsnapPointRef
 72
    13
331
508
 73
     0
 91
        0
 40
0.0
 10
0.0
 20
0.0
 30
2.000000000000000E+50
 75
     0
  1
AcDbOsnapPointRef
 72
    13
331
505
 73
     0
 91
        0
 40
0.0
 10
0.0
 20
0.0
 30
2.000000000000000E+50
 75
     0
  0
LAYOUT
  5
1E
102
{ACAD_XDICTIONARY
360
5D6
102
}
102
{ACAD_REACTORS
330
1A
102
}
330
1A
100
AcDbPlotSettings
  1

  2
none_device
  4
Letter_(8.50_x_11.00_Inches)
  6

 40
6.349999904632568
 41
6.349999904632568
 42
6.350006103515625
 43
6.350006103515625
 44
215.8999938964844
 45
279.3999938964844
 46
0.0
 47
0.0
 48
0.0
 49
0.0
140
0.0
141
0.0
142
1.0
143
1.0
 70
 15024
 72
     1
 73
     1
 74
     5
  7

 75
    16
147
1.0
148
0.0
149
0.0
100
AcDbLayout
  1
Layout1
 70
     1
 71
     1
 10
0.0
 20
0.0
 11
420.0
 21
297.0
 12
0.0
 22
0.0
 32
0.0
 14
1.000000000000000E+20
 24
1.000000000000000E+20
 34
1.000000000000000E+20
 15
-1.000000000000000E+20
 25
-1.000000000000000E+20
 35
-1.000000000000000E+20
146
0.0
 13
0.0
 23
0.0
 33
0.0
 16
1.0
 26
0.0
 36
0.0
 17
0.0
 27
1.0
 37
0.0
 76
     0
330
1B
  0
LAYOUT
  5
26
102
{ACAD_XDICTIONARY
360
5DA
102
}
102
{ACAD_REACTORS
330
1A
102
}
330
1A
100
AcDbPlotSettings
  1

  2
none_device
  4
Letter_(8.50_x_11.00_Inches)
  6

 40
6.349999904632568
 41
6.349999904632568
 42
6.350006103515625
 43
6.350006103515625
 44
215.8999938964844
 45
279.3999938964844
 46
0.0
 47
0.0
 48
0.0
 49
0.0
140
0.0
141
0.0
142
1.0
143
1.0
 70
 15024
 72
     1
 73
     1
 74
     5
  7

 75
    16
147
1.0
148
0.0
149
0.0
100
AcDbLayout
  1
Layout2
 70
     1
 71
     2
 10
0.0
 20
0.0
 11
12.0
 21
9.0
 12
0.0
 22
0.0
 32
0.0
 14
0.0
 24
0.0
 34
0.0
 15
0.0
 25
0.0
 35
0.0
146
0.0
 13
0.0
 23
0.0
 33
0.0
 16
1.0
 26
0.0
 36
0.0
 17
0.0
 27
1.0
 37
0.0
 76
     0
330
23
  0
LAYOUT
  5
22
102
{ACAD_XDICTIONARY
360
5D8
102
}
102
{ACAD_REACTORS
330
1A
102
}
330
1A
100
AcDbPlotSettings
  1

  2
none_device
  4
Letter_(8.50_x_11.00_Inches)
  6

 40
6.349999904632568
 41
6.349999904632568
 42
6.350006103515625
 43
6.350006103515625
 44
215.8999938964844
 45
279.3999938964844
 46
0.0
 47
0.0
 48
0.0
 49
0.0
140
0.0
141
0.0
142
1.0
143
1.0
 70
 11952
 72
     1
 73
     1
 74
     0
  7

 75
     0
147
1.0
148
-131.3052631578947
149
0.0
100
AcDbLayout
  1
Model
 70
     1
 71
     0
 10
0.0
 20
0.0
 11
12.0
 21
9.0
 12
0.0
 22
0.0
 32
0.0
 14
0.0
 24
0.0
 34
0.0
 15
0.0
 25
0.0
 35
0.0
146
0.0
 13
0.0
 23
0.0
 33
0.0
 16
1.0
 26
0.0
 36
0.0
 17
0.0
 27
1.0
 37
0.0
 76
     0
330
1F
  0
MLINESTYLE
  5
18
102
{ACAD_REACTORS
330
17
102
}
330
17
100
AcDbMlineStyle
  2
STANDARD
 70
     0
  3

 62
   256
 51
90.0
 52
90.0
 71
     2
 49
0.5
 62
   256
  6
BYLAYER
 49
-0.5
 62
   256
  6
BYLAYER
  0
ACDBPLACEHOLDER
  5
F
102
{ACAD_REACTORS
330
E
102
}
330
E
  0
TABLESTYLE
  5
134
102
{ACAD_REACTORS
330
133
102
}
330
133
100
AcDbTableStyle
  3
Standard
 70
     0
 71
     0
 40
1.5
 41
1.5
280
     0
281
     0
  7
STANDARD
140
4.5
170
     2
 62
     0
 63
     7
283
     0
274
    -2
284
     1
 64
     0
275
    -2
285
     1
 65
     0
276
    -2
286
     1
 66
     0
277
    -2
287
     1
 67
     0
278
    -2
288
     1
 68
     0
279
    -2
289
     1
 69
     0
  7
STANDARD
140
6.0
170
     5
 62
     0
 63
     7
283
     0
274
    -2
284
     1
 64
     0
275
    -2
285
     1
 65
     0
276
    -2
286
     1
 66
     0
277
    -2
287
     1
 67
     0
278
    -2
288
     1
 68
     0
279
    -2
289
     1
 69
     0
  7
STANDARD
140
4.5
170
     5
 62
     0
 63
     7
283
     0
274
    -2
284
     1
 64
     0
275
    -2
285
     1
 65
     0
276
    -2
286
     1
 66
     0
277
    -2
287
     1
 67
     0
278
    -2
288
     1
 68
     0
279
    -2
289
     1
 69
     0
  0
DICTIONARYVAR
  5
152
102
{ACAD_REACTORS
330
34
102
}
330
34
100
DictionaryVariables
280
     0
  1
STANDARD
  0
DICTIONARYVAR
  5
AD
102
{ACAD_REACTORS
330
34
102
}
330
34
100
DictionaryVariables
280
     0
  1
2
  0
DICTIONARYVAR
  5
35
102
{ACAD_REACTORS
330
34
102
}
330
34
100
DictionaryVariables
280
     0
  1
0
  0
DICTIONARYVAR
  5
5D2
102
{ACAD_REACTORS
330
34
102
}
330
34
100
DictionaryVariables
280
     0
  1

  0
DICTIONARY
  5
2CB
102
{ACAD_REACTORS
330
49
102
}
330
49
100
AcDbDictionary
281
     1
  0
DICTIONARY
  5
4A
102
{ACAD_REACTORS
330
49
102
}
330
49
100
AcDbDictionary
281
     1
  0
XRECORD
  5
13D
102
{ACAD_REACTORS
330
49
102
}
330
49
100
AcDbXrecord
280
     1
 90
-1023410169
  0
DICTIONARY
  5
5D6
330
1E
100
AcDbDictionary
280
     1
281
     1
  3
ACAD_XREC_ROUNDTRIP
360
5D7
  0
DICTIONARY
  5
5DA
330
26
100
AcDbDictionary
280
     1
281
     1
  3
ACAD_XREC_ROUNDTRIP
360
5DB
  0
DICTIONARY
  5
5D8
330
22
100
AcDbDictionary
280
     1
281
     1
  3
ACAD_XREC_ROUNDTRIP
360
5D9
  0
XRECORD
  5
5D7
102
{ACAD_REACTORS
330
5D6
102
}
330
5D6
100
AcDbXrecord
280
     1
102
SHADEPLOT
 70
     0
102
SHADEPLOTRESLEVEL
 70
     2
102
SHADEPLOTCUSTOMDPI
 70
   300
  0
XRECORD
  5
5DB
102
{ACAD_REACTORS
330
5DA
102
}
330
5DA
100
AcDbXrecord
280
     1
102
SHADEPLOT
 70
     0
102
SHADEPLOTRESLEVEL
 70
     2
102
SHADEPLOTCUSTOMDPI
 70
   300
  0
XRECORD
  5
5D9
102
{ACAD_REACTORS
330
5D8
102
}
330
5D8
100
AcDbXrecord
280
     1
102
SHADEPLOT
 70
     0
102
SHADEPLOTRESLEVEL
 70
     2
102
SHADEPLOTCUSTOMDPI
 70
   300
  0
ENDSEC
  0
EOF
