  0
SECTION
  2
HEADER
  9
$ACADVER
  1
AC1015
  9
$ACADMAINTVER
 70
    20
  9
$DWGCODEPAGE
  3
ANSI_1252
  9
$INSBASE
 10
0.0
 20
0.0
 30
0.0
  9
$EXTMIN
 10
1351.951554375587
 20
834.6312827786828
 30
-0.0015258207003583
  9
$EXTMAX
 10
1561.362529702685
 20
1131.265172829178
 30
0.0000000349246037
  9
$LIMMIN
 10
0.0
 20
0.0
  9
$LIMMAX
 10
420.0
 20
297.0
  9
$ORTHOMODE
 70
     0
  9
$REGENMODE
 70
     1
  9
$FILLMODE
 70
     1
  9
$QTEXTMODE
 70
     0
  9
$MIRRTEXT
 70
     1
  9
$LTSCALE
 40
1.0
  9
$ATTMODE
 70
     1
  9
$TEXTSIZE
 40
2.5
  9
$TRACEWID
 40
1.0
  9
$TEXTSTYLE
  7
STANDARD
  9
$CLAYER
  8
0
  9
$CELTYPE
  6
ByLayer
  9
$CECOLOR
 62
   256
  9
$CELTSCALE
 40
1.0
  9
$DISPSILH
 70
     0
  9
$DIMSCALE
 40
1.0
  9
$DIMASZ
 40
2.5
  9
$DIMEXO
 40
1.0
  9
$DIMDLI
 40
10.0
  9
$DIMRND
 40
0.0
  9
$DIMDLE
 40
0.0
  9
$DIMEXE
 40
1.0
  9
$DIMTP
 40
0.1
  9
$DIMTM
 40
0.1
  9
$DIMTXT
 40
3.5
  9
$DIMCEN
 40
0.0
  9
$DIMTSZ
 40
0.0
  9
$DIMTOL
 70
     0
  9
$DIMLIM
 70
     0
  9
$DIMTIH
 70
     0
  9
$DIMTOH
 70
     0
  9
$DIMSE1
 70
     0
  9
$DIMSE2
 70
     0
  9
$DIMTAD
 70
     1
  9
$DIMZIN
 70
     8
  9
$DIMBLK
  1

  9
$DIMASO
 70
     1
  9
$DIMSHO
 70
     1
  9
$DIMPOST
  1

  9
$DIMAPOST
  1
"
  9
$DIMALT
 70
     0
  9
$DIMALTD
 70
     2
  9
$DIMALTF
 40
0.0393701
  9
$DIMLFAC
 40
1.0
  9
$DIMTOFL
 70
     1
  9
$DIMTVP
 40
0.0
  9
$DIMTIX
 70
     0
  9
$DIMSOXD
 70
     0
  9
$DIMSAH
 70
     0
  9
$DIMBLK1
  1

  9
$DIMBLK2
  1

  9
$DIMSTYLE
  2
AM_DIN
  9
$DIMCLRD
 70
   256
  9
$DIMCLRE
 70
   256
  9
$DIMCLRT
 70
     2
  9
$DIMTFAC
 40
0.71
  9
$DIMGAP
 40
1.5
  9
$DIMJUST
 70
     0
  9
$DIMSD1
 70
     0
  9
$DIMSD2
 70
     0
  9
$DIMTOLJ
 70
     0
  9
$DIMTZIN
 70
     8
  9
$DIMALTZ
 70
     0
  9
$DIMALTTZ
 70
     0
  9
$DIMUPT
 70
     0
  9
$DIMDEC
 70
     2
  9
$DIMTDEC
 70
     3
  9
$DIMALTU
 70
     2
  9
$DIMALTTD
 70
     4
  9
$DIMTXSTY
  7
STANDARD
  9
$DIMAUNIT
 70
     0
  9
$DIMADEC
 70
     0
  9
$DIMALTRND
 40
0.0
  9
$DIMAZIN
 70
     2
  9
$DIMDSEP
 70
    46
  9
$DIMATFIT
 70
     3
  9
$DIMFRAC
 70
     0
  9
$DIMLDRBLK
  1

  9
$DIMLUNIT
 70
     2
  9
$DIMLWD
 70
    -1
  9
$DIMLWE
 70
    -1
  9
$DIMTMOVE
 70
     0
  9
$LUNITS
 70
     2
  9
$LUPREC
 70
     2
  9
$SKETCHINC
 40
1.0
  9
$FILLETRAD
 40
2.5
  9
$AUNITS
 70
     0
  9
$AUPREC
 70
     0
  9
$MENU
  1
.
  9
$ELEVATION
 40
0.0
  9
$PELEVATION
 40
0.0
  9
$THICKNESS
 40
0.0
  9
$LIMCHECK
 70
     0
  9
$CHAMFERA
 40
2.5
  9
$CHAMFERB
 40
2.5
  9
$CHAMFERC
 40
20.0
  9
$CHAMFERD
 40
0.0
  9
$SKPOLY
 70
     0
  9
$TDCREATE
 40
2454053.373994502
  9
$TDUCREATE
 40
2454053.332327836
  9
$TDUPDATE
 40
2454053.374334306
  9
$TDUUPDATE
 40
2454053.332667639
  9
$TDINDWG
 40
0.0003399884
  9
$TDUSRTIMER
 40
0.0003399884
  9
$USRTIMER
 70
     1
  9
$ANGBASE
 50
0.0
  9
$ANGDIR
 70
     0
  9
$PDMODE
 70
     0
  9
$PDSIZE
 40
0.0
  9
$PLINEWID
 40
0.0
  9
$SPLFRAME
 70
     0
  9
$SPLINETYPE
 70
     6
  9
$SPLINESEGS
 70
     8
  9
$HANDSEED
  5
5B7
  9
$SURFTAB1
 70
     6
  9
$SURFTAB2
 70
     6
  9
$SURFTYPE
 70
     6
  9
$SURFU
 70
     6
  9
$SURFV
 70
     6
  9
$UCSBASE
  2

  9
$UCSNAME
  2

  9
$UCSORG
 10
0.0
 20
0.0
 30
0.0
  9
$UCSXDIR
 10
1.0
 20
0.0
 30
0.0
  9
$UCSYDIR
 10
0.0
 20
1.0
 30
0.0
  9
$UCSORTHOREF
  2

  9
$UCSORTHOVIEW
 70
     0
  9
$UCSORGTOP
 10
0.0
 20
0.0
 30
0.0
  9
$UCSORGBOTTOM
 10
0.0
 20
0.0
 30
0.0
  9
$UCSORGLEFT
 10
0.0
 20
0.0
 30
0.0
  9
$UCSORGRIGHT
 10
0.0
 20
0.0
 30
0.0
  9
$UCSORGFRONT
 10
0.0
 20
0.0
 30
0.0
  9
$UCSORGBACK
 10
0.0
 20
0.0
 30
0.0
  9
$PUCSBASE
  2

  9
$PUCSNAME
  2

  9
$PUCSORG
 10
0.0
 20
0.0
 30
0.0
  9
$PUCSXDIR
 10
1.0
 20
0.0
 30
0.0
  9
$PUCSYDIR
 10
0.0
 20
1.0
 30
0.0
  9
$PUCSORTHOREF
  2

  9
$PUCSORTHOVIEW
 70
     0
  9
$PUCSORGTOP
 10
0.0
 20
0.0
 30
0.0
  9
$PUCSORGBOTTOM
 10
0.0
 20
0.0
 30
0.0
  9
$PUCSORGLEFT
 10
0.0
 20
0.0
 30
0.0
  9
$PUCSORGRIGHT
 10
0.0
 20
0.0
 30
0.0
  9
$PUCSORGFRONT
 10
0.0
 20
0.0
 30
0.0
  9
$PUCSORGBACK
 10
0.0
 20
0.0
 30
0.0
  9
$USERI1
 70
     0
  9
$USERI2
 70
     0
  9
$USERI3
 70
     0
  9
$USERI4
 70
     0
  9
$USERI5
 70
     0
  9
$USERR1
 40
0.0
  9
$USERR2
 40
0.0
  9
$USERR3
 40
0.0
  9
$USERR4
 40
0.0
  9
$USERR5
 40
0.0
  9
$WORLDVIEW
 70
     1
  9
$SHADEDGE
 70
     3
  9
$SHADEDIF
 70
    70
  9
$TILEMODE
 70
     1
  9
$MAXACTVP
 70
    64
  9
$PINSBASE
 10
0.0
 20
0.0
 30
0.0
  9
$PLIMCHECK
 70
     0
  9
$PEXTMIN
 10
1.000000000000000E+20
 20
1.000000000000000E+20
 30
1.000000000000000E+20
  9
$PEXTMAX
 10
-1.000000000000000E+20
 20
-1.000000000000000E+20
 30
-1.000000000000000E+20
  9
$PLIMMIN
 10
0.0
 20
0.0
  9
$PLIMMAX
 10
420.0
 20
297.0
  9
$UNITMODE
 70
     0
  9
$VISRETAIN
 70
     1
  9
$PLINEGEN
 70
     0
  9
$PSLTSCALE
 70
     1
  9
$TREEDEPTH
 70
  3020
  9
$CMLSTYLE
  2
Standard
  9
$CMLJUST
 70
     0
  9
$CMLSCALE
 40
20.0
  9
$PROXYGRAPHICS
 70
     1
  9
$MEASUREMENT
 70
     1
  9
$CELWEIGHT
370
    -1
  9
$ENDCAPS
280
     0
  9
$JOINSTYLE
280
     0
  9
$LWDISPLAY
290
     0
  9
$INSUNITS
 70
     4
  9
$HYPERLINKBASE
  1

  9
$STYLESHEET
  1

  9
$XEDIT
290
     1
  9
$CEPSNTYPE
380
     0
  9
$PSTYLEMODE
290
     1
  9
$FINGERPRINTGUID
  2
{06A93335-510C-4BB9-AB95-AC3324488D49}
  9
$VERSIONGUID
  2
{E592A9F3-C124-463C-A39E-EC01CB23FCC5}
  9
$EXTNAMES
290
     1
  9
$PSVPSCALE
 40
0.0
  9
$OLESTARTUP
290
     0
  0
ENDSEC
  0
SECTION
  2
CLASSES
  0
CLASS
  1
ACDBDICTIONARYWDFLT
  2
AcDbDictionaryWithDefault
  3
ObjectDBX Classes
 90
        0
280
     0
281
     0
  0
CLASS
  1
ACDBPLACEHOLDER
  2
AcDbPlaceHolder
  3
ObjectDBX Classes
 90
        0
280
     0
281
     0
  0
CLASS
  1
LAYOUT
  2
AcDbLayout
  3
ObjectDBX Classes
 90
        0
280
     0
281
     0
  0
CLASS
  1
AMGSETTINGSOBJ
  2
AmgSettingsObj
  3
"AcadM|Product Description: AutoCAD Mechanical 2000|Company: Autodesk"
 90
        0
280
     0
281
     0
  0
CLASS
  1
ACME_DOCUMENT
  2
AcMeDbDoc
  3
AcMeServices
 90
        0
280
     0
281
     0
  0
CLASS
  1
ACMESCOPE
  2
AcMeScope
  3
AcMeServices
 90
        0
280
     0
281
     0
  0
CLASS
  1
ACMECOMMANDHISTORY
  2
AcMeCommandHistory
  3
AcMeServices
 90
        0
280
     0
281
     0
  0
CLASS
  1
DICTIONARYVAR
  2
AcDbDictionaryVar
  3
ObjectDBX Classes
 90
        0
280
     0
281
     0
  0
CLASS
  1
ACIMSYSVARMAN
  2
AcImSysVarManager
  3
AcMeServices
 90
        0
280
     0
281
     0
  0
CLASS
  1
ACIMREALSYSVAR
  2
AcImRealSysVar
  3
AcMeServices
 90
        0
280
     0
281
     0
  0
CLASS
  1
ACIMINTSYSVAR
  2
AcImIntSysVar
  3
AcMeServices
 90
        0
280
     0
281
     0
  0
CLASS
  1
ACMEDRAWINGMAN
  2
AcMeDrawingMan
  3
AcMeServices
 90
        0
280
     0
281
     0
  0
CLASS
  1
ACMEVIEW
  2
AcMeView
  3
AcMeServices
 90
        0
280
     0
281
     0
  0
CLASS
  1
ACDBENTITYCACHE
  2
AcMeEntityCache
  3
AcMeServices
 90
        0
280
     0
281
     0
  0
CLASS
  1
GSMANAGER
  2
AcMeGSManager
  3
AcMeServices
 90
        0
280
     0
281
     0
  0
CLASS
  1
AMDTINTERNALREACTOR
  2
AmdtInternalReactor
  3
AcMeServices
 90
        0
280
     0
281
     0
  0
CLASS
  1
ACMESTATEMGR
  2
AcMeStateMgr
  3
AcMeServices
 90
        0
280
     0
281
     0
  0
CLASS
  1
ACGREFMASTER
  2
AcGrefMaster
  3
AcAttribServices
 90
        0
280
     0
281
     0
  0
CLASS
  1
ACME_DATABASE
  2
AcMeDbDatabase
  3
AcMeServices
 90
        0
280
     0
281
     0
  0
CLASS
  1
ACRFINSADJUSTERMGR
  2
AcRfInsAdjusterMgr
  3
AcMeServices
 90
        0
280
     0
281
     0
  0
CLASS
  1
ACGREFACADMASTER
  2
AcGrefacadMaster
  3
AcGrefServices
 90
        0
280
     0
281
     0
  0
CLASS
  1
AMIMASTER
  2
AmiMaster
  3
AmiServices
 90
        0
280
     0
281
     0
  0
CLASS
  1
ACIMSTRSYSVAR
  2
AcImStrSysVar
  3
AcMeServices
 90
        0
280
     0
281
     0
  0
CLASS
  1
ACMSTANDARDDIN
  2
AcmStandardDIN
  3
"Amdt_StdImp|Product Description: AutoCAD Mechanical 2004 DX|Company: Autodesk"
 90
        0
280
     0
281
     0
  0
CLASS
  1
AMGOBJPROPCFG
  2
AmgObjPropCfg
  3
"AmgLay|Product Description: AutoCAD Mechanical 2000|Company: Autodesk"
 90
        1
280
     0
281
     0
  0
CLASS
  1
AMDTEDGESTANDARDDIN
  2
AmdtEdgeStdDIN
  3
"Amdt_StdImp|Product Description: AutoCAD Mechanical 2004 DX|Company: Autodesk"
 90
        0
280
     0
281
     0
  0
CLASS
  1
ACMSURFSTANDARDDIN
  2
AcmSurfTextStdDIN
  3
"Amdt_StdImp|Product Description: AutoCAD Mechanical 2004 DX|Company: Autodesk"
 90
        0
280
     0
281
     0
  0
CLASS
  1
ACMFCFSTANDARDDIN
  2
AcmFCFStdDIN
  3
"Amdt_StdImp|Product Description: AutoCAD Mechanical 2004 DX|Company: Autodesk"
 90
        0
280
     0
281
     0
  0
CLASS
  1
ACMWELDSTANDARDDIN
  2
AcmWeldingStdDIN
  3
"Amdt_StdImp|Product Description: AutoCAD Mechanical 2004 DX|Company: Autodesk"
 90
        0
280
     0
281
     0
  0
CLASS
  1
ACMIDSTANDARDDIN
  2
AcmIdStdDIN
  3
"Amdt_StdImp|Product Description: AutoCAD Mechanical 2004 DX|Company: Autodesk"
 90
        0
280
     0
281
     0
  0
CLASS
  1
ACMDATUMSTANDARDDIN
  2
AcmDatumStdDIN
  3
"Amdt_StdImp|Product Description: AutoCAD Mechanical 2004 DX|Company: Autodesk"
 90
        0
280
     0
281
     0
  0
CLASS
  1
ACMBOMSTANDARDDIN
  2
AcmBOMStdDIN
  3
"Amdt_StdImp|Product Description: AutoCAD Mechanical 2004 DX|Company: Autodesk"
 90
        0
280
     0
281
     0
  0
CLASS
  1
ACMDETAILSTANDARDDIN
  2
AmdtDetailSymStdDIN
  3
"Amdt_StdImp|Product Description: AutoCAD Mechanical 2004 DX|Company: Autodesk"
 90
        0
280
     0
281
     0
  0
CLASS
  1
ACMSECTIONSTANDARDDIN
  2
AmdtSectionSymStdDIN
  3
"Amdt_StdImp|Product Description: AutoCAD Mechanical 2004 DX|Company: Autodesk"
 90
        0
280
     0
281
     0
  0
CLASS
  1
ACMCENTERLINESTANDARDDIN
  2
AmdtCenterLineStdDIN
  3
"Amdt_StdImp|Product Description: AutoCAD Mechanical 2004 DX|Company: Autodesk"
 90
        0
280
     0
281
     0
  0
CLASS
  1
ACMTHREADLINESTANDARDDIN
  2
AmdtThreadLineStdDIN
  3
"Amdt_StdImp|Product Description: AutoCAD Mechanical 2004 DX|Company: Autodesk"
 90
        0
280
     0
281
     0
  0
CLASS
  1
ACAMGLAYSTD
  2
AcAmgLayStd
  3
"AcAmgLayStd|Product Description: AutoCAD Mechanical 2000|Company: Autodesk"
 90
        0
280
     0
281
     0
  0
CLASS
  1
ACAMGDIMSTD
  2
AcAmgDimStd
  3
"AcAmgDimStd|Product Description: AutoCAD Mechanical 2000|Company: Autodesk"
 90
        0
280
     0
281
     0
  0
CLASS
  1
ACAMGTITLESTD
  2
AcAmgTitleStd
  3
"TITLEAPP"
 90
        0
280
     0
281
     0
  0
CLASS
  1
ACMDATADICTIONARY
  2
AcmDataDictionary
  3
"AcmSymBB|Product Description: AutoCAD Mechanical 2004 DX|Company: Autodesk"
 90
        0
280
     0
281
     0
  0
CLASS
  1
ACMDATAENTRYBLOCK
  2
AcmDataEntryBlock
  3
"AcmSymBB|Product Description: AutoCAD Mechanical 2004 DX|Company: Autodesk"
 90
        0
280
     0
281
     0
  0
CLASS
  1
LAYER_INDEX
  2
AcDbLayerIndex
  3
ObjectDBX Classes
 90
    32768
280
     0
281
     0
  0
CLASS
  1
IDBUFFER
  2
AcDbIdBuffer
  3
ObjectDBX Classes
 90
    32768
280
     0
281
     0
  0
CLASS
  1
ACMNOTESTANDARDDIN
  2
AmdtNoteStdDIN
  3
"Amdt_StdImp|Product Description: AutoCAD Mechanical 2004 DX|Company: Autodesk"
 90
        0
280
     0
281
     0
  0
CLASS
  1
ACAMGHOLECHARTSTDDIN
  2
AcAmgHoleChartStdDIN
  3
ACMSYMBB_MODULE_NAME
 90
        0
280
     0
281
     0
  0
CLASS
  1
AM_DRAWING_MGR
  2
AcDmDwgMgr
  3
AcMechDwgViewMgmt
 90
        0
280
     0
281
     0
  0
CLASS
  1
AM_DWG_DOCUMENT
  2
AcDmDwgDocument
  3
AcMechDwgViewMgmt
 90
        0
280
     0
281
     0
  0
CLASS
  1
AM_DWG_SHEET
  2
AcDmSheet
  3
AcMechDwgViewMgmt
 90
        0
280
     0
281
     0
  0
CLASS
  1
AM_VIEWDIMPARMAP
  2
AcDmViewDimParMap
  3
AcMechDwgViewMgmt
 90
        0
280
     0
281
     0
  0
CLASS
  1
AM_DWGMGR_NAME
  2
AcDmDwgMgrName
  3
AcMechDwgViewMgmt
 90
        0
280
     0
281
     0
  0
CLASS
  1
AMDTMENUSTATEMGR
  2
AmdtMenuStateMgr
  3
McadcomServices
 90
        0
280
     0
281
     0
  0
CLASS
  1
AMDTMCOMMENUSTATE
  2
AmdtMcomMenuState
  3
McadcomServices
 90
        0
280
     0
281
     0
  0
CLASS
  1
MAPIAMMOUDLE
  2
MApiAmModule
  3
MApiAmServices
 90
        0
280
     0
281
     0
  0
CLASS
  1
AMDTADMENUSTATE
  2
AmdtAdMenuState
  3
DesignerServices
 90
        0
280
     0
281
     0
  0
CLASS
  1
ADAPPL
  2
AcAdAppl
  3
DesignerServices
 90
        0
280
     0
281
     0
  0
CLASS
  1
DEPMGR
  2
AcAdDepMgr
  3
DesignerServices
 90
        0
280
     0
281
     0
  0
CLASS
  1
PARAMMGR
  2
AcAdParamMgr
  3
DesignerServices
 90
        0
280
     0
281
     0
  0
CLASS
  1
PARAMSCOPE
  2
AcAdParamScope
  3
DesignerServices
 90
        0
280
     0
281
     0
  0
CLASS
  1
NAMEDAPPL
  2
AcAdNamedAppl
  3
DesignerServices
 90
        0
280
     0
281
     0
  0
CLASS
  1
AMDTDMMENUSTATE
  2
AmdtDmMenuState
  3
AcMechDwgViewMgmt
 90
        0
280
     0
281
     0
  0
CLASS
  1
AMDTAMMENUSTATE
  2
AmdtAmMenuState
  3
DesignerAssemblies
 90
        0
280
     0
281
     0
  0
CLASS
  1
ACAMPROJECT
  2
AcAmProject
  3
DesignerAssemblies
 90
        0
280
     0
281
     0
  0
CLASS
  1
ACAMGRCOMPDEF
  2
AcAmGrCompDef
  3
DesignerAssemblies
 90
        0
280
     0
281
     0
  0
CLASS
  1
ACCMCONTEXT
  2
AcCmContext
  3
DesignerAssemblies
 90
        0
280
     0
281
     0
  0
CLASS
  1
ACAMCOMPDEF
  2
AcAmCompDef
  3
DesignerAssemblies
 90
        0
280
     0
281
     0
  0
CLASS
  1
ACAMCOMPDEFMGR
  2
AcAmCompDefMgr
  3
DesignerAssemblies
 90
        0
280
     0
281
     0
  0
CLASS
  1
AMCONTEXTMGR
  2
AcAmContextMgr
  3
DesignerAssemblies
 90
        0
280
     0
281
     0
  0
CLASS
  1
ACAMCONTEXTMODELER
  2
AcAmContextModeler
  3
DesignerAssemblies
 90
        0
280
     0
281
     0
  0
CLASS
  1
CATALOGSTATE
  2
AcAmCatalogState
  3
DesignerAssemblies
 90
        0
280
     0
281
     0
  0
CLASS
  1
ACAMGRCOMPDEFSET
  2
AcAmGrCompDefSet
  3
DesignerAssemblies
 90
        0
280
     0
281
     0
  0
CLASS
  1
AMDTBROWSERDBTAB
  2
AmdtBrowserDbTab
  3
McadcomServices
 90
        0
280
     0
281
     0
  0
CLASS
  1
CBROWSERAPPOBJECT
  2
CBrowserAppObject
  3
McadcomServices
 90
        0
280
     0
281
     0
  0
CLASS
  1
DM_PLACEHOLDER
  2
AcDmSelsetPlaceholder
  3
AcMechDwgViewMgmt
 90
        0
280
     0
281
     0
  0
CLASS
  1
TABLESTYLE
  2
AcDbTableStyle
  3
ObjectDBX Classes
 90
     2047
280
     0
281
     0
  0
CLASS
  1
VAACXREFPANELOBJECT
  2
VaAcXREFPanelObject
  3
VAAC_ADDIN
 90
    32768
280
     0
281
     0
  0
CLASS
  1
VAACIMAGEINVENTORY
  2
VaAcImageInventory
  3
VAAC_ADDIN
 90
    32768
280
     0
281
     0
  0
CLASS
  1
AMDTNOTETEMPLATEDB
  2
AmdtNoteTemplateDB
  3
AMDT_STDIMP_MODULE_NAME
 90
        0
280
     0
281
     0
  0
CLASS
  1
ACAMGFILTERDAT
  2
AcAmgFilterDat
  3
"AcadM|Product Description: AutoCAD Mechanical 2000|Company: Autodesk"
 90
        0
280
     0
281
     0
  0
CLASS
  1
ACMBOM
  2
AcmBom
  3
"AcmSymBB|Product Description: AutoCAD Mechanical 2004 DX|Company: Autodesk"
 90
    32768
280
     0
281
     0
  0
CLASS
  1
AMDTFORMULAUPDATEDISPATCHER
  2
AmdtFormulaUpdateDispatcher
  3
AcMeServices
 90
    32768
280
     0
281
     0
  0
CLASS
  1
DIMASSOC
  2
AcDbDimAssoc
  3
"AcDbDimAssoc|Product Desc:     AcDim ARX App For Dimension|Company:          Autodesk, Inc.|WEB Address:      www.autodesk.com"
 90
        0
280
     0
281
     0
  0
CLASS
  1
SORTENTSTABLE
  2
AcDbSortentsTable
  3
ObjectDBX Classes
 90
        0
280
     0
281
     0
  0
CLASS
  1
ACRFATTGENMGR
  2
AcRfAttGeneralMgr
  3
AcAttribServices
 90
        0
280
     0
281
     0
  0
ENDSEC
  0
SECTION
  2
TABLES
  0
TABLE
  2
VPORT
  5
8
330
0
100
AcDbSymbolTable
 70
     3
  0
VPORT
  5
5AE
330
8
100
AcDbSymbolTableRecord
100
AcDbViewportTableRecord
  2
*Active
 70
     0
 10
0.0
 20
0.0
 11
1.0
 21
1.0
 12
1456.645956025101
 22
982.941557751883
 13
0.0
 23
0.0
 14
2.5
 24
2.5
 15
10.0
 25
10.0
 16
0.0
 26
0.0
 36
1.0
 17
0.0
 27
0.0
 37
0.0
 40
298.5820866694075
 41
1.378804960541149
 42
50.0
 43
0.0
 44
0.0
 50
0.0
 51
0.0
 71
     0
 72
   100
 73
     1
 74
     3
 75
     0
 76
     0
 77
     0
 78
     0
281
     0
 65
     1
110
0.0
120
0.0
130
0.0
111
1.0
121
0.0
131
0.0
112
0.0
122
1.0
132
0.0
 79
     0
146
0.0
  0
ENDTAB
  0
TABLE
  2
LTYPE
  5
5
330
0
100
AcDbSymbolTable
 70
    21
  0
LTYPE
  5
14
330
5
100
AcDbSymbolTableRecord
100
AcDbLinetypeTableRecord
  2
ByBlock
 70
     0
  3

 72
    65
 73
     0
 40
0.0
  0
LTYPE
  5
15
330
5
100
AcDbSymbolTableRecord
100
AcDbLinetypeTableRecord
  2
ByLayer
 70
     0
  3

 72
    65
 73
     0
 40
0.0
  0
LTYPE
  5
16
330
5
100
AcDbSymbolTableRecord
100
AcDbLinetypeTableRecord
  2
Continuous
 70
     0
  3
Solid line
 72
    65
 73
     0
 40
0.0
  0
LTYPE
  5
50
330
5
100
AcDbSymbolTableRecord
100
AcDbLinetypeTableRecord
  2
Amconstr
 70
     0
  3
_______________________
 72
    65
 73
     2
 40
9999.0
 49
9999.0
 74
     0
 49
0.0
 74
     0
  0
LTYPE
  5
55
330
5
100
AcDbSymbolTableRecord
100
AcDbLinetypeTableRecord
  2
Amzigzag
 70
     0
  3
/\/-/\/-/\/-/\/-/\/-/\/
 72
    65
 73
     2
 40
11.0001
 49
0.0001
 74
     4
 75
   136
340
285
 46
0.04
 50
0.0
 44
0.0
 45
0.0
 49
-11.0
 74
     0
  0
LTYPE
  5
56
330
5
100
AcDbSymbolTableRecord
100
AcDbLinetypeTableRecord
  2
AM_DIN_F_W050
 70
     0
  3
__ __ __ __ __ __ __ __ __ __ __ __ __ __ __
 72
    65
 73
     2
 40
6.25
 49
4.75
 74
     0
 49
-1.5
 74
     0
  0
LTYPE
  5
57
330
5
100
AcDbSymbolTableRecord
100
AcDbLinetypeTableRecord
  2
AM_DIN_G_W050
 70
     0
  3
____ . ____ . ____ . ____ . ____ . ____ . ____
 72
    65
 73
     4
 40
13.75
 49
9.75
 74
     0
 49
-1.5
 74
     0
 49
1.0
 74
     0
 49
-1.5
 74
     0
  0
LTYPE
  5
58
330
5
100
AcDbSymbolTableRecord
100
AcDbLinetypeTableRecord
  2
AM_DIN_K_W050
 70
     0
  3
_____ . . _____ . . _____ . . ____ .. ____
 72
    65
 73
     6
 40
16.25
 49
9.75
 74
     0
 49
-1.5
 74
     0
 49
1.0
 74
     0
 49
-1.5
 74
     0
 49
1.0
 74
     0
 49
-1.5
 74
     0
  0
LTYPE
  5
59
330
5
100
AcDbSymbolTableRecord
100
AcDbLinetypeTableRecord
  2
AM_DIN_G_W050x2
 70
     0
  3
__ . __ . __ . __ . __ . __
 72
    65
 73
     4
 40
6.875
 49
4.75
 74
     0
 49
-0.875
 74
     0
 49
0.375
 74
     0
 49
-0.875
 74
     0
  0
LTYPE
  5
5A
330
5
100
AcDbSymbolTableRecord
100
AcDbLinetypeTableRecord
  2
AM_DIN_F_W050x2
 70
     0
  3
 _ _ _ _ _ _ _ _ _ _ _ _
 72
    65
 73
     2
 40
3.125
 49
2.25
 74
     0
 49
-0.875
 74
     0
  0
LTYPE
  5
68
330
5
100
AcDbSymbolTableRecord
100
AcDbLinetypeTableRecord
  2
ACDINWELD
 70
     0
  3
_ _ _ _ _
 72
    65
 73
     2
 40
2.0
 49
2.0
 74
     0
 49
-1.0
 74
     0
  0
LTYPE
  5
69
330
5
100
AcDbSymbolTableRecord
100
AcDbLinetypeTableRecord
  2
ACDINTGB
 70
     0
  3
__ . . __ . .
 72
    65
 73
     6
 40
9.0
 49
4.0
 74
     0
 49
-1.0
 74
     0
 49
1.0
 74
     0
 49
-1.0
 74
     0
 49
1.0
 74
     0
 49
-1.0
 74
     0
  0
LTYPE
  5
6A
330
5
100
AcDbSymbolTableRecord
100
AcDbLinetypeTableRecord
  2
ACDINTGL
 70
     0
  3
_ _ _ _ _
 72
    65
 73
     2
 40
3.0
 49
2.0
 74
     0
 49
-1.0
 74
     0
  0
LTYPE
  5
6C
330
5
100
AcDbSymbolTableRecord
100
AcDbLinetypeTableRecord
  2
CENTER
 70
     0
  3
__ . __
 72
    65
 73
     4
 40
7.0
 49
4.0
 74
     0
 49
-1.0
 74
     0
 49
1.0
 74
     0
 49
-1.0
 74
     0
  0
LTYPE
  5
F2
330
5
100
AcDbSymbolTableRecord
100
AcDbLinetypeTableRecord
  2
HIDDEN
 70
     0
  3
Hidden __ __ __ __ __ __ __ __ __ __ __ __ __ _
 72
    65
 73
     2
 40
9.524999999999998
 49
6.349999999999999
 74
     0
 49
-3.174999999999999
 74
     0
  0
LTYPE
  5
F3
330
5
100
AcDbSymbolTableRecord
100
AcDbLinetypeTableRecord
  2
PHANTOM2
 70
     0
  3
Phantom (.5x) ___ _ _ ___ _ _ ___ _ _ ___ _ _
 72
    65
 73
     6
 40
31.75
 49
15.875
 74
     0
 49
-3.174999999999999
 74
     0
 49
3.174999999999999
 74
     0
 49
-3.174999999999999
 74
     0
 49
3.174999999999999
 74
     0
 49
-3.174999999999999
 74
     0
  0
LTYPE
  5
328
330
5
100
AcDbSymbolTableRecord
100
AcDbLinetypeTableRecord
  2
GEN7
 70
     0
  3
____ . ____ . ____ . ____ . ____ . ____ . ____
 72
    65
 73
     4
 40
13.75
 49
10.0
 74
     0
 49
-1.25
 74
     0
 49
1.25
 74
     0
 49
-1.25
 74
     0
  0
ENDTAB
  0
TABLE
  2
LAYER
  5
2
102
{ACAD_XDICTIONARY
360
C0
102
}
330
0
100
AcDbSymbolTable
 70
     9
  0
LAYER
  5
10
330
2
100
AcDbSymbolTableRecord
100
AcDbLayerTableRecord
  2
0
 70
     0
 62
     7
  6
Continuous
370
    -3
390
F
  0
LAYER
  5
82
330
2
100
AcDbSymbolTableRecord
100
AcDbLayerTableRecord
  2
AM_0
 70
     0
 62
     7
  6
Continuous
370
    50
390
F
1001
AcAecLayerStandard
1000

1000

  0
LAYER
  5
32A
330
2
100
AcDbSymbolTableRecord
100
AcDbLayerTableRecord
  2
DEFPOINTS
 70
     0
 62
     7
  6
Continuous
290
     0
370
    -3
390
F
  0
LAYER
  5
32B
330
2
100
AcDbSymbolTableRecord
100
AcDbLayerTableRecord
  2
AM_5
 70
     0
 62
     3
  6
Continuous
370
    25
390
F
  0
LAYER
  5
32C
330
2
100
AcDbSymbolTableRecord
100
AcDbLayerTableRecord
  2
0N
 70
     0
 62
     7
  6
Continuous
370
    -3
390
F
  0
LAYER
  5
32D
330
2
100
AcDbSymbolTableRecord
100
AcDbLayerTableRecord
  2
AM_0N
 70
     0
 62
     7
  6
Continuous
370
    50
390
F
1001
AcAecLayerStandard
1000

1000

  0
LAYER
  5
32E
330
2
100
AcDbSymbolTableRecord
100
AcDbLayerTableRecord
  2
7
 70
     0
 62
     4
  6
GEN7
370
    -3
390
F
  0
LAYER
  5
32F
330
2
100
AcDbSymbolTableRecord
100
AcDbLayerTableRecord
  2
AM_4N
 70
     0
 62
     3
  6
Continuous
370
    25
390
F
1001
AcAecLayerStandard
1000

1000

  0
ENDTAB
  0
TABLE
  2
STYLE
  5
3
330
0
100
AcDbSymbolTable
 70
     9
  0
STYLE
  5
11
330
3
100
AcDbSymbolTableRecord
100
AcDbTextStyleTableRecord
  2
STANDARD
 70
     0
 40
0.0
 41
1.0
 50
0.0
 71
     0
 42
2.5
  3
ISOCP.SHX
  4
bigfont.shx
  0
STYLE
  5
5B
330
3
100
AcDbSymbolTableRecord
100
AcDbTextStyleTableRecord
  2
ACDINTS
 70
     0
 40
1.0
 41
1.0
 50
0.0
 71
     0
 42
2.5
  3
isocp.shx
  4
bigfont.shx
  0
STYLE
  5
67
330
3
100
AcDbSymbolTableRecord
100
AcDbTextStyleTableRecord
  2
ACDINGDT
 70
     0
 40
0.0
 41
1.0
 50
0.0
 71
     0
 42
2.5
  3
AMGDT
  4
bigfont.shx
  0
STYLE
  5
285
330
3
100
AcDbSymbolTableRecord
100
AcDbTextStyleTableRecord
  2

 70
     1
 40
0.0
 41
1.0
 50
0.0
 71
     0
 42
2.5
  3
genltshp.shx
  4

  0
ENDTAB
  0
TABLE
  2
VIEW
  5
6
330
0
100
AcDbSymbolTable
 70
     0
  0
ENDTAB
  0
TABLE
  2
UCS
  5
7
330
0
100
AcDbSymbolTable
 70
     0
  0
ENDTAB
  0
TABLE
  2
APPID
  5
9
330
0
100
AcDbSymbolTable
 70
    13
  0
APPID
  5
12
330
9
100
AcDbSymbolTableRecord
100
AcDbRegAppTableRecord
  2
ACAD
 70
     0
  0
APPID
  5
30
330
9
100
AcDbSymbolTableRecord
100
AcDbRegAppTableRecord
  2
MCAD_NO_VIS
 70
     0
  0
APPID
  5
31
330
9
100
AcDbSymbolTableRecord
100
AcDbRegAppTableRecord
  2
ACAD_TEMP_GRAPHIC
 70
     0
  0
APPID
  5
44
330
9
100
AcDbSymbolTableRecord
100
AcDbRegAppTableRecord
  2
ACATTRIBSERVICES
 70
     0
  0
APPID
  5
108
330
9
100
AcDbSymbolTableRecord
100
AcDbRegAppTableRecord
  2
AD_DRAW
 70
     0
  0
APPID
  5
126
330
9
100
AcDbSymbolTableRecord
100
AcDbRegAppTableRecord
  2
DESIGNERASSEMBLIES
 70
     0
  0
APPID
  5
12A
330
9
100
AcDbSymbolTableRecord
100
AcDbRegAppTableRecord
  2
ACADM_DIM_EDIT
 70
     0
  0
APPID
  5
12B
330
9
100
AcDbSymbolTableRecord
100
AcDbRegAppTableRecord
  2
AMDT_DM_ADJ
 70
     0
  0
APPID
  5
1A4
330
9
100
AcDbSymbolTableRecord
100
AcDbRegAppTableRecord
  2
ACAD_DSTYLE_DIMARC_LENGTH_SYMBOL
 70
     0
  0
APPID
  5
1A5
330
9
100
AcDbSymbolTableRecord
100
AcDbRegAppTableRecord
  2
ACAD_DSTYLE_DIMJOGGED_JOGANGLE_SYMBOL
 70
     0
  0
APPID
  5
22C
330
9
100
AcDbSymbolTableRecord
100
AcDbRegAppTableRecord
  2
AcAecLayerStandard
 70
     0
  0
APPID
  5
333
330
9
100
AcDbSymbolTableRecord
100
AcDbRegAppTableRecord
  2
GENIUS_GENOREF_13
 70
     0
  0
APPID
  5
334
330
9
100
AcDbSymbolTableRecord
100
AcDbRegAppTableRecord
  2
ACAD_PSEXT
 70
     0
  0
ENDTAB
  0
TABLE
  2
DIMSTYLE
  5
A
330
0
100
AcDbSymbolTable
 70
    12
100
AcDbDimStyleTable
 71
     1
340
6F
  0
DIMSTYLE
105
6F
102
{ACAD_REACTORS
330
4B
102
}
330
A
100
AcDbSymbolTableRecord
100
AcDbDimStyleTableRecord
  2
AM_DIN
 70
     0
  4
"
 41
2.5
 42
1.0
 43
10.0
 44
1.0
 47
0.1
 48
0.1
 73
     0
 74
     0
 77
     1
 78
     8
 79
     2
140
3.5
141
0.0
143
0.0393701
146
0.71
147
1.5
172
     1
176
   256
177
   256
178
     2
271
     2
272
     3
274
     4
283
     0
284
     8
340
11
371
    -1
372
    -1
1001
ACAD_DSTYLE_DIMARC_LENGTH_SYMBOL
1070
   379
1070
     0
1001
ACAD_DSTYLE_DIMJOGGED_JOGANGLE_SYMBOL
1070
   384
1040
1.570796326794896
  0
DIMSTYLE
105
70
330
A
100
AcDbSymbolTableRecord
100
AcDbDimStyleTableRecord
  2
AM_DIN$3
 70
     0
  4
"
 41
2.5
 42
1.0
 43
10.0
 44
1.0
 47
0.1
 48
0.1
 73
     0
 77
     1
 78
     8
 79
     2
140
3.5
141
0.0
143
0.0393701
146
0.71
147
1.5
176
   256
177
   256
178
     2
271
     2
272
     3
274
     4
283
     0
284
     8
288
     1
289
     0
340
11
371
    -1
372
    -1
1001
ACAD_DSTYLE_DIMARC_LENGTH_SYMBOL
1070
   379
1070
     0
1001
ACAD_DSTYLE_DIMJOGGED_JOGANGLE_SYMBOL
1070
   384
1040
1.570796326794896
  0
DIMSTYLE
105
71
330
A
100
AcDbSymbolTableRecord
100
AcDbDimStyleTableRecord
  2
AM_DIN$4
 70
     0
  4
"
 41
2.5
 42
1.0
 43
10.0
 44
1.0
 47
0.1
 48
0.1
 73
     0
 77
     1
 78
     8
 79
     2
140
3.5
141
0.0
143
0.0393701
146
0.71
147
1.5
176
   256
177
   256
178
     2
271
     2
272
     3
274
     4
283
     0
284
     8
288
     1
289
     0
340
11
371
    -1
372
    -1
1001
ACAD_DSTYLE_DIMARC_LENGTH_SYMBOL
1070
   379
1070
     0
1001
ACAD_DSTYLE_DIMJOGGED_JOGANGLE_SYMBOL
1070
   384
1040
1.570796326794896
  0
DIMSTYLE
105
72
330
A
100
AcDbSymbolTableRecord
100
AcDbDimStyleTableRecord
  2
AM_DIN$6
 70
     0
  4
"
 41
2.5
 42
1.0
 43
10.0
 44
1.0
 47
0.1
 48
0.1
 73
     0
 74
     0
 78
     8
 79
     2
140
3.5
141
0.0
143
0.0393701
146
0.71
147
1.5
172
     1
176
   256
177
   256
178
     2
271
     2
272
     3
274
     4
283
     0
284
     8
340
11
371
    -1
372
    -1
1001
ACAD_DSTYLE_DIMARC_LENGTH_SYMBOL
1070
   379
1070
     0
1001
ACAD_DSTYLE_DIMJOGGED_JOGANGLE_SYMBOL
1070
   384
1040
1.570796326794896
  0
DIMSTYLE
105
73
330
A
100
AcDbSymbolTableRecord
100
AcDbDimStyleTableRecord
  2
AM_DIN$7
 70
     0
  4
"
 41
2.5
 42
1.0
 43
10.0
 44
1.0
 47
0.1
 48
0.1
 73
     0
 74
     0
 77
     1
 78
     8
 79
     2
140
5.0
141
0.0
143
0.0393701
146
0.71
147
1.5
172
     1
176
   256
177
   256
178
     2
271
     2
272
     3
274
     4
283
     0
284
     8
340
11
371
    -1
372
    -1
1001
ACAD_DSTYLE_DIMARC_LENGTH_SYMBOL
1070
   379
1070
     0
1001
ACAD_DSTYLE_DIMJOGGED_JOGANGLE_SYMBOL
1070
   384
1040
1.570796326794896
  0
DIMSTYLE
105
74
330
A
100
AcDbSymbolTableRecord
100
AcDbDimStyleTableRecord
  2
AM_DIN$SF
 70
     0
  4
"
 41
2.5
 42
1.0
 43
10.0
 44
1.0
 47
0.1
 48
0.1
 73
     0
 74
     0
 75
     1
 76
     1
 77
     1
 78
     8
 79
     2
140
3.5
141
0.0
143
0.0393701
146
0.71
147
1.5
172
     1
176
   256
177
   256
178
     2
271
     2
272
     3
274
     4
283
     0
284
     8
340
11
371
    -1
372
    -1
1001
ACAD_DSTYLE_DIMARC_LENGTH_SYMBOL
1070
   379
1070
     0
1001
ACAD_DSTYLE_DIMJOGGED_JOGANGLE_SYMBOL
1070
   384
1040
1.570796326794896
  0
DIMSTYLE
105
79
330
A
100
AcDbSymbolTableRecord
100
AcDbDimStyleTableRecord
  2
AM_DIN$SH
 70
     0
  4
"
 41
2.5
 42
1.0
 43
10.0
 44
1.0
 47
0.1
 48
0.1
 73
     0
 74
     0
 75
     1
 76
     1
 77
     1
 78
     8
 79
     2
140
3.5
141
0.0
143
0.0393701
144
2.0
146
0.71
147
1.5
172
     1
173
     1
176
   256
177
   256
178
     2
271
     2
272
     3
274
     4
283
     0
284
     8
340
11
343
75
371
    -1
372
    -1
1001
ACAD_DSTYLE_DIMARC_LENGTH_SYMBOL
1070
   379
1070
     0
1001
ACAD_DSTYLE_DIMJOGGED_JOGANGLE_SYMBOL
1070
   384
1040
1.570796326794896
  0
DIMSTYLE
105
331
330
A
100
AcDbSymbolTableRecord
100
AcDbDimStyleTableRecord
  2
GEN-ISO
 70
     0
  4
"
 40
10.0
 41
2.5
 42
1.0
 43
7.0
 44
1.0
 47
0.1
 48
0.1
 73
     0
 74
     0
 77
     1
 78
     8
140
3.5
141
0.0
143
0.0393701
146
0.71
147
0.6
172
     1
176
     3
177
     3
178
     2
271
     2
272
     2
283
     0
340
11
  0
DIMSTYLE
105
332
102
{ACAD_REACTORS
330
341
330
456
330
46A
330
57F
102
}
330
A
100
AcDbSymbolTableRecord
100
AcDbDimStyleTableRecord
  2
GEN-ISO$0
 70
     0
  4
"
 40
10.0
 41
2.5
 42
1.0
 43
7.0
 44
1.0
 47
0.1
 48
0.1
 73
     0
 74
     0
 77
     1
 78
     8
140
3.5
141
0.0
143
0.0393701
146
0.71
147
0.6
172
     1
176
     3
177
     3
178
     2
271
     2
272
     2
283
     0
340
11
  0
ENDTAB
  0
TABLE
  2
BLOCK_RECORD
  5
1
330
0
100
AcDbSymbolTable
 70
     9
  0
BLOCK_RECORD
  5
1F
102
{ACAD_XDICTIONARY
360
83
102
}
330
1
100
AcDbSymbolTableRecord
100
AcDbBlockTableRecord
  2
*Model_Space
340
22
  0
BLOCK_RECORD
  5
1B
330
1
100
AcDbSymbolTableRecord
100
AcDbBlockTableRecord
  2
*Paper_Space
340
1E
  0
BLOCK_RECORD
  5
23
330
1
100
AcDbSymbolTableRecord
100
AcDbBlockTableRecord
  2
*Paper_Space0
340
26
  0
BLOCK_RECORD
  5
75
330
1
100
AcDbSymbolTableRecord
100
AcDbBlockTableRecord
  2
GENAXEH
340
0
  0
BLOCK_RECORD
  5
583
330
1
100
AcDbSymbolTableRecord
100
AcDbBlockTableRecord
  2
*D6
340
0
  0
BLOCK_RECORD
  5
598
330
1
100
AcDbSymbolTableRecord
100
AcDbBlockTableRecord
  2
*D7
340
0
  0
ENDTAB
  0
ENDSEC
  0
SECTION
  2
BLOCKS
  0
BLOCK
  5
20
330
1F
100
AcDbEntity
  8
0
100
AcDbBlockBegin
  2
*Model_Space
 70
     0
 10
0.0
 20
0.0
 30
0.0
  3
*Model_Space
  1

  0
ENDBLK
  5
21
330
1F
100
AcDbEntity
  8
0
100
AcDbBlockEnd
  0
BLOCK
  5
1C
330
1B
100
AcDbEntity
 67
     1
  8
0
100
AcDbBlockBegin
  2
*Paper_Space
 70
     0
 10
0.0
 20
0.0
 30
0.0
  3
*Paper_Space
  1

  0
ENDBLK
  5
1D
330
1B
100
AcDbEntity
 67
     1
  8
0
100
AcDbBlockEnd
  0
BLOCK
  5
24
330
23
100
AcDbEntity
 67
     1
  8
0
100
AcDbBlockBegin
  2
*Paper_Space0
 70
     0
 10
0.0
 20
0.0
 30
0.0
  3
*Paper_Space0
  1

  0
ENDBLK
  5
25
330
23
100
AcDbEntity
 67
     1
  8
0
100
AcDbBlockEnd
  0
BLOCK
  5
77
330
75
100
AcDbEntity
  8
0
100
AcDbBlockBegin
  2
GENAXEH
 70
     0
 10
0.0
 20
0.0
 30
0.0
  3
GENAXEH
  1

  0
LINE
  5
76
330
75
100
AcDbEntity
  8
0
100
AcDbLine
 10
-1.0
 20
0.0
 30
0.0
 11
1.0
 21
0.0
 31
0.0
  0
ENDBLK
  5
78
330
75
100
AcDbEntity
  8
0
100
AcDbBlockEnd
  0
BLOCK
  5
58D
330
583
100
AcDbEntity
  8
0
100
AcDbBlockBegin
  2
*D6
 70
     1
 10
0.0
 20
0.0
 30
0.0
  3
*D6
  1

  0
LINE
  5
58F
330
583
100
AcDbEntity
  8
AM_5
 62
     3
370
    -2
100
AcDbLine
 10
1434.114878518628
 20
1076.230647775615
 30
0.0
 11
1381.240813059135
 21
1076.230647775615
 31
0.0
  0
LINE
  5
590
330
583
100
AcDbEntity
  8
AM_5
 62
     3
370
    -2
100
AcDbLine
 10
1434.114878518628
 20
966.2306477756164
 30
0.0
 11
1381.240813059135
 21
966.2306477756164
 31
0.0
  0
LINE
  5
591
330
583
100
AcDbEntity
  8
AM_5
 62
     3
370
    -2
100
AcDbLine
 10
1391.240813059135
 20
1051.230647775615
 30
0.0
 11
1391.240813059135
 21
991.2306477756164
 31
0.0
  0
SOLID
  5
592
330
583
100
AcDbEntity
  8
AM_5
 62
     3
100
AcDbTrace
 10
1387.074146392468
 20
1051.230647775615
 30
0.0
 11
1395.407479725802
 21
1051.230647775615
 31
0.0
 12
1391.240813059135
 22
1076.230647775615
 32
0.0
 13
1391.240813059135
 23
1076.230647775615
 33
0.0
  0
SOLID
  5
593
330
583
100
AcDbEntity
  8
AM_5
 62
     3
100
AcDbTrace
 10
1387.074146392468
 20
991.2306477756164
 30
0.0
 11
1395.407479725802
 21
991.2306477756164
 31
0.0
 12
1391.240813059135
 22
966.2306477756164
 32
0.0
 13
1391.240813059135
 23
966.2306477756164
 33
0.0
  0
MTEXT
  5
594
330
583
100
AcDbEntity
  8
AM_5
 62
     2
100
AcDbMText
 10
1367.740813059135
 20
1021.230647775618
 30
0.0
 40
35.0
 41
0.0
 71
     5
 72
     1
  1
%%c110
 11
0.0000000000000001
 21
1.0
 31
0.0
 73
     1
 44
1.0
1001
ACAD
1000
MTEXTBEGIN
1070
    73
1070
     1
1070
    44
1040
1.0
1070
    74
1070
     0
1000
MTEXTEND
  0
POINT
  5
595
330
583
100
AcDbEntity
  8
DEFPOINTS
 62
     0
100
AcDbPoint
 10
1444.114878518628
 20
1076.230647775615
 30
0.0
  0
POINT
  5
596
330
583
100
AcDbEntity
  8
DEFPOINTS
 62
     0
100
AcDbPoint
 10
1444.114878518628
 20
966.2306477756164
 30
0.0
  0
POINT
  5
597
330
583
100
AcDbEntity
  8
DEFPOINTS
 62
     0
100
AcDbPoint
 10
1391.240813059135
 20
966.2306477756164
 30
0.0
  0
ENDBLK
  5
58E
330
583
100
AcDbEntity
  8
0
100
AcDbBlockEnd
  0
BLOCK
  5
5A2
330
598
100
AcDbEntity
  8
0
100
AcDbBlockBegin
  2
*D7
 70
     1
 10
0.0
 20
0.0
 30
0.0
  3
*D7
  1

  0
LINE
  5
599
330
598
100
AcDbEntity
  8
AM_5
 62
     3
370
    -2
100
AcDbLine
 10
1444.114878518628
 20
956.2306477756157
 30
0.0
 11
1444.114878518628
 21
834.6524677281504
 31
0.0
  0
LINE
  5
59A
330
598
100
AcDbEntity
  8
AM_5
 62
     3
370
    -2
100
AcDbLine
 10
1519.114878518624
 20
935.2306477756158
 30
0.0
 11
1519.114878518624
 21
834.6524677281504
 31
0.0
  0
LINE
  5
59B
330
598
100
AcDbEntity
  8
AM_5
 62
     3
370
    -2
100
AcDbLine
 10
1469.114878518628
 20
844.6524677281503
 30
0.0
 11
1494.114878518624
 21
844.6524677281503
 31
0.0
  0
SOLID
  5
59C
330
598
100
AcDbEntity
  8
AM_5
 62
     3
100
AcDbTrace
 10
1469.114878518628
 20
848.8191343948169
 30
0.0
 11
1469.114878518628
 21
840.4858010614837
 31
0.0
 12
1444.114878518628
 22
844.6524677281503
 32
0.0
 13
1444.114878518628
 23
844.6524677281503
 33
0.0
  0
SOLID
  5
59D
330
598
100
AcDbEntity
  8
AM_5
 62
     3
100
AcDbTrace
 10
1494.114878518624
 20
848.8191343948169
 30
0.0
 11
1494.114878518624
 21
840.4858010614837
 31
0.0
 12
1519.114878518624
 22
844.6524677281503
 32
0.0
 13
1519.114878518624
 23
844.6524677281503
 33
0.0
  0
MTEXT
  5
59E
330
598
100
AcDbEntity
  8
AM_5
 62
     2
100
AcDbMText
 10
1481.614878518626
 20
868.1524677281505
 30
0.0
 40
35.0
 41
0.0
 71
     5
 72
     1
  1
75
 73
     1
 44
1.0
1001
ACAD
1000
MTEXTBEGIN
1070
    73
1070
     1
1070
    44
1040
1.0
1070
    74
1070
     0
1000
MTEXTEND
  0
POINT
  5
59F
330
598
100
AcDbEntity
  8
DEFPOINTS
 62
     0
100
AcDbPoint
 10
1444.114878518628
 20
966.2306477756159
 30
0.0
  0
POINT
  5
5A0
330
598
100
AcDbEntity
  8
DEFPOINTS
 62
     0
100
AcDbPoint
 10
1519.114878518624
 20
945.2306477756158
 30
0.0
  0
POINT
  5
5A1
330
598
100
AcDbEntity
  8
DEFPOINTS
 62
     0
100
AcDbPoint
 10
1519.114878518624
 20
844.6524677281503
 30
0.0
  0
ENDBLK
  5
5A3
330
598
100
AcDbEntity
  8
0
100
AcDbBlockEnd
  0
ENDSEC
  0
SECTION
  2
ENTITIES
  0
LINE
  5
460
330
1F
100
AcDbEntity
  8
0N
100
AcDbLine
 10
1444.114878518628
 20
1076.230647775615
 30
0.0
 11
1444.114878518628
 21
1021.230647775615
 31
0.0
  0
LINE
  5
461
330
1F
100
AcDbEntity
  8
0
100
AcDbLine
 10
1491.114878518626
 20
1035.090647775615
 30
0.0
 11
1491.11487851863
 21
1071.124784493057
 31
0.0
  0
LINE
  5
462
330
1F
100
AcDbEntity
  8
0
100
AcDbLine
 10
1519.114878518622
 20
1029.230647775616
 30
0.0
 11
1519.114878518622
 21
1076.984784493057
 31
0.0
  0
LINE
  5
463
330
1F
100
AcDbEntity
  8
0
100
AcDbLine
 10
1519.114878518624
 20
1092.984784493057
 30
0.0
 11
1519.114878518624
 21
1100.230647775615
 31
0.0
  0
LINE
  5
464
330
1F
100
AcDbEntity
  8
7
100
AcDbLine
 10
1436.85267295412
 20
1021.230647775615
 30
0.0
 11
1528.020892841077
 21
1021.230647775615
 31
0.0
  0
LINE
  5
465
330
1F
100
AcDbEntity
  8
0
100
AcDbLine
 10
1515.114878518628
 20
1100.230647775615
 30
0.0
 11
1519.114878518624
 21
1100.230647775615
 31
0.0
  0
LINE
  5
466
330
1F
100
AcDbEntity
  8
0
100
AcDbLine
 10
1515.114878518624
 20
1131.230647775615
 30
0.0
 11
1515.114878518624
 21
1021.230647775615
 31
0.0
  0
LINE
  5
467
330
1F
100
AcDbEntity
  8
0
100
AcDbLine
 10
1497.114878518624
 20
1131.230647775615
 30
0.0
 11
1497.114878518631
 21
1021.230647775615
 31
0.0
  0
LINE
  5
468
330
1F
100
AcDbEntity
  8
0
100
AcDbLine
 10
1515.114878518624
 20
1131.230647775615
 30
0.0
 11
1497.114878518624
 21
1131.230647775615
 31
0.0
  0
LINE
  5
469
330
1F
100
AcDbEntity
  8
0N
100
AcDbLine
 10
1444.114878518628
 20
1076.230647775615
 30
0.0
 11
1487.114878518628
 21
1076.230647775616
 31
0.0
  0
DIMENSION
  5
46A
330
1F
100
AcDbEntity
  8
AM_5
100
AcDbDimension
  2
*D6
 10
1391.240813059135
 20
966.2306477756164
 30
0.0
 11
1391.240813059135
 21
1021.230647775618
 31
0.0
 70
   160
  1
%%c<>
 71
     5
 42
109.999999999999
  3
GEN-ISO$0
100
AcDbAlignedDimension
 13
1444.114878518628
 23
1076.230647775615
 33
0.0
 14
1444.114878518628
 24
966.2306477756164
 34
0.0
 50
90.0
100
AcDbRotatedDimension
1001
ACAD
1000
DSTYLE
1002
{
1070
   271
1070
     0
1002
}
  0
LINE
  5
46B
330
1F
100
AcDbEntity
  8
AM_0N
100
AcDbLine
 10
1517.314878518628
 20
1103.230647775616
 30
0.0
 11
1541.143875960929
 21
1103.230647775616
 31
0.0
1001
GENIUS_GENOREF_13
1005
0
1005
0
  0
LINE
  5
46C
330
1F
100
AcDbEntity
  8
AM_0N
100
AcDbLine
 10
1555.943875960926
 20
1103.230647775617
 30
0.0
 11
1560.087978518627
 21
1103.230647775616
 31
0.0
1001
GENIUS_GENOREF_13
1005
0
1005
0
  0
LINE
  5
46D
330
1F
100
AcDbEntity
  8
AM_4N
100
AcDbLine
 10
1517.314878518628
 20
1104.457547775616
 30
0.0
 11
1541.143875960931
 21
1104.457547775616
 31
0.0
1001
GENIUS_GENOREF_13
1005
0
1005
0
  0
LINE
  5
46E
330
1F
100
AcDbEntity
  8
AM_4N
100
AcDbLine
 10
1555.943875960928
 20
1104.457547775616
 30
0.0
 11
1561.314878518627
 21
1104.457547775616
 31
0.0
1001
GENIUS_GENOREF_13
1005
0
1005
0
  0
LINE
  5
46F
330
1F
100
AcDbEntity
  8
AM_4N
100
AcDbLine
 10
1517.314878518627
 20
1118.003747775616
 30
0.0
 11
1541.143875960929
 21
1118.003747775616
 31
0.0
1001
GENIUS_GENOREF_13
1005
0
1005
0
  0
LINE
  5
470
330
1F
100
AcDbEntity
  8
AM_4N
100
AcDbLine
 10
1555.943875960926
 20
1118.003747775616
 30
0.0
 11
1561.314878518627
 21
1118.003747775616
 31
0.0
1001
GENIUS_GENOREF_13
1005
0
1005
0
  0
LINE
  5
471
330
1F
100
AcDbEntity
  8
AM_0N
100
AcDbLine
 10
1517.314878518628
 20
1119.230647775616
 30
0.0
 11
1541.143875960929
 21
1119.230647775616
 31
0.0
1001
GENIUS_GENOREF_13
1005
0
1005
0
  0
LINE
  5
472
330
1F
100
AcDbEntity
  8
AM_0N
100
AcDbLine
 10
1555.943875960926
 20
1119.230647775616
 30
0.0
 11
1560.087978518627
 21
1119.230647775616
 31
0.0
1001
GENIUS_GENOREF_13
1005
0
1005
0
  0
LINE
  5
473
330
1F
100
AcDbEntity
  8
AM_0N
100
AcDbLine
 10
1515.114878518624
 20
1119.230647775616
 30
0.0
 11
1516.087978518627
 21
1119.230647775616
 31
0.0
1001
GENIUS_GENOREF_13
1005
0
1005
0
  0
LINE
  5
474
330
1F
100
AcDbEntity
  8
AM_0N
100
AcDbLine
 10
1515.114878518622
 20
1103.230647775616
 30
0.0
 11
1516.087978518627
 21
1103.230647775616
 31
0.0
1001
GENIUS_GENOREF_13
1005
0
1005
0
  0
ARC
  5
475
330
1F
100
AcDbEntity
  8
AM_0N
100
AcDbCircle
 10
1510.024047085361
 20
1111.230647775615
 30
0.0
 40
22.90916856673462
100
AcDbArc
 50
162.3875260144904
 51
197.6124739855095
1001
GENIUS_GENOREF_13
1005
0
1005
0
  0
LINE
  5
476
330
1F
100
AcDbEntity
  8
AM_0N
100
AcDbLine
 10
1496.314878518627
 20
1099.980647775615
 30
0.0
 11
1496.314878518627
 21
1122.480647775616
 31
0.0
1001
GENIUS_GENOREF_13
1005
0
1005
0
  0
LINE
  5
477
330
1F
100
AcDbEntity
  8
AM_0N
100
AcDbLine
 10
1497.114878518628
 20
1119.230647775616
 30
0.0
 11
1497.114878518626
 21
1103.230647775615
 31
0.0
1001
GENIUS_GENOREF_13
1005
0
1005
0
  0
LINE
  5
478
330
1F
100
AcDbEntity
  8
AM_0N
100
AcDbLine
 10
1487.114878518626
 20
1123.230647775615
 30
0.0
 11
1487.114878518628
 21
1099.230647775615
 31
0.0
1001
GENIUS_GENOREF_13
1005
0
1005
0
  0
LINE
  5
479
330
1F
100
AcDbEntity
  8
AM_0N
100
AcDbLine
 10
1488.18875001932
 20
1104.298851005891
 30
0.0
 11
1496.314878518628
 21
1104.298851005891
 31
0.0
1001
GENIUS_GENOREF_13
1005
0
1005
0
  0
ARC
  5
47A
330
1F
100
AcDbEntity
  8
AM_0N
100
AcDbCircle
 10
1493.239074938551
 20
1100.834749390753
 30
0.0
 40
6.12419641992338
100
AcDbArc
 50
145.5531276177356
 51
205.5531276177362
1001
GENIUS_GENOREF_13
1005
0
1005
0
  0
LINE
  5
47B
330
1F
100
AcDbEntity
  8
AM_0N
100
AcDbLine
 10
1487.763203404
 20
1098.107716134336
 30
0.0
 11
1487.114878518628
 21
1099.230647775615
 31
0.0
1001
GENIUS_GENOREF_13
1005
0
1005
0
  0
LINE
  5
47C
330
1F
100
AcDbEntity
  8
AM_0N
100
AcDbLine
 10
1497.114878518626
 20
1103.230647775615
 30
0.0
 11
1497.114878518626
 21
1099.980647775615
 31
0.0
1001
GENIUS_GENOREF_13
1005
0
1005
0
  0
LINE
  5
47D
330
1F
100
AcDbEntity
  8
AM_0N
100
AcDbLine
 10
1496.314878518627
 20
1099.980647775615
 30
0.0
 11
1497.114878518626
 21
1099.980647775615
 31
0.0
1001
GENIUS_GENOREF_13
1005
0
1005
0
  0
LINE
  5
47E
330
1F
100
AcDbEntity
  8
AM_0N
100
AcDbLine
 10
1496.314878518627
 20
1097.370647775615
 30
0.0
 11
1496.314878518627
 21
1099.980647775615
 31
0.0
1001
GENIUS_GENOREF_13
1005
0
1005
0
  0
LINE
  5
47F
330
1F
100
AcDbEntity
  8
AM_0N
100
AcDbLine
 10
1496.314878518627
 20
1122.480647775616
 30
0.0
 11
1496.314878518627
 21
1125.090647775615
 31
0.0
1001
GENIUS_GENOREF_13
1005
0
1005
0
  0
LINE
  5
480
330
1F
100
AcDbEntity
  8
AM_0N
100
AcDbLine
 10
1488.18875001932
 20
1125.090647775615
 30
0.0
 11
1487.114878518626
 21
1123.230647775615
 31
0.0
1001
GENIUS_GENOREF_13
1005
0
1005
0
  0
LINE
  5
481
330
1F
100
AcDbEntity
  8
AM_0N
100
AcDbLine
 10
1488.188750019318
 20
1118.16244454534
 30
0.0
 11
1496.314878518628
 21
1118.16244454534
 31
0.0
1001
GENIUS_GENOREF_13
1005
0
1005
0
  0
ARC
  5
482
330
1F
100
AcDbEntity
  8
AM_0N
100
AcDbCircle
 10
1493.239074938551
 20
1121.626546160478
 30
0.0
 40
6.12419641992338
100
AcDbArc
 50
154.4468723822638
 51
214.4468723822643
1001
GENIUS_GENOREF_13
1005
0
1005
0
  0
LINE
  5
483
330
1F
100
AcDbEntity
  8
AM_0N
100
AcDbLine
 10
1496.314878518627
 20
1122.480647775616
 30
0.0
 11
1497.114878518628
 21
1122.480647775616
 31
0.0
1001
GENIUS_GENOREF_13
1005
0
1005
0
  0
LINE
  5
484
330
1F
100
AcDbEntity
  8
AM_0N
100
AcDbLine
 10
1497.114878518628
 20
1122.480647775616
 30
0.0
 11
1497.114878518628
 21
1119.230647775616
 31
0.0
1001
GENIUS_GENOREF_13
1005
0
1005
0
  0
LINE
  5
485
330
1F
100
AcDbEntity
  8
AM_0N
100
AcDbLine
 10
1488.18875001932
 20
1125.090647775615
 30
0.0
 11
1496.314878518627
 21
1125.090647775615
 31
0.0
1001
GENIUS_GENOREF_13
1005
0
1005
0
  0
LINE
  5
486
330
1F
100
AcDbEntity
  8
AM_0N
100
AcDbLine
 10
1517.314878518628
 20
1103.230647775616
 30
0.0
 11
1517.314878518628
 21
1119.230647775616
 31
0.0
1001
GENIUS_GENOREF_13
1005
0
1005
0
  0
LINE
  5
487
330
1F
100
AcDbEntity
  8
AM_4N
100
AcDbLine
 10
1517.314878518628
 20
1104.457547775616
 30
0.0
 11
1516.087978518627
 21
1103.230647775616
 31
0.0
1001
GENIUS_GENOREF_13
1005
0
1005
0
  0
LINE
  5
488
330
1F
100
AcDbEntity
  8
AM_0N
100
AcDbLine
 10
1517.314878518628
 20
1103.230647775616
 30
0.0
 11
1516.087978518627
 21
1103.230647775616
 31
0.0
1001
GENIUS_GENOREF_13
1005
0
1005
0
  0
LINE
  5
489
330
1F
100
AcDbEntity
  8
AM_4N
100
AcDbLine
 10
1517.314878518627
 20
1118.003747775616
 30
0.0
 11
1516.087978518627
 21
1119.230647775616
 31
0.0
1001
GENIUS_GENOREF_13
1005
0
1005
0
  0
LINE
  5
48A
330
1F
100
AcDbEntity
  8
AM_0N
100
AcDbLine
 10
1517.314878518628
 20
1119.230647775616
 30
0.0
 11
1516.087978518627
 21
1119.230647775616
 31
0.0
1001
GENIUS_GENOREF_13
1005
0
1005
0
  0
LINE
  5
48B
330
1F
100
AcDbEntity
  8
AM_0N
100
AcDbLine
 10
1560.087978518627
 20
1103.230647775616
 30
0.0
 11
1560.087978518627
 21
1119.230647775616
 31
0.0
1001
GENIUS_GENOREF_13
1005
0
1005
0
  0
LINE
  5
48C
330
1F
100
AcDbEntity
  8
AM_0N
100
AcDbLine
 10
1561.314878518627
 20
1104.457547775616
 30
0.0
 11
1560.087978518627
 21
1103.230647775616
 31
0.0
1001
GENIUS_GENOREF_13
1005
0
1005
0
  0
LINE
  5
48D
330
1F
100
AcDbEntity
  8
AM_0N
100
AcDbLine
 10
1561.314878518627
 20
1104.457547775616
 30
0.0
 11
1561.314878518627
 21
1118.003747775616
 31
0.0
1001
GENIUS_GENOREF_13
1005
0
1005
0
  0
LINE
  5
48E
330
1F
100
AcDbEntity
  8
AM_0N
100
AcDbLine
 10
1560.087978518627
 20
1119.230647775616
 30
0.0
 11
1561.314878518627
 21
1118.003747775616
 31
0.0
1001
GENIUS_GENOREF_13
1005
0
1005
0
  0
ARC
  5
48F
330
1F
100
AcDbEntity
  8
AM_0N
100
AcDbCircle
 10
1549.383768447641
 20
1121.625647775616
 30
0.0
 40
6.12709481139573
100
AcDbArc
 50
325.5615305952717
 51
25.56153059527558
  0
ARC
  5
490
330
1F
100
AcDbEntity
  8
AM_0N
100
AcDbCircle
 10
1547.703983474216
 20
1121.625647775616
 30
0.0
 40
6.12709481139573
100
AcDbArc
 50
154.4384694047244
 51
214.4384694047283
  0
LINE
  5
491
330
1F
100
AcDbEntity
  8
AM_0N
100
AcDbLine
 10
1555.943875960928
 20
1122.480647775616
 30
0.0
 11
1555.943875960928
 21
1099.980647775616
 31
0.0
  0
LINE
  5
492
330
1F
100
AcDbEntity
  8
AM_0N
100
AcDbLine
 10
1541.143875960929
 20
1122.480647775616
 30
0.0
 11
1541.143875960929
 21
1099.980647775616
 31
0.0
  0
ARC
  5
493
330
1F
100
AcDbEntity
  8
AM_0N
100
AcDbCircle
 10
1549.383768447641
 20
1100.835647775616
 30
0.0
 40
6.127094811395725
100
AcDbArc
 50
334.4384694047244
 51
34.43846940472828
  0
ARC
  5
494
330
1F
100
AcDbEntity
  8
AM_0N
100
AcDbCircle
 10
1532.613291264492
 20
1111.230647775616
 30
0.0
 40
22.89757199454396
100
AcDbArc
 50
342.3830311596006
 51
17.61696884039934
  0
ARC
  5
495
330
1F
100
AcDbEntity
  8
AM_0N
100
AcDbCircle
 10
1564.474460657365
 20
1111.230647775616
 30
0.0
 40
22.8975719945439
100
AcDbArc
 50
162.3830311596007
 51
197.6169688403993
  0
ARC
  5
496
330
1F
100
AcDbEntity
  8
AM_0N
100
AcDbCircle
 10
1547.703983474216
 20
1100.835647775616
 30
0.0
 40
6.12709481139573
100
AcDbArc
 50
145.5615305952717
 51
205.5615305952755
  0
LINE
  5
497
330
1F
100
AcDbEntity
  8
AM_0N
100
AcDbLine
 10
1554.862538373662
 20
1098.107716134334
 30
0.0
 11
1555.943875960928
 21
1099.980647775616
 31
0.0
  0
LINE
  5
498
330
1F
100
AcDbEntity
  8
AM_0N
100
AcDbLine
 10
1542.650760163514
 20
1118.160647775616
 30
0.0
 11
1554.436991758343
 21
1118.160647775616
 31
0.0
  0
LINE
  5
499
330
1F
100
AcDbEntity
  8
AM_0N
100
AcDbLine
 10
1542.225213548195
 20
1098.107716134336
 30
0.0
 11
1541.143875960929
 21
1099.980647775616
 31
0.0
  0
LINE
  5
49A
330
1F
100
AcDbEntity
  8
AM_0N
100
AcDbLine
 10
1542.650760163514
 20
1104.300647775616
 30
0.0
 11
1554.436991758343
 21
1104.300647775616
 31
0.0
  0
LINE
  5
49B
330
1F
100
AcDbEntity
  8
AM_0N
100
AcDbLine
 10
1554.436991758343
 20
1125.090647775616
 30
0.0
 11
1555.943875960928
 21
1122.480647775616
 31
0.0
  0
LINE
  5
49C
330
1F
100
AcDbEntity
  8
AM_0N
100
AcDbLine
 10
1542.650760163514
 20
1125.090647775616
 30
0.0
 11
1541.143875960929
 21
1122.480647775616
 31
0.0
  0
LINE
  5
49D
330
1F
100
AcDbEntity
  8
AM_0N
100
AcDbLine
 10
1542.650760163514
 20
1125.090647775616
 30
0.0
 11
1554.436991758343
 21
1125.090647775616
 31
0.0
  0
LINE
  5
49E
330
1F
100
AcDbEntity
  8
AM_0N
100
AcDbLine
 10
1517.314878518628
 20
1076.984784493057
 30
0.0
 11
1541.143875960929
 21
1076.984784493058
 31
0.0
  0
LINE
  5
49F
330
1F
100
AcDbEntity
  8
AM_0N
100
AcDbLine
 10
1555.943875960926
 20
1076.984784493058
 30
0.0
 11
1560.087978518627
 21
1076.984784493058
 31
0.0
  0
LINE
  5
4A0
330
1F
100
AcDbEntity
  8
AM_4N
100
AcDbLine
 10
1517.314878518628
 20
1078.211684493058
 30
0.0
 11
1541.143875960931
 21
1078.211684493058
 31
0.0
  0
LINE
  5
4A1
330
1F
100
AcDbEntity
  8
AM_4N
100
AcDbLine
 10
1555.943875960928
 20
1078.211684493058
 30
0.0
 11
1561.314878518627
 21
1078.211684493058
 31
0.0
  0
LINE
  5
4A2
330
1F
100
AcDbEntity
  8
AM_4N
100
AcDbLine
 10
1517.314878518627
 20
1091.757884493058
 30
0.0
 11
1541.143875960929
 21
1091.757884493058
 31
0.0
  0
LINE
  5
4A3
330
1F
100
AcDbEntity
  8
AM_4N
100
AcDbLine
 10
1555.943875960926
 20
1091.757884493058
 30
0.0
 11
1561.314878518627
 21
1091.757884493057
 31
0.0
  0
LINE
  5
4A4
330
1F
100
AcDbEntity
  8
AM_0N
100
AcDbLine
 10
1517.314878518628
 20
1092.984784493058
 30
0.0
 11
1541.143875960929
 21
1092.984784493058
 31
0.0
  0
LINE
  5
4A5
330
1F
100
AcDbEntity
  8
AM_0N
100
AcDbLine
 10
1555.943875960926
 20
1092.984784493058
 30
0.0
 11
1560.087978518627
 21
1092.984784493058
 31
0.0
  0
LINE
  5
4A6
330
1F
100
AcDbEntity
  8
AM_0N
100
AcDbLine
 10
1515.114878518624
 20
1092.984784493057
 30
0.0
 11
1516.087978518627
 21
1092.984784493057
 31
0.0
  0
LINE
  5
4A7
330
1F
100
AcDbEntity
  8
AM_0N
100
AcDbLine
 10
1515.114878518622
 20
1076.984784493058
 30
0.0
 11
1516.087978518627
 21
1076.984784493057
 31
0.0
  0
ARC
  5
4A8
330
1F
100
AcDbEntity
  8
AM_0N
100
AcDbCircle
 10
1510.024047085361
 20
1084.984784493057
 30
0.0
 40
22.90916856673462
100
AcDbArc
 50
162.3875260144904
 51
197.6124739855095
  0
LINE
  5
4A9
330
1F
100
AcDbEntity
  8
AM_0N
100
AcDbLine
 10
1496.314878518627
 20
1073.734784493057
 30
0.0
 11
1496.314878518627
 21
1096.234784493057
 31
0.0
  0
LINE
  5
4AA
330
1F
100
AcDbEntity
  8
AM_0N
100
AcDbLine
 10
1497.114878518628
 20
1092.984784493057
 30
0.0
 11
1497.114878518626
 21
1076.984784493057
 31
0.0
  0
LINE
  5
4AB
330
1F
100
AcDbEntity
  8
AM_0N
100
AcDbLine
 10
1487.114878518626
 20
1096.984784493057
 30
0.0
 11
1487.114878518628
 21
1072.984784493057
 31
0.0
  0
LINE
  5
4AC
330
1F
100
AcDbEntity
  8
AM_0N
100
AcDbLine
 10
1488.18875001932
 20
1071.124784493057
 30
0.0
 11
1496.314878518627
 21
1071.124784493057
 31
0.0
  0
LINE
  5
4AD
330
1F
100
AcDbEntity
  8
AM_0N
100
AcDbLine
 10
1488.18875001932
 20
1078.052987723332
 30
0.0
 11
1496.314878518628
 21
1078.052987723332
 31
0.0
  0
ARC
  5
4AE
330
1F
100
AcDbEntity
  8
AM_0N
100
AcDbCircle
 10
1493.239074938551
 20
1074.588886108194
 30
0.0
 40
6.12419641992338
100
AcDbArc
 50
145.5531276177356
 51
205.5531276177362
  0
LINE
  5
4AF
330
1F
100
AcDbEntity
  8
AM_0N
100
AcDbLine
 10
1488.18875001932
 20
1071.124784493057
 30
0.0
 11
1487.114878518628
 21
1072.984784493057
 31
0.0
  0
LINE
  5
4B0
330
1F
100
AcDbEntity
  8
AM_0N
100
AcDbLine
 10
1497.114878518626
 20
1076.984784493057
 30
0.0
 11
1497.114878518626
 21
1073.734784493057
 31
0.0
  0
LINE
  5
4B1
330
1F
100
AcDbEntity
  8
AM_0N
100
AcDbLine
 10
1496.314878518627
 20
1073.734784493057
 30
0.0
 11
1497.114878518626
 21
1073.734784493057
 31
0.0
  0
LINE
  5
4B2
330
1F
100
AcDbEntity
  8
AM_0N
100
AcDbLine
 10
1496.314878518627
 20
1071.124784493057
 30
0.0
 11
1496.314878518627
 21
1073.734784493057
 31
0.0
  0
LINE
  5
4B3
330
1F
100
AcDbEntity
  8
AM_0N
100
AcDbLine
 10
1496.314878518627
 20
1096.234784493057
 30
0.0
 11
1496.314878518627
 21
1098.844784493057
 31
0.0
  0
LINE
  5
4B4
330
1F
100
AcDbEntity
  8
AM_0N
100
AcDbLine
 10
1488.18875001932
 20
1098.844784493057
 30
0.0
 11
1487.114878518626
 21
1096.984784493057
 31
0.0
  0
LINE
  5
4B5
330
1F
100
AcDbEntity
  8
AM_0N
100
AcDbLine
 10
1488.188750019318
 20
1091.916581262781
 30
0.0
 11
1496.314878518628
 21
1091.916581262782
 31
0.0
  0
ARC
  5
4B6
330
1F
100
AcDbEntity
  8
AM_0N
100
AcDbCircle
 10
1493.239074938551
 20
1095.380682877919
 30
0.0
 40
6.12419641992338
100
AcDbArc
 50
154.4468723822638
 51
214.4468723822643
  0
LINE
  5
4B7
330
1F
100
AcDbEntity
  8
AM_0N
100
AcDbLine
 10
1496.314878518627
 20
1096.234784493057
 30
0.0
 11
1497.114878518628
 21
1096.234784493057
 31
0.0
  0
LINE
  5
4B8
330
1F
100
AcDbEntity
  8
AM_0N
100
AcDbLine
 10
1497.114878518628
 20
1096.234784493057
 30
0.0
 11
1497.114878518628
 21
1092.984784493057
 31
0.0
  0
LINE
  5
4B9
330
1F
100
AcDbEntity
  8
AM_0N
100
AcDbLine
 10
1488.18875001932
 20
1098.844784493057
 30
0.0
 11
1496.314878518627
 21
1098.844784493057
 31
0.0
  0
LINE
  5
4BA
330
1F
100
AcDbEntity
  8
AM_0N
100
AcDbLine
 10
1517.314878518628
 20
1076.984784493057
 30
0.0
 11
1517.314878518628
 21
1092.984784493058
 31
0.0
  0
LINE
  5
4BB
330
1F
100
AcDbEntity
  8
AM_4N
100
AcDbLine
 10
1517.314878518628
 20
1078.211684493058
 30
0.0
 11
1516.087978518627
 21
1076.984784493057
 31
0.0
  0
LINE
  5
4BC
330
1F
100
AcDbEntity
  8
AM_0N
100
AcDbLine
 10
1517.314878518628
 20
1076.984784493057
 30
0.0
 11
1516.087978518627
 21
1076.984784493057
 31
0.0
  0
LINE
  5
4BD
330
1F
100
AcDbEntity
  8
AM_4N
100
AcDbLine
 10
1517.314878518627
 20
1091.757884493058
 30
0.0
 11
1516.087978518627
 21
1092.984784493057
 31
0.0
  0
LINE
  5
4BE
330
1F
100
AcDbEntity
  8
AM_0N
100
AcDbLine
 10
1517.314878518628
 20
1092.984784493058
 30
0.0
 11
1516.087978518627
 21
1092.984784493057
 31
0.0
  0
LINE
  5
4BF
330
1F
100
AcDbEntity
  8
AM_0N
100
AcDbLine
 10
1560.087978518627
 20
1076.984784493058
 30
0.0
 11
1560.087978518627
 21
1092.984784493058
 31
0.0
  0
LINE
  5
4C0
330
1F
100
AcDbEntity
  8
AM_0N
100
AcDbLine
 10
1561.314878518627
 20
1078.211684493058
 30
0.0
 11
1560.087978518627
 21
1076.984784493058
 31
0.0
  0
LINE
  5
4C1
330
1F
100
AcDbEntity
  8
AM_0N
100
AcDbLine
 10
1561.314878518627
 20
1078.211684493058
 30
0.0
 11
1561.314878518627
 21
1091.757884493057
 31
0.0
  0
LINE
  5
4C2
330
1F
100
AcDbEntity
  8
AM_0N
100
AcDbLine
 10
1560.087978518627
 20
1092.984784493058
 30
0.0
 11
1561.314878518627
 21
1091.757884493057
 31
0.0
  0
ARC
  5
4C3
330
1F
100
AcDbEntity
  8
AM_0N
100
AcDbCircle
 10
1549.383768447641
 20
1095.379784493057
 30
0.0
 40
6.12709481139573
100
AcDbArc
 50
325.5615305952717
 51
25.56153059527558
  0
ARC
  5
4C4
330
1F
100
AcDbEntity
  8
AM_0N
100
AcDbCircle
 10
1547.703983474216
 20
1095.379784493057
 30
0.0
 40
6.12709481139573
100
AcDbArc
 50
154.4384694047244
 51
214.4384694047283
  0
LINE
  5
4C5
330
1F
100
AcDbEntity
  8
AM_0N
100
AcDbLine
 10
1555.943875960928
 20
1096.234784493057
 30
0.0
 11
1555.943875960928
 21
1073.734784493057
 31
0.0
  0
LINE
  5
4C6
330
1F
100
AcDbEntity
  8
AM_0N
100
AcDbLine
 10
1541.143875960929
 20
1096.234784493057
 30
0.0
 11
1541.143875960929
 21
1073.734784493057
 31
0.0
  0
ARC
  5
4C7
330
1F
100
AcDbEntity
  8
AM_0N
100
AcDbCircle
 10
1549.383768447641
 20
1074.589784493057
 30
0.0
 40
6.127094811395725
100
AcDbArc
 50
334.4384694047244
 51
34.43846940472828
  0
ARC
  5
4C8
330
1F
100
AcDbEntity
  8
AM_0N
100
AcDbCircle
 10
1532.613291264492
 20
1084.984784493057
 30
0.0
 40
22.89757199454396
100
AcDbArc
 50
342.3830311596006
 51
17.61696884039934
  0
ARC
  5
4C9
330
1F
100
AcDbEntity
  8
AM_0N
100
AcDbCircle
 10
1564.474460657365
 20
1084.984784493057
 30
0.0
 40
22.8975719945439
100
AcDbArc
 50
162.3830311596007
 51
197.6169688403993
  0
ARC
  5
4CA
330
1F
100
AcDbEntity
  8
AM_0N
100
AcDbCircle
 10
1547.703983474216
 20
1074.589784493057
 30
0.0
 40
6.12709481139573
100
AcDbArc
 50
145.5615305952717
 51
205.5615305952755
  0
LINE
  5
4CB
330
1F
100
AcDbEntity
  8
AM_0N
100
AcDbLine
 10
1554.436991758343
 20
1071.124784493058
 30
0.0
 11
1555.943875960928
 21
1073.734784493057
 31
0.0
  0
LINE
  5
4CC
330
1F
100
AcDbEntity
  8
AM_0N
100
AcDbLine
 10
1542.650760163514
 20
1091.914784493057
 30
0.0
 11
1554.436991758343
 21
1091.914784493057
 31
0.0
  0
LINE
  5
4CD
330
1F
100
AcDbEntity
  8
AM_0N
100
AcDbLine
 10
1542.650760163514
 20
1071.124784493058
 30
0.0
 11
1541.143875960929
 21
1073.734784493057
 31
0.0
  0
LINE
  5
4CE
330
1F
100
AcDbEntity
  8
AM_0N
100
AcDbLine
 10
1542.650760163514
 20
1071.124784493058
 30
0.0
 11
1554.436991758343
 21
1071.124784493058
 31
0.0
  0
LINE
  5
4CF
330
1F
100
AcDbEntity
  8
AM_0N
100
AcDbLine
 10
1542.650760163514
 20
1078.054784493057
 30
0.0
 11
1554.436991758343
 21
1078.054784493057
 31
0.0
  0
LINE
  5
4D0
330
1F
100
AcDbEntity
  8
AM_0N
100
AcDbLine
 10
1554.436991758343
 20
1098.844784493057
 30
0.0
 11
1555.943875960928
 21
1096.234784493057
 31
0.0
  0
LINE
  5
4D1
330
1F
100
AcDbEntity
  8
AM_0N
100
AcDbLine
 10
1542.650760163514
 20
1098.844784493057
 30
0.0
 11
1541.143875960929
 21
1096.234784493057
 31
0.0
  0
LINE
  5
4D2
330
1F
100
AcDbEntity
  8
AM_0N
100
AcDbLine
 10
1542.650760163514
 20
1098.844784493057
 30
0.0
 11
1554.436991758343
 21
1098.844784493057
 31
0.0
  0
LINE
  5
4D3
330
1F
100
AcDbEntity
  8
AM_0N
100
AcDbLine
 10
1517.314878518628
 20
1013.230647775615
 30
0.0
 11
1541.143875960929
 21
1013.230647775616
 31
0.0
  0
LINE
  5
4D4
330
1F
100
AcDbEntity
  8
AM_0N
100
AcDbLine
 10
1555.943875960926
 20
1013.230647775616
 30
0.0
 11
1560.087978518627
 21
1013.230647775616
 31
0.0
  0
LINE
  5
4D5
330
1F
100
AcDbEntity
  8
AM_4N
100
AcDbLine
 10
1517.314878518628
 20
1014.457547775616
 30
0.0
 11
1541.143875960931
 21
1014.457547775616
 31
0.0
  0
LINE
  5
4D6
330
1F
100
AcDbEntity
  8
AM_4N
100
AcDbLine
 10
1555.943875960928
 20
1014.457547775616
 30
0.0
 11
1561.314878518627
 21
1014.457547775616
 31
0.0
  0
LINE
  5
4D7
330
1F
100
AcDbEntity
  8
AM_4N
100
AcDbLine
 10
1517.314878518627
 20
1028.003747775616
 30
0.0
 11
1541.143875960929
 21
1028.003747775616
 31
0.0
  0
LINE
  5
4D8
330
1F
100
AcDbEntity
  8
AM_4N
100
AcDbLine
 10
1555.943875960926
 20
1028.003747775616
 30
0.0
 11
1561.314878518627
 21
1028.003747775615
 31
0.0
  0
LINE
  5
4D9
330
1F
100
AcDbEntity
  8
AM_0N
100
AcDbLine
 10
1517.314878518628
 20
1029.230647775616
 30
0.0
 11
1541.143875960929
 21
1029.230647775616
 31
0.0
  0
LINE
  5
4DA
330
1F
100
AcDbEntity
  8
AM_0N
100
AcDbLine
 10
1555.943875960926
 20
1029.230647775616
 30
0.0
 11
1560.087978518627
 21
1029.230647775616
 31
0.0
  0
LINE
  5
4DB
330
1F
100
AcDbEntity
  8
AM_0N
100
AcDbLine
 10
1515.114878518624
 20
1029.230647775615
 30
0.0
 11
1516.087978518627
 21
1029.230647775615
 31
0.0
  0
LINE
  5
4DC
330
1F
100
AcDbEntity
  8
AM_0N
100
AcDbLine
 10
1515.114878518622
 20
1013.230647775616
 30
0.0
 11
1516.087978518627
 21
1013.230647775615
 31
0.0
  0
ARC
  5
4DD
330
1F
100
AcDbEntity
  8
AM_0N
100
AcDbCircle
 10
1510.024047085361
 20
1021.230647775615
 30
0.0
 40
22.90916856673462
100
AcDbArc
 50
162.3875260144904
 51
197.6124739855095
  0
LINE
  5
4DE
330
1F
100
AcDbEntity
  8
AM_0N
100
AcDbLine
 10
1496.314878518627
 20
1009.980647775615
 30
0.0
 11
1496.314878518627
 21
1032.480647775615
 31
0.0
  0
LINE
  5
4DF
330
1F
100
AcDbEntity
  8
AM_0N
100
AcDbLine
 10
1497.114878518628
 20
1029.230647775615
 30
0.0
 11
1497.114878518626
 21
1013.230647775615
 31
0.0
  0
LINE
  5
4E0
330
1F
100
AcDbEntity
  8
AM_0N
100
AcDbLine
 10
1487.114878518626
 20
1033.230647775615
 30
0.0
 11
1487.114878518628
 21
1009.230647775615
 31
0.0
  0
LINE
  5
4E1
330
1F
100
AcDbEntity
  8
AM_0N
100
AcDbLine
 10
1488.18875001932
 20
1007.370647775615
 30
0.0
 11
1496.314878518627
 21
1007.370647775615
 31
0.0
  0
LINE
  5
4E2
330
1F
100
AcDbEntity
  8
AM_0N
100
AcDbLine
 10
1488.18875001932
 20
1014.298851005891
 30
0.0
 11
1496.314878518628
 21
1014.29885100589
 31
0.0
  0
ARC
  5
4E3
330
1F
100
AcDbEntity
  8
AM_0N
100
AcDbCircle
 10
1493.239074938551
 20
1010.834749390752
 30
0.0
 40
6.12419641992338
100
AcDbArc
 50
145.5531276177356
 51
205.5531276177362
  0
LINE
  5
4E4
330
1F
100
AcDbEntity
  8
AM_0N
100
AcDbLine
 10
1488.18875001932
 20
1007.370647775615
 30
0.0
 11
1487.114878518628
 21
1009.230647775615
 31
0.0
  0
LINE
  5
4E5
330
1F
100
AcDbEntity
  8
AM_0N
100
AcDbLine
 10
1497.114878518626
 20
1013.230647775615
 30
0.0
 11
1497.114878518626
 21
1009.980647775615
 31
0.0
  0
LINE
  5
4E6
330
1F
100
AcDbEntity
  8
AM_0N
100
AcDbLine
 10
1496.314878518627
 20
1009.980647775615
 30
0.0
 11
1497.114878518626
 21
1009.980647775615
 31
0.0
  0
LINE
  5
4E7
330
1F
100
AcDbEntity
  8
AM_0N
100
AcDbLine
 10
1496.314878518627
 20
1007.370647775615
 30
0.0
 11
1496.314878518627
 21
1009.980647775615
 31
0.0
  0
LINE
  5
4E8
330
1F
100
AcDbEntity
  8
AM_0N
100
AcDbLine
 10
1496.314878518627
 20
1032.480647775615
 30
0.0
 11
1496.314878518627
 21
1035.090647775615
 31
0.0
  0
LINE
  5
4E9
330
1F
100
AcDbEntity
  8
AM_0N
100
AcDbLine
 10
1488.18875001932
 20
1035.090647775615
 30
0.0
 11
1487.114878518626
 21
1033.230647775615
 31
0.0
  0
LINE
  5
4EA
330
1F
100
AcDbEntity
  8
AM_0N
100
AcDbLine
 10
1488.188750019318
 20
1028.162444545339
 30
0.0
 11
1496.314878518628
 21
1028.16244454534
 31
0.0
  0
ARC
  5
4EB
330
1F
100
AcDbEntity
  8
AM_0N
100
AcDbCircle
 10
1493.239074938551
 20
1031.626546160477
 30
0.0
 40
6.12419641992338
100
AcDbArc
 50
154.4468723822638
 51
214.4468723822643
  0
LINE
  5
4EC
330
1F
100
AcDbEntity
  8
AM_0N
100
AcDbLine
 10
1496.314878518627
 20
1032.480647775615
 30
0.0
 11
1497.114878518628
 21
1032.480647775615
 31
0.0
  0
LINE
  5
4ED
330
1F
100
AcDbEntity
  8
AM_0N
100
AcDbLine
 10
1497.114878518628
 20
1032.480647775615
 30
0.0
 11
1497.114878518628
 21
1029.230647775615
 31
0.0
  0
LINE
  5
4EE
330
1F
100
AcDbEntity
  8
AM_0N
100
AcDbLine
 10
1488.18875001932
 20
1035.090647775615
 30
0.0
 11
1496.314878518627
 21
1035.090647775615
 31
0.0
  0
LINE
  5
4EF
330
1F
100
AcDbEntity
  8
AM_0N
100
AcDbLine
 10
1517.314878518628
 20
1013.230647775615
 30
0.0
 11
1517.314878518628
 21
1029.230647775616
 31
0.0
  0
LINE
  5
4F0
330
1F
100
AcDbEntity
  8
AM_4N
100
AcDbLine
 10
1517.314878518628
 20
1014.457547775616
 30
0.0
 11
1516.087978518627
 21
1013.230647775615
 31
0.0
  0
LINE
  5
4F1
330
1F
100
AcDbEntity
  8
AM_0N
100
AcDbLine
 10
1517.314878518628
 20
1013.230647775615
 30
0.0
 11
1516.087978518627
 21
1013.230647775615
 31
0.0
  0
LINE
  5
4F2
330
1F
100
AcDbEntity
  8
AM_4N
100
AcDbLine
 10
1517.314878518627
 20
1028.003747775616
 30
0.0
 11
1516.087978518627
 21
1029.230647775615
 31
0.0
  0
LINE
  5
4F3
330
1F
100
AcDbEntity
  8
AM_0N
100
AcDbLine
 10
1517.314878518628
 20
1029.230647775616
 30
0.0
 11
1516.087978518627
 21
1029.230647775615
 31
0.0
  0
LINE
  5
4F4
330
1F
100
AcDbEntity
  8
AM_0N
100
AcDbLine
 10
1560.087978518627
 20
1013.230647775616
 30
0.0
 11
1560.087978518627
 21
1029.230647775616
 31
0.0
  0
LINE
  5
4F5
330
1F
100
AcDbEntity
  8
AM_0N
100
AcDbLine
 10
1561.314878518627
 20
1014.457547775616
 30
0.0
 11
1560.087978518627
 21
1013.230647775616
 31
0.0
  0
LINE
  5
4F6
330
1F
100
AcDbEntity
  8
AM_0N
100
AcDbLine
 10
1561.314878518627
 20
1014.457547775616
 30
0.0
 11
1561.314878518627
 21
1028.003747775615
 31
0.0
  0
LINE
  5
4F7
330
1F
100
AcDbEntity
  8
AM_0N
100
AcDbLine
 10
1560.087978518627
 20
1029.230647775616
 30
0.0
 11
1561.314878518627
 21
1028.003747775615
 31
0.0
  0
ARC
  5
4F8
330
1F
100
AcDbEntity
  8
AM_0N
100
AcDbCircle
 10
1549.383768447641
 20
1031.625647775615
 30
0.0
 40
6.12709481139573
100
AcDbArc
 50
325.5615305952717
 51
25.56153059527558
  0
ARC
  5
4F9
330
1F
100
AcDbEntity
  8
AM_0N
100
AcDbCircle
 10
1547.703983474216
 20
1031.625647775615
 30
0.0
 40
6.12709481139573
100
AcDbArc
 50
154.4384694047244
 51
214.4384694047283
  0
LINE
  5
4FA
330
1F
100
AcDbEntity
  8
AM_0N
100
AcDbLine
 10
1555.943875960928
 20
1032.480647775615
 30
0.0
 11
1555.943875960928
 21
1009.980647775615
 31
0.0
  0
LINE
  5
4FB
330
1F
100
AcDbEntity
  8
AM_0N
100
AcDbLine
 10
1541.143875960929
 20
1032.480647775615
 30
0.0
 11
1541.143875960929
 21
1009.980647775615
 31
0.0
  0
ARC
  5
4FC
330
1F
100
AcDbEntity
  8
AM_0N
100
AcDbCircle
 10
1549.383768447641
 20
1010.835647775615
 30
0.0
 40
6.127094811395725
100
AcDbArc
 50
334.4384694047244
 51
34.43846940472828
  0
ARC
  5
4FD
330
1F
100
AcDbEntity
  8
AM_0N
100
AcDbCircle
 10
1532.613291264492
 20
1021.230647775615
 30
0.0
 40
22.89757199454396
100
AcDbArc
 50
342.3830311596006
 51
17.61696884039934
  0
ARC
  5
4FE
330
1F
100
AcDbEntity
  8
AM_0N
100
AcDbCircle
 10
1564.474460657365
 20
1021.230647775615
 30
0.0
 40
22.8975719945439
100
AcDbArc
 50
162.3830311596007
 51
197.6169688403993
  0
ARC
  5
4FF
330
1F
100
AcDbEntity
  8
AM_0N
100
AcDbCircle
 10
1547.703983474216
 20
1010.835647775615
 30
0.0
 40
6.12709481139573
100
AcDbArc
 50
145.5615305952717
 51
205.5615305952755
  0
LINE
  5
500
330
1F
100
AcDbEntity
  8
AM_0N
100
AcDbLine
 10
1554.436991758343
 20
1007.370647775616
 30
0.0
 11
1555.943875960928
 21
1009.980647775615
 31
0.0
  0
LINE
  5
501
330
1F
100
AcDbEntity
  8
AM_0N
100
AcDbLine
 10
1542.650760163514
 20
1028.160647775615
 30
0.0
 11
1554.436991758343
 21
1028.160647775615
 31
0.0
  0
LINE
  5
502
330
1F
100
AcDbEntity
  8
AM_0N
100
AcDbLine
 10
1542.650760163514
 20
1007.370647775616
 30
0.0
 11
1541.143875960929
 21
1009.980647775615
 31
0.0
  0
LINE
  5
503
330
1F
100
AcDbEntity
  8
AM_0N
100
AcDbLine
 10
1542.650760163514
 20
1007.370647775616
 30
0.0
 11
1554.436991758343
 21
1007.370647775616
 31
0.0
  0
LINE
  5
504
330
1F
100
AcDbEntity
  8
AM_0N
100
AcDbLine
 10
1542.650760163514
 20
1014.300647775615
 30
0.0
 11
1554.436991758343
 21
1014.300647775615
 31
0.0
  0
LINE
  5
505
330
1F
100
AcDbEntity
  8
AM_0N
100
AcDbLine
 10
1554.436991758343
 20
1035.090647775615
 30
0.0
 11
1555.943875960928
 21
1032.480647775615
 31
0.0
  0
LINE
  5
506
330
1F
100
AcDbEntity
  8
AM_0N
100
AcDbLine
 10
1542.650760163514
 20
1035.090647775615
 30
0.0
 11
1541.143875960929
 21
1032.480647775615
 31
0.0
  0
LINE
  5
507
330
1F
100
AcDbEntity
  8
AM_0N
100
AcDbLine
 10
1542.650760163514
 20
1035.090647775615
 30
0.0
 11
1554.436991758343
 21
1035.090647775615
 31
0.0
  0
LINE
  5
508
330
1F
100
AcDbEntity
  8
AM_0
100
AcDbLine
 10
1521.114878518624
 20
1097.230647775615
 30
0.0
 11
1521.114878518624
 21
1092.984784493058
 31
0.0
  0
LINE
  5
509
330
1F
100
AcDbEntity
  8
AM_0
100
AcDbLine
 10
1521.114878518624
 20
1076.984784493057
 30
0.0
 11
1521.114878518624
 21
1029.230647775616
 31
0.0
  0
LINE
  5
50A
330
1F
100
AcDbEntity
  8
0N
100
AcDbLine
 10
1444.114878518628
 20
966.2306477756159
 30
0.0
 11
1444.114878518628
 21
1021.230647775616
 31
0.0
  0
LINE
  5
50B
330
1F
100
AcDbEntity
  8
0
100
AcDbLine
 10
1491.114878518626
 20
1007.370647775616
 30
0.0
 11
1491.11487851863
 21
971.3365110581744
 31
0.0
  0
LINE
  5
50C
330
1F
100
AcDbEntity
  8
0
100
AcDbLine
 10
1519.114878518622
 20
1013.230647775615
 30
0.0
 11
1519.114878518622
 21
965.4765110581744
 31
0.0
  0
LINE
  5
50D
330
1F
100
AcDbEntity
  8
0
100
AcDbLine
 10
1519.114878518624
 20
949.4765110581738
 30
0.0
 11
1519.114878518624
 21
942.2306477756158
 31
0.0
  0
LINE
  5
50E
330
1F
100
AcDbEntity
  8
7
100
AcDbLine
 10
1436.85267295412
 20
1021.230647775615
 30
0.0
 11
1528.020892841077
 21
1021.230647775615
 31
0.0
  0
LINE
  5
50F
330
1F
100
AcDbEntity
  8
0
100
AcDbLine
 10
1515.114878518628
 20
942.2306477756158
 30
0.0
 11
1519.114878518624
 21
942.2306477756158
 31
0.0
  0
LINE
  5
510
330
1F
100
AcDbEntity
  8
0
100
AcDbLine
 10
1515.114878518624
 20
911.2306477756158
 30
0.0
 11
1515.114878518624
 21
1021.230647775615
 31
0.0
  0
LINE
  5
511
330
1F
100
AcDbEntity
  8
0
100
AcDbLine
 10
1497.114878518624
 20
911.2306477756158
 30
0.0
 11
1497.114878518631
 21
1021.230647775615
 31
0.0
  0
LINE
  5
512
330
1F
100
AcDbEntity
  8
0
100
AcDbLine
 10
1515.114878518624
 20
911.2306477756158
 30
0.0
 11
1497.114878518624
 21
911.2306477756158
 31
0.0
  0
LINE
  5
513
102
{ACAD_REACTORS
330
581
102
}
330
1F
100
AcDbEntity
  8
0N
100
AcDbLine
 10
1444.114878518628
 20
966.2306477756159
 30
0.0
 11
1487.114878518628
 21
966.2306477756153
 31
0.0
  0
LINE
  5
514
330
1F
100
AcDbEntity
  8
AM_0N
100
AcDbLine
 10
1517.314878518628
 20
939.2306477756154
 30
0.0
 11
1541.143875960929
 21
939.230647775615
 31
0.0
  0
LINE
  5
515
330
1F
100
AcDbEntity
  8
AM_0N
100
AcDbLine
 10
1555.943875960926
 20
939.2306477756147
 30
0.0
 11
1560.087978518627
 21
939.2306477756148
 31
0.0
  0
LINE
  5
516
330
1F
100
AcDbEntity
  8
AM_4N
100
AcDbLine
 10
1517.314878518628
 20
938.0037477756152
 30
0.0
 11
1541.143875960931
 21
938.0037477756152
 31
0.0
  0
LINE
  5
517
330
1F
100
AcDbEntity
  8
AM_4N
100
AcDbLine
 10
1555.943875960928
 20
938.0037477756152
 30
0.0
 11
1561.314878518627
 21
938.0037477756152
 31
0.0
  0
LINE
  5
518
330
1F
100
AcDbEntity
  8
AM_4N
100
AcDbLine
 10
1517.314878518627
 20
924.457547775615
 30
0.0
 11
1541.143875960929
 21
924.4575477756148
 31
0.0
  0
LINE
  5
519
330
1F
100
AcDbEntity
  8
AM_4N
100
AcDbLine
 10
1555.943875960926
 20
924.457547775615
 30
0.0
 11
1561.314878518627
 21
924.4575477756152
 31
0.0
  0
LINE
  5
51A
330
1F
100
AcDbEntity
  8
AM_0N
100
AcDbLine
 10
1517.314878518628
 20
923.2306477756152
 30
0.0
 11
1541.143875960929
 21
923.2306477756148
 31
0.0
  0
LINE
  5
51B
330
1F
100
AcDbEntity
  8
AM_0N
100
AcDbLine
 10
1555.943875960926
 20
923.2306477756152
 30
0.0
 11
1560.087978518627
 21
923.2306477756152
 31
0.0
  0
LINE
  5
51C
330
1F
100
AcDbEntity
  8
AM_0N
100
AcDbLine
 10
1515.114878518624
 20
923.2306477756155
 30
0.0
 11
1516.087978518627
 21
923.2306477756154
 31
0.0
  0
LINE
  5
51D
330
1F
100
AcDbEntity
  8
AM_0N
100
AcDbLine
 10
1515.114878518622
 20
939.230647775615
 30
0.0
 11
1516.087978518627
 21
939.2306477756154
 31
0.0
  0
ARC
  5
51E
330
1F
100
AcDbEntity
  8
AM_0N
100
AcDbCircle
 10
1510.024047085361
 20
931.2306477756157
 30
0.0
 40
22.90916856673462
100
AcDbArc
 50
162.3875260144741
 51
197.6124739855259
  0
LINE
  5
51F
330
1F
100
AcDbEntity
  8
AM_0N
100
AcDbLine
 10
1496.314878518627
 20
942.4806477756158
 30
0.0
 11
1496.314878518627
 21
919.9806477756155
 31
0.0
  0
LINE
  5
520
330
1F
100
AcDbEntity
  8
AM_0N
100
AcDbLine
 10
1497.114878518628
 20
923.2306477756154
 30
0.0
 11
1497.114878518626
 21
939.2306477756161
 31
0.0
  0
LINE
  5
521
330
1F
100
AcDbEntity
  8
AM_0N
100
AcDbLine
 10
1487.114878518626
 20
919.2306477756156
 30
0.0
 11
1487.114878518628
 21
943.2306477756158
 31
0.0
  0
LINE
  5
522
330
1F
100
AcDbEntity
  8
AM_0N
100
AcDbLine
 10
1488.18875001932
 20
938.16244454534
 30
0.0
 11
1496.314878518628
 21
938.1624445453404
 31
0.0
  0
ARC
  5
523
330
1F
100
AcDbEntity
  8
AM_0N
100
AcDbCircle
 10
1493.239074938551
 20
941.6265461604785
 30
0.0
 40
6.12419641992338
100
AcDbArc
 50
154.4468723822638
 51
214.4468723822536
  0
LINE
  5
524
330
1F
100
AcDbEntity
  8
AM_0N
100
AcDbLine
 10
1487.763203404
 20
944.3535794168948
 30
0.0
 11
1487.114878518628
 21
943.2306477756158
 31
0.0
  0
LINE
  5
525
330
1F
100
AcDbEntity
  8
AM_0N
100
AcDbLine
 10
1497.114878518626
 20
939.2306477756161
 30
0.0
 11
1497.114878518626
 21
942.480647775616
 31
0.0
  0
LINE
  5
526
330
1F
100
AcDbEntity
  8
AM_0N
100
AcDbLine
 10
1496.314878518627
 20
942.4806477756158
 30
0.0
 11
1497.114878518626
 21
942.480647775616
 31
0.0
  0
LINE
  5
527
330
1F
100
AcDbEntity
  8
AM_0N
100
AcDbLine
 10
1496.314878518627
 20
945.0906477756157
 30
0.0
 11
1496.314878518627
 21
942.4806477756158
 31
0.0
  0
LINE
  5
528
330
1F
100
AcDbEntity
  8
AM_0N
100
AcDbLine
 10
1496.314878518627
 20
919.9806477756155
 30
0.0
 11
1496.314878518627
 21
917.3706477756159
 31
0.0
  0
LINE
  5
529
330
1F
100
AcDbEntity
  8
AM_0N
100
AcDbLine
 10
1488.18875001932
 20
917.3706477756159
 30
0.0
 11
1487.114878518626
 21
919.2306477756156
 31
0.0
  0
LINE
  5
52A
330
1F
100
AcDbEntity
  8
AM_0N
100
AcDbLine
 10
1488.188750019318
 20
924.2988510058914
 30
0.0
 11
1496.314878518628
 21
924.2988510058911
 31
0.0
  0
ARC
  5
52B
330
1F
100
AcDbEntity
  8
AM_0N
100
AcDbCircle
 10
1493.239074938551
 20
920.8347493907533
 30
0.0
 40
6.12419641992338
100
AcDbArc
 50
145.5531276177229
 51
205.5531276177362
  0
LINE
  5
52C
330
1F
100
AcDbEntity
  8
AM_0N
100
AcDbLine
 10
1496.314878518627
 20
919.9806477756155
 30
0.0
 11
1497.114878518628
 21
919.9806477756155
 31
0.0
  0
LINE
  5
52D
330
1F
100
AcDbEntity
  8
AM_0N
100
AcDbLine
 10
1497.114878518628
 20
919.9806477756155
 30
0.0
 11
1497.114878518628
 21
923.2306477756154
 31
0.0
  0
LINE
  5
52E
330
1F
100
AcDbEntity
  8
AM_0N
100
AcDbLine
 10
1488.18875001932
 20
917.3706477756159
 30
0.0
 11
1496.314878518627
 21
917.3706477756159
 31
0.0
  0
LINE
  5
52F
330
1F
100
AcDbEntity
  8
AM_0N
100
AcDbLine
 10
1517.314878518628
 20
939.2306477756154
 30
0.0
 11
1517.314878518628
 21
923.2306477756152
 31
0.0
  0
LINE
  5
530
330
1F
100
AcDbEntity
  8
AM_4N
100
AcDbLine
 10
1517.314878518628
 20
938.0037477756152
 30
0.0
 11
1516.087978518627
 21
939.2306477756154
 31
0.0
  0
LINE
  5
531
330
1F
100
AcDbEntity
  8
AM_0N
100
AcDbLine
 10
1517.314878518628
 20
939.2306477756154
 30
0.0
 11
1516.087978518627
 21
939.2306477756154
 31
0.0
  0
LINE
  5
532
330
1F
100
AcDbEntity
  8
AM_4N
100
AcDbLine
 10
1517.314878518627
 20
924.457547775615
 30
0.0
 11
1516.087978518627
 21
923.2306477756154
 31
0.0
  0
LINE
  5
533
330
1F
100
AcDbEntity
  8
AM_0N
100
AcDbLine
 10
1517.314878518628
 20
923.2306477756152
 30
0.0
 11
1516.087978518627
 21
923.2306477756154
 31
0.0
  0
LINE
  5
534
330
1F
100
AcDbEntity
  8
AM_0N
100
AcDbLine
 10
1560.087978518627
 20
939.2306477756148
 30
0.0
 11
1560.087978518627
 21
923.2306477756152
 31
0.0
  0
LINE
  5
535
330
1F
100
AcDbEntity
  8
AM_0N
100
AcDbLine
 10
1561.314878518627
 20
938.0037477756152
 30
0.0
 11
1560.087978518627
 21
939.2306477756148
 31
0.0
  0
LINE
  5
536
330
1F
100
AcDbEntity
  8
AM_0N
100
AcDbLine
 10
1561.314878518627
 20
938.0037477756152
 30
0.0
 11
1561.314878518627
 21
924.4575477756152
 31
0.0
  0
LINE
  5
537
330
1F
100
AcDbEntity
  8
AM_0N
100
AcDbLine
 10
1560.087978518627
 20
923.2306477756152
 30
0.0
 11
1561.314878518627
 21
924.4575477756152
 31
0.0
  0
ARC
  5
538
330
1F
100
AcDbEntity
  8
AM_0N
100
AcDbCircle
 10
1549.383768447641
 20
920.8356477756153
 30
0.0
 40
6.12709481139573
100
AcDbArc
 50
334.4384694047244
 51
34.43846940471554
  0
ARC
  5
539
330
1F
100
AcDbEntity
  8
AM_0N
100
AcDbCircle
 10
1547.703983474216
 20
920.8356477756153
 30
0.0
 40
6.12709481139573
100
AcDbArc
 50
145.5615305952844
 51
205.5615305952755
  0
LINE
  5
53A
330
1F
100
AcDbEntity
  8
AM_0N
100
AcDbLine
 10
1555.943875960928
 20
919.9806477756153
 30
0.0
 11
1555.943875960928
 21
942.4806477756153
 31
0.0
  0
LINE
  5
53B
330
1F
100
AcDbEntity
  8
AM_0N
100
AcDbLine
 10
1541.143875960929
 20
919.9806477756153
 30
0.0
 11
1541.143875960929
 21
942.4806477756153
 31
0.0
  0
ARC
  5
53C
330
1F
100
AcDbEntity
  8
AM_0N
100
AcDbCircle
 10
1549.383768447641
 20
941.6256477756153
 30
0.0
 40
6.127094811395725
100
AcDbArc
 50
325.5615305952844
 51
25.56153059527558
  0
ARC
  5
53D
330
1F
100
AcDbEntity
  8
AM_0N
100
AcDbCircle
 10
1532.613291264492
 20
931.2306477756154
 30
0.0
 40
22.89757199454396
100
AcDbArc
 50
342.3830311596108
 51
17.61696884038919
  0
ARC
  5
53E
330
1F
100
AcDbEntity
  8
AM_0N
100
AcDbCircle
 10
1564.474460657365
 20
931.2306477756154
 30
0.0
 40
22.8975719945439
100
AcDbArc
 50
162.3830311596108
 51
197.6169688403892
  0
ARC
  5
53F
330
1F
100
AcDbEntity
  8
AM_0N
100
AcDbCircle
 10
1547.703983474216
 20
941.6256477756153
 30
0.0
 40
6.12709481139573
100
AcDbArc
 50
154.4384694047244
 51
214.4384694047155
  0
LINE
  5
540
330
1F
100
AcDbEntity
  8
AM_0N
100
AcDbLine
 10
1554.862538373662
 20
944.3535794168967
 30
0.0
 11
1555.943875960928
 21
942.4806477756153
 31
0.0
  0
LINE
  5
541
330
1F
100
AcDbEntity
  8
AM_0N
100
AcDbLine
 10
1542.650760163514
 20
924.3006477756152
 30
0.0
 11
1554.436991758343
 21
924.3006477756152
 31
0.0
  0
LINE
  5
542
330
1F
100
AcDbEntity
  8
AM_0N
100
AcDbLine
 10
1542.225213548195
 20
944.3535794168949
 30
0.0
 11
1541.143875960929
 21
942.4806477756153
 31
0.0
  0
LINE
  5
543
330
1F
100
AcDbEntity
  8
AM_0N
100
AcDbLine
 10
1542.650760163514
 20
938.1606477756154
 30
0.0
 11
1554.436991758343
 21
938.1606477756154
 31
0.0
  0
LINE
  5
544
330
1F
100
AcDbEntity
  8
AM_0N
100
AcDbLine
 10
1554.436991758343
 20
917.3706477756153
 30
0.0
 11
1555.943875960928
 21
919.9806477756153
 31
0.0
  0
LINE
  5
545
330
1F
100
AcDbEntity
  8
AM_0N
100
AcDbLine
 10
1542.650760163514
 20
917.3706477756153
 30
0.0
 11
1541.143875960929
 21
919.9806477756153
 31
0.0
  0
LINE
  5
546
330
1F
100
AcDbEntity
  8
AM_0N
100
AcDbLine
 10
1542.650760163514
 20
917.3706477756153
 30
0.0
 11
1554.436991758343
 21
917.3706477756153
 31
0.0
  0
LINE
  5
547
330
1F
100
AcDbEntity
  8
AM_0N
100
AcDbLine
 10
1517.314878518628
 20
965.4765110581738
 30
0.0
 11
1541.143875960929
 21
965.4765110581736
 31
0.0
  0
LINE
  5
548
330
1F
100
AcDbEntity
  8
AM_0N
100
AcDbLine
 10
1555.943875960926
 20
965.4765110581731
 30
0.0
 11
1560.087978518627
 21
965.4765110581733
 31
0.0
  0
LINE
  5
549
330
1F
100
AcDbEntity
  8
AM_4N
100
AcDbLine
 10
1517.314878518628
 20
964.2496110581737
 30
0.0
 11
1541.143875960931
 21
964.2496110581737
 31
0.0
  0
LINE
  5
54A
330
1F
100
AcDbEntity
  8
AM_4N
100
AcDbLine
 10
1555.943875960928
 20
964.2496110581737
 30
0.0
 11
1561.314878518627
 21
964.2496110581737
 31
0.0
  0
LINE
  5
54B
330
1F
100
AcDbEntity
  8
AM_4N
100
AcDbLine
 10
1517.314878518627
 20
950.7034110581734
 30
0.0
 11
1541.143875960929
 21
950.7034110581733
 31
0.0
  0
LINE
  5
54C
330
1F
100
AcDbEntity
  8
AM_4N
100
AcDbLine
 10
1555.943875960926
 20
950.7034110581734
 30
0.0
 11
1561.314878518627
 21
950.7034110581738
 31
0.0
  0
LINE
  5
54D
330
1F
100
AcDbEntity
  8
AM_0N
100
AcDbLine
 10
1517.314878518628
 20
949.4765110581736
 30
0.0
 11
1541.143875960929
 21
949.4765110581735
 31
0.0
  0
LINE
  5
54E
330
1F
100
AcDbEntity
  8
AM_0N
100
AcDbLine
 10
1555.943875960926
 20
949.4765110581736
 30
0.0
 11
1560.087978518627
 21
949.4765110581736
 31
0.0
  0
LINE
  5
54F
330
1F
100
AcDbEntity
  8
AM_0N
100
AcDbLine
 10
1515.114878518624
 20
949.476511058174
 30
0.0
 11
1516.087978518627
 21
949.4765110581738
 31
0.0
  0
LINE
  5
550
330
1F
100
AcDbEntity
  8
AM_0N
100
AcDbLine
 10
1515.114878518622
 20
965.4765110581736
 30
0.0
 11
1516.087978518627
 21
965.4765110581738
 31
0.0
  0
ARC
  5
551
330
1F
100
AcDbEntity
  8
AM_0N
100
AcDbCircle
 10
1510.024047085361
 20
957.4765110581743
 30
0.0
 40
22.90916856673462
100
AcDbArc
 50
162.3875260144741
 51
197.6124739855259
  0
LINE
  5
552
330
1F
100
AcDbEntity
  8
AM_0N
100
AcDbLine
 10
1496.314878518627
 20
968.7265110581742
 30
0.0
 11
1496.314878518627
 21
946.2265110581741
 31
0.0
  0
LINE
  5
553
330
1F
100
AcDbEntity
  8
AM_0N
100
AcDbLine
 10
1497.114878518628
 20
949.4765110581738
 30
0.0
 11
1497.114878518626
 21
965.4765110581745
 31
0.0
  0
LINE
  5
554
330
1F
100
AcDbEntity
  8
AM_0N
100
AcDbLine
 10
1487.114878518626
 20
945.4765110581741
 30
0.0
 11
1487.114878518628
 21
969.4765110581743
 31
0.0
  0
LINE
  5
555
330
1F
100
AcDbEntity
  8
AM_0N
100
AcDbLine
 10
1488.18875001932
 20
971.3365110581742
 30
0.0
 11
1496.314878518627
 21
971.3365110581742
 31
0.0
  0
LINE
  5
556
330
1F
100
AcDbEntity
  8
AM_0N
100
AcDbLine
 10
1488.18875001932
 20
964.4083078278987
 30
0.0
 11
1496.314878518628
 21
964.4083078278988
 31
0.0
  0
ARC
  5
557
330
1F
100
AcDbEntity
  8
AM_0N
100
AcDbCircle
 10
1493.239074938551
 20
967.872409443037
 30
0.0
 40
6.12419641992338
100
AcDbArc
 50
154.4468723822638
 51
214.4468723822536
  0
LINE
  5
558
330
1F
100
AcDbEntity
  8
AM_0N
100
AcDbLine
 10
1488.18875001932
 20
971.3365110581742
 30
0.0
 11
1487.114878518628
 21
969.4765110581743
 31
0.0
  0
LINE
  5
559
330
1F
100
AcDbEntity
  8
AM_0N
100
AcDbLine
 10
1497.114878518626
 20
965.4765110581745
 30
0.0
 11
1497.114878518626
 21
968.7265110581746
 31
0.0
  0
LINE
  5
55A
330
1F
100
AcDbEntity
  8
AM_0N
100
AcDbLine
 10
1496.314878518627
 20
968.7265110581742
 30
0.0
 11
1497.114878518626
 21
968.7265110581746
 31
0.0
  0
LINE
  5
55B
330
1F
100
AcDbEntity
  8
AM_0N
100
AcDbLine
 10
1496.314878518627
 20
971.3365110581742
 30
0.0
 11
1496.314878518627
 21
968.7265110581742
 31
0.0
  0
LINE
  5
55C
330
1F
100
AcDbEntity
  8
AM_0N
100
AcDbLine
 10
1496.314878518627
 20
946.2265110581741
 30
0.0
 11
1496.314878518627
 21
943.6165110581743
 31
0.0
  0
LINE
  5
55D
330
1F
100
AcDbEntity
  8
AM_0N
100
AcDbLine
 10
1488.18875001932
 20
943.6165110581743
 30
0.0
 11
1487.114878518626
 21
945.4765110581741
 31
0.0
  0
LINE
  5
55E
330
1F
100
AcDbEntity
  8
AM_0N
100
AcDbLine
 10
1488.188750019318
 20
950.54471428845
 30
0.0
 11
1496.314878518628
 21
950.5447142884495
 31
0.0
  0
ARC
  5
55F
330
1F
100
AcDbEntity
  8
AM_0N
100
AcDbCircle
 10
1493.239074938551
 20
947.0806126733119
 30
0.0
 40
6.12419641992338
100
AcDbArc
 50
145.5531276177229
 51
205.5531276177362
  0
LINE
  5
560
330
1F
100
AcDbEntity
  8
AM_0N
100
AcDbLine
 10
1496.314878518627
 20
946.2265110581741
 30
0.0
 11
1497.114878518628
 21
946.2265110581741
 31
0.0
  0
LINE
  5
561
330
1F
100
AcDbEntity
  8
AM_0N
100
AcDbLine
 10
1497.114878518628
 20
946.2265110581741
 30
0.0
 11
1497.114878518628
 21
949.4765110581738
 31
0.0
  0
LINE
  5
562
330
1F
100
AcDbEntity
  8
AM_0N
100
AcDbLine
 10
1488.18875001932
 20
943.6165110581743
 30
0.0
 11
1496.314878518627
 21
943.6165110581743
 31
0.0
  0
LINE
  5
563
330
1F
100
AcDbEntity
  8
AM_0N
100
AcDbLine
 10
1517.314878518628
 20
965.4765110581738
 30
0.0
 11
1517.314878518628
 21
949.4765110581736
 31
0.0
  0
LINE
  5
564
330
1F
100
AcDbEntity
  8
AM_4N
100
AcDbLine
 10
1517.314878518628
 20
964.2496110581737
 30
0.0
 11
1516.087978518627
 21
965.4765110581738
 31
0.0
  0
LINE
  5
565
330
1F
100
AcDbEntity
  8
AM_0N
100
AcDbLine
 10
1517.314878518628
 20
965.4765110581738
 30
0.0
 11
1516.087978518627
 21
965.4765110581738
 31
0.0
  0
LINE
  5
566
330
1F
100
AcDbEntity
  8
AM_4N
100
AcDbLine
 10
1517.314878518627
 20
950.7034110581734
 30
0.0
 11
1516.087978518627
 21
949.4765110581738
 31
0.0
  0
LINE
  5
567
330
1F
100
AcDbEntity
  8
AM_0N
100
AcDbLine
 10
1517.314878518628
 20
949.4765110581736
 30
0.0
 11
1516.087978518627
 21
949.4765110581738
 31
0.0
  0
LINE
  5
568
330
1F
100
AcDbEntity
  8
AM_0N
100
AcDbLine
 10
1560.087978518627
 20
965.4765110581733
 30
0.0
 11
1560.087978518627
 21
949.4765110581736
 31
0.0
  0
LINE
  5
569
330
1F
100
AcDbEntity
  8
AM_0N
100
AcDbLine
 10
1561.314878518627
 20
964.2496110581737
 30
0.0
 11
1560.087978518627
 21
965.4765110581733
 31
0.0
  0
LINE
  5
56A
330
1F
100
AcDbEntity
  8
AM_0N
100
AcDbLine
 10
1561.314878518627
 20
964.2496110581737
 30
0.0
 11
1561.314878518627
 21
950.7034110581738
 31
0.0
  0
LINE
  5
56B
330
1F
100
AcDbEntity
  8
AM_0N
100
AcDbLine
 10
1560.087978518627
 20
949.4765110581736
 30
0.0
 11
1561.314878518627
 21
950.7034110581738
 31
0.0
  0
ARC
  5
56C
330
1F
100
AcDbEntity
  8
AM_0N
100
AcDbCircle
 10
1549.383768447641
 20
947.0815110581739
 30
0.0
 40
6.12709481139573
100
AcDbArc
 50
334.4384694047244
 51
34.43846940471554
  0
ARC
  5
56D
330
1F
100
AcDbEntity
  8
AM_0N
100
AcDbCircle
 10
1547.703983474216
 20
947.0815110581739
 30
0.0
 40
6.12709481139573
100
AcDbArc
 50
145.5615305952844
 51
205.5615305952755
  0
LINE
  5
56E
330
1F
100
AcDbEntity
  8
AM_0N
100
AcDbLine
 10
1555.943875960928
 20
946.2265110581737
 30
0.0
 11
1555.943875960928
 21
968.7265110581739
 31
0.0
  0
LINE
  5
56F
330
1F
100
AcDbEntity
  8
AM_0N
100
AcDbLine
 10
1541.143875960929
 20
946.2265110581737
 30
0.0
 11
1541.143875960929
 21
968.7265110581739
 31
0.0
  0
ARC
  5
570
330
1F
100
AcDbEntity
  8
AM_0N
100
AcDbCircle
 10
1549.383768447641
 20
967.8715110581737
 30
0.0
 40
6.127094811395725
100
AcDbArc
 50
325.5615305952844
 51
25.56153059527558
  0
ARC
  5
571
330
1F
100
AcDbEntity
  8
AM_0N
100
AcDbCircle
 10
1532.613291264492
 20
957.4765110581738
 30
0.0
 40
22.89757199454396
100
AcDbArc
 50
342.3830311596108
 51
17.61696884038919
  0
ARC
  5
572
330
1F
100
AcDbEntity
  8
AM_0N
100
AcDbCircle
 10
1564.474460657365
 20
957.4765110581738
 30
0.0
 40
22.8975719945439
100
AcDbArc
 50
162.3830311596108
 51
197.6169688403892
  0
ARC
  5
573
330
1F
100
AcDbEntity
  8
AM_0N
100
AcDbCircle
 10
1547.703983474216
 20
967.8715110581737
 30
0.0
 40
6.12709481139573
100
AcDbArc
 50
154.4384694047244
 51
214.4384694047155
  0
LINE
  5
574
330
1F
100
AcDbEntity
  8
AM_0N
100
AcDbLine
 10
1554.436991758343
 20
971.3365110581737
 30
0.0
 11
1555.943875960928
 21
968.7265110581739
 31
0.0
  0
LINE
  5
575
330
1F
100
AcDbEntity
  8
AM_0N
100
AcDbLine
 10
1542.650760163514
 20
950.5465110581738
 30
0.0
 11
1554.436991758343
 21
950.5465110581738
 31
0.0
  0
LINE
  5
576
330
1F
100
AcDbEntity
  8
AM_0N
100
AcDbLine
 10
1542.650760163514
 20
971.3365110581737
 30
0.0
 11
1541.143875960929
 21
968.7265110581739
 31
0.0
  0
LINE
  5
577
330
1F
100
AcDbEntity
  8
AM_0N
100
AcDbLine
 10
1542.650760163514
 20
971.3365110581737
 30
0.0
 11
1554.436991758343
 21
971.3365110581737
 31
0.0
  0
LINE
  5
578
330
1F
100
AcDbEntity
  8
AM_0N
100
AcDbLine
 10
1542.650760163514
 20
964.4065110581738
 30
0.0
 11
1554.436991758343
 21
964.4065110581738
 31
0.0
  0
LINE
  5
579
330
1F
100
AcDbEntity
  8
AM_0N
100
AcDbLine
 10
1554.436991758343
 20
943.616511058174
 30
0.0
 11
1555.943875960928
 21
946.2265110581737
 31
0.0
  0
LINE
  5
57A
330
1F
100
AcDbEntity
  8
AM_0N
100
AcDbLine
 10
1542.650760163514
 20
943.616511058174
 30
0.0
 11
1541.143875960929
 21
946.2265110581737
 31
0.0
  0
LINE
  5
57B
330
1F
100
AcDbEntity
  8
AM_0N
100
AcDbLine
 10
1542.650760163514
 20
943.616511058174
 30
0.0
 11
1554.436991758343
 21
943.616511058174
 31
0.0
  0
LINE
  5
57C
102
{ACAD_REACTORS
330
581
102
}
330
1F
100
AcDbEntity
  8
AM_0
100
AcDbLine
 10
1519.114878518624
 20
945.2306477756158
 30
0.0
 11
1521.114878518624
 21
945.2306477756158
 31
0.0
  0
LINE
  5
57D
330
1F
100
AcDbEntity
  8
AM_0
100
AcDbLine
 10
1521.114878518624
 20
945.2306477756158
 30
0.0
 11
1521.114878518624
 21
949.4765110581736
 31
0.0
  0
LINE
  5
57E
330
1F
100
AcDbEntity
  8
AM_0
100
AcDbLine
 10
1521.114878518624
 20
965.4765110581738
 30
0.0
 11
1521.114878518624
 21
1013.230647775615
 31
0.0
  0
DIMENSION
  5
57F
102
{ACAD_XDICTIONARY
360
580
102
}
102
{ACAD_REACTORS
330
581
102
}
330
1F
100
AcDbEntity
  8
AM_5
100
AcDbDimension
  2
*D7
 10
1519.114878518624
 20
844.6524677281503
 30
0.0
 11
1481.614878518626
 21
844.6524677281503
 31
0.0
 70
   160
 71
     5
 42
74.99999999999636
  3
GEN-ISO$0
100
AcDbAlignedDimension
 13
1444.114878518628
 23
966.2306477756159
 33
0.0
 14
1519.114878518624
 24
945.2306477756158
 34
0.0
100
AcDbRotatedDimension
1001
ACAD
1000
DSTYLE
1002
{
1070
   271
1070
     1
1002
}
  0
LINE
  5
582
330
1F
100
AcDbEntity
  8
AM_0
100
AcDbLine
 10
1519.114878518624
 20
1097.230647775615
 30
0.0
 11
1521.114878518624
 21
1097.230647775615
 31
0.0
  0
ENDSEC
  0
SECTION
  2
OBJECTS
  0
DICTIONARY
  5
C
330
0
100
AcDbDictionary
281
     1
  3
ACAD_COLOR
350
D7
  3
ACAD_GROUP
350
D
  3
ACAD_LAYOUT
350
1A
  3
ACAD_MATERIAL
350
D6
  3
ACAD_MLINESTYLE
350
17
  3
ACAD_PLOTSETTINGS
350
19
  3
ACAD_PLOTSTYLENAME
350
E
  3
ACAD_TABLESTYLE
350
133
  3
ACDBHEADERROUNDTRIPXREC
350
5B0
  3
AcDbVariableDictionary
350
34
  3
AcmDictionary
350
49
  3
AMG
350
2B
  3
AMGSNAPSETTINGS
350
2C4
  3
DWGPROPS
350
5AF
  0
DICTIONARY
  5
C0
330
2
100
AcDbDictionary
280
     1
281
     1
  3
ACAD_LAYERSTATES
360
335
  3
AMLAYER_GROUPCOLORS
360
C1
  0
DICTIONARY
  5
83
330
1F
100
AcDbDictionary
280
     1
281
     1
  0
DICTIONARY
  5
580
330
57F
100
AcDbDictionary
280
     1
281
     1
  3
ACAD_DIMASSOC
360
581
  0
DICTIONARY
  5
D7
102
{ACAD_REACTORS
330
C
102
}
330
C
100
AcDbDictionary
281
     1
  0
DICTIONARY
  5
D
102
{ACAD_REACTORS
330
C
102
}
330
C
100
AcDbDictionary
281
     1
  0
DICTIONARY
  5
1A
102
{ACAD_REACTORS
330
C
102
}
330
C
100
AcDbDictionary
281
     1
  3
Layout1
350
1E
  3
Layout2
350
26
  3
Model
350
22
  0
DICTIONARY
  5
D6
102
{ACAD_REACTORS
330
C
102
}
330
C
100
AcDbDictionary
281
     1
  0
DICTIONARY
  5
17
102
{ACAD_REACTORS
330
C
102
}
330
C
100
AcDbDictionary
281
     1
  3
Standard
350
18
  0
DICTIONARY
  5
19
102
{ACAD_REACTORS
330
C
102
}
330
C
100
AcDbDictionary
281
     1
  0
ACDBDICTIONARYWDFLT
  5
E
102
{ACAD_REACTORS
330
C
102
}
330
C
100
AcDbDictionary
281
     1
  3
Normal
350
F
100
AcDbDictionaryWithDefault
340
F
  0
DICTIONARY
  5
133
102
{ACAD_REACTORS
330
C
102
}
330
C
100
AcDbDictionary
281
     1
  3
Standard
350
134
  0
DICTIONARY
  5
5B0
102
{ACAD_REACTORS
330
C
102
}
330
C
100
AcDbDictionary
281
     1
  0
DICTIONARY
  5
34
102
{ACAD_REACTORS
330
C
102
}
330
C
100
AcDbDictionary
281
     1
  3
CTABLESTYLE
350
152
  3
DIMASSOC
350
AD
  3
INDEXCTL
350
35
  3
PROJECTNAME
350
5AD
  0
DICTIONARY
  5
49
102
{ACAD_REACTORS
330
C
102
}
330
C
100
AcDbDictionary
281
     1
  3
AcmBOM
350
2CB
  3
AcmStdDictionary
350
4A
  3
AMDTSECTSYM_ARROWCOLOR
350
13D
  0
DICTIONARY
  5
2B
102
{ACAD_REACTORS
330
C
102
}
330
C
100
AcDbDictionary
281
     1
  0
DICTIONARY
  5
2C4
102
{ACAD_REACTORS
330
C
102
}
330
C
100
AcDbDictionary
281
     1
  0
XRECORD
  5
5AF
102
{ACAD_REACTORS
330
C
102
}
330
C
100
AcDbXrecord
280
     1
  1
DWGPROPS COOKIE
  2

  3

  4

  6

  7

  8

  9

300
AmdtFileType=84
301
=
302
=
303
=
304
=
305
=
306
=
307
=
308
=
309
=
 40
0.0003399884259259
 41
2454053.373994502
 42
2454053.374334306
  1

 90
        1
  0
DICTIONARY
  5
335
102
{ACAD_REACTORS
330
C0
102
}
330
C0
100
AcDbDictionary
281
     1
  0
DICTIONARY
  5
C1
102
{ACAD_REACTORS
330
C0
102
}
330
C0
100
AcDbDictionary
280
     1
281
     1
  0
DIMASSOC
  5
581
102
{ACAD_REACTORS
330
580
102
}
330
580
100
AcDbDimAssoc
330
57F
 90
        3
 70
     0
 71
     0
  1
AcDbOsnapPointRef
 72
    13
331
513
 73
     0
 91
        0
 40
0.0
 10
0.0
 20
0.0
 30
2.000000000000000E+50
 75
     0
  1
AcDbOsnapPointRef
 72
    13
331
57C
 73
     0
 91
        0
 40
0.0
 10
0.0
 20
0.0
 30
2.000000000000000E+50
 75
     0
  0
LAYOUT
  5
1E
102
{ACAD_XDICTIONARY
360
5B1
102
}
102
{ACAD_REACTORS
330
1A
102
}
330
1A
100
AcDbPlotSettings
  1

  2
none_device
  4
Letter_(8.50_x_11.00_Inches)
  6

 40
6.349999904632568
 41
6.349999904632568
 42
6.350006103515625
 43
6.350006103515625
 44
215.8999938964844
 45
279.3999938964844
 46
0.0
 47
0.0
 48
0.0
 49
0.0
140
0.0
141
0.0
142
1.0
143
1.0
 70
 15024
 72
     1
 73
     1
 74
     5
  7

 75
    16
147
1.0
148
0.0
149
0.0
100
AcDbLayout
  1
Layout1
 70
     1
 71
     1
 10
0.0
 20
0.0
 11
420.0
 21
297.0
 12
0.0
 22
0.0
 32
0.0
 14
1.000000000000000E+20
 24
1.000000000000000E+20
 34
1.000000000000000E+20
 15
-1.000000000000000E+20
 25
-1.000000000000000E+20
 35
-1.000000000000000E+20
146
0.0
 13
0.0
 23
0.0
 33
0.0
 16
1.0
 26
0.0
 36
0.0
 17
0.0
 27
1.0
 37
0.0
 76
     0
330
1B
  0
LAYOUT
  5
26
102
{ACAD_XDICTIONARY
360
5B5
102
}
102
{ACAD_REACTORS
330
1A
102
}
330
1A
100
AcDbPlotSettings
  1

  2
none_device
  4
Letter_(8.50_x_11.00_Inches)
  6

 40
6.349999904632568
 41
6.349999904632568
 42
6.350006103515625
 43
6.350006103515625
 44
215.8999938964844
 45
279.3999938964844
 46
0.0
 47
0.0
 48
0.0
 49
0.0
140
0.0
141
0.0
142
1.0
143
1.0
 70
 15024
 72
     1
 73
     1
 74
     5
  7

 75
    16
147
1.0
148
0.0
149
0.0
100
AcDbLayout
  1
Layout2
 70
     1
 71
     2
 10
0.0
 20
0.0
 11
12.0
 21
9.0
 12
0.0
 22
0.0
 32
0.0
 14
0.0
 24
0.0
 34
0.0
 15
0.0
 25
0.0
 35
0.0
146
0.0
 13
0.0
 23
0.0
 33
0.0
 16
1.0
 26
0.0
 36
0.0
 17
0.0
 27
1.0
 37
0.0
 76
     0
330
23
  0
LAYOUT
  5
22
102
{ACAD_XDICTIONARY
360
5B3
102
}
102
{ACAD_REACTORS
330
1A
102
}
330
1A
100
AcDbPlotSettings
  1

  2
none_device
  4
Letter_(8.50_x_11.00_Inches)
  6

 40
6.349999904632568
 41
6.349999904632568
 42
6.350006103515625
 43
6.350006103515625
 44
215.8999938964844
 45
279.3999938964844
 46
0.0
 47
0.0
 48
0.0
 49
0.0
140
0.0
141
0.0
142
1.0
143
1.0
 70
 11952
 72
     1
 73
     1
 74
     0
  7

 75
     0
147
1.0
148
-131.3052631578947
149
0.0
100
AcDbLayout
  1
Model
 70
     1
 71
     0
 10
0.0
 20
0.0
 11
12.0
 21
9.0
 12
0.0
 22
0.0
 32
0.0
 14
0.0
 24
0.0
 34
0.0
 15
0.0
 25
0.0
 35
0.0
146
0.0
 13
0.0
 23
0.0
 33
0.0
 16
1.0
 26
0.0
 36
0.0
 17
0.0
 27
1.0
 37
0.0
 76
     0
330
1F
  0
MLINESTYLE
  5
18
102
{ACAD_REACTORS
330
17
102
}
330
17
100
AcDbMlineStyle
  2
STANDARD
 70
     0
  3

 62
   256
 51
90.0
 52
90.0
 71
     2
 49
0.5
 62
   256
  6
BYLAYER
 49
-0.5
 62
   256
  6
BYLAYER
  0
ACDBPLACEHOLDER
  5
F
102
{ACAD_REACTORS
330
E
102
}
330
E
  0
TABLESTYLE
  5
134
102
{ACAD_REACTORS
330
133
102
}
330
133
100
AcDbTableStyle
  3
Standard
 70
     0
 71
     0
 40
1.5
 41
1.5
280
     0
281
     0
  7
STANDARD
140
4.5
170
     2
 62
     0
 63
     7
283
     0
274
    -2
284
     1
 64
     0
275
    -2
285
     1
 65
     0
276
    -2
286
     1
 66
     0
277
    -2
287
     1
 67
     0
278
    -2
288
     1
 68
     0
279
    -2
289
     1
 69
     0
  7
STANDARD
140
6.0
170
     5
 62
     0
 63
     7
283
     0
274
    -2
284
     1
 64
     0
275
    -2
285
     1
 65
     0
276
    -2
286
     1
 66
     0
277
    -2
287
     1
 67
     0
278
    -2
288
     1
 68
     0
279
    -2
289
     1
 69
     0
  7
STANDARD
140
4.5
170
     5
 62
     0
 63
     7
283
     0
274
    -2
284
     1
 64
     0
275
    -2
285
     1
 65
     0
276
    -2
286
     1
 66
     0
277
    -2
287
     1
 67
     0
278
    -2
288
     1
 68
     0
279
    -2
289
     1
 69
     0
  0
DICTIONARYVAR
  5
152
102
{ACAD_REACTORS
330
34
102
}
330
34
100
DictionaryVariables
280
     0
  1
STANDARD
  0
DICTIONARYVAR
  5
AD
102
{ACAD_REACTORS
330
34
102
}
330
34
100
DictionaryVariables
280
     0
  1
2
  0
DICTIONARYVAR
  5
35
102
{ACAD_REACTORS
330
34
102
}
330
34
100
DictionaryVariables
280
     0
  1
0
  0
DICTIONARYVAR
  5
5AD
102
{ACAD_REACTORS
330
34
102
}
330
34
100
DictionaryVariables
280
     0
  1

  0
DICTIONARY
  5
2CB
102
{ACAD_REACTORS
330
49
102
}
330
49
100
AcDbDictionary
281
     1
  0
DICTIONARY
  5
4A
102
{ACAD_REACTORS
330
49
102
}
330
49
100
AcDbDictionary
281
     1
  0
XRECORD
  5
13D
102
{ACAD_REACTORS
330
49
102
}
330
49
100
AcDbXrecord
280
     1
 90
-1023410169
  0
DICTIONARY
  5
5B1
330
1E
100
AcDbDictionary
280
     1
281
     1
  3
ACAD_XREC_ROUNDTRIP
360
5B2
  0
DICTIONARY
  5
5B5
330
26
100
AcDbDictionary
280
     1
281
     1
  3
ACAD_XREC_ROUNDTRIP
360
5B6
  0
DICTIONARY
  5
5B3
330
22
100
AcDbDictionary
280
     1
281
     1
  3
ACAD_XREC_ROUNDTRIP
360
5B4
  0
XRECORD
  5
5B2
102
{ACAD_REACTORS
330
5B1
102
}
330
5B1
100
AcDbXrecord
280
     1
102
SHADEPLOT
 70
     0
102
SHADEPLOTRESLEVEL
 70
     2
102
SHADEPLOTCUSTOMDPI
 70
   300
  0
XRECORD
  5
5B6
102
{ACAD_REACTORS
330
5B5
102
}
330
5B5
100
AcDbXrecord
280
     1
102
SHADEPLOT
 70
     0
102
SHADEPLOTRESLEVEL
 70
     2
102
SHADEPLOTCUSTOMDPI
 70
   300
  0
XRECORD
  5
5B4
102
{ACAD_REACTORS
330
5B3
102
}
330
5B3
100
AcDbXrecord
280
     1
102
SHADEPLOT
 70
     0
102
SHADEPLOTRESLEVEL
 70
     2
102
SHADEPLOTCUSTOMDPI
 70
   300
  0
ENDSEC
  0
EOF
