  0
SECTION
  2
HEADER
  9
$ACADVER
  1
AC1015
  9
$ACADMAINTVER
 70
    20
  9
$DWGCODEPAGE
  3
ANSI_1252
  9
$INSBASE
 10
0.0
 20
0.0
 30
0.0
  9
$EXTMIN
 10
13795.88723887423
 20
454.3883091415805
 30
0.0
  9
$EXTMAX
 10
15295.07528407721
 20
1286.989028221339
 30
0.0
  9
$LIMMIN
 10
0.0
 20
0.0
  9
$LIMMAX
 10
420.0
 20
297.0
  9
$ORTHOMODE
 70
     0
  9
$REGENMODE
 70
     1
  9
$FILLMODE
 70
     1
  9
$QTEXTMODE
 70
     0
  9
$MIRRTEXT
 70
     1
  9
$LTSCALE
 40
8.0
  9
$ATTMODE
 70
     1
  9
$TEXTSIZE
 40
2.5
  9
$TRACEWID
 40
1.0
  9
$TEXTSTYLE
  7
STANDARD
  9
$CLAYER
  8
0
  9
$CELTYPE
  6
ByLayer
  9
$CECOLOR
 62
   256
  9
$CELTSCALE
 40
1.0
  9
$DISPSILH
 70
     0
  9
$DIMSCALE
 40
1.0
  9
$DIMASZ
 40
65.0
  9
$DIMEXO
 40
1.0
  9
$DIMDLI
 40
10.0
  9
$DIMRND
 40
0.0
  9
$DIMDLE
 40
0.0
  9
$DIMEXE
 40
25.0
  9
$DIMTP
 40
0.1
  9
$DIMTM
 40
0.1
  9
$DIMTXT
 40
50.0
  9
$DIMCEN
 40
0.0
  9
$DIMTSZ
 40
0.0
  9
$DIMTOL
 70
     0
  9
$DIMLIM
 70
     0
  9
$DIMTIH
 70
     0
  9
$DIMTOH
 70
     0
  9
$DIMSE1
 70
     0
  9
$DIMSE2
 70
     0
  9
$DIMTAD
 70
     1
  9
$DIMZIN
 70
     8
  9
$DIMBLK
  1

  9
$DIMASO
 70
     1
  9
$DIMSHO
 70
     1
  9
$DIMPOST
  1

  9
$DIMAPOST
  1
"
  9
$DIMALT
 70
     0
  9
$DIMALTD
 70
     2
  9
$DIMALTF
 40
0.0393701
  9
$DIMLFAC
 40
1.0
  9
$DIMTOFL
 70
     1
  9
$DIMTVP
 40
0.0
  9
$DIMTIX
 70
     0
  9
$DIMSOXD
 70
     0
  9
$DIMSAH
 70
     0
  9
$DIMBLK1
  1

  9
$DIMBLK2
  1

  9
$DIMSTYLE
  2
AM_DIN
  9
$DIMCLRD
 70
   256
  9
$DIMCLRE
 70
   256
  9
$DIMCLRT
 70
     2
  9
$DIMTFAC
 40
0.71
  9
$DIMGAP
 40
15.0
  9
$DIMJUST
 70
     0
  9
$DIMSD1
 70
     0
  9
$DIMSD2
 70
     0
  9
$DIMTOLJ
 70
     0
  9
$DIMTZIN
 70
     8
  9
$DIMALTZ
 70
     0
  9
$DIMALTTZ
 70
     0
  9
$DIMUPT
 70
     0
  9
$DIMDEC
 70
     0
  9
$DIMTDEC
 70
     0
  9
$DIMALTU
 70
     2
  9
$DIMALTTD
 70
     2
  9
$DIMTXSTY
  7
STANDARD
  9
$DIMAUNIT
 70
     0
  9
$DIMADEC
 70
     0
  9
$DIMALTRND
 40
0.0
  9
$DIMAZIN
 70
     2
  9
$DIMDSEP
 70
    46
  9
$DIMATFIT
 70
     3
  9
$DIMFRAC
 70
     0
  9
$DIMLDRBLK
  1

  9
$DIMLUNIT
 70
     2
  9
$DIMLWD
 70
    -1
  9
$DIMLWE
 70
    -1
  9
$DIMTMOVE
 70
     0
  9
$LUNITS
 70
     2
  9
$LUPREC
 70
     2
  9
$SKETCHINC
 40
1.0
  9
$FILLETRAD
 40
2.5
  9
$AUNITS
 70
     0
  9
$AUPREC
 70
     0
  9
$MENU
  1
.
  9
$ELEVATION
 40
0.0
  9
$PELEVATION
 40
0.0
  9
$THICKNESS
 40
0.0
  9
$LIMCHECK
 70
     0
  9
$CHAMFERA
 40
2.5
  9
$CHAMFERB
 40
2.5
  9
$CHAMFERC
 40
20.0
  9
$CHAMFERD
 40
0.0
  9
$SKPOLY
 70
     0
  9
$TDCREATE
 40
2454167.376978160
  9
$TDUCREATE
 40
2454167.335311493
  9
$TDUPDATE
 40
2455137.915264445
  9
$TDUUPDATE
 40
2455137.873597778
  9
$TDINDWG
 40
0.8000022454
  9
$TDUSRTIMER
 40
0.7998424537
  9
$USRTIMER
 70
     1
  9
$ANGBASE
 50
0.0
  9
$ANGDIR
 70
     0
  9
$PDMODE
 70
     0
  9
$PDSIZE
 40
0.0
  9
$PLINEWID
 40
0.0
  9
$SPLFRAME
 70
     0
  9
$SPLINETYPE
 70
     6
  9
$SPLINESEGS
 70
     8
  9
$HANDSEED
  5
18267
  9
$SURFTAB1
 70
     6
  9
$SURFTAB2
 70
     6
  9
$SURFTYPE
 70
     6
  9
$SURFU
 70
     6
  9
$SURFV
 70
     6
  9
$UCSBASE
  2

  9
$UCSNAME
  2

  9
$UCSORG
 10
0.0
 20
0.0
 30
0.0
  9
$UCSXDIR
 10
1.0
 20
0.0
 30
0.0
  9
$UCSYDIR
 10
0.0
 20
1.0
 30
0.0
  9
$UCSORTHOREF
  2

  9
$UCSORTHOVIEW
 70
     0
  9
$UCSORGTOP
 10
0.0
 20
0.0
 30
0.0
  9
$UCSORGBOTTOM
 10
0.0
 20
0.0
 30
0.0
  9
$UCSORGLEFT
 10
0.0
 20
0.0
 30
0.0
  9
$UCSORGRIGHT
 10
0.0
 20
0.0
 30
0.0
  9
$UCSORGFRONT
 10
0.0
 20
0.0
 30
0.0
  9
$UCSORGBACK
 10
0.0
 20
0.0
 30
0.0
  9
$PUCSBASE
  2

  9
$PUCSNAME
  2

  9
$PUCSORG
 10
0.0
 20
0.0
 30
0.0
  9
$PUCSXDIR
 10
1.0
 20
0.0
 30
0.0
  9
$PUCSYDIR
 10
0.0
 20
1.0
 30
0.0
  9
$PUCSORTHOREF
  2

  9
$PUCSORTHOVIEW
 70
     0
  9
$PUCSORGTOP
 10
0.0
 20
0.0
 30
0.0
  9
$PUCSORGBOTTOM
 10
0.0
 20
0.0
 30
0.0
  9
$PUCSORGLEFT
 10
0.0
 20
0.0
 30
0.0
  9
$PUCSORGRIGHT
 10
0.0
 20
0.0
 30
0.0
  9
$PUCSORGFRONT
 10
0.0
 20
0.0
 30
0.0
  9
$PUCSORGBACK
 10
0.0
 20
0.0
 30
0.0
  9
$USERI1
 70
     0
  9
$USERI2
 70
     0
  9
$USERI3
 70
     0
  9
$USERI4
 70
     0
  9
$USERI5
 70
     0
  9
$USERR1
 40
0.0
  9
$USERR2
 40
0.0
  9
$USERR3
 40
0.0
  9
$USERR4
 40
0.0
  9
$USERR5
 40
0.0
  9
$WORLDVIEW
 70
     1
  9
$SHADEDGE
 70
     3
  9
$SHADEDIF
 70
    70
  9
$TILEMODE
 70
     1
  9
$MAXACTVP
 70
    64
  9
$PINSBASE
 10
0.0
 20
0.0
 30
0.0
  9
$PLIMCHECK
 70
     0
  9
$PEXTMIN
 10
1.000000000000000E+20
 20
1.000000000000000E+20
 30
1.000000000000000E+20
  9
$PEXTMAX
 10
-1.000000000000000E+20
 20
-1.000000000000000E+20
 30
-1.000000000000000E+20
  9
$PLIMMIN
 10
0.0
 20
0.0
  9
$PLIMMAX
 10
420.0
 20
297.0
  9
$UNITMODE
 70
     0
  9
$VISRETAIN
 70
     1
  9
$PLINEGEN
 70
     0
  9
$PSLTSCALE
 70
     1
  9
$TREEDEPTH
 70
  3020
  9
$CMLSTYLE
  2
Standard
  9
$CMLJUST
 70
     0
  9
$CMLSCALE
 40
20.0
  9
$PROXYGRAPHICS
 70
     1
  9
$MEASUREMENT
 70
     1
  9
$CELWEIGHT
370
    -1
  9
$ENDCAPS
280
     0
  9
$JOINSTYLE
280
     0
  9
$LWDISPLAY
290
     0
  9
$INSUNITS
 70
     4
  9
$HYPERLINKBASE
  1

  9
$STYLESHEET
  1
MONOCHROME UW.CTB
  9
$XEDIT
290
     1
  9
$CEPSNTYPE
380
     0
  9
$PSTYLEMODE
290
     1
  9
$FINGERPRINTGUID
  2
{1344C3A2-CD10-4B1D-A761-DD320F23370E}
  9
$VERSIONGUID
  2
{A85A7F0A-86EB-429A-8AA4-12F745F3F500}
  9
$EXTNAMES
290
     1
  9
$PSVPSCALE
 40
0.0
  9
$OLESTARTUP
290
     0
  0
ENDSEC
  0
SECTION
  2
CLASSES
  0
CLASS
  1
ACDBDICTIONARYWDFLT
  2
AcDbDictionaryWithDefault
  3
ObjectDBX Classes
 90
        0
280
     0
281
     0
  0
CLASS
  1
ACDBPLACEHOLDER
  2
AcDbPlaceHolder
  3
ObjectDBX Classes
 90
        0
280
     0
281
     0
  0
CLASS
  1
LAYOUT
  2
AcDbLayout
  3
ObjectDBX Classes
 90
        0
280
     0
281
     0
  0
CLASS
  1
ACME_DOCUMENT
  2
AcMeDbDoc
  3
AcMeServices
 90
     1024
280
     0
281
     0
  0
CLASS
  1
AMGSETTINGSOBJ
  2
AmgSettingsObj
  3
"AcadM|Product Description: AutoCAD Mechanical|Company: Autodesk, Inc."
 90
     1024
280
     0
281
     0
  0
CLASS
  1
ACMESCOPE
  2
AcMeScope
  3
AcMeServices
 90
     1024
280
     0
281
     0
  0
CLASS
  1
ACMECOMMANDHISTORY
  2
AcMeCommandHistory
  3
AcMeServices
 90
     1024
280
     0
281
     0
  0
CLASS
  1
ACIMSYSVARMAN
  2
AcImSysVarManager
  3
AcMeServices
 90
     1024
280
     0
281
     0
  0
CLASS
  1
ACIMREALSYSVAR
  2
AcImRealSysVar
  3
AcMeServices
 90
     1024
280
     0
281
     0
  0
CLASS
  1
ACIMINTSYSVAR
  2
AcImIntSysVar
  3
AcMeServices
 90
     1024
280
     0
281
     0
  0
CLASS
  1
ACMEDRAWINGMAN
  2
AcMeDrawingMan
  3
AcMeServices
 90
     1024
280
     0
281
     0
  0
CLASS
  1
ACMEVIEW
  2
AcMeView
  3
AcMeServices
 90
     1024
280
     0
281
     0
  0
CLASS
  1
ACDBENTITYCACHE
  2
AcMeEntityCache
  3
AcMeServices
 90
     1024
280
     0
281
     0
  0
CLASS
  1
GSMANAGER
  2
AcMeGSManager
  3
AcMeServices
 90
    32768
280
     0
281
     0
  0
CLASS
  1
AMDTINTERNALREACTOR
  2
AmdtInternalReactor
  3
AcMeServices
 90
     1024
280
     0
281
     0
  0
CLASS
  1
ACMESTATEMGR
  2
AcMeStateMgr
  3
AcMeServices
 90
     1024
280
     0
281
     0
  0
CLASS
  1
ACGREFMASTER
  2
AcGrefMaster
  3
AcAttribServices
 90
     1024
280
     0
281
     0
  0
CLASS
  1
ACME_DATABASE
  2
AcMeDbDatabase
  3
AcMeServices
 90
     1024
280
     0
281
     0
  0
CLASS
  1
ACRFINSADJUSTERMGR
  2
AcRfInsAdjusterMgr
  3
AcMeServices
 90
     1024
280
     0
281
     0
  0
CLASS
  1
ACGREFACADMASTER
  2
AcGrefacadMaster
  3
AcGrefServices
 90
     1024
280
     0
281
     0
  0
CLASS
  1
AMIMASTER
  2
AmiMaster
  3
AmiServices
 90
     1024
280
     0
281
     0
  0
CLASS
  1
ACMDATADICTIONARY
  2
AcmDataDictionary
  3
"AcmSymBB|Product Description: AutoCAD Mechanical|Company: Autodesk, Inc."
 90
     1024
280
     0
281
     0
  0
CLASS
  1
ACMDATAENTRYBLOCK
  2
AcmDataEntryBlock
  3
AcmSymBB|Product Description: AutoCAD Mechanical|Company: Autodesk, Inc.
 90
    33792
280
     0
281
     0
  0
CLASS
  1
ACIMSTRSYSVAR
  2
AcImStrSysVar
  3
AcMeServices
 90
     1024
280
     0
281
     0
  0
CLASS
  1
ACMSTANDARDISO
  2
AcmStandardISO
  3
"Amdt_StdImp|Product Description: AutoCAD Mechanical|Company: Autodesk, Inc."
 90
    33792
280
     0
281
     0
  0
CLASS
  1
AMGOBJPROPCFG
  2
AmgObjPropCfg
  3
"AmgLay|Product Description: AutoCAD Mechanical|Company: Autodesk, Inc."
 90
     1025
280
     0
281
     0
  0
CLASS
  1
AMDTEDGESTANDARDISO
  2
AmdtEdgeStdISO
  3
"Amdt_StdImp|Product Description: AutoCAD Mechanical|Company: Autodesk, Inc."
 90
    33792
280
     0
281
     0
  0
CLASS
  1
ACMSURFSTANDARDISO
  2
AcmSurfTextStdISO
  3
"Amdt_StdImp|Product Description: AutoCAD Mechanical|Company: Autodesk, Inc."
 90
    33792
280
     0
281
     0
  0
CLASS
  1
ACMFCFSTANDARDISO
  2
AcmFCFStdISO
  3
"Amdt_StdImp|Product Description: AutoCAD Mechanical|Company: Autodesk, Inc."
 90
    33792
280
     0
281
     0
  0
CLASS
  1
ACMWELDSTANDARDISO
  2
AcmWeldingStdISO
  3
"Amdt_StdImp|Product Description: AutoCAD Mechanical|Company: Autodesk, Inc."
 90
    33792
280
     0
281
     0
  0
CLASS
  1
ACMIDSTANDARDISO
  2
AcmIdStdISO
  3
"Amdt_StdImp|Product Description: AutoCAD Mechanical|Company: Autodesk, Inc."
 90
    33792
280
     0
281
     0
  0
CLASS
  1
ACMDATUMSTANDARDISO
  2
AcmDatumStdISO
  3
"Amdt_StdImp|Product Description: AutoCAD Mechanical|Company: Autodesk, Inc."
 90
    33792
280
     0
281
     0
  0
CLASS
  1
ACMBOMSTANDARDISO
  2
AcmBOMStdISO
  3
"Amdt_StdImp|Product Description: AutoCAD Mechanical|Company: Autodesk, Inc."
 90
    33792
280
     0
281
     0
  0
CLASS
  1
ACMDETAILSTANDARDISO
  2
AmdtDetailSymStdISO
  3
"Amdt_StdImp|Product Description: AutoCAD Mechanical|Company: Autodesk, Inc."
 90
    33792
280
     0
281
     0
  0
CLASS
  1
ACMSECTIONSTANDARDISO
  2
AmdtSectionSymStdISO
  3
"Amdt_StdImp|Product Description: AutoCAD Mechanical|Company: Autodesk, Inc."
 90
    33792
280
     0
281
     0
  0
CLASS
  1
ACMCENTERLINESTANDARDISO
  2
AmdtCenterLineStdISO
  3
"Amdt_StdImp|Product Description: AutoCAD Mechanical|Company: Autodesk, Inc."
 90
    33792
280
     0
281
     0
  0
CLASS
  1
ACMNOTESTANDARDISO
  2
AmdtNoteStdISO
  3
"Amdt_StdImp|Product Description: AutoCAD Mechanical|Company: Autodesk, Inc."
 90
    33792
280
     0
281
     0
  0
CLASS
  1
ACAMGLAYSTD
  2
AcAmgLayStd
  3
"AmgLay|Product Description: AutoCAD Mechanical|Company: Autodesk, Inc."
 90
     1024
280
     0
281
     0
  0
CLASS
  1
ACAMGDIMSTD
  2
AcAmgDimStd
  3
"AmgDim|Product Description: AutoCAD Mechanical|Company: Autodesk, Inc."
 90
     1024
280
     0
281
     0
  0
CLASS
  1
ACAMGHOLECHARTSTDISO
  2
AcAmgHoleChartStdISO
  3
AmgDim|Product Description: AutoCAD Mechanical|Company: Autodesk, Inc.
 90
    33792
280
     0
281
     0
  0
CLASS
  1
ACAMGTITLESTD
  2
AcAmgTitleStd
  3
"AmgTitle|Product Description: AutoCAD Mechanical|Company: Autodesk, Inc."
 90
     4095
280
     0
281
     0
  0
CLASS
  1
LAYER_INDEX
  2
AcDbLayerIndex
  3
ObjectDBX Classes
 90
    32768
280
     0
281
     0
  0
CLASS
  1
IDBUFFER
  2
AcDbIdBuffer
  3
ObjectDBX Classes
 90
    32768
280
     0
281
     0
  0
CLASS
  1
DICTIONARYVAR
  2
AcDbDictionaryVar
  3
ObjectDBX Classes
 90
        0
280
     0
281
     0
  0
CLASS
  1
AM_DRAWING_MGR
  2
AcDmDwgMgr
  3
AcMechDwgViewMgmt
 90
     1024
280
     0
281
     0
  0
CLASS
  1
AM_DWG_DOCUMENT
  2
AcDmDwgDocument
  3
AcMechDwgViewMgmt
 90
     1024
280
     0
281
     0
  0
CLASS
  1
AM_DWG_SHEET
  2
AcDmSheet
  3
AcMechDwgViewMgmt
 90
     1024
280
     0
281
     0
  0
CLASS
  1
AM_VIEWDIMPARMAP
  2
AcDmViewDimParMap
  3
AcMechDwgViewMgmt
 90
     1024
280
     0
281
     0
  0
CLASS
  1
AM_DWGMGR_NAME
  2
AcDmDwgMgrName
  3
AcMechDwgViewMgmt
 90
     1024
280
     0
281
     0
  0
CLASS
  1
AMDTMENUSTATEMGR
  2
AmdtMenuStateMgr
  3
McadcomServices
 90
     1024
280
     0
281
     0
  0
CLASS
  1
AMDTMCOMMENUSTATE
  2
AmdtMcomMenuState
  3
McadcomServices
 90
     1024
280
     0
281
     0
  0
CLASS
  1
MAPIAMMOUDLE
  2
MApiAmModule
  3
MApiAmServices
 90
     1024
280
     0
281
     0
  0
CLASS
  1
AMDTADMENUSTATE
  2
AmdtAdMenuState
  3
DesignerServices
 90
     1024
280
     0
281
     0
  0
CLASS
  1
ADAPPL
  2
AcAdAppl
  3
DesignerServices
 90
     1024
280
     0
281
     0
  0
CLASS
  1
DEPMGR
  2
AcAdDepMgr
  3
DesignerServices
 90
     1024
280
     0
281
     0
  0
CLASS
  1
PARAMMGR
  2
AcAdParamMgr
  3
DesignerServices
 90
     1024
280
     0
281
     0
  0
CLASS
  1
PARAMSCOPE
  2
AcAdParamScope
  3
DesignerServices
 90
     1024
280
     0
281
     0
  0
CLASS
  1
NAMEDAPPL
  2
AcAdNamedAppl
  3
DesignerServices
 90
     1024
280
     0
281
     0
  0
CLASS
  1
AMDTDMMENUSTATE
  2
AmdtDmMenuState
  3
AcMechDwgViewMgmt
 90
     1024
280
     0
281
     0
  0
CLASS
  1
AMDTAMMENUSTATE
  2
AmdtAmMenuState
  3
DesignerAssemblies
 90
     1024
280
     0
281
     0
  0
CLASS
  1
ACAMPROJECT
  2
AcAmProject
  3
DesignerAssemblies
 90
     1024
280
     0
281
     0
  0
CLASS
  1
ACAMGRCOMPDEF
  2
AcAmGrCompDef
  3
DesignerAssemblies
 90
     1024
280
     0
281
     0
  0
CLASS
  1
ACCMCONTEXT
  2
AcCmContext
  3
DesignerAssemblies
 90
    33792
280
     0
281
     0
  0
CLASS
  1
ACAMCOMPDEF
  2
AcAmCompDef
  3
DesignerAssemblies
 90
     1024
280
     0
281
     0
  0
CLASS
  1
ACAMCOMPDEFMGR
  2
AcAmCompDefMgr
  3
DesignerAssemblies
 90
     1024
280
     0
281
     0
  0
CLASS
  1
AMCONTEXTMGR
  2
AcAmContextMgr
  3
DesignerAssemblies
 90
     1024
280
     0
281
     0
  0
CLASS
  1
ACAMCONTEXTMODELER
  2
AcAmContextModeler
  3
DesignerAssemblies
 90
     1024
280
     0
281
     0
  0
CLASS
  1
ACMTHREADLINESTANDARDISO
  2
AmdtThreadLineStdISO
  3
"Amdt_StdImp|Product Description: AutoCAD Mechanical|Company: Autodesk, Inc."
 90
    33792
280
     0
281
     0
  0
CLASS
  1
CATALOGSTATE
  2
AcAmCatalogState
  3
DesignerAssemblies
 90
     1024
280
     0
281
     0
  0
CLASS
  1
ACAMGRCOMPDEFSET
  2
AcAmGrCompDefSet
  3
DesignerAssemblies
 90
     1024
280
     0
281
     0
  0
CLASS
  1
AMDTBROWSERDBTAB
  2
AmdtBrowserDbTab
  3
McadcomServices
 90
     1024
280
     0
281
     0
  0
CLASS
  1
CBROWSERAPPOBJECT
  2
CBrowserAppObject
  3
McadcomServices
 90
     1024
280
     0
281
     0
  0
CLASS
  1
DM_PLACEHOLDER
  2
AcDmSelsetPlaceholder
  3
AcMechDwgViewMgmt
 90
     1024
280
     0
281
     0
  0
CLASS
  1
TABLESTYLE
  2
AcDbTableStyle
  3
ObjectDBX Classes
 90
     4095
280
     0
281
     0
  0
CLASS
  1
VAACXREFPANELOBJECT
  2
VaAcXREFPanelObject
  3
VAAC_ADDIN
 90
    32768
280
     0
281
     0
  0
CLASS
  1
VAACIMAGEINVENTORY
  2
VaAcImageInventory
  3
VAAC_ADDIN
 90
    32768
280
     0
281
     0
  0
CLASS
  1
AMDTNOTETEMPLATEDB
  2
AmdtNoteTemplateDB
  3
AcmSymBB|Product Description: AutoCAD Mechanical|Company: Autodesk, Inc.
 90
     1024
280
     0
281
     0
  0
CLASS
  1
ACAMGFILTERDAT
  2
AcAmgFilterDat
  3
"AcadM|Product Description: AutoCAD Mechanical|Company: Autodesk, Inc."
 90
    33792
280
     0
281
     0
  0
CLASS
  1
ACMBOM
  2
AcmBom
  3
"AcmSymBB|Product Description: AutoCAD Mechanical|Company: Autodesk, Inc."
 90
    33792
280
     0
281
     0
  0
CLASS
  1
AMDTFORMULAUPDATEDISPATCHER
  2
AmdtFormulaUpdateDispatcher
  3
AcMeServices
 90
    33792
280
     0
281
     0
  0
CLASS
  1
ACMSTANDARDDIN
  2
AcmStandardDIN
  3
"Amdt_StdImp|Product Description: AutoCAD Mechanical|Company: Autodesk, Inc."
 90
     1024
280
     0
281
     0
  0
CLASS
  1
AMDTEDGESTANDARDDIN13715
  2
AmdtEdgeStdDIN13715
  3
"Amdt_StdImp|Product Description: AutoCAD Mechanical|Company: Autodesk, Inc."
 90
     1024
280
     0
281
     0
  0
CLASS
  1
ACMSURFSTANDARDDIN
  2
AcmSurfTextStdDIN
  3
"Amdt_StdImp|Product Description: AutoCAD Mechanical|Company: Autodesk, Inc."
 90
    33792
280
     0
281
     0
  0
CLASS
  1
ACMFCFSTANDARDDIN
  2
AcmFCFStdDIN
  3
"Amdt_StdImp|Product Description: AutoCAD Mechanical|Company: Autodesk, Inc."
 90
     1024
280
     0
281
     0
  0
CLASS
  1
ACMWELDSTANDARDDIN
  2
AcmWeldingStdDIN
  3
"Amdt_StdImp|Product Description: AutoCAD Mechanical|Company: Autodesk, Inc."
 90
     1024
280
     0
281
     0
  0
CLASS
  1
ACMIDSTANDARDDIN
  2
AcmIdStdDIN
  3
"Amdt_StdImp|Product Description: AutoCAD Mechanical|Company: Autodesk, Inc."
 90
     1024
280
     0
281
     0
  0
CLASS
  1
ACMDATUMSTANDARDDIN
  2
AcmDatumStdDIN
  3
"Amdt_StdImp|Product Description: AutoCAD Mechanical|Company: Autodesk, Inc."
 90
     1024
280
     0
281
     0
  0
CLASS
  1
ACMBOMSTANDARDDIN
  2
AcmBOMStdDIN
  3
"Amdt_StdImp|Product Description: AutoCAD Mechanical|Company: Autodesk, Inc."
 90
     1024
280
     0
281
     0
  0
CLASS
  1
ACMDETAILSTANDARDDIN
  2
AmdtDetailSymStdDIN
  3
"Amdt_StdImp|Product Description: AutoCAD Mechanical|Company: Autodesk, Inc."
 90
     1024
280
     0
281
     0
  0
CLASS
  1
ACMSECTIONSTANDARDDIN
  2
AmdtSectionSymStdDIN
  3
"Amdt_StdImp|Product Description: AutoCAD Mechanical|Company: Autodesk, Inc."
 90
     1024
280
     0
281
     0
  0
CLASS
  1
ACMCENTERLINESTANDARDDIN
  2
AmdtCenterLineStdDIN
  3
"Amdt_StdImp|Product Description: AutoCAD Mechanical|Company: Autodesk, Inc."
 90
     1024
280
     0
281
     0
  0
CLASS
  1
ACMTHREADLINESTANDARDDIN
  2
AmdtThreadLineStdDIN
  3
"Amdt_StdImp|Product Description: AutoCAD Mechanical|Company: Autodesk, Inc."
 90
     1024
280
     0
281
     0
  0
CLASS
  1
ACMNOTESTANDARDDIN
  2
AmdtNoteStdDIN
  3
"Amdt_StdImp|Product Description: AutoCAD Mechanical|Company: Autodesk, Inc."
 90
     1024
280
     0
281
     0
  0
CLASS
  1
ACAMGHOLECHARTSTDDIN
  2
AcAmgHoleChartStdDIN
  3
AmgDim|Product Description: AutoCAD Mechanical|Company: Autodesk, Inc.
 90
     1024
280
     0
281
     0
  0
CLASS
  1
ACRFATTGENMGR
  2
AcRfAttGeneralMgr
  3
AcAttribServices
 90
    33792
280
     0
281
     0
  0
CLASS
  1
SORTENTSTABLE
  2
AcDbSortentsTable
  3
ObjectDBX Classes
 90
        0
280
     0
281
     0
  0
CLASS
  1
DIMASSOC
  2
AcDbDimAssoc
  3
"AcDbDimAssoc|Product Desc:     AcDim ARX App For Dimension|Company:          Autodesk, Inc.|WEB Address:      www.autodesk.com"
 90
    32768
280
     0
281
     0
  0
CLASS
  1
AC_AM_MVD_DEP_MGR
  2
AcAmMVDdepMgr
  3
DesignerAssemblies
 90
    33792
280
     0
281
     0
  0
CLASS
  1
AC_AM_MASTER_VIEW_DEF
  2
AcAmMasterViewDef
  3
DesignerAssemblies
 90
    33792
280
     0
281
     0
  0
CLASS
  1
AC_AM_DIRTY_NODES
  2
AcAmDirtyNodes
  3
DesignerAssemblies
 90
    33792
280
     0
281
     0
  0
CLASS
  1
AC_AM_MAPPER_CACHE
  2
AcAmMapperCache
  3
DesignerAssemblies
 90
    33792
280
     0
281
     0
  0
CLASS
  1
ACAMMVDBACKUPOBJECT
  2
AcAmMVDBackupObject
  3
DesignerAssemblies
 90
    33792
280
     0
281
     0
  0
CLASS
  1
AC_AM_2D_XREF_MGR
  2
AcAmXrefMgr2d
  3
DesignerAssemblies
 90
    33792
280
     0
281
     0
  0
CLASS
  1
AC_AM_HIDE_SITUATION
  2
AcAmHideSituation
  3
DesignerAssemblies
 90
    33792
280
     0
281
     0
  0
CLASS
  1
ACAMWBLOCKTEMPENTS
  2
AcAmStructInOutTempObjsHolder
  3
DesignerAssemblies
 90
    33792
280
     0
281
     0
  0
CLASS
  1
STDPART2D
  2
AmgStdPart
  3
AmgStdPart|Product Description: AutoCAD Mechanical|Company: Autodesk, Inc.
 90
    36863
280
     0
281
     1
  0
CLASS
  1
ACMDATAENTRYPART
  2
AcmDataEntryPart
  3
AcmSymBB|Product Description: AutoCAD Mechanical|Company: Autodesk, Inc.
 90
    33792
280
     0
281
     0
  0
CLASS
  1
ACMPARTREF
  2
AcmPartRef
  3
"AcmSymBB|Product Description: AutoCAD Mechanical|Company: Autodesk, Inc."
 90
    36863
280
     0
281
     1
  0
CLASS
  1
ACDBSTDPARTRES_LINE
  2
AcDbStdPartRes_Line
  3
AmgStdPart|Product Description: AutoCAD Mechanical|Company: Autodesk, Inc.
 90
    33792
280
     0
281
     0
  0
CLASS
  1
ACAD_EVALUATION_GRAPH
  2
AcDbEvalGraph
  3
ObjectDBX Classes
 90
    33921
280
     0
281
     0
  0
CLASS
  1
ACAECUSTOBJ
  2
AcAeEditorObj
  3
AcAeEditorObj
 90
    33792
280
     0
281
     0
  0
CLASS
  1
ACDB_DYNAMICBLOCKPURGEPREVENTER_VERSION
  2
AcDbDynamicBlockPurgePreventer
  3
ObjectDBX Classes
 90
    33921
280
     0
281
     0
  0
CLASS
  1
MATERIAL
  2
AcDbMaterial
  3
ObjectDBX Classes
 90
     1153
280
     0
281
     0
  0
CLASS
  1
VISUALSTYLE
  2
AcDbVisualStyle
  3
ObjectDBX Classes
 90
     4095
280
     0
281
     0
  0
CLASS
  1
SCALE
  2
AcDbScale
  3
ObjectDBX Classes
 90
     1153
280
     0
281
     0
  0
CLASS
  1
MLEADERSTYLE
  2
AcDbMLeaderStyle
  3
ACDB_MLEADERSTYLE_CLASS
 90
     4095
280
     0
281
     0
  0
CLASS
  1
ACMSURFSTANDARDDIN2002
  2
AcmSurfTextStdDIN2002
  3
"Amdt_StdImp|Product Description: AutoCAD Mechanical|Company: Autodesk, Inc."
 90
     1024
280
     0
281
     0
  0
CLASS
  1
ACMTAPERSTANDARDDIN
  2
AcmTaperStdDIN
  3
"Amdt_StdImp|Product Description: AutoCAD Mechanical|Company: Autodesk, Inc."
 90
     1024
280
     0
281
     0
  0
CLASS
  1
ACMANOOTATIONVIEWSTANDARDDIN
  2
AmdtAnViewStdDIN
  3
"Amdt_StdImp|Product Description: AutoCAD Mechanical|Company: Autodesk, Inc."
 90
     1024
280
     0
281
     0
  0
CLASS
  1
CELLSTYLEMAP
  2
AcDbCellStyleMap
  3
ObjectDBX Classes
 90
     1152
280
     0
281
     0
  0
ENDSEC
  0
SECTION
  2
TABLES
  0
TABLE
  2
VPORT
  5
8
330
0
100
AcDbSymbolTable
 70
     1
  0
VPORT
  5
18155
330
8
100
AcDbSymbolTableRecord
100
AcDbViewportTableRecord
  2
*Active
 70
     0
 10
0.0
 20
0.0
 11
1.0
 21
1.0
 12
14611.80578350868
 22
870.7173304307183
 13
0.0
 23
0.0
 14
2.5
 24
2.5
 15
10.0
 25
10.0
 16
0.0
 26
0.0
 36
1.0
 17
0.0
 27
0.0
 37
0.0
 40
1083.06761739996
 41
1.513838748495788
 42
50.0
 43
0.0
 44
0.0
 50
0.0
 51
0.0
 71
     0
 72
   100
 73
     1
 74
     3
 75
     0
 76
     0
 77
     0
 78
     0
281
     0
 65
     0
110
0.0
120
0.0
130
0.0
111
1.0
121
0.0
131
0.0
112
0.0
122
1.0
132
0.0
 79
     0
146
0.0
  0
ENDTAB
  0
TABLE
  2
LTYPE
  5
5
330
0
100
AcDbSymbolTable
 70
    23
  0
LTYPE
  5
14
330
5
100
AcDbSymbolTableRecord
100
AcDbLinetypeTableRecord
  2
ByBlock
 70
     0
  3

 72
    65
 73
     0
 40
0.0
  0
LTYPE
  5
15
330
5
100
AcDbSymbolTableRecord
100
AcDbLinetypeTableRecord
  2
ByLayer
 70
     0
  3

 72
    65
 73
     0
 40
0.0
  0
LTYPE
  5
16
330
5
100
AcDbSymbolTableRecord
100
AcDbLinetypeTableRecord
  2
Continuous
 70
     0
  3
Solid line
 72
    65
 73
     0
 40
0.0
  0
LTYPE
  5
67
330
5
100
AcDbSymbolTableRecord
100
AcDbLinetypeTableRecord
  2
Amconstr
 70
     0
  3
_______________________
 72
    65
 73
     2
 40
9999.0
 49
9999.0
 74
     0
 49
0.0
 74
     0
  0
LTYPE
  5
6C
330
5
100
AcDbSymbolTableRecord
100
AcDbLinetypeTableRecord
  2
Amzigzag
 70
     0
  3
/\/-/\/-/\/-/\/-/\/-/\/
 72
    65
 73
     2
 40
11.0001
 49
0.0001
 74
     4
 75
   136
340
22C
 46
0.04
 50
0.0
 44
0.0
 45
0.0
 49
-11.0
 74
     0
  0
LTYPE
  5
7E
330
5
100
AcDbSymbolTableRecord
100
AcDbLinetypeTableRecord
  2
CENTER
 70
     0
  3
__ . __
 72
    65
 73
     4
 40
7.0
 49
4.0
 74
     0
 49
-1.0
 74
     0
 49
1.0
 74
     0
 49
-1.0
 74
     0
  0
LTYPE
  5
D8
330
5
100
AcDbSymbolTableRecord
100
AcDbLinetypeTableRecord
  2
HIDDEN
 70
     0
  3
Hidden __ __ __ __ __ __ __ __ __ __ __ __ __ _
 72
    65
 73
     2
 40
9.524999999999996
 49
6.349999999999997
 74
     0
 49
-3.174999999999998
 74
     0
  0
LTYPE
  5
D9
330
5
100
AcDbSymbolTableRecord
100
AcDbLinetypeTableRecord
  2
PHANTOM2
 70
     0
  3
Phantom (.5x) ___ _ _ ___ _ _ ___ _ _ ___ _ _
 72
    65
 73
     6
 40
31.75
 49
15.875
 74
     0
 49
-3.174999999999998
 74
     0
 49
3.174999999999998
 74
     0
 49
-3.174999999999998
 74
     0
 49
3.174999999999998
 74
     0
 49
-3.174999999999998
 74
     0
  0
LTYPE
  5
2E3
330
5
100
AcDbSymbolTableRecord
100
AcDbLinetypeTableRecord
  2
ACDINWELD
 70
     0
  3
_ _ _ _ _
 72
    65
 73
     2
 40
2.0
 49
2.0
 74
     0
 49
-1.0
 74
     0
  0
LTYPE
  5
2E4
330
5
100
AcDbSymbolTableRecord
100
AcDbLinetypeTableRecord
  2
ACDINTGB
 70
     0
  3
__ . . __ . .
 72
    65
 73
     6
 40
9.0
 49
4.0
 74
     0
 49
-1.0
 74
     0
 49
1.0
 74
     0
 49
-1.0
 74
     0
 49
1.0
 74
     0
 49
-1.0
 74
     0
  0
LTYPE
  5
2E5
330
5
100
AcDbSymbolTableRecord
100
AcDbLinetypeTableRecord
  2
ACDINTGL
 70
     0
  3
_ _ _ _ _
 72
    65
 73
     2
 40
3.0
 49
2.0
 74
     0
 49
-1.0
 74
     0
  0
LTYPE
  5
31F
330
5
100
AcDbSymbolTableRecord
100
AcDbLinetypeTableRecord
  2
AM_DIN_F_W050
 70
     0
  3
__ __ __ __ __ __ __ __ __ __ __ __ __ __ __
 72
    65
 73
     2
 40
6.25
 49
4.75
 74
     0
 49
-1.5
 74
     0
  0
LTYPE
  5
320
330
5
100
AcDbSymbolTableRecord
100
AcDbLinetypeTableRecord
  2
AM_DIN_G_W050
 70
     0
  3
____ . ____ . ____ . ____ . ____ . ____ . ____
 72
    65
 73
     4
 40
13.75
 49
9.75
 74
     0
 49
-1.5
 74
     0
 49
1.0
 74
     0
 49
-1.5
 74
     0
  0
LTYPE
  5
321
330
5
100
AcDbSymbolTableRecord
100
AcDbLinetypeTableRecord
  2
AM_DIN_K_W050
 70
     0
  3
_____ . . _____ . . _____ . . ____ .. ____
 72
    65
 73
     6
 40
16.25
 49
9.75
 74
     0
 49
-1.5
 74
     0
 49
1.0
 74
     0
 49
-1.5
 74
     0
 49
1.0
 74
     0
 49
-1.5
 74
     0
  0
LTYPE
  5
322
330
5
100
AcDbSymbolTableRecord
100
AcDbLinetypeTableRecord
  2
AM_DIN_G_W050x2
 70
     0
  3
__ . __ . __ . __ . __ . __
 72
    65
 73
     4
 40
6.875
 49
4.75
 74
     0
 49
-0.875
 74
     0
 49
0.375
 74
     0
 49
-0.875
 74
     0
  0
LTYPE
  5
323
330
5
100
AcDbSymbolTableRecord
100
AcDbLinetypeTableRecord
  2
AM_DIN_F_W050x2
 70
     0
  3
 _ _ _ _ _ _ _ _ _ _ _ _
 72
    65
 73
     2
 40
3.125
 49
2.25
 74
     0
 49
-0.875
 74
     0
  0
LTYPE
  5
17C79
330
5
100
AcDbSymbolTableRecord
100
AcDbLinetypeTableRecord
  2
gen7a
 70
     0
  3
__ . __ . __
 72
    65
 73
     4
 40
6.875
 49
4.75
 74
     0
 49
-0.875
 74
     0
 49
0.375
 74
     0
 49
-0.875
 74
     0
  0
ENDTAB
  0
TABLE
  2
LAYER
  5
2
102
{ACAD_XDICTIONARY
360
5E1
102
}
330
0
100
AcDbSymbolTable
 70
     7
  0
LAYER
  5
10
102
{ACAD_XDICTIONARY
360
18220
102
}
330
2
100
AcDbSymbolTableRecord
100
AcDbLayerTableRecord
  2
0
 70
     0
 62
     7
  6
Continuous
370
    -3
390
F
  0
LAYER
  5
1080A
102
{ACAD_XDICTIONARY
360
18222
102
}
330
2
100
AcDbSymbolTableRecord
100
AcDbLayerTableRecord
  2
AM_5
 70
     0
 62
     3
  6
Continuous
370
    25
390
F
1001
AcAecLayerStandard
1000

1000

  0
LAYER
  5
1081A
330
2
100
AcDbSymbolTableRecord
100
AcDbLayerTableRecord
  2
Defpoints
 70
     0
 62
     7
  6
Continuous
290
     0
370
    -3
390
F
  0
LAYER
  5
10B76
102
{ACAD_XDICTIONARY
360
18224
102
}
330
2
100
AcDbSymbolTableRecord
100
AcDbLayerTableRecord
  2
Beschriftung
 70
     0
 62
     2
  6
Continuous
370
    50
390
F
1001
AcAecLayerStandard
1000

1000

  0
LAYER
  5
10B7B
102
{ACAD_XDICTIONARY
360
18226
102
}
330
2
100
AcDbSymbolTableRecord
100
AcDbLayerTableRecord
  2
bezugslinien
 70
     0
 62
     3
  6
Continuous
370
    25
390
F
1001
AcAecLayerStandard
1000

1000

  0
LAYER
  5
17C7A
102
{ACAD_XDICTIONARY
360
18228
102
}
330
2
100
AcDbSymbolTableRecord
100
AcDbLayerTableRecord
  2
7A
 70
     0
 62
     4
  6
gen7a
370
    -3
390
F
  0
LAYER
  5
18148
102
{ACAD_XDICTIONARY
360
1822A
102
}
330
2
100
AcDbSymbolTableRecord
100
AcDbLayerTableRecord
  2
AM_4
 70
     0
 62
     3
  6
Continuous
370
    25
390
F
1001
AcAecLayerStandard
1000

1000

  0
ENDTAB
  0
TABLE
  2
STYLE
  5
3
330
0
100
AcDbSymbolTable
 70
     6
  0
STYLE
  5
11
330
3
100
AcDbSymbolTableRecord
100
AcDbTextStyleTableRecord
  2
STANDARD
 70
     0
 40
0.0
 41
1.0
 50
0.0
 71
     0
 42
2.5
  3
ARIAL.TTF
  4

1001
ACAD
1000
Arial
1071
       34
  0
STYLE
  5
22C
330
3
100
AcDbSymbolTableRecord
100
AcDbTextStyleTableRecord
  2

 70
     1
 40
0.0
 41
1.0
 50
0.0
 71
     0
 42
2.5
  3
genltshp.shx
  4

  0
STYLE
  5
2E2
330
3
100
AcDbSymbolTableRecord
100
AcDbTextStyleTableRecord
  2
ACDINGDT
 70
     0
 40
0.0
 41
1.0
 50
0.0
 71
     0
 42
2.5
  3
amgdt.shx
  4

  0
ENDTAB
  0
TABLE
  2
VIEW
  5
6
330
0
100
AcDbSymbolTable
 70
     0
  0
ENDTAB
  0
TABLE
  2
UCS
  5
7
330
0
100
AcDbSymbolTable
 70
     0
  0
ENDTAB
  0
TABLE
  2
APPID
  5
9
330
0
100
AcDbSymbolTable
 70
    77
  0
APPID
  5
12
330
9
100
AcDbSymbolTableRecord
100
AcDbRegAppTableRecord
  2
ACAD
 70
     0
  0
APPID
  5
46
330
9
100
AcDbSymbolTableRecord
100
AcDbRegAppTableRecord
  2
MCAD_NO_VIS
 70
     0
  0
APPID
  5
47
330
9
100
AcDbSymbolTableRecord
100
AcDbRegAppTableRecord
  2
ACAD_TEMP_GRAPHIC
 70
     0
  0
APPID
  5
58
330
9
100
AcDbSymbolTableRecord
100
AcDbRegAppTableRecord
  2
ACATTRIBSERVICES
 70
     0
  0
APPID
  5
EE
330
9
100
AcDbSymbolTableRecord
100
AcDbRegAppTableRecord
  2
AD_DRAW
 70
     0
  0
APPID
  5
10C
330
9
100
AcDbSymbolTableRecord
100
AcDbRegAppTableRecord
  2
DESIGNERASSEMBLIES
 70
     0
  0
APPID
  5
111
330
9
100
AcDbSymbolTableRecord
100
AcDbRegAppTableRecord
  2
ACADM_DIM_EDIT
 70
     0
  0
APPID
  5
112
330
9
100
AcDbSymbolTableRecord
100
AcDbRegAppTableRecord
  2
AMDT_DM_ADJ
 70
     0
  0
APPID
  5
1A3
330
9
100
AcDbSymbolTableRecord
100
AcDbRegAppTableRecord
  2
ACAD_DSTYLE_DIMARC_LENGTH_SYMBOL
 70
     0
  0
APPID
  5
1A4
330
9
100
AcDbSymbolTableRecord
100
AcDbRegAppTableRecord
  2
ACAD_DSTYLE_DIMJOGGED_JOGANGLE_SYMBOL
 70
     0
  0
APPID
  5
5D4
330
9
100
AcDbSymbolTableRecord
100
AcDbRegAppTableRecord
  2
ACAD_PSEXT
 70
     0
  0
APPID
  5
5D5
330
9
100
AcDbSymbolTableRecord
100
AcDbRegAppTableRecord
  2
GENIUS_GENOENT_13
 70
     0
  0
APPID
  5
5D6
330
9
100
AcDbSymbolTableRecord
100
AcDbRegAppTableRecord
  2
GENIUS_VERSION2
 70
     0
  0
APPID
  5
5D7
330
9
100
AcDbSymbolTableRecord
100
AcDbRegAppTableRecord
  2
GENIUS_GENREC_14
 70
     0
  0
APPID
  5
5D8
330
9
100
AcDbSymbolTableRecord
100
AcDbRegAppTableRecord
  2
GENIUS_GENODEF_13
 70
     0
  0
APPID
  5
5D9
330
9
100
AcDbSymbolTableRecord
100
AcDbRegAppTableRecord
  2
GENIUS_GENOBJ-N-REC_13
 70
     0
  0
APPID
  5
5DA
330
9
100
AcDbSymbolTableRecord
100
AcDbRegAppTableRecord
  2
GENIUS_GENTRA_14
 70
     0
  0
APPID
  5
5DB
330
9
100
AcDbSymbolTableRecord
100
AcDbRegAppTableRecord
  2
GENIUS_GENOBJ-N-TIT_13
 70
     0
  0
APPID
  5
5DC
330
9
100
AcDbSymbolTableRecord
100
AcDbRegAppTableRecord
  2
GENIUS_GENTITLE_13
 70
     0
  0
APPID
  5
5DD
330
9
100
AcDbSymbolTableRecord
100
AcDbRegAppTableRecord
  2
GENIUS_GENOREF_13
 70
     0
  0
APPID
  5
5DE
330
9
100
AcDbSymbolTableRecord
100
AcDbRegAppTableRecord
  2
GENIUS_GENOLIS_13
 70
     0
  0
APPID
  5
5DF
330
9
100
AcDbSymbolTableRecord
100
AcDbRegAppTableRecord
  2
GENIUS_GENOBJ-N-SDF_13
 70
     0
  0
APPID
  5
5E0
330
9
100
AcDbSymbolTableRecord
100
AcDbRegAppTableRecord
  2
GENIUS_GENSCREG_15
 70
     0
  0
APPID
  5
2FBB
330
9
100
AcDbSymbolTableRecord
100
AcDbRegAppTableRecord
  2
GENIUS_GENOBJ-N-CRS_13
 70
     0
  0
APPID
  5
2FBC
330
9
100
AcDbSymbolTableRecord
100
AcDbRegAppTableRecord
  2
GENIUS_GENOBJ-N-CEN_13
 70
     0
  0
APPID
  5
2FBD
330
9
100
AcDbSymbolTableRecord
100
AcDbRegAppTableRecord
  2
GENIUS_GENOBJ-N-HTC_13
 70
     0
  0
APPID
  5
2FBE
330
9
100
AcDbSymbolTableRecord
100
AcDbRegAppTableRecord
  2
GENIUS_GENHATCH_13
 70
     0
  0
APPID
  5
2FBF
330
9
100
AcDbSymbolTableRecord
100
AcDbRegAppTableRecord
  2
GENIUS_GENBH_13
 70
     0
  0
APPID
  5
2FC0
330
9
100
AcDbSymbolTableRecord
100
AcDbRegAppTableRecord
  2
GENIUS_GENOBJ-NBEHI-BHF_13
 70
     0
  0
APPID
  5
2FC1
330
9
100
AcDbSymbolTableRecord
100
AcDbRegAppTableRecord
  2
GENIUS_GENOBJ-F-PART_13
 70
     0
  0
APPID
  5
2FC2
330
9
100
AcDbSymbolTableRecord
100
AcDbRegAppTableRecord
  2
GENIUS_GEFSTDP_13
 70
     0
  0
APPID
  5
2FC3
330
9
100
AcDbSymbolTableRecord
100
AcDbRegAppTableRecord
  2
GEVPT
 70
     0
  0
APPID
  5
2FC4
330
9
100
AcDbSymbolTableRecord
100
AcDbRegAppTableRecord
  2
GEVIT
 70
     0
  0
APPID
  5
2FC5
330
9
100
AcDbSymbolTableRecord
100
AcDbRegAppTableRecord
  2
VCC
 70
     0
  0
APPID
  5
2FC6
330
9
100
AcDbSymbolTableRecord
100
AcDbRegAppTableRecord
  2
GENBH
 70
     0
  0
APPID
  5
2FC7
330
9
100
AcDbSymbolTableRecord
100
AcDbRegAppTableRecord
  2
GEVMK
 70
     0
  0
APPID
  5
2FC8
330
9
100
AcDbSymbolTableRecord
100
AcDbRegAppTableRecord
  2
GENIUS_GEFPARTINS_13
 70
     0
  0
APPID
  5
2FC9
330
9
100
AcDbSymbolTableRecord
100
AcDbRegAppTableRecord
  2
GENIUS_GENOBJ-N-CRC_13
 70
     0
  0
APPID
  5
2FCA
330
9
100
AcDbSymbolTableRecord
100
AcDbRegAppTableRecord
  2
GENIUS_GENCRC_14
 70
     0
  0
APPID
  5
2FCB
330
9
100
AcDbSymbolTableRecord
100
AcDbRegAppTableRecord
  2
GEVID978597865
 70
     0
  0
APPID
  5
2FCC
330
9
100
AcDbSymbolTableRecord
100
AcDbRegAppTableRecord
  2
GEVID978597866
 70
     0
  0
APPID
  5
2FCD
330
9
100
AcDbSymbolTableRecord
100
AcDbRegAppTableRecord
  2
GEVID978597868
 70
     0
  0
APPID
  5
2FCE
330
9
100
AcDbSymbolTableRecord
100
AcDbRegAppTableRecord
  2
GENIUS_GENCEN_19
 70
     0
  0
APPID
  5
2FCF
330
9
100
AcDbSymbolTableRecord
100
AcDbRegAppTableRecord
  2
AcAecLayerStandard
 70
     0
  0
APPID
  5
5580
330
9
100
AcDbSymbolTableRecord
100
AcDbRegAppTableRecord
  2
GENIUS_FIRSTVISTXT_14
 70
     0
  0
APPID
  5
5581
330
9
100
AcDbSymbolTableRecord
100
AcDbRegAppTableRecord
  2
GENIUS_SECONDVISTXT_14
 70
     0
  0
APPID
  5
5582
330
9
100
AcDbSymbolTableRecord
100
AcDbRegAppTableRecord
  2
GENIUS_GENOBJ-N-FIL_13
 70
     0
  0
APPID
  5
5583
330
9
100
AcDbSymbolTableRecord
100
AcDbRegAppTableRecord
  2
GENIUS_GEFWELD_13
 70
     0
  0
APPID
  5
5584
330
9
100
AcDbSymbolTableRecord
100
AcDbRegAppTableRecord
  2
GENIUS_GENOBJ-NBEHI-BHB_13
 70
     0
  0
APPID
  5
5585
330
9
100
AcDbSymbolTableRecord
100
AcDbRegAppTableRecord
  2
GENIUS_GENOBJ-F-WELS_13
 70
     0
  0
APPID
  5
5586
330
9
100
AcDbSymbolTableRecord
100
AcDbRegAppTableRecord
  2
AMG_2DHIDE
 70
     0
  0
APPID
  5
5587
330
9
100
AcDbSymbolTableRecord
100
AcDbRegAppTableRecord
  2
GEVID992928022
 70
     0
  0
APPID
  5
5588
330
9
100
AcDbSymbolTableRecord
100
AcDbRegAppTableRecord
  2
GENIUS_GENOBJ-F-DESC_13
 70
     0
  0
APPID
  5
5589
330
9
100
AcDbSymbolTableRecord
100
AcDbRegAppTableRecord
  2
GENIUS_GEFDESC_14
 70
     0
  0
APPID
  5
558A
330
9
100
AcDbSymbolTableRecord
100
AcDbRegAppTableRecord
  2
GEVID992928023
 70
     0
  0
APPID
  5
558B
330
9
100
AcDbSymbolTableRecord
100
AcDbRegAppTableRecord
  2
GENIUS_GENOBJ-F-FEAT_13
 70
     0
  0
APPID
  5
558C
330
9
100
AcDbSymbolTableRecord
100
AcDbRegAppTableRecord
  2
GENIUS_GEFFEAT_14
 70
     0
  0
APPID
  5
7580
330
9
100
AcDbSymbolTableRecord
100
AcDbRegAppTableRecord
  2
ACAD_EXEMPT_FROM_CAD_STANDARDS
 70
     0
  0
APPID
  5
9403
330
9
100
AcDbSymbolTableRecord
100
AcDbRegAppTableRecord
  2
AMG_2DSTRUCT_BTR
 70
     0
  0
APPID
  5
B4E8
330
9
100
AcDbSymbolTableRecord
100
AcDbRegAppTableRecord
  2
ACAD_DSTYLE_DIMEXT_LENGTH
 70
     0
  0
APPID
  5
B4E9
330
9
100
AcDbSymbolTableRecord
100
AcDbRegAppTableRecord
  2
ACAD_DSTYLE_DIMEXT_ENABLED
 70
     0
  0
APPID
  5
DE63
330
9
100
AcDbSymbolTableRecord
100
AcDbRegAppTableRecord
  2
GENIUS_GENDIMSH_14
 70
     0
  0
APPID
  5
E2FA
330
9
100
AcDbSymbolTableRecord
100
AcDbRegAppTableRecord
  2
GEVID1210230727
 70
     0
  0
APPID
  5
E2FB
330
9
100
AcDbSymbolTableRecord
100
AcDbRegAppTableRecord
  2
GEVDC
 70
     0
  0
APPID
  5
10068
330
9
100
AcDbSymbolTableRecord
100
AcDbRegAppTableRecord
  2
ACAUTHENVIRON
 70
     0
  0
APPID
  5
1011A
330
9
100
AcDbSymbolTableRecord
100
AcDbRegAppTableRecord
  2
AcDbDynamicBlockTrueName
 70
     0
  0
APPID
  5
1011B
330
9
100
AcDbSymbolTableRecord
100
AcDbRegAppTableRecord
  2
AcDbDynamicBlockGUID
 70
     0
  0
APPID
  5
1011D
330
9
100
AcDbSymbolTableRecord
100
AcDbRegAppTableRecord
  2
ACDBBLOCKREPETAG
 70
     0
  0
APPID
  5
107E4
330
9
100
AcDbSymbolTableRecord
100
AcDbRegAppTableRecord
  2
ACAD_DSTYLE_DIMTEXT_FILL
 70
     0
  0
APPID
  5
107E7
330
9
100
AcDbSymbolTableRecord
100
AcDbRegAppTableRecord
  2
ACAD_DSTYLE_DIM_LINETYPE
 70
     0
  0
APPID
  5
107E8
330
9
100
AcDbSymbolTableRecord
100
AcDbRegAppTableRecord
  2
ACAD_DSTYLE_DIM_EXT1_LINETYPE
 70
     0
  0
APPID
  5
107E9
330
9
100
AcDbSymbolTableRecord
100
AcDbRegAppTableRecord
  2
ACAD_DSTYLE_DIM_EXT2_LINETYPE
 70
     0
  0
APPID
  5
10B47
330
9
100
AcDbSymbolTableRecord
100
AcDbRegAppTableRecord
  2
GEVID1210230728
 70
     0
  0
APPID
  5
11657
330
9
100
AcDbSymbolTableRecord
100
AcDbRegAppTableRecord
  2
GENIUS_GENDTOL_13
 70
     0
  0
APPID
  5
18210
330
9
100
AcDbSymbolTableRecord
100
AcDbRegAppTableRecord
  2
ACAD_DSTYLE_DIMBREAK
 70
     0
  0
APPID
  5
18211
330
9
100
AcDbSymbolTableRecord
100
AcDbRegAppTableRecord
  2
ACAD_DSTYLE_DIMJAG
 70
     0
  0
APPID
  5
18266
330
9
100
AcDbSymbolTableRecord
100
AcDbRegAppTableRecord
  2
ACAD_MLEADERVER
 70
     0
  0
ENDTAB
  0
TABLE
  2
DIMSTYLE
  5
A
330
0
100
AcDbSymbolTable
 70
    15
100
AcDbDimStyleTable
 71
     1
340
2EE
  0
DIMSTYLE
105
2EE
102
{ACAD_REACTORS
330
181FF
102
}
330
A
100
AcDbSymbolTableRecord
100
AcDbDimStyleTableRecord
  2
AM_DIN
 70
     0
  4
"
 41
65.0
 42
1.0
 43
10.0
 44
25.0
 47
0.1
 48
0.1
 73
     0
 74
     0
 77
     1
 78
     8
 79
     2
140
50.0
141
0.0
143
0.0393701
146
0.71
147
15.0
172
     1
176
   256
177
   256
178
     2
271
     0
272
     0
283
     0
284
     8
340
11
371
    -1
372
    -1
1001
ACAD_DSTYLE_DIMJOGGED_JOGANGLE_SYMBOL
1070
   384
1040
1.570796326794896
  0
DIMSTYLE
105
2FF
330
A
100
AcDbSymbolTableRecord
100
AcDbDimStyleTableRecord
  2
AM_DIN$3
 70
     0
  4
"
 41
65.0
 42
1.0
 43
10.0
 44
25.0
 47
0.1
 48
0.1
 73
     0
 77
     1
 78
     8
 79
     2
140
50.0
141
0.0
143
0.0393701
146
0.71
147
15.0
176
   256
177
   256
178
     2
271
     0
272
     0
283
     0
284
     8
288
     1
289
     0
340
11
371
    -1
372
    -1
1001
ACAD_DSTYLE_DIMJOGGED_JOGANGLE_SYMBOL
1070
   384
1040
1.570796326794896
  0
DIMSTYLE
105
304
330
A
100
AcDbSymbolTableRecord
100
AcDbDimStyleTableRecord
  2
AM_DIN$4
 70
     0
  4
"
 41
65.0
 42
1.0
 43
10.0
 44
25.0
 47
0.1
 48
0.1
 73
     0
 77
     1
 78
     8
 79
     2
140
50.0
141
0.0
143
0.0393701
146
0.71
147
15.0
176
   256
177
   256
178
     2
271
     0
272
     0
283
     0
284
     8
288
     1
289
     0
340
11
371
    -1
372
    -1
1001
ACAD_DSTYLE_DIMJOGGED_JOGANGLE_SYMBOL
1070
   384
1040
1.570796326794896
  0
DIMSTYLE
105
309
330
A
100
AcDbSymbolTableRecord
100
AcDbDimStyleTableRecord
  2
AM_DIN$6
 70
     0
  4
"
 41
65.0
 42
1.0
 43
10.0
 44
25.0
 47
0.1
 48
0.1
 73
     0
 74
     0
 78
     8
 79
     2
140
50.0
141
0.0
143
0.0393701
146
0.71
147
15.0
172
     1
176
   256
177
   256
178
     2
271
     0
272
     0
283
     0
284
     8
340
11
371
    -1
372
    -1
1001
ACAD_DSTYLE_DIMJOGGED_JOGANGLE_SYMBOL
1070
   384
1040
1.570796326794896
  0
DIMSTYLE
105
30E
330
A
100
AcDbSymbolTableRecord
100
AcDbDimStyleTableRecord
  2
AM_DIN$7
 70
     0
  4
"
 41
65.0
 42
1.0
 43
10.0
 44
25.0
 47
0.1
 48
0.1
 73
     0
 74
     0
 77
     1
 78
     8
 79
     2
140
5.0
141
0.0
143
0.0393701
146
0.71
147
15.0
172
     1
176
   256
177
   256
178
     2
271
     0
272
     0
283
     0
284
     8
340
11
371
    -1
372
    -1
1001
ACAD_DSTYLE_DIMJOGGED_JOGANGLE_SYMBOL
1070
   384
1040
1.570796326794896
  0
DIMSTYLE
105
313
330
A
100
AcDbSymbolTableRecord
100
AcDbDimStyleTableRecord
  2
AM_DIN$SF
 70
     0
  4
"
 41
2.5
 42
1.0
 43
10.0
 44
1.0
 47
0.1
 48
0.1
 73
     0
 74
     0
 75
     1
 76
     1
 77
     1
 78
     8
 79
     2
140
3.5
141
0.0
143
0.0393701
146
0.71
147
1.5
172
     1
176
   256
177
   256
178
     2
271
     2
272
     3
274
     4
283
     0
284
     8
340
11
371
    -1
372
    -1
1001
ACAD_DSTYLE_DIMJOGGED_JOGANGLE_SYMBOL
1070
   384
1040
1.570796326794896
  0
DIMSTYLE
105
318
330
A
100
AcDbSymbolTableRecord
100
AcDbDimStyleTableRecord
  2
AM_DIN$SH
 70
     0
  4
"
 41
2.5
 42
1.0
 43
10.0
 44
1.0
 47
0.1
 48
0.1
 73
     0
 74
     0
 75
     1
 76
     1
 77
     1
 78
     8
 79
     2
140
3.5
141
0.0
143
0.0393701
144
2.0
146
0.71
147
1.5
172
     1
173
     1
176
   256
177
   256
178
     2
271
     2
272
     3
274
     4
283
     0
284
     8
340
11
343
87
371
    -1
372
    -1
1001
ACAD_DSTYLE_DIMJOGGED_JOGANGLE_SYMBOL
1070
   384
1040
1.570796326794896
  0
DIMSTYLE
105
7C7E
102
{ACAD_REACTORS
330
15ABB
330
15AB9
330
15ABD
330
15ABA
330
15AB8
102
}
330
A
100
AcDbSymbolTableRecord
100
AcDbDimStyleTableRecord
  2
AM_DIN$0
 70
     0
  4
"
 41
65.0
 42
1.0
 43
10.0
 44
25.0
 47
0.1
 48
0.1
 73
     0
 74
     0
 77
     1
 78
     8
 79
     2
140
50.0
141
0.0
143
0.0393701
146
0.71
147
15.0
172
     1
176
   256
177
   256
178
     2
271
     0
272
     0
283
     0
284
     8
340
11
371
    -1
372
    -1
1001
ACAD_DSTYLE_DIMJOGGED_JOGANGLE_SYMBOL
1070
   384
1040
1.570796326794896
  0
ENDTAB
  0
TABLE
  2
BLOCK_RECORD
  5
1
330
0
100
AcDbSymbolTable
 70
     8
  0
BLOCK_RECORD
  5
1F
102
{ACAD_XDICTIONARY
360
8F
102
}
330
1
100
AcDbSymbolTableRecord
100
AcDbBlockTableRecord
  2
*Model_Space
340
22
  0
BLOCK_RECORD
  5
1B
330
1
100
AcDbSymbolTableRecord
100
AcDbBlockTableRecord
  2
*Paper_Space
340
1E
  0
BLOCK_RECORD
  5
23
330
1
100
AcDbSymbolTableRecord
100
AcDbBlockTableRecord
  2
*Paper_Space0
340
26
  0
BLOCK_RECORD
  5
87
102
{ACAD_XDICTIONARY
360
10117
102
}
330
1
100
AcDbSymbolTableRecord
100
AcDbBlockTableRecord
  2
GENAXEH
340
0
1001
AcDbDynamicBlockGUID
1000
{D68C792B-0B99-4E0B-8B7B-1EAC83B216F4}
1001
ACDBBLOCKREPETAG
1070
     1
1071
        0
  0
BLOCK_RECORD
  5
15B28
330
1
100
AcDbSymbolTableRecord
100
AcDbBlockTableRecord
  2
*D2
340
0
  0
BLOCK_RECORD
  5
15B36
330
1
100
AcDbSymbolTableRecord
100
AcDbBlockTableRecord
  2
*D3
340
0
  0
BLOCK_RECORD
  5
15B44
330
1
100
AcDbSymbolTableRecord
100
AcDbBlockTableRecord
  2
*D4
340
0
  0
BLOCK_RECORD
  5
15B52
330
1
100
AcDbSymbolTableRecord
100
AcDbBlockTableRecord
  2
*D5
340
0
  0
BLOCK_RECORD
  5
15B6E
330
1
100
AcDbSymbolTableRecord
100
AcDbBlockTableRecord
  2
*D6
340
0
  0
ENDTAB
  0
ENDSEC
  0
SECTION
  2
BLOCKS
  0
BLOCK
  5
20
330
1F
100
AcDbEntity
  8
0
100
AcDbBlockBegin
  2
*Model_Space
 70
     0
 10
0.0
 20
0.0
 30
0.0
  3
*Model_Space
  1

  0
ENDBLK
  5
21
330
1F
100
AcDbEntity
  8
0
100
AcDbBlockEnd
  0
BLOCK
  5
1C
330
1B
100
AcDbEntity
 67
     1
  8
0
100
AcDbBlockBegin
  2
*Paper_Space
 70
     0
 10
0.0
 20
0.0
 30
0.0
  3
*Paper_Space
  1

  0
ENDBLK
  5
1D
330
1B
100
AcDbEntity
 67
     1
  8
0
100
AcDbBlockEnd
  0
BLOCK
  5
24
330
23
100
AcDbEntity
 67
     1
  8
0
100
AcDbBlockBegin
  2
*Paper_Space0
 70
     0
 10
0.0
 20
0.0
 30
0.0
  3
*Paper_Space0
  1

  0
ENDBLK
  5
25
330
23
100
AcDbEntity
 67
     1
  8
0
100
AcDbBlockEnd
  0
BLOCK
  5
2ADE
330
87
100
AcDbEntity
  8
0
100
AcDbBlockBegin
  2
GENAXEH
 70
     0
 10
0.0
 20
0.0
 30
0.0
  3
GENAXEH
  1

  0
ENDBLK
  5
2AE0
330
87
100
AcDbEntity
  8
0
100
AcDbBlockEnd
  0
BLOCK
  5
15B34
330
15B28
100
AcDbEntity
  8
0
100
AcDbBlockBegin
  2
*D2
 70
     1
 10
0.0
 20
0.0
 30
0.0
  3
*D2
  1

  0
LINE
  5
180DB
330
15B28
100
AcDbEntity
  8
AM_5
100
AcDbLine
 10
14288.2745006652
 20
1054.906059201359
 30
0.0
 11
14288.2745006652
 21
1244.792575288188
 31
0.0
  0
LINE
  5
180DC
330
15B28
100
AcDbEntity
  8
AM_5
100
AcDbLine
 10
14742.294500712
 20
1054.906059201359
 30
0.0
 11
14742.294500712
 21
1244.792575288188
 31
0.0
  0
LINE
  5
180DD
330
15B28
100
AcDbEntity
  8
AM_5
100
AcDbLine
 10
14328.2745006652
 20
1219.792575288188
 30
0.0
 11
14702.294500712
 21
1219.792575288188
 31
0.0
  0
SOLID
  5
180DE
330
15B28
100
AcDbEntity
  8
AM_5
100
AcDbTrace
 10
14328.2745006652
 20
1226.459241954855
 30
0.0
 11
14328.2745006652
 21
1213.125908621521
 31
0.0
 12
14288.2745006652
 22
1219.792575288188
 32
0.0
 13
14288.2745006652
 23
1219.792575288188
 33
0.0
  0
SOLID
  5
180DF
330
15B28
100
AcDbEntity
  8
AM_5
100
AcDbTrace
 10
14702.294500712
 20
1226.459241954855
 30
0.0
 11
14702.294500712
 21
1213.125908621521
 31
0.0
 12
14742.294500712
 22
1219.792575288188
 32
0.0
 13
14742.294500712
 23
1219.792575288188
 33
0.0
  0
MTEXT
  5
180E0
330
15B28
100
AcDbEntity
  8
AM_5
 62
     2
100
AcDbMText
 10
14515.2845006886
 20
1256.334185110834
 30
0.0
 40
40.0
 41
0.0
 71
     5
 72
     1
  1
li. %%c 455
 73
     1
 44
1.0
1001
ACAD
1000
MTEXTBEGIN
1070
    73
1070
     1
1070
    44
1040
1.0
1070
    74
1070
     0
1000
MTEXTEND
  0
POINT
  5
180E1
330
15B28
100
AcDbEntity
  8
Defpoints
 62
     0
100
AcDbPoint
 10
14288.2745006652
 20
1053.906059201359
 30
0.0
  0
POINT
  5
180E2
330
15B28
100
AcDbEntity
  8
Defpoints
 62
     0
100
AcDbPoint
 10
14742.294500712
 20
1053.906059201359
 30
0.0
  0
POINT
  5
180E3
330
15B28
100
AcDbEntity
  8
Defpoints
 62
     0
100
AcDbPoint
 10
14742.294500712
 20
1219.792575288188
 30
0.0
  0
ENDBLK
  5
15B35
330
15B28
100
AcDbEntity
  8
0
100
AcDbBlockEnd
  0
BLOCK
  5
15B42
330
15B36
100
AcDbEntity
  8
0
100
AcDbBlockBegin
  2
*D3
 70
     1
 10
0.0
 20
0.0
 30
0.0
  3
*D3
  1

  0
LINE
  5
180ED
330
15B36
100
AcDbEntity
  8
AM_5
100
AcDbLine
 10
14296.31007854247
 20
638.9743882696738
 30
0.0
 11
13837.15599740084
 21
638.974388269674
 31
0.0
  0
LINE
  5
180EE
330
15B36
100
AcDbEntity
  8
AM_5
100
AcDbLine
 10
14514.28241290808
 20
1163.995291355538
 30
0.0
 11
13837.15599740084
 21
1163.995291355538
 31
0.0
  0
LINE
  5
180EF
330
15B36
100
AcDbEntity
  8
AM_5
100
AcDbLine
 10
13862.15599740084
 20
678.974388269674
 30
0.0
 11
13862.15599740084
 21
1123.995291355538
 31
0.0
  0
SOLID
  5
180F0
330
15B36
100
AcDbEntity
  8
AM_5
100
AcDbTrace
 10
13855.48933073417
 20
678.974388269674
 30
0.0
 11
13868.82266406751
 21
678.974388269674
 31
0.0
 12
13862.15599740084
 22
638.974388269674
 32
0.0
 13
13862.15599740084
 23
638.974388269674
 33
0.0
  0
SOLID
  5
180F1
330
15B36
100
AcDbEntity
  8
AM_5
100
AcDbTrace
 10
13855.48933073417
 20
1123.995291355538
 30
0.0
 11
13868.82266406751
 21
1123.995291355538
 31
0.0
 12
13862.15599740084
 22
1163.995291355538
 32
0.0
 13
13862.15599740084
 23
1163.995291355538
 33
0.0
  0
MTEXT
  5
180F2
330
15B36
100
AcDbEntity
  8
AM_5
 62
     2
100
AcDbMText
 10
13826.73307789197
 20
913.4629393160285
 30
0.0
 40
40.0
 41
0.0
 71
     5
 72
     1
  1
525
 11
0.0000000000000001
 21
1.0
 31
0.0
 73
     1
 44
1.0
1001
ACAD
1000
MTEXTBEGIN
1070
    73
1070
     1
1070
    44
1040
1.0
1070
    74
1070
     0
1000
MTEXTEND
  0
POINT
  5
180F3
330
15B36
100
AcDbEntity
  8
Defpoints
 62
     0
100
AcDbPoint
 10
14297.31007854247
 20
638.9743882696738
 30
0.0
  0
POINT
  5
180F4
330
15B36
100
AcDbEntity
  8
Defpoints
 62
     0
100
AcDbPoint
 10
14515.28241290808
 20
1163.995291355538
 30
0.0
  0
POINT
  5
180F5
330
15B36
100
AcDbEntity
  8
Defpoints
 62
     0
100
AcDbPoint
 10
13862.15599740084
 20
1163.995291355538
 30
0.0
  0
ENDBLK
  5
15B43
330
15B36
100
AcDbEntity
  8
0
100
AcDbBlockEnd
  0
BLOCK
  5
15B50
330
15B44
100
AcDbEntity
  8
0
100
AcDbBlockBegin
  2
*D4
 70
     1
 10
0.0
 20
0.0
 30
0.0
  3
*D4
  1

  0
LINE
  5
18113
330
15B44
100
AcDbEntity
  8
AM_5
100
AcDbLine
 10
14897.39383447026
 20
724.9743882784765
 30
0.0
 11
15002.28449151549
 21
724.9743882784765
 31
0.0
  0
LINE
  5
18114
330
15B44
100
AcDbEntity
  8
AM_5
100
AcDbLine
 10
14734.25892324198
 20
638.9743882696738
 30
0.0
 11
15002.28449151549
 21
638.9743882696738
 31
0.0
  0
LINE
  5
18115
330
15B44
100
AcDbEntity
  8
AM_5
100
AcDbLine
 10
14977.28449151549
 20
764.9743882784767
 30
0.0
 11
14977.28449151549
 21
804.9743882784767
 31
0.0
  0
LINE
  5
18116
330
15B44
100
AcDbEntity
  8
AM_5
100
AcDbLine
 10
14977.28449151549
 20
598.9743882696737
 30
0.0
 11
14977.28449151549
 21
460.5432832219245
 31
0.0
  0
LINE
  5
18117
330
15B44
100
AcDbEntity
  8
AM_5
100
AcDbLine
 10
14977.28449151549
 20
724.9743882784765
 30
0.0
 11
14977.28449151549
 21
638.9743882696738
 31
0.0
  0
SOLID
  5
18118
330
15B44
100
AcDbEntity
  8
AM_5
100
AcDbTrace
 10
14970.61782484881
 20
764.9743882784767
 30
0.0
 11
14983.95115818215
 21
764.9743882784767
 31
0.0
 12
14977.28449151549
 22
724.9743882784765
 32
0.0
 13
14977.28449151549
 23
724.9743882784765
 33
0.0
  0
SOLID
  5
18119
330
15B44
100
AcDbEntity
  8
AM_5
100
AcDbTrace
 10
14970.61782484881
 20
598.9743882696737
 30
0.0
 11
14983.95115818215
 21
598.9743882696737
 31
0.0
 12
14977.28449151549
 22
638.9743882696738
 32
0.0
 13
14977.28449151549
 23
638.9743882696738
 33
0.0
  0
MTEXT
  5
1811A
330
15B44
100
AcDbEntity
  8
AM_5
 62
     2
100
AcDbMText
 10
14941.86157200662
 20
504.2063118713131
 30
0.0
 40
40.0
 41
0.0
 71
     5
 72
     1
  1
86
 11
0.0000000000000001
 21
1.0
 31
0.0
 73
     1
 44
1.0
1001
ACAD
1000
MTEXTBEGIN
1070
    73
1070
     1
1070
    44
1040
1.0
1070
    74
1070
     0
1000
MTEXTEND
  0
POINT
  5
1811B
330
15B44
100
AcDbEntity
  8
Defpoints
 62
     0
100
AcDbPoint
 10
14896.39383447026
 20
724.9743882784765
 30
0.0
  0
POINT
  5
1811C
330
15B44
100
AcDbEntity
  8
Defpoints
 62
     0
100
AcDbPoint
 10
14733.25892324198
 20
638.9743882696738
 30
0.0
  0
POINT
  5
1811D
330
15B44
100
AcDbEntity
  8
Defpoints
 62
     0
100
AcDbPoint
 10
14977.28449151549
 20
638.9743882696738
 30
0.0
  0
ENDBLK
  5
15B51
330
15B44
100
AcDbEntity
  8
0
100
AcDbBlockEnd
  0
BLOCK
  5
15B5E
330
15B52
100
AcDbEntity
  8
0
100
AcDbBlockBegin
  2
*D5
 70
     1
 10
0.0
 20
0.0
 30
0.0
  3
*D5
  1

  0
LINE
  5
18109
330
15B52
100
AcDbEntity
  8
AM_5
100
AcDbLine
 10
14296.31007854247
 20
638.9743882696738
 30
0.0
 11
14093.79032075605
 21
638.9743882696738
 31
0.0
  0
LINE
  5
1810A
330
15B52
100
AcDbEntity
  8
AM_5
100
AcDbLine
 10
14184.06018766529
 20
883.9743882801256
 30
0.0
 11
14093.79032075605
 21
883.9743882801256
 31
0.0
  0
LINE
  5
1810B
330
15B52
100
AcDbEntity
  8
AM_5
100
AcDbLine
 10
14118.79032075605
 20
678.9743882696738
 30
0.0
 11
14118.79032075605
 21
843.9743882801257
 31
0.0
  0
SOLID
  5
1810C
330
15B52
100
AcDbEntity
  8
AM_5
100
AcDbTrace
 10
14112.12365408938
 20
678.9743882696738
 30
0.0
 11
14125.45698742272
 21
678.9743882696738
 31
0.0
 12
14118.79032075605
 22
638.9743882696738
 32
0.0
 13
14118.79032075605
 23
638.9743882696738
 33
0.0
  0
SOLID
  5
1810D
330
15B52
100
AcDbEntity
  8
AM_5
100
AcDbTrace
 10
14112.12365408938
 20
843.9743882801257
 30
0.0
 11
14125.45698742272
 21
843.9743882801257
 31
0.0
 12
14118.79032075605
 22
883.9743882801256
 32
0.0
 13
14118.79032075605
 23
883.9743882801256
 33
0.0
  0
MTEXT
  5
1810E
330
15B52
100
AcDbEntity
  8
AM_5
 62
     2
100
AcDbMText
 10
14083.36740124718
 20
769.9324797164262
 30
0.0
 40
40.0
 41
0.0
 71
     5
 72
     1
  1
245
 11
0.0000000000000001
 21
1.0
 31
0.0
 73
     1
 44
1.0
1001
ACAD
1000
MTEXTBEGIN
1070
    73
1070
     1
1070
    44
1040
1.0
1070
    74
1070
     0
1000
MTEXTEND
  0
POINT
  5
1810F
330
15B52
100
AcDbEntity
  8
Defpoints
 62
     0
100
AcDbPoint
 10
14297.31007854247
 20
638.9743882696738
 30
0.0
  0
POINT
  5
18110
330
15B52
100
AcDbEntity
  8
Defpoints
 62
     0
100
AcDbPoint
 10
14185.06018766529
 20
883.9743882801256
 30
0.0
  0
POINT
  5
18111
330
15B52
100
AcDbEntity
  8
Defpoints
 62
     0
100
AcDbPoint
 10
14118.79032075605
 20
883.9743882801256
 30
0.0
  0
ENDBLK
  5
15B5F
330
15B52
100
AcDbEntity
  8
0
100
AcDbBlockEnd
  0
BLOCK
  5
15B7A
330
15B6E
100
AcDbEntity
  8
0
100
AcDbBlockBegin
  2
*D6
 70
     1
 10
0.0
 20
0.0
 30
0.0
  3
*D6
  1

  0
LINE
  5
18121
330
15B6E
100
AcDbEntity
  8
AM_5
100
AcDbLine
 10
14227.76650184454
 20
802.1991674121041
 30
0.0
 11
14227.76650184454
 21
454.3883091415805
 31
0.0
  0
LINE
  5
18122
330
15B6E
100
AcDbEntity
  8
AM_5
100
AcDbLine
 10
14872.28450089259
 20
643.9743882711741
 30
0.0
 11
14872.28450089259
 21
454.3883091415805
 31
0.0
  0
LINE
  5
18123
330
15B6E
100
AcDbEntity
  8
AM_5
100
AcDbLine
 10
14267.76650184454
 20
479.3883091415805
 30
0.0
 11
14832.28450089259
 21
479.3883091415805
 31
0.0
  0
SOLID
  5
18124
330
15B6E
100
AcDbEntity
  8
AM_5
100
AcDbTrace
 10
14267.76650184454
 20
486.0549758082472
 30
0.0
 11
14267.76650184454
 21
472.7216424749137
 31
0.0
 12
14227.76650184454
 22
479.3883091415805
 32
0.0
 13
14227.76650184454
 23
479.3883091415805
 33
0.0
  0
SOLID
  5
18125
330
15B6E
100
AcDbEntity
  8
AM_5
100
AcDbTrace
 10
14832.28450089259
 20
486.0549758082472
 30
0.0
 11
14832.28450089259
 21
472.7216424749137
 31
0.0
 12
14872.28450089259
 22
479.3883091415805
 32
0.0
 13
14872.28450089259
 23
479.3883091415805
 33
0.0
  0
MTEXT
  5
18126
330
15B6E
100
AcDbEntity
  8
AM_5
 62
     2
100
AcDbMText
 10
14550.00151011639
 20
514.8112286504481
 30
0.0
 40
40.0
 41
0.0
 71
     5
 72
     1
  1
645
 73
     1
 44
1.0
1001
ACAD
1000
MTEXTBEGIN
1070
    73
1070
     1
1070
    44
1040
1.0
1070
    74
1070
     0
1000
MTEXTEND
  0
POINT
  5
18127
330
15B6E
100
AcDbEntity
  8
Defpoints
 62
     0
100
AcDbPoint
 10
14227.76650184454
 20
803.1991674121041
 30
0.0
  0
POINT
  5
18128
330
15B6E
100
AcDbEntity
  8
Defpoints
 62
     0
100
AcDbPoint
 10
14872.28450089259
 20
644.9743882711741
 30
0.0
  0
POINT
  5
18129
330
15B6E
100
AcDbEntity
  8
Defpoints
 62
     0
100
AcDbPoint
 10
14872.28450089259
 20
479.3883091415805
 30
0.0
  0
ENDBLK
  5
15B7B
330
15B6E
100
AcDbEntity
  8
0
100
AcDbBlockEnd
  0
ENDSEC
  0
SECTION
  2
ENTITIES
  0
LINE
  5
10BB2
330
1F
100
AcDbEntity
  8
bezugslinien
100
AcDbLine
 10
13997.74641126064
 20
883.9743882801268
 30
0.0
 11
13922.74641126064
 21
883.9743882801268
 31
0.0
  0
SOLID
  5
10BB3
330
1F
100
AcDbEntity
  8
bezugslinien
100
AcDbTrace
 10
13997.74641126064
 20
894.8077216134613
 30
0.0
 11
13997.74641126064
 21
873.1410549467936
 31
0.0
 12
14062.74641126064
 22
883.9743882801268
 32
0.0
 13
14062.74641126064
 23
883.9743882801268
 33
0.0
  0
LINE
  5
10BBB
330
1F
100
AcDbEntity
  8
bezugslinien
100
AcDbLine
 10
15097.7616541534
 20
724.9743882784765
 30
0.0
 11
15022.76165415341
 21
724.9743882784765
 31
0.0
  0
SOLID
  5
10BBC
330
1F
100
AcDbEntity
  8
bezugslinien
100
AcDbTrace
 10
15097.7616541534
 20
735.8077216118101
 30
0.0
 11
15097.7616541534
 21
714.1410549451435
 31
0.0
 12
15162.76165415341
 22
724.9743882784765
 32
0.0
 13
15162.76165415341
 23
724.9743882784765
 33
0.0
  0
DIMENSION
  5
15AB8
330
1F
100
AcDbEntity
  8
AM_5
100
AcDbDimension
  2
*D2
 10
14742.294500712
 20
1219.792575288188
 30
0.0
 11
14515.2845006886
 21
1219.792575288188
 31
0.0
 70
   160
  1
li. %%c 455
 71
     5
 42
454.0200000468083
  3
AM_DIN$0
100
AcDbAlignedDimension
 13
14288.2745006652
 23
1053.906059201359
 33
0.0
 14
14742.294500712
 24
1053.906059201359
 34
0.0
100
AcDbRotatedDimension
1001
ACAD
1000
DSTYLE
1002
{
1070
    41
1040
40.0
1070
   140
1040
40.0
1002
}
  0
DIMENSION
  5
15AB9
330
1F
100
AcDbEntity
  8
AM_5
100
AcDbDimension
  2
*D3
 10
13862.15599740084
 20
1163.995291355538
 30
0.0
 11
13862.15599740084
 21
913.4629393160285
 31
0.0
 70
   160
  1
<>
 71
     5
 42
525.0209030858643
  3
AM_DIN$0
100
AcDbAlignedDimension
 13
14297.31007854247
 23
638.9743882696738
 33
0.0
 14
14515.28241290808
 24
1163.995291355538
 34
0.0
 50
90.0
100
AcDbRotatedDimension
1001
ACAD
1000
DSTYLE
1002
{
1070
    41
1040
40.0
1070
   140
1040
40.0
1002
}
  0
DIMENSION
  5
15ABA
330
1F
100
AcDbEntity
  8
AM_5
100
AcDbDimension
  2
*D4
 10
14977.28449151549
 20
638.9743882696738
 30
0.0
 11
14977.28449151549
 21
504.2063118713131
 31
0.0
 70
   160
  1
<>
 71
     5
 42
86.00000000880276
  3
AM_DIN$0
100
AcDbAlignedDimension
 13
14896.39383447026
 23
724.9743882784765
 33
0.0
 14
14733.25892324198
 24
638.9743882696738
 34
0.0
 50
90.0
100
AcDbRotatedDimension
1001
ACAD
1000
DSTYLE
1002
{
1070
    41
1040
40.0
1070
   140
1040
40.0
1002
}
  0
DIMENSION
  5
15ABB
330
1F
100
AcDbEntity
  8
AM_5
100
AcDbDimension
  2
*D5
 10
14118.79032075605
 20
883.9743882801256
 30
0.0
 11
14118.79032075605
 21
769.9324797164262
 31
0.0
 70
   160
  1
<>
 71
     5
 42
245.0000000104519
  3
AM_DIN$0
100
AcDbAlignedDimension
 13
14297.31007854247
 23
638.9743882696738
 33
0.0
 14
14185.06018766529
 24
883.9743882801256
 34
0.0
 50
90.0
100
AcDbRotatedDimension
1001
ACAD
1000
DSTYLE
1002
{
1070
   140
1040
40.0
1070
    41
1040
40.0
1002
}
  0
DIMENSION
  5
15ABD
330
1F
100
AcDbEntity
  8
AM_5
100
AcDbDimension
  2
*D6
 10
14872.28450089259
 20
479.3883091415805
 30
0.0
 11
14550.00151011639
 21
479.3883091415805
 31
0.0
 70
   160
  1
645
 71
     5
 42
644.5179990480554
  3
AM_DIN$0
100
AcDbAlignedDimension
 13
14227.76650184454
 23
803.1991674121041
 33
0.0
 14
14872.28450089259
 24
644.9743882711741
 34
0.0
100
AcDbRotatedDimension
1001
ACAD
1000
DSTYLE
1002
{
1070
    41
1040
40.0
1070
   140
1040
40.0
1002
}
  0
MTEXT
  5
16671
330
1F
100
AcDbEntity
  8
Beschriftung
100
AcDbMText
 10
13922.48159643684
 20
1002.415023606745
 30
0.0
 40
30.0
 41
1190.293354815057
 71
     1
 72
     5
  1
Zulauf DN 150\P/ %%C OD 160
 73
     1
 44
1.0
1001
ACAD
1000
MTEXTBEGIN
1070
    73
1070
     1
1070
    44
1040
1.0
1070
    74
1070
     0
1000
MTEXTEND
  0
MTEXT
  5
17BE7
330
1F
100
AcDbEntity
  8
Beschriftung
100
AcDbMText
 10
15022.4968393296
 20
843.4150236050959
 30
0.0
 40
30.0
 41
1190.293354815057
 71
     1
 72
     5
  1
Ablauf DN 150\P/ %%C OD 160
 73
     1
 44
1.0
1001
ACAD
1000
MTEXTBEGIN
1070
    73
1070
     1
1070
    44
1040
1.0
1070
    74
1070
     0
1000
MTEXTEND
  0
LINE
  5
17E1E
330
1F
100
AcDbEntity
  8
0
  6
Continuous
 62
     7
100
AcDbLine
 10
14733.25892324198
 20
638.9743882696738
 30
0.0
 11
14297.31007854247
 21
638.9743882696738
 31
0.0
  0
LINE
  5
17E1F
330
1F
100
AcDbEntity
  8
0
  6
Continuous
 62
     7
100
AcDbLine
 10
14777.14307245598
 20
641.9743882767734
 30
0.0
 11
14745.38327888908
 21
641.9743882767734
 31
0.0
  0
LINE
  5
17E20
330
1F
100
AcDbEntity
  8
0
  6
Continuous
 62
     7
100
AcDbLine
 10
14872.28450089259
 20
644.9743882711741
 30
0.0
 11
14784.28450088329
 21
644.9743882711741
 31
0.0
  0
LINE
  5
17E21
330
1F
100
AcDbEntity
  8
0
  6
Continuous
 62
     7
100
AcDbLine
 10
14733.25892324198
 20
646.974388271675
 30
0.0
 11
14297.31007854247
 21
646.974388271675
 31
0.0
  0
LINE
  5
17E22
330
1F
100
AcDbEntity
  8
0
  6
Continuous
 62
     7
100
AcDbLine
 10
14775.62412314437
 20
649.9743882787745
 30
0.0
 11
14745.38372655137
 21
649.9743882787745
 31
0.0
  0
LINE
  5
17E23
330
1F
100
AcDbEntity
  8
0
  6
Continuous
 62
     7
100
AcDbLine
 10
14872.28450089259
 20
652.9743882731752
 30
0.0
 11
14784.28450088329
 21
652.9743882731752
 31
0.0
  0
LINE
  5
17E24
330
1F
100
AcDbEntity
  8
0
  6
Continuous
 62
     2
100
AcDbLine
 10
14305.61521986966
 20
638.9743882696738
 30
0.0
 11
14292.68638530069
 21
648.0272556985751
 31
0.0
  0
LINE
  5
17E25
330
1F
100
AcDbEntity
  8
0
  6
Continuous
 62
     2
100
AcDbLine
 10
14288.23505342358
 20
651.1441118346756
 30
0.0
 11
14277.14772605549
 21
658.9075420405743
 31
0.0
  0
LINE
  5
17E26
330
1F
100
AcDbEntity
  8
0
  6
Continuous
 62
     2
100
AcDbLine
 10
14321.31801091768
 20
638.9743882696738
 30
0.0
 11
14309.89282685928
 21
646.974388271675
 31
0.0
  0
LINE
  5
17E27
330
1F
100
AcDbEntity
  8
0
  6
Continuous
 62
     2
100
AcDbLine
 10
14284.43324390758
 20
664.801380176676
 30
0.0
 11
14275.53724438951
 21
671.0304261005756
 31
0.0
  0
LINE
  5
17E28
330
1F
100
AcDbEntity
  8
0
  6
Continuous
 62
     2
100
AcDbLine
 10
14337.020801953
 20
638.9743882696738
 30
0.0
 11
14325.59561790729
 21
646.974388271675
 31
0.0
  0
LINE
  5
17E29
330
1F
100
AcDbEntity
  8
0
  6
Continuous
 62
     2
100
AcDbLine
 10
14282.82276224158
 20
676.9242642366728
 30
0.0
 11
14273.92676272347
 21
683.1533101605771
 31
0.0
  0
LINE
  5
17E2A
330
1F
100
AcDbEntity
  8
0
  6
Continuous
 62
     7
100
AcDbLine
 10
14279.04700912509
 20
1111.293858919674
 30
0.0
 11
14269.0470091226
 21
1103.758318428175
 31
0.0
  0
LINE
  5
17E2B
330
1F
100
AcDbEntity
  8
0
  6
Continuous
 62
     7
100
AcDbLine
 10
14285.4505153681
 20
657.1438797944773
 30
0.0
 11
14735.98605207778
 21
657.1456424655734
 31
0.0
  0
LINE
  5
17E2C
330
1F
100
AcDbEntity
  8
0
  6
Continuous
 62
     2
100
AcDbLine
 10
14352.72359300099
 20
638.9743882696738
 30
0.0
 11
14341.29840894257
 21
646.974388271675
 31
0.0
  0
LINE
  5
17E2D
330
1F
100
AcDbEntity
  8
0
  6
Continuous
 62
     2
100
AcDbLine
 10
14281.2122805756
 20
689.0471482966741
 30
0.0
 11
14272.31628107019
 21
695.2761942205738
 31
0.0
  0
LINE
  5
17E2E
330
1F
100
AcDbEntity
  8
0
  6
Continuous
 62
     2
100
AcDbLine
 10
14368.42638403629
 20
638.9743882696738
 30
0.0
 11
14357.00119999058
 21
646.974388271675
 31
0.0
  0
LINE
  5
17E2F
330
1F
100
AcDbEntity
  8
0
  6
Continuous
 62
     2
100
AcDbLine
 10
14279.60179892228
 20
701.1700323566756
 30
0.0
 11
14270.76761683199
 21
707.3557932515752
 31
0.0
  0
LINE
  5
17E30
330
1F
100
AcDbEntity
  8
0
  6
Continuous
 62
     2
100
AcDbLine
 10
14384.12917508428
 20
638.9743882696738
 30
0.0
 11
14372.7039910259
 21
646.974388271675
 31
0.0
  0
LINE
  5
17E31
330
1F
100
AcDbEntity
  8
0
  6
Continuous
 62
     2
100
AcDbLine
 10
14278.28101815009
 20
713.0900656666754
 30
0.0
 11
14269.70881610478
 21
719.0923861613757
 31
0.0
  0
LINE
  5
17E32
330
1F
100
AcDbEntity
  8
0
  6
Continuous
 62
     2
100
AcDbLine
 10
14399.8319661323
 20
638.9743882696738
 30
0.0
 11
14388.40678207389
 21
646.974388271675
 31
0.0
  0
LINE
  5
17E33
330
1F
100
AcDbEntity
  8
0
  6
Continuous
 62
     2
100
AcDbLine
 10
14277.22221742288
 20
724.8266585764732
 30
0.0
 11
14268.65001537759
 21
730.8289790711738
 31
0.0
  0
LINE
  5
17E34
330
1F
100
AcDbEntity
  8
0
  6
Continuous
 62
     7
100
AcDbLine
 10
14227.81448434877
 20
968.7343368383723
 30
0.0
 11
14235.28450089208
 21
991.974388275377
 31
0.0
  0
LINE
  5
17E35
330
1F
100
AcDbEntity
  8
0
  6
Continuous
 62
     7
100
AcDbLine
 10
14279.88336585978
 20
1050.012074587375
 30
0.0
 11
14279.1503031781
 21
1048.803294505574
 31
0.0
  0
LINE
  5
17E38
330
1F
100
AcDbEntity
  8
7A
100
AcDbLine
 10
14699.25851103839
 20
724.9743882784765
 30
0.0
 11
14896.39383447026
 21
724.9743882784765
 31
0.0
  0
LINE
  5
17E39
330
1F
100
AcDbEntity
  8
0
  6
Continuous
 62
     2
100
AcDbLine
 10
14415.53475716758
 20
638.9743882696738
 30
0.0
 11
14404.1095731219
 21
646.974388271675
 31
0.0
  0
LINE
  5
17E3A
330
1F
100
AcDbEntity
  8
0
  6
Continuous
 62
     2
100
AcDbLine
 10
14276.16341669568
 20
736.563251486276
 30
0.0
 11
14267.59121466309
 21
742.5655719682731
 31
0.0
  0
LINE
  5
17E3B
330
1F
100
AcDbEntity
  8
0
  6
Continuous
 62
     2
100
AcDbLine
 10
14431.23754821559
 20
638.9743882696738
 30
0.0
 11
14419.81236415718
 21
646.974388271675
 31
0.0
  0
LINE
  5
17E3C
330
1F
100
AcDbEntity
  8
0
  6
Continuous
 62
     2
100
AcDbLine
 10
14275.10461598118
 20
748.2998443960743
 30
0.0
 11
14266.53241393589
 21
754.3021648780758
 31
0.0
  0
LINE
  5
17E3D
330
1F
100
AcDbEntity
  8
0
  6
Continuous
 62
     2
100
AcDbLine
 10
14257.0034913885
 20
760.9743882747745
 30
0.0
 11
14245.28450088188
 21
769.1801137606759
 31
0.0
  0
LINE
  5
17E3E
330
1F
100
AcDbEntity
  8
0
  6
Continuous
 62
     2
100
AcDbLine
 10
14446.94033926358
 20
638.9743882696738
 30
0.0
 11
14435.51515520518
 21
646.974388271675
 31
0.0
  0
LINE
  5
17E3F
330
1F
100
AcDbEntity
  8
0
  6
Continuous
 62
     2
100
AcDbLine
 10
14273.51460869638
 20
760.408392124574
 30
0.0
 11
14261.2810983781
 21
768.9743882767734
 31
0.0
  0
LINE
  5
17E40
330
1F
100
AcDbEntity
  8
0
  6
Continuous
 62
     2
100
AcDbLine
 10
14253.2845008839
 20
774.5736661180752
 30
0.0
 11
14245.28450088188
 21
780.175326428576
 31
0.0
  0
LINE
  5
17E41
330
1F
100
AcDbEntity
  8
0
  6
Continuous
 62
     2
100
AcDbLine
 10
14462.6431302989
 20
638.9743882696738
 30
0.0
 11
14451.21794624047
 21
646.974388271675
 31
0.0
  0
LINE
  5
17E42
330
1F
100
AcDbEntity
  8
0
  6
Continuous
 62
     2
100
AcDbLine
 10
14257.05501023389
 20
782.9287397177734
 30
0.0
 11
14246.14196892818
 21
790.570133490075
 31
0.0
  0
LINE
  5
17E43
330
1F
100
AcDbEntity
  8
0
  6
Continuous
 62
     7
100
AcDbLine
 10
14227.81448434877
 20
799.2144397218745
 30
0.0
 11
14235.28450089208
 21
775.9743882721733
 31
0.0
  0
LINE
  5
17E44
330
1F
100
AcDbEntity
  8
0
  6
Continuous
 62
     7
100
AcDbLine
 10
14227.81448434877
 20
799.2144397218745
 30
0.0
 11
14227.81448434877
 21
968.7343368383723
 31
0.0
  0
LINE
  5
17E45
330
1F
100
AcDbEntity
  8
0
  6
Continuous
 62
     7
100
AcDbLine
 10
14231.28430830829
 20
803.9743882791762
 30
0.0
 11
14231.28430830829
 21
963.9743882810755
 31
0.0
  0
LINE
  5
17E46
330
1F
100
AcDbEntity
  8
0
  6
Continuous
 62
     7
100
AcDbLine
 10
14245.28450088188
 20
762.9743882752733
 30
0.0
 11
14245.28450088188
 21
790.9743882695748
 31
0.0
  0
LINE
  5
17E47
330
1F
100
AcDbEntity
  8
0
  6
Continuous
 62
     7
100
AcDbLine
 10
14245.28450088188
 20
976.9743882779758
 30
0.0
 11
14245.28450088188
 21
1044.974388269575
 31
0.0
  0
LINE
  5
17E48
330
1F
100
AcDbEntity
  8
0
  6
Continuous
 62
     7
100
AcDbLine
 10
14253.2845008839
 20
1034.974388279774
 30
0.0
 11
14253.2845008839
 21
988.9743882809764
 31
0.0
  0
LINE
  5
17E49
330
1F
100
AcDbEntity
  8
0
  6
Continuous
 62
     7
100
AcDbLine
 10
14253.2845008839
 20
778.9743882792752
 30
0.0
 11
14253.2845008839
 21
772.974388277775
 31
0.0
  0
LINE
  5
17E4A
330
1F
100
AcDbEntity
  8
AM_4
100
AcDbLine
 10
14254.1712522346
 20
803.9743882791762
 30
0.0
 11
14254.1712522346
 21
963.9743882810755
 31
0.0
  0
LINE
  5
17E4B
330
1F
100
AcDbEntity
  8
AM_4
100
AcDbLine
 10
14255.2845008844
 20
798.9743882715758
 30
0.0
 11
14255.2845008844
 21
968.9743882759726
 31
0.0
  0
LINE
  5
17E4C
330
1F
100
AcDbEntity
  8
0
  6
Continuous
 62
     7
100
AcDbLine
 10
14257.28450088488
 20
1038.974388280776
 30
0.0
 11
14257.28450088488
 21
984.9743882799767
 31
0.0
  0
LINE
  5
17E4D
330
1F
100
AcDbEntity
  8
0
  6
Continuous
 62
     7
100
AcDbLine
 10
14257.28450088488
 20
782.9743882802748
 30
0.0
 11
14257.28450088488
 21
768.9743882767734
 31
0.0
  0
LINE
  5
17E4E
330
1F
100
AcDbEntity
  8
AM_4
100
AcDbLine
 10
14258.17125223558
 20
803.9743882791762
 30
0.0
 11
14258.17125223558
 21
963.9743882810755
 31
0.0
  0
LINE
  5
17E4F
330
1F
100
AcDbEntity
  8
AM_4
100
AcDbLine
 10
14260.17125223611
 20
803.9743882791762
 30
0.0
 11
14260.17125223611
 21
963.9743882810755
 31
0.0
  0
LINE
  5
17E50
330
1F
100
AcDbEntity
  8
AM_4
100
AcDbLine
 10
14261.28450088589
 20
798.9743882715758
 30
0.0
 11
14261.28450088589
 21
968.9743882759726
 31
0.0
  0
LINE
  5
17E51
330
1F
100
AcDbEntity
  8
0
  6
Continuous
 62
     7
100
AcDbLine
 10
14280.28451707681
 20
1051.974387007675
 30
0.0
 11
14279.88336585978
 21
1050.012074587375
 31
0.0
  0
LINE
  5
17E52
330
1F
100
AcDbEntity
  8
0
  6
Continuous
 62
     2
100
AcDbLine
 10
14245.1093800104
 20
991.974388275377
 30
0.0
 11
14230.63061078408
 21
977.4956190490726
 31
0.0
  0
LINE
  5
17E53
330
1F
100
AcDbEntity
  8
0
  6
Continuous
 62
     2
100
AcDbLine
 10
14245.28450088188
 20
977.3002667473747
 30
0.0
 11
14231.9586224156
 21
963.9743882810755
 31
0.0
  0
LINE
  5
17E54
330
1F
100
AcDbEntity
  8
0
  6
Continuous
 62
     2
100
AcDbLine
 10
14259.807864812
 20
976.9743882779758
 30
0.0
 11
14251.80786480999
 21
968.9743882759726
 31
0.0
  0
LINE
  5
17E55
330
1F
100
AcDbEntity
  8
0
  6
Continuous
 62
     2
100
AcDbLine
 10
14251.4760653847
 20
968.6425888379746
 30
0.0
 11
14246.80786481506
 21
963.9743882810755
 31
0.0
  0
LINE
  5
17E56
330
1F
100
AcDbEntity
  8
0
  6
Continuous
 62
     2
100
AcDbLine
 10
14274.6571072242
 20
976.9743882779758
 30
0.0
 11
14266.65710722218
 21
968.9743882759726
 31
0.0
  0
LINE
  5
17E57
330
1F
100
AcDbEntity
  8
0
  6
Continuous
 62
     2
100
AcDbLine
 10
14264.5189604825
 20
966.8362415362739
 30
0.0
 11
14263.2510112912
 21
965.5682923449743
 31
0.0
  0
LINE
  5
17E58
330
1F
100
AcDbEntity
  8
0
  6
Continuous
 62
     7
100
AcDbLine
 10
14247.2845008824
 20
760.9743882747745
 30
0.0
 11
14261.36236227448
 21
760.9743882747745
 31
0.0
  0
LINE
  5
17E59
330
1F
100
AcDbEntity
  8
0
  6
Continuous
 62
     2
100
AcDbLine
 10
14478.34592134689
 20
638.9743882696738
 30
0.0
 11
14466.92073728848
 21
646.974388271675
 31
0.0
  0
LINE
  5
17E5A
330
1F
100
AcDbEntity
  8
0
  6
Continuous
 62
     2
100
AcDbLine
 10
14272.6926083719
 20
782.9743882802748
 30
0.0
 11
14261.26742431348
 21
790.9743882695748
 31
0.0
  0
LINE
  5
17E5B
330
1F
100
AcDbEntity
  8
0
  6
Continuous
 62
     2
100
AcDbLine
 10
14494.04871238219
 20
638.9743882696738
 30
0.0
 11
14482.6235283365
 21
646.974388271675
 31
0.0
  0
LINE
  5
17E5C
330
1F
100
AcDbEntity
  8
0
  6
Continuous
 62
     2
100
AcDbLine
 10
14288.3953994199
 20
782.9743882802748
 30
0.0
 11
14276.97021536147
 21
790.9743882695748
 31
0.0
  0
LINE
  5
17E5D
330
1F
100
AcDbEntity
  8
0
  6
Continuous
 62
     2
100
AcDbLine
 10
14509.75150343018
 20
638.9743882696738
 30
0.0
 11
14498.32631937179
 21
646.974388271675
 31
0.0
  0
LINE
  5
17E5E
330
1F
100
AcDbEntity
  8
0
  6
Continuous
 62
     2
100
AcDbLine
 10
14304.0981904552
 20
782.9743882802748
 30
0.0
 11
14292.67300640948
 21
790.9743882695748
 31
0.0
  0
LINE
  5
17E5F
330
1F
100
AcDbEntity
  8
0
  6
Continuous
 62
     2
100
AcDbLine
 10
14525.45429447819
 20
638.9743882696738
 30
0.0
 11
14514.02911041979
 21
646.974388271675
 31
0.0
  0
LINE
  5
17E60
330
1F
100
AcDbEntity
  8
0
  6
Continuous
 62
     2
100
AcDbLine
 10
14319.80098150319
 20
782.9743882802748
 30
0.0
 11
14308.3757974448
 21
790.9743882695748
 31
0.0
  0
LINE
  5
17E61
330
1F
100
AcDbEntity
  8
0
  6
Continuous
 62
     7
100
AcDbLine
 10
14266.35048715978
 20
756.3187866131767
 30
0.0
 11
14277.54413991849
 21
655.9235408203776
 31
0.0
  0
LINE
  5
17E62
330
1F
100
AcDbEntity
  8
AM_4
100
AcDbLine
 10
14264.17125223709
 20
803.9743882791762
 30
0.0
 11
14264.17125223709
 21
963.9743882810755
 31
0.0
  0
LINE
  5
17E63
330
1F
100
AcDbEntity
  8
AM_4
100
AcDbLine
 10
14266.1712522376
 20
803.9743882791762
 30
0.0
 11
14266.1712522376
 21
963.9743882810755
 31
0.0
  0
LINE
  5
17E64
330
1F
100
AcDbEntity
  8
AM_4
100
AcDbLine
 10
14267.2845008874
 20
798.9743882715758
 30
0.0
 11
14267.2845008874
 21
968.9743882759726
 31
0.0
  0
LINE
  5
17E65
330
1F
100
AcDbEntity
  8
0
  6
Continuous
 62
     7
100
AcDbLine
 10
14268.2282349029
 20
1102.116111387472
 30
0.0
 11
14268.2282349029
 21
1072.116111392674
 31
0.0
  0
LINE
  5
17E66
330
1F
100
AcDbEntity
  8
AM_4
100
AcDbLine
 10
14270.17125223859
 20
803.9743882791762
 30
0.0
 11
14270.17125223859
 21
963.9743882810755
 31
0.0
  0
LINE
  5
17E67
330
1F
100
AcDbEntity
  8
AM_4
100
AcDbLine
 10
14272.17125223911
 20
803.9743882791762
 30
0.0
 11
14272.17125223911
 21
963.9743882810755
 31
0.0
  0
LINE
  5
17E68
330
1F
100
AcDbEntity
  8
AM_4
100
AcDbLine
 10
14273.2845008889
 20
798.9743882715758
 30
0.0
 11
14273.2845008889
 21
968.9743882759726
 31
0.0
  0
LINE
  5
17E69
330
1F
100
AcDbEntity
  8
AM_4
100
AcDbLine
 10
14276.17125224008
 20
803.9743882791762
 30
0.0
 11
14276.17125224008
 21
963.9743882810755
 31
0.0
  0
LINE
  5
17E6A
330
1F
100
AcDbEntity
  8
AM_4
100
AcDbLine
 10
14278.1712522279
 20
803.9743882791762
 30
0.0
 11
14278.1712522279
 21
963.9743882810755
 31
0.0
  0
LINE
  5
17E6B
330
1F
100
AcDbEntity
  8
AM_4
100
AcDbLine
 10
14279.28450089039
 20
798.9743882715758
 30
0.0
 11
14279.28450089039
 21
968.9743882759726
 31
0.0
  0
LINE
  5
17E6C
330
1F
100
AcDbEntity
  8
0
  6
Continuous
 62
     7
100
AcDbLine
 10
14280.2845008843
 20
1062.938363860475
 30
0.0
 11
14280.2845008843
 21
1051.974388277676
 31
0.0
  0
LINE
  5
17E6D
330
1F
100
AcDbEntity
  8
AM_4
100
AcDbLine
 10
14282.17125222887
 20
803.9743882791762
 30
0.0
 11
14282.17125222887
 21
963.9743882810755
 31
0.0
  0
LINE
  5
17E6E
330
1F
100
AcDbEntity
  8
AM_4
100
AcDbLine
 10
14284.17125222939
 20
803.9743882791762
 30
0.0
 11
14284.17125222939
 21
963.9743882810755
 31
0.0
  0
LINE
  5
17E6F
330
1F
100
AcDbEntity
  8
AM_4
100
AcDbLine
 10
14285.2845008919
 20
798.9743882715758
 30
0.0
 11
14285.2845008919
 21
968.9743882759726
 31
0.0
  0
LINE
  5
17E70
330
1F
100
AcDbEntity
  8
AM_4
100
AcDbLine
 10
14288.17125223038
 20
803.9743882791762
 30
0.0
 11
14288.17125223038
 21
963.9743882810755
 31
0.0
  0
LINE
  5
17E71
330
1F
100
AcDbEntity
  8
0
  6
Continuous
 62
     7
100
AcDbLine
 10
14296.28450088829
 20
790.9743882695748
 30
0.0
 11
14296.28450088829
 21
976.9743882779758
 31
0.0
  0
LINE
  5
17E72
330
1F
100
AcDbEntity
  8
0
  6
Continuous
 62
     2
100
AcDbLine
 10
14289.50634962369
 20
976.9743882779758
 30
0.0
 11
14281.50634962169
 21
968.9743882759726
 31
0.0
  0
LINE
  5
17E73
330
1F
100
AcDbEntity
  8
0
  6
Continuous
 62
     2
100
AcDbLine
 10
14281.3657031669
 20
968.8337418084772
 30
0.0
 11
14280.0977539629
 21
967.565792617173
 31
0.0
  0
LINE
  5
17E74
330
1F
100
AcDbEntity
  8
0
  6
Continuous
 62
     2
100
AcDbLine
 10
14277.56185558028
 20
965.0298942345736
 30
0.0
 11
14276.50634962676
 21
963.9743882810755
 31
0.0
  0
LINE
  5
17E75
330
1F
100
AcDbEntity
  8
0
  6
Continuous
 62
     2
100
AcDbLine
 10
14296.28450088829
 20
968.903297130374
 30
0.0
 11
14291.3555920263
 21
963.9743882810755
 31
0.0
  0
LINE
  5
17E76
330
1F
100
AcDbEntity
  8
0
  6
Continuous
 62
     7
100
AcDbLine
 10
14504.00586360068
 20
1116.795585508273
 30
0.0
 11
14503.35461188057
 21
1116.430407612774
 31
0.0
  0
LINE
  5
17E77
330
1F
100
AcDbEntity
  8
0
  6
Continuous
 62
     7
100
AcDbLine
 10
14257.28450088488
 20
768.9743882767734
 30
0.0
 11
14261.36236227448
 21
768.9743882767734
 31
0.0
  0
LINE
  5
17E78
330
1F
100
AcDbEntity
  8
0
  6
Continuous
 62
     7
100
AcDbLine
 10
14235.28450089208
 20
775.9743882721733
 30
0.0
 11
14245.28450088188
 21
775.9743882721733
 31
0.0
  0
LINE
  5
17E79
330
1F
100
AcDbEntity
  8
0
  6
Continuous
 62
     7
100
AcDbLine
 10
14338.28450088609
 20
782.9743882802748
 30
0.0
 11
14257.28450088488
 21
782.9743882802748
 31
0.0
  0
LINE
  5
17E7A
330
1F
100
AcDbEntity
  8
0
  6
Continuous
 62
     7
100
AcDbLine
 10
14245.28450088188
 20
790.9743882695748
 30
0.0
 11
14338.28450088609
 21
790.9743882695748
 31
0.0
  0
LINE
  5
17E7B
330
1F
100
AcDbEntity
  8
0
  6
Continuous
 62
     7
100
AcDbLine
 10
14872.28450089259
 20
796.974388271075
 30
0.0
 11
14784.28450088329
 21
796.974388271075
 31
0.0
  0
LINE
  5
17E7C
330
1F
100
AcDbEntity
  8
0
  6
Continuous
 62
     2
100
AcDbLine
 10
14541.15708551347
 20
638.9743882696738
 30
0.0
 11
14529.7319014678
 21
646.974388271675
 31
0.0
  0
LINE
  5
17E7D
330
1F
100
AcDbEntity
  8
0
  6
Continuous
 62
     2
100
AcDbLine
 10
14335.50377255118
 20
782.9743882802748
 30
0.0
 11
14324.07858849279
 21
790.9743882695748
 31
0.0
  0
LINE
  5
17E7E
330
1F
100
AcDbEntity
  8
0
  6
Continuous
 62
     2
100
AcDbLine
 10
14556.85987656148
 20
638.9743882696738
 30
0.0
 11
14545.43469250308
 21
646.974388271675
 31
0.0
  0
LINE
  5
17E7F
330
1F
100
AcDbEntity
  8
0
  6
Continuous
 62
     2
100
AcDbLine
 10
14572.5626675968
 20
638.9743882696738
 30
0.0
 11
14561.13748355109
 21
646.974388271675
 31
0.0
  0
LINE
  5
17E80
330
1F
100
AcDbEntity
  8
0
  6
Continuous
 62
     2
100
AcDbLine
 10
14588.2654586448
 20
638.9743882696738
 30
0.0
 11
14576.84027458637
 21
646.974388271675
 31
0.0
  0
LINE
  5
17E81
330
1F
100
AcDbEntity
  8
0
  6
Continuous
 62
     7
100
AcDbLine
 10
14330.28450088408
 20
956.9743882729767
 30
0.0
 11
14330.28450088408
 21
976.9743882779758
 31
0.0
  0
LINE
  5
17E82
330
1F
100
AcDbEntity
  8
0
  6
Continuous
 62
     7
100
AcDbLine
 10
14251.28450088339
 20
798.9743882715758
 30
0.0
 11
14254.1712522346
 21
803.9743882791762
 31
0.0
  0
LINE
  5
17E83
330
1F
100
AcDbEntity
  8
0
  6
Continuous
 62
     7
100
AcDbLine
 10
14255.2845008844
 20
798.9743882715758
 30
0.0
 11
14258.17125223558
 21
803.9743882791762
 31
0.0
  0
LINE
  5
17E84
330
1F
100
AcDbEntity
  8
0
  6
Continuous
 62
     7
100
AcDbLine
 10
14257.28450088488
 20
798.9743882715758
 30
0.0
 11
14260.17125223611
 21
803.9743882791762
 31
0.0
  0
LINE
  5
17E85
330
1F
100
AcDbEntity
  8
0
  6
Continuous
 62
     7
100
AcDbLine
 10
14261.28450088589
 20
798.9743882715758
 30
0.0
 11
14264.17125223709
 21
803.9743882791762
 31
0.0
  0
LINE
  5
17E86
330
1F
100
AcDbEntity
  8
0
  6
Continuous
 62
     7
100
AcDbLine
 10
14263.28450088638
 20
798.9743882715758
 30
0.0
 11
14266.1712522376
 21
803.9743882791762
 31
0.0
  0
LINE
  5
17E87
330
1F
100
AcDbEntity
  8
0
  6
Continuous
 62
     7
100
AcDbLine
 10
14231.28430830829
 20
803.9743882791762
 30
0.0
 11
14227.81448434877
 21
799.2144397218745
 31
0.0
  0
LINE
  5
17E88
330
1F
100
AcDbEntity
  8
0
  6
Continuous
 62
     7
100
AcDbLine
 10
14251.28450088339
 20
798.9743882715758
 30
0.0
 11
14255.2845008844
 21
798.9743882715758
 31
0.0
  0
LINE
  5
17E89
330
1F
100
AcDbEntity
  8
0
  6
Continuous
 62
     7
100
AcDbLine
 10
14257.28450088488
 20
798.9743882715758
 30
0.0
 11
14261.28450088589
 21
798.9743882715758
 31
0.0
  0
LINE
  5
17E8A
330
1F
100
AcDbEntity
  8
0
  6
Continuous
 62
     7
100
AcDbLine
 10
14263.28450088638
 20
798.9743882715758
 30
0.0
 11
14267.2845008874
 21
798.9743882715758
 31
0.0
  0
LINE
  5
17E8B
330
1F
100
AcDbEntity
  8
0
  6
Continuous
 62
     7
100
AcDbLine
 10
14269.28450088789
 20
798.9743882715758
 30
0.0
 11
14273.2845008889
 21
798.9743882715758
 31
0.0
  0
LINE
  5
17E8C
330
1F
100
AcDbEntity
  8
0
  6
Continuous
 62
     7
100
AcDbLine
 10
14275.28450088938
 20
798.9743882715758
 30
0.0
 11
14279.28450089039
 21
798.9743882715758
 31
0.0
  0
LINE
  5
17E8D
330
1F
100
AcDbEntity
  8
0
  6
Continuous
 62
     7
100
AcDbLine
 10
14281.28450089089
 20
798.9743882715758
 30
0.0
 11
14285.2845008919
 21
798.9743882715758
 31
0.0
  0
LINE
  5
17E8E
330
1F
100
AcDbEntity
  8
0
  6
Continuous
 62
     7
100
AcDbLine
 10
14231.28430830829
 20
803.9743882791762
 30
0.0
 11
14254.1712522346
 21
803.9743882791762
 31
0.0
  0
LINE
  5
17E8F
330
1F
100
AcDbEntity
  8
0
  6
Continuous
 62
     7
100
AcDbLine
 10
14258.17125223558
 20
803.9743882791762
 30
0.0
 11
14260.17125223611
 21
803.9743882791762
 31
0.0
  0
LINE
  5
17E90
330
1F
100
AcDbEntity
  8
0
  6
Continuous
 62
     7
100
AcDbLine
 10
14264.17125223709
 20
803.9743882791762
 30
0.0
 11
14266.1712522376
 21
803.9743882791762
 31
0.0
  0
LINE
  5
17E91
330
1F
100
AcDbEntity
  8
0
  6
Continuous
 62
     7
100
AcDbLine
 10
14270.17125223859
 20
803.9743882791762
 30
0.0
 11
14272.17125223911
 21
803.9743882791762
 31
0.0
  0
LINE
  5
17E92
330
1F
100
AcDbEntity
  8
0
  6
Continuous
 62
     7
100
AcDbLine
 10
14276.17125224008
 20
803.9743882791762
 30
0.0
 11
14278.1712522279
 21
803.9743882791762
 31
0.0
  0
LINE
  5
17E93
330
1F
100
AcDbEntity
  8
0
  6
Continuous
 62
     7
100
AcDbLine
 10
14282.17125222887
 20
803.9743882791762
 30
0.0
 11
14284.17125222939
 21
803.9743882791762
 31
0.0
  0
LINE
  5
17E94
330
1F
100
AcDbEntity
  8
0
  6
Continuous
 62
     7
100
AcDbLine
 10
14288.17125223038
 20
803.9743882791762
 30
0.0
 11
14296.28450088829
 21
803.9743882791762
 31
0.0
  0
LINE
  5
17E95
330
1F
100
AcDbEntity
  8
0
  6
Continuous
 62
     7
100
AcDbLine
 10
14872.28450089259
 20
804.974388273076
 30
0.0
 11
14784.28450088329
 21
804.974388273076
 31
0.0
  0
LINE
  5
17E96
330
1F
100
AcDbEntity
  8
0
  6
Continuous
 62
     2
100
AcDbLine
 10
14603.96824969279
 20
638.9743882696738
 30
0.0
 11
14592.5430656344
 21
646.974388271675
 31
0.0
  0
LINE
  5
17E97
330
1F
100
AcDbEntity
  8
0
  6
Continuous
 62
     2
100
AcDbLine
 10
14619.67104072809
 20
638.9743882696738
 30
0.0
 11
14608.24585668239
 21
646.974388271675
 31
0.0
  0
LINE
  5
17E98
330
1F
100
AcDbEntity
  8
0
  6
Continuous
 62
     2
100
AcDbLine
 10
14635.37383177608
 20
638.9743882696738
 30
0.0
 11
14623.94864771769
 21
646.974388271675
 31
0.0
  0
LINE
  5
17E99
330
1F
100
AcDbEntity
  8
0
  6
Continuous
 62
     2
100
AcDbLine
 10
14651.07662282409
 20
638.9743882696738
 30
0.0
 11
14639.65143876568
 21
646.974388271675
 31
0.0
  0
LINE
  5
17E9A
330
1F
100
AcDbEntity
  8
0
  6
Continuous
 62
     7
100
AcDbLine
 10
14231.28430830829
 20
963.9743882810755
 30
0.0
 11
14227.81448434877
 21
968.7343368383723
 31
0.0
  0
LINE
  5
17E9B
330
1F
100
AcDbEntity
  8
0
  6
Continuous
 62
     7
100
AcDbLine
 10
14251.28450088339
 20
968.9743882759726
 30
0.0
 11
14254.1712522346
 21
963.9743882810755
 31
0.0
  0
LINE
  5
17E9C
330
1F
100
AcDbEntity
  8
0
  6
Continuous
 62
     7
100
AcDbLine
 10
14255.2845008844
 20
968.9743882759726
 30
0.0
 11
14258.17125223558
 21
963.9743882810755
 31
0.0
  0
LINE
  5
17E9D
330
1F
100
AcDbEntity
  8
0
  6
Continuous
 62
     7
100
AcDbLine
 10
14257.28450088488
 20
968.9743882759726
 30
0.0
 11
14260.17125223611
 21
963.9743882810755
 31
0.0
  0
LINE
  5
17E9E
330
1F
100
AcDbEntity
  8
0
  6
Continuous
 62
     7
100
AcDbLine
 10
14261.28450088589
 20
968.9743882759726
 30
0.0
 11
14264.17125223709
 21
963.9743882810755
 31
0.0
  0
LINE
  5
17E9F
330
1F
100
AcDbEntity
  8
0
  6
Continuous
 62
     7
100
AcDbLine
 10
14263.28450088638
 20
968.9743882759726
 30
0.0
 11
14266.1712522376
 21
963.9743882810755
 31
0.0
  0
LINE
  5
17EA0
330
1F
100
AcDbEntity
  8
0
  6
Continuous
 62
     7
100
AcDbLine
 10
14267.2845008874
 20
968.9743882759726
 30
0.0
 11
14270.17125223859
 21
963.9743882810755
 31
0.0
  0
LINE
  5
17EA1
330
1F
100
AcDbEntity
  8
0
  6
Continuous
 62
     7
100
AcDbLine
 10
14269.28450088789
 20
968.9743882759726
 30
0.0
 11
14272.17125223911
 21
963.9743882810755
 31
0.0
  0
LINE
  5
17EA2
330
1F
100
AcDbEntity
  8
0
  6
Continuous
 62
     7
100
AcDbLine
 10
14273.2845008889
 20
968.9743882759726
 30
0.0
 11
14276.17125224008
 21
963.9743882810755
 31
0.0
  0
LINE
  5
17EA3
330
1F
100
AcDbEntity
  8
0
  6
Continuous
 62
     7
100
AcDbLine
 10
14275.28450088938
 20
968.9743882759726
 30
0.0
 11
14278.1712522279
 21
963.9743882810755
 31
0.0
  0
LINE
  5
17EA4
330
1F
100
AcDbEntity
  8
0
  6
Continuous
 62
     7
100
AcDbLine
 10
14279.28450089039
 20
968.9743882759726
 30
0.0
 11
14282.17125222887
 21
963.9743882810755
 31
0.0
  0
LINE
  5
17EA5
330
1F
100
AcDbEntity
  8
0
  6
Continuous
 62
     7
100
AcDbLine
 10
14281.28450089089
 20
968.9743882759726
 30
0.0
 11
14284.17125222939
 21
963.9743882810755
 31
0.0
  0
LINE
  5
17EA6
330
1F
100
AcDbEntity
  8
0
  6
Continuous
 62
     7
100
AcDbLine
 10
14351.02547758848
 20
1111.293858919674
 30
0.0
 11
14350.96178792669
 21
1112.456029137876
 31
0.0
  0
LINE
  5
17EA7
330
1F
100
AcDbEntity
  8
0
  6
Continuous
 62
     7
100
AcDbLine
 10
14338.28450088609
 20
782.9743882802748
 30
0.0
 11
14338.28450088609
 21
984.9743882799767
 31
0.0
  0
LINE
  5
17EA8
330
1F
100
AcDbEntity
  8
0
  6
Continuous
 62
     7
100
AcDbLine
 10
14267.2845008874
 20
798.9743882715758
 30
0.0
 11
14270.17125223859
 21
803.9743882791762
 31
0.0
  0
LINE
  5
17EA9
330
1F
100
AcDbEntity
  8
0
  6
Continuous
 62
     7
100
AcDbLine
 10
14269.28450088789
 20
798.9743882715758
 30
0.0
 11
14272.17125223911
 21
803.9743882791762
 31
0.0
  0
LINE
  5
17EAA
330
1F
100
AcDbEntity
  8
0
  6
Continuous
 62
     7
100
AcDbLine
 10
14273.2845008889
 20
798.9743882715758
 30
0.0
 11
14276.17125224008
 21
803.9743882791762
 31
0.0
  0
LINE
  5
17EAB
330
1F
100
AcDbEntity
  8
0
  6
Continuous
 62
     7
100
AcDbLine
 10
14275.28450088938
 20
798.9743882715758
 30
0.0
 11
14278.1712522279
 21
803.9743882791762
 31
0.0
  0
LINE
  5
17EAC
330
1F
100
AcDbEntity
  8
0
  6
Continuous
 62
     7
100
AcDbLine
 10
14279.28450089039
 20
798.9743882715758
 30
0.0
 11
14282.17125222887
 21
803.9743882791762
 31
0.0
  0
LINE
  5
17EAD
330
1F
100
AcDbEntity
  8
0
  6
Continuous
 62
     7
100
AcDbLine
 10
14281.28450089089
 20
798.9743882715758
 30
0.0
 11
14284.17125222939
 21
803.9743882791762
 31
0.0
  0
LINE
  5
17EAE
330
1F
100
AcDbEntity
  8
0
  6
Continuous
 62
     7
100
AcDbLine
 10
14285.2845008919
 20
798.9743882715758
 30
0.0
 11
14288.17125223038
 21
803.9743882791762
 31
0.0
  0
LWPOLYLINE
  5
17EAF
330
1F
100
AcDbEntity
  8
0
  6
Continuous
 62
     7
100
AcDbPolyline
 90
        3
 70
     0
 43
0.0
 10
14503.35461188057
 20
1116.430407612774
 10
14502.8699321286
 20
1115.827917707775
 10
14502.71286791388
 20
1115.429722047476
  0
LINE
  5
17EB0
330
1F
100
AcDbEntity
  8
0
  6
Continuous
 62
     2
100
AcDbLine
 10
14235.30028885899
 20
803.9743882791762
 30
0.0
 11
14228.47753039378
 21
797.1516298012756
 31
0.0
  0
LINE
  5
17EB1
330
1F
100
AcDbEntity
  8
0
  6
Continuous
 62
     2
100
AcDbLine
 10
14250.14953127118
 20
803.9743882791762
 30
0.0
 11
14232.08950827268
 21
785.9143652806732
 31
0.0
  0
LINE
  5
17EB2
330
1F
100
AcDbEntity
  8
0
  6
Continuous
 62
     2
100
AcDbLine
 10
14666.77941385936
 20
638.9743882696738
 30
0.0
 11
14655.35422980098
 21
646.974388271675
 31
0.0
  0
LINE
  5
17EB3
330
1F
100
AcDbEntity
  8
0
  6
Continuous
 62
     2
100
AcDbLine
 10
14682.48220490738
 20
638.9743882696738
 30
0.0
 11
14671.05702084898
 21
646.974388271675
 31
0.0
  0
LINE
  5
17EB4
330
1F
100
AcDbEntity
  8
0
  6
Continuous
 62
     2
100
AcDbLine
 10
14698.1849959427
 20
638.9743882696738
 30
0.0
 11
14686.75981189699
 21
646.974388271675
 31
0.0
  0
LINE
  5
17EB5
330
1F
100
AcDbEntity
  8
0
  6
Continuous
 62
     2
100
AcDbLine
 10
14713.88778699069
 20
638.9743882696738
 30
0.0
 11
14702.4626029323
 21
646.974388271675
 31
0.0
  0
LINE
  5
17EB6
330
1F
100
AcDbEntity
  8
0
  6
Continuous
 62
     7
100
AcDbLine
 10
14285.2845008919
 20
968.9743882759726
 30
0.0
 11
14288.17125223038
 21
963.9743882810755
 31
0.0
  0
LINE
  5
17EB7
330
1F
100
AcDbEntity
  8
0
  6
Continuous
 62
     2
100
AcDbLine
 10
14264.99877367068
 20
803.9743882791762
 30
0.0
 11
14263.04083692108
 21
802.0164515295743
 31
0.0
  0
LINE
  5
17EB8
330
1F
100
AcDbEntity
  8
0
  6
Continuous
 62
     2
100
AcDbLine
 10
14259.9987736758
 20
798.9743882715758
 30
0.0
 11
14251.99877367378
 21
790.9743882695748
 31
0.0
  0
LINE
  5
17EB9
330
1F
100
AcDbEntity
  8
0
  6
Continuous
 62
     2
100
AcDbLine
 10
14245.28450088188
 20
784.2601154903758
 30
0.0
 11
14236.99877367638
 21
775.9743882721733
 31
0.0
  0
LINE
  5
17EBA
330
1F
100
AcDbEntity
  8
0
  6
Continuous
 62
     2
100
AcDbLine
 10
14275.88075023029
 20
800.0071224265752
 30
0.0
 11
14266.84801607329
 21
790.9743882695748
 31
0.0
  0
LINE
  5
17EBB
330
1F
100
AcDbEntity
  8
0
  6
Continuous
 62
     2
100
AcDbLine
 10
14294.69725848238
 20
803.9743882791762
 30
0.0
 11
14281.69725848547
 21
790.9743882695748
 31
0.0
  0
LINE
  5
17EBC
330
1F
100
AcDbEntity
  8
0
  6
Continuous
 62
     7
100
AcDbLine
 10
14774.28450089349
 20
891.9743882757741
 30
0.0
 11
14771.62447904818
 21
891.9743882757741
 31
0.0
  0
LINE
  5
17EBD
330
1F
100
AcDbEntity
  8
0
  6
Continuous
 62
     2
100
AcDbLine
 10
14729.5905780387
 20
638.9743882696738
 30
0.0
 11
14718.1653939803
 21
646.974388271675
 31
0.0
  0
LINE
  5
17EBE
330
1F
100
AcDbEntity
  8
0
  6
Continuous
 62
     2
100
AcDbLine
 10
14246.71467848888
 20
977.0877331617747
 30
0.0
 11
14245.7211061682
 21
977.7834399872743
 31
0.0
  0
LINE
  5
17EBF
330
1F
100
AcDbEntity
  8
0
  6
Continuous
 62
     2
100
AcDbLine
 10
14742.2205323571
 20
641.1260117159756
 30
0.0
 11
14733.77773857469
 21
647.0377195648725
 31
0.0
  0
LINE
  5
17EC0
330
1F
100
AcDbEntity
  8
0
  6
Continuous
 62
     2
100
AcDbLine
 10
14262.57934279711
 20
976.9743882779758
 30
0.0
 11
14245.28450088188
 21
989.0843669535753
 31
0.0
  0
LINE
  5
17EC1
330
1F
100
AcDbEntity
  8
0
  6
Continuous
 62
     2
100
AcDbLine
 10
14756.71171610009
 20
641.9743882767734
 30
0.0
 11
14745.29648230119
 21
649.9674210333746
 31
0.0
  0
LINE
  5
17EC2
330
1F
100
AcDbEntity
  8
0
  6
Continuous
 62
     2
100
AcDbLine
 10
14278.2821338451
 20
976.9743882779758
 30
0.0
 11
14266.85694978668
 21
984.9743882799767
 31
0.0
  0
LINE
  5
17EC3
330
1F
100
AcDbEntity
  8
0
  6
Continuous
 62
     2
100
AcDbLine
 10
14253.2845008839
 20
994.4779193109726
 30
0.0
 11
14245.28450088188
 21
1000.079579608774
 31
0.0
  0
LINE
  5
17EC4
330
1F
100
AcDbEntity
  8
0
  6
Continuous
 62
     2
100
AcDbLine
 10
14772.41450714808
 20
641.9743882767734
 30
0.0
 11
14760.98932308969
 21
649.9743882787745
 31
0.0
  0
LINE
  5
17EC5
330
1F
100
AcDbEntity
  8
0
  6
Continuous
 62
     2
100
AcDbLine
 10
14293.9849248804
 20
976.9743882779758
 30
0.0
 11
14282.55974083467
 21
984.9743882799767
 31
0.0
  0
LINE
  5
17EC6
330
1F
100
AcDbEntity
  8
0
  6
Continuous
 62
     2
100
AcDbLine
 10
14253.2845008839
 20
1005.473131966174
 30
0.0
 11
14245.28450088188
 21
1011.074792276674
 31
0.0
  0
LINE
  5
17EC8
330
1F
100
AcDbEntity
  8
0
  6
Continuous
 62
     7
100
AcDbLine
 10
14458.65018731957
 20
1113.445655136776
 30
0.0
 11
14458.65257497039
 21
1113.460714555475
 31
0.0
  0
LINE
  5
17EC9
330
1F
100
AcDbEntity
  8
0
  6
Continuous
 62
     2
100
AcDbLine
 10
14783.90579477
 20
644.9233147131738
 30
0.0
 11
14776.48501288821
 21
650.1194021238761
 31
0.0
  0
LINE
  5
17ECA
330
1F
100
AcDbEntity
  8
0
  6
Continuous
 62
     2
100
AcDbLine
 10
14338.25067606169
 20
956.9743882729767
 30
0.0
 11
14330.28450088408
 21
962.5523641883738
 31
0.0
  0
LINE
  5
17ECB
330
1F
100
AcDbEntity
  8
0
  6
Continuous
 62
     2
100
AcDbLine
 10
14309.68771592839
 20
976.9743882779758
 30
0.0
 11
14298.26253187001
 21
984.9743882799767
 31
0.0
  0
LINE
  5
17ECC
330
1F
100
AcDbEntity
  8
0
  6
Continuous
 62
     2
100
AcDbLine
 10
14253.2845008839
 20
1016.468344621375
 30
0.0
 11
14245.28450088188
 21
1022.070004931873
 31
0.0
  0
LINE
  5
17ECD
330
1F
100
AcDbEntity
  8
0
  6
Continuous
 62
     2
100
AcDbLine
 10
14799.5356452095
 20
644.9743882711741
 30
0.0
 11
14788.11046115107
 21
652.9743882731752
 31
0.0
  0
LINE
  5
17ECE
330
1F
100
AcDbEntity
  8
0
  6
Continuous
 62
     2
100
AcDbLine
 10
14338.28450088609
 20
967.9459165330746
 30
0.0
 11
14330.28450088408
 21
973.5475768435753
 31
0.0
  0
LINE
  5
17ECF
330
1F
100
AcDbEntity
  8
0
  6
Continuous
 62
     2
100
AcDbLine
 10
14325.39050697639
 20
976.9743882779758
 30
0.0
 11
14313.965322918
 21
984.9743882799767
 31
0.0
  0
LINE
  5
17ED0
330
1F
100
AcDbEntity
  8
0
  6
Continuous
 62
     2
100
AcDbLine
 10
14253.2845008839
 20
1027.463557289273
 30
0.0
 11
14245.28450088188
 21
1033.065217587074
 31
0.0
  0
LINE
  5
17ED1
330
1F
100
AcDbEntity
  8
0
  6
Continuous
 62
     2
100
AcDbLine
 10
14815.23843625749
 20
644.9743882711741
 30
0.0
 11
14803.81325219908
 21
652.9743882731752
 31
0.0
  0
LINE
  5
17ED2
330
1F
100
AcDbEntity
  8
0
  6
Continuous
 62
     2
100
AcDbLine
 10
14338.28450088609
 20
978.9411292009743
 30
0.0
 11
14329.66811396599
 21
984.9743882799767
 31
0.0
  0
LINE
  5
17ED3
330
1F
100
AcDbEntity
  8
0
  6
Continuous
 62
     2
100
AcDbLine
 10
14254.38124248008
 20
1037.690823220274
 30
0.0
 11
14245.28450088188
 21
1044.060430254974
 31
0.0
  0
LINE
  5
17ED4
330
1F
100
AcDbEntity
  8
0
  6
Continuous
 62
     2
100
AcDbLine
 10
14830.94122729279
 20
644.9743882711741
 30
0.0
 11
14819.51604324708
 21
652.9743882731752
 31
0.0
  0
LINE
  5
17ED5
330
1F
100
AcDbEntity
  8
0
  6
Continuous
 62
     2
100
AcDbLine
 10
14268.25091263248
 20
1038.974388280776
 30
0.0
 11
14256.82572858679
 21
1046.974388270075
 31
0.0
  0
LINE
  5
17ED6
330
1F
100
AcDbEntity
  8
0
  6
Continuous
 62
     7
100
AcDbLine
 10
14452.57687202149
 20
1113.299874605373
 30
0.0
 11
14452.51416439989
 21
1116.299179185876
 31
0.0
  0
LINE
  5
17ED8
330
1F
100
AcDbEntity
  8
0
  6
Continuous
 62
     7
100
AcDbLine
 10
14687.89745952008
 20
1033.462411115773
 30
0.0
 11
14750.28450088749
 21
1048.803295750175
 31
0.0
  0
LINE
  5
17ED9
330
1F
100
AcDbEntity
  8
0
  6
Continuous
 62
     7
100
AcDbLine
 10
14338.28450088609
 20
956.9743882729767
 30
0.0
 11
14330.28450088408
 21
956.9743882729767
 31
0.0
  0
LINE
  5
17EDA
330
1F
100
AcDbEntity
  8
0
  6
Continuous
 62
     7
100
AcDbLine
 10
14231.28430830829
 20
963.9743882810755
 30
0.0
 11
14254.1712522346
 21
963.9743882810755
 31
0.0
  0
LINE
  5
17EDB
330
1F
100
AcDbEntity
  8
0
  6
Continuous
 62
     7
100
AcDbLine
 10
14258.17125223558
 20
963.9743882810755
 30
0.0
 11
14260.17125223611
 21
963.9743882810755
 31
0.0
  0
LINE
  5
17EDC
330
1F
100
AcDbEntity
  8
0
  6
Continuous
 62
     7
100
AcDbLine
 10
14264.17125223709
 20
963.9743882810755
 30
0.0
 11
14266.1712522376
 21
963.9743882810755
 31
0.0
  0
LINE
  5
17EDD
330
1F
100
AcDbEntity
  8
0
  6
Continuous
 62
     7
100
AcDbLine
 10
14270.17125223859
 20
963.9743882810755
 30
0.0
 11
14272.17125223911
 21
963.9743882810755
 31
0.0
  0
LINE
  5
17EDE
330
1F
100
AcDbEntity
  8
0
  6
Continuous
 62
     7
100
AcDbLine
 10
14276.17125224008
 20
963.9743882810755
 30
0.0
 11
14278.1712522279
 21
963.9743882810755
 31
0.0
  0
LINE
  5
17EDF
330
1F
100
AcDbEntity
  8
0
  6
Continuous
 62
     7
100
AcDbLine
 10
14282.17125222887
 20
963.9743882810755
 30
0.0
 11
14284.17125222939
 21
963.9743882810755
 31
0.0
  0
LINE
  5
17EE0
330
1F
100
AcDbEntity
  8
0
  6
Continuous
 62
     7
100
AcDbLine
 10
14288.17125223038
 20
963.9743882810755
 30
0.0
 11
14296.28450088829
 21
963.9743882810755
 31
0.0
  0
LINE
  5
17EE1
330
1F
100
AcDbEntity
  8
0
  6
Continuous
 62
     7
100
AcDbLine
 10
14251.28450088339
 20
968.9743882759726
 30
0.0
 11
14255.2845008844
 21
968.9743882759726
 31
0.0
  0
LINE
  5
17EE2
330
1F
100
AcDbEntity
  8
0
  6
Continuous
 62
     7
100
AcDbLine
 10
14257.28450088488
 20
968.9743882759726
 30
0.0
 11
14261.28450088589
 21
968.9743882759726
 31
0.0
  0
LINE
  5
17EE3
330
1F
100
AcDbEntity
  8
0
  6
Continuous
 62
     7
100
AcDbLine
 10
14263.28450088638
 20
968.9743882759726
 30
0.0
 11
14267.2845008874
 21
968.9743882759726
 31
0.0
  0
LINE
  5
17EE4
330
1F
100
AcDbEntity
  8
0
  6
Continuous
 62
     7
100
AcDbLine
 10
14269.28450088789
 20
968.9743882759726
 30
0.0
 11
14273.2845008889
 21
968.9743882759726
 31
0.0
  0
LINE
  5
17EE5
330
1F
100
AcDbEntity
  8
0
  6
Continuous
 62
     7
100
AcDbLine
 10
14275.28450088938
 20
968.9743882759726
 30
0.0
 11
14279.28450089039
 21
968.9743882759726
 31
0.0
  0
LINE
  5
17EE6
330
1F
100
AcDbEntity
  8
0
  6
Continuous
 62
     7
100
AcDbLine
 10
14281.28450089089
 20
968.9743882759726
 30
0.0
 11
14285.2845008919
 21
968.9743882759726
 31
0.0
  0
LINE
  5
17EE7
330
1F
100
AcDbEntity
  8
0
  6
Continuous
 62
     7
100
AcDbLine
 10
14245.28450088188
 20
976.9743882779758
 30
0.0
 11
14330.28450088408
 21
976.9743882779758
 31
0.0
  0
LINE
  5
17EE8
330
1F
100
AcDbEntity
  8
0
  6
Continuous
 62
     2
100
AcDbLine
 10
14846.64401834078
 20
644.9743882711741
 30
0.0
 11
14835.21883428239
 21
652.9743882731752
 31
0.0
  0
LINE
  5
17EE9
330
1F
100
AcDbEntity
  8
0
  6
Continuous
 62
     2
100
AcDbLine
 10
14281.58264042669
 20
1040.634624635175
 30
0.0
 11
14272.52851962209
 21
1046.974388270075
 31
0.0
  0
LINE
  5
17EEA
330
1F
100
AcDbEntity
  8
0
  6
Continuous
 62
     2
100
AcDbLine
 10
14862.34680937608
 20
644.9743882711741
 30
0.0
 11
14850.92162533039
 21
652.9743882731752
 31
0.0
  0
LINE
  5
17EEB
330
1F
100
AcDbEntity
  8
0
  6
Continuous
 62
     2
100
AcDbLine
 10
14872.28450089259
 20
649.0111544292735
 30
0.0
 11
14866.62441636569
 21
652.9743882731752
 31
0.0
  0
LINE
  5
17EEC
330
1F
100
AcDbEntity
  8
0
  6
Continuous
 62
     7
100
AcDbLine
 10
14269.0470091226
 20
1070.473904351977
 30
0.0
 11
14279.04700912509
 21
1062.938363860475
 31
0.0
  0
LINE
  5
17EED
330
1F
100
AcDbEntity
  8
0
  6
Continuous
 62
     7
100
AcDbLine
 10
14500.7941611087
 20
1113.960296157275
 30
0.0
 11
14500.7941611087
 21
1111.293858919674
 31
0.0
  0
LINE
  5
17EEE
330
1F
100
AcDbEntity
  8
0
  6
Continuous
 62
     7
100
AcDbLine
 10
14502.78450089229
 20
1114.899171368676
 30
0.0
 11
14502.78450089229
 21
1111.293858919674
 31
0.0
  0
LINE
  5
17EEF
330
1F
100
AcDbEntity
  8
0
  6
Continuous
 62
     7
100
AcDbLine
 10
14504.78450089279
 20
1116.899171369177
 30
0.0
 11
14504.78452592449
 21
1111.293858919674
 31
0.0
  0
LINE
  5
17EF0
330
1F
100
AcDbEntity
  8
0
  6
Continuous
 62
     7
100
AcDbLine
 10
14511.28450088488
 20
1062.983299864073
 30
0.0
 11
14511.28450088488
 21
1062.938363860475
 31
0.0
  0
LINE
  5
17EF1
330
1F
100
AcDbEntity
  8
0
  6
Continuous
 62
     7
100
AcDbLine
 10
14761.52199264919
 20
1070.473904351977
 30
0.0
 11
14751.52199264667
 21
1062.938363860475
 31
0.0
  0
LINE
  5
17EF2
330
1F
100
AcDbEntity
  8
0
  6
Continuous
 62
     7
100
AcDbLine
 10
14338.28450088609
 20
984.9743882799767
 30
0.0
 11
14257.28450088488
 21
984.9743882799767
 31
0.0
  0
LINE
  5
17EF3
330
1F
100
AcDbEntity
  8
0
  6
Continuous
 62
     7
100
AcDbLine
 10
14235.28450089208
 20
991.974388275377
 30
0.0
 11
14245.28450088188
 21
991.974388275377
 31
0.0
  0
LINE
  5
17EF5
330
1F
100
AcDbEntity
  8
0
  6
Continuous
 62
     7
100
AcDbLine
 10
14280.2845008843
 20
1048.803295750175
 30
0.0
 11
14338.31360551419
 21
1033.135009065475
 31
0.0
  0
LINE
  5
17EF6
330
1F
100
AcDbEntity
  8
0
  6
Continuous
 62
     7
100
AcDbLine
 10
14459.22080077069
 20
1062.983299864073
 30
0.0
 11
14457.341692756
 21
1068.974388275576
 31
0.0
  0
LINE
  5
17EF7
330
1F
100
AcDbEntity
  8
0
  6
Continuous
 62
     7
100
AcDbLine
 10
14481.3826589234
 20
1144.995859778173
 30
0.0
 11
14481.73529481959
 21
1142.016657202176
 31
0.0
  0
LINE
  5
17EF9
330
1F
100
AcDbEntity
  8
0
  6
Continuous
 62
     7
100
AcDbLine
 10
14519.2845008869
 20
1062.938363860475
 30
0.0
 11
14519.2845008869
 21
1062.983299864073
 31
0.0
  0
LINE
  5
17EFA
330
1F
100
AcDbEntity
  8
0
  6
Continuous
 62
     7
100
AcDbLine
 10
14527.7845008922
 20
1114.899171368676
 30
0.0
 11
14527.7845008922
 21
1111.293858919674
 31
0.0
  0
LINE
  5
17EFB
330
1F
100
AcDbEntity
  8
0
  6
Continuous
 62
     7
100
AcDbLine
 10
14529.7748406631
 20
1111.293858919674
 30
0.0
 11
14529.7748406631
 21
1113.960296157275
 31
0.0
  0
LINE
  5
17EFC
330
1F
100
AcDbEntity
  8
0
  6
Continuous
 62
     7
100
AcDbLine
 10
14525.78450089168
 20
1116.899171369177
 30
0.0
 11
14525.78424501209
 21
1111.293858919674
 31
0.0
  0
LINE
  5
17EFD
330
1F
100
AcDbEntity
  8
0
  6
Continuous
 62
     7
100
AcDbLine
 10
14549.18634286109
 20
1144.995859778173
 30
0.0
 11
14548.83370695219
 21
1142.016657202176
 31
0.0
  0
LINE
  5
17EFE
330
1F
100
AcDbEntity
  8
0
  6
Continuous
 62
     7
100
AcDbLine
 10
14298.51109901319
 20
1028.457928655874
 30
0.0
 11
14355.62424793118
 21
1028.456250173076
 31
0.0
  0
LINE
  5
17EFF
330
1F
100
AcDbEntity
  8
0
  6
Continuous
 62
     7
100
AcDbLine
 10
14612.16095055399
 20
1028.456250173076
 30
0.0
 11
14743.91204449351
 21
1028.456250173076
 31
0.0
  0
LINE
  5
17F00
330
1F
100
AcDbEntity
  8
0
  6
Continuous
 62
     7
100
AcDbLine
 10
14619.30699855549
 20
1029.727940517676
 30
0.0
 11
14350.8724694236
 21
1029.727940517676
 31
0.0
  0
LINE
  5
17F01
330
1F
100
AcDbEntity
  8
0
  6
Continuous
 62
     7
100
AcDbLine
 10
14257.28450088488
 20
1038.974388280776
 30
0.0
 11
14275.28450088938
 21
1038.974388280776
 31
0.0
  0
LINE
  5
17F02
330
1F
100
AcDbEntity
  8
0
  6
Continuous
 62
     7
100
AcDbLine
 10
14247.2845008824
 20
1046.974388270075
 30
0.0
 11
14275.28450088938
 21
1046.974388270075
 31
0.0
  0
LINE
  5
17F03
330
1F
100
AcDbEntity
  8
0
  6
Continuous
 62
     7
100
AcDbLine
 10
14750.28450088749
 20
1048.803295750175
 30
0.0
 11
14282.1864516524
 21
1048.803295750175
 31
0.0
  0
LINE
  5
17F04
330
1F
100
AcDbEntity
  8
0
  6
Continuous
 62
     7
100
AcDbLine
 10
14279.15029967288
 20
1048.803295750175
 30
0.0
 11
14280.2845008843
 21
1048.803295750175
 31
0.0
  0
LINE
  5
17F06
330
1F
100
AcDbEntity
  8
0
  6
Continuous
 62
     2
100
AcDbLine
 10
14786.59343174929
 20
796.974388271075
 30
0.0
 11
14774.53054755659
 21
805.4209107099765
 31
0.0
  0
LINE
  5
17F07
330
1F
100
AcDbEntity
  8
0
  6
Continuous
 62
     2
100
AcDbLine
 10
14802.29622278459
 20
796.974388271075
 30
0.0
 11
14790.8710387389
 21
804.974388273076
 31
0.0
  0
LINE
  5
17F08
330
1F
100
AcDbEntity
  8
0
  6
Continuous
 62
     2
100
AcDbLine
 10
14782.28450088279
 20
810.9867467969747
 30
0.0
 11
14774.28450089349
 21
816.5884071074753
 31
0.0
  0
LINE
  5
17F0B
330
1F
100
AcDbEntity
  8
0
  6
Continuous
 62
     7
100
AcDbLine
 10
14577.99212975028
 20
1113.299874605373
 30
0.0
 11
14578.0548373846
 21
1116.299179185876
 31
0.0
  0
LINE
  5
17F0C
330
1F
100
AcDbEntity
  8
0
  6
Continuous
 62
     7
100
AcDbLine
 10
14279.04700912509
 20
1062.938363860475
 30
0.0
 11
14511.28450088488
 21
1062.938363860475
 31
0.0
  0
LINE
  5
17F0D
330
1F
100
AcDbEntity
  8
0
  6
Continuous
 62
     7
100
AcDbLine
 10
14519.2845008869
 20
1062.938363860475
 30
0.0
 11
14751.52199264667
 21
1062.938363860475
 31
0.0
  0
LINE
  5
17F0E
330
1F
100
AcDbEntity
  8
0
  6
Continuous
 62
     7
100
AcDbLine
 10
14540.23893400967
 20
1062.983299864073
 30
0.0
 11
14459.22080077069
 21
1062.983299864073
 31
0.0
  0
LINE
  5
17F0F
330
1F
100
AcDbEntity
  8
0
  6
Continuous
 62
     7
100
AcDbLine
 10
14761.52199264919
 20
1070.473904351977
 30
0.0
 11
14519.2845008869
 21
1070.473904351977
 31
0.0
  0
LINE
  5
17F10
330
1F
100
AcDbEntity
  8
0
  6
Continuous
 62
     7
100
AcDbLine
 10
14456.87136875379
 20
1070.473904351977
 30
0.0
 11
14269.0470091226
 21
1070.473904351977
 31
0.0
  0
LINE
  5
17F11
330
1F
100
AcDbEntity
  8
0
  6
Continuous
 62
     7
100
AcDbLine
 10
14268.2282349029
 20
1072.116111392674
 30
0.0
 11
14511.28450088488
 21
1072.116111392674
 31
0.0
  0
LINE
  5
17F12
330
1F
100
AcDbEntity
  8
0
  6
Continuous
 62
     7
100
AcDbLine
 10
14519.2845008869
 20
1072.116111392674
 30
0.0
 11
14762.34076686889
 21
1072.116111392674
 31
0.0
  0
LINE
  5
17F13
330
1F
100
AcDbEntity
  8
0
  6
Continuous
 62
     2
100
AcDbLine
 10
14817.99901383258
 20
796.974388271075
 30
0.0
 11
14806.5738297742
 21
804.974388273076
 31
0.0
  0
LINE
  5
17F14
330
1F
100
AcDbEntity
  8
0
  6
Continuous
 62
     2
100
AcDbLine
 10
14782.28450088279
 20
821.9819594648747
 30
0.0
 11
14774.28450089349
 21
827.5836197626766
 31
0.0
  0
LINE
  5
17F15
330
1F
100
AcDbEntity
  8
0
  6
Continuous
 62
     2
100
AcDbLine
 10
14833.70180486788
 20
796.974388271075
 30
0.0
 11
14822.27662082219
 21
804.974388273076
 31
0.0
  0
LINE
  5
17F16
330
1F
100
AcDbEntity
  8
0
  6
Continuous
 62
     2
100
AcDbLine
 10
14782.28450088279
 20
832.9771721200762
 30
0.0
 11
14774.28450089349
 21
838.5788324305744
 31
0.0
  0
LINE
  5
17F17
330
1F
100
AcDbEntity
  8
0
  6
Continuous
 62
     2
100
AcDbLine
 10
14849.40459591587
 20
796.974388271075
 30
0.0
 11
14837.97941185749
 21
804.974388273076
 31
0.0
  0
LINE
  5
17F18
330
1F
100
AcDbEntity
  8
0
  6
Continuous
 62
     2
100
AcDbLine
 10
14782.28450088279
 20
843.9723847752752
 30
0.0
 11
14774.28450089349
 21
849.5740450857756
 31
0.0
  0
LINE
  5
17F19
330
1F
100
AcDbEntity
  8
0
  6
Continuous
 62
     2
100
AcDbLine
 10
14865.10738696388
 20
796.974388271075
 30
0.0
 11
14853.68220290548
 21
804.974388273076
 31
0.0
  0
LINE
  5
17F1A
330
1F
100
AcDbEntity
  8
0
  6
Continuous
 62
     2
100
AcDbLine
 10
14782.28450088279
 20
854.967597443175
 30
0.0
 11
14774.28450089349
 21
860.5692577409771
 31
0.0
  0
LINE
  5
17F1B
330
1F
100
AcDbEntity
  8
0
  6
Continuous
 62
     7
100
AcDbLine
 10
14504.64123437717
 20
1116.899192146377
 30
0.0
 11
14504.00586360068
 21
1116.795585508273
 31
0.0
  0
LINE
  5
17F1C
330
1F
100
AcDbEntity
  8
0
  6
Continuous
 62
     7
100
AcDbLine
 10
14500.7941611087
 20
1113.960296157275
 30
0.0
 11
14458.65257497039
 21
1113.460714555475
 31
0.0
  0
LINE
  5
17F1D
330
1F
100
AcDbEntity
  8
0
  6
Continuous
 62
     7
100
AcDbLine
 10
14504.64121559388
 20
1116.899192882973
 30
0.0
 11
14504.6086781558
 21
1116.898927935575
 31
0.0
  0
LINE
  5
17F1E
330
1F
100
AcDbEntity
  8
0
  6
Continuous
 62
     7
100
AcDbLine
 10
14504.6628906458
 20
1116.899190457275
 30
0.0
 11
14504.63349238098
 21
1116.899178785974
 31
0.0
  0
LINE
  5
17F1F
330
1F
100
AcDbEntity
  8
0
  6
Continuous
 62
     7
100
AcDbLine
 10
14762.34076686889
 20
1102.116111387472
 30
0.0
 11
14519.2845008869
 21
1102.116111387472
 31
0.0
  0
LINE
  5
17F20
330
1F
100
AcDbEntity
  8
0
  6
Continuous
 62
     7
100
AcDbLine
 10
14511.28450088488
 20
1102.116111387472
 30
0.0
 11
14268.2282349029
 21
1102.116111387472
 31
0.0
  0
LINE
  5
17F21
330
1F
100
AcDbEntity
  8
0
  6
Continuous
 62
     7
100
AcDbLine
 10
14269.0470091226
 20
1103.758318428175
 30
0.0
 11
14511.28450088488
 21
1103.758318428175
 31
0.0
  0
LINE
  5
17F22
330
1F
100
AcDbEntity
  8
0
  6
Continuous
 62
     7
100
AcDbLine
 10
14519.2845008869
 20
1103.758318428175
 30
0.0
 11
14761.52199264919
 21
1103.758318428175
 31
0.0
  0
LINE
  5
17F23
330
1F
100
AcDbEntity
  8
0
  6
Continuous
 62
     7
100
AcDbLine
 10
14279.04700912509
 20
1111.293858919674
 30
0.0
 11
14511.28450088488
 21
1111.293858919674
 31
0.0
  0
LINE
  5
17F24
330
1F
100
AcDbEntity
  8
0
  6
Continuous
 62
     7
100
AcDbLine
 10
14519.2845008869
 20
1111.293858919674
 30
0.0
 11
14751.52199264667
 21
1111.293858919674
 31
0.0
  0
LINE
  5
17F25
330
1F
100
AcDbEntity
  8
0
  6
Continuous
 62
     7
100
AcDbLine
 10
14527.7845008922
 20
1114.899171368676
 30
0.0
 11
14502.78450089229
 21
1114.899171368676
 31
0.0
  0
LINE
  5
17F26
330
1F
100
AcDbEntity
  8
0
  6
Continuous
 62
     7
100
AcDbLine
 10
14504.73035608108
 20
1116.899171381875
 30
0.0
 11
14504.68440834468
 21
1116.899175585576
 31
0.0
  0
LINE
  5
17F27
330
1F
100
AcDbEntity
  8
0
  6
Continuous
 62
     7
100
AcDbLine
 10
14504.6504796978
 20
1116.899175242676
 30
0.0
 11
14504.64238808329
 21
1116.899194305374
 31
0.0
  0
LINE
  5
17F28
330
1F
100
AcDbEntity
  8
0
  6
Continuous
 62
     7
100
AcDbLine
 10
14529.7748406631
 20
1113.960296157275
 30
0.0
 11
14571.9164268014
 21
1113.460714555475
 31
0.0
  0
LINE
  5
17F29
330
1F
100
AcDbEntity
  8
0
  6
Continuous
 62
     7
100
AcDbLine
 10
14525.9277769323
 20
1116.899192451173
 30
0.0
 11
14525.99311274268
 21
1116.898124812975
 31
0.0
  0
LWPOLYLINE
  5
17F2A
330
1F
100
AcDbEntity
  8
0
  6
Continuous
 62
     7
100
AcDbPolyline
 90
        4
 70
     0
 43
0.0
 10
14525.99311274268
 20
1116.898124812975
 10
14525.95241592288
 20
1116.899041206875
 10
14525.93831671309
 20
1116.899165781173
 10
14504.78450089279
 20
1116.899171369177
  0
LINE
  5
17F2B
330
1F
100
AcDbEntity
  8
0
  6
Continuous
 62
     2
100
AcDbLine
 10
14872.28450089259
 20
802.9441316655741
 30
0.0
 11
14869.38499395347
 21
804.974388273076
 31
0.0
  0
LINE
  5
17F2C
330
1F
100
AcDbEntity
  8
0
  6
Continuous
 62
     2
100
AcDbLine
 10
14782.28450088279
 20
865.9628100983765
 30
0.0
 11
14774.28450089349
 21
871.5644704088749
 31
0.0
  0
LINE
  5
17F2D
330
1F
100
AcDbEntity
  8
0
  6
Continuous
 62
     2
100
AcDbLine
 10
14782.28450088279
 20
876.9580227535753
 30
0.0
 11
14758.34848793448
 21
893.718199456674
 31
0.0
  0
LINE
  5
17F2E
330
1F
100
AcDbEntity
  8
0
  6
Continuous
 62
     2
100
AcDbLine
 10
14779.60121404719
 20
889.8320930937746
 30
0.0
 11
14778.02076756369
 21
890.9387336287759
 31
0.0
  0
LINE
  5
17F2F
330
1F
100
AcDbEntity
  8
0
  6
Continuous
 62
     2
100
AcDbLine
 10
14765.47488462909
 20
899.7234554293765
 30
0.0
 11
14756.99888900808
 21
905.6584114537743
 31
0.0
  0
LINE
  5
17F30
330
1F
100
AcDbEntity
  8
0
  6
Continuous
 62
     2
100
AcDbLine
 10
14764.58301948367
 20
911.3431587837736
 30
0.0
 11
14756.1070238627
 21
917.2781148208771
 31
0.0
  0
LWPOLYLINE
  5
17F31
330
1F
100
AcDbEntity
  8
0
  6
Continuous
 62
     7
100
AcDbPolyline
 90
        3
 70
     0
 43
0.0
 10
14527.85613387057
 20
1115.429722047476
 10
14527.69906964319
 20
1115.827917707775
 10
14527.21438989119
 20
1116.430407612774
  0
LINE
  5
17F32
330
1F
100
AcDbEntity
  8
0
  6
Continuous
 62
     7
100
AcDbLine
 10
14571.9164268014
 20
1113.460714555475
 30
0.0
 11
14571.91881446488
 21
1113.445655136776
 31
0.0
  0
LWPOLYLINE
  5
17F33
330
1F
100
AcDbEntity
  8
0
  6
Continuous
 62
     7
100
AcDbPolyline
 90
        3
 70
     0
 43
0.0
 10
14527.21438989119
 20
1116.430407612774
 10
14526.5631381711
 20
1116.795585508273
 10
14525.92776740728
 20
1116.899192146377
  0
LINE
  5
17F34
330
1F
100
AcDbEntity
  8
0
  6
Continuous
 62
     2
100
AcDbLine
 10
14763.69115433829
 20
922.9628621508762
 30
0.0
 11
14755.21515873
 21
928.8978181752742
 31
0.0
  0
LINE
  5
17F35
330
1F
100
AcDbEntity
  8
0
  6
Continuous
 62
     2
100
AcDbLine
 10
14762.79928920559
 20
934.5825655052756
 30
0.0
 11
14754.32329358458
 21
940.5175215296733
 31
0.0
  0
LINE
  5
17F36
330
1F
100
AcDbEntity
  8
0
  6
Continuous
 62
     2
100
AcDbLine
 10
14761.90742406016
 20
946.2022688596727
 30
0.0
 11
14753.4314284392
 21
952.1372248840753
 31
0.0
  0
LINE
  5
17F37
330
1F
100
AcDbEntity
  8
0
  6
Continuous
 62
     2
100
AcDbLine
 10
14761.01555891479
 20
957.8219722140744
 30
0.0
 11
14752.49506201119
 21
963.788088374275
 31
0.0
  0
LINE
  5
17F38
330
1F
100
AcDbEntity
  8
0
  6
Continuous
 62
     7
100
AcDbLine
 10
14679.54352408169
 20
1111.293858919674
 30
0.0
 11
14679.60721385778
 21
1112.456029137876
 31
0.0
  0
LINE
  5
17F3A
330
1F
100
AcDbEntity
  8
0
  6
Continuous
 62
     2
100
AcDbLine
 10
14759.77979788621
 20
969.6824740581751
 30
0.0
 11
14750.88621630837
 21
975.9098269196741
 31
0.0
  0
LINE
  5
17F3B
330
1F
100
AcDbEntity
  8
0
  6
Continuous
 62
     2
100
AcDbLine
 10
14758.17095218338
 20
981.8042126035743
 30
0.0
 11
14749.27737060559
 21
988.0315654777763
 31
0.0
  0
LINE
  5
17F3C
330
1F
100
AcDbEntity
  8
0
  6
Continuous
 62
     2
100
AcDbLine
 10
14756.5621064806
 20
993.9259511616748
 30
0.0
 11
14747.66852489009
 21
1000.153304023173
 31
0.0
  0
LINE
  5
17F3D
330
1F
100
AcDbEntity
  8
0
  6
Continuous
 62
     2
100
AcDbLine
 10
14754.95326077779
 20
1006.047689707074
 30
0.0
 11
14746.05967918727
 21
1012.275042568572
 31
0.0
  0
LINE
  5
17F3E
330
1F
100
AcDbEntity
  8
0
  6
Continuous
 62
     2
100
AcDbLine
 10
14753.34441507498
 20
1018.169428252475
 30
0.0
 11
14744.45083348449
 21
1024.396781126675
 31
0.0
  0
LINE
  5
17F3F
330
1F
100
AcDbEntity
  8
0
  6
Continuous
 62
     2
100
AcDbLine
 10
14751.7348867345
 20
1030.291644787773
 30
0.0
 11
14742.91204742058
 21
1036.469463394775
 31
0.0
  0
LINE
  5
17F40
330
1F
100
AcDbEntity
  8
0
  6
Continuous
 62
     2
100
AcDbLine
 10
14750.47446268688
 20
1042.169415875974
 30
0.0
 11
14743.41331899869
 21
1047.113681908176
 31
0.0
  0
LINE
  5
17F41
330
1F
100
AcDbEntity
  8
0
  6
Continuous
 62
     7
100
AcDbLine
 10
14751.81032300729
 20
1029.727940517676
 30
0.0
 11
14750.28450088749
 21
1048.803295750175
 31
0.0
  0
LINE
  5
17F42
330
1F
100
AcDbEntity
  8
0
  6
Continuous
 62
     7
100
AcDbLine
 10
14750.28450088749
 20
1062.938363860475
 30
0.0
 11
14750.28450088749
 21
1048.803295750175
 31
0.0
  0
LINE
  5
17F43
330
1F
100
AcDbEntity
  8
0
  6
Continuous
 62
     7
100
AcDbLine
 10
14762.34076686889
 20
1102.116111387472
 30
0.0
 11
14762.34076686889
 21
1072.116111392674
 31
0.0
  0
LINE
  5
17F44
330
1F
100
AcDbEntity
  8
0
  6
Continuous
 62
     7
100
AcDbLine
 10
14770.28449717139
 20
881.3661307394735
 30
0.0
 11
14770.28450089247
 21
670.7193313836731
 31
0.0
  0
LINE
  5
17F45
330
1F
100
AcDbEntity
  8
0
  6
Continuous
 62
     7
100
AcDbLine
 10
14774.28450089349
 20
674.0101029961748
 30
0.0
 11
14774.28450089349
 21
880.0242145891756
 31
0.0
  0
LINE
  5
17F46
330
1F
100
AcDbEntity
  8
0
  6
Continuous
 62
     7
100
AcDbLine
 10
14782.28450088279
 20
883.9743882737776
 30
0.0
 11
14782.28450088279
 21
806.9743882735744
 31
0.0
  0
LINE
  5
17F47
330
1F
100
AcDbEntity
  8
0
  6
Continuous
 62
     7
100
AcDbLine
 10
14784.28450088329
 20
652.9743882731752
 30
0.0
 11
14784.28450088329
 21
796.974388271075
 31
0.0
  0
LINE
  5
17F48
330
1F
100
AcDbEntity
  8
0
  6
Continuous
 62
     7
100
AcDbLine
 10
14751.52199264667
 20
1111.293858919674
 30
0.0
 11
14761.52199264919
 21
1103.758318428175
 31
0.0
  0
LINE
  5
17F49
330
1F
100
AcDbEntity
  8
0
  6
Continuous
 62
     7
100
AcDbLine
 10
14872.28450089259
 20
644.9743882711741
 30
0.0
 11
14872.28450089259
 21
804.974388273076
 31
0.0
  0
ARC
  5
17F4A
330
1F
100
AcDbEntity
  8
0
  6
Continuous
 62
     7
100
AcDbCircle
 10
14760.28450088999
 20
1102.116111387472
 30
0.0
 40
2.056265978899999
100
AcDbArc
 50
0.0
 51
52.9999999999963
  0
ARC
  5
17F4B
330
1F
100
AcDbEntity
  8
0
  6
Continuous
 62
     7
100
AcDbCircle
 10
14270.28450088178
 20
1102.116111387472
 30
0.0
 40
2.056265978899999
100
AcDbArc
 50
127.0000000000037
 51
180.0
  0
ARC
  5
17F4C
330
1F
100
AcDbEntity
  8
0
  6
Continuous
 62
     7
100
AcDbCircle
 10
14760.28450088999
 20
1072.116111392674
 30
0.0
 40
2.056265978899999
100
AcDbArc
 50
307.0000000000037
 51
0.0
  0
ARC
  5
17F4D
330
1F
100
AcDbEntity
  8
0
  6
Continuous
 62
     7
100
AcDbCircle
 10
14270.28450088178
 20
1072.116111392674
 30
0.0
 40
2.056265978899999
100
AcDbArc
 50
180.0
 51
232.9999999999963
  0
ARC
  5
17F4E
330
1F
100
AcDbEntity
  8
0
  6
Continuous
 62
     7
100
AcDbCircle
 10
14515.28450088589
 20
-1886.004708637823
 30
0.0
 40
2999.960038028301
100
AcDbArc
 50
87.58954645552035
 51
88.80226932307619
  0
ARC
  5
17F4F
330
1F
100
AcDbEntity
  8
0
  6
Continuous
 62
     7
100
AcDbCircle
 10
14515.28450088589
 20
-1886.004708637823
 30
0.0
 40
2999.960038028301
100
AcDbArc
 50
91.1977306769238
 51
92.41204636686887
  0
ARC
  5
17F50
330
1F
100
AcDbEntity
  8
0
  6
Continuous
 62
     7
100
AcDbCircle
 10
14500.7845008918
 20
1115.960272827877
 30
0.0
 40
2.0000000005
100
AcDbArc
 50
270.2767461803081
 51
344.837488710112
  0
ARC
  5
17F51
330
1F
100
AcDbEntity
  8
0
  6
Continuous
 62
     7
100
AcDbCircle
 10
14529.78450089269
 20
1115.960272827877
 30
0.0
 40
2.0000000005
100
AcDbArc
 50
195.162511289888
 51
269.7232538196919
  0
ARC
  5
17F52
330
1F
100
AcDbEntity
  8
0
  6
Continuous
 62
     7
100
AcDbCircle
 10
14485.26165379426
 20
1112.224631556476
 30
0.0
 40
29.9999999948
100
AcDbArc
 50
96.75045588926458
 51
171.0069981299023
  0
ARC
  5
17F53
330
1F
100
AcDbEntity
  8
0
  6
Continuous
 62
     7
100
AcDbCircle
 10
14515.28450088589
 20
858.5801677008754
 30
0.0
 40
285.4151236568
100
AcDbArc
 50
83.24954411073541
 51
96.75045588926458
  0
ARC
  5
17F54
330
1F
100
AcDbEntity
  8
0
  6
Continuous
 62
     7
100
AcDbCircle
 10
14545.30734799018
 20
1112.224631556476
 30
0.0
 40
29.9999999948
100
AcDbArc
 50
8.993002014102977
 51
83.24954411073541
  0
ARC
  5
17F55
330
1F
100
AcDbEntity
  8
0
  6
Continuous
 62
     7
100
AcDbCircle
 10
14571.9730587303
 20
1116.460179981476
 30
0.0
 40
2.999999994399998
100
AcDbArc
 50
268.9183456166862
 51
9.019202123807351
  0
ARC
  5
17F56
330
1F
100
AcDbEntity
  8
0
  6
Continuous
 62
     7
100
AcDbCircle
 10
14458.59594304149
 20
1116.460179981476
 30
0.0
 40
2.999999994399998
100
AcDbArc
 50
170.9808010279037
 51
271.081654386441
  0
ARC
  5
17F57
330
1F
100
AcDbEntity
  8
0
  6
Continuous
 62
     7
100
AcDbCircle
 10
14515.28450088589
 20
858.5801677008754
 30
0.0
 40
305.4151236618
100
AcDbArc
 50
55.82435877175939
 51
124.1764246361799
  0
ARC
  5
17F58
330
1F
100
AcDbEntity
  8
0
  6
Continuous
 62
     7
100
AcDbCircle
 10
14504.78451379599
 20
1114.899171368676
 30
0.0
 40
2.0000064521
100
AcDbArc
 50
90.00036989753644
 51
180.0
  0
ARC
  5
17F59
330
1F
100
AcDbEntity
  8
0
  6
Continuous
 62
     7
100
AcDbCircle
 10
14525.78450089168
 20
1114.899171368676
 30
0.0
 40
2.0000000005
100
AcDbArc
 50
0.0
 51
90.0
  0
ARC
  5
17F5A
330
1F
100
AcDbEntity
  8
0
  6
Continuous
 62
     7
100
AcDbCircle
 10
14515.28450088589
 20
-1886.004708637823
 30
0.0
 40
3002.9599980685
100
AcDbArc
 50
91.19771888514243
 51
93.13680596554577
  0
ARC
  5
17F5B
330
1F
100
AcDbEntity
  8
0
  6
Continuous
 62
     7
100
AcDbCircle
 10
14515.28450088589
 20
858.5801677008754
 30
0.0
 40
302.4151236547
100
AcDbArc
 50
57.08678841301303
 51
122.913211586987
  0
ARC
  5
17F5C
330
1F
100
AcDbEntity
  8
0
  6
Continuous
 62
     7
100
AcDbCircle
 10
14515.28450088589
 20
-1886.004708637823
 30
0.0
 40
3002.9599980685
100
AcDbArc
 50
86.86319403445422
 51
88.802279840693
  0
ARC
  5
17F5D
330
1F
100
AcDbEntity
  8
0
  6
Continuous
 62
     7
100
AcDbCircle
 10
14545.30734799018
 20
1112.224631556476
 30
0.0
 40
33.0000000019
100
AcDbArc
 50
7.092613655600731
 51
83.24954411073541
  0
ARC
  5
17F5E
330
1F
100
AcDbEntity
  8
0
  6
Continuous
 62
     7
100
AcDbCircle
 10
14515.28450088589
 20
858.5801677008754
 30
0.0
 40
288.4151266103
100
AcDbArc
 50
83.24954411073541
 51
96.75045588926458
  0
ARC
  5
17F5F
330
1F
100
AcDbEntity
  8
0
  6
Continuous
 62
     7
100
AcDbCircle
 10
14485.26165379426
 20
1112.224631556476
 30
0.0
 40
33.0000000019
100
AcDbArc
 50
96.75045588926458
 51
172.9073696100052
  0
ARC
  5
17F60
330
1F
100
AcDbEntity
  8
0
  6
Continuous
 62
     7
100
AcDbCircle
 10
14247.2845008824
 20
788.9743882690737
 30
0.0
 40
2.0000000005
100
AcDbArc
 50
90.0
 51
179.9999999837937
  0
ARC
  5
17F61
330
1F
100
AcDbEntity
  8
0
  6
Continuous
 62
     7
100
AcDbCircle
 10
14247.2845008824
 20
978.9743882784767
 30
0.0
 40
2.0000000005
100
AcDbArc
 50
180.0000000164929
 51
270.0
  0
ARC
  5
17F62
330
1F
100
AcDbEntity
  8
0
  6
Continuous
 62
     7
100
AcDbCircle
 10
14257.28450088488
 20
778.9743882792752
 30
0.0
 40
4.000000001
100
AcDbArc
 50
90.0
 51
179.9999999911022
  0
ARC
  5
17F63
330
1F
100
AcDbEntity
  8
0
  6
Continuous
 62
     7
100
AcDbCircle
 10
14257.28450088488
 20
988.9743882809764
 30
0.0
 40
4.000000001
100
AcDbArc
 50
180.0000000087024
 51
270.0
  0
ARC
  5
17F64
330
1F
100
AcDbEntity
  8
0
  6
Continuous
 62
     7
100
AcDbCircle
 10
14257.28450088488
 20
1034.974388279774
 30
0.0
 40
4.000000001
100
AcDbArc
 50
90.0
 51
179.9999999893955
  0
ARC
  5
17F65
330
1F
100
AcDbEntity
  8
0
  6
Continuous
 62
     7
100
AcDbCircle
 10
14257.28450088488
 20
772.974388277775
 30
0.0
 40
4.000000001
100
AcDbArc
 50
180.0000000106044
 51
270.0
  0
ARC
  5
17F66
330
1F
100
AcDbEntity
  8
0
  6
Continuous
 62
     7
100
AcDbCircle
 10
13567.06854427358
 20
838.9743882688753
 30
0.0
 40
1199.9999999952
100
AcDbArc
 50
2.804146675095509
 51
9.146611136599226
  0
ARC
  5
17F67
330
1F
100
AcDbEntity
  8
0
  6
Continuous
 62
     7
100
AcDbCircle
 10
15463.50045751089
 20
838.9743882688753
 30
0.0
 40
1199.9999999952
100
AcDbArc
 50
183.9496416010996
 51
188.774289647806
  0
ARC
  5
17F68
330
1F
100
AcDbEntity
  8
0
  6
Continuous
 62
     7
100
AcDbCircle
 10
14733.25892324198
 20
658.9743882746753
 30
0.0
 40
12.000000003
100
AcDbArc
 50
270.0
 51
297.7957810665528
  0
ARC
  5
17F69
330
1F
100
AcDbEntity
  8
0
  6
Continuous
 62
     7
100
AcDbCircle
 10
14771.62442494617
 20
897.9743017267734
 30
0.0
 40
5.9999960391
100
AcDbArc
 50
182.8033464202023
 51
270.0005165596321
  0
ARC
  5
17F6A
330
1F
100
AcDbEntity
  8
0
  6
Continuous
 62
     7
100
AcDbCircle
 10
14745.3835717257
 20
635.9744049630746
 30
0.0
 40
5.9999992395
100
AcDbArc
 50
90.00279569149826
 51
117.7983187855561
  0
ARC
  5
17F6B
330
1F
100
AcDbEntity
  8
0
  6
Continuous
 62
     7
100
AcDbCircle
 10
14870.28450089208
 20
1048.803295750175
 30
0.0
 40
120.0000000046
100
AcDbArc
 50
180.0
 51
189.1466111365992
  0
ARC
  5
17F6C
330
1F
100
AcDbEntity
  8
0
  6
Continuous
 62
     7
100
AcDbCircle
 10
14261.36241593199
 20
755.9744677183751
 30
0.0
 40
4.999997315199999
100
AcDbArc
 50
3.948781649695713
 51
90.00060453302316
  0
ARC
  5
17F6D
330
1F
100
AcDbEntity
  8
0
  6
Continuous
 62
     7
100
AcDbCircle
 10
14275.2845197108
 20
1051.974366751173
 30
0.0
 40
4.999999271
100
AcDbArc
 50
269.9998113001827
 51
320.6382550842898
  0
ARC
  5
17F6E
330
1F
100
AcDbEntity
  8
0
  6
Continuous
 62
     7
100
AcDbCircle
 10
14777.14292972069
 20
649.9744059698757
 30
0.0
 40
8.000045950599997
100
AcDbArc
 50
270.0010225018096
 51
315.5736207128728
  0
ARC
  5
17F6F
330
1F
100
AcDbEntity
  8
0
  6
Continuous
 62
     7
100
AcDbCircle
 10
14247.2845008824
 20
1044.974388269575
 30
0.0
 40
2.0000000005
100
AcDbArc
 50
90.0
 51
179.9999999788042
  0
ARC
  5
17F70
330
1F
100
AcDbEntity
  8
0
  6
Continuous
 62
     7
100
AcDbCircle
 10
14774.28450089349
 20
883.9743882737776
 30
0.0
 40
8.000000002
100
AcDbArc
 50
0.0
 51
90.0
  0
ARC
  5
17F71
330
1F
100
AcDbEntity
  8
0
  6
Continuous
 62
     7
100
AcDbCircle
 10
14247.2845008824
 20
762.9743882752733
 30
0.0
 40
2.0000000005
100
AcDbArc
 50
180.0000000211958
 51
270.0
  0
ARC
  5
17F72
330
1F
100
AcDbEntity
  8
0
  6
Continuous
 62
     7
100
AcDbCircle
 10
13567.06854427358
 20
838.9743882688753
 30
0.0
 40
1192.0000000059
100
AcDbArc
 50
2.804146675095509
 51
9.146611136599226
  0
ARC
  5
17F73
330
1F
100
AcDbEntity
  8
0
  6
Continuous
 62
     7
100
AcDbCircle
 10
14784.28450088329
 20
642.9743882706757
 30
0.0
 40
2.0000000005
100
AcDbArc
 50
90.0
 51
135.5729960010704
  0
ARC
  5
17F74
330
1F
100
AcDbEntity
  8
0
  6
Continuous
 62
     7
100
AcDbCircle
 10
15463.50045751089
 20
838.9743882688753
 30
0.0
 40
1192.0000000059
100
AcDbArc
 50
183.9496416010996
 51
188.774289647806
  0
ARC
  5
17F75
330
1F
100
AcDbEntity
  8
0
  6
Continuous
 62
     7
100
AcDbCircle
 10
14784.28450088329
 20
806.9743882735744
 30
0.0
 40
2.0000000005
100
AcDbArc
 50
180.0
 51
270.0
  0
ARC
  5
17F76
330
1F
100
AcDbEntity
  8
0
  6
Continuous
 62
     7
100
AcDbCircle
 10
14733.25892324198
 20
658.9743882746753
 30
0.0
 40
20.000000005
100
AcDbArc
 50
270.0
 51
297.7957724986091
  0
ARC
  5
17F77
330
1F
100
AcDbEntity
  8
0
  6
Continuous
 62
     7
100
AcDbCircle
 10
14297.31007854247
 20
658.9743882746753
 30
0.0
 40
20.000000005
100
AcDbArc
 50
188.774289647896
 51
270.0
  0
ARC
  5
17F78
330
1F
100
AcDbEntity
  8
0
  6
Continuous
 62
     7
100
AcDbCircle
 10
14297.31007854247
 20
658.9743882746753
 30
0.0
 40
12.000000003
100
AcDbArc
 50
188.7742894937032
 51
270.0
  0
ARC
  5
17F79
330
1F
100
AcDbEntity
  8
0
  6
Continuous
 62
     7
100
AcDbCircle
 10
14784.28450088329
 20
642.9743882706757
 30
0.0
 40
10.0000000025
100
AcDbArc
 50
90.0
 51
128.213206069885
  0
ARC
  5
17F7A
330
1F
100
AcDbEntity
  8
0
  6
Continuous
 62
     7
100
AcDbCircle
 10
14784.28450088329
 20
806.9743882735744
 30
0.0
 40
10.0000000025
100
AcDbArc
 50
180.0000000195021
 51
270.0
  0
ARC
  5
17F7B
330
1F
100
AcDbEntity
  8
0
  6
Continuous
 62
     7
100
AcDbCircle
 10
14771.62442494617
 20
897.9743017267734
 30
0.0
 40
13.999993209
100
AcDbArc
 50
182.8033482880975
 51
265.7309260219126
  0
ARC
  5
17F7C
330
1F
100
AcDbEntity
  8
0
  6
Continuous
 62
     7
100
AcDbCircle
 10
14745.3835717384
 20
635.9744049630746
 30
0.0
 40
13.9999982001
100
AcDbArc
 50
90.00364458012652
 51
117.7990930015073
  0
ARC
  5
17F7D
330
1F
100
AcDbEntity
  8
0
  6
Continuous
 62
     7
100
AcDbCircle
 10
14870.28450089208
 20
1048.803295750175
 30
0.0
 40
127.9999999939
100
AcDbArc
 50
180.8789361702933
 51
189.1466111365992
  0
ARC
  5
17F7E
330
1F
100
AcDbEntity
  8
0
  6
Continuous
 62
     7
100
AcDbCircle
 10
14261.36241593199
 20
755.9744677183751
 30
0.0
 40
12.9999949804
100
AcDbArc
 50
3.948777413800866
 51
90.00060611488063
  0
ARC
  5
17F7F
330
1F
100
AcDbEntity
  8
0
  6
Continuous
 62
     7
100
AcDbCircle
 10
14275.2845197108
 20
1051.974366751173
 30
0.0
 40
12.999998257
100
AcDbArc
 50
270.0000183571756
 51
337.11770124309
  0
ARC
  5
17F80
330
1F
100
AcDbEntity
  8
0
  6
Continuous
 62
     7
100
AcDbCircle
 10
14770.28450089247
 20
880.0242256635741
 30
0.0
 40
4.000000001
100
AcDbArc
 50
0.000277672903544
 51
85.7310006442044
  0
ARC
  5
17F81
330
1F
100
AcDbEntity
  8
0
  6
Continuous
 62
     7
100
AcDbCircle
 10
14775.62411567678
 20
653.9744037737762
 30
0.0
 40
4.0000109611
100
AcDbArc
 50
270.001772701311
 51
308.2145481044836
  0
SPLINE
  5
17F82
330
1F
100
AcDbEntity
  8
0
  6
Continuous
 62
     7
100
AcDbSpline
210
0.0
220
0.0
230
1.0
 70
     8
 71
     3
 72
    10
 73
     6
 74
     4
 42
0.0000000001
 43
0.0000000001
 44
0.0000000001
 12
-0.9842170747931916
 22
-0.1769653912083745
 32
0.0
 13
-0.9831596071253454
 23
-0.1827489724106166
 33
0.0
 40
0.0
 40
0.0
 40
0.0
 40
0.0
 40
10.58448604913092
 40
21.96930026054634
 40
33.31626940148693
 40
33.31626940148693
 40
33.31626940148693
 40
33.31626940148693
 10
14573.01192541049
 20
1068.975128228372
 30
0.0
 10
14569.53944811133
 20
1068.350765656897
 30
0.0
 10
14562.33312859675
 20
1067.04814266873
 30
0.0
 10
14551.40862883915
 20
1065.051676000497
 30
0.0
 10
14543.95756125056
 20
1063.674515514233
 30
0.0
 10
14540.23893400967
 20
1062.983299864073
 30
0.0
 11
14573.01192541049
 21
1068.975128228372
 31
0.0
 11
14562.5962361073
 21
1067.092374589775
 31
0.0
 11
14551.39690887427
 21
1065.045654248376
 31
0.0
 11
14540.23893400967
 21
1062.983299864073
 31
0.0
  0
SPLINE
  5
17F83
330
1F
100
AcDbEntity
  8
0
  6
Continuous
 62
     7
100
AcDbSpline
210
0.0
220
0.0
230
1.0
 70
     8
 71
     3
 72
    11
 73
     7
 74
     5
 42
0.0000000001
 43
0.0000000001
 44
0.0000000001
 12
-0.9998218244600815
 22
-0.0188764226831788
 32
0.0
 13
0.1563138508922483
 23
0.9877074364503064
 33
0.0
 40
0.0
 40
0.0
 40
0.0
 40
0.0
 40
1.29959175896759
 40
2.599182106896776
 40
3.898769655732731
 40
5.198355024790519
 40
5.198355024790519
 40
5.198355024790519
 40
5.198355024790519
 10
14458.65018731957
 20
1113.445655136776
 30
0.0
 10
14458.21706725173
 20
1113.437477922323
 30
0.0
 10
14457.33547758494
 20
1113.614467213131
 30
0.0
 10
14456.25838610011
 20
1114.412010484083
 30
0.0
 10
14455.61667963632
 20
1115.588619741844
 30
0.0
 10
14455.56271628662
 20
1116.486176999833
 30
0.0
 10
14455.63043068449
 20
1116.914047044274
 30
0.0
 11
14458.65018731957
 21
1113.445655136776
 31
0.0
 11
14457.37635915859
 21
1113.703144080772
 31
0.0
 11
14456.33094942569
 21
1114.475189133074
 31
0.0
 11
14455.7101395675
 21
1115.616908414274
 31
0.0
 11
14455.63043068449
 21
1116.914047044274
 31
0.0
  0
SPLINE
  5
17F84
330
1F
100
AcDbEntity
  8
0
  6
Continuous
 62
     7
100
AcDbSpline
210
0.0
220
0.0
230
1.0
 70
     8
 71
     3
 72
    11
 73
     7
 74
     5
 42
0.0000000001
 43
0.0000000001
 44
0.0000000001
 12
0.9998217855983808
 22
-0.018878480946982
 32
0.0
 13
-0.1563145714312391
 23
0.9877073224180675
 33
0.0
 40
0.0
 40
0.0
 40
0.0
 40
0.0
 40
1.299592169735329
 40
2.599181274721773
 40
3.898764291776985
 40
5.198342592956493
 40
5.198342592956493
 40
5.198342592956493
 40
5.198342592956493
 10
14571.9188148967
 20
1113.445678212673
 30
0.0
 10
14572.35193508459
 20
1113.437500104001
 30
0.0
 10
14573.23352471506
 20
1113.614486701112
 30
0.0
 10
14574.31061831069
 20
1114.412023776077
 30
0.0
 10
14574.95232780956
 20
1115.588626716875
 30
0.0
 10
14575.00629210923
 20
1116.486180430329
 30
0.0
 10
14574.9385777675
 20
1116.914048098373
 30
0.0
 11
14571.9188148967
 21
1113.445678212673
 31
0.0
 11
14573.19264420068
 21
1113.703163575275
 31
0.0
 11
14574.23805613067
 21
1114.475203560274
 31
0.0
 11
14574.85886797008
 21
1115.616916605774
 31
0.0
 11
14574.9385777675
 21
1116.914048098373
 31
0.0
  0
SPLINE
  5
17F85
330
1F
100
AcDbEntity
  8
0
  6
Continuous
 62
     7
100
AcDbSpline
210
0.0
220
0.0
230
1.0
 70
     8
 71
     3
 72
    10
 73
     6
 74
     4
 42
0.0000000001
 43
0.0000000001
 44
0.0000000001
 12
0.9553424400131987
 22
0.2955009683734177
 32
0.0
 13
0.9565757903385859
 23
0.2914837171063071
 33
0.0
 40
0.0
 40
0.0
 40
0.0
 40
0.0
 40
0.4639487010801582
 40
2.123560247195078
 40
3.958897336461852
 40
3.958897336461852
 40
3.958897336461852
 40
3.958897336461852
 10
14347.17725702738
 20
1111.294058665275
 30
0.0
 10
14347.32500032209
 20
1111.33975776209
 30
0.0
 10
14348.0012885993
 20
1111.548780872872
 30
0.0
 10
14349.26253679058
 20
1111.936961993416
 30
0.0
 10
14350.37657491779
 20
1112.277705512235
 30
0.0
 10
14350.96178792669
 20
1112.456029137876
 30
0.0
 11
14347.17725702738
 21
1111.294058665275
 31
0.0
 11
14347.6205187774
 21
1111.431052892176
 31
0.0
 11
14349.20668784281
 21
1111.919292771673
 31
0.0
 11
14350.96178792669
 21
1112.456029137876
 31
0.0
  0
SPLINE
  5
17F86
330
1F
100
AcDbEntity
  8
0
  6
Continuous
 62
     7
100
AcDbSpline
210
0.0
220
0.0
230
1.0
 70
     8
 71
     3
 72
    13
 73
     9
 74
     7
 42
0.0000000001
 43
0.0000000001
 44
0.0000000001
 12
0.9997854440821051
 22
0.0207139035806408
 32
0.0
 13
0.1369721440932055
 23
0.9905748996125987
 33
0.0
 40
0.0
 40
0.0
 40
0.0
 40
0.0
 40
1.668083519491555
 40
3.166439763111704
 40
4.39872386456266
 40
5.314184307840916
 40
5.88088008455521
 40
6.075123624148198
 40
6.075123624148198
 40
6.075123624148198
 40
6.075123624148198
 10
14452.57687202149
 20
1113.299874605373
 30
0.0
 10
14453.13278056226
 20
1113.311392112435
 30
0.0
 10
14454.18529484449
 20
1113.336955302075
 30
0.0
 10
14455.66175358498
 20
1113.358143668446
 30
0.0
 10
14456.84788860705
 20
1113.417337442956
 30
0.0
 10
14457.82135806978
 20
1113.366035967568
 30
0.0
 10
14458.25429401455
 20
1113.515744713613
 30
0.0
 10
14458.6413186682
 20
1113.381517545198
 30
0.0
 10
14458.65018731957
 20
1113.445655136776
 30
0.0
 11
14452.57687202149
 21
1113.299874605373
 31
0.0
 11
14454.24457583618
 21
1113.335464132876
 31
0.0
 11
14455.7425609149
 21
1113.368812846974
 31
0.0
 11
14456.9745077906
 21
1113.397639954675
 31
0.0
 11
14457.88967959499
 21
1113.420626726074
 31
0.0
 11
14458.45614250829
 21
1113.436870838875
 31
0.0
 11
14458.65018731957
 21
1113.445655136776
 31
0.0
  0
SPLINE
  5
17F87
330
1F
100
AcDbEntity
  8
0
  6
Continuous
 62
     7
100
AcDbSpline
210
0.0
220
0.0
230
1.0
 70
     8
 71
     3
 72
    10
 73
     6
 74
     4
 42
0.0000000001
 43
0.0000000001
 44
0.0000000001
 12
-0.0000450168462047
 22
0.9999999989867417
 32
0.0
 13
-0.9665547006486228
 23
0.2564605440492766
 33
0.0
 40
0.0
 40
0.0
 40
0.0
 40
0.0
 40
0.1835655705262425
 40
0.3401877161222923
 40
0.5253967461567211
 40
0.5253967461567211
 40
0.5253967461567211
 40
0.5253967461567211
 10
14527.7845008922
 20
1114.899171368676
 30
0.0
 10
14527.78449813768
 20
1114.960359892123
 30
0.0
 10
14527.79899146336
 20
1115.079197841858
 30
0.0
 10
14527.7831286628
 20
1115.230556037298
 30
0.0
 10
14527.91283330596
 20
1115.402878439872
 30
0.0
 10
14527.8531617531
 20
1115.418711376074
 30
0.0
 11
14527.7845008922
 21
1114.899171368676
 31
0.0
 11
14527.7929287646
 21
1115.082543366673
 31
0.0
 11
14527.81338782957
 21
1115.237823510773
 31
0.0
 11
14527.8531617531
 21
1115.418711376074
 31
0.0
  0
SPLINE
  5
17F88
330
1F
100
AcDbEntity
  8
0
  6
Continuous
 62
     7
100
AcDbSpline
210
0.0
220
0.0
230
1.0
 70
     8
 71
     3
 72
    10
 73
     6
 74
     4
 42
0.0000000001
 43
0.0000000001
 44
0.0000000001
 12
0.0000450168462047
 22
0.9999999989867417
 32
0.0
 13
0.9665739471554372
 23
0.2563879963655833
 33
0.0
 40
0.0
 40
0.0
 40
0.0
 40
0.0
 40
0.1835655705262425
 40
0.3401877177853178
 40
0.5253967478127154
 40
0.5253967478127154
 40
0.5253967478127154
 40
0.5253967478127154
 10
14502.78450089229
 20
1114.899171368676
 30
0.0
 10
14502.7845036468
 20
1114.960359892123
 30
0.0
 10
14502.77001018127
 20
1115.079198391776
 30
0.0
 10
14502.78587356635
 20
1115.230554291352
 30
0.0
 10
14502.65616727762
 20
1115.402882918701
 30
0.0
 10
14502.71584001869
 20
1115.418711376074
 30
0.0
 11
14502.78450089229
 21
1114.899171368676
 31
0.0
 11
14502.77607301989
 21
1115.082543366673
 31
0.0
 11
14502.75561394219
 21
1115.237823510773
 31
0.0
 11
14502.71584001869
 21
1115.418711376074
 31
0.0
  0
SPLINE
  5
17F89
330
1F
100
AcDbEntity
  8
0
  6
Continuous
 62
     7
100
AcDbSpline
210
0.0
220
0.0
230
1.0
 70
     8
 71
     3
 72
    10
 73
     6
 74
     4
 42
0.0000000001
 43
0.0000000001
 44
0.0000000001
 12
0.95657575817198
 22
-0.291483822668946
 32
0.0
 13
0.9553426758945608
 23
-0.2955002057776279
 33
0.0
 40
0.0
 40
0.0
 40
0.0
 40
0.0
 40
1.832861080116662
 40
3.488391694672822
 40
3.958895766028753
 40
3.958895766028753
 40
3.958895766028753
 40
3.958895766028753
 10
14679.60721385778
 20
1112.456029137876
 30
0.0
 10
14680.19163735022
 20
1112.277946019858
 30
0.0
 10
14681.30358597494
 20
1111.937843633642
 30
0.0
 10
14682.56483543691
 20
1111.549668434492
 30
0.0
 10
14683.24191244912
 20
1111.340404034373
 30
0.0
 10
14683.39174332197
 20
1111.294059351072
 30
0.0
 11
14679.60721385778
 21
1112.456029137876
 31
0.0
 11
14681.35994694111
 21
1111.920019364075
 31
0.0
 11
14682.94221798278
 21
1111.432987572076
 31
0.0
 11
14683.39174332197
 21
1111.294059351072
 31
0.0
  0
SPLINE
  5
17F8A
330
1F
100
AcDbEntity
  8
0
  6
Continuous
 62
     7
100
AcDbSpline
210
0.0
220
0.0
230
1.0
 70
     8
 71
     3
 72
    12
 73
     8
 74
     6
 42
0.0000000001
 43
0.0000000001
 44
0.0000000001
 12
0.1515538527406607
 22
-0.9884490020832952
 32
0.0
 13
0.9874235141912757
 23
-0.1580974497648572
 33
0.0
 40
0.0
 40
0.0
 40
0.0
 40
0.0
 40
0.4059671493100124
 40
0.8895532695059833
 40
1.536305508241802
 40
2.316416524227983
 40
3.176695818040804
 40
3.176695818040804
 40
3.176695818040804
 40
3.176695818040804
 10
14574.93857290339
 20
1116.914035601573
 30
0.0
 10
14574.95908153191
 20
1116.780276327035
 30
0.0
 10
14575.41832976466
 20
1116.863845607068
 30
0.0
 10
14575.8341785151
 20
1116.679665255173
 30
0.0
 10
14576.4911495832
 20
1116.582684850097
 30
0.0
 10
14577.22896677986
 20
1116.433318471304
 30
0.0
 10
14577.77112240531
 20
1116.344612315654
 30
0.0
 10
14578.05427573981
 20
1116.299276328175
 30
0.0
 11
14574.93857290339
 21
1116.914035601573
 31
0.0
 11
14575.3327570782
 21
1116.816936875274
 31
0.0
 11
14575.80515728909
 21
1116.713527125274
 31
0.0
 11
14576.43904868068
 21
1116.585190996376
 31
0.0
 11
14577.20603979337
 21
1116.442720542177
 31
0.0
 11
14578.05427573981
 21
1116.299276328175
 31
0.0
  0
SPLINE
  5
17F8B
330
1F
100
AcDbEntity
  8
0
  6
Continuous
 62
     7
100
AcDbSpline
210
0.0
220
0.0
230
1.0
 70
     8
 71
     3
 72
    12
 73
     8
 74
     6
 42
0.0000000001
 43
0.0000000001
 44
0.0000000001
 12
0.9874125322324005
 22
0.1581660241341317
 32
0.0
 13
0.1509502849636399
 23
0.9885413554674363
 33
0.0
 40
0.0
 40
0.0
 40
0.0
 40
0.0
 40
0.8609715857897223
 40
1.641462490024678
 40
2.287893431446529
 40
2.771330979475144
 40
3.176626547183803
 40
3.176626547183803
 40
3.176626547183803
 40
3.176626547183803
 10
14452.51479409129
 20
1116.299288101074
 30
0.0
 10
14452.79817213586
 20
1116.344680251946
 30
0.0
 10
14453.3406923812
 20
1116.433411907663
 30
0.0
 10
14454.07872757366
 20
1116.58286709014
 30
0.0
 10
14454.73570042249
 20
1116.679841008129
 30
0.0
 10
14455.1511286659
 20
1116.863939189576
 30
0.0
 10
14455.61003549199
 20
1116.780483715253
 30
0.0
 10
14455.63042865247
 20
1116.914034191876
 30
0.0
 11
14452.51479409129
 21
1116.299288101074
 31
0.0
 11
14453.36371210388
 21
1116.442850907676
 31
0.0
 11
14454.13107356129
 21
1116.585407721874
 31
0.0
 11
14454.76464749099
 21
1116.713692707874
 31
0.0
 11
14455.23690049617
 21
1116.817080143976
 31
0.0
 11
14455.63042865247
 21
1116.914034191876
 31
0.0
  0
SPLINE
  5
17F8C
330
1F
100
AcDbEntity
  8
0
  6
Continuous
 62
     7
100
AcDbSpline
210
0.0
220
0.0
230
1.0
 70
     8
 71
     3
 72
    13
 73
     9
 74
     7
 42
0.0000000001
 43
0.0000000001
 44
0.0000000001
 12
0.1404515231033551
 22
-0.9900875565615134
 32
0.0
 13
0.9997850242717149
 23
-0.0207341564093302
 33
0.0
 40
0.0
 40
0.0
 40
0.0
 40
0.0
 40
0.1948391980650175
 40
0.7621266939613902
 40
1.677860792907534
 40
2.910788436374215
 40
4.408543143907474
 40
6.075123566988617
 40
6.075123566988617
 40
6.075123566988617
 40
6.075123566988617
 10
14571.91881446488
 20
1113.445655136776
 30
0.0
 10
14571.92793628559
 20
1113.381352514931
 30
0.0
 10
14572.31506426921
 20
1113.515772406791
 30
0.0
 10
14572.7489274904
 20
1113.366040532775
 30
0.0
 10
14573.72260897048
 20
1113.417286117459
 30
0.0
 10
14574.90897748021
 20
1113.358119011752
 30
0.0
 10
14576.38489284565
 20
1113.336917866311
 30
0.0
 10
14577.43672236736
 20
1113.311392985093
 30
0.0
 10
14577.99212975028
 20
1113.299874605373
 30
0.0
 11
14571.91881446488
 21
1113.445655136776
 31
0.0
 11
14572.11345466489
 21
1113.436851407875
 31
0.0
 11
14572.68050919498
 21
1113.420595242775
 31
0.0
 11
14573.59595464628
 21
1113.397604686775
 31
0.0
 11
14574.82854494209
 21
1113.368764840972
 31
0.0
 11
14576.3259286758
 21
1113.335431404974
 31
0.0
 11
14577.99212975028
 21
1113.299874605373
 31
0.0
  0
SPLINE
  5
17F8D
330
1F
100
AcDbEntity
  8
0
  6
Continuous
 62
     7
100
AcDbSpline
210
0.0
220
0.0
230
1.0
 70
     8
 71
     3
 72
    10
 73
     6
 74
     4
 42
0.0000000001
 43
0.0000000001
 44
0.0000000001
 12
0.9650149735476942
 22
-0.2621947765092647
 32
0.0
 13
0.9897972991829991
 23
0.1424826534355687
 33
0.0
 40
0.0
 40
0.0
 40
0.0
 40
0.0
 40
100.6604738992929
 40
211.0817352716308
 40
272.6677323627492
 40
272.6677323627492
 40
272.6677323627492
 40
272.6677323627492
 10
14350.8724694236
 20
1029.727940517676
 30
0.0
 10
14383.25209094267
 20
1020.930390365228
 30
0.0
 10
14451.59296826832
 20
1002.552240345234
 30
0.0
 10
14544.5839342266
 20
1007.583597580041
 30
0.0
 10
14598.98778069273
 20
1026.80296175767
 30
0.0
 10
14619.30699855549
 20
1029.727940517676
 30
0.0
 11
14350.8724694236
 21
1029.727940517676
 31
0.0
 11
14449.26208065768
 21
1008.467286556975
 31
0.0
 11
14559.48412664698
 21
1015.097184066775
 31
0.0
 11
14619.30699855549
 21
1029.727940517676
 31
0.0
  0
SPLINE
  5
17F8E
330
1F
100
AcDbEntity
  8
0
  6
Continuous
 62
     7
100
AcDbSpline
210
0.0
220
0.0
230
1.0
 70
     8
 71
     3
 72
     9
 73
     5
 74
     3
 42
0.0000000001
 43
0.0000000001
 44
0.0000000001
 12
0.9897972991855615
 22
0.1424826534177682
 32
0.0
 13
0.9710723828912197
 23
0.238785316102076
 33
0.0
 40
0.0
 40
0.0
 40
0.0
 40
0.0
 40
10.67818816602053
 40
68.70800047810826
 40
68.70800047810826
 40
68.70800047810826
 40
68.70800047810826
 10
14619.30699855549
 20
1029.727940517676
 30
0.0
 10
14622.8300791578
 20
1030.235092712205
 30
0.0
 10
14645.60461520616
 20
1032.679503520094
 30
0.0
 10
14669.11374347987
 20
1028.843522090344
 30
0.0
 10
14687.89745952008
 20
1033.462411115773
 30
0.0
 11
14619.30699855549
 21
1029.727940517676
 31
0.0
 11
14629.92678761559
 21
1030.843190636675
 31
0.0
 11
14687.89745952008
 21
1033.462411115773
 31
0.0
  0
SPLINE
  5
17F8F
330
1F
100
AcDbEntity
  8
0
  6
Continuous
 62
     7
100
AcDbSpline
210
0.0
220
0.0
230
1.0
 70
     8
 71
     3
 72
     9
 73
     5
 74
     3
 42
0.0000000001
 43
0.0000000001
 44
0.0000000001
 12
0.9654272887300592
 22
-0.2606724960085492
 32
0.0
 13
0.9650149735979386
 23
-0.2621947763243387
 33
0.0
 40
0.0
 40
0.0
 40
0.0
 40
0.0
 40
6.348674794432521
 40
13.01280929511687
 40
13.01280929511687
 40
13.01280929511687
 40
13.01280929511687
 10
14338.31360551419
 20
1033.135009065475
 30
0.0
 10
14340.35666681213
 20
1032.583367430471
 30
0.0
 10
14344.54320227885
 20
1031.448582594193
 30
0.0
 10
14348.72880623052
 20
1030.310374269276
 30
0.0
 10
14350.8724694236
 20
1029.727940517676
 30
0.0
 11
14338.31360551419
 21
1033.135009065475
 31
0.0
 11
14344.4414895373
 21
1031.475277447177
 31
0.0
 11
14350.8724694236
 21
1029.727940517676
 31
0.0
  0
SPLINE
  5
17F90
330
1F
100
AcDbEntity
  8
0
  6
Continuous
 62
     7
100
AcDbSpline
210
0.0
220
0.0
230
1.0
 70
     8
 71
     3
 72
    26
 73
    22
 74
    20
 42
0.0000000001
 43
0.0000000001
 44
0.0000000001
 12
-0.284246045233004
 22
0.9587513680665061
 32
0.0
 13
0.4025497883916426
 23
0.9153980925618338
 33
0.0
 40
0.0
 40
0.0
 40
0.0
 40
0.0
 40
10.88249166303784
 40
23.60559926408516
 40
37.78120085718067
 40
53.02868617659544
 40
69.04144540823462
 40
85.59981302885022
 40
102.5366542640591
 40
119.7176093756581
 40
137.0514925149762
 40
154.4447128371092
 40
171.5869476379236
 40
187.9624594952706
 40
203.0479415361078
 40
216.330147576686
 40
227.3549144989636
 40
235.9220645746517
 40
242.0002829549397
 40
245.61401541728
 40
246.8023316653469
 40
246.8023316653469
 40
246.8023316653469
 40
246.8023316653469
 10
14735.98605207778
 20
657.1456424655734
 30
0.0
 10
14734.95495033861
 20
660.6235103888766
 30
0.0
 10
14732.8222882034
 20
668.1987654677847
 30
0.0
 10
14729.7975032906
 20
680.4265210286872
 30
0.0
 10
14726.95693608299
 20
694.1894088977926
 30
0.0
 10
14724.57211860513
 20
709.1517809587604
 30
0.0
 10
14722.87052863868
 20
725.0079197557222
 30
0.0
 10
14722.02152646348
 20
741.4977326445766
 30
0.0
 10
14722.13606648396
 20
758.3992150292064
 30
0.0
 10
14723.26512677942
 20
775.5224935007048
 30
0.0
 10
14725.4030067387
 20
792.7020006581171
 30
0.0
 10
14728.48427437942
 20
809.7233939407455
 30
0.0
 10
14732.35659332009
 20
826.2528549101437
 30
0.0
 10
14736.76318120209
 20
841.8481010322263
 30
0.0
 10
14741.36887365683
 20
856.0367591023545
 30
0.0
 10
14745.81453043487
 20
868.3939294102644
 30
0.0
 10
14749.77714679571
 20
878.6112990601905
 30
0.0
 10
14753.0177091304
 20
886.5310137628956
 30
0.0
 10
14755.39480496325
 20
892.1341038418377
 30
0.0
 10
14756.83880907621
 20
895.4610193952129
 30
0.0
 10
14757.4817904996
 20
896.9268853447934
 30
0.0
 10
14757.641242651
 20
897.2894794870736
 30
0.0
 11
14735.98605207778
 21
657.1456424655734
 31
0.0
 11
14733.04017943259
 21
667.6218277996731
 31
0.0
 11
14729.98999499448
 21
679.9739062450749
 31
0.0
 11
14727.1310106312
 21
693.8582099343739
 31
0.0
 11
14724.73799776417
 21
708.9167390120758
 31
0.0
 11
14723.03507250609
 21
724.8386893880769
 31
0.0
 11
14722.18689208411
 21
741.3753192814747
 31
0.0
 11
14722.30101321728
 21
758.311776035874
 31
0.0
 11
14723.42633482998
 21
775.4558382678762
 31
0.0
 11
14725.55819190738
 21
792.6581256183734
 31
0.0
 11
14728.64508913718
 21
809.7752275537747
 31
0.0
 11
14732.54294583219
 21
826.4684275810738
 31
0.0
 11
14736.98473824398
 21
842.2300223214756
 31
0.0
 11
14741.63407149038
 21
856.5811710130732
 31
0.0
 11
14746.125061086
 21
869.0810914030763
 31
0.0
 11
14750.10874480011
 21
879.360962499374
 31
0.0
 11
14753.35169548969
 21
887.2906113720738
 31
0.0
 11
14755.72529592407
 21
892.8862131856751
 31
0.0
 11
14757.1639126684
 21
896.2012462431733
 31
0.0
 11
14757.641242651
 21
897.2894794870736
 31
0.0
  0
SPLINE
  5
17F91
330
1F
100
AcDbEntity
  8
0
  6
Continuous
 62
     7
100
AcDbSpline
210
0.0
220
0.0
230
1.0
 70
     8
 71
     3
 72
    13
 73
     9
 74
     7
 42
0.0000000001
 43
0.0000000001
 44
0.0000000001
 12
0.8299104206013488
 22
0.5578966694445242
 32
0.0
 13
-0.3351620702959082
 23
0.9421604887889115
 33
0.0
 40
0.0
 40
0.0
 40
0.0
 40
0.0
 40
0.5163731271917412
 40
2.073498315447063
 40
4.563552135195712
 40
8.04896989962093
 40
12.85406178549338
 40
18.80852323093353
 40
18.80852323093353
 40
18.80852323093353
 40
18.80852323093353
 10
14745.38327888908
 20
649.9743882787745
 30
0.0
 10
14745.52612670214
 20
650.0704158947248
 30
0.0
 10
14746.091645176
 20
650.4680680957748
 30
0.0
 10
14747.25981952311
 20
651.4492900965625
 30
0.0
 10
14748.87930145654
 20
653.3964867691974
 30
0.0
 10
14750.36366828999
 20
656.7341901269164
 30
0.0
 10
14750.76188347064
 20
661.5567522572399
 30
0.0
 10
14749.93808394084
 20
665.1041100788708
 30
0.0
 10
14749.27284739899
 20
666.9741295141744
 30
0.0
 11
14745.38327888908
 21
649.9743882787745
 31
0.0
 11
14745.8056393093
 21
650.2714621448737
 31
0.0
 11
14746.99645675238
 21
651.2747530643747
 31
0.0
 11
14748.58508477909
 21
653.1922068494741
 31
0.0
 11
14750.0211689656
 21
656.3680215798747
 31
0.0
 11
14750.50546536809
 21
661.1486454958727
 31
0.0
 11
14749.27284739899
 21
666.9741295141744
 31
0.0
  0
SPLINE
  5
17F92
330
1F
100
AcDbEntity
  8
0
  6
Continuous
 62
     7
100
AcDbSpline
210
0.0
220
0.0
230
1.0
 70
     8
 71
     3
 72
    24
 73
    20
 74
    18
 42
0.0000000001
 43
0.0000000001
 44
0.0000000001
 12
-0.335257346112986
 22
0.9421265901551009
 32
0.0
 13
0.4543636254015535
 23
0.8908163087370802
 33
0.0
 40
0.0
 40
0.0
 40
0.0
 40
0.0
 40
10.25431197829956
 40
22.23292021895248
 40
35.53047906871306
 40
49.76942485579349
 40
64.66477186058748
 40
80.0207988031259
 40
95.69928980701922
 40
111.599394517444
 40
127.6496614967189
 40
143.7948687725794
 40
159.6554801633774
 40
174.7181276890853
 40
188.4662297736201
 40
200.3890141627956
 40
210.0982488655273
 40
217.42080655064
 40
222.3398786831014
 40
222.3398786831014
 40
222.3398786831014
 40
222.3398786831014
 10
14749.27284739899
 20
666.9741295141744
 30
0.0
 10
14748.12690292564
 20
670.194416173675
 30
0.0
 10
14745.75708545426
 20
677.217975558152
 30
0.0
 10
14742.4005722508
 20
688.5795406188206
 30
0.0
 10
14739.26423499399
 20
701.3783764688073
 30
0.0
 10
14736.65851877778
 20
715.2885713671158
 30
0.0
 10
14734.83776644335
 20
730.0170937740676
 30
0.0
 10
14733.98805498838
 20
745.3158155186231
 30
0.0
 10
14734.22540063724
 20
760.9722039566054
 30
0.0
 10
14735.59656349824
 20
776.8024474033941
 30
0.0
 10
14738.08389325291
 20
792.6525084225718
 30
0.0
 10
14741.59523799964
 20
808.2923740709818
 30
0.0
 10
14745.93377077092
 20
823.378515149921
 30
0.0
 10
14750.78115110589
 20
837.4637454966933
 30
0.0
 10
14755.74637394359
 20
850.1047802299556
 30
0.0
 10
14760.43190531107
 20
860.9293568514551
 30
0.0
 10
14764.49681158566
 20
869.6840186305418
 30
0.0
 10
14767.70403154884
 20
876.2609400651632
 30
0.0
 10
14769.53948135548
 20
879.90546751299
 30
0.0
 10
14770.28449717139
 20
881.3661307394735
 30
0.0
 11
14749.27284739899
 21
666.9741295141744
 31
0.0
 11
14745.99820976489
 21
676.6915192106731
 31
0.0
 11
14742.61087944278
 21
688.1812123602726
 31
0.0
 11
14739.45429046768
 21
701.0986818262757
 31
0.0
 11
14736.84138284111
 21
715.0958347818742
 31
0.0
 11
14735.02108660867
 21
729.8795381074755
 31
0.0
 11
14734.17301329847
 21
745.2121287274747
 31
0.0
 11
14734.4090117724
 21
760.8888434623759
 31
0.0
 11
14735.7736619133
 21
776.7302783656734
 31
0.0
 11
14738.24982462667
 21
792.5883894865769
 31
0.0
 11
14741.77164991729
 21
808.3447997567764
 31
0.0
 11
14746.14022445419
 21
823.591915884276
 31
0.0
 11
14751.02918702829
 21
837.8390698257742
 31
0.0
 11
14756.0464667829
 21
850.6389610280768
 31
0.0
 11
14760.7773305368
 21
861.5829875143756
 31
0.0
 11
14764.86353444209
 21
870.3904943214761
 31
0.0
 11
14768.07196104529
 21
876.9727317665758
 31
0.0
 11
14770.28449717139
 21
881.3661307394735
 31
0.0
  0
SPLINE
  5
17F93
330
1F
100
AcDbEntity
  8
0
  6
Continuous
 62
     7
100
AcDbSpline
210
0.0
220
0.0
230
1.0
 70
     8
 71
     3
 72
    17
 73
    13
 74
    11
 42
0.0000000001
 43
0.0000000001
 44
0.0000000001
 12
-0.0000029130646614
 22
-0.9999999999957571
 32
0.0
 13
0.5873353250834809
 23
-0.8093436945507649
 33
0.0
 40
0.0
 40
0.0
 40
0.0
 40
0.0
 40
2.656902722355618
 40
5.362263743670736
 40
8.090122847079992
 40
10.79917153064662
 40
13.43572007360081
 40
15.93321321444442
 40
18.22490660427719
 40
20.14221758546565
 40
21.36216481939527
 40
21.74603291511266
 40
21.74603291511266
 40
21.74603291511266
 40
21.74603291511266
 10
14770.28450089247
 20
670.7193313836731
 30
0.0
 10
14770.28449831256
 20
669.8336971428918
 30
0.0
 10
14770.32593231728
 20
668.045966827701
 30
0.0
 10
14770.52209957212
 20
665.3552376297869
 30
0.0
 10
14770.86682643006
 20
662.6616131531132
 30
0.0
 10
14771.36973179181
 20
660.0160000498221
 30
0.0
 10
14772.03090670951
 20
657.4843148653444
 30
0.0
 10
14772.83542586585
 20
655.1407261816782
 30
0.0
 10
14773.73418589846
 20
653.0908210836774
 30
0.0
 10
14774.60166520178
 20
651.5000609841081
 30
0.0
 10
14775.23969046603
 20
650.5139638066489
 30
0.0
 10
14775.54909375751
 20
650.0779486863772
 30
0.0
 10
14775.62424685511
 20
649.9743882787745
 30
0.0
 11
14770.28450089247
 21
670.7193313836731
 31
0.0
 11
14770.34730660889
 21
668.0631710876735
 31
0.0
 11
14770.54592296299
 21
665.3651107103772
 31
0.0
 11
14770.89493184078
 21
662.6596702487748
 31
0.0
 11
14771.4044640958
 21
659.9989707822754
 31
0.0
 11
14772.07518111858
 21
657.4491615943744
 31
0.0
 11
14772.8911571219
 21
655.0887262212768
 31
0.0
 11
14773.81651846647
 21
652.9921659490744
 31
0.0
 11
14774.7381843016
 21
651.3109124027756
 31
0.0
 11
14775.40206097739
 21
650.2874188693752
 31
0.0
 11
14775.62424685511
 21
649.9743882787745
 31
0.0
  0
SPLINE
  5
17F94
330
1F
100
AcDbEntity
  8
0
  6
Continuous
 62
     7
100
AcDbSpline
210
0.0
220
0.0
230
1.0
 70
     8
 71
     3
 72
     8
 73
     4
 74
     2
 42
0.0000000001
 43
0.0000000001
 44
0.0000000001
 12
-0.4914740262835855
 22
0.8708922329936131
 32
0.0
 13
-0.4936834336429114
 23
0.869641689057364
 33
0.0
 40
0.0
 40
0.0
 40
0.0
 40
0.0
 40
0.3605275280479319
 40
0.3605275280479319
 40
0.3605275280479319
 40
0.3605275280479319
 10
14282.53068263779
 20
1048.196809904474
 30
0.0
 10
14282.47161933252
 20
1048.30147011246
 30
0.0
 10
14282.41243049733
 20
1048.406059603059
 30
0.0
 10
14282.35310167468
 20
1048.510569525874
 30
0.0
 11
14282.53068263779
 21
1048.196809904474
 31
0.0
 11
14282.35310167468
 21
1048.510569525874
 31
0.0
  0
SPLINE
  5
17F95
330
1F
100
AcDbEntity
  8
0
  6
Continuous
 62
     7
100
AcDbSpline
210
0.0
220
0.0
230
1.0
 70
     8
 71
     3
 72
     8
 73
     4
 74
     2
 42
0.0000000001
 43
0.0000000001
 44
0.0000000001
 12
-0.4936834323682023
 22
0.8696416897809985
 32
0.0
 13
-0.4957822500452531
 23
0.8684468668491275
 33
0.0
 40
0.0
 40
0.0
 40
0.0
 40
0.0
 40
0.336839534971019
 40
0.336839534971019
 40
0.336839534971019
 40
0.336839534971019
 10
14282.35310167468
 20
1048.510569525874
 30
0.0
 10
14282.29767097542
 20
1048.60821276
 30
0.0
 10
14282.24211800658
 20
1048.705786670583
 30
0.0
 10
14282.1864516524
 20
1048.803295750175
 30
0.0
 11
14282.35310167468
 21
1048.510569525874
 31
0.0
 11
14282.1864516524
 21
1048.803295750175
 31
0.0
  0
SPLINE
  5
17F96
330
1F
100
AcDbEntity
  8
0
  6
Continuous
 62
     7
100
AcDbSpline
210
0.0
220
0.0
230
1.0
 70
     8
 71
     3
 72
    16
 73
    12
 74
    10
 42
0.0000000001
 43
0.0000000001
 44
0.0000000001
 12
-0.0000009945694572
 22
-0.9999999999995054
 32
0.0
 13
0.3835877992128139
 23
-0.9235044127101236
 33
0.0
 40
0.0
 40
0.0
 40
0.0
 40
0.0
 40
2.81704655570963
 40
5.720034280561959
 40
8.680018837246516
 40
11.64767456731772
 40
14.55500378718027
 40
17.3147096273309
 40
19.8361200840141
 40
21.92137456087166
 40
23.22743759825789
 40
23.22743759825789
 40
23.22743759825789
 40
23.22743759825789
 10
14774.28450089349
 20
674.0101025643752
 30
0.0
 10
14774.28449995957
 20
673.0710870458058
 30
0.0
 10
14774.31465285647
 20
671.1642683053509
 30
0.0
 10
14774.45533299303
 20
668.2738179688977
 30
0.0
 10
14774.70198801574
 20
665.339956554299
 30
0.0
 10
14775.06121846313
 20
662.4161582412036
 30
0.0
 10
14775.53274011844
 20
659.5758459524577
 30
0.0
 10
14776.10561302855
 20
656.9060202598096
 30
0.0
 10
14776.74511188556
 20
654.5340173693667
 30
0.0
 10
14777.36383833628
 20
652.6616060852866
 30
0.0
 10
14777.77308137131
 20
651.6074214488098
 30
0.0
 10
14777.9400779867
 20
651.2053697893752
 30
0.0
 11
14774.28450089349
 21
674.0101025643752
 31
0.0
 11
14774.32937186039
 21
671.1934133920729
 31
0.0
 11
14774.47126169599
 21
668.2938953277738
 31
0.0
 11
14774.72058715618
 21
665.3444300557776
 31
0.0
 11
14775.0845799258
 21
662.3991813742755
 31
0.0
 11
14775.56370145929
 21
659.5316029971752
 31
0.0
 11
14776.14658718709
 21
656.8341559536747
 31
0.0
 11
14776.8075824361
 21
654.4009284731755
 31
0.0
 11
14777.46592954457
 21
652.4223266137738
 31
0.0
 11
14777.9400779867
 21
651.2053697893752
 31
0.0
  0
SPLINE
  5
17F97
330
1F
100
AcDbEntity
  8
0
  6
Continuous
 62
     7
100
AcDbSpline
210
0.0
220
0.0
230
1.0
 70
     8
 71
     3
 72
     8
 73
     4
 74
     2
 42
0.0000000001
 43
0.0000000001
 44
0.0000000001
 12
0.3835877899351527
 22
-0.9235044165637029
 32
0.0
 13
0.3973035341583105
 23
-0.917687257046384
 33
0.0
 40
0.0
 40
0.0
 40
0.0
 40
0.0
 40
0.4060618258072151
 40
0.4060618258072151
 40
0.4060618258072151
 40
0.4060618258072151
 10
14777.9400779867
 20
651.2053697893752
 30
0.0
 10
14777.99199810614
 20
651.0803698261983
 30
0.0
 10
14778.04482855299
 20
650.9557437165812
 30
0.0
 10
14778.09860515249
 20
650.8315311288757
 30
0.0
 11
14777.9400779867
 21
651.2053697893752
 31
0.0
 11
14778.09860515249
 21
650.8315311288757
 31
0.0
  0
SPLINE
  5
17F98
330
1F
100
AcDbEntity
  8
0
  6
Continuous
 62
     7
100
AcDbSpline
210
0.0
220
0.0
230
1.0
 70
     8
 71
     3
 72
     9
 73
     5
 74
     3
 42
0.0000000001
 43
0.0000000001
 44
0.0000000001
 12
-0.1117947515878097
 22
-0.9937313185753078
 32
0.0
 13
-0.1117581561472068
 23
-0.9937354348792119
 33
0.0
 40
0.0
 40
0.0
 40
0.0
 40
0.0
 40
0.6086930937323649
 40
2.66384622674016
 40
2.66384622674016
 40
2.66384622674016
 40
2.66384622674016
 10
14770.58225885678
 20
884.0131521154772
 30
0.0
 10
14770.55957595904
 20
883.8115263185965
 30
0.0
 10
14770.4603094179
 20
882.929143679015
 30
0.0
 10
14770.36105382207
 20
882.0467598079336
 30
0.0
 10
14770.28449378049
 20
881.3660003104759
 30
0.0
 11
14770.58225885678
 21
884.0131521154772
 31
0.0
 11
14770.51421140591
 21
883.4082745850738
 31
0.0
 11
14770.28449378049
 21
881.3660003104759
 31
0.0
  0
SPLINE
  5
17F99
330
1F
100
AcDbEntity
  8
0
  6
Continuous
 62
     7
100
AcDbSpline
210
0.0
220
0.0
230
1.0
 70
     8
 71
     3
 72
    11
 73
     7
 74
     5
 42
0.0000000001
 43
0.0000000001
 44
0.0000000001
 12
0.3041867879353013
 22
0.9526124070395074
 32
0.0
 13
0.996354106236207
 23
0.0853140960583272
 33
0.0
 40
0.0
 40
0.0
 40
0.0
 40
0.0
 40
4.110238067606232
 40
8.439073912928101
 40
12.91543983586306
 40
17.41728413680864
 40
17.41728413680864
 40
17.41728413680864
 40
17.41728413680864
 10
14735.98629805139
 20
657.1437484002739
 30
0.0
 10
14736.40305808987
 20
658.4489029933031
 30
0.0
 10
14737.74584457828
 20
660.989159088115
 30
0.0
 10
14740.86541609441
 20
664.0409573013149
 30
0.0
 10
14744.81707504856
 20
666.1716642516652
 30
0.0
 10
14747.77778860081
 20
666.8462382049986
 30
0.0
 10
14749.27293228577
 20
666.9742617973754
 30
0.0
 11
14735.98629805139
 21
657.1437484002739
 31
0.0
 11
14737.87606323298
 21
660.7937955959758
 31
0.0
 11
14740.947727905
 21
663.8439916418738
 31
0.0
 11
14744.88272795981
 21
665.9779144250748
 31
0.0
 11
14749.27293228577
 21
666.9742617973754
 31
0.0
  0
SPLINE
  5
17F9A
330
1F
100
AcDbEntity
  8
0
  6
Continuous
 62
     7
100
AcDbSpline
210
0.0
220
0.0
230
1.0
 70
     8
 71
     3
 72
    10
 73
     6
 74
     4
 42
0.0000000001
 43
0.0000000001
 44
0.0000000001
 12
0.5601076913968881
 22
-0.8284198054356551
 32
0.0
 13
0.5548784884329329
 23
-0.8319314052699199
 33
0.0
 40
0.0
 40
0.0
 40
0.0
 40
0.0
 40
0.382604705322306
 40
1.54355969810292
 40
3.48423130175476
 40
3.48423130175476
 40
3.48423130175476
 40
3.48423130175476
 10
14275.28450088938
 20
1038.974388280776
 30
0.0
 10
14275.35593416878
 20
1038.868735842262
 30
0.0
 10
14275.64397269216
 20
1038.442397267347
 30
0.0
 10
14276.29280470724
 20
1037.479125285021
 30
0.0
 10
14276.86797305419
 20
1036.620006216538
 30
0.0
 10
14277.22691869618
 20
1036.081837665074
 30
0.0
 11
14275.28450088938
 21
1038.974388280776
 31
0.0
 11
14275.49869063119
 21
1038.657356555174
 31
0.0
 11
14276.14726784558
 21
1037.694462951375
 31
0.0
 11
14277.22691869618
 21
1036.081837665074
 31
0.0
  0
SPLINE
  5
17F9B
330
1F
100
AcDbEntity
  8
0
  6
Continuous
 62
     7
100
AcDbSpline
210
0.0
220
0.0
230
1.0
 70
     8
 71
     3
 72
     8
 73
     4
 74
     2
 42
0.0000000001
 43
0.0000000001
 44
0.0000000001
 12
0.4374369824208952
 22
-0.8992490680620701
 32
0.0
 13
0.4253559459950138
 23
-0.9050261428305191
 33
0.0
 40
0.0
 40
0.0
 40
0.0
 40
0.0
 40
1.807314568536434
 40
1.807314568536434
 40
1.807314568536434
 40
1.807314568536434
 10
14291.66004850399
 20
1045.737386794375
 30
0.0
 10
14291.92357724771
 20
1045.195644813891
 30
0.0
 10
14292.1835356613
 20
1044.652150618721
 30
0.0
 10
14292.43978632731
 20
1044.106928307773
 30
0.0
 11
14291.66004850399
 21
1045.737386794375
 31
0.0
 11
14292.43978632731
 21
1044.106928307773
 31
0.0
  0
SPLINE
  5
17F9C
330
1F
100
AcDbEntity
  8
0
  6
Continuous
 62
     7
100
AcDbSpline
210
0.0
220
0.0
230
1.0
 70
     8
 71
     3
 72
    10
 73
     6
 74
     4
 42
0.0000000001
 43
0.0000000001
 44
0.0000000001
 12
0.4253559474620479
 22
-0.9050261421410231
 32
0.0
 13
0.2899231709856398
 23
-0.9570499229014291
 33
0.0
 40
0.0
 40
0.0
 40
0.0
 40
0.0
 40
4.135744245059599
 40
9.632202408060281
 40
16.79803241536823
 40
16.79803241536823
 40
16.79803241536823
 40
16.79803241536823
 10
14292.43978632731
 20
1044.106928307773
 30
0.0
 10
14293.02617413125
 20
1042.85927608811
 30
0.0
 10
14294.34683765518
 20
1039.932020536031
 30
0.0
 10
14296.45116570456
 20
1034.741393866187
 30
0.0
 10
14297.81844305682
 20
1030.744071613849
 30
0.0
 10
14298.51095644298
 20
1028.458052595176
 30
0.0
 11
14292.43978632731
 21
1044.106928307773
 31
0.0
 11
14294.13925188948
 21
1040.336491030277
 31
0.0
 11
14296.20078250099
 21
1035.241283097775
 31
0.0
 11
14298.51095644298
 21
1028.458052595176
 31
0.0
  0
SPLINE
  5
17F9D
330
1F
100
AcDbEntity
  8
0
  6
Continuous
 62
     7
100
AcDbSpline
210
0.0
220
0.0
230
1.0
 70
     8
 71
     3
 72
    11
 73
     7
 74
     5
 42
0.0000000001
 43
0.0000000001
 44
0.0000000001
 12
0.5548662346889488
 22
-0.8319395780957345
 32
0.0
 13
0.3870610565747327
 23
-0.9220540865281449
 33
0.0
 40
0.0
 40
0.0
 40
0.0
 40
0.0
 40
2.535145062580642
 40
6.287718488878305
 40
11.64310220009953
 40
19.02935283019855
 40
19.02935283019855
 40
19.02935283019855
 40
19.02935283019855
 10
14277.22691869618
 20
1036.081837665074
 30
0.0
 10
14277.6958074946
 20
1035.378808493816
 30
0.0
 10
14278.84134826022
 20
1033.623479544458
 30
0.0
 10
14280.87654123548
 20
1030.318006816782
 30
0.0
 10
14283.56269828438
 20
1025.518608737085
 30
0.0
 10
14285.38938429781
 20
1021.677186977709
 30
0.0
 10
14286.34236095548
 20
1019.407012785175
 30
0.0
 11
14277.22691869618
 21
1036.081837665074
 31
0.0
 11
14278.61199611399
 21
1033.958509844176
 31
0.0
 11
14280.57790692689
 21
1030.762105302275
 31
0.0
 11
14283.18809003518
 21
1026.085880453574
 31
0.0
 11
14286.34236095548
 21
1019.407012785175
 31
0.0
  0
SPLINE
  5
17F9E
330
1F
100
AcDbEntity
  8
0
  6
Continuous
 62
     7
100
AcDbSpline
210
0.0
220
0.0
230
1.0
 70
     8
 71
     3
 72
    10
 73
     6
 74
     4
 42
0.0000000001
 43
0.0000000001
 44
0.0000000001
 12
0.3871264597952377
 22
-0.9220266287512558
 32
0.0
 13
0.27731749146492
 23
-0.9607783349595285
 33
0.0
 40
0.0
 40
0.0
 40
0.0
 40
0.0
 40
12.57059259628009
 40
27.40255454585959
 40
36.53019825805277
 40
36.53019825805277
 40
36.53019825805277
 40
36.53019825805277
 10
14286.34236095548
 20
1019.407012785175
 30
0.0
 10
14287.96449729192
 20
1015.543539080857
 30
0.0
 10
14291.35415972974
 20
1007.059252635148
 30
0.0
 10
14295.39771454709
 20
995.5682902453906
 30
0.0
 10
14297.73959516046
 20
987.9312750676787
 30
0.0
 10
14298.58334691288
 20
985.008060958377
 30
0.0
 11
14286.34236095548
 21
1019.407012785175
 31
0.0
 11
14290.99941888799
 21
1007.730900005876
 31
0.0
 11
14295.91024780139
 21
993.7355130995747
 31
0.0
 11
14298.58334691288
 21
985.008060958377
 31
0.0
  0
SPLINE
  5
17F9F
330
1F
100
AcDbEntity
  8
0
  6
Continuous
 62
     7
100
AcDbSpline
210
0.0
220
0.0
230
1.0
 70
     8
 71
     3
 72
    11
 73
     7
 74
     5
 42
0.0000000001
 43
0.0000000001
 44
0.0000000001
 12
-0.4660130548531517
 22
-0.8847778437022672
 32
0.0
 13
-0.4907839959412747
 23
-0.8712812802579399
 33
0.0
 40
0.0
 40
0.0
 40
0.0
 40
0.0
 40
2.722777975266309
 40
10.11470225596165
 40
14.49733688204053
 40
15.93570908544554
 40
15.93570908544554
 40
15.93570908544554
 40
15.93570908544554
 10
14268.9910007764
 20
782.9649572602768
 30
0.0
 10
14268.56805074908
 20
782.1619393849982
 30
0.0
 10
14266.9891651197
 20
779.182902330584
 30
0.0
 10
14264.68623271492
 20
774.9342946712154
 30
0.0
 10
14262.54794764193
 20
771.083841625666
 30
0.0
 10
14261.59767229369
 20
769.3921305350635
 30
0.0
 10
14261.36236227448
 20
768.9743882767734
 30
0.0
 11
14268.9910007764
 21
782.9649572602768
 31
0.0
 11
14267.71599136301
 21
780.5591578300743
 31
0.0
 11
14264.1943688152
 21
774.0600256416743
 31
0.0
 11
14262.06679535889
 21
770.2284571046764
 31
0.0
 11
14261.36236227448
 21
768.9743882767734
 31
0.0
  0
SPLINE
  5
17FA0
330
1F
100
AcDbEntity
  8
0
  6
Continuous
 62
     7
100
AcDbSpline
210
0.0
220
0.0
230
1.0
 70
     8
 71
     3
 72
    11
 73
     7
 74
     5
 42
0.0000000001
 43
0.0000000001
 44
0.0000000001
 12
-0.3270894175539489
 22
-0.9449933930585011
 32
0.0
 13
-0.9947420540138145
 23
-0.1024121378371615
 33
0.0
 40
0.0
 40
0.0
 40
0.0
 40
0.0
 40
3.777486391388373
 40
7.747242706636926
 40
11.83324154726756
 40
15.92158930639041
 40
15.92158930639041
 40
15.92158930639041
 40
15.92158930639041
 10
14298.51170170441
 20
1028.456356992775
 30
0.0
 10
14298.09984309655
 20
1027.266457098698
 30
0.0
 10
14296.83160537567
 20
1024.959147833487
 30
0.0
 10
14293.97026330251
 20
1022.172643872796
 30
0.0
 10
14290.38227451232
 20
1020.201030509166
 30
0.0
 10
14287.69788314672
 20
1019.546475405954
 30
0.0
 10
14286.34226599758
 20
1019.406909927876
 30
0.0
 11
14298.51170170441
 21
1028.456356992775
 31
0.0
 11
14296.71922371709
 21
1025.131236528476
 31
0.0
 11
14293.89342770498
 21
1022.343075467775
 31
0.0
 11
14290.31568930548
 21
1020.369455831074
 31
0.0
 11
14286.34226599758
 21
1019.406909927876
 31
0.0
  0
SPLINE
  5
17FA1
330
1F
100
AcDbEntity
  8
0
  6
Continuous
 62
     7
100
AcDbSpline
210
0.0
220
0.0
230
1.0
 70
     8
 71
     3
 72
     8
 73
     4
 74
     2
 42
0.0000000001
 43
0.0000000001
 44
0.0000000001
 12
-0.2282316873698079
 22
-0.9736068492365541
 32
0.0
 13
-0.3298717405797906
 23
-0.9440257595886137
 33
0.0
 40
0.0
 40
0.0
 40
0.0
 40
0.0
 40
1.361750927921057
 40
1.361750927921057
 40
1.361750927921057
 40
1.361750927921057
 10
14289.7891938637
 20
1046.241717865974
 30
0.0
 10
14289.68559562635
 20
1045.799781189181
 30
0.0
 10
14289.55848067121
 20
1045.362700804908
 30
0.0
 10
14289.40874628827
 20
1044.934191486874
 30
0.0
 11
14289.7891938637
 21
1046.241717865974
 31
0.0
 11
14289.40874628827
 21
1044.934191486874
 31
0.0
  0
SPLINE
  5
17FA2
330
1F
100
AcDbEntity
  8
0
  6
Continuous
 62
     7
100
AcDbSpline
210
0.0
220
0.0
230
1.0
 70
     8
 71
     3
 72
    11
 73
     7
 74
     5
 42
0.0000000001
 43
0.0000000001
 44
0.0000000001
 12
-0.3298717372035234
 22
-0.9440257607683857
 32
0.0
 13
-0.9996675757383709
 23
-0.0257825137907232
 33
0.0
 40
0.0
 40
0.0
 40
0.0
 40
0.0
 40
3.969033969599809
 40
7.962801845885881
 40
11.96240861930838
 40
15.94681634837368
 40
15.94681634837368
 40
15.94681634837368
 40
15.94681634837368
 10
14289.40874628827
 20
1044.934191486874
 30
0.0
 10
14288.97232224474
 20
1043.685234715985
 30
0.0
 10
14287.6988000215
 20
1041.30096112656
 30
0.0
 10
14284.81586433547
 20
1038.462728380182
 30
0.0
 10
14281.22118777849
 20
1036.595590682253
 30
0.0
 10
14278.55461232657
 20
1036.116080258581
 30
0.0
 10
14277.22691792148
 20
1036.081837576174
 30
0.0
 11
14289.40874628827
 21
1044.934191486874
 31
0.0
 11
14287.54237933269
 21
1041.431349064075
 31
0.0
 11
14284.69931707371
 21
1038.626499898575
 31
0.0
 11
14281.14874949869
 21
1036.785216585976
 31
0.0
 11
14277.22691792148
 21
1036.081837576174
 31
0.0
  0
SPLINE
  5
17FA3
330
1F
100
AcDbEntity
  8
0
  6
Continuous
 62
     7
100
AcDbSpline
210
0.0
220
0.0
230
1.0
 70
     8
 71
     3
 72
     8
 73
     4
 74
     2
 42
0.0000000001
 43
0.0000000001
 44
0.0000000001
 12
-0.5117782407402567
 22
0.859117589335015
 32
0.0
 13
-0.5131488317911903
 23
0.8582996425674059
 33
0.0
 40
0.0
 40
0.0
 40
0.0
 40
0.0
 40
0.9761278690719986
 40
0.9761278690719986
 40
0.9761278690719986
 40
0.9761278690719986
 10
14282.1864516524
 20
1048.803295750175
 30
0.0
 10
14282.01993131787
 20
1049.082831957428
 30
0.0
 10
14281.85318758838
 20
1049.362235208131
 30
0.0
 10
14281.68622129648
 20
1049.641505275173
 30
0.0
 11
14282.1864516524
 21
1048.803295750175
 31
0.0
 11
14281.68622129648
 21
1049.641505275173
 31
0.0
  0
SPLINE
  5
17FA4
330
1F
100
AcDbEntity
  8
0
  6
Continuous
 62
     7
100
AcDbSpline
210
0.0
220
0.0
230
1.0
 70
     8
 71
     3
 72
    10
 73
     6
 74
     4
 42
0.0000000001
 43
0.0000000001
 44
0.0000000001
 12
-0.5131488313506658
 22
0.8582996428307808
 32
0.0
 13
-0.5168588665513484
 23
0.8560706232941624
 33
0.0
 40
0.0
 40
0.0
 40
0.0
 40
0.0
 40
1.08480217233061
 40
2.316245132513948
 40
2.721612207494781
 40
2.721612207494781
 40
2.721612207494781
 40
2.721612207494781
 10
14281.68622129648
 20
1049.641505275173
 30
0.0
 10
14281.50066630749
 20
1049.951867047524
 30
0.0
 10
14281.10388634315
 20
1050.614193650291
 30
0.0
 10
14280.63619825981
 20
1051.391553428607
 30
0.0
 10
14280.35434007327
 20
1051.858713996162
 30
0.0
 10
14280.2845008843
 20
1051.974388277676
 30
0.0
 11
14281.68622129648
 21
1049.641505275173
 31
0.0
 11
14281.12873241909
 21
1050.572097508474
 31
0.0
 11
14280.4939123654
 21
1051.627301405176
 31
0.0
 11
14280.2845008843
 21
1051.974388277676
 31
0.0
  0
SPLINE
  5
17FA5
330
1F
100
AcDbEntity
  8
0
  6
Continuous
 62
     7
100
AcDbSpline
210
0.0
220
0.0
230
1.0
 70
     8
 71
     3
 72
     9
 73
     5
 74
     3
 42
0.0000000001
 43
0.0000000001
 44
0.0000000001
 12
-0.0264713213011518
 22
-0.9996495731748058
 32
0.0
 13
-0.1300262135092438
 23
-0.9915105565753947
 33
0.0
 40
0.0
 40
0.0
 40
0.0
 40
0.0
 40
0.2521162543324976
 40
0.5045951822302462
 40
0.5045951822302462
 40
0.5045951822302462
 40
0.5045951822302462
 10
14282.18652108329
 20
1048.803295750175
 30
0.0
 10
14282.1842964665
 20
1048.719286448164
 30
0.0
 10
14282.17545844473
 20
1048.551234795493
 30
0.0
 10
14282.15790253964
 20
1048.383869806581
 30
0.0
 10
14282.14695957998
 20
1048.300424632473
 30
0.0
 11
14282.18652108329
 21
1048.803295750175
 31
0.0
 11
14282.17328845798
 21
1048.551527000474
 31
0.0
 11
14282.14695957998
 21
1048.300424632473
 31
0.0
  0
SPLINE
  5
17FA6
330
1F
100
AcDbEntity
  8
0
  6
Continuous
 62
     7
100
AcDbSpline
210
0.0
220
0.0
230
1.0
 70
     8
 71
     3
 72
     9
 73
     5
 74
     3
 42
0.0000000001
 43
0.0000000001
 44
0.0000000001
 12
0.9999999999992542
 22
0.0000012211915103
 32
0.0
 13
0.7149804535986366
 23
-0.6991444421375945
 33
0.0
 40
0.0
 40
0.0
 40
0.0
 40
0.0
 40
1.559423117959036
 40
3.10950408519059
 40
3.10950408519059
 40
3.10950408519059
 40
3.10950408519059
 10
14770.28450089247
 20
881.3661312982745
 30
0.0
 10
14770.80430859845
 20
881.3661319330593
 30
0.0
 10
14771.85074952179
 20
881.1652093392135
 30
0.0
 10
14772.74352120001
 20
880.5819047475749
 30
0.0
 10
14773.11294706437
 20
880.2206612498737
 30
0.0
 11
14770.28450089247
 21
881.3661312982745
 31
0.0
 11
14771.8152449354
 21
881.0684349162762
 31
0.0
 11
14773.11294706437
 21
880.2206612498737
 31
0.0
  0
SPLINE
  5
17FA7
330
1F
100
AcDbEntity
  8
0
  6
Continuous
 62
     7
100
AcDbSpline
210
0.0
220
0.0
230
1.0
 70
     8
 71
     3
 72
     8
 73
     4
 74
     2
 42
0.0000000001
 43
0.0000000001
 44
0.0000000001
 12
0.7149804536120578
 22
-0.6991444421238692
 32
0.0
 13
0.3894766754317271
 23
-0.9210363289765767
 33
0.0
 40
0.0
 40
0.0
 40
0.0
 40
0.0
 40
1.536767904763709
 40
1.536767904763709
 40
1.536767904763709
 40
1.536767904763709
 10
14773.11294706437
 20
880.2206612498737
 30
0.0
 10
14773.47920006891
 20
879.8625203367238
 30
0.0
 10
14773.78052425691
 20
879.4236837964716
 30
0.0
 10
14773.98003600839
 20
878.951877439974
 30
0.0
 11
14773.11294706437
 21
880.2206612498737
 31
0.0
 11
14773.98003600839
 21
878.951877439974
 31
0.0
  0
SPLINE
  5
17FA8
330
1F
100
AcDbEntity
  8
0
  6
Continuous
 62
     7
100
AcDbSpline
210
0.0
220
0.0
230
1.0
 70
     8
 71
     3
 72
     8
 73
     4
 74
     2
 42
0.0000000001
 43
0.0000000001
 44
0.0000000001
 12
0.3894766778335217
 22
-0.9210363279609351
 32
0.0
 13
-0.0000164062974216
 23
-0.9999999998654168
 33
0.0
 40
0.0
 40
0.0
 40
0.0
 40
0.0
 40
1.52728548399306
 40
1.52728548399306
 40
1.52728548399306
 40
1.52728548399306
 10
14773.98003600839
 20
878.951877439974
 30
0.0
 10
14774.17831670053
 20
878.482982301999
 30
0.0
 10
14774.28450924586
 20
877.9643423585389
 30
0.0
 10
14774.28450089349
 20
877.4552471972763
 30
0.0
 11
14773.98003600839
 21
878.951877439974
 31
0.0
 11
14774.28450089349
 21
877.4552471972763
 31
0.0
  0
SPLINE
  5
17FA9
330
1F
100
AcDbEntity
  8
0
  6
Continuous
 62
     7
100
AcDbSpline
210
0.0
220
0.0
230
1.0
 70
     8
 71
     3
 72
    12
 73
     8
 74
     6
 42
0.0000000001
 43
0.0000000001
 44
0.0000000001
 12
0.5751433983409956
 22
0.8180526091546747
 32
0.0
 13
-0.6267555313641929
 23
0.7792159546007694
 33
0.0
 40
0.0
 40
0.0
 40
0.0
 40
0.0
 40
0.2608548706868822
 40
1.083834902472241
 40
2.625147340100273
 40
5.447611270872078
 40
9.737668234795371
 40
9.737668234795371
 40
9.737668234795371
 40
9.737668234795371
 10
14738.85477969058
 20
648.3590036634755
 30
0.0
 10
14738.90478934285
 20
648.4301346660008
 30
0.0
 10
14739.09547733454
 20
648.7377930057625
 30
0.0
 10
14739.38827591324
 20
649.5787572197833
 30
0.0
 10
14739.31388724474
 20
651.3475364529748
 30
0.0
 10
14738.23417620851
 20
654.0639174264851
 30
0.0
 10
14736.88179558584
 20
656.0306508373626
 30
0.0
 10
14735.98552327517
 20
657.1449444481743
 30
0.0
 11
14738.85477969058
 21
648.3590036634755
 31
0.0
 11
14738.99253473638
 21
648.5805184731772
 31
0.0
 11
14739.27209579778
 21
649.3545609433736
 31
0.0
 11
14739.27214622951
 21
650.8958733801765
 31
0.0
 11
14738.34406159848
 21
653.5613867562751
 31
0.0
 11
14735.98552327517
 21
657.1449444481743
 31
0.0
  0
SPLINE
  5
17FAA
330
1F
100
AcDbEntity
  8
0
  6
Continuous
 62
     7
100
AcDbSpline
210
0.0
220
0.0
230
1.0
 70
     8
 71
     3
 72
    11
 73
     7
 74
     5
 42
0.0000000001
 43
0.0000000001
 44
0.0000000001
 12
0.9999999999999962
 22
-0.0000000868504989
 32
0.0
 13
0.0
 23
1.0
 33
0.0
 40
0.0
 40
0.0
 40
0.0
 40
0.0
 40
1.551093208381076
 40
3.031929255198265
 40
4.407292644268308
 40
5.702903347322152
 40
5.702903347322152
 40
5.702903347322152
 40
5.702903347322152
 10
14770.28450089247
 20
670.7193313836731
 30
0.0
 10
14770.80153196193
 20
670.7193313387688
 30
0.0
 10
14771.82030737106
 20
670.8811048099448
 30
0.0
 10
14773.1419270666
 20
671.588210219441
 30
0.0
 10
14774.05907646469
 20
672.6763577148821
 30
0.0
 10
14774.28450089349
 20
673.5782323300238
 30
0.0
 10
14774.28450089349
 20
674.0101025643752
 30
0.0
 11
14770.28450089247
 21
670.7193313836731
 31
0.0
 11
14771.81523359429
 21
670.9698259677761
 31
0.0
 11
14773.11292711267
 21
671.6831750617747
 31
0.0
 11
14773.98001872369
 21
672.7507782605751
 31
0.0
 11
14774.28450089349
 21
674.0101025643752
 31
0.0
  0
SPLINE
  5
17FAB
330
1F
100
AcDbEntity
  8
0
  6
Continuous
 62
     7
100
AcDbSpline
210
0.0
220
0.0
230
1.0
 70
     8
 71
     3
 72
    11
 73
     7
 74
     5
 42
0.0000000001
 43
0.0000000001
 44
0.0000000001
 12
0.3387127896227961
 22
-0.9408898161559321
 32
0.0
 13
0.2216181747512574
 23
-0.9751335214317686
 33
0.0
 40
0.0
 40
0.0
 40
0.0
 40
0.0
 40
12.60845038554748
 40
27.45219017002058
 40
44.01719654330357
 40
45.36102708919009
 40
45.36102708919009
 40
45.36102708919009
 40
45.36102708919009
 10
14298.51109901319
 20
1028.457928655874
 30
0.0
 10
14299.93464681416
 20
1024.503541134117
 30
0.0
 10
14302.90911000325
 20
1015.848004203622
 30
0.0
 10
14307.19654755717
 20
1001.812510087658
 30
0.0
 10
14309.92945916796
 20
991.2372664601496
 30
0.0
 10
14311.26445511273
 20
985.4188587628478
 30
0.0
 10
14311.36372753699
 20
984.9820540253752
 30
0.0
 11
14298.51109901319
 21
1028.457928655874
 31
0.0
 11
14302.60352200688
 21
1016.532112324674
 31
0.0
 11
14306.93094046658
 21
1002.333166579873
 31
0.0
 11
14311.06320899908
 21
986.2918513930742
 31
0.0
 11
14311.36372753699
 21
984.9820540253752
 31
0.0
  0
SPLINE
  5
17FAC
330
1F
100
AcDbEntity
  8
0
  6
Continuous
 62
     7
100
AcDbSpline
210
0.0
220
0.0
230
1.0
 70
     8
 71
     3
 72
    12
 73
     8
 74
     6
 42
0.0000000001
 43
0.0000000001
 44
0.0000000001
 12
-0.3984007134499652
 22
-0.9172114649973355
 32
0.0
 13
-0.4400429733171966
 23
-0.8979767155300637
 33
0.0
 40
0.0
 40
0.0
 40
0.0
 40
0.0
 40
6.367882169830985
 40
16.27016551888395
 40
23.2541323545928
 40
27.39389024818442
 40
28.75253357030884
 40
28.75253357030884
 40
28.75253357030884
 40
28.75253357030884
 10
14286.40967021889
 20
782.9598816671766
 30
0.0
 10
14285.56401395235
 20
781.012983489203
 30
0.0
 10
14283.37513047666
 20
776.0508064397114
 30
0.0
 10
14280.1490917731
 20
769.0022446797852
 30
0.0
 10
14277.1483400644
 20
762.6683161108798
 30
0.0
 10
14275.33570810814
 20
758.9230854984337
 30
0.0
 10
14274.53077410754
 20
757.2765006434008
 30
0.0
 10
14274.33148695849
 20
756.8698239540747
 30
0.0
 11
14286.40967021889
 21
782.9598816671766
 31
0.0
 11
14283.8401681443
 21
777.1334262766769
 31
0.0
 11
14279.72108581859
 21
768.1285178196755
 31
0.0
 11
14276.73146679149
 21
761.8167850278751
 31
0.0
 11
14274.92817334449
 21
758.0904291455754
 31
0.0
 11
14274.33148695849
 21
756.8698239540747
 31
0.0
  0
LINE
  5
17FAE
330
1F
100
AcDbEntity
  8
7A
100
AcDbLine
 10
14185.06018766529
 20
883.9743882801256
 30
0.0
 11
14365.0778145356
 21
883.9743882801256
 31
0.0
  0
ENDSEC
  0
SECTION
  2
OBJECTS
  0
DICTIONARY
  5
C
330
0
100
AcDbDictionary
281
     1
  3
ACAD_2007HEADERVARS_RT
350
18234
  3
ACAD_COLOR
350
BE
  3
ACAD_GROUP
350
D
  3
ACAD_LAYOUT
350
1A
  3
ACAD_MATERIAL
350
BD
  3
ACAD_MLEADERSTYLE
350
1819E
  3
ACAD_MLINESTYLE
350
17
  3
ACAD_PLOTSETTINGS
350
19
  3
ACAD_PLOTSTYLENAME
350
E
  3
ACAD_SCALELIST
350
1818C
  3
ACAD_TABLESTYLE
350
11A
  3
ACAD_VISUALSTYLE
350
18178
  3
ACDB_RECOMPOSE_DATA
350
18232
  3
AcDbVariableDictionary
350
94
  3
AcmDictionary
350
5B
  3
AMG
350
41
  3
AMGSNAPSETTINGS
350
26B
  3
DWGPROPS
350
18233
  0
DICTIONARY
  5
5E1
330
2
100
AcDbDictionary
280
     1
281
     1
  3
ACAD_LAYERFILTERS
360
10B7F
  3
ACAD_LAYERSTATES
360
5E2
  3
ACLYDICTIONARY
360
10B7E
  0
DICTIONARY
  5
18220
330
10
100
AcDbDictionary
280
     1
281
     1
  3
ADSK_XREC_LAYER_RECONCILED
360
18221
  0
DICTIONARY
  5
18222
330
1080A
100
AcDbDictionary
280
     1
281
     1
  3
ADSK_XREC_LAYER_RECONCILED
360
18223
  0
DICTIONARY
  5
18224
330
10B76
100
AcDbDictionary
280
     1
281
     1
  3
ADSK_XREC_LAYER_RECONCILED
360
18225
  0
DICTIONARY
  5
18226
330
10B7B
100
AcDbDictionary
280
     1
281
     1
  3
ADSK_XREC_LAYER_RECONCILED
360
18227
  0
DICTIONARY
  5
18228
330
17C7A
100
AcDbDictionary
280
     1
281
     1
  3
ADSK_XREC_LAYER_RECONCILED
360
18229
  0
DICTIONARY
  5
1822A
330
18148
100
AcDbDictionary
280
     1
281
     1
  3
ADSK_XREC_LAYER_RECONCILED
360
1822B
  0
DICTIONARY
  5
8F
330
1F
100
AcDbDictionary
280
     1
281
     1
  3
ACAD_SORTENTS
360
9429
  0
DICTIONARY
  5
10117
330
87
100
AcDbDictionary
280
     1
281
     1
  0
DICTIONARY
  5
18234
102
{ACAD_REACTORS
330
C
102
}
330
C
100
AcDbDictionary
281
     1
  3
DIMARCSYM
350
18235
  0
DICTIONARY
  5
BE
102
{ACAD_REACTORS
330
C
102
}
330
C
100
AcDbDictionary
281
     1
  0
DICTIONARY
  5
D
102
{ACAD_REACTORS
330
C
102
}
330
C
100
AcDbDictionary
281
     1
  0
DICTIONARY
  5
1A
102
{ACAD_REACTORS
330
C
102
}
330
C
100
AcDbDictionary
281
     1
  3
Layout1
350
1E
  3
Layout2
350
26
  3
Model
350
22
  0
DICTIONARY
  5
BD
102
{ACAD_REACTORS
330
C
102
}
330
C
100
AcDbDictionary
281
     1
  3
ByBlock
350
18168
  3
ByLayer
350
18160
  3
Global
350
18170
  0
DICTIONARY
  5
1819E
102
{ACAD_REACTORS
330
C
102
}
330
C
100
AcDbDictionary
281
     1
  3
Standard
350
1819F
  0
DICTIONARY
  5
17
102
{ACAD_REACTORS
330
C
102
}
330
C
100
AcDbDictionary
281
     1
  3
Standard
350
18
  0
DICTIONARY
  5
19
102
{ACAD_REACTORS
330
C
102
}
330
C
100
AcDbDictionary
281
     1
  0
ACDBDICTIONARYWDFLT
  5
E
102
{ACAD_REACTORS
330
C
102
}
330
C
100
AcDbDictionary
281
     1
  3
Normal
350
F
100
AcDbDictionaryWithDefault
340
F
  0
DICTIONARY
  5
1818C
102
{ACAD_REACTORS
330
C
102
}
330
C
100
AcDbDictionary
281
     1
  3
A0
350
1818D
  3
A1
350
1818E
  3
A2
350
1818F
  3
A3
350
18190
  3
A4
350
18191
  3
A5
350
18192
  3
A6
350
18193
  3
A7
350
18194
  3
A8
350
18195
  3
A9
350
18196
  3
B0
350
18197
  3
B1
350
18198
  3
B2
350
18199
  3
B3
350
1819A
  3
B4
350
1819B
  3
B5
350
1819C
  3
B6
350
1819D
  0
DICTIONARY
  5
11A
102
{ACAD_REACTORS
330
C
102
}
330
C
100
AcDbDictionary
281
     1
  3
Standard
350
11B
  0
DICTIONARY
  5
18178
102
{ACAD_REACTORS
330
C
102
}
330
C
100
AcDbDictionary
281
     1
  3
2dWireframe
350
1817E
  3
3D Hidden
350
18180
  3
3dWireframe
350
1817F
  3
Basic
350
1817D
  3
Brighten
350
18184
  3
ColorChange
350
18188
  3
Conceptual
350
18181
  3
Dim
350
18183
  3
EdgeColorOff
350
1818B
  3
Facepattern
350
18187
  3
Flat
350
18179
  3
FlatWithEdges
350
1817A
  3
Gouraud
350
1817B
  3
GouraudWithEdges
350
1817C
  3
JitterOff
350
18189
  3
Linepattern
350
18186
  3
OverhangOff
350
1818A
  3
Realistic
350
18182
  3
Thicken
350
18185
  0
XRECORD
  5
18232
102
{ACAD_REACTORS
330
C
102
}
330
C
100
AcDbXrecord
280
     1
 90
        1
330
11B
  0
DICTIONARY
  5
94
102
{ACAD_REACTORS
330
C
102
}
330
C
100
AcDbDictionary
281
     1
  3
CANNOSCALE
350
1822D
  3
CMLEADERSTYLE
350
1822C
  3
CTABLESTYLE
350
138
  3
DIMASSOC
350
96
  3
INDEXCTL
350
95
  3
PROJECTNAME
350
B168
  3
SORTENTS
350
1822E
  3
XCLIPFRAME
350
1822F
  0
DICTIONARY
  5
5B
102
{ACAD_REACTORS
330
C
102
}
330
C
100
AcDbDictionary
281
     1
  3
AcmBOM
350
272
  3
AcmStdDictionary
350
61
  3
AMDTSECTSYM_ARROWCOLOR
350
123
  0
DICTIONARY
  5
41
102
{ACAD_REACTORS
330
C
102
}
330
C
100
AcDbDictionary
281
     1
  0
DICTIONARY
  5
26B
102
{ACAD_REACTORS
330
C
102
}
330
C
100
AcDbDictionary
281
     1
  0
XRECORD
  5
18233
102
{ACAD_REACTORS
330
C
102
}
330
C
100
AcDbXrecord
280
     1
  1
DWGPROPS COOKIE
  2

  3

  4

  6

  7

  8
Administrator
  9

300
AmdtFileType=84
301
=
302
=
303
=
304
=
305
=
306
=
307
=
308
=
309
=
 40
0.8000020717592592
 41
2454167.37697816
 42
2455137.915264445
  1

 90
        1
  0
DICTIONARY
  5
10B7F
102
{ACAD_REACTORS
330
5E1
102
}
330
5E1
100
AcDbDictionary
281
     1
  0
DICTIONARY
  5
5E2
102
{ACAD_REACTORS
330
5E1
102
}
330
5E1
100
AcDbDictionary
281
     1
  0
DICTIONARY
  5
10B7E
102
{ACAD_REACTORS
330
5E1
102
}
330
5E1
100
AcDbDictionary
281
     1
1001
ACAD
1000
<All
  0
XRECORD
  5
18221
102
{ACAD_REACTORS
330
18220
102
}
330
18220
100
AcDbXrecord
280
     1
290
     1
  0
XRECORD
  5
18223
102
{ACAD_REACTORS
330
18222
102
}
330
18222
100
AcDbXrecord
280
     1
290
     1
  0
XRECORD
  5
18225
102
{ACAD_REACTORS
330
18224
102
}
330
18224
100
AcDbXrecord
280
     1
290
     1
  0
XRECORD
  5
18227
102
{ACAD_REACTORS
330
18226
102
}
330
18226
100
AcDbXrecord
280
     1
290
     1
  0
XRECORD
  5
18229
102
{ACAD_REACTORS
330
18228
102
}
330
18228
100
AcDbXrecord
280
     1
290
     1
  0
XRECORD
  5
1822B
102
{ACAD_REACTORS
330
1822A
102
}
330
1822A
100
AcDbXrecord
280
     1
290
     1
  0
SORTENTSTABLE
  5
9429
102
{ACAD_REACTORS
330
8F
102
}
330
8F
100
AcDbSortentsTable
330
1F
331
15ABB
  5
15AD5
331
10BBB
  5
15A02
331
15ABD
  5
15AD6
331
10BBC
  5
15A03
331
16671
  5
1686A
331
10BB2
  5
15A00
331
10BB3
  5
15A01
331
15AB8
  5
15AD2
331
15AB9
  5
15AD3
331
15ABA
  5
15AD4
  0
XRECORD
  5
18235
102
{ACAD_REACTORS
330
18234
102
}
330
18234
100
AcDbXrecord
280
     1
 70
     1
  0
LAYOUT
  5
1E
102
{ACAD_XDICTIONARY
360
18236
102
}
102
{ACAD_REACTORS
330
1A
102
}
330
1A
100
AcDbPlotSettings
  1

  2

  4

  6

 40
0.0
 41
0.0
 42
0.0
 43
0.0
 44
0.0
 45
0.0
 46
0.0
 47
0.0
 48
0.0
 49
0.0
140
0.0
141
0.0
142
1.0
143
1.0
 70
   688
 72
     0
 73
     0
 74
     5
  7
monochrome uw.ctb
 75
    16
147
1.0
148
0.0
149
0.0
100
AcDbLayout
  1
Layout1
 70
     1
 71
     1
 10
0.0
 20
0.0
 11
420.0
 21
297.0
 12
0.0
 22
0.0
 32
0.0
 14
1.000000000000000E+20
 24
1.000000000000000E+20
 34
1.000000000000000E+20
 15
-1.000000000000000E+20
 25
-1.000000000000000E+20
 35
-1.000000000000000E+20
146
0.0
 13
0.0
 23
0.0
 33
0.0
 16
1.0
 26
0.0
 36
0.0
 17
0.0
 27
1.0
 37
0.0
 76
     0
330
1B
  0
LAYOUT
  5
26
102
{ACAD_XDICTIONARY
360
1823A
102
}
102
{ACAD_REACTORS
330
1A
102
}
330
1A
100
AcDbPlotSettings
  1

  2

  4

  6

 40
0.0
 41
0.0
 42
0.0
 43
0.0
 44
0.0
 45
0.0
 46
0.0
 47
0.0
 48
0.0
 49
0.0
140
0.0
141
0.0
142
1.0
143
1.0
 70
   688
 72
     0
 73
     0
 74
     5
  7
monochrome uw.ctb
 75
    16
147
1.0
148
0.0
149
0.0
100
AcDbLayout
  1
Layout2
 70
     1
 71
     2
 10
0.0
 20
0.0
 11
12.0
 21
9.0
 12
0.0
 22
0.0
 32
0.0
 14
0.0
 24
0.0
 34
0.0
 15
0.0
 25
0.0
 35
0.0
146
0.0
 13
0.0
 23
0.0
 33
0.0
 16
1.0
 26
0.0
 36
0.0
 17
0.0
 27
1.0
 37
0.0
 76
     0
330
23
  0
LAYOUT
  5
22
102
{ACAD_XDICTIONARY
360
18238
102
}
102
{ACAD_REACTORS
330
1A
102
}
330
1A
100
AcDbPlotSettings
  1

  2
Adobe PDF
  4
A4
  6

 40
3.174999952316283
 41
3.174999952316283
 42
3.175003051757812
 43
3.17498779296875
 44
209.9733276367186
 45
297.0318298339844
 46
-0.0000000000000142
 47
78.97617299601188
 48
10891.18827994032
 49
2118.525542180123
140
12323.87549195795
141
3052.406039703264
142
1.0
143
7.035968077833545
 70
 11956
 72
     1
 73
     0
 74
     4
  7
monochrome uw.ctb
 75
     0
147
0.1421268528989562
148
-10891.18827994032
149
-2118.525542180123
100
AcDbLayout
  1
Model
 70
     1
 71
     0
 10
0.0
 20
0.0
 11
12.0
 21
9.0
 12
0.0
 22
0.0
 32
0.0
 14
0.0
 24
0.0
 34
0.0
 15
0.0
 25
0.0
 35
0.0
146
0.0
 13
0.0
 23
0.0
 33
0.0
 16
1.0
 26
0.0
 36
0.0
 17
0.0
 27
1.0
 37
0.0
 76
     0
330
1F
331
18155
1001
ACAD_PSEXT
1000
Adobe PDF
1000
Adobe PDF Converter
1000
Eigene Dateien
1000

1070
     0
  0
MATERIAL
  5
18168
102
{ACAD_XDICTIONARY
360
18169
102
}
102
{ACAD_REACTORS
330
BD
102
}
330
BD
100
AcDbMaterial
  1
ByBlock
 72
     0
 43
0.0008202099737533
 43
0.0
 43
0.0
 43
0.0
 43
0.0
 43
0.0008202099737533
 43
0.0
 43
0.0
 43
0.0
 43
0.0
 43
1.0
 43
0.0
 43
0.0
 43
0.0
 43
0.0
 43
1.0
 77
     0
 47
0.0008202099737533
 47
0.0
 47
0.0
 47
0.0
 47
0.0
 47
0.0008202099737533
 47
0.0
 47
0.0
 47
0.0
 47
0.0
 47
1.0
 47
0.0
 47
0.0
 47
0.0
 47
0.0
 47
1.0
171
     0
 49
0.0008202099737533
 49
0.0
 49
0.0
 49
0.0
 49
0.0
 49
0.0008202099737533
 49
0.0
 49
0.0
 49
0.0
 49
0.0
 49
1.0
 49
0.0
 49
0.0
 49
0.0
 49
0.0
 49
1.0
175
     0
142
0.0008202099737533
142
0.0
142
0.0
142
0.0
142
0.0
142
0.0008202099737533
142
0.0
142
0.0
142
0.0
142
0.0
142
1.0
142
0.0
142
0.0
142
0.0
142
0.0
142
1.0
179
     0
144
0.0008202099737533
144
0.0
144
0.0
144
0.0
144
0.0
144
0.0008202099737533
144
0.0
144
0.0
144
0.0
144
0.0
144
1.0
144
0.0
144
0.0
144
0.0
144
0.0
144
1.0
147
0.0008202099737533
147
0.0
147
0.0
147
0.0
147
0.0
147
0.0008202099737533
147
0.0
147
0.0
147
0.0
147
0.0
147
1.0
147
0.0
147
0.0
147
0.0
147
0.0
147
1.0
  0
MATERIAL
  5
18160
102
{ACAD_XDICTIONARY
360
18161
102
}
102
{ACAD_REACTORS
330
BD
102
}
330
BD
100
AcDbMaterial
  1
ByLayer
 72
     0
 43
0.0008202099737533
 43
0.0
 43
0.0
 43
0.0
 43
0.0
 43
0.0008202099737533
 43
0.0
 43
0.0
 43
0.0
 43
0.0
 43
1.0
 43
0.0
 43
0.0
 43
0.0
 43
0.0
 43
1.0
 77
     0
 47
0.0008202099737533
 47
0.0
 47
0.0
 47
0.0
 47
0.0
 47
0.0008202099737533
 47
0.0
 47
0.0
 47
0.0
 47
0.0
 47
1.0
 47
0.0
 47
0.0
 47
0.0
 47
0.0
 47
1.0
171
     0
 49
0.0008202099737533
 49
0.0
 49
0.0
 49
0.0
 49
0.0
 49
0.0008202099737533
 49
0.0
 49
0.0
 49
0.0
 49
0.0
 49
1.0
 49
0.0
 49
0.0
 49
0.0
 49
0.0
 49
1.0
175
     0
142
0.0008202099737533
142
0.0
142
0.0
142
0.0
142
0.0
142
0.0008202099737533
142
0.0
142
0.0
142
0.0
142
0.0
142
1.0
142
0.0
142
0.0
142
0.0
142
0.0
142
1.0
179
     0
144
0.0008202099737533
144
0.0
144
0.0
144
0.0
144
0.0
144
0.0008202099737533
144
0.0
144
0.0
144
0.0
144
0.0
144
1.0
144
0.0
144
0.0
144
0.0
144
0.0
144
1.0
147
0.0008202099737533
147
0.0
147
0.0
147
0.0
147
0.0
147
0.0008202099737533
147
0.0
147
0.0
147
0.0
147
0.0
147
1.0
147
0.0
147
0.0
147
0.0
147
0.0
147
1.0
  0
MATERIAL
  5
18170
102
{ACAD_XDICTIONARY
360
18171
102
}
102
{ACAD_REACTORS
330
BD
102
}
330
BD
100
AcDbMaterial
  1
Global
 72
     0
 43
0.0008202099737533
 43
0.0
 43
0.0
 43
0.0
 43
0.0
 43
0.0008202099737533
 43
0.0
 43
0.0
 43
0.0
 43
0.0
 43
1.0
 43
0.0
 43
0.0
 43
0.0
 43
0.0
 43
1.0
 77
     0
 47
0.0008202099737533
 47
0.0
 47
0.0
 47
0.0
 47
0.0
 47
0.0008202099737533
 47
0.0
 47
0.0
 47
0.0
 47
0.0
 47
1.0
 47
0.0
 47
0.0
 47
0.0
 47
0.0
 47
1.0
171
     0
 49
0.0008202099737533
 49
0.0
 49
0.0
 49
0.0
 49
0.0
 49
0.0008202099737533
 49
0.0
 49
0.0
 49
0.0
 49
0.0
 49
1.0
 49
0.0
 49
0.0
 49
0.0
 49
0.0
 49
1.0
175
     0
142
0.0008202099737533
142
0.0
142
0.0
142
0.0
142
0.0
142
0.0008202099737533
142
0.0
142
0.0
142
0.0
142
0.0
142
1.0
142
0.0
142
0.0
142
0.0
142
0.0
142
1.0
179
     0
144
0.0008202099737533
144
0.0
144
0.0
144
0.0
144
0.0
144
0.0008202099737533
144
0.0
144
0.0
144
0.0
144
0.0
144
1.0
144
0.0
144
0.0
144
0.0
144
0.0
144
1.0
147
0.0008202099737533
147
0.0
147
0.0
147
0.0
147
0.0
147
0.0008202099737533
147
0.0
147
0.0
147
0.0
147
0.0
147
1.0
147
0.0
147
0.0
147
0.0
147
0.0
147
1.0
  0
MLEADERSTYLE
  5
1819F
102
{ACAD_REACTORS
330
1819E
102
}
330
1819E
100
AcDbMLeaderStyle
170
     2
171
     1
172
     0
 90
        2
 40
0.0
 41
0.0
173
     1
 91
-1056964608
340
14
 92
       -2
290
     1
 42
2.0
291
     1
 43
0.36
  3
Standard
 44
4.0
300

342
11
174
     1
178
     6
175
     1
176
     0
 93
-1056964608
 45
4.0
292
     0
297
     0
 46
4.0
 94
-1056964608
 47
1.0
 49
1.0
140
1.0
293
     1
141
0.0
294
     1
177
     0
142
1.0
295
     0
296
     0
143
0.125
1001
ACAD_MLEADERVER
1070
     2
  0
MLINESTYLE
  5
18
102
{ACAD_REACTORS
330
17
102
}
330
17
100
AcDbMlineStyle
  2
STANDARD
 70
     0
  3

 62
   256
 51
90.0
 52
90.0
 71
     2
 49
0.5
 62
   256
  6
BYLAYER
 49
-0.5
 62
   256
  6
BYLAYER
  0
ACDBPLACEHOLDER
  5
F
102
{ACAD_REACTORS
330
E
102
}
330
E
  0
SCALE
  5
1818D
102
{ACAD_REACTORS
330
1818C
102
}
330
1818C
100
AcDbScale
 70
     0
300
1:1
140
1.0
141
1.0
290
     1
  0
SCALE
  5
1818E
102
{ACAD_REACTORS
330
1818C
102
}
330
1818C
100
AcDbScale
 70
     0
300
1:2
140
1.0
141
2.0
290
     0
  0
SCALE
  5
1818F
102
{ACAD_REACTORS
330
1818C
102
}
330
1818C
100
AcDbScale
 70
     0
300
1:4
140
1.0
141
4.0
290
     0
  0
SCALE
  5
18190
102
{ACAD_REACTORS
330
1818C
102
}
330
1818C
100
AcDbScale
 70
     0
300
1:5
140
1.0
141
5.0
290
     0
  0
SCALE
  5
18191
102
{ACAD_REACTORS
330
1818C
102
}
330
1818C
100
AcDbScale
 70
     0
300
1:8
140
1.0
141
8.0
290
     0
  0
SCALE
  5
18192
102
{ACAD_REACTORS
330
1818C
102
}
330
1818C
100
AcDbScale
 70
     0
300
1:10
140
1.0
141
10.0
290
     0
  0
SCALE
  5
18193
102
{ACAD_REACTORS
330
1818C
102
}
330
1818C
100
AcDbScale
 70
     0
300
1:16
140
1.0
141
16.0
290
     0
  0
SCALE
  5
18194
102
{ACAD_REACTORS
330
1818C
102
}
330
1818C
100
AcDbScale
 70
     0
300
1:20
140
1.0
141
20.0
290
     0
  0
SCALE
  5
18195
102
{ACAD_REACTORS
330
1818C
102
}
330
1818C
100
AcDbScale
 70
     0
300
1:30
140
1.0
141
30.0
290
     0
  0
SCALE
  5
18196
102
{ACAD_REACTORS
330
1818C
102
}
330
1818C
100
AcDbScale
 70
     0
300
1:40
140
1.0
141
40.0
290
     0
  0
SCALE
  5
18197
102
{ACAD_REACTORS
330
1818C
102
}
330
1818C
100
AcDbScale
 70
     0
300
1:50
140
1.0
141
50.0
290
     0
  0
SCALE
  5
18198
102
{ACAD_REACTORS
330
1818C
102
}
330
1818C
100
AcDbScale
 70
     0
300
1:100
140
1.0
141
100.0
290
     0
  0
SCALE
  5
18199
102
{ACAD_REACTORS
330
1818C
102
}
330
1818C
100
AcDbScale
 70
     0
300
2:1
140
2.0
141
1.0
290
     0
  0
SCALE
  5
1819A
102
{ACAD_REACTORS
330
1818C
102
}
330
1818C
100
AcDbScale
 70
     0
300
4:1
140
4.0
141
1.0
290
     0
  0
SCALE
  5
1819B
102
{ACAD_REACTORS
330
1818C
102
}
330
1818C
100
AcDbScale
 70
     0
300
8:1
140
8.0
141
1.0
290
     0
  0
SCALE
  5
1819C
102
{ACAD_REACTORS
330
1818C
102
}
330
1818C
100
AcDbScale
 70
     0
300
10:1
140
10.0
141
1.0
290
     0
  0
SCALE
  5
1819D
102
{ACAD_REACTORS
330
1818C
102
}
330
1818C
100
AcDbScale
 70
     0
300
100:1
140
100.0
141
1.0
290
     0
  0
TABLESTYLE
  5
11B
102
{ACAD_XDICTIONARY
360
18230
102
}
102
{ACAD_REACTORS
330
11A
102
}
330
11A
100
AcDbTableStyle
  3
Standard
 70
     0
 71
     0
 40
1.5
 41
1.5
280
     0
281
     0
  7
STANDARD
140
4.5
170
     2
 62
     0
 63
     7
283
     0
274
    -2
284
     1
 64
     0
275
    -2
285
     1
 65
     0
276
    -2
286
     1
 66
     0
277
    -2
287
     1
 67
     0
278
    -2
288
     1
 68
     0
279
    -2
289
     1
 69
     0
  7
STANDARD
140
6.0
170
     5
 62
     0
 63
     7
283
     0
274
    -2
284
     1
 64
     0
275
    -2
285
     1
 65
     0
276
    -2
286
     1
 66
     0
277
    -2
287
     1
 67
     0
278
    -2
288
     1
 68
     0
279
    -2
289
     1
 69
     0
  7
STANDARD
140
4.5
170
     5
 62
     0
 63
     7
283
     0
274
    -2
284
     1
 64
     0
275
    -2
285
     1
 65
     0
276
    -2
286
     1
 66
     0
277
    -2
287
     1
 67
     0
278
    -2
288
     1
 68
     0
279
    -2
289
     1
 69
     0
  0
VISUALSTYLE
  5
1817E
102
{ACAD_XDICTIONARY
360
1824A
102
}
102
{ACAD_REACTORS
330
18178
102
}
330
18178
100
AcDbVisualStyle
  2
2dWireframe
 70
     4
 71
     0
 72
     2
 73
     0
 90
        0
 40
-0.6
 41
-30.0
 62
     5
 63
     7
 74
     1
 91
        4
 64
     7
 65
   257
 75
     1
175
     1
 42
1.0
 92
        0
 66
   257
 43
1.0
 76
     1
 77
     6
 78
     2
 67
     7
 79
     5
170
     0
171
     0
290
     0
174
     0
 93
        1
 44
0.0
173
     0
291
     0
 45
0.0
1001
ACAD
1000
AcDbSavedByObjectVersion
1070
     0
  0
VISUALSTYLE
  5
18180
102
{ACAD_XDICTIONARY
360
1824E
102
}
102
{ACAD_REACTORS
330
18178
102
}
330
18178
100
AcDbVisualStyle
  2
3D Hidden
 70
     6
 71
     1
 72
     2
 73
     2
 90
        0
 40
-0.6
 41
-30.0
 62
     5
 63
     7
 74
     2
 91
        2
 64
     7
 65
   257
 75
     2
175
     1
 42
179.0
 92
        0
 66
   257
 43
1.0
 76
     1
 77
     6
 78
     2
 67
     7
 79
     3
170
     0
171
     0
290
     0
174
     0
 93
        1
 44
0.0
173
     0
291
     0
 45
0.0
1001
ACAD
1000
AcDbSavedByObjectVersion
1070
     0
  0
VISUALSTYLE
  5
1817F
102
{ACAD_XDICTIONARY
360
1824C
102
}
102
{ACAD_REACTORS
330
18178
102
}
330
18178
100
AcDbVisualStyle
  2
3dWireframe
 70
     5
 71
     0
 72
     2
 73
     0
 90
        0
 40
-0.6
 41
-30.0
 62
     5
 63
     7
 74
     1
 91
        4
 64
     7
 65
   257
 75
     1
175
     1
 42
1.0
 92
        0
 66
   257
 43
1.0
 76
     1
 77
     6
 78
     2
 67
     7
 79
     5
170
     0
171
     0
290
     0
174
     0
 93
        1
 44
0.0
173
     0
291
     0
 45
0.0
1001
ACAD
1000
AcDbSavedByObjectVersion
1070
     0
  0
VISUALSTYLE
  5
1817D
102
{ACAD_XDICTIONARY
360
18248
102
}
102
{ACAD_REACTORS
330
18178
102
}
330
18178
100
AcDbVisualStyle
  2
Basic
 70
     7
 71
     1
 72
     0
 73
     1
 90
        0
 40
-0.6
 41
-30.0
 62
     5
 63
     7
 74
     0
 91
        4
 64
     7
 65
   257
 75
     1
175
     1
 42
1.0
 92
        8
 66
     7
 43
1.0
 76
     1
 77
     6
 78
     2
 67
     7
 79
     5
170
     0
171
     0
290
     0
174
     0
 93
        1
 44
0.0
173
     0
291
     1
 45
0.0
1001
ACAD
1000
AcDbSavedByObjectVersion
1070
     0
  0
VISUALSTYLE
  5
18184
102
{ACAD_XDICTIONARY
360
18256
102
}
102
{ACAD_REACTORS
330
18178
102
}
330
18178
100
AcDbVisualStyle
  2
Brighten
 70
    12
 71
     2
 72
     2
 73
     0
 90
        0
 40
-0.6
 41
-30.0
 62
     5
 63
     7
 74
     1
 91
        4
 64
     7
 65
   257
 75
     1
175
     1
 42
1.0
 92
        8
 66
     7
 43
1.0
 76
     1
 77
     6
 78
     2
 67
     7
 79
     5
170
     0
171
     0
290
     0
174
     0
 93
        1
 44
50.0
173
     0
291
     1
 45
0.0
1001
ACAD
1000
AcDbSavedByObjectVersion
1070
     0
  0
VISUALSTYLE
  5
18188
102
{ACAD_XDICTIONARY
360
1825E
102
}
102
{ACAD_REACTORS
330
18178
102
}
330
18178
100
AcDbVisualStyle
  2
ColorChange
 70
    16
 71
     2
 72
     2
 73
     3
 90
        0
 40
-0.6
 41
-30.0
 62
     5
 63
     8
 74
     1
 91
        4
 64
     7
 65
   257
 75
     1
175
     1
 42
1.0
 92
        8
 66
     8
 43
1.0
 76
     1
 77
     6
 78
     2
 67
     7
 79
     5
170
     0
171
     0
290
     0
174
     0
 93
        1
 44
0.0
173
     0
291
     1
 45
0.0
1001
ACAD
1000
AcDbSavedByObjectVersion
1070
     0
  0
VISUALSTYLE
  5
18181
102
{ACAD_XDICTIONARY
360
18250
102
}
102
{ACAD_REACTORS
330
18178
102
}
330
18178
100
AcDbVisualStyle
  2
Conceptual
 70
     9
 71
     3
 72
     2
 73
     0
 90
        0
 40
-0.6
 41
-30.0
 62
     5
 63
     7
 74
     2
 91
        2
 64
     7
 65
   257
 75
     1
175
     1
 42
179.0
 92
        8
 66
     7
 43
1.0
 76
     1
 77
     6
 78
     2
 67
     7
 79
     3
170
     0
171
     0
290
     0
174
     0
 93
        1
 44
0.0
173
     0
291
     0
 45
0.0
1001
ACAD
1000
AcDbSavedByObjectVersion
1070
     0
  0
VISUALSTYLE
  5
18183
102
{ACAD_XDICTIONARY
360
18254
102
}
102
{ACAD_REACTORS
330
18178
102
}
330
18178
100
AcDbVisualStyle
  2
Dim
 70
    11
 71
     2
 72
     2
 73
     0
 90
        0
 40
-0.6
 41
-30.0
 62
     5
 63
     7
 74
     1
 91
        4
 64
     7
 65
   257
 75
     1
175
     1
 42
1.0
 92
        8
 66
     7
 43
1.0
 76
     1
 77
     6
 78
     2
 67
     7
 79
     5
170
     0
171
     0
290
     0
174
     0
 93
        1
 44
-50.0
173
     0
291
     1
 45
0.0
1001
ACAD
1000
AcDbSavedByObjectVersion
1070
     0
  0
VISUALSTYLE
  5
1818B
102
{ACAD_XDICTIONARY
360
18264
102
}
102
{ACAD_REACTORS
330
18178
102
}
330
18178
100
AcDbVisualStyle
  2
EdgeColorOff
 70
    22
 71
     2
 72
     2
 73
     0
 90
        0
 40
-0.6
 41
-30.0
 62
     5
 63
     7
 74
     1
 91
        4
 64
     7
 65
   257
 75
     1
175
     1
 42
1.0
 92
        8
 66
     7
 43
1.0
 76
     1
 77
     6
 78
     2
 67
     7
 79
     5
170
     0
171
     0
290
     0
174
     0
 93
        1
 44
0.0
173
     0
291
     1
 45
0.0
1001
ACAD
1000
AcDbSavedByObjectVersion
1070
     0
  0
VISUALSTYLE
  5
18187
102
{ACAD_XDICTIONARY
360
1825C
102
}
102
{ACAD_REACTORS
330
18178
102
}
330
18178
100
AcDbVisualStyle
  2
Facepattern
 70
    15
 71
     2
 72
     2
 73
     0
 90
        0
 40
-0.6
 41
-30.0
 62
     5
 63
     7
 74
     1
 91
        4
 64
     7
 65
   257
 75
     1
175
     1
 42
1.0
 92
        8
 66
     7
 43
1.0
 76
     1
 77
     6
 78
     2
 67
     7
 79
     5
170
     0
171
     0
290
     0
174
     0
 93
        1
 44
0.0
173
     0
291
     1
 45
0.0
1001
ACAD
1000
AcDbSavedByObjectVersion
1070
     0
  0
VISUALSTYLE
  5
18179
102
{ACAD_XDICTIONARY
360
18240
102
}
102
{ACAD_REACTORS
330
18178
102
}
330
18178
100
AcDbVisualStyle
  2
Flat
 70
     0
 71
     2
 72
     1
 73
     1
 90
        2
 40
-0.6
 41
30.0
 62
     5
 63
     7
 74
     0
 91
        4
 64
     7
 65
   257
 75
     1
175
     1
 42
1.0
 92
        8
 66
     7
 43
1.0
 76
     1
 77
     6
 78
     2
 67
     7
 79
     5
170
     0
171
     0
290
     0
174
     0
 93
       13
 44
0.0
173
     0
291
     1
 45
0.0
1001
ACAD
1000
AcDbSavedByObjectVersion
1070
     0
  0
VISUALSTYLE
  5
1817A
102
{ACAD_XDICTIONARY
360
18242
102
}
102
{ACAD_REACTORS
330
18178
102
}
330
18178
100
AcDbVisualStyle
  2
FlatWithEdges
 70
     1
 71
     2
 72
     1
 73
     1
 90
        2
 40
-0.6
 41
30.0
 62
     5
 63
     7
 74
     1
 91
        4
 64
     7
 65
   257
 75
     1
175
     1
 42
1.0
 92
        0
 66
   257
 43
1.0
 76
     1
 77
     6
 78
     2
 67
     7
 79
     5
170
     0
171
     0
290
     0
174
     0
 93
       13
 44
0.0
173
     0
291
     1
 45
0.0
1001
ACAD
1000
AcDbSavedByObjectVersion
1070
     0
  0
VISUALSTYLE
  5
1817B
102
{ACAD_XDICTIONARY
360
18244
102
}
102
{ACAD_REACTORS
330
18178
102
}
330
18178
100
AcDbVisualStyle
  2
Gouraud
 70
     2
 71
     2
 72
     2
 73
     1
 90
        2
 40
-0.6
 41
30.0
 62
     5
 63
     7
 74
     0
 91
        4
 64
     7
 65
   257
 75
     1
175
     1
 42
1.0
 92
        0
 66
     7
 43
1.0
 76
     1
 77
     6
 78
     2
 67
     7
 79
     5
170
     0
171
     0
290
     0
174
     0
 93
       13
 44
0.0
173
     0
291
     1
 45
0.0
1001
ACAD
1000
AcDbSavedByObjectVersion
1070
     0
  0
VISUALSTYLE
  5
1817C
102
{ACAD_XDICTIONARY
360
18246
102
}
102
{ACAD_REACTORS
330
18178
102
}
330
18178
100
AcDbVisualStyle
  2
GouraudWithEdges
 70
     3
 71
     2
 72
     2
 73
     1
 90
        2
 40
-0.6
 41
30.0
 62
     5
 63
     7
 74
     1
 91
        4
 64
     7
 65
   257
 75
     1
175
     1
 42
1.0
 92
        0
 66
   257
 43
1.0
 76
     1
 77
     6
 78
     2
 67
     7
 79
     5
170
     0
171
     0
290
     0
174
     0
 93
       13
 44
0.0
173
     0
291
     1
 45
0.0
1001
ACAD
1000
AcDbSavedByObjectVersion
1070
     0
  0
VISUALSTYLE
  5
18189
102
{ACAD_XDICTIONARY
360
18260
102
}
102
{ACAD_REACTORS
330
18178
102
}
330
18178
100
AcDbVisualStyle
  2
JitterOff
 70
    20
 71
     2
 72
     2
 73
     0
 90
        0
 40
-0.6
 41
-30.0
 62
     5
 63
     7
 74
     1
 91
        4
 64
     7
 65
   257
 75
     1
175
     1
 42
1.0
 92
       10
 66
     7
 43
1.0
 76
     1
 77
     6
 78
     2
 67
     7
 79
     5
170
     0
171
     0
290
     0
174
     0
 93
        1
 44
0.0
173
     0
291
     1
 45
0.0
1001
ACAD
1000
AcDbSavedByObjectVersion
1070
     0
  0
VISUALSTYLE
  5
18186
102
{ACAD_XDICTIONARY
360
1825A
102
}
102
{ACAD_REACTORS
330
18178
102
}
330
18178
100
AcDbVisualStyle
  2
Linepattern
 70
    14
 71
     2
 72
     2
 73
     0
 90
        0
 40
-0.6
 41
-30.0
 62
     5
 63
     7
 74
     1
 91
        4
 64
     7
 65
   257
 75
     7
175
     7
 42
1.0
 92
        8
 66
     7
 43
1.0
 76
     1
 77
     6
 78
     2
 67
     7
 79
     5
170
     0
171
     0
290
     0
174
     0
 93
        1
 44
0.0
173
     0
291
     1
 45
0.0
1001
ACAD
1000
AcDbSavedByObjectVersion
1070
     0
  0
VISUALSTYLE
  5
1818A
102
{ACAD_XDICTIONARY
360
18262
102
}
102
{ACAD_REACTORS
330
18178
102
}
330
18178
100
AcDbVisualStyle
  2
OverhangOff
 70
    21
 71
     2
 72
     2
 73
     0
 90
        0
 40
-0.6
 41
-30.0
 62
     5
 63
     7
 74
     1
 91
        4
 64
     7
 65
   257
 75
     1
175
     1
 42
1.0
 92
        9
 66
     7
 43
1.0
 76
     1
 77
     6
 78
     2
 67
     7
 79
     5
170
     0
171
     0
290
     0
174
     0
 93
        1
 44
0.0
173
     0
291
     1
 45
0.0
1001
ACAD
1000
AcDbSavedByObjectVersion
1070
     0
  0
VISUALSTYLE
  5
18182
102
{ACAD_XDICTIONARY
360
18252
102
}
102
{ACAD_REACTORS
330
18178
102
}
330
18178
100
AcDbVisualStyle
  2
Realistic
 70
     8
 71
     2
 72
     2
 73
     0
 90
        0
 40
-0.6
 41
-30.0
 62
     5
 63
     7
 74
     1
 91
        0
 64
     7
 65
   257
 75
     1
175
     1
 42
1.0
 92
        8
 66
     8
 43
1.0
 76
     1
 77
     6
 78
     2
 67
     7
 79
     5
170
     0
171
     0
290
     0
174
     0
 93
       13
 44
0.0
173
     0
291
     0
 45
0.0
1001
ACAD
1000
AcDbSavedByObjectVersion
1070
     0
  0
VISUALSTYLE
  5
18185
102
{ACAD_XDICTIONARY
360
18258
102
}
102
{ACAD_REACTORS
330
18178
102
}
330
18178
100
AcDbVisualStyle
  2
Thicken
 70
    13
 71
     2
 72
     2
 73
     0
 90
        0
 40
-0.6
 41
-30.0
 62
     5
 63
     7
 74
     1
 91
        4
 64
     7
 65
   257
 75
     1
175
     1
 42
1.0
 92
       12
 66
     7
 43
1.0
 76
     1
 77
     6
 78
     2
 67
     7
 79
     5
170
     0
171
     0
290
     0
174
     0
 93
        1
 44
0.0
173
     0
291
     1
 45
0.0
1001
ACAD
1000
AcDbSavedByObjectVersion
1070
     0
  0
DICTIONARYVAR
  5
1822D
102
{ACAD_REACTORS
330
94
102
}
330
94
100
DictionaryVariables
280
     0
  1
1:1
  0
DICTIONARYVAR
  5
1822C
102
{ACAD_REACTORS
330
94
102
}
330
94
100
DictionaryVariables
280
     0
  1
STANDARD
  0
DICTIONARYVAR
  5
138
102
{ACAD_REACTORS
330
94
102
}
330
94
100
DictionaryVariables
280
     0
  1
STANDARD
  0
DICTIONARYVAR
  5
96
102
{ACAD_REACTORS
330
94
102
}
330
94
100
DictionaryVariables
280
     0
  1
2
  0
DICTIONARYVAR
  5
95
102
{ACAD_REACTORS
330
94
102
}
330
94
100
DictionaryVariables
280
     0
  1
0
  0
DICTIONARYVAR
  5
B168
102
{ACAD_REACTORS
330
94
102
}
330
94
100
DictionaryVariables
280
     0
  1

  0
DICTIONARYVAR
  5
1822E
102
{ACAD_REACTORS
330
94
102
}
330
94
100
DictionaryVariables
280
     0
  1
127
  0
DICTIONARYVAR
  5
1822F
102
{ACAD_REACTORS
330
94
102
}
330
94
100
DictionaryVariables
280
     0
  1
2
  0
DICTIONARY
  5
272
102
{ACAD_REACTORS
330
5B
102
}
330
5B
100
AcDbDictionary
281
     1
  0
DICTIONARY
  5
61
102
{ACAD_REACTORS
330
5B
102
}
330
5B
100
AcDbDictionary
281
     1
  0
XRECORD
  5
123
102
{ACAD_REACTORS
330
5B
102
}
330
5B
100
AcDbXrecord
280
     1
 90
-1023410169
  0
DICTIONARY
  5
18236
330
1E
100
AcDbDictionary
280
     1
281
     1
  3
ACAD_XREC_ROUNDTRIP
360
18237
  0
DICTIONARY
  5
1823A
330
26
100
AcDbDictionary
280
     1
281
     1
  3
ACAD_XREC_ROUNDTRIP
360
1823B
  0
DICTIONARY
  5
18238
330
22
100
AcDbDictionary
280
     1
281
     1
  3
ACAD_XREC_ROUNDTRIP
360
18239
  0
DICTIONARY
  5
18169
330
18168
100
AcDbDictionary
280
     1
281
     1
  3
ACAD_XREC_ROUNDTRIP
360
1823E
  3
BUMPTILE
360
1816B
  3
DIFFUSETILE
360
1816A
  3
OPACITYTILE
360
1816E
  3
REFLECTIONTILE
360
1816D
  3
REFRACTIONTILE
360
1816F
  3
SPECULARTILE
360
1816C
  0
DICTIONARY
  5
18161
330
18160
100
AcDbDictionary
280
     1
281
     1
  3
ACAD_XREC_ROUNDTRIP
360
1823D
  3
BUMPTILE
360
18163
  3
DIFFUSETILE
360
18162
  3
OPACITYTILE
360
18166
  3
REFLECTIONTILE
360
18165
  3
REFRACTIONTILE
360
18167
  3
SPECULARTILE
360
18164
  0
DICTIONARY
  5
18171
330
18170
100
AcDbDictionary
280
     1
281
     1
  3
ACAD_XREC_ROUNDTRIP
360
1823F
  3
BUMPTILE
360
18173
  3
DIFFUSETILE
360
18172
  3
OPACITYTILE
360
18176
  3
REFLECTIONTILE
360
18175
  3
REFRACTIONTILE
360
18177
  3
SPECULARTILE
360
18174
  0
DICTIONARY
  5
18230
330
11B
100
AcDbDictionary
280
     1
281
     1
  3
ACAD_ROUNDTRIP_2008_TABLESTYLE_CELLSTYLEMAP
360
18231
  3
ACAD_XREC_ROUNDTRIP
360
1823C
  0
DICTIONARY
  5
1824A
330
1817E
100
AcDbDictionary
280
     1
281
     1
  3
ACAD_XREC_ROUNDTRIP
360
1824B
  0
DICTIONARY
  5
1824E
330
18180
100
AcDbDictionary
280
     1
281
     1
  3
ACAD_XREC_ROUNDTRIP
360
1824F
  0
DICTIONARY
  5
1824C
330
1817F
100
AcDbDictionary
280
     1
281
     1
  3
ACAD_XREC_ROUNDTRIP
360
1824D
  0
DICTIONARY
  5
18248
330
1817D
100
AcDbDictionary
280
     1
281
     1
  3
ACAD_XREC_ROUNDTRIP
360
18249
  0
DICTIONARY
  5
18256
330
18184
100
AcDbDictionary
280
     1
281
     1
  3
ACAD_XREC_ROUNDTRIP
360
18257
  0
DICTIONARY
  5
1825E
330
18188
100
AcDbDictionary
280
     1
281
     1
  3
ACAD_XREC_ROUNDTRIP
360
1825F
  0
DICTIONARY
  5
18250
330
18181
100
AcDbDictionary
280
     1
281
     1
  3
ACAD_XREC_ROUNDTRIP
360
18251
  0
DICTIONARY
  5
18254
330
18183
100
AcDbDictionary
280
     1
281
     1
  3
ACAD_XREC_ROUNDTRIP
360
18255
  0
DICTIONARY
  5
18264
330
1818B
100
AcDbDictionary
280
     1
281
     1
  3
ACAD_XREC_ROUNDTRIP
360
18265
  0
DICTIONARY
  5
1825C
330
18187
100
AcDbDictionary
280
     1
281
     1
  3
ACAD_XREC_ROUNDTRIP
360
1825D
  0
DICTIONARY
  5
18240
330
18179
100
AcDbDictionary
280
     1
281
     1
  3
ACAD_XREC_ROUNDTRIP
360
18241
  0
DICTIONARY
  5
18242
330
1817A
100
AcDbDictionary
280
     1
281
     1
  3
ACAD_XREC_ROUNDTRIP
360
18243
  0
DICTIONARY
  5
18244
330
1817B
100
AcDbDictionary
280
     1
281
     1
  3
ACAD_XREC_ROUNDTRIP
360
18245
  0
DICTIONARY
  5
18246
330
1817C
100
AcDbDictionary
280
     1
281
     1
  3
ACAD_XREC_ROUNDTRIP
360
18247
  0
DICTIONARY
  5
18260
330
18189
100
AcDbDictionary
280
     1
281
     1
  3
ACAD_XREC_ROUNDTRIP
360
18261
  0
DICTIONARY
  5
1825A
330
18186
100
AcDbDictionary
280
     1
281
     1
  3
ACAD_XREC_ROUNDTRIP
360
1825B
  0
DICTIONARY
  5
18262
330
1818A
100
AcDbDictionary
280
     1
281
     1
  3
ACAD_XREC_ROUNDTRIP
360
18263
  0
DICTIONARY
  5
18252
330
18182
100
AcDbDictionary
280
     1
281
     1
  3
ACAD_XREC_ROUNDTRIP
360
18253
  0
DICTIONARY
  5
18258
330
18185
100
AcDbDictionary
280
     1
281
     1
  3
ACAD_XREC_ROUNDTRIP
360
18259
  0
XRECORD
  5
18237
102
{ACAD_REACTORS
330
18236
102
}
330
18236
100
AcDbXrecord
280
     1
102
SHADEPLOT
 70
     0
102
SHADEPLOTRESLEVEL
 70
     2
102
SHADEPLOTCUSTOMDPI
 70
   300
  0
XRECORD
  5
1823B
102
{ACAD_REACTORS
330
1823A
102
}
330
1823A
100
AcDbXrecord
280
     1
102
SHADEPLOT
 70
     0
102
SHADEPLOTRESLEVEL
 70
     2
102
SHADEPLOTCUSTOMDPI
 70
   300
  0
XRECORD
  5
18239
102
{ACAD_REACTORS
330
18238
102
}
330
18238
100
AcDbXrecord
280
     1
102
SHADEPLOT
 70
     0
102
SHADEPLOTRESLEVEL
 70
     2
102
SHADEPLOTCUSTOMDPI
 70
   300
  0
XRECORD
  5
1823E
102
{ACAD_REACTORS
330
18169
102
}
330
18169
100
AcDbXrecord
280
     1
102
MATERIAL
148
0.0
149
0.0
149
0.0
 93
        0
 94
      127
282
     0
 72
     0
 77
     0
171
     0
175
     0
179
     0
273
     0
  0
XRECORD
  5
1816B
102
{ACAD_REACTORS
330
18169
102
}
330
18169
100
AcDbXrecord
280
     1
270
     1
271
     1
  0
XRECORD
  5
1816A
102
{ACAD_REACTORS
330
18169
102
}
330
18169
100
AcDbXrecord
280
     1
270
     1
271
     1
  0
XRECORD
  5
1816E
102
{ACAD_REACTORS
330
18169
102
}
330
18169
100
AcDbXrecord
280
     1
270
     1
271
     1
  0
XRECORD
  5
1816D
102
{ACAD_REACTORS
330
18169
102
}
330
18169
100
AcDbXrecord
280
     1
270
     1
271
     1
  0
XRECORD
  5
1816F
102
{ACAD_REACTORS
330
18169
102
}
330
18169
100
AcDbXrecord
280
     1
270
     1
271
     1
  0
XRECORD
  5
1816C
102
{ACAD_REACTORS
330
18169
102
}
330
18169
100
AcDbXrecord
280
     1
270
     1
271
     1
  0
XRECORD
  5
1823D
102
{ACAD_REACTORS
330
18161
102
}
330
18161
100
AcDbXrecord
280
     1
102
MATERIAL
148
0.0
149
0.0
149
0.0
 93
        0
 94
      127
282
     0
 72
     0
 77
     0
171
     0
175
     0
179
     0
273
     0
  0
XRECORD
  5
18163
102
{ACAD_REACTORS
330
18161
102
}
330
18161
100
AcDbXrecord
280
     1
270
     1
271
     1
  0
XRECORD
  5
18162
102
{ACAD_REACTORS
330
18161
102
}
330
18161
100
AcDbXrecord
280
     1
270
     1
271
     1
  0
XRECORD
  5
18166
102
{ACAD_REACTORS
330
18161
102
}
330
18161
100
AcDbXrecord
280
     1
270
     1
271
     1
  0
XRECORD
  5
18165
102
{ACAD_REACTORS
330
18161
102
}
330
18161
100
AcDbXrecord
280
     1
270
     1
271
     1
  0
XRECORD
  5
18167
102
{ACAD_REACTORS
330
18161
102
}
330
18161
100
AcDbXrecord
280
     1
270
     1
271
     1
  0
XRECORD
  5
18164
102
{ACAD_REACTORS
330
18161
102
}
330
18161
100
AcDbXrecord
280
     1
270
     1
271
     1
  0
XRECORD
  5
1823F
102
{ACAD_REACTORS
330
18171
102
}
330
18171
100
AcDbXrecord
280
     1
102
MATERIAL
148
0.0
149
0.0
149
0.0
 93
        0
 94
      127
282
     0
 72
     0
 77
     0
171
     0
175
     0
179
     0
273
     0
  0
XRECORD
  5
18173
102
{ACAD_REACTORS
330
18171
102
}
330
18171
100
AcDbXrecord
280
     1
270
     1
271
     1
  0
XRECORD
  5
18172
102
{ACAD_REACTORS
330
18171
102
}
330
18171
100
AcDbXrecord
280
     1
270
     1
271
     1
  0
XRECORD
  5
18176
102
{ACAD_REACTORS
330
18171
102
}
330
18171
100
AcDbXrecord
280
     1
270
     1
271
     1
  0
XRECORD
  5
18175
102
{ACAD_REACTORS
330
18171
102
}
330
18171
100
AcDbXrecord
280
     1
270
     1
271
     1
  0
XRECORD
  5
18177
102
{ACAD_REACTORS
330
18171
102
}
330
18171
100
AcDbXrecord
280
     1
270
     1
271
     1
  0
XRECORD
  5
18174
102
{ACAD_REACTORS
330
18171
102
}
330
18171
100
AcDbXrecord
280
     1
270
     1
271
     1
  0
CELLSTYLEMAP
  5
18231
102
{ACAD_REACTORS
330
18230
102
}
330
18230
100
AcDbCellStyleMap
 90
        3
300
CELLSTYLE
  1
TABLEFORMAT_BEGIN
 90
        5
170
     1
 91
        0
 92
    32768
 62
   257
 93
        1
300
CONTENTFORMAT
  1
CONTENTFORMAT_BEGIN
 90
        0
 91
        0
 92
        4
 93
        0
300

 40
0.0
140
1.0
 94
        5
 62
     0
340
11
144
6.0
309
CONTENTFORMAT_END
171
     1
301
MARGIN
  1
CELLMARGIN_BEGIN
 40
1.5
 40
1.5
 40
1.5
 40
1.5
 40
0.18
 40
0.18
309
CELLMARGIN_END
 94
        6
 95
        1
302
GRIDFORMAT
  1
GRIDFORMAT_BEGIN
 90
        0
 91
        1
 62
     0
 92
       -2
340
0
 93
        0
 40
0.045
309
GRIDFORMAT_END
 95
        2
302
GRIDFORMAT
  1
GRIDFORMAT_BEGIN
 90
        0
 91
        1
 62
     0
 92
       -2
340
0
 93
        0
 40
0.045
309
GRIDFORMAT_END
 95
        4
302
GRIDFORMAT
  1
GRIDFORMAT_BEGIN
 90
        0
 91
        1
 62
     0
 92
       -2
340
0
 93
        0
 40
0.045
309
GRIDFORMAT_END
 95
        8
302
GRIDFORMAT
  1
GRIDFORMAT_BEGIN
 90
        0
 91
        1
 62
     0
 92
       -2
340
0
 93
        0
 40
0.045
309
GRIDFORMAT_END
 95
       16
302
GRIDFORMAT
  1
GRIDFORMAT_BEGIN
 90
        0
 91
        1
 62
     0
 92
       -2
340
0
 93
        0
 40
0.045
309
GRIDFORMAT_END
 95
       32
302
GRIDFORMAT
  1
GRIDFORMAT_BEGIN
 90
        0
 91
        1
 62
     0
 92
       -2
340
0
 93
        0
 40
0.045
309
GRIDFORMAT_END
309
TABLEFORMAT_END
  1
CELLSTYLE_BEGIN
 90
        1
 91
        1
300
_TITLE
309
CELLSTYLE_END
300
CELLSTYLE
  1
TABLEFORMAT_BEGIN
 90
        5
170
     1
 91
        0
 92
        0
 62
   257
 93
        1
300
CONTENTFORMAT
  1
CONTENTFORMAT_BEGIN
 90
        0
 91
        0
 92
        4
 93
        0
300

 40
0.0
140
1.0
 94
        5
 62
     0
340
11
144
4.5
309
CONTENTFORMAT_END
171
     1
301
MARGIN
  1
CELLMARGIN_BEGIN
 40
1.5
 40
1.5
 40
1.5
 40
1.5
 40
0.18
 40
0.18
309
CELLMARGIN_END
 94
        6
 95
        1
302
GRIDFORMAT
  1
GRIDFORMAT_BEGIN
 90
        0
 91
        1
 62
     0
 92
       -2
340
0
 93
        0
 40
0.045
309
GRIDFORMAT_END
 95
        2
302
GRIDFORMAT
  1
GRIDFORMAT_BEGIN
 90
        0
 91
        1
 62
     0
 92
       -2
340
0
 93
        0
 40
0.045
309
GRIDFORMAT_END
 95
        4
302
GRIDFORMAT
  1
GRIDFORMAT_BEGIN
 90
        0
 91
        1
 62
     0
 92
       -2
340
0
 93
        0
 40
0.045
309
GRIDFORMAT_END
 95
        8
302
GRIDFORMAT
  1
GRIDFORMAT_BEGIN
 90
        0
 91
        1
 62
     0
 92
       -2
340
0
 93
        0
 40
0.045
309
GRIDFORMAT_END
 95
       16
302
GRIDFORMAT
  1
GRIDFORMAT_BEGIN
 90
        0
 91
        1
 62
     0
 92
       -2
340
0
 93
        0
 40
0.045
309
GRIDFORMAT_END
 95
       32
302
GRIDFORMAT
  1
GRIDFORMAT_BEGIN
 90
        0
 91
        1
 62
     0
 92
       -2
340
0
 93
        0
 40
0.045
309
GRIDFORMAT_END
309
TABLEFORMAT_END
  1
CELLSTYLE_BEGIN
 90
        2
 91
        1
300
_HEADER
309
CELLSTYLE_END
300
CELLSTYLE
  1
TABLEFORMAT_BEGIN
 90
        5
170
     1
 91
        0
 92
        0
 62
   257
 93
        1
300
CONTENTFORMAT
  1
CONTENTFORMAT_BEGIN
 90
        0
 91
        0
 92
        4
 93
        0
300

 40
0.0
140
1.0
 94
        2
 62
     0
340
11
144
4.5
309
CONTENTFORMAT_END
171
     1
301
MARGIN
  1
CELLMARGIN_BEGIN
 40
1.5
 40
1.5
 40
1.5
 40
1.5
 40
0.18
 40
0.18
309
CELLMARGIN_END
 94
        6
 95
        1
302
GRIDFORMAT
  1
GRIDFORMAT_BEGIN
 90
        0
 91
        1
 62
     0
 92
       -2
340
0
 93
        0
 40
0.045
309
GRIDFORMAT_END
 95
        2
302
GRIDFORMAT
  1
GRIDFORMAT_BEGIN
 90
        0
 91
        1
 62
     0
 92
       -2
340
0
 93
        0
 40
0.045
309
GRIDFORMAT_END
 95
        4
302
GRIDFORMAT
  1
GRIDFORMAT_BEGIN
 90
        0
 91
        1
 62
     0
 92
       -2
340
0
 93
        0
 40
0.045
309
GRIDFORMAT_END
 95
        8
302
GRIDFORMAT
  1
GRIDFORMAT_BEGIN
 90
        0
 91
        1
 62
     0
 92
       -2
340
0
 93
        0
 40
0.045
309
GRIDFORMAT_END
 95
       16
302
GRIDFORMAT
  1
GRIDFORMAT_BEGIN
 90
        0
 91
        1
 62
     0
 92
       -2
340
0
 93
        0
 40
0.045
309
GRIDFORMAT_END
 95
       32
302
GRIDFORMAT
  1
GRIDFORMAT_BEGIN
 90
        0
 91
        1
 62
     0
 92
       -2
340
0
 93
        0
 40
0.045
309
GRIDFORMAT_END
309
TABLEFORMAT_END
  1
CELLSTYLE_BEGIN
 90
        3
 91
        2
300
_DATA
309
CELLSTYLE_END
  0
XRECORD
  5
1823C
102
{ACAD_REACTORS
330
18230
102
}
330
18230
100
AcDbXrecord
280
     1
102
ACAD_ROUNDTRIP_PRE2007_TABLESTYLE
 90
        4
 91
        0
  1

 92
        4
 93
        0
  2

 94
        4
 95
        0
  3

  0
XRECORD
  5
1824B
102
{ACAD_REACTORS
330
1824A
102
}
330
1824A
100
AcDbXrecord
280
     1
102
RTVSPropertyOp0
 70
     1
102
RTVSPropertyOp1
 70
     1
102
RTVSPropertyOp2
 70
     1
102
RTVSPropertyOp3
 70
     1
102
RTVSPropertyOp4
 70
     1
102
RTVSPropertyOp5
 70
     1
102
RTVSPropertyOp6
 70
     1
102
RTVSPropertyOp7
 70
     1
102
RTVSPropertyOp8
 70
     1
102
RTVSPropertyOp9
 70
     1
102
RTVSPropertyOp10
 70
     1
102
RTVSPropertyOp11
 70
     1
102
RTVSPropertyOp12
 70
     1
102
RTVSPropertyOp13
 70
     1
102
RTVSPropertyOp14
 70
     1
102
RTVSPropertyOp15
 70
     1
102
RTVSPropertyOp16
 70
     1
102
RTVSPropertyOp17
 70
     1
102
RTVSPropertyOp18
 70
     1
102
RTVSPropertyOp19
 70
     1
102
RTVSPropertyOp20
 70
     1
102
RTVSPropertyOp21
 70
     1
102
RTVSPropertyOp22
 70
     1
102
RTVSPropertyOp23
 70
     1
102
RTVSPropertyOp24
 70
     1
102
RTVSPropertyOp25
 70
     1
102
RTVSPropertyOp26
 70
     1
102
RTVSPropertyOp27
 70
     1
  0
XRECORD
  5
1824F
102
{ACAD_REACTORS
330
1824E
102
}
330
1824E
100
AcDbXrecord
280
     1
102
RTVSPropertyOp0
 70
     1
102
RTVSPropertyOp1
 70
     1
102
RTVSPropertyOp2
 70
     1
102
RTVSPropertyOp3
 70
     1
102
RTVSPropertyOp4
 70
     1
102
RTVSPropertyOp5
 70
     1
102
RTVSPropertyOp6
 70
     1
102
RTVSPropertyOp7
 70
     1
102
RTVSPropertyOp8
 70
     1
102
RTVSPropertyOp9
 70
     1
102
RTVSPropertyOp10
 70
     1
102
RTVSPropertyOp11
 70
     1
102
RTVSPropertyOp12
 70
     1
102
RTVSPropertyOp13
 70
     1
102
RTVSPropertyOp14
 70
     1
102
RTVSPropertyOp15
 70
     1
102
RTVSPropertyOp16
 70
     1
102
RTVSPropertyOp17
 70
     1
102
RTVSPropertyOp18
 70
     1
102
RTVSPropertyOp19
 70
     1
102
RTVSPropertyOp20
 70
     1
102
RTVSPropertyOp21
 70
     1
102
RTVSPropertyOp22
 70
     1
102
RTVSPropertyOp23
 70
     1
102
RTVSPropertyOp24
 70
     1
102
RTVSPropertyOp25
 70
     1
102
RTVSPropertyOp26
 70
     1
102
RTVSPropertyOp27
 70
     1
  0
XRECORD
  5
1824D
102
{ACAD_REACTORS
330
1824C
102
}
330
1824C
100
AcDbXrecord
280
     1
102
RTVSPropertyOp0
 70
     1
102
RTVSPropertyOp1
 70
     1
102
RTVSPropertyOp2
 70
     1
102
RTVSPropertyOp3
 70
     1
102
RTVSPropertyOp4
 70
     1
102
RTVSPropertyOp5
 70
     1
102
RTVSPropertyOp6
 70
     1
102
RTVSPropertyOp7
 70
     1
102
RTVSPropertyOp8
 70
     1
102
RTVSPropertyOp9
 70
     1
102
RTVSPropertyOp10
 70
     1
102
RTVSPropertyOp11
 70
     1
102
RTVSPropertyOp12
 70
     1
102
RTVSPropertyOp13
 70
     1
102
RTVSPropertyOp14
 70
     1
102
RTVSPropertyOp15
 70
     1
102
RTVSPropertyOp16
 70
     1
102
RTVSPropertyOp17
 70
     1
102
RTVSPropertyOp18
 70
     1
102
RTVSPropertyOp19
 70
     1
102
RTVSPropertyOp20
 70
     1
102
RTVSPropertyOp21
 70
     1
102
RTVSPropertyOp22
 70
     1
102
RTVSPropertyOp23
 70
     1
102
RTVSPropertyOp24
 70
     1
102
RTVSPropertyOp25
 70
     1
102
RTVSPropertyOp26
 70
     1
102
RTVSPropertyOp27
 70
     1
  0
XRECORD
  5
18249
102
{ACAD_REACTORS
330
18248
102
}
330
18248
100
AcDbXrecord
280
     1
102
RTVSPropertyOp0
 70
     1
102
RTVSPropertyOp1
 70
     1
102
RTVSPropertyOp2
 70
     1
102
RTVSPropertyOp3
 70
     1
102
RTVSPropertyOp4
 70
     1
102
RTVSPropertyOp5
 70
     1
102
RTVSPropertyOp6
 70
     1
102
RTVSPropertyOp7
 70
     1
102
RTVSPropertyOp8
 70
     1
102
RTVSPropertyOp9
 70
     1
102
RTVSPropertyOp10
 70
     1
102
RTVSPropertyOp11
 70
     1
102
RTVSPropertyOp12
 70
     1
102
RTVSPropertyOp13
 70
     1
102
RTVSPropertyOp14
 70
     1
102
RTVSPropertyOp15
 70
     1
102
RTVSPropertyOp16
 70
     1
102
RTVSPropertyOp17
 70
     1
102
RTVSPropertyOp18
 70
     1
102
RTVSPropertyOp19
 70
     1
102
RTVSPropertyOp20
 70
     1
102
RTVSPropertyOp21
 70
     1
102
RTVSPropertyOp22
 70
     1
102
RTVSPropertyOp23
 70
     1
102
RTVSPropertyOp24
 70
     1
102
RTVSPropertyOp25
 70
     1
102
RTVSPropertyOp26
 70
     1
102
RTVSPropertyOp27
 70
     1
  0
XRECORD
  5
18257
102
{ACAD_REACTORS
330
18256
102
}
330
18256
100
AcDbXrecord
280
     1
102
RTVSPropertyOp0
 70
     1
102
RTVSPropertyOp1
 70
     1
102
RTVSPropertyOp2
 70
     1
102
RTVSPropertyOp3
 70
     1
102
RTVSPropertyOp4
 70
     1
102
RTVSPropertyOp5
 70
     1
102
RTVSPropertyOp6
 70
     1
102
RTVSPropertyOp7
 70
     1
102
RTVSPropertyOp8
 70
     1
102
RTVSPropertyOp9
 70
     1
102
RTVSPropertyOp10
 70
     1
102
RTVSPropertyOp11
 70
     1
102
RTVSPropertyOp12
 70
     1
102
RTVSPropertyOp13
 70
     1
102
RTVSPropertyOp14
 70
     1
102
RTVSPropertyOp15
 70
     1
102
RTVSPropertyOp16
 70
     1
102
RTVSPropertyOp17
 70
     1
102
RTVSPropertyOp18
 70
     1
102
RTVSPropertyOp19
 70
     1
102
RTVSPropertyOp20
 70
     1
102
RTVSPropertyOp21
 70
     1
102
RTVSPropertyOp22
 70
     1
102
RTVSPropertyOp23
 70
     1
102
RTVSPropertyOp24
 70
     1
102
RTVSPropertyOp25
 70
     1
102
RTVSPropertyOp26
 70
     1
102
RTVSPropertyOp27
 70
     1
  0
XRECORD
  5
1825F
102
{ACAD_REACTORS
330
1825E
102
}
330
1825E
100
AcDbXrecord
280
     1
102
RTVSPropertyOp0
 70
     1
102
RTVSPropertyOp1
 70
     1
102
RTVSPropertyOp2
 70
     1
102
RTVSPropertyOp3
 70
     1
102
RTVSPropertyOp4
 70
     1
102
RTVSPropertyOp5
 70
     1
102
RTVSPropertyOp6
 70
     1
102
RTVSPropertyOp7
 70
     1
102
RTVSPropertyOp8
 70
     1
102
RTVSPropertyOp9
 70
     1
102
RTVSPropertyOp10
 70
     1
102
RTVSPropertyOp11
 70
     1
102
RTVSPropertyOp12
 70
     1
102
RTVSPropertyOp13
 70
     1
102
RTVSPropertyOp14
 70
     1
102
RTVSPropertyOp15
 70
     1
102
RTVSPropertyOp16
 70
     1
102
RTVSPropertyOp17
 70
     1
102
RTVSPropertyOp18
 70
     1
102
RTVSPropertyOp19
 70
     1
102
RTVSPropertyOp20
 70
     1
102
RTVSPropertyOp21
 70
     1
102
RTVSPropertyOp22
 70
     1
102
RTVSPropertyOp23
 70
     1
102
RTVSPropertyOp24
 70
     1
102
RTVSPropertyOp25
 70
     1
102
RTVSPropertyOp26
 70
     1
102
RTVSPropertyOp27
 70
     1
  0
XRECORD
  5
18251
102
{ACAD_REACTORS
330
18250
102
}
330
18250
100
AcDbXrecord
280
     1
102
RTVSPropertyOp0
 70
     1
102
RTVSPropertyOp1
 70
     1
102
RTVSPropertyOp2
 70
     1
102
RTVSPropertyOp3
 70
     1
102
RTVSPropertyOp4
 70
     1
102
RTVSPropertyOp5
 70
     1
102
RTVSPropertyOp6
 70
     1
102
RTVSPropertyOp7
 70
     1
102
RTVSPropertyOp8
 70
     1
102
RTVSPropertyOp9
 70
     1
102
RTVSPropertyOp10
 70
     1
102
RTVSPropertyOp11
 70
     1
102
RTVSPropertyOp12
 70
     1
102
RTVSPropertyOp13
 70
     1
102
RTVSPropertyOp14
 70
     1
102
RTVSPropertyOp15
 70
     1
102
RTVSPropertyOp16
 70
     1
102
RTVSPropertyOp17
 70
     1
102
RTVSPropertyOp18
 70
     1
102
RTVSPropertyOp19
 70
     1
102
RTVSPropertyOp20
 70
     1
102
RTVSPropertyOp21
 70
     1
102
RTVSPropertyOp22
 70
     1
102
RTVSPropertyOp23
 70
     1
102
RTVSPropertyOp24
 70
     1
102
RTVSPropertyOp25
 70
     1
102
RTVSPropertyOp26
 70
     1
102
RTVSPropertyOp27
 70
     1
  0
XRECORD
  5
18255
102
{ACAD_REACTORS
330
18254
102
}
330
18254
100
AcDbXrecord
280
     1
102
RTVSPropertyOp0
 70
     1
102
RTVSPropertyOp1
 70
     1
102
RTVSPropertyOp2
 70
     1
102
RTVSPropertyOp3
 70
     1
102
RTVSPropertyOp4
 70
     1
102
RTVSPropertyOp5
 70
     1
102
RTVSPropertyOp6
 70
     1
102
RTVSPropertyOp7
 70
     1
102
RTVSPropertyOp8
 70
     1
102
RTVSPropertyOp9
 70
     1
102
RTVSPropertyOp10
 70
     1
102
RTVSPropertyOp11
 70
     1
102
RTVSPropertyOp12
 70
     1
102
RTVSPropertyOp13
 70
     1
102
RTVSPropertyOp14
 70
     1
102
RTVSPropertyOp15
 70
     1
102
RTVSPropertyOp16
 70
     1
102
RTVSPropertyOp17
 70
     1
102
RTVSPropertyOp18
 70
     1
102
RTVSPropertyOp19
 70
     1
102
RTVSPropertyOp20
 70
     1
102
RTVSPropertyOp21
 70
     1
102
RTVSPropertyOp22
 70
     1
102
RTVSPropertyOp23
 70
     1
102
RTVSPropertyOp24
 70
     1
102
RTVSPropertyOp25
 70
     1
102
RTVSPropertyOp26
 70
     1
102
RTVSPropertyOp27
 70
     1
  0
XRECORD
  5
18265
102
{ACAD_REACTORS
330
18264
102
}
330
18264
100
AcDbXrecord
280
     1
102
RTVSPropertyOp0
 70
     0
102
RTVSPropertyOp1
 70
     0
102
RTVSPropertyOp2
 70
     0
102
RTVSPropertyOp3
 70
     0
102
RTVSPropertyOp4
 70
     0
102
RTVSPropertyOp5
 70
     0
102
RTVSPropertyOp6
 70
     0
102
RTVSPropertyOp7
 70
     0
102
RTVSPropertyOp8
 70
     0
102
RTVSPropertyOp9
 70
     0
102
RTVSPropertyOp10
 70
     0
102
RTVSPropertyOp11
 70
     0
102
RTVSPropertyOp12
 70
     0
102
RTVSPropertyOp13
 70
     0
102
RTVSPropertyOp14
 70
     2
102
RTVSPropertyOp15
 70
     0
102
RTVSPropertyOp16
 70
     0
102
RTVSPropertyOp17
 70
     0
102
RTVSPropertyOp18
 70
     0
102
RTVSPropertyOp19
 70
     0
102
RTVSPropertyOp20
 70
     0
102
RTVSPropertyOp21
 70
     0
102
RTVSPropertyOp22
 70
     0
102
RTVSPropertyOp23
 70
     0
102
RTVSPropertyOp24
 70
     0
102
RTVSPropertyOp25
 70
     0
102
RTVSPropertyOp26
 70
     0
102
RTVSPropertyOp27
 70
     0
  0
XRECORD
  5
1825D
102
{ACAD_REACTORS
330
1825C
102
}
330
1825C
100
AcDbXrecord
280
     1
102
RTVSPropertyOp0
 70
     1
102
RTVSPropertyOp1
 70
     1
102
RTVSPropertyOp2
 70
     1
102
RTVSPropertyOp3
 70
     1
102
RTVSPropertyOp4
 70
     1
102
RTVSPropertyOp5
 70
     1
102
RTVSPropertyOp6
 70
     1
102
RTVSPropertyOp7
 70
     1
102
RTVSPropertyOp8
 70
     1
102
RTVSPropertyOp9
 70
     1
102
RTVSPropertyOp10
 70
     1
102
RTVSPropertyOp11
 70
     1
102
RTVSPropertyOp12
 70
     1
102
RTVSPropertyOp13
 70
     1
102
RTVSPropertyOp14
 70
     1
102
RTVSPropertyOp15
 70
     1
102
RTVSPropertyOp16
 70
     1
102
RTVSPropertyOp17
 70
     1
102
RTVSPropertyOp18
 70
     1
102
RTVSPropertyOp19
 70
     1
102
RTVSPropertyOp20
 70
     1
102
RTVSPropertyOp21
 70
     1
102
RTVSPropertyOp22
 70
     1
102
RTVSPropertyOp23
 70
     1
102
RTVSPropertyOp24
 70
     1
102
RTVSPropertyOp25
 70
     1
102
RTVSPropertyOp26
 70
     1
102
RTVSPropertyOp27
 70
     1
  0
XRECORD
  5
18241
102
{ACAD_REACTORS
330
18240
102
}
330
18240
100
AcDbXrecord
280
     1
102
RTVSPropertyOp0
 70
     1
102
RTVSPropertyOp1
 70
     1
102
RTVSPropertyOp2
 70
     1
102
RTVSPropertyOp3
 70
     1
102
RTVSPropertyOp4
 70
     1
102
RTVSPropertyOp5
 70
     1
102
RTVSPropertyOp6
 70
     1
102
RTVSPropertyOp7
 70
     1
102
RTVSPropertyOp8
 70
     1
102
RTVSPropertyOp9
 70
     1
102
RTVSPropertyOp10
 70
     1
102
RTVSPropertyOp11
 70
     1
102
RTVSPropertyOp12
 70
     1
102
RTVSPropertyOp13
 70
     1
102
RTVSPropertyOp14
 70
     1
102
RTVSPropertyOp15
 70
     1
102
RTVSPropertyOp16
 70
     1
102
RTVSPropertyOp17
 70
     1
102
RTVSPropertyOp18
 70
     1
102
RTVSPropertyOp19
 70
     1
102
RTVSPropertyOp20
 70
     1
102
RTVSPropertyOp21
 70
     1
102
RTVSPropertyOp22
 70
     1
102
RTVSPropertyOp23
 70
     1
102
RTVSPropertyOp24
 70
     1
102
RTVSPropertyOp25
 70
     1
102
RTVSPropertyOp26
 70
     1
102
RTVSPropertyOp27
 70
     1
  0
XRECORD
  5
18243
102
{ACAD_REACTORS
330
18242
102
}
330
18242
100
AcDbXrecord
280
     1
102
RTVSPropertyOp0
 70
     1
102
RTVSPropertyOp1
 70
     1
102
RTVSPropertyOp2
 70
     1
102
RTVSPropertyOp3
 70
     1
102
RTVSPropertyOp4
 70
     1
102
RTVSPropertyOp5
 70
     1
102
RTVSPropertyOp6
 70
     1
102
RTVSPropertyOp7
 70
     1
102
RTVSPropertyOp8
 70
     1
102
RTVSPropertyOp9
 70
     1
102
RTVSPropertyOp10
 70
     1
102
RTVSPropertyOp11
 70
     1
102
RTVSPropertyOp12
 70
     1
102
RTVSPropertyOp13
 70
     1
102
RTVSPropertyOp14
 70
     1
102
RTVSPropertyOp15
 70
     1
102
RTVSPropertyOp16
 70
     1
102
RTVSPropertyOp17
 70
     1
102
RTVSPropertyOp18
 70
     1
102
RTVSPropertyOp19
 70
     1
102
RTVSPropertyOp20
 70
     1
102
RTVSPropertyOp21
 70
     1
102
RTVSPropertyOp22
 70
     1
102
RTVSPropertyOp23
 70
     1
102
RTVSPropertyOp24
 70
     1
102
RTVSPropertyOp25
 70
     1
102
RTVSPropertyOp26
 70
     1
102
RTVSPropertyOp27
 70
     1
  0
XRECORD
  5
18245
102
{ACAD_REACTORS
330
18244
102
}
330
18244
100
AcDbXrecord
280
     1
102
RTVSPropertyOp0
 70
     1
102
RTVSPropertyOp1
 70
     1
102
RTVSPropertyOp2
 70
     1
102
RTVSPropertyOp3
 70
     1
102
RTVSPropertyOp4
 70
     1
102
RTVSPropertyOp5
 70
     1
102
RTVSPropertyOp6
 70
     1
102
RTVSPropertyOp7
 70
     1
102
RTVSPropertyOp8
 70
     1
102
RTVSPropertyOp9
 70
     1
102
RTVSPropertyOp10
 70
     1
102
RTVSPropertyOp11
 70
     1
102
RTVSPropertyOp12
 70
     1
102
RTVSPropertyOp13
 70
     1
102
RTVSPropertyOp14
 70
     1
102
RTVSPropertyOp15
 70
     1
102
RTVSPropertyOp16
 70
     1
102
RTVSPropertyOp17
 70
     1
102
RTVSPropertyOp18
 70
     1
102
RTVSPropertyOp19
 70
     1
102
RTVSPropertyOp20
 70
     1
102
RTVSPropertyOp21
 70
     1
102
RTVSPropertyOp22
 70
     1
102
RTVSPropertyOp23
 70
     1
102
RTVSPropertyOp24
 70
     1
102
RTVSPropertyOp25
 70
     1
102
RTVSPropertyOp26
 70
     1
102
RTVSPropertyOp27
 70
     1
  0
XRECORD
  5
18247
102
{ACAD_REACTORS
330
18246
102
}
330
18246
100
AcDbXrecord
280
     1
102
RTVSPropertyOp0
 70
     1
102
RTVSPropertyOp1
 70
     1
102
RTVSPropertyOp2
 70
     1
102
RTVSPropertyOp3
 70
     1
102
RTVSPropertyOp4
 70
     1
102
RTVSPropertyOp5
 70
     1
102
RTVSPropertyOp6
 70
     1
102
RTVSPropertyOp7
 70
     1
102
RTVSPropertyOp8
 70
     1
102
RTVSPropertyOp9
 70
     1
102
RTVSPropertyOp10
 70
     1
102
RTVSPropertyOp11
 70
     1
102
RTVSPropertyOp12
 70
     1
102
RTVSPropertyOp13
 70
     1
102
RTVSPropertyOp14
 70
     1
102
RTVSPropertyOp15
 70
     1
102
RTVSPropertyOp16
 70
     1
102
RTVSPropertyOp17
 70
     1
102
RTVSPropertyOp18
 70
     1
102
RTVSPropertyOp19
 70
     1
102
RTVSPropertyOp20
 70
     1
102
RTVSPropertyOp21
 70
     1
102
RTVSPropertyOp22
 70
     1
102
RTVSPropertyOp23
 70
     1
102
RTVSPropertyOp24
 70
     1
102
RTVSPropertyOp25
 70
     1
102
RTVSPropertyOp26
 70
     1
102
RTVSPropertyOp27
 70
     1
  0
XRECORD
  5
18261
102
{ACAD_REACTORS
330
18260
102
}
330
18260
100
AcDbXrecord
280
     1
102
RTVSPropertyOp0
 70
     0
102
RTVSPropertyOp1
 70
     0
102
RTVSPropertyOp2
 70
     0
102
RTVSPropertyOp3
 70
     0
102
RTVSPropertyOp4
 70
     0
102
RTVSPropertyOp5
 70
     0
102
RTVSPropertyOp6
 70
     0
102
RTVSPropertyOp7
 70
     0
102
RTVSPropertyOp8
 70
     0
102
RTVSPropertyOp9
 70
     0
102
RTVSPropertyOp10
 70
     0
102
RTVSPropertyOp11
 70
     0
102
RTVSPropertyOp12
 70
     0
102
RTVSPropertyOp13
 70
     0
102
RTVSPropertyOp14
 70
     2
102
RTVSPropertyOp15
 70
     0
102
RTVSPropertyOp16
 70
     0
102
RTVSPropertyOp17
 70
     0
102
RTVSPropertyOp18
 70
     0
102
RTVSPropertyOp19
 70
     0
102
RTVSPropertyOp20
 70
     0
102
RTVSPropertyOp21
 70
     0
102
RTVSPropertyOp22
 70
     0
102
RTVSPropertyOp23
 70
     0
102
RTVSPropertyOp24
 70
     0
102
RTVSPropertyOp25
 70
     0
102
RTVSPropertyOp26
 70
     0
102
RTVSPropertyOp27
 70
     0
  0
XRECORD
  5
1825B
102
{ACAD_REACTORS
330
1825A
102
}
330
1825A
100
AcDbXrecord
280
     1
102
RTVSPropertyOp0
 70
     1
102
RTVSPropertyOp1
 70
     1
102
RTVSPropertyOp2
 70
     1
102
RTVSPropertyOp3
 70
     1
102
RTVSPropertyOp4
 70
     1
102
RTVSPropertyOp5
 70
     1
102
RTVSPropertyOp6
 70
     1
102
RTVSPropertyOp7
 70
     1
102
RTVSPropertyOp8
 70
     1
102
RTVSPropertyOp9
 70
     1
102
RTVSPropertyOp10
 70
     1
102
RTVSPropertyOp11
 70
     1
102
RTVSPropertyOp12
 70
     1
102
RTVSPropertyOp13
 70
     1
102
RTVSPropertyOp14
 70
     1
102
RTVSPropertyOp15
 70
     1
102
RTVSPropertyOp16
 70
     1
102
RTVSPropertyOp17
 70
     1
102
RTVSPropertyOp18
 70
     1
102
RTVSPropertyOp19
 70
     1
102
RTVSPropertyOp20
 70
     1
102
RTVSPropertyOp21
 70
     1
102
RTVSPropertyOp22
 70
     1
102
RTVSPropertyOp23
 70
     1
102
RTVSPropertyOp24
 70
     1
102
RTVSPropertyOp25
 70
     1
102
RTVSPropertyOp26
 70
     1
102
RTVSPropertyOp27
 70
     1
  0
XRECORD
  5
18263
102
{ACAD_REACTORS
330
18262
102
}
330
18262
100
AcDbXrecord
280
     1
102
RTVSPropertyOp0
 70
     0
102
RTVSPropertyOp1
 70
     0
102
RTVSPropertyOp2
 70
     0
102
RTVSPropertyOp3
 70
     0
102
RTVSPropertyOp4
 70
     0
102
RTVSPropertyOp5
 70
     0
102
RTVSPropertyOp6
 70
     0
102
RTVSPropertyOp7
 70
     0
102
RTVSPropertyOp8
 70
     0
102
RTVSPropertyOp9
 70
     0
102
RTVSPropertyOp10
 70
     0
102
RTVSPropertyOp11
 70
     0
102
RTVSPropertyOp12
 70
     0
102
RTVSPropertyOp13
 70
     0
102
RTVSPropertyOp14
 70
     2
102
RTVSPropertyOp15
 70
     0
102
RTVSPropertyOp16
 70
     0
102
RTVSPropertyOp17
 70
     0
102
RTVSPropertyOp18
 70
     0
102
RTVSPropertyOp19
 70
     0
102
RTVSPropertyOp20
 70
     0
102
RTVSPropertyOp21
 70
     0
102
RTVSPropertyOp22
 70
     0
102
RTVSPropertyOp23
 70
     0
102
RTVSPropertyOp24
 70
     0
102
RTVSPropertyOp25
 70
     0
102
RTVSPropertyOp26
 70
     0
102
RTVSPropertyOp27
 70
     0
  0
XRECORD
  5
18253
102
{ACAD_REACTORS
330
18252
102
}
330
18252
100
AcDbXrecord
280
     1
102
RTVSPropertyOp0
 70
     1
102
RTVSPropertyOp1
 70
     1
102
RTVSPropertyOp2
 70
     1
102
RTVSPropertyOp3
 70
     1
102
RTVSPropertyOp4
 70
     1
102
RTVSPropertyOp5
 70
     1
102
RTVSPropertyOp6
 70
     1
102
RTVSPropertyOp7
 70
     1
102
RTVSPropertyOp8
 70
     1
102
RTVSPropertyOp9
 70
     1
102
RTVSPropertyOp10
 70
     1
102
RTVSPropertyOp11
 70
     1
102
RTVSPropertyOp12
 70
     1
102
RTVSPropertyOp13
 70
     1
102
RTVSPropertyOp14
 70
     1
102
RTVSPropertyOp15
 70
     1
102
RTVSPropertyOp16
 70
     1
102
RTVSPropertyOp17
 70
     1
102
RTVSPropertyOp18
 70
     1
102
RTVSPropertyOp19
 70
     1
102
RTVSPropertyOp20
 70
     1
102
RTVSPropertyOp21
 70
     1
102
RTVSPropertyOp22
 70
     1
102
RTVSPropertyOp23
 70
     1
102
RTVSPropertyOp24
 70
     1
102
RTVSPropertyOp25
 70
     1
102
RTVSPropertyOp26
 70
     1
102
RTVSPropertyOp27
 70
     1
  0
XRECORD
  5
18259
102
{ACAD_REACTORS
330
18258
102
}
330
18258
100
AcDbXrecord
280
     1
102
RTVSPropertyOp0
 70
     1
102
RTVSPropertyOp1
 70
     1
102
RTVSPropertyOp2
 70
     1
102
RTVSPropertyOp3
 70
     1
102
RTVSPropertyOp4
 70
     1
102
RTVSPropertyOp5
 70
     1
102
RTVSPropertyOp6
 70
     1
102
RTVSPropertyOp7
 70
     1
102
RTVSPropertyOp8
 70
     1
102
RTVSPropertyOp9
 70
     1
102
RTVSPropertyOp10
 70
     1
102
RTVSPropertyOp11
 70
     1
102
RTVSPropertyOp12
 70
     1
102
RTVSPropertyOp13
 70
     1
102
RTVSPropertyOp14
 70
     1
102
RTVSPropertyOp15
 70
     1
102
RTVSPropertyOp16
 70
     1
102
RTVSPropertyOp17
 70
     1
102
RTVSPropertyOp18
 70
     1
102
RTVSPropertyOp19
 70
     1
102
RTVSPropertyOp20
 70
     1
102
RTVSPropertyOp21
 70
     1
102
RTVSPropertyOp22
 70
     1
102
RTVSPropertyOp23
 70
     1
102
RTVSPropertyOp24
 70
     1
102
RTVSPropertyOp25
 70
     1
102
RTVSPropertyOp26
 70
     1
102
RTVSPropertyOp27
 70
     1
  0
ENDSEC
  0
EOF
