  0
SECTION
  2
HEADER
  9
$ACADVER
  1
AC1015
  9
$ACADMAINTVER
 70
    20
  9
$DWGCODEPAGE
  3
ANSI_1252
  9
$INSBASE
 10
0.0
 20
0.0
 30
0.0
  9
$EXTMIN
 10
18246.43008973132
 20
-1501.130874017164
 30
0.0
  9
$EXTMAX
 10
19232.82735173986
 20
-415.6572708436213
 30
0.0
  9
$LIMMIN
 10
0.0
 20
0.0
  9
$LIMMAX
 10
420.0
 20
297.0
  9
$ORTHOMODE
 70
     0
  9
$REGENMODE
 70
     1
  9
$FILLMODE
 70
     1
  9
$QTEXTMODE
 70
     0
  9
$MIRRTEXT
 70
     1
  9
$LTSCALE
 40
8.0
  9
$ATTMODE
 70
     1
  9
$TEXTSIZE
 40
2.5
  9
$TRACEWID
 40
1.0
  9
$TEXTSTYLE
  7
STANDARD
  9
$CLAYER
  8
0
  9
$CELTYPE
  6
ByLayer
  9
$CECOLOR
 62
   256
  9
$CELTSCALE
 40
1.0
  9
$DISPSILH
 70
     0
  9
$DIMSCALE
 40
1.0
  9
$DIMASZ
 40
65.0
  9
$DIMEXO
 40
1.0
  9
$DIMDLI
 40
10.0
  9
$DIMRND
 40
0.0
  9
$DIMDLE
 40
0.0
  9
$DIMEXE
 40
25.0
  9
$DIMTP
 40
0.1
  9
$DIMTM
 40
0.1
  9
$DIMTXT
 40
50.0
  9
$DIMCEN
 40
0.0
  9
$DIMTSZ
 40
0.0
  9
$DIMTOL
 70
     0
  9
$DIMLIM
 70
     0
  9
$DIMTIH
 70
     0
  9
$DIMTOH
 70
     0
  9
$DIMSE1
 70
     0
  9
$DIMSE2
 70
     0
  9
$DIMTAD
 70
     1
  9
$DIMZIN
 70
     8
  9
$DIMBLK
  1

  9
$DIMASO
 70
     1
  9
$DIMSHO
 70
     1
  9
$DIMPOST
  1

  9
$DIMAPOST
  1
"
  9
$DIMALT
 70
     0
  9
$DIMALTD
 70
     2
  9
$DIMALTF
 40
0.0393701
  9
$DIMLFAC
 40
1.0
  9
$DIMTOFL
 70
     1
  9
$DIMTVP
 40
0.0
  9
$DIMTIX
 70
     0
  9
$DIMSOXD
 70
     0
  9
$DIMSAH
 70
     0
  9
$DIMBLK1
  1

  9
$DIMBLK2
  1

  9
$DIMSTYLE
  2
AM_DIN
  9
$DIMCLRD
 70
   256
  9
$DIMCLRE
 70
   256
  9
$DIMCLRT
 70
     2
  9
$DIMTFAC
 40
0.71
  9
$DIMGAP
 40
15.0
  9
$DIMJUST
 70
     0
  9
$DIMSD1
 70
     0
  9
$DIMSD2
 70
     0
  9
$DIMTOLJ
 70
     0
  9
$DIMTZIN
 70
     8
  9
$DIMALTZ
 70
     0
  9
$DIMALTTZ
 70
     0
  9
$DIMUPT
 70
     0
  9
$DIMDEC
 70
     0
  9
$DIMTDEC
 70
     0
  9
$DIMALTU
 70
     2
  9
$DIMALTTD
 70
     2
  9
$DIMTXSTY
  7
STANDARD
  9
$DIMAUNIT
 70
     0
  9
$DIMADEC
 70
     0
  9
$DIMALTRND
 40
0.0
  9
$DIMAZIN
 70
     2
  9
$DIMDSEP
 70
    46
  9
$DIMATFIT
 70
     3
  9
$DIMFRAC
 70
     0
  9
$DIMLDRBLK
  1

  9
$DIMLUNIT
 70
     2
  9
$DIMLWD
 70
    -1
  9
$DIMLWE
 70
    -1
  9
$DIMTMOVE
 70
     0
  9
$LUNITS
 70
     2
  9
$LUPREC
 70
     2
  9
$SKETCHINC
 40
1.0
  9
$FILLETRAD
 40
2.5
  9
$AUNITS
 70
     0
  9
$AUPREC
 70
     0
  9
$MENU
  1
.
  9
$ELEVATION
 40
0.0
  9
$PELEVATION
 40
0.0
  9
$THICKNESS
 40
0.0
  9
$LIMCHECK
 70
     0
  9
$CHAMFERA
 40
2.5
  9
$CHAMFERB
 40
2.5
  9
$CHAMFERC
 40
20.0
  9
$CHAMFERD
 40
0.0
  9
$SKPOLY
 70
     0
  9
$TDCREATE
 40
2454167.418644826
  9
$TDUCREATE
 40
2454167.335311493
  9
$TDUPDATE
 40
2454666.431998878
  9
$TDUUPDATE
 40
2454666.348665544
  9
$TDINDWG
 40
0.8083211111
  9
$TDUSRTIMER
 40
0.8081613194
  9
$USRTIMER
 70
     1
  9
$ANGBASE
 50
0.0
  9
$ANGDIR
 70
     0
  9
$PDMODE
 70
     0
  9
$PDSIZE
 40
0.0
  9
$PLINEWID
 40
0.0
  9
$SPLFRAME
 70
     0
  9
$SPLINETYPE
 70
     6
  9
$SPLINESEGS
 70
     8
  9
$HANDSEED
  5
1947B
  9
$SURFTAB1
 70
     6
  9
$SURFTAB2
 70
     6
  9
$SURFTYPE
 70
     6
  9
$SURFU
 70
     6
  9
$SURFV
 70
     6
  9
$UCSBASE
  2

  9
$UCSNAME
  2

  9
$UCSORG
 10
0.0
 20
0.0
 30
0.0
  9
$UCSXDIR
 10
1.0
 20
0.0
 30
0.0
  9
$UCSYDIR
 10
0.0
 20
1.0
 30
0.0
  9
$UCSORTHOREF
  2

  9
$UCSORTHOVIEW
 70
     0
  9
$UCSORGTOP
 10
0.0
 20
0.0
 30
0.0
  9
$UCSORGBOTTOM
 10
0.0
 20
0.0
 30
0.0
  9
$UCSORGLEFT
 10
0.0
 20
0.0
 30
0.0
  9
$UCSORGRIGHT
 10
0.0
 20
0.0
 30
0.0
  9
$UCSORGFRONT
 10
0.0
 20
0.0
 30
0.0
  9
$UCSORGBACK
 10
0.0
 20
0.0
 30
0.0
  9
$PUCSBASE
  2

  9
$PUCSNAME
  2

  9
$PUCSORG
 10
0.0
 20
0.0
 30
0.0
  9
$PUCSXDIR
 10
1.0
 20
0.0
 30
0.0
  9
$PUCSYDIR
 10
0.0
 20
1.0
 30
0.0
  9
$PUCSORTHOREF
  2

  9
$PUCSORTHOVIEW
 70
     0
  9
$PUCSORGTOP
 10
0.0
 20
0.0
 30
0.0
  9
$PUCSORGBOTTOM
 10
0.0
 20
0.0
 30
0.0
  9
$PUCSORGLEFT
 10
0.0
 20
0.0
 30
0.0
  9
$PUCSORGRIGHT
 10
0.0
 20
0.0
 30
0.0
  9
$PUCSORGFRONT
 10
0.0
 20
0.0
 30
0.0
  9
$PUCSORGBACK
 10
0.0
 20
0.0
 30
0.0
  9
$USERI1
 70
     0
  9
$USERI2
 70
     0
  9
$USERI3
 70
     0
  9
$USERI4
 70
     0
  9
$USERI5
 70
     0
  9
$USERR1
 40
0.0
  9
$USERR2
 40
0.0
  9
$USERR3
 40
0.0
  9
$USERR4
 40
0.0
  9
$USERR5
 40
0.0
  9
$WORLDVIEW
 70
     1
  9
$SHADEDGE
 70
     3
  9
$SHADEDIF
 70
    70
  9
$TILEMODE
 70
     1
  9
$MAXACTVP
 70
    64
  9
$PINSBASE
 10
0.0
 20
0.0
 30
0.0
  9
$PLIMCHECK
 70
     0
  9
$PEXTMIN
 10
1.000000000000000E+20
 20
1.000000000000000E+20
 30
1.000000000000000E+20
  9
$PEXTMAX
 10
-1.000000000000000E+20
 20
-1.000000000000000E+20
 30
-1.000000000000000E+20
  9
$PLIMMIN
 10
0.0
 20
0.0
  9
$PLIMMAX
 10
420.0
 20
297.0
  9
$UNITMODE
 70
     0
  9
$VISRETAIN
 70
     1
  9
$PLINEGEN
 70
     0
  9
$PSLTSCALE
 70
     1
  9
$TREEDEPTH
 70
  3020
  9
$CMLSTYLE
  2
Standard
  9
$CMLJUST
 70
     0
  9
$CMLSCALE
 40
20.0
  9
$PROXYGRAPHICS
 70
     1
  9
$MEASUREMENT
 70
     1
  9
$CELWEIGHT
370
    -1
  9
$ENDCAPS
280
     0
  9
$JOINSTYLE
280
     0
  9
$LWDISPLAY
290
     0
  9
$INSUNITS
 70
     4
  9
$HYPERLINKBASE
  1

  9
$STYLESHEET
  1
monochrome uw.ctb
  9
$XEDIT
290
     1
  9
$CEPSNTYPE
380
     0
  9
$PSTYLEMODE
290
     1
  9
$FINGERPRINTGUID
  2
{1344C3A2-CD10-4B1D-A761-DD320F23370E}
  9
$VERSIONGUID
  2
{53DC1FDA-7B4A-42D4-A108-9186D816C11E}
  9
$EXTNAMES
290
     1
  9
$PSVPSCALE
 40
0.0
  9
$OLESTARTUP
290
     0
  0
ENDSEC
  0
SECTION
  2
CLASSES
  0
CLASS
  1
ACDBDICTIONARYWDFLT
  2
AcDbDictionaryWithDefault
  3
ObjectDBX Classes
 90
        0
280
     0
281
     0
  0
CLASS
  1
ACDBPLACEHOLDER
  2
AcDbPlaceHolder
  3
ObjectDBX Classes
 90
        0
280
     0
281
     0
  0
CLASS
  1
LAYOUT
  2
AcDbLayout
  3
ObjectDBX Classes
 90
        0
280
     0
281
     0
  0
CLASS
  1
ACME_DOCUMENT
  2
AcMeDbDoc
  3
AcMeServices
 90
        0
280
     0
281
     0
  0
CLASS
  1
AMGSETTINGSOBJ
  2
AmgSettingsObj
  3
"AcadM|Product Description: AutoCAD Mechanical 2000|Company: Autodesk"
 90
        0
280
     0
281
     0
  0
CLASS
  1
ACMESCOPE
  2
AcMeScope
  3
AcMeServices
 90
        0
280
     0
281
     0
  0
CLASS
  1
ACMECOMMANDHISTORY
  2
AcMeCommandHistory
  3
AcMeServices
 90
        0
280
     0
281
     0
  0
CLASS
  1
ACIMSYSVARMAN
  2
AcImSysVarManager
  3
AcMeServices
 90
        0
280
     0
281
     0
  0
CLASS
  1
ACIMREALSYSVAR
  2
AcImRealSysVar
  3
AcMeServices
 90
        0
280
     0
281
     0
  0
CLASS
  1
ACIMINTSYSVAR
  2
AcImIntSysVar
  3
AcMeServices
 90
        0
280
     0
281
     0
  0
CLASS
  1
ACMEDRAWINGMAN
  2
AcMeDrawingMan
  3
AcMeServices
 90
        0
280
     0
281
     0
  0
CLASS
  1
ACMEVIEW
  2
AcMeView
  3
AcMeServices
 90
        0
280
     0
281
     0
  0
CLASS
  1
ACDBENTITYCACHE
  2
AcMeEntityCache
  3
AcMeServices
 90
        0
280
     0
281
     0
  0
CLASS
  1
GSMANAGER
  2
AcMeGSManager
  3
AcMeServices
 90
        0
280
     0
281
     0
  0
CLASS
  1
AMDTINTERNALREACTOR
  2
AmdtInternalReactor
  3
AcMeServices
 90
        0
280
     0
281
     0
  0
CLASS
  1
ACMESTATEMGR
  2
AcMeStateMgr
  3
AcMeServices
 90
        0
280
     0
281
     0
  0
CLASS
  1
ACGREFMASTER
  2
AcGrefMaster
  3
AcAttribServices
 90
        0
280
     0
281
     0
  0
CLASS
  1
ACME_DATABASE
  2
AcMeDbDatabase
  3
AcMeServices
 90
        0
280
     0
281
     0
  0
CLASS
  1
ACRFINSADJUSTERMGR
  2
AcRfInsAdjusterMgr
  3
AcMeServices
 90
        0
280
     0
281
     0
  0
CLASS
  1
ACGREFACADMASTER
  2
AcGrefacadMaster
  3
AcGrefServices
 90
        0
280
     0
281
     0
  0
CLASS
  1
AMIMASTER
  2
AmiMaster
  3
AmiServices
 90
        0
280
     0
281
     0
  0
CLASS
  1
ACMDATADICTIONARY
  2
AcmDataDictionary
  3
"AcmSymBB|Product Description: AutoCAD Mechanical 2004 DX|Company: Autodesk"
 90
        0
280
     0
281
     0
  0
CLASS
  1
ACMDATAENTRYBLOCK
  2
AcmDataEntryBlock
  3
"AcmSymBB|Product Description: AutoCAD Mechanical 2004 DX|Company: Autodesk"
 90
    32768
280
     0
281
     0
  0
CLASS
  1
ACIMSTRSYSVAR
  2
AcImStrSysVar
  3
AcMeServices
 90
        0
280
     0
281
     0
  0
CLASS
  1
ACMSTANDARDISO
  2
AcmStandardISO
  3
"Amdt_StdImp|Product Description: AutoCAD Mechanical 2004 DX|Company: Autodesk"
 90
        0
280
     0
281
     0
  0
CLASS
  1
AMGOBJPROPCFG
  2
AmgObjPropCfg
  3
"AmgLay|Product Description: AutoCAD Mechanical 2000|Company: Autodesk"
 90
        1
280
     0
281
     0
  0
CLASS
  1
AMDTEDGESTANDARDISO
  2
AmdtEdgeStdISO
  3
"Amdt_StdImp|Product Description: AutoCAD Mechanical 2004 DX|Company: Autodesk"
 90
        0
280
     0
281
     0
  0
CLASS
  1
ACMSURFSTANDARDISO
  2
AcmSurfTextStdISO
  3
"Amdt_StdImp|Product Description: AutoCAD Mechanical 2004 DX|Company: Autodesk"
 90
        0
280
     0
281
     0
  0
CLASS
  1
ACMFCFSTANDARDISO
  2
AcmFCFStdISO
  3
"Amdt_StdImp|Product Description: AutoCAD Mechanical 2004 DX|Company: Autodesk"
 90
        0
280
     0
281
     0
  0
CLASS
  1
ACMWELDSTANDARDISO
  2
AcmWeldingStdISO
  3
"Amdt_StdImp|Product Description: AutoCAD Mechanical 2004 DX|Company: Autodesk"
 90
        0
280
     0
281
     0
  0
CLASS
  1
ACMIDSTANDARDISO
  2
AcmIdStdISO
  3
"Amdt_StdImp|Product Description: AutoCAD Mechanical 2004 DX|Company: Autodesk"
 90
        0
280
     0
281
     0
  0
CLASS
  1
ACMDATUMSTANDARDISO
  2
AcmDatumStdISO
  3
"Amdt_StdImp|Product Description: AutoCAD Mechanical 2004 DX|Company: Autodesk"
 90
        0
280
     0
281
     0
  0
CLASS
  1
ACMBOMSTANDARDISO
  2
AcmBOMStdISO
  3
"Amdt_StdImp|Product Description: AutoCAD Mechanical 2004 DX|Company: Autodesk"
 90
        0
280
     0
281
     0
  0
CLASS
  1
ACMDETAILSTANDARDISO
  2
AmdtDetailSymStdISO
  3
"Amdt_StdImp|Product Description: AutoCAD Mechanical 2004 DX|Company: Autodesk"
 90
        0
280
     0
281
     0
  0
CLASS
  1
ACMSECTIONSTANDARDISO
  2
AmdtSectionSymStdISO
  3
"Amdt_StdImp|Product Description: AutoCAD Mechanical 2004 DX|Company: Autodesk"
 90
        0
280
     0
281
     0
  0
CLASS
  1
ACMCENTERLINESTANDARDISO
  2
AmdtCenterLineStdISO
  3
"Amdt_StdImp|Product Description: AutoCAD Mechanical 2004 DX|Company: Autodesk"
 90
        0
280
     0
281
     0
  0
CLASS
  1
ACMNOTESTANDARDISO
  2
AmdtNoteStdISO
  3
"Amdt_StdImp|Product Description: AutoCAD Mechanical 2004 DX|Company: Autodesk"
 90
        0
280
     0
281
     0
  0
CLASS
  1
ACAMGLAYSTD
  2
AcAmgLayStd
  3
"AcAmgLayStd|Product Description: AutoCAD Mechanical 2000|Company: Autodesk"
 90
        0
280
     0
281
     0
  0
CLASS
  1
ACAMGDIMSTD
  2
AcAmgDimStd
  3
"AcAmgDimStd|Product Description: AutoCAD Mechanical 2000|Company: Autodesk"
 90
        0
280
     0
281
     0
  0
CLASS
  1
ACAMGHOLECHARTSTDISO
  2
AcAmgHoleChartStdISO
  3
ACMSYMBB_MODULE_NAME
 90
        0
280
     0
281
     0
  0
CLASS
  1
ACAMGTITLESTD
  2
AcAmgTitleStd
  3
"TITLEAPP"
 90
        0
280
     0
281
     0
  0
CLASS
  1
LAYER_INDEX
  2
AcDbLayerIndex
  3
ObjectDBX Classes
 90
    32768
280
     0
281
     0
  0
CLASS
  1
IDBUFFER
  2
AcDbIdBuffer
  3
ObjectDBX Classes
 90
    32768
280
     0
281
     0
  0
CLASS
  1
DICTIONARYVAR
  2
AcDbDictionaryVar
  3
ObjectDBX Classes
 90
        0
280
     0
281
     0
  0
CLASS
  1
AM_DRAWING_MGR
  2
AcDmDwgMgr
  3
AcMechDwgViewMgmt
 90
        0
280
     0
281
     0
  0
CLASS
  1
AM_DWG_DOCUMENT
  2
AcDmDwgDocument
  3
AcMechDwgViewMgmt
 90
        0
280
     0
281
     0
  0
CLASS
  1
AM_DWG_SHEET
  2
AcDmSheet
  3
AcMechDwgViewMgmt
 90
        0
280
     0
281
     0
  0
CLASS
  1
AM_VIEWDIMPARMAP
  2
AcDmViewDimParMap
  3
AcMechDwgViewMgmt
 90
        0
280
     0
281
     0
  0
CLASS
  1
AM_DWGMGR_NAME
  2
AcDmDwgMgrName
  3
AcMechDwgViewMgmt
 90
        0
280
     0
281
     0
  0
CLASS
  1
AMDTMENUSTATEMGR
  2
AmdtMenuStateMgr
  3
McadcomServices
 90
        0
280
     0
281
     0
  0
CLASS
  1
AMDTMCOMMENUSTATE
  2
AmdtMcomMenuState
  3
McadcomServices
 90
        0
280
     0
281
     0
  0
CLASS
  1
MAPIAMMOUDLE
  2
MApiAmModule
  3
MApiAmServices
 90
        0
280
     0
281
     0
  0
CLASS
  1
AMDTADMENUSTATE
  2
AmdtAdMenuState
  3
DesignerServices
 90
        0
280
     0
281
     0
  0
CLASS
  1
ADAPPL
  2
AcAdAppl
  3
DesignerServices
 90
        0
280
     0
281
     0
  0
CLASS
  1
DEPMGR
  2
AcAdDepMgr
  3
DesignerServices
 90
        0
280
     0
281
     0
  0
CLASS
  1
PARAMMGR
  2
AcAdParamMgr
  3
DesignerServices
 90
        0
280
     0
281
     0
  0
CLASS
  1
PARAMSCOPE
  2
AcAdParamScope
  3
DesignerServices
 90
        0
280
     0
281
     0
  0
CLASS
  1
NAMEDAPPL
  2
AcAdNamedAppl
  3
DesignerServices
 90
        0
280
     0
281
     0
  0
CLASS
  1
AMDTDMMENUSTATE
  2
AmdtDmMenuState
  3
AcMechDwgViewMgmt
 90
        0
280
     0
281
     0
  0
CLASS
  1
AMDTAMMENUSTATE
  2
AmdtAmMenuState
  3
DesignerAssemblies
 90
        0
280
     0
281
     0
  0
CLASS
  1
ACAMPROJECT
  2
AcAmProject
  3
DesignerAssemblies
 90
        0
280
     0
281
     0
  0
CLASS
  1
ACAMGRCOMPDEF
  2
AcAmGrCompDef
  3
DesignerAssemblies
 90
        0
280
     0
281
     0
  0
CLASS
  1
ACCMCONTEXT
  2
AcCmContext
  3
DesignerAssemblies
 90
        0
280
     0
281
     0
  0
CLASS
  1
ACAMCOMPDEF
  2
AcAmCompDef
  3
DesignerAssemblies
 90
        0
280
     0
281
     0
  0
CLASS
  1
ACAMCOMPDEFMGR
  2
AcAmCompDefMgr
  3
DesignerAssemblies
 90
        0
280
     0
281
     0
  0
CLASS
  1
AMCONTEXTMGR
  2
AcAmContextMgr
  3
DesignerAssemblies
 90
        0
280
     0
281
     0
  0
CLASS
  1
ACAMCONTEXTMODELER
  2
AcAmContextModeler
  3
DesignerAssemblies
 90
        0
280
     0
281
     0
  0
CLASS
  1
ACMTHREADLINESTANDARDISO
  2
AmdtThreadLineStdISO
  3
"Amdt_StdImp|Product Description: AutoCAD Mechanical 2004 DX|Company: Autodesk"
 90
        0
280
     0
281
     0
  0
CLASS
  1
CATALOGSTATE
  2
AcAmCatalogState
  3
DesignerAssemblies
 90
        0
280
     0
281
     0
  0
CLASS
  1
ACAMGRCOMPDEFSET
  2
AcAmGrCompDefSet
  3
DesignerAssemblies
 90
        0
280
     0
281
     0
  0
CLASS
  1
AMDTBROWSERDBTAB
  2
AmdtBrowserDbTab
  3
McadcomServices
 90
        0
280
     0
281
     0
  0
CLASS
  1
CBROWSERAPPOBJECT
  2
CBrowserAppObject
  3
McadcomServices
 90
        0
280
     0
281
     0
  0
CLASS
  1
DM_PLACEHOLDER
  2
AcDmSelsetPlaceholder
  3
AcMechDwgViewMgmt
 90
        0
280
     0
281
     0
  0
CLASS
  1
TABLESTYLE
  2
AcDbTableStyle
  3
ObjectDBX Classes
 90
     2047
280
     0
281
     0
  0
CLASS
  1
VAACXREFPANELOBJECT
  2
VaAcXREFPanelObject
  3
VAAC_ADDIN
 90
    32768
280
     0
281
     0
  0
CLASS
  1
VAACIMAGEINVENTORY
  2
VaAcImageInventory
  3
VAAC_ADDIN
 90
    32768
280
     0
281
     0
  0
CLASS
  1
AMDTNOTETEMPLATEDB
  2
AmdtNoteTemplateDB
  3
AMDT_STDIMP_MODULE_NAME
 90
        0
280
     0
281
     0
  0
CLASS
  1
ACAMGFILTERDAT
  2
AcAmgFilterDat
  3
"AcadM|Product Description: AutoCAD Mechanical 2000|Company: Autodesk"
 90
    32768
280
     0
281
     0
  0
CLASS
  1
ACMBOM
  2
AcmBom
  3
"AcmSymBB|Product Description: AutoCAD Mechanical 2004 DX|Company: Autodesk"
 90
    32768
280
     0
281
     0
  0
CLASS
  1
AMDTFORMULAUPDATEDISPATCHER
  2
AmdtFormulaUpdateDispatcher
  3
AcMeServices
 90
    32768
280
     0
281
     0
  0
CLASS
  1
ACMSTANDARDDIN
  2
AcmStandardDIN
  3
"Amdt_StdImp|Product Description: AutoCAD Mechanical 2004 DX|Company: Autodesk"
 90
        0
280
     0
281
     0
  0
CLASS
  1
AMDTEDGESTANDARDDIN13715
  2
AmdtEdgeStdDIN13715
  3
"Amdt_StdImp|Product Description: AutoCAD Mechanical 2004 DX|Company: Autodesk"
 90
        0
280
     0
281
     0
  0
CLASS
  1
ACMSURFSTANDARDDIN
  2
AcmSurfTextStdDIN
  3
"Amdt_StdImp|Product Description: AutoCAD Mechanical 2004 DX|Company: Autodesk"
 90
        0
280
     0
281
     0
  0
CLASS
  1
ACMFCFSTANDARDDIN
  2
AcmFCFStdDIN
  3
"Amdt_StdImp|Product Description: AutoCAD Mechanical 2004 DX|Company: Autodesk"
 90
        0
280
     0
281
     0
  0
CLASS
  1
ACMWELDSTANDARDDIN
  2
AcmWeldingStdDIN
  3
"Amdt_StdImp|Product Description: AutoCAD Mechanical 2004 DX|Company: Autodesk"
 90
        0
280
     0
281
     0
  0
CLASS
  1
ACMIDSTANDARDDIN
  2
AcmIdStdDIN
  3
"Amdt_StdImp|Product Description: AutoCAD Mechanical 2004 DX|Company: Autodesk"
 90
        0
280
     0
281
     0
  0
CLASS
  1
ACMDATUMSTANDARDDIN
  2
AcmDatumStdDIN
  3
"Amdt_StdImp|Product Description: AutoCAD Mechanical 2004 DX|Company: Autodesk"
 90
        0
280
     0
281
     0
  0
CLASS
  1
ACMBOMSTANDARDDIN
  2
AcmBOMStdDIN
  3
"Amdt_StdImp|Product Description: AutoCAD Mechanical 2004 DX|Company: Autodesk"
 90
        0
280
     0
281
     0
  0
CLASS
  1
ACMDETAILSTANDARDDIN
  2
AmdtDetailSymStdDIN
  3
"Amdt_StdImp|Product Description: AutoCAD Mechanical 2004 DX|Company: Autodesk"
 90
        0
280
     0
281
     0
  0
CLASS
  1
ACMSECTIONSTANDARDDIN
  2
AmdtSectionSymStdDIN
  3
"Amdt_StdImp|Product Description: AutoCAD Mechanical 2004 DX|Company: Autodesk"
 90
        0
280
     0
281
     0
  0
CLASS
  1
ACMCENTERLINESTANDARDDIN
  2
AmdtCenterLineStdDIN
  3
"Amdt_StdImp|Product Description: AutoCAD Mechanical 2004 DX|Company: Autodesk"
 90
        0
280
     0
281
     0
  0
CLASS
  1
ACMTHREADLINESTANDARDDIN
  2
AmdtThreadLineStdDIN
  3
"Amdt_StdImp|Product Description: AutoCAD Mechanical 2004 DX|Company: Autodesk"
 90
        0
280
     0
281
     0
  0
CLASS
  1
ACMNOTESTANDARDDIN
  2
AmdtNoteStdDIN
  3
"Amdt_StdImp|Product Description: AutoCAD Mechanical 2004 DX|Company: Autodesk"
 90
        0
280
     0
281
     0
  0
CLASS
  1
ACAMGHOLECHARTSTDDIN
  2
AcAmgHoleChartStdDIN
  3
ACMSYMBB_MODULE_NAME
 90
        0
280
     0
281
     0
  0
CLASS
  1
ACRFATTGENMGR
  2
AcRfAttGeneralMgr
  3
AcAttribServices
 90
    32768
280
     0
281
     0
  0
CLASS
  1
SORTENTSTABLE
  2
AcDbSortentsTable
  3
ObjectDBX Classes
 90
        0
280
     0
281
     0
  0
CLASS
  1
DIMASSOC
  2
AcDbDimAssoc
  3
"AcDbDimAssoc|Product Desc:     AcDim ARX App For Dimension|Company:          Autodesk, Inc.|WEB Address:      www.autodesk.com"
 90
    32768
280
     0
281
     0
  0
CLASS
  1
AC_AM_MVD_DEP_MGR
  2
AcAmMVDdepMgr
  3
DesignerAssemblies
 90
    32768
280
     0
281
     0
  0
CLASS
  1
AC_AM_MASTER_VIEW_DEF
  2
AcAmMasterViewDef
  3
DesignerAssemblies
 90
    32768
280
     0
281
     0
  0
CLASS
  1
AC_AM_DIRTY_NODES
  2
AcAmDirtyNodes
  3
DesignerAssemblies
 90
    32768
280
     0
281
     0
  0
CLASS
  1
AC_AM_MAPPER_CACHE
  2
AcAmMapperCache
  3
DesignerAssemblies
 90
    32768
280
     0
281
     0
  0
CLASS
  1
ACAMMVDBACKUPOBJECT
  2
AcAmMVDBackupObject
  3
DesignerAssemblies
 90
    32768
280
     0
281
     0
  0
CLASS
  1
AC_AM_2D_XREF_MGR
  2
AcAmXrefMgr2d
  3
DesignerAssemblies
 90
    32768
280
     0
281
     0
  0
CLASS
  1
AC_AM_HIDE_SITUATION
  2
AcAmHideSituation
  3
DesignerAssemblies
 90
    32768
280
     0
281
     0
  0
CLASS
  1
ACAMWBLOCKTEMPENTS
  2
AcAmStructInOutTempObjsHolder
  3
DesignerAssemblies
 90
    32768
280
     0
281
     0
  0
CLASS
  1
STDPART2D
  2
AmgStdPart
  3
"AmgStdPart|Product Description: AutoCAD Mechanical 2000|Company: Autodesk"
 90
    33791
280
     0
281
     1
  0
CLASS
  1
ACMDATAENTRYPART
  2
AcmDataEntryPart
  3
"AcmSymBB|Product Description: AutoCAD Mechanical 2004 DX|Company: Autodesk"
 90
    32768
280
     0
281
     0
  0
CLASS
  1
ACMPARTREF
  2
AcmPartRef
  3
"AcmSymBB|Product Description: AutoCAD Mechanical 2004 DX|Company: Autodesk"
 90
    33791
280
     0
281
     1
  0
CLASS
  1
ACDBSTDPARTRES_LINE
  2
AcDbStdPartRes_Line
  3
"AcDbStdPartRes_Line|Product Description: AutoCAD Mechanical 2000|Company: Autodesk"
 90
    32768
280
     0
281
     0
  0
CLASS
  1
ACAD_EVALUATION_GRAPH
  2
AcDbEvalGraph
  3
ObjectDBX Classes
 90
    33921
280
     0
281
     0
  0
CLASS
  1
ACAECUSTOBJ
  2
AcAeEditorObj
  3
AcAeEditorObj
 90
    33792
280
     0
281
     0
  0
CLASS
  1
ACDB_DYNAMICBLOCKPURGEPREVENTER_VERSION
  2
AcDbDynamicBlockPurgePreventer
  3
ObjectDBX Classes
 90
    33921
280
     0
281
     0
  0
ENDSEC
  0
SECTION
  2
TABLES
  0
TABLE
  2
VPORT
  5
8
330
0
100
AcDbSymbolTable
 70
     3
  0
VPORT
  5
19472
330
8
100
AcDbSymbolTableRecord
100
AcDbViewportTableRecord
  2
*Active
 70
     0
 10
0.0
 20
0.0
 11
1.0
 21
1.0
 12
18739.45711563204
 22
-958.4524455568399
 13
0.0
 23
0.0
 14
2.5
 24
2.5
 15
10.0
 25
10.0
 16
0.0
 26
0.0
 36
1.0
 17
0.0
 27
0.0
 37
0.0
 40
1093.261138998177
 41
1.391353811149032
 42
50.0
 43
0.0
 44
0.0
 50
0.0
 51
0.0
 71
     0
 72
   100
 73
     1
 74
     3
 75
     0
 76
     0
 77
     0
 78
     0
281
     0
 65
     0
110
0.0
120
0.0
130
0.0
111
1.0
121
0.0
131
0.0
112
0.0
122
1.0
132
0.0
 79
     0
146
0.0
  0
ENDTAB
  0
TABLE
  2
LTYPE
  5
5
330
0
100
AcDbSymbolTable
 70
    18
  0
LTYPE
  5
14
330
5
100
AcDbSymbolTableRecord
100
AcDbLinetypeTableRecord
  2
ByBlock
 70
     0
  3

 72
    65
 73
     0
 40
0.0
  0
LTYPE
  5
15
330
5
100
AcDbSymbolTableRecord
100
AcDbLinetypeTableRecord
  2
ByLayer
 70
     0
  3

 72
    65
 73
     0
 40
0.0
  0
LTYPE
  5
16
330
5
100
AcDbSymbolTableRecord
100
AcDbLinetypeTableRecord
  2
Continuous
 70
     0
  3
Solid line
 72
    65
 73
     0
 40
0.0
  0
LTYPE
  5
67
330
5
100
AcDbSymbolTableRecord
100
AcDbLinetypeTableRecord
  2
Amconstr
 70
     0
  3
_______________________
 72
    65
 73
     2
 40
9999.0
 49
9999.0
 74
     0
 49
0.0
 74
     0
  0
LTYPE
  5
6C
330
5
100
AcDbSymbolTableRecord
100
AcDbLinetypeTableRecord
  2
Amzigzag
 70
     0
  3
/\/-/\/-/\/-/\/-/\/-/\/
 72
    65
 73
     2
 40
11.0001
 49
0.0001
 74
     4
 75
   136
340
22C
 46
0.04
 50
0.0
 44
0.0
 45
0.0
 49
-11.0
 74
     0
  0
LTYPE
  5
7E
330
5
100
AcDbSymbolTableRecord
100
AcDbLinetypeTableRecord
  2
CENTER
 70
     0
  3
__ . __
 72
    65
 73
     4
 40
7.0
 49
4.0
 74
     0
 49
-1.0
 74
     0
 49
1.0
 74
     0
 49
-1.0
 74
     0
  0
LTYPE
  5
D8
330
5
100
AcDbSymbolTableRecord
100
AcDbLinetypeTableRecord
  2
HIDDEN
 70
     0
  3
Hidden __ __ __ __ __ __ __ __ __ __ __ __ __ _
 72
    65
 73
     2
 40
9.524999999999996
 49
6.349999999999997
 74
     0
 49
-3.174999999999998
 74
     0
  0
LTYPE
  5
D9
330
5
100
AcDbSymbolTableRecord
100
AcDbLinetypeTableRecord
  2
PHANTOM2
 70
     0
  3
Phantom (.5x) ___ _ _ ___ _ _ ___ _ _ ___ _ _
 72
    65
 73
     6
 40
31.75
 49
15.875
 74
     0
 49
-3.174999999999998
 74
     0
 49
3.174999999999998
 74
     0
 49
-3.174999999999998
 74
     0
 49
3.174999999999998
 74
     0
 49
-3.174999999999998
 74
     0
  0
LTYPE
  5
2E3
330
5
100
AcDbSymbolTableRecord
100
AcDbLinetypeTableRecord
  2
ACDINWELD
 70
     0
  3
_ _ _ _ _
 72
    65
 73
     2
 40
2.0
 49
2.0
 74
     0
 49
-1.0
 74
     0
  0
LTYPE
  5
2E4
330
5
100
AcDbSymbolTableRecord
100
AcDbLinetypeTableRecord
  2
ACDINTGB
 70
     0
  3
__ . . __ . .
 72
    65
 73
     6
 40
9.0
 49
4.0
 74
     0
 49
-1.0
 74
     0
 49
1.0
 74
     0
 49
-1.0
 74
     0
 49
1.0
 74
     0
 49
-1.0
 74
     0
  0
LTYPE
  5
2E5
330
5
100
AcDbSymbolTableRecord
100
AcDbLinetypeTableRecord
  2
ACDINTGL
 70
     0
  3
_ _ _ _ _
 72
    65
 73
     2
 40
3.0
 49
2.0
 74
     0
 49
-1.0
 74
     0
  0
LTYPE
  5
31F
330
5
100
AcDbSymbolTableRecord
100
AcDbLinetypeTableRecord
  2
AM_DIN_F_W050
 70
     0
  3
__ __ __ __ __ __ __ __ __ __ __ __ __ __ __
 72
    65
 73
     2
 40
6.25
 49
4.75
 74
     0
 49
-1.5
 74
     0
  0
LTYPE
  5
320
330
5
100
AcDbSymbolTableRecord
100
AcDbLinetypeTableRecord
  2
AM_DIN_G_W050
 70
     0
  3
____ . ____ . ____ . ____ . ____ . ____ . ____
 72
    65
 73
     4
 40
13.75
 49
9.75
 74
     0
 49
-1.5
 74
     0
 49
1.0
 74
     0
 49
-1.5
 74
     0
  0
LTYPE
  5
321
330
5
100
AcDbSymbolTableRecord
100
AcDbLinetypeTableRecord
  2
AM_DIN_K_W050
 70
     0
  3
_____ . . _____ . . _____ . . ____ .. ____
 72
    65
 73
     6
 40
16.25
 49
9.75
 74
     0
 49
-1.5
 74
     0
 49
1.0
 74
     0
 49
-1.5
 74
     0
 49
1.0
 74
     0
 49
-1.5
 74
     0
  0
LTYPE
  5
322
330
5
100
AcDbSymbolTableRecord
100
AcDbLinetypeTableRecord
  2
AM_DIN_G_W050x2
 70
     0
  3
__ . __ . __ . __ . __ . __
 72
    65
 73
     4
 40
6.875
 49
4.75
 74
     0
 49
-0.875
 74
     0
 49
0.375
 74
     0
 49
-0.875
 74
     0
  0
LTYPE
  5
323
330
5
100
AcDbSymbolTableRecord
100
AcDbLinetypeTableRecord
  2
AM_DIN_F_W050x2
 70
     0
  3
 _ _ _ _ _ _ _ _ _ _ _ _
 72
    65
 73
     2
 40
3.125
 49
2.25
 74
     0
 49
-0.875
 74
     0
  0
LTYPE
  5
1669E
330
5
100
AcDbSymbolTableRecord
100
AcDbLinetypeTableRecord
  2
ACISOWELD
 70
     0
  3
_ _ _ _ _
 72
    65
 73
     2
 40
2.0
 49
2.0
 74
     0
 49
-1.0
 74
     0
  0
LTYPE
  5
1669F
330
5
100
AcDbSymbolTableRecord
100
AcDbLinetypeTableRecord
  2
ACISOTGB
 70
     0
  3
__ . . __ . .
 72
    65
 73
     6
 40
9.0
 49
4.0
 74
     0
 49
-1.0
 74
     0
 49
1.0
 74
     0
 49
-1.0
 74
     0
 49
1.0
 74
     0
 49
-1.0
 74
     0
  0
LTYPE
  5
166A0
330
5
100
AcDbSymbolTableRecord
100
AcDbLinetypeTableRecord
  2
ACISOTGL
 70
     0
  3
_ _ _ _ _
 72
    65
 73
     2
 40
3.0
 49
2.0
 74
     0
 49
-1.0
 74
     0
  0
LTYPE
  5
17C79
330
5
100
AcDbSymbolTableRecord
100
AcDbLinetypeTableRecord
  2
gen7a
 70
     0
  3
__ . __ . __
 72
    65
 73
     4
 40
6.875
 49
4.75
 74
     0
 49
-0.875
 74
     0
 49
0.375
 74
     0
 49
-0.875
 74
     0
  0
ENDTAB
  0
TABLE
  2
LAYER
  5
2
102
{ACAD_XDICTIONARY
360
5E1
102
}
330
0
100
AcDbSymbolTable
 70
     7
  0
LAYER
  5
10
330
2
100
AcDbSymbolTableRecord
100
AcDbLayerTableRecord
  2
0
 70
     0
 62
     7
  6
Continuous
370
    -3
390
F
  0
LAYER
  5
1080A
330
2
100
AcDbSymbolTableRecord
100
AcDbLayerTableRecord
  2
AM_5
 70
     0
 62
     3
  6
Continuous
370
    25
390
F
1001
AcAecLayerStandard
1000

1000

  0
LAYER
  5
1081A
330
2
100
AcDbSymbolTableRecord
100
AcDbLayerTableRecord
  2
Defpoints
 70
     0
 62
     7
  6
Continuous
290
     0
370
    -3
390
F
  0
LAYER
  5
10B76
330
2
100
AcDbSymbolTableRecord
100
AcDbLayerTableRecord
  2
Beschriftung
 70
     0
 62
     2
  6
Continuous
370
    50
390
F
1001
AcAecLayerStandard
1000

1000

  0
LAYER
  5
10B7B
330
2
100
AcDbSymbolTableRecord
100
AcDbLayerTableRecord
  2
bezugslinien
 70
     0
 62
     3
  6
Continuous
370
    25
390
F
1001
AcAecLayerStandard
1000

1000

  0
LAYER
  5
17C7A
330
2
100
AcDbSymbolTableRecord
100
AcDbLayerTableRecord
  2
7A
 70
     0
 62
     4
  6
gen7a
370
    -3
390
F
  0
LAYER
  5
1867A
330
2
100
AcDbSymbolTableRecord
100
AcDbLayerTableRecord
  2
AM_4
 70
     0
 62
     3
  6
Continuous
370
    25
390
F
1001
AcAecLayerStandard
1000

1000

  0
ENDTAB
  0
TABLE
  2
STYLE
  5
3
330
0
100
AcDbSymbolTable
 70
     6
  0
STYLE
  5
11
330
3
100
AcDbSymbolTableRecord
100
AcDbTextStyleTableRecord
  2
STANDARD
 70
     0
 40
0.0
 41
1.0
 50
0.0
 71
     0
 42
2.5
  3
ARIAL.TTF
  4

1001
ACAD
1000
Arial
1071
       34
  0
STYLE
  5
22C
330
3
100
AcDbSymbolTableRecord
100
AcDbTextStyleTableRecord
  2

 70
     1
 40
0.0
 41
1.0
 50
0.0
 71
     0
 42
2.5
  3
genltshp.shx
  4

  0
STYLE
  5
2D5
330
3
100
AcDbSymbolTableRecord
100
AcDbTextStyleTableRecord
  2
ACDINTS
 70
     0
 40
1.0
 41
1.0
 50
0.0
 71
     0
 42
2.5
  3
isocp.shx
  4

  0
STYLE
  5
2E2
330
3
100
AcDbSymbolTableRecord
100
AcDbTextStyleTableRecord
  2
ACDINGDT
 70
     0
 40
0.0
 41
1.0
 50
0.0
 71
     0
 42
2.5
  3
AMGDT
  4

  0
STYLE
  5
166A3
330
3
100
AcDbSymbolTableRecord
100
AcDbTextStyleTableRecord
  2
ACISOTS
 70
     0
 40
1.0
 41
1.0
 50
0.0
 71
     0
 42
2.5
  3
isocp.shx
  4
bigfont.shx
  0
STYLE
  5
166A4
330
3
100
AcDbSymbolTableRecord
100
AcDbTextStyleTableRecord
  2
ACISOGDT
 70
     0
 40
0.0
 41
1.0
 50
0.0
 71
     0
 42
2.5
  3
AMGDT
  4
bigfont.shx
  0
ENDTAB
  0
TABLE
  2
VIEW
  5
6
330
0
100
AcDbSymbolTable
 70
     0
  0
ENDTAB
  0
TABLE
  2
UCS
  5
7
330
0
100
AcDbSymbolTable
 70
     0
  0
ENDTAB
  0
TABLE
  2
APPID
  5
9
330
0
100
AcDbSymbolTable
 70
    74
  0
APPID
  5
12
330
9
100
AcDbSymbolTableRecord
100
AcDbRegAppTableRecord
  2
ACAD
 70
     0
  0
APPID
  5
46
330
9
100
AcDbSymbolTableRecord
100
AcDbRegAppTableRecord
  2
MCAD_NO_VIS
 70
     0
  0
APPID
  5
47
330
9
100
AcDbSymbolTableRecord
100
AcDbRegAppTableRecord
  2
ACAD_TEMP_GRAPHIC
 70
     0
  0
APPID
  5
58
330
9
100
AcDbSymbolTableRecord
100
AcDbRegAppTableRecord
  2
ACATTRIBSERVICES
 70
     0
  0
APPID
  5
EE
330
9
100
AcDbSymbolTableRecord
100
AcDbRegAppTableRecord
  2
AD_DRAW
 70
     0
  0
APPID
  5
10C
330
9
100
AcDbSymbolTableRecord
100
AcDbRegAppTableRecord
  2
DESIGNERASSEMBLIES
 70
     0
  0
APPID
  5
111
330
9
100
AcDbSymbolTableRecord
100
AcDbRegAppTableRecord
  2
ACADM_DIM_EDIT
 70
     0
  0
APPID
  5
112
330
9
100
AcDbSymbolTableRecord
100
AcDbRegAppTableRecord
  2
AMDT_DM_ADJ
 70
     0
  0
APPID
  5
1A3
330
9
100
AcDbSymbolTableRecord
100
AcDbRegAppTableRecord
  2
ACAD_DSTYLE_DIMARC_LENGTH_SYMBOL
 70
     0
  0
APPID
  5
1A4
330
9
100
AcDbSymbolTableRecord
100
AcDbRegAppTableRecord
  2
ACAD_DSTYLE_DIMJOGGED_JOGANGLE_SYMBOL
 70
     0
  0
APPID
  5
5D4
330
9
100
AcDbSymbolTableRecord
100
AcDbRegAppTableRecord
  2
ACAD_PSEXT
 70
     0
  0
APPID
  5
5D5
330
9
100
AcDbSymbolTableRecord
100
AcDbRegAppTableRecord
  2
GENIUS_GENOENT_13
 70
     0
  0
APPID
  5
5D6
330
9
100
AcDbSymbolTableRecord
100
AcDbRegAppTableRecord
  2
GENIUS_VERSION2
 70
     0
  0
APPID
  5
5D7
330
9
100
AcDbSymbolTableRecord
100
AcDbRegAppTableRecord
  2
GENIUS_GENREC_14
 70
     0
  0
APPID
  5
5D8
330
9
100
AcDbSymbolTableRecord
100
AcDbRegAppTableRecord
  2
GENIUS_GENODEF_13
 70
     0
  0
APPID
  5
5D9
330
9
100
AcDbSymbolTableRecord
100
AcDbRegAppTableRecord
  2
GENIUS_GENOBJ-N-REC_13
 70
     0
  0
APPID
  5
5DA
330
9
100
AcDbSymbolTableRecord
100
AcDbRegAppTableRecord
  2
GENIUS_GENTRA_14
 70
     0
  0
APPID
  5
5DB
330
9
100
AcDbSymbolTableRecord
100
AcDbRegAppTableRecord
  2
GENIUS_GENOBJ-N-TIT_13
 70
     0
  0
APPID
  5
5DC
330
9
100
AcDbSymbolTableRecord
100
AcDbRegAppTableRecord
  2
GENIUS_GENTITLE_13
 70
     0
  0
APPID
  5
5DD
330
9
100
AcDbSymbolTableRecord
100
AcDbRegAppTableRecord
  2
GENIUS_GENOREF_13
 70
     0
  0
APPID
  5
5DE
330
9
100
AcDbSymbolTableRecord
100
AcDbRegAppTableRecord
  2
GENIUS_GENOLIS_13
 70
     0
  0
APPID
  5
5DF
330
9
100
AcDbSymbolTableRecord
100
AcDbRegAppTableRecord
  2
GENIUS_GENOBJ-N-SDF_13
 70
     0
  0
APPID
  5
5E0
330
9
100
AcDbSymbolTableRecord
100
AcDbRegAppTableRecord
  2
GENIUS_GENSCREG_15
 70
     0
  0
APPID
  5
2FBB
330
9
100
AcDbSymbolTableRecord
100
AcDbRegAppTableRecord
  2
GENIUS_GENOBJ-N-CRS_13
 70
     0
  0
APPID
  5
2FBC
330
9
100
AcDbSymbolTableRecord
100
AcDbRegAppTableRecord
  2
GENIUS_GENOBJ-N-CEN_13
 70
     0
  0
APPID
  5
2FBD
330
9
100
AcDbSymbolTableRecord
100
AcDbRegAppTableRecord
  2
GENIUS_GENOBJ-N-HTC_13
 70
     0
  0
APPID
  5
2FBE
330
9
100
AcDbSymbolTableRecord
100
AcDbRegAppTableRecord
  2
GENIUS_GENHATCH_13
 70
     0
  0
APPID
  5
2FBF
330
9
100
AcDbSymbolTableRecord
100
AcDbRegAppTableRecord
  2
GENIUS_GENBH_13
 70
     0
  0
APPID
  5
2FC0
330
9
100
AcDbSymbolTableRecord
100
AcDbRegAppTableRecord
  2
GENIUS_GENOBJ-NBEHI-BHF_13
 70
     0
  0
APPID
  5
2FC1
330
9
100
AcDbSymbolTableRecord
100
AcDbRegAppTableRecord
  2
GENIUS_GENOBJ-F-PART_13
 70
     0
  0
APPID
  5
2FC2
330
9
100
AcDbSymbolTableRecord
100
AcDbRegAppTableRecord
  2
GENIUS_GEFSTDP_13
 70
     0
  0
APPID
  5
2FC3
330
9
100
AcDbSymbolTableRecord
100
AcDbRegAppTableRecord
  2
GEVPT
 70
     0
  0
APPID
  5
2FC4
330
9
100
AcDbSymbolTableRecord
100
AcDbRegAppTableRecord
  2
GEVIT
 70
     0
  0
APPID
  5
2FC5
330
9
100
AcDbSymbolTableRecord
100
AcDbRegAppTableRecord
  2
VCC
 70
     0
  0
APPID
  5
2FC6
330
9
100
AcDbSymbolTableRecord
100
AcDbRegAppTableRecord
  2
GENBH
 70
     0
  0
APPID
  5
2FC7
330
9
100
AcDbSymbolTableRecord
100
AcDbRegAppTableRecord
  2
GEVMK
 70
     0
  0
APPID
  5
2FC8
330
9
100
AcDbSymbolTableRecord
100
AcDbRegAppTableRecord
  2
GENIUS_GEFPARTINS_13
 70
     0
  0
APPID
  5
2FC9
330
9
100
AcDbSymbolTableRecord
100
AcDbRegAppTableRecord
  2
GENIUS_GENOBJ-N-CRC_13
 70
     0
  0
APPID
  5
2FCA
330
9
100
AcDbSymbolTableRecord
100
AcDbRegAppTableRecord
  2
GENIUS_GENCRC_14
 70
     0
  0
APPID
  5
2FCB
330
9
100
AcDbSymbolTableRecord
100
AcDbRegAppTableRecord
  2
GEVID978597865
 70
     0
  0
APPID
  5
2FCC
330
9
100
AcDbSymbolTableRecord
100
AcDbRegAppTableRecord
  2
GEVID978597866
 70
     0
  0
APPID
  5
2FCD
330
9
100
AcDbSymbolTableRecord
100
AcDbRegAppTableRecord
  2
GEVID978597868
 70
     0
  0
APPID
  5
2FCE
330
9
100
AcDbSymbolTableRecord
100
AcDbRegAppTableRecord
  2
GENIUS_GENCEN_19
 70
     0
  0
APPID
  5
2FCF
330
9
100
AcDbSymbolTableRecord
100
AcDbRegAppTableRecord
  2
AcAecLayerStandard
 70
     0
  0
APPID
  5
5580
330
9
100
AcDbSymbolTableRecord
100
AcDbRegAppTableRecord
  2
GENIUS_FIRSTVISTXT_14
 70
     0
  0
APPID
  5
5581
330
9
100
AcDbSymbolTableRecord
100
AcDbRegAppTableRecord
  2
GENIUS_SECONDVISTXT_14
 70
     0
  0
APPID
  5
5582
330
9
100
AcDbSymbolTableRecord
100
AcDbRegAppTableRecord
  2
GENIUS_GENOBJ-N-FIL_13
 70
     0
  0
APPID
  5
5583
330
9
100
AcDbSymbolTableRecord
100
AcDbRegAppTableRecord
  2
GENIUS_GEFWELD_13
 70
     0
  0
APPID
  5
5584
330
9
100
AcDbSymbolTableRecord
100
AcDbRegAppTableRecord
  2
GENIUS_GENOBJ-NBEHI-BHB_13
 70
     0
  0
APPID
  5
5585
330
9
100
AcDbSymbolTableRecord
100
AcDbRegAppTableRecord
  2
GENIUS_GENOBJ-F-WELS_13
 70
     0
  0
APPID
  5
5586
330
9
100
AcDbSymbolTableRecord
100
AcDbRegAppTableRecord
  2
AMG_2DHIDE
 70
     0
  0
APPID
  5
5587
330
9
100
AcDbSymbolTableRecord
100
AcDbRegAppTableRecord
  2
GEVID992928022
 70
     0
  0
APPID
  5
5588
330
9
100
AcDbSymbolTableRecord
100
AcDbRegAppTableRecord
  2
GENIUS_GENOBJ-F-DESC_13
 70
     0
  0
APPID
  5
5589
330
9
100
AcDbSymbolTableRecord
100
AcDbRegAppTableRecord
  2
GENIUS_GEFDESC_14
 70
     0
  0
APPID
  5
558A
330
9
100
AcDbSymbolTableRecord
100
AcDbRegAppTableRecord
  2
GEVID992928023
 70
     0
  0
APPID
  5
558B
330
9
100
AcDbSymbolTableRecord
100
AcDbRegAppTableRecord
  2
GENIUS_GENOBJ-F-FEAT_13
 70
     0
  0
APPID
  5
558C
330
9
100
AcDbSymbolTableRecord
100
AcDbRegAppTableRecord
  2
GENIUS_GEFFEAT_14
 70
     0
  0
APPID
  5
7580
330
9
100
AcDbSymbolTableRecord
100
AcDbRegAppTableRecord
  2
ACAD_EXEMPT_FROM_CAD_STANDARDS
 70
     0
  0
APPID
  5
9403
330
9
100
AcDbSymbolTableRecord
100
AcDbRegAppTableRecord
  2
AMG_2DSTRUCT_BTR
 70
     0
  0
APPID
  5
B4E8
330
9
100
AcDbSymbolTableRecord
100
AcDbRegAppTableRecord
  2
ACAD_DSTYLE_DIMEXT_LENGTH
 70
     0
  0
APPID
  5
B4E9
330
9
100
AcDbSymbolTableRecord
100
AcDbRegAppTableRecord
  2
ACAD_DSTYLE_DIMEXT_ENABLED
 70
     0
  0
APPID
  5
DE63
330
9
100
AcDbSymbolTableRecord
100
AcDbRegAppTableRecord
  2
GENIUS_GENDIMSH_14
 70
     0
  0
APPID
  5
E2FA
330
9
100
AcDbSymbolTableRecord
100
AcDbRegAppTableRecord
  2
GEVID1210230727
 70
     0
  0
APPID
  5
E2FB
330
9
100
AcDbSymbolTableRecord
100
AcDbRegAppTableRecord
  2
GEVDC
 70
     0
  0
APPID
  5
10068
330
9
100
AcDbSymbolTableRecord
100
AcDbRegAppTableRecord
  2
ACAUTHENVIRON
 70
     0
  0
APPID
  5
1011A
330
9
100
AcDbSymbolTableRecord
100
AcDbRegAppTableRecord
  2
AcDbDynamicBlockTrueName
 70
     0
  0
APPID
  5
1011B
330
9
100
AcDbSymbolTableRecord
100
AcDbRegAppTableRecord
  2
AcDbDynamicBlockGUID
 70
     0
  0
APPID
  5
1011D
330
9
100
AcDbSymbolTableRecord
100
AcDbRegAppTableRecord
  2
ACDBBLOCKREPETAG
 70
     0
  0
APPID
  5
107E4
330
9
100
AcDbSymbolTableRecord
100
AcDbRegAppTableRecord
  2
ACAD_DSTYLE_DIMTEXT_FILL
 70
     0
  0
APPID
  5
107E7
330
9
100
AcDbSymbolTableRecord
100
AcDbRegAppTableRecord
  2
ACAD_DSTYLE_DIM_LINETYPE
 70
     0
  0
APPID
  5
107E8
330
9
100
AcDbSymbolTableRecord
100
AcDbRegAppTableRecord
  2
ACAD_DSTYLE_DIM_EXT1_LINETYPE
 70
     0
  0
APPID
  5
107E9
330
9
100
AcDbSymbolTableRecord
100
AcDbRegAppTableRecord
  2
ACAD_DSTYLE_DIM_EXT2_LINETYPE
 70
     0
  0
APPID
  5
10B47
330
9
100
AcDbSymbolTableRecord
100
AcDbRegAppTableRecord
  2
GEVID1210230728
 70
     0
  0
APPID
  5
11657
330
9
100
AcDbSymbolTableRecord
100
AcDbRegAppTableRecord
  2
GENIUS_GENDTOL_13
 70
     0
  0
ENDTAB
  0
TABLE
  2
DIMSTYLE
  5
A
330
0
100
AcDbSymbolTable
 70
    15
100
AcDbDimStyleTable
 71
     1
340
2EE
  0
DIMSTYLE
105
2EE
330
A
100
AcDbSymbolTableRecord
100
AcDbDimStyleTableRecord
  2
AM_DIN
 70
     0
  4
"
 41
65.0
 42
1.0
 43
10.0
 44
25.0
 47
0.1
 48
0.1
 73
     0
 74
     0
 77
     1
 78
     8
 79
     2
140
50.0
141
0.0
143
0.0393701
146
0.71
147
15.0
172
     1
176
   256
177
   256
178
     2
271
     0
272
     0
283
     0
284
     8
340
11
371
    -1
372
    -1
1001
ACAD_DSTYLE_DIMEXT_LENGTH
1070
   378
1040
1.0
1001
ACAD_DSTYLE_DIMEXT_ENABLED
1070
   383
1070
     0
1001
ACAD_DSTYLE_DIMARC_LENGTH_SYMBOL
1070
   379
1070
     0
1001
ACAD_DSTYLE_DIMJOGGED_JOGANGLE_SYMBOL
1070
   384
1040
1.570796326794896
  0
DIMSTYLE
105
2FF
330
A
100
AcDbSymbolTableRecord
100
AcDbDimStyleTableRecord
  2
AM_DIN$3
 70
     0
  4
"
 41
65.0
 42
1.0
 43
10.0
 44
25.0
 47
0.1
 48
0.1
 73
     0
 77
     1
 78
     8
 79
     2
140
50.0
141
0.0
143
0.0393701
146
0.71
147
15.0
176
   256
177
   256
178
     2
271
     0
272
     0
283
     0
284
     8
288
     1
289
     0
340
11
371
    -1
372
    -1
1001
ACAD_DSTYLE_DIMARC_LENGTH_SYMBOL
1070
   379
1070
     0
1001
ACAD_DSTYLE_DIMJOGGED_JOGANGLE_SYMBOL
1070
   384
1040
1.570796326794896
  0
DIMSTYLE
105
304
330
A
100
AcDbSymbolTableRecord
100
AcDbDimStyleTableRecord
  2
AM_DIN$4
 70
     0
  4
"
 41
65.0
 42
1.0
 43
10.0
 44
25.0
 47
0.1
 48
0.1
 73
     0
 77
     1
 78
     8
 79
     2
140
50.0
141
0.0
143
0.0393701
146
0.71
147
15.0
176
   256
177
   256
178
     2
271
     0
272
     0
283
     0
284
     8
288
     1
289
     0
340
11
371
    -1
372
    -1
1001
ACAD_DSTYLE_DIMARC_LENGTH_SYMBOL
1070
   379
1070
     0
1001
ACAD_DSTYLE_DIMJOGGED_JOGANGLE_SYMBOL
1070
   384
1040
1.570796326794896
  0
DIMSTYLE
105
309
330
A
100
AcDbSymbolTableRecord
100
AcDbDimStyleTableRecord
  2
AM_DIN$6
 70
     0
  4
"
 41
65.0
 42
1.0
 43
10.0
 44
25.0
 47
0.1
 48
0.1
 73
     0
 74
     0
 78
     8
 79
     2
140
50.0
141
0.0
143
0.0393701
146
0.71
147
15.0
172
     1
176
   256
177
   256
178
     2
271
     0
272
     0
283
     0
284
     8
340
11
371
    -1
372
    -1
1001
ACAD_DSTYLE_DIMARC_LENGTH_SYMBOL
1070
   379
1070
     0
1001
ACAD_DSTYLE_DIMJOGGED_JOGANGLE_SYMBOL
1070
   384
1040
1.570796326794896
  0
DIMSTYLE
105
30E
330
A
100
AcDbSymbolTableRecord
100
AcDbDimStyleTableRecord
  2
AM_DIN$7
 70
     0
  4
"
 41
65.0
 42
1.0
 43
10.0
 44
25.0
 47
0.1
 48
0.1
 73
     0
 74
     0
 77
     1
 78
     8
 79
     2
140
5.0
141
0.0
143
0.0393701
146
0.71
147
15.0
172
     1
176
   256
177
   256
178
     2
271
     0
272
     0
283
     0
284
     8
340
11
371
    -1
372
    -1
1001
ACAD_DSTYLE_DIMARC_LENGTH_SYMBOL
1070
   379
1070
     0
1001
ACAD_DSTYLE_DIMJOGGED_JOGANGLE_SYMBOL
1070
   384
1040
1.570796326794896
  0
DIMSTYLE
105
313
330
A
100
AcDbSymbolTableRecord
100
AcDbDimStyleTableRecord
  2
AM_DIN$SF
 70
     0
  4
"
 41
2.5
 42
1.0
 43
10.0
 44
1.0
 47
0.1
 48
0.1
 73
     0
 74
     0
 75
     1
 76
     1
 77
     1
 78
     8
 79
     2
140
3.5
141
0.0
143
0.0393701
146
0.71
147
1.5
172
     1
176
   256
177
   256
178
     2
271
     2
272
     3
274
     4
283
     0
284
     8
340
11
371
    -1
372
    -1
1001
ACAD_DSTYLE_DIMARC_LENGTH_SYMBOL
1070
   379
1070
     0
1001
ACAD_DSTYLE_DIMJOGGED_JOGANGLE_SYMBOL
1070
   384
1040
1.570796326794896
  0
DIMSTYLE
105
318
330
A
100
AcDbSymbolTableRecord
100
AcDbDimStyleTableRecord
  2
AM_DIN$SH
 70
     0
  4
"
 41
2.5
 42
1.0
 43
10.0
 44
1.0
 47
0.1
 48
0.1
 73
     0
 74
     0
 75
     1
 76
     1
 77
     1
 78
     8
 79
     2
140
3.5
141
0.0
143
0.0393701
144
2.0
146
0.71
147
1.5
172
     1
173
     1
176
   256
177
   256
178
     2
271
     2
272
     3
274
     4
283
     0
284
     8
340
11
343
87
371
    -1
372
    -1
1001
ACAD_DSTYLE_DIMARC_LENGTH_SYMBOL
1070
   379
1070
     0
1001
ACAD_DSTYLE_DIMJOGGED_JOGANGLE_SYMBOL
1070
   384
1040
1.570796326794896
  0
DIMSTYLE
105
7C7E
102
{ACAD_REACTORS
330
18881
330
18882
330
18883
330
18884
330
188E7
330
188E8
102
}
330
A
100
AcDbSymbolTableRecord
100
AcDbDimStyleTableRecord
  2
AM_DIN$0
 70
     0
  4
"
 41
65.0
 42
1.0
 43
10.0
 44
25.0
 47
0.1
 48
0.1
 73
     0
 74
     0
 77
     1
 78
     8
 79
     2
140
50.0
141
0.0
143
0.0393701
146
0.71
147
15.0
172
     1
176
   256
177
   256
178
     2
271
     0
272
     0
283
     0
284
     8
340
11
371
    -1
372
    -1
1001
ACAD_DSTYLE_DIMARC_LENGTH_SYMBOL
1070
   379
1070
     0
1001
ACAD_DSTYLE_DIMJOGGED_JOGANGLE_SYMBOL
1070
   384
1040
1.570796326794896
  0
DIMSTYLE
105
166A5
330
A
100
AcDbSymbolTableRecord
100
AcDbDimStyleTableRecord
  2
AM_ISO
 70
     0
  4
"
 41
2.5
 42
1.0
 43
10.0
 44
1.0
 47
0.1
 48
0.1
 73
     0
 74
     0
 77
     1
 78
     8
 79
     2
140
3.5
141
0.0
143
0.0393701
146
0.71
147
1.5
172
     1
176
   256
177
   256
178
     2
271
     2
272
     3
274
     4
283
     0
284
     8
340
11
371
    -1
372
    -1
1001
ACAD_DSTYLE_DIMARC_LENGTH_SYMBOL
1070
   379
1070
     1
1001
ACAD_DSTYLE_DIMJOGGED_JOGANGLE_SYMBOL
1070
   384
1040
0.7853981633974483
  0
DIMSTYLE
105
166A6
330
A
100
AcDbSymbolTableRecord
100
AcDbDimStyleTableRecord
  2
AM_ISO$3
 70
     0
  4
"
 41
2.5
 42
1.0
 43
10.0
 44
1.0
 47
0.1
 48
0.1
 73
     0
 77
     1
 78
     8
 79
     2
140
3.5
141
0.0
143
0.0393701
146
0.71
147
1.5
176
   256
177
   256
178
     2
271
     2
272
     3
274
     4
283
     0
284
     8
288
     1
289
     0
340
11
371
    -1
372
    -1
1001
ACAD_DSTYLE_DIMARC_LENGTH_SYMBOL
1070
   379
1070
     1
1001
ACAD_DSTYLE_DIMJOGGED_JOGANGLE_SYMBOL
1070
   384
1040
0.7853981633974483
  0
DIMSTYLE
105
166A7
330
A
100
AcDbSymbolTableRecord
100
AcDbDimStyleTableRecord
  2
AM_ISO$4
 70
     0
  4
"
 41
2.5
 42
1.0
 43
10.0
 44
1.0
 47
0.1
 48
0.1
 73
     0
 77
     1
 78
     8
 79
     2
140
3.5
141
0.0
143
0.0393701
146
0.71
147
1.5
176
   256
177
   256
178
     2
271
     2
272
     3
274
     4
283
     0
284
     8
288
     1
289
     0
340
11
371
    -1
372
    -1
1001
ACAD_DSTYLE_DIMARC_LENGTH_SYMBOL
1070
   379
1070
     1
1001
ACAD_DSTYLE_DIMJOGGED_JOGANGLE_SYMBOL
1070
   384
1040
0.7853981633974483
  0
DIMSTYLE
105
166A8
330
A
100
AcDbSymbolTableRecord
100
AcDbDimStyleTableRecord
  2
AM_ISO$6
 70
     0
  4
"
 41
2.5
 42
1.0
 43
10.0
 44
1.0
 47
0.1
 48
0.1
 73
     0
 74
     0
 78
     8
 79
     2
140
3.5
141
0.0
143
0.0393701
146
0.71
147
1.5
172
     1
176
   256
177
   256
178
     2
271
     2
272
     3
274
     4
283
     0
284
     8
340
11
371
    -1
372
    -1
1001
ACAD_DSTYLE_DIMARC_LENGTH_SYMBOL
1070
   379
1070
     1
1001
ACAD_DSTYLE_DIMJOGGED_JOGANGLE_SYMBOL
1070
   384
1040
0.7853981633974483
  0
DIMSTYLE
105
166A9
330
A
100
AcDbSymbolTableRecord
100
AcDbDimStyleTableRecord
  2
AM_ISO$7
 70
     0
  4
"
 41
2.5
 42
1.0
 43
10.0
 44
1.0
 47
0.1
 48
0.1
 73
     0
 74
     0
 77
     1
 78
     8
 79
     2
140
5.0
141
0.0
143
0.0393701
146
0.71
147
1.5
172
     1
176
   256
177
   256
178
     2
271
     2
272
     3
274
     4
283
     0
284
     8
340
11
371
    -1
372
    -1
1001
ACAD_DSTYLE_DIMARC_LENGTH_SYMBOL
1070
   379
1070
     1
1001
ACAD_DSTYLE_DIMJOGGED_JOGANGLE_SYMBOL
1070
   384
1040
0.7853981633974483
  0
DIMSTYLE
105
166AA
330
A
100
AcDbSymbolTableRecord
100
AcDbDimStyleTableRecord
  2
AM_ISO$SF
 70
     0
  4
"
 41
2.5
 42
1.0
 43
10.0
 44
1.0
 47
0.1
 48
0.1
 73
     0
 74
     0
 75
     1
 76
     1
 77
     1
 78
     8
 79
     2
140
3.5
141
0.0
143
0.0393701
146
0.71
147
1.5
172
     1
176
   256
177
   256
178
     2
271
     2
272
     3
274
     4
283
     0
284
     8
340
11
371
    -1
372
    -1
1001
ACAD_DSTYLE_DIMARC_LENGTH_SYMBOL
1070
   379
1070
     1
1001
ACAD_DSTYLE_DIMJOGGED_JOGANGLE_SYMBOL
1070
   384
1040
0.7853981633974483
  0
DIMSTYLE
105
166AB
330
A
100
AcDbSymbolTableRecord
100
AcDbDimStyleTableRecord
  2
AM_ISO$SH
 70
     0
  4
"
 41
2.5
 42
1.0
 43
10.0
 44
1.0
 47
0.1
 48
0.1
 73
     0
 74
     0
 75
     1
 76
     1
 77
     1
 78
     8
 79
     2
140
3.5
141
0.0
143
0.0393701
144
2.0
146
0.71
147
1.5
172
     1
173
     1
176
   256
177
   256
178
     2
271
     2
272
     3
274
     4
283
     0
284
     8
340
11
343
87
371
    -1
372
    -1
1001
ACAD_DSTYLE_DIMARC_LENGTH_SYMBOL
1070
   379
1070
     1
1001
ACAD_DSTYLE_DIMJOGGED_JOGANGLE_SYMBOL
1070
   384
1040
0.7853981633974483
  0
ENDTAB
  0
TABLE
  2
BLOCK_RECORD
  5
1
330
0
100
AcDbSymbolTable
 70
     9
  0
BLOCK_RECORD
  5
1F
102
{ACAD_XDICTIONARY
360
8F
102
}
330
1
100
AcDbSymbolTableRecord
100
AcDbBlockTableRecord
  2
*Model_Space
340
22
  0
BLOCK_RECORD
  5
1B
330
1
100
AcDbSymbolTableRecord
100
AcDbBlockTableRecord
  2
*Paper_Space
340
1E
  0
BLOCK_RECORD
  5
23
330
1
100
AcDbSymbolTableRecord
100
AcDbBlockTableRecord
  2
*Paper_Space0
340
26
  0
BLOCK_RECORD
  5
87
102
{ACAD_XDICTIONARY
360
10117
102
}
330
1
100
AcDbSymbolTableRecord
100
AcDbBlockTableRecord
  2
GENAXEH
340
0
1001
AcDbDynamicBlockGUID
1000
{D68C792B-0B99-4E0B-8B7B-1EAC83B216F4}
1001
ACDBBLOCKREPETAG
1070
     1
1071
        0
  0
BLOCK_RECORD
  5
188EA
330
1
100
AcDbSymbolTableRecord
100
AcDbBlockTableRecord
  2
*D3
340
0
  0
BLOCK_RECORD
  5
188F6
330
1
100
AcDbSymbolTableRecord
100
AcDbBlockTableRecord
  2
*D4
340
0
  0
BLOCK_RECORD
  5
18902
330
1
100
AcDbSymbolTableRecord
100
AcDbBlockTableRecord
  2
*D5
340
0
  0
BLOCK_RECORD
  5
1890E
330
1
100
AcDbSymbolTableRecord
100
AcDbBlockTableRecord
  2
*D6
340
0
  0
BLOCK_RECORD
  5
1891A
330
1
100
AcDbSymbolTableRecord
100
AcDbBlockTableRecord
  2
*D7
340
0
  0
BLOCK_RECORD
  5
18926
330
1
100
AcDbSymbolTableRecord
100
AcDbBlockTableRecord
  2
*D8
340
0
  0
ENDTAB
  0
ENDSEC
  0
SECTION
  2
BLOCKS
  0
BLOCK
  5
20
330
1F
100
AcDbEntity
  8
0
100
AcDbBlockBegin
  2
*Model_Space
 70
     0
 10
0.0
 20
0.0
 30
0.0
  3
*Model_Space
  1

  0
ENDBLK
  5
21
330
1F
100
AcDbEntity
  8
0
100
AcDbBlockEnd
  0
BLOCK
  5
1C
330
1B
100
AcDbEntity
 67
     1
  8
0
100
AcDbBlockBegin
  2
*Paper_Space
 70
     0
 10
0.0
 20
0.0
 30
0.0
  3
*Paper_Space
  1

  0
ENDBLK
  5
1D
330
1B
100
AcDbEntity
 67
     1
  8
0
100
AcDbBlockEnd
  0
BLOCK
  5
24
330
23
100
AcDbEntity
 67
     1
  8
0
100
AcDbBlockBegin
  2
*Paper_Space0
 70
     0
 10
0.0
 20
0.0
 30
0.0
  3
*Paper_Space0
  1

  0
ENDBLK
  5
25
330
23
100
AcDbEntity
 67
     1
  8
0
100
AcDbBlockEnd
  0
BLOCK
  5
2ADE
330
87
100
AcDbEntity
  8
0
100
AcDbBlockBegin
  2
GENAXEH
 70
     0
 10
0.0
 20
0.0
 30
0.0
  3
GENAXEH
  1

  0
ENDBLK
  5
2AE0
330
87
100
AcDbEntity
  8
0
100
AcDbBlockEnd
  0
BLOCK
  5
188F4
330
188EA
100
AcDbEntity
  8
0
100
AcDbBlockBegin
  2
*D3
 70
     1
 10
0.0
 20
0.0
 30
0.0
  3
*D3
  1

  0
LINE
  5
193B6
330
188EA
100
AcDbEntity
  8
AM_5
100
AcDbLine
 10
18738.81735152225
 20
-647.7402398636013
 30
0.0
 11
18738.81735152225
 21
-457.8537237767728
 31
0.0
  0
LINE
  5
193B7
330
188EA
100
AcDbEntity
  8
AM_5
100
AcDbLine
 10
19192.83735156906
 20
-647.7402398636013
 30
0.0
 11
19192.83735156906
 21
-457.8537237767728
 31
0.0
  0
LINE
  5
193B8
330
188EA
100
AcDbEntity
  8
AM_5
100
AcDbLine
 10
18778.81735152225
 20
-482.8537237767728
 30
0.0
 11
19152.83735156906
 21
-482.8537237767728
 31
0.0
  0
SOLID
  5
193B9
330
188EA
100
AcDbEntity
  8
AM_5
100
AcDbTrace
 10
18778.81735152225
 20
-476.187057110106
 30
0.0
 11
18778.81735152225
 21
-489.5203904434394
 31
0.0
 12
18738.81735152225
 22
-482.8537237767728
 32
0.0
 13
18738.81735152225
 23
-482.8537237767728
 33
0.0
  0
SOLID
  5
193BA
330
188EA
100
AcDbEntity
  8
AM_5
100
AcDbTrace
 10
19152.83735156906
 20
-476.187057110106
 30
0.0
 11
19152.83735156906
 21
-489.5203904434394
 31
0.0
 12
19192.83735156906
 22
-482.8537237767728
 32
0.0
 13
19192.83735156906
 23
-482.8537237767728
 33
0.0
  0
MTEXT
  5
193BB
330
188EA
100
AcDbEntity
  8
AM_5
 62
     2
100
AcDbMText
 10
18965.82735154565
 20
-446.3121139541261
 30
0.0
 40
40.0
 41
0.0
 71
     5
 72
     1
  1
li. %%c 455
 73
     1
 44
1.0
1001
ACAD
1000
MTEXTBEGIN
1070
    73
1070
     1
1070
    44
1040
1.0
1070
    74
1070
     0
1000
MTEXTEND
  0
POINT
  5
193BC
330
188EA
100
AcDbEntity
  8
Defpoints
 62
     0
100
AcDbPoint
 10
18738.81735152225
 20
-648.7402398636013
 30
0.0
  0
POINT
  5
193BD
330
188EA
100
AcDbEntity
  8
Defpoints
 62
     0
100
AcDbPoint
 10
19192.83735156906
 20
-648.7402398636013
 30
0.0
  0
POINT
  5
193BE
330
188EA
100
AcDbEntity
  8
Defpoints
 62
     0
100
AcDbPoint
 10
19192.83735156906
 20
-482.8537237767728
 30
0.0
  0
ENDBLK
  5
188F5
330
188EA
100
AcDbEntity
  8
0
100
AcDbBlockEnd
  0
BLOCK
  5
18900
330
188F6
100
AcDbEntity
  8
0
100
AcDbBlockBegin
  2
*D4
 70
     1
 10
0.0
 20
0.0
 30
0.0
  3
*D4
  1

  0
LINE
  5
19400
330
188F6
100
AcDbEntity
  8
AM_5
100
AcDbLine
 10
18746.85292938685
 20
-1064.653961075266
 30
0.0
 11
18287.69884825792
 21
-1064.653961075266
 31
0.0
  0
LINE
  5
19401
330
188F6
100
AcDbEntity
  8
AM_5
100
AcDbLine
 10
18964.82760347351
 20
-539.6330579823695
 30
0.0
 11
18287.69884825792
 21
-539.6330579823694
 31
0.0
  0
LINE
  5
19402
330
188F6
100
AcDbEntity
  8
AM_5
100
AcDbLine
 10
18312.69884825792
 20
-1024.653961075266
 30
0.0
 11
18312.69884825792
 21
-579.6330579823695
 31
0.0
  0
SOLID
  5
19403
330
188F6
100
AcDbEntity
  8
AM_5
100
AcDbTrace
 10
18306.03218159125
 20
-1024.653961075266
 30
0.0
 11
18319.36551492458
 21
-1024.653961075266
 31
0.0
 12
18312.69884825792
 22
-1064.653961075266
 32
0.0
 13
18312.69884825792
 23
-1064.653961075266
 33
0.0
  0
SOLID
  5
19404
330
188F6
100
AcDbEntity
  8
AM_5
100
AcDbTrace
 10
18306.03218159125
 20
-579.6330579823695
 30
0.0
 11
18319.36551492458
 21
-579.6330579823695
 31
0.0
 12
18312.69884825792
 22
-539.6330579823694
 32
0.0
 13
18312.69884825792
 23
-539.6330579823694
 33
0.0
  0
MTEXT
  5
19405
330
188F6
100
AcDbEntity
  8
AM_5
 62
     2
100
AcDbMText
 10
18277.27592874905
 20
-790.1654100416092
 30
0.0
 40
40.0
 41
0.0
 71
     5
 72
     1
  1
525
 11
0.0000000000000001
 21
1.0
 31
0.0
 73
     1
 44
1.0
1001
ACAD
1000
MTEXTBEGIN
1070
    73
1070
     1
1070
    44
1040
1.0
1070
    74
1070
     0
1000
MTEXTEND
  0
POINT
  5
19406
330
188F6
100
AcDbEntity
  8
Defpoints
 62
     0
100
AcDbPoint
 10
18747.85292938685
 20
-1064.653961075266
 30
0.0
  0
POINT
  5
19407
330
188F6
100
AcDbEntity
  8
Defpoints
 62
     0
100
AcDbPoint
 10
18965.82760347351
 20
-539.6330579823695
 30
0.0
  0
POINT
  5
19408
330
188F6
100
AcDbEntity
  8
Defpoints
 62
     0
100
AcDbPoint
 10
18312.69884825792
 20
-539.6330579823694
 30
0.0
  0
ENDBLK
  5
18901
330
188F6
100
AcDbEntity
  8
0
100
AcDbBlockEnd
  0
BLOCK
  5
1890C
330
18902
100
AcDbEntity
  8
0
100
AcDbBlockBegin
  2
*D5
 70
     1
 10
0.0
 20
0.0
 30
0.0
  3
*D5
  1

  0
LINE
  5
19432
330
18902
100
AcDbEntity
  8
AM_5
100
AcDbLine
 10
18746.85292938683
 20
-1064.653961075266
 30
0.0
 11
18544.33317161313
 21
-1064.653961075266
 31
0.0
  0
LINE
  5
19433
330
18902
100
AcDbEntity
  8
AM_5
100
AcDbLine
 10
18590.99009271083
 20
-819.6539610775118
 30
0.0
 11
18544.33317161313
 21
-819.6539610775118
 31
0.0
  0
LINE
  5
19434
330
18902
100
AcDbEntity
  8
AM_5
100
AcDbLine
 10
18569.33317161313
 20
-1024.653961075266
 30
0.0
 11
18569.33317161313
 21
-859.6539610775119
 31
0.0
  0
SOLID
  5
19435
330
18902
100
AcDbEntity
  8
AM_5
100
AcDbTrace
 10
18562.66650494646
 20
-1024.653961075266
 30
0.0
 11
18575.99983827979
 21
-1024.653961075266
 31
0.0
 12
18569.33317161313
 22
-1064.653961075266
 32
0.0
 13
18569.33317161313
 23
-1064.653961075266
 33
0.0
  0
SOLID
  5
19436
330
18902
100
AcDbEntity
  8
AM_5
100
AcDbTrace
 10
18562.66650494646
 20
-859.6539610775119
 30
0.0
 11
18575.99983827979
 21
-859.6539610775119
 31
0.0
 12
18569.33317161313
 22
-819.6539610775118
 32
0.0
 13
18569.33317161313
 23
-819.6539610775118
 33
0.0
  0
MTEXT
  5
19437
330
18902
100
AcDbEntity
  8
AM_5
 62
     2
100
AcDbMText
 10
18533.91025210426
 20
-933.6958696412114
 30
0.0
 40
40.0
 41
0.0
 71
     5
 72
     1
  1
245
 11
0.0000000000000001
 21
1.0
 31
0.0
 73
     1
 44
1.0
1001
ACAD
1000
MTEXTBEGIN
1070
    73
1070
     1
1070
    44
1040
1.0
1070
    74
1070
     0
1000
MTEXTEND
  0
POINT
  5
19438
330
18902
100
AcDbEntity
  8
Defpoints
 62
     0
100
AcDbPoint
 10
18747.85292938683
 20
-1064.653961075266
 30
0.0
  0
POINT
  5
19439
330
18902
100
AcDbEntity
  8
Defpoints
 62
     0
100
AcDbPoint
 10
18591.99009271083
 20
-819.6539610775118
 30
0.0
  0
POINT
  5
1943A
330
18902
100
AcDbEntity
  8
Defpoints
 62
     0
100
AcDbPoint
 10
18569.33317161313
 20
-819.6539610775118
 30
0.0
  0
ENDBLK
  5
1890D
330
18902
100
AcDbEntity
  8
0
100
AcDbBlockEnd
  0
BLOCK
  5
18918
330
1890E
100
AcDbEntity
  8
0
100
AcDbBlockBegin
  2
*D6
 70
     1
 10
0.0
 20
0.0
 30
0.0
  3
*D6
  1

  0
LINE
  5
193D1
330
1890E
100
AcDbEntity
  8
AM_5
100
AcDbLine
 10
18678.35733520585
 20
-905.4139096357632
 30
0.0
 11
18678.35733520585
 21
-1501.130874017164
 31
0.0
  0
LINE
  5
193D2
330
1890E
100
AcDbEntity
  8
AM_5
100
AcDbLine
 10
19232.82735173986
 20
-1055.636011371621
 30
0.0
 11
19232.82735173986
 21
-1501.130874017164
 31
0.0
  0
LINE
  5
193D3
330
1890E
100
AcDbEntity
  8
AM_5
100
AcDbLine
 10
18718.35733520585
 20
-1476.130874017164
 30
0.0
 11
19192.82735173986
 21
-1476.130874017164
 31
0.0
  0
SOLID
  5
193D4
330
1890E
100
AcDbEntity
  8
AM_5
100
AcDbTrace
 10
18718.35733520585
 20
-1469.464207350498
 30
0.0
 11
18718.35733520585
 21
-1482.797540683831
 31
0.0
 12
18678.35733520585
 22
-1476.130874017164
 32
0.0
 13
18678.35733520585
 23
-1476.130874017164
 33
0.0
  0
SOLID
  5
193D5
330
1890E
100
AcDbEntity
  8
AM_5
100
AcDbTrace
 10
19192.82735173986
 20
-1469.464207350498
 30
0.0
 11
19192.82735173986
 21
-1482.797540683831
 31
0.0
 12
19232.82735173986
 22
-1476.130874017164
 32
0.0
 13
19232.82735173986
 23
-1476.130874017164
 33
0.0
  0
MTEXT
  5
193D6
330
1890E
100
AcDbEntity
  8
AM_5
 62
     2
100
AcDbMText
 10
18832.60478146464
 20
-1440.78980989711
 30
0.0
 40
40.0
 41
0.0
 71
     5
 72
     1
  1
555
 73
     1
 44
1.0
1001
ACAD
1000
MTEXTBEGIN
1070
    73
1070
     1
1070
    44
1040
1.0
1070
    74
1070
     0
1000
MTEXTEND
  0
POINT
  5
193D7
330
1890E
100
AcDbEntity
  8
Defpoints
 62
     0
100
AcDbPoint
 10
18678.35733520585
 20
-904.4139096357632
 30
0.0
  0
POINT
  5
193D8
330
1890E
100
AcDbEntity
  8
Defpoints
 62
     0
100
AcDbPoint
 10
19232.82735173986
 20
-1054.636011371621
 30
0.0
  0
POINT
  5
193D9
330
1890E
100
AcDbEntity
  8
Defpoints
 62
     0
100
AcDbPoint
 10
19232.82735173986
 20
-1476.130874017164
 30
0.0
  0
ENDBLK
  5
18919
330
1890E
100
AcDbEntity
  8
0
100
AcDbBlockEnd
  0
BLOCK
  5
18924
330
1891A
100
AcDbEntity
  8
0
100
AcDbBlockBegin
  2
*D7
 70
     1
 10
0.0
 20
0.0
 30
0.0
  3
*D7
  1

  0
LINE
  5
19448
330
1891A
100
AcDbEntity
  8
AM_5
100
AcDbLine
 10
18678.35733520585
 20
-905.4139096357632
 30
0.0
 11
18678.35733520585
 21
-1260.961711488159
 31
0.0
  0
LINE
  5
19449
330
1891A
100
AcDbEntity
  8
AM_5
100
AcDbLine
 10
19093.32735173989
 20
-1171.242822722752
 30
0.0
 11
19093.32735173989
 21
-1260.961711488159
 31
0.0
  0
LINE
  5
1944A
330
1891A
100
AcDbEntity
  8
AM_5
100
AcDbLine
 10
18718.35733520585
 20
-1235.961711488159
 30
0.0
 11
19053.32735173989
 21
-1235.961711488159
 31
0.0
  0
SOLID
  5
1944B
330
1891A
100
AcDbEntity
  8
AM_5
100
AcDbTrace
 10
18718.35733520585
 20
-1229.295044821493
 30
0.0
 11
18718.35733520585
 21
-1242.628378154826
 31
0.0
 12
18678.35733520585
 22
-1235.961711488159
 32
0.0
 13
18678.35733520585
 23
-1235.961711488159
 33
0.0
  0
SOLID
  5
1944C
330
1891A
100
AcDbEntity
  8
AM_5
100
AcDbTrace
 10
19053.32735173989
 20
-1229.295044821493
 30
0.0
 11
19053.32735173989
 21
-1242.628378154826
 31
0.0
 12
19093.32735173989
 22
-1235.961711488159
 32
0.0
 13
19093.32735173989
 23
-1235.961711488159
 33
0.0
  0
MTEXT
  5
1944D
330
1891A
100
AcDbEntity
  8
AM_5
 62
     2
100
AcDbMText
 10
18885.84234347288
 20
-1200.538791979292
 30
0.0
 40
40.0
 41
0.0
 71
     5
 72
     1
  1
415
 73
     1
 44
1.0
1001
ACAD
1000
MTEXTBEGIN
1070
    73
1070
     1
1070
    44
1040
1.0
1070
    74
1070
     0
1000
MTEXTEND
  0
POINT
  5
1944E
330
1891A
100
AcDbEntity
  8
Defpoints
 62
     0
100
AcDbPoint
 10
18678.35733520585
 20
-904.4139096357632
 30
0.0
  0
POINT
  5
1944F
330
1891A
100
AcDbEntity
  8
Defpoints
 62
     0
100
AcDbPoint
 10
19093.32735173989
 20
-1170.242822722752
 30
0.0
  0
POINT
  5
19450
330
1891A
100
AcDbEntity
  8
Defpoints
 62
     0
100
AcDbPoint
 10
19093.32735173989
 20
-1235.961711488159
 30
0.0
  0
ENDBLK
  5
18925
330
1891A
100
AcDbEntity
  8
0
100
AcDbBlockEnd
  0
BLOCK
  5
18932
330
18926
100
AcDbEntity
  8
0
100
AcDbBlockBegin
  2
*D8
 70
     1
 10
0.0
 20
0.0
 30
0.0
  3
*D8
  1

  0
LINE
  5
1943C
330
18926
100
AcDbEntity
  8
AM_5
100
AcDbLine
 10
19012.32735173894
 20
-1154.653961072364
 30
0.0
 11
18544.33317161313
 21
-1154.653961072364
 31
0.0
  0
LINE
  5
1943D
330
18926
100
AcDbEntity
  8
AM_5
100
AcDbLine
 10
18746.85292938683
 20
-1064.653961075266
 30
0.0
 11
18544.33317161313
 21
-1064.653961075266
 31
0.0
  0
LINE
  5
1943E
330
18926
100
AcDbEntity
  8
AM_5
100
AcDbLine
 10
18569.33317161313
 20
-1024.653961075266
 30
0.0
 11
18569.33317161313
 21
-984.6539610752659
 31
0.0
  0
LINE
  5
1943F
330
18926
100
AcDbEntity
  8
AM_5
100
AcDbLine
 10
18569.33317161313
 20
-1194.653961072363
 30
0.0
 11
18569.33317161313
 21
-1334.189899496012
 31
0.0
  0
LINE
  5
19440
330
18926
100
AcDbEntity
  8
AM_5
100
AcDbLine
 10
18569.33317161313
 20
-1064.653961075266
 30
0.0
 11
18569.33317161313
 21
-1154.653961072364
 31
0.0
  0
SOLID
  5
19441
330
18926
100
AcDbEntity
  8
AM_5
100
AcDbTrace
 10
18562.66650494646
 20
-1024.653961075266
 30
0.0
 11
18575.9998382798
 21
-1024.653961075266
 31
0.0
 12
18569.33317161313
 22
-1064.653961075266
 32
0.0
 13
18569.33317161313
 23
-1064.653961075266
 33
0.0
  0
SOLID
  5
19442
330
18926
100
AcDbEntity
  8
AM_5
100
AcDbTrace
 10
18562.66650494646
 20
-1194.653961072363
 30
0.0
 11
18575.9998382798
 21
-1194.653961072363
 31
0.0
 12
18569.33317161313
 22
-1154.653961072364
 32
0.0
 13
18569.33317161313
 23
-1154.653961072364
 33
0.0
  0
MTEXT
  5
19443
330
18926
100
AcDbEntity
  8
AM_5
 62
     2
100
AcDbMText
 10
18533.91025210426
 20
-1290.608726235436
 30
0.0
 40
40.0
 41
0.0
 71
     5
 72
     1
  1
90
 11
0.0000000000000001
 21
1.0
 31
0.0
 73
     1
 44
1.0
1001
ACAD
1000
MTEXTBEGIN
1070
    73
1070
     1
1070
    44
1040
1.0
1070
    74
1070
     0
1000
MTEXTEND
  0
POINT
  5
19444
330
18926
100
AcDbEntity
  8
Defpoints
 62
     0
100
AcDbPoint
 10
19013.32735173894
 20
-1154.653961072364
 30
0.0
  0
POINT
  5
19445
330
18926
100
AcDbEntity
  8
Defpoints
 62
     0
100
AcDbPoint
 10
18747.85292938683
 20
-1064.653961075266
 30
0.0
  0
POINT
  5
19446
330
18926
100
AcDbEntity
  8
Defpoints
 62
     0
100
AcDbPoint
 10
18569.33317161313
 20
-1064.653961075266
 30
0.0
  0
ENDBLK
  5
18933
330
18926
100
AcDbEntity
  8
0
100
AcDbBlockEnd
  0
ENDSEC
  0
SECTION
  2
ENTITIES
  0
LINE
  5
1887D
330
1F
100
AcDbEntity
  8
bezugslinien
100
AcDbLine
 10
18448.28926211772
 20
-819.653961077511
 30
0.0
 11
18373.28926211772
 21
-819.653961077511
 31
0.0
  0
SOLID
  5
1887E
330
1F
100
AcDbEntity
  8
bezugslinien
100
AcDbTrace
 10
18448.28926211772
 20
-808.8206277441766
 30
0.0
 11
18448.28926211772
 21
-830.487294410844
 31
0.0
 12
18513.28926211772
 22
-819.653961077511
 32
0.0
 13
18513.28926211772
 23
-819.653961077511
 33
0.0
  0
LINE
  5
1887F
330
1F
100
AcDbEntity
  8
bezugslinien
100
AcDbLine
 10
19120.8722380958
 20
-1370.486342433052
 30
0.0
 11
19120.8722380958
 21
-1295.486342433052
 31
0.0
  0
SOLID
  5
18880
330
1F
100
AcDbEntity
  8
bezugslinien
100
AcDbTrace
 10
19131.70557142913
 20
-1370.486342433052
 30
0.0
 11
19110.03890476247
 21
-1370.486342433052
 31
0.0
 12
19120.8722380958
 22
-1435.486342433052
 32
0.0
 13
19120.8722380958
 23
-1435.486342433052
 33
0.0
  0
DIMENSION
  5
18881
330
1F
100
AcDbEntity
  8
AM_5
100
AcDbDimension
  2
*D3
 10
19192.83735156906
 20
-482.8537237767728
 30
0.0
 11
18965.82735154565
 21
-482.8537237767728
 31
0.0
 70
   160
  1
li. %%c 455
 71
     5
 42
454.0200000468103
  3
AM_DIN$0
100
AcDbAlignedDimension
 13
18738.81735152225
 23
-648.7402398636013
 33
0.0
 14
19192.83735156906
 24
-648.7402398636013
 34
0.0
100
AcDbRotatedDimension
1001
ACAD
1000
DSTYLE
1002
{
1070
    41
1040
40.0
1070
   140
1040
40.0
1002
}
  0
DIMENSION
  5
18882
330
1F
100
AcDbEntity
  8
AM_5
100
AcDbDimension
  2
*D4
 10
18312.69884825792
 20
-539.6330579823694
 30
0.0
 11
18312.69884825792
 21
-790.1654100416092
 31
0.0
 70
   160
  1
<>
 71
     5
 42
525.0209030928964
  3
AM_DIN$0
100
AcDbAlignedDimension
 13
18747.85292938685
 23
-1064.653961075266
 33
0.0
 14
18965.82760347351
 24
-539.6330579823695
 34
0.0
 50
90.0
100
AcDbRotatedDimension
1001
ACAD
1000
DSTYLE
1002
{
1070
    41
1040
40.0
1070
   140
1040
40.0
1002
}
  0
DIMENSION
  5
18883
330
1F
100
AcDbEntity
  8
AM_5
100
AcDbDimension
  2
*D5
 10
18569.33317161313
 20
-819.6539610775118
 30
0.0
 11
18569.33317161313
 21
-933.6958696412114
 31
0.0
 70
   160
  1
<>
 71
     5
 42
244.999999997754
  3
AM_DIN$0
100
AcDbAlignedDimension
 13
18747.85292938683
 23
-1064.653961075266
 33
0.0
 14
18591.99009271083
 24
-819.6539610775118
 34
0.0
 50
90.0
100
AcDbRotatedDimension
1001
ACAD
1000
DSTYLE
1002
{
1070
   140
1040
40.0
1070
    41
1040
40.0
1002
}
  0
DIMENSION
  5
18884
330
1F
100
AcDbEntity
  8
AM_5
100
AcDbDimension
  2
*D6
 10
19232.82735173986
 20
-1476.130874017164
 30
0.0
 11
18832.60478146464
 21
-1476.130874017164
 31
0.0
 70
   160
  1
555
 71
     5
 42
554.4700165340145
  3
AM_DIN$0
100
AcDbAlignedDimension
 13
18678.35733520585
 23
-904.4139096357632
 33
0.0
 14
19232.82735173986
 24
-1054.636011371621
 34
0.0
100
AcDbRotatedDimension
1001
ACAD
1000
DSTYLE
1002
{
1070
    41
1040
40.0
1070
   140
1040
40.0
1002
}
  0
DIMENSION
  5
188E7
330
1F
100
AcDbEntity
  8
AM_5
100
AcDbDimension
  2
*D7
 10
19093.32735173989
 20
-1235.961711488159
 30
0.0
 11
18885.84234347288
 21
-1235.961711488159
 31
0.0
 70
   160
  1
415
 71
     5
 42
414.97001653404
  3
AM_DIN$0
100
AcDbAlignedDimension
 13
18678.35733520585
 23
-904.4139096357632
 33
0.0
 14
19093.32735173989
 24
-1170.242822722752
 34
0.0
100
AcDbRotatedDimension
1001
ACAD
1000
DSTYLE
1002
{
1070
    41
1040
40.0
1070
   140
1040
40.0
1002
}
  0
DIMENSION
  5
188E8
330
1F
100
AcDbEntity
  8
AM_5
100
AcDbDimension
  2
*D8
 10
18569.33317161313
 20
-1064.653961075266
 30
0.0
 11
18569.33317161313
 21
-1290.608726235436
 31
0.0
 70
   160
  1
<>
 71
     5
 42
89.9999999970978
  3
AM_DIN$0
100
AcDbAlignedDimension
 13
19013.32735173894
 23
-1154.653961072364
 33
0.0
 14
18747.85292938683
 24
-1064.653961075266
 34
0.0
 50
90.0
100
AcDbRotatedDimension
1001
ACAD
1000
DSTYLE
1002
{
1070
   140
1040
40.0
1070
    41
1040
40.0
1002
}
  0
MTEXT
  5
188E9
330
1F
100
AcDbEntity
  8
Beschriftung
100
AcDbMText
 10
18373.02444729392
 20
-697.9820918076452
 30
0.0
 40
30.0
 41
1190.293354815057
 71
     1
 72
     5
  1
Zulauf DN 150\P/ %%C OD 160
 73
     1
 44
1.0
1001
ACAD
1000
ACAD_MTEXT_DEFINED_HEIGHT_BEGIN
1070
    46
1040
0.0
1000
ACAD_MTEXT_DEFINED_HEIGHT_END
1000
MTEXTBEGIN
1070
    73
1070
     1
1070
    44
1040
1.0
1070
    74
1070
     0
1000
MTEXTEND
  0
MTEXT
  5
18EE3
330
1F
100
AcDbEntity
  8
Beschriftung
100
AcDbMText
 10
18821.09992887112
 20
-1297.564831374938
 30
0.0
 40
30.0
 41
1190.293354815057
 71
     1
 72
     5
  1
Ablauf DN 150\P/ %%C OD 160
 73
     1
 44
1.0
1001
ACAD
1000
ACAD_MTEXT_DEFINED_HEIGHT_BEGIN
1070
    46
1040
0.0
1000
ACAD_MTEXT_DEFINED_HEIGHT_END
1000
MTEXTBEGIN
1070
    73
1070
     1
1070
    44
1040
1.0
1070
    74
1070
     0
1000
MTEXTEND
  0
LINE
  5
1913C
330
1F
100
AcDbEntity
  8
0
  6
Continuous
 62
     7
100
AcDbLine
 10
19013.32735173894
 20
-1154.653961072364
 30
0.0
 11
19173.32735174084
 21
-1154.653961072364
 31
0.0
  0
LINE
  5
1913D
330
1F
100
AcDbEntity
  8
0
  6
Continuous
 62
     7
100
AcDbLine
 10
18729.58985998214
 20
-592.3344904252626
 30
0.0
 11
18719.58985997962
 21
-599.8700309294652
 31
0.0
  0
LINE
  5
1913E
330
1F
100
AcDbEntity
  8
0
  6
Continuous
 62
     7
100
AcDbLine
 10
19021.32735174092
 20
-1070.653961076763
 30
0.0
 11
19165.32735173882
 21
-1070.653961076763
 31
0.0
  0
LINE
  5
1913F
330
1F
100
AcDbEntity
  8
0
  6
Continuous
 62
     7
100
AcDbLine
 10
19183.80177408634
 20
-1064.653961075265
 30
0.0
 11
19179.32735174235
 21
-1064.653961075265
 31
0.0
  0
LINE
  5
19140
330
1F
100
AcDbEntity
  8
0
  6
Continuous
 62
     7
100
AcDbLine
 10
19007.32735173745
 20
-1064.653961075265
 30
0.0
 11
18747.85292938683
 21
-1064.653961075265
 31
0.0
  0
LINE
  5
19141
330
1F
100
AcDbEntity
  8
0
  6
Continuous
 62
     7
100
AcDbLine
 10
19224.82735173785
 20
-1061.653961080864
 30
0.0
 11
19195.92612974612
 21
-1061.653961080864
 31
0.0
  0
LINE
  5
19142
330
1F
100
AcDbEntity
  8
0
  6
Continuous
 62
     7
100
AcDbLine
 10
18747.85292938683
 20
-1056.653961073266
 30
0.0
 11
19183.80177408634
 21
-1056.653961073266
 31
0.0
  0
LINE
  5
19143
330
1F
100
AcDbEntity
  8
0
  6
Continuous
 62
     7
100
AcDbLine
 10
19220.82735173684
 20
-1053.653961078861
 30
0.0
 11
19195.92657757352
 21
-1053.653961078861
 31
0.0
  0
LINE
  5
19144
330
1F
100
AcDbEntity
  8
0
  6
Continuous
 62
     2
100
AcDbLine
 10
18756.15807072675
 20
-1064.653961075265
 30
0.0
 11
18743.22923615773
 21
-1055.601093659065
 31
0.0
  0
LINE
  5
19145
330
1F
100
AcDbEntity
  8
0
  6
Continuous
 62
     2
100
AcDbLine
 10
18738.77790431873
 20
-1052.484237548366
 30
0.0
 11
18727.69054678814
 21
-1044.720786222368
 31
0.0
  0
LINE
  5
19146
330
1F
100
AcDbEntity
  8
0
  6
Continuous
 62
     2
100
AcDbLine
 10
18695.65223085472
 20
-711.6539610695619
 30
0.0
 11
18681.17346162844
 21
-726.1327302958662
 31
0.0
  0
LINE
  5
19147
330
1F
100
AcDbEntity
  8
0
  6
Continuous
 62
     7
100
AcDbLine
 10
18735.99336621242
 20
-1046.484469550459
 30
0.0
 11
19186.52890584312
 21
-1046.482719934961
 31
0.0
  0
LINE
  5
19148
330
1F
100
AcDbEntity
  8
0
  6
Continuous
 62
     2
100
AcDbLine
 10
18771.86086176203
 20
-1064.653961075265
 30
0.0
 11
18760.43567771632
 21
-1056.653961073266
 31
0.0
  0
LINE
  5
19149
330
1F
100
AcDbEntity
  8
0
  6
Continuous
 62
     2
100
AcDbLine
 10
18734.97609475194
 20
-1038.826969168261
 30
0.0
 11
18726.07994279572
 21
-1032.597816513567
 31
0.0
  0
LINE
  5
1914A
330
1F
100
AcDbEntity
  8
0
  6
Continuous
 62
     2
100
AcDbLine
 10
18787.56365281004
 20
-1064.653961075265
 30
0.0
 11
18776.13846875163
 21
-1056.653961073266
 31
0.0
  0
LINE
  5
1914B
330
1F
100
AcDbEntity
  8
0
  6
Continuous
 62
     2
100
AcDbLine
 10
18733.36561309861
 20
-1026.704085108268
 30
0.0
 11
18724.46933880333
 21
-1020.47484679206
 31
0.0
  0
LINE
  5
1914C
330
1F
100
AcDbEntity
  8
0
  6
Continuous
 62
     2
100
AcDbLine
 10
18803.26644384532
 20
-1064.653961075265
 30
0.0
 11
18791.84125979963
 21
-1056.653961073266
 31
0.0
  0
LINE
  5
1914D
330
1F
100
AcDbEntity
  8
0
  6
Continuous
 62
     2
100
AcDbLine
 10
18731.75513143262
 20
-1014.581201048267
 30
0.0
 11
18722.85873481091
 21
-1008.351877070562
 31
0.0
  0
LINE
  5
1914E
330
1F
100
AcDbEntity
  8
0
  6
Continuous
 62
     2
100
AcDbLine
 10
18818.96923489333
 20
-1064.653961075265
 30
0.0
 11
18807.54405083492
 21
-1056.653961073266
 31
0.0
  0
LINE
  5
1914F
330
1F
100
AcDbEntity
  8
0
  6
Continuous
 62
     2
100
AcDbLine
 10
18730.14464976664
 20
-1002.458316988265
 30
0.0
 11
18721.31094155141
 21
-996.2728879062671
 31
0.0
  0
LINE
  5
19150
330
1F
100
AcDbEntity
  8
0
  6
Continuous
 62
     7
100
AcDbLine
 10
18678.35733520585
 20
-734.8940125192607
 30
0.0
 11
18685.82735173644
 21
-711.6539610695619
 31
0.0
  0
LINE
  5
19151
330
1F
100
AcDbEntity
  8
0
  6
Continuous
 62
     2
100
AcDbLine
 10
18695.82735173894
 20
-726.3280825975689
 30
0.0
 11
18682.50147325992
 21
-739.6539610765644
 31
0.0
  0
LINE
  5
19152
330
1F
100
AcDbEntity
  8
0
  6
Continuous
 62
     2
100
AcDbLine
 10
18710.35071566901
 20
-726.6539610796642
 30
0.0
 11
18702.35071566703
 21
-734.6539610689619
 31
0.0
  0
LINE
  5
19153
330
1F
100
AcDbEntity
  8
0
  6
Continuous
 62
     2
100
AcDbLine
 10
18702.01891622902
 20
-734.9857605069689
 30
0.0
 11
18697.35071567213
 21
-739.6539610765644
 31
0.0
  0
LINE
  5
19154
330
1F
100
AcDbEntity
  8
0
  6
Continuous
 62
     2
100
AcDbLine
 10
18725.19995806852
 20
-726.6539610796642
 30
0.0
 11
18717.19995806654
 21
-734.6539610689619
 31
0.0
  0
LINE
  5
19155
330
1F
100
AcDbEntity
  8
0
  6
Continuous
 62
     2
100
AcDbLine
 10
18715.06181133952
 20
-736.7921078086649
 30
0.0
 11
18713.79386213552
 21
-738.0600569999644
 31
0.0
  0
LINE
  5
19156
330
1F
100
AcDbEntity
  8
0
  6
Continuous
 62
     7
100
AcDbLine
 10
18954.54871445771
 20
-586.8327638366677
 30
0.0
 11
18953.89746273763
 21
-587.1979417321667
 31
0.0
  0
LINE
  5
19157
330
1F
100
AcDbEntity
  8
0
  6
Continuous
 62
     2
100
AcDbLine
 10
18834.67202594132
 20
-1064.653961075265
 30
0.0
 11
18823.24684188294
 21
-1056.653961073266
 31
0.0
  0
LINE
  5
19158
330
1F
100
AcDbEntity
  8
0
  6
Continuous
 62
     2
100
AcDbLine
 10
18728.82386899441
 20
-990.5382836782614
 30
0.0
 11
18720.25202724813
 21
-984.5362154690691
 31
0.0
  0
LINE
  5
19159
330
1F
100
AcDbEntity
  8
0
  6
Continuous
 62
     2
100
AcDbLine
 10
18850.37481697664
 20
-1064.653961075265
 30
0.0
 11
18838.94963293093
 21
-1056.653961073266
 31
0.0
  0
LINE
  5
1915A
330
1F
100
AcDbEntity
  8
0
  6
Continuous
 62
     2
100
AcDbLine
 10
18727.76506827993
 20
-978.8016907684655
 30
0.0
 11
18719.19311293214
 21
-972.7995430191656
 31
0.0
  0
LINE
  5
1915B
330
1F
100
AcDbEntity
  8
0
  6
Continuous
 62
     2
100
AcDbLine
 10
18866.07760802463
 20
-1064.653961075265
 30
0.0
 11
18854.65242396621
 21
-1056.653961073266
 31
0.0
  0
LINE
  5
1915C
330
1F
100
AcDbEntity
  8
0
  6
Continuous
 62
     2
100
AcDbLine
 10
18726.70626755272
 20
-967.0650978713661
 30
0.0
 11
18718.13419861612
 21
-961.0628705819676
 31
0.0
  0
LINE
  5
1915D
330
1F
100
AcDbEntity
  8
0
  6
Continuous
 62
     7
100
AcDbLine
 10
18678.35733520585
 20
-904.4139096357632
 30
0.0
 11
18685.82735173644
 21
-927.65396107277
 31
0.0
  0
LINE
  5
1915E
330
1F
100
AcDbEntity
  8
0
  6
Continuous
 62
     7
100
AcDbLine
 10
18678.35733520585
 20
-904.4139096357632
 30
0.0
 11
18678.35733520585
 21
-734.8940125192607
 31
0.0
  0
LINE
  5
1915F
330
1F
100
AcDbEntity
  8
0
  6
Continuous
 62
     7
100
AcDbLine
 10
18681.82715916531
 20
-899.6539610784639
 30
0.0
 11
18681.82715916531
 21
-739.6539610765644
 31
0.0
  0
LINE
  5
19160
330
1F
100
AcDbEntity
  8
0
  6
Continuous
 62
     7
100
AcDbLine
 10
18695.82735173894
 20
-940.6539610696658
 30
0.0
 11
18695.82735173894
 21
-912.6539610753644
 31
0.0
  0
LINE
  5
19161
330
1F
100
AcDbEntity
  8
0
  6
Continuous
 62
     7
100
AcDbLine
 10
18695.82735173894
 20
-726.6539610796642
 30
0.0
 11
18695.82735173894
 21
-658.6539610753643
 31
0.0
  0
LINE
  5
19162
330
1F
100
AcDbEntity
  8
0
  6
Continuous
 62
     7
100
AcDbLine
 10
18703.82735174093
 20
-668.6539610778639
 30
0.0
 11
18703.82735174093
 21
-714.6539610766637
 31
0.0
  0
LINE
  5
19163
330
1F
100
AcDbEntity
  8
0
  6
Continuous
 62
     7
100
AcDbLine
 10
18703.82735174093
 20
-924.6539610783647
 30
0.0
 11
18703.82735174093
 21
-930.6539610798626
 31
0.0
  0
LINE
  5
19164
330
1F
100
AcDbEntity
  8
AM_4
100
AcDbLine
 10
18704.71410309162
 20
-899.6539610784639
 30
0.0
 11
18704.71410309162
 21
-739.6539610765644
 31
0.0
  0
LINE
  5
19165
330
1F
100
AcDbEntity
  8
AM_4
100
AcDbLine
 10
18705.82735174142
 20
-904.6539610733654
 30
0.0
 11
18705.82735174142
 21
-734.6539610689619
 31
0.0
  0
LINE
  5
19166
330
1F
100
AcDbEntity
  8
0
  6
Continuous
 62
     2
100
AcDbLine
 10
18740.04920048071
 20
-726.6539610796642
 30
0.0
 11
18732.04920047872
 21
-734.6539610689619
 31
0.0
  0
LINE
  5
19167
330
1F
100
AcDbEntity
  8
0
  6
Continuous
 62
     2
100
AcDbLine
 10
18731.90855401123
 20
-734.7946075364618
 30
0.0
 11
18730.64060481992
 21
-736.0625567277661
 31
0.0
  0
LINE
  5
19168
330
1F
100
AcDbEntity
  8
0
  6
Continuous
 62
     2
100
AcDbLine
 10
18728.10470643733
 20
-738.59845511037
 30
0.0
 11
18727.04920047113
 21
-739.6539610765644
 31
0.0
  0
LINE
  5
19169
330
1F
100
AcDbEntity
  8
0
  6
Continuous
 62
     2
100
AcDbLine
 10
18746.82735174534
 20
-734.7250522145627
 30
0.0
 11
18741.89844288332
 21
-739.6539610765644
 31
0.0
  0
LINE
  5
1916A
330
1F
100
AcDbEntity
  8
0
  6
Continuous
 62
     2
100
AcDbLine
 10
18881.78039907264
 20
-1064.653961075265
 30
0.0
 11
18870.35521501422
 21
-1056.653961073266
 31
0.0
  0
LINE
  5
1916B
330
1F
100
AcDbEntity
  8
0
  6
Continuous
 62
     2
100
AcDbLine
 10
18725.64746682552
 20
-955.3285049615658
 30
0.0
 11
18717.07528430013
 21
-949.3261981320594
 31
0.0
  0
LINE
  5
1916C
330
1F
100
AcDbEntity
  8
0
  6
Continuous
 62
     2
100
AcDbLine
 10
18707.54634224551
 20
-942.6539610701665
 30
0.0
 11
18695.82735173894
 21
-934.4482355842608
 31
0.0
  0
LINE
  5
1916D
330
1F
100
AcDbEntity
  8
0
  6
Continuous
 62
     2
100
AcDbLine
 10
19021.32735174092
 20
-1151.370576618066
 30
0.0
 11
19013.32735173894
 21
-1145.768916307563
 31
0.0
  0
LINE
  5
1916E
330
1F
100
AcDbEntity
  8
0
  6
Continuous
 62
     2
100
AcDbLine
 10
18897.48319010792
 20
-1064.653961075265
 30
0.0
 11
18886.05800604953
 21
-1056.653961073266
 31
0.0
  0
LINE
  5
1916F
330
1F
100
AcDbEntity
  8
0
  6
Continuous
 62
     2
100
AcDbLine
 10
18724.05745955342
 20
-943.2199572203648
 30
0.0
 11
18711.82394923512
 21
-934.6539610808642
 31
0.0
  0
LINE
  5
19170
330
1F
100
AcDbEntity
  8
0
  6
Continuous
 62
     2
100
AcDbLine
 10
18703.82735174093
 20
-929.0546832268635
 30
0.0
 11
18695.82735173894
 21
-923.4530229290662
 31
0.0
  0
LINE
  5
19171
330
1F
100
AcDbEntity
  8
0
  6
Continuous
 62
     2
100
AcDbLine
 10
19021.32735174092
 20
-1140.375363950161
 30
0.0
 11
19013.32735173894
 21
-1134.773703652364
 31
0.0
  0
LINE
  5
19172
330
1F
100
AcDbEntity
  8
0
  6
Continuous
 62
     2
100
AcDbLine
 10
18913.18598115594
 20
-1064.653961075265
 30
0.0
 11
18901.76079709753
 21
-1056.653961073266
 31
0.0
  0
LINE
  5
19173
330
1F
100
AcDbEntity
  8
0
  6
Continuous
 62
     2
100
AcDbLine
 10
18707.59786109092
 20
-920.6996096398643
 30
0.0
 11
18696.68481978524
 21
-913.0582158548664
 31
0.0
  0
LINE
  5
19174
330
1F
100
AcDbEntity
  8
0
  6
Continuous
 62
     2
100
AcDbLine
 10
19021.32735174092
 20
-1129.380151294967
 30
0.0
 11
19013.32735173894
 21
-1123.778490984464
 31
0.0
  0
LINE
  5
19175
330
1F
100
AcDbEntity
  8
0
  6
Continuous
 62
     2
100
AcDbLine
 10
18928.88877219121
 20
-1064.653961075265
 30
0.0
 11
18917.46358814554
 21
-1056.653961073266
 31
0.0
  0
LINE
  5
19176
330
1F
100
AcDbEntity
  8
0
  6
Continuous
 62
     2
100
AcDbLine
 10
18723.23545922892
 20
-920.6539610773676
 30
0.0
 11
18711.81027517053
 21
-912.6539610753644
 31
0.0
  0
LINE
  5
19177
330
1F
100
AcDbEntity
  8
0
  6
Continuous
 62
     7
100
AcDbLine
 10
18707.82735174193
 20
-664.6539610768622
 30
0.0
 11
18707.82735174193
 21
-718.6539610776653
 31
0.0
  0
LINE
  5
19178
330
1F
100
AcDbEntity
  8
0
  6
Continuous
 62
     7
100
AcDbLine
 10
18707.82735174193
 20
-920.6539610773676
 30
0.0
 11
18707.82735174193
 21
-934.6539610808642
 31
0.0
  0
LINE
  5
19179
330
1F
100
AcDbEntity
  8
AM_4
100
AcDbLine
 10
18708.71410307994
 20
-899.6539610784639
 30
0.0
 11
18708.71410307994
 21
-739.6539610765644
 31
0.0
  0
LINE
  5
1917A
330
1F
100
AcDbEntity
  8
AM_4
100
AcDbLine
 10
18710.71410308042
 20
-899.6539610784639
 30
0.0
 11
18710.71410308042
 21
-739.6539610765644
 31
0.0
  0
LINE
  5
1917B
330
1F
100
AcDbEntity
  8
AM_4
100
AcDbLine
 10
18711.82735174292
 20
-904.6539610733654
 30
0.0
 11
18711.82735174292
 21
-734.6539610689619
 31
0.0
  0
LINE
  5
1917C
330
1F
100
AcDbEntity
  8
AM_4
100
AcDbLine
 10
18714.71410308143
 20
-899.6539610784639
 30
0.0
 11
18714.71410308143
 21
-739.6539610765644
 31
0.0
  0
LINE
  5
1917D
330
1F
100
AcDbEntity
  8
AM_4
100
AcDbLine
 10
18716.71410308192
 20
-899.6539610784639
 30
0.0
 11
18716.71410308192
 21
-739.6539610765644
 31
0.0
  0
LINE
  5
1917E
330
1F
100
AcDbEntity
  8
AM_4
100
AcDbLine
 10
18717.82735174441
 20
-904.6539610733654
 30
0.0
 11
18717.82735174441
 21
-734.6539610689619
 31
0.0
  0
LINE
  5
1917F
330
1F
100
AcDbEntity
  8
0
  6
Continuous
 62
     7
100
AcDbLine
 10
18718.77108575992
 20
-601.5122379574668
 30
0.0
 11
18718.77108575992
 21
-631.5122379649608
 31
0.0
  0
LINE
  5
19180
330
1F
100
AcDbEntity
  8
AM_4
100
AcDbLine
 10
18720.71410308294
 20
-899.6539610784639
 30
0.0
 11
18720.71410308294
 21
-739.6539610765644
 31
0.0
  0
LINE
  5
19181
330
1F
100
AcDbEntity
  8
AM_4
100
AcDbLine
 10
18722.71410308343
 20
-899.6539610784639
 30
0.0
 11
18722.71410308343
 21
-739.6539610765644
 31
0.0
  0
LINE
  5
19182
330
1F
100
AcDbEntity
  8
AM_4
100
AcDbLine
 10
18723.82735174592
 20
-904.6539610733654
 30
0.0
 11
18723.82735174592
 21
-734.6539610689619
 31
0.0
  0
LINE
  5
19183
330
1F
100
AcDbEntity
  8
AM_4
100
AcDbLine
 10
18726.71410308444
 20
-899.6539610784639
 30
0.0
 11
18726.71410308444
 21
-739.6539610765644
 31
0.0
  0
LINE
  5
19184
330
1F
100
AcDbEntity
  8
AM_4
100
AcDbLine
 10
18728.71410308492
 20
-899.6539610784639
 30
0.0
 11
18728.71410308492
 21
-739.6539610765644
 31
0.0
  0
LINE
  5
19185
330
1F
100
AcDbEntity
  8
AM_4
100
AcDbLine
 10
18729.82735173471
 20
-904.6539610733654
 30
0.0
 11
18729.82735173471
 21
-734.6539610689619
 31
0.0
  0
LINE
  5
19186
330
1F
100
AcDbEntity
  8
0
  6
Continuous
 62
     7
100
AcDbLine
 10
18730.82735174134
 20
-640.689985497165
 30
0.0
 11
18730.82735174134
 21
-651.6539610799618
 31
0.0
  0
LINE
  5
19187
330
1F
100
AcDbEntity
  8
AM_4
100
AcDbLine
 10
18732.71410308593
 20
-899.6539610784639
 30
0.0
 11
18732.71410308593
 21
-739.6539610765644
 31
0.0
  0
LINE
  5
19188
330
1F
100
AcDbEntity
  8
AM_4
100
AcDbLine
 10
18734.71410308643
 20
-899.6539610784639
 30
0.0
 11
18734.71410308643
 21
-739.6539610765644
 31
0.0
  0
LINE
  5
19189
330
1F
100
AcDbEntity
  8
AM_4
100
AcDbLine
 10
18735.82735173622
 20
-904.6539610733654
 30
0.0
 11
18735.82735173622
 21
-734.6539610689619
 31
0.0
  0
LINE
  5
1918A
330
1F
100
AcDbEntity
  8
AM_4
100
AcDbLine
 10
18738.71410308744
 20
-899.6539610784639
 30
0.0
 11
18738.71410308744
 21
-739.6539610765644
 31
0.0
  0
LINE
  5
1918B
330
1F
100
AcDbEntity
  8
0
  6
Continuous
 62
     7
100
AcDbLine
 10
18681.82715916531
 20
-899.6539610784639
 30
0.0
 11
18678.35733520585
 21
-904.4139096357632
 31
0.0
  0
LINE
  5
1918C
330
1F
100
AcDbEntity
  8
0
  6
Continuous
 62
     7
100
AcDbLine
 10
18697.82735173943
 20
-942.6539610701665
 30
0.0
 11
18711.90521313154
 21
-942.6539610701665
 31
0.0
  0
LINE
  5
1918D
330
1F
100
AcDbEntity
  8
0
  6
Continuous
 62
     7
100
AcDbLine
 10
18707.82735174193
 20
-934.6539610808642
 30
0.0
 11
18711.90521313154
 21
-934.6539610808642
 31
0.0
  0
LINE
  5
1918E
330
1F
100
AcDbEntity
  8
0
  6
Continuous
 62
     7
100
AcDbLine
 10
18685.82735173644
 20
-927.65396107277
 30
0.0
 11
18695.82735173894
 21
-927.65396107277
 31
0.0
  0
LINE
  5
1918F
330
1F
100
AcDbEntity
  8
0
  6
Continuous
 62
     7
100
AcDbLine
 10
18788.82735174314
 20
-920.6539610773676
 30
0.0
 11
18707.82735174193
 21
-920.6539610773676
 31
0.0
  0
LINE
  5
19190
330
1F
100
AcDbEntity
  8
0
  6
Continuous
 62
     7
100
AcDbLine
 10
18695.82735173894
 20
-912.6539610753644
 30
0.0
 11
18788.82735174314
 21
-912.6539610753644
 31
0.0
  0
LINE
  5
19191
330
1F
100
AcDbEntity
  8
0
  6
Continuous
 62
     2
100
AcDbLine
 10
19021.32735174092
 20
-1118.384938639763
 30
0.0
 11
19013.32735173894
 21
-1112.783278329264
 31
0.0
  0
LINE
  5
19192
330
1F
100
AcDbEntity
  8
0
  6
Continuous
 62
     2
100
AcDbLine
 10
18944.59156323923
 20
-1064.653961075265
 30
0.0
 11
18933.16637918082
 21
-1056.653961073266
 31
0.0
  0
LINE
  5
19193
330
1F
100
AcDbEntity
  8
0
  6
Continuous
 62
     2
100
AcDbLine
 10
18738.93825026422
 20
-920.6539610773676
 30
0.0
 11
18727.51306621853
 21
-912.6539610753644
 31
0.0
  0
LINE
  5
19194
330
1F
100
AcDbEntity
  8
0
  6
Continuous
 62
     2
100
AcDbLine
 10
19021.32735174092
 20
-1107.389725971867
 30
0.0
 11
19013.32735173894
 21
-1101.788065674061
 31
0.0
  0
LINE
  5
19195
330
1F
100
AcDbEntity
  8
0
  6
Continuous
 62
     2
100
AcDbLine
 10
18960.29435428722
 20
-1064.653961075265
 30
0.0
 11
18948.86917022883
 21
-1056.653961073266
 31
0.0
  0
LINE
  5
19196
330
1F
100
AcDbEntity
  8
0
  6
Continuous
 62
     2
100
AcDbLine
 10
18754.64104131221
 20
-920.6539610773676
 30
0.0
 11
18743.21585725383
 21
-912.6539610753644
 31
0.0
  0
LINE
  5
19197
330
1F
100
AcDbEntity
  8
0
  6
Continuous
 62
     2
100
AcDbLine
 10
19021.32735174092
 20
-1096.394513316664
 30
0.0
 11
19013.32735173894
 21
-1090.792853006166
 31
0.0
  0
LINE
  5
19198
330
1F
100
AcDbEntity
  8
0
  6
Continuous
 62
     2
100
AcDbLine
 10
18975.99714532254
 20
-1064.653961075265
 30
0.0
 11
18964.57196127682
 21
-1056.653961073266
 31
0.0
  0
LINE
  5
19199
330
1F
100
AcDbEntity
  8
0
  6
Continuous
 62
     2
100
AcDbLine
 10
18770.34383236022
 20
-920.6539610773676
 30
0.0
 11
18758.91864830182
 21
-912.6539610753644
 31
0.0
  0
LINE
  5
1919A
330
1F
100
AcDbEntity
  8
0
  6
Continuous
 62
     2
100
AcDbLine
 10
19021.32735174092
 20
-1085.399300661465
 30
0.0
 11
19013.32735173894
 21
-1079.797640350962
 31
0.0
  0
LINE
  5
1919B
330
1F
100
AcDbEntity
  8
0
  6
Continuous
 62
     2
100
AcDbLine
 10
18991.69993637053
 20
-1064.653961075265
 30
0.0
 11
18980.27475231212
 21
-1056.653961073266
 31
0.0
  0
LINE
  5
1919C
330
1F
100
AcDbEntity
  8
0
  6
Continuous
 62
     2
100
AcDbLine
 10
18786.0466233955
 20
-920.6539610773676
 30
0.0
 11
18774.62143934983
 21
-912.6539610753644
 31
0.0
  0
LINE
  5
1919D
330
1F
100
AcDbEntity
  8
0
  6
Continuous
 62
     7
100
AcDbLine
 10
18746.82735174534
 20
-912.6539610753644
 30
0.0
 11
18746.82735174534
 21
-726.6539610796642
 31
0.0
  0
LINE
  5
1919E
330
1F
100
AcDbEntity
  8
0
  6
Continuous
 62
     7
100
AcDbLine
 10
18701.82735174044
 20
-904.6539610733654
 30
0.0
 11
18704.71410309162
 21
-899.6539610784639
 31
0.0
  0
LINE
  5
1919F
330
1F
100
AcDbEntity
  8
0
  6
Continuous
 62
     7
100
AcDbLine
 10
18705.82735174142
 20
-904.6539610733654
 30
0.0
 11
18708.71410307994
 21
-899.6539610784639
 31
0.0
  0
LINE
  5
191A0
330
1F
100
AcDbEntity
  8
0
  6
Continuous
 62
     7
100
AcDbLine
 10
18707.82735174193
 20
-904.6539610733654
 30
0.0
 11
18710.71410308042
 21
-899.6539610784639
 31
0.0
  0
LINE
  5
191A1
330
1F
100
AcDbEntity
  8
0
  6
Continuous
 62
     7
100
AcDbLine
 10
18711.82735174292
 20
-904.6539610733654
 30
0.0
 11
18714.71410308143
 21
-899.6539610784639
 31
0.0
  0
LINE
  5
191A2
330
1F
100
AcDbEntity
  8
0
  6
Continuous
 62
     7
100
AcDbLine
 10
18713.82735174344
 20
-904.6539610733654
 30
0.0
 11
18716.71410308192
 21
-899.6539610784639
 31
0.0
  0
LINE
  5
191A3
330
1F
100
AcDbEntity
  8
0
  6
Continuous
 62
     7
100
AcDbLine
 10
18717.82735174441
 20
-904.6539610733654
 30
0.0
 11
18720.71410308294
 21
-899.6539610784639
 31
0.0
  0
LINE
  5
191A4
330
1F
100
AcDbEntity
  8
0
  6
Continuous
 62
     7
100
AcDbLine
 10
18719.82735174491
 20
-904.6539610733654
 30
0.0
 11
18722.71410308343
 21
-899.6539610784639
 31
0.0
  0
LINE
  5
191A5
330
1F
100
AcDbEntity
  8
0
  6
Continuous
 62
     7
100
AcDbLine
 10
18723.82735174592
 20
-904.6539610733654
 30
0.0
 11
18726.71410308444
 21
-899.6539610784639
 31
0.0
  0
LINE
  5
191A6
330
1F
100
AcDbEntity
  8
0
  6
Continuous
 62
     7
100
AcDbLine
 10
18725.82735174642
 20
-904.6539610733654
 30
0.0
 11
18728.71410308492
 21
-899.6539610784639
 31
0.0
  0
LINE
  5
191A7
330
1F
100
AcDbEntity
  8
0
  6
Continuous
 62
     7
100
AcDbLine
 10
18729.82735173471
 20
-904.6539610733654
 30
0.0
 11
18732.71410308593
 21
-899.6539610784639
 31
0.0
  0
LINE
  5
191A8
330
1F
100
AcDbEntity
  8
0
  6
Continuous
 62
     7
100
AcDbLine
 10
18731.82735173523
 20
-904.6539610733654
 30
0.0
 11
18734.71410308643
 21
-899.6539610784639
 31
0.0
  0
LINE
  5
191A9
330
1F
100
AcDbEntity
  8
0
  6
Continuous
 62
     7
100
AcDbLine
 10
18735.82735173622
 20
-904.6539610733654
 30
0.0
 11
18738.71410308744
 21
-899.6539610784639
 31
0.0
  0
LWPOLYLINE
  5
191AA
330
1F
100
AcDbEntity
  8
0
  6
Continuous
 62
     7
100
AcDbPolyline
 90
        3
 70
     0
 43
0.0
 10
18953.89746273763
 20
-587.1979417321667
 10
18953.41278298564
 20
-587.8004316371616
 10
18953.25571875824
 20
-588.1986272974631
  0
LINE
  5
191AB
330
1F
100
AcDbEntity
  8
0
  6
Continuous
 62
     2
100
AcDbLine
 10
18685.84313971602
 20
-899.6539610784639
 30
0.0
 11
18679.02038125082
 21
-906.4767195436633
 31
0.0
  0
LINE
  5
191AC
330
1F
100
AcDbEntity
  8
0
  6
Continuous
 62
     2
100
AcDbLine
 10
18700.69238211554
 20
-899.6539610784639
 30
0.0
 11
18682.63235912974
 21
-917.7139840642679
 31
0.0
  0
LINE
  5
191AD
330
1F
100
AcDbEntity
  8
0
  6
Continuous
 62
     7
100
AcDbLine
 10
18701.82735174044
 20
-904.6539610733654
 30
0.0
 11
18705.82735174142
 21
-904.6539610733654
 31
0.0
  0
LINE
  5
191AE
330
1F
100
AcDbEntity
  8
0
  6
Continuous
 62
     7
100
AcDbLine
 10
18707.82735174193
 20
-904.6539610733654
 30
0.0
 11
18711.82735174292
 21
-904.6539610733654
 31
0.0
  0
LINE
  5
191AF
330
1F
100
AcDbEntity
  8
0
  6
Continuous
 62
     7
100
AcDbLine
 10
18713.82735174344
 20
-904.6539610733654
 30
0.0
 11
18717.82735174441
 21
-904.6539610733654
 31
0.0
  0
LINE
  5
191B0
330
1F
100
AcDbEntity
  8
0
  6
Continuous
 62
     7
100
AcDbLine
 10
18719.82735174491
 20
-904.6539610733654
 30
0.0
 11
18723.82735174592
 21
-904.6539610733654
 31
0.0
  0
LINE
  5
191B1
330
1F
100
AcDbEntity
  8
0
  6
Continuous
 62
     7
100
AcDbLine
 10
18725.82735174642
 20
-904.6539610733654
 30
0.0
 11
18729.82735173471
 21
-904.6539610733654
 31
0.0
  0
LINE
  5
191B2
330
1F
100
AcDbEntity
  8
0
  6
Continuous
 62
     7
100
AcDbLine
 10
18731.82735173523
 20
-904.6539610733654
 30
0.0
 11
18735.82735173622
 21
-904.6539610733654
 31
0.0
  0
LINE
  5
191B3
330
1F
100
AcDbEntity
  8
0
  6
Continuous
 62
     7
100
AcDbLine
 10
18681.82715916531
 20
-899.6539610784639
 30
0.0
 11
18704.71410309162
 21
-899.6539610784639
 31
0.0
  0
LINE
  5
191B4
330
1F
100
AcDbEntity
  8
0
  6
Continuous
 62
     7
100
AcDbLine
 10
18708.71410307994
 20
-899.6539610784639
 30
0.0
 11
18710.71410308042
 21
-899.6539610784639
 31
0.0
  0
LINE
  5
191B5
330
1F
100
AcDbEntity
  8
0
  6
Continuous
 62
     7
100
AcDbLine
 10
18714.71410308143
 20
-899.6539610784639
 30
0.0
 11
18716.71410308192
 21
-899.6539610784639
 31
0.0
  0
LINE
  5
191B6
330
1F
100
AcDbEntity
  8
0
  6
Continuous
 62
     7
100
AcDbLine
 10
18720.71410308294
 20
-899.6539610784639
 30
0.0
 11
18722.71410308343
 21
-899.6539610784639
 31
0.0
  0
LINE
  5
191B7
330
1F
100
AcDbEntity
  8
0
  6
Continuous
 62
     7
100
AcDbLine
 10
18726.71410308444
 20
-899.6539610784639
 30
0.0
 11
18728.71410308492
 21
-899.6539610784639
 31
0.0
  0
LINE
  5
191B8
330
1F
100
AcDbEntity
  8
0
  6
Continuous
 62
     7
100
AcDbLine
 10
18732.71410308593
 20
-899.6539610784639
 30
0.0
 11
18734.71410308643
 21
-899.6539610784639
 31
0.0
  0
LINE
  5
191B9
330
1F
100
AcDbEntity
  8
0
  6
Continuous
 62
     7
100
AcDbLine
 10
18738.71410308744
 20
-899.6539610784639
 30
0.0
 11
18746.82735174534
 21
-899.6539610784639
 31
0.0
  0
LINE
  5
191BA
330
1F
100
AcDbEntity
  8
0
  6
Continuous
 62
     2
100
AcDbLine
 10
19021.32735174092
 20
-1074.40408799356
 30
0.0
 11
19012.87284290704
 21
-1068.484177176562
 31
0.0
  0
LINE
  5
191BB
330
1F
100
AcDbEntity
  8
0
  6
Continuous
 62
     2
100
AcDbLine
 10
19007.42476101681
 20
-1064.669389162263
 30
0.0
 11
18995.97754336012
 21
-1056.653961073266
 31
0.0
  0
LINE
  5
191BC
330
1F
100
AcDbEntity
  8
0
  6
Continuous
 62
     2
100
AcDbLine
 10
19167.34163010805
 20
-1154.653961072364
 30
0.0
 11
19165.32735173882
 21
-1153.243548183261
 31
0.0
  0
LINE
  5
191BD
330
1F
100
AcDbEntity
  8
0
  6
Continuous
 62
     2
100
AcDbLine
 10
19173.32735174084
 20
-1147.849995825864
 30
0.0
 11
19165.32735173882
 21
-1142.248335515365
 31
0.0
  0
LINE
  5
191BE
330
1F
100
AcDbEntity
  8
0
  6
Continuous
 62
     7
100
AcDbLine
 10
18681.82715916531
 20
-739.6539610765644
 30
0.0
 11
18678.35733520585
 21
-734.8940125192607
 31
0.0
  0
LINE
  5
191BF
330
1F
100
AcDbEntity
  8
0
  6
Continuous
 62
     7
100
AcDbLine
 10
18701.82735174044
 20
-734.6539610689619
 30
0.0
 11
18704.71410309162
 21
-739.6539610765644
 31
0.0
  0
LINE
  5
191C0
330
1F
100
AcDbEntity
  8
0
  6
Continuous
 62
     7
100
AcDbLine
 10
18705.82735174142
 20
-734.6539610689619
 30
0.0
 11
18708.71410307994
 21
-739.6539610765644
 31
0.0
  0
LINE
  5
191C1
330
1F
100
AcDbEntity
  8
0
  6
Continuous
 62
     7
100
AcDbLine
 10
18780.82735174112
 20
-746.6539610719669
 30
0.0
 11
18780.82735174112
 21
-726.6539610796642
 31
0.0
  0
LINE
  5
191C2
330
1F
100
AcDbEntity
  8
0
  6
Continuous
 62
     7
100
AcDbLine
 10
18788.82735174314
 20
-920.6539610773676
 30
0.0
 11
18788.82735174314
 21
-718.6539610776653
 31
0.0
  0
LINE
  5
191C3
330
1F
100
AcDbEntity
  8
0
  6
Continuous
 62
     2
100
AcDbLine
 10
18715.54162452772
 20
-899.6539610784639
 30
0.0
 11
18713.58368777812
 21
-901.6118978280657
 31
0.0
  0
LINE
  5
191C4
330
1F
100
AcDbEntity
  8
0
  6
Continuous
 62
     2
100
AcDbLine
 10
18710.54162452012
 20
-904.6539610733654
 30
0.0
 11
18702.54162453083
 21
-912.6539610753644
 31
0.0
  0
LINE
  5
191C5
330
1F
100
AcDbEntity
  8
0
  6
Continuous
 62
     2
100
AcDbLine
 10
18695.82735173894
 20
-919.368233854561
 30
0.0
 11
18687.54162452074
 21
-927.65396107277
 31
0.0
  0
LINE
  5
191C6
330
1F
100
AcDbEntity
  8
0
  6
Continuous
 62
     2
100
AcDbLine
 10
18726.42360107461
 20
-903.6212269310667
 30
0.0
 11
18717.39086693033
 21
-912.6539610753644
 31
0.0
  0
LINE
  5
191C7
330
1F
100
AcDbEntity
  8
0
  6
Continuous
 62
     2
100
AcDbLine
 10
18745.24010933942
 20
-899.6539610784639
 30
0.0
 11
18732.24010932983
 21
-912.6539610753644
 31
0.0
  0
LINE
  5
191C8
330
1F
100
AcDbEntity
  8
0
  6
Continuous
 62
     2
100
AcDbLine
 10
19173.32735174084
 20
-1136.854783170664
 30
0.0
 11
19165.32735173882
 21
-1131.253122860162
 31
0.0
  0
LINE
  5
191C9
330
1F
100
AcDbEntity
  8
0
  6
Continuous
 62
     2
100
AcDbLine
 10
19173.32735174084
 20
-1125.859570502764
 30
0.0
 11
19165.32735173882
 21
-1120.257910204967
 31
0.0
  0
LINE
  5
191CA
330
1F
100
AcDbEntity
  8
0
  6
Continuous
 62
     2
100
AcDbLine
 10
19173.32735174084
 20
-1114.864357847565
 30
0.0
 11
19165.32735173882
 21
-1109.262697537062
 31
0.0
  0
LINE
  5
191CB
330
1F
100
AcDbEntity
  8
0
  6
Continuous
 62
     2
100
AcDbLine
 10
19173.32735174084
 20
-1103.869145192362
 30
0.0
 11
19165.32735173882
 21
-1098.267484881868
 31
0.0
  0
LINE
  5
191CC
330
1F
100
AcDbEntity
  8
0
  6
Continuous
 62
     7
100
AcDbLine
 10
18707.82735174193
 20
-734.6539610689619
 30
0.0
 11
18710.71410308042
 21
-739.6539610765644
 31
0.0
  0
LINE
  5
191CD
330
1F
100
AcDbEntity
  8
0
  6
Continuous
 62
     7
100
AcDbLine
 10
18711.82735174292
 20
-734.6539610689619
 30
0.0
 11
18714.71410308143
 21
-739.6539610765644
 31
0.0
  0
LINE
  5
191CE
330
1F
100
AcDbEntity
  8
0
  6
Continuous
 62
     7
100
AcDbLine
 10
18713.82735174344
 20
-734.6539610689619
 30
0.0
 11
18716.71410308192
 21
-739.6539610765644
 31
0.0
  0
LINE
  5
191CF
330
1F
100
AcDbEntity
  8
0
  6
Continuous
 62
     7
100
AcDbLine
 10
18717.82735174441
 20
-734.6539610689619
 30
0.0
 11
18720.71410308294
 21
-739.6539610765644
 31
0.0
  0
LINE
  5
191D0
330
1F
100
AcDbEntity
  8
0
  6
Continuous
 62
     7
100
AcDbLine
 10
18719.82735174491
 20
-734.6539610689619
 30
0.0
 11
18722.71410308343
 21
-739.6539610765644
 31
0.0
  0
LINE
  5
191D1
330
1F
100
AcDbEntity
  8
0
  6
Continuous
 62
     7
100
AcDbLine
 10
18723.82735174592
 20
-734.6539610689619
 30
0.0
 11
18726.71410308444
 21
-739.6539610765644
 31
0.0
  0
LINE
  5
191D2
330
1F
100
AcDbEntity
  8
0
  6
Continuous
 62
     7
100
AcDbLine
 10
18725.82735174642
 20
-734.6539610689619
 30
0.0
 11
18728.71410308492
 21
-739.6539610765644
 31
0.0
  0
LINE
  5
191D3
330
1F
100
AcDbEntity
  8
0
  6
Continuous
 62
     7
100
AcDbLine
 10
18729.82735173471
 20
-734.6539610689619
 30
0.0
 11
18732.71410308593
 21
-739.6539610765644
 31
0.0
  0
LINE
  5
191D4
330
1F
100
AcDbEntity
  8
0
  6
Continuous
 62
     7
100
AcDbLine
 10
18731.82735173523
 20
-734.6539610689619
 30
0.0
 11
18734.71410308643
 21
-739.6539610765644
 31
0.0
  0
LINE
  5
191D5
330
1F
100
AcDbEntity
  8
0
  6
Continuous
 62
     7
100
AcDbLine
 10
18735.82735173622
 20
-734.6539610689619
 30
0.0
 11
18738.71410308744
 21
-739.6539610765644
 31
0.0
  0
LINE
  5
191D6
330
1F
100
AcDbEntity
  8
0
  6
Continuous
 62
     7
100
AcDbLine
 10
18801.56832844554
 20
-592.3344904252626
 30
0.0
 11
18801.50463877103
 21
-591.17232020706
 31
0.0
  0
LINE
  5
191D7
330
1F
100
AcDbEntity
  8
0
  6
Continuous
 62
     7
100
AcDbLine
 10
19224.82735173785
 20
-811.6539610691649
 30
0.0
 11
19222.16732989254
 21
-811.6539610691649
 31
0.0
  0
LINE
  5
191D8
330
1F
100
AcDbEntity
  8
0
  6
Continuous
 62
     2
100
AcDbLine
 10
19173.32735174084
 20
-1092.873932524466
 30
0.0
 11
19165.32735173882
 21
-1087.27227222666
 31
0.0
  0
LINE
  5
191D9
330
1F
100
AcDbEntity
  8
0
  6
Continuous
 62
     2
100
AcDbLine
 10
19173.32735174084
 20
-1081.878719869263
 30
0.0
 11
19165.32735173882
 21
-1076.277059558764
 31
0.0
  0
LINE
  5
191DA
330
1F
100
AcDbEntity
  8
0
  6
Continuous
 62
     2
100
AcDbLine
 10
19173.32735174084
 20
-1070.883507214063
 30
0.0
 11
19166.25860673433
 21
-1065.933918675362
 31
0.0
  0
LINE
  5
191DB
330
1F
100
AcDbEntity
  8
0
  6
Continuous
 62
     2
100
AcDbLine
 10
19180.13342888301
 20
-1064.653961075265
 30
0.0
 11
19171.87865253001
 21
-1058.873904436264
 31
0.0
  0
LINE
  5
191DC
330
1F
100
AcDbEntity
  8
0
  6
Continuous
 62
     2
100
AcDbLine
 10
18697.25752934592
 20
-726.5406161958608
 30
0.0
 11
18696.26395702522
 21
-725.844909370368
 31
0.0
  0
LINE
  5
191DD
330
1F
100
AcDbEntity
  8
0
  6
Continuous
 62
     7
100
AcDbLine
 10
18909.19303816393
 20
-590.1826942208663
 30
0.0
 11
18909.19542582741
 21
-590.167634789464
 31
0.0
  0
LINE
  5
191DE
330
1F
100
AcDbEntity
  8
0
  6
Continuous
 62
     7
100
AcDbLine
 10
19212.06484350621
 20
-633.154444992967
 30
0.0
 11
19202.06484350373
 21
-640.689985497165
 31
0.0
  0
LINE
  5
191DF
330
1F
100
AcDbEntity
  8
0
  6
Continuous
 62
     2
100
AcDbLine
 10
19192.76338320143
 20
-1062.502337641666
 30
0.0
 11
19184.32058943171
 21
-1056.590629792767
 31
0.0
  0
LINE
  5
191E0
330
1F
100
AcDbEntity
  8
0
  6
Continuous
 62
     2
100
AcDbLine
 10
18713.12219365413
 20
-726.6539610796642
 30
0.0
 11
18695.82735173894
 21
-714.5439823913684
 31
0.0
  0
LINE
  5
191E1
330
1F
100
AcDbEntity
  8
0
  6
Continuous
 62
     2
100
AcDbLine
 10
19207.2545669571
 20
-1061.653961080864
 30
0.0
 11
19195.83933312012
 21
-1053.660928298863
 31
0.0
  0
LINE
  5
191E2
330
1F
100
AcDbEntity
  8
0
  6
Continuous
 62
     2
100
AcDbLine
 10
18728.82498468942
 20
-726.6539610796642
 30
0.0
 11
18717.39980064374
 21
-718.6539610776653
 31
0.0
  0
LINE
  5
191E3
330
1F
100
AcDbEntity
  8
0
  6
Continuous
 62
     2
100
AcDbLine
 10
18703.82735174093
 20
-709.1504300466676
 30
0.0
 11
18695.82735173894
 21
-703.5487697361648
 31
0.0
  0
LINE
  5
191E4
330
1F
100
AcDbEntity
  8
0
  6
Continuous
 62
     2
100
AcDbLine
 10
19222.95735799244
 20
-1061.653961080864
 30
0.0
 11
19211.53217394671
 21
-1053.653961078861
 31
0.0
  0
LINE
  5
191E5
330
1F
100
AcDbEntity
  8
0
  6
Continuous
 62
     2
100
AcDbLine
 10
18744.52777573742
 20
-726.6539610796642
 30
0.0
 11
18733.10259167903
 21
-718.6539610776653
 31
0.0
  0
LINE
  5
191E6
330
1F
100
AcDbEntity
  8
0
  6
Continuous
 62
     2
100
AcDbLine
 10
18703.82735174093
 20
-698.1552173787629
 30
0.0
 11
18695.82735173894
 21
-692.5535570809657
 31
0.0
  0
LINE
  5
191E7
330
1F
100
AcDbEntity
  8
0
  6
Continuous
 62
     2
100
AcDbLine
 10
19231.99659593374
 20
-1056.988090961263
 30
0.0
 11
19224.26329504272
 21
-1051.573175375066
 31
0.0
  0
LINE
  5
191E8
330
1F
100
AcDbEntity
  8
0
  6
Continuous
 62
     2
100
AcDbLine
 10
18788.7935269187
 20
-746.6539610719669
 30
0.0
 11
18780.82735174112
 21
-741.0759851692662
 31
0.0
  0
LINE
  5
191E9
330
1F
100
AcDbEntity
  8
0
  6
Continuous
 62
     2
100
AcDbLine
 10
18760.23056678541
 20
-726.6539610796642
 30
0.0
 11
18748.80538272702
 21
-718.6539610776653
 31
0.0
  0
LINE
  5
191EA
330
1F
100
AcDbEntity
  8
0
  6
Continuous
 62
     2
100
AcDbLine
 10
18703.82735174093
 20
-687.1600047235686
 30
0.0
 11
18695.82735173894
 21
-681.5583444130609
 31
0.0
  0
LINE
  5
191EB
330
1F
100
AcDbEntity
  8
0
  6
Continuous
 62
     7
100
AcDbLine
 10
18903.11972287853
 20
-590.3284747522604
 30
0.0
 11
18903.05701524422
 21
-587.3291701717667
 31
0.0
  0
LINE
  5
191EC
330
1F
100
AcDbEntity
  8
0
  6
Continuous
 62
     7
100
AcDbLine
 10
19138.44031036442
 20
-670.1659382291659
 30
0.0
 11
19200.82735174451
 21
-654.8250536074626
 31
0.0
  0
LINE
  5
191ED
330
1F
100
AcDbEntity
  8
0
  6
Continuous
 62
     7
100
AcDbLine
 10
18788.82735174314
 20
-746.6539610719669
 30
0.0
 11
18780.82735174112
 21
-746.6539610719669
 31
0.0
  0
LINE
  5
191EE
330
1F
100
AcDbEntity
  8
0
  6
Continuous
 62
     7
100
AcDbLine
 10
18681.82715916531
 20
-739.6539610765644
 30
0.0
 11
18704.71410309162
 21
-739.6539610765644
 31
0.0
  0
LINE
  5
191EF
330
1F
100
AcDbEntity
  8
0
  6
Continuous
 62
     7
100
AcDbLine
 10
18708.71410307994
 20
-739.6539610765644
 30
0.0
 11
18710.71410308042
 21
-739.6539610765644
 31
0.0
  0
LINE
  5
191F0
330
1F
100
AcDbEntity
  8
0
  6
Continuous
 62
     7
100
AcDbLine
 10
18714.71410308143
 20
-739.6539610765644
 30
0.0
 11
18716.71410308192
 21
-739.6539610765644
 31
0.0
  0
LINE
  5
191F1
330
1F
100
AcDbEntity
  8
0
  6
Continuous
 62
     7
100
AcDbLine
 10
18720.71410308294
 20
-739.6539610765644
 30
0.0
 11
18722.71410308343
 21
-739.6539610765644
 31
0.0
  0
LINE
  5
191F2
330
1F
100
AcDbEntity
  8
0
  6
Continuous
 62
     7
100
AcDbLine
 10
18726.71410308444
 20
-739.6539610765644
 30
0.0
 11
18728.71410308492
 21
-739.6539610765644
 31
0.0
  0
LINE
  5
191F3
330
1F
100
AcDbEntity
  8
0
  6
Continuous
 62
     7
100
AcDbLine
 10
18732.71410308593
 20
-739.6539610765644
 30
0.0
 11
18734.71410308643
 21
-739.6539610765644
 31
0.0
  0
LINE
  5
191F4
330
1F
100
AcDbEntity
  8
0
  6
Continuous
 62
     7
100
AcDbLine
 10
18738.71410308744
 20
-739.6539610765644
 30
0.0
 11
18746.82735174534
 21
-739.6539610765644
 31
0.0
  0
LINE
  5
191F5
330
1F
100
AcDbEntity
  8
0
  6
Continuous
 62
     2
100
AcDbLine
 10
19232.82735173983
 20
-1046.574579784265
 30
0.0
 11
19224.82735173785
 21
-1040.972919473767
 31
0.0
  0
LINE
  5
191F6
330
1F
100
AcDbEntity
  8
0
  6
Continuous
 62
     2
100
AcDbLine
 10
18788.82735174314
 20
-735.6824328118646
 30
0.0
 11
18780.82735174112
 21
-730.0807725140673
 31
0.0
  0
LINE
  5
191F7
330
1F
100
AcDbEntity
  8
0
  6
Continuous
 62
     2
100
AcDbLine
 10
18775.93335782071
 20
-726.6539610796642
 30
0.0
 11
18764.50817377502
 21
-718.6539610776653
 31
0.0
  0
LINE
  5
191F8
330
1F
100
AcDbEntity
  8
0
  6
Continuous
 62
     2
100
AcDbLine
 10
18703.82735174093
 20
-676.1647920683649
 30
0.0
 11
18695.82735173894
 21
-670.5631317578665
 31
0.0
  0
LINE
  5
191F9
330
1F
100
AcDbEntity
  8
0
  6
Continuous
 62
     2
100
AcDbLine
 10
19232.82735173983
 20
-1035.579367116365
 30
0.0
 11
19224.82735173785
 21
-1029.977706818563
 31
0.0
  0
LINE
  5
191FA
330
1F
100
AcDbEntity
  8
0
  6
Continuous
 62
     2
100
AcDbLine
 10
18788.82735174314
 20
-724.6872201566609
 30
0.0
 11
18780.21096481031
 21
-718.6539610776653
 31
0.0
  0
LINE
  5
191FB
330
1F
100
AcDbEntity
  8
0
  6
Continuous
 62
     2
100
AcDbLine
 10
18704.92409332445
 20
-665.9375261373634
 30
0.0
 11
18695.82735173894
 21
-659.5679191026629
 31
0.0
  0
LINE
  5
191FC
330
1F
100
AcDbEntity
  8
0
  6
Continuous
 62
     2
100
AcDbLine
 10
19232.82735173983
 20
-1024.584154461161
 30
0.0
 11
19224.82735173785
 21
-1018.982494150667
 31
0.0
  0
LINE
  5
191FD
330
1F
100
AcDbEntity
  8
0
  6
Continuous
 62
     2
100
AcDbLine
 10
18718.79376348954
 20
-664.6539610768622
 30
0.0
 11
18707.36857943115
 21
-656.6539610748634
 31
0.0
  0
LINE
  5
191FE
330
1F
100
AcDbEntity
  8
0
  6
Continuous
 62
     2
100
AcDbLine
 10
19232.82735173983
 20
-1013.588941805967
 30
0.0
 11
19224.82735173785
 21
-1007.987281495464
 31
0.0
  0
LINE
  5
191FF
330
1F
100
AcDbEntity
  8
0
  6
Continuous
 62
     2
100
AcDbLine
 10
18732.12548667362
 20
-662.9937214839633
 30
0.0
 11
18723.07137047914
 21
-656.6539610748634
 31
0.0
  0
LINE
  5
19200
330
1F
100
AcDbEntity
  8
0
  6
Continuous
 62
     7
100
AcDbLine
 10
18951.33701196571
 20
-589.6680531876638
 30
0.0
 11
18951.33701196571
 21
-592.3344904252626
 31
0.0
  0
LINE
  5
19201
330
1F
100
AcDbEntity
  8
0
  6
Continuous
 62
     7
100
AcDbLine
 10
18701.82735174044
 20
-734.6539610689619
 30
0.0
 11
18705.82735174142
 21
-734.6539610689619
 31
0.0
  0
LINE
  5
19202
330
1F
100
AcDbEntity
  8
0
  6
Continuous
 62
     7
100
AcDbLine
 10
18707.82735174193
 20
-734.6539610689619
 30
0.0
 11
18711.82735174292
 21
-734.6539610689619
 31
0.0
  0
LINE
  5
19203
330
1F
100
AcDbEntity
  8
0
  6
Continuous
 62
     7
100
AcDbLine
 10
18713.82735174344
 20
-734.6539610689619
 30
0.0
 11
18717.82735174441
 21
-734.6539610689619
 31
0.0
  0
LINE
  5
19204
330
1F
100
AcDbEntity
  8
0
  6
Continuous
 62
     7
100
AcDbLine
 10
18719.82735174491
 20
-734.6539610689619
 30
0.0
 11
18723.82735174592
 21
-734.6539610689619
 31
0.0
  0
LINE
  5
19205
330
1F
100
AcDbEntity
  8
0
  6
Continuous
 62
     7
100
AcDbLine
 10
18725.82735174642
 20
-734.6539610689619
 30
0.0
 11
18729.82735173471
 21
-734.6539610689619
 31
0.0
  0
LINE
  5
19206
330
1F
100
AcDbEntity
  8
0
  6
Continuous
 62
     7
100
AcDbLine
 10
18731.82735173523
 20
-734.6539610689619
 30
0.0
 11
18735.82735173622
 21
-734.6539610689619
 31
0.0
  0
LINE
  5
19207
330
1F
100
AcDbEntity
  8
0
  6
Continuous
 62
     7
100
AcDbLine
 10
18695.82735173894
 20
-726.6539610796642
 30
0.0
 11
18780.82735174112
 21
-726.6539610796642
 31
0.0
  0
LINE
  5
19208
330
1F
100
AcDbEntity
  8
0
  6
Continuous
 62
     7
100
AcDbLine
 10
18788.82735174314
 20
-718.6539610776653
 30
0.0
 11
18707.82735174193
 21
-718.6539610776653
 31
0.0
  0
LINE
  5
19209
330
1F
100
AcDbEntity
  8
0
  6
Continuous
 62
     7
100
AcDbLine
 10
18685.82735173644
 20
-711.6539610695619
 30
0.0
 11
18695.82735173894
 21
-711.6539610695619
 31
0.0
  0
LINE
  5
1920A
330
1F
100
AcDbEntity
  8
0
  6
Continuous
 62
     2
100
AcDbLine
 10
19232.82735173983
 20
-1002.593729138062
 30
0.0
 11
19224.82735173785
 21
-996.992068840265
 31
0.0
  0
LINE
  5
1920B
330
1F
100
AcDbEntity
  8
0
  6
Continuous
 62
     2
100
AcDbLine
 10
19232.82735173983
 20
-991.5985164828677
 30
0.0
 11
19224.82735173785
 21
-985.9968561723649
 31
0.0
  0
LINE
  5
1920C
330
1F
100
AcDbEntity
  8
0
  6
Continuous
 62
     2
100
AcDbLine
 10
19232.82735173983
 20
-980.6033038276641
 30
0.0
 11
19224.82735173785
 21
-975.0016435171659
 31
0.0
  0
LINE
  5
1920D
330
1F
100
AcDbEntity
  8
0
  6
Continuous
 62
     2
100
AcDbLine
 10
19232.82735173983
 20
-969.6080911597688
 30
0.0
 11
19224.82735173785
 21
-964.0064308619624
 31
0.0
  0
LINE
  5
1920E
330
1F
100
AcDbEntity
  8
0
  6
Continuous
 62
     7
100
AcDbLine
 10
18719.58985997962
 20
-633.154444992967
 30
0.0
 11
18729.58985998214
 21
-640.689985497165
 31
0.0
  0
LINE
  5
1920F
330
1F
100
AcDbEntity
  8
0
  6
Continuous
 62
     7
100
AcDbLine
 10
18953.32735173662
 20
-588.7291779762652
 30
0.0
 11
18953.32735173662
 21
-592.3344904252626
 31
0.0
  0
LINE
  5
19210
330
1F
100
AcDbEntity
  8
0
  6
Continuous
 62
     7
100
AcDbLine
 10
18955.32735173713
 20
-586.7291779884653
 30
0.0
 11
18955.32737678155
 21
-592.3344904252626
 31
0.0
  0
LINE
  5
19211
330
1F
100
AcDbEntity
  8
0
  6
Continuous
 62
     7
100
AcDbLine
 10
18961.82735174193
 20
-640.6450494808659
 30
0.0
 11
18961.82735174193
 21
-640.689985497165
 31
0.0
  0
LINE
  5
19213
330
1F
100
AcDbEntity
  8
0
  6
Continuous
 62
     7
100
AcDbLine
 10
18969.82735174393
 20
-640.689985497165
 30
0.0
 11
18969.82735174393
 21
-640.6450494808659
 31
0.0
  0
LINE
  5
19214
330
1F
100
AcDbEntity
  8
0
  6
Continuous
 62
     7
100
AcDbLine
 10
18978.32735173652
 20
-588.7291779762652
 30
0.0
 11
18978.32735173652
 21
-592.3344904252626
 31
0.0
  0
LINE
  5
19215
330
1F
100
AcDbEntity
  8
0
  6
Continuous
 62
     7
100
AcDbLine
 10
18980.31769150742
 20
-592.3344904252626
 30
0.0
 11
18980.31769150742
 21
-589.6680531876638
 31
0.0
  0
LINE
  5
19216
330
1F
100
AcDbEntity
  8
0
  6
Continuous
 62
     7
100
AcDbLine
 10
18976.32735173604
 20
-586.7291779884653
 30
0.0
 11
18976.3270958691
 21
-592.3344904252626
 31
0.0
  0
LINE
  5
19217
330
1F
100
AcDbEntity
  8
0
  6
Continuous
 62
     7
100
AcDbLine
 10
18999.72919370542
 20
-558.6324895794684
 30
0.0
 11
18999.37655780923
 21
-561.6116921427629
 31
0.0
  0
LINE
  5
19218
330
1F
100
AcDbEntity
  8
0
  6
Continuous
 62
     7
100
AcDbLine
 10
18749.05394987021
 20
-675.1704207017706
 30
0.0
 11
18806.16694844563
 21
-675.1720991718652
 31
0.0
  0
LINE
  5
19219
330
1F
100
AcDbEntity
  8
0
  6
Continuous
 62
     7
100
AcDbLine
 10
19062.70387001643
 20
-675.1720991718652
 30
0.0
 11
19194.45489533783
 21
-675.1720991718652
 31
0.0
  0
LINE
  5
1921A
330
1F
100
AcDbEntity
  8
0
  6
Continuous
 62
     7
100
AcDbLine
 10
19069.84984939981
 20
-673.9004088272631
 30
0.0
 11
18801.41532028062
 21
-673.9004088272631
 31
0.0
  0
LWPOLYLINE
  5
1921B
330
1F
100
AcDbEntity
  8
0
  6
Continuous
 62
     2
100
AcDbPolyline
 90
        3
 70
     0
 43
0.0
 10
19089.50910153413
 20
-672.5057488276693
 10
19096.69330019592
 20
-672.5696178134633
 10
19103.90328467103
 20
-672.7249967254595
  0
LWPOLYLINE
  5
1921C
330
1F
100
AcDbEntity
  8
0
  6
Continuous
 62
     2
100
AcDbPolyline
 90
        3
 70
     0
 43
0.0
 10
18825.66942489652
 20
-680.39034555526
 10
18832.65248751152
 20
-682.1845098612666
 10
18839.64318917652
 20
-683.9270686062643
  0
LINE
  5
1921D
330
1F
100
AcDbEntity
  8
0
  6
Continuous
 62
     7
100
AcDbLine
 10
18730.82735174134
 20
-654.8250536074626
 30
0.0
 11
18788.85645635853
 21
-670.4933402794665
 31
0.0
  0
LINE
  5
1921E
330
1F
100
AcDbEntity
  8
0
  6
Continuous
 62
     2
100
AcDbLine
 10
19232.82735173983
 20
-958.6128785045605
 30
0.0
 11
19224.82735173785
 21
-953.0112181940669
 31
0.0
  0
LINE
  5
1921F
330
1F
100
AcDbEntity
  8
0
  6
Continuous
 62
     2
100
AcDbLine
 10
19232.82735173983
 20
-947.6176658493661
 30
0.0
 11
19224.82735173785
 21
-942.0160055388633
 31
0.0
  0
LINE
  5
19220
330
1F
100
AcDbEntity
  8
0
  6
Continuous
 62
     2
100
AcDbLine
 10
19232.82735173983
 20
-936.6224531814614
 30
0.0
 11
19224.82735173785
 21
-931.0207928836641
 31
0.0
  0
LINE
  5
19221
330
1F
100
AcDbEntity
  8
0
  6
Continuous
 62
     7
100
AcDbLine
 10
18909.76365162771
 20
-640.6450494808659
 30
0.0
 11
18907.88454361302
 21
-634.6539610693635
 31
0.0
  0
LINE
  5
19222
330
1F
100
AcDbEntity
  8
0
  6
Continuous
 62
     7
100
AcDbLine
 10
18931.92550976772
 20
-558.6324895794684
 30
0.0
 11
18932.27814567662
 21
-561.6116921427629
 31
0.0
  0
LINE
  5
19223
330
1F
100
AcDbEntity
  8
0
  6
Continuous
 62
     7
100
AcDbLine
 10
19013.32735173894
 20
-1070.653961076763
 30
0.0
 11
19013.32735173894
 21
-1154.653961072364
 31
0.0
  0
LINE
  5
19224
330
1F
100
AcDbEntity
  8
0
  6
Continuous
 62
     7
100
AcDbLine
 10
19021.32735174092
 20
-1070.653961076763
 30
0.0
 11
19021.32735174092
 21
-1154.653961072364
 31
0.0
  0
LINE
  5
19225
330
1F
100
AcDbEntity
  8
0
  6
Continuous
 62
     7
100
AcDbLine
 10
18707.82735174193
 20
-664.6539610768622
 30
0.0
 11
18725.82735174642
 21
-664.6539610768622
 31
0.0
  0
LINE
  5
19226
330
1F
100
AcDbEntity
  8
0
  6
Continuous
 62
     7
100
AcDbLine
 10
18697.82735173943
 20
-656.6539610748634
 30
0.0
 11
18725.82735174642
 21
-656.6539610748634
 31
0.0
  0
LINE
  5
19227
330
1F
100
AcDbEntity
  8
0
  6
Continuous
 62
     7
100
AcDbLine
 10
19200.82735174451
 20
-654.8250536074626
 30
0.0
 11
18732.72930250942
 21
-654.8250536074626
 31
0.0
  0
LINE
  5
19228
330
1F
100
AcDbEntity
  8
0
  6
Continuous
 62
     7
100
AcDbLine
 10
18729.69315052994
 20
-654.8250536074626
 30
0.0
 11
18730.82735174134
 21
-654.8250536074626
 31
0.0
  0
LINE
  5
19229
330
1F
100
AcDbEntity
  8
0
  6
Continuous
 62
     7
100
AcDbLine
 10
18729.58985998214
 20
-640.689985497165
 30
0.0
 11
18961.82735174193
 21
-640.689985497165
 31
0.0
  0
LINE
  5
1922A
330
1F
100
AcDbEntity
  8
0
  6
Continuous
 62
     7
100
AcDbLine
 10
18969.82735174393
 20
-640.689985497165
 30
0.0
 11
19202.06484350373
 21
-640.689985497165
 31
0.0
  0
LINE
  5
1922B
330
1F
100
AcDbEntity
  8
0
  6
Continuous
 62
     7
100
AcDbLine
 10
18990.78178486673
 20
-640.6450494808659
 30
0.0
 11
18909.76365162771
 21
-640.6450494808659
 31
0.0
  0
LINE
  5
1922C
330
1F
100
AcDbEntity
  8
0
  6
Continuous
 62
     7
100
AcDbLine
 10
19212.06484350621
 20
-633.154444992967
 30
0.0
 11
18969.82735174393
 21
-633.154444992967
 31
0.0
  0
LINE
  5
1922D
330
1F
100
AcDbEntity
  8
0
  6
Continuous
 62
     7
100
AcDbLine
 10
18907.41421959812
 20
-633.154444992967
 30
0.0
 11
18719.58985997962
 21
-633.154444992967
 31
0.0
  0
LINE
  5
1922E
330
1F
100
AcDbEntity
  8
0
  6
Continuous
 62
     2
100
AcDbLine
 10
19232.82735173983
 20
-925.627240526267
 30
0.0
 11
19224.82735173785
 21
-920.0255802157641
 31
0.0
  0
LINE
  5
1922F
330
1F
100
AcDbEntity
  8
0
  6
Continuous
 62
     2
100
AcDbLine
 10
19232.82735173983
 20
-914.6320278710634
 30
0.0
 11
19224.82735173785
 21
-909.0303675605651
 31
0.0
  0
LINE
  5
19230
330
1F
100
AcDbEntity
  8
0
  6
Continuous
 62
     2
100
AcDbLine
 10
19232.82735173983
 20
-903.636815203168
 30
0.0
 11
19224.82735173785
 21
-898.0351549053613
 31
0.0
  0
LINE
  5
19231
330
1F
100
AcDbEntity
  8
0
  6
Continuous
 62
     2
100
AcDbLine
 10
19232.82735173983
 20
-892.6416025479596
 30
0.0
 11
19224.82735173785
 21
-887.039942237466
 31
0.0
  0
LINE
  5
19232
330
1F
100
AcDbEntity
  8
0
  6
Continuous
 62
     7
100
AcDbLine
 10
19028.53498060732
 20
-590.3284747522604
 30
0.0
 11
19028.59768822892
 21
-587.3291701717667
 31
0.0
  0
LINE
  5
19233
330
1F
100
AcDbEntity
  8
0
  6
Continuous
 62
     7
100
AcDbLine
 10
18955.18408522153
 20
-586.7291572112633
 30
0.0
 11
18954.54871445771
 21
-586.8327638366677
 31
0.0
  0
LINE
  5
19234
330
1F
100
AcDbEntity
  8
0
  6
Continuous
 62
     7
100
AcDbLine
 10
18718.77108575992
 20
-631.5122379649608
 30
0.0
 11
18961.82735174193
 21
-631.5122379649608
 31
0.0
  0
LINE
  5
19235
330
1F
100
AcDbEntity
  8
0
  6
Continuous
 62
     7
100
AcDbLine
 10
18969.82735174393
 20
-631.5122379649608
 30
0.0
 11
19212.88361772591
 21
-631.5122379649608
 31
0.0
  0
LINE
  5
19236
330
1F
100
AcDbEntity
  8
0
  6
Continuous
 62
     7
100
AcDbLine
 10
19212.88361772591
 20
-601.5122379574668
 30
0.0
 11
18969.82735174393
 21
-601.5122379574668
 31
0.0
  0
LINE
  5
19237
330
1F
100
AcDbEntity
  8
0
  6
Continuous
 62
     7
100
AcDbLine
 10
18961.82735174193
 20
-601.5122379574668
 30
0.0
 11
18718.77108575992
 21
-601.5122379574668
 31
0.0
  0
LINE
  5
19238
330
1F
100
AcDbEntity
  8
0
  6
Continuous
 62
     7
100
AcDbLine
 10
18719.58985997962
 20
-599.8700309294652
 30
0.0
 11
18961.82735174193
 21
-599.8700309294652
 31
0.0
  0
LINE
  5
19239
330
1F
100
AcDbEntity
  8
0
  6
Continuous
 62
     7
100
AcDbLine
 10
18969.82735174393
 20
-599.8700309294652
 30
0.0
 11
19212.06484350621
 21
-599.8700309294652
 31
0.0
  0
LINE
  5
1923A
330
1F
100
AcDbEntity
  8
0
  6
Continuous
 62
     2
100
AcDbLine
 10
19232.82735173983
 20
-881.6463898927652
 30
0.0
 11
19224.82735173785
 21
-876.0447295822624
 31
0.0
  0
LINE
  5
1923B
330
1F
100
AcDbEntity
  8
0
  6
Continuous
 62
     2
100
AcDbLine
 10
19232.82735173983
 20
-870.6511772248605
 30
0.0
 11
19224.82735173785
 21
-865.0495169270634
 31
0.0
  0
LINE
  5
1923C
330
1F
100
AcDbEntity
  8
0
  6
Continuous
 62
     2
100
AcDbLine
 10
19232.82735173983
 20
-859.6559645696661
 30
0.0
 11
19224.82735173785
 21
-854.0543042591632
 31
0.0
  0
LINE
  5
1923D
330
1F
100
AcDbEntity
  8
0
  6
Continuous
 62
     2
100
AcDbLine
 10
19232.82735173983
 20
-848.6607519144671
 30
0.0
 11
19224.82735173785
 21
-843.0590916039642
 31
0.0
  0
LINE
  5
1923E
330
1F
100
AcDbEntity
  8
0
  6
Continuous
 62
     7
100
AcDbLine
 10
18951.33701196571
 20
-589.6680531876638
 30
0.0
 11
18909.19542582741
 21
-590.167634789464
 31
0.0
  0
LINE
  5
1923F
330
1F
100
AcDbEntity
  8
0
  6
Continuous
 62
     7
100
AcDbLine
 10
18955.18406645093
 20
-586.7291564619631
 30
0.0
 11
18955.15152900011
 21
-586.7294214093681
 31
0.0
  0
LINE
  5
19240
330
1F
100
AcDbEntity
  8
0
  6
Continuous
 62
     7
100
AcDbLine
 10
18955.20574150282
 20
-586.7291588876642
 30
0.0
 11
18955.17634322534
 21
-586.7291705716652
 31
0.0
  0
LINE
  5
19241
330
1F
100
AcDbEntity
  8
0
  6
Continuous
 62
     7
100
AcDbLine
 10
18729.58985998214
 20
-592.3344904252626
 30
0.0
 11
18961.82735174193
 21
-592.3344904252626
 31
0.0
  0
LINE
  5
19242
330
1F
100
AcDbEntity
  8
0
  6
Continuous
 62
     7
100
AcDbLine
 10
18969.82735174393
 20
-592.3344904252626
 30
0.0
 11
19202.06484350373
 21
-592.3344904252626
 31
0.0
  0
LINE
  5
19243
330
1F
100
AcDbEntity
  8
0
  6
Continuous
 62
     7
100
AcDbLine
 10
18978.32735173652
 20
-588.7291779762652
 30
0.0
 11
18953.32735173662
 21
-588.7291779762652
 31
0.0
  0
LINE
  5
19244
330
1F
100
AcDbEntity
  8
0
  6
Continuous
 62
     7
100
AcDbLine
 10
18955.27320693812
 20
-586.7291779630634
 30
0.0
 11
18955.22725918904
 21
-586.7291737593673
 31
0.0
  0
LINE
  5
19245
330
1F
100
AcDbEntity
  8
0
  6
Continuous
 62
     7
100
AcDbLine
 10
18955.19333055482
 20
-586.7291741022673
 30
0.0
 11
18955.18523894035
 21
-586.7291550395689
 31
0.0
  0
LINE
  5
19246
330
1F
100
AcDbEntity
  8
0
  6
Continuous
 62
     7
100
AcDbLine
 10
18980.31769150742
 20
-589.6680531876638
 30
0.0
 11
19022.45927765842
 21
-590.167634789464
 31
0.0
  0
LINE
  5
19247
330
1F
100
AcDbEntity
  8
0
  6
Continuous
 62
     7
100
AcDbLine
 10
18976.47062777662
 20
-586.7291568937655
 30
0.0
 11
18976.53596359972
 21
-586.7302245319642
 31
0.0
  0
LWPOLYLINE
  5
19248
330
1F
100
AcDbEntity
  8
0
  6
Continuous
 62
     7
100
AcDbPolyline
 90
        4
 70
     0
 43
0.0
 10
18976.53596359972
 20
-586.7302245319642
 10
18976.49526677994
 20
-586.7293081507623
 10
18976.48116757013
 20
-586.7291835764663
 10
18955.32735173713
 20
-586.7291779884653
  0
LINE
  5
19249
330
1F
100
AcDbEntity
  8
0
  6
Continuous
 62
     2
100
AcDbLine
 10
19232.82735173983
 20
-837.665539246567
 30
0.0
 11
19224.82735173785
 21
-832.0638789487698
 31
0.0
  0
LINE
  5
1924A
330
1F
100
AcDbEntity
  8
0
  6
Continuous
 62
     2
100
AcDbLine
 10
19232.82735173983
 20
-826.6703265913633
 30
0.0
 11
19208.89133879153
 21
-809.9101498882648
 31
0.0
  0
LINE
  5
1924B
330
1F
100
AcDbEntity
  8
0
  6
Continuous
 62
     2
100
AcDbLine
 10
19230.14406498042
 20
-813.7962563146626
 30
0.0
 11
19228.56361870014
 21
-812.6896159193634
 31
0.0
  0
LINE
  5
1924C
330
1F
100
AcDbEntity
  8
0
  6
Continuous
 62
     2
100
AcDbLine
 10
19216.01771352782
 20
-803.9048785358623
 30
0.0
 11
19207.54173986513
 21
-797.9699378911669
 31
0.0
  0
LINE
  5
1924D
330
1F
100
AcDbEntity
  8
0
  6
Continuous
 62
     2
100
AcDbLine
 10
19215.12572345252
 20
-792.2850877038641
 30
0.0
 11
19206.64987471974
 21
-786.3502345367629
 31
0.0
  0
LWPOLYLINE
  5
1924E
330
1F
100
AcDbEntity
  8
0
  6
Continuous
 62
     7
100
AcDbPolyline
 90
        3
 70
     0
 43
0.0
 10
18978.39898471493
 20
-588.1986272974631
 10
18978.24192050025
 20
-587.8004316371616
 10
18977.75724074824
 20
-587.1979417321667
  0
LINE
  5
1924F
330
1F
100
AcDbEntity
  8
0
  6
Continuous
 62
     7
100
AcDbLine
 10
19022.45927765842
 20
-590.167634789464
 30
0.0
 11
19022.46166530924
 21
-590.1826942208663
 31
0.0
  0
LINE
  5
19250
330
1F
100
AcDbEntity
  8
0
  6
Continuous
 62
     7
100
AcDbLine
 10
19130.08637493872
 20
-592.3344904252626
 30
0.0
 11
19130.15006470212
 21
-591.17232020706
 31
0.0
  0
LWPOLYLINE
  5
19251
330
1F
100
AcDbEntity
  8
0
  6
Continuous
 62
     7
100
AcDbPolyline
 90
        3
 70
     0
 43
0.0
 10
18977.75724074824
 20
-587.1979417321667
 10
18977.10598902813
 20
-586.8327638366677
 10
18976.47061825164
 20
-586.7291572112633
  0
LINE
  5
19252
330
1F
100
AcDbEntity
  8
0
  6
Continuous
 62
     2
100
AcDbLine
 10
19214.23373337722
 20
-780.6652968718656
 30
0.0
 11
19205.75800957432
 21
-774.7305311823681
 31
0.0
  0
LINE
  5
19253
330
1F
100
AcDbEntity
  8
0
  6
Continuous
 62
     2
100
AcDbLine
 10
19213.34174331464
 20
-769.0455060398674
 30
0.0
 11
19204.86614442894
 21
-763.110827815263
 31
0.0
  0
LINE
  5
19254
330
1F
100
AcDbEntity
  8
0
  6
Continuous
 62
     2
100
AcDbLine
 10
19212.44975323931
 20
-757.4257152078689
 30
0.0
 11
19203.97427928353
 21
-751.4911244608684
 31
0.0
  0
LINE
  5
19255
330
1F
100
AcDbEntity
  8
0
  6
Continuous
 62
     2
100
AcDbLine
 10
19211.55776316402
 20
-745.8059243758614
 30
0.0
 11
19203.03791286823
 21
-739.8402609706595
 31
0.0
  0
LINE
  5
19256
330
1F
100
AcDbEntity
  8
0
  6
Continuous
 62
     2
100
AcDbLine
 10
19210.32333004742
 20
-733.9463523495663
 30
0.0
 11
19201.42906715273
 21
-727.7185224252648
 31
0.0
  0
LINE
  5
19257
330
1F
100
AcDbEntity
  8
0
  6
Continuous
 62
     2
100
AcDbLine
 10
19208.71434680362
 20
-721.8245175000657
 30
0.0
 11
19199.82022144995
 21
-715.5967838798658
 31
0.0
  0
LINE
  5
19258
330
1F
100
AcDbEntity
  8
0
  6
Continuous
 62
     2
100
AcDbLine
 10
19207.10536355985
 20
-709.7026826378639
 30
0.0
 11
19198.21137574713
 21
-703.4750453217657
 31
0.0
  0
LINE
  5
19259
330
1F
100
AcDbEntity
  8
0
  6
Continuous
 62
     2
100
AcDbLine
 10
19205.49638031603
 20
-697.580847775667
 30
0.0
 11
19196.60253004433
 21
-691.3533067763665
 31
0.0
  0
LINE
  5
1925A
330
1F
100
AcDbEntity
  8
0
  6
Continuous
 62
     7
100
AcDbLine
 10
19165.32735173882
 20
-1070.653961076763
 30
0.0
 11
19165.32735173882
 21
-1154.653961072364
 31
0.0
  0
LINE
  5
1925B
330
1F
100
AcDbEntity
  8
0
  6
Continuous
 62
     7
100
AcDbLine
 10
19173.32735174084
 20
-1070.653961076763
 30
0.0
 11
19173.32735174084
 21
-1154.653961072364
 31
0.0
  0
LINE
  5
1925C
330
1F
100
AcDbEntity
  8
0
  6
Continuous
 62
     2
100
AcDbLine
 10
19203.88739707222
 20
-685.4590129261616
 30
0.0
 11
19194.99368434151
 21
-679.2315682309626
 31
0.0
  0
LINE
  5
1925D
330
1F
100
AcDbEntity
  8
0
  6
Continuous
 62
     2
100
AcDbLine
 10
19202.27773757882
 20
-673.3367045571685
 30
0.0
 11
19193.45489826494
 21
-667.15888596286
 31
0.0
  0
LINE
  5
1925E
330
1F
100
AcDbEntity
  8
0
  6
Continuous
 62
     2
100
AcDbLine
 10
19201.01731353122
 20
-661.458933481666
 30
0.0
 11
19193.95616985573
 21
-656.5146674494642
 31
0.0
  0
LINE
  5
1925F
330
1F
100
AcDbEntity
  8
0
  6
Continuous
 62
     7
100
AcDbLine
 10
19202.35317386433
 20
-673.9004088272631
 30
0.0
 11
19200.82735174451
 21
-654.8250536074626
 31
0.0
  0
LINE
  5
19260
330
1F
100
AcDbEntity
  8
0
  6
Continuous
 62
     7
100
AcDbLine
 10
19200.82735174451
 20
-640.689985497165
 30
0.0
 11
19200.82735174451
 21
-654.8250536074626
 31
0.0
  0
LINE
  5
19261
330
1F
100
AcDbEntity
  8
0
  6
Continuous
 62
     7
100
AcDbLine
 10
19212.88361772591
 20
-601.5122379574668
 30
0.0
 11
19212.88361772591
 21
-631.5122379649608
 31
0.0
  0
LINE
  5
19262
330
1F
100
AcDbEntity
  8
0
  6
Continuous
 62
     7
100
AcDbLine
 10
19220.82734802843
 20
-822.2622168909662
 30
0.0
 11
19220.82735173684
 21
-1053.653961078861
 31
0.0
  0
LINE
  5
19263
330
1F
100
AcDbEntity
  8
0
  6
Continuous
 62
     7
100
AcDbLine
 10
19224.82735173785
 20
-1049.653961077864
 30
0.0
 11
19224.82735173785
 21
-823.6041475954626
 31
0.0
  0
LINE
  5
19264
330
1F
100
AcDbEntity
  8
0
  6
Continuous
 62
     7
100
AcDbLine
 10
19232.82735173983
 20
-819.6539610711683
 30
0.0
 11
19232.82735173983
 21
-1053.653961078861
 31
0.0
  0
LINE
  5
19265
330
1F
100
AcDbEntity
  8
0
  6
Continuous
 62
     7
100
AcDbLine
 10
19202.06484350373
 20
-592.3344904252626
 30
0.0
 11
19212.06484350621
 21
-599.8700309294652
 31
0.0
  0
ARC
  5
19266
330
1F
100
AcDbEntity
  8
0
  6
Continuous
 62
     7
100
AcDbCircle
 10
19210.82735173431
 20
-601.5122379574668
 30
0.0
 40
2.056265978899999
100
AcDbArc
 50
0.0
 51
52.99999999991305
  0
ARC
  5
19267
330
1F
100
AcDbEntity
  8
0
  6
Continuous
 62
     7
100
AcDbCircle
 10
18720.82735173882
 20
-601.5122379574668
 30
0.0
 40
2.056265978899999
100
AcDbArc
 50
127.0000000000869
 51
180.0
  0
ARC
  5
19268
330
1F
100
AcDbEntity
  8
0
  6
Continuous
 62
     7
100
AcDbCircle
 10
19210.82735173431
 20
-631.5122379649608
 30
0.0
 40
2.056265978899999
100
AcDbArc
 50
307.000000000087
 51
0.0
  0
ARC
  5
19269
330
1F
100
AcDbEntity
  8
0
  6
Continuous
 62
     7
100
AcDbCircle
 10
18720.82735173882
 20
-631.5122379649608
 30
0.0
 40
2.056265978899999
100
AcDbArc
 50
180.0
 51
232.999999999913
  0
ARC
  5
1926A
330
1F
100
AcDbEntity
  8
0
  6
Continuous
 62
     7
100
AcDbCircle
 10
18965.82735174293
 20
-3589.633057995467
 30
0.0
 40
2999.960038028301
100
AcDbArc
 50
87.58954645552021
 51
88.80226932307607
  0
ARC
  5
1926B
330
1F
100
AcDbEntity
  8
0
  6
Continuous
 62
     7
100
AcDbCircle
 10
18965.82735174293
 20
-3589.633057995467
 30
0.0
 40
2999.960038028301
100
AcDbArc
 50
91.1977306769239
 51
92.41204636697288
  0
ARC
  5
1926C
330
1F
100
AcDbEntity
  8
0
  6
Continuous
 62
     7
100
AcDbCircle
 10
18951.32735173612
 20
-587.6680765170624
 30
0.0
 40
2.0000000005
100
AcDbArc
 50
270.276746180204
 51
344.837488710112
  0
ARC
  5
1926D
330
1F
100
AcDbEntity
  8
0
  6
Continuous
 62
     7
100
AcDbCircle
 10
18980.32735173702
 20
-587.6680765170624
 30
0.0
 40
2.0000000005
100
AcDbArc
 50
195.162511289888
 51
269.723253819796
  0
ARC
  5
1926E
330
1F
100
AcDbEntity
  8
0
  6
Continuous
 62
     7
100
AcDbCircle
 10
18935.80450463863
 20
-591.4037177884652
 30
0.0
 40
29.9999999948
100
AcDbArc
 50
96.7504558893677
 51
171.0069981298859
  0
ARC
  5
1926F
330
1F
100
AcDbEntity
  8
0
  6
Continuous
 62
     7
100
AcDbCircle
 10
18965.82735174293
 20
-845.0481816440658
 30
0.0
 40
285.4151236568
100
AcDbArc
 50
83.24954411063229
 51
96.7504558893677
  0
ARC
  5
19270
330
1F
100
AcDbEntity
  8
0
  6
Continuous
 62
     7
100
AcDbCircle
 10
18995.85019883454
 20
-591.4037177884652
 30
0.0
 40
29.9999999948
100
AcDbArc
 50
8.993002014106403
 51
83.24954411063229
  0
ARC
  5
19271
330
1F
100
AcDbEntity
  8
0
  6
Continuous
 62
     7
100
AcDbCircle
 10
19022.51590958732
 20
-587.1681693634607
 30
0.0
 40
2.999999994399999
100
AcDbArc
 50
268.9183456167905
 51
9.019202123807351
  0
ARC
  5
19272
330
1F
100
AcDbEntity
  8
0
  6
Continuous
 62
     7
100
AcDbCircle
 10
18909.13879389851
 20
-587.1681693634607
 30
0.0
 40
2.999999994399999
100
AcDbArc
 50
170.9808010278873
 51
271.0816543863368
  0
ARC
  5
19273
330
1F
100
AcDbEntity
  8
0
  6
Continuous
 62
     7
100
AcDbCircle
 10
18965.82735174293
 20
-845.0481816440658
 30
0.0
 40
305.4151236618
100
AcDbArc
 50
55.82348091466352
 51
124.1764246361799
  0
ARC
  5
19274
330
1F
100
AcDbEntity
  8
0
  6
Continuous
 62
     7
100
AcDbCircle
 10
18955.32736465303
 20
-588.7291779762652
 30
0.0
 40
2.0000064521
100
AcDbArc
 50
90.00036989743223
 51
180.0
  0
ARC
  5
19275
330
1F
100
AcDbEntity
  8
0
  6
Continuous
 62
     7
100
AcDbCircle
 10
18976.32735173604
 20
-588.7291779762652
 30
0.0
 40
2.0000000005
100
AcDbArc
 50
0.0
 51
90.0
  0
ARC
  5
19276
330
1F
100
AcDbEntity
  8
0
  6
Continuous
 62
     7
100
AcDbCircle
 10
18965.82735174293
 20
-3589.633057995467
 30
0.0
 40
3002.9599980685
100
AcDbArc
 50
91.19771888514257
 51
93.13680596554595
  0
ARC
  5
19277
330
1F
100
AcDbEntity
  8
0
  6
Continuous
 62
     7
100
AcDbCircle
 10
18965.82735174293
 20
-845.0481816440658
 30
0.0
 40
302.4151236547
100
AcDbArc
 50
57.08678841292553
 51
122.9132115870744
  0
ARC
  5
19278
330
1F
100
AcDbEntity
  8
0
  6
Continuous
 62
     7
100
AcDbCircle
 10
18965.82735174293
 20
-3589.633057995467
 30
0.0
 40
3002.9599980685
100
AcDbArc
 50
86.86319403445406
 51
88.8022798407972
  0
ARC
  5
19279
330
1F
100
AcDbEntity
  8
0
  6
Continuous
 62
     7
100
AcDbCircle
 10
18995.85019883454
 20
-591.4037177884652
 30
0.0
 40
33.0000000019
100
AcDbArc
 50
7.092613655587864
 51
83.24954411063229
  0
ARC
  5
1927A
330
1F
100
AcDbEntity
  8
0
  6
Continuous
 62
     7
100
AcDbCircle
 10
18965.82735174293
 20
-845.0481816440658
 30
0.0
 40
288.4151266103
100
AcDbArc
 50
83.24954411063229
 51
96.7504558893677
  0
ARC
  5
1927B
330
1F
100
AcDbEntity
  8
0
  6
Continuous
 62
     7
100
AcDbCircle
 10
18935.80450463863
 20
-591.4037177884652
 30
0.0
 40
33.0000000019
100
AcDbArc
 50
96.7504558893677
 51
172.9073696100052
  0
ARC
  5
1927C
330
1F
100
AcDbEntity
  8
0
  6
Continuous
 62
     7
100
AcDbCircle
 10
18697.82735173943
 20
-914.6539610758697
 30
0.0
 40
2.0000000005
100
AcDbArc
 50
90.0
 51
179.9999999837937
  0
ARC
  5
1927D
330
1F
100
AcDbEntity
  8
0
  6
Continuous
 62
     7
100
AcDbCircle
 10
18697.82735173943
 20
-724.6539610791678
 30
0.0
 40
2.0000000005
100
AcDbArc
 50
180.0000000165059
 51
270.0
  0
ARC
  5
1927E
330
1F
100
AcDbEntity
  8
0
  6
Continuous
 62
     7
100
AcDbCircle
 10
18707.82735174193
 20
-924.6539610783647
 30
0.0
 40
4.000000001
100
AcDbArc
 50
90.0
 51
179.9999999911022
  0
ARC
  5
1927F
330
1F
100
AcDbEntity
  8
0
  6
Continuous
 62
     7
100
AcDbCircle
 10
18707.82735174193
 20
-714.6539610766637
 30
0.0
 40
4.000000001
100
AcDbArc
 50
180.0000000087024
 51
270.0
  0
ARC
  5
19280
330
1F
100
AcDbEntity
  8
0
  6
Continuous
 62
     7
100
AcDbCircle
 10
18707.82735174193
 20
-668.6539610778639
 30
0.0
 40
4.000000001
100
AcDbArc
 50
90.0
 51
179.9999999893955
  0
ARC
  5
19281
330
1F
100
AcDbEntity
  8
0
  6
Continuous
 62
     7
100
AcDbCircle
 10
18707.82735174193
 20
-930.6539610798626
 30
0.0
 40
4.000000001
100
AcDbArc
 50
180.0000000106044
 51
270.0
  0
ARC
  5
19282
330
1F
100
AcDbEntity
  8
0
  6
Continuous
 62
     7
100
AcDbCircle
 10
19220.82735173684
 20
-1049.653961077864
 30
0.0
 40
4.000000001
100
AcDbArc
 50
270.0
 51
0.0
  0
ARC
  5
19283
330
1F
100
AcDbEntity
  8
0
  6
Continuous
 62
     7
100
AcDbCircle
 10
18017.61139511794
 20
-864.6539610760681
 30
0.0
 40
1199.9999999952
100
AcDbArc
 50
2.804146674197684
 51
9.146611136582661
  0
ARC
  5
19284
330
1F
100
AcDbEntity
  8
0
  6
Continuous
 62
     7
100
AcDbCircle
 10
19914.04330835523
 20
-864.6539610760681
 30
0.0
 40
1199.9999999952
100
AcDbArc
 50
183.9496416011964
 51
188.774289647806
  0
ARC
  5
19285
330
1F
100
AcDbEntity
  8
0
  6
Continuous
 62
     7
100
AcDbCircle
 10
19183.80177408634
 20
-1044.653961070266
 30
0.0
 40
12.000000003
100
AcDbArc
 50
270.0
 51
297.7957810664424
  0
ARC
  5
19286
330
1F
100
AcDbEntity
  8
0
  6
Continuous
 62
     7
100
AcDbCircle
 10
19195.92642270972
 20
-1067.653944381864
 30
0.0
 40
5.999999239500001
100
AcDbArc
 50
90.00279695079353
 51
117.7983199408497
  0
ARC
  5
19287
330
1F
100
AcDbEntity
  8
0
  6
Continuous
 62
     7
100
AcDbCircle
 10
19222.16727580323
 20
-805.6540476308617
 30
0.0
 40
5.9999960391
100
AcDbArc
 50
182.8033464201972
 51
270.000516559528
  0
ARC
  5
19288
330
1F
100
AcDbEntity
  8
0
  6
Continuous
 62
     7
100
AcDbCircle
 10
19320.82735173644
 20
-654.8250536074626
 30
0.0
 40
120.0000000046
100
AcDbArc
 50
180.0
 51
189.1466111365826
  0
ARC
  5
19289
330
1F
100
AcDbEntity
  8
0
  6
Continuous
 62
     7
100
AcDbCircle
 10
18711.90526677635
 20
-947.6538816392602
 30
0.0
 40
4.999997315199999
100
AcDbArc
 50
3.948781649702891
 51
90.00060453302316
  0
ARC
  5
1928A
330
1F
100
AcDbEntity
  8
0
  6
Continuous
 62
     7
100
AcDbCircle
 10
19224.82735173785
 20
-1053.653961078861
 30
0.0
 40
8.000000002
100
AcDbArc
 50
270.0
 51
359.9999999994007
  0
ARC
  5
1928B
330
1F
100
AcDbEntity
  8
0
  6
Continuous
 62
     7
100
AcDbCircle
 10
19224.82735173785
 20
-819.6539610711683
 30
0.0
 40
8.000000002
100
AcDbArc
 50
0.0000000005992674
 51
90.0
  0
ARC
  5
1928C
330
1F
100
AcDbEntity
  8
0
  6
Continuous
 62
     7
100
AcDbCircle
 10
18017.61139511794
 20
-864.6539610760681
 30
0.0
 40
1192.0000000059
100
AcDbArc
 50
2.804146675095509
 51
9.146611136582661
  0
ARC
  5
1928D
330
1F
100
AcDbEntity
  8
0
  6
Continuous
 62
     7
100
AcDbCircle
 10
19914.04330835523
 20
-864.6539610760681
 30
0.0
 40
1192.0000000059
100
AcDbArc
 50
183.9496416010924
 51
188.774289647806
  0
ARC
  5
1928E
330
1F
100
AcDbEntity
  8
0
  6
Continuous
 62
     7
100
AcDbCircle
 10
18697.82735173943
 20
-658.6539610753643
 30
0.0
 40
2.0000000005
100
AcDbArc
 50
90.0
 51
179.9999999788042
  0
ARC
  5
1928F
330
1F
100
AcDbEntity
  8
0
  6
Continuous
 62
     7
100
AcDbCircle
 10
18697.82735173943
 20
-940.6539610696658
 30
0.0
 40
2.0000000005
100
AcDbArc
 50
180.0000000211958
 51
270.0
  0
ARC
  5
19290
330
1F
100
AcDbEntity
  8
0
  6
Continuous
 62
     7
100
AcDbCircle
 10
18725.82736795163
 20
-651.6539796854604
 30
0.0
 40
4.9999993726
100
AcDbArc
 50
269.9998113001827
 51
0.0002007961989682
  0
ARC
  5
19291
330
1F
100
AcDbEntity
  8
0
  6
Continuous
 62
     7
100
AcDbCircle
 10
18747.85292938683
 20
-1044.653961070266
 30
0.0
 40
12.000000003
100
AcDbArc
 50
188.7742894949066
 51
270.0
  0
ARC
  5
19292
330
1F
100
AcDbEntity
  8
0
  6
Continuous
 62
     7
100
AcDbCircle
 10
19007.32735173745
 20
-1070.653961076763
 30
0.0
 40
14.0000000035
100
AcDbArc
 50
0.0
 51
89.99999999729027
  0
ARC
  5
19293
330
1F
100
AcDbEntity
  8
0
  6
Continuous
 62
     7
100
AcDbCircle
 10
19179.32735174235
 20
-1070.653961076763
 30
0.0
 40
14.0000000035
100
AcDbArc
 50
90.00000000708698
 51
180.0
  0
ARC
  5
19294
330
1F
100
AcDbEntity
  8
0
  6
Continuous
 62
     7
100
AcDbCircle
 10
19195.92642272244
 20
-1067.653944381864
 30
0.0
 40
13.9999982001
100
AcDbArc
 50
90.00364605849311
 51
117.7990942661751
  0
ARC
  5
19295
330
1F
100
AcDbEntity
  8
0
  6
Continuous
 62
     7
100
AcDbCircle
 10
19222.16727580323
 20
-805.6540476308617
 30
0.0
 40
13.999993209
100
AcDbArc
 50
182.8033482881026
 51
265.7309259669402
  0
ARC
  5
19296
330
1F
100
AcDbEntity
  8
0
  6
Continuous
 62
     7
100
AcDbCircle
 10
19320.82735173644
 20
-654.8250536074626
 30
0.0
 40
127.9999999939
100
AcDbArc
 50
180.8789361702916
 51
189.1466111365826
  0
ARC
  5
19297
330
1F
100
AcDbEntity
  8
0
  6
Continuous
 62
     7
100
AcDbCircle
 10
19179.32735174235
 20
-1070.653961076763
 30
0.0
 40
6.000000001499999
100
AcDbArc
 50
90.0
 51
180.0
  0
ARC
  5
19298
330
1F
100
AcDbEntity
  8
0
  6
Continuous
 62
     7
100
AcDbCircle
 10
19007.32735173745
 20
-1070.653961076763
 30
0.0
 40
6.000000001499999
100
AcDbArc
 50
0.0
 51
90.0
  0
ARC
  5
19299
330
1F
100
AcDbEntity
  8
0
  6
Continuous
 62
     7
100
AcDbCircle
 10
18725.82737056782
 20
-651.6539826064686
 30
0.0
 40
12.999998257
100
AcDbArc
 50
270.0000183763521
 51
337.11770124309
  0
ARC
  5
1929A
330
1F
100
AcDbEntity
  8
0
  6
Continuous
 62
     7
100
AcDbCircle
 10
18711.90526677635
 20
-947.6538816392602
 30
0.0
 40
12.9999949804
100
AcDbArc
 50
3.948777413800866
 51
90.00060611488063
  0
ARC
  5
1929B
330
1F
100
AcDbEntity
  8
0
  6
Continuous
 62
     7
100
AcDbCircle
 10
19183.80177408634
 20
-1044.653961070266
 30
0.0
 40
20.000000005
100
AcDbArc
 50
270.0
 51
297.7957724987013
  0
ARC
  5
1929C
330
1F
100
AcDbEntity
  8
0
  6
Continuous
 62
     7
100
AcDbCircle
 10
18747.85292938683
 20
-1044.653961070266
 30
0.0
 40
20.000000005
100
AcDbArc
 50
188.7742896478961
 51
270.0
  0
ARC
  5
1929D
330
1F
100
AcDbEntity
  8
0
  6
Continuous
 62
     7
100
AcDbCircle
 10
19220.82735173684
 20
-823.6041475700652
 30
0.0
 40
4.000000001
100
AcDbArc
 50
0.0006182889064862
 51
85.73101390510817
  0
SPLINE
  5
1929E
330
1F
100
AcDbEntity
  8
0
  6
Continuous
 62
     7
100
AcDbSpline
210
0.0
220
0.0
230
1.0
 70
     8
 71
     3
 72
    10
 73
     6
 74
     4
 42
0.0000000001
 43
0.0000000001
 44
0.0000000001
 12
-0.9842170747931916
 22
-0.1769653912083745
 32
0.0
 13
-0.9831596071253454
 23
-0.1827489724106166
 33
0.0
 40
0.0
 40
0.0
 40
0.0
 40
0.0
 40
10.58448604915199
 40
21.96930026052484
 40
33.31626940146368
 40
33.31626940146368
 40
33.31626940146368
 40
33.31626940146368
 10
19023.55477626753
 20
-634.6532211165667
 30
0.0
 10
19020.08229896837
 20
-635.2775836880426
 30
0.0
 10
19012.87597945379
 20
-636.5802066761955
 30
0.0
 10
19001.9514796962
 20
-638.5766733444488
 30
0.0
 10
18994.50041210762
 20
-639.9538338307054
 30
0.0
 10
18990.78178486673
 20
-640.6450494808659
 30
0.0
 11
19023.55477626753
 21
-634.6532211165667
 31
0.0
 11
19013.13908696432
 21
-636.5359747551617
 31
0.0
 11
19001.93975973133
 21
-638.5826950965626
 31
0.0
 11
18990.78178486673
 21
-640.6450494808659
 31
0.0
  0
SPLINE
  5
1929F
330
1F
100
AcDbEntity
  8
0
  6
Continuous
 62
     7
100
AcDbSpline
210
0.0
220
0.0
230
1.0
 70
     8
 71
     3
 72
    11
 73
     7
 74
     5
 42
0.0000000001
 43
0.0000000001
 44
0.0000000001
 12
-0.9998218244600815
 22
-0.0188764226831788
 32
0.0
 13
0.1563138508922483
 23
0.9877074364503064
 33
0.0
 40
0.0
 40
0.0
 40
0.0
 40
0.0
 40
1.29959175899537
 40
2.599182096725628
 40
3.898769645564509
 40
5.198355027291214
 40
5.198355027291214
 40
5.198355027291214
 40
5.198355027291214
 10
18909.19303816393
 20
-590.1826942208663
 30
0.0
 10
18908.75991809609
 20
-590.190871435319
 30
0.0
 10
18907.87832843073
 20
-590.0138821480201
 30
0.0
 10
18906.80123695679
 20
-589.2163388685681
 30
0.0
 10
18906.15953049092
 20
-588.0397296124142
 30
0.0
 10
18906.105567143
 20
-587.1421723492764
 30
0.0
 10
18906.17328154153
 20
-586.7143023006652
 30
0.0
 11
18909.19303816393
 21
-590.1826942208663
 31
0.0
 11
18907.91921000293
 21
-589.9252052768652
 31
0.0
 11
18906.87380028271
 21
-589.1531602245634
 31
0.0
 11
18906.25299042452
 21
-588.0114409433592
 31
0.0
 11
18906.17328154153
 21
-586.7143023006652
 31
0.0
  0
SPLINE
  5
192A0
330
1F
100
AcDbEntity
  8
0
  6
Continuous
 62
     7
100
AcDbSpline
210
0.0
220
0.0
230
1.0
 70
     8
 71
     3
 72
    11
 73
     7
 74
     5
 42
0.0000000001
 43
0.0000000001
 44
0.0000000001
 12
0.9998217855983806
 22
-0.018878480946982
 32
0.0
 13
-0.1563145714312391
 23
0.9877073224180673
 33
0.0
 40
0.0
 40
0.0
 40
0.0
 40
0.0
 40
1.29959216975097
 40
2.599181267224221
 40
3.898764295431408
 40
5.198342595828456
 40
5.198342595828456
 40
5.198342595828456
 40
5.198342595828456
 10
19022.46166575372
 20
-590.1826711322633
 30
0.0
 10
19022.89478594162
 20
-590.1908492409351
 30
0.0
 10
19023.77637556734
 20
-590.0138626412374
 30
0.0
 10
19024.85346917461
 20
-589.2163255810341
 30
0.0
 10
19025.49517866883
 20
-588.0397226302136
 30
0.0
 10
19025.54914295353
 20
-587.1421689143494
 30
0.0
 10
19025.48142861184
 20
-586.7143012465635
 30
0.0
 11
19022.46166575372
 21
-590.1826711322633
 31
0.0
 11
19023.73549505772
 21
-589.9251857696635
 31
0.0
 11
19024.78090698775
 21
-589.1531457973633
 31
0.0
 11
19025.40171882714
 21
-588.0114327391604
 31
0.0
 11
19025.48142861184
 21
-586.7143012465635
 31
0.0
  0
SPLINE
  5
192A1
330
1F
100
AcDbEntity
  8
0
  6
Continuous
 62
     7
100
AcDbSpline
210
0.0
220
0.0
230
1.0
 70
     8
 71
     3
 72
    10
 73
     6
 74
     4
 42
0.0000000001
 43
0.0000000001
 44
0.0000000001
 12
0.9553424400131989
 22
0.2955009683734177
 32
0.0
 13
0.9565757903385859
 23
0.2914837171063071
 33
0.0
 40
0.0
 40
0.0
 40
0.0
 40
0.0
 40
0.4639486851650104
 40
2.123560235012444
 40
3.958897324297477
 40
3.958897324297477
 40
3.958897324297477
 40
3.958897324297477
 10
18797.72010788444
 20
-592.3342906796635
 30
0.0
 10
18797.86785117408
 20
-592.2885915844163
 30
0.0
 10
18798.54413945456
 20
-592.0795684979709
 30
0.0
 10
18799.80538762994
 20
-591.6913873396283
 30
0.0
 10
18800.91942576212
 20
-591.3506438327026
 30
0.0
 10
18801.50463877103
 20
-591.17232020706
 30
0.0
 11
18797.72010788444
 21
-592.3342906796635
 31
0.0
 11
18798.16336962173
 21
-592.197296465468
 31
0.0
 11
18799.74953868713
 21
-591.709056573266
 31
0.0
 11
18801.50463877103
 21
-591.17232020706
 31
0.0
  0
SPLINE
  5
192A2
330
1F
100
AcDbEntity
  8
0
  6
Continuous
 62
     7
100
AcDbSpline
210
0.0
220
0.0
230
1.0
 70
     8
 71
     3
 72
    13
 73
     9
 74
     7
 42
0.0000000001
 43
0.0000000001
 44
0.0000000001
 12
0.9997854440821051
 22
0.0207139035806408
 32
0.0
 13
0.1369721440932055
 23
0.9905748996125989
 33
0.0
 40
0.0
 40
0.0
 40
0.0
 40
0.0
 40
1.668083507085106
 40
3.166439750384389
 40
4.398723851839025
 40
5.314184295441604
 40
5.880880071800937
 40
6.075123611421049
 40
6.075123611421049
 40
6.075123611421049
 40
6.075123611421049
 10
18903.11972287853
 20
-590.3284747522604
 30
0.0
 10
18903.67563141516
 20
-590.3169572452838
 30
0.0
 10
18904.72814569269
 20
-590.2913940330194
 30
0.0
 10
18906.20460442942
 20
-590.2702056901808
 30
0.0
 10
18907.39073945173
 20
-590.2110119244301
 30
0.0
 10
18908.36420891358
 20
-590.2623133659838
 30
0.0
 10
18908.79714485913
 20
-590.1126046457865
 30
0.0
 10
18909.18416951257
 20
-590.2468318124528
 30
0.0
 10
18909.19303816393
 20
-590.1826942208663
 30
0.0
 11
18903.11972287853
 21
-590.3284747522604
 31
0.0
 11
18904.78742668054
 21
-590.2928852120631
 31
0.0
 11
18906.28541175922
 21
-590.2595365106649
 31
0.0
 11
18907.51735863492
 21
-590.2307094029629
 31
0.0
 11
18908.43253043932
 21
-590.2077226188648
 31
0.0
 11
18908.99899335263
 21
-590.1914785187643
 31
0.0
 11
18909.19303816393
 21
-590.1826942208663
 31
0.0
  0
SPLINE
  5
192A3
330
1F
100
AcDbEntity
  8
0
  6
Continuous
 62
     7
100
AcDbSpline
210
0.0
220
0.0
230
1.0
 70
     8
 71
     3
 72
    10
 73
     6
 74
     4
 42
0.0000000001
 43
0.0000000001
 44
0.0000000001
 12
-0.0000450168462047
 22
0.9999999989867419
 32
0.0
 13
-0.966554700648623
 23
0.2564605440492766
 33
0.0
 40
0.0
 40
0.0
 40
0.0
 40
0.0
 40
0.1835655705288245
 40
0.3401877052008436
 40
0.5253967476247237
 40
0.5253967476247237
 40
0.5253967476247237
 40
0.5253967476247237
 10
18978.32735173652
 20
-588.7291779762652
 30
0.0
 10
18978.327348982
 20
-588.6679894528175
 30
0.0
 10
18978.3418422999
 20
-588.5491515061326
 30
0.0
 10
18978.32597953111
 20
-588.3977933124334
 30
0.0
 10
18978.45568416697
 20
-588.225470906128
 30
0.0
 10
18978.39601261012
 20
-588.2096379688671
 30
0.0
 11
18978.32735173652
 21
-588.7291779762652
 31
0.0
 11
18978.33577960892
 21
-588.5458059782656
 31
0.0
 11
18978.35623868662
 21
-588.3905258468619
 31
0.0
 11
18978.39601261012
 21
-588.2096379688671
 31
0.0
  0
SPLINE
  5
192A4
330
1F
100
AcDbEntity
  8
0
  6
Continuous
 62
     7
100
AcDbSpline
210
0.0
220
0.0
230
1.0
 70
     8
 71
     3
 72
    10
 73
     6
 74
     4
 42
0.0000000001
 43
0.0000000001
 44
0.0000000001
 12
0.0000450168462047
 22
0.9999999989867419
 32
0.0
 13
0.9665739471554372
 23
0.2563879963655833
 33
0.0
 40
0.0
 40
0.0
 40
0.0
 40
0.0
 40
0.1835655705286574
 40
0.3401877035378886
 40
0.5253967459695814
 40
0.5253967459695814
 40
0.5253967459695814
 40
0.5253967459695814
 10
18953.32735173662
 20
-588.7291779762652
 30
0.0
 10
18953.32735449113
 20
-588.6679894528176
 30
0.0
 10
18953.31286102202
 20
-588.5491509588955
 30
0.0
 10
18953.32872442295
 20
-588.3977950553494
 30
0.0
 10
18953.19901813065
 20
-588.2254664272997
 30
0.0
 10
18953.25869087571
 20
-588.2096379688671
 30
0.0
 11
18953.32735173662
 21
-588.7291779762652
 31
0.0
 11
18953.31892386422
 21
-588.5458059782656
 31
0.0
 11
18953.29846479924
 21
-588.3905258468619
 31
0.0
 11
18953.25869087571
 21
-588.2096379688671
 31
0.0
  0
SPLINE
  5
192A5
330
1F
100
AcDbEntity
  8
0
  6
Continuous
 62
     7
100
AcDbSpline
210
0.0
220
0.0
230
1.0
 70
     8
 71
     3
 72
    10
 73
     6
 74
     4
 42
0.0000000001
 43
0.0000000001
 44
0.0000000001
 12
0.95657575817198
 22
-0.2914838226689459
 32
0.0
 13
0.9553426758945608
 23
-0.2955002057776279
 33
0.0
 40
0.0
 40
0.0
 40
0.0
 40
0.0
 40
1.832861092238936
 40
3.488391706826924
 40
3.958895778191
 40
3.958895778191
 40
3.958895778191
 40
3.958895778191
 10
19130.15006470212
 20
-591.17232020706
 30
0.0
 10
19130.73448819843
 20
-591.3504033262556
 30
0.0
 10
19131.84643682858
 20
-591.6905057085606
 30
0.0
 10
19133.1076862939
 20
-592.0786809105767
 30
0.0
 10
19133.78476330618
 20
-592.2879453105614
 30
0.0
 10
19133.93459417903
 20
-592.3342899938639
 30
0.0
 11
19130.15006470212
 21
-591.17232020706
 31
0.0
 11
19131.90279779812
 21
-591.7083299808666
 31
0.0
 11
19133.48506883983
 21
-592.1953617728674
 31
0.0
 11
19133.93459417903
 21
-592.3342899938639
 31
0.0
  0
SPLINE
  5
192A6
330
1F
100
AcDbEntity
  8
0
  6
Continuous
 62
     7
100
AcDbSpline
210
0.0
220
0.0
230
1.0
 70
     8
 71
     3
 72
    12
 73
     8
 74
     6
 42
0.0000000001
 43
0.0000000001
 44
0.0000000001
 12
0.1515538527406607
 22
-0.9884490020832952
 32
0.0
 13
0.9874235141912757
 23
-0.1580974497648572
 33
0.0
 40
0.0
 40
0.0
 40
0.0
 40
0.0
 40
0.4059671369655111
 40
0.889553266844892
 40
1.536305493180714
 40
2.316416521652985
 40
3.176695805006955
 40
3.176695805006955
 40
3.176695805006955
 40
3.176695805006955
 10
19025.48142376042
 20
-586.7143137560617
 30
0.0
 10
19025.50193238832
 20
-586.8480730265324
 30
0.0
 10
19025.96118061612
 20
-586.7645037573804
 30
0.0
 10
19026.37702936699
 20
-586.9486840788986
 30
0.0
 10
19027.03400043466
 20
-587.0456645024293
 30
0.0
 10
19027.77181763091
 20
-587.1950308637468
 30
0.0
 10
19028.31397325306
 20
-587.2837370425391
 30
0.0
 10
19028.59712658411
 20
-587.329073029467
 30
0.0
 11
19025.48142376042
 21
-586.7143137560617
 31
0.0
 11
19025.87560792252
 21
-586.8114124823657
 31
0.0
 11
19026.3480081461
 21
-586.9148222196649
 31
0.0
 11
19026.98189952504
 21
-587.0431583485606
 31
0.0
 11
19027.74889065043
 21
-587.1856288027665
 31
0.0
 11
19028.59712658411
 21
-587.329073029467
 31
0.0
  0
SPLINE
  5
192A7
330
1F
100
AcDbEntity
  8
0
  6
Continuous
 62
     7
100
AcDbSpline
210
0.0
220
0.0
230
1.0
 70
     8
 71
     3
 72
    12
 73
     8
 74
     6
 42
0.0000000001
 43
0.0000000001
 44
0.0000000001
 12
0.9874125322324005
 22
0.1581660241341317
 32
0.0
 13
0.1509502849636399
 23
0.9885413554674361
 33
0.0
 40
0.0
 40
0.0
 40
0.0
 40
0.0
 40
0.8609715879297839
 40
1.641462479673664
 40
2.287893433543418
 40
2.771330981590072
 40
3.176626533939606
 40
3.176626533939606
 40
3.176626533939606
 40
3.176626533939606
 10
18903.05764494831
 20
-587.3290612565633
 30
0.0
 10
18903.34102299358
 20
-587.2836691055782
 30
0.0
 10
18903.88354323293
 20
-587.1949374346118
 30
0.0
 10
18904.62157842576
 20
-587.0454822517029
 30
0.0
 10
18905.27855127698
 20
-586.9485083409963
 30
0.0
 10
18905.69397951662
 20
-586.7644101513194
 30
0.0
 10
18906.15288633713
 20
-586.8478656373302
 30
0.0
 10
18906.17327949684
 20
-586.7143151657687
 30
0.0
 11
18903.05764494831
 21
-587.3290612565633
 31
0.0
 11
18903.90656296092
 21
-587.1854984372671
 31
0.0
 11
18904.67392440563
 21
-587.0429416230645
 31
0.0
 11
18905.30749834803
 21
-586.9146566370627
 31
0.0
 11
18905.77975135323
 21
-586.8112692009678
 31
0.0
 11
18906.17327949684
 21
-586.7143151657687
 31
0.0
  0
SPLINE
  5
192A8
330
1F
100
AcDbEntity
  8
0
  6
Continuous
 62
     7
100
AcDbSpline
210
0.0
220
0.0
230
1.0
 70
     8
 71
     3
 72
    13
 73
     9
 74
     7
 42
0.0000000001
 43
0.0000000001
 44
0.0000000001
 12
0.1404515231033551
 22
-0.9900875565615134
 32
0.0
 13
0.9997850242717149
 23
-0.0207341564093302
 33
0.0
 40
0.0
 40
0.0
 40
0.0
 40
0.0
 40
0.1948391974910112
 40
0.7621267060768913
 40
1.677860805023058
 40
2.910788435785693
 40
4.408543156003305
 40
6.075123579362566
 40
6.075123579362566
 40
6.075123579362566
 40
6.075123579362566
 10
19022.46166530924
 20
-590.1826942208663
 30
0.0
 10
19022.47078712992
 20
-590.2469968425217
 30
0.0
 10
19022.85791512061
 20
-590.1125769187165
 30
0.0
 10
19023.29177834253
 20
-590.2623088229309
 30
0.0
 10
19024.26545982322
 20
-590.2110632227406
 30
0.0
 10
19025.45182833289
 20
-590.2702303364739
 30
0.0
 10
19026.92774369871
 20
-590.2914314724398
 30
0.0
 10
19027.97957322431
 20
-590.3169563725382
 30
0.0
 10
19028.53498060732
 20
-590.3284747522604
 30
0.0
 11
19022.46166530924
 21
-590.1826942208663
 31
0.0
 11
19022.65630550925
 21
-590.1914979370635
 31
0.0
 11
19023.22336005203
 21
-590.2077541021635
 31
0.0
 11
19024.13880550333
 21
-590.2307446581642
 31
0.0
 11
19025.37139578643
 21
-590.2595845039646
 31
0.0
 11
19026.86877953283
 21
-590.2929179399645
 31
0.0
 11
19028.53498060732
 21
-590.3284747522604
 31
0.0
  0
SPLINE
  5
192A9
330
1F
100
AcDbEntity
  8
0
  6
Continuous
 62
     7
100
AcDbSpline
210
0.0
220
0.0
230
1.0
 70
     8
 71
     3
 72
    10
 73
     6
 74
     4
 42
0.0000000001
 43
0.0000000001
 44
0.0000000001
 12
0.9650149735476942
 22
-0.2621947765092647
 32
0.0
 13
0.9897972991829991
 23
0.1424826534355687
 33
0.0
 40
0.0
 40
0.0
 40
0.0
 40
0.0
 40
100.6604738993212
 40
211.0817352708985
 40
272.6677323526699
 40
272.6677323526699
 40
272.6677323526699
 40
272.6677323526699
 10
18801.41532028062
 20
-673.9004088272631
 30
0.0
 10
18833.79494179971
 20
-682.6979589797129
 30
0.0
 10
18902.13581912379
 20
-701.0761089905412
 30
0.0
 10
18995.12678508407
 20
-696.0447517935469
 30
0.0
 10
19049.53063154014
 20
-676.8253875868252
 30
0.0
 10
19069.84984939981
 20
-673.9004088272631
 30
0.0
 11
18801.41532028062
 21
-673.9004088272631
 31
0.0
 11
18899.80493151473
 21
-695.1610627879634
 31
0.0
 11
19010.02697750404
 21
-688.5311652908594
 31
0.0
 11
19069.84984939981
 21
-673.9004088272631
 31
0.0
  0
SPLINE
  5
192AA
330
1F
100
AcDbEntity
  8
0
  6
Continuous
 62
     7
100
AcDbSpline
210
0.0
220
0.0
230
1.0
 70
     8
 71
     3
 72
     9
 73
     5
 74
     3
 42
0.0000000001
 43
0.0000000001
 44
0.0000000001
 12
0.9897972991855615
 22
0.1424826534177682
 32
0.0
 13
0.9710723828912197
 23
0.2387853161020759
 33
0.0
 40
0.0
 40
0.0
 40
0.0
 40
0.0
 40
10.67818816469748
 40
68.70800047737491
 40
68.70800047737491
 40
68.70800047737491
 40
68.70800047737491
 10
19069.84984939981
 20
-673.9004088272631
 30
0.0
 10
19073.37293000168
 20
-673.3932566327963
 30
0.0
 10
19096.14746605476
 20
-670.9488458728596
 30
0.0
 10
19119.65659432402
 20
-674.7848272546415
 30
0.0
 10
19138.44031036442
 20
-670.1659382291659
 30
0.0
 11
19069.84984939981
 21
-673.9004088272631
 31
0.0
 11
19080.46963845992
 21
-672.7851587209666
 31
0.0
 11
19138.44031036442
 21
-670.1659382291659
 31
0.0
  0
SPLINE
  5
192AB
330
1F
100
AcDbEntity
  8
0
  6
Continuous
 62
     7
100
AcDbSpline
210
0.0
220
0.0
230
1.0
 70
     8
 71
     3
 72
     9
 73
     5
 74
     3
 42
0.0000000001
 43
0.0000000001
 44
0.0000000001
 12
0.9654272887300592
 22
-0.2606724960085492
 32
0.0
 13
0.9650149735979384
 23
-0.2621947763243387
 33
0.0
 40
0.0
 40
0.0
 40
0.0
 40
0.0
 40
6.34867480666686
 40
13.0128093073554
 40
13.0128093073554
 40
13.0128093073554
 40
13.0128093073554
 10
18788.85645635853
 20
-670.4933402794665
 30
0.0
 10
18790.89951766041
 20
-671.0449819155334
 30
0.0
 10
18795.08605313238
 20
-672.1797667480053
 30
0.0
 10
18799.27165708754
 20
-673.317975075662
 30
0.0
 10
18801.41532028062
 20
-673.9004088272631
 30
0.0
 11
18788.85645635853
 21
-670.4933402794665
 31
0.0
 11
18794.98434039431
 21
-672.1530718977662
 31
0.0
 11
18801.41532028062
 21
-673.9004088272631
 31
0.0
  0
SPLINE
  5
192AC
330
1F
100
AcDbEntity
  8
0
  6
Continuous
 62
     7
100
AcDbSpline
210
0.0
220
0.0
230
1.0
 70
     8
 71
     3
 72
     9
 73
     5
 74
     3
 42
0.0000000001
 43
0.0000000001
 44
0.0000000001
 12
0.1117630662716287
 22
0.9937348826611469
 32
0.0
 13
0.1118011355168827
 23
0.9937306003626614
 33
0.0
 40
0.0
 40
0.0
 40
0.0
 40
0.0
 40
2.050340746041402
 40
2.6638462253571
 40
2.6638462253571
 40
2.6638462253571
 40
2.6638462253571
 10
19220.82734463752
 20
-822.2623490344606
 30
0.0
 10
19220.90372876041
 20
-821.583183994233
 30
0.0
 10
19221.00297758394
 20
-820.700799361915
 30
0.0
 10
19221.10224616472
 20
-819.8184169522214
 30
0.0
 10
19221.12510970114
 20
-819.6151972294593
 30
0.0
 11
19220.82734463752
 21
-822.2623490344606
 31
0.0
 11
19221.05652248754
 21
-820.2248567797678
 31
0.0
 11
19221.12510970114
 21
-819.6151972294593
 31
0.0
  0
SPLINE
  5
192AD
330
1F
100
AcDbEntity
  8
0
  6
Continuous
 62
     7
100
AcDbSpline
210
0.0
220
0.0
230
1.0
 70
     8
 71
     3
 72
    11
 73
     7
 74
     5
 42
0.0000000001
 43
0.0000000001
 44
0.0000000001
 12
0.3041867820078956
 22
0.9526124089322379
 32
0.0
 13
0.9963541063654759
 23
0.0853140945486392
 33
0.0
 40
0.0
 40
0.0
 40
0.0
 40
0.0
 40
4.110238699349888
 40
8.439074203853609
 40
12.91543970519581
 40
17.41728415367707
 40
17.41728415367707
 40
17.41728415367707
 40
17.41728415367707
 10
19186.52914889571
 20
-1046.484600957364
 30
0.0
 10
19186.94590899013
 20
-1045.179446161139
 30
0.0
 10
19188.28869560027
 20
-1042.639189996748
 30
0.0
 10
19191.40826715402
 20
-1039.587391906046
 30
0.0
 10
19195.35992593594
 20
-1037.456685094787
 30
0.0
 10
19198.32063939598
 20
-1036.782111141875
 30
0.0
 10
19199.81578313013
 20
-1036.654087547568
 30
0.0
 11
19186.52914889571
 21
-1046.484600957364
 31
0.0
 11
19188.41891444563
 21
-1042.834553240964
 31
0.0
 11
19191.49057896523
 21
-1039.784357525267
 31
0.0
 11
19195.42557866441
 21
-1037.650434970661
 31
0.0
 11
19199.81578313013
 21
-1036.654087547568
 31
0.0
  0
SPLINE
  5
192AE
330
1F
100
AcDbEntity
  8
0
  6
Continuous
 62
     7
100
AcDbSpline
210
0.0
220
0.0
230
1.0
 70
     8
 71
     3
 72
     8
 73
     4
 74
     2
 42
0.0000000001
 43
0.0000000001
 44
0.0000000001
 12
-0.4914740262835855
 22
0.8708922329936131
 32
0.0
 13
-0.4936834336429114
 23
0.869641689057364
 33
0.0
 40
0.0
 40
0.0
 40
0.0
 40
0.0
 40
0.3605275453369309
 40
0.3605275453369309
 40
0.3605275453369309
 40
0.3605275453369309
 10
18733.07353349482
 20
-655.4315394531661
 30
0.0
 10
18733.01447018673
 20
-655.3268792401613
 30
0.0
 10
18732.95528134455
 20
-655.2222897468958
 30
0.0
 10
18732.89595251905
 20
-655.1177798190697
 30
0.0
 11
18733.07353349482
 21
-655.4315394531661
 31
0.0
 11
18732.89595251905
 21
-655.1177798190697
 31
0.0
  0
SPLINE
  5
192AF
330
1F
100
AcDbEntity
  8
0
  6
Continuous
 62
     7
100
AcDbSpline
210
0.0
220
0.0
230
1.0
 70
     8
 71
     3
 72
     8
 73
     4
 74
     2
 42
0.0000000001
 43
0.0000000001
 44
0.0000000001
 12
-0.4936834323682022
 22
0.8696416897809987
 32
0.0
 13
-0.4957822500452531
 23
0.8684468668491277
 33
0.0
 40
0.0
 40
0.0
 40
0.0
 40
0.0
 40
0.3368395176785493
 40
0.3368395176785493
 40
0.3368395176785493
 40
0.3368395176785493
 10
18732.89595251905
 20
-655.1177798190697
 30
0.0
 10
18732.84052182263
 20
-655.0201365899567
 30
0.0
 10
18732.78496886075
 20
-654.922562682049
 30
0.0
 10
18732.72930250942
 20
-654.8250536074626
 30
0.0
 11
18732.89595251905
 21
-655.1177798190697
 31
0.0
 11
18732.72930250942
 21
-654.8250536074626
 31
0.0
  0
SPLINE
  5
192B0
330
1F
100
AcDbEntity
  8
0
  6
Continuous
 62
     7
100
AcDbSpline
210
0.0
220
0.0
230
1.0
 70
     8
 71
     3
 72
     8
 73
     4
 74
     2
 42
0.0000000001
 43
0.0000000001
 44
0.0000000001
 12
0.4374369824208952
 22
-0.8992490680620701
 32
0.0
 13
0.4253559459950137
 23
-0.9050261428305189
 33
0.0
 40
0.0
 40
0.0
 40
0.0
 40
0.0
 40
1.807314579985815
 40
1.807314579985815
 40
1.807314579985815
 40
1.807314579985815
 10
18742.20289936103
 20
-657.8909625505641
 30
0.0
 10
18742.46642810641
 20
-658.4327045344799
 30
0.0
 10
18742.7263865167
 20
-658.9761987354651
 30
0.0
 10
18742.98263718432
 20
-659.521421049867
 30
0.0
 11
18742.20289936103
 21
-657.8909625505641
 31
0.0
 11
18742.98263718432
 21
-659.521421049867
 31
0.0
  0
SPLINE
  5
192B1
330
1F
100
AcDbEntity
  8
0
  6
Continuous
 62
     7
100
AcDbSpline
210
0.0
220
0.0
230
1.0
 70
     8
 71
     3
 72
    10
 73
     6
 74
     4
 42
0.0000000001
 43
0.0000000001
 44
0.0000000001
 12
0.4253559474620479
 22
-0.9050261421410233
 32
0.0
 13
0.2899231709856398
 23
-0.9570499229014291
 33
0.0
 40
0.0
 40
0.0
 40
0.0
 40
0.0
 40
4.135744245078863
 40
9.632202396289006
 40
16.79803240360534
 40
16.79803240360534
 40
16.79803240360534
 40
16.79803240360534
 10
18742.98263718432
 20
-659.521421049867
 30
0.0
 10
18743.56902498827
 20
-660.7690732695356
 30
0.0
 10
18744.88968850944
 20
-663.6963288185032
 30
0.0
 10
18746.99401656531
 20
-668.8869554814869
 30
0.0
 10
18748.36129391386
 20
-672.8842777310891
 30
0.0
 10
18749.05380730002
 20
-675.1702967497647
 30
0.0
 11
18742.98263718432
 21
-659.521421049867
 31
0.0
 11
18744.68210274654
 21
-663.2918583273654
 31
0.0
 11
18746.74363335801
 21
-668.3870662471636
 31
0.0
 11
18749.05380730002
 21
-675.1702967497647
 31
0.0
  0
SPLINE
  5
192B2
330
1F
100
AcDbEntity
  8
0
  6
Continuous
 62
     7
100
AcDbSpline
210
0.0
220
0.0
230
1.0
 70
     8
 71
     3
 72
     8
 73
     4
 74
     2
 42
0.0000000001
 43
0.0000000001
 44
0.0000000001
 12
-0.0000004740163765
 22
0.9999999999998877
 32
0.0
 13
-0.3894598802739834
 23
0.9210434309287347
 33
0.0
 40
0.0
 40
0.0
 40
0.0
 40
0.0
 40
1.527162272682533
 40
1.527162272682533
 40
1.527162272682533
 40
1.527162272682533
 10
19224.82735173785
 20
-826.1730394223642
 30
0.0
 10
19224.82735149655
 20
-825.66398533147
 30
0.0
 10
19224.72116961722
 20
-825.1453904258655
 30
0.0
 10
19224.52291347193
 20
-824.6765294994601
 30
0.0
 11
19224.82735173785
 21
-826.1730394223642
 31
0.0
 11
19224.52291347193
 21
-824.6765294994601
 31
0.0
  0
SPLINE
  5
192B3
330
1F
100
AcDbEntity
  8
0
  6
Continuous
 62
     7
100
AcDbSpline
210
0.0
220
0.0
230
1.0
 70
     8
 71
     3
 72
     8
 73
     4
 74
     2
 42
0.0000000001
 43
0.0000000001
 44
0.0000000001
 12
-0.3894598824635409
 22
0.9210434300028879
 32
0.0
 13
-0.71496694530296
 23
0.6991582561367307
 33
0.0
 40
0.0
 40
0.0
 40
0.0
 40
0.0
 40
1.536754371169101
 40
1.536754371169101
 40
1.536754371169101
 40
1.536754371169101
 10
19224.52291347193
 20
-824.6765294994601
 30
0.0
 10
19224.32341207967
 20
-824.2047236604289
 30
0.0
 10
19224.02209956922
 20
-823.7658849242816
 30
0.0
 10
19223.65585670974
 20
-823.4077400888626
 30
0.0
 11
19224.52291347193
 21
-824.6765294994601
 31
0.0
 11
19223.65585670974
 21
-823.4077400888626
 31
0.0
  0
SPLINE
  5
192B4
330
1F
100
AcDbEntity
  8
0
  6
Continuous
 62
     7
100
AcDbSpline
210
0.0
220
0.0
230
1.0
 70
     8
 71
     3
 72
     9
 73
     5
 74
     3
 42
0.0000000001
 43
0.0000000001
 44
0.0000000001
 12
-0.7149669417809567
 22
0.69915825973837
 32
0.0
 13
-0.9999999999996893
 23
-0.0000007882409577
 33
0.0
 40
0.0
 40
0.0
 40
0.0
 40
0.0
 40
1.550107762657513
 40
3.109582133846436
 40
3.109582133846436
 40
3.109582133846436
 40
3.109582133846436
 10
19223.65585670974
 20
-823.4077400888626
 30
0.0
 10
19223.2864314409
 20
-823.046483206947
 30
0.0
 10
19222.39364407593
 20
-822.4631516165246
 30
0.0
 10
19221.34717652723
 20
-822.2622176369196
 30
0.0
 10
19220.82735173684
 20
-822.2622180466666
 30
0.0
 11
19223.65585670974
 21
-823.4077400888626
 31
0.0
 11
19222.35814436991
 21
-822.5599330595677
 31
0.0
 11
19220.82735173684
 21
-822.2622180466666
 31
0.0
  0
SPLINE
  5
192B5
330
1F
100
AcDbEntity
  8
0
  6
Continuous
 62
     7
100
AcDbSpline
210
0.0
220
0.0
230
1.0
 70
     8
 71
     3
 72
     8
 73
     4
 74
     2
 42
0.0000000001
 43
0.0000000001
 44
0.0000000001
 12
-0.5117782407402568
 22
0.8591175893350154
 32
0.0
 13
-0.5131488317911903
 23
0.858299642567406
 33
0.0
 40
0.0
 40
0.0
 40
0.0
 40
0.0
 40
0.9761278690585831
 40
0.9761278690585831
 40
0.9761278690585831
 40
0.9761278690585831
 10
18732.72930250942
 20
-654.8250536074626
 30
0.0
 10
18732.5627821749
 20
-654.5455174002133
 30
0.0
 10
18732.39603844543
 20
-654.2661141494972
 30
0.0
 10
18732.22907215354
 20
-653.9868440824595
 30
0.0
 11
18732.72930250942
 21
-654.8250536074626
 31
0.0
 11
18732.22907215354
 21
-653.9868440824595
 31
0.0
  0
SPLINE
  5
192B6
330
1F
100
AcDbEntity
  8
0
  6
Continuous
 62
     7
100
AcDbSpline
210
0.0
220
0.0
230
1.0
 70
     8
 71
     3
 72
    10
 73
     6
 74
     4
 42
0.0000000001
 43
0.0000000001
 44
0.0000000001
 12
-0.5131488313506657
 22
0.858299642830781
 32
0.0
 13
-0.5168588665513483
 23
0.8560706232941623
 33
0.0
 40
0.0
 40
0.0
 40
0.0
 40
0.0
 40
1.08480218324152
 40
2.316245132526467
 40
2.721612207511066
 40
2.721612207511066
 40
2.721612207511066
 40
2.721612207511066
 10
18732.22907215354
 20
-653.9868440824595
 30
0.0
 10
18732.04351716268
 20
-653.6764823069868
 30
0.0
 10
18731.6467372092
 20
-653.0141556977001
 30
0.0
 10
18731.17904911396
 20
-652.2367959265383
 30
0.0
 10
18730.89719093031
 20
-651.7696353614768
 30
0.0
 10
18730.82735174134
 20
-651.6539610799618
 30
0.0
 11
18732.22907215354
 21
-653.9868440824595
 31
0.0
 11
18731.67158327611
 21
-653.0562518364627
 31
0.0
 11
18731.03676322243
 21
-652.0010479524683
 31
0.0
 11
18730.82735174134
 21
-651.6539610799618
 31
0.0
  0
SPLINE
  5
192B7
330
1F
100
AcDbEntity
  8
0
  6
Continuous
 62
     7
100
AcDbSpline
210
0.0
220
0.0
230
1.0
 70
     8
 71
     3
 72
    10
 73
     6
 74
     4
 42
0.0000000001
 43
0.0000000001
 44
0.0000000001
 12
0.5601076913968881
 22
-0.8284198054356551
 32
0.0
 13
0.5548784884329329
 23
-0.8319314052699199
 33
0.0
 40
0.0
 40
0.0
 40
0.0
 40
0.0
 40
0.3826046982046441
 40
1.543559698102532
 40
3.484231294675822
 40
3.484231294675822
 40
3.484231294675822
 40
3.484231294675822
 10
18725.82735174642
 20
-664.6539610768622
 30
0.0
 10
18725.89878502449
 20
-664.7596135134107
 30
0.0
 10
18726.18682352523
 20
-665.1859521036223
 30
0.0
 10
18726.83565557952
 20
-666.1492240566588
 30
0.0
 10
18727.41082389984
 20
-667.0083431430619
 30
0.0
 10
18727.76976954052
 20
-667.5465116925634
 30
0.0
 11
18725.82735174642
 21
-664.6539610768622
 31
0.0
 11
18726.04154147551
 21
-664.9709928024661
 31
0.0
 11
18726.69011870264
 21
-665.9338864062672
 31
0.0
 11
18727.76976954052
 21
-667.5465116925634
 31
0.0
  0
SPLINE
  5
192B8
330
1F
100
AcDbEntity
  8
0
  6
Continuous
 62
     7
100
AcDbSpline
210
0.0
220
0.0
230
1.0
 70
     8
 71
     3
 72
    11
 73
     7
 74
     5
 42
0.0000000001
 43
0.0000000001
 44
0.0000000001
 12
0.5548662346889488
 22
-0.8319395780957345
 32
0.0
 13
0.3870610565747326
 23
-0.9220540865281449
 33
0.0
 40
0.0
 40
0.0
 40
0.0
 40
0.0
 40
2.535145062584748
 40
6.287718478048214
 40
11.6431021954816
 40
19.02935283706163
 40
19.02935283706163
 40
19.02935283706163
 40
19.02935283706163
 10
18727.76976954052
 20
-667.5465116925634
 30
0.0
 10
18728.23865833894
 20
-668.2495408638228
 30
0.0
 10
18729.38419910162
 20
-670.0048698107775
 30
0.0
 10
18731.41939208322
 20
-673.3103425325431
 30
0.0
 10
18734.10554914808
 20
-678.1097406063887
 30
0.0
 10
18735.93223515338
 20
-681.9511623764014
 30
0.0
 10
18736.88521181253
 20
-684.2213365724647
 30
0.0
 11
18727.76976954052
 21
-667.5465116925634
 31
0.0
 11
18729.15484695833
 21
-669.6698395134688
 31
0.0
 11
18731.12075777121
 21
-672.8662440426617
 31
0.0
 11
18733.73094089224
 21
-677.5424688913626
 31
0.0
 11
18736.88521181253
 21
-684.2213365724647
 31
0.0
  0
SPLINE
  5
192B9
330
1F
100
AcDbEntity
  8
0
  6
Continuous
 62
     7
100
AcDbSpline
210
0.0
220
0.0
230
1.0
 70
     8
 71
     3
 72
    10
 73
     6
 74
     4
 42
0.0000000001
 43
0.0000000001
 44
0.0000000001
 12
0.3871264597952377
 22
-0.9220266287512558
 32
0.0
 13
0.2773174914649201
 23
-0.9607783349595287
 33
0.0
 40
0.0
 40
0.0
 40
0.0
 40
0.0
 40
12.57059257977048
 40
27.40255453356033
 40
36.53019824203773
 40
36.53019824203773
 40
36.53019824203773
 40
36.53019824203773
 10
18736.88521181253
 20
-684.2213365724647
 30
0.0
 10
18738.50734814684
 20
-688.0848102717084
 30
0.0
 10
18741.89701056608
 20
-696.5690967199789
 30
0.0
 10
18745.94056541579
 20
-708.0600590930246
 30
0.0
 10
18748.28244600517
 20
-715.6970742784503
 30
0.0
 10
18749.12619775724
 20
-718.6202883865619
 30
0.0
 11
18736.88521181253
 21
-684.2213365724647
 31
0.0
 11
18741.54226973231
 21
-695.8974493390648
 31
0.0
 11
18746.45309865845
 21
-709.8928362453616
 31
0.0
 11
18749.12619775724
 21
-718.6202883865619
 31
0.0
  0
SPLINE
  5
192BA
330
1F
100
AcDbEntity
  8
0
  6
Continuous
 62
     7
100
AcDbSpline
210
0.0
220
0.0
230
1.0
 70
     8
 71
     3
 72
    11
 73
     7
 74
     5
 42
0.0000000001
 43
0.0000000001
 44
0.0000000001
 12
-0.4660130548531517
 22
-0.8847778437022672
 32
0.0
 13
-0.4907839959412747
 23
-0.8712812802579399
 33
0.0
 40
0.0
 40
0.0
 40
0.0
 40
0.0
 40
2.72277798120842
 40
10.11470227306612
 40
14.49733688187453
 40
15.93570909633924
 40
15.93570909633924
 40
15.93570909633924
 40
15.93570909633924
 10
18719.53385163342
 20
-920.6633920846668
 30
0.0
 10
18719.11090160518
 20
-921.466409961698
 30
0.0
 10
18717.53201594905
 20
-924.4454470083661
 30
0.0
 10
18715.22908357012
 20
-928.6940546815639
 30
0.0
 10
18713.09079848664
 20
-932.5445077231869
 30
0.0
 10
18712.14052315256
 20
-934.2362188193622
 30
0.0
 10
18711.90521313154
 20
-934.6539610808642
 30
0.0
 11
18719.53385163342
 21
-920.6633920846668
 31
0.0
 11
18718.25884220733
 21
-923.0691915148645
 31
0.0
 11
18714.73721965953
 21
-929.5683237159632
 31
0.0
 11
18712.60964621593
 21
-933.3998922402649
 31
0.0
 11
18711.90521313154
 21
-934.6539610808642
 31
0.0
  0
SPLINE
  5
192BB
330
1F
100
AcDbEntity
  8
0
  6
Continuous
 62
     7
100
AcDbSpline
210
0.0
220
0.0
230
1.0
 70
     8
 71
     3
 72
     8
 73
     4
 74
     2
 42
0.0000000001
 43
0.0000000001
 44
0.0000000001
 12
-0.2282316873698079
 22
-0.9736068492365543
 32
0.0
 13
-0.3298717405797907
 23
-0.9440257595886139
 33
0.0
 40
0.0
 40
0.0
 40
0.0
 40
0.0
 40
1.361750915708428
 40
1.361750915708428
 40
1.361750915708428
 40
1.361750915708428
 10
18740.33204470802
 20
-657.3866314916681
 30
0.0
 10
18740.22844647159
 20
-657.8285681644975
 30
0.0
 10
18740.10133151423
 20
-658.2656485438715
 30
0.0
 10
18739.95159713263
 20
-658.6941578580622
 30
0.0
 11
18740.33204470802
 21
-657.3866314916681
 31
0.0
 11
18739.95159713263
 21
-658.6941578580622
 31
0.0
  0
SPLINE
  5
192BC
330
1F
100
AcDbEntity
  8
0
  6
Continuous
 62
     7
100
AcDbSpline
210
0.0
220
0.0
230
1.0
 70
     8
 71
     3
 72
    11
 73
     7
 74
     5
 42
0.0000000001
 43
0.0000000001
 44
0.0000000001
 12
-0.3298717372035234
 22
-0.9440257607683859
 32
0.0
 13
-0.9996675757383707
 23
-0.0257825137907232
 33
0.0
 40
0.0
 40
0.0
 40
0.0
 40
0.0
 40
3.969033974860267
 40
7.962801851270109
 40
11.96240861923557
 40
15.94681636079631
 40
15.94681636079631
 40
15.94681636079631
 40
15.94681636079631
 10
18739.95159713263
 20
-658.6941578580622
 30
0.0
 10
18739.51517308853
 20
-659.9431146306065
 30
0.0
 10
18738.24165089248
 20
-662.3273882401827
 30
0.0
 10
18735.35871517163
 20
-665.1656209518823
 30
0.0
 10
18731.7640386351
 20
-667.0327586861892
 30
0.0
 10
18729.09746317509
 20
-667.5122690989509
 30
0.0
 10
18727.76976876584
 20
-667.5465117814658
 30
0.0
 11
18739.95159713263
 21
-658.6941578580622
 31
0.0
 11
18738.08523018971
 21
-662.1970002935673
 31
0.0
 11
18735.24216791803
 21
-665.0018494463684
 31
0.0
 11
18731.69160035574
 21
-666.8431327716632
 31
0.0
 11
18727.76976876584
 21
-667.5465117814658
 31
0.0
  0
SPLINE
  5
192BD
330
1F
100
AcDbEntity
  8
0
  6
Continuous
 62
     7
100
AcDbSpline
210
0.0
220
0.0
230
1.0
 70
     8
 71
     3
 72
     9
 73
     5
 74
     3
 42
0.0000000001
 43
0.0000000001
 44
0.0000000001
 12
-0.0264713213011518
 22
-0.9996495731748057
 32
0.0
 13
-0.1300262135092438
 23
-0.9915105565753945
 33
0.0
 40
0.0
 40
0.0
 40
0.0
 40
0.0
 40
0.2521162543353435
 40
0.5045951835548458
 40
0.5045951835548458
 40
0.5045951835548458
 40
0.5045951835548458
 10
18732.72937194032
 20
-654.8250535947618
 30
0.0
 10
18732.72714732353
 20
-654.9090628967741
 30
0.0
 10
18732.71830930804
 20
-655.0771145505445
 30
0.0
 10
18732.70075338406
 20
-655.2444795379209
 30
0.0
 10
18732.68981042434
 20
-655.3279247124655
 30
0.0
 11
18732.72937194032
 21
-654.8250535947618
 31
0.0
 11
18732.71613931504
 21
-655.076822344467
 31
0.0
 11
18732.68981042434
 21
-655.3279247124655
 31
0.0
  0
SPLINE
  5
192BE
330
1F
100
AcDbEntity
  8
0
  6
Continuous
 62
     7
100
AcDbSpline
210
0.0
220
0.0
230
1.0
 70
     8
 71
     3
 72
    11
 73
     7
 74
     5
 42
0.0000000001
 43
0.0000000001
 44
0.0000000001
 12
-0.3270894175539488
 22
-0.9449933930585009
 32
0.0
 13
-0.9947420540138141
 23
-0.1024121378371615
 33
0.0
 40
0.0
 40
0.0
 40
0.0
 40
0.0
 40
3.777486402564105
 40
7.747242726834187
 40
11.83324156132988
 40
15.92158930813323
 40
15.92158930813323
 40
15.92158930813323
 40
15.92158930813323
 10
18749.05455256143
 20
-675.171992352164
 30
0.0
 10
18748.64269395235
 20
-676.3618922497612
 30
0.0
 10
18747.37445623787
 20
-678.6692015265501
 30
0.0
 10
18744.51311414984
 20
-681.4557054828817
 30
0.0
 10
18740.92512535698
 20
-683.427318830356
 30
0.0
 10
18738.24073399967
 20
-684.0818739394032
 30
0.0
 10
18736.88511685461
 20
-684.2214394170605
 30
0.0
 11
18749.05455256143
 21
-675.171992352164
 31
0.0
 11
18747.26207457413
 21
-678.4971128291681
 31
0.0
 11
18744.43627854934
 21
-681.2852738898607
 31
0.0
 11
18740.85854014984
 21
-683.2588935138669
 31
0.0
 11
18736.88511685461
 21
-684.2214394170605
 31
0.0
  0
SPLINE
  5
192BF
330
1F
100
AcDbEntity
  8
0
  6
Continuous
 62
     7
100
AcDbSpline
210
0.0
220
0.0
230
1.0
 70
     8
 71
     3
 72
    12
 73
     8
 74
     6
 42
0.0000000001
 43
0.0000000001
 44
0.0000000001
 12
0.5751447325734014
 22
0.8180516711021809
 32
0.0
 13
-0.6267552691948625
 23
0.7792161654743027
 33
0.0
 40
0.0
 40
0.0
 40
0.0
 40
0.0
 40
0.2609171969478622
 40
1.084178133856787
 40
2.626296488292227
 40
5.450979124745407
 40
9.737659092696642
 40
9.737659092696642
 40
9.737659092696642
 40
9.737659092696642
 10
19189.39763054764
 20
-1055.269345694164
 30
0.0
 10
19189.44765226479
 20
-1055.198197777837
 30
0.0
 10
19189.63839637799
 20
-1054.890438877822
 30
0.0
 10
19189.93125550127
 20
-1054.049073266704
 30
0.0
 10
19189.85647004302
 20
-1052.27916381324
 30
0.0
 10
19188.77614305311
 20
-1049.563143119749
 30
0.0
 10
19187.4239474601
 20
-1047.596829559208
 30
0.0
 10
19186.52838104101
 20
-1046.483412783461
 30
0.0
 11
19189.39763054764
 21
-1055.269345694164
 31
0.0
 11
19189.53541551462
 21
-1055.047776096662
 31
0.0
 11
19189.81501538721
 21
-1054.273448981365
 31
0.0
 11
19189.81480955831
 21
-1052.731330640666
 31
0.0
 11
19188.88539467851
 21
-1050.063931162166
 31
0.0
 11
19186.52838104101
 21
-1046.483412783461
 31
0.0
  0
SPLINE
  5
192C0
330
1F
100
AcDbEntity
  8
0
  6
Continuous
 62
     7
100
AcDbSpline
210
0.0
220
0.0
230
1.0
 70
     8
 71
     3
 72
    11
 73
     7
 74
     5
 42
0.0000000001
 43
0.0000000001
 44
0.0000000001
 12
0.3387127896227961
 22
-0.9408898161559321
 32
0.0
 13
0.2216181747512574
 23
-0.9751335214317684
 33
0.0
 40
0.0
 40
0.0
 40
0.0
 40
0.0
 40
12.60845037354526
 40
27.4521901543158
 40
44.01719653076004
 40
45.36102707664693
 40
45.36102707664693
 40
45.36102707664693
 40
45.36102707664693
 10
18749.05394987021
 20
-675.1704207017706
 30
0.0
 10
18750.47749766982
 20
-679.1248082197625
 30
0.0
 10
18753.45196086825
 20
-687.7803451417626
 30
0.0
 10
18757.73939839127
 20
-701.8158392625984
 30
0.0
 10
18760.47231002532
 20
-712.3910828836161
 30
0.0
 10
18761.80730596978
 20
-718.209490582091
 30
0.0
 10
18761.90657839403
 20
-718.6462953195636
 30
0.0
 11
18749.05394987021
 21
-675.1704207017706
 31
0.0
 11
18753.14637286393
 21
-687.0962370202694
 31
0.0
 11
18757.47379131094
 21
-701.2951827650681
 31
0.0
 11
18761.60605985613
 21
-717.3364979518626
 31
0.0
 11
18761.90657839403
 21
-718.6462953195636
 31
0.0
  0
SPLINE
  5
192C1
330
1F
100
AcDbEntity
  8
0
  6
Continuous
 62
     7
100
AcDbSpline
210
0.0
220
0.0
230
1.0
 70
     8
 71
     3
 72
    12
 73
     8
 74
     6
 42
0.0000000001
 43
0.0000000001
 44
0.0000000001
 12
-0.3984007134499652
 22
-0.9172114649973355
 32
0.0
 13
-0.4400429733171966
 23
-0.8979767155300638
 33
0.0
 40
0.0
 40
0.0
 40
0.0
 40
0.0
 40
6.367882181459305
 40
16.27016553050349
 40
23.25413237165286
 40
27.39389024828378
 40
28.75253357041174
 40
28.75253357041174
 40
28.75253357041174
 40
28.75253357041174
 10
18736.95252107594
 20
-920.6684676777648
 30
0.0
 10
18736.10686480785
 20
-922.6153658592936
 30
0.0
 10
18733.91798133713
 20
-927.5775429151568
 30
0.0
 10
18730.6919426365
 20
-934.6261046829244
 30
0.0
 10
18727.69119090601
 20
-940.9600332371697
 30
0.0
 10
18725.87855896344
 20
-944.7052638519497
 30
0.0
 10
18725.07362496456
 20
-946.3518487015416
 30
0.0
 10
18724.87433781551
 20
-946.7585253908687
 30
0.0
 11
18736.95252107594
 21
-920.6684676777648
 31
0.0
 11
18734.38301900132
 21
-926.4949230809653
 31
0.0
 11
18730.26393667563
 21
-935.4998315379646
 31
0.0
 11
18727.27431763582
 21
-941.8115643297623
 31
0.0
 11
18725.47102420151
 21
-945.5379201993659
 31
0.0
 11
18724.87433781551
 21
-946.7585253908687
 31
0.0
  0
SPLINE
  5
192C2
330
1F
100
AcDbEntity
  8
0
  6
Continuous
 62
     7
100
AcDbSpline
210
0.0
220
0.0
230
1.0
 70
     8
 71
     3
 72
    13
 73
     9
 74
     7
 42
0.0000000001
 43
0.0000000001
 44
0.0000000001
 12
0.8299102218521447
 22
0.5578969650977895
 32
0.0
 13
-0.3351625503732318
 23
0.9421603180071379
 33
0.0
 40
0.0
 40
0.0
 40
0.0
 40
0.0
 40
0.5164950548494099
 40
2.07405624983764
 40
4.564919479801675
 40
8.052681486577874
 40
12.85996289215942
 40
18.80854410415068
 40
18.80854410415068
 40
18.80854410415068
 40
18.80854410415068
 10
19195.92612974612
 20
-1053.653961078861
 30
0.0
 10
19196.06901125464
 20
-1053.557910737665
 30
0.0
 10
19196.63467984343
 20
-1053.16014848697
 30
0.0
 10
19197.80317803301
 20
-1052.178597457167
 30
0.0
 10
19199.42327290137
 20
-1050.230320996339
 30
0.0
 10
19200.90762506375
 20
-1046.890551044818
 30
0.0
 10
19201.30413458707
 20
-1042.068275836503
 30
0.0
 10
19200.48027880604
 20
-1038.522392232259
 30
0.0
 10
19199.81569825601
 20
-1036.654219843465
 30
0.0
 11
19195.92612974612
 21
-1053.653961078861
 31
0.0
 11
19196.34858829921
 21
-1053.356814797363
 31
0.0
 11
19197.53970964061
 21
-1052.353207889162
 31
0.0
 11
19199.12868710782
 21
-1050.434992510461
 31
0.0
 11
19200.56504076292
 21
-1047.256726946765
 31
0.0
 11
19201.04797817652
 21
-1042.473764897261
 31
0.0
 11
19199.81569825601
 21
-1036.654219843465
 31
0.0
  0
SPLINE
  5
192C3
330
1F
100
AcDbEntity
  8
0
  6
Continuous
 62
     7
100
AcDbSpline
210
0.0
220
0.0
230
1.0
 70
     8
 71
     3
 72
    24
 73
    20
 74
    18
 42
0.0000000001
 43
0.0000000001
 44
0.0000000001
 12
-0.3352573460842346
 22
0.942126590165332
 32
0.0
 13
0.4543636783065332
 23
0.8908162817527289
 33
0.0
 40
0.0
 40
0.0
 40
0.0
 40
0.0
 40
10.25431346816672
 40
22.23292362521432
 40
35.53048461692729
 40
49.76943266834183
 40
64.66478198192866
 40
80.02081124729363
 40
95.69930457761435
 40
111.5994115882111
 40
127.6496808432069
 40
143.7948902654195
 40
159.6555030108476
 40
174.718150923683
 40
188.4662522261055
 40
200.3890344977679
 40
210.0982659602408
 40
217.4208196101673
 40
222.3398802222821
 40
222.3398802222821
 40
222.3398802222821
 40
222.3398802222821
 10
19199.81569825601
 20
-1036.654219843465
 30
0.0
 10
19198.66975361625
 20
-1033.433932716048
 30
0.0
 10
19196.29993580959
 20
-1026.410372245625
 30
0.0
 10
19192.9434221716
 20
-1015.048805383433
 30
0.0
 10
19189.80708462108
 20
-1002.249967431995
 30
0.0
 10
19187.20136838366
 20
-988.3397702557465
 30
0.0
 10
19185.38061633689
 20
-973.6112454921999
 30
0.0
 10
19184.53090552086
 20
-958.3125213821526
 30
0.0
 10
19184.76825221088
 20
-942.6561306382078
 30
0.0
 10
19186.1394163499
 20
-926.8258849881823
 30
0.0
 10
19188.62674770172
 20
-910.9758219470755
 30
0.0
 10
19192.13809411024
 20
-895.3359546978376
 30
0.0
 10
19196.4766284014
 20
-880.2498127071126
 30
0.0
 10
19201.32400986521
 20
-866.1645824134975
 30
0.0
 10
19206.28923319097
 20
-853.5235487698495
 30
0.0
 10
19210.97476441862
 20
-842.6989743277502
 30
0.0
 10
19215.03966946513
 20
-833.9443154188574
 30
0.0
 10
19218.24688767129
 20
-827.3674001116388
 30
0.0
 10
19220.08233387059
 20
-823.7228766523664
 30
0.0
 10
19220.82734802843
 20
-822.2622168909662
 30
0.0
 11
19199.81569825601
 21
-1036.654219843465
 31
0.0
 11
19196.54106017742
 21
-1026.936828724563
 31
0.0
 11
19193.15372941081
 21
-1015.447133708068
 31
0.0
 11
19189.9971401436
 21
-1002.529662108467
 31
0.0
 11
19187.38423249162
 21
-988.5325068541639
 31
0.0
 11
19185.56393655133
 21
-973.7488011663627
 31
0.0
 11
19184.71586388883
 21
-958.4162081841608
 31
0.0
 11
19184.95186337873
 21
-942.739491137863
 31
0.0
 11
19186.31651481503
 21
-926.8980540374666
 31
0.0
 11
19188.79267910322
 21
-911.0399408591666
 31
0.0
 11
19192.31450610831
 21
-895.2835287728667
 31
0.0
 11
19196.68308219462
 21
-880.0364116801633
 31
0.0
 11
19201.57204592442
 21
-865.7892577259641
 31
0.0
 11
19206.58932622513
 21
-852.9893675777699
 31
0.0
 11
19211.32018972504
 21
-842.0453432885675
 31
0.0
 11
19215.40639266513
 21
-833.2378396056666
 31
0.0
 11
19218.61481771893
 21
-826.6556058943642
 31
0.0
 11
19220.82734802843
 21
-822.2622168909662
 31
0.0
  0
SPLINE
  5
192C4
330
1F
100
AcDbEntity
  8
0
  6
Continuous
 62
     7
100
AcDbSpline
210
0.0
220
0.0
230
1.0
 70
     8
 71
     3
 72
    26
 73
    22
 74
    20
 42
0.0000000001
 43
0.0000000001
 44
0.0000000001
 12
-0.2842459962081765
 22
0.9587513826011523
 32
0.0
 13
0.4025497883897819
 23
0.9153980925626521
 33
0.0
 40
0.0
 40
0.0
 40
0.0
 40
0.0
 40
10.88250433803386
 40
23.6056128662398
 40
37.78121418787069
 40
53.0286995072822
 40
69.0414587262984
 40
85.59982634691403
 40
102.5366675821256
 40
119.7176226928844
 40
137.0515058322142
 40
154.4447261793372
 40
171.5869609677859
 40
187.9624728373573
 40
203.047954878197
 40
216.330160930716
 40
227.3549278575798
 40
235.9220779215196
 40
242.0002962968556
 40
245.6140287708331
 40
246.8023450123701
 40
246.8023450123701
 40
246.8023450123701
 40
246.8023450123701
 10
19186.52890584312
 20
-1046.482719934961
 30
0.0
 10
19185.49780308086
 20
-1043.004847908211
 30
0.0
 10
19183.36514046758
 20
-1035.429588256736
 30
0.0
 10
19180.34035408823
 20
-1023.201828491344
 30
0.0
 10
19177.49978695102
 20
-1009.438940375921
 30
0.0
 10
19175.11496945581
 20
-994.4765684177969
 30
0.0
 10
19173.41337949729
 20
-978.6204296225996
 30
0.0
 10
19172.56437731885
 20
-962.1306167385267
 30
0.0
 10
19172.67891734583
 20
-945.2291343543986
 30
0.0
 10
19173.80797761851
 20
-928.1058558816521
 30
0.0
 10
19175.94585758755
 20
-910.9263487171524
 30
0.0
 10
19179.02712521778
 20
-893.904955428391
 30
0.0
 10
19182.89944416949
 20
-877.3754944530285
 30
0.0
 10
19187.30603204278
 20
-861.7802483285455
 30
0.0
 10
19191.91172450604
 20
-847.5915902528152
 30
0.0
 10
19196.35738127242
 20
-835.2344199347109
 30
0.0
 10
19200.31999765267
 20
-825.0170502905868
 30
0.0
 10
19203.56055998662
 20
-817.0973355918247
 30
0.0
 10
19205.93765582528
 20
-811.4942455175318
 30
0.0
 10
19207.38165989543
 20
-808.1673299453273
 30
0.0
 10
19208.0246413575
 20
-806.7014640108544
 30
0.0
 10
19208.18409350802
 20
-806.3388698705663
 30
0.0
 11
19186.52890584312
 21
-1046.482719934961
 31
0.0
 11
19183.58303045472
 21
-1036.006522205663
 31
0.0
 11
19180.53284580071
 21
-1023.654442858568
 31
0.0
 11
19177.67386148824
 21
-1009.770139435967
 31
0.0
 11
19175.28084862123
 21
-994.7116103582652
 31
0.0
 11
19173.57792336311
 21
-978.7896599949627
 31
0.0
 11
19172.72974294112
 21
-962.2530301015652
 31
0.0
 11
19172.84386407432
 21
-945.3165733471633
 31
0.0
 11
19173.96918567433
 21
-928.1725111151704
 31
0.0
 11
19176.10104275174
 21
-910.9702237646617
 31
0.0
 11
19179.18793998154
 21
-893.8531218038676
 31
0.0
 11
19183.08579667653
 21
-877.1599217892626
 31
0.0
 11
19187.52758908834
 21
-861.3983270361664
 31
0.0
 11
19192.17692233474
 21
-847.0471783445644
 31
0.0
 11
19196.66791193032
 21
-834.5472579418601
 31
0.0
 11
19200.65159565712
 21
-824.2673868455627
 31
0.0
 11
19203.89454634671
 21
-816.3377379855594
 31
0.0
 11
19206.26814676843
 21
-810.7421361719669
 31
0.0
 11
19207.70676351272
 21
-807.4271031017655
 31
0.0
 11
19208.18409350802
 21
-806.3388698705663
 31
0.0
  0
LINE
  5
192CA
330
1F
100
AcDbEntity
  8
7A
100
AcDbLine
 10
19093.32735173989
 20
-1170.242822722752
 30
0.0
 11
19093.32735173989
 21
-1034.529142968797
 31
0.0
  0
LINE
  5
192D3
330
1F
100
AcDbEntity
  8
7A
100
AcDbLine
 10
18809.04575863911
 20
-818.671910784835
 30
0.0
 11
18668.09354979032
 21
-818.671910784835
 31
0.0
  0
ENDSEC
  0
SECTION
  2
OBJECTS
  0
DICTIONARY
  5
C
330
0
100
AcDbDictionary
281
     1
  3
ACAD_COLOR
350
BE
  3
ACAD_GROUP
350
D
  3
ACAD_LAYOUT
350
1A
  3
ACAD_MATERIAL
350
BD
  3
ACAD_MLINESTYLE
350
17
  3
ACAD_PLOTSETTINGS
350
19
  3
ACAD_PLOTSTYLENAME
350
E
  3
ACAD_TABLESTYLE
350
11A
  3
ACDBHEADERROUNDTRIPXREC
350
19474
  3
AcDbVariableDictionary
350
94
  3
AcmDictionary
350
5B
  3
AMG
350
41
  3
AMGSNAPSETTINGS
350
26B
  3
DWGPROPS
350
19473
  0
DICTIONARY
  5
5E1
330
2
100
AcDbDictionary
280
     1
281
     1
  3
ACAD_LAYERFILTERS
360
10B7F
  3
ACAD_LAYERSTATES
360
5E2
  3
ACLYDICTIONARY
360
10B7E
  0
DICTIONARY
  5
8F
330
1F
100
AcDbDictionary
280
     1
281
     1
  3
ACAD_SORTENTS
360
9429
  0
DICTIONARY
  5
10117
330
87
100
AcDbDictionary
280
     1
281
     1
  0
DICTIONARY
  5
BE
102
{ACAD_REACTORS
330
C
102
}
330
C
100
AcDbDictionary
281
     1
  0
DICTIONARY
  5
D
102
{ACAD_REACTORS
330
C
102
}
330
C
100
AcDbDictionary
281
     1
  0
DICTIONARY
  5
1A
102
{ACAD_REACTORS
330
C
102
}
330
C
100
AcDbDictionary
281
     1
  3
Layout1
350
1E
  3
Layout2
350
26
  3
Model
350
22
  0
DICTIONARY
  5
BD
102
{ACAD_REACTORS
330
C
102
}
330
C
100
AcDbDictionary
281
     1
  0
DICTIONARY
  5
17
102
{ACAD_REACTORS
330
C
102
}
330
C
100
AcDbDictionary
281
     1
  3
Standard
350
18
  0
DICTIONARY
  5
19
102
{ACAD_REACTORS
330
C
102
}
330
C
100
AcDbDictionary
281
     1
  0
ACDBDICTIONARYWDFLT
  5
E
102
{ACAD_REACTORS
330
C
102
}
330
C
100
AcDbDictionary
281
     1
  3
Normal
350
F
100
AcDbDictionaryWithDefault
340
F
  0
DICTIONARY
  5
11A
102
{ACAD_REACTORS
330
C
102
}
330
C
100
AcDbDictionary
281
     1
  3
Standard
350
11B
  0
DICTIONARY
  5
19474
102
{ACAD_REACTORS
330
C
102
}
330
C
100
AcDbDictionary
281
     1
  0
DICTIONARY
  5
94
102
{ACAD_REACTORS
330
C
102
}
330
C
100
AcDbDictionary
281
     1
  3
CTABLESTYLE
350
138
  3
DIMASSOC
350
96
  3
INDEXCTL
350
95
  3
PROJECTNAME
350
B168
  0
DICTIONARY
  5
5B
102
{ACAD_REACTORS
330
C
102
}
330
C
100
AcDbDictionary
281
     1
  3
AcmBOM
350
272
  3
AcmStdDictionary
350
61
  3
AMDTSECTSYM_ARROWCOLOR
350
123
  0
DICTIONARY
  5
41
102
{ACAD_REACTORS
330
C
102
}
330
C
100
AcDbDictionary
281
     1
  0
DICTIONARY
  5
26B
102
{ACAD_REACTORS
330
C
102
}
330
C
100
AcDbDictionary
281
     1
  0
XRECORD
  5
19473
102
{ACAD_REACTORS
330
C
102
}
330
C
100
AcDbXrecord
280
     1
  1
DWGPROPS COOKIE
  2

  3

  4

  6

  7

  8

  9

300
AmdtFileType=84
301
=
302
=
303
=
304
=
305
=
306
=
307
=
308
=
309
=
 40
0.8083211111111111
 41
2454167.418644826
 42
2454666.431998878
  1

 90
        1
  0
DICTIONARY
  5
10B7F
102
{ACAD_REACTORS
330
5E1
102
}
330
5E1
100
AcDbDictionary
281
     1
  0
DICTIONARY
  5
5E2
102
{ACAD_REACTORS
330
5E1
102
}
330
5E1
100
AcDbDictionary
281
     1
  0
DICTIONARY
  5
10B7E
102
{ACAD_REACTORS
330
5E1
102
}
330
5E1
100
AcDbDictionary
281
     1
1001
ACAD
1000
<All
  0
SORTENTSTABLE
  5
9429
102
{ACAD_REACTORS
330
8F
102
}
330
8F
100
AcDbSortentsTable
330
1F
  0
LAYOUT
  5
1E
102
{ACAD_XDICTIONARY
360
19475
102
}
102
{ACAD_REACTORS
330
1A
102
}
330
1A
100
AcDbPlotSettings
  1

  2

  4

  6

 40
0.0
 41
0.0
 42
0.0
 43
0.0
 44
0.0
 45
0.0
 46
0.0
 47
0.0
 48
0.0
 49
0.0
140
0.0
141
0.0
142
1.0
143
1.0
 70
   688
 72
     0
 73
     0
 74
     5
  7
monochrome uw.ctb
 75
    16
147
1.0
148
0.0
149
0.0
100
AcDbLayout
  1
Layout1
 70
     1
 71
     1
 10
0.0
 20
0.0
 11
420.0
 21
297.0
 12
0.0
 22
0.0
 32
0.0
 14
1.000000000000000E+20
 24
1.000000000000000E+20
 34
1.000000000000000E+20
 15
-1.000000000000000E+20
 25
-1.000000000000000E+20
 35
-1.000000000000000E+20
146
0.0
 13
0.0
 23
0.0
 33
0.0
 16
1.0
 26
0.0
 36
0.0
 17
0.0
 27
1.0
 37
0.0
 76
     0
330
1B
  0
LAYOUT
  5
26
102
{ACAD_XDICTIONARY
360
19479
102
}
102
{ACAD_REACTORS
330
1A
102
}
330
1A
100
AcDbPlotSettings
  1

  2

  4

  6

 40
0.0
 41
0.0
 42
0.0
 43
0.0
 44
0.0
 45
0.0
 46
0.0
 47
0.0
 48
0.0
 49
0.0
140
0.0
141
0.0
142
1.0
143
1.0
 70
   688
 72
     0
 73
     0
 74
     5
  7
monochrome uw.ctb
 75
    16
147
1.0
148
0.0
149
0.0
100
AcDbLayout
  1
Layout2
 70
     1
 71
     2
 10
0.0
 20
0.0
 11
12.0
 21
9.0
 12
0.0
 22
0.0
 32
0.0
 14
0.0
 24
0.0
 34
0.0
 15
0.0
 25
0.0
 35
0.0
146
0.0
 13
0.0
 23
0.0
 33
0.0
 16
1.0
 26
0.0
 36
0.0
 17
0.0
 27
1.0
 37
0.0
 76
     0
330
23
  0
LAYOUT
  5
22
102
{ACAD_XDICTIONARY
360
19477
102
}
102
{ACAD_REACTORS
330
1A
102
}
330
1A
100
AcDbPlotSettings
  1

  2
Adobe PDF
  4
A4
  6

 40
3.174999952316284
 41
3.174999952316284
 42
3.175003051757812
 43
3.17498779296875
 44
209.9733276367187
 45
297.0318298339844
 46
-0.0000000000000142
 47
78.97617299601188
 48
10891.18827994032
 49
2118.525542180123
140
12323.87549195795
141
3052.406039703264
142
1.0
143
7.035968077833545
 70
 11956
 72
     1
 73
     0
 74
     4
  7
monochrome uw.ctb
 75
     0
147
0.1421268528989562
148
-10891.18827994032
149
-2118.525542180123
100
AcDbLayout
  1
Model
 70
     1
 71
     0
 10
0.0
 20
0.0
 11
12.0
 21
9.0
 12
0.0
 22
0.0
 32
0.0
 14
0.0
 24
0.0
 34
0.0
 15
0.0
 25
0.0
 35
0.0
146
0.0
 13
0.0
 23
0.0
 33
0.0
 16
1.0
 26
0.0
 36
0.0
 17
0.0
 27
1.0
 37
0.0
 76
     0
330
1F
1001
ACAD_PSEXT
1000
Adobe PDF
1000
Adobe PDF Converter
1000
Eigene Dateien
1000

1070
     0
  0
MLINESTYLE
  5
18
102
{ACAD_REACTORS
330
17
102
}
330
17
100
AcDbMlineStyle
  2
STANDARD
 70
     0
  3

 62
   256
 51
90.0
 52
90.0
 71
     2
 49
0.5
 62
   256
  6
BYLAYER
 49
-0.5
 62
   256
  6
BYLAYER
  0
ACDBPLACEHOLDER
  5
F
102
{ACAD_REACTORS
330
E
102
}
330
E
  0
TABLESTYLE
  5
11B
102
{ACAD_REACTORS
330
11A
102
}
330
11A
100
AcDbTableStyle
  3
Standard
 70
     0
 71
     0
 40
1.5
 41
1.5
280
     0
281
     0
  7
STANDARD
140
4.5
170
     2
 62
     0
 63
     7
283
     0
274
    -2
284
     1
 64
     0
275
    -2
285
     1
 65
     0
276
    -2
286
     1
 66
     0
277
    -2
287
     1
 67
     0
278
    -2
288
     1
 68
     0
279
    -2
289
     1
 69
     0
  7
STANDARD
140
6.0
170
     5
 62
     0
 63
     7
283
     0
274
    -2
284
     1
 64
     0
275
    -2
285
     1
 65
     0
276
    -2
286
     1
 66
     0
277
    -2
287
     1
 67
     0
278
    -2
288
     1
 68
     0
279
    -2
289
     1
 69
     0
  7
STANDARD
140
4.5
170
     5
 62
     0
 63
     7
283
     0
274
    -2
284
     1
 64
     0
275
    -2
285
     1
 65
     0
276
    -2
286
     1
 66
     0
277
    -2
287
     1
 67
     0
278
    -2
288
     1
 68
     0
279
    -2
289
     1
 69
     0
  0
DICTIONARYVAR
  5
138
102
{ACAD_REACTORS
330
94
102
}
330
94
100
DictionaryVariables
280
     0
  1
STANDARD
  0
DICTIONARYVAR
  5
96
102
{ACAD_REACTORS
330
94
102
}
330
94
100
DictionaryVariables
280
     0
  1
2
  0
DICTIONARYVAR
  5
95
102
{ACAD_REACTORS
330
94
102
}
330
94
100
DictionaryVariables
280
     0
  1
0
  0
DICTIONARYVAR
  5
B168
102
{ACAD_REACTORS
330
94
102
}
330
94
100
DictionaryVariables
280
     0
  1

  0
DICTIONARY
  5
272
102
{ACAD_REACTORS
330
5B
102
}
330
5B
100
AcDbDictionary
281
     1
  0
DICTIONARY
  5
61
102
{ACAD_REACTORS
330
5B
102
}
330
5B
100
AcDbDictionary
281
     1
  0
XRECORD
  5
123
102
{ACAD_REACTORS
330
5B
102
}
330
5B
100
AcDbXrecord
280
     1
 90
-1023410169
  0
DICTIONARY
  5
19475
330
1E
100
AcDbDictionary
280
     1
281
     1
  3
ACAD_XREC_ROUNDTRIP
360
19476
  0
DICTIONARY
  5
19479
330
26
100
AcDbDictionary
280
     1
281
     1
  3
ACAD_XREC_ROUNDTRIP
360
1947A
  0
DICTIONARY
  5
19477
330
22
100
AcDbDictionary
280
     1
281
     1
  3
ACAD_XREC_ROUNDTRIP
360
19478
  0
XRECORD
  5
19476
102
{ACAD_REACTORS
330
19475
102
}
330
19475
100
AcDbXrecord
280
     1
102
SHADEPLOT
 70
     0
102
SHADEPLOTRESLEVEL
 70
     2
102
SHADEPLOTCUSTOMDPI
 70
   300
  0
XRECORD
  5
1947A
102
{ACAD_REACTORS
330
19479
102
}
330
19479
100
AcDbXrecord
280
     1
102
SHADEPLOT
 70
     0
102
SHADEPLOTRESLEVEL
 70
     2
102
SHADEPLOTCUSTOMDPI
 70
   300
  0
XRECORD
  5
19478
102
{ACAD_REACTORS
330
19477
102
}
330
19477
100
AcDbXrecord
280
     1
102
SHADEPLOT
 70
     0
102
SHADEPLOTRESLEVEL
 70
     2
102
SHADEPLOTCUSTOMDPI
 70
   300
  0
ENDSEC
  0
EOF
